  0
SECTION
  2
HEADER
  9
$ACADVER
  1
AC1015
  9
$ACADMAINTVER
 70
    20
  9
$DWGCODEPAGE
  3
ANSI_1252
  9
$INSBASE
 10
0.0
 20
0.0
 30
0.0
  9
$EXTMIN
 10
-72.61524791621514
 20
-48.33419685523745
 30
-0.0000000349181948
  9
$EXTMAX
 10
86.24080005060045
 20
59.76287918603384
 30
0.0000000814935747
  9
$LIMMIN
 10
-170.0
 20
-170.0
  9
$LIMMAX
 10
519.0
 20
260.0
  9
$ORTHOMODE
 70
     0
  9
$REGENMODE
 70
     1
  9
$FILLMODE
 70
     1
  9
$QTEXTMODE
 70
     0
  9
$MIRRTEXT
 70
     0
  9
$LTSCALE
 40
1.0
  9
$ATTMODE
 70
     1
  9
$TEXTSIZE
 40
3.5
  9
$TRACEWID
 40
1.0
  9
$TEXTSTYLE
  7
MM_STANDARD
  9
$CLAYER
  8
0
  9
$CELTYPE
  6
ByLayer
  9
$CECOLOR
 62
   256
  9
$CELTSCALE
 40
1.0
  9
$DISPSILH
 70
     0
  9
$DIMSCALE
 40
1.0
  9
$DIMASZ
 40
2.5
  9
$DIMEXO
 40
0.0
  9
$DIMDLI
 40
3.75
  9
$DIMRND
 40
0.0
  9
$DIMDLE
 40
0.0
  9
$DIMEXE
 40
1.25
  9
$DIMTP
 40
0.0
  9
$DIMTM
 40
0.0
  9
$DIMTXT
 40
3.5
  9
$DIMCEN
 40
0.0
  9
$DIMTSZ
 40
0.0
  9
$DIMTOL
 70
     0
  9
$DIMLIM
 70
     0
  9
$DIMTIH
 70
     0
  9
$DIMTOH
 70
     0
  9
$DIMSE1
 70
     0
  9
$DIMSE2
 70
     0
  9
$DIMTAD
 70
     1
  9
$DIMZIN
 70
     9
  9
$DIMBLK
  1

  9
$DIMASO
 70
     1
  9
$DIMSHO
 70
     1
  9
$DIMPOST
  1

  9
$DIMAPOST
  1

  9
$DIMALT
 70
     0
  9
$DIMALTD
 70
     3
  9
$DIMALTF
 40
0.039370078
  9
$DIMLFAC
 40
1.0
  9
$DIMTOFL
 70
     0
  9
$DIMTVP
 40
0.0
  9
$DIMTIX
 70
     0
  9
$DIMSOXD
 70
     0
  9
$DIMSAH
 70
     0
  9
$DIMBLK1
  1

  9
$DIMBLK2
  1

  9
$DIMSTYLE
  2
MM_STANDARD
  9
$DIMCLRD
 70
   256
  9
$DIMCLRE
 70
   256
  9
$DIMCLRT
 70
   256
  9
$DIMTFAC
 40
1.0
  9
$DIMGAP
 40
0.625
  9
$DIMJUST
 70
     0
  9
$DIMSD1
 70
     0
  9
$DIMSD2
 70
     0
  9
$DIMTOLJ
 70
     1
  9
$DIMTZIN
 70
     8
  9
$DIMALTZ
 70
     0
  9
$DIMALTTZ
 70
     0
  9
$DIMUPT
 70
     0
  9
$DIMDEC
 70
     2
  9
$DIMTDEC
 70
     2
  9
$DIMALTU
 70
     2
  9
$DIMALTTD
 70
     3
  9
$DIMTXSTY
  7
MM_STANDARD
  9
$DIMAUNIT
 70
     0
  9
$DIMADEC
 70
     2
  9
$DIMALTRND
 40
0.0
  9
$DIMAZIN
 70
     2
  9
$DIMDSEP
 70
    46
  9
$DIMATFIT
 70
     3
  9
$DIMFRAC
 70
     0
  9
$DIMLDRBLK
  1

  9
$DIMLUNIT
 70
     2
  9
$DIMLWD
 70
    -1
  9
$DIMLWE
 70
    -1
  9
$DIMTMOVE
 70
     0
  9
$LUNITS
 70
     2
  9
$LUPREC
 70
     4
  9
$SKETCHINC
 40
1.0
  9
$FILLETRAD
 40
0.8
  9
$AUNITS
 70
     0
  9
$AUPREC
 70
     0
  9
$MENU
  1
.
  9
$ELEVATION
 40
0.0
  9
$PELEVATION
 40
0.0
  9
$THICKNESS
 40
0.0
  9
$LIMCHECK
 70
     0
  9
$CHAMFERA
 40
0.0
  9
$CHAMFERB
 40
0.0
  9
$CHAMFERC
 40
0.0
  9
$CHAMFERD
 40
0.0
  9
$SKPOLY
 70
     0
  9
$TDCREATE
 40
2453353.800459155
  9
$TDUCREATE
 40
2453353.717125822
  9
$TDUPDATE
 40
2460185.647908414
  9
$TDUUPDATE
 40
2460185.564575081
  9
$TDINDWG
 40
16384.7208140394
  9
$TDUSRTIMER
 40
16384.7207428472
  9
$USRTIMER
 70
     1
  9
$ANGBASE
 50
0.0
  9
$ANGDIR
 70
     0
  9
$PDMODE
 70
     1
  9
$PDSIZE
 40
0.0
  9
$PLINEWID
 40
0.0
  9
$SPLFRAME
 70
     0
  9
$SPLINETYPE
 70
     6
  9
$SPLINESEGS
 70
     8
  9
$HANDSEED
  5
29E3B
  9
$SURFTAB1
 70
     6
  9
$SURFTAB2
 70
     6
  9
$SURFTYPE
 70
     6
  9
$SURFU
 70
     6
  9
$SURFV
 70
     6
  9
$UCSBASE
  2

  9
$UCSNAME
  2

  9
$UCSORG
 10
0.0
 20
0.0
 30
0.0
  9
$UCSXDIR
 10
1.0
 20
0.0
 30
0.0
  9
$UCSYDIR
 10
0.0
 20
1.0
 30
0.0
  9
$UCSORTHOREF
  2

  9
$UCSORTHOVIEW
 70
     0
  9
$UCSORGTOP
 10
0.0
 20
0.0
 30
0.0
  9
$UCSORGBOTTOM
 10
0.0
 20
0.0
 30
0.0
  9
$UCSORGLEFT
 10
0.0
 20
0.0
 30
0.0
  9
$UCSORGRIGHT
 10
0.0
 20
0.0
 30
0.0
  9
$UCSORGFRONT
 10
0.0
 20
0.0
 30
0.0
  9
$UCSORGBACK
 10
0.0
 20
0.0
 30
0.0
  9
$PUCSBASE
  2

  9
$PUCSNAME
  2

  9
$PUCSORG
 10
0.0
 20
0.0
 30
0.0
  9
$PUCSXDIR
 10
1.0
 20
0.0
 30
0.0
  9
$PUCSYDIR
 10
0.0
 20
1.0
 30
0.0
  9
$PUCSORTHOREF
  2

  9
$PUCSORTHOVIEW
 70
     0
  9
$PUCSORGTOP
 10
0.0
 20
0.0
 30
0.0
  9
$PUCSORGBOTTOM
 10
0.0
 20
0.0
 30
0.0
  9
$PUCSORGLEFT
 10
0.0
 20
0.0
 30
0.0
  9
$PUCSORGRIGHT
 10
0.0
 20
0.0
 30
0.0
  9
$PUCSORGFRONT
 10
0.0
 20
0.0
 30
0.0
  9
$PUCSORGBACK
 10
0.0
 20
0.0
 30
0.0
  9
$USERI1
 70
     0
  9
$USERI2
 70
     0
  9
$USERI3
 70
     0
  9
$USERI4
 70
     0
  9
$USERI5
 70
     0
  9
$USERR1
 40
0.0
  9
$USERR2
 40
0.0
  9
$USERR3
 40
0.0
  9
$USERR4
 40
0.0
  9
$USERR5
 40
0.0
  9
$WORLDVIEW
 70
     1
  9
$SHADEDGE
 70
     3
  9
$SHADEDIF
 70
    70
  9
$TILEMODE
 70
     1
  9
$MAXACTVP
 70
    64
  9
$PINSBASE
 10
0.0
 20
0.0
 30
0.0
  9
$PLIMCHECK
 70
     0
  9
$PEXTMIN
 10
0.0
 20
0.0
 30
0.0
  9
$PEXTMAX
 10
0.0
 20
0.0
 30
0.0
  9
$PLIMMIN
 10
0.0
 20
0.0
  9
$PLIMMAX
 10
12.0
 20
9.0
  9
$UNITMODE
 70
     0
  9
$VISRETAIN
 70
     0
  9
$PLINEGEN
 70
     0
  9
$PSLTSCALE
 70
     1
  9
$TREEDEPTH
 70
  3020
  9
$CMLSTYLE
  2
Standard
  9
$CMLJUST
 70
     0
  9
$CMLSCALE
 40
20.0
  9
$PROXYGRAPHICS
 70
     0
  9
$MEASUREMENT
 70
     1
  9
$CELWEIGHT
370
    -1
  9
$ENDCAPS
280
     0
  9
$JOINSTYLE
280
     0
  9
$LWDISPLAY
290
     0
  9
$INSUNITS
 70
     4
  9
$HYPERLINKBASE
  1

  9
$STYLESHEET
  1

  9
$XEDIT
290
     1
  9
$CEPSNTYPE
380
     0
  9
$PSTYLEMODE
290
     1
  9
$FINGERPRINTGUID
  2
{049C219F-BC74-4B97-8A86-7E4B06A8BFF9}
  9
$VERSIONGUID
  2
{E9F10A2D-ADC7-4DCF-91EE-61D09A74A84F}
  9
$EXTNAMES
290
     1
  9
$PSVPSCALE
 40
0.0
  9
$OLESTARTUP
290
     0
  0
ENDSEC
  0
SECTION
  2
CLASSES
  0
CLASS
  1
ACDBDICTIONARYWDFLT
  2
AcDbDictionaryWithDefault
  3
ObjectDBX Classes
 90
        0
280
     0
281
     0
  0
CLASS
  1
ACDBPLACEHOLDER
  2
AcDbPlaceHolder
  3
ObjectDBX Classes
 90
        0
280
     0
281
     0
  0
CLASS
  1
LAYOUT
  2
AcDbLayout
  3
ObjectDBX Classes
 90
        0
280
     0
281
     0
  0
CLASS
  1
DICTIONARYVAR
  2
AcDbDictionaryVar
  3
ObjectDBX Classes
 90
        0
280
     0
281
     0
  0
CLASS
  1
TABLESTYLE
  2
AcDbTableStyle
  3
ObjectDBX Classes
 90
     4095
280
     0
281
     0
  0
CLASS
  1
SCALE
  2
AcDbScale
  3
ObjectDBX Classes
 90
     1153
280
     0
281
     0
  0
CLASS
  1
RASTERVARIABLES
  2
AcDbRasterVariables
  3
ISM
 90
        0
280
     0
281
     0
  0
CLASS
  1
SORTENTSTABLE
  2
AcDbSortentsTable
  3
ObjectDBX Classes
 90
        0
280
     0
281
     0
  0
CLASS
  1
MATERIAL
  2
AcDbMaterial
  3
ObjectDBX Classes
 90
     1153
280
     0
281
     0
  0
CLASS
  1
VISUALSTYLE
  2
AcDbVisualStyle
  3
ObjectDBX Classes
 90
     4095
280
     0
281
     0
  0
CLASS
  1
MLEADERSTYLE
  2
AcDbMLeaderStyle
  3
ACDB_MLEADERSTYLE_CLASS
 90
     4095
280
     0
281
     0
  0
CLASS
  1
ACDBSECTIONVIEWSTYLE
  2
AcDbSectionViewStyle
  3
ObjectDBX Classes
 90
     1025
280
     0
281
     0
  0
CLASS
  1
ACDBDETAILVIEWSTYLE
  2
AcDbDetailViewStyle
  3
ObjectDBX Classes
 90
     1025
280
     0
281
     0
  0
CLASS
  1
CELLSTYLEMAP
  2
AcDbCellStyleMap
  3
ObjectDBX Classes
 90
     1152
280
     0
281
     0
  0
ENDSEC
  0
SECTION
  2
TABLES
  0
TABLE
  2
VPORT
  5
8
330
0
100
AcDbSymbolTable
 70
     1
  0
VPORT
  5
97
330
8
100
AcDbSymbolTableRecord
100
AcDbViewportTableRecord
  2
*Active
 70
     0
 10
0.0
 20
0.0
 11
1.0
 21
1.0
 12
6.812776067192663
 22
5.714341165398195
 13
0.0
 23
0.0
 14
5.0
 24
5.0
 15
5.0
 25
5.0
 16
0.0
 26
0.0
 36
1.0
 17
0.0
 27
0.0
 37
0.0
 40
108.8383131341257
 41
1.597254004576659
 42
50.0
 43
0.0
 44
0.0
 50
0.0
 51
0.0
 71
    16
 72
  2000
 73
     1
 74
     3
 75
     0
 76
     0
 77
     0
 78
     0
281
     0
 65
     1
110
0.0
120
0.0
130
0.0
111
1.0
121
0.0
131
0.0
112
0.0
122
1.0
132
0.0
 79
     0
146
0.0
1001
ACAD_NAV_VCDISPLAY
1070
     3
  0
ENDTAB
  0
TABLE
  2
LTYPE
  5
5
330
0
100
AcDbSymbolTable
 70
     5
  0
LTYPE
  5
14
330
5
100
AcDbSymbolTableRecord
100
AcDbLinetypeTableRecord
  2
ByBlock
 70
     0
  3

 72
    65
 73
     0
 40
0.0
  0
LTYPE
  5
15
330
5
100
AcDbSymbolTableRecord
100
AcDbLinetypeTableRecord
  2
ByLayer
 70
     0
  3

 72
    65
 73
     0
 40
0.0
  0
LTYPE
  5
16
330
5
100
AcDbSymbolTableRecord
100
AcDbLinetypeTableRecord
  2
Continuous
 70
     0
  3
Solid line
 72
    65
 73
     0
 40
0.0
  0
LTYPE
  5
29CE9
330
5
100
AcDbSymbolTableRecord
100
AcDbLinetypeTableRecord
  2
CENTER2
 70
     0
  3
Center (.5x) ___ _ ___ _ ___ _ ___ _ ___ _ ___
 72
    65
 73
     4
 40
28.57499999999999
 49
19.05
 74
     4
 75
     0
340
0
 46
1.0
 50
0.0
 44
0.0
 45
0.0
 49
-3.174999999999998
 74
     4
 75
     0
340
0
 46
1.0
 50
0.0
 44
0.0
 45
0.0
 49
3.174999999999998
 74
     4
 75
     0
340
0
 46
1.0
 50
0.0
 44
0.0
 45
0.0
 49
-3.174999999999998
 74
     4
 75
     0
340
0
 46
1.0
 50
0.0
 44
0.0
 45
0.0
  0
LTYPE
  5
29CEA
330
5
100
AcDbSymbolTableRecord
100
AcDbLinetypeTableRecord
  2
HIDDEN
 70
     0
  3
Hidden __ __ __ __ __ __ __ __ __ __ __ __ __ _
 72
    65
 73
     2
 40
9.524999999999996
 49
6.349999999999997
 74
     4
 75
     0
340
0
 46
1.0
 50
0.0
 44
0.0
 45
0.0
 49
-3.174999999999998
 74
     4
 75
     0
340
0
 46
1.0
 50
0.0
 44
0.0
 45
0.0
  0
ENDTAB
  0
TABLE
  2
LAYER
  5
2
102
{ACAD_XDICTIONARY
360
29CF6
102
}
330
0
100
AcDbSymbolTable
 70
    13
  0
LAYER
  5
10
102
{ACAD_XDICTIONARY
360
29CED
102
}
330
2
100
AcDbSymbolTableRecord
100
AcDbLayerTableRecord
  2
0
 70
     0
 62
     7
  6
Continuous
370
    -3
390
F
  0
LAYER
  5
23
102
{ACAD_XDICTIONARY
360
29CEE
102
}
330
2
100
AcDbSymbolTableRecord
100
AcDbLayerTableRecord
  2
1
 70
     0
 62
     4
  6
Continuous
370
    50
390
F
  0
LAYER
  5
25
102
{ACAD_XDICTIONARY
360
29CEF
102
}
330
2
100
AcDbSymbolTableRecord
100
AcDbLayerTableRecord
  2
2
 70
     0
 62
     7
  6
Continuous
370
    25
390
F
  0
LAYER
  5
173A
102
{ACAD_XDICTIONARY
360
29CF0
102
}
330
2
100
AcDbSymbolTableRecord
100
AcDbLayerTableRecord
  2
SK2
 70
     0
 62
     7
  6
Continuous
370
    25
390
F
  0
LAYER
  5
2A
102
{ACAD_XDICTIONARY
360
29CF1
102
}
330
2
100
AcDbSymbolTableRecord
100
AcDbLayerTableRecord
  2
4
 70
     0
 62
     2
  6
CENTER2
370
    25
390
F
  0
LAYER
  5
2E
102
{ACAD_XDICTIONARY
360
29CF2
102
}
330
2
100
AcDbSymbolTableRecord
100
AcDbLayerTableRecord
  2
SK6
 70
     0
 62
     5
  6
Continuous
370
    -3
390
F
  0
LAYER
  5
2F
330
2
100
AcDbSymbolTableRecord
100
AcDbLayerTableRecord
  2
DEFPOINTS
 70
     0
 62
     7
  6
Continuous
290
     0
370
    25
390
F
  0
LAYER
  5
375
102
{ACAD_XDICTIONARY
360
29CF3
102
}
330
2
100
AcDbSymbolTableRecord
100
AcDbLayerTableRecord
  2
CUT
 70
     0
 62
     1
  6
Continuous
370
    25
390
F
  0
LAYER
  5
376
102
{ACAD_XDICTIONARY
360
29CF4
102
}
330
2
100
AcDbSymbolTableRecord
100
AcDbLayerTableRecord
  2
NOCUT
 70
     0
 62
     7
  6
Continuous
370
    -3
390
F
  0
LAYER
  5
49B
102
{ACAD_XDICTIONARY
360
29CF5
102
}
330
2
100
AcDbSymbolTableRecord
100
AcDbLayerTableRecord
  2
INFTOTAL
 70
     0
 62
     9
  6
Continuous
370
    18
390
F
1001
AcAecLayerStandard
1000

1000

  0
LAYER
  5
1D28
330
2
100
AcDbSymbolTableRecord
100
AcDbLayerTableRecord
  2
SK4
 70
     0
 62
     2
  6
CENTER2
370
    25
390
F
  0
LAYER
  5
8BCD
330
2
100
AcDbSymbolTableRecord
100
AcDbLayerTableRecord
  2
SK1
 70
     0
 62
     4
  6
Continuous
370
    50
390
F
  0
LAYER
  5
14429
330
2
100
AcDbSymbolTableRecord
100
AcDbLayerTableRecord
  2
SK3
 70
     0
 62
     1
  6
HIDDEN
370
    35
390
F
  0
ENDTAB
  0
TABLE
  2
STYLE
  5
3
330
0
100
AcDbSymbolTable
 70
     2
  0
STYLE
  5
11
330
3
100
AcDbSymbolTableRecord
100
AcDbTextStyleTableRecord
  2
Standard
 70
     0
 40
0.0
 41
1.0
 50
0.0
 71
     0
 42
5.0
  3
monos.ttf
  4

1001
ACAD
1000
Monospac821 BT
1071
       49
  0
STYLE
  5
8B9
330
3
100
AcDbSymbolTableRecord
100
AcDbTextStyleTableRecord
  2
MM_STANDARD
 70
     0
 40
3.5
 41
1.0
 50
0.0
 71
     0
 42
3.5
  3
monos.ttf
  4

1001
ACAD
1000
Monospac821 BT
1071
       49
  0
ENDTAB
  0
TABLE
  2
VIEW
  5
6
330
0
100
AcDbSymbolTable
 70
     0
  0
ENDTAB
  0
TABLE
  2
UCS
  5
7
330
0
100
AcDbSymbolTable
 70
     0
  0
ENDTAB
  0
TABLE
  2
APPID
  5
9
330
0
100
AcDbSymbolTable
 70
    25
  0
APPID
  5
12
330
9
100
AcDbSymbolTableRecord
100
AcDbRegAppTableRecord
  2
ACAD
 70
     0
  0
APPID
  5
29CD1
330
9
100
AcDbSymbolTableRecord
100
AcDbRegAppTableRecord
  2
ACAD_PSEXT
 70
     0
  0
APPID
  5
29CD2
330
9
100
AcDbSymbolTableRecord
100
AcDbRegAppTableRecord
  2
ACAD_EXEMPT_FROM_CAD_STANDARDS
 70
     0
  0
APPID
  5
29CD3
330
9
100
AcDbSymbolTableRecord
100
AcDbRegAppTableRecord
  2
ACAD_MLEADERVER
 70
     0
  0
APPID
  5
29CD4
330
9
100
AcDbSymbolTableRecord
100
AcDbRegAppTableRecord
  2
ACAD_DSTYLE_DIMJAG
 70
     0
  0
APPID
  5
29CD5
330
9
100
AcDbSymbolTableRecord
100
AcDbRegAppTableRecord
  2
ACAD_DSTYLE_DIMBREAK
 70
     0
  0
APPID
  5
29CD6
330
9
100
AcDbSymbolTableRecord
100
AcDbRegAppTableRecord
  2
ACAD_DSTYLE_DIMTALN
 70
     0
  0
APPID
  5
29CD7
330
9
100
AcDbSymbolTableRecord
100
AcDbRegAppTableRecord
  2
AcAecLayerStandard
 70
     0
  0
APPID
  5
29CD8
330
9
100
AcDbSymbolTableRecord
100
AcDbRegAppTableRecord
  2
DCO15
 70
     0
  0
APPID
  5
29CD9
330
9
100
AcDbSymbolTableRecord
100
AcDbRegAppTableRecord
  2
AcadAnnoPO
 70
     0
  0
APPID
  5
29CDA
330
9
100
AcDbSymbolTableRecord
100
AcDbRegAppTableRecord
  2
ACAD_DSTYLE_DIMRADIAL_EXTENSION
 70
     0
  0
APPID
  5
29CDB
330
9
100
AcDbSymbolTableRecord
100
AcDbRegAppTableRecord
  2
AcadAnnotative
 70
     0
  0
APPID
  5
29CDC
330
9
100
AcDbSymbolTableRecord
100
AcDbRegAppTableRecord
  2
AcDbDynamicBlockGUID
 70
     0
  0
APPID
  5
29CDD
330
9
100
AcDbSymbolTableRecord
100
AcDbRegAppTableRecord
  2
AcDbBlockRepETag
 70
     0
  0
APPID
  5
29CDE
330
9
100
AcDbSymbolTableRecord
100
AcDbRegAppTableRecord
  2
MCAD_NO_VIS
 70
     0
  0
APPID
  5
29CDF
330
9
100
AcDbSymbolTableRecord
100
AcDbRegAppTableRecord
  2
ACAD_TEMP_GRAPHIC
 70
     0
  0
APPID
  5
29CE0
330
9
100
AcDbSymbolTableRecord
100
AcDbRegAppTableRecord
  2
ACATTRIBSERVICES
 70
     0
  0
APPID
  5
29CE1
330
9
100
AcDbSymbolTableRecord
100
AcDbRegAppTableRecord
  2
DESIGNERASSEMBLIES
 70
     0
  0
APPID
  5
29CE2
330
9
100
AcDbSymbolTableRecord
100
AcDbRegAppTableRecord
  2
ACAD_NAV_VCDISPLAY
 70
     0
  0
APPID
  5
29CE3
330
9
100
AcDbSymbolTableRecord
100
AcDbRegAppTableRecord
  2
ACAD_DSTYLE_DIM_LINETYPE
 70
     0
  0
APPID
  5
29CE4
330
9
100
AcDbSymbolTableRecord
100
AcDbRegAppTableRecord
  2
ACAD_DSTYLE_DIM_EXT1_LINETYPE
 70
     0
  0
APPID
  5
29CE5
330
9
100
AcDbSymbolTableRecord
100
AcDbRegAppTableRecord
  2
ACAD_DSTYLE_DIM_EXT2_LINETYPE
 70
     0
  0
APPID
  5
29CE6
330
9
100
AcDbSymbolTableRecord
100
AcDbRegAppTableRecord
  2
ACAD_DSTYLE_DIMARC_LENGTH_SYMBOL
 70
     0
  0
APPID
  5
29CE7
330
9
100
AcDbSymbolTableRecord
100
AcDbRegAppTableRecord
  2
AcDbAttr
 70
     0
  0
APPID
  5
29CE8
330
9
100
AcDbSymbolTableRecord
100
AcDbRegAppTableRecord
  2
AcadAnnoMonitorAlertIconDisabled
 70
     0
  0
ENDTAB
  0
TABLE
  2
DIMSTYLE
  5
A
330
0
100
AcDbSymbolTable
 70
     2
100
AcDbDimStyleTable
 71
     0
  0
DIMSTYLE
105
27
330
A
100
AcDbSymbolTableRecord
100
AcDbDimStyleTableRecord
  2
Standard
 70
     0
 77
     1
276
     1
278
     0
340
11
  0
DIMSTYLE
105
3F
102
{ACAD_REACTORS
330
28EA8
330
28ED0
330
28EDD
330
28EEC
330
29027
330
29162
330
29C0D
102
}
330
A
100
AcDbSymbolTableRecord
100
AcDbDimStyleTableRecord
  2
MM_STANDARD
 70
     0
 41
2.5
 42
0.0
 43
3.75
 44
1.25
 73
     0
 74
     0
 77
     1
 78
     1
140
3.5
141
0.0
143
0.039370078
147
0.625
171
     3
176
   256
177
   256
178
   256
179
     2
271
     2
272
     2
274
     3
284
     8
340
8B9
371
    -1
372
    -1
1001
ACAD_DSTYLE_DIMJAG
1070
   388
1040
1.5
1001
ACAD_DSTYLE_DIMTALN
1070
   392
1070
     0
  0
ENDTAB
  0
TABLE
  2
BLOCK_RECORD
  5
1
330
0
100
AcDbSymbolTable
 70
    31
  0
BLOCK_RECORD
  5
1F
102
{ACAD_XDICTIONARY
360
29D34
102
}
330
1
100
AcDbSymbolTableRecord
100
AcDbBlockTableRecord
  2
*Model_Space
340
22
  0
BLOCK_RECORD
  5
73
330
1
100
AcDbSymbolTableRecord
100
AcDbBlockTableRecord
  2
*Paper_Space
340
74
  0
BLOCK_RECORD
  5
962
330
1
100
AcDbSymbolTableRecord
100
AcDbBlockTableRecord
  2
CERO_POINT
340
0
102
{BLKREFS
331
29324
102
}
1001
ACAD
1000
DesignCenter Data
1002
{
1070
     1
1070
     4
1002
}
  0
BLOCK_RECORD
  5
28EB4
330
1
100
AcDbSymbolTableRecord
100
AcDbBlockTableRecord
  2
*D8
340
0
  0
BLOCK_RECORD
  5
28EDC
330
1
100
AcDbSymbolTableRecord
100
AcDbBlockTableRecord
  2
*D10
340
0
  0
BLOCK_RECORD
  5
28EEB
330
1
100
AcDbSymbolTableRecord
100
AcDbBlockTableRecord
  2
*D11
340
0
  0
BLOCK_RECORD
  5
28EF9
330
1
100
AcDbSymbolTableRecord
100
AcDbBlockTableRecord
  2
*D12
340
0
  0
BLOCK_RECORD
  5
29032
330
1
100
AcDbSymbolTableRecord
100
AcDbBlockTableRecord
  2
*D13
340
0
  0
BLOCK_RECORD
  5
2916D
330
1
100
AcDbSymbolTableRecord
100
AcDbBlockTableRecord
  2
*D14
340
0
  0
BLOCK_RECORD
  5
295E5
330
1
100
AcDbSymbolTableRecord
100
AcDbBlockTableRecord
  2
_NONE
340
0
  0
BLOCK_RECORD
  5
29C18
330
1
100
AcDbSymbolTableRecord
100
AcDbBlockTableRecord
  2
*D29
340
0
  0
ENDTAB
  0
ENDSEC
  0
SECTION
  2
BLOCKS
  0
BLOCK
  5
20
330
1F
100
AcDbEntity
  8
0
100
AcDbBlockBegin
  2
*Model_Space
 70
     0
 10
0.0
 20
0.0
 30
0.0
  3
*Model_Space
  1

  0
ENDBLK
  5
21
330
1F
100
AcDbEntity
  8
0
100
AcDbBlockEnd
  0
BLOCK
  5
75
330
73
100
AcDbEntity
 67
     1
  8
0
100
AcDbBlockBegin
  2
*Paper_Space
 70
     0
 10
0.0
 20
0.0
 30
0.0
  3
*Paper_Space
  1

  0
ENDBLK
  5
76
330
73
100
AcDbEntity
 67
     1
  8
0
100
AcDbBlockEnd
  0
BLOCK
  5
29CF7
330
962
100
AcDbEntity
  8
0
100
AcDbBlockBegin
  2
CERO_POINT
 70
     0
 10
0.0
 20
0.0
 30
0.0
  3
CERO_POINT
  1

  0
CIRCLE
  5
964
102
{ACAD_REACTORS
330
969
102
}
330
962
100
AcDbEntity
  8
SK2
100
AcDbCircle
 10
0.0
 20
0.0
 30
0.0
 40
2.5
  0
LINE
  5
965
330
962
100
AcDbEntity
  8
SK2
100
AcDbLine
 10
0.0900000000037835
 20
0.0
 30
0.0
 11
-0.0899999999965076
 21
0.0
 31
0.0
  0
LINE
  5
966
330
962
100
AcDbEntity
  8
SK2
100
AcDbLine
 10
0.0
 20
0.0899999999999182
 30
0.0
 11
0.0
 21
-0.0899999999999182
 31
0.0
  0
LINE
  5
967
102
{ACAD_REACTORS
330
969
102
}
330
962
100
AcDbEntity
  8
SK2
100
AcDbLine
 10
0.0
 20
-2.5
 30
0.0
 11
0.0
 21
2.5
 31
0.0
  0
LINE
  5
968
102
{ACAD_REACTORS
330
969
102
}
330
962
100
AcDbEntity
  8
SK2
100
AcDbLine
 10
2.5
 20
0.0
 30
0.0
 11
-2.5
 21
0.0
 31
0.0
  0
HATCH
  5
969
330
962
100
AcDbEntity
  8
SK2
100
AcDbHatch
 10
0.0
 20
0.0
 30
0.0
210
0.0
220
0.0
230
1.0
  2
ANSI31
 70
     0
 71
     1
 91
        2
 92
        7
 72
     1
 73
     1
 93
        3
 10
0.0
 20
-2.5
 42
0.4142135623730951
 10
2.5
 20
0.0
 42
0.0
 10
0.0
 20
0.0
 42
0.0
 97
        3
330
964
330
968
330
967
 92
        7
 72
     1
 73
     1
 93
        3
 10
0.0
 20
0.0
 42
0.0
 10
0.0
 20
2.5
 42
0.4142135623730951
 10
-2.5
 20
0.0
 42
0.0
 97
        3
330
968
330
967
330
964
 75
     0
 76
     1
 52
180.0
 41
0.1
 77
     0
 78
     1
 53
225.0
 43
5.170976743218488
 44
0.0
 45
0.2245064030267288
 46
-0.2245064030267289
 79
     0
 47
0.0243816376539857
 98
        2
 10
0.8789156907296272
 20
-1.044463114528752
 10
-0.8545028512526187
 20
0.7841600866017872
1001
ACAD
1010
0.0
1020
0.0
1030
0.0
  0
ENDBLK
  5
29CF8
330
962
100
AcDbEntity
  8
0
100
AcDbBlockEnd
  0
BLOCK
  5
29D07
330
28EB4
100
AcDbEntity
  8
0
100
AcDbBlockBegin
  2
*D8
 70
     1
 10
0.0
 20
0.0
 30
0.0
  3
*D8
  1

  0
POINT
  5
293C0
330
28EB4
100
AcDbEntity
  8
DEFPOINTS
  6
ByBlock
100
AcDbPoint
 10
-25.00000000000006
 20
-8.0
 30
0.0
  0
POINT
  5
293C1
330
28EB4
100
AcDbEntity
  8
DEFPOINTS
  6
ByBlock
100
AcDbPoint
 10
-25.00000000000006
 20
8.0
 30
0.0
  0
LINE
  5
293C2
330
28EB4
100
AcDbEntity
  8
SK2
  6
ByBlock
100
AcDbLine
 10
-25.00000000000006
 20
-8.0
 30
0.0
 11
-44.46320600000006
 21
-8.0
 31
0.0
  0
LINE
  5
293C3
330
28EB4
100
AcDbEntity
  8
SK2
  6
ByBlock
100
AcDbLine
 10
-25.00000000000006
 20
8.0
 30
0.0
 11
-44.46320600000006
 21
8.0
 31
0.0
  0
LINE
  5
293C4
330
28EB4
100
AcDbEntity
  8
SK2
  6
ByBlock
100
AcDbLine
 10
-43.21320600000006
 20
-8.0
 30
0.0
 11
-43.21320600000006
 21
8.0
 31
0.0
  0
SOLID
  5
293C5
330
28EB4
100
AcDbEntity
  8
SK2
  6
ByBlock
100
AcDbTrace
 10
-43.21320600000006
 20
-8.0
 30
0.0
 11
-42.79653933333332
 21
-5.5
 31
0.0
 12
-43.62987266666682
 22
-5.5
 32
0.0
 13
-43.62987266666682
 23
-5.5
 33
0.0
  0
SOLID
  5
293C6
330
28EB4
100
AcDbEntity
  8
SK2
  6
ByBlock
100
AcDbTrace
 10
-43.21320600000006
 20
8.0
 30
0.0
 11
-42.79653933333332
 21
5.5
 31
0.0
 12
-43.62987266666682
 22
5.5
 32
0.0
 13
-43.62987266666682
 23
5.5
 33
0.0
  0
LINE
  5
293C7
330
28EB4
100
AcDbEntity
  8
SK2
  6
ByBlock
100
AcDbLine
 10
-25.00000000000006
 20
-8.0
 30
0.0
 11
-25.00000000000006
 21
-8.0
 31
0.0
  0
MTEXT
  5
293C8
330
28EB4
100
AcDbEntity
  8
SK2
  6
ByBlock
100
AcDbMText
 10
-45.66076397610689
 20
0.7841760000000022
 30
0.0
 40
3.5
 41
0.0
 71
     5
 72
     1
  1
M\A1;16
  7
MM_STANDARD
 11
0.0000000000000001
 21
1.0
 31
0.0
 73
     1
 44
1.0
1001
ACAD
1000
MTEXTBEGIN
1070
    73
1070
     1
1070
    44
1040
1.0
1070
    74
1070
     0
1000
MTEXTEND
  0
ENDBLK
  5
29D08
330
28EB4
100
AcDbEntity
  8
0
100
AcDbBlockEnd
  0
BLOCK
  5
29D0B
330
28EDC
100
AcDbEntity
  8
0
100
AcDbBlockBegin
  2
*D10
 70
     1
 10
0.0
 20
0.0
 30
0.0
  3
*D10
  1

  0
POINT
  5
293E4
330
28EDC
100
AcDbEntity
  8
DEFPOINTS
  6
ByBlock
100
AcDbPoint
 10
37.95043899999999
 20
12.688085
 30
0.0
  0
POINT
  5
293E5
330
28EDC
100
AcDbEntity
  8
DEFPOINTS
  6
ByBlock
100
AcDbPoint
 10
-25.00000000000006
 20
8.0
 30
0.0
  0
LINE
  5
293E6
330
28EDC
100
AcDbEntity
  8
SK2
  6
ByBlock
100
AcDbLine
 10
37.95043899999999
 20
12.688085
 30
0.0
 11
37.95108686626275
 21
51.59794091310702
 31
0.0
  0
LINE
  5
293E7
330
28EDC
100
AcDbEntity
  8
SK2
  6
ByBlock
100
AcDbLine
 10
-25.00000000000006
 20
8.0
 30
0.0
 11
-24.99927405760212
 21
51.59898906438165
 31
0.0
  0
LINE
  5
293E8
330
28EDC
100
AcDbEntity
  8
SK2
  6
ByBlock
100
AcDbLine
 10
37.95106605321142
 20
50.3479409132803
 30
0.0
 11
-24.99929487065345
 21
50.34898906455494
 31
0.0
  0
SOLID
  5
293E9
330
28EDC
100
AcDbEntity
  8
SK2
  6
ByBlock
100
AcDbTrace
 10
37.95106605321142
 20
50.3479409132803
 30
0.0
 11
35.45107299124174
 21
50.76464920599196
 31
0.0
 12
35.45105911587419
 22
49.93131587277396
 32
0.0
 13
35.45105911587419
 23
49.93131587277396
 33
0.0
  0
SOLID
  5
293EA
330
28EDC
100
AcDbEntity
  8
SK2
  6
ByBlock
100
AcDbTrace
 10
-24.99929487065345
 20
50.34898906455494
 30
0.0
 11
-22.49928793331621
 21
50.76561410506127
 31
0.0
 12
-22.49930180868377
 22
49.93228077184328
 32
0.0
 13
-22.49930180868377
 23
49.93228077184328
 33
0.0
  0
LINE
  5
293EB
330
28EDC
100
AcDbEntity
  8
SK2
  6
ByBlock
100
AcDbLine
 10
37.95043899999999
 20
12.688085
 30
0.0
 11
37.95043899999999
 21
12.688085
 31
0.0
  0
MTEXT
  5
293EC
330
28EDC
100
AcDbEntity
  8
SK2
  6
ByBlock
100
AcDbMText
 10
6.475260752919836
 20
52.79602297576754
 30
0.0
 40
3.5
 41
0.0
 71
     5
 72
     1
  1
\A1;63
  7
MM_STANDARD
 11
0.9999999998613816
 21
-0.0000166504410634
 31
0.0
 73
     1
 44
1.0
1001
ACAD
1000
MTEXTBEGIN
1070
    73
1070
     1
1070
    44
1040
1.0
1070
    74
1070
     0
1000
MTEXTEND
  0
ENDBLK
  5
29D0C
330
28EDC
100
AcDbEntity
  8
0
100
AcDbBlockEnd
  0
BLOCK
  5
29D0D
330
28EEB
100
AcDbEntity
  8
0
100
AcDbBlockBegin
  2
*D11
 70
     1
 10
0.0
 20
0.0
 30
0.0
  3
*D11
  1

  0
MTEXT
  5
293F9
330
28EEB
100
AcDbEntity
  8
2
  6
ByBlock
100
AcDbMText
 10
52.47955168600341
 20
23.10079176917398
 30
0.0
 40
3.5
 41
0.0
 71
     5
 72
     1
  1
\A1;67%%d~83%%d
  7
MM_STANDARD
 11
0.9919513961186662
 21
-0.1266192234150452
 31
0.0
 73
     1
 44
1.0
1001
ACAD
1000
MTEXTBEGIN
1070
    73
1070
     1
1070
    44
1040
1.0
1070
    74
1070
     0
1000
MTEXTEND
  0
POINT
  5
293FA
330
28EEB
100
AcDbEntity
  8
DEFPOINTS
  6
ByBlock
100
AcDbPoint
 10
36.176434
 20
13.63110599999999
 30
0.0
  0
POINT
  5
293FB
330
28EEB
100
AcDbEntity
  8
DEFPOINTS
  6
ByBlock
100
AcDbPoint
 10
37.95043899999999
 20
12.878086
 30
0.0
  0
POINT
  5
293FC
330
28EEB
100
AcDbEntity
  8
DEFPOINTS
  6
ByBlock
100
AcDbPoint
 10
37.95043899999999
 20
13.55830399999999
 30
0.0
  0
POINT
  5
293FD
330
28EEB
100
AcDbEntity
  8
DEFPOINTS
  6
ByBlock
100
AcDbPoint
 10
37.95043899999999
 20
12.878086
 30
0.0
  0
SOLID
  5
293FE
330
28EEB
100
AcDbEntity
  8
2
  6
ByBlock
100
AcDbTrace
 10
37.95043899999999
 20
22.7502046742918
 30
0.0
 11
35.5233185194596
 21
22.02034353403799
 31
0.0
 12
35.41780249994704
 22
22.84696969747038
 32
0.0
 13
35.41780249994704
 23
22.84696969747038
 33
0.0
  0
SOLID
  5
293FF
330
28EEB
100
AcDbEntity
  8
2
  6
ByBlock
100
AcDbTrace
 10
28.86310502413443
 20
16.73542813291747
 30
0.0
 11
29.76361176331729
 21
19.104541621925
 31
0.0
 12
30.48329685493159
 22
18.68442519359491
 32
0.0
 13
30.48329685493159
 23
18.68442519359491
 33
0.0
  0
LINE
  5
29400
330
28EEB
100
AcDbEntity
  8
2
  6
ByBlock
100
AcDbLine
 10
37.95043899999999
 20
13.55830399999999
 30
0.0
 11
37.95043899999999
 21
24.0002046742918
 31
0.0
  0
LINE
  5
29401
330
28EEB
100
AcDbEntity
  8
2
  6
ByBlock
100
AcDbLine
 10
36.176434
 20
13.63110599999999
 30
0.0
 11
27.71247385319718
 21
17.22384179823361
 31
0.0
  0
ARC
  5
29402
330
28EEB
100
AcDbEntity
  8
2
  6
ByBlock
100
AcDbCircle
 10
37.95043899999999
 20
12.878086
 30
0.0
 40
9.872118674291799
100
AcDbArc
 50
104.5485470281889
 51
142.4514651863197
  0
ARC
  5
29403
330
28EEB
100
AcDbEntity
  8
2
  6
ByBlock
100
AcDbCircle
 10
37.95043899999999
 20
12.878086
 30
0.0
 40
9.872118674291799
100
AcDbArc
 50
69.36920407167881
 51
90.0
  0
LINE
  5
29404
330
28EEB
100
AcDbEntity
  8
2
  6
ByBlock
100
AcDbLine
 10
41.42882789524217
 20
22.11710855721657
 30
0.0
 11
62.92883416554365
 21
19.37270584956767
 31
0.0
  0
ENDBLK
  5
29D0E
330
28EEB
100
AcDbEntity
  8
0
100
AcDbBlockEnd
  0
BLOCK
  5
29D0F
330
28EF9
100
AcDbEntity
  8
0
100
AcDbBlockBegin
  2
*D12
 70
     1
 10
0.0
 20
0.0
 30
0.0
  3
*D12
  1

  0
POINT
  5
2940F
330
28EF9
100
AcDbEntity
  8
DEFPOINTS
  6
ByBlock
100
AcDbPoint
 10
37.94505699999999
 20
12.64184599999999
 30
0.0
  0
POINT
  5
29410
330
28EF9
100
AcDbEntity
  8
DEFPOINTS
  6
ByBlock
100
AcDbPoint
 10
26.25
 20
15.97625199999999
 30
0.0
  0
LINE
  5
29411
330
28EF9
100
AcDbEntity
  8
2
  6
ByBlock
100
AcDbLine
 10
37.94505699999999
 20
12.64184599999999
 30
0.0
 11
37.94537263068225
 21
31.59814157260467
 31
0.0
  0
LINE
  5
29412
330
28EF9
100
AcDbEntity
  8
2
  6
ByBlock
100
AcDbLine
 10
26.25
 20
15.97625199999999
 30
0.0
 11
26.25026011459398
 21
31.59833630138638
 31
0.0
  0
LINE
  5
29413
330
28EF9
100
AcDbEntity
  8
2
  6
ByBlock
100
AcDbLine
 10
37.94535181763092
 20
30.34814157277795
 30
0.0
 11
26.25023930154266
 21
30.34833630155965
 31
0.0
  0
SOLID
  5
29414
330
28EF9
100
AcDbEntity
  8
2
  6
ByBlock
100
AcDbTrace
 10
37.94535181763092
 20
30.34814157277795
 30
0.0
 11
35.44535875566125
 21
30.76484986548959
 31
0.0
 12
35.44534488029369
 22
29.93151653227161
 32
0.0
 13
35.44534488029369
 23
29.93151653227161
 33
0.0
  0
LINE
  5
29415
330
28EF9
100
AcDbEntity
  8
2
  6
ByBlock
100
AcDbLine
 10
28.75023930119611
 20
30.34829467545699
 30
0.0
 11
10.66714021726565
 21
30.34859576703257
 31
0.0
  0
SOLID
  5
29416
330
28EF9
100
AcDbEntity
  8
2
  6
ByBlock
100
AcDbTrace
 10
26.25023930154266
 20
30.34833630155965
 30
0.0
 11
28.75024623887989
 21
30.76496134206598
 31
0.0
 12
28.75023236351233
 22
29.931628008848
 32
0.0
 13
28.75023236351233
 23
29.931628008848
 33
0.0
  0
LINE
  5
29417
330
28EF9
100
AcDbEntity
  8
2
  6
ByBlock
100
AcDbLine
 10
37.94505699999999
 20
12.64184599999999
 30
0.0
 11
37.94505699999999
 21
12.64184599999999
 31
0.0
  0
MTEXT
  5
29418
330
28EF9
100
AcDbEntity
  8
2
  6
ByBlock
100
AcDbMText
 10
17.20872967295464
 20
32.74562317870875
 30
0.0
 40
3.5
 41
0.0
 71
     5
 72
     1
  1
\A1;11.7
  7
MM_STANDARD
 11
0.9999999998613816
 21
-0.0000166504410634
 31
0.0
 73
     1
 44
1.0
1001
ACAD
1000
MTEXTBEGIN
1070
    73
1070
     1
1070
    44
1040
1.0
1070
    74
1070
     0
1000
MTEXTEND
  0
ENDBLK
  5
29D10
330
28EF9
100
AcDbEntity
  8
0
100
AcDbBlockEnd
  0
BLOCK
  5
29D11
330
29032
100
AcDbEntity
  8
0
100
AcDbBlockBegin
  2
*D13
 70
     1
 10
0.0
 20
0.0
 30
0.0
  3
*D13
  1

  0
LINE
  5
29D7D
330
29032
100
AcDbEntity
  8
SK2
  6
ByBlock
100
AcDbLine
 10
-0.0000000000000284
 20
14.50000000000001
 30
0.0
 11
-56.22057518549147
 21
14.5
 31
0.0
  0
LINE
  5
29D7E
330
29032
100
AcDbEntity
  8
SK2
  6
ByBlock
100
AcDbLine
 10
-0.0000000000000284
 20
-14.50000000000001
 30
0.0
 11
-56.22057518549147
 21
-14.50000000000001
 31
0.0
  0
LINE
  5
29D7F
330
29032
100
AcDbEntity
  8
SK2
  6
ByBlock
100
AcDbLine
 10
-54.97057518549147
 20
12.0
 30
0.0
 11
-54.97057518549147
 21
-12.00000000000001
 31
0.0
  0
SOLID
  5
29D80
330
29032
100
AcDbEntity
  8
SK2
100
AcDbTrace
 10
-55.38724185215813
 20
12.0
 30
0.0
 11
-54.5539085188248
 21
12.0
 31
0.0
 12
-54.97057518549147
 22
14.5
 32
0.0
 13
-54.97057518549147
 23
14.5
 33
0.0
  0
SOLID
  5
29D81
330
29032
100
AcDbEntity
  8
SK2
100
AcDbTrace
 10
-55.38724185215813
 20
-12.00000000000001
 30
0.0
 11
-54.5539085188248
 21
-12.00000000000001
 31
0.0
 12
-54.97057518549147
 22
-14.50000000000001
 32
0.0
 13
-54.97057518549147
 23
-14.50000000000001
 33
0.0
  0
MTEXT
  5
29D82
330
29032
100
AcDbEntity
  8
SK2
100
AcDbMText
 10
-57.81658713208315
 20
0.0000000000000073
 30
0.0
 40
3.5
 41
0.0
 71
     5
 72
     1
  1
\A1;%%C29
  7
MM_STANDARD
 11
0.0000000000000001
 21
1.0
 31
0.0
 73
     1
 44
1.0
1001
ACAD
1000
MTEXTBEGIN
1070
    73
1070
     1
1070
    44
1040
1.0
1070
    74
1070
     0
1000
MTEXTEND
  0
POINT
  5
29D83
330
29032
100
AcDbEntity
  8
DEFPOINTS
 62
     0
100
AcDbPoint
 10
-0.0000000000000284
 20
14.50000000000001
 30
0.0
  0
POINT
  5
29D84
330
29032
100
AcDbEntity
  8
DEFPOINTS
 62
     0
100
AcDbPoint
 10
-0.0000000000000284
 20
-14.50000000000001
 30
0.0
  0
POINT
  5
29D85
330
29032
100
AcDbEntity
  8
DEFPOINTS
 62
     0
100
AcDbPoint
 10
-54.97057518549147
 20
-14.50000000000001
 30
0.0
  0
ENDBLK
  5
29D12
330
29032
100
AcDbEntity
  8
0
100
AcDbBlockEnd
  0
BLOCK
  5
29D13
330
2916D
100
AcDbEntity
  8
0
100
AcDbBlockBegin
  2
*D14
 70
     1
 10
0.0
 20
0.0
 30
0.0
  3
*D14
  1

  0
LINE
  5
29D86
330
2916D
100
AcDbEntity
  8
2
  6
ByBlock
100
AcDbLine
 10
26.25000039541469
 20
16.0
 30
0.0
 11
71.60053156243225
 21
16.00000000000001
 31
0.0
  0
LINE
  5
29D87
330
2916D
100
AcDbEntity
  8
2
  6
ByBlock
100
AcDbLine
 10
70.35053156243225
 20
13.50000000000001
 30
0.0
 11
70.35053156243225
 21
-5.125700665074369
 31
0.0
  0
SOLID
  5
29D88
330
2916D
100
AcDbEntity
  8
2
100
AcDbTrace
 10
69.93386489576558
 20
13.50000000000001
 30
0.0
 11
70.76719822909892
 21
13.50000000000001
 31
0.0
 12
70.35053156243225
 22
16.00000000000001
 32
0.0
 13
70.35053156243225
 23
16.00000000000001
 33
0.0
  0
MTEXT
  5
29D89
330
2916D
100
AcDbEntity
  8
2
100
AcDbMText
 10
67.50451961584054
 20
-0.1226261745613893
 30
0.0
 40
3.5
 41
0.0
 71
     5
 72
     1
  1
\A1;%%C32
  7
MM_STANDARD
 11
0.0000000000000001
 21
1.0
 31
0.0
 73
     1
 44
1.0
1001
ACAD
1000
MTEXTBEGIN
1070
    73
1070
     1
1070
    44
1040
1.0
1070
    74
1070
     0
1000
MTEXTEND
  0
POINT
  5
29D8A
330
2916D
100
AcDbEntity
  8
DEFPOINTS
 62
     0
100
AcDbPoint
 10
26.25000039541469
 20
16.0
 30
0.0
  0
POINT
  5
29D8B
330
2916D
100
AcDbEntity
  8
DEFPOINTS
 62
     0
100
AcDbPoint
 10
43.36505000000001
 20
-16.0
 30
0.0
  0
POINT
  5
29D8C
330
2916D
100
AcDbEntity
  8
DEFPOINTS
 62
     0
100
AcDbPoint
 10
70.35053156243225
 20
-16.0
 30
0.0
  0
ENDBLK
  5
29D14
330
2916D
100
AcDbEntity
  8
0
100
AcDbBlockEnd
  0
BLOCK
  5
29D15
330
295E5
100
AcDbEntity
  8
0
100
AcDbBlockBegin
  2
_NONE
 70
     0
 10
0.0
 20
0.0
 30
0.0
  3
_NONE
  1

  0
ENDBLK
  5
29D16
330
295E5
100
AcDbEntity
  8
0
100
AcDbBlockEnd
  0
BLOCK
  5
29D31
330
29C18
100
AcDbEntity
  8
0
100
AcDbBlockBegin
  2
*D29
 70
     1
 10
0.0
 20
0.0
 30
0.0
  3
*D29
  1

  0
POINT
  5
29CC7
330
29C18
100
AcDbEntity
  8
DEFPOINTS
  6
ByBlock
100
AcDbPoint
 10
0.0
 20
14.5
 30
0.0
  0
POINT
  5
29CC8
330
29C18
100
AcDbEntity
  8
DEFPOINTS
  6
ByBlock
100
AcDbPoint
 10
37.9502074763005
 20
12.67843240160831
 30
0.0
  0
LINE
  5
29CC9
330
29C18
100
AcDbEntity
  8
2
  6
ByBlock
100
AcDbLine
 10
0.0
 20
14.5
 30
0.0
 11
0.0
 21
40.57685011262448
 31
0.0
  0
LINE
  5
29CCA
330
29C18
100
AcDbEntity
  8
2
  6
ByBlock
100
AcDbLine
 10
37.9502074763005
 20
12.67843240160831
 30
0.0
 11
37.9502074763005
 21
40.57685011262448
 31
0.0
  0
LINE
  5
29CCB
330
29C18
100
AcDbEntity
  8
2
  6
ByBlock
100
AcDbLine
 10
0.0
 20
39.32685011262448
 30
0.0
 11
37.9502074763005
 21
39.32685011262448
 31
0.0
  0
SOLID
  5
29CCC
330
29C18
100
AcDbEntity
  8
2
  6
ByBlock
100
AcDbTrace
 10
0.0
 20
39.32685011262448
 30
0.0
 11
2.5
 21
38.91018344595773
 31
0.0
 12
2.5
 22
39.74351677929123
 32
0.0
 13
2.5
 23
39.74351677929123
 33
0.0
  0
SOLID
  5
29CCD
330
29C18
100
AcDbEntity
  8
2
  6
ByBlock
100
AcDbTrace
 10
37.9502074763005
 20
39.32685011262448
 30
0.0
 11
35.4502074763005
 21
38.91018344595773
 31
0.0
 12
35.4502074763005
 22
39.74351677929123
 32
0.0
 13
35.4502074763005
 23
39.74351677929123
 33
0.0
  0
LINE
  5
29CCE
330
29C18
100
AcDbEntity
  8
2
  6
ByBlock
100
AcDbLine
 10
0.0
 20
14.5
 30
0.0
 11
0.0
 21
14.5
 31
0.0
  0
MTEXT
  5
29CCF
330
29C18
100
AcDbEntity
  8
2
  6
ByBlock
100
AcDbMText
 10
18.97510373815025
 20
41.77440808873129
 30
0.0
 40
3.5
 41
0.0
 71
     5
 72
     1
  1
\A1;38
  7
MM_STANDARD
 73
     1
 44
1.0
1001
ACAD
1000
MTEXTBEGIN
1070
    73
1070
     1
1070
    44
1040
1.0
1070
    74
1070
     0
1000
MTEXTEND
  0
ENDBLK
  5
29D32
330
29C18
100
AcDbEntity
  8
0
100
AcDbBlockEnd
  0
ENDSEC
  0
SECTION
  2
ENTITIES
  0
LINE
  5
AA8
330
1F
100
AcDbEntity
  8
INFTOTAL
100
AcDbLine
 10
-72.58850977292333
 20
6.65818433297814
 30
0.0
 11
-72.58850977292333
 21
59.75410389064879
 31
0.0
  0
LINE
  5
AA9
330
1F
100
AcDbEntity
  8
INFTOTAL
100
AcDbLine
 10
-72.58850977292333
 20
59.75410389064879
 30
0.0
 11
-5.575196869203056
 21
59.75410389064879
 31
0.0
  0
LINE
  5
AAA
330
1F
100
AcDbEntity
  8
INFTOTAL
100
AcDbLine
 10
26.7081238363784
 20
-48.31168699912509
 30
0.0
 11
86.22154592070575
 21
-48.31168699912513
 31
0.0
  0
LINE
  5
AAB
330
1F
100
AcDbEntity
  8
INFTOTAL
100
AcDbLine
 10
86.22154592070575
 20
-48.31168699912513
 30
0.0
 11
86.22154592070575
 21
-6.15262439992939
 31
0.0
  0
POINT
  5
AFA
330
1F
100
AcDbEntity
  8
1
100
AcDbPoint
 10
120.6316161181774
 20
18.06659889820604
 30
0.0
  0
POINT
  5
AFB
330
1F
100
AcDbEntity
  8
1
100
AcDbPoint
 10
117.3316161181774
 20
20.61513489820602
 30
0.0
  0
POINT
  5
136D
330
1F
100
AcDbEntity
  8
CUT
100
AcDbPoint
 10
120.6316161181774
 20
18.03682647108094
 30
0.0
  0
POINT
  5
410F
330
1F
100
AcDbEntity
  8
0
 62
     7
370
     5
100
AcDbPoint
 10
694.5793644972614
 20
32.06429484497903
 30
0.0
  0
POINT
  5
4112
330
1F
100
AcDbEntity
  8
0
 62
     7
370
     5
100
AcDbPoint
 10
694.7265624972615
 20
3.587258844979031
 30
0.0
  0
POINT
  5
4BBB
330
1F
100
AcDbEntity
  8
0
 62
     7
370
     5
100
AcDbPoint
 10
928.2803214655135
 20
36.14402775200896
 30
0.0
  0
POINT
  5
4BBE
330
1F
100
AcDbEntity
  8
0
 62
     7
370
     5
100
AcDbPoint
 10
927.9725574655133
 20
-13.37717824799107
 30
0.0
  0
POINT
  5
4C3D
330
1F
100
AcDbEntity
  8
0
 62
     7
370
     5
100
AcDbPoint
 10
1260.468250897024
 20
34.18197122255629
 30
0.0
  0
POINT
  5
4C41
330
1F
100
AcDbEntity
  8
0
 62
     7
370
     5
100
AcDbPoint
 10
1192.987798897024
 20
34.42276422255628
 30
0.0
  0
POINT
  5
4CA6
330
1F
100
AcDbEntity
  8
0
 62
     7
370
     5
100
AcDbPoint
 10
1531.370477890708
 20
36.54134112174947
 30
0.0
  0
POINT
  5
4CAA
330
1F
100
AcDbEntity
  8
0
 62
     7
370
     5
100
AcDbPoint
 10
1454.809556890707
 20
33.56345212174947
 30
0.0
  0
POINT
  5
4D13
330
1F
100
AcDbEntity
  8
0
 62
     7
370
     5
100
AcDbPoint
 10
705.1278997494348
 20
-154.9600065549146
 30
0.0
  0
POINT
  5
4D16
330
1F
100
AcDbEntity
  8
0
 62
     7
370
     5
100
AcDbPoint
 10
704.8201357494348
 20
-214.4959135549147
 30
0.0
  0
POINT
  5
4D94
330
1F
100
AcDbEntity
  8
0
 62
     7
370
     5
100
AcDbPoint
 10
1787.824033288602
 20
31.89640981289145
 30
0.0
  0
POINT
  5
4D98
330
1F
100
AcDbEntity
  8
0
 62
     7
370
     5
100
AcDbPoint
 10
1715.838491288602
 20
29.33517681289146
 30
0.0
  0
POINT
  5
4DFF
330
1F
100
AcDbEntity
  8
0
 62
     3
370
     5
100
AcDbPoint
 10
1267.112797580298
 20
-159.0002427017263
 30
0.0
  0
POINT
  5
4E03
330
1F
100
AcDbEntity
  8
0
 62
     3
370
     5
100
AcDbPoint
 10
1194.506377580298
 20
-161.9343927017263
 30
0.0
  0
POINT
  5
4E6A
330
1F
100
AcDbEntity
  8
0
 62
     7
370
     5
100
AcDbPoint
 10
1544.710960196184
 20
-155.8112991948312
 30
0.0
  0
POINT
  5
4E6E
330
1F
100
AcDbEntity
  8
0
 62
     3
370
     5
100
AcDbPoint
 10
1456.283339196184
 20
-157.1011921948312
 30
0.0
  0
POINT
  5
4ED5
330
1F
100
AcDbEntity
  8
0
 62
     7
370
     5
100
AcDbPoint
 10
923.0975508391153
 20
-198.2811869580544
 30
0.0
  0
POINT
  5
4ED6
330
1F
100
AcDbEntity
  8
0
 62
     7
370
     5
100
AcDbPoint
 10
958.0975508391155
 20
-190.2811869580544
 30
0.0
  0
POINT
  5
4ED9
330
1F
100
AcDbEntity
  8
0
 62
     7
370
     5
100
AcDbPoint
 10
957.9030798391153
 20
-228.1917289580544
 30
0.0
  0
POINT
  5
4F57
330
1F
100
AcDbEntity
  8
0
 62
     7
370
     5
100
AcDbPoint
 10
450.9331152202981
 20
34.51099349283641
 30
0.0
  0
POINT
  5
4F5A
330
1F
100
AcDbEntity
  8
0
 62
     7
370
     5
100
AcDbPoint
 10
450.3789362202981
 20
-3.505724507163591
 30
0.0
  0
POINT
  5
4FD6
330
1F
100
AcDbEntity
  8
0
 62
     7
370
     5
100
AcDbPoint
 10
414.7355793530676
 20
-182.3643573412055
 30
0.0
  0
POINT
  5
4FD9
330
1F
100
AcDbEntity
  8
0
 62
     7
370
     5
100
AcDbPoint
 10
414.4028163530678
 20
-227.6410343412055
 30
0.0
  0
POINT
  5
5057
330
1F
100
AcDbEntity
  8
0
 62
     7
370
     5
100
AcDbPoint
 10
411.1596871436125
 20
-404.5108996529686
 30
0.0
  0
POINT
  5
505A
330
1F
100
AcDbEntity
  8
0
 62
     7
370
     5
100
AcDbPoint
 10
410.8519251436126
 20
-448.9004636529686
 30
0.0
  0
POINT
  5
50DA
330
1F
100
AcDbEntity
  8
0
 62
     7
370
     5
100
AcDbPoint
 10
696.3752719090887
 20
-405.5632373962983
 30
0.0
  0
POINT
  5
50DD
330
1F
100
AcDbEntity
  8
0
 62
     7
370
     5
100
AcDbPoint
 10
696.0675099090884
 20
-458.9718843962983
 30
0.0
  0
POINT
  5
515E
330
1F
100
AcDbEntity
  8
0
 62
     7
370
     5
100
AcDbPoint
 10
942.932329238496
 20
-403.2148016805113
 30
0.0
  0
POINT
  5
5161
330
1F
100
AcDbEntity
  8
0
 62
     3
370
     5
100
AcDbPoint
 10
942.624565238496
 20
-476.4638956805113
 30
0.0
  0
POINT
  5
51E0
330
1F
100
AcDbEntity
  8
0
 62
     7
370
     5
100
AcDbPoint
 10
380.0596661818993
 20
-637.2898669140809
 30
0.0
  0
POINT
  5
51E4
330
1F
100
AcDbEntity
  8
0
 62
     7
370
     5
100
AcDbPoint
 10
379.7269051818993
 20
-669.3765459140807
 30
0.0
  0
POINT
  5
5263
330
1F
100
AcDbEntity
  8
0
 62
     7
370
     5
100
AcDbPoint
 10
656.1064603234972
 20
-644.2320044768857
 30
0.0
  0
POINT
  5
5267
330
1F
100
AcDbEntity
  8
0
 62
     7
370
     5
100
AcDbPoint
 10
655.7736983234972
 20
-681.5918884768857
 30
0.0
  0
POINT
  5
52E6
330
1F
100
AcDbEntity
  8
0
 62
     7
370
     5
100
AcDbPoint
 10
921.5387707571863
 20
-642.2430056930917
 30
0.0
  0
POINT
  5
52EA
330
1F
100
AcDbEntity
  8
0
 62
     7
370
     5
100
AcDbPoint
 10
921.2310077571864
 20
-692.8111586930919
 30
0.0
  0
POINT
  5
536A
330
1F
100
AcDbEntity
  8
0
 62
     7
370
     5
100
AcDbPoint
 10
1232.563978885883
 20
-644.0998079544141
 30
0.0
  0
POINT
  5
536E
330
1F
100
AcDbEntity
  8
0
 62
     7
370
     5
100
AcDbPoint
 10
1232.256215885883
 20
-701.4147569544141
 30
0.0
  0
POINT
  5
53EE
330
1F
100
AcDbEntity
  8
0
 62
     7
370
     5
100
AcDbPoint
 10
1530.052638397992
 20
-643.475919607774
 30
0.0
  0
POINT
  5
53F2
330
1F
100
AcDbEntity
  8
0
 62
     7
370
     5
100
AcDbPoint
 10
1529.744875397992
 20
-702.095046607774
 30
0.0
  0
POINT
  5
5472
330
1F
100
AcDbEntity
  8
0
 62
     7
370
     5
100
AcDbPoint
 10
684.9908237883022
 20
27.90718926625232
 30
0.0
  0
POINT
  5
5475
330
1F
100
AcDbEntity
  8
0
 62
     7
370
     5
100
AcDbPoint
 10
685.1380217883022
 20
-0.5698467337476814
 30
0.0
  0
POINT
  5
C167
330
1F
100
AcDbEntity
  8
0
 62
     7
370
     5
100
AcDbPoint
 10
404.6381194571074
 20
31.25869005531058
 30
0.0
  0
POINT
  5
C170
330
1F
100
AcDbEntity
  8
0
 62
     7
370
     5
100
AcDbPoint
 10
404.6381194571074
 20
-40.40044294468938
 30
0.0
  0
POINT
  5
C178
330
1F
100
AcDbEntity
  8
0
 62
     7
370
     5
100
AcDbPoint
 10
693.6166312048997
 20
32.91651042690259
 30
0.0
  0
POINT
  5
C182
330
1F
100
AcDbEntity
  8
0
 62
     7
370
     5
100
AcDbPoint
 10
693.6166312048997
 20
-48.79153757309743
 30
0.0
  0
POINT
  5
C255
330
1F
100
AcDbEntity
  8
0
 62
     7
370
     5
100
AcDbPoint
 10
969.8580521302226
 20
-44.97487572475608
 30
0.0
  0
POINT
  5
C258
330
1F
100
AcDbEntity
  8
0
 62
     7
370
     5
100
AcDbPoint
 10
969.8580521302226
 20
15.7863642752439
 30
0.0
  0
POINT
  5
C2E1
330
1F
100
AcDbEntity
  8
0
 62
     7
370
     5
100
AcDbPoint
 10
1225.348704188238
 20
-52.24776141224177
 30
0.0
  0
POINT
  5
C2E4
330
1F
100
AcDbEntity
  8
0
 62
     7
370
     5
100
AcDbPoint
 10
1225.348704188238
 20
11.68361158775823
 30
0.0
  0
POINT
  5
C36E
330
1F
100
AcDbEntity
  8
0
 62
     7
370
     5
100
AcDbPoint
 10
1738.913115957113
 20
-214.1607529893734
 30
0.0
  0
POINT
  5
C377
330
1F
100
AcDbEntity
  8
0
 62
     3
370
     5
100
AcDbPoint
 10
1738.913115957113
 20
-286.8828409893735
 30
0.0
  0
POINT
  5
C42D
330
1F
100
AcDbEntity
  8
0
 62
     7
370
     5
100
AcDbPoint
 10
430.2380300204257
 20
-176.3158258460635
 30
0.0
  0
POINT
  5
C437
330
1F
100
AcDbEntity
  8
0
 62
     7
370
     5
100
AcDbPoint
 10
430.2380300204257
 20
-251.7521558460636
 30
0.0
  0
POINT
  5
C533
330
1F
100
AcDbEntity
  8
0
 62
     3
370
     5
100
AcDbPoint
 10
724.0359074233313
 20
-257.7049218719476
 30
0.0
  0
POINT
  5
C536
330
1F
100
AcDbEntity
  8
0
 62
     3
370
     5
100
AcDbPoint
 10
724.0359074233313
 20
-176.2890638719476
 30
0.0
  0
POINT
  5
C652
330
1F
100
AcDbEntity
  8
0
 62
     7
370
     5
100
AcDbPoint
 10
1006.718794540682
 20
-163.3460002642659
 30
0.0
  0
POINT
  5
C65C
330
1F
100
AcDbEntity
  8
0
 62
     7
370
     5
100
AcDbPoint
 10
1006.718794540682
 20
-271.4659132642659
 30
0.0
  0
POINT
  5
C79F
330
1F
100
AcDbEntity
  8
0
 62
     7
370
     5
100
AcDbPoint
 10
680.0273543974197
 20
-609.8288373451556
 30
0.0
  0
POINT
  5
C7A3
330
1F
100
AcDbEntity
  8
0
 62
     7
370
     5
100
AcDbPoint
 10
680.0273543974197
 20
-565.0385583451557
 30
0.0
  0
POINT
  5
C85B
330
1F
100
AcDbEntity
  8
0
 62
     7
370
     5
100
AcDbPoint
 10
981.854726218849
 20
-559.8376501395787
 30
0.0
  0
POINT
  5
C863
330
1F
100
AcDbEntity
  8
0
 62
     7
370
     5
100
AcDbPoint
 10
981.854726218849
 20
-623.6282751395788
 30
0.0
  0
POINT
  5
C930
330
1F
100
AcDbEntity
  8
0
 62
     7
370
     5
100
AcDbPoint
 10
1216.759569404171
 20
-624.5477225769705
 30
0.0
  0
POINT
  5
C934
330
1F
100
AcDbEntity
  8
0
 62
     7
370
     5
100
AcDbPoint
 10
1202.759569404171
 20
-560.1965945769704
 30
0.0
  0
POINT
  5
C935
330
1F
100
AcDbEntity
  8
0
 62
     7
370
     5
100
AcDbPoint
 10
1216.759569404171
 20
-551.6965945769704
 30
0.0
  0
POINT
  5
CA12
330
1F
100
AcDbEntity
  8
0
 62
     7
370
     5
100
AcDbPoint
 10
1458.761001673632
 20
-627.5597008720548
 30
0.0
  0
POINT
  5
CA16
330
1F
100
AcDbEntity
  8
0
 62
     7
370
     5
100
AcDbPoint
 10
1443.761001673632
 20
-571.7910898720547
 30
0.0
  0
POINT
  5
CA17
330
1F
100
AcDbEntity
  8
0
 62
     7
370
     5
100
AcDbPoint
 10
1458.761001673632
 20
-561.2910898720547
 30
0.0
  0
POINT
  5
CB25
330
1F
100
AcDbEntity
  8
0
 62
     7
370
     5
100
AcDbPoint
 10
1712.749014983699
 20
-637.6031663899041
 30
0.0
  0
POINT
  5
CB29
330
1F
100
AcDbEntity
  8
0
 62
     7
370
     5
100
AcDbPoint
 10
1712.749014983699
 20
-557.403845389904
 30
0.0
  0
POINT
  5
CC4B
330
1F
100
AcDbEntity
  8
0
 62
     7
370
     5
100
AcDbPoint
 10
1990.420039580178
 20
-639.3672597641932
 30
0.0
  0
POINT
  5
CC4F
330
1F
100
AcDbEntity
  8
0
 62
     7
370
     5
100
AcDbPoint
 10
1975.420039580178
 20
-571.8308197641934
 30
0.0
  0
POINT
  5
CC50
330
1F
100
AcDbEntity
  8
0
 62
     7
370
     5
100
AcDbPoint
 10
1990.420039580178
 20
-554.3308197641933
 30
0.0
  0
POINT
  5
D588
330
1F
100
AcDbEntity
  8
0
 62
     7
370
     5
100
AcDbPoint
 10
643.6762534904714
 20
-418.5518022854259
 30
0.0
  0
POINT
  5
D590
330
1F
100
AcDbEntity
  8
0
 62
     7
370
     5
100
AcDbPoint
 10
698.8426964904712
 20
-418.5518022854259
 30
0.0
  0
POINT
  5
D89C
330
1F
100
AcDbEntity
  8
0
 62
     7
370
     5
100
AcDbPoint
 10
918.4554480131433
 20
-418.2516555129392
 30
0.0
  0
POINT
  5
D8A3
330
1F
100
AcDbEntity
  8
0
 62
     7
370
     5
100
AcDbPoint
 10
998.0069960131432
 20
-418.2516555129392
 30
0.0
  0
POINT
  5
DAF2
330
1F
100
AcDbEntity
  8
0
 62
     7
370
     5
100
AcDbPoint
 10
1973.075374951941
 20
-60.50318164632196
 30
0.0
  0
POINT
  5
DAF5
330
1F
100
AcDbEntity
  8
0
 62
     7
370
     5
100
AcDbPoint
 10
1973.075374951941
 20
1.00896335367804
 30
0.0
  0
POINT
  5
DCBB
330
1F
100
AcDbEntity
  8
0
 62
     7
370
     5
100
AcDbPoint
 10
2228.446041001848
 20
-631.5679862622897
 30
0.0
  0
POINT
  5
DCBF
330
1F
100
AcDbEntity
  8
0
 62
     7
370
     5
100
AcDbPoint
 10
2228.446041001848
 20
-581.1017172622897
 30
0.0
  0
POINT
  5
DECF
330
1F
100
AcDbEntity
  8
0
 62
     7
370
     5
100
AcDbPoint
 10
2470.518201269178
 20
-576.6616946872675
 30
0.0
  0
POINT
  5
DED7
330
1F
100
AcDbEntity
  8
0
 62
     7
370
     5
100
AcDbPoint
 10
2470.518201269178
 20
-638.2022576872675
 30
0.0
  0
POINT
  5
E102
330
1F
100
AcDbEntity
  8
0
 62
     7
370
     5
100
AcDbPoint
 10
1449.716374392063
 20
-281.2570516923841
 30
0.0
  0
POINT
  5
E105
330
1F
100
AcDbEntity
  8
0
 62
     7
370
     5
100
AcDbPoint
 10
1449.716374392063
 20
-216.7933926923841
 30
0.0
  0
POINT
  5
E20E
330
1F
100
AcDbEntity
  8
0
 62
     7
370
     5
100
AcDbPoint
 10
1444.226360693917
 20
7.118696944552222
 30
0.0
  0
POINT
  5
E217
330
1F
100
AcDbEntity
  8
0
 62
     7
370
     5
100
AcDbPoint
 10
1444.226360693917
 20
-50.75492105544778
 30
0.0
  0
POINT
  5
E328
330
1F
100
AcDbEntity
  8
0
 62
     7
370
     5
100
AcDbPoint
 10
1674.557421043983
 20
-57.27887800498226
 30
0.0
  0
POINT
  5
E32B
330
1F
100
AcDbEntity
  8
0
 62
     7
370
     5
100
AcDbPoint
 10
1674.557421043983
 20
6.273895995017768
 30
0.0
  0
POINT
  5
E438
330
1F
100
AcDbEntity
  8
0
 62
     7
370
     5
100
AcDbPoint
 10
1221.741516539144
 20
-220.2351919986821
 30
0.0
  0
POINT
  5
E441
330
1F
100
AcDbEntity
  8
0
 62
     7
370
     5
100
AcDbPoint
 10
1221.741516539144
 20
-278.4038869986821
 30
0.0
  0
POINT
  5
E533
330
1F
100
AcDbEntity
  8
0
 62
     7
370
     5
100
AcDbPoint
 10
435.7613867553435
 20
-401.853645371286
 30
0.0
  0
POINT
  5
E537
330
1F
100
AcDbEntity
  8
0
 62
     7
370
     5
100
AcDbPoint
 10
336.0458187553437
 20
-401.853645371286
 30
0.0
  0
POINT
  5
E6D2
330
1F
100
AcDbEntity
  8
0
 62
     7
370
     5
100
AcDbPoint
 10
394.2075911881555
 20
-612.6712758301417
 30
0.0
  0
POINT
  5
E6D6
330
1F
100
AcDbEntity
  8
0
 62
     7
370
     5
100
AcDbPoint
 10
394.2075911881555
 20
-562.1020128301418
 30
0.0
  0
POINT
  5
12895
330
1F
100
AcDbEntity
  8
0
 62
     7
370
     5
100
AcDbPoint
 10
514.3576994832141
 20
-558.6978028967338
 30
0.0
  0
POINT
  5
1289C
330
1F
100
AcDbEntity
  8
0
 62
     7
370
     5
100
AcDbPoint
 10
514.3576994832141
 20
-524.0331488967338
 30
0.0
  0
POINT
  5
1289D
330
1F
100
AcDbEntity
  8
0
 62
     7
370
     5
100
AcDbPoint
 10
514.3576994832141
 20
-526.4631488967337
 30
0.0
  0
POINT
  5
1299A
330
1F
100
AcDbEntity
  8
0
 62
     7
370
     5
100
AcDbPoint
 10
273.0238152774181
 20
35.53337152575214
 30
0.0
  0
POINT
  5
1299D
330
1F
100
AcDbEntity
  8
0
 62
     7
370
     5
100
AcDbPoint
 10
273.0238152774181
 20
-16.30945047424785
 30
0.0
  0
POINT
  5
12A19
330
1F
100
AcDbEntity
  8
0
 62
     7
370
     5
100
AcDbPoint
 10
530.0071960054782
 20
34.28476473790624
 30
0.0
  0
POINT
  5
12A1A
330
1F
100
AcDbEntity
  8
0
 62
     7
370
     5
100
AcDbPoint
 10
530.0071960054782
 20
28.42976573790625
 30
0.0
  0
POINT
  5
12A1D
330
1F
100
AcDbEntity
  8
0
 62
     7
370
     5
100
AcDbPoint
 10
530.2789780054783
 20
-25.24190226209373
 30
0.0
  0
POINT
  5
12AA6
330
1F
100
AcDbEntity
  8
0
 62
     7
370
     5
100
AcDbPoint
 10
803.5390081451089
 20
38.33315219974614
 30
0.0
  0
POINT
  5
12AA7
330
1F
100
AcDbEntity
  8
0
 62
     7
370
     5
100
AcDbPoint
 10
803.5390081451089
 20
32.44315219974615
 30
0.0
  0
POINT
  5
12AAA
330
1F
100
AcDbEntity
  8
0
 62
     7
370
     5
100
AcDbPoint
 10
803.5390081451089
 20
-33.77549080025384
 30
0.0
  0
POINT
  5
12B2B
330
1F
100
AcDbEntity
  8
0
 62
     7
370
     5
100
AcDbPoint
 10
246.4739127018369
 20
-292.0641451649423
 30
0.0
  0
POINT
  5
12B40
330
1F
100
AcDbEntity
  8
0
 62
     7
370
     5
100
AcDbPoint
 10
246.1857397018369
 20
-234.4124741649423
 30
0.0
  0
POINT
  5
12B41
330
1F
100
AcDbEntity
  8
0
 62
     7
370
     5
100
AcDbPoint
 10
246.1857397018369
 20
-239.6974741649422
 30
0.0
  0
POINT
  5
12BA1
330
1F
100
AcDbEntity
  8
0
 62
     7
370
     5
100
AcDbPoint
 10
503.361992156836
 20
-293.942128217062
 30
0.0
  0
POINT
  5
12BB5
330
1F
100
AcDbEntity
  8
0
 62
     7
370
     5
100
AcDbPoint
 10
503.361992156836
 20
-232.058278217062
 30
0.0
  0
POINT
  5
12BB6
330
1F
100
AcDbEntity
  8
0
 62
     7
370
     5
100
AcDbPoint
 10
503.361992156836
 20
-237.898279217062
 30
0.0
  0
POINT
  5
12C16
330
1F
100
AcDbEntity
  8
0
 62
     7
370
     5
100
AcDbPoint
 10
773.9808530456294
 20
-320.1483272428673
 30
0.0
  0
POINT
  5
12C17
330
1F
100
AcDbEntity
  8
0
 62
     7
370
     5
100
AcDbPoint
 10
776.9808530456294
 20
-286.8983272428673
 30
0.0
  0
POINT
  5
12C2B
330
1F
100
AcDbEntity
  8
0
 62
     7
370
     5
100
AcDbPoint
 10
776.9808530456294
 20
-225.7099922428672
 30
0.0
  0
POINT
  5
12C8B
330
1F
100
AcDbEntity
  8
0
 62
     7
370
     5
100
AcDbPoint
 10
258.823540701837
 20
-572.0746798648522
 30
0.0
  0
POINT
  5
12C92
330
1F
100
AcDbEntity
  8
0
 62
     7
370
     5
100
AcDbPoint
 10
258.8235127018369
 20
-543.1961818648521
 30
0.0
  0
POINT
  5
12C93
330
1F
100
AcDbEntity
  8
0
 62
     7
370
     5
100
AcDbPoint
 10
258.8235127018369
 20
-544.8461818648523
 30
0.0
  0
POINT
  5
14051
330
1F
100
AcDbEntity
  8
0
 62
     7
370
     5
100
AcDbPoint
 10
690.9556627618442
 20
-532.2047645406313
 30
0.0
  0
POINT
  5
14058
330
1F
100
AcDbEntity
  8
0
 62
     7
370
     5
100
AcDbPoint
 10
690.9556627618442
 20
-497.5401105406314
 30
0.0
  0
POINT
  5
14059
330
1F
100
AcDbEntity
  8
0
 62
     7
370
     5
100
AcDbPoint
 10
690.9556627618442
 20
-499.9701105406314
 30
0.0
  0
POINT
  5
175ED
330
1F
100
AcDbEntity
  8
0
 62
     7
370
     5
100
AcDbPoint
 10
329.8984453452037
 20
37.75833189686949
 30
0.0
  0
POINT
  5
175F0
330
1F
100
AcDbEntity
  8
0
 62
     7
370
     5
100
AcDbPoint
 10
329.8984453452037
 20
-10.8089411031305
 30
0.0
  0
POINT
  5
17673
330
1F
100
AcDbEntity
  8
0
 62
     7
370
     5
100
AcDbPoint
 10
651.3183805762602
 20
33.1650220174441
 30
0.0
  0
POINT
  5
17677
330
1F
100
AcDbEntity
  8
0
 62
     7
370
     5
100
AcDbPoint
 10
651.3183805762602
 20
-21.99992098255592
 30
0.0
  0
POINT
  5
1770F
330
1F
100
AcDbEntity
  8
0
 62
     7
370
     5
100
AcDbPoint
 10
1014.212196760976
 20
-27.33731747488401
 30
0.0
  0
POINT
  5
17718
330
1F
100
AcDbEntity
  8
0
 62
     7
370
     5
100
AcDbPoint
 10
1014.212196760976
 20
30.00474752511599
 30
0.0
  0
POINT
  5
17790
330
1F
100
AcDbEntity
  8
0
 62
     7
370
     5
100
AcDbPoint
 10
1421.356448019548
 20
-26.9349024739204
 30
0.0
  0
POINT
  5
1779E
330
1F
100
AcDbEntity
  8
0
 62
     7
370
     5
100
AcDbPoint
 10
1421.356448019548
 20
21.9806675260796
 30
0.0
  0
POINT
  5
1779F
330
1F
100
AcDbEntity
  8
0
 62
     7
370
     5
100
AcDbPoint
 10
1413.056448019548
 20
21.9806675260796
 30
0.0
  0
POINT
  5
1781A
330
1F
100
AcDbEntity
  8
0
 62
     7
370
     5
100
AcDbPoint
 10
1720.045575829729
 20
23.92611327127983
 30
0.0
  0
POINT
  5
1781D
330
1F
100
AcDbEntity
  8
0
 62
     7
370
     5
100
AcDbPoint
 10
1720.045575829729
 20
-24.59612772872018
 30
0.0
  0
POINT
  5
178A0
330
1F
100
AcDbEntity
  8
0
 62
     7
370
     5
100
AcDbPoint
 10
359.2272976195882
 20
-230.0319820838431
 30
0.0
  0
POINT
  5
178A3
330
1F
100
AcDbEntity
  8
0
 62
     7
370
     5
100
AcDbPoint
 10
359.2273026195881
 20
-278.361407083843
 30
0.0
  0
POINT
  5
17926
330
1F
100
AcDbEntity
  8
0
 62
     7
370
     5
100
AcDbPoint
 10
669.6174077737214
 20
-230.0319820838431
 30
0.0
  0
POINT
  5
17929
330
1F
100
AcDbEntity
  8
0
 62
     7
370
     5
100
AcDbPoint
 10
669.6174087737214
 20
-278.361407083843
 30
0.0
  0
POINT
  5
179AC
330
1F
100
AcDbEntity
  8
0
 62
     7
370
     5
100
AcDbPoint
 10
1023.306532042488
 20
-235.6329118492064
 30
0.0
  0
POINT
  5
179AF
330
1F
100
AcDbEntity
  8
0
 62
     7
370
     5
100
AcDbPoint
 10
1023.306532042488
 20
-284.2001848492064
 30
0.0
  0
POINT
  5
17A32
330
1F
100
AcDbEntity
  8
0
 62
     7
370
     5
100
AcDbPoint
 10
1352.196645196622
 20
-235.6329118492064
 30
0.0
  0
POINT
  5
17A36
330
1F
100
AcDbEntity
  8
0
 62
     7
370
     5
100
AcDbPoint
 10
1352.196645196622
 20
-290.7980508492065
 30
0.0
  0
POINT
  5
17AD1
330
1F
100
AcDbEntity
  8
0
 62
     7
370
     5
100
AcDbPoint
 10
1715.365188016996
 20
-237.9716865944066
 30
0.0
  0
POINT
  5
17AD4
330
1F
100
AcDbEntity
  8
0
 62
     7
370
     5
100
AcDbPoint
 10
1715.365188016996
 20
-286.5389595944066
 30
0.0
  0
POINT
  5
17B57
330
1F
100
AcDbEntity
  8
0
 62
     7
370
     5
100
AcDbPoint
 10
331.5674947966618
 20
-480.7206417139288
 30
0.0
  0
POINT
  5
17B5A
330
1F
100
AcDbEntity
  8
0
 62
     7
370
     5
100
AcDbPoint
 10
331.5674987966619
 20
-532.8452337139288
 30
0.0
  0
POINT
  5
17BD8
330
1F
100
AcDbEntity
  8
0
 62
     7
370
     5
100
AcDbPoint
 10
667.4370134195751
 20
-483.059416459129
 30
0.0
  0
POINT
  5
17BDB
330
1F
100
AcDbEntity
  8
0
 62
     7
370
     5
100
AcDbPoint
 10
667.4370134195751
 20
-535.184008459129
 30
0.0
  0
POINT
  5
17C59
330
1F
100
AcDbEntity
  8
0
 62
     7
370
     5
100
AcDbPoint
 10
1032.757662940594
 20
-479.9258798209486
 30
0.0
  0
POINT
  5
17C5C
330
1F
100
AcDbEntity
  8
0
 62
     7
370
     5
100
AcDbPoint
 10
1032.757665940594
 20
-532.1255208209487
 30
0.0
  0
POINT
  5
17CDA
330
1F
100
AcDbEntity
  8
0
 62
     7
370
     5
100
AcDbPoint
 10
1350.446793750775
 20
-475.452849330548
 30
0.0
  0
POINT
  5
17CDE
330
1F
100
AcDbEntity
  8
0
 62
     7
370
     5
100
AcDbPoint
 10
1350.446795750775
 20
-535.7299113305479
 30
0.0
  0
POINT
  5
17D79
330
1F
100
AcDbEntity
  8
0
 62
     7
370
     5
100
AcDbPoint
 10
1724.816312373689
 20
-484.6034323315118
 30
0.0
  0
POINT
  5
17D7C
330
1F
100
AcDbEntity
  8
0
 62
     7
370
     5
100
AcDbPoint
 10
1724.816312373689
 20
-536.8030733315118
 30
0.0
  0
POINT
  5
17DFA
330
1F
100
AcDbEntity
  8
0
 62
     7
370
     5
100
AcDbPoint
 10
292.6784219762804
 20
-717.1006079596696
 30
0.0
  0
POINT
  5
17DFE
330
1F
100
AcDbEntity
  8
0
 62
     7
370
     5
100
AcDbPoint
 10
292.6784249762804
 20
-777.3013929596698
 30
0.0
  0
POINT
  5
17E99
330
1F
100
AcDbEntity
  8
0
 62
     7
370
     5
100
AcDbPoint
 10
668.1772397573285
 20
-728.8489624009062
 30
0.0
  0
POINT
  5
17E9C
330
1F
100
AcDbEntity
  8
0
 62
     7
370
     5
100
AcDbPoint
 10
668.1772397573285
 20
-780.9735614009062
 30
0.0
  0
POINT
  5
17F19
330
1F
100
AcDbEntity
  8
0
 62
     7
370
     5
100
AcDbPoint
 10
1014.680140542377
 20
-727.4779055808943
 30
0.0
  0
POINT
  5
17F1E
330
1F
100
AcDbEntity
  8
0
 62
     7
370
     5
100
AcDbPoint
 10
1014.680139542377
 20
-792.8842465808943
 30
0.0
  0
POINT
  5
17F82
330
1F
100
AcDbEntity
  8
0
 62
     7
370
     5
100
AcDbPoint
 10
1363.039112172955
 20
-778.9168242007557
 30
0.0
  0
POINT
  5
17F8B
330
1F
100
AcDbEntity
  8
0
 62
     7
370
     5
100
AcDbPoint
 10
1363.039112172955
 20
-712.5175752007558
 30
0.0
  0
POINT
  5
17FE8
330
1F
100
AcDbEntity
  8
0
 62
     7
370
     5
100
AcDbPoint
 10
1718.366870633272
 20
-723.7460446679111
 30
0.0
  0
POINT
  5
17FEB
330
1F
100
AcDbEntity
  8
0
 62
     7
370
     5
100
AcDbPoint
 10
1718.366871633272
 20
-789.389202667911
 30
0.0
  0
POINT
  5
18051
330
1F
100
AcDbEntity
  8
0
 62
     7
370
     5
100
AcDbPoint
 10
319.6383345054979
 20
-967.5893901625666
 30
0.0
  0
POINT
  5
18054
330
1F
100
AcDbEntity
  8
0
 62
     7
370
     5
100
AcDbPoint
 10
319.6383355054979
 20
-1032.973459162567
 30
0.0
  0
POINT
  5
180BA
330
1F
100
AcDbEntity
  8
0
 62
     7
370
     5
100
AcDbPoint
 10
680.5370709864296
 20
-963.1934877025301
 30
0.0
  0
POINT
  5
180BB
330
1F
100
AcDbEntity
  8
0
 62
     7
370
     5
100
AcDbPoint
 10
629.5370709864297
 20
-967.19348770253
 30
0.0
  0
POINT
  5
180BE
330
1F
100
AcDbEntity
  8
0
 62
     7
370
     5
100
AcDbPoint
 10
680.5370759864297
 20
-1028.58231170253
 30
0.0
  0
POINT
  5
18125
330
1F
100
AcDbEntity
  8
0
 62
     7
370
     5
100
AcDbPoint
 10
1025.504908559649
 20
-985.5078641637318
 30
0.0
  0
POINT
  5
18128
330
1F
100
AcDbEntity
  8
0
 62
     7
370
     5
100
AcDbPoint
 10
935.4436665596491
 20
-985.5078641637318
 30
0.0
  0
POINT
  5
181A3
330
1F
100
AcDbEntity
  8
0
 62
     7
370
     5
100
AcDbPoint
 10
1372.616021513803
 20
-994.9832624236179
 30
0.0
  0
POINT
  5
181A6
330
1F
100
AcDbEntity
  8
0
 62
     7
370
     5
100
AcDbPoint
 10
1282.554779513803
 20
-994.9832624236179
 30
0.0
  0
POINT
  5
18221
330
1F
100
AcDbEntity
  8
0
 62
     7
370
     5
100
AcDbPoint
 10
1726.183901955964
 20
-986.4057379766256
 30
0.0
  0
POINT
  5
18224
330
1F
100
AcDbEntity
  8
0
 62
     7
370
     5
100
AcDbPoint
 10
1636.122660955965
 20
-987.7852319766256
 30
0.0
  0
POINT
  5
1829F
330
1F
100
AcDbEntity
  8
0
 62
     7
370
     5
100
AcDbPoint
 10
315.0667151318947
 20
-1233.667447704089
 30
0.0
  0
POINT
  5
182A2
330
1F
100
AcDbEntity
  8
0
 62
     7
370
     5
100
AcDbPoint
 10
225.0054731318947
 20
-1234.512880704089
 30
0.0
  0
POINT
  5
1831D
330
1F
100
AcDbEntity
  8
0
 62
     7
370
     5
100
AcDbPoint
 10
666.5716365787308
 20
-1228.374582524101
 30
0.0
  0
POINT
  5
18320
330
1F
100
AcDbEntity
  8
0
 62
     7
370
     5
100
AcDbPoint
 10
576.510395578731
 20
-1229.476628524102
 30
0.0
  0
POINT
  5
1C1E5
330
1F
100
AcDbEntity
  8
0
 62
     7
370
     5
100
AcDbPoint
 10
565.1931729999843
 20
-252.0327741049043
 30
0.0
  0
POINT
  5
1C1E8
330
1F
100
AcDbEntity
  8
0
 62
     7
370
     5
100
AcDbPoint
 10
571.0793859999843
 20
-171.4824511049043
 30
0.0
  0
POINT
  5
1C393
330
1F
100
AcDbEntity
  8
0
 62
     7
370
     5
100
AcDbPoint
 10
852.7529560248229
 20
-161.0786730235244
 30
0.0
  0
POINT
  5
1C3A1
330
1F
100
AcDbEntity
  8
0
 62
     7
370
     5
100
AcDbPoint
 10
853.6840430248233
 20
-256.0650500235244
 30
0.0
  0
POINT
  5
1C476
330
1F
100
AcDbEntity
  8
0
 62
     7
370
     5
100
AcDbPoint
 10
1100.710829294269
 20
-179.9690311044011
 30
0.0
  0
POINT
  5
1C484
330
1F
100
AcDbEntity
  8
0
 62
     7
370
     5
100
AcDbPoint
 10
1097.008556294269
 20
-246.8144071044011
 30
0.0
  0
POINT
  5
1C54E
330
1F
100
AcDbEntity
  8
0
 62
     7
370
     5
100
AcDbPoint
 10
327.4559894717282
 20
-242.3690707660675
 30
0.0
  0
POINT
  5
1C54F
330
1F
100
AcDbEntity
  8
0
 62
     7
370
     5
100
AcDbPoint
 10
323.7573724717281
 20
-242.3490727660675
 30
0.0
  0
POINT
  5
1C632
330
1F
100
AcDbEntity
  8
0
 62
     7
370
     5
100
AcDbPoint
 10
301.1069300782104
 20
37.7626127561465
 30
0.0
  0
POINT
  5
1C640
330
1F
100
AcDbEntity
  8
0
 62
     7
370
     5
100
AcDbPoint
 10
301.4480630782105
 20
-36.93915824385351
 30
0.0
  0
POINT
  5
1C6B9
330
1F
100
AcDbEntity
  8
0
 62
     1
370
     5
100
AcDbPoint
 10
582.4029449258979
 20
29.4620864008466
 30
0.0
  0
POINT
  5
1C6C7
330
1F
100
AcDbEntity
  8
0
 62
     7
370
     5
100
AcDbPoint
 10
567.6899119258981
 20
-44.52450559915339
 30
0.0
  0
POINT
  5
1C740
330
1F
100
AcDbEntity
  8
0
 62
     7
370
     5
100
AcDbPoint
 10
838.8170717714807
 20
31.21800268959555
 30
0.0
  0
POINT
  5
1C74E
330
1F
100
AcDbEntity
  8
0
 62
     7
370
     5
100
AcDbPoint
 10
830.8810477714807
 20
-42.18143931040443
 30
0.0
  0
POINT
  5
1C7C7
330
1F
100
AcDbEntity
  8
0
 62
     7
370
     5
100
AcDbPoint
 10
1082.103046320498
 20
26.65705560741793
 30
0.0
  0
POINT
  5
1C850
330
1F
100
AcDbEntity
  8
0
 62
     7
370
     5
100
AcDbPoint
 10
1320.708032031059
 20
-54.79519568133104
 30
0.0
  0
POINT
  5
1C851
330
1F
100
AcDbEntity
  8
0
 62
     7
370
     5
100
AcDbPoint
 10
1317.008086031059
 20
-54.77519668133105
 30
0.0
  0
POINT
  5
1C9A2
330
1F
100
AcDbEntity
  8
0
 62
     7
370
     5
100
AcDbPoint
 10
1351.994597785224
 20
-177.9923767989125
 30
0.0
  0
POINT
  5
1C9B0
330
1F
100
AcDbEntity
  8
0
 62
     7
370
     5
100
AcDbPoint
 10
1347.069666785224
 20
-246.9150937989126
 30
0.0
  0
POINT
  5
1C9B1
330
1F
100
AcDbEntity
  8
0
 62
     7
370
     5
100
AcDbPoint
 10
1343.369666785224
 20
-246.9154057989126
 30
0.0
  0
POINT
  5
1CBC0
330
1F
100
AcDbEntity
  8
0
 62
     7
370
     5
100
AcDbPoint
 10
317.2946666194903
 20
-384.0973382926297
 30
0.0
  0
POINT
  5
1CBCE
330
1F
100
AcDbEntity
  8
0
 62
     7
370
     5
100
AcDbPoint
 10
305.7896836194903
 20
-451.8667572926297
 30
0.0
  0
POINT
  5
1CE43
330
1F
100
AcDbEntity
  8
0
 62
     7
370
     5
100
AcDbPoint
 10
610.2304875856865
 20
-368.9630837278421
 30
0.0
  0
POINT
  5
1CE51
330
1F
100
AcDbEntity
  8
0
 62
     7
370
     5
100
AcDbPoint
 10
597.1811595856864
 20
-452.2435397278421
 30
0.0
  0
POINT
  5
1CFFB
330
1F
100
AcDbEntity
  8
0
 62
     7
370
     5
100
AcDbPoint
 10
839.2202580447737
 20
-378.5041957660768
 30
0.0
  0
POINT
  5
1D009
330
1F
100
AcDbEntity
  8
0
 62
     7
370
     5
100
AcDbPoint
 10
825.6021750447738
 20
-448.0865117660767
 30
0.0
  0
POINT
  5
1D1B5
330
1F
100
AcDbEntity
  8
0
 62
     7
370
     5
100
AcDbPoint
 10
1100.187375054744
 20
-364.0090280464956
 30
0.0
  0
POINT
  5
1D1C3
330
1F
100
AcDbEntity
  8
0
 62
     7
370
     5
100
AcDbPoint
 10
1086.025427054744
 20
-454.4328780464955
 30
0.0
  0
POINT
  5
1D374
330
1F
100
AcDbEntity
  8
0
 62
     7
370
     5
100
AcDbPoint
 10
1381.669306853374
 20
-372.7791370028926
 30
0.0
  0
POINT
  5
1D382
330
1F
100
AcDbEntity
  8
0
 62
     7
370
     5
100
AcDbPoint
 10
1368.476322853373
 20
-450.1870130028925
 30
0.0
  0
POINT
  5
1D6D5
330
1F
100
AcDbEntity
  8
0
 62
     7
370
     5
100
AcDbPoint
 10
555.980533625745
 20
-586.1972507296687
 30
0.0
  0
POINT
  5
1D6E2
330
1F
100
AcDbEntity
  8
0
 62
     7
370
     5
100
AcDbPoint
 10
545.2688206257452
 20
-642.7388317296686
 30
0.0
  0
POINT
  5
1D913
330
1F
100
AcDbEntity
  8
0
 62
     7
370
     5
100
AcDbPoint
 10
811.7646110501747
 20
-579.6655508098913
 30
0.0
  0
POINT
  5
1D920
330
1F
100
AcDbEntity
  8
0
 62
     7
370
     5
100
AcDbPoint
 10
805.5538980501744
 20
-635.4594578098913
 30
0.0
  0
POINT
  5
1DA40
330
1F
100
AcDbEntity
  8
0
 62
     7
370
     5
100
AcDbPoint
 10
298.0831789389279
 20
-586.3373810040569
 30
0.0
  0
POINT
  5
1E2C1
330
1F
100
AcDbEntity
  8
0
 62
     7
370
     5
100
AcDbPoint
 10
1353.213944337289
 20
-176.2661773838116
 30
0.0
  0
POINT
  5
1E2CF
330
1F
100
AcDbEntity
  8
0
 62
     7
370
     5
100
AcDbPoint
 10
1348.289013337289
 20
-245.1888943838117
 30
0.0
  0
POINT
  5
1E2D0
330
1F
100
AcDbEntity
  8
0
 62
     7
370
     5
100
AcDbPoint
 10
1344.589013337289
 20
-245.1892063838116
 30
0.0
  0
POINT
  5
1E4A3
330
1F
100
AcDbEntity
  8
0
 62
     7
370
     5
100
AcDbPoint
 10
1326.152836266696
 20
34.20326680208106
 30
0.0
  0
POINT
  5
1E4B1
330
1F
100
AcDbEntity
  8
0
 62
     7
370
     5
100
AcDbPoint
 10
1326.493969266696
 20
-40.49850419791893
 30
0.0
  0
POINT
  5
20BCD
330
1F
100
AcDbEntity
  8
0
 62
     7
370
     5
100
AcDbPoint
 10
198.5275522941832
 20
-13.7218025139382
 30
0.0
  0
POINT
  5
20BD6
330
1F
100
AcDbEntity
  8
0
 62
     7
370
     5
100
AcDbPoint
 10
220.4558262941833
 20
15.6077834860618
 30
0.0
  0
POINT
  5
20BD7
330
1F
100
AcDbEntity
  8
0
 62
     7
370
     5
100
AcDbPoint
 10
198.4558262941832
 20
12.6077834860618
 30
0.0
  0
POINT
  5
20C58
330
1F
100
AcDbEntity
  8
0
 62
     7
370
     5
100
AcDbPoint
 10
414.326812844455
 20
11.02280615656721
 30
0.0
  0
POINT
  5
20C59
330
1F
100
AcDbEntity
  8
0
 62
     7
370
     5
100
AcDbPoint
 10
392.3268128444551
 20
7.022806156567212
 30
0.0
  0
POINT
  5
20C5C
330
1F
100
AcDbEntity
  8
0
 62
     7
370
     5
100
AcDbPoint
 10
392.3268138444551
 20
-22.29245184343279
 30
0.0
  0
POINT
  5
20CE3
330
1F
100
AcDbEntity
  8
0
 62
     7
370
     5
100
AcDbPoint
 10
595.8481562583682
 20
11.26212415656721
 30
0.0
  0
POINT
  5
20CE4
330
1F
100
AcDbEntity
  8
0
 62
     7
370
     5
100
AcDbPoint
 10
561.8481562583682
 20
3.262124156567208
 30
0.0
  0
POINT
  5
20CE6
330
1F
100
AcDbEntity
  8
0
 62
     7
370
     5
100
AcDbPoint
 10
561.8481562583682
 20
-39.26495684343278
 30
0.0
  0
POINT
  5
20D5E
330
1F
100
AcDbEntity
  8
0
 62
     7
370
     5
100
AcDbPoint
 10
796.8108405913596
 20
-1.622354670075452
 30
0.0
  0
POINT
  5
20D5F
330
1F
100
AcDbEntity
  8
0
 62
     7
370
     5
100
AcDbPoint
 10
771.8108405913596
 20
-6.622354670075452
 30
0.0
  0
POINT
  5
20D62
330
1F
100
AcDbEntity
  8
0
 62
     7
370
     5
100
AcDbPoint
 10
771.8108415913595
 20
-44.22139367007546
 30
0.0
  0
POINT
  5
20DE5
330
1F
100
AcDbEntity
  8
0
 62
     7
370
     5
100
AcDbPoint
 10
997.5956593431575
 20
6.154053161141687
 30
0.0
  0
POINT
  5
20DE6
330
1F
100
AcDbEntity
  8
0
 62
     7
370
     5
100
AcDbPoint
 10
963.5956593431576
 20
-3.84594683885831
 30
0.0
  0
POINT
  5
20DE8
330
1F
100
AcDbEntity
  8
0
 62
     7
370
     5
100
AcDbPoint
 10
963.5956593431576
 20
-48.6248158388583
 30
0.0
  0
POINT
  5
20E5D
330
1F
100
AcDbEntity
  8
0
 62
     7
370
     5
100
AcDbPoint
 10
209.7442369247441
 20
-211.8062287972217
 30
0.0
  0
POINT
  5
20E66
330
1F
100
AcDbEntity
  8
0
 62
     7
370
     5
100
AcDbPoint
 10
231.7442369247441
 20
-173.8710347972217
 30
0.0
  0
POINT
  5
20E67
330
1F
100
AcDbEntity
  8
0
 62
     7
370
     5
100
AcDbPoint
 10
209.7442369247441
 20
-179.3710347972217
 30
0.0
  0
POINT
  5
20EE1
330
1F
100
AcDbEntity
  8
0
 62
     7
370
     5
100
AcDbPoint
 10
384.6743099214819
 20
-210.4126915562921
 30
0.0
  0
POINT
  5
20EEB
330
1F
100
AcDbEntity
  8
0
 62
     7
370
     5
100
AcDbPoint
 10
409.6743099214817
 20
-168.248029556292
 30
0.0
  0
POINT
  5
20EEC
330
1F
100
AcDbEntity
  8
0
 62
     7
370
     5
100
AcDbPoint
 10
384.6743099214819
 20
-174.248029556292
 30
0.0
  0
POINT
  5
20F6B
330
1F
100
AcDbEntity
  8
0
 62
     7
370
     5
100
AcDbPoint
 10
589.027789486203
 20
-154.2267571311068
 30
0.0
  0
POINT
  5
20F6C
330
1F
100
AcDbEntity
  8
0
 62
     7
370
     5
100
AcDbPoint
 10
555.027789486203
 20
-166.2267571311068
 30
0.0
  0
POINT
  5
20F6E
330
1F
100
AcDbEntity
  8
0
 62
     7
370
     5
100
AcDbPoint
 10
555.027789486203
 20
-220.1583441311068
 30
0.0
  0
POINT
  5
20FE7
330
1F
100
AcDbEntity
  8
0
 62
     7
370
     5
100
AcDbPoint
 10
794.4609892408081
 20
-176.9240641499829
 30
0.0
  0
POINT
  5
20FE8
330
1F
100
AcDbEntity
  8
0
 62
     7
370
     5
100
AcDbPoint
 10
772.4609892408077
 20
-183.4240641499829
 30
0.0
  0
POINT
  5
20FEB
330
1F
100
AcDbEntity
  8
0
 62
     7
370
     5
100
AcDbPoint
 10
772.4609902408077
 20
-220.0080011499829
 30
0.0
  0
POINT
  5
21068
330
1F
100
AcDbEntity
  8
0
 62
     7
370
     5
100
AcDbPoint
 10
980.7257767233267
 20
-225.8659069279295
 30
0.0
  0
POINT
  5
21072
330
1F
100
AcDbEntity
  8
0
 62
     7
370
     5
100
AcDbPoint
 10
1000.725776723327
 20
-181.1593259279295
 30
0.0
  0
POINT
  5
21073
330
1F
100
AcDbEntity
  8
0
 62
     7
370
     5
100
AcDbPoint
 10
980.7257767233267
 20
-188.1593259279295
 30
0.0
  0
POINT
  5
24E51
330
1F
100
AcDbEntity
  8
0
 62
     7
370
     5
100
AcDbPoint
 10
233.2059843961101
 20
-36.0789366070161
 30
0.0
  0
POINT
  5
24E5A
330
1F
100
AcDbEntity
  8
0
 62
     7
370
     5
100
AcDbPoint
 10
314.4377803961102
 20
35.1487553929839
 30
0.0
  0
POINT
  5
24E5B
330
1F
100
AcDbEntity
  8
0
 62
     7
370
     5
100
AcDbPoint
 10
234.4377803961101
 20
19.1487553929839
 30
0.0
  0
POINT
  5
24ECD
330
1F
100
AcDbEntity
  8
0
 62
     7
370
     5
100
AcDbPoint
 10
503.7517578950278
 20
-44.34341865794009
 30
0.0
  0
POINT
  5
24ED5
330
1F
100
AcDbEntity
  8
0
 62
     7
370
     5
100
AcDbPoint
 10
589.9610418950277
 20
46.51953834205989
 30
0.0
  0
POINT
  5
24ED6
330
1F
100
AcDbEntity
  8
0
 62
     7
370
     5
100
AcDbPoint
 10
504.9610418950278
 20
26.51953834205989
 30
0.0
  0
POINT
  5
24F33
330
1F
100
AcDbEntity
  8
0
 62
     7
370
     5
100
AcDbPoint
 10
804.954816789268
 20
-53.36089903708293
 30
0.0
  0
POINT
  5
24F3B
330
1F
100
AcDbEntity
  8
0
 62
     7
370
     5
100
AcDbPoint
 10
901.222594789268
 20
37.79953596291708
 30
0.0
  0
POINT
  5
24F3C
330
1F
100
AcDbEntity
  8
0
 62
     7
370
     5
100
AcDbPoint
 10
806.2225947892681
 20
17.79953596291707
 30
0.0
  0
POINT
  5
24F9C
330
1F
100
AcDbEntity
  8
0
 62
     7
370
     5
100
AcDbPoint
 10
1210.776659634684
 20
28.2041337387349
 30
0.0
  0
POINT
  5
24F9D
330
1F
100
AcDbEntity
  8
0
 62
     7
370
     5
100
AcDbPoint
 10
1125.776659634684
 20
3.204133738734923
 30
0.0
  0
POINT
  5
24FA0
330
1F
100
AcDbEntity
  8
0
 62
     7
370
     5
100
AcDbPoint
 10
1122.825092634684
 20
-62.80906226126507
 30
0.0
  0
POINT
  5
25003
330
1F
100
AcDbEntity
  8
0
 62
     7
370
     5
100
AcDbPoint
 10
1533.294671945107
 20
39.46909335504969
 30
0.0
  0
POINT
  5
25004
330
1F
100
AcDbEntity
  8
0
 62
     7
370
     5
100
AcDbPoint
 10
1423.294671945108
 20
14.46909335504972
 30
0.0
  0
POINT
  5
25007
330
1F
100
AcDbEntity
  8
0
 62
     7
370
     5
100
AcDbPoint
 10
1423.294671945108
 20
-61.69357464495027
 30
0.0
  0
POINT
  5
25069
330
1F
100
AcDbEntity
  8
0
 62
     7
370
     5
100
AcDbPoint
 10
279.5191352462189
 20
-235.8578081995934
 30
0.0
  0
POINT
  5
2506A
330
1F
100
AcDbEntity
  8
0
 62
     7
370
     5
100
AcDbPoint
 10
224.5191352462189
 20
-255.8578081995934
 30
0.0
  0
POINT
  5
2506E
330
1F
100
AcDbEntity
  8
0
 62
     7
370
     5
100
AcDbPoint
 10
223.2724782462189
 20
-314.3072531995934
 30
0.0
  0
POINT
  5
250D0
330
1F
100
AcDbEntity
  8
0
 62
     7
370
     5
100
AcDbPoint
 10
552.5501754157779
 20
-231.1433806045495
 30
0.0
  0
POINT
  5
250D1
330
1F
100
AcDbEntity
  8
0
 62
     7
370
     5
100
AcDbPoint
 10
487.5501754157781
 20
-256.1433806045495
 30
0.0
  0
POINT
  5
250D5
330
1F
100
AcDbEntity
  8
0
 62
     7
370
     5
100
AcDbPoint
 10
487.5501754157781
 20
-323.3343576045494
 30
0.0
  0
POINT
  5
25137
330
1F
100
AcDbEntity
  8
0
 62
     7
370
     5
100
AcDbPoint
 10
855.1566106432487
 20
-229.371519220024
 30
0.0
  0
POINT
  5
25138
330
1F
100
AcDbEntity
  8
0
 62
     7
370
     5
100
AcDbPoint
 10
762.1566106432488
 20
-260.871519220024
 30
0.0
  0
POINT
  5
2513C
330
1F
100
AcDbEntity
  8
0
 62
     7
370
     5
100
AcDbPoint
 10
760.9104996432486
 20
-349.238300220024
 30
0.0
  0
POINT
  5
2519F
330
1F
100
AcDbEntity
  8
0
 62
     7
370
     5
100
AcDbPoint
 10
1192.36388959937
 20
-218.9805098816409
 30
0.0
  0
POINT
  5
251A0
330
1F
100
AcDbEntity
  8
0
 62
     7
370
     5
100
AcDbPoint
 10
1092.36388959937
 20
-258.9805098816409
 30
0.0
  0
POINT
  5
251A4
330
1F
100
AcDbEntity
  8
0
 62
     7
370
     5
100
AcDbPoint
 10
1092.54560259937
 20
-365.6111158816409
 30
0.0
  0
POINT
  5
27C4D
330
1F
100
AcDbEntity
  8
1
 62
     7
370
     5
100
AcDbPoint
 10
185.936684180983
 20
12.22790901277693
 30
0.0
  0
POINT
  5
27C4E
330
1F
100
AcDbEntity
  8
1
 62
     7
370
     5
100
AcDbPoint
 10
185.936684180983
 20
9.517281012776946
 30
0.0
  0
POINT
  5
27DA0
330
1F
100
AcDbEntity
  8
1
 62
     7
370
     5
100
AcDbPoint
 10
159.7240994851886
 20
22.81916357545765
 30
0.0
  0
POINT
  5
27DA1
330
1F
100
AcDbEntity
  8
1
 62
     7
370
     5
100
AcDbPoint
 10
159.7240994851886
 20
20.10853557545767
 30
0.0
  0
POINT
  5
28B80
330
1F
100
AcDbEntity
  8
0
 62
     7
370
     5
100
AcDbPoint
 10
-108.3844236581584
 20
-61.41399158543199
 30
0.0
  0
POINT
  5
28D5B
330
1F
100
AcDbEntity
  8
0
 62
     7
370
     5
100
AcDbPoint
 10
-94.15639370577505
 20
-48.79010226493504
 30
0.0
  0
DIMENSION
  5
28EA8
330
1F
100
AcDbEntity
  8
SK2
100
AcDbDimension
  2
*D8
 10
-43.21320600000006
 20
8.0
 30
0.0
 11
-43.21320600000006
 21
0.7841760000000022
 31
0.0
 70
   161
  1
M<>
 71
     5
 42
16.0
  3
MM_STANDARD
100
AcDbAlignedDimension
 13
-25.00000000000006
 23
-8.0
 33
0.0
 14
-25.00000000000006
 24
8.0
 34
0.0
1001
ACAD
1000
DSTYLE
1002
{
1070
    78
1070
     9
1070
    79
1070
     2
1070
    90
1070
     1
1070
   172
1070
     1
1070
   345
1005
14
1070
   346
1005
14
1070
   347
1005
14
1002
}
1001
ACAD_DSTYLE_DIMARC_LENGTH_SYMBOL
1070
   379
1070
     1
1001
ACAD_DSTYLE_DIM_LINETYPE
1070
   380
1005
14
1001
ACAD_DSTYLE_DIM_EXT1_LINETYPE
1070
   381
1005
14
1001
ACAD_DSTYLE_DIM_EXT2_LINETYPE
1070
   382
1005
14
  0
DIMENSION
  5
28ED0
330
1F
100
AcDbEntity
  8
SK2
100
AcDbDimension
  2
*D10
 10
-24.99929487065345
 20
50.34898906455494
 30
0.0
 11
6.475220000000008
 21
50.348465
 31
0.0
 70
   160
 71
     5
 42
62.95036093259096
  3
MM_STANDARD
100
AcDbAlignedDimension
 13
37.95043899999999
 23
12.688085
 33
0.0
 14
-25.00000000000006
 24
8.0
 34
0.0
 50
179.999046
100
AcDbRotatedDimension
1001
ACAD
1000
DSTYLE
1002
{
1070
    78
1070
     9
1070
   271
1070
     0
1070
    79
1070
     2
1070
    90
1070
     1
1070
   172
1070
     1
1070
   345
1005
14
1070
   346
1005
14
1070
   347
1005
14
1002
}
1001
ACAD_DSTYLE_DIMARC_LENGTH_SYMBOL
1070
   379
1070
     1
1001
ACAD_DSTYLE_DIM_LINETYPE
1070
   380
1005
14
1001
ACAD_DSTYLE_DIM_EXT1_LINETYPE
1070
   381
1005
14
1001
ACAD_DSTYLE_DIM_EXT2_LINETYPE
1070
   382
1005
14
  0
DIMENSION
  5
28EDD
330
1F
100
AcDbEntity
  8
2
100
AcDbDimension
  2
*D11
 10
36.176434
 20
13.63110599999999
 30
0.0
 11
52.47955168600341
 21
23.10079176917398
 31
0.0
 70
   162
  1
<>~83%%d
 71
     5
 42
1.169370812019594
  3
MM_STANDARD
100
AcDb2LineAngularDimension
 13
37.95043899999999
 23
12.878086
 33
0.0
 14
37.95043899999999
 24
13.55830399999999
 34
0.0
 15
37.95043899999999
 25
12.878086
 35
0.0
 16
34.19908899999999
 26
22.00968499999999
 36
0.0
1001
ACAD
1000
DSTYLE
1002
{
1070
   279
1070
     0
1070
    78
1070
     9
1070
    79
1070
     2
1070
    90
1070
     1
1070
   172
1070
     1
1070
   345
1005
14
1070
   346
1005
14
1070
   347
1005
14
1002
}
1001
ACAD_DSTYLE_DIMARC_LENGTH_SYMBOL
1070
   379
1070
     1
1001
ACAD_DSTYLE_DIM_LINETYPE
1070
   380
1005
14
1001
ACAD_DSTYLE_DIM_EXT1_LINETYPE
1070
   381
1005
14
1001
ACAD_DSTYLE_DIM_EXT2_LINETYPE
1070
   382
1005
14
  0
DIMENSION
  5
28EEC
330
1F
100
AcDbEntity
  8
2
100
AcDbDimension
  2
*D12
 10
26.25023930154266
 20
30.34833630155965
 30
0.0
 11
17.20868975957742
 21
30.34848684734744
 31
0.0
 70
   160
 71
     5
 42
11.69511251770943
  3
MM_STANDARD
100
AcDbAlignedDimension
 13
37.94505699999999
 23
12.64184599999999
 33
0.0
 14
26.25
 24
15.97625199999999
 34
0.0
 50
179.999046
100
AcDbRotatedDimension
1001
ACAD
1000
DSTYLE
1002
{
1070
   279
1070
     0
1070
    78
1070
     9
1070
    79
1070
     2
1070
    90
1070
     1
1070
   172
1070
     1
1070
   345
1005
14
1070
   346
1005
14
1070
   347
1005
14
1002
}
1001
ACAD_DSTYLE_DIMARC_LENGTH_SYMBOL
1070
   379
1070
     1
1001
ACAD_DSTYLE_DIM_LINETYPE
1070
   380
1005
14
1001
ACAD_DSTYLE_DIM_EXT1_LINETYPE
1070
   381
1005
14
1001
ACAD_DSTYLE_DIM_EXT2_LINETYPE
1070
   382
1005
14
  0
POINT
  5
28EFB
330
1F
100
AcDbEntity
  8
1
 62
     7
370
     5
100
AcDbPoint
 10
-226.0613270097893
 20
13.13607836165016
 30
0.0
  0
LINE
  5
28EFE
330
1F
100
AcDbEntity
  8
1
100
AcDbLine
 10
36.102018
 20
0.0
 30
0.0
 11
37.24621299999998
 21
0.0
 31
0.0
  0
LINE
  5
28EFF
330
1F
100
AcDbEntity
  8
4
100
AcDbLine
 10
40.51176199999999
 20
0.0
 30
0.0
 11
0.0
 21
0.0
 31
0.0
  0
DIMENSION
  5
29027
330
1F
100
AcDbEntity
  8
SK2
100
AcDbDimension
  2
*D13
 10
-54.97057518549147
 20
-14.50000000000001
 30
0.0
 11
-57.81658713208315
 21
0.0000000000000073
 31
0.0
 70
    32
  1
%%C<>
 71
     5
 41
0.0
 42
29.00000000000001
  3
MM_STANDARD
100
AcDbAlignedDimension
 13
-0.0000000000000284
 23
14.5
 33
0.0
 14
-0.0000000000000284
 24
-14.5
 34
0.0
 50
90.0
100
AcDbRotatedDimension
1001
ACAD
1000
DSTYLE
1002
{
1070
    78
1070
     9
1070
    79
1070
     2
1070
    90
1070
     1
1070
   172
1070
     1
1070
   345
1005
14
1070
   346
1005
14
1070
   347
1005
14
1002
}
1001
ACAD_DSTYLE_DIMARC_LENGTH_SYMBOL
1070
   379
1070
     1
1001
ACAD_DSTYLE_DIM_LINETYPE
1070
   380
1005
14
1001
ACAD_DSTYLE_DIM_EXT1_LINETYPE
1070
   381
1005
14
1001
ACAD_DSTYLE_DIM_EXT2_LINETYPE
1070
   382
1005
14
  0
DIMENSION
  5
29162
330
1F
100
AcDbEntity
  8
2
100
AcDbDimension
  2
*D14
 10
70.35053156243225
 20
-16.0
 30
0.0
 11
70.35053156243224
 21
-0.1226261745613897
 31
0.0
 70
   160
  1
%%C<>
 71
     5
 41
0.0
 42
32.00000000000001
  3
MM_STANDARD
100
AcDbAlignedDimension
 13
26.25000039541467
 23
16.0
 33
0.0
 14
43.36504999999998
 24
-16.0
 34
0.0
 50
90.0
100
AcDbRotatedDimension
1001
ACAD_DSTYLE_DIMARC_LENGTH_SYMBOL
1070
   379
1070
     1
1001
ACAD_DSTYLE_DIM_LINETYPE
1070
   380
1005
14
1001
ACAD_DSTYLE_DIM_EXT1_LINETYPE
1070
   381
1005
14
1001
ACAD_DSTYLE_DIM_EXT2_LINETYPE
1070
   382
1005
14
1001
ACAD
1000
DSTYLE
1002
{
1070
    76
1070
     1
1070
    78
1070
     9
1070
    79
1070
     2
1070
    90
1070
     1
1070
   172
1070
     1
1070
   173
1070
     1
1070
   271
1070
     0
1070
   282
1070
     1
1070
   344
1005
295E5
1070
   345
1005
14
1070
   346
1005
14
1070
   347
1005
14
1002
}
  0
ARC
  5
29202
330
1F
100
AcDbEntity
  8
1
100
AcDbCircle
 10
91.90922099999999
 20
19.758014
 30
0.0
 40
58.869162
100
AcDbArc
 50
198.850055
 51
201.538593
  0
LINE
  5
29203
330
1F
100
AcDbEntity
  8
1
100
AcDbLine
 10
37.14999999999998
 20
-0.5113819999999976
 30
0.0
 11
36.59455799999998
 21
-0.3886109999999974
 31
0.0
  0
LINE
  5
29204
330
1F
100
AcDbEntity
  8
1
100
AcDbLine
 10
37.14999999999998
 20
-0.5113819999999976
 30
0.0
 11
37.14999999999998
 21
-1.854919000000002
 31
0.0
  0
LINE
  5
29205
330
1F
100
AcDbEntity
  8
1
100
AcDbLine
 10
37.14999999999998
 20
-10.79875
 30
0.0
 11
37.11895699999999
 21
-10.66891200000001
 31
0.0
  0
LINE
  5
29206
330
1F
100
AcDbEntity
  8
1
100
AcDbLine
 10
37.14999999999998
 20
-10.798748
 30
0.0
 11
37.14999999999998
 21
-11.078316
 31
0.0
  0
LINE
  5
29207
330
1F
100
AcDbEntity
  8
1
100
AcDbLine
 10
37.14999999999998
 20
-11.07792000000001
 30
0.0
 11
37.06466499999999
 21
-10.6874
 31
0.0
  0
LINE
  5
29208
330
1F
100
AcDbEntity
  8
1
100
AcDbLine
 10
37.14999999999998
 20
10.404401
 30
0.0
 11
37.14999999999998
 21
7.665989999999999
 31
0.0
  0
LINE
  5
29209
330
1F
100
AcDbEntity
  8
1
100
AcDbLine
 10
37.14999999999998
 20
-2.222827
 30
0.0
 11
37.14999999999998
 21
-6.538423999999999
 31
0.0
  0
LINE
  5
2920A
330
1F
100
AcDbEntity
  8
1
100
AcDbLine
 10
37.14999999999998
 20
-1.854833999999995
 30
0.0
 11
37.14999999999998
 21
-2.222827
 31
0.0
  0
LINE
  5
2920B
330
1F
100
AcDbEntity
  8
1
100
AcDbLine
 10
37.14999999999998
 20
-11.778184
 30
0.0
 11
37.14999999999998
 21
-11.872024
 31
0.0
  0
LINE
  5
2920C
330
1F
100
AcDbEntity
  8
1
100
AcDbLine
 10
37.14999999999998
 20
-11.07791399999999
 30
0.0
 11
37.14999999999998
 21
-11.778184
 31
0.0
  0
LINE
  5
2920D
330
1F
100
AcDbEntity
  8
1
100
AcDbLine
 10
36.745341
 20
-12.356435
 30
0.0
 11
36.745341
 21
-12.439335
 31
0.0
  0
ARC
  5
2920E
330
1F
100
AcDbEntity
  8
1
100
AcDbCircle
 10
36.546565
 20
-11.78852499999999
 30
0.0
 40
0.6025640000000064
100
AcDbArc
 50
289.2906879999998
 51
0.9817449999998416
  0
ELLIPSE
  5
2920F
330
1F
100
AcDbEntity
  8
1
100
AcDbEllipse
 10
36.550173
 20
-6.573424000000002
 30
0.0
 11
0.5991615056991578
 21
0.0507663674652577
 31
0.0
210
0.0
220
0.0
230
1.0
 40
0.5565590000000002
 41
4.996674390445034
 42
6.236058874869423
  0
LINE
  5
29210
330
1F
100
AcDbEntity
  8
1
100
AcDbLine
 10
36.745341
 20
-2.454791999999998
 30
0.0
 11
36.745341
 21
-6.879269999999997
 31
0.0
  0
SPLINE
  5
29211
330
1F
100
AcDbEntity
  8
1
100
AcDbSpline
210
0.0
220
0.0
230
1.0
 70
     8
 71
     5
 72
    18
 73
    12
 74
     0
 42
0.000000001
 43
0.0000000001
 40
0.0
 40
0.0
 40
0.0
 40
0.0
 40
0.0
 40
0.0
 40
0.4227664871995567
 40
0.4227664871995567
 40
0.4227664871995567
 40
0.8534938480547246
 40
0.8534938480547246
 40
0.8534938480547246
 40
1.074078806949987
 40
1.074078806949987
 40
1.074078806949987
 40
1.074078806949987
 40
1.074078806949987
 40
1.074078806949987
 10
36.74534089267428
 20
-2.454792212083459
 30
0.0
 10
36.8017481730175
 20
-2.454922149643201
 30
0.0
 10
36.85591957575571
 20
-2.450784899954292
 30
0.0
 10
36.90647461476058
 20
-2.442324014775934
 30
0.0
 10
36.99876646534176
 20
-2.416999269056717
 30
0.0
 10
37.06807274136668
 20
-2.376914656784628
 30
0.0
 10
37.09635602404558
 20
-2.353406682758452
 30
0.0
 10
37.12850291003532
 20
-2.313911621373135
 30
0.0
 10
37.14459997118375
 20
-2.269871808055029
 30
0.0
 10
37.14821047920248
 20
-2.254519089203773
 30
0.0
 10
37.15000000000003
 20
-2.238811741591134
 30
0.0
 10
37.14999999999998
 20
-2.22282726167856
 30
0.0
  0
SPLINE
  5
29212
330
1F
100
AcDbEntity
  8
1
100
AcDbSpline
210
0.0
220
0.0
230
1.0
 70
     8
 71
     5
 72
    18
 73
    12
 74
     0
 42
0.000000001
 43
0.0000000001
 40
0.0
 40
0.0
 40
0.0
 40
0.0
 40
0.0
 40
0.0
 40
0.422766487184461
 40
0.422766487184461
 40
0.422766487184461
 40
0.8534938480379219
 40
0.8534938480379219
 40
0.8534938480379219
 40
1.074078806933767
 40
1.074078806933767
 40
1.074078806933767
 40
1.074078806933767
 40
1.074078806933767
 40
1.074078806933767
 10
36.74534089267428
 20
10.83929003332254
 30
0.0
 10
36.80174817301548
 20
10.8203824886935
 30
0.0
 10
36.85591957575187
 20
10.79674813215021
 30
0.0
 10
36.90647461476385
 20
10.7687812542651
 30
0.0
 10
36.99876646534281
 20
10.70503249758899
 30
0.0
 10
37.06807274136636
 20
10.63009158383312
 30
0.0
 10
37.0963560240458
 20
10.59032211585701
 30
0.0
 10
37.12850291003537
 20
10.52870441065567
 30
0.0
 10
37.1445999711838
 20
10.46667453103488
 30
0.0
 10
37.14821047920248
 20
10.44572697681267
 30
0.0
 10
37.14999999999998
 20
10.42493954081476
 30
0.0
 10
37.14999999999998
 20
10.40440115729994
 30
0.0
  0
LINE
  5
29213
330
1F
100
AcDbEntity
  8
1
100
AcDbLine
 10
36.745341
 20
10.83929
 30
0.0
 11
36.745341
 21
7.772066999999998
 31
0.0
  0
LINE
  5
29214
330
1F
100
AcDbEntity
  8
1
100
AcDbLine
 10
35.89768599999999
 20
-7.091790000000002
 30
0.0
 11
36.745341
 21
-6.879269999999997
 31
0.0
  0
LINE
  5
29215
330
1F
100
AcDbEntity
  8
1
100
AcDbLine
 10
34.55610399999998
 20
-7.355341000000002
 30
0.0
 11
35.89768599999999
 21
-7.091790000000002
 31
0.0
  0
LINE
  5
29216
330
1F
100
AcDbEntity
  8
1
100
AcDbLine
 10
34.55610399999998
 20
-2.449240000000003
 30
0.0
 11
34.55610399999998
 21
-7.355341000000002
 31
0.0
  0
LINE
  5
29217
330
1F
100
AcDbEntity
  8
1
100
AcDbLine
 10
34.55610399999998
 20
-2.449240000000003
 30
0.0
 11
36.745341
 21
-2.454791999999998
 31
0.0
  0
LINE
  5
29218
330
1F
100
AcDbEntity
  8
1
100
AcDbLine
 10
34.55610399999998
 20
11.572461
 30
0.0
 11
36.745341
 21
10.83929
 31
0.0
  0
LINE
  5
29219
330
1F
100
AcDbEntity
  8
1
100
AcDbLine
 10
34.55610399999998
 20
11.572461
 30
0.0
 11
34.55610399999998
 21
8.250455000000002
 31
0.0
  0
LINE
  5
2921A
330
1F
100
AcDbEntity
  8
1
100
AcDbLine
 10
34.55610399999998
 20
-13.086175
 30
0.0
 11
34.55610399999998
 21
-13.19315
 31
0.0
  0
LINE
  5
2921B
330
1F
100
AcDbEntity
  8
1
100
AcDbLine
 10
34.55610399999998
 20
-13.086175
 30
0.0
 11
36.745341
 21
-12.356435
 31
0.0
  0
LINE
  5
2921C
330
1F
100
AcDbEntity
  8
1
100
AcDbLine
 10
22.08282499999999
 20
-13.808029
 30
0.0
 11
22.08282499999999
 21
-15.083383
 31
0.0
  0
SPLINE
  5
2921D
330
1F
100
AcDbEntity
  8
1
100
AcDbSpline
210
0.0
220
0.0
230
1.0
 70
     8
 71
     5
 72
    12
 73
     6
 74
     0
 42
0.000000001
 43
0.0000000001
 40
0.0
 40
0.0
 40
0.0
 40
0.0
 40
0.0
 40
0.0
 40
13.90990845629235
 40
13.90990845629235
 40
13.90990845629235
 40
13.90990845629235
 40
13.90990845629235
 40
13.90990845629235
 10
29.30166915156448
 20
-14.36329585062155
 30
0.0
 10
27.75254495134922
 20
-14.60441671826698
 30
0.0
 10
26.20874403870097
 20
-14.70382441754944
 30
0.0
 10
24.71075217036037
 20
-14.64004099144469
 30
0.0
 10
23.3306895777099
 20
-14.33901512359571
 30
0.0
 10
22.08282503997347
 20
-13.80802909390262
 30
0.0
  0
ARC
  5
2921E
330
1F
100
AcDbEntity
  8
1
100
AcDbCircle
 10
24.29175699999999
 20
17.685503
 30
0.0
 40
32.438236
100
AcDbArc
 50
278.8846509999999
 51
288.4468800000001
  0
SPLINE
  5
2921F
330
1F
100
AcDbEntity
  8
1
100
AcDbSpline
210
0.0
220
0.0
230
1.0
 70
     8
 71
     5
 72
    15
 73
     9
 74
     0
 42
0.000000001
 43
0.0000000001
 40
0.0
 40
0.0
 40
0.0
 40
0.0
 40
0.0
 40
0.0
 40
10.06575203007452
 40
10.06575203007452
 40
10.06575203007452
 40
14.43160973225831
 40
14.43160973225831
 40
14.43160973225831
 40
14.43160973225831
 40
14.43160973225831
 40
14.43160973225831
 10
29.30166915156448
 20
-2.186644148315942
 30
0.0
 10
28.17804142803067
 20
-2.078878802315534
 30
0.0
 10
27.06573506356574
 20
-1.807745142434285
 30
0.0
 10
25.99335441011823
 20
-1.376094096286579
 30
0.0
 10
24.53758450688818
 20
-0.5593875277784548
 30
0.0
 10
23.21240528013976
 20
0.4742979268000695
 30
0.0
 10
22.82320656200395
 20
0.8049061447750034
 30
0.0
 10
22.44702671235169
 20
1.149514857719807
 30
0.0
 10
22.08282503997347
 20
1.506143705483188
 30
0.0
  0
ARC
  5
29220
330
1F
100
AcDbEntity
  8
1
100
AcDbCircle
 10
34.76617499999998
 20
54.328561
 30
0.0
 40
56.778493
100
AcDbArc
 50
264.477188
 51
269.7880129999999
  0
ARC
  5
29221
330
1F
100
AcDbEntity
  8
1
100
AcDbCircle
 10
116.697404
 20
-425.1936699999998
 30
0.0
 40
425.8357669999998
100
AcDbArc
 50
101.121743
 51
101.992421
  0
ARC
  5
29222
330
1F
100
AcDbEntity
  8
1
100
AcDbCircle
 10
19.71228399999998
 20
52.854843
 30
0.0
 40
62.09165200000001
100
AcDbArc
 50
275.4939319999999
 51
277.871882
  0
ARC
  5
29223
330
1F
100
AcDbEntity
  8
1
100
AcDbCircle
 10
-10.31517600000001
 20
-11.591205
 30
0.0
 40
36.06862300000001
100
AcDbArc
 50
1.083999000000009
 51
4.196818000000009
  0
ARC
  5
29224
330
1F
100
AcDbEntity
  8
1
100
AcDbCircle
 10
20.21068799999998
 20
49.445436
 30
0.0
 40
60.60764899999998
100
AcDbArc
 50
271.770117
 51
275.2408629999999
  0
LINE
  5
29225
330
1F
100
AcDbEntity
  8
1
100
AcDbLine
 10
22.08282499999999
 20
1.506143999999999
 30
0.0
 11
22.08282499999999
 21
-11.133274
 31
0.0
  0
ARC
  5
29226
330
1F
100
AcDbEntity
  8
1
100
AcDbCircle
 10
-14.10409600000003
 20
5.989730000000002
 30
0.0
 40
39.85307600000001
100
AcDbArc
 50
0.6280930000000037
 51
3.890574000000001
  0
ARC
  5
29227
330
1F
100
AcDbEntity
  8
1
100
AcDbCircle
 10
26.73984299999998
 20
-48.52557199999999
 30
0.0
 40
54.961162
100
AcDbArc
 50
91.035319
 51
94.860664
  0
LINE
  5
29228
330
1F
100
AcDbEntity
  8
1
100
AcDbLine
 10
22.08282499999999
 20
14.738877
 30
0.0
 11
22.08282499999999
 21
6.237938999999997
 31
0.0
  0
SPLINE
  5
29229
330
1F
100
AcDbEntity
  8
1
100
AcDbSpline
210
0.0
220
0.0
230
1.0
 70
     8
 71
     5
 72
    15
 73
     9
 74
     0
 42
0.000000001
 43
0.0000000001
 40
0.0
 40
0.0
 40
0.0
 40
0.0
 40
0.0
 40
0.0
 40
9.926086700869008
 40
9.926086700869008
 40
9.926086700869008
 40
13.96374934343847
 40
13.96374934343847
 40
13.96374934343847
 40
13.96374934343847
 40
13.96374934343847
 40
13.96374934343847
 10
29.30166915156448
 20
13.01187544566124
 30
0.0
 10
28.19996226527911
 20
13.24865919567029
 30
0.0
 10
27.10609639161541
 20
13.510212666279
 30
0.0
 10
26.03254759908359
 20
13.79073876666949
 30
0.0
 10
24.57742850226313
 20
14.18122258171013
 30
0.0
 10
23.21391717258768
 20
14.5079399174391
 30
0.0
 10
22.82763324738465
 20
14.59516602121314
 30
0.0
 10
22.45059207708732
 20
14.67280131860174
 30
0.0
 10
22.08282503997347
 20
14.73887709583295
 30
0.0
  0
ARC
  5
2922A
330
1F
100
AcDbEntity
  8
1
100
AcDbCircle
 10
18.97976299999999
 20
-34.975124
 30
0.0
 40
49.084603
100
AcDbArc
 50
71.49807800000002
 51
77.86075399999998
  0
ARC
  5
2922B
330
1F
100
AcDbEntity
  8
1
100
AcDbCircle
 10
22.85906199999999
 20
-20.92721299999999
 30
0.0
 40
35.924155
100
AcDbArc
 50
85.46502099999996
 51
91.23812499999997
  0
SPLINE
  5
2922C
330
1F
100
AcDbEntity
  8
1
100
AcDbSpline
210
0.0
220
0.0
230
1.0
 70
     8
 71
     5
 72
    12
 73
     6
 74
     0
 42
0.000000001
 43
0.0000000001
 40
0.0
 40
0.0
 40
0.0
 40
0.0
 40
0.0
 40
0.0
 40
6.94853238723774
 40
6.94853238723774
 40
6.94853238723774
 40
6.94853238723774
 40
6.94853238723774
 40
6.94853238723774
 10
22.08282503997347
 20
1.506143705483204
 30
0.0
 10
21.4649149560602
 20
2.083251536803941
 30
0.0
 10
20.89269674433737
 20
2.723276881835522
 30
0.0
 10
20.36722261128153
 20
3.384028097921231
 30
0.0
 10
19.88337290015613
 20
4.043986366686097
 30
0.0
 10
19.44129663001698
 20
4.688672977229075
 30
0.0
  0
SPLINE
  5
2922D
330
1F
100
AcDbEntity
  8
1
100
AcDbSpline
210
0.0
220
0.0
230
1.0
 70
     8
 71
     5
 72
    18
 73
    12
 74
     0
 42
0.000000001
 43
0.0000000001
 40
0.0
 40
0.0
 40
0.0
 40
0.0
 40
0.0
 40
0.0
 40
0.9905165683778051
 40
0.9905165683778051
 40
0.9905165683778051
 40
1.757964079432507
 40
1.757964079432507
 40
1.757964079432507
 40
2.498621401118837
 40
2.498621401118837
 40
2.498621401118837
 40
2.498621401118837
 40
2.498621401118837
 40
2.498621401118837
 10
19.90338508801472
 20
5.898998770107851
 30
0.0
 10
19.79632764819311
 20
5.866109465575846
 30
0.0
 10
19.69354839820983
 20
5.813123879115921
 30
0.0
 10
19.5991817905259
 20
5.740365467177239
 30
0.0
 10
19.45502651920535
 20
5.580377494143072
 30
0.0
 10
19.36403634157702
 20
5.380522447532911
 30
0.0
 10
19.33617717736738
 20
5.287828719065672
 30
0.0
 10
19.30777922695913
 20
5.101245088593351
 30
0.0
 10
19.33225554223833
 20
4.919529835634186
 30
0.0
 10
19.35726714340294
 20
4.834769588165507
 30
0.0
 10
19.39426914519311
 20
4.757253880211983
 30
0.0
 10
19.44129663001698
 20
4.688672977229089
 30
0.0
  0
ARC
  5
2922E
330
1F
100
AcDbEntity
  8
1
100
AcDbCircle
 10
22.18459299999998
 20
-1.604798000000002
 30
0.0
 40
7.843209999999997
100
AcDbArc
 50
90.74343500000001
 51
106.909651
  0
SPLINE
  5
2922F
330
1F
100
AcDbEntity
  8
1
100
AcDbSpline
210
0.0
220
0.0
230
1.0
 70
     8
 71
     5
 72
    12
 73
     6
 74
     0
 42
0.000000001
 43
0.0000000001
 40
0.0
 40
0.0
 40
0.0
 40
0.0
 40
0.0
 40
0.0
 40
5.886664391602725
 40
5.886664391602725
 40
5.886664391602725
 40
5.886664391602725
 40
5.886664391602725
 40
5.886664391602725
 10
22.08282503997347
 20
14.73887709583293
 30
0.0
 10
21.5126033321057
 20
14.89716636931038
 30
0.0
 10
20.9635391001608
 20
14.96801186661273
 30
0.0
 10
20.45256152965479
 20
14.94428724495761
 30
0.0
 10
19.9825806931172
 20
14.82806707638692
 30
0.0
 10
19.55719562730638
 20
14.62909447721495
 30
0.0
  0
ARC
  5
29230
330
1F
100
AcDbEntity
  8
1
100
AcDbCircle
 10
21.63477699999999
 20
9.865546
 30
0.0
 40
5.142509000000003
100
AcDbArc
 50
85.00172300000009
 51
101.7037290000001
  0
LINE
  5
29231
330
1F
100
AcDbEntity
  8
1
100
AcDbLine
 10
19.30065299999998
 20
14.5
 30
0.0
 11
19.30065299999998
 21
-12.724947
 31
0.0
  0
ELLIPSE
  5
29232
330
1F
100
AcDbEntity
  8
1
100
AcDbEllipse
 10
23.07042999999999
 20
-0.9762940000000027
 30
0.0
 11
-0.1167089194059372
 21
-12.96380043029784
 31
0.0
210
0.0
220
0.0
230
0.9999999999999998
 40
0.4855159999999999
 41
5.68729763928182
 42
5.947132642229195
  0
SPLINE
  5
29233
330
1F
100
AcDbEntity
  8
1
100
AcDbSpline
210
0.0
220
0.0
230
1.0
 70
     8
 71
     5
 72
    15
 73
     9
 74
     0
 42
0.000000001
 43
0.0000000001
 40
0.0
 40
0.0
 40
0.0
 40
0.0
 40
0.0
 40
0.0
 40
0.857155910766645
 40
0.857155910766645
 40
0.857155910766645
 40
1.056745353309507
 40
1.056745353309507
 40
1.056745353309507
 40
1.056745353309507
 40
1.056745353309507
 40
1.056745353309507
 10
19.90338508801472
 20
-11.06084647789352
 30
0.0
 10
19.80984768968102
 20
-11.0448503409431
 30
0.0
 10
19.71768520058782
 20
-11.03811157574349
 30
0.0
 10
19.62833346599427
 20
-11.04223361158758
 30
0.0
 10
19.52796723657667
 20
-11.06484676271123
 30
0.0
 10
19.44817401936663
 20
-11.11097292788802
 30
0.0
 10
19.43387123792826
 20
-11.12056628060346
 30
0.0
 10
19.42050267775798
 20
-11.13098410937728
 30
0.0
 10
19.40809533737166
 20
-11.1422373559312
 30
0.0
  0
SPLINE
  5
29234
330
1F
100
AcDbEntity
  8
1
100
AcDbSpline
210
0.0
220
0.0
230
1.0
 70
     8
 71
     5
 72
    18
 73
    12
 74
     0
 42
0.000000001
 43
0.0000000001
 40
0.0
 40
0.0
 40
0.0
 40
0.0
 40
0.0
 40
0.0
 40
0.4784647706972434
 40
0.4784647706972434
 40
0.4784647706972434
 40
1.099594943941539
 40
1.099594943941539
 40
1.099594943941539
 40
1.231506559488853
 40
1.231506559488853
 40
1.231506559488853
 40
1.231506559488853
 40
1.231506559488853
 40
1.231506559488853
 10
19.40809533737169
 20
-11.1422373559312
 30
0.0
 10
19.37835190406548
 20
-11.16921414369826
 30
0.0
 10
19.3541329881495
 20
-11.20099173041866
 30
0.0
 10
19.33648495630166
 20
-11.23727893653343
 30
0.0
 10
19.31220394765333
 20
-11.32916609066592
 30
0.0
 10
19.32411106271951
 20
-11.43391620787885
 30
0.0
 10
19.34187162749353
 20
-11.49478984880572
 30
0.0
 10
19.3740191195194
 20
-11.56756012005089
 30
0.0
 10
19.41691485130448
 20
-11.63770760396801
 30
0.0
 10
19.42474818168611
 20
-11.64991003266657
 30
0.0
 10
19.43287850622511
 20
-11.66200460323506
 30
0.0
 10
19.44129663001695
 20
-11.67398902981395
 30
0.0
  0
ARC
  5
29235
330
1F
100
AcDbEntity
  8
1
100
AcDbCircle
 10
21.26311799999999
 20
-2.834454999999998
 30
0.0
 40
8.338672999999998
100
AcDbArc
 50
260.6144930000001
 51
275.641035
  0
ARC
  5
29236
330
1F
100
AcDbEntity
  8
1
100
AcDbCircle
 10
23.259309
 20
-10.035708
 30
0.0
 40
3.952340000000003
100
AcDbArc
 50
233.0812209999999
 51
252.678718
  0
LINE
  5
29237
330
1F
100
AcDbEntity
  8
1
100
AcDbLine
 10
19.30065299999998
 20
-12.724947
 30
0.0
 11
19.30065299999998
 21
-14.5
 31
0.0
  0
LINE
  5
29238
330
1F
100
AcDbEntity
  8
1
100
AcDbLine
 10
0.0
 20
-12.724947
 30
0.0
 11
0.0
 21
-14.5
 31
0.0
  0
LINE
  5
29239
330
1F
100
AcDbEntity
  8
1
100
AcDbLine
 10
3.0
 20
-7.348469000000001
 30
0.0
 11
14.0
 21
-7.348469000000001
 31
0.0
  0
LINE
  5
2923A
330
1F
100
AcDbEntity
  8
1
100
AcDbLine
 10
14.0
 20
7.348469000000001
 30
0.0
 11
3.0
 21
7.348469000000001
 31
0.0
  0
LINE
  5
2923B
330
1F
100
AcDbEntity
  8
1
100
AcDbLine
 10
3.0
 20
-7.348469000000001
 30
0.0
 11
3.0
 21
7.348469000000001
 31
0.0
  0
LINE
  5
2923C
330
1F
100
AcDbEntity
  8
1
100
AcDbLine
 10
14.0
 20
-7.348469000000001
 30
0.0
 11
14.0
 21
7.348469000000001
 31
0.0
  0
LINE
  5
2923D
330
1F
100
AcDbEntity
  8
1
100
AcDbLine
 10
0.0
 20
14.5
 30
0.0
 11
0.0
 21
-12.724947
 31
0.0
  0
LINE
  5
2923E
330
1F
100
AcDbEntity
  8
SK1
100
AcDbLine
 10
-5.414214000000012
 20
8.5
 30
0.0
 11
-5.414214000000012
 21
4.075116999999997
 31
0.0
  0
LINE
  5
2923F
330
1F
100
AcDbEntity
  8
SK1
100
AcDbLine
 10
-5.414214000000012
 20
4.075116999999997
 30
0.0
 11
-5.414214000000012
 21
-8.5
 31
0.0
  0
LINE
  5
29240
330
1F
100
AcDbEntity
  8
SK1
100
AcDbLine
 10
-10.84071699999998
 20
3.835403999999996
 30
0.0
 11
-10.84071699999998
 21
8.0
 31
0.0
  0
LINE
  5
29241
330
1F
100
AcDbEntity
  8
SK1
100
AcDbLine
 10
-10.84071699999998
 20
-8.0
 30
0.0
 11
-10.84071699999998
 21
3.835403999999996
 31
0.0
  0
LINE
  5
29242
330
1F
100
AcDbEntity
  8
SK1
100
AcDbLine
 10
-25.0
 20
3.835403999999996
 30
0.0
 11
-25.0
 21
8.0
 31
0.0
  0
LINE
  5
29243
330
1F
100
AcDbEntity
  8
SK1
100
AcDbLine
 10
-25.0
 20
-8.0
 30
0.0
 11
-25.0
 21
3.835403999999996
 31
0.0
  0
ELLIPSE
  5
29244
330
1F
100
AcDbEntity
  8
1
100
AcDbEllipse
 10
31.50078499999998
 20
-15.561874
 30
0.0
 11
-14.55754375457764
 21
-1.227884769439697
 31
0.0
210
0.0
220
0.0
230
1.0
 40
0.5578310000000001
 41
5.558549121338039
 42
5.639987502687393
  0
LINE
  5
29245
330
1F
100
AcDbEntity
  8
1
100
AcDbLine
 10
29.03317799999999
 20
-12.516047
 30
0.0
 11
29.30166899999998
 21
-14.36329600000001
 31
0.0
  0
LINE
  5
29246
330
1F
100
AcDbEntity
  8
1
100
AcDbLine
 10
28.21625899999998
 20
-8.651701000000002
 30
0.0
 11
35.89768599999999
 21
-7.091790000000002
 31
0.0
  0
ELLIPSE
  5
29247
330
1F
100
AcDbEntity
  8
1
100
AcDbEllipse
 10
31.50078499999998
 20
10.403391
 30
0.0
 11
-14.55205249786376
 21
-1.2913259267807
 31
0.0
210
0.0
220
0.0
230
1.0
 40
0.614162
 41
0.5417352764810694
 42
1.034138939181944
  0
LINE
  5
29248
330
1F
100
AcDbEntity
  8
1
100
AcDbLine
 10
28.41327699999999
 20
1.183236000000001
 30
0.0
 11
29.30166899999998
 21
-2.186643999999999
 31
0.0
  0
LINE
  5
29249
330
1F
100
AcDbEntity
  8
1
100
AcDbLine
 10
29.67853699999998
 20
0.3466900000000024
 30
0.0
 11
29.70621299999999
 21
0.3465539999999976
 31
0.0
  0
ELLIPSE
  5
2924A
330
1F
100
AcDbEntity
  8
1
100
AcDbEllipse
 10
30.89470499999999
 20
-0.4258979999999968
 30
0.0
 11
1.47068965435028
 21
-0.6774438619613648
 31
0.0
210
0.0
220
0.0
230
0.9999999999999998
 40
0.2526160000000001
 41
5.792082255535889
 42
8.901635759348144
  0
LINE
  5
2924B
330
1F
100
AcDbEntity
  8
1
100
AcDbLine
 10
32.110872
 20
-1.198484999999998
 30
0.0
 11
32.08319599999999
 21
-1.198348999999998
 31
0.0
  0
ELLIPSE
  5
2924C
330
1F
100
AcDbEntity
  8
1
100
AcDbEllipse
 10
30.89470499999999
 20
-0.4258979999999968
 30
0.0
 11
1.47068965435028
 21
-0.6774438619613648
 31
0.0
210
0.0
220
0.0
230
0.9999999999999998
 40
0.2526160000000001
 41
2.650489601955519
 42
5.760043105758312
  0
ELLIPSE
  5
2924D
330
1F
100
AcDbEntity
  8
1
100
AcDbEllipse
 10
31.425893
 20
11.247351
 30
0.0
 11
-13.80324172973633
 21
-1.224877476692199
 31
0.0
210
0.0
220
0.0
230
1.0
 40
0.614162
 41
0.5308814156354486
 42
0.9945306315920575
  0
SPLINE
  5
2924E
330
1F
100
AcDbEntity
  8
1
100
AcDbSpline
210
0.0
220
0.0
230
1.0
 70
     8
 71
     5
 72
    15
 73
     9
 74
     0
 42
0.000000001
 43
0.0000000001
 40
0.0
 40
0.0
 40
0.0
 40
0.0
 40
0.0
 40
0.0
 40
0.6631282164009369
 40
0.6631282164009369
 40
0.6631282164009369
 40
1.336391063094342
 40
1.336391063094342
 40
1.336391063094342
 40
1.336391063094342
 40
1.336391063094342
 40
1.336391063094342
 10
24.37922120989137
 20
2.634920967487068
 30
0.0
 10
24.38300804775963
 20
2.725757369586615
 30
0.0
 10
24.39038030177383
 20
2.819799035349553
 30
0.0
 10
24.40117989380605
 20
2.914313031052096
 30
0.0
 10
24.42905287012073
 20
3.100192807719225
 30
0.0
 10
24.46726988650022
 20
3.267703261971873
 30
0.0
 10
24.48864599310511
 20
3.345083255149418
 30
0.0
 10
24.51153631044963
 20
3.413511680319906
 30
0.0
 10
24.53533838203231
 20
3.471572237467221
 30
0.0
  0
ARC
  5
2924F
330
1F
100
AcDbEntity
  8
1
100
AcDbCircle
 10
24.87638799999999
 20
1.253666000000003
 30
0.0
 40
1.468136999999999
100
AcDbArc
 50
100.7198900000004
 51
109.7957490000004
  0
LINE
  5
29250
330
1F
100
AcDbEntity
  8
1
100
AcDbLine
 10
24.535338
 20
3.471572
 30
0.0
 11
25.74676299999999
 21
6.426609999999997
 31
0.0
  0
ARC
  5
29251
330
1F
100
AcDbEntity
  8
1
100
AcDbCircle
 10
36.54999999999998
 20
-11.872024
 30
0.0
 40
0.6000000000000081
100
AcDbArc
 50
288.9999980000009
 51
0.0000010000009963
  0
LINE
  5
29252
330
1F
100
AcDbEntity
  8
1
100
AcDbLine
 10
36.745341
 20
-12.439335
 30
0.0
 11
34.55610399999998
 21
-13.19315
 31
0.0
  0
ARC
  5
29253
330
1F
100
AcDbEntity
  8
1
100
AcDbCircle
 10
23.16121799999999
 20
19.9
 30
0.0
 40
35.00000000000001
100
AcDbArc
 50
268.234367
 51
289.0
  0
ARC
  5
29254
330
1F
100
AcDbEntity
  8
1
100
AcDbCircle
 10
21.675522
 20
10.099998
 30
0.0
 40
5.000001999999998
100
AcDbArc
 50
115.066199
 51
118.357637
  0
ARC
  5
29255
330
1F
100
AcDbEntity
  8
1
100
AcDbCircle
 10
21.675521
 20
-10.09999999999999
 30
0.0
 40
4.999999999999999
100
AcDbArc
 50
241.6423639999998
 51
274.6725349999999
  0
LINE
  5
29256
330
1F
100
AcDbEntity
  8
1
100
AcDbLine
 10
19.30065299999998
 20
-14.5
 30
0.0
 11
0.0
 21
-14.5
 31
0.0
  0
LINE
  5
29257
330
1F
100
AcDbEntity
  8
1
100
AcDbLine
 10
19.30065299999998
 20
14.5
 30
0.0
 11
0.0
 21
14.5
 31
0.0
  0
LINE
  5
29258
330
1F
100
AcDbEntity
  8
SK1
100
AcDbLine
 10
0.0
 20
8.5
 30
0.0
 11
-5.414214000000012
 21
8.5
 31
0.0
  0
LINE
  5
29259
330
1F
100
AcDbEntity
  8
SK1
100
AcDbLine
 10
0.0
 20
-8.5
 30
0.0
 11
-5.414214000000012
 21
-8.5
 31
0.0
  0
ARC
  5
2925A
330
1F
100
AcDbEntity
  8
SK1
100
AcDbCircle
 10
-8.242640999999991
 20
9.5
 30
0.0
 40
3.0
100
AcDbArc
 50
210.0
 51
340.528779
  0
ARC
  5
2925B
330
1F
100
AcDbEntity
  8
SK1
100
AcDbCircle
 10
-8.242640999999991
 20
-9.5
 30
0.0
 40
2.999999999999995
100
AcDbArc
 50
19.47122099999989
 51
149.9999999999999
  0
LINE
  5
2925C
330
1F
100
AcDbEntity
  8
SK1
100
AcDbLine
 10
-10.84071699999998
 20
8.0
 30
0.0
 11
-25.0
 21
8.0
 31
0.0
  0
LINE
  5
2925D
330
1F
100
AcDbEntity
  8
SK1
100
AcDbLine
 10
-10.84071699999998
 20
-8.0
 30
0.0
 11
-25.0
 21
-8.0
 31
0.0
  0
ELLIPSE
  5
2925E
330
1F
100
AcDbEntity
  8
1
100
AcDbEllipse
 10
31.34518899999998
 20
12.045256
 30
0.0
 11
-1.665545821189879
 21
0.3405247032642365
 31
0.0
210
0.0
220
0.0
230
1.0
 40
0.937404
 41
3.360870695983825
 42
5.945584608144571
  0
LINE
  5
2925F
330
1F
100
AcDbEntity
  8
1
100
AcDbLine
 10
37.62510200000001
 20
11.093115
 30
0.0
 11
37.936869
 21
12.423132
 31
0.0
  0
LINE
  5
29260
330
1F
100
AcDbEntity
  8
1
100
AcDbLine
 10
37.94319099999998
 20
12.648927
 30
0.0
 11
37.936869
 21
12.423132
 31
0.0
  0
LINE
  5
29261
330
1F
100
AcDbEntity
  8
1
100
AcDbLine
 10
37.94319099999998
 20
12.648927
 30
0.0
 11
37.14999999999998
 21
9.781440999999999
 31
0.0
  0
LINE
  5
29262
330
1F
100
AcDbEntity
  8
1
100
AcDbLine
 10
37.62510200000001
 20
11.093115
 30
0.0
 11
37.14999999999998
 21
9.375562000000002
 31
0.0
  0
ARC
  5
29263
330
1F
100
AcDbEntity
  8
1
100
AcDbCircle
 10
37.75544199999999
 20
12.473325
 30
0.0
 40
0.1882419999999989
100
AcDbArc
 50
344.5352369999998
 51
358.3532529999998
  0
ARC
  5
29264
330
1F
100
AcDbEntity
  8
1
100
AcDbCircle
 10
37.75521699999999
 20
12.697609
 30
0.0
 40
0.1948869999999926
100
AcDbArc
 50
358.8563959999994
 51
62.21131899999942
  0
ARC
  5
29265
330
1F
100
AcDbEntity
  8
1
100
AcDbCircle
 10
37.76160899999999
 20
12.699101
 30
0.0
 40
0.1883879999999967
100
AcDbArc
 50
344.5537570000008
 51
358.3637440000007
  0
LINE
  5
29266
330
1F
100
AcDbEntity
  8
1
100
AcDbLine
 10
25.44044499999998
 20
13.947796
 30
0.0
 11
25.968096
 21
15.855321
 31
0.0
  0
ARC
  5
29267
330
1F
100
AcDbEntity
  8
1
100
AcDbCircle
 10
25.44026499999998
 20
-10.09492400000001
 30
0.0
 40
26.10175400000001
100
AcDbArc
 50
61.62179999999999
 51
88.40743800000002
  0
ARC
  5
29268
330
1F
100
AcDbEntity
  8
1
100
AcDbCircle
 10
26.15734999999998
 20
15.800156
 30
0.0
 40
0.1974020000000005
100
AcDbArc
 50
87.57728100000049
 51
163.7491720000005
  0
LINE
  5
29269
330
1F
100
AcDbEntity
  8
1
100
AcDbLine
 10
37.949929
 20
12.693722
 30
0.0
 11
37.94360599999999
 21
12.467916
 31
0.0
  0
LINE
  5
2926A
330
1F
100
AcDbEntity
  8
1
100
AcDbLine
 10
37.626949
 20
11.100347
 30
0.0
 11
37.93872299999998
 21
12.430394
 31
0.0
  0
ARC
  5
2926B
330
1F
100
AcDbEntity
  8
1
100
AcDbCircle
 10
37.75659099999999
 20
12.698549
 30
0.0
 40
0.1933029999999911
100
AcDbArc
 50
345.1081659999987
 51
62.44144899999866
  0
LINE
  5
2926C
330
1F
100
AcDbEntity
  8
1
100
AcDbLine
 10
37.94319099999998
 20
12.648927
 30
0.0
 11
37.14999999999998
 21
9.781440999999999
 31
0.0
  0
LINE
  5
2926D
330
1F
100
AcDbEntity
  8
1
100
AcDbLine
 10
25.44044499999998
 20
13.947796
 30
0.0
 11
25.968096
 21
15.855321
 31
0.0
  0
ARC
  5
2926E
330
1F
100
AcDbEntity
  8
1
100
AcDbCircle
 10
26.15734999999998
 20
15.800156
 30
0.0
 40
0.1974020000000005
100
AcDbArc
 50
87.57728100000049
 51
163.7491720000005
  0
ARC
  5
2926F
330
1F
100
AcDbEntity
  8
1
100
AcDbCircle
 10
25.44026499999998
 20
-10.09492400000001
 30
0.0
 40
26.10175400000001
100
AcDbArc
 50
61.62179999999999
 51
88.40743800000002
  0
LINE
  5
29270
330
1F
100
AcDbEntity
  8
1
100
AcDbLine
 10
36.20942699999998
 20
0.7384839999999997
 30
0.0
 11
36.20933299999999
 21
0.7044380000000034
 31
0.0
  0
LINE
  5
29271
330
1F
100
AcDbEntity
  8
1
100
AcDbLine
 10
36.40711499999998
 20
0.7476740000000035
 30
0.0
 11
36.40543699999998
 21
0.1358559999999969
 31
0.0
  0
LINE
  5
29272
330
1F
100
AcDbEntity
  8
1
100
AcDbLine
 10
37.62510200000001
 20
-0.5676770000000034
 30
0.0
 11
37.936869
 21
1.67407
 31
0.0
  0
LINE
  5
29273
330
1F
100
AcDbEntity
  8
1
100
AcDbLine
 10
37.94280599999999
 20
3.838023999999997
 30
0.0
 11
37.936869
 21
1.67407
 31
0.0
  0
LINE
  5
29274
330
1F
100
AcDbEntity
  8
1
100
AcDbLine
 10
37.62510200000001
 20
-0.5676770000000034
 30
0.0
 11
36.58179299999998
 21
-0.3537609999999987
 31
0.0
  0
LINE
  5
29275
330
1F
100
AcDbEntity
  8
1
100
AcDbLine
 10
37.936869
 20
1.67407
 30
0.0
 11
37.94368399999999
 21
1.671722000000003
 31
0.0
  0
LINE
  5
29276
330
1F
100
AcDbEntity
  8
1
100
AcDbLine
 10
37.63190799999998
 20
-0.5700590000000007
 30
0.0
 11
37.62510200000001
 21
-0.5676770000000034
 31
0.0
  0
ARC
  5
29277
330
1F
100
AcDbEntity
  8
1
100
AcDbCircle
 10
37.59399499999998
 20
0.0657039999999967
 30
0.0
 40
0.6374759999999954
100
AcDbArc
 50
264.0692140000012
 51
273.4127400000012
  0
LINE
  5
29278
330
1F
100
AcDbEntity
  8
1
100
AcDbLine
 10
37.14999999999998
 20
-0.5497000000000014
 30
0.0
 11
37.52805799999999
 21
-0.5690250000000035
 31
0.0
  0
LINE
  5
29279
330
1F
100
AcDbEntity
  8
1
100
AcDbLine
 10
37.950006
 20
3.976097000000001
 30
0.0
 11
37.94986799999997
 21
3.925778000000001
 31
0.0
  0
LINE
  5
2927A
330
1F
100
AcDbEntity
  8
1
100
AcDbLine
 10
37.949703
 20
3.865448000000001
 30
0.0
 11
37.94368399999999
 21
1.671722000000003
 31
0.0
  0
LINE
  5
2927B
330
1F
100
AcDbEntity
  8
1
100
AcDbLine
 10
37.63191399999999
 20
-0.570059999999998
 30
0.0
 11
37.94368399999999
 21
1.671722000000003
 31
0.0
  0
LINE
  5
2927C
330
1F
100
AcDbEntity
  8
1
100
AcDbLine
 10
37.62510200000001
 20
-11.44395799999999
 30
0.0
 11
37.936869
 21
-11.388499
 31
0.0
  0
LINE
  5
2927D
330
1F
100
AcDbEntity
  8
1
100
AcDbLine
 10
37.94241099999999
 20
-10.33789899999999
 30
0.0
 11
37.936869
 21
-11.388499
 31
0.0
  0
LINE
  5
2927E
330
1F
100
AcDbEntity
  8
1
100
AcDbLine
 10
37.62510200000001
 20
-11.44395799999999
 30
0.0
 11
37.39267999999998
 21
-10.57427200000001
 31
0.0
  0
ARC
  5
2927F
330
1F
100
AcDbEntity
  8
1
100
AcDbCircle
 10
37.74366799999999
 20
-11.440279
 30
0.0
 40
0.2000170000000105
100
AcDbArc
 50
359.7392300000001
 51
15.00338100000015
  0
ARC
  5
29280
330
1F
100
AcDbEntity
  8
1
100
AcDbCircle
 10
37.75367199999999
 20
-11.441317
 30
0.0
 40
0.1899400000000006
100
AcDbArc
 50
296.9780950000047
 51
0.0382900000046862
  0
LINE
  5
29281
330
1F
100
AcDbEntity
  8
1
100
AcDbLine
 10
37.949997
 20
-10.24280400000001
 30
0.0
 11
37.94971500000001
 21
-10.231211
 31
0.0
  0
ARC
  5
29282
330
1F
100
AcDbEntity
  8
1
100
AcDbCircle
 10
37.44062299999999
 20
-11.49589399999999
 30
0.0
 40
0.1914159999999895
100
AcDbArc
 50
297.2006259999976
 51
15.72341999999758
  0
LINE
  5
29283
330
1F
100
AcDbEntity
  8
1
100
AcDbLine
 10
37.52805799999999
 20
-11.66602
 30
0.0
 11
37.83982499999999
 21
-11.610561
 31
0.0
  0
LINE
  5
29284
330
1F
100
AcDbEntity
  8
1
100
AcDbLine
 10
37.14999999999998
 20
-11.854163
 30
0.0
 11
37.52805799999999
 21
-11.66602
 31
0.0
  0
ARC
  5
29285
330
1F
100
AcDbEntity
  8
1
100
AcDbCircle
 10
26.58727399999998
 20
10.526523
 30
0.0
 40
24.83284799999999
100
AcDbArc
 50
295.1614319999999
 51
296.944789
  0
LINE
  5
29286
330
1F
100
AcDbEntity
  8
1
100
AcDbLine
 10
37.95000399999998
 20
-10.24280400000001
 30
0.0
 11
37.94986699999998
 21
-10.268647
 31
0.0
  0
LINE
  5
29287
330
1F
100
AcDbEntity
  8
1
100
AcDbLine
 10
37.94963299999998
 20
-10.313018
 30
0.0
 11
37.943681
 21
-11.44119000000001
 31
0.0
  0
LINE
  5
29288
330
1F
100
AcDbEntity
  8
1
100
AcDbLine
 10
37.94999799999999
 20
-10.241056
 30
0.0
 11
37.94971799999999
 21
-10.231269
 31
0.0
  0
ELLIPSE
  5
29289
330
1F
100
AcDbEntity
  8
1
100
AcDbEllipse
 10
41.86826199999997
 20
-126.592407
 30
0.0
 11
9.006537437438963
 21
-118.1353988647461
 31
0.0
210
0.0
220
0.0
230
1.0
 40
0.252198
 41
3.009412735964615
 42
3.33675011617647
  0
ELLIPSE
  5
2928A
330
1F
100
AcDbEntity
  8
1
100
AcDbEllipse
 10
22.14256399999999
 20
107.380417
 30
0.0
 11
9.119754791259762
 21
-119.2513427734375
 31
0.0
210
0.0
220
0.0
230
1.0
 40
0.251018
 41
6.151573392831192
 42
6.477359413770266
  0
LINE
  5
2928B
330
1F
100
AcDbEntity
  8
1
100
AcDbLine
 10
37.62510200000001
 20
-6.505077999999997
 30
0.0
 11
37.14999999999998
 21
-5.503776999999997
 31
0.0
  0
LINE
  5
2928C
330
1F
100
AcDbEntity
  8
1
100
AcDbLine
 10
37.94303099999999
 20
-8.732823999999991
 30
0.0
 11
37.94368299999999
 21
-8.741855000000001
 31
0.0
  0
SPLINE
  5
2928D
330
1F
100
AcDbEntity
  8
1
100
AcDbSpline
210
0.0
220
0.0
230
1.0
 70
     8
 71
     5
 72
    15
 73
     9
 74
     0
 42
0.000000001
 43
0.0000000001
 40
0.0
 40
0.0
 40
0.0
 40
0.0
 40
0.0
 40
0.0
 40
0.1670057098395808
 40
0.1670057098395808
 40
0.1670057098395808
 40
0.3454818401136459
 40
0.3454818401136459
 40
0.3454818401136459
 40
0.3454818401136459
 40
0.3454818401136459
 40
0.3454818401136459
 10
37.94368347384531
 20
-8.741854615044857
 30
0.0
 10
37.94373318322761
 20
-8.754148685002249
 30
0.0
 10
37.94095096535838
 20
-8.766600946729369
 30
0.0
 10
37.93516465852494
 20
-8.779119129269062
 30
0.0
 10
37.918068272008
 20
-8.803266320977643
 30
0.0
 10
37.8915535438895
 20
-8.823967532813471
 30
0.0
 10
37.87558070494708
 20
-8.833574728438463
 30
0.0
 10
37.85826898599504
 20
-8.841713235056062
 30
0.0
 10
37.83982460419887
 20
-8.848443130054334
 30
0.0
  0
LINE
  5
2928E
330
1F
100
AcDbEntity
  8
1
100
AcDbLine
 10
37.846147
 20
-10.41217399999999
 30
0.0
 11
37.83982499999999
 21
-8.848443000000003
 31
0.0
  0
ELLIPSE
  5
2928F
330
1F
100
AcDbEntity
  8
1
100
AcDbEllipse
 10
37.750044
 20
-10.315504
 30
0.0
 11
0.1997890770435333
 21
0.0144446538761258
 31
0.0
210
0.0
220
0.0
230
0.9999999999999998
 40
0.575719
 41
5.17213259241288
 42
6.243918132914397
  0
LINE
  5
29290
330
1F
100
AcDbEntity
  8
1
100
AcDbLine
 10
37.63125499999997
 20
-6.525354
 30
0.0
 11
37.62510200000001
 21
-6.505077999999997
 31
0.0
  0
ELLIPSE
  5
29291
330
1F
100
AcDbEntity
  8
1
100
AcDbEllipse
 10
37.43195499999999
 20
-6.544302000000002
 30
0.0
 11
0.1997890770435333
 21
0.0144446538761258
 31
0.0
210
0.0
220
0.0
230
0.9999999999999998
 40
0.575719
 41
5.172132592412896
 42
6.322448898998767
  0
LINE
  5
29292
330
1F
100
AcDbEntity
  8
1
100
AcDbLine
 10
37.52805799999999
 20
-6.640971999999997
 30
0.0
 11
37.83982499999999
 21
-8.848443000000003
 31
0.0
  0
LINE
  5
29293
330
1F
100
AcDbEntity
  8
1
100
AcDbLine
 10
25.968096
 20
-12.70813200000001
 30
0.0
 11
25.96177299999999
 21
-11.144401
 31
0.0
  0
LINE
  5
29294
330
1F
100
AcDbEntity
  8
1
100
AcDbLine
 10
25.65000599999999
 20
-8.936930000000002
 30
0.0
 11
25.96177299999999
 21
-11.144401
 31
0.0
  0
LINE
  5
29295
330
1F
100
AcDbEntity
  8
1
100
AcDbLine
 10
25.139342
 20
-10.961491
 30
0.0
 11
25.968096
 21
-12.70813200000001
 31
0.0
  0
ELLIPSE
  5
29296
330
1F
100
AcDbEntity
  8
1
100
AcDbEllipse
 10
22.19568999999998
 20
12.17554
 30
0.0
 11
31.21328926086426
 21
-1.109014630317686
 31
0.0
210
0.0
220
0.0
230
0.9999999999999998
 40
0.6806160000000001
 41
4.853799950478497
 42
5.249883442053346
  0
ARC
  5
29297
330
1F
100
AcDbEntity
  8
1
100
AcDbCircle
 10
25.12886999999998
 20
25.996007
 30
0.0
 40
37.09048899999999
100
AcDbArc
 50
288.449785
 51
290.041534
  0
ARC
  5
29298
330
1F
100
AcDbEntity
  8
1
100
AcDbCircle
 10
23.41609899999997
 20
33.65437
 30
0.0
 40
44.95859900000001
100
AcDbArc
 50
273.498248
 51
274.898435
  0
LINE
  5
29299
330
1F
100
AcDbEntity
  8
1
100
AcDbLine
 10
25.84761699999999
 20
-9.012985999999996
 30
0.0
 11
26.15938399999999
 21
-11.220457
 31
0.0
  0
LINE
  5
2929A
330
1F
100
AcDbEntity
  8
1
100
AcDbLine
 10
26.165706
 20
-12.784188
 30
0.0
 11
26.15938399999999
 21
-11.220457
 31
0.0
  0
ELLIPSE
  5
2929B
330
1F
100
AcDbEntity
  8
1
100
AcDbEllipse
 10
22.51378
 20
8.404337999999995
 30
0.0
 11
31.21328926086426
 21
-1.109014630317686
 31
0.0
210
0.0
220
0.0
230
0.9999999999999998
 40
0.6806160000000001
 41
4.853799949992168
 42
5.249883441764703
  0
ELLIPSE
  5
2929C
330
1F
100
AcDbEntity
  8
1
100
AcDbEllipse
 10
25.843153
 20
-8.897705999999997
 30
0.0
 11
0.1997890770435333
 21
0.0144446538761258
 31
0.0
210
0.0
220
0.0
230
0.9999999999999998
 40
0.575719
 41
3.361827265913881
 42
4.693114734882061
  0
ELLIPSE
  5
2929D
330
1F
100
AcDbEntity
  8
1
100
AcDbEllipse
 10
26.16124299999998
 20
-12.668908
 30
0.0
 11
0.1997890770435333
 21
0.0144446538761258
 31
0.0
210
0.0
220
0.0
230
0.9999999999999998
 40
0.575719
 41
3.3618272659139
 42
4.693114734881731
  0
SPLINE
  5
2929E
330
1F
100
AcDbEntity
  8
1
100
AcDbSpline
210
0.0
220
0.0
230
1.0
 70
     8
 71
     5
 72
    15
 73
     9
 74
     0
 42
0.000000001
 43
0.0000000001
 40
0.0
 40
0.0
 40
0.0
 40
0.0
 40
0.0
 40
0.0
 40
0.3199461343900205
 40
0.3199461343900205
 40
0.3199461343900205
 40
0.4441449951745975
 40
0.4441449951745975
 40
0.4441449951745975
 40
0.4441449951745975
 40
0.4441449951745975
 40
0.4441449951745975
 10
26.15938384824403
 20
-11.22045700800581
 30
0.0
 10
26.12252300856858
 20
-11.22271113825651
 30
0.0
 10
26.08553039639241
 20
-11.2200626075845
 30
0.0
 10
26.05016635971643
 20
-11.21239193989103
 30
0.0
 10
26.00739724518894
 20
-11.19464639284735
 30
0.0
 10
25.97832492847445
 20
-11.16898118574251
 30
0.0
 10
25.97135386194918
 20
-11.1611628224059
 30
0.0
 10
25.96583246658682
 20
-11.15295602175398
 30
0.0
 10
25.96177319562591
 20
-11.14440091783788
 30
0.0
  0
LINE
  5
2929F
330
1F
100
AcDbEntity
  8
1
100
AcDbLine
 10
37.950006
 20
-10.30558600000001
 30
0.0
 11
37.94368299999999
 21
-8.741855000000001
 31
0.0
  0
LINE
  5
292A0
330
1F
100
AcDbEntity
  8
1
100
AcDbLine
 10
37.63126399999999
 20
-6.525353000000002
 30
0.0
 11
37.94303099999999
 21
-8.732825000000005
 31
0.0
  0
ELLIPSE
  5
292A1
330
1F
100
AcDbEntity
  8
1
100
AcDbEllipse
 10
37.750044
 20
-10.315504
 30
0.0
 11
0.1997890770435333
 21
0.0144446538761258
 31
0.0
210
0.0
220
0.0
230
0.9999999999999998
 40
0.575719
 41
5.17213259241288
 42
6.24292173866555
  0
LINE
  5
292A2
330
1F
100
AcDbEntity
  8
1
100
AcDbLine
 10
25.139342
 20
-10.961491
 30
0.0
 11
25.968096
 21
-12.70813200000001
 31
0.0
  0
ELLIPSE
  5
292A3
330
1F
100
AcDbEntity
  8
1
100
AcDbEllipse
 10
26.16124299999998
 20
-12.668908
 30
0.0
 11
0.1997890770435333
 21
0.0144446538761258
 31
0.0
210
0.0
220
0.0
230
0.9999999999999998
 40
0.575719
 41
3.3618272659139
 42
4.693114734881731
  0
ELLIPSE
  5
292A4
330
1F
100
AcDbEntity
  8
1
100
AcDbEllipse
 10
22.51378
 20
8.404337999999995
 30
0.0
 11
31.21328926086426
 21
-1.109014630317686
 31
0.0
210
0.0
220
0.0
230
0.9999999999999998
 40
0.6806160000000001
 41
4.853799949992168
 42
5.249883441764703
  0
ELLIPSE
  5
292A5
330
1F
100
AcDbEntity
  8
1
100
AcDbEllipse
 10
31.34518899999998
 20
2.976556000000001
 30
0.0
 11
1.69334590435028
 21
0.1502647995948793
 31
0.0
210
0.0
220
0.0
230
0.9999999999999998
 40
0.6141619999999991
 41
6.283143582425129
 42
9.42473623601492
  0
ELLIPSE
  5
292A6
330
1F
100
AcDbEntity
  8
1
100
AcDbEllipse
 10
31.34518899999998
 20
2.976556000000001
 30
0.0
 11
1.69334590435028
 21
0.1502647995948793
 31
0.0
210
0.0
220
0.0
230
0.9999999999999998
 40
0.6141619999999991
 41
5.975443478724141
 42
6.283143582425129
  0
ELLIPSE
  5
292A7
330
1F
100
AcDbEntity
  8
1
100
AcDbEllipse
 10
31.34518899999998
 20
2.976556000000001
 30
0.0
 11
1.69334590435028
 21
0.1502647995948793
 31
0.0
210
0.0
220
0.0
230
0.9999999999999998
 40
0.6141619999999991
 41
3.141550928835336
 42
5.975443478724142
  0
ELLIPSE
  5
292A8
330
1F
100
AcDbEntity
  8
1
100
AcDbEllipse
 10
41.86826199999997
 20
-103.759659
 30
0.0
 11
11.51694965362549
 21
-112.1648483276367
 31
0.0
210
0.0
220
0.0
230
1.0
 40
0.257798
 41
2.923944881795808
 42
3.251282262007507
  0
ELLIPSE
  5
292A9
330
1F
100
AcDbEntity
  8
1
100
AcDbEllipse
 10
22.14256399999999
 20
118.63179
 30
0.0
 11
11.62845039367676
 21
-113.2307510375977
 31
0.0
210
0.0
220
0.0
230
0.9999999999999998
 40
0.256572
 41
6.066564001948959
 42
6.392350022888002
  0
ELLIPSE
  5
292AA
330
1F
100
AcDbEntity
  8
1
100
AcDbEllipse
 10
24.94033499999998
 20
2.093876000000002
 30
0.0
 11
0.1994815319776535
 21
0.0219392608851195
 31
0.0
210
0.0
220
0.0
230
0.9999999999999998
 40
0.6314980000000002
 41
3.209237534959156
 42
4.141703607788556
  0
ARC
  5
292AB
330
1F
100
AcDbEntity
  8
1
100
AcDbCircle
 10
24.82494199999999
 20
2.080838999999995
 30
0.0
 40
0.0845310000000032
100
AcDbArc
 50
156.8466150000011
 51
191.8598160000011
  0
LINE
  5
292AC
330
1F
100
AcDbEntity
  8
1
100
AcDbLine
 10
24.48296499999998
 20
3.317328000000001
 30
0.0
 11
24.747187
 21
2.114089999999996
 31
0.0
  0
ELLIPSE
  5
292AD
330
1F
100
AcDbEntity
  8
1
100
AcDbEllipse
 10
40.17436099999996
 20
24.516539
 30
0.0
 11
30.50250244140625
 21
9.263015747070312
 31
0.0
210
0.0
220
0.0
230
1.0
 40
0.7193369999999997
 41
3.984073380667286
 42
4.380155438764995
  0
ELLIPSE
  5
292AE
330
1F
100
AcDbEntity
  8
1
100
AcDbEllipse
 10
36.52913599999999
 20
0.8810670000000014
 30
0.0
 11
0.1994815319776535
 21
0.0219392608851195
 31
0.0
210
0.0
220
0.0
230
0.9999999999999998
 40
0.6314980000000002
 41
4.62072146531937
 42
5.952008792410171
  0
LINE
  5
292AF
330
1F
100
AcDbEntity
  8
1
100
AcDbLine
 10
37.94319099999998
 20
3.839022999999997
 30
0.0
 11
36.72228299999998
 21
0.8608529999999985
 31
0.0
  0
LINE
  5
292B0
330
1F
100
AcDbEntity
  8
1
100
AcDbLine
 10
37.94368399999999
 20
6.037455999999997
 30
0.0
 11
37.94181499999999
 21
6.054445000000001
 31
0.0
  0
SPLINE
  5
292B1
330
1F
100
AcDbEntity
  8
1
100
AcDbSpline
210
0.0
220
0.0
230
1.0
 70
     8
 71
     5
 72
    15
 73
     9
 74
     0
 42
0.000000001
 43
0.0000000001
 40
0.0
 40
0.0
 40
0.0
 40
0.0
 40
0.0
 40
0.0
 40
0.1768131382660781
 40
0.1768131382660781
 40
0.1768131382660781
 40
0.3015300090782295
 40
0.3015300090782295
 40
0.3015300090782295
 40
0.3015300090782295
 40
0.3015300090782295
 40
0.3015300090782295
 10
37.94181517063436
 20
6.054445245152932
 30
0.0
 10
37.93877463110672
 20
6.068291421626737
 30
0.0
 10
37.93265264876823
 20
6.081684023732138
 30
0.0
 10
37.92328304233342
 20
6.094457401083574
 30
0.0
 10
37.90321761451875
 20
6.113544005860674
 30
0.0
 10
37.87702987900786
 20
6.128370813880025
 30
0.0
 10
37.8652308749596
 20
6.13374384663273
 30
0.0
 10
37.85280576433418
 20
6.138251117749447
 30
0.0
 10
37.83982460419887
 20
6.141922083451994
 30
0.0
  0
LINE
  5
292B2
330
1F
100
AcDbEntity
  8
1
100
AcDbLine
 10
37.846147
 20
3.977097999999998
 30
0.0
 11
37.83982499999999
 21
6.141922
 31
0.0
  0
ELLIPSE
  5
292B3
330
1F
100
AcDbEntity
  8
1
100
AcDbEllipse
 10
37.750044
 20
3.859236000000001
 30
0.0
 11
0.1994815319776535
 21
0.0219392608851195
 31
0.0
210
0.0
220
0.0
230
0.9999999999999998
 40
0.6314980000000002
 41
6.215703233203947
 42
7.283296119500992
  0
ARC
  5
292B4
330
1F
100
AcDbEntity
  8
1
100
AcDbCircle
 10
37.862156
 20
3.872998000000001
 30
0.0
 40
0.0878569999999972
100
AcDbArc
 50
337.2537119999994
 51
359.7606979999994
  0
ELLIPSE
  5
292B5
330
1F
100
AcDbEntity
  8
1
100
AcDbEllipse
 10
37.43195499999999
 20
7.443812000000001
 30
0.0
 11
0.1994815319776535
 21
0.0219392608851195
 31
0.0
210
0.0
220
0.0
230
0.9999999999999998
 40
0.6314980000000002
 41
0.0676448810331585
 42
1.000110812321389
  0
LINE
  5
292B6
330
1F
100
AcDbEntity
  8
1
100
AcDbLine
 10
37.52805799999999
 20
7.561673999999996
 30
0.0
 11
37.83982499999999
 21
6.141922
 31
0.0
  0
LINE
  5
292B7
330
1F
100
AcDbEntity
  8
1
100
AcDbLine
 10
25.968096
 20
5.092259999999996
 30
0.0
 11
25.96177299999999
 21
7.257083999999997
 31
0.0
  0
LINE
  5
292B8
330
1F
100
AcDbEntity
  8
1
100
AcDbLine
 10
25.65000599999999
 20
8.676834999999996
 30
0.0
 11
25.96177299999999
 21
7.257083999999997
 31
0.0
  0
LINE
  5
292B9
330
1F
100
AcDbEntity
  8
1
100
AcDbLine
 10
24.747187
 20
2.114089999999996
 30
0.0
 11
25.968096
 21
5.092259999999996
 31
0.0
  0
ELLIPSE
  5
292BA
330
1F
100
AcDbEntity
  8
1
100
AcDbEllipse
 10
22.19568999999998
 20
-14.978438
 30
0.0
 11
30.50292778015137
 21
9.264905929565427
 31
0.0
210
0.0
220
0.0
230
1.0
 40
0.7192860000000007
 41
0.8423845447227746
 42
1.238468036294824
  0
ARC
  5
292BB
330
1F
100
AcDbEntity
  8
1
100
AcDbCircle
 10
29.30127800000001
 20
-24.062759
 30
0.0
 40
31.388371
100
AcDbArc
 50
74.21495900000002
 51
76.05227300000001
  0
ARC
  5
292BC
330
1F
100
AcDbEntity
  8
1
100
AcDbCircle
 10
28.253737
 20
-33.18849500000001
 30
0.0
 40
40.60685999999999
100
AcDbArc
 50
91.40920599999999
 51
92.956418
  0
LINE
  5
292BD
330
1F
100
AcDbEntity
  8
1
100
AcDbLine
 10
25.84761699999999
 20
8.784074000000002
 30
0.0
 11
26.15938399999999
 21
7.364322000000001
 31
0.0
  0
LINE
  5
292BE
330
1F
100
AcDbEntity
  8
1
100
AcDbLine
 10
26.165706
 20
5.199497999999998
 30
0.0
 11
26.15938399999999
 21
7.364322000000001
 31
0.0
  0
ELLIPSE
  5
292BF
330
1F
100
AcDbEntity
  8
1
100
AcDbEllipse
 10
22.51378
 20
-18.563013
 30
0.0
 11
30.50292778015137
 21
9.264905929565427
 31
0.0
210
0.0
220
0.0
230
1.0
 40
0.7192860000000007
 41
0.842384545258937
 42
1.238468037021485
  0
ELLIPSE
  5
292C0
330
1F
100
AcDbEntity
  8
1
100
AcDbEllipse
 10
25.843153
 20
8.656621999999996
 30
0.0
 11
0.1994815319776535
 21
0.0219392608851195
 31
0.0
210
0.0
220
0.0
230
0.9999999999999998
 40
0.6314980000000002
 41
1.479128669852214
 42
2.810416138820394
  0
ELLIPSE
  5
292C1
330
1F
100
AcDbEntity
  8
1
100
AcDbEllipse
 10
26.16124299999998
 20
5.072046
 30
0.0
 11
0.1994815319776535
 21
0.0219392608851195
 31
0.0
210
0.0
220
0.0
230
0.9999999999999998
 40
0.6314980000000002
 41
1.479128669852548
 42
2.810416138820372
  0
SPLINE
  5
292C2
330
1F
100
AcDbEntity
  8
1
100
AcDbSpline
210
0.0
220
0.0
230
1.0
 70
     8
 71
     5
 72
    15
 73
     9
 74
     0
 42
0.000000001
 43
0.0000000001
 40
0.0
 40
0.0
 40
0.0
 40
0.0
 40
0.0
 40
0.0
 40
0.323177663765206
 40
0.323177663765206
 40
0.323177663765206
 40
0.4505025145804153
 40
0.4505025145804153
 40
0.4505025145804153
 40
0.4505025145804153
 40
0.4505025145804153
 40
0.4505025145804153
 10
26.15938384824403
 20
7.364322148370789
 30
0.0
 10
26.12214405115358
 20
7.362400521863236
 30
0.0
 10
26.08496600623556
 20
7.354963936842238
 30
0.0
 10
26.04980466649022
 20
7.342227021916237
 30
0.0
 10
26.00730405990956
 20
7.317686188300477
 30
0.0
 10
25.97840219750501
 20
7.286218866561043
 30
0.0
 10
25.97140487296802
 20
7.276760946261602
 30
0.0
 10
25.96585326339329
 20
7.267036637780932
 30
0.0
 10
25.96177319562591
 20
7.257084069443691
 30
0.0
  0
LINE
  5
292C3
330
1F
100
AcDbEntity
  8
1
100
AcDbLine
 10
24.47406599999999
 20
3.284731999999998
 30
0.0
 11
24.742245
 21
2.063471999999995
 31
0.0
  0
LINE
  5
292C4
330
1F
100
AcDbEntity
  8
1
100
AcDbLine
 10
37.950006
 20
3.872630999999998
 30
0.0
 11
37.94368399999999
 21
6.037455999999997
 31
0.0
  0
LINE
  5
292C5
330
1F
100
AcDbEntity
  8
1
100
AcDbLine
 10
37.630044
 20
7.474215999999997
 30
0.0
 11
37.94181499999999
 21
6.054444000000002
 31
0.0
  0
ELLIPSE
  5
292C6
330
1F
100
AcDbEntity
  8
1
100
AcDbEllipse
 10
37.750044
 20
3.859236000000001
 30
0.0
 11
0.1994815319776535
 21
0.0219392608851195
 31
0.0
210
0.0
220
0.0
230
0.9999999999999998
 40
0.6314980000000002
 41
5.952008792410156
 42
7.283296119500992
  0
LINE
  5
292C7
330
1F
100
AcDbEntity
  8
1
100
AcDbLine
 10
37.94319099999998
 20
3.839022999999997
 30
0.0
 11
36.72228299999998
 21
0.8608529999999985
 31
0.0
  0
ELLIPSE
  5
292C8
330
1F
100
AcDbEntity
  8
1
100
AcDbEllipse
 10
36.52913599999999
 20
0.8810670000000014
 30
0.0
 11
0.1994815319776535
 21
0.0219392608851195
 31
0.0
210
0.0
220
0.0
230
0.9999999999999998
 40
0.6314980000000002
 41
4.62072146531937
 42
5.952008792410171
  0
ELLIPSE
  5
292C9
330
1F
100
AcDbEntity
  8
1
100
AcDbEllipse
 10
40.17436099999996
 20
24.516539
 30
0.0
 11
30.50250244140625
 21
9.263015747070312
 31
0.0
210
0.0
220
0.0
230
1.0
 40
0.7193369999999997
 41
3.984073380667286
 42
4.380155438764995
  0
ELLIPSE
  5
292CA
330
1F
100
AcDbEntity
  8
1
100
AcDbEllipse
 10
24.94033499999998
 20
2.093876000000002
 30
0.0
 11
0.1994815319776535
 21
0.0219392608851195
 31
0.0
210
0.0
220
0.0
230
0.9999999999999998
 40
0.6314980000000002
 41
2.810416138820368
 42
4.141703607788556
  0
LINE
  5
292CB
330
1F
100
AcDbEntity
  8
1
100
AcDbLine
 10
24.747187
 20
2.114089999999996
 30
0.0
 11
25.968096
 21
5.092259999999996
 31
0.0
  0
ELLIPSE
  5
292CC
330
1F
100
AcDbEntity
  8
1
100
AcDbEllipse
 10
26.16124299999998
 20
5.072046
 30
0.0
 11
0.1994815319776535
 21
0.0219392608851195
 31
0.0
210
0.0
220
0.0
230
0.9999999999999998
 40
0.6314980000000002
 41
1.479128669852548
 42
2.810416138820372
  0
ELLIPSE
  5
292CD
330
1F
100
AcDbEntity
  8
1
100
AcDbEllipse
 10
22.51378
 20
-18.563013
 30
0.0
 11
30.50292778015137
 21
9.264905929565427
 31
0.0
210
0.0
220
0.0
230
1.0
 40
0.7192860000000007
 41
0.842384545258937
 42
1.238468037021485
  0
LINE
  5
292CF
330
1F
100
AcDbEntity
  8
SK4
100
AcDbLine
 10
0.0
 20
0.0
 30
0.0
 11
-30.95615900000001
 21
0.0
 31
0.0
  0
LINE
  5
292F6
330
1F
100
AcDbEntity
  8
SK3
100
AcDbLine
 10
18.84529900000001
 20
2.0
 30
0.0
 11
18.84529900000001
 21
-1.755164999999996
 31
0.0
  0
LINE
  5
292F7
330
1F
100
AcDbEntity
  8
SK3
100
AcDbLine
 10
18.84529900000001
 20
1.755164999999996
 30
0.0
 11
18.84529900000001
 21
-2.0
 31
0.0
  0
LINE
  5
2930A
330
1F
100
AcDbEntity
  8
SK3
100
AcDbLine
 10
18.84529900000001
 20
2.0
 30
0.0
 11
-25.0
 21
2.0
 31
0.0
  0
LINE
  5
2930B
330
1F
100
AcDbEntity
  8
SK3
100
AcDbLine
 10
18.84529900000001
 20
-2.0
 30
0.0
 11
-25.0
 21
-2.0
 31
0.0
  0
LINE
  5
2930C
330
1F
100
AcDbEntity
  8
SK3
100
AcDbLine
 10
20.00000000000003
 20
0.0
 30
0.0
 11
18.84529900000001
 21
2.0
 31
0.0
  0
LINE
  5
2930D
330
1F
100
AcDbEntity
  8
SK3
100
AcDbLine
 10
20.00000000000003
 20
0.0
 30
0.0
 11
18.84529900000001
 21
-2.0
 31
0.0
  0
LINE
  5
29316
330
1F
100
AcDbEntity
  8
SK3
100
AcDbLine
 10
18.84529900000001
 20
2.0
 30
0.0
 11
27.59258165709636
 21
13.40337851924239
 31
0.0
  0
LINE
  5
29317
330
1F
100
AcDbEntity
  8
SK3
100
AcDbLine
 10
19.58652747352389
 20
0.7161551370893804
 30
0.0
 11
29.05874787737943
 21
13.06459738106179
 31
0.0
  0
INSERT
  5
29324
330
1F
100
AcDbEntity
  8
SK2
100
AcDbBlockReference
  2
CERO_POINT
 10
0.0
 20
0.0
 30
0.0
  0
POINT
  5
296A5
330
1F
100
AcDbEntity
  8
1
 62
     3
370
     5
100
AcDbPoint
 10
219.1529046172344
 20
28.0359085559362
 30
0.0
  0
POINT
  5
29962
330
1F
100
AcDbEntity
  8
1
 62
     3
370
     5
100
AcDbPoint
 10
141.8658483110889
 20
-122.137696397027
 30
0.0
  0
DIMENSION
  5
29C0D
330
1F
100
AcDbEntity
  8
2
100
AcDbDimension
  2
*D29
 10
37.9502074763005
 20
39.32685011262448
 30
0.0
 11
18.97510373815025
 21
39.32685011262448
 31
0.0
 70
   160
 71
     5
 41
0.0
 42
37.9502074763005
  3
MM_STANDARD
100
AcDbAlignedDimension
 13
0.0
 23
14.5
 33
0.0
 14
37.9502074763005
 24
12.67843240160831
 34
0.0
100
AcDbRotatedDimension
1001
ACAD
1000
DSTYLE
1002
{
1070
   279
1070
     0
1070
   271
1070
     0
1070
    78
1070
     9
1070
    79
1070
     2
1070
    90
1070
     1
1070
   172
1070
     1
1070
   345
1005
14
1070
   346
1005
14
1070
   347
1005
14
1002
}
1001
ACAD_DSTYLE_DIMARC_LENGTH_SYMBOL
1070
   379
1070
     1
1001
ACAD_DSTYLE_DIM_LINETYPE
1070
   380
1005
14
1001
ACAD_DSTYLE_DIM_EXT1_LINETYPE
1070
   381
1005
14
1001
ACAD_DSTYLE_DIM_EXT2_LINETYPE
1070
   382
1005
14
  0
LWPOLYLINE
  5
29D9B
330
1F
100
AcDbEntity
  8
CUT
100
AcDbPolyline
 90
     1556
 70
     1
 43
0.0
 10
37.84952177669126
 20
12.86504944264583
 10
37.83440156565703
 20
12.87249265938192
 10
37.81927602074742
 20
12.87992924090872
 10
37.80414514600507
 20
12.88735917374955
 10
37.78900894728099
 20
12.89478244364037
 10
37.77386743216614
 20
12.9021990355627
 10
37.75872060992293
 20
12.90960893377655
 10
37.74356849141665
 20
12.91701212185341
 10
37.72841108904711
 20
12.92440858270913
 10
37.71324841667997
 20
12.93179829863688
 10
37.69808048957836
 20
12.93918125134012
 10
37.68290732433432
 20
12.94655742196552
 10
37.66772893880033
 20
12.95392679113588
 10
37.65254535202078
 20
12.96128933898312
 10
37.6373565841635
 20
12.96864504518116
 10
37.62216265645122
 20
12.97599388897891
 10
37.60696359109314
 20
12.98333584923321
 10
37.59175941121628
 20
12.99067090444173
 10
37.5765501407972
 20
12.99799903277593
 10
37.56133580459329
 20
13.00532021211403
 10
37.5461164280744
 20
13.01263442007393
 10
37.53089203735426
 20
13.01994163404612
 10
37.51566265912206
 20
13.02724183122667
 10
37.50042832057385
 20
13.03453498865015
 10
37.48518904934414
 20
13.04182108322255
 10
37.46994487343729
 20
13.04910009175428
 10
37.45469582115911
 20
13.05637199099304
 10
37.43944192104835
 20
13.0636367576568
 10
37.42418320180808
 20
13.07089436846675
 10
37.40891969223733
 20
13.0781448001802
 10
37.39365142116252
 20
13.08538802962358
 10
37.37837841736897
 20
13.0926240337253
 10
37.36310070953243
 20
13.09985278954879
 10
37.34781832615047
 20
13.10707427432535
 10
37.33253129547415
 20
13.11428846548714
 10
37.31723964543937
 20
13.12149534070013
 10
37.30194339892238
 20
13.12869488001602
 10
37.28664255569186
 20
13.13588707407393
 10
37.27133710512626
 20
13.14307191837387
 10
37.25602703248876
 20
13.15024941043037
 10
37.24071231968546
 20
13.15741954941915
 10
37.2253929460233
 20
13.16458233582385
 10
37.21006888896801
 20
13.17173777108282
 10
37.19474012490191
 20
13.17888585723591
 10
37.17940662988198
 20
13.18602659657124
 10
37.16406838039758
 20
13.19315999127196
 10
37.14872535412845
 20
13.20028604306305
 10
37.13337753070265
 20
13.20740475285811
 10
37.11802489245437
 20
13.2145161204061
 10
37.1026674251819
 20
13.22162014393812
 10
37.0873051189055
 20
13.22871681981425
 10
37.07193796862533
 20
13.23580614217024
 10
37.05656597507933
 20
13.24288810256435
 10
37.04118914550113
 20
13.24996268962411
 10
37.02580749437797
 20
13.25702988869307
 10
37.01042104420859
 20
13.26408968147761
 10
36.99502982626112
 20
13.27114204569376
 10
36.97963388142225
 20
13.27818695467311
 10
36.96423356637596
 20
13.28522424061558
 10
36.94882892005367
 20
13.29225387734952
 10
36.93341875679978
 20
13.29927638526075
 10
36.9180042770147
 20
13.30629121924513
 10
36.90259303068145
 20
13.31329499882633
 10
36.88719631243102
 20
13.3202826691387
 10
36.87182171943776
 20
13.32725082689088
 10
36.85647272915344
 20
13.33419791188616
 10
36.84114933351005
 20
13.34112392456323
 10
36.82584866495121
 20
13.34803014715274
 10
36.81056562246361
 20
13.35491886483382
 10
36.79529349760854
 20
13.36179308689069
 10
36.78002460055321
 20
13.36865626786912
 10
36.76481814758677
 20
13.37548204688632
 10
36.7499781655287
 20
13.3821349843935
 10
36.73564643563442
 20
13.3885520619082
 10
36.72173488174426
 20
13.39477278198502
 10
36.70801069084932
 20
13.40090117055791
 10
36.69418149356828
 20
13.40706775257381
 10
36.6799805446239
 20
13.4133915276261
 10
36.66525190331988
 20
13.41994194558818
 10
36.65003561401743
 20
13.42670088224699
 10
36.63462285472993
 20
13.43353804143583
 10
36.61920741254157
 20
13.44036678940668
 10
36.6037954050365
 20
13.44718442317686
 10
36.58838804885968
 20
13.45399042353809
 10
36.57298617143293
 20
13.46078443806792
 10
36.55759023888107
 20
13.46756626910317
 10
36.54220038395821
 20
13.47433586171345
 10
36.52681643397404
 20
13.48109329167454
 10
36.51143793872003
 20
13.48783875344195
 10
36.49606419839577
 20
13.49457254812432
 10
36.48069429153514
 20
13.50129507145694
 10
36.46532710293266
 20
13.50800680177516
 10
36.44996135156965
 20
13.51470828798792
 10
36.43459561854059
 20
13.52140013755118
 10
36.4192283749793
 20
13.52808300444139
 10
36.40385800998522
 20
13.53475757712895
 10
36.38848285854971
 20
13.54142456655173
 10
36.37310122948226
 20
13.54808469408847
 10
36.35771143333676
 20
13.55473867953228
 10
36.34231181033778
 20
13.5613872290641
 10
36.32690075830679
 20
13.56803102322619
 10
36.31147676058848
 20
13.57467070489556
 10
36.29603841397698
 20
13.58130686725748
 10
36.28058445664205
 20
13.5879400417789
 10
36.26511379605549
 20
13.59457068618197
 10
36.24962553691733
 20
13.60119917241745
 10
36.23411900908199
 20
13.60782577463825
 10
36.21859379548472
 20
13.61445065717281
 10
36.20304976006771
 20
13.62107386249864
 10
36.18748707570643
 20
13.62769529921578
 10
36.17190625213586
 20
13.6343147300202
 10
36.15630816387672
 20
13.64093175967737
 10
36.14069407816186
 20
13.64754582299564
 10
36.12506568286232
 20
13.65415617279976
 10
36.10942511441372
 20
13.66076186790433
 10
36.09377486156887
 20
13.66736181408512
 10
36.07811605079682
 20
13.6739555025711
 10
36.06244993947491
 20
13.68054239314605
 10
36.04677881295728
 20
13.68712152228292
 10
36.03110411537536
 20
13.69369227973241
 10
36.01544924051733
 20
13.70024487395104
 10
35.99980325648715
 20
13.70678370582322
 10
35.9840500507476
 20
13.71335696570895
 10
35.96812007845383
 20
13.71999346111555
 10
35.95211406510783
 20
13.72665107680053
 10
35.93600803551225
 20
13.7333394206279
 10
35.91968825718721
 20
13.7401054672966
 10
35.90311363005091
 20
13.74696608612336
 10
35.88635318564776
 20
13.75389248558519
 10
35.86966398116143
 20
13.7607787440348
 10
35.85328632027064
 20
13.76752632851389
 10
35.83724928324742
 20
13.7741233885237
 10
35.82142868881053
 20
13.78062092595698
 10
35.80561748798474
 20
13.78710390574262
 10
35.78959615796018
 20
13.79366236649044
 10
35.77320309595168
 20
13.80036253113585
 10
35.7564050130581
 20
13.80721791758465
 10
35.73936505863347
 20
13.81416138578824
 10
35.72231779704547
 20
13.82109666703053
 10
35.70528207050788
 20
13.82801595381297
 10
35.68822441162125
 20
13.83493268884875
 10
35.67118730492003
 20
13.84182977359992
 10
35.65437572546745
 20
13.84862473303532
 10
35.63787191371635
 20
13.8552844786691
 10
35.62139776471303
 20
13.86192110335084
 10
35.60470493004035
 20
13.86863480797165
 10
35.58789443447832
 20
13.87538485849535
 10
35.57114699736561
 20
13.88209835489041
 10
35.55459514015403
 20
13.88872238675163
 10
35.53852253604796
 20
13.89514427001926
 10
35.52293267715041
 20
13.90136294292047
 10
35.50756416832765
 20
13.90748286746201
 10
35.49209993410332
 20
13.91363063699203
 10
35.47637648244616
 20
13.91987156105246
 10
35.46054199055389
 20
13.92614665591777
 10
35.44470750336208
 20
13.93241171343309
 10
35.4288662622215
 20
13.93866943056574
 10
35.4130197804431
 20
13.94491919019838
 10
35.39716915366709
 20
13.9511605509161
 10
35.38131504736891
 20
13.95739324118674
 10
35.3654571960419
 20
13.96361736168366
 10
35.34959538556563
 20
13.96983299217382
 10
35.33372958514269
 20
13.97604013893756
 10
35.31785976756604
 20
13.98223880686364
 10
35.30198590699971
 20
13.98842900033894
 10
35.28610797895701
 20
13.99461072325702
 10
35.27022596027858
 20
14.00078397902663
 10
35.25433982911062
 20
14.00694877058027
 10
35.238449564883
 20
14.01310510038274
 10
35.22255514828739
 20
14.01925297043966
 10
35.20665656125544
 20
14.025392382306
 10
35.19075378693694
 20
14.03152333709465
 10
35.17484680967794
 20
14.03764583548495
 10
35.15893561499888
 20
14.04375987773121
 10
35.14302018957281
 20
14.04986546367126
 10
35.12710052120346
 20
14.05596259273503
 10
35.11117659880343
 20
14.06205126395302
 10
35.09524841237233
 20
14.06813147596488
 10
35.07931595297494
 20
14.07420322702795
 10
35.06337921271932
 20
14.08026651502579
 10
35.04743818473502
 20
14.08632133747673
 10
35.03149286315117
 20
14.0923676915424
 10
35.01554324307465
 20
14.09840557403625
 10
34.99958932056826
 20
14.10443498143216
 10
34.98363109262881
 20
14.11045590987288
 10
34.96766855716537
 20
14.11646835517866
 10
34.9517017129773
 20
14.12247231285574
 10
34.93573055973247
 20
14.1284677781049
 10
34.9197550979454
 20
14.13445474583
 10
34.90377532895539
 20
14.14043321064651
 10
34.88779125490469
 20
14.1464031668901
 10
34.87180287871662
 20
14.15236460862509
 10
34.85581020407375
 20
14.15831752965307
 10
34.83981323539603
 20
14.16426192352142
 10
34.82381197781894
 20
14.17019778353181
 10
34.80780643717165
 20
14.17612510274879
 10
34.79179661995514
 20
14.1820438740083
 10
34.77578253332038
 20
14.18795408992622
 10
34.75976418504647
 20
14.19385574290692
 10
34.74374158351877
 20
14.19974882515178
 10
34.72771473770708
 20
14.20563332866773
 10
34.71168365714374
 20
14.21150924527582
 10
34.69564835190185
 20
14.21737656661972
 10
34.67960883257334
 20
14.22323528417429
 10
34.66356511024719
 20
14.22908538925408
 10
34.64751719648751
 20
14.23492687302195
 10
34.63146510331174
 20
14.2407597264975
 10
34.61540884316879
 20
14.2465839405657
 10
34.59934842891716
 20
14.25239950598539
 10
34.58328387380312
 20
14.25820641339783
 10
34.56721519143883
 20
14.26400465333522
 10
34.55114239578054
 20
14.26979421622928
 10
34.53506550110665
 20
14.27557509241975
 10
34.51898452199595
 20
14.28134727216294
 10
34.50289947330573
 20
14.28711074564029
 10
34.48681037014991
 20
14.29286550296689
 10
34.4707172278772
 20
14.29861153420003
 10
34.45462006204926
 20
14.30434882934771
 10
34.43851888841887
 20
14.31007737837724
 10
34.42241372290804
 20
14.31579717122372
 10
34.40630458158611
 20
14.32150819779861
 10
34.39019148064804
 20
14.32721044799827
 10
34.37407443639245
 20
14.33290391171247
 10
34.35795346519977
 20
14.33858857883299
 10
34.34182858351043
 20
14.34426443926209
 10
34.325699807803
 20
14.34993148292111
 10
34.30956715457232
 20
14.35558969975895
 10
34.29343064030765
 20
14.36123907976068
 10
34.27729028147084
 20
14.366879612956
 10
34.26114609447445
 20
14.37251128942787
 10
34.24499809565993
 20
14.37813409932095
 10
34.22884630127575
 20
14.38374803285024
 10
34.21269072745552
 20
14.38935308030953
 10
34.19653139019621
 20
14.39494923208001
 10
34.18036830533623
 20
14.40053647863876
 10
34.16420148853362
 20
14.40611481056733
 10
34.14803095524414
 20
14.41168421856024
 10
34.13185672069954
 20
14.41724469343356
 10
34.11567879988556
 20
14.4227962261334
 10
34.09949720752018
 20
14.42833880774452
 10
34.08331195803173
 20
14.4338724294988
 10
34.06712306553706
 20
14.43939708278381
 10
34.05093054381961
 20
14.44491275915137
 10
34.03473440630771
 20
14.45041945032603
 10
34.0185346660526
 20
14.45591714821369
 10
34.0023313357066
 20
14.46140584491008
 10
33.9861244275013
 20
14.46688553270931
 10
33.96991395322569
 20
14.47235620411242
 10
33.95369992420427
 20
14.47781785183593
 10
33.93748235127527
 20
14.48327046882037
 10
33.92126124476873
 20
14.48871404823878
 10
33.9050366144847
 20
14.49414858350533
 10
33.88880846967135
 20
14.4995740682838
 10
33.87257681900317
 20
14.50499049649613
 10
33.85634167055903
 20
14.51039786233096
 10
33.84010303180041
 20
14.5157961602522
 10
33.82386090954953
 20
14.52118538500753
 10
33.80761530996747
 20
14.52656553163696
 10
33.79136623853236
 20
14.53193659548136
 10
33.77511370001745
 20
14.53729857219099
 10
33.75885769847576
 20
14.54265145773043
 10
33.74259823817215
 20
14.54799524785327
 10
33.72633532500041
 20
14.55332993739078
 10
33.71006896527731
 20
14.55865552101736
 10
33.69379916553969
 20
14.56397199336872
 10
33.6775259325359
 20
14.56927934904438
 10
33.6612492732173
 20
14.57457758261013
 10
33.64496919472971
 20
14.57986668860048
 10
33.62868570440496
 20
14.58514666152114
 10
33.61239880975226
 20
14.59041749585145
 10
33.59610851844977
 20
14.59567918604691
 10
33.57981483833601
 20
14.60093172654157
 10
33.5635177774014
 20
14.60617511175055
 10
33.5472173437797
 20
14.61140933607248
 10
33.53091354573944
 20
14.61663439389195
 10
33.51460639167555
 20
14.62185027958201
 10
33.49829589010064
 20
14.62705698750662
 10
33.48198204963664
 20
14.63225451202309
 10
33.46566487900619
 20
14.63744284748459
 10
33.44934438702412
 20
14.64262198824257
 10
33.43302058258896
 20
14.64779192864926
 10
33.41669347467445
 20
14.65295266306009
 10
33.4003630723209
 20
14.6581041858362
 10
33.38402938462679
 20
14.66324649134691
 10
33.36769242074018
 20
14.66837957397212
 10
33.35135218985021
 20
14.67350342810483
 10
33.33500870117855
 20
14.6786180481536
 10
33.31866196397093
 20
14.683723428545
 10
33.30231198748857
 20
14.68881956372606
 10
33.28595878099968
 20
14.69390644816679
 10
33.26960235377092
 20
14.69898407636256
 10
33.25324271505891
 20
14.70405244283664
 10
33.23687987410167
 20
14.70911154214264
 10
33.22051384011011
 20
14.71416136886696
 10
33.20414462225953
 20
14.71920191763126
 10
33.18777222968107
 20
14.72423318309493
 10
33.17139667145319
 20
14.72925515995756
 10
33.15501795659315
 20
14.73426784296139
 10
33.13863609404851
 20
14.73927122689379
 10
33.12225109268858
 20
14.74426530658971
 10
33.1058629612959
 20
14.74925007693414
 10
33.08947170855772
 20
14.7542255328646
 10
33.07307734305749
 20
14.75919166937359
 10
33.05667987326633
 20
14.76414848151105
 10
33.04027930753451
 20
14.76909596438681
 10
33.02387565408289
 20
14.77403411317309
 10
33.00746892099446
 20
14.77896292310696
 10
32.99105911620581
 20
14.78388238949275
 10
32.97464624749852
 20
14.78879250770458
 10
32.95823032249074
 20
14.79369327318881
 10
32.94181134862866
 20
14.79858468146647
 10
32.92538933317791
 20
14.80346672813577
 10
32.90896428321509
 20
14.80833940887452
 10
32.89253620561928
 20
14.81320271944262
 10
32.87610510706342
 20
14.81805665568454
 10
32.85967099400592
 20
14.82290121353174
 10
32.84323387268199
 20
14.82773638900519
 10
32.82679374909525
 20
14.83256217821776
 10
32.81035062900912
 20
14.83737857737678
 10
32.79390451793832
 20
14.84218558278641
 10
32.77745542114039
 20
14.84698319085016
 10
32.76100334360709
 20
14.85177139807336
 10
32.74454829005595
 20
14.85655020106557
 10
32.7280902649217
 20
14.86131959654312
 10
32.71162927234776
 20
14.86607958133149
 10
32.69516531617775
 20
14.87083015236786
 10
32.6786983999469
 20
14.8755713067035
 10
32.66222852687359
 20
14.88030304150629
 10
32.6457556998508
 20
14.88502535406315
 10
32.62927992143759
 20
14.88973824178252
 10
32.61280119385058
 20
14.89444170219682
 10
32.59631951736785
 20
14.89913573338525
 10
32.57983488046019
 20
14.90382033657683
 10
32.56334726746209
 20
14.90849551409366
 10
32.54685666419379
 20
14.91316126785673
 10
32.53036305794405
 20
14.91781759939095
 10
32.51386643742533
 20
14.92246450983752
 10
32.49736679272881
 20
14.92710199996632
 10
32.48086411527944
 20
14.93173007018831
 10
32.46435839779102
 20
14.93634872056789
 10
32.4478496342213
 20
14.9409579508353
 10
32.43133781972701
 20
14.94555776039901
 10
32.41482295061894
 20
14.9501481483581
 10
32.39830502431703
 20
14.95472911351463
 10
32.3817840393054
 20
14.95930065438606
 10
32.36525999508744
 20
14.9638627692176
 10
32.3487328921409
 20
14.96841545599462
 10
32.33220273187293
 20
14.97295871245501
 10
32.31566951657514
 20
14.97749253610161
 10
32.29913324937869
 20
14.98201692421455
 10
32.28259393420938
 20
14.98653187386364
 10
32.26605157574263
 20
14.99103738192079
 10
32.24950617935868
 20
14.99553344507236
 10
32.23295775109754
 20
15.00002005983158
 10
32.21640629761415
 20
15.00449722255088
 10
32.19985182613337
 20
15.00896492943433
 10
32.18329434440509
 20
15.01342317655002
 10
32.16673386065931
 20
15.01787195984239
 10
32.1501703835612
 20
15.0223112751447
 10
32.13360392216613
 20
15.02674111819133
 10
32.11703448587478
 20
15.03116148463025
 10
32.10046208438824
 20
15.03557237003533
 10
32.08388672766295
 20
15.03997376991876
 10
32.06730842586597
 20
15.04436567974345
 10
32.05072718932984
 20
15.04874809493539
 10
32.03414302850779
 20
15.05312101089604
 10
32.01755595392874
 20
15.05748442301473
 10
32.00096597615243
 20
15.06183832668102
 10
31.9843731057244
 20
15.06618271729711
 10
31.96777735313114
 20
15.07051759029022
 10
31.95117872875512
 20
15.07484294112496
 10
31.93457724282986
 20
15.07915876531573
 10
31.91797290539501
 20
15.08346505843911
 10
31.90136572625142
 20
15.08776181614623
 10
31.8847557149162
 20
15.09204903417516
 10
31.86814288057777
 20
15.09632670836331
 10
31.85152723205099
 20
15.10059483465979
 10
31.83490877773215
 20
15.10485340913782
 10
31.81828752555409
 20
15.1091024280071
 10
31.80166348294126
 20
15.11334188762619
 10
31.78503665676479
 20
15.11757178451494
 10
31.76840705329754
 20
15.1217921153668
 10
31.7517746781692
 20
15.12600287706126
 10
31.73513953632131
 20
15.13020406667623
 10
31.71850163196238
 20
15.13439568150042
 10
31.70186096852295
 20
15.13857771904571
 10
31.68521754861062
 20
15.14275017705955
 10
31.66857137396516
 20
15.14691305353735
 10
31.65192244541357
 20
15.15106634673486
 10
31.63527076282513
 20
15.15521005518055
 10
31.61861632506649
 20
15.15934417768798
 10
31.60195912995674
 20
15.16346871336826
 10
31.58529917422241
 20
15.16758366164232
 10
31.5686364534527
 20
15.17168902225339
 10
31.55197096205436
 20
15.17578479527935
 10
31.53530269320689
 20
15.17987098114511
 10
31.51863163881754
 20
15.18394758063499
 10
31.50195778947642
 20
15.18801459490514
 10
31.48528113441154
 20
15.1920720254959
 10
31.4686016614439
 20
15.19611987434418
 10
31.45191935694255
 20
15.20015814379586
 10
31.43523420599166
 20
15.20418683656339
 10
31.41854620522785
 20
15.20820595241211
 10
31.40185537090292
 20
15.21221548608237
 10
31.38516172091771
 20
15.21621543193135
 10
31.36846527308656
 20
15.22020578438077
 10
31.35176604513588
 20
15.22418653791671
 10
31.33506405470277
 20
15.22815768708937
 10
31.31835931933359
 20
15.23211922651288
 10
31.30165185648259
 20
15.23607115086513
 10
31.28494168351047
 20
15.24001345488752
 10
31.268228817683
 20
15.24394613338477
 10
31.2515132761696
 20
15.24786918122478
 10
31.23479507604195
 20
15.25178259333828
 10
31.21807423427256
 20
15.25568636471879
 10
31.20135076773341
 20
15.25958049042232
 10
31.18462469319448
 20
15.2634649655672
 10
31.1678960273224
 20
15.26733978533386
 10
31.15116478667902
 20
15.27120494496466
 10
31.13443098772003
 20
15.27506043976363
 10
31.11769464679352
 20
15.27890626509634
 10
31.10095578013857
 20
15.28274241638963
 10
31.0842144038839
 20
15.28656888913145
 10
31.06747053404645
 20
15.29038567887064
 10
31.05072418652989
 20
15.29419278121672
 10
31.03397537712334
 20
15.29799019183972
 10
31.01722412149988
 20
15.30177790646993
 10
31.00047043521518
 20
15.30555592089774
 10
30.98371433370609
 20
15.30932423097341
 10
30.96695583228923
 20
15.31308283260688
 10
30.95019494615958
 20
15.31683172176756
 10
30.93343169038907
 20
15.32057089448413
 10
30.91666607992523
 20
15.32430034684433
 10
30.89989812958971
 20
15.32802007499479
 10
30.88312785407691
 20
15.33173007514078
 10
30.86635526795258
 20
15.33543034354602
 10
30.84958038565241
 20
15.33912087653251
 10
30.83280322148061
 20
15.3428016704803
 10
30.81602378960852
 20
15.34647272182726
 10
30.79924210407323
 20
15.35013402706896
 10
30.7824581787761
 20
15.35378558275836
 10
30.76567202748144
 20
15.35742738550569
 10
30.74888366381507
 20
15.36105943197822
 10
30.73209310126288
 20
15.36468171890005
 10
30.71530035316949
 20
15.36829424305192
 10
30.6985054327368
 20
15.37189700127097
 10
30.6817083530226
 20
15.37548999045062
 10
30.66490912693917
 20
15.37907320754026
 10
30.64810776725186
 20
15.38264664954515
 10
30.63130428657769
 20
15.38621031352613
 10
30.61449869738396
 20
15.38976419659947
 10
30.59769101198684
 20
15.39330829593667
 10
30.58088124254993
 20
15.3968426087642
 10
30.56406940108292
 20
15.40036713236338
 10
30.54725549944011
 20
15.40388186407012
 10
30.53043954931908
 20
15.40738680127471
 10
30.51362156225924
 20
15.41088194142166
 10
30.49680154964041
 20
15.41436728200949
 10
30.47997952268148
 20
15.41784282059047
 10
30.46315549243893
 20
15.4213085547705
 10
30.44632946980548
 20
15.42476448220884
 10
30.42950146550865
 20
15.42821060061796
 10
30.41267149010938
 20
15.43164690776329
 10
30.39583955400062
 20
15.43507340146305
 10
30.37900566740589
 20
15.43849007958803
 10
30.36216984037795
 20
15.44189694006139
 10
30.34533208279733
 20
15.44529398085847
 10
30.32849240437091
 20
15.44868120000658
 10
30.3116508146306
 20
15.45205859558477
 10
30.29480732293189
 20
15.45542616572367
 10
30.27796193845238
 20
15.45878390860528
 10
30.2611146701905
 20
15.46213182246273
 10
30.24426552696401
 20
15.46546990558012
 10
30.22741451740861
 20
15.46879815629229
 10
30.2105616499766
 20
15.47211657298464
 10
30.19370693293538
 20
15.47542515409289
 10
30.1768503743661
 20
15.47872389810294
 10
30.15999198216226
 20
15.48201280355058
 10
30.1431317640283
 20
15.48529186902139
 10
30.12626972747814
 20
15.48856109315043
 10
30.10940587983387
 20
15.49182047462212
 10
30.09254022822429
 20
15.49507001217001
 10
30.07567277958345
 20
15.49830970457656
 10
30.05880354064941
 20
15.50153955067296
 10
30.04193251796265
 20
15.50475954933891
 10
30.02505971786478
 20
15.50796969950243
 10
30.00818514649709
 20
15.51117000013966
 10
29.99130880979917
 20
15.51436045027463
 10
29.97443071350748
 20
15.51754104897911
 10
29.95755086315395
 20
15.52071179537234
 10
29.9406692640646
 20
15.52387268862089
 10
29.92378592135813
 20
15.52702372793839
 10
29.90690083994445
 20
15.53016491258541
 10
29.89001402452336
 20
15.53329624186919
 10
29.87312547958314
 20
15.53641771514346
 10
29.85623520939906
 20
15.53952933180824
 10
29.83934321803208
 20
15.54263109130963
 10
29.82244950932737
 20
15.54572299313961
 10
29.80555408691293
 20
15.54880503683586
 10
29.78865695419823
 20
15.5518772219815
 10
29.7717581143727
 20
15.55493954820495
 10
29.75485757040445
 20
15.55799201517969
 10
29.73795532503873
 20
15.56103462262407
 10
29.72105138079669
 20
15.56406737030109
 10
29.70414573997379
 20
15.56709025801825
 10
29.68723840463857
 20
15.57010328562725
 10
29.67032937663109
 20
15.57310645302389
 10
29.65341865756166
 20
15.57609976014782
 10
29.63650624880933
 20
15.57908320698231
 10
29.61959215152056
 20
15.58205679355411
 10
29.60267636660775
 20
15.5850205199332
 10
29.58575889474791
 20
15.58797438623259
 10
29.56883973638118
 20
15.59091839260815
 10
29.55191889170947
 20
15.59385253925836
 10
29.53499636069505
 20
15.59677682642417
 10
29.51807214305912
 20
15.59969125438872
 10
29.50114623828044
 20
15.6025958234772
 10
29.48421864559393
 20
15.60549053405662
 10
29.46728936398919
 20
15.60837538653561
 10
29.45035839220919
 20
15.6112503813642
 10
29.43342572874883
 20
15.61411551903368
 10
29.41649137185349
 20
15.61697080007631
 10
29.3995553195177
 20
15.61981622506517
 10
29.38261756948369
 20
15.62265179461397
 10
29.36567811923999
 20
15.62547750937678
 10
29.34873696602003
 20
15.62829337004792
 10
29.33179410680074
 20
15.63109937736167
 10
29.31484953830114
 20
15.63389553209213
 10
29.29790325698093
 20
15.63668183505297
 10
29.28095525903908
 20
15.63945828709727
 10
29.26400554041247
 20
15.64222488911729
 10
29.24705409677441
 20
15.64498164204428
 10
29.23010092353331
 20
15.64772854684825
 10
29.21314601583122
 20
15.65046560453781
 10
29.19618936854242
 20
15.65319281615993
 10
29.1792309762721
 20
15.65591018279977
 10
29.16227083335487
 20
15.65861770558044
 10
29.14530893385336
 20
15.66131538566283
 10
29.12834527155684
 20
15.66400322424539
 10
29.11137983997986
 20
15.66668122256393
 10
29.09441263236073
 20
15.66934938189142
 10
29.07744364166022
 20
15.67200770353777
 10
29.06047286056011
 20
15.6746561888497
 10
29.04350028146177
 20
15.67729483921039
 10
29.02652589648481
 20
15.67992365603942
 10
29.00954969746562
 20
15.68254264079253
 10
28.992571675956
 20
15.68515179496135
 10
28.97559182322173
 20
15.68775112007329
 10
28.95861013024116
 20
15.69034061769128
 10
28.94162658770386
 20
15.69292028941359
 10
28.92464118600916
 20
15.69549013687359
 10
28.90765177378315
 20
15.69805047624787
 10
28.89062399968962
 20
15.70060635446567
 10
28.87359339129174
 20
15.70315255803835
 10
28.85668895690742
 20
15.70567012559043
 10
28.84000406927227
 20
15.70814528056699
 10
28.82339259898715
 20
15.7105993905562
 10
28.80649202438936
 20
15.71308563749234
 10
28.78926217382012
 20
15.71560973635485
 10
28.77186242705615
 20
15.71814800276169
 10
28.75439594726481
 20
15.72068497507854
 10
28.736737749996
 20
15.72323852937173
 10
28.71881274805198
 20
15.72581936251746
 10
28.70067673762663
 20
15.72841924462643
 10
28.68242214458027
 20
15.73102469558052
 10
28.66410283122117
 20
15.73362789816305
 10
28.6457471002692
 20
15.73622479396767
 10
28.62737206639355
 20
15.73881295274149
 10
28.60898317028649
 20
15.74139161321095
 10
28.59057467432308
 20
15.74396158038161
 10
28.57213534081785
 20
15.74652436778255
 10
28.55366953042977
 20
15.74907936804261
 10
28.53524004492255
 20
15.75161815389198
 10
28.51701501414945
 20
15.75411821480458
 10
28.49923348714279
 20
15.75654743103387
 10
28.48191424559766
 20
15.75890323190855
 10
28.46484235791932
 20
15.76121461130931
 10
28.44775369814105
 20
15.76351722597753
 10
28.43047227614182
 20
15.76583489846322
 10
28.41287016013615
 20
15.7681850972983
 10
28.39498784267021
 20
15.77056240343237
 10
28.37698539614767
 20
15.77294512097417
 10
28.35903101051626
 20
15.77531043895165
 10
28.34120219585416
 20
15.77764797893103
 10
28.32353056342006
 20
15.77995374836321
 10
28.30604006723561
 20
15.78222482892503
 10
28.28873500529248
 20
15.78446093499366
 10
28.27157946468798
 20
15.78666703834972
 10
28.25450980179332
 20
15.78885170125112
 10
28.23747910482592
 20
15.79102129507918
 10
28.22044102433802
 20
15.79318182616294
 10
28.20332695498587
 20
15.79534163674767
 10
28.18606077040098
 20
15.79750992611049
 10
28.16861808402484
 20
15.79968968471926
 10
28.15102531349577
 20
15.80187770906426
 10
28.13334171844374
 20
15.8040667625754
 10
28.11564269496024
 20
15.80624759402698
 10
28.09800819877336
 20
15.80841034939124
 10
28.0805093595827
 20
15.81054623096889
 10
28.06319271145144
 20
15.81264947047959
 10
28.0460596789209
 20
15.81471989924814
 10
28.02905208361121
 20
15.81676479415138
 10
28.0121044318486
 20
15.81879236619132
 10
27.99517135212651
 20
15.8208083186302
 10
27.97824221380328
 20
15.82281400446924
 10
27.9613250551782
 20
15.82480843232625
 10
27.94441987187513
 20
15.82679161388439
 10
27.92752589239088
 20
15.82876365338879
 10
27.91064217890976
 20
15.83072467253399
 10
27.8937676461829
 20
15.83267480825721
 10
27.8769010804077
 20
15.83461421053143
 10
27.86004115810726
 20
15.83654304015864
 10
27.84318646500976
 20
15.83846146656294
 10
27.82633551492788
 20
15.84036966558379
 10
27.80948676863822
 20
15.84226781726911
 10
27.79263865276071
 20
15.84415610366849
 10
27.77578957863803
 20
15.84603470662639
 10
27.75893796121499
 20
15.84790380557524
 10
27.74208223791799
 20
15.84976357532867
 10
27.72522088753436
 20
15.85161418387468
 10
27.70835244909188
 20
15.85345579016878
 10
27.69147554073807
 20
15.85528854192719
 10
27.6745889983779
 20
15.85711256100914
 10
27.65769073863951
 20
15.85892805733523
 10
27.64077912417543
 20
15.86073519172483
 10
27.62386355638903
 20
15.86253300345611
 10
27.6069755380048
 20
15.86431828943551
 10
27.59015067420174
 20
15.866087422391
 10
27.57339652622379
 20
15.8678396142558
 10
27.55669951472197
 20
15.86957623107024
 10
27.5400319392722
 20
15.87130009066072
 10
27.52353113911078
 20
15.87299754761566
 10
27.50760011575605
 20
15.87462847394511
 10
27.49235101451977
 20
15.87618192978907
 10
27.47761637347152
 20
15.87767498217576
 10
27.46305856119657
 20
15.87914169819225
 10
27.44827921455391
 20
15.88062213815519
 10
27.432928676434
 20
15.8821513487816
 10
27.41681543351676
 20
15.88374835635947
 10
27.40001555402945
 20
15.88540515991856
 10
27.38294002794181
 20
15.88707998427262
 10
27.36585245689636
 20
15.88874610819552
 10
27.34875937069793
 20
15.89040286366138
 10
27.33166153527065
 20
15.89205016710526
 10
27.31455978416394
 20
15.89368792902895
 10
27.29745495189347
 20
15.89531606083278
 10
27.280347807282
 20
15.89693448164731
 10
27.26323898680043
 20
15.89854312516519
 10
27.2461289279086
 20
15.90014194647286
 10
27.22901780904015
 20
15.90173092807472
 10
27.21190561997334
 20
15.90331007179382
 10
27.1947923292149
 20
15.90487938152248
 10
27.17767791048068
 20
15.90643886067488
 10
27.16056234245258
 20
15.90798851221184
 10
27.14344560852458
 20
15.90952833866632
 10
27.12632769654876
 20
15.91105834216896
 10
27.10920859858124
 20
15.91257852447358
 10
27.09208831062828
 20
15.91408888698267
 10
27.07496683239221
 20
15.91558943077295
 10
27.05784416701748
 20
15.91708015662088
 10
27.04072032083665
 20
15.91856106502811
 10
27.02359530311641
 20
15.92003215624711
 10
27.00646912580353
 20
15.92149343030656
 10
26.98934180327098
 20
15.92294488703697
 10
26.97221335206381
 20
15.92438652609613
 10
26.95508379064524
 20
15.92581834699466
 10
26.93795313914264
 20
15.92724034912148
 10
26.92082141909353
 20
15.9286525317694
 10
26.90368865319158
 20
15.93005489416057
 10
26.88655486503266
 20
15.93144743547201
 10
26.86942007886079
 20
15.93283015486114
 10
26.85228431931419
 20
15.93420305149129
 10
26.83514761117125
 20
15.93556612455721
 10
26.81800997909656
 20
15.93691937331059
 10
26.80087144738691
 20
15.93826279708556
 10
26.78373203971732
 20
15.93959639532425
 10
26.76659177888698
 20
15.94092016760223
 10
26.74945068656533
 20
15.94223411365411
 10
26.73230878303803
 20
15.94353823339897
 10
26.71516608695297
 20
15.94483252696597
 10
26.69802261506628
 20
15.94611699471977
 10
26.68087838198832
 20
15.94739163728611
 10
26.66373339992973
 20
15.94865645557731
 10
26.64658767844739
 20
15.94991145081776
 10
26.62944122499776
 20
15.95115662447643
 10
26.61229405184916
 20
15.95239197748298
 10
26.59514617501389
 20
15.95361751039227
 10
26.57799761117525
 20
15.95483322374561
 10
26.56084837755364
 20
15.95603911808143
 10
26.54369849180046
 20
15.95723519394265
 10
26.52654797189191
 20
15.95842145188415
 10
26.50939683602293
 20
15.95959789248009
 10
26.49224510250102
 20
15.96076451633137
 10
26.47509278964013
 20
15.96192132407305
 10
26.45793991565452
 20
15.96306831638173
 10
26.44078649855262
 20
15.96420549398295
 10
26.42363255603092
 20
15.9653328576586
 10
26.40647810536782
 20
15.96645040825436
 10
26.3893231633175
 20
15.96755814668706
 10
26.37216774600377
 20
15.96865607395212
 10
26.355011868814
 20
15.96974419113094
 10
26.33785554629291
 20
15.9708224993983
 10
26.32069879203648
 20
15.97189100002979
 10
26.30354161858583
 20
15.9729496944092
 10
26.28638403732102
 20
15.97399858403592
 10
26.26922605835503
 20
15.97503767053238
 10
26.25206769042752
 20
15.9760669556514
 10
26.23490894079917
 20
15.97708644128363
 42
0.3599062104210964
 10
26.0193928026252
 20
15.81659473333763
 10
26.019392
 20
15.81659500000001
 10
24.82965956167799
 20
10.94969820693467
 10
24.82931191380178
 20
10.94804082880056
 10
24.82900756503328
 20
10.94637152891204
 10
24.82874709550852
 20
10.94469203621242
 10
24.82853068220424
 20
10.94300251164339
 10
24.82835847701502
 20
10.9413033161495
 10
24.82823060729054
 20
10.93959497879787
 10
24.828147176373
 20
10.937878164898
 10
24.82810826413448
 20
10.93615364412153
 10
24.82811392751421
 20
10.93442225862201
 10
24.82816420105599
 20
10.93268489115466
 10
24.8282590974455
 20
10.93094243319618
 10
24.82839860804769
 20
10.92919575306443
 10
24.82858270344409
 20
10.92744566403832
 10
24.82881133397017
 20
10.92569289247749
 10
24.82908443025271
 20
10.9239380459421
 10
24.82940190374711
 20
10.92218158131261
 10
24.82976364727478
 20
10.92042377290961
 10
24.83016953556047
 20
10.91866468061343
 10
24.83061945814431
 20
10.916904122737
 10
24.83111352907591
 20
10.91514180923123
 10
24.83165187788501
 20
10.91337764188899
 10
24.83223450889343
 20
10.91161175248928
 10
24.8328613142089
 20
10.90984447228246
 10
24.83353208777566
 20
10.90807630130047
 10
24.83424653942512
 20
10.90630787766707
 10
24.83500430892656
 20
10.90453994690808
 10
24.83580498003773
 20
10.90277333126154
 10
24.83664809455552
 20
10.90100889898798
 10
24.83753316636662
 20
10.89924753368066
 10
24.83845969549817
 20
10.89749010357571
 10
24.83942718216838
 20
10.89573743086245
 10
24.84043514083724
 20
10.89399026099354
 10
24.84148311425713
 20
10.89224923199525
 10
24.84257068752346
 20
10.89051484377764
 10
24.84369750212538
 20
10.8887874274448
 10
24.84486326999638
 20
10.88706711460509
 10
24.84606778962186
 20
10.88535380704774
 10
24.84731107117575
 20
10.88364721988373
 10
24.84859325623548
 20
10.88194715639573
 10
24.84991431019003
 20
10.88025361510904
 10
24.85127401840534
 20
10.87856676837843
 10
24.85267200915624
 20
10.87688693796402
 10
24.85410777655856
 20
10.8752145706073
 10
24.85558070350114
 20
10.87355021360705
 10
24.85709008457785
 20
10.87189449039536
 10
24.85863514901974
 20
10.87024807611351
 10
24.86021508362691
 20
10.868611673188
 10
24.86182905570073
 20
10.8669859869065
 10
24.86347623597578
 20
10.86537170099377
 10
24.86515582155188
 20
10.86376945318767
 10
24.86686705882622
 20
10.86217981081511
 10
24.86860926642532
 20
10.86060324636798
 10
24.8703818581371
 20
10.85904011307915
 10
24.87218436584296
 20
10.85749062049842
 10
24.87401646244976
 20
10.85595481006849
 10
24.87587798906415
 20
10.85443253224474
 10
24.8777690438829
 20
10.8529235169683
 10
24.87968975631938
 20
10.85142759216297
 10
24.88164004668036
 20
10.84994472517454
 10
24.88361964004684
 20
10.8484750058125
 10
24.88562809152054
 20
10.84701862956057
 10
24.88766481147044
 20
10.84557588078716
 10
24.88972909077933
 20
10.8441471159558
 10
24.89182012609035
 20
10.84273274683568
 10
24.89393704505348
 20
10.84133322371204
 10
24.89607893157212
 20
10.83994901859668
 10
24.89824485104965
 20
10.83858060843844
 10
24.90043387563584
 20
10.83722845833362
 10
24.90264510947355
 20
10.8358930047365
 10
24.90487771394516
 20
10.83457463866978
 10
24.90713093291911
 20
10.83327368893503
 10
24.90940411799649
 20
10.83199040532322
 10
24.91169675375748
 20
10.83072494182511
 10
24.91400848300802
 20
10.82947733984179
 10
24.91633913204919
 20
10.82824751140019
 10
24.91868876613037
 20
10.82703524900886
 10
24.9210575968381
 20
10.82584036853841
 10
24.92344565740707
 20
10.82466278105253
 10
24.92585277748444
 20
10.82350248297991
 10
24.92827860821628
 20
10.82235954525427
 10
24.9307226473341
 20
10.8212341024544
 10
24.9331842642413
 20
10.82012634194424
 10
24.93566272509968
 20
10.8190364930129
 10
24.9381572179159
 20
10.81796481601472
 10
24.94066687762796
 20
10.81691159150933
 10
24.94319081119174
 20
10.81587710940169
 10
24.94572812266744
 20
10.81486165808213
 10
24.94827793830602
 20
10.81386551356641
 10
24.95083943163581
 20
10.81288892863581
 10
24.95341184854884
 20
10.81193212197708
 10
24.95599453238747
 20
10.8109952673226
 10
24.95858694903076
 20
10.81007848259037
 10
24.96118871198102
 20
10.80918181902404
 10
24.96379960745028
 20
10.80830525033304
 10
24.96641961943527
 20
10.80744866183631
 10
24.98390495418731
 20
10.80180980973891
 10
25.00139267946104
 20
10.79617346275326
 10
25.0188827834253
 20
10.79053961406665
 10
25.03637525351328
 20
10.78490825707765
 10
25.05387007646833
 20
10.77927938538374
 10
25.07136723837939
 20
10.7736529927723
 10
25.08886672471657
 20
10.76802907321164
 10
25.10636852036659
 20
10.76240762084192
 10
25.12387260966825
 20
10.75678862996617
 10
25.14137897644796
 20
10.75117209504131
 10
25.15888760405523
 20
10.74555801066905
 10
25.17639847539812
 20
10.73994637158699
 10
25.19391157297873
 20
10.73433717265949
 10
25.21142687892879
 20
10.72873040886876
 10
25.228944375045
 20
10.72312607530577
 10
25.24646404282462
 20
10.71752416716129
 10
25.26398586350093
 20
10.71192467971683
 10
25.28150981807871
 20
10.70632760833566
 10
25.29903588736976
 20
10.70073294845381
 10
25.31656405202834
 20
10.69514069557101
 10
25.33409429258672
 20
10.68955084524171
 10
25.35162658949063
 20
10.68396339306606
 10
25.36916092313472
 20
10.67837833468089
 10
25.38669727389816
 20
10.67279566575071
 10
25.40423562218
 20
10.66721538195868
 10
25.42177594843473
 20
10.66163747899763
 10
25.43931823320777
 20
10.65606195256099
 10
25.45686245717093
 20
10.65048879833383
 10
25.47440860115792
 20
10.64491801198382
 10
25.49195664619984
 20
10.63934958915224
 10
25.50950657356067
 20
10.63378352544492
 10
25.52705836477271
 20
10.62821981642328
 10
25.54461200142747
 20
10.62265845767951
 10
25.56216746152631
 20
10.61709944609453
 10
25.57972472242973
 20
10.61154277882375
 10
25.59728376522234
 20
10.60598845179717
 10
25.61484457417411
 20
10.6004364599076
 10
25.63240713604166
 20
10.59488679725412
 10
25.6499714393697
 20
10.58933945738531
 10
25.66753747379226
 20
10.58379443354266
 10
25.68510522933408
 20
10.57825171890389
 10
25.70267469571189
 20
10.57271130682627
 10
25.72024586163579
 20
10.56717319108999
 10
25.73781871411056
 20
10.56163736614149
 10
25.75539323773698
 20
10.5561038273368
 10
25.7729694140132
 20
10.55057257118487
 10
25.790547220636
 20
10.54504359559091
 10
25.80812663080221
 20
10.53951690009977
 10
25.82570898915594
 20
10.53399205558659
 10
25.84337872379033
 20
10.52844265013822
 10
25.86130733536303
 20
10.5228150505752
 10
25.87959526194048
 20
10.51707786297362
 10
25.89827044680151
 20
10.51122237726522
 10
25.91730189152249
 20
10.50525832486732
 10
25.93661320906246
 20
10.49920963631286
 10
25.95609617684832
 20
10.49311019888035
 10
25.97562428985995
 20
10.4869996142238
 10
25.99506631371543
 20
10.48091895600278
 10
26.0142998377561
 20
10.4749065275123
 10
26.0332248281318
 20
10.4689936193129
 10
26.051777180886
 20
10.46320026686049
 10
26.06994227504094
 20
10.45753100813645
 10
26.08776852568278
 20
10.45197064127753
 10
26.10538093704683
 20
10.44647998220584
 10
26.12294714877362
 20
10.44100649866602
 10
26.14050761153582
 20
10.43553748972818
 10
26.15806218871436
 20
10.43007296557615
 10
26.17561085499728
 20
10.42461290279899
 10
26.19315368918536
 20
10.41915724667413
 10
26.21069086698313
 20
10.41370591345497
 10
26.22822265378984
 20
10.40825879265862
 10
26.24574939749052
 20
10.40281574935348
 10
26.26327152124695
 20
10.39737662644693
 10
26.2807895162887
 20
10.39194124697302
 10
26.29830393470409
 20
10.38650941638006
 10
26.31581538223125
 20
10.38108092481834
 10
26.3333245110491
 20
10.37565554942778
 10
26.35083201256835
 20
10.37023305662555
 10
26.36833861022254
 20
10.36481320439377
 10
26.38584505225898
 20
10.35939574456717
 10
26.40335210452987
 20
10.35398042512071
 10
26.42086054328319
 20
10.34856699245727
 10
26.43837114795378
 20
10.34315519369531
 10
26.45588469395432
 20
10.33774477895651
 10
26.47340194546635
 20
10.33233550365347
 10
26.49092364823128
 20
10.3269271307773
 10
26.50845052234136
 20
10.32151943318535
 10
26.52598325503074
 20
10.31611219588882
 10
26.54349005835275
 20
10.31071519687272
 10
26.56061378374256
 20
10.30543830481651
 10
26.57707946725525
 20
10.3003660794822
 10
26.59296900549063
 20
10.29547327440415
 10
26.6085927361135
 20
10.29066436019886
 10
26.62435384214405
 20
10.28581525570614
 10
26.64061275624796
 20
10.28081505913033
 10
26.65755156502683
 20
10.27560777918147
 10
26.67503841330763
 20
10.27023406621673
 10
26.69246993979138
 20
10.26487957191921
 10
26.70932749765091
 20
10.25970372946537
 10
26.72601095565598
 20
10.25458379688669
 10
26.74303330010515
 20
10.24936217552553
 10
26.76015789593443
 20
10.24411128406905
 10
26.77717909230385
 20
10.2388940743909
 10
26.7941769431197
 20
10.23368591357024
 10
26.81123929527181
 20
10.22845988533441
 10
26.82834952632524
 20
10.22322114886712
 10
26.84511481860104
 20
10.21809007106072
 10
26.86181353838679
 20
10.21298178005028
 10
26.87904727977682
 20
10.20771231137629
 10
26.89672048922478
 20
10.20231038577835
 10
26.91419718897153
 20
10.19696949251583
 10
26.93161712357342
 20
10.19164639030886
 10
26.94947741118481
 20
10.18618918720015
 10
26.96784668768899
 20
10.18057728932121
 10
26.98642877612785
 20
10.17490176469612
 10
27.00511329101618
 20
10.1691968027372
 10
27.02372614529004
 20
10.1635158906726
 10
27.0421158499451
 20
10.15790557831992
 10
27.06027055112894
 20
10.15236985744017
 10
27.07833493592647
 20
10.14686498525837
 10
27.09651672094646
 20
10.14132793348148
 10
27.11499965683175
 20
10.13570288281113
 10
27.13385702367185
 20
10.12996758944499
 10
27.15299245757903
 20
10.12415149369699
 10
27.17222221937833
 20
10.11831065479508
 10
27.19142320210029
 20
10.11248259447791
 10
27.21059860804861
 20
10.10666625963277
 10
27.22975821977625
 20
10.10085856417225
 10
27.24890727853205
 20
10.09505778077331
 10
27.26803969231993
 20
10.08926559308501
 10
27.28711729573079
 20
10.08349335386301
 10
27.30613998860648
 20
10.07774083672896
 10
27.32499665075503
 20
10.07204120571956
 10
27.34332867573404
 20
10.06650222728178
 10
27.36128791682661
 20
10.06107745671875
 10
27.37933032887792
 20
10.05562861522931
 10
27.3974267585343
 20
10.05016400707304
 10
27.41531213056991
 20
10.04476321519396
 10
27.43301925693085
 20
10.03941642995564
 10
27.45071508350877
 20
10.0340740239252
 10
27.46844076586443
 20
10.02872432958898
 10
27.48617430422351
 20
10.02337423644039
 10
27.50390881809981
 20
10.01802581356081
 10
27.52164432914235
 20
10.01267904674839
 10
27.53938085833958
 20
10.00733392209621
 10
27.55711842602526
 20
10.00199042598945
 10
27.57485705188422
 20
9.99664854510256
 10
27.59259675495829
 20
9.991308266396419
 10
27.61033755365209
 20
9.985969577115508
 10
27.62807946573888
 20
9.980632464785045
 10
27.6458225083664
 20
9.975296917208194
 10
27.66356669806271
 20
9.969962922463171
 10
27.68131205074203
 20
9.964630468900463
 10
27.69905858171059
 20
9.959299545139955
 10
27.71680630567246
 20
9.953970140068108
 10
27.73455523673538
 20
9.948642242835106
 10
27.75230538841663
 20
9.943315842852056
 10
27.77005677364885
 20
9.937990929788103
 10
27.78780940478586
 20
9.932667493567622
 10
27.80556329360857
 20
9.927345524367387
 10
27.82331845133073
 20
9.922025012613712
 10
27.84107488860484
 20
9.916705948979624
 10
27.85883261552795
 20
9.911388324382036
 10
27.87659164164753
 20
9.906072129978896
 10
27.89435197596727
 20
9.90075735716635
 10
27.91211362695298
 20
9.895443997575927
 10
27.92987660253837
 20
9.890132043071666
 10
27.94764091013092
 20
9.884821485747313
 10
27.96540655661774
 20
9.879512317923458
 10
27.98317354837133
 20
9.874204532144723
 10
28.00094189125555
 20
9.868898121176908
 10
28.01871159063133
 20
9.863593078004152
 10
28.0364826513626
 20
9.858289395826107
 10
28.05425507782209
 20
9.852987068055099
 10
28.07202887389717
 20
9.847686088313288
 10
28.0898040429957
 20
9.842386450429827
 10
28.10758058805188
 20
9.837088148438038
 10
28.12535851153206
 20
9.83179117657256
 10
28.14313781544063
 20
9.826495529266519
 10
28.16091850132579
 20
9.821201201148699
 10
28.17870057028547
 20
9.815908187040694
 10
28.1964840229731
 20
9.81061648195407
 10
28.21426885960349
 20
9.805326081087539
 10
28.23205507995868
 20
9.800036979824113
 10
28.24984268339373
 20
9.794749173728272
 10
28.2676316688426
 20
9.789462658543126
 10
28.285422034824
 20
9.784177430187574
 10
28.3032137794472
 20
9.778893484753472
 10
28.32100690041787
 20
9.773610818502794
 10
28.33880139504395
 20
9.768329427864797
 10
28.35659726024148
 20
9.763049309433183
 10
28.3743944925404
 20
9.757770459963268
 10
28.39219308809046
 20
9.752492876369126
 10
28.40999304266701
 20
9.747216555720774
 10
28.42779435167684
 20
9.741941495241327
 10
28.44559701016405
 20
9.736667692304155
 10
28.46340101281588
 20
9.731395144430063
 10
28.48120635396854
 20
9.726123849284428
 10
28.49901302761304
 20
9.720853804674392
 10
28.51682102740106
 20
9.715585008545993
 10
28.53463034665079
 20
9.710317458981363
 10
28.55244097835272
 20
9.705051154195862
 10
28.57025291517555
 20
9.699786092535259
 10
28.58806614947198
 20
9.694522272472882
 10
28.60588067328457
 20
9.689259692606796
 10
28.62369647835159
 20
9.683998351656953
 10
28.64151355611282
 20
9.678738248462362
 10
28.65933189771544
 20
9.673479381978246
 10
28.67715149401984
 20
9.668221751273216
 10
28.69497233560549
 20
9.66296535552642
 10
28.71279441277673
 20
9.657710194024724
 10
28.73061771556864
 20
9.652456266159855
 10
28.74844223375289
 20
9.647203571425579
 10
28.76626795684359
 20
9.641952109414859
 10
28.78409487410307
 20
9.636701879817016
 10
28.80192297454778
 20
9.631452882414896
 10
28.81975224695413
 20
9.626205117082033
 10
28.83758267986427
 20
9.620958583779806
 10
28.85541426159201
 20
9.615713282554613
 10
28.8732469802286
 20
9.610469213535024
 10
28.89108082364859
 20
9.605226376928943
 10
28.90891577951569
 20
9.599984773020787
 10
28.92675183528858
 20
9.594744402168636
 10
28.94458897822674
 20
9.58950526480139
 10
28.96242719539637
 20
9.584267361415953
 10
28.98026647367613
 20
9.579030692574367
 10
28.99810679976305
 20
9.573795258901011
 10
29.0159481601783
 20
9.568561061079735
 10
29.03379054127312
 20
9.563328099851034
 10
29.0516339292346
 20
9.558096376009203
 10
29.06947831009154
 20
9.552865890399527
 10
29.08732366972025
 20
9.547636643915403
 10
29.10516999385048
 20
9.542408637495539
 10
29.12301726807118
 20
9.537181872121099
 10
29.14086547783635
 20
9.531956348812867
 10
29.15871460847093
 20
9.526732068628415
 10
29.17656464517657
 20
9.521509032659263
 10
29.19441557303754
 20
9.516287242028052
 10
29.21226737702652
 20
9.511066697885679
 10
29.23012004203
 20
9.50584740140548
 10
29.24797355352545
 20
9.500629353680919
 10
29.26582789757627
 20
9.495412555747721
 10
29.28368305986304
 20
9.490197008744278
 10
29.30153902564447
 20
9.484982713916839
 10
29.31939577978369
 20
9.47976967261423
 10
29.33725330677413
 20
9.474557886282626
 10
29.35511159076572
 20
9.469347356460303
 10
29.3729706155909
 20
9.464138084772383
 10
29.39083036479068
 20
9.458930072925596
 10
29.40869082164075
 20
9.453723322703027
 10
29.42655196917752
 20
9.448517835958872
 10
29.44441379022418
 20
9.44331361461319
 10
29.46227626741682
 20
9.438110660646657
 10
29.48013938323041
 20
9.432908976095319
 10
29.49800312000497
 20
9.427708563045342
 10
29.51586745997156
 20
9.422509423627772
 10
29.53373238527838
 20
9.417311560013283
 10
29.55159787801685
 20
9.412114974406934
 10
29.56946392024765
 20
9.406919669042911
 10
29.58733049402681
 20
9.401725646179301
 10
29.60519758143178
 20
9.396532908092815
 10
29.62306516458747
 20
9.391341457073583
 10
29.64093322569235
 20
9.386151295419862
 10
29.65880174704451
 20
9.380962425432823
 10
29.67667071106773
 20
9.375774849411284
 10
29.69454010033754
 20
9.370588569646473
 10
29.71240989760729
 20
9.365403588416775
 10
29.73028008583422
 20
9.360219907982504
 10
29.74815064820554
 20
9.355037530580622
 10
29.76602156816449
 20
9.349856458419523
 10
29.7838928294364
 20
9.344676693673768
 10
29.80176441605476
 20
9.339498238478848
 10
29.81963631238732
 20
9.334321094925927
 10
29.8375085031621
 20
9.329145265056617
 10
29.85538097349352
 20
9.323970750857704
 10
29.87325370890843
 20
9.318797554255908
 10
29.89112669537218
 20
9.313625677112657
 10
29.90899991931474
 20
9.308455121218806
 10
29.92687336765664
 20
9.303285888289432
 10
29.94474702783521
 20
9.298117979958536
 10
29.96262088783054
 20
9.292951397773851
 10
29.98049493619155
 20
9.287786143191542
 10
29.99836916206211
 20
9.28262221757101
 10
30.01624355520704
 20
9.277459622169599
 10
30.03411810603827
 20
9.272298358137382
 10
30.05199280564081
 20
9.267138426511909
 10
30.0698676457989
 20
9.261979828212927
 10
30.08774261902201
 20
9.256822564037195
 10
30.10561771857098
 20
9.251666634653176
 10
30.12349293848401
 20
9.246512040595828
 10
30.14136827360281
 20
9.241358782261338
 10
30.1592437195986
 20
9.236206859901892
 10
30.17711927299822
 20
9.231056273620412
 10
30.19499493121018
 20
9.225907023365316
 10
30.21287069255073
 20
9.220759108925273
 10
30.23074655626994
 20
9.215612529923951
 10
30.24862252257776
 20
9.210467285814779
 10
30.26649859267008
 20
9.205323375875687
 10
30.28437476875482
 20
9.200180799203877
 10
30.30225105407799
 20
9.19503955471055
 10
30.32012745294973
 20
9.189899641115687
 10
30.33800397077044
 20
9.184761056942793
 10
30.35588061405679
 20
9.179623800513631
 10
30.3737573904678
 20
9.174487869943007
 10
30.39163430882409
 20
9.169353263136258
 10
30.40951137801918
 20
9.164219978207187
 10
30.42738860515563
 20
9.159088014066457
 10
30.44526599676456
 20
9.153957369824055
 10
30.46314355902855
 20
9.148828044696555
 10
30.48102129778616
 20
9.143700038007605
 10
30.49889921853637
 20
9.138573349188483
 10
30.51677732644306
 20
9.133447977778622
 10
30.53465562633951
 20
9.12832392342614
 10
30.5525341227328
 20
9.123201185888376
 10
30.57041281980838
 20
9.118079765032423
 10
30.58829172143446
 20
9.112959660835652
 10
30.60617083116654
 20
9.107840873386251
 10
30.62405015225182
 20
9.102723402883754
 10
30.64192968763375
 20
9.097607249639574
 10
30.65980943995644
 20
9.092492414077533
 10
30.67768941156915
 20
9.087378896734394
 10
30.69556960453078
 20
9.082266698260399
 10
30.71345002061433
 20
9.077155819419786
 10
30.73133066131136
 20
9.072046261091339
 10
30.74921152783649
 20
9.066938024268903
 10
30.76709262113185
 20
9.061831110061934
 10
30.78497394187154
 20
9.056725519696014
 10
30.80285549046613
 20
9.051621254513387
 10
30.82073726706714
 20
9.046518315973502
 10
30.83861927157149
 20
9.041416705653523
 10
30.85650150362598
 20
9.036316425248882
 10
30.87438396263173
 20
9.031217476573813
 10
30.89226664774873
 20
9.026119861561843
 10
30.91014955790024
 20
9.021023582266392
 10
30.92803269177728
 20
9.015928640861238
 10
30.94591604784313
 20
9.010835039641092
 10
30.96379962433776
 20
9.005742781022107
 10
30.98168341928236
 20
9.00065186754243
 10
30.99956743048374
 20
8.99556230186271
 10
31.01745165553887
 20
8.990474086766647
 10
31.03533609183929
 20
8.985387225161524
 10
31.05322073657565
 20
8.980301720078724
 10
31.07110558674211
 20
8.975217574674275
 10
31.08899063914088
 20
8.970134792229382
 10
31.10687589038665
 20
8.965053376150951
 10
31.12476133691108
 20
8.959973329972122
 10
31.14264697496725
 20
8.954894657352815
 10
31.16053280063417
 20
8.949817362080237
 10
31.17841880982121
 20
8.94474144806943
 10
31.19630499827261
 20
8.93966691936381
 10
31.21419136157194
 20
8.934593780135676
 10
31.23207789514655
 20
8.92952203468676
 10
31.24996459427207
 20
8.924451687448751
 10
31.26785145407688
 20
8.91938274298384
 10
31.28573846954655
 20
8.914315205985223
 10
31.30362563552838
 20
8.909249081277664
 10
31.3215129467358
 20
8.904184373818004
 10
31.33940039775287
 20
8.899121088695716
 10
31.35728798303878
 20
8.894059231133411
 10
31.37517569693227
 20
8.888998806487382
 10
31.39306353365616
 20
8.883939820248144
 10
31.41095148732175
 20
8.878882278040951
 10
31.42883955193339
 20
8.873826185626333
 10
31.44672772139284
 20
8.868771548900635
 10
31.46461598950385
 20
8.863718373896542
 10
31.48250434997653
 20
8.858666666783607
 10
31.50039279643193
 20
8.853616433868788
 10
31.51828132240642
 20
8.848567681596987
 10
31.5361699213562
 20
8.843520416551562
 10
31.55405858668203
 20
8.838474645449231
 10
31.57194742325625
 20
8.833430344014441
 10
31.58983689034427
 20
8.828387389163216
 10
31.60772747736899
 20
8.823345649470244
 10
31.62561962377877
 20
8.818305007529726
 10
31.64351372068204
 20
8.813265359498362
 10
31.66141011248198
 20
8.808226614638321
 10
31.67930909851115
 20
8.803188694860216
 10
31.69721093466606
 20
8.798151534266082
 10
31.71511583504191
 20
8.793115078692348
 10
31.73302397356722
 20
8.788079285252811
 10
31.75093548563837
 20
8.783044121881625
 10
31.76885046975435
 20
8.778009566876256
 10
31.78676898915135
 20
8.77297560844048
 10
31.80469107343741
 20
8.767942244227334
 10
31.82261672022703
 20
8.762909480882111
 10
31.84054589677586
 20
8.757877333585325
 10
31.85847854161533
 20
8.75284582559569
 10
31.87641456618724
 20
8.7478149877931
 10
31.89435385647847
 20
8.742784858221593
 10
31.91229627465556
 20
8.737755481632337
 10
31.93024166069938
 20
8.732726909026599
 10
31.94818983403978
 20
8.727699197198727
 10
31.96614059519021
 20
8.72267240827912
 10
31.98409372738234
 20
8.717646609277199
 10
32.00204899820076
 20
8.712621871624397
 10
32.02000616121755
 20
8.707598270717124
 10
32.03796495762698
 20
8.702575885459737
 10
32.05592511788012
 20
8.697554797807535
 10
32.07388636331947
 20
8.692535092309711
 10
32.09184840781363
 20
8.687516855652344
 10
32.10981095939189
 20
8.682500176201369
 10
32.12777372187895
 20
8.677485143545553
 10
32.14573639652947
 20
8.672471848039466
 10
32.16369868366278
 20
8.667460380346465
 10
32.18166028429747
 20
8.662450830981665
 10
32.19962090178608
 20
8.65744328985491
 10
32.21758024344968
 20
8.652437845813757
 10
32.23553802221255
 20
8.647434586186447
 10
32.25349395823683
 20
8.642433596324879
 10
32.27144778055711
 20
8.637434959147588
 10
32.28939922871513
 20
8.63243875468272
 10
32.30734805439438
 20
8.627445059611003
 10
32.32529402305472
 20
8.622453946808738
 10
32.34323691556709
 20
8.617465484890754
 10
32.3611765298481
 20
8.612479737753389
 10
32.37911268249467
 20
8.607496764117476
 10
32.39704521041868
 20
8.602516617071312
 10
32.41497397248159
 20
8.597539343613629
 10
32.43289885112915
 20
8.592564984196574
 10
32.45081975402595
 20
8.587593572268685
 10
32.46873661569008
 20
8.582625133817865
 10
32.48664939912784
 20
8.577659686914357
 10
32.50455809746829
 20
8.572697241253724
 10
32.52246273559793
 20
8.567737797699813
 10
32.54036337179534
 20
8.562781347827742
 10
32.55826009936582
 20
8.557827873466877
 10
32.57615304827604
 20
8.552877346243791
 10
32.59404238678863
 20
8.547929727125261
 10
32.61192832309689
 20
8.542984965961226
 10
32.62981110695938
 20
8.538043001027771
 10
32.64769103133458
 20
8.533103758570106
 10
32.6655684340155
 20
8.528167152345528
 10
32.6834436992644
 20
8.52323308316641
 10
32.70131725944731
 20
8.518301438443169
 10
32.71918959665709
 20
8.513372091730511
 10
32.73706113258012
 20
8.508444933561069
 10
32.75493193717097
 20
8.503519952985582
 10
32.77280200072976
 20
8.498597161371762
 10
32.79067131300837
 20
8.493676570256415
 10
32.80853986324629
 20
8.488758191338352
 10
32.82640764020636
 20
8.483842036471283
 10
32.84427463221046
 20
8.478928117656721
 10
32.86214082717535
 20
8.474016447036877
 10
32.88000621264838
 20
8.469107036887566
 10
32.89787077584324
 20
8.464199899611106
 10
32.91573450367577
 20
8.459295047729218
 10
32.93359738279966
 20
8.454392493875932
 10
32.95145939964222
 20
8.449492250790473
 10
32.96932054044015
 20
8.444594331310169
 10
32.98718079127531
 20
8.439698748363369
 10
33.00504013811041
 20
8.43480551496231
 10
33.02289856682487
 20
8.429914644196042
 10
33.04075606325046
 20
8.42502614922332
 10
33.05861261320718
 20
8.42014004326551
 10
33.07646820253889
 20
8.415256339599476
 10
33.09432281714917
 20
8.410375051550502
 10
33.11217644303704
 20
8.405496192485168
 10
33.13002906633265
 20
8.400619775804271
 10
33.14788067333318
 20
8.395745814935709
 10
33.16573125053849
 20
8.390874323327402
 10
33.18358078468684
 20
8.386005314440165
 10
33.2014292627908
 20
8.381138801740632
 10
33.21927667217285
 20
8.376274798694151
 10
33.23712300050124
 20
8.371413318757669
 10
33.25496823582567
 20
8.366554375372656
 10
33.27281236661312
 20
8.361697981957988
 10
33.29065538178355
 20
8.35684415190286
 10
33.30849727074568
 20
8.35199289855967
 10
33.32633802343273
 20
8.347144235236937
 10
33.34417763033825
 20
8.342298175192196
 10
33.36201608255172
 20
8.337454731624887
 10
33.37985337179449
 20
8.332613917669272
 10
33.39768949045537
 20
8.327775746387326
 10
33.41552443162655
 20
8.32294023076164
 10
33.43335818913921
 20
8.318107383688321
 10
33.45119075759937
 20
8.313277217969893
 10
33.46902213242361
 20
8.3084497463082
 10
33.4868523098748
 20
8.303624981297296
 10
33.50468128709795
 20
8.298802935416357
 10
33.52250906215584
 20
8.293983621022581
 10
33.5403356340649
 20
8.289167050344081
 10
33.55816100283086
 20
8.284353235472789
 10
33.57598516948458
 20
8.279542188357355
 10
33.59380813611777
 20
8.274733920796053
 10
33.61162990591876
 20
8.26992844442968
 10
33.62945048320827
 20
8.265125770734446
 10
33.64726987347513
 20
8.260325911014888
 10
33.66508808341204
 20
8.255528876396766
 10
33.6829051209514
 20
8.250734677819956
 10
33.70072099530095
 20
8.245943326031365
 10
33.71853571697962
 20
8.241154831577818
 10
33.73634929785326
 20
8.236369204798968
 10
33.75416175117036
 20
8.231586455820185
 10
33.77197309159785
 20
8.226806594545468
 10
33.78978333525683
 20
8.222029630650347
 10
33.80759249975837
 20
8.217255573574767
 10
33.82540060423921
 20
8.212484432516006
 10
33.84320766939755
 20
8.207716216421566
 10
33.86101371752879
 20
8.202950933982076
 10
33.8788187725613
 20
8.198188593624195
 10
33.89662280475076
 20
8.19342921901657
 10
33.91442564701068
 20
8.188672872493556
 10
33.93222735381201
 20
8.183919554415879
 10
33.95002818930006
 20
8.179169206553439
 10
33.96782849386596
 20
8.174421749553339
 10
33.9856285507059
 20
8.169677120411343
 10
34.0034284523804
 20
8.164935309943306
 10
34.02122796737359
 20
8.160196400256612
 10
34.03905474281412
 20
8.155453103400322
 10
34.05708039071992
 20
8.150659913601741
 10
34.07538045899133
 20
8.145796431727507
 10
34.09381421189379
 20
8.140899395278736
 10
34.11202051872237
 20
8.136064081217886
 10
34.12978453581799
 20
8.131347360679788
 10
34.1475572965309
 20
8.126629828934316
 10
34.16589259511583
 20
8.121765061431942
 10
34.1846553751331
 20
8.116789485646286
 10
34.20304506349455
 20
8.111915534609728
 10
34.22064956592269
 20
8.107252459128597
 10
34.23753525205044
 20
8.102782970033523
 10
34.25407509234851
 20
8.09840870066279
 10
34.27077693121524
 20
8.093995618373124
 10
34.28811176006636
 20
8.089419436050519
 10
34.30634199042489
 20
8.08461102362104
 10
34.3253497270109
 20
8.079601819561633
 10
34.34459363829351
 20
8.07453521452245
 10
34.36384116259525
 20
8.06947279924954
 10
34.38307997387132
 20
8.064417829623726
 10
34.40229862091655
 20
8.059373280824111
 10
34.42149007776067
 20
8.054340908123551
 10
34.44065841251776
 20
8.049319495899196
 10
34.45980414574322
 20
8.044308747689145
 10
34.47891392412988
 20
8.039311977785635
 10
34.49795534015896
 20
8.034337423165752
 10
34.51685079331102
 20
8.029404982818395
 10
34.53547996080587
 20
8.024545533105579
 10
34.55380145910314
 20
8.019769281173891
 10
34.57197200371322
 20
8.015034777515671
 10
34.5900939757365
 20
8.010314775759827
 10
34.60810987923827
 20
8.00562403141428
 10
34.62598078033265
 20
8.000972920200506
 10
34.64375328815943
 20
7.99634996455391
 10
34.66150443032765
 20
7.991735804034737
 10
34.67925506588758
 20
7.987125287992025
 10
34.69700338990238
 20
7.982518912130099
 10
34.71474522619967
 20
7.977917752218949
 10
34.7324811625722
 20
7.97332168933865
 10
34.750210554419
 20
7.968730907453602
 10
34.7679327409026
 20
7.964145590104249
 10
34.78564552100799
 20
7.959566312706609
 10
34.80330870647777
 20
7.955003389239688
 10
34.82086001155686
 20
7.950472793783968
 10
34.83826323193892
 20
7.945983804224192
 10
34.85550647106163
 20
7.941539458673273
 10
34.87259797982516
 20
7.937137623995753
 10
34.88956199631054
 20
7.932772064331232
 10
34.90643458549817
 20
7.928433509617812
 10
34.92325947898621
 20
7.924110724115537
 10
34.94008391470901
 20
7.919791574929833
 10
34.95695447665561
 20
7.915464100534953
 10
34.97391293458808
 20
7.911117579297412
 10
34.99099208376009
 20
7.906743597999424
 10
35.00821158463522
 20
7.902337120362358
 10
35.02557380260546
 20
7.89789755557016
 10
35.04305964770965
 20
7.893429826792807
 10
35.06062441435189
 20
7.888945439709738
 10
35.0782028904637
 20
7.884461168075894
 10
35.09577080092134
 20
7.879983260360367
 10
35.1133277895529
 20
7.875511821925936
 10
35.13087400184377
 20
7.871046836181996
 10
35.1484099427498
 20
7.866588200453526
 10
35.16593643631786
 20
7.862135735674271
 10
35.1834545853062
 20
7.857689196079887
 10
35.20096573080496
 20
7.853248278901137
 10
35.21847141185664
 20
7.848812634057035
 10
35.2359733250765
 20
7.844381873848031
 10
35.25347328427307
 20
7.839955582649174
 10
35.27097318006857
 20
7.835533326603275
 10
35.28847493951939
 20
7.831114663314088
 10
35.30598048573655
 20
7.826699151539467
 10
35.32349169750613
 20
7.822286360884542
 10
35.34101036890977
 20
7.81787588149488
 10
35.35852797167713
 20
7.81346987407069
 10
35.37592397317054
 20
7.809098395807397
 10
35.39305138545436
 20
7.804798074946474
 10
35.40982735093523
 20
7.800589543436098
 10
35.42622548111375
 20
7.796479349889513
 10
35.44226644538586
 20
7.792462308533797
 10
35.45800855984432
 20
7.788523848158582
 10
35.47353837608019
 20
7.784642361064809
 10
35.48896126998427
 20
7.780791552013464
 10
35.50439203054855
 20
7.776942787174313
 10
35.51994544866766
 20
7.77306744307465
 10
35.53572690594036
 20
7.769139255548038
 10
35.55182296347096
 20
7.765136668683052
 10
35.56829195067078
 20
7.761045183772004
 10
35.58515455405964
 20
7.756859708259709
 10
35.60238440606729
 20
7.752586904692207
 10
35.61989867383485
 20
7.748247539665509
 10
35.63754996101774
 20
7.743878504584386
 10
35.65521175874805
 20
7.739511455307869
 10
35.67287261048182
 20
7.735149283571017
 10
35.6905328560576
 20
7.730791931991324
 10
35.70819278894656
 20
7.726439354468215
 10
35.72585265816231
 20
7.722091515721597
 10
35.74351267017055
 20
7.717748390830436
 10
35.76117299079881
 20
7.713409964771344
 10
35.77883374714625
 20
7.709076231957133
 10
35.7964950294933
 20
7.704747195775397
 10
35.81415689321153
 20
7.700422868127093
 10
35.83181936067325
 20
7.696103268965096
 10
35.84948242316135
 20
7.691788425832786
 10
35.86714604277896
 20
7.687478373402626
 10
35.88481015435927
 20
7.683173153014712
 10
35.90247466737519
 20
7.678872812215372
 10
35.92013946784912
 20
7.674577404295724
 10
35.9378044202627
 20
7.670286987830253
 10
35.95546936946654
 20
7.666001626215384
 10
35.97313414258991
 20
7.661721387208057
 10
35.99079855095058
 20
7.657446342464298
 10
36.00846239196446
 20
7.653176567077792
 10
36.02612545105535
 20
7.64891213911846
 10
36.04378750356473
 20
7.644653139171025
 10
36.06144831666151
 20
7.640399649873589
 10
36.07910765125164
 20
7.636151755456213
 10
36.09676526388799
 20
7.631909541279478
 10
36.11442090868003
 20
7.627673093373062
 10
36.13207433920353
 20
7.623442497974322
 10
36.14972531041036
 20
7.619217841066854
 10
36.1673735805382
 20
7.614999207919074
 10
36.1850189130203
 20
7.610786682622786
 10
36.20266107839515
 20
7.606580347631772
 10
36.2202998562163
 20
7.602380283300331
 10
36.23793503696204
 20
7.598186567421892
 10
36.25556642394521
 20
7.593999274767556
 10
36.27319383522279
 20
7.589818476624683
 10
36.29081710550583
 20
7.585644240335471
 10
36.30843608806904
 20
7.581476628835511
 10
36.3260506566606
 20
7.577315700192378
 10
36.34366070741183
 20
7.573161507144194
 10
36.36126616074705
 20
7.569014096638205
 10
36.37886696329318
 20
7.564873509369351
 10
36.39646308978957
 20
7.560739779318844
 10
36.41405454499766
 20
7.556612933292735
 10
36.43164136561083
 20
7.552492990460496
 10
36.44922362216403
 20
7.548379961893583
 10
36.46680142094353
 20
7.544273850104018
 10
36.48437490589675
 20
7.540174648582955
 10
36.50194426054186
 20
7.536082341339254
 10
36.51950970987765
 20
7.531996902438063
 10
36.53707152229319
 20
7.52791829553938
 10
36.55463001147757
 20
7.523846473436633
 10
36.57218553833917
 20
7.51978137759304
 10
36.57479267639455
 20
7.519189946852001
 10
36.57740096423464
 20
7.518621994120628
 10
36.58001045725846
 20
7.518077645806081
 10
36.58262099394386
 20
7.517557054690154
 10
36.58523222302643
 20
7.5170603961055
 10
36.58784363068904
 20
7.516587864109407
 10
36.59045456775134
 20
7.516139667657615
 10
36.59306427685927
 20
7.515716026778099
 10
36.59567191967457
 20
7.515317168744878
 10
36.59827660406435
 20
7.514943324251802
 10
36.60087741129052
 20
7.514594723586357
 10
36.60347342319937
 20
7.514271592803451
 10
36.6060637494111
 20
7.513974149899232
 10
36.60864755450926
 20
7.513702600984865
 10
36.61122408523036
 20
7.513457136460336
 10
36.6137926976533
 20
7.513237927188253
 10
36.61635288438896
 20
7.513045120667642
 10
36.61890430176968
 20
7.512878837207741
 10
36.62144679703877
 20
7.512739166101804
 10
36.62398043550943
 20
7.512626161903938
 10
36.62650547647924
 20
7.512539898787148
 10
36.62902208961509
 20
7.512480570202196
 10
36.63153019653016
 20
7.512448367418834
 10
36.63402949326966
 20
7.512443456876757
 10
36.63651948023414
 20
7.512465982371697
 10
36.63899949210265
 20
7.512516067241467
 10
36.64146872775603
 20
7.512593816552048
 10
36.6439262802001
 20
7.512699319283647
 10
36.64637116648889
 20
7.512832650516776
 10
36.64880235764789
 20
7.512993873618317
 10
36.65121880859724
 20
7.513183042427581
 10
36.65361948807501
 20
7.513400203442401
 10
36.6560034085604
 20
7.513645398005174
 10
36.65836965619698
 20
7.513918664488949
 10
36.66071742071589
 20
7.514220040483487
 10
36.66304602535911
 20
7.51454956498134
 10
36.66535495680265
 20
7.514907280563902
 10
36.66764389507984
 20
7.515293235587503
 10
36.66991274350446
 20
7.515707486369452
 10
36.67216165121824
 20
7.51615011020124
 10
36.6743908469264
 20
7.516621320607831
 10
36.67660034116071
 20
7.517121354987318
 10
36.67878990764209
 20
7.517650356336575
 10
36.68095911413338
 20
7.518208381349802
 10
36.683107352991
 20
7.518795411082765
 10
36.68523387171646
 20
7.519411361616992
 10
36.68733780350789
 20
7.520056094724003
 10
36.68941819781164
 20
7.520729428529518
 10
36.69147405087378
 20
7.521431148177686
 10
36.6935043362917
 20
7.522161016495293
 10
36.69550803556564
 20
7.522918784655975
 10
36.69748416865025
 20
7.523704202844446
 10
36.69943182450611
 20
7.524517030920715
 10
36.70135019165132
 20
7.525357049084286
 10
36.70323858871307
 20
7.526224068538402
 10
36.70509649497912
 20
7.527117942154237
 10
36.70692358094943
 20
7.528038575135131
 10
36.70871973888767
 20
7.528985935680791
 10
36.71048510588776
 20
7.529960074507093
 10
36.71221989323328
 20
7.530961225173697
 10
36.71392411888407
 20
7.531989614583697
 10
36.71559761380462
 20
7.533045300868556
 10
36.71724004845347
 20
7.534128189262627
 10
36.71885095794846
 20
7.535238052431532
 10
36.72042976723226
 20
7.536374550800534
 10
36.72197581623753
 20
7.537537252882918
 10
36.72348838505246
 20
7.538725655608368
 10
36.72496671908593
 20
7.539939204651353
 10
36.7264100542331
 20
7.541177314759487
 10
36.72781764204053
 20
7.542439390081925
 10
36.72918877487165
 20
7.543724844497728
 10
36.73052281107216
 20
7.545033121944253
 10
36.73181920013526
 20
7.546363716745512
 10
36.73307750786712
 20
7.547716193940572
 10
36.73429744155214
 20
7.549090209611917
 10
36.73547887511837
 20
7.550485531213835
 10
36.73662187430287
 20
7.551902057900785
 10
36.73772667722647
 20
7.553339868925544
 10
36.73879343324055
 20
7.554799225042112
 10
36.73982215623448
 20
7.556280235158141
 10
36.74081277018819
 20
7.557782795621611
 10
36.74176512329424
 20
7.559306617527423
 10
36.74267900206535
 20
7.560851254043371
 10
36.74355414544171
 20
7.562416127736152
 10
36.74439025889846
 20
7.564000557897345
 10
36.74518702855304
 20
7.565603787869388
 10
36.74594413527267
 20
7.567225012371592
 10
36.74666126878171
 20
7.568863404826105
 10
36.74733814176907
 20
7.570518144683915
 10
36.74797450399565
 20
7.572188444750834
 10
36.74857015640176
 20
7.573873578513492
 10
36.74912496521446
 20
7.575572907465313
 10
36.74963887605503
 20
7.577285908432521
 10
36.75011192804642
 20
7.57901220090011
 10
36.75053696733622
 20
7.580722202903107
 10
37.9452521165675
 20
12.64267941145934
 42
0.3442344895450668
 10
37.84067536407928
 20
12.86738867794288
  0
LWPOLYLINE
  5
29DA4
330
1F
100
AcDbEntity
  8
NOCUT
100
AcDbPolyline
 90
        9
 70
     1
 43
0.0
 10
34.55610340600049
 20
13.19315014597608
 42
0.090855935214403
 10
22.08282485040935
 20
15.08338274402455
 42
0.1451275215318998
 10
19.30065258259238
 20
14.5
 10
-0.0000000000000284
 20
14.5
 10
-0.0000000000000284
 20
0.0
 10
37.14999999999998
 20
0.0
 10
37.14999999999997
 20
11.872024
 42
0.3199414005155733
 10
36.74567252042474
 20
12.4392208483257
 10
34.55610399999998
 20
13.19315
  0
MTEXT
  5
29DF8
330
1F
100
AcDbEntity
  8
SK6
100
AcDbMText
 10
-18.65022880042215
 20
-29.87707406380926
 30
0.0
 40
3.5
 41
49.98568165846803
 71
     1
 72
     1
  1
12M8G032038X8R00
  7
MM_STANDARD
 73
     1
 44
1.0
1001
ACAD
1000
MTEXTBEGIN
1070
    73
1070
     1
1070
    44
1040
1.0
1070
    74
1070
     0
1000
MTEXTEND
  0
ENDSEC
  0
SECTION
  2
OBJECTS
  0
DICTIONARY
  5
C
330
0
100
AcDbDictionary
281
     1
  3
ACAD_2007HEADERVARS_RT
350
29DFD
  3
ACAD_CIP_PREVIOUS_PRODUCT_INFO
350
741
  3
ACAD_COLOR
350
6C
  3
ACAD_DETAILVIEWSTYLE
350
8E4
  3
ACAD_GROUP
350
D
  3
ACAD_IMAGE_VARS
350
959
  3
ACAD_LAYOUT
350
1A
  3
ACAD_MATERIAL
350
6B
  3
ACAD_MLEADERSTYLE
350
43C
  3
ACAD_MLINESTYLE
350
17
  3
ACAD_PLOTSETTINGS
350
19
  3
ACAD_PLOTSTYLENAME
350
E
  3
ACAD_SCALELIST
350
99
  3
ACAD_SECTIONVIEWSTYLE
350
8E2
  3
ACAD_TABLESTYLE
350
92
  3
ACAD_VISUALSTYLE
350
3F2
  3
ACDB_RECOMPOSE_DATA
350
29DFB
  3
ACDBHEADERROUNDTRIPXREC
350
29D37
  3
AcDbVariableDictionary
350
59
  3
ACMDICTIONARY
350
76D
  3
AEC_PROPERTY_SET_DEFS
350
5CF
  3
AMG
350
743
  3
AMGSNAPSETTINGS
350
7F6
  3
APPDATA
350
958
  3
ASE_INDEX_DICTIONARY
350
8C6
  3
DWGPROPS
350
29DFC
  0
DICTIONARY
  5
29CF6
330
2
100
AcDbDictionary
280
     1
281
     1
  3
ACAD_LAYERFILTERS
360
6C6
  3
ACAD_LAYERSTATES
360
17C7
  3
ACLYDICTIONARY
360
6C5
  0
DICTIONARY
  5
29CED
330
10
100
AcDbDictionary
280
     1
281
     1
  3
ADSK_XREC_LAYER_RECONCILED
360
904
  0
DICTIONARY
  5
29CEE
330
23
100
AcDbDictionary
280
     1
281
     1
  3
ADSK_XREC_LAYER_RECONCILED
360
905
  0
DICTIONARY
  5
29CEF
330
25
100
AcDbDictionary
280
     1
281
     1
  3
ADSK_XREC_LAYER_RECONCILED
360
907
  0
DICTIONARY
  5
29CF0
330
173A
100
AcDbDictionary
280
     1
281
     1
  3
ADSK_XREC_LAYER_RECONCILED
360
908
  0
DICTIONARY
  5
29CF1
330
2A
100
AcDbDictionary
280
     1
281
     1
  3
ADSK_XREC_LAYER_RECONCILED
360
90B
  0
DICTIONARY
  5
29CF2
330
2E
100
AcDbDictionary
280
     1
281
     1
  3
ADSK_XREC_LAYER_RECONCILED
360
90E
  0
DICTIONARY
  5
29CF3
330
375
100
AcDbDictionary
280
     1
281
     1
  3
ADSK_XREC_LAYER_RECONCILED
360
90F
  0
DICTIONARY
  5
29CF4
330
376
100
AcDbDictionary
280
     1
281
     1
  3
ADSK_XREC_LAYER_RECONCILED
360
910
  0
DICTIONARY
  5
29CF5
330
49B
100
AcDbDictionary
280
     1
281
     1
  3
ADSK_XREC_LAYER_RECONCILED
360
918
  0
DICTIONARY
  5
29D34
330
1F
100
AcDbDictionary
280
     1
281
     1
  3
ACAD_SORTENTS
360
29D35
  0
DICTIONARY
  5
29DFD
102
{ACAD_REACTORS
330
C
102
}
330
C
100
AcDbDictionary
281
     1
  3
DIMARCSYM
350
29DFE
  3
DIMLTEX1
350
29E00
  3
DIMLTEX2
350
29E01
  3
DIMLTYPE
350
29DFF
  0
XRECORD
  5
741
102
{ACAD_REACTORS
330
C
102
}
330
C
100
AcDbXrecord
280
     1
300
ACDLT
300
2015
300
ACDLT_F_S
  0
DICTIONARY
  5
6C
102
{ACAD_REACTORS
330
C
102
}
330
C
100
AcDbDictionary
281
     1
  0
DICTIONARY
  5
8E4
102
{ACAD_REACTORS
330
C
102
}
330
C
100
AcDbDictionary
281
     1
  3
Metric50
350
29D73
  0
DICTIONARY
  5
D
102
{ACAD_REACTORS
330
C
102
}
330
C
100
AcDbDictionary
281
     1
  0
RASTERVARIABLES
  5
959
102
{ACAD_REACTORS
330
C
102
}
330
C
100
AcDbRasterVariables
 90
        0
 70
     1
 71
     1
 72
     1
  0
DICTIONARY
  5
1A
102
{ACAD_REACTORS
330
C
102
}
330
C
100
AcDbDictionary
281
     1
  3
Layout1
350
74
  3
Model
350
22
  0
DICTIONARY
  5
6B
102
{ACAD_REACTORS
330
C
102
}
330
C
100
AcDbDictionary
281
     1
  3
ByBlock
350
29D48
  3
ByLayer
350
29D40
  3
Global
350
29D50
  0
DICTIONARY
  5
43C
102
{ACAD_REACTORS
330
C
102
}
330
C
100
AcDbDictionary
281
     1
  3
Standard
350
29D71
  0
DICTIONARY
  5
17
102
{ACAD_REACTORS
330
C
102
}
330
C
100
AcDbDictionary
281
     1
  3
Standard
350
18
  0
DICTIONARY
  5
19
102
{ACAD_REACTORS
330
C
102
}
330
C
100
AcDbDictionary
281
     1
  0
ACDBDICTIONARYWDFLT
  5
E
102
{ACAD_REACTORS
330
C
102
}
330
C
100
AcDbDictionary
281
     1
  3
Normal
350
F
100
AcDbDictionaryWithDefault
340
F
  0
DICTIONARY
  5
99
102
{ACAD_REACTORS
330
C
102
}
330
C
100
AcDbDictionary
281
     1
  3
A0
350
9A
  3
A1
350
9B
  3
A2
350
9C
  3
A3
350
9D
  3
A4
350
9E
  3
A5
350
9F
  3
A6
350
A0
  3
A7
350
A1
  3
A8
350
A2
  3
A9
350
A3
  3
B0
350
A4
  3
B1
350
A5
  3
B2
350
A6
  3
B3
350
A7
  3
B4
350
A8
  3
B5
350
A9
  3
B6
350
AA
  3
B7
350
AB
  3
B8
350
AC
  3
B9
350
AD
  3
C0
350
AE
  3
C1
350
AF
  3
C2
350
B0
  3
C3
350
B1
  3
C4
350
B2
  3
C5
350
B3
  3
C6
350
B4
  3
C7
350
B5
  3
C8
350
B6
  3
C9
350
B7
  3
D0
350
B8
  3
D1
350
B9
  3
D2
350
BA
  0
DICTIONARY
  5
8E2
102
{ACAD_REACTORS
330
C
102
}
330
C
100
AcDbDictionary
281
     1
  3
Metric50
350
29D72
  0
DICTIONARY
  5
92
102
{ACAD_REACTORS
330
C
102
}
330
C
100
AcDbDictionary
281
     1
  3
Standard
350
29D70
  0
DICTIONARY
  5
3F2
102
{ACAD_REACTORS
330
C
102
}
330
C
100
AcDbDictionary
281
     1
  3
2dWireframe
350
29D5D
  3
Basic
350
29D5C
  3
Brighten
350
29D63
  3
ColorChange
350
29D67
  3
Conceptual
350
29D60
  3
Dim
350
29D62
  3
EdgeColorOff
350
29D6F
  3
Facepattern
350
29D66
  3
Flat
350
29D58
  3
FlatWithEdges
350
29D59
  3
Gouraud
350
29D5A
  3
GouraudWithEdges
350
29D5B
  3
Hidden
350
29D5F
  3
JitterOff
350
29D6D
  3
Linepattern
350
29D65
  3
OverhangOff
350
29D6E
  3
Realistic
350
29D61
  3
Shaded
350
29D6C
  3
Shaded with edges
350
29D6B
  3
Shades of Gray
350
29D68
  3
Sketchy
350
29D69
  3
Thicken
350
29D64
  3
Wireframe
350
29D5E
  3
X-Ray
350
29D6A
  0
XRECORD
  5
29DFB
102
{ACAD_REACTORS
330
C
102
}
330
C
100
AcDbXrecord
280
     1
 90
        1
330
29D70
  0
DICTIONARY
  5
29D37
102
{ACAD_REACTORS
330
C
102
}
330
C
100
AcDbDictionary
281
     1
  3
COLORDICT
350
29D38
  3
MATERIALDICT
350
29D39
  0
DICTIONARY
  5
59
102
{ACAD_REACTORS
330
C
102
}
330
C
100
AcDbDictionary
281
     1
  3
CANNOSCALE
350
29D36
  3
CMLEADERSTYLE
350
29DAC
  3
CTABLESTYLE
350
98
  3
CVIEWDETAILSTYLE
350
8FB
  3
CVIEWSECTIONSTYLE
350
8FC
  3
DIMASSOC
350
359
  3
HALOGAP
350
AF7
  3
HIDETEXT
350
358
  3
INDEXCTL
350
9BE
  3
LAYEREVAL
350
7AE
  3
LAYERNOTIFY
350
7AF
  3
LIGHTINGUNITS
350
44A
  3
MSLTSCALE
350
448
  3
SORTENTS
350
9BD
  3
XCLIPFRAME
350
29DF9
  0
DICTIONARY
  5
76D
102
{ACAD_REACTORS
330
C
102
}
330
C
100
AcDbDictionary
281
     1
  3
ACMSTDDICTIONARY
350
76F
  0
DICTIONARY
  5
5CF
102
{ACAD_REACTORS
330
C
102
}
330
C
100
AcDbDictionary
281
     1
  0
DICTIONARY
  5
743
102
{ACAD_REACTORS
330
C
102
}
330
C
100
AcDbDictionary
281
     1
  3
ACMGSETTINGS
350
744
  0
DICTIONARY
  5
7F6
102
{ACAD_REACTORS
330
C
102
}
330
C
100
AcDbDictionary
281
     1
  0
DICTIONARY
  5
958
102
{ACAD_REACTORS
330
C
102
}
330
C
100
AcDbDictionary
281
     1
  0
DICTIONARY
  5
8C6
102
{ACAD_REACTORS
330
C
102
}
330
C
100
AcDbDictionary
281
     1
  3
ASEBLOCKHIERARCHYINDEXRECORD
350
8C7
  0
XRECORD
  5
29DFC
102
{ACAD_REACTORS
330
C
102
}
330
C
100
AcDbXrecord
280
     1
  1
DWGPROPS COOKIE
  2

  3

  4

  6

  7

  8
ruebsamenm
  9

300
=
301
=
302
=
303
=
304
=
305
=
306
=
307
=
308
=
309
=
 40
16384.72081229167
 41
2453353.800459155
 42
2460185.647908414
  1

 90
        0
  0
DICTIONARY
  5
6C6
102
{ACAD_REACTORS
330
29CF6
102
}
330
29CF6
100
AcDbDictionary
281
     1
  0
DICTIONARY
  5
17C7
102
{ACAD_REACTORS
330
29CF6
102
}
330
29CF6
100
AcDbDictionary
281
     1
  0
DICTIONARY
  5
6C5
102
{ACAD_REACTORS
330
29CF6
102
}
330
29CF6
100
AcDbDictionary
281
     1
  0
XRECORD
  5
904
102
{ACAD_REACTORS
330
29CED
102
}
330
29CED
100
AcDbXrecord
280
     1
290
     1
  0
XRECORD
  5
905
102
{ACAD_REACTORS
330
29CEE
102
}
330
29CEE
100
AcDbXrecord
280
     1
290
     1
  0
XRECORD
  5
907
102
{ACAD_REACTORS
330
29CEF
102
}
330
29CEF
100
AcDbXrecord
280
     1
290
     1
  0
XRECORD
  5
908
102
{ACAD_REACTORS
330
29CF0
102
}
330
29CF0
100
AcDbXrecord
280
     1
290
     1
  0
XRECORD
  5
90B
102
{ACAD_REACTORS
330
29CF1
102
}
330
29CF1
100
AcDbXrecord
280
     1
290
     1
  0
XRECORD
  5
90E
102
{ACAD_REACTORS
330
29CF2
102
}
330
29CF2
100
AcDbXrecord
280
     1
290
     1
  0
XRECORD
  5
90F
102
{ACAD_REACTORS
330
29CF3
102
}
330
29CF3
100
AcDbXrecord
280
     1
290
     1
  0
XRECORD
  5
910
102
{ACAD_REACTORS
330
29CF4
102
}
330
29CF4
100
AcDbXrecord
280
     1
290
     1
  0
XRECORD
  5
918
102
{ACAD_REACTORS
330
29CF5
102
}
330
29CF5
100
AcDbXrecord
280
     1
290
     1
  0
SORTENTSTABLE
  5
29D35
102
{ACAD_REACTORS
330
29D34
102
}
330
29D34
100
AcDbSortentsTable
330
1F
331
CA12
  5
DAF2
331
DCBB
  5
E533
331
1C6C7
  5
1C3A1
331
1D6D5
  5
1D6E2
331
1DA40
  5
1D6D5
331
12B2B
  5
12AA6
331
1C7C7
  5
1C54E
331
12A1A
  5
1299A
331
C65C
  5
CA17
331
C377
  5
C863
331
CC50
  5
E105
331
12BB6
  5
12B41
331
C533
  5
C935
331
C7A3
  5
CC4F
331
1C393
  5
1C850
331
12A1D
  5
1299D
331
C652
  5
CA16
331
C255
  5
C2E1
331
1289C
  5
12C92
331
E102
  5
C79F
331
C536
  5
CA12
331
C42D
  5
C930
331
C258
  5
C2E4
331
CC4F
  5
E102
331
12AA7
  5
12A1A
331
E105
  5
C7A3
331
1C1E5
  5
1C74E
331
1C6B9
  5
1C393
331
12C2B
  5
12BB6
331
E6D6
  5
CB29
331
C935
  5
D8A3
331
1D920
  5
1DA40
331
12895
  5
12C8B
331
E438
  5
C652
331
12C17
  5
12BB5
331
C437
  5
C934
331
12B41
  5
12AAA
331
C182
  5
C258
331
12A19
  5
1289D
331
D590
  5
E217
331
29D9B
  5
299AB
331
DECF
  5
E6D2
331
C863
  5
D588
331
12BB5
  5
12B40
331
C178
  5
C255
331
CA17
  5
DCBB
331
1D6E2
  5
1D913
331
E537
  5
C182
331
1C54F
  5
1C6B9
331
CC4B
  5
DED7
331
1C3A1
  5
1C851
331
1C476
  5
1C6C7
331
1C1E8
  5
1C7C7
331
E20E
  5
C42D
331
1299A
  5
12895
331
E6D2
  5
CB25
331
CB29
  5
DECF
331
12C93
  5
12C2B
331
12AA6
  5
12A19
331
E441
  5
C65C
331
DAF2
  5
E438
331
1C851
  5
1C632
331
CB25
  5
DCBF
331
1299D
  5
1289C
331
E328
  5
C533
331
29DA4
  5
2931B
331
C934
  5
D89C
331
C2E1
  5
C36E
331
12C16
  5
12BA1
331
DAF5
  5
E441
331
D588
  5
E20E
331
12B40
  5
12AA7
331
C85B
  5
CC50
331
E533
  5
C178
331
C36E
  5
C85B
331
E32B
  5
C536
331
D89C
  5
E328
331
1C632
  5
1C1E5
331
D8A3
  5
E32B
331
C2E4
  5
C377
331
CA16
  5
DAF5
331
DCBF
  5
E537
331
1C54E
  5
1C640
331
1C74E
  5
1C484
331
12AAA
  5
12A1D
331
1C484
  5
1C740
331
12C8B
  5
12C16
331
1C740
  5
1C476
331
12C92
  5
12C17
331
1C640
  5
1C1E8
331
C930
  5
D590
331
1D913
  5
1D920
331
1289D
  5
12C93
331
C79F
  5
CC4B
331
1C850
  5
1C54F
331
E217
  5
C437
331
12BA1
  5
12B2B
331
DED7
  5
E6D6
  0
XRECORD
  5
29DFE
102
{ACAD_REACTORS
330
29DFD
102
}
330
29DFD
100
AcDbXrecord
280
     1
 70
     1
  0
XRECORD
  5
29E00
102
{ACAD_REACTORS
330
29DFD
102
}
330
29DFD
100
AcDbXrecord
280
     1
340
14
  0
XRECORD
  5
29E01
102
{ACAD_REACTORS
330
29DFD
102
}
330
29DFD
100
AcDbXrecord
280
     1
340
14
  0
XRECORD
  5
29DFF
102
{ACAD_REACTORS
330
29DFD
102
}
330
29DFD
100
AcDbXrecord
280
     1
340
14
  0
ACDBDETAILVIEWSTYLE
  5
29D73
102
{ACAD_XDICTIONARY
360
29E39
102
}
102
{ACAD_REACTORS
330
8E4
102
}
330
8E4
100
AcDbModelDocViewStyle
 70
     0
  3
Metric50
290
     0
100
AcDbDetailViewStyle
 70
     0
 71
     0
 90
        3
 71
     1
340
11
 40
5.0
340
0
 40
5.0
300

 40
0.0
280
     1
 71
     2
340
16
 90
       25
 71
     3
340
11
 40
5.0
 90
        0
 40
15.0
 90
        1
300
%<\AcVar ViewDetailId>% (%<\AcVar ViewScale \f "%sn">%)
 71
     4
340
16
 90
       25
340
16
 90
       25
280
     0
  0
LAYOUT
  5
74
102
{ACAD_XDICTIONARY
360
29E04
102
}
102
{ACAD_REACTORS
330
1A
102
}
330
1A
100
AcDbPlotSettings
  1

  2
\\ADSCCNDC1\hq601xrx1
  4

  6

 40
0.0
 41
0.0
 42
0.0
 43
0.0
 44
0.0
 45
0.0
 46
0.0
 47
0.0
 48
0.0
 49
0.0
140
0.0
141
0.0
142
1.0
143
1.0
 70
   688
 72
     0
 73
     0
 74
     5
  7
monochrome.ctb
 75
    16
147
1.0
148
0.0
149
0.0
100
AcDbLayout
  1
Layout1
 70
     1
 71
     1
 10
0.0
 20
0.0
 11
12.0
 21
9.0
 12
0.0
 22
0.0
 32
0.0
 14
0.0
 24
0.0
 34
0.0
 15
0.0
 25
0.0
 35
0.0
146
0.0
 13
0.0
 23
0.0
 33
0.0
 16
1.0
 26
0.0
 36
0.0
 17
0.0
 27
1.0
 37
0.0
 76
     0
330
73
  0
LAYOUT
  5
22
102
{ACAD_XDICTIONARY
360
29E02
102
}
102
{ACAD_REACTORS
330
1A
102
}
330
1A
100
AcDbPlotSettings
  1

  2
DWG To PDF.pc3
  4
ISO_expand_A0_(841.00_x_1189.00_MM)
  6

 40
5.793749809265137
 41
5.79376220703125
 42
10.79374980926514
 43
10.793701171875
 44
841.0
 45
1189.0
 46
0.0
 47
277.0515806674958
 48
0.0
 49
0.0
140
0.0
141
0.0
142
1.0
143
0.0145558200469394
 70
 11956
 72
     1
 73
     0
 74
     1
  7
monochrome.ctb
 75
     0
147
68.70104169845581
148
70.55856307424345
149
1453.505808791571
100
AcDbLayout
  1
Model
 70
     1
 71
     0
 10
-170.0
 20
-170.0
 11
519.0
 21
260.0
 12
0.0
 22
0.0
 32
0.0
 14
-72.58850977292333
 24
-48.31168699912513
 34
0.0
 15
86.22154592070575
 25
59.75410389064879
 35
0.0
146
0.0
 13
0.0
 23
0.0
 33
0.0
 16
1.0
 26
0.0
 36
0.0
 17
0.0
 27
1.0
 37
0.0
 76
     0
330
1F
331
97
  0
MATERIAL
  5
29D48
102
{ACAD_XDICTIONARY
360
29D49
102
}
102
{ACAD_REACTORS
330
6B
102
}
330
6B
100
AcDbMaterial
  1
ByBlock
 72
     0
 43
0.0008202099737533
 43
0.0
 43
0.0
 43
0.0
 43
0.0
 43
0.0008202099737533
 43
0.0
 43
0.0
 43
0.0
 43
0.0
 43
1.0
 43
0.0
 43
0.0
 43
0.0
 43
0.0
 43
1.0
 77
     0
 47
0.0008202099737533
 47
0.0
 47
0.0
 47
0.0
 47
0.0
 47
0.0008202099737533
 47
0.0
 47
0.0
 47
0.0
 47
0.0
 47
1.0
 47
0.0
 47
0.0
 47
0.0
 47
0.0
 47
1.0
171
     0
 49
0.0008202099737533
 49
0.0
 49
0.0
 49
0.0
 49
0.0
 49
0.0008202099737533
 49
0.0
 49
0.0
 49
0.0
 49
0.0
 49
1.0
 49
0.0
 49
0.0
 49
0.0
 49
0.0
 49
1.0
175
     0
142
0.0008202099737533
142
0.0
142
0.0
142
0.0
142
0.0
142
0.0008202099737533
142
0.0
142
0.0
142
0.0
142
0.0
142
1.0
142
0.0
142
0.0
142
0.0
142
0.0
142
1.0
179
     0
144
0.0008202099737533
144
0.0
144
0.0
144
0.0
144
0.0
144
0.0008202099737533
144
0.0
144
0.0
144
0.0
144
0.0
144
1.0
144
0.0
144
0.0
144
0.0
144
0.0
144
1.0
147
0.0008202099737533
147
0.0
147
0.0
147
0.0
147
0.0
147
0.0008202099737533
147
0.0
147
0.0
147
0.0
147
0.0
147
1.0
147
0.0
147
0.0
147
0.0
147
0.0
147
1.0
  0
MATERIAL
  5
29D40
102
{ACAD_XDICTIONARY
360
29D41
102
}
102
{ACAD_REACTORS
330
6B
102
}
330
6B
100
AcDbMaterial
  1
ByLayer
 72
     0
 43
0.0008202099737533
 43
0.0
 43
0.0
 43
0.0
 43
0.0
 43
0.0008202099737533
 43
0.0
 43
0.0
 43
0.0
 43
0.0
 43
1.0
 43
0.0
 43
0.0
 43
0.0
 43
0.0
 43
1.0
 77
     0
 47
0.0008202099737533
 47
0.0
 47
0.0
 47
0.0
 47
0.0
 47
0.0008202099737533
 47
0.0
 47
0.0
 47
0.0
 47
0.0
 47
1.0
 47
0.0
 47
0.0
 47
0.0
 47
0.0
 47
1.0
171
     0
 49
0.0008202099737533
 49
0.0
 49
0.0
 49
0.0
 49
0.0
 49
0.0008202099737533
 49
0.0
 49
0.0
 49
0.0
 49
0.0
 49
1.0
 49
0.0
 49
0.0
 49
0.0
 49
0.0
 49
1.0
175
     0
142
0.0008202099737533
142
0.0
142
0.0
142
0.0
142
0.0
142
0.0008202099737533
142
0.0
142
0.0
142
0.0
142
0.0
142
1.0
142
0.0
142
0.0
142
0.0
142
0.0
142
1.0
179
     0
144
0.0008202099737533
144
0.0
144
0.0
144
0.0
144
0.0
144
0.0008202099737533
144
0.0
144
0.0
144
0.0
144
0.0
144
1.0
144
0.0
144
0.0
144
0.0
144
0.0
144
1.0
147
0.0008202099737533
147
0.0
147
0.0
147
0.0
147
0.0
147
0.0008202099737533
147
0.0
147
0.0
147
0.0
147
0.0
147
1.0
147
0.0
147
0.0
147
0.0
147
0.0
147
1.0
  0
MATERIAL
  5
29D50
102
{ACAD_XDICTIONARY
360
29D51
102
}
102
{ACAD_REACTORS
330
6B
102
}
330
6B
100
AcDbMaterial
  1
Global
 72
     0
 43
0.0008202099737533
 43
0.0
 43
0.0
 43
0.0
 43
0.0
 43
0.0008202099737533
 43
0.0
 43
0.0
 43
0.0
 43
0.0
 43
1.0
 43
0.0
 43
0.0
 43
0.0
 43
0.0
 43
1.0
 77
     0
 47
0.0008202099737533
 47
0.0
 47
0.0
 47
0.0
 47
0.0
 47
0.0008202099737533
 47
0.0
 47
0.0
 47
0.0
 47
0.0
 47
1.0
 47
0.0
 47
0.0
 47
0.0
 47
0.0
 47
1.0
171
     0
 49
0.0008202099737533
 49
0.0
 49
0.0
 49
0.0
 49
0.0
 49
0.0008202099737533
 49
0.0
 49
0.0
 49
0.0
 49
0.0
 49
1.0
 49
0.0
 49
0.0
 49
0.0
 49
0.0
 49
1.0
175
     0
142
0.0008202099737533
142
0.0
142
0.0
142
0.0
142
0.0
142
0.0008202099737533
142
0.0
142
0.0
142
0.0
142
0.0
142
1.0
142
0.0
142
0.0
142
0.0
142
0.0
142
1.0
179
     0
144
0.0008202099737533
144
0.0
144
0.0
144
0.0
144
0.0
144
0.0008202099737533
144
0.0
144
0.0
144
0.0
144
0.0
144
1.0
144
0.0
144
0.0
144
0.0
144
0.0
144
1.0
147
0.0008202099737533
147
0.0
147
0.0
147
0.0
147
0.0
147
0.0008202099737533
147
0.0
147
0.0
147
0.0
147
0.0
147
1.0
147
0.0
147
0.0
147
0.0
147
0.0
147
1.0
  0
MLEADERSTYLE
  5
29D71
102
{ACAD_REACTORS
330
43C
102
}
330
43C
100
AcDbMLeaderStyle
170
     2
171
     1
172
     0
 90
        2
 40
0.0
 41
0.0
173
     1
 91
-1056964608
340
14
 92
       -2
290
     1
 42
2.0
291
     1
 43
0.36
  3
Standard
 44
4.0
300

342
11
174
     1
178
     6
175
     1
176
     0
 93
-1056964608
 45
4.0
292
     0
297
     0
 46
4.0
 94
-1056964608
 47
1.0
 49
1.0
140
1.0
293
     1
141
0.0
294
     1
177
     0
142
1.0
295
     0
296
     0
143
0.125
1001
ACAD_MLEADERVER
1070
     2
  0
MLINESTYLE
  5
18
102
{ACAD_REACTORS
330
17
102
}
330
17
100
AcDbMlineStyle
  2
STANDARD
 70
     0
  3

 62
     0
 51
90.0
 52
90.0
 71
     2
 49
0.5
 62
   256
  6
BYLAYER
 49
-0.5
 62
   256
  6
BYLAYER
  0
ACDBPLACEHOLDER
  5
F
102
{ACAD_REACTORS
330
E
102
}
330
E
  0
SCALE
  5
9A
102
{ACAD_REACTORS
330
99
102
}
330
99
100
AcDbScale
 70
     0
300
1:1
140
1.0
141
1.0
290
     1
  0
SCALE
  5
9B
102
{ACAD_REACTORS
330
99
102
}
330
99
100
AcDbScale
 70
     0
300
1:2
140
1.0
141
2.0
290
     0
  0
SCALE
  5
9C
102
{ACAD_REACTORS
330
99
102
}
330
99
100
AcDbScale
 70
     0
300
1:4
140
1.0
141
4.0
290
     0
  0
SCALE
  5
9D
102
{ACAD_REACTORS
330
99
102
}
330
99
100
AcDbScale
 70
     0
300
1:5
140
1.0
141
5.0
290
     0
  0
SCALE
  5
9E
102
{ACAD_REACTORS
330
99
102
}
330
99
100
AcDbScale
 70
     0
300
1:8
140
1.0
141
8.0
290
     0
  0
SCALE
  5
9F
102
{ACAD_REACTORS
330
99
102
}
330
99
100
AcDbScale
 70
     0
300
1:10
140
1.0
141
10.0
290
     0
  0
SCALE
  5
A0
102
{ACAD_REACTORS
330
99
102
}
330
99
100
AcDbScale
 70
     0
300
1:16
140
1.0
141
16.0
290
     0
  0
SCALE
  5
A1
102
{ACAD_REACTORS
330
99
102
}
330
99
100
AcDbScale
 70
     0
300
1:20
140
1.0
141
20.0
290
     0
  0
SCALE
  5
A2
102
{ACAD_REACTORS
330
99
102
}
330
99
100
AcDbScale
 70
     0
300
1:30
140
1.0
141
30.0
290
     0
  0
SCALE
  5
A3
102
{ACAD_REACTORS
330
99
102
}
330
99
100
AcDbScale
 70
     0
300
1:40
140
1.0
141
40.0
290
     0
  0
SCALE
  5
A4
102
{ACAD_REACTORS
330
99
102
}
330
99
100
AcDbScale
 70
     0
300
1:50
140
1.0
141
50.0
290
     0
  0
SCALE
  5
A5
102
{ACAD_REACTORS
330
99
102
}
330
99
100
AcDbScale
 70
     0
300
1:100
140
1.0
141
100.0
290
     0
  0
SCALE
  5
A6
102
{ACAD_REACTORS
330
99
102
}
330
99
100
AcDbScale
 70
     0
300
2:1
140
2.0
141
1.0
290
     0
  0
SCALE
  5
A7
102
{ACAD_REACTORS
330
99
102
}
330
99
100
AcDbScale
 70
     0
300
4:1
140
4.0
141
1.0
290
     0
  0
SCALE
  5
A8
102
{ACAD_REACTORS
330
99
102
}
330
99
100
AcDbScale
 70
     0
300
8:1
140
8.0
141
1.0
290
     0
  0
SCALE
  5
A9
102
{ACAD_REACTORS
330
99
102
}
330
99
100
AcDbScale
 70
     0
300
10:1
140
10.0
141
1.0
290
     0
  0
SCALE
  5
AA
102
{ACAD_REACTORS
330
99
102
}
330
99
100
AcDbScale
 70
     0
300
100:1
140
100.0
141
1.0
290
     0
  0
SCALE
  5
AB
102
{ACAD_REACTORS
330
99
102
}
330
99
100
AcDbScale
 70
     0
300
1/128" = 1'-0"
140
0.0078125
141
12.0
290
     0
  0
SCALE
  5
AC
102
{ACAD_REACTORS
330
99
102
}
330
99
100
AcDbScale
 70
     0
300
1/64" = 1'-0"
140
0.015625
141
12.0
290
     0
  0
SCALE
  5
AD
102
{ACAD_REACTORS
330
99
102
}
330
99
100
AcDbScale
 70
     0
300
1/32" = 1'-0"
140
0.03125
141
12.0
290
     0
  0
SCALE
  5
AE
102
{ACAD_REACTORS
330
99
102
}
330
99
100
AcDbScale
 70
     0
300
1/16" = 1'-0"
140
0.0625
141
12.0
290
     0
  0
SCALE
  5
AF
102
{ACAD_REACTORS
330
99
102
}
330
99
100
AcDbScale
 70
     0
300
3/32" = 1'-0"
140
0.09375
141
12.0
290
     0
  0
SCALE
  5
B0
102
{ACAD_REACTORS
330
99
102
}
330
99
100
AcDbScale
 70
     0
300
1/8" = 1'-0"
140
0.125
141
12.0
290
     0
  0
SCALE
  5
B1
102
{ACAD_REACTORS
330
99
102
}
330
99
100
AcDbScale
 70
     0
300
3/16" = 1'-0"
140
0.1875
141
12.0
290
     0
  0
SCALE
  5
B2
102
{ACAD_REACTORS
330
99
102
}
330
99
100
AcDbScale
 70
     0
300
1/4" = 1'-0"
140
0.25
141
12.0
290
     0
  0
SCALE
  5
B3
102
{ACAD_REACTORS
330
99
102
}
330
99
100
AcDbScale
 70
     0
300
3/8" = 1'-0"
140
0.375
141
12.0
290
     0
  0
SCALE
  5
B4
102
{ACAD_REACTORS
330
99
102
}
330
99
100
AcDbScale
 70
     0
300
1/2" = 1'-0"
140
0.5
141
12.0
290
     0
  0
SCALE
  5
B5
102
{ACAD_REACTORS
330
99
102
}
330
99
100
AcDbScale
 70
     0
300
3/4" = 1'-0"
140
0.75
141
12.0
290
     0
  0
SCALE
  5
B6
102
{ACAD_REACTORS
330
99
102
}
330
99
100
AcDbScale
 70
     0
300
1" = 1'-0"
140
1.0
141
12.0
290
     0
  0
SCALE
  5
B7
102
{ACAD_REACTORS
330
99
102
}
330
99
100
AcDbScale
 70
     0
300
1-1/2" = 1'-0"
140
1.5
141
12.0
290
     0
  0
SCALE
  5
B8
102
{ACAD_REACTORS
330
99
102
}
330
99
100
AcDbScale
 70
     0
300
3" = 1'-0"
140
3.0
141
12.0
290
     0
  0
SCALE
  5
B9
102
{ACAD_REACTORS
330
99
102
}
330
99
100
AcDbScale
 70
     0
300
6" = 1'-0"
140
6.0
141
12.0
290
     0
  0
SCALE
  5
BA
102
{ACAD_REACTORS
330
99
102
}
330
99
100
AcDbScale
 70
     0
300
1'-0" = 1'-0"
140
12.0
141
12.0
290
     0
  0
ACDBSECTIONVIEWSTYLE
  5
29D72
102
{ACAD_XDICTIONARY
360
29E37
102
}
102
{ACAD_REACTORS
330
8E2
102
}
330
8E2
100
AcDbModelDocViewStyle
 70
     0
  3
Metric50
290
     0
100
AcDbSectionViewStyle
 70
     0
 71
     0
 90
      102
 71
     1
340
11
 40
5.0
340
0
340
0
 40
5.0
300
I, O, Q, S, X, Z
 40
10.0
 90
        0
 40
2.5
 90
        0
 71
     2
340
16
 90
       25
340
16
 90
       50
 40
5.0
 40
2.5
 40
5.0
 71
     3
340
11
 40
5.0
 90
        0
 40
15.0
 90
        1
300
%<\AcVar ViewSectionStartId>%-%<\AcVar ViewSectionEndId>% (%<\AcVar ViewScale \f "%sn">%)
 71
     4
300
ANSI31
 40
1.0
 90
        0
290
     0
290
     0
 90
        6
 40
0.0
 40
1.570796326794896
 40
0.2617993877991494
 40
1.308996938995747
 40
-0.2617993877991494
 40
1.832595714594045
  0
TABLESTYLE
  5
29D70
102
{ACAD_XDICTIONARY
360
29DAE
102
}
102
{ACAD_REACTORS
330
92
102
}
330
92
100
AcDbTableStyle
  3
Standard
 70
     0
 71
     0
 40
1.5
 41
1.5
280
     0
281
     0
  7
Standard
140
4.5
170
     2
 62
     0
 63
     7
283
     0
274
    -2
284
     1
 64
     0
275
    -2
285
     1
 65
     0
276
    -2
286
     1
 66
     0
277
    -2
287
     1
 67
     0
278
    -2
288
     1
 68
     0
279
    -2
289
     1
 69
     0
  7
Standard
140
6.0
170
     5
 62
     0
 63
     7
283
     0
274
    -2
284
     1
 64
     0
275
    -2
285
     1
 65
     0
276
    -2
286
     1
 66
     0
277
    -2
287
     1
 67
     0
278
    -2
288
     1
 68
     0
279
    -2
289
     1
 69
     0
  7
Standard
140
4.5
170
     5
 62
     0
 63
     7
283
     0
274
    -2
284
     1
 64
     0
275
    -2
285
     1
 65
     0
276
    -2
286
     1
 66
     0
277
    -2
287
     1
 67
     0
278
    -2
288
     1
 68
     0
279
    -2
289
     1
 69
     0
  0
VISUALSTYLE
  5
29D5D
102
{ACAD_XDICTIONARY
360
29E10
102
}
102
{ACAD_REACTORS
330
3F2
102
}
330
3F2
100
AcDbVisualStyle
  2

 70
     4
 71
     0
 72
     2
 73
     0
 90
        0
 40
-0.6
 41
-30.0
 62
     5
 63
     7
 74
     1
 91
        4
 64
     7
 65
   257
 75
     1
175
     1
 42
1.0
 92
        0
 66
   257
 43
1.0
 76
     1
 77
     6
 78
     2
 67
     7
 79
     5
170
     0
171
     0
290
     0
174
     0
 93
        1
 44
0.0
173
     0
291
     0
 45
0.0
1001
ACAD
1000
AcDbSavedByObjectVersion
1070
     0
  0
VISUALSTYLE
  5
29D5C
102
{ACAD_XDICTIONARY
360
29E0E
102
}
102
{ACAD_REACTORS
330
3F2
102
}
330
3F2
100
AcDbVisualStyle
  2

 70
     7
 71
     1
 72
     0
 73
     1
 90
        0
 40
-0.6
 41
-30.0
 62
     5
 63
     7
 74
     0
 91
        4
 64
     7
 65
   257
 75
     1
175
     1
 42
1.0
 92
        8
 66
     7
 43
1.0
 76
     1
 77
     6
 78
     2
 67
     7
 79
     5
170
     0
171
     0
290
     0
174
     0
 93
        1
 44
0.0
173
     0
291
     1
 45
0.0
1001
ACAD
1000
AcDbSavedByObjectVersion
1070
     0
  0
VISUALSTYLE
  5
29D63
102
{ACAD_XDICTIONARY
360
29E1C
102
}
102
{ACAD_REACTORS
330
3F2
102
}
330
3F2
100
AcDbVisualStyle
  2

 70
    12
 71
     2
 72
     2
 73
     0
 90
        0
 40
-0.6
 41
-30.0
 62
     5
 63
     7
 74
     1
 91
        4
 64
     7
 65
   257
 75
     1
175
     1
 42
1.0
 92
        8
 66
     7
 43
1.0
 76
     1
 77
     6
 78
     2
 67
     7
 79
     5
170
     0
171
     0
290
     0
174
     0
 93
        1
 44
50.0
173
     0
291
     1
 45
0.0
1001
ACAD
1000
AcDbSavedByObjectVersion
1070
     0
  0
VISUALSTYLE
  5
29D67
102
{ACAD_XDICTIONARY
360
29E24
102
}
102
{ACAD_REACTORS
330
3F2
102
}
330
3F2
100
AcDbVisualStyle
  2

 70
    16
 71
     2
 72
     2
 73
     3
 90
        0
 40
-0.6
 41
-30.0
 62
     5
 63
     8
 74
     1
 91
        4
 64
     7
 65
   257
 75
     1
175
     1
 42
1.0
 92
        8
 66
     8
 43
1.0
 76
     1
 77
     6
 78
     2
 67
     7
 79
     5
170
     0
171
     0
290
     0
174
     0
 93
        1
 44
0.0
173
     0
291
     1
 45
0.0
1001
ACAD
1000
AcDbSavedByObjectVersion
1070
     0
  0
VISUALSTYLE
  5
29D60
102
{ACAD_XDICTIONARY
360
29E16
102
}
102
{ACAD_REACTORS
330
3F2
102
}
330
3F2
100
AcDbVisualStyle
  2

 70
     9
 71
     3
 72
     2
 73
     0
 90
        0
 40
-0.6
 41
-30.0
 62
     5
 63
     7
 74
     2
 91
        2
 64
     7
 65
   257
 75
     1
175
     1
 42
179.0
 92
        8
 66
     7
 43
1.0
 76
     1
 77
     6
 78
     2
 67
     7
 79
     3
170
     0
171
     0
290
     0
174
     0
 93
        1
 44
0.0
173
     0
291
     0
 45
0.0
1001
ACAD
1000
AcDbSavedByObjectVersion
1070
     0
  0
VISUALSTYLE
  5
29D62
102
{ACAD_XDICTIONARY
360
29E1A
102
}
102
{ACAD_REACTORS
330
3F2
102
}
330
3F2
100
AcDbVisualStyle
  2

 70
    11
 71
     2
 72
     2
 73
     0
 90
        0
 40
-0.6
 41
-30.0
 62
     5
 63
     7
 74
     1
 91
        4
 64
     7
 65
   257
 75
     1
175
     1
 42
1.0
 92
        8
 66
     7
 43
1.0
 76
     1
 77
     6
 78
     2
 67
     7
 79
     5
170
     0
171
     0
290
     0
174
     0
 93
        1
 44
-50.0
173
     0
291
     1
 45
0.0
1001
ACAD
1000
AcDbSavedByObjectVersion
1070
     0
  0
VISUALSTYLE
  5
29D6F
102
{ACAD_XDICTIONARY
360
29E34
102
}
102
{ACAD_REACTORS
330
3F2
102
}
330
3F2
100
AcDbVisualStyle
  2

 70
    22
 71
     2
 72
     2
 73
     0
 90
        0
 40
-0.6
 41
-30.0
 62
     5
 63
     7
 74
     1
 91
        4
 64
     7
 65
   257
 75
     1
175
     1
 42
1.0
 92
        8
 66
     7
 43
1.0
 76
     1
 77
     6
 78
     2
 67
     7
 79
     5
170
     0
171
     0
290
     0
174
     0
 93
        1
 44
0.0
173
     0
291
     1
 45
0.0
1001
ACAD
1000
AcDbSavedByObjectVersion
1070
     0
  0
VISUALSTYLE
  5
29D66
102
{ACAD_XDICTIONARY
360
29E22
102
}
102
{ACAD_REACTORS
330
3F2
102
}
330
3F2
100
AcDbVisualStyle
  2

 70
    15
 71
     2
 72
     2
 73
     0
 90
        0
 40
-0.6
 41
-30.0
 62
     5
 63
     7
 74
     1
 91
        4
 64
     7
 65
   257
 75
     1
175
     1
 42
1.0
 92
        8
 66
     7
 43
1.0
 76
     1
 77
     6
 78
     2
 67
     7
 79
     5
170
     0
171
     0
290
     0
174
     0
 93
        1
 44
0.0
173
     0
291
     1
 45
0.0
1001
ACAD
1000
AcDbSavedByObjectVersion
1070
     0
  0
VISUALSTYLE
  5
29D58
102
{ACAD_XDICTIONARY
360
29E06
102
}
102
{ACAD_REACTORS
330
3F2
102
}
330
3F2
100
AcDbVisualStyle
  2

 70
     0
 71
     2
 72
     1
 73
     1
 90
        2
 40
-0.6
 41
30.0
 62
     5
 63
     7
 74
     0
 91
        0
 64
     7
 65
   257
 75
     1
175
     1
 42
1.0
 92
        8
 66
     7
 43
1.0
 76
     1
 77
     6
 78
     2
 67
     7
 79
     5
170
     0
171
     0
290
     0
174
     0
 93
       13
 44
0.0
173
     0
291
     1
 45
0.0
1001
ACAD
1000
AcDbSavedByObjectVersion
1070
     0
  0
VISUALSTYLE
  5
29D59
102
{ACAD_XDICTIONARY
360
29E08
102
}
102
{ACAD_REACTORS
330
3F2
102
}
330
3F2
100
AcDbVisualStyle
  2

 70
     1
 71
     2
 72
     1
 73
     1
 90
        2
 40
-0.6
 41
30.0
 62
     5
 63
     7
 74
     1
 91
        0
 64
     7
 65
   257
 75
     1
175
     1
 42
1.0
 92
        0
 66
   257
 43
1.0
 76
     1
 77
     6
 78
     2
 67
     7
 79
     5
170
     0
171
     0
290
     0
174
     0
 93
       13
 44
0.0
173
     0
291
     1
 45
0.0
1001
ACAD
1000
AcDbSavedByObjectVersion
1070
     0
  0
VISUALSTYLE
  5
29D5A
102
{ACAD_XDICTIONARY
360
29E0A
102
}
102
{ACAD_REACTORS
330
3F2
102
}
330
3F2
100
AcDbVisualStyle
  2

 70
     2
 71
     2
 72
     2
 73
     1
 90
        2
 40
-0.6
 41
30.0
 62
     5
 63
     7
 74
     0
 91
        0
 64
     7
 65
   257
 75
     1
175
     1
 42
1.0
 92
        0
 66
     7
 43
1.0
 76
     1
 77
     6
 78
     2
 67
     7
 79
     5
170
     0
171
     0
290
     0
174
     0
 93
       13
 44
0.0
173
     0
291
     1
 45
0.0
1001
ACAD
1000
AcDbSavedByObjectVersion
1070
     0
  0
VISUALSTYLE
  5
29D5B
102
{ACAD_XDICTIONARY
360
29E0C
102
}
102
{ACAD_REACTORS
330
3F2
102
}
330
3F2
100
AcDbVisualStyle
  2

 70
     3
 71
     2
 72
     2
 73
     1
 90
        2
 40
-0.6
 41
30.0
 62
     5
 63
     7
 74
     1
 91
        0
 64
     7
 65
   257
 75
     1
175
     1
 42
1.0
 92
        0
 66
   257
 43
1.0
 76
     1
 77
     6
 78
     2
 67
     7
 79
     5
170
     0
171
     0
290
     0
174
     0
 93
       13
 44
0.0
173
     0
291
     1
 45
0.0
1001
ACAD
1000
AcDbSavedByObjectVersion
1070
     0
  0
VISUALSTYLE
  5
29D5F
102
{ACAD_XDICTIONARY
360
29E14
102
}
102
{ACAD_REACTORS
330
3F2
102
}
330
3F2
100
AcDbVisualStyle
  2

 70
     6
 71
     1
 72
     2
 73
     2
 90
        0
 40
-0.6
 41
-30.0
 62
     5
 63
     7
 74
     2
 91
        2
 64
     7
 65
   257
 75
     2
175
     1
 42
40.0
 92
        0
 66
   257
 43
1.0
 76
     1
 77
     6
 78
     2
 67
     7
 79
     3
170
     0
171
     0
290
     0
174
     0
 93
        1
 44
0.0
173
     0
291
     0
 45
0.0
1001
ACAD
1000
AcDbSavedByObjectVersion
1070
     0
  0
VISUALSTYLE
  5
29D6D
102
{ACAD_XDICTIONARY
360
29E30
102
}
102
{ACAD_REACTORS
330
3F2
102
}
330
3F2
100
AcDbVisualStyle
  2

 70
    20
 71
     2
 72
     2
 73
     0
 90
        0
 40
-0.6
 41
-30.0
 62
     5
 63
     7
 74
     1
 91
        4
 64
     7
 65
   257
 75
     1
175
     1
 42
1.0
 92
       10
 66
     7
 43
1.0
 76
     1
 77
     6
 78
     2
 67
     7
 79
     5
170
     0
171
     0
290
     0
174
     0
 93
        1
 44
0.0
173
     0
291
     1
 45
0.0
1001
ACAD
1000
AcDbSavedByObjectVersion
1070
     0
  0
VISUALSTYLE
  5
29D65
102
{ACAD_XDICTIONARY
360
29E20
102
}
102
{ACAD_REACTORS
330
3F2
102
}
330
3F2
100
AcDbVisualStyle
  2

 70
    14
 71
     2
 72
     2
 73
     0
 90
        0
 40
-0.6
 41
-30.0
 62
     5
 63
     7
 74
     1
 91
        4
 64
     7
 65
   257
 75
     7
175
     7
 42
1.0
 92
        8
 66
     7
 43
1.0
 76
     1
 77
     6
 78
     2
 67
     7
 79
     5
170
     0
171
     0
290
     0
174
     0
 93
        1
 44
0.0
173
     0
291
     1
 45
0.0
1001
ACAD
1000
AcDbSavedByObjectVersion
1070
     0
  0
VISUALSTYLE
  5
29D6E
102
{ACAD_XDICTIONARY
360
29E32
102
}
102
{ACAD_REACTORS
330
3F2
102
}
330
3F2
100
AcDbVisualStyle
  2

 70
    21
 71
     2
 72
     2
 73
     0
 90
        0
 40
-0.6
 41
-30.0
 62
     5
 63
     7
 74
     1
 91
        4
 64
     7
 65
   257
 75
     1
175
     1
 42
1.0
 92
        9
 66
     7
 43
1.0
 76
     1
 77
     6
 78
     2
 67
     7
 79
     5
170
     0
171
     0
290
     0
174
     0
 93
        1
 44
0.0
173
     0
291
     1
 45
0.0
1001
ACAD
1000
AcDbSavedByObjectVersion
1070
     0
  0
VISUALSTYLE
  5
29D61
102
{ACAD_XDICTIONARY
360
29E18
102
}
102
{ACAD_REACTORS
330
3F2
102
}
330
3F2
100
AcDbVisualStyle
  2

 70
     8
 71
     2
 72
     3
 73
     0
 90
        2
 40
-0.6
 41
30.0
 62
     5
 63
     7
 74
     0
 91
        0
 64
     7
 65
   257
 75
     1
175
     1
 42
1.0
 92
        8
 66
   257
 43
1.0
 76
     1
 77
     6
 78
     2
 67
     7
 79
     3
170
     0
171
     0
290
     0
174
     0
 93
       13
 44
0.0
173
     0
291
     0
 45
0.0
1001
ACAD
1000
AcDbSavedByObjectVersion
1070
     0
  0
VISUALSTYLE
  5
29D6C
102
{ACAD_XDICTIONARY
360
29E2E
102
}
102
{ACAD_REACTORS
330
3F2
102
}
330
3F2
100
AcDbVisualStyle
  2

 70
    27
 71
     2
 72
     2
 73
     1
 90
        2
 40
-0.6
 41
30.0
 62
     5
 63
     7
 74
     0
 91
        4
 64
     7
 65
   257
 75
     1
175
     1
 42
1.0
 92
        8
 66
   257
 43
1.0
 76
     1
 77
     6
 78
     2
 67
     8
 79
     3
170
     0
171
     0
290
     0
174
     0
 93
        5
 44
0.0
173
     0
291
     0
 45
0.0
1001
ACAD
1000
AcDbSavedByObjectVersion
1070
     0
  0
VISUALSTYLE
  5
29D6B
102
{ACAD_XDICTIONARY
360
29E2C
102
}
102
{ACAD_REACTORS
330
3F2
102
}
330
3F2
100
AcDbVisualStyle
  2

 70
    26
 71
     2
 72
     2
 73
     1
 90
        2
 40
-0.6
 41
30.0
 62
     5
 63
     7
 74
     1
 91
        2
 64
     7
 65
   257
 75
     2
175
     1
 42
1.0
 92
        8
 66
   257
 43
1.0
 76
     1
 77
     6
 78
     2
 67
     7
 79
     3
170
     0
171
     0
290
     0
174
     0
 93
        5
 44
0.0
173
     0
291
     0
 45
0.0
1001
ACAD
1000
AcDbSavedByObjectVersion
1070
     0
  0
VISUALSTYLE
  5
29D68
102
{ACAD_XDICTIONARY
360
29E26
102
}
102
{ACAD_REACTORS
330
3F2
102
}
330
3F2
100
AcDbVisualStyle
  2

 70
    23
 71
     2
 72
     2
 73
     3
 90
        0
 40
-0.6
 41
-30.0
 62
     5
 63
     7
 74
     2
 91
        2
 64
     7
 65
     7
 75
     1
175
     1
 42
40.0
 92
        8
 66
     7
 43
1.0
 76
     1
 77
     6
 78
     2
 67
     7
 79
     3
170
     0
171
     0
290
     0
174
     0
 93
        1
 44
0.0
173
     0
291
     0
 45
0.0
1001
ACAD
1000
AcDbSavedByObjectVersion
1070
     0
  0
VISUALSTYLE
  5
29D69
102
{ACAD_XDICTIONARY
360
29E28
102
}
102
{ACAD_REACTORS
330
3F2
102
}
330
3F2
100
AcDbVisualStyle
  2

 70
    24
 71
     1
 72
     2
 73
     2
 90
        0
 40
-0.6
 41
-30.0
 62
     5
 63
     7
 74
     2
 91
        2
 64
     7
 65
     7
 75
     1
175
     1
 42
40.0
 92
       11
 66
     7
 43
1.0
 76
     1
 77
     6
 78
     2
 67
     7
 79
     6
170
     0
171
     0
290
     0
174
     0
 93
        1
 44
0.0
173
     0
291
     0
 45
0.0
1001
ACAD
1000
AcDbSavedByObjectVersion
1070
     0
  0
VISUALSTYLE
  5
29D64
102
{ACAD_XDICTIONARY
360
29E1E
102
}
102
{ACAD_REACTORS
330
3F2
102
}
330
3F2
100
AcDbVisualStyle
  2

 70
    13
 71
     2
 72
     2
 73
     0
 90
        0
 40
-0.6
 41
-30.0
 62
     5
 63
     7
 74
     1
 91
        4
 64
     7
 65
   257
 75
     1
175
     1
 42
1.0
 92
       12
 66
     7
 43
1.0
 76
     1
 77
     6
 78
     2
 67
     7
 79
     5
170
     0
171
     0
290
     0
174
     0
 93
        1
 44
0.0
173
     0
291
     1
 45
0.0
1001
ACAD
1000
AcDbSavedByObjectVersion
1070
     0
  0
VISUALSTYLE
  5
29D5E
102
{ACAD_XDICTIONARY
360
29E12
102
}
102
{ACAD_REACTORS
330
3F2
102
}
330
3F2
100
AcDbVisualStyle
  2

 70
     5
 71
     0
 72
     2
 73
     0
 90
        0
 40
-0.6
 41
-30.0
 62
     5
 63
     7
 74
     1
 91
        4
 64
     7
 65
   257
 75
     1
175
     1
 42
1.0
 92
        0
 66
   257
 43
1.0
 76
     1
 77
     6
 78
     2
 67
     7
 79
     3
170
     0
171
     0
290
     0
174
     0
 93
        1
 44
0.0
173
     0
291
     0
 45
0.0
1001
ACAD
1000
AcDbSavedByObjectVersion
1070
     0
  0
VISUALSTYLE
  5
29D6A
102
{ACAD_XDICTIONARY
360
29E2A
102
}
102
{ACAD_REACTORS
330
3F2
102
}
330
3F2
100
AcDbVisualStyle
  2

 70
    25
 71
     2
 72
     2
 73
     1
 90
        1
 40
0.5
 41
-30.0
 62
     5
 63
     7
 74
     1
 91
        0
 64
     7
 65
   257
 75
     1
175
     1
 42
1.0
 92
        8
 66
     7
 43
1.0
 76
     1
 77
     6
 78
     2
 67
     7
 79
     3
170
     0
171
     0
290
     0
174
     0
 93
       13
 44
0.0
173
     0
291
     0
 45
0.0
1001
ACAD
1000
AcDbSavedByObjectVersion
1070
     0
  0
XRECORD
  5
29D38
102
{ACAD_REACTORS
330
29D37
102
}
330
29D37
100
AcDbXrecord
280
     1
340
6C
  0
XRECORD
  5
29D39
102
{ACAD_REACTORS
330
29D37
102
}
330
29D37
100
AcDbXrecord
280
     1
340
6B
  0
DICTIONARYVAR
  5
29D36
102
{ACAD_REACTORS
330
59
102
}
330
59
100
DictionaryVariables
280
     0
  1
1:1
  0
DICTIONARYVAR
  5
29DAC
102
{ACAD_REACTORS
330
59
102
}
330
59
100
DictionaryVariables
280
     0
  1
STANDARD
  0
DICTIONARYVAR
  5
98
102
{ACAD_REACTORS
330
59
102
}
330
59
100
DictionaryVariables
280
     0
  1
STANDARD
  0
DICTIONARYVAR
  5
8FB
102
{ACAD_REACTORS
330
59
102
}
330
59
100
DictionaryVariables
280
     0
  1
Metric50
  0
DICTIONARYVAR
  5
8FC
102
{ACAD_REACTORS
330
59
102
}
330
59
100
DictionaryVariables
280
     0
  1
Metric50
  0
DICTIONARYVAR
  5
359
102
{ACAD_REACTORS
330
59
102
}
330
59
100
DictionaryVariables
280
     0
  1
2
  0
DICTIONARYVAR
  5
AF7
102
{ACAD_REACTORS
330
59
102
}
330
59
100
DictionaryVariables
280
     0
  1
0
  0
DICTIONARYVAR
  5
358
102
{ACAD_REACTORS
330
59
102
}
330
59
100
DictionaryVariables
280
     0
  1
1
  0
DICTIONARYVAR
  5
9BE
102
{ACAD_REACTORS
330
59
102
}
330
59
100
DictionaryVariables
280
     0
  1
0
  0
DICTIONARYVAR
  5
7AE
102
{ACAD_REACTORS
330
59
102
}
330
59
100
DictionaryVariables
280
     0
  1
1
  0
DICTIONARYVAR
  5
7AF
102
{ACAD_REACTORS
330
59
102
}
330
59
100
DictionaryVariables
280
     0
  1
15
  0
DICTIONARYVAR
  5
44A
102
{ACAD_REACTORS
330
59
102
}
330
59
100
DictionaryVariables
280
     0
  1
0
  0
DICTIONARYVAR
  5
448
102
{ACAD_REACTORS
330
59
102
}
330
59
100
DictionaryVariables
280
     0
  1
1
  0
DICTIONARYVAR
  5
9BD
102
{ACAD_REACTORS
330
59
102
}
330
59
100
DictionaryVariables
280
     0
  1
127
  0
DICTIONARYVAR
  5
29DF9
102
{ACAD_REACTORS
330
59
102
}
330
59
100
DictionaryVariables
280
     0
  1
2
  0
DICTIONARY
  5
76F
102
{ACAD_REACTORS
330
76D
102
}
330
76D
100
AcDbDictionary
281
     1
  0
DICTIONARY
  5
744
102
{ACAD_REACTORS
330
743
102
}
330
743
100
AcDbDictionary
281
     1
  0
XRECORD
  5
8C7
102
{ACAD_REACTORS
330
8C6
102
}
330
8C6
100
AcDbXrecord
280
     1
  0
DICTIONARY
  5
29E39
330
29D73
100
AcDbDictionary
280
     1
281
     1
  3
ACAD_XREC_ROUNDTRIP
360
29E3A
  0
DICTIONARY
  5
29E04
330
74
100
AcDbDictionary
280
     1
281
     1
  3
ACAD_XREC_ROUNDTRIP
360
29E05
  0
DICTIONARY
  5
29E02
330
22
100
AcDbDictionary
280
     1
281
     1
  3
ACAD_XREC_ROUNDTRIP
360
29E03
  0
DICTIONARY
  5
29D49
330
29D48
100
AcDbDictionary
280
     1
281
     1
  3
ACAD_XREC_ROUNDTRIP
360
29DBC
  3
BUMPTILE
360
29D4B
  3
DIFFUSETILE
360
29D4A
  3
OPACITYTILE
360
29D4E
  3
REFLECTIONTILE
360
29D4D
  3
REFRACTIONTILE
360
29D4F
  3
SPECULARTILE
360
29D4C
  0
DICTIONARY
  5
29D41
330
29D40
100
AcDbDictionary
280
     1
281
     1
  3
ACAD_XREC_ROUNDTRIP
360
29DBB
  3
BUMPTILE
360
29D43
  3
DIFFUSETILE
360
29D42
  3
OPACITYTILE
360
29D46
  3
REFLECTIONTILE
360
29D45
  3
REFRACTIONTILE
360
29D47
  3
SPECULARTILE
360
29D44
  0
DICTIONARY
  5
29D51
330
29D50
100
AcDbDictionary
280
     1
281
     1
  3
ACAD_XREC_ROUNDTRIP
360
29DBD
  3
BUMPTILE
360
29D53
  3
DIFFUSETILE
360
29D52
  3
OPACITYTILE
360
29D56
  3
REFLECTIONTILE
360
29D55
  3
REFRACTIONTILE
360
29D57
  3
SPECULARTILE
360
29D54
  0
DICTIONARY
  5
29E37
330
29D72
100
AcDbDictionary
280
     1
281
     1
  3
ACAD_XREC_ROUNDTRIP
360
29E38
  0
DICTIONARY
  5
29DAE
330
29D70
100
AcDbDictionary
280
     1
281
     1
  3
ACAD_ROUNDTRIP_2008_TABLESTYLE_CELLSTYLEMAP
360
29DFA
  3
ACAD_XREC_ROUNDTRIP
360
29E36
  0
DICTIONARY
  5
29E10
330
29D5D
100
AcDbDictionary
280
     1
281
     1
  3
ACAD_XREC_ROUNDTRIP
360
29E11
  0
DICTIONARY
  5
29E0E
330
29D5C
100
AcDbDictionary
280
     1
281
     1
  3
ACAD_XREC_ROUNDTRIP
360
29E0F
  0
DICTIONARY
  5
29E1C
330
29D63
100
AcDbDictionary
280
     1
281
     1
  3
ACAD_XREC_ROUNDTRIP
360
29E1D
  0
DICTIONARY
  5
29E24
330
29D67
100
AcDbDictionary
280
     1
281
     1
  3
ACAD_XREC_ROUNDTRIP
360
29E25
  0
DICTIONARY
  5
29E16
330
29D60
100
AcDbDictionary
280
     1
281
     1
  3
ACAD_XREC_ROUNDTRIP
360
29E17
  0
DICTIONARY
  5
29E1A
330
29D62
100
AcDbDictionary
280
     1
281
     1
  3
ACAD_XREC_ROUNDTRIP
360
29E1B
  0
DICTIONARY
  5
29E34
330
29D6F
100
AcDbDictionary
280
     1
281
     1
  3
ACAD_XREC_ROUNDTRIP
360
29E35
  0
DICTIONARY
  5
29E22
330
29D66
100
AcDbDictionary
280
     1
281
     1
  3
ACAD_XREC_ROUNDTRIP
360
29E23
  0
DICTIONARY
  5
29E06
330
29D58
100
AcDbDictionary
280
     1
281
     1
  3
ACAD_XREC_ROUNDTRIP
360
29E07
  0
DICTIONARY
  5
29E08
330
29D59
100
AcDbDictionary
280
     1
281
     1
  3
ACAD_XREC_ROUNDTRIP
360
29E09
  0
DICTIONARY
  5
29E0A
330
29D5A
100
AcDbDictionary
280
     1
281
     1
  3
ACAD_XREC_ROUNDTRIP
360
29E0B
  0
DICTIONARY
  5
29E0C
330
29D5B
100
AcDbDictionary
280
     1
281
     1
  3
ACAD_XREC_ROUNDTRIP
360
29E0D
  0
DICTIONARY
  5
29E14
330
29D5F
100
AcDbDictionary
280
     1
281
     1
  3
ACAD_XREC_ROUNDTRIP
360
29E15
  0
DICTIONARY
  5
29E30
330
29D6D
100
AcDbDictionary
280
     1
281
     1
  3
ACAD_XREC_ROUNDTRIP
360
29E31
  0
DICTIONARY
  5
29E20
330
29D65
100
AcDbDictionary
280
     1
281
     1
  3
ACAD_XREC_ROUNDTRIP
360
29E21
  0
DICTIONARY
  5
29E32
330
29D6E
100
AcDbDictionary
280
     1
281
     1
  3
ACAD_XREC_ROUNDTRIP
360
29E33
  0
DICTIONARY
  5
29E18
330
29D61
100
AcDbDictionary
280
     1
281
     1
  3
ACAD_XREC_ROUNDTRIP
360
29E19
  0
DICTIONARY
  5
29E2E
330
29D6C
100
AcDbDictionary
280
     1
281
     1
  3
ACAD_XREC_ROUNDTRIP
360
29E2F
  0
DICTIONARY
  5
29E2C
330
29D6B
100
AcDbDictionary
280
     1
281
     1
  3
ACAD_XREC_ROUNDTRIP
360
29E2D
  0
DICTIONARY
  5
29E26
330
29D68
100
AcDbDictionary
280
     1
281
     1
  3
ACAD_XREC_ROUNDTRIP
360
29E27
  0
DICTIONARY
  5
29E28
330
29D69
100
AcDbDictionary
280
     1
281
     1
  3
ACAD_XREC_ROUNDTRIP
360
29E29
  0
DICTIONARY
  5
29E1E
330
29D64
100
AcDbDictionary
280
     1
281
     1
  3
ACAD_XREC_ROUNDTRIP
360
29E1F
  0
DICTIONARY
  5
29E12
330
29D5E
100
AcDbDictionary
280
     1
281
     1
  3
ACAD_XREC_ROUNDTRIP
360
29E13
  0
DICTIONARY
  5
29E2A
330
29D6A
100
AcDbDictionary
280
     1
281
     1
  3
ACAD_XREC_ROUNDTRIP
360
29E2B
  0
XRECORD
  5
29E3A
102
{ACAD_REACTORS
330
29E39
102
}
330
29E39
100
AcDbXrecord
280
     1
102
DISPLAYNAME
  1
Metric50
102
FLAGS
 90
        0
  0
XRECORD
  5
29E05
102
{ACAD_REACTORS
330
29E04
102
}
330
29E04
100
AcDbXrecord
280
     1
102
SHADEPLOT
 70
     0
102
SHADEPLOTRESLEVEL
 70
     2
102
SHADEPLOTCUSTOMDPI
 70
   300
  0
XRECORD
  5
29E03
102
{ACAD_REACTORS
330
29E02
102
}
330
29E02
100
AcDbXrecord
280
     1
102
SHADEPLOT
 70
     0
102
SHADEPLOTRESLEVEL
 70
     4
102
SHADEPLOTCUSTOMDPI
 70
   300
  0
XRECORD
  5
29DBC
102
{ACAD_REACTORS
330
29D49
102
}
330
29D49
100
AcDbXrecord
280
     1
102
MATERIAL
148
0.0
149
0.0
149
0.0
 93
        0
 94
      127
282
     0
 72
     0
 77
     0
171
     0
175
     0
179
     0
273
     0
  0
XRECORD
  5
29D4B
102
{ACAD_REACTORS
330
29D49
102
}
330
29D49
100
AcDbXrecord
280
     1
270
     1
271
     1
  0
XRECORD
  5
29D4A
102
{ACAD_REACTORS
330
29D49
102
}
330
29D49
100
AcDbXrecord
280
     1
270
     1
271
     1
  0
XRECORD
  5
29D4E
102
{ACAD_REACTORS
330
29D49
102
}
330
29D49
100
AcDbXrecord
280
     1
270
     1
271
     1
  0
XRECORD
  5
29D4D
102
{ACAD_REACTORS
330
29D49
102
}
330
29D49
100
AcDbXrecord
280
     1
270
     1
271
     1
  0
XRECORD
  5
29D4F
102
{ACAD_REACTORS
330
29D49
102
}
330
29D49
100
AcDbXrecord
280
     1
270
     1
271
     1
  0
XRECORD
  5
29D4C
102
{ACAD_REACTORS
330
29D49
102
}
330
29D49
100
AcDbXrecord
280
     1
270
     1
271
     1
  0
XRECORD
  5
29DBB
102
{ACAD_REACTORS
330
29D41
102
}
330
29D41
100
AcDbXrecord
280
     1
102
MATERIAL
148
0.0
149
0.0
149
0.0
 93
        0
 94
      127
282
     0
 72
     0
 77
     0
171
     0
175
     0
179
     0
273
     0
  0
XRECORD
  5
29D43
102
{ACAD_REACTORS
330
29D41
102
}
330
29D41
100
AcDbXrecord
280
     1
270
     1
271
     1
  0
XRECORD
  5
29D42
102
{ACAD_REACTORS
330
29D41
102
}
330
29D41
100
AcDbXrecord
280
     1
270
     1
271
     1
  0
XRECORD
  5
29D46
102
{ACAD_REACTORS
330
29D41
102
}
330
29D41
100
AcDbXrecord
280
     1
270
     1
271
     1
  0
XRECORD
  5
29D45
102
{ACAD_REACTORS
330
29D41
102
}
330
29D41
100
AcDbXrecord
280
     1
270
     1
271
     1
  0
XRECORD
  5
29D47
102
{ACAD_REACTORS
330
29D41
102
}
330
29D41
100
AcDbXrecord
280
     1
270
     1
271
     1
  0
XRECORD
  5
29D44
102
{ACAD_REACTORS
330
29D41
102
}
330
29D41
100
AcDbXrecord
280
     1
270
     1
271
     1
  0
XRECORD
  5
29DBD
102
{ACAD_REACTORS
330
29D51
102
}
330
29D51
100
AcDbXrecord
280
     1
102
MATERIAL
148
0.0
149
0.0
149
0.0
 93
        0
 94
      127
282
     0
 72
     0
 77
     0
171
     0
175
     0
179
     0
273
     0
  0
XRECORD
  5
29D53
102
{ACAD_REACTORS
330
29D51
102
}
330
29D51
100
AcDbXrecord
280
     1
270
     1
271
     1
  0
XRECORD
  5
29D52
102
{ACAD_REACTORS
330
29D51
102
}
330
29D51
100
AcDbXrecord
280
     1
270
     1
271
     1
  0
XRECORD
  5
29D56
102
{ACAD_REACTORS
330
29D51
102
}
330
29D51
100
AcDbXrecord
280
     1
270
     1
271
     1
  0
XRECORD
  5
29D55
102
{ACAD_REACTORS
330
29D51
102
}
330
29D51
100
AcDbXrecord
280
     1
270
     1
271
     1
  0
XRECORD
  5
29D57
102
{ACAD_REACTORS
330
29D51
102
}
330
29D51
100
AcDbXrecord
280
     1
270
     1
271
     1
  0
XRECORD
  5
29D54
102
{ACAD_REACTORS
330
29D51
102
}
330
29D51
100
AcDbXrecord
280
     1
270
     1
271
     1
  0
XRECORD
  5
29E38
102
{ACAD_REACTORS
330
29E37
102
}
330
29E37
100
AcDbXrecord
280
     1
102
DISPLAYNAME
  1
Metric50
102
FLAGS
 90
        0
  0
CELLSTYLEMAP
  5
29DFA
102
{ACAD_REACTORS
330
29DAE
102
}
330
29DAE
100
AcDbCellStyleMap
 90
        3
300
CELLSTYLE
  1
TABLEFORMAT_BEGIN
 90
        5
170
     1
 91
        0
 92
    32768
 62
   257
 93
        1
300
CONTENTFORMAT
  1
CONTENTFORMAT_BEGIN
 90
        0
 91
        0
 92
      512
 93
        0
300

 40
0.0
140
1.0
 94
        5
 62
     0
340
11
144
6.0
309
CONTENTFORMAT_END
171
     1
301
MARGIN
  1
CELLMARGIN_BEGIN
 40
1.5
 40
1.5
 40
1.5
 40
1.5
 40
0.18
 40
0.18
309
CELLMARGIN_END
 94
        6
 95
        1
302
GRIDFORMAT
  1
GRIDFORMAT_BEGIN
 90
        0
 91
        1
 62
     0
 92
       -2
340
0
 93
        0
 40
1.125
309
GRIDFORMAT_END
 95
        2
302
GRIDFORMAT
  1
GRIDFORMAT_BEGIN
 90
        0
 91
        1
 62
     0
 92
       -2
340
0
 93
        0
 40
1.125
309
GRIDFORMAT_END
 95
        4
302
GRIDFORMAT
  1
GRIDFORMAT_BEGIN
 90
        0
 91
        1
 62
     0
 92
       -2
340
0
 93
        0
 40
1.125
309
GRIDFORMAT_END
 95
        8
302
GRIDFORMAT
  1
GRIDFORMAT_BEGIN
 90
        0
 91
        1
 62
     0
 92
       -2
340
0
 93
        0
 40
1.125
309
GRIDFORMAT_END
 95
       16
302
GRIDFORMAT
  1
GRIDFORMAT_BEGIN
 90
        0
 91
        1
 62
     0
 92
       -2
340
0
 93
        0
 40
1.125
309
GRIDFORMAT_END
 95
       32
302
GRIDFORMAT
  1
GRIDFORMAT_BEGIN
 90
        0
 91
        1
 62
     0
 92
       -2
340
0
 93
        0
 40
1.125
309
GRIDFORMAT_END
309
TABLEFORMAT_END
  1
CELLSTYLE_BEGIN
 90
        1
 91
        1
300
_TITLE
309
CELLSTYLE_END
300
CELLSTYLE
  1
TABLEFORMAT_BEGIN
 90
        5
170
     1
 91
        0
 92
        0
 62
   257
 93
        1
300
CONTENTFORMAT
  1
CONTENTFORMAT_BEGIN
 90
        0
 91
        0
 92
      512
 93
        0
300

 40
0.0
140
1.0
 94
        5
 62
     0
340
11
144
4.5
309
CONTENTFORMAT_END
171
     1
301
MARGIN
  1
CELLMARGIN_BEGIN
 40
1.5
 40
1.5
 40
1.5
 40
1.5
 40
0.18
 40
0.18
309
CELLMARGIN_END
 94
        6
 95
        1
302
GRIDFORMAT
  1
GRIDFORMAT_BEGIN
 90
        0
 91
        1
 62
     0
 92
       -2
340
0
 93
        0
 40
1.125
309
GRIDFORMAT_END
 95
        2
302
GRIDFORMAT
  1
GRIDFORMAT_BEGIN
 90
        0
 91
        1
 62
     0
 92
       -2
340
0
 93
        0
 40
1.125
309
GRIDFORMAT_END
 95
        4
302
GRIDFORMAT
  1
GRIDFORMAT_BEGIN
 90
        0
 91
        1
 62
     0
 92
       -2
340
0
 93
        0
 40
1.125
309
GRIDFORMAT_END
 95
        8
302
GRIDFORMAT
  1
GRIDFORMAT_BEGIN
 90
        0
 91
        1
 62
     0
 92
       -2
340
0
 93
        0
 40
1.125
309
GRIDFORMAT_END
 95
       16
302
GRIDFORMAT
  1
GRIDFORMAT_BEGIN
 90
        0
 91
        1
 62
     0
 92
       -2
340
0
 93
        0
 40
1.125
309
GRIDFORMAT_END
 95
       32
302
GRIDFORMAT
  1
GRIDFORMAT_BEGIN
 90
        0
 91
        1
 62
     0
 92
       -2
340
0
 93
        0
 40
1.125
309
GRIDFORMAT_END
309
TABLEFORMAT_END
  1
CELLSTYLE_BEGIN
 90
        2
 91
        1
300
_HEADER
309
CELLSTYLE_END
300
CELLSTYLE
  1
TABLEFORMAT_BEGIN
 90
        5
170
     1
 91
        0
 92
        0
 62
   257
 93
        1
300
CONTENTFORMAT
  1
CONTENTFORMAT_BEGIN
 90
        0
 91
        0
 92
      512
 93
        0
300

 40
0.0
140
1.0
 94
        2
 62
     0
340
11
144
4.5
309
CONTENTFORMAT_END
171
     1
301
MARGIN
  1
CELLMARGIN_BEGIN
 40
1.5
 40
1.5
 40
1.5
 40
1.5
 40
0.18
 40
0.18
309
CELLMARGIN_END
 94
        6
 95
        1
302
GRIDFORMAT
  1
GRIDFORMAT_BEGIN
 90
        0
 91
        1
 62
     0
 92
       -2
340
0
 93
        0
 40
1.125
309
GRIDFORMAT_END
 95
        2
302
GRIDFORMAT
  1
GRIDFORMAT_BEGIN
 90
        0
 91
        1
 62
     0
 92
       -2
340
0
 93
        0
 40
1.125
309
GRIDFORMAT_END
 95
        4
302
GRIDFORMAT
  1
GRIDFORMAT_BEGIN
 90
        0
 91
        1
 62
     0
 92
       -2
340
0
 93
        0
 40
1.125
309
GRIDFORMAT_END
 95
        8
302
GRIDFORMAT
  1
GRIDFORMAT_BEGIN
 90
        0
 91
        1
 62
     0
 92
       -2
340
0
 93
        0
 40
1.125
309
GRIDFORMAT_END
 95
       16
302
GRIDFORMAT
  1
GRIDFORMAT_BEGIN
 90
        0
 91
        1
 62
     0
 92
       -2
340
0
 93
        0
 40
1.125
309
GRIDFORMAT_END
 95
       32
302
GRIDFORMAT
  1
GRIDFORMAT_BEGIN
 90
        0
 91
        1
 62
     0
 92
       -2
340
0
 93
        0
 40
1.125
309
GRIDFORMAT_END
309
TABLEFORMAT_END
  1
CELLSTYLE_BEGIN
 90
        3
 91
        2
300
_DATA
309
CELLSTYLE_END
  0
XRECORD
  5
29E36
102
{ACAD_REACTORS
330
29DAE
102
}
330
29DAE
100
AcDbXrecord
280
     1
102
ACAD_ROUNDTRIP_PRE2007_TABLESTYLE
 90
      512
 91
        0
  1

 92
      512
 93
        0
  2

 94
      512
 95
        0
  3

  0
XRECORD
  5
29E11
102
{ACAD_REACTORS
330
29E10
102
}
330
29E10
100
AcDbXrecord
280
     1
102
RTVSPost2010Prop28
280
     1
102
RTVSPost2010PropOp28
 70
     1
102
RTVSPost2010Prop29
280
     1
102
RTVSPost2010PropOp29
 70
     1
102
RTVSPost2010Prop30
280
     0
102
RTVSPost2010PropOp30
 70
     1
102
RTVSPost2010Prop31
280
     0
102
RTVSPost2010PropOp31
 70
     1
102
RTVSPost2010Prop32
280
     0
102
RTVSPost2010PropOp32
 70
     1
102
RTVSPost2010Prop33
280
     0
102
RTVSPost2010PropOp33
 70
     1
102
RTVSPost2010Prop34
280
     0
102
RTVSPost2010PropOp34
 70
     1
102
RTVSPost2010Prop35
280
     0
102
RTVSPost2010PropOp35
 70
     1
102
RTVSPost2010Prop36
280
     0
102
RTVSPost2010PropOp36
 70
     1
102
RTVSPost2010Prop37
 90
       50
102
RTVSPost2010PropOp37
 70
     1
102
RTVSPost2010Prop38
140
0.0
102
RTVSPost2010PropOp38
 70
     1
102
RTVSPost2010Prop39
140
1.0
102
RTVSPost2010PropOp39
 70
     1
102
RTVSPost2010Prop40
 90
        0
102
RTVSPost2010PropOp40
 70
     1
102
RTVSPost2010Prop41ColorIndex
 90
       18
102
RTVSPost2010Prop41ColorRGB
 90
        0
102
RTVSPost2010PropOp41
 70
     1
102
RTVSPost2010Prop42
 90
       50
102
RTVSPost2010PropOp42
 70
     1
102
RTVSPost2010Prop43
 90
        3
102
RTVSPost2010PropOp43
 70
     1
102
RTVSPost2010Prop44ColorIndex
 90
        5
102
RTVSPost2010Prop44ColorRGB
 90
      255
102
RTVSPost2010PropOp44
 70
     1
102
RTVSPost2010Prop45
280
     0
102
RTVSPost2010PropOp45
 70
     1
102
RTVSPost2010Prop46
 90
       50
102
RTVSPost2010PropOp46
 70
     1
102
RTVSPost2010Prop47
 90
       50
102
RTVSPost2010PropOp47
 70
     1
102
RTVSPost2010Prop48
 90
       50
102
RTVSPost2010PropOp48
 70
     1
102
RTVSPost2010Prop49
280
     0
102
RTVSPost2010PropOp49
 70
     1
102
RTVSPost2010Prop50
 90
       50
102
RTVSPost2010PropOp50
 70
     1
102
RTVSPost2010Prop51ColorIndex
 90
      256
102
RTVSPost2010Prop51ColorRGB
 90
-16777216
102
RTVSPost2010PropOp51
 70
     0
102
RTVSPost2010Prop52
140
1.0
102
RTVSPost2010PropOp52
 70
     0
102
RTVSPost2010Prop53
 90
        2
102
RTVSPost2010PropOp53
 70
     1
102
RTVSPost2010Prop54
  1
strokes_ogs.tif
102
RTVSPost2010PropOp54
 70
     1
102
RTVSPost2010Prop55
280
     0
102
RTVSPost2010PropOp55
 70
     1
102
RTVSPost2010Prop56
140
1.0
102
RTVSPost2010PropOp56
 70
     1
102
RTVSPost2010Prop57
140
1.0
102
RTVSPost2010PropOp57
 70
     1
102
RTVSPropertyOp0
 70
     1
102
RTVSPropertyOp1
 70
     1
102
RTVSPropertyOp2
 70
     1
102
RTVSPropertyOp3
 70
     1
102
RTVSPropertyOp4
 70
     1
102
RTVSPropertyOp5
 70
     1
102
RTVSPropertyOp6
 70
     1
102
RTVSPropertyOp7
 70
     1
102
RTVSPropertyOp8
 70
     1
102
RTVSPropertyOp9
 70
     1
102
RTVSPropertyOp10
 70
     1
102
RTVSPropertyOp11
 70
     1
102
RTVSPropertyOp12
 70
     1
102
RTVSPropertyOp13
 70
     1
102
RTVSPropertyOp14
 70
     1
102
RTVSPropertyOp15
 70
     1
102
RTVSPropertyOp16
 70
     1
102
RTVSPropertyOp17
 70
     1
102
RTVSPropertyOp18
 70
     1
102
RTVSPropertyOp19
 70
     1
102
RTVSPropertyOp20
 70
     1
102
RTVSPropertyOp21
 70
     1
102
RTVSPropertyOp22
 70
     1
102
RTVSPropertyOp23
 70
     1
102
RTVSPropertyOp24
 70
     1
102
RTVSPropertyOp25
 70
     1
102
RTVSPropertyOp26
 70
     1
102
RTVSPropertyOp27
 70
     1
102
RTVSPropertyOp28
 70
     1
102
RTVSPropertyOp29
 70
     1
102
RTVSPropertyOp30
 70
     1
102
RTVSPropertyOp31
 70
     1
102
RTVSPropertyOp32
 70
     1
102
RTVSPropertyOp33
 70
     1
102
RTVSPropertyOp34
 70
     1
102
RTVSPropertyOp35
 70
     1
102
RTVSPropertyOp36
 70
     1
102
RTVSPropertyOp37
 70
     1
102
RTVSPropertyOp38
 70
     1
102
RTVSPropertyOp39
 70
     1
102
RTVSPropertyOp40
 70
     1
102
RTVSPropertyOp41
 70
     1
102
RTVSPropertyOp42
 70
     1
102
RTVSPropertyOp43
 70
     1
102
RTVSPropertyOp44
 70
     1
102
RTVSPropertyOp45
 70
     1
102
RTVSPropertyOp46
 70
     1
102
RTVSPropertyOp47
 70
     1
102
RTVSPropertyOp48
 70
     1
102
RTVSPropertyOp49
 70
     1
102
RTVSPropertyOp50
 70
     1
102
RTVSPropertyOp51
 70
     0
102
RTVSPropertyOp52
 70
     0
102
RTVSPropertyOp53
 70
     1
102
RTVSPropertyOp54
 70
     1
102
RTVSPropertyOp55
 70
     1
102
RTVSPropertyOp56
 70
     1
102
RTVSPropertyOp57
 70
     1
102
RTVSPropertyOp58
 70
     1
102
RTVSPropertyOp59
 70
     1
102
RTVSPropertyOp60
 70
     1
102
RTVSPropertyOp61
 70
     1
102
RTVSPropertyOp62
 70
     1
  0
XRECORD
  5
29E0F
102
{ACAD_REACTORS
330
29E0E
102
}
330
29E0E
100
AcDbXrecord
280
     1
102
RTVSPost2010Prop28
280
     0
102
RTVSPost2010PropOp28
 70
     1
102
RTVSPost2010Prop29
280
     1
102
RTVSPost2010PropOp29
 70
     1
102
RTVSPost2010Prop30
280
     1
102
RTVSPost2010PropOp30
 70
     1
102
RTVSPost2010Prop31
280
     0
102
RTVSPost2010PropOp31
 70
     1
102
RTVSPost2010Prop32
280
     0
102
RTVSPost2010PropOp32
 70
     1
102
RTVSPost2010Prop33
280
     0
102
RTVSPost2010PropOp33
 70
     1
102
RTVSPost2010Prop34
280
     0
102
RTVSPost2010PropOp34
 70
     1
102
RTVSPost2010Prop35
280
     0
102
RTVSPost2010PropOp35
 70
     1
102
RTVSPost2010Prop36
280
     0
102
RTVSPost2010PropOp36
 70
     1
102
RTVSPost2010Prop37
 90
       50
102
RTVSPost2010PropOp37
 70
     1
102
RTVSPost2010Prop38
140
0.0
102
RTVSPost2010PropOp38
 70
     1
102
RTVSPost2010Prop39
140
1.0
102
RTVSPost2010PropOp39
 70
     1
102
RTVSPost2010Prop40
 90
        0
102
RTVSPost2010PropOp40
 70
     1
102
RTVSPost2010Prop41ColorIndex
 90
       18
102
RTVSPost2010Prop41ColorRGB
 90
        0
102
RTVSPost2010PropOp41
 70
     1
102
RTVSPost2010Prop42
 90
       50
102
RTVSPost2010PropOp42
 70
     1
102
RTVSPost2010Prop43
 90
        3
102
RTVSPost2010PropOp43
 70
     1
102
RTVSPost2010Prop44ColorIndex
 90
        5
102
RTVSPost2010Prop44ColorRGB
 90
      255
102
RTVSPost2010PropOp44
 70
     1
102
RTVSPost2010Prop45
280
     0
102
RTVSPost2010PropOp45
 70
     1
102
RTVSPost2010Prop46
 90
       50
102
RTVSPost2010PropOp46
 70
     1
102
RTVSPost2010Prop47
 90
       50
102
RTVSPost2010PropOp47
 70
     1
102
RTVSPost2010Prop48
 90
       50
102
RTVSPost2010PropOp48
 70
     1
102
RTVSPost2010Prop49
280
     0
102
RTVSPost2010PropOp49
 70
     1
102
RTVSPost2010Prop50
 90
       50
102
RTVSPost2010PropOp50
 70
     1
102
RTVSPost2010Prop51ColorIndex
 90
      256
102
RTVSPost2010Prop51ColorRGB
 90
-16777216
102
RTVSPost2010PropOp51
 70
     0
102
RTVSPost2010Prop52
140
1.0
102
RTVSPost2010PropOp52
 70
     0
102
RTVSPost2010Prop53
 90
        2
102
RTVSPost2010PropOp53
 70
     1
102
RTVSPost2010Prop54
  1
strokes_ogs.tif
102
RTVSPost2010PropOp54
 70
     1
102
RTVSPost2010Prop55
280
     0
102
RTVSPost2010PropOp55
 70
     1
102
RTVSPost2010Prop56
140
1.0
102
RTVSPost2010PropOp56
 70
     1
102
RTVSPost2010Prop57
140
1.0
102
RTVSPost2010PropOp57
 70
     1
102
RTVSPropertyOp0
 70
     1
102
RTVSPropertyOp1
 70
     1
102
RTVSPropertyOp2
 70
     1
102
RTVSPropertyOp3
 70
     1
102
RTVSPropertyOp4
 70
     1
102
RTVSPropertyOp5
 70
     1
102
RTVSPropertyOp6
 70
     1
102
RTVSPropertyOp7
 70
     1
102
RTVSPropertyOp8
 70
     1
102
RTVSPropertyOp9
 70
     1
102
RTVSPropertyOp10
 70
     1
102
RTVSPropertyOp11
 70
     1
102
RTVSPropertyOp12
 70
     1
102
RTVSPropertyOp13
 70
     1
102
RTVSPropertyOp14
 70
     1
102
RTVSPropertyOp15
 70
     1
102
RTVSPropertyOp16
 70
     1
102
RTVSPropertyOp17
 70
     1
102
RTVSPropertyOp18
 70
     1
102
RTVSPropertyOp19
 70
     1
102
RTVSPropertyOp20
 70
     1
102
RTVSPropertyOp21
 70
     1
102
RTVSPropertyOp22
 70
     1
102
RTVSPropertyOp23
 70
     1
102
RTVSPropertyOp24
 70
     1
102
RTVSPropertyOp25
 70
     1
102
RTVSPropertyOp26
 70
     1
102
RTVSPropertyOp27
 70
     1
102
RTVSPropertyOp28
 70
     1
102
RTVSPropertyOp29
 70
     1
102
RTVSPropertyOp30
 70
     1
102
RTVSPropertyOp31
 70
     1
102
RTVSPropertyOp32
 70
     1
102
RTVSPropertyOp33
 70
     1
102
RTVSPropertyOp34
 70
     1
102
RTVSPropertyOp35
 70
     1
102
RTVSPropertyOp36
 70
     1
102
RTVSPropertyOp37
 70
     1
102
RTVSPropertyOp38
 70
     1
102
RTVSPropertyOp39
 70
     1
102
RTVSPropertyOp40
 70
     1
102
RTVSPropertyOp41
 70
     1
102
RTVSPropertyOp42
 70
     1
102
RTVSPropertyOp43
 70
     1
102
RTVSPropertyOp44
 70
     1
102
RTVSPropertyOp45
 70
     1
102
RTVSPropertyOp46
 70
     1
102
RTVSPropertyOp47
 70
     1
102
RTVSPropertyOp48
 70
     1
102
RTVSPropertyOp49
 70
     1
102
RTVSPropertyOp50
 70
     1
102
RTVSPropertyOp51
 70
     0
102
RTVSPropertyOp52
 70
     0
102
RTVSPropertyOp53
 70
     1
102
RTVSPropertyOp54
 70
     1
102
RTVSPropertyOp55
 70
     1
102
RTVSPropertyOp56
 70
     1
102
RTVSPropertyOp57
 70
     1
102
RTVSPropertyOp58
 70
     1
102
RTVSPropertyOp59
 70
     1
102
RTVSPropertyOp60
 70
     1
102
RTVSPropertyOp61
 70
     1
102
RTVSPropertyOp62
 70
     1
  0
XRECORD
  5
29E1D
102
{ACAD_REACTORS
330
29E1C
102
}
330
29E1C
100
AcDbXrecord
280
     1
102
RTVSPost2010Prop28
280
     0
102
RTVSPost2010PropOp28
 70
     1
102
RTVSPost2010Prop29
280
     1
102
RTVSPost2010PropOp29
 70
     1
102
RTVSPost2010Prop30
280
     1
102
RTVSPost2010PropOp30
 70
     1
102
RTVSPost2010Prop31
280
     0
102
RTVSPost2010PropOp31
 70
     1
102
RTVSPost2010Prop32
280
     0
102
RTVSPost2010PropOp32
 70
     1
102
RTVSPost2010Prop33
280
     0
102
RTVSPost2010PropOp33
 70
     1
102
RTVSPost2010Prop34
280
     0
102
RTVSPost2010PropOp34
 70
     1
102
RTVSPost2010Prop35
280
     0
102
RTVSPost2010PropOp35
 70
     1
102
RTVSPost2010Prop36
280
     0
102
RTVSPost2010PropOp36
 70
     1
102
RTVSPost2010Prop37
 90
       50
102
RTVSPost2010PropOp37
 70
     1
102
RTVSPost2010Prop38
140
0.0
102
RTVSPost2010PropOp38
 70
     1
102
RTVSPost2010Prop39
140
1.0
102
RTVSPost2010PropOp39
 70
     1
102
RTVSPost2010Prop40
 90
        0
102
RTVSPost2010PropOp40
 70
     1
102
RTVSPost2010Prop41ColorIndex
 90
       18
102
RTVSPost2010Prop41ColorRGB
 90
        0
102
RTVSPost2010PropOp41
 70
     1
102
RTVSPost2010Prop42
 90
       50
102
RTVSPost2010PropOp42
 70
     1
102
RTVSPost2010Prop43
 90
        3
102
RTVSPost2010PropOp43
 70
     1
102
RTVSPost2010Prop44ColorIndex
 90
        5
102
RTVSPost2010Prop44ColorRGB
 90
      255
102
RTVSPost2010PropOp44
 70
     1
102
RTVSPost2010Prop45
280
     0
102
RTVSPost2010PropOp45
 70
     1
102
RTVSPost2010Prop46
 90
       50
102
RTVSPost2010PropOp46
 70
     1
102
RTVSPost2010Prop47
 90
       50
102
RTVSPost2010PropOp47
 70
     1
102
RTVSPost2010Prop48
 90
       50
102
RTVSPost2010PropOp48
 70
     1
102
RTVSPost2010Prop49
280
     0
102
RTVSPost2010PropOp49
 70
     1
102
RTVSPost2010Prop50
 90
       50
102
RTVSPost2010PropOp50
 70
     1
102
RTVSPost2010Prop51ColorIndex
 90
      256
102
RTVSPost2010Prop51ColorRGB
 90
-16777216
102
RTVSPost2010PropOp51
 70
     0
102
RTVSPost2010Prop52
140
1.0
102
RTVSPost2010PropOp52
 70
     0
102
RTVSPost2010Prop53
 90
        2
102
RTVSPost2010PropOp53
 70
     1
102
RTVSPost2010Prop54
  1
strokes_ogs.tif
102
RTVSPost2010PropOp54
 70
     1
102
RTVSPost2010Prop55
280
     0
102
RTVSPost2010PropOp55
 70
     1
102
RTVSPost2010Prop56
140
1.0
102
RTVSPost2010PropOp56
 70
     1
102
RTVSPost2010Prop57
140
1.0
102
RTVSPost2010PropOp57
 70
     1
102
RTVSPropertyOp0
 70
     1
102
RTVSPropertyOp1
 70
     1
102
RTVSPropertyOp2
 70
     1
102
RTVSPropertyOp3
 70
     1
102
RTVSPropertyOp4
 70
     1
102
RTVSPropertyOp5
 70
     1
102
RTVSPropertyOp6
 70
     1
102
RTVSPropertyOp7
 70
     1
102
RTVSPropertyOp8
 70
     1
102
RTVSPropertyOp9
 70
     1
102
RTVSPropertyOp10
 70
     1
102
RTVSPropertyOp11
 70
     1
102
RTVSPropertyOp12
 70
     1
102
RTVSPropertyOp13
 70
     1
102
RTVSPropertyOp14
 70
     1
102
RTVSPropertyOp15
 70
     1
102
RTVSPropertyOp16
 70
     1
102
RTVSPropertyOp17
 70
     1
102
RTVSPropertyOp18
 70
     1
102
RTVSPropertyOp19
 70
     1
102
RTVSPropertyOp20
 70
     1
102
RTVSPropertyOp21
 70
     1
102
RTVSPropertyOp22
 70
     1
102
RTVSPropertyOp23
 70
     1
102
RTVSPropertyOp24
 70
     1
102
RTVSPropertyOp25
 70
     1
102
RTVSPropertyOp26
 70
     1
102
RTVSPropertyOp27
 70
     1
102
RTVSPropertyOp28
 70
     1
102
RTVSPropertyOp29
 70
     1
102
RTVSPropertyOp30
 70
     1
102
RTVSPropertyOp31
 70
     1
102
RTVSPropertyOp32
 70
     1
102
RTVSPropertyOp33
 70
     1
102
RTVSPropertyOp34
 70
     1
102
RTVSPropertyOp35
 70
     1
102
RTVSPropertyOp36
 70
     1
102
RTVSPropertyOp37
 70
     1
102
RTVSPropertyOp38
 70
     1
102
RTVSPropertyOp39
 70
     1
102
RTVSPropertyOp40
 70
     1
102
RTVSPropertyOp41
 70
     1
102
RTVSPropertyOp42
 70
     1
102
RTVSPropertyOp43
 70
     1
102
RTVSPropertyOp44
 70
     1
102
RTVSPropertyOp45
 70
     1
102
RTVSPropertyOp46
 70
     1
102
RTVSPropertyOp47
 70
     1
102
RTVSPropertyOp48
 70
     1
102
RTVSPropertyOp49
 70
     1
102
RTVSPropertyOp50
 70
     1
102
RTVSPropertyOp51
 70
     0
102
RTVSPropertyOp52
 70
     0
102
RTVSPropertyOp53
 70
     1
102
RTVSPropertyOp54
 70
     1
102
RTVSPropertyOp55
 70
     1
102
RTVSPropertyOp56
 70
     1
102
RTVSPropertyOp57
 70
     1
102
RTVSPropertyOp58
 70
     1
102
RTVSPropertyOp59
 70
     1
102
RTVSPropertyOp60
 70
     1
102
RTVSPropertyOp61
 70
     1
102
RTVSPropertyOp62
 70
     1
  0
XRECORD
  5
29E25
102
{ACAD_REACTORS
330
29E24
102
}
330
29E24
100
AcDbXrecord
280
     1
102
RTVSPost2010Prop28
280
     0
102
RTVSPost2010PropOp28
 70
     1
102
RTVSPost2010Prop29
280
     1
102
RTVSPost2010PropOp29
 70
     1
102
RTVSPost2010Prop30
280
     1
102
RTVSPost2010PropOp30
 70
     1
102
RTVSPost2010Prop31
280
     0
102
RTVSPost2010PropOp31
 70
     1
102
RTVSPost2010Prop32
280
     0
102
RTVSPost2010PropOp32
 70
     1
102
RTVSPost2010Prop33
280
     0
102
RTVSPost2010PropOp33
 70
     1
102
RTVSPost2010Prop34
280
     0
102
RTVSPost2010PropOp34
 70
     1
102
RTVSPost2010Prop35
280
     0
102
RTVSPost2010PropOp35
 70
     1
102
RTVSPost2010Prop36
280
     0
102
RTVSPost2010PropOp36
 70
     1
102
RTVSPost2010Prop37
 90
       50
102
RTVSPost2010PropOp37
 70
     1
102
RTVSPost2010Prop38
140
0.0
102
RTVSPost2010PropOp38
 70
     1
102
RTVSPost2010Prop39
140
1.0
102
RTVSPost2010PropOp39
 70
     1
102
RTVSPost2010Prop40
 90
        0
102
RTVSPost2010PropOp40
 70
     1
102
RTVSPost2010Prop41ColorIndex
 90
       18
102
RTVSPost2010Prop41ColorRGB
 90
        0
102
RTVSPost2010PropOp41
 70
     1
102
RTVSPost2010Prop42
 90
       50
102
RTVSPost2010PropOp42
 70
     1
102
RTVSPost2010Prop43
 90
        3
102
RTVSPost2010PropOp43
 70
     1
102
RTVSPost2010Prop44ColorIndex
 90
        5
102
RTVSPost2010Prop44ColorRGB
 90
      255
102
RTVSPost2010PropOp44
 70
     1
102
RTVSPost2010Prop45
280
     0
102
RTVSPost2010PropOp45
 70
     1
102
RTVSPost2010Prop46
 90
       50
102
RTVSPost2010PropOp46
 70
     1
102
RTVSPost2010Prop47
 90
       50
102
RTVSPost2010PropOp47
 70
     1
102
RTVSPost2010Prop48
 90
       50
102
RTVSPost2010PropOp48
 70
     1
102
RTVSPost2010Prop49
280
     0
102
RTVSPost2010PropOp49
 70
     1
102
RTVSPost2010Prop50
 90
       50
102
RTVSPost2010PropOp50
 70
     1
102
RTVSPost2010Prop51ColorIndex
 90
      256
102
RTVSPost2010Prop51ColorRGB
 90
-16777216
102
RTVSPost2010PropOp51
 70
     0
102
RTVSPost2010Prop52
140
1.0
102
RTVSPost2010PropOp52
 70
     0
102
RTVSPost2010Prop53
 90
        2
102
RTVSPost2010PropOp53
 70
     1
102
RTVSPost2010Prop54
  1
strokes_ogs.tif
102
RTVSPost2010PropOp54
 70
     1
102
RTVSPost2010Prop55
280
     0
102
RTVSPost2010PropOp55
 70
     1
102
RTVSPost2010Prop56
140
1.0
102
RTVSPost2010PropOp56
 70
     1
102
RTVSPost2010Prop57
140
1.0
102
RTVSPost2010PropOp57
 70
     1
102
RTVSPropertyOp0
 70
     1
102
RTVSPropertyOp1
 70
     1
102
RTVSPropertyOp2
 70
     1
102
RTVSPropertyOp3
 70
     1
102
RTVSPropertyOp4
 70
     1
102
RTVSPropertyOp5
 70
     1
102
RTVSPropertyOp6
 70
     1
102
RTVSPropertyOp7
 70
     1
102
RTVSPropertyOp8
 70
     1
102
RTVSPropertyOp9
 70
     1
102
RTVSPropertyOp10
 70
     1
102
RTVSPropertyOp11
 70
     1
102
RTVSPropertyOp12
 70
     1
102
RTVSPropertyOp13
 70
     1
102
RTVSPropertyOp14
 70
     1
102
RTVSPropertyOp15
 70
     1
102
RTVSPropertyOp16
 70
     1
102
RTVSPropertyOp17
 70
     1
102
RTVSPropertyOp18
 70
     1
102
RTVSPropertyOp19
 70
     1
102
RTVSPropertyOp20
 70
     1
102
RTVSPropertyOp21
 70
     1
102
RTVSPropertyOp22
 70
     1
102
RTVSPropertyOp23
 70
     1
102
RTVSPropertyOp24
 70
     1
102
RTVSPropertyOp25
 70
     1
102
RTVSPropertyOp26
 70
     1
102
RTVSPropertyOp27
 70
     1
102
RTVSPropertyOp28
 70
     1
102
RTVSPropertyOp29
 70
     1
102
RTVSPropertyOp30
 70
     1
102
RTVSPropertyOp31
 70
     1
102
RTVSPropertyOp32
 70
     1
102
RTVSPropertyOp33
 70
     1
102
RTVSPropertyOp34
 70
     1
102
RTVSPropertyOp35
 70
     1
102
RTVSPropertyOp36
 70
     1
102
RTVSPropertyOp37
 70
     1
102
RTVSPropertyOp38
 70
     1
102
RTVSPropertyOp39
 70
     1
102
RTVSPropertyOp40
 70
     1
102
RTVSPropertyOp41
 70
     1
102
RTVSPropertyOp42
 70
     1
102
RTVSPropertyOp43
 70
     1
102
RTVSPropertyOp44
 70
     1
102
RTVSPropertyOp45
 70
     1
102
RTVSPropertyOp46
 70
     1
102
RTVSPropertyOp47
 70
     1
102
RTVSPropertyOp48
 70
     1
102
RTVSPropertyOp49
 70
     1
102
RTVSPropertyOp50
 70
     1
102
RTVSPropertyOp51
 70
     0
102
RTVSPropertyOp52
 70
     0
102
RTVSPropertyOp53
 70
     1
102
RTVSPropertyOp54
 70
     1
102
RTVSPropertyOp55
 70
     1
102
RTVSPropertyOp56
 70
     1
102
RTVSPropertyOp57
 70
     1
102
RTVSPropertyOp58
 70
     1
102
RTVSPropertyOp59
 70
     1
102
RTVSPropertyOp60
 70
     1
102
RTVSPropertyOp61
 70
     1
102
RTVSPropertyOp62
 70
     1
  0
XRECORD
  5
29E17
102
{ACAD_REACTORS
330
29E16
102
}
330
29E16
100
AcDbXrecord
280
     1
102
RTVSPost2010Prop28
280
     0
102
RTVSPost2010PropOp28
 70
     1
102
RTVSPost2010Prop29
280
     1
102
RTVSPost2010PropOp29
 70
     1
102
RTVSPost2010Prop30
280
     1
102
RTVSPost2010PropOp30
 70
     1
102
RTVSPost2010Prop31
280
     0
102
RTVSPost2010PropOp31
 70
     1
102
RTVSPost2010Prop32
280
     0
102
RTVSPost2010PropOp32
 70
     1
102
RTVSPost2010Prop33
280
     0
102
RTVSPost2010PropOp33
 70
     1
102
RTVSPost2010Prop34
280
     0
102
RTVSPost2010PropOp34
 70
     1
102
RTVSPost2010Prop35
280
     0
102
RTVSPost2010PropOp35
 70
     1
102
RTVSPost2010Prop36
280
     0
102
RTVSPost2010PropOp36
 70
     1
102
RTVSPost2010Prop37
 90
       50
102
RTVSPost2010PropOp37
 70
     1
102
RTVSPost2010Prop38
140
0.0
102
RTVSPost2010PropOp38
 70
     1
102
RTVSPost2010Prop39
140
1.0
102
RTVSPost2010PropOp39
 70
     1
102
RTVSPost2010Prop40
 90
        0
102
RTVSPost2010PropOp40
 70
     1
102
RTVSPost2010Prop41ColorIndex
 90
       18
102
RTVSPost2010Prop41ColorRGB
 90
        0
102
RTVSPost2010PropOp41
 70
     1
102
RTVSPost2010Prop42
 90
       50
102
RTVSPost2010PropOp42
 70
     1
102
RTVSPost2010Prop43
 90
        3
102
RTVSPost2010PropOp43
 70
     1
102
RTVSPost2010Prop44ColorIndex
 90
        5
102
RTVSPost2010Prop44ColorRGB
 90
      255
102
RTVSPost2010PropOp44
 70
     1
102
RTVSPost2010Prop45
280
     0
102
RTVSPost2010PropOp45
 70
     1
102
RTVSPost2010Prop46
 90
       50
102
RTVSPost2010PropOp46
 70
     1
102
RTVSPost2010Prop47
 90
       50
102
RTVSPost2010PropOp47
 70
     1
102
RTVSPost2010Prop48
 90
       50
102
RTVSPost2010PropOp48
 70
     1
102
RTVSPost2010Prop49
280
     0
102
RTVSPost2010PropOp49
 70
     1
102
RTVSPost2010Prop50
 90
       50
102
RTVSPost2010PropOp50
 70
     1
102
RTVSPost2010Prop51ColorIndex
 90
      256
102
RTVSPost2010Prop51ColorRGB
 90
-16777216
102
RTVSPost2010PropOp51
 70
     0
102
RTVSPost2010Prop52
140
1.0
102
RTVSPost2010PropOp52
 70
     0
102
RTVSPost2010Prop53
 90
        2
102
RTVSPost2010PropOp53
 70
     1
102
RTVSPost2010Prop54
  1
strokes_ogs.tif
102
RTVSPost2010PropOp54
 70
     1
102
RTVSPost2010Prop55
280
     0
102
RTVSPost2010PropOp55
 70
     1
102
RTVSPost2010Prop56
140
1.0
102
RTVSPost2010PropOp56
 70
     1
102
RTVSPost2010Prop57
140
1.0
102
RTVSPost2010PropOp57
 70
     1
102
RTVSPropertyOp0
 70
     1
102
RTVSPropertyOp1
 70
     1
102
RTVSPropertyOp2
 70
     1
102
RTVSPropertyOp3
 70
     1
102
RTVSPropertyOp4
 70
     1
102
RTVSPropertyOp5
 70
     1
102
RTVSPropertyOp6
 70
     1
102
RTVSPropertyOp7
 70
     1
102
RTVSPropertyOp8
 70
     1
102
RTVSPropertyOp9
 70
     1
102
RTVSPropertyOp10
 70
     1
102
RTVSPropertyOp11
 70
     1
102
RTVSPropertyOp12
 70
     1
102
RTVSPropertyOp13
 70
     1
102
RTVSPropertyOp14
 70
     1
102
RTVSPropertyOp15
 70
     1
102
RTVSPropertyOp16
 70
     1
102
RTVSPropertyOp17
 70
     1
102
RTVSPropertyOp18
 70
     1
102
RTVSPropertyOp19
 70
     1
102
RTVSPropertyOp20
 70
     1
102
RTVSPropertyOp21
 70
     1
102
RTVSPropertyOp22
 70
     1
102
RTVSPropertyOp23
 70
     1
102
RTVSPropertyOp24
 70
     1
102
RTVSPropertyOp25
 70
     1
102
RTVSPropertyOp26
 70
     1
102
RTVSPropertyOp27
 70
     1
102
RTVSPropertyOp28
 70
     1
102
RTVSPropertyOp29
 70
     1
102
RTVSPropertyOp30
 70
     1
102
RTVSPropertyOp31
 70
     1
102
RTVSPropertyOp32
 70
     1
102
RTVSPropertyOp33
 70
     1
102
RTVSPropertyOp34
 70
     1
102
RTVSPropertyOp35
 70
     1
102
RTVSPropertyOp36
 70
     1
102
RTVSPropertyOp37
 70
     1
102
RTVSPropertyOp38
 70
     1
102
RTVSPropertyOp39
 70
     1
102
RTVSPropertyOp40
 70
     1
102
RTVSPropertyOp41
 70
     1
102
RTVSPropertyOp42
 70
     1
102
RTVSPropertyOp43
 70
     1
102
RTVSPropertyOp44
 70
     1
102
RTVSPropertyOp45
 70
     1
102
RTVSPropertyOp46
 70
     1
102
RTVSPropertyOp47
 70
     1
102
RTVSPropertyOp48
 70
     1
102
RTVSPropertyOp49
 70
     1
102
RTVSPropertyOp50
 70
     1
102
RTVSPropertyOp51
 70
     0
102
RTVSPropertyOp52
 70
     0
102
RTVSPropertyOp53
 70
     1
102
RTVSPropertyOp54
 70
     1
102
RTVSPropertyOp55
 70
     1
102
RTVSPropertyOp56
 70
     1
102
RTVSPropertyOp57
 70
     1
102
RTVSPropertyOp58
 70
     1
102
RTVSPropertyOp59
 70
     1
102
RTVSPropertyOp60
 70
     1
102
RTVSPropertyOp61
 70
     1
102
RTVSPropertyOp62
 70
     1
  0
XRECORD
  5
29E1B
102
{ACAD_REACTORS
330
29E1A
102
}
330
29E1A
100
AcDbXrecord
280
     1
102
RTVSPost2010Prop28
280
     0
102
RTVSPost2010PropOp28
 70
     1
102
RTVSPost2010Prop29
280
     1
102
RTVSPost2010PropOp29
 70
     1
102
RTVSPost2010Prop30
280
     1
102
RTVSPost2010PropOp30
 70
     1
102
RTVSPost2010Prop31
280
     0
102
RTVSPost2010PropOp31
 70
     1
102
RTVSPost2010Prop32
280
     0
102
RTVSPost2010PropOp32
 70
     1
102
RTVSPost2010Prop33
280
     0
102
RTVSPost2010PropOp33
 70
     1
102
RTVSPost2010Prop34
280
     0
102
RTVSPost2010PropOp34
 70
     1
102
RTVSPost2010Prop35
280
     0
102
RTVSPost2010PropOp35
 70
     1
102
RTVSPost2010Prop36
280
     0
102
RTVSPost2010PropOp36
 70
     1
102
RTVSPost2010Prop37
 90
       50
102
RTVSPost2010PropOp37
 70
     1
102
RTVSPost2010Prop38
140
0.0
102
RTVSPost2010PropOp38
 70
     1
102
RTVSPost2010Prop39
140
1.0
102
RTVSPost2010PropOp39
 70
     1
102
RTVSPost2010Prop40
 90
        0
102
RTVSPost2010PropOp40
 70
     1
102
RTVSPost2010Prop41ColorIndex
 90
       18
102
RTVSPost2010Prop41ColorRGB
 90
        0
102
RTVSPost2010PropOp41
 70
     1
102
RTVSPost2010Prop42
 90
       50
102
RTVSPost2010PropOp42
 70
     1
102
RTVSPost2010Prop43
 90
        3
102
RTVSPost2010PropOp43
 70
     1
102
RTVSPost2010Prop44ColorIndex
 90
        5
102
RTVSPost2010Prop44ColorRGB
 90
      255
102
RTVSPost2010PropOp44
 70
     1
102
RTVSPost2010Prop45
280
     0
102
RTVSPost2010PropOp45
 70
     1
102
RTVSPost2010Prop46
 90
       50
102
RTVSPost2010PropOp46
 70
     1
102
RTVSPost2010Prop47
 90
       50
102
RTVSPost2010PropOp47
 70
     1
102
RTVSPost2010Prop48
 90
       50
102
RTVSPost2010PropOp48
 70
     1
102
RTVSPost2010Prop49
280
     0
102
RTVSPost2010PropOp49
 70
     1
102
RTVSPost2010Prop50
 90
       50
102
RTVSPost2010PropOp50
 70
     1
102
RTVSPost2010Prop51ColorIndex
 90
      256
102
RTVSPost2010Prop51ColorRGB
 90
-16777216
102
RTVSPost2010PropOp51
 70
     0
102
RTVSPost2010Prop52
140
1.0
102
RTVSPost2010PropOp52
 70
     0
102
RTVSPost2010Prop53
 90
        2
102
RTVSPost2010PropOp53
 70
     1
102
RTVSPost2010Prop54
  1
strokes_ogs.tif
102
RTVSPost2010PropOp54
 70
     1
102
RTVSPost2010Prop55
280
     0
102
RTVSPost2010PropOp55
 70
     1
102
RTVSPost2010Prop56
140
1.0
102
RTVSPost2010PropOp56
 70
     1
102
RTVSPost2010Prop57
140
1.0
102
RTVSPost2010PropOp57
 70
     1
102
RTVSPropertyOp0
 70
     1
102
RTVSPropertyOp1
 70
     1
102
RTVSPropertyOp2
 70
     1
102
RTVSPropertyOp3
 70
     1
102
RTVSPropertyOp4
 70
     1
102
RTVSPropertyOp5
 70
     1
102
RTVSPropertyOp6
 70
     1
102
RTVSPropertyOp7
 70
     1
102
RTVSPropertyOp8
 70
     1
102
RTVSPropertyOp9
 70
     1
102
RTVSPropertyOp10
 70
     1
102
RTVSPropertyOp11
 70
     1
102
RTVSPropertyOp12
 70
     1
102
RTVSPropertyOp13
 70
     1
102
RTVSPropertyOp14
 70
     1
102
RTVSPropertyOp15
 70
     1
102
RTVSPropertyOp16
 70
     1
102
RTVSPropertyOp17
 70
     1
102
RTVSPropertyOp18
 70
     1
102
RTVSPropertyOp19
 70
     1
102
RTVSPropertyOp20
 70
     1
102
RTVSPropertyOp21
 70
     1
102
RTVSPropertyOp22
 70
     1
102
RTVSPropertyOp23
 70
     1
102
RTVSPropertyOp24
 70
     1
102
RTVSPropertyOp25
 70
     1
102
RTVSPropertyOp26
 70
     1
102
RTVSPropertyOp27
 70
     1
102
RTVSPropertyOp28
 70
     1
102
RTVSPropertyOp29
 70
     1
102
RTVSPropertyOp30
 70
     1
102
RTVSPropertyOp31
 70
     1
102
RTVSPropertyOp32
 70
     1
102
RTVSPropertyOp33
 70
     1
102
RTVSPropertyOp34
 70
     1
102
RTVSPropertyOp35
 70
     1
102
RTVSPropertyOp36
 70
     1
102
RTVSPropertyOp37
 70
     1
102
RTVSPropertyOp38
 70
     1
102
RTVSPropertyOp39
 70
     1
102
RTVSPropertyOp40
 70
     1
102
RTVSPropertyOp41
 70
     1
102
RTVSPropertyOp42
 70
     1
102
RTVSPropertyOp43
 70
     1
102
RTVSPropertyOp44
 70
     1
102
RTVSPropertyOp45
 70
     1
102
RTVSPropertyOp46
 70
     1
102
RTVSPropertyOp47
 70
     1
102
RTVSPropertyOp48
 70
     1
102
RTVSPropertyOp49
 70
     1
102
RTVSPropertyOp50
 70
     1
102
RTVSPropertyOp51
 70
     0
102
RTVSPropertyOp52
 70
     0
102
RTVSPropertyOp53
 70
     1
102
RTVSPropertyOp54
 70
     1
102
RTVSPropertyOp55
 70
     1
102
RTVSPropertyOp56
 70
     1
102
RTVSPropertyOp57
 70
     1
102
RTVSPropertyOp58
 70
     1
102
RTVSPropertyOp59
 70
     1
102
RTVSPropertyOp60
 70
     1
102
RTVSPropertyOp61
 70
     1
102
RTVSPropertyOp62
 70
     1
  0
XRECORD
  5
29E35
102
{ACAD_REACTORS
330
29E34
102
}
330
29E34
100
AcDbXrecord
280
     1
102
RTVSPost2010Prop28
280
     0
102
RTVSPost2010PropOp28
 70
     1
102
RTVSPost2010Prop29
280
     1
102
RTVSPost2010PropOp29
 70
     1
102
RTVSPost2010Prop30
280
     1
102
RTVSPost2010PropOp30
 70
     1
102
RTVSPost2010Prop31
280
     0
102
RTVSPost2010PropOp31
 70
     1
102
RTVSPost2010Prop32
280
     0
102
RTVSPost2010PropOp32
 70
     1
102
RTVSPost2010Prop33
280
     0
102
RTVSPost2010PropOp33
 70
     1
102
RTVSPost2010Prop34
280
     0
102
RTVSPost2010PropOp34
 70
     1
102
RTVSPost2010Prop35
280
     0
102
RTVSPost2010PropOp35
 70
     1
102
RTVSPost2010Prop36
280
     0
102
RTVSPost2010PropOp36
 70
     1
102
RTVSPost2010Prop37
 90
       50
102
RTVSPost2010PropOp37
 70
     0
102
RTVSPost2010Prop38
140
0.0
102
RTVSPost2010PropOp38
 70
     0
102
RTVSPost2010Prop39
140
1.0
102
RTVSPost2010PropOp39
 70
     0
102
RTVSPost2010Prop40
 90
        0
102
RTVSPost2010PropOp40
 70
     0
102
RTVSPost2010Prop41ColorIndex
 90
       18
102
RTVSPost2010Prop41ColorRGB
 90
        0
102
RTVSPost2010PropOp41
 70
     0
102
RTVSPost2010Prop42
 90
       50
102
RTVSPost2010PropOp42
 70
     0
102
RTVSPost2010Prop43
 90
        3
102
RTVSPost2010PropOp43
 70
     0
102
RTVSPost2010Prop44ColorIndex
 90
        5
102
RTVSPost2010Prop44ColorRGB
 90
      255
102
RTVSPost2010PropOp44
 70
     0
102
RTVSPost2010Prop45
280
     0
102
RTVSPost2010PropOp45
 70
     1
102
RTVSPost2010Prop46
 90
       50
102
RTVSPost2010PropOp46
 70
     0
102
RTVSPost2010Prop47
 90
       50
102
RTVSPost2010PropOp47
 70
     0
102
RTVSPost2010Prop48
 90
       50
102
RTVSPost2010PropOp48
 70
     0
102
RTVSPost2010Prop49
280
     0
102
RTVSPost2010PropOp49
 70
     1
102
RTVSPost2010Prop50
 90
       50
102
RTVSPost2010PropOp50
 70
     0
102
RTVSPost2010Prop51ColorIndex
 90
      256
102
RTVSPost2010Prop51ColorRGB
 90
-16777216
102
RTVSPost2010PropOp51
 70
     0
102
RTVSPost2010Prop52
140
1.0
102
RTVSPost2010PropOp52
 70
     0
102
RTVSPost2010Prop53
 90
        2
102
RTVSPost2010PropOp53
 70
     0
102
RTVSPost2010Prop54
  1
strokes_ogs.tif
102
RTVSPost2010PropOp54
 70
     0
102
RTVSPost2010Prop55
280
     0
102
RTVSPost2010PropOp55
 70
     1
102
RTVSPost2010Prop56
140
1.0
102
RTVSPost2010PropOp56
 70
     0
102
RTVSPost2010Prop57
140
1.0
102
RTVSPost2010PropOp57
 70
     0
102
RTVSPropertyOp0
 70
     0
102
RTVSPropertyOp1
 70
     0
102
RTVSPropertyOp2
 70
     0
102
RTVSPropertyOp3
 70
     0
102
RTVSPropertyOp4
 70
     0
102
RTVSPropertyOp5
 70
     0
102
RTVSPropertyOp6
 70
     0
102
RTVSPropertyOp7
 70
     0
102
RTVSPropertyOp8
 70
     0
102
RTVSPropertyOp9
 70
     0
102
RTVSPropertyOp10
 70
     0
102
RTVSPropertyOp11
 70
     0
102
RTVSPropertyOp12
 70
     0
102
RTVSPropertyOp13
 70
     0
102
RTVSPropertyOp14
 70
     2
102
RTVSPropertyOp15
 70
     0
102
RTVSPropertyOp16
 70
     0
102
RTVSPropertyOp17
 70
     0
102
RTVSPropertyOp18
 70
     0
102
RTVSPropertyOp19
 70
     0
102
RTVSPropertyOp20
 70
     0
102
RTVSPropertyOp21
 70
     0
102
RTVSPropertyOp22
 70
     0
102
RTVSPropertyOp23
 70
     0
102
RTVSPropertyOp24
 70
     0
102
RTVSPropertyOp25
 70
     0
102
RTVSPropertyOp26
 70
     0
102
RTVSPropertyOp27
 70
     0
102
RTVSPropertyOp28
 70
     1
102
RTVSPropertyOp29
 70
     1
102
RTVSPropertyOp30
 70
     1
102
RTVSPropertyOp31
 70
     1
102
RTVSPropertyOp32
 70
     1
102
RTVSPropertyOp33
 70
     1
102
RTVSPropertyOp34
 70
     1
102
RTVSPropertyOp35
 70
     1
102
RTVSPropertyOp36
 70
     1
102
RTVSPropertyOp37
 70
     0
102
RTVSPropertyOp38
 70
     0
102
RTVSPropertyOp39
 70
     0
102
RTVSPropertyOp40
 70
     0
102
RTVSPropertyOp41
 70
     0
102
RTVSPropertyOp42
 70
     0
102
RTVSPropertyOp43
 70
     0
102
RTVSPropertyOp44
 70
     0
102
RTVSPropertyOp45
 70
     1
102
RTVSPropertyOp46
 70
     0
102
RTVSPropertyOp47
 70
     0
102
RTVSPropertyOp48
 70
     0
102
RTVSPropertyOp49
 70
     1
102
RTVSPropertyOp50
 70
     0
102
RTVSPropertyOp51
 70
     0
102
RTVSPropertyOp52
 70
     0
102
RTVSPropertyOp53
 70
     0
102
RTVSPropertyOp54
 70
     0
102
RTVSPropertyOp55
 70
     1
102
RTVSPropertyOp56
 70
     0
102
RTVSPropertyOp57
 70
     0
102
RTVSPropertyOp58
 70
     0
102
RTVSPropertyOp59
 70
     0
102
RTVSPropertyOp60
 70
     0
102
RTVSPropertyOp61
 70
     0
102
RTVSPropertyOp62
 70
     0
  0
XRECORD
  5
29E23
102
{ACAD_REACTORS
330
29E22
102
}
330
29E22
100
AcDbXrecord
280
     1
102
RTVSPost2010Prop28
280
     0
102
RTVSPost2010PropOp28
 70
     1
102
RTVSPost2010Prop29
280
     1
102
RTVSPost2010PropOp29
 70
     1
102
RTVSPost2010Prop30
280
     1
102
RTVSPost2010PropOp30
 70
     1
102
RTVSPost2010Prop31
280
     0
102
RTVSPost2010PropOp31
 70
     1
102
RTVSPost2010Prop32
280
     0
102
RTVSPost2010PropOp32
 70
     1
102
RTVSPost2010Prop33
280
     0
102
RTVSPost2010PropOp33
 70
     1
102
RTVSPost2010Prop34
280
     0
102
RTVSPost2010PropOp34
 70
     1
102
RTVSPost2010Prop35
280
     0
102
RTVSPost2010PropOp35
 70
     1
102
RTVSPost2010Prop36
280
     0
102
RTVSPost2010PropOp36
 70
     1
102
RTVSPost2010Prop37
 90
       50
102
RTVSPost2010PropOp37
 70
     1
102
RTVSPost2010Prop38
140
0.0
102
RTVSPost2010PropOp38
 70
     1
102
RTVSPost2010Prop39
140
1.0
102
RTVSPost2010PropOp39
 70
     1
102
RTVSPost2010Prop40
 90
        0
102
RTVSPost2010PropOp40
 70
     1
102
RTVSPost2010Prop41ColorIndex
 90
       18
102
RTVSPost2010Prop41ColorRGB
 90
        0
102
RTVSPost2010PropOp41
 70
     1
102
RTVSPost2010Prop42
 90
       50
102
RTVSPost2010PropOp42
 70
     1
102
RTVSPost2010Prop43
 90
        3
102
RTVSPost2010PropOp43
 70
     1
102
RTVSPost2010Prop44ColorIndex
 90
        5
102
RTVSPost2010Prop44ColorRGB
 90
      255
102
RTVSPost2010PropOp44
 70
     1
102
RTVSPost2010Prop45
280
     0
102
RTVSPost2010PropOp45
 70
     1
102
RTVSPost2010Prop46
 90
       50
102
RTVSPost2010PropOp46
 70
     1
102
RTVSPost2010Prop47
 90
       50
102
RTVSPost2010PropOp47
 70
     1
102
RTVSPost2010Prop48
 90
       50
102
RTVSPost2010PropOp48
 70
     1
102
RTVSPost2010Prop49
280
     0
102
RTVSPost2010PropOp49
 70
     1
102
RTVSPost2010Prop50
 90
       50
102
RTVSPost2010PropOp50
 70
     1
102
RTVSPost2010Prop51ColorIndex
 90
      256
102
RTVSPost2010Prop51ColorRGB
 90
-16777216
102
RTVSPost2010PropOp51
 70
     0
102
RTVSPost2010Prop52
140
1.0
102
RTVSPost2010PropOp52
 70
     0
102
RTVSPost2010Prop53
 90
        2
102
RTVSPost2010PropOp53
 70
     1
102
RTVSPost2010Prop54
  1
strokes_ogs.tif
102
RTVSPost2010PropOp54
 70
     1
102
RTVSPost2010Prop55
280
     0
102
RTVSPost2010PropOp55
 70
     1
102
RTVSPost2010Prop56
140
1.0
102
RTVSPost2010PropOp56
 70
     1
102
RTVSPost2010Prop57
140
1.0
102
RTVSPost2010PropOp57
 70
     1
102
RTVSPropertyOp0
 70
     1
102
RTVSPropertyOp1
 70
     1
102
RTVSPropertyOp2
 70
     1
102
RTVSPropertyOp3
 70
     1
102
RTVSPropertyOp4
 70
     1
102
RTVSPropertyOp5
 70
     1
102
RTVSPropertyOp6
 70
     1
102
RTVSPropertyOp7
 70
     1
102
RTVSPropertyOp8
 70
     1
102
RTVSPropertyOp9
 70
     1
102
RTVSPropertyOp10
 70
     1
102
RTVSPropertyOp11
 70
     1
102
RTVSPropertyOp12
 70
     1
102
RTVSPropertyOp13
 70
     1
102
RTVSPropertyOp14
 70
     1
102
RTVSPropertyOp15
 70
     1
102
RTVSPropertyOp16
 70
     1
102
RTVSPropertyOp17
 70
     1
102
RTVSPropertyOp18
 70
     1
102
RTVSPropertyOp19
 70
     1
102
RTVSPropertyOp20
 70
     1
102
RTVSPropertyOp21
 70
     1
102
RTVSPropertyOp22
 70
     1
102
RTVSPropertyOp23
 70
     1
102
RTVSPropertyOp24
 70
     1
102
RTVSPropertyOp25
 70
     1
102
RTVSPropertyOp26
 70
     1
102
RTVSPropertyOp27
 70
     1
102
RTVSPropertyOp28
 70
     1
102
RTVSPropertyOp29
 70
     1
102
RTVSPropertyOp30
 70
     1
102
RTVSPropertyOp31
 70
     1
102
RTVSPropertyOp32
 70
     1
102
RTVSPropertyOp33
 70
     1
102
RTVSPropertyOp34
 70
     1
102
RTVSPropertyOp35
 70
     1
102
RTVSPropertyOp36
 70
     1
102
RTVSPropertyOp37
 70
     1
102
RTVSPropertyOp38
 70
     1
102
RTVSPropertyOp39
 70
     1
102
RTVSPropertyOp40
 70
     1
102
RTVSPropertyOp41
 70
     1
102
RTVSPropertyOp42
 70
     1
102
RTVSPropertyOp43
 70
     1
102
RTVSPropertyOp44
 70
     1
102
RTVSPropertyOp45
 70
     1
102
RTVSPropertyOp46
 70
     1
102
RTVSPropertyOp47
 70
     1
102
RTVSPropertyOp48
 70
     1
102
RTVSPropertyOp49
 70
     1
102
RTVSPropertyOp50
 70
     1
102
RTVSPropertyOp51
 70
     0
102
RTVSPropertyOp52
 70
     0
102
RTVSPropertyOp53
 70
     1
102
RTVSPropertyOp54
 70
     1
102
RTVSPropertyOp55
 70
     1
102
RTVSPropertyOp56
 70
     1
102
RTVSPropertyOp57
 70
     1
102
RTVSPropertyOp58
 70
     1
102
RTVSPropertyOp59
 70
     1
102
RTVSPropertyOp60
 70
     1
102
RTVSPropertyOp61
 70
     1
102
RTVSPropertyOp62
 70
     1
  0
XRECORD
  5
29E07
102
{ACAD_REACTORS
330
29E06
102
}
330
29E06
100
AcDbXrecord
280
     1
102
RTVSPost2010Prop28
280
     0
102
RTVSPost2010PropOp28
 70
     1
102
RTVSPost2010Prop29
280
     1
102
RTVSPost2010PropOp29
 70
     1
102
RTVSPost2010Prop30
280
     1
102
RTVSPost2010PropOp30
 70
     1
102
RTVSPost2010Prop31
280
     0
102
RTVSPost2010PropOp31
 70
     1
102
RTVSPost2010Prop32
280
     0
102
RTVSPost2010PropOp32
 70
     1
102
RTVSPost2010Prop33
280
     0
102
RTVSPost2010PropOp33
 70
     1
102
RTVSPost2010Prop34
280
     0
102
RTVSPost2010PropOp34
 70
     1
102
RTVSPost2010Prop35
280
     0
102
RTVSPost2010PropOp35
 70
     1
102
RTVSPost2010Prop36
280
     0
102
RTVSPost2010PropOp36
 70
     1
102
RTVSPost2010Prop37
 90
       50
102
RTVSPost2010PropOp37
 70
     1
102
RTVSPost2010Prop38
140
0.0
102
RTVSPost2010PropOp38
 70
     1
102
RTVSPost2010Prop39
140
1.0
102
RTVSPost2010PropOp39
 70
     1
102
RTVSPost2010Prop40
 90
        0
102
RTVSPost2010PropOp40
 70
     1
102
RTVSPost2010Prop41ColorIndex
 90
       18
102
RTVSPost2010Prop41ColorRGB
 90
        0
102
RTVSPost2010PropOp41
 70
     1
102
RTVSPost2010Prop42
 90
       50
102
RTVSPost2010PropOp42
 70
     1
102
RTVSPost2010Prop43
 90
        3
102
RTVSPost2010PropOp43
 70
     1
102
RTVSPost2010Prop44ColorIndex
 90
        5
102
RTVSPost2010Prop44ColorRGB
 90
      255
102
RTVSPost2010PropOp44
 70
     1
102
RTVSPost2010Prop45
280
     0
102
RTVSPost2010PropOp45
 70
     1
102
RTVSPost2010Prop46
 90
       50
102
RTVSPost2010PropOp46
 70
     1
102
RTVSPost2010Prop47
 90
       50
102
RTVSPost2010PropOp47
 70
     1
102
RTVSPost2010Prop48
 90
       50
102
RTVSPost2010PropOp48
 70
     1
102
RTVSPost2010Prop49
280
     0
102
RTVSPost2010PropOp49
 70
     1
102
RTVSPost2010Prop50
 90
       50
102
RTVSPost2010PropOp50
 70
     1
102
RTVSPost2010Prop51ColorIndex
 90
      256
102
RTVSPost2010Prop51ColorRGB
 90
-16777216
102
RTVSPost2010PropOp51
 70
     0
102
RTVSPost2010Prop52
140
1.0
102
RTVSPost2010PropOp52
 70
     0
102
RTVSPost2010Prop53
 90
        2
102
RTVSPost2010PropOp53
 70
     1
102
RTVSPost2010Prop54
  1
strokes_ogs.tif
102
RTVSPost2010PropOp54
 70
     1
102
RTVSPost2010Prop55
280
     0
102
RTVSPost2010PropOp55
 70
     1
102
RTVSPost2010Prop56
140
1.0
102
RTVSPost2010PropOp56
 70
     1
102
RTVSPost2010Prop57
140
1.0
102
RTVSPost2010PropOp57
 70
     1
102
RTVSPropertyOp0
 70
     1
102
RTVSPropertyOp1
 70
     1
102
RTVSPropertyOp2
 70
     1
102
RTVSPropertyOp3
 70
     1
102
RTVSPropertyOp4
 70
     1
102
RTVSPropertyOp5
 70
     1
102
RTVSPropertyOp6
 70
     1
102
RTVSPropertyOp7
 70
     1
102
RTVSPropertyOp8
 70
     1
102
RTVSPropertyOp9
 70
     1
102
RTVSPropertyOp10
 70
     1
102
RTVSPropertyOp11
 70
     1
102
RTVSPropertyOp12
 70
     1
102
RTVSPropertyOp13
 70
     1
102
RTVSPropertyOp14
 70
     1
102
RTVSPropertyOp15
 70
     1
102
RTVSPropertyOp16
 70
     1
102
RTVSPropertyOp17
 70
     1
102
RTVSPropertyOp18
 70
     1
102
RTVSPropertyOp19
 70
     1
102
RTVSPropertyOp20
 70
     1
102
RTVSPropertyOp21
 70
     1
102
RTVSPropertyOp22
 70
     1
102
RTVSPropertyOp23
 70
     1
102
RTVSPropertyOp24
 70
     1
102
RTVSPropertyOp25
 70
     1
102
RTVSPropertyOp26
 70
     1
102
RTVSPropertyOp27
 70
     1
102
RTVSPropertyOp28
 70
     1
102
RTVSPropertyOp29
 70
     1
102
RTVSPropertyOp30
 70
     1
102
RTVSPropertyOp31
 70
     1
102
RTVSPropertyOp32
 70
     1
102
RTVSPropertyOp33
 70
     1
102
RTVSPropertyOp34
 70
     1
102
RTVSPropertyOp35
 70
     1
102
RTVSPropertyOp36
 70
     1
102
RTVSPropertyOp37
 70
     1
102
RTVSPropertyOp38
 70
     1
102
RTVSPropertyOp39
 70
     1
102
RTVSPropertyOp40
 70
     1
102
RTVSPropertyOp41
 70
     1
102
RTVSPropertyOp42
 70
     1
102
RTVSPropertyOp43
 70
     1
102
RTVSPropertyOp44
 70
     1
102
RTVSPropertyOp45
 70
     1
102
RTVSPropertyOp46
 70
     1
102
RTVSPropertyOp47
 70
     1
102
RTVSPropertyOp48
 70
     1
102
RTVSPropertyOp49
 70
     1
102
RTVSPropertyOp50
 70
     1
102
RTVSPropertyOp51
 70
     0
102
RTVSPropertyOp52
 70
     0
102
RTVSPropertyOp53
 70
     1
102
RTVSPropertyOp54
 70
     1
102
RTVSPropertyOp55
 70
     1
102
RTVSPropertyOp56
 70
     1
102
RTVSPropertyOp57
 70
     1
102
RTVSPropertyOp58
 70
     1
102
RTVSPropertyOp59
 70
     1
102
RTVSPropertyOp60
 70
     1
102
RTVSPropertyOp61
 70
     1
102
RTVSPropertyOp62
 70
     1
  0
XRECORD
  5
29E09
102
{ACAD_REACTORS
330
29E08
102
}
330
29E08
100
AcDbXrecord
280
     1
102
RTVSPost2010Prop28
280
     0
102
RTVSPost2010PropOp28
 70
     1
102
RTVSPost2010Prop29
280
     1
102
RTVSPost2010PropOp29
 70
     1
102
RTVSPost2010Prop30
280
     1
102
RTVSPost2010PropOp30
 70
     1
102
RTVSPost2010Prop31
280
     0
102
RTVSPost2010PropOp31
 70
     1
102
RTVSPost2010Prop32
280
     0
102
RTVSPost2010PropOp32
 70
     1
102
RTVSPost2010Prop33
280
     0
102
RTVSPost2010PropOp33
 70
     1
102
RTVSPost2010Prop34
280
     0
102
RTVSPost2010PropOp34
 70
     1
102
RTVSPost2010Prop35
280
     0
102
RTVSPost2010PropOp35
 70
     1
102
RTVSPost2010Prop36
280
     0
102
RTVSPost2010PropOp36
 70
     1
102
RTVSPost2010Prop37
 90
       50
102
RTVSPost2010PropOp37
 70
     1
102
RTVSPost2010Prop38
140
0.0
102
RTVSPost2010PropOp38
 70
     1
102
RTVSPost2010Prop39
140
1.0
102
RTVSPost2010PropOp39
 70
     1
102
RTVSPost2010Prop40
 90
        0
102
RTVSPost2010PropOp40
 70
     1
102
RTVSPost2010Prop41ColorIndex
 90
       18
102
RTVSPost2010Prop41ColorRGB
 90
        0
102
RTVSPost2010PropOp41
 70
     1
102
RTVSPost2010Prop42
 90
       50
102
RTVSPost2010PropOp42
 70
     1
102
RTVSPost2010Prop43
 90
        3
102
RTVSPost2010PropOp43
 70
     1
102
RTVSPost2010Prop44ColorIndex
 90
        5
102
RTVSPost2010Prop44ColorRGB
 90
      255
102
RTVSPost2010PropOp44
 70
     1
102
RTVSPost2010Prop45
280
     0
102
RTVSPost2010PropOp45
 70
     1
102
RTVSPost2010Prop46
 90
       50
102
RTVSPost2010PropOp46
 70
     1
102
RTVSPost2010Prop47
 90
       50
102
RTVSPost2010PropOp47
 70
     1
102
RTVSPost2010Prop48
 90
       50
102
RTVSPost2010PropOp48
 70
     1
102
RTVSPost2010Prop49
280
     0
102
RTVSPost2010PropOp49
 70
     1
102
RTVSPost2010Prop50
 90
       50
102
RTVSPost2010PropOp50
 70
     1
102
RTVSPost2010Prop51ColorIndex
 90
      256
102
RTVSPost2010Prop51ColorRGB
 90
-16777216
102
RTVSPost2010PropOp51
 70
     0
102
RTVSPost2010Prop52
140
1.0
102
RTVSPost2010PropOp52
 70
     0
102
RTVSPost2010Prop53
 90
        2
102
RTVSPost2010PropOp53
 70
     1
102
RTVSPost2010Prop54
  1
strokes_ogs.tif
102
RTVSPost2010PropOp54
 70
     1
102
RTVSPost2010Prop55
280
     0
102
RTVSPost2010PropOp55
 70
     1
102
RTVSPost2010Prop56
140
1.0
102
RTVSPost2010PropOp56
 70
     1
102
RTVSPost2010Prop57
140
1.0
102
RTVSPost2010PropOp57
 70
     1
102
RTVSPropertyOp0
 70
     1
102
RTVSPropertyOp1
 70
     1
102
RTVSPropertyOp2
 70
     1
102
RTVSPropertyOp3
 70
     1
102
RTVSPropertyOp4
 70
     1
102
RTVSPropertyOp5
 70
     1
102
RTVSPropertyOp6
 70
     1
102
RTVSPropertyOp7
 70
     1
102
RTVSPropertyOp8
 70
     1
102
RTVSPropertyOp9
 70
     1
102
RTVSPropertyOp10
 70
     1
102
RTVSPropertyOp11
 70
     1
102
RTVSPropertyOp12
 70
     1
102
RTVSPropertyOp13
 70
     1
102
RTVSPropertyOp14
 70
     1
102
RTVSPropertyOp15
 70
     1
102
RTVSPropertyOp16
 70
     1
102
RTVSPropertyOp17
 70
     1
102
RTVSPropertyOp18
 70
     1
102
RTVSPropertyOp19
 70
     1
102
RTVSPropertyOp20
 70
     1
102
RTVSPropertyOp21
 70
     1
102
RTVSPropertyOp22
 70
     1
102
RTVSPropertyOp23
 70
     1
102
RTVSPropertyOp24
 70
     1
102
RTVSPropertyOp25
 70
     1
102
RTVSPropertyOp26
 70
     1
102
RTVSPropertyOp27
 70
     1
102
RTVSPropertyOp28
 70
     1
102
RTVSPropertyOp29
 70
     1
102
RTVSPropertyOp30
 70
     1
102
RTVSPropertyOp31
 70
     1
102
RTVSPropertyOp32
 70
     1
102
RTVSPropertyOp33
 70
     1
102
RTVSPropertyOp34
 70
     1
102
RTVSPropertyOp35
 70
     1
102
RTVSPropertyOp36
 70
     1
102
RTVSPropertyOp37
 70
     1
102
RTVSPropertyOp38
 70
     1
102
RTVSPropertyOp39
 70
     1
102
RTVSPropertyOp40
 70
     1
102
RTVSPropertyOp41
 70
     1
102
RTVSPropertyOp42
 70
     1
102
RTVSPropertyOp43
 70
     1
102
RTVSPropertyOp44
 70
     1
102
RTVSPropertyOp45
 70
     1
102
RTVSPropertyOp46
 70
     1
102
RTVSPropertyOp47
 70
     1
102
RTVSPropertyOp48
 70
     1
102
RTVSPropertyOp49
 70
     1
102
RTVSPropertyOp50
 70
     1
102
RTVSPropertyOp51
 70
     0
102
RTVSPropertyOp52
 70
     0
102
RTVSPropertyOp53
 70
     1
102
RTVSPropertyOp54
 70
     1
102
RTVSPropertyOp55
 70
     1
102
RTVSPropertyOp56
 70
     1
102
RTVSPropertyOp57
 70
     1
102
RTVSPropertyOp58
 70
     1
102
RTVSPropertyOp59
 70
     1
102
RTVSPropertyOp60
 70
     1
102
RTVSPropertyOp61
 70
     1
102
RTVSPropertyOp62
 70
     1
  0
XRECORD
  5
29E0B
102
{ACAD_REACTORS
330
29E0A
102
}
330
29E0A
100
AcDbXrecord
280
     1
102
RTVSPost2010Prop28
280
     0
102
RTVSPost2010PropOp28
 70
     1
102
RTVSPost2010Prop29
280
     1
102
RTVSPost2010PropOp29
 70
     1
102
RTVSPost2010Prop30
280
     1
102
RTVSPost2010PropOp30
 70
     1
102
RTVSPost2010Prop31
280
     0
102
RTVSPost2010PropOp31
 70
     1
102
RTVSPost2010Prop32
280
     0
102
RTVSPost2010PropOp32
 70
     1
102
RTVSPost2010Prop33
280
     0
102
RTVSPost2010PropOp33
 70
     1
102
RTVSPost2010Prop34
280
     0
102
RTVSPost2010PropOp34
 70
     1
102
RTVSPost2010Prop35
280
     0
102
RTVSPost2010PropOp35
 70
     1
102
RTVSPost2010Prop36
280
     0
102
RTVSPost2010PropOp36
 70
     1
102
RTVSPost2010Prop37
 90
       50
102
RTVSPost2010PropOp37
 70
     1
102
RTVSPost2010Prop38
140
0.0
102
RTVSPost2010PropOp38
 70
     1
102
RTVSPost2010Prop39
140
1.0
102
RTVSPost2010PropOp39
 70
     1
102
RTVSPost2010Prop40
 90
        0
102
RTVSPost2010PropOp40
 70
     1
102
RTVSPost2010Prop41ColorIndex
 90
       18
102
RTVSPost2010Prop41ColorRGB
 90
        0
102
RTVSPost2010PropOp41
 70
     1
102
RTVSPost2010Prop42
 90
       50
102
RTVSPost2010PropOp42
 70
     1
102
RTVSPost2010Prop43
 90
        3
102
RTVSPost2010PropOp43
 70
     1
102
RTVSPost2010Prop44ColorIndex
 90
        5
102
RTVSPost2010Prop44ColorRGB
 90
      255
102
RTVSPost2010PropOp44
 70
     1
102
RTVSPost2010Prop45
280
     0
102
RTVSPost2010PropOp45
 70
     1
102
RTVSPost2010Prop46
 90
       50
102
RTVSPost2010PropOp46
 70
     1
102
RTVSPost2010Prop47
 90
       50
102
RTVSPost2010PropOp47
 70
     1
102
RTVSPost2010Prop48
 90
       50
102
RTVSPost2010PropOp48
 70
     1
102
RTVSPost2010Prop49
280
     0
102
RTVSPost2010PropOp49
 70
     1
102
RTVSPost2010Prop50
 90
       50
102
RTVSPost2010PropOp50
 70
     1
102
RTVSPost2010Prop51ColorIndex
 90
      256
102
RTVSPost2010Prop51ColorRGB
 90
-16777216
102
RTVSPost2010PropOp51
 70
     0
102
RTVSPost2010Prop52
140
1.0
102
RTVSPost2010PropOp52
 70
     0
102
RTVSPost2010Prop53
 90
        2
102
RTVSPost2010PropOp53
 70
     1
102
RTVSPost2010Prop54
  1
strokes_ogs.tif
102
RTVSPost2010PropOp54
 70
     1
102
RTVSPost2010Prop55
280
     0
102
RTVSPost2010PropOp55
 70
     1
102
RTVSPost2010Prop56
140
1.0
102
RTVSPost2010PropOp56
 70
     1
102
RTVSPost2010Prop57
140
1.0
102
RTVSPost2010PropOp57
 70
     1
102
RTVSPropertyOp0
 70
     1
102
RTVSPropertyOp1
 70
     1
102
RTVSPropertyOp2
 70
     1
102
RTVSPropertyOp3
 70
     1
102
RTVSPropertyOp4
 70
     1
102
RTVSPropertyOp5
 70
     1
102
RTVSPropertyOp6
 70
     1
102
RTVSPropertyOp7
 70
     1
102
RTVSPropertyOp8
 70
     1
102
RTVSPropertyOp9
 70
     1
102
RTVSPropertyOp10
 70
     1
102
RTVSPropertyOp11
 70
     1
102
RTVSPropertyOp12
 70
     1
102
RTVSPropertyOp13
 70
     1
102
RTVSPropertyOp14
 70
     1
102
RTVSPropertyOp15
 70
     1
102
RTVSPropertyOp16
 70
     1
102
RTVSPropertyOp17
 70
     1
102
RTVSPropertyOp18
 70
     1
102
RTVSPropertyOp19
 70
     1
102
RTVSPropertyOp20
 70
     1
102
RTVSPropertyOp21
 70
     1
102
RTVSPropertyOp22
 70
     1
102
RTVSPropertyOp23
 70
     1
102
RTVSPropertyOp24
 70
     1
102
RTVSPropertyOp25
 70
     1
102
RTVSPropertyOp26
 70
     1
102
RTVSPropertyOp27
 70
     1
102
RTVSPropertyOp28
 70
     1
102
RTVSPropertyOp29
 70
     1
102
RTVSPropertyOp30
 70
     1
102
RTVSPropertyOp31
 70
     1
102
RTVSPropertyOp32
 70
     1
102
RTVSPropertyOp33
 70
     1
102
RTVSPropertyOp34
 70
     1
102
RTVSPropertyOp35
 70
     1
102
RTVSPropertyOp36
 70
     1
102
RTVSPropertyOp37
 70
     1
102
RTVSPropertyOp38
 70
     1
102
RTVSPropertyOp39
 70
     1
102
RTVSPropertyOp40
 70
     1
102
RTVSPropertyOp41
 70
     1
102
RTVSPropertyOp42
 70
     1
102
RTVSPropertyOp43
 70
     1
102
RTVSPropertyOp44
 70
     1
102
RTVSPropertyOp45
 70
     1
102
RTVSPropertyOp46
 70
     1
102
RTVSPropertyOp47
 70
     1
102
RTVSPropertyOp48
 70
     1
102
RTVSPropertyOp49
 70
     1
102
RTVSPropertyOp50
 70
     1
102
RTVSPropertyOp51
 70
     0
102
RTVSPropertyOp52
 70
     0
102
RTVSPropertyOp53
 70
     1
102
RTVSPropertyOp54
 70
     1
102
RTVSPropertyOp55
 70
     1
102
RTVSPropertyOp56
 70
     1
102
RTVSPropertyOp57
 70
     1
102
RTVSPropertyOp58
 70
     1
102
RTVSPropertyOp59
 70
     1
102
RTVSPropertyOp60
 70
     1
102
RTVSPropertyOp61
 70
     1
102
RTVSPropertyOp62
 70
     1
  0
XRECORD
  5
29E0D
102
{ACAD_REACTORS
330
29E0C
102
}
330
29E0C
100
AcDbXrecord
280
     1
102
RTVSPost2010Prop28
280
     0
102
RTVSPost2010PropOp28
 70
     1
102
RTVSPost2010Prop29
280
     1
102
RTVSPost2010PropOp29
 70
     1
102
RTVSPost2010Prop30
280
     1
102
RTVSPost2010PropOp30
 70
     1
102
RTVSPost2010Prop31
280
     0
102
RTVSPost2010PropOp31
 70
     1
102
RTVSPost2010Prop32
280
     0
102
RTVSPost2010PropOp32
 70
     1
102
RTVSPost2010Prop33
280
     0
102
RTVSPost2010PropOp33
 70
     1
102
RTVSPost2010Prop34
280
     0
102
RTVSPost2010PropOp34
 70
     1
102
RTVSPost2010Prop35
280
     0
102
RTVSPost2010PropOp35
 70
     1
102
RTVSPost2010Prop36
280
     0
102
RTVSPost2010PropOp36
 70
     1
102
RTVSPost2010Prop37
 90
       50
102
RTVSPost2010PropOp37
 70
     1
102
RTVSPost2010Prop38
140
0.0
102
RTVSPost2010PropOp38
 70
     1
102
RTVSPost2010Prop39
140
1.0
102
RTVSPost2010PropOp39
 70
     1
102
RTVSPost2010Prop40
 90
        0
102
RTVSPost2010PropOp40
 70
     1
102
RTVSPost2010Prop41ColorIndex
 90
       18
102
RTVSPost2010Prop41ColorRGB
 90
        0
102
RTVSPost2010PropOp41
 70
     1
102
RTVSPost2010Prop42
 90
       50
102
RTVSPost2010PropOp42
 70
     1
102
RTVSPost2010Prop43
 90
        3
102
RTVSPost2010PropOp43
 70
     1
102
RTVSPost2010Prop44ColorIndex
 90
        5
102
RTVSPost2010Prop44ColorRGB
 90
      255
102
RTVSPost2010PropOp44
 70
     1
102
RTVSPost2010Prop45
280
     0
102
RTVSPost2010PropOp45
 70
     1
102
RTVSPost2010Prop46
 90
       50
102
RTVSPost2010PropOp46
 70
     1
102
RTVSPost2010Prop47
 90
       50
102
RTVSPost2010PropOp47
 70
     1
102
RTVSPost2010Prop48
 90
       50
102
RTVSPost2010PropOp48
 70
     1
102
RTVSPost2010Prop49
280
     0
102
RTVSPost2010PropOp49
 70
     1
102
RTVSPost2010Prop50
 90
       50
102
RTVSPost2010PropOp50
 70
     1
102
RTVSPost2010Prop51ColorIndex
 90
      256
102
RTVSPost2010Prop51ColorRGB
 90
-16777216
102
RTVSPost2010PropOp51
 70
     0
102
RTVSPost2010Prop52
140
1.0
102
RTVSPost2010PropOp52
 70
     0
102
RTVSPost2010Prop53
 90
        2
102
RTVSPost2010PropOp53
 70
     1
102
RTVSPost2010Prop54
  1
strokes_ogs.tif
102
RTVSPost2010PropOp54
 70
     1
102
RTVSPost2010Prop55
280
     0
102
RTVSPost2010PropOp55
 70
     1
102
RTVSPost2010Prop56
140
1.0
102
RTVSPost2010PropOp56
 70
     1
102
RTVSPost2010Prop57
140
1.0
102
RTVSPost2010PropOp57
 70
     1
102
RTVSPropertyOp0
 70
     1
102
RTVSPropertyOp1
 70
     1
102
RTVSPropertyOp2
 70
     1
102
RTVSPropertyOp3
 70
     1
102
RTVSPropertyOp4
 70
     1
102
RTVSPropertyOp5
 70
     1
102
RTVSPropertyOp6
 70
     1
102
RTVSPropertyOp7
 70
     1
102
RTVSPropertyOp8
 70
     1
102
RTVSPropertyOp9
 70
     1
102
RTVSPropertyOp10
 70
     1
102
RTVSPropertyOp11
 70
     1
102
RTVSPropertyOp12
 70
     1
102
RTVSPropertyOp13
 70
     1
102
RTVSPropertyOp14
 70
     1
102
RTVSPropertyOp15
 70
     1
102
RTVSPropertyOp16
 70
     1
102
RTVSPropertyOp17
 70
     1
102
RTVSPropertyOp18
 70
     1
102
RTVSPropertyOp19
 70
     1
102
RTVSPropertyOp20
 70
     1
102
RTVSPropertyOp21
 70
     1
102
RTVSPropertyOp22
 70
     1
102
RTVSPropertyOp23
 70
     1
102
RTVSPropertyOp24
 70
     1
102
RTVSPropertyOp25
 70
     1
102
RTVSPropertyOp26
 70
     1
102
RTVSPropertyOp27
 70
     1
102
RTVSPropertyOp28
 70
     1
102
RTVSPropertyOp29
 70
     1
102
RTVSPropertyOp30
 70
     1
102
RTVSPropertyOp31
 70
     1
102
RTVSPropertyOp32
 70
     1
102
RTVSPropertyOp33
 70
     1
102
RTVSPropertyOp34
 70
     1
102
RTVSPropertyOp35
 70
     1
102
RTVSPropertyOp36
 70
     1
102
RTVSPropertyOp37
 70
     1
102
RTVSPropertyOp38
 70
     1
102
RTVSPropertyOp39
 70
     1
102
RTVSPropertyOp40
 70
     1
102
RTVSPropertyOp41
 70
     1
102
RTVSPropertyOp42
 70
     1
102
RTVSPropertyOp43
 70
     1
102
RTVSPropertyOp44
 70
     1
102
RTVSPropertyOp45
 70
     1
102
RTVSPropertyOp46
 70
     1
102
RTVSPropertyOp47
 70
     1
102
RTVSPropertyOp48
 70
     1
102
RTVSPropertyOp49
 70
     1
102
RTVSPropertyOp50
 70
     1
102
RTVSPropertyOp51
 70
     0
102
RTVSPropertyOp52
 70
     0
102
RTVSPropertyOp53
 70
     1
102
RTVSPropertyOp54
 70
     1
102
RTVSPropertyOp55
 70
     1
102
RTVSPropertyOp56
 70
     1
102
RTVSPropertyOp57
 70
     1
102
RTVSPropertyOp58
 70
     1
102
RTVSPropertyOp59
 70
     1
102
RTVSPropertyOp60
 70
     1
102
RTVSPropertyOp61
 70
     1
102
RTVSPropertyOp62
 70
     1
  0
XRECORD
  5
29E15
102
{ACAD_REACTORS
330
29E14
102
}
330
29E14
100
AcDbXrecord
280
     1
102
RTVSPost2010Prop28
280
     0
102
RTVSPost2010PropOp28
 70
     1
102
RTVSPost2010Prop29
280
     1
102
RTVSPost2010PropOp29
 70
     1
102
RTVSPost2010Prop30
280
     1
102
RTVSPost2010PropOp30
 70
     1
102
RTVSPost2010Prop31
280
     0
102
RTVSPost2010PropOp31
 70
     1
102
RTVSPost2010Prop32
280
     0
102
RTVSPost2010PropOp32
 70
     1
102
RTVSPost2010Prop33
280
     0
102
RTVSPost2010PropOp33
 70
     1
102
RTVSPost2010Prop34
280
     0
102
RTVSPost2010PropOp34
 70
     1
102
RTVSPost2010Prop35
280
     0
102
RTVSPost2010PropOp35
 70
     1
102
RTVSPost2010Prop36
280
     0
102
RTVSPost2010PropOp36
 70
     1
102
RTVSPost2010Prop37
 90
       50
102
RTVSPost2010PropOp37
 70
     1
102
RTVSPost2010Prop38
140
0.0
102
RTVSPost2010PropOp38
 70
     1
102
RTVSPost2010Prop39
140
1.0
102
RTVSPost2010PropOp39
 70
     1
102
RTVSPost2010Prop40
 90
        0
102
RTVSPost2010PropOp40
 70
     1
102
RTVSPost2010Prop41ColorIndex
 90
       18
102
RTVSPost2010Prop41ColorRGB
 90
        0
102
RTVSPost2010PropOp41
 70
     1
102
RTVSPost2010Prop42
 90
       50
102
RTVSPost2010PropOp42
 70
     1
102
RTVSPost2010Prop43
 90
        3
102
RTVSPost2010PropOp43
 70
     1
102
RTVSPost2010Prop44ColorIndex
 90
        5
102
RTVSPost2010Prop44ColorRGB
 90
      255
102
RTVSPost2010PropOp44
 70
     1
102
RTVSPost2010Prop45
280
     0
102
RTVSPost2010PropOp45
 70
     1
102
RTVSPost2010Prop46
 90
       50
102
RTVSPost2010PropOp46
 70
     1
102
RTVSPost2010Prop47
 90
       50
102
RTVSPost2010PropOp47
 70
     1
102
RTVSPost2010Prop48
 90
       50
102
RTVSPost2010PropOp48
 70
     1
102
RTVSPost2010Prop49
280
     0
102
RTVSPost2010PropOp49
 70
     1
102
RTVSPost2010Prop50
 90
       50
102
RTVSPost2010PropOp50
 70
     1
102
RTVSPost2010Prop51ColorIndex
 90
      256
102
RTVSPost2010Prop51ColorRGB
 90
-16777216
102
RTVSPost2010PropOp51
 70
     0
102
RTVSPost2010Prop52
140
1.0
102
RTVSPost2010PropOp52
 70
     0
102
RTVSPost2010Prop53
 90
        2
102
RTVSPost2010PropOp53
 70
     1
102
RTVSPost2010Prop54
  1
strokes_ogs.tif
102
RTVSPost2010PropOp54
 70
     1
102
RTVSPost2010Prop55
280
     0
102
RTVSPost2010PropOp55
 70
     1
102
RTVSPost2010Prop56
140
1.0
102
RTVSPost2010PropOp56
 70
     1
102
RTVSPost2010Prop57
140
1.0
102
RTVSPost2010PropOp57
 70
     1
102
RTVSPropertyOp0
 70
     1
102
RTVSPropertyOp1
 70
     1
102
RTVSPropertyOp2
 70
     1
102
RTVSPropertyOp3
 70
     1
102
RTVSPropertyOp4
 70
     1
102
RTVSPropertyOp5
 70
     1
102
RTVSPropertyOp6
 70
     1
102
RTVSPropertyOp7
 70
     1
102
RTVSPropertyOp8
 70
     1
102
RTVSPropertyOp9
 70
     1
102
RTVSPropertyOp10
 70
     1
102
RTVSPropertyOp11
 70
     1
102
RTVSPropertyOp12
 70
     1
102
RTVSPropertyOp13
 70
     1
102
RTVSPropertyOp14
 70
     1
102
RTVSPropertyOp15
 70
     1
102
RTVSPropertyOp16
 70
     1
102
RTVSPropertyOp17
 70
     1
102
RTVSPropertyOp18
 70
     1
102
RTVSPropertyOp19
 70
     1
102
RTVSPropertyOp20
 70
     1
102
RTVSPropertyOp21
 70
     1
102
RTVSPropertyOp22
 70
     1
102
RTVSPropertyOp23
 70
     1
102
RTVSPropertyOp24
 70
     1
102
RTVSPropertyOp25
 70
     1
102
RTVSPropertyOp26
 70
     1
102
RTVSPropertyOp27
 70
     1
102
RTVSPropertyOp28
 70
     1
102
RTVSPropertyOp29
 70
     1
102
RTVSPropertyOp30
 70
     1
102
RTVSPropertyOp31
 70
     1
102
RTVSPropertyOp32
 70
     1
102
RTVSPropertyOp33
 70
     1
102
RTVSPropertyOp34
 70
     1
102
RTVSPropertyOp35
 70
     1
102
RTVSPropertyOp36
 70
     1
102
RTVSPropertyOp37
 70
     1
102
RTVSPropertyOp38
 70
     1
102
RTVSPropertyOp39
 70
     1
102
RTVSPropertyOp40
 70
     1
102
RTVSPropertyOp41
 70
     1
102
RTVSPropertyOp42
 70
     1
102
RTVSPropertyOp43
 70
     1
102
RTVSPropertyOp44
 70
     1
102
RTVSPropertyOp45
 70
     1
102
RTVSPropertyOp46
 70
     1
102
RTVSPropertyOp47
 70
     1
102
RTVSPropertyOp48
 70
     1
102
RTVSPropertyOp49
 70
     1
102
RTVSPropertyOp50
 70
     1
102
RTVSPropertyOp51
 70
     0
102
RTVSPropertyOp52
 70
     0
102
RTVSPropertyOp53
 70
     1
102
RTVSPropertyOp54
 70
     1
102
RTVSPropertyOp55
 70
     1
102
RTVSPropertyOp56
 70
     1
102
RTVSPropertyOp57
 70
     1
102
RTVSPropertyOp58
 70
     1
102
RTVSPropertyOp59
 70
     1
102
RTVSPropertyOp60
 70
     1
102
RTVSPropertyOp61
 70
     1
102
RTVSPropertyOp62
 70
     1
  0
XRECORD
  5
29E31
102
{ACAD_REACTORS
330
29E30
102
}
330
29E30
100
AcDbXrecord
280
     1
102
RTVSPost2010Prop28
280
     0
102
RTVSPost2010PropOp28
 70
     1
102
RTVSPost2010Prop29
280
     1
102
RTVSPost2010PropOp29
 70
     1
102
RTVSPost2010Prop30
280
     1
102
RTVSPost2010PropOp30
 70
     1
102
RTVSPost2010Prop31
280
     0
102
RTVSPost2010PropOp31
 70
     1
102
RTVSPost2010Prop32
280
     0
102
RTVSPost2010PropOp32
 70
     1
102
RTVSPost2010Prop33
280
     0
102
RTVSPost2010PropOp33
 70
     1
102
RTVSPost2010Prop34
280
     0
102
RTVSPost2010PropOp34
 70
     1
102
RTVSPost2010Prop35
280
     0
102
RTVSPost2010PropOp35
 70
     1
102
RTVSPost2010Prop36
280
     0
102
RTVSPost2010PropOp36
 70
     1
102
RTVSPost2010Prop37
 90
       50
102
RTVSPost2010PropOp37
 70
     0
102
RTVSPost2010Prop38
140
0.0
102
RTVSPost2010PropOp38
 70
     0
102
RTVSPost2010Prop39
140
1.0
102
RTVSPost2010PropOp39
 70
     0
102
RTVSPost2010Prop40
 90
        0
102
RTVSPost2010PropOp40
 70
     0
102
RTVSPost2010Prop41ColorIndex
 90
       18
102
RTVSPost2010Prop41ColorRGB
 90
        0
102
RTVSPost2010PropOp41
 70
     0
102
RTVSPost2010Prop42
 90
       50
102
RTVSPost2010PropOp42
 70
     0
102
RTVSPost2010Prop43
 90
        3
102
RTVSPost2010PropOp43
 70
     0
102
RTVSPost2010Prop44ColorIndex
 90
        5
102
RTVSPost2010Prop44ColorRGB
 90
      255
102
RTVSPost2010PropOp44
 70
     0
102
RTVSPost2010Prop45
280
     0
102
RTVSPost2010PropOp45
 70
     1
102
RTVSPost2010Prop46
 90
       50
102
RTVSPost2010PropOp46
 70
     0
102
RTVSPost2010Prop47
 90
       50
102
RTVSPost2010PropOp47
 70
     0
102
RTVSPost2010Prop48
 90
       50
102
RTVSPost2010PropOp48
 70
     0
102
RTVSPost2010Prop49
280
     0
102
RTVSPost2010PropOp49
 70
     1
102
RTVSPost2010Prop50
 90
       50
102
RTVSPost2010PropOp50
 70
     0
102
RTVSPost2010Prop51ColorIndex
 90
      256
102
RTVSPost2010Prop51ColorRGB
 90
-16777216
102
RTVSPost2010PropOp51
 70
     0
102
RTVSPost2010Prop52
140
1.0
102
RTVSPost2010PropOp52
 70
     0
102
RTVSPost2010Prop53
 90
        2
102
RTVSPost2010PropOp53
 70
     0
102
RTVSPost2010Prop54
  1
strokes_ogs.tif
102
RTVSPost2010PropOp54
 70
     0
102
RTVSPost2010Prop55
280
     0
102
RTVSPost2010PropOp55
 70
     1
102
RTVSPost2010Prop56
140
1.0
102
RTVSPost2010PropOp56
 70
     0
102
RTVSPost2010Prop57
140
1.0
102
RTVSPost2010PropOp57
 70
     0
102
RTVSPropertyOp0
 70
     0
102
RTVSPropertyOp1
 70
     0
102
RTVSPropertyOp2
 70
     0
102
RTVSPropertyOp3
 70
     0
102
RTVSPropertyOp4
 70
     0
102
RTVSPropertyOp5
 70
     0
102
RTVSPropertyOp6
 70
     0
102
RTVSPropertyOp7
 70
     0
102
RTVSPropertyOp8
 70
     0
102
RTVSPropertyOp9
 70
     0
102
RTVSPropertyOp10
 70
     0
102
RTVSPropertyOp11
 70
     0
102
RTVSPropertyOp12
 70
     0
102
RTVSPropertyOp13
 70
     0
102
RTVSPropertyOp14
 70
     2
102
RTVSPropertyOp15
 70
     0
102
RTVSPropertyOp16
 70
     0
102
RTVSPropertyOp17
 70
     0
102
RTVSPropertyOp18
 70
     0
102
RTVSPropertyOp19
 70
     0
102
RTVSPropertyOp20
 70
     0
102
RTVSPropertyOp21
 70
     0
102
RTVSPropertyOp22
 70
     0
102
RTVSPropertyOp23
 70
     0
102
RTVSPropertyOp24
 70
     0
102
RTVSPropertyOp25
 70
     0
102
RTVSPropertyOp26
 70
     0
102
RTVSPropertyOp27
 70
     0
102
RTVSPropertyOp28
 70
     1
102
RTVSPropertyOp29
 70
     1
102
RTVSPropertyOp30
 70
     1
102
RTVSPropertyOp31
 70
     1
102
RTVSPropertyOp32
 70
     1
102
RTVSPropertyOp33
 70
     1
102
RTVSPropertyOp34
 70
     1
102
RTVSPropertyOp35
 70
     1
102
RTVSPropertyOp36
 70
     1
102
RTVSPropertyOp37
 70
     0
102
RTVSPropertyOp38
 70
     0
102
RTVSPropertyOp39
 70
     0
102
RTVSPropertyOp40
 70
     0
102
RTVSPropertyOp41
 70
     0
102
RTVSPropertyOp42
 70
     0
102
RTVSPropertyOp43
 70
     0
102
RTVSPropertyOp44
 70
     0
102
RTVSPropertyOp45
 70
     1
102
RTVSPropertyOp46
 70
     0
102
RTVSPropertyOp47
 70
     0
102
RTVSPropertyOp48
 70
     0
102
RTVSPropertyOp49
 70
     1
102
RTVSPropertyOp50
 70
     0
102
RTVSPropertyOp51
 70
     0
102
RTVSPropertyOp52
 70
     0
102
RTVSPropertyOp53
 70
     0
102
RTVSPropertyOp54
 70
     0
102
RTVSPropertyOp55
 70
     1
102
RTVSPropertyOp56
 70
     0
102
RTVSPropertyOp57
 70
     0
102
RTVSPropertyOp58
 70
     0
102
RTVSPropertyOp59
 70
     0
102
RTVSPropertyOp60
 70
     0
102
RTVSPropertyOp61
 70
     0
102
RTVSPropertyOp62
 70
     0
  0
XRECORD
  5
29E21
102
{ACAD_REACTORS
330
29E20
102
}
330
29E20
100
AcDbXrecord
280
     1
102
RTVSPost2010Prop28
280
     0
102
RTVSPost2010PropOp28
 70
     1
102
RTVSPost2010Prop29
280
     1
102
RTVSPost2010PropOp29
 70
     1
102
RTVSPost2010Prop30
280
     1
102
RTVSPost2010PropOp30
 70
     1
102
RTVSPost2010Prop31
280
     0
102
RTVSPost2010PropOp31
 70
     1
102
RTVSPost2010Prop32
280
     0
102
RTVSPost2010PropOp32
 70
     1
102
RTVSPost2010Prop33
280
     0
102
RTVSPost2010PropOp33
 70
     1
102
RTVSPost2010Prop34
280
     0
102
RTVSPost2010PropOp34
 70
     1
102
RTVSPost2010Prop35
280
     0
102
RTVSPost2010PropOp35
 70
     1
102
RTVSPost2010Prop36
280
     0
102
RTVSPost2010PropOp36
 70
     1
102
RTVSPost2010Prop37
 90
       50
102
RTVSPost2010PropOp37
 70
     1
102
RTVSPost2010Prop38
140
0.0
102
RTVSPost2010PropOp38
 70
     1
102
RTVSPost2010Prop39
140
1.0
102
RTVSPost2010PropOp39
 70
     1
102
RTVSPost2010Prop40
 90
        0
102
RTVSPost2010PropOp40
 70
     1
102
RTVSPost2010Prop41ColorIndex
 90
       18
102
RTVSPost2010Prop41ColorRGB
 90
        0
102
RTVSPost2010PropOp41
 70
     1
102
RTVSPost2010Prop42
 90
       50
102
RTVSPost2010PropOp42
 70
     1
102
RTVSPost2010Prop43
 90
        3
102
RTVSPost2010PropOp43
 70
     1
102
RTVSPost2010Prop44ColorIndex
 90
        5
102
RTVSPost2010Prop44ColorRGB
 90
      255
102
RTVSPost2010PropOp44
 70
     1
102
RTVSPost2010Prop45
280
     0
102
RTVSPost2010PropOp45
 70
     1
102
RTVSPost2010Prop46
 90
       50
102
RTVSPost2010PropOp46
 70
     1
102
RTVSPost2010Prop47
 90
       50
102
RTVSPost2010PropOp47
 70
     1
102
RTVSPost2010Prop48
 90
       50
102
RTVSPost2010PropOp48
 70
     1
102
RTVSPost2010Prop49
280
     0
102
RTVSPost2010PropOp49
 70
     1
102
RTVSPost2010Prop50
 90
       50
102
RTVSPost2010PropOp50
 70
     1
102
RTVSPost2010Prop51ColorIndex
 90
      256
102
RTVSPost2010Prop51ColorRGB
 90
-16777216
102
RTVSPost2010PropOp51
 70
     0
102
RTVSPost2010Prop52
140
1.0
102
RTVSPost2010PropOp52
 70
     0
102
RTVSPost2010Prop53
 90
        2
102
RTVSPost2010PropOp53
 70
     1
102
RTVSPost2010Prop54
  1
strokes_ogs.tif
102
RTVSPost2010PropOp54
 70
     1
102
RTVSPost2010Prop55
280
     0
102
RTVSPost2010PropOp55
 70
     1
102
RTVSPost2010Prop56
140
1.0
102
RTVSPost2010PropOp56
 70
     1
102
RTVSPost2010Prop57
140
1.0
102
RTVSPost2010PropOp57
 70
     1
102
RTVSPropertyOp0
 70
     1
102
RTVSPropertyOp1
 70
     1
102
RTVSPropertyOp2
 70
     1
102
RTVSPropertyOp3
 70
     1
102
RTVSPropertyOp4
 70
     1
102
RTVSPropertyOp5
 70
     1
102
RTVSPropertyOp6
 70
     1
102
RTVSPropertyOp7
 70
     1
102
RTVSPropertyOp8
 70
     1
102
RTVSPropertyOp9
 70
     1
102
RTVSPropertyOp10
 70
     1
102
RTVSPropertyOp11
 70
     1
102
RTVSPropertyOp12
 70
     1
102
RTVSPropertyOp13
 70
     1
102
RTVSPropertyOp14
 70
     1
102
RTVSPropertyOp15
 70
     1
102
RTVSPropertyOp16
 70
     1
102
RTVSPropertyOp17
 70
     1
102
RTVSPropertyOp18
 70
     1
102
RTVSPropertyOp19
 70
     1
102
RTVSPropertyOp20
 70
     1
102
RTVSPropertyOp21
 70
     1
102
RTVSPropertyOp22
 70
     1
102
RTVSPropertyOp23
 70
     1
102
RTVSPropertyOp24
 70
     1
102
RTVSPropertyOp25
 70
     1
102
RTVSPropertyOp26
 70
     1
102
RTVSPropertyOp27
 70
     1
102
RTVSPropertyOp28
 70
     1
102
RTVSPropertyOp29
 70
     1
102
RTVSPropertyOp30
 70
     1
102
RTVSPropertyOp31
 70
     1
102
RTVSPropertyOp32
 70
     1
102
RTVSPropertyOp33
 70
     1
102
RTVSPropertyOp34
 70
     1
102
RTVSPropertyOp35
 70
     1
102
RTVSPropertyOp36
 70
     1
102
RTVSPropertyOp37
 70
     1
102
RTVSPropertyOp38
 70
     1
102
RTVSPropertyOp39
 70
     1
102
RTVSPropertyOp40
 70
     1
102
RTVSPropertyOp41
 70
     1
102
RTVSPropertyOp42
 70
     1
102
RTVSPropertyOp43
 70
     1
102
RTVSPropertyOp44
 70
     1
102
RTVSPropertyOp45
 70
     1
102
RTVSPropertyOp46
 70
     1
102
RTVSPropertyOp47
 70
     1
102
RTVSPropertyOp48
 70
     1
102
RTVSPropertyOp49
 70
     1
102
RTVSPropertyOp50
 70
     1
102
RTVSPropertyOp51
 70
     0
102
RTVSPropertyOp52
 70
     0
102
RTVSPropertyOp53
 70
     1
102
RTVSPropertyOp54
 70
     1
102
RTVSPropertyOp55
 70
     1
102
RTVSPropertyOp56
 70
     1
102
RTVSPropertyOp57
 70
     1
102
RTVSPropertyOp58
 70
     1
102
RTVSPropertyOp59
 70
     1
102
RTVSPropertyOp60
 70
     1
102
RTVSPropertyOp61
 70
     1
102
RTVSPropertyOp62
 70
     1
  0
XRECORD
  5
29E33
102
{ACAD_REACTORS
330
29E32
102
}
330
29E32
100
AcDbXrecord
280
     1
102
RTVSPost2010Prop28
280
     0
102
RTVSPost2010PropOp28
 70
     1
102
RTVSPost2010Prop29
280
     1
102
RTVSPost2010PropOp29
 70
     1
102
RTVSPost2010Prop30
280
     1
102
RTVSPost2010PropOp30
 70
     1
102
RTVSPost2010Prop31
280
     0
102
RTVSPost2010PropOp31
 70
     1
102
RTVSPost2010Prop32
280
     0
102
RTVSPost2010PropOp32
 70
     1
102
RTVSPost2010Prop33
280
     0
102
RTVSPost2010PropOp33
 70
     1
102
RTVSPost2010Prop34
280
     0
102
RTVSPost2010PropOp34
 70
     1
102
RTVSPost2010Prop35
280
     0
102
RTVSPost2010PropOp35
 70
     1
102
RTVSPost2010Prop36
280
     0
102
RTVSPost2010PropOp36
 70
     1
102
RTVSPost2010Prop37
 90
       50
102
RTVSPost2010PropOp37
 70
     0
102
RTVSPost2010Prop38
140
0.0
102
RTVSPost2010PropOp38
 70
     0
102
RTVSPost2010Prop39
140
1.0
102
RTVSPost2010PropOp39
 70
     0
102
RTVSPost2010Prop40
 90
        0
102
RTVSPost2010PropOp40
 70
     0
102
RTVSPost2010Prop41ColorIndex
 90
       18
102
RTVSPost2010Prop41ColorRGB
 90
        0
102
RTVSPost2010PropOp41
 70
     0
102
RTVSPost2010Prop42
 90
       50
102
RTVSPost2010PropOp42
 70
     0
102
RTVSPost2010Prop43
 90
        3
102
RTVSPost2010PropOp43
 70
     0
102
RTVSPost2010Prop44ColorIndex
 90
        5
102
RTVSPost2010Prop44ColorRGB
 90
      255
102
RTVSPost2010PropOp44
 70
     0
102
RTVSPost2010Prop45
280
     0
102
RTVSPost2010PropOp45
 70
     1
102
RTVSPost2010Prop46
 90
       50
102
RTVSPost2010PropOp46
 70
     0
102
RTVSPost2010Prop47
 90
       50
102
RTVSPost2010PropOp47
 70
     0
102
RTVSPost2010Prop48
 90
       50
102
RTVSPost2010PropOp48
 70
     0
102
RTVSPost2010Prop49
280
     0
102
RTVSPost2010PropOp49
 70
     1
102
RTVSPost2010Prop50
 90
       50
102
RTVSPost2010PropOp50
 70
     0
102
RTVSPost2010Prop51ColorIndex
 90
      256
102
RTVSPost2010Prop51ColorRGB
 90
-16777216
102
RTVSPost2010PropOp51
 70
     0
102
RTVSPost2010Prop52
140
1.0
102
RTVSPost2010PropOp52
 70
     0
102
RTVSPost2010Prop53
 90
        2
102
RTVSPost2010PropOp53
 70
     0
102
RTVSPost2010Prop54
  1
strokes_ogs.tif
102
RTVSPost2010PropOp54
 70
     0
102
RTVSPost2010Prop55
280
     0
102
RTVSPost2010PropOp55
 70
     1
102
RTVSPost2010Prop56
140
1.0
102
RTVSPost2010PropOp56
 70
     0
102
RTVSPost2010Prop57
140
1.0
102
RTVSPost2010PropOp57
 70
     0
102
RTVSPropertyOp0
 70
     0
102
RTVSPropertyOp1
 70
     0
102
RTVSPropertyOp2
 70
     0
102
RTVSPropertyOp3
 70
     0
102
RTVSPropertyOp4
 70
     0
102
RTVSPropertyOp5
 70
     0
102
RTVSPropertyOp6
 70
     0
102
RTVSPropertyOp7
 70
     0
102
RTVSPropertyOp8
 70
     0
102
RTVSPropertyOp9
 70
     0
102
RTVSPropertyOp10
 70
     0
102
RTVSPropertyOp11
 70
     0
102
RTVSPropertyOp12
 70
     0
102
RTVSPropertyOp13
 70
     0
102
RTVSPropertyOp14
 70
     2
102
RTVSPropertyOp15
 70
     0
102
RTVSPropertyOp16
 70
     0
102
RTVSPropertyOp17
 70
     0
102
RTVSPropertyOp18
 70
     0
102
RTVSPropertyOp19
 70
     0
102
RTVSPropertyOp20
 70
     0
102
RTVSPropertyOp21
 70
     0
102
RTVSPropertyOp22
 70
     0
102
RTVSPropertyOp23
 70
     0
102
RTVSPropertyOp24
 70
     0
102
RTVSPropertyOp25
 70
     0
102
RTVSPropertyOp26
 70
     0
102
RTVSPropertyOp27
 70
     0
102
RTVSPropertyOp28
 70
     1
102
RTVSPropertyOp29
 70
     1
102
RTVSPropertyOp30
 70
     1
102
RTVSPropertyOp31
 70
     1
102
RTVSPropertyOp32
 70
     1
102
RTVSPropertyOp33
 70
     1
102
RTVSPropertyOp34
 70
     1
102
RTVSPropertyOp35
 70
     1
102
RTVSPropertyOp36
 70
     1
102
RTVSPropertyOp37
 70
     0
102
RTVSPropertyOp38
 70
     0
102
RTVSPropertyOp39
 70
     0
102
RTVSPropertyOp40
 70
     0
102
RTVSPropertyOp41
 70
     0
102
RTVSPropertyOp42
 70
     0
102
RTVSPropertyOp43
 70
     0
102
RTVSPropertyOp44
 70
     0
102
RTVSPropertyOp45
 70
     1
102
RTVSPropertyOp46
 70
     0
102
RTVSPropertyOp47
 70
     0
102
RTVSPropertyOp48
 70
     0
102
RTVSPropertyOp49
 70
     1
102
RTVSPropertyOp50
 70
     0
102
RTVSPropertyOp51
 70
     0
102
RTVSPropertyOp52
 70
     0
102
RTVSPropertyOp53
 70
     0
102
RTVSPropertyOp54
 70
     0
102
RTVSPropertyOp55
 70
     1
102
RTVSPropertyOp56
 70
     0
102
RTVSPropertyOp57
 70
     0
102
RTVSPropertyOp58
 70
     0
102
RTVSPropertyOp59
 70
     0
102
RTVSPropertyOp60
 70
     0
102
RTVSPropertyOp61
 70
     0
102
RTVSPropertyOp62
 70
     0
  0
XRECORD
  5
29E19
102
{ACAD_REACTORS
330
29E18
102
}
330
29E18
100
AcDbXrecord
280
     1
102
RTVSPost2010Prop28
280
     0
102
RTVSPost2010PropOp28
 70
     1
102
RTVSPost2010Prop29
280
     1
102
RTVSPost2010PropOp29
 70
     1
102
RTVSPost2010Prop30
280
     1
102
RTVSPost2010PropOp30
 70
     1
102
RTVSPost2010Prop31
280
     0
102
RTVSPost2010PropOp31
 70
     1
102
RTVSPost2010Prop32
280
     0
102
RTVSPost2010PropOp32
 70
     1
102
RTVSPost2010Prop33
280
     0
102
RTVSPost2010PropOp33
 70
     1
102
RTVSPost2010Prop34
280
     0
102
RTVSPost2010PropOp34
 70
     1
102
RTVSPost2010Prop35
280
     0
102
RTVSPost2010PropOp35
 70
     1
102
RTVSPost2010Prop36
280
     0
102
RTVSPost2010PropOp36
 70
     1
102
RTVSPost2010Prop37
 90
       50
102
RTVSPost2010PropOp37
 70
     1
102
RTVSPost2010Prop38
140
0.0
102
RTVSPost2010PropOp38
 70
     1
102
RTVSPost2010Prop39
140
1.0
102
RTVSPost2010PropOp39
 70
     1
102
RTVSPost2010Prop40
 90
        0
102
RTVSPost2010PropOp40
 70
     1
102
RTVSPost2010Prop41ColorIndex
 90
       18
102
RTVSPost2010Prop41ColorRGB
 90
        0
102
RTVSPost2010PropOp41
 70
     1
102
RTVSPost2010Prop42
 90
       50
102
RTVSPost2010PropOp42
 70
     1
102
RTVSPost2010Prop43
 90
        3
102
RTVSPost2010PropOp43
 70
     1
102
RTVSPost2010Prop44ColorIndex
 90
        5
102
RTVSPost2010Prop44ColorRGB
 90
      255
102
RTVSPost2010PropOp44
 70
     1
102
RTVSPost2010Prop45
280
     0
102
RTVSPost2010PropOp45
 70
     1
102
RTVSPost2010Prop46
 90
       50
102
RTVSPost2010PropOp46
 70
     1
102
RTVSPost2010Prop47
 90
       50
102
RTVSPost2010PropOp47
 70
     1
102
RTVSPost2010Prop48
 90
       50
102
RTVSPost2010PropOp48
 70
     1
102
RTVSPost2010Prop49
280
     0
102
RTVSPost2010PropOp49
 70
     1
102
RTVSPost2010Prop50
 90
       50
102
RTVSPost2010PropOp50
 70
     1
102
RTVSPost2010Prop51ColorIndex
 90
      256
102
RTVSPost2010Prop51ColorRGB
 90
-16777216
102
RTVSPost2010PropOp51
 70
     0
102
RTVSPost2010Prop52
140
1.0
102
RTVSPost2010PropOp52
 70
     0
102
RTVSPost2010Prop53
 90
        2
102
RTVSPost2010PropOp53
 70
     1
102
RTVSPost2010Prop54
  1
strokes_ogs.tif
102
RTVSPost2010PropOp54
 70
     1
102
RTVSPost2010Prop55
280
     0
102
RTVSPost2010PropOp55
 70
     1
102
RTVSPost2010Prop56
140
1.0
102
RTVSPost2010PropOp56
 70
     1
102
RTVSPost2010Prop57
140
1.0
102
RTVSPost2010PropOp57
 70
     1
102
RTVSPropertyOp0
 70
     1
102
RTVSPropertyOp1
 70
     1
102
RTVSPropertyOp2
 70
     1
102
RTVSPropertyOp3
 70
     1
102
RTVSPropertyOp4
 70
     1
102
RTVSPropertyOp5
 70
     1
102
RTVSPropertyOp6
 70
     1
102
RTVSPropertyOp7
 70
     1
102
RTVSPropertyOp8
 70
     1
102
RTVSPropertyOp9
 70
     1
102
RTVSPropertyOp10
 70
     1
102
RTVSPropertyOp11
 70
     1
102
RTVSPropertyOp12
 70
     1
102
RTVSPropertyOp13
 70
     1
102
RTVSPropertyOp14
 70
     1
102
RTVSPropertyOp15
 70
     1
102
RTVSPropertyOp16
 70
     1
102
RTVSPropertyOp17
 70
     1
102
RTVSPropertyOp18
 70
     1
102
RTVSPropertyOp19
 70
     1
102
RTVSPropertyOp20
 70
     1
102
RTVSPropertyOp21
 70
     1
102
RTVSPropertyOp22
 70
     1
102
RTVSPropertyOp23
 70
     1
102
RTVSPropertyOp24
 70
     1
102
RTVSPropertyOp25
 70
     1
102
RTVSPropertyOp26
 70
     1
102
RTVSPropertyOp27
 70
     1
102
RTVSPropertyOp28
 70
     1
102
RTVSPropertyOp29
 70
     1
102
RTVSPropertyOp30
 70
     1
102
RTVSPropertyOp31
 70
     1
102
RTVSPropertyOp32
 70
     1
102
RTVSPropertyOp33
 70
     1
102
RTVSPropertyOp34
 70
     1
102
RTVSPropertyOp35
 70
     1
102
RTVSPropertyOp36
 70
     1
102
RTVSPropertyOp37
 70
     1
102
RTVSPropertyOp38
 70
     1
102
RTVSPropertyOp39
 70
     1
102
RTVSPropertyOp40
 70
     1
102
RTVSPropertyOp41
 70
     1
102
RTVSPropertyOp42
 70
     1
102
RTVSPropertyOp43
 70
     1
102
RTVSPropertyOp44
 70
     1
102
RTVSPropertyOp45
 70
     1
102
RTVSPropertyOp46
 70
     1
102
RTVSPropertyOp47
 70
     1
102
RTVSPropertyOp48
 70
     1
102
RTVSPropertyOp49
 70
     1
102
RTVSPropertyOp50
 70
     1
102
RTVSPropertyOp51
 70
     0
102
RTVSPropertyOp52
 70
     0
102
RTVSPropertyOp53
 70
     1
102
RTVSPropertyOp54
 70
     1
102
RTVSPropertyOp55
 70
     1
102
RTVSPropertyOp56
 70
     1
102
RTVSPropertyOp57
 70
     1
102
RTVSPropertyOp58
 70
     1
102
RTVSPropertyOp59
 70
     1
102
RTVSPropertyOp60
 70
     1
102
RTVSPropertyOp61
 70
     1
102
RTVSPropertyOp62
 70
     1
  0
XRECORD
  5
29E2F
102
{ACAD_REACTORS
330
29E2E
102
}
330
29E2E
100
AcDbXrecord
280
     1
102
RTVSPost2010Prop28
280
     0
102
RTVSPost2010PropOp28
 70
     1
102
RTVSPost2010Prop29
280
     1
102
RTVSPost2010PropOp29
 70
     1
102
RTVSPost2010Prop30
280
     1
102
RTVSPost2010PropOp30
 70
     1
102
RTVSPost2010Prop31
280
     0
102
RTVSPost2010PropOp31
 70
     1
102
RTVSPost2010Prop32
280
     0
102
RTVSPost2010PropOp32
 70
     1
102
RTVSPost2010Prop33
280
     0
102
RTVSPost2010PropOp33
 70
     1
102
RTVSPost2010Prop34
280
     0
102
RTVSPost2010PropOp34
 70
     1
102
RTVSPost2010Prop35
280
     0
102
RTVSPost2010PropOp35
 70
     1
102
RTVSPost2010Prop36
280
     0
102
RTVSPost2010PropOp36
 70
     1
102
RTVSPost2010Prop37
 90
       50
102
RTVSPost2010PropOp37
 70
     1
102
RTVSPost2010Prop38
140
0.0
102
RTVSPost2010PropOp38
 70
     1
102
RTVSPost2010Prop39
140
1.0
102
RTVSPost2010PropOp39
 70
     1
102
RTVSPost2010Prop40
 90
        0
102
RTVSPost2010PropOp40
 70
     1
102
RTVSPost2010Prop41ColorIndex
 90
       18
102
RTVSPost2010Prop41ColorRGB
 90
        0
102
RTVSPost2010PropOp41
 70
     1
102
RTVSPost2010Prop42
 90
       50
102
RTVSPost2010PropOp42
 70
     1
102
RTVSPost2010Prop43
 90
        3
102
RTVSPost2010PropOp43
 70
     1
102
RTVSPost2010Prop44ColorIndex
 90
        5
102
RTVSPost2010Prop44ColorRGB
 90
      255
102
RTVSPost2010PropOp44
 70
     1
102
RTVSPost2010Prop45
280
     0
102
RTVSPost2010PropOp45
 70
     1
102
RTVSPost2010Prop46
 90
       50
102
RTVSPost2010PropOp46
 70
     1
102
RTVSPost2010Prop47
 90
       50
102
RTVSPost2010PropOp47
 70
     1
102
RTVSPost2010Prop48
 90
       50
102
RTVSPost2010PropOp48
 70
     1
102
RTVSPost2010Prop49
280
     0
102
RTVSPost2010PropOp49
 70
     1
102
RTVSPost2010Prop50
 90
       50
102
RTVSPost2010PropOp50
 70
     1
102
RTVSPost2010Prop51ColorIndex
 90
      256
102
RTVSPost2010Prop51ColorRGB
 90
-16777216
102
RTVSPost2010PropOp51
 70
     0
102
RTVSPost2010Prop52
140
1.0
102
RTVSPost2010PropOp52
 70
     0
102
RTVSPost2010Prop53
 90
        2
102
RTVSPost2010PropOp53
 70
     1
102
RTVSPost2010Prop54
  1
strokes_ogs.tif
102
RTVSPost2010PropOp54
 70
     1
102
RTVSPost2010Prop55
280
     0
102
RTVSPost2010PropOp55
 70
     1
102
RTVSPost2010Prop56
140
1.0
102
RTVSPost2010PropOp56
 70
     1
102
RTVSPost2010Prop57
140
1.0
102
RTVSPost2010PropOp57
 70
     1
102
RTVSPropertyOp0
 70
     1
102
RTVSPropertyOp1
 70
     1
102
RTVSPropertyOp2
 70
     1
102
RTVSPropertyOp3
 70
     1
102
RTVSPropertyOp4
 70
     1
102
RTVSPropertyOp5
 70
     1
102
RTVSPropertyOp6
 70
     1
102
RTVSPropertyOp7
 70
     1
102
RTVSPropertyOp8
 70
     1
102
RTVSPropertyOp9
 70
     1
102
RTVSPropertyOp10
 70
     1
102
RTVSPropertyOp11
 70
     1
102
RTVSPropertyOp12
 70
     1
102
RTVSPropertyOp13
 70
     1
102
RTVSPropertyOp14
 70
     1
102
RTVSPropertyOp15
 70
     1
102
RTVSPropertyOp16
 70
     1
102
RTVSPropertyOp17
 70
     1
102
RTVSPropertyOp18
 70
     1
102
RTVSPropertyOp19
 70
     1
102
RTVSPropertyOp20
 70
     1
102
RTVSPropertyOp21
 70
     1
102
RTVSPropertyOp22
 70
     1
102
RTVSPropertyOp23
 70
     1
102
RTVSPropertyOp24
 70
     1
102
RTVSPropertyOp25
 70
     1
102
RTVSPropertyOp26
 70
     1
102
RTVSPropertyOp27
 70
     1
102
RTVSPropertyOp28
 70
     1
102
RTVSPropertyOp29
 70
     1
102
RTVSPropertyOp30
 70
     1
102
RTVSPropertyOp31
 70
     1
102
RTVSPropertyOp32
 70
     1
102
RTVSPropertyOp33
 70
     1
102
RTVSPropertyOp34
 70
     1
102
RTVSPropertyOp35
 70
     1
102
RTVSPropertyOp36
 70
     1
102
RTVSPropertyOp37
 70
     1
102
RTVSPropertyOp38
 70
     1
102
RTVSPropertyOp39
 70
     1
102
RTVSPropertyOp40
 70
     1
102
RTVSPropertyOp41
 70
     1
102
RTVSPropertyOp42
 70
     1
102
RTVSPropertyOp43
 70
     1
102
RTVSPropertyOp44
 70
     1
102
RTVSPropertyOp45
 70
     1
102
RTVSPropertyOp46
 70
     1
102
RTVSPropertyOp47
 70
     1
102
RTVSPropertyOp48
 70
     1
102
RTVSPropertyOp49
 70
     1
102
RTVSPropertyOp50
 70
     1
102
RTVSPropertyOp51
 70
     0
102
RTVSPropertyOp52
 70
     0
102
RTVSPropertyOp53
 70
     1
102
RTVSPropertyOp54
 70
     1
102
RTVSPropertyOp55
 70
     1
102
RTVSPropertyOp56
 70
     1
102
RTVSPropertyOp57
 70
     1
102
RTVSPropertyOp58
 70
     1
102
RTVSPropertyOp59
 70
     1
102
RTVSPropertyOp60
 70
     1
102
RTVSPropertyOp61
 70
     1
102
RTVSPropertyOp62
 70
     1
  0
XRECORD
  5
29E2D
102
{ACAD_REACTORS
330
29E2C
102
}
330
29E2C
100
AcDbXrecord
280
     1
102
RTVSPost2010Prop28
280
     0
102
RTVSPost2010PropOp28
 70
     1
102
RTVSPost2010Prop29
280
     1
102
RTVSPost2010PropOp29
 70
     1
102
RTVSPost2010Prop30
280
     1
102
RTVSPost2010PropOp30
 70
     1
102
RTVSPost2010Prop31
280
     0
102
RTVSPost2010PropOp31
 70
     1
102
RTVSPost2010Prop32
280
     0
102
RTVSPost2010PropOp32
 70
     1
102
RTVSPost2010Prop33
280
     0
102
RTVSPost2010PropOp33
 70
     1
102
RTVSPost2010Prop34
280
     0
102
RTVSPost2010PropOp34
 70
     1
102
RTVSPost2010Prop35
280
     0
102
RTVSPost2010PropOp35
 70
     1
102
RTVSPost2010Prop36
280
     0
102
RTVSPost2010PropOp36
 70
     1
102
RTVSPost2010Prop37
 90
       50
102
RTVSPost2010PropOp37
 70
     1
102
RTVSPost2010Prop38
140
0.0
102
RTVSPost2010PropOp38
 70
     1
102
RTVSPost2010Prop39
140
1.0
102
RTVSPost2010PropOp39
 70
     1
102
RTVSPost2010Prop40
 90
        0
102
RTVSPost2010PropOp40
 70
     1
102
RTVSPost2010Prop41ColorIndex
 90
       18
102
RTVSPost2010Prop41ColorRGB
 90
        0
102
RTVSPost2010PropOp41
 70
     1
102
RTVSPost2010Prop42
 90
       50
102
RTVSPost2010PropOp42
 70
     1
102
RTVSPost2010Prop43
 90
        3
102
RTVSPost2010PropOp43
 70
     1
102
RTVSPost2010Prop44ColorIndex
 90
        5
102
RTVSPost2010Prop44ColorRGB
 90
      255
102
RTVSPost2010PropOp44
 70
     1
102
RTVSPost2010Prop45
280
     0
102
RTVSPost2010PropOp45
 70
     1
102
RTVSPost2010Prop46
 90
       50
102
RTVSPost2010PropOp46
 70
     1
102
RTVSPost2010Prop47
 90
       50
102
RTVSPost2010PropOp47
 70
     1
102
RTVSPost2010Prop48
 90
       50
102
RTVSPost2010PropOp48
 70
     1
102
RTVSPost2010Prop49
280
     0
102
RTVSPost2010PropOp49
 70
     1
102
RTVSPost2010Prop50
 90
       50
102
RTVSPost2010PropOp50
 70
     1
102
RTVSPost2010Prop51ColorIndex
 90
      256
102
RTVSPost2010Prop51ColorRGB
 90
-16777216
102
RTVSPost2010PropOp51
 70
     0
102
RTVSPost2010Prop52
140
1.0
102
RTVSPost2010PropOp52
 70
     0
102
RTVSPost2010Prop53
 90
        2
102
RTVSPost2010PropOp53
 70
     1
102
RTVSPost2010Prop54
  1
strokes_ogs.tif
102
RTVSPost2010PropOp54
 70
     1
102
RTVSPost2010Prop55
280
     0
102
RTVSPost2010PropOp55
 70
     1
102
RTVSPost2010Prop56
140
1.0
102
RTVSPost2010PropOp56
 70
     1
102
RTVSPost2010Prop57
140
1.0
102
RTVSPost2010PropOp57
 70
     1
102
RTVSPropertyOp0
 70
     1
102
RTVSPropertyOp1
 70
     1
102
RTVSPropertyOp2
 70
     1
102
RTVSPropertyOp3
 70
     1
102
RTVSPropertyOp4
 70
     1
102
RTVSPropertyOp5
 70
     1
102
RTVSPropertyOp6
 70
     1
102
RTVSPropertyOp7
 70
     1
102
RTVSPropertyOp8
 70
     1
102
RTVSPropertyOp9
 70
     1
102
RTVSPropertyOp10
 70
     1
102
RTVSPropertyOp11
 70
     1
102
RTVSPropertyOp12
 70
     1
102
RTVSPropertyOp13
 70
     1
102
RTVSPropertyOp14
 70
     1
102
RTVSPropertyOp15
 70
     1
102
RTVSPropertyOp16
 70
     1
102
RTVSPropertyOp17
 70
     1
102
RTVSPropertyOp18
 70
     1
102
RTVSPropertyOp19
 70
     1
102
RTVSPropertyOp20
 70
     1
102
RTVSPropertyOp21
 70
     1
102
RTVSPropertyOp22
 70
     1
102
RTVSPropertyOp23
 70
     1
102
RTVSPropertyOp24
 70
     1
102
RTVSPropertyOp25
 70
     1
102
RTVSPropertyOp26
 70
     1
102
RTVSPropertyOp27
 70
     1
102
RTVSPropertyOp28
 70
     1
102
RTVSPropertyOp29
 70
     1
102
RTVSPropertyOp30
 70
     1
102
RTVSPropertyOp31
 70
     1
102
RTVSPropertyOp32
 70
     1
102
RTVSPropertyOp33
 70
     1
102
RTVSPropertyOp34
 70
     1
102
RTVSPropertyOp35
 70
     1
102
RTVSPropertyOp36
 70
     1
102
RTVSPropertyOp37
 70
     1
102
RTVSPropertyOp38
 70
     1
102
RTVSPropertyOp39
 70
     1
102
RTVSPropertyOp40
 70
     1
102
RTVSPropertyOp41
 70
     1
102
RTVSPropertyOp42
 70
     1
102
RTVSPropertyOp43
 70
     1
102
RTVSPropertyOp44
 70
     1
102
RTVSPropertyOp45
 70
     1
102
RTVSPropertyOp46
 70
     1
102
RTVSPropertyOp47
 70
     1
102
RTVSPropertyOp48
 70
     1
102
RTVSPropertyOp49
 70
     1
102
RTVSPropertyOp50
 70
     1
102
RTVSPropertyOp51
 70
     0
102
RTVSPropertyOp52
 70
     0
102
RTVSPropertyOp53
 70
     1
102
RTVSPropertyOp54
 70
     1
102
RTVSPropertyOp55
 70
     1
102
RTVSPropertyOp56
 70
     1
102
RTVSPropertyOp57
 70
     1
102
RTVSPropertyOp58
 70
     1
102
RTVSPropertyOp59
 70
     1
102
RTVSPropertyOp60
 70
     1
102
RTVSPropertyOp61
 70
     1
102
RTVSPropertyOp62
 70
     1
  0
XRECORD
  5
29E27
102
{ACAD_REACTORS
330
29E26
102
}
330
29E26
100
AcDbXrecord
280
     1
102
RTVSPost2010Prop28
280
     0
102
RTVSPost2010PropOp28
 70
     1
102
RTVSPost2010Prop29
280
     1
102
RTVSPost2010PropOp29
 70
     1
102
RTVSPost2010Prop30
280
     1
102
RTVSPost2010PropOp30
 70
     1
102
RTVSPost2010Prop31
280
     0
102
RTVSPost2010PropOp31
 70
     1
102
RTVSPost2010Prop32
280
     0
102
RTVSPost2010PropOp32
 70
     1
102
RTVSPost2010Prop33
280
     0
102
RTVSPost2010PropOp33
 70
     1
102
RTVSPost2010Prop34
280
     0
102
RTVSPost2010PropOp34
 70
     1
102
RTVSPost2010Prop35
280
     0
102
RTVSPost2010PropOp35
 70
     1
102
RTVSPost2010Prop36
280
     0
102
RTVSPost2010PropOp36
 70
     1
102
RTVSPost2010Prop37
 90
       50
102
RTVSPost2010PropOp37
 70
     1
102
RTVSPost2010Prop38
140
0.0
102
RTVSPost2010PropOp38
 70
     1
102
RTVSPost2010Prop39
140
1.0
102
RTVSPost2010PropOp39
 70
     1
102
RTVSPost2010Prop40
 90
        0
102
RTVSPost2010PropOp40
 70
     1
102
RTVSPost2010Prop41ColorIndex
 90
       18
102
RTVSPost2010Prop41ColorRGB
 90
        0
102
RTVSPost2010PropOp41
 70
     1
102
RTVSPost2010Prop42
 90
       50
102
RTVSPost2010PropOp42
 70
     1
102
RTVSPost2010Prop43
 90
        3
102
RTVSPost2010PropOp43
 70
     1
102
RTVSPost2010Prop44ColorIndex
 90
        5
102
RTVSPost2010Prop44ColorRGB
 90
      255
102
RTVSPost2010PropOp44
 70
     1
102
RTVSPost2010Prop45
280
     0
102
RTVSPost2010PropOp45
 70
     1
102
RTVSPost2010Prop46
 90
       50
102
RTVSPost2010PropOp46
 70
     1
102
RTVSPost2010Prop47
 90
       50
102
RTVSPost2010PropOp47
 70
     1
102
RTVSPost2010Prop48
 90
       50
102
RTVSPost2010PropOp48
 70
     1
102
RTVSPost2010Prop49
280
     0
102
RTVSPost2010PropOp49
 70
     1
102
RTVSPost2010Prop50
 90
       50
102
RTVSPost2010PropOp50
 70
     1
102
RTVSPost2010Prop51ColorIndex
 90
      256
102
RTVSPost2010Prop51ColorRGB
 90
-16777216
102
RTVSPost2010PropOp51
 70
     0
102
RTVSPost2010Prop52
140
1.0
102
RTVSPost2010PropOp52
 70
     0
102
RTVSPost2010Prop53
 90
        2
102
RTVSPost2010PropOp53
 70
     1
102
RTVSPost2010Prop54
  1
strokes_ogs.tif
102
RTVSPost2010PropOp54
 70
     1
102
RTVSPost2010Prop55
280
     0
102
RTVSPost2010PropOp55
 70
     1
102
RTVSPost2010Prop56
140
1.0
102
RTVSPost2010PropOp56
 70
     1
102
RTVSPost2010Prop57
140
1.0
102
RTVSPost2010PropOp57
 70
     1
102
RTVSPropertyOp0
 70
     1
102
RTVSPropertyOp1
 70
     1
102
RTVSPropertyOp2
 70
     1
102
RTVSPropertyOp3
 70
     1
102
RTVSPropertyOp4
 70
     1
102
RTVSPropertyOp5
 70
     1
102
RTVSPropertyOp6
 70
     1
102
RTVSPropertyOp7
 70
     1
102
RTVSPropertyOp8
 70
     1
102
RTVSPropertyOp9
 70
     1
102
RTVSPropertyOp10
 70
     1
102
RTVSPropertyOp11
 70
     1
102
RTVSPropertyOp12
 70
     1
102
RTVSPropertyOp13
 70
     1
102
RTVSPropertyOp14
 70
     1
102
RTVSPropertyOp15
 70
     1
102
RTVSPropertyOp16
 70
     1
102
RTVSPropertyOp17
 70
     1
102
RTVSPropertyOp18
 70
     1
102
RTVSPropertyOp19
 70
     1
102
RTVSPropertyOp20
 70
     1
102
RTVSPropertyOp21
 70
     1
102
RTVSPropertyOp22
 70
     1
102
RTVSPropertyOp23
 70
     1
102
RTVSPropertyOp24
 70
     1
102
RTVSPropertyOp25
 70
     1
102
RTVSPropertyOp26
 70
     1
102
RTVSPropertyOp27
 70
     1
102
RTVSPropertyOp28
 70
     1
102
RTVSPropertyOp29
 70
     1
102
RTVSPropertyOp30
 70
     1
102
RTVSPropertyOp31
 70
     1
102
RTVSPropertyOp32
 70
     1
102
RTVSPropertyOp33
 70
     1
102
RTVSPropertyOp34
 70
     1
102
RTVSPropertyOp35
 70
     1
102
RTVSPropertyOp36
 70
     1
102
RTVSPropertyOp37
 70
     1
102
RTVSPropertyOp38
 70
     1
102
RTVSPropertyOp39
 70
     1
102
RTVSPropertyOp40
 70
     1
102
RTVSPropertyOp41
 70
     1
102
RTVSPropertyOp42
 70
     1
102
RTVSPropertyOp43
 70
     1
102
RTVSPropertyOp44
 70
     1
102
RTVSPropertyOp45
 70
     1
102
RTVSPropertyOp46
 70
     1
102
RTVSPropertyOp47
 70
     1
102
RTVSPropertyOp48
 70
     1
102
RTVSPropertyOp49
 70
     1
102
RTVSPropertyOp50
 70
     1
102
RTVSPropertyOp51
 70
     0
102
RTVSPropertyOp52
 70
     0
102
RTVSPropertyOp53
 70
     1
102
RTVSPropertyOp54
 70
     1
102
RTVSPropertyOp55
 70
     1
102
RTVSPropertyOp56
 70
     1
102
RTVSPropertyOp57
 70
     1
102
RTVSPropertyOp58
 70
     1
102
RTVSPropertyOp59
 70
     1
102
RTVSPropertyOp60
 70
     1
102
RTVSPropertyOp61
 70
     1
102
RTVSPropertyOp62
 70
     1
  0
XRECORD
  5
29E29
102
{ACAD_REACTORS
330
29E28
102
}
330
29E28
100
AcDbXrecord
280
     1
102
RTVSPost2010Prop28
280
     0
102
RTVSPost2010PropOp28
 70
     1
102
RTVSPost2010Prop29
280
     1
102
RTVSPost2010PropOp29
 70
     1
102
RTVSPost2010Prop30
280
     1
102
RTVSPost2010PropOp30
 70
     1
102
RTVSPost2010Prop31
280
     0
102
RTVSPost2010PropOp31
 70
     1
102
RTVSPost2010Prop32
280
     0
102
RTVSPost2010PropOp32
 70
     1
102
RTVSPost2010Prop33
280
     0
102
RTVSPost2010PropOp33
 70
     1
102
RTVSPost2010Prop34
280
     0
102
RTVSPost2010PropOp34
 70
     1
102
RTVSPost2010Prop35
280
     0
102
RTVSPost2010PropOp35
 70
     1
102
RTVSPost2010Prop36
280
     0
102
RTVSPost2010PropOp36
 70
     1
102
RTVSPost2010Prop37
 90
       50
102
RTVSPost2010PropOp37
 70
     1
102
RTVSPost2010Prop38
140
0.0
102
RTVSPost2010PropOp38
 70
     1
102
RTVSPost2010Prop39
140
1.0
102
RTVSPost2010PropOp39
 70
     1
102
RTVSPost2010Prop40
 90
        0
102
RTVSPost2010PropOp40
 70
     1
102
RTVSPost2010Prop41ColorIndex
 90
       18
102
RTVSPost2010Prop41ColorRGB
 90
        0
102
RTVSPost2010PropOp41
 70
     1
102
RTVSPost2010Prop42
 90
       50
102
RTVSPost2010PropOp42
 70
     1
102
RTVSPost2010Prop43
 90
        3
102
RTVSPost2010PropOp43
 70
     1
102
RTVSPost2010Prop44ColorIndex
 90
        5
102
RTVSPost2010Prop44ColorRGB
 90
      255
102
RTVSPost2010PropOp44
 70
     1
102
RTVSPost2010Prop45
280
     0
102
RTVSPost2010PropOp45
 70
     1
102
RTVSPost2010Prop46
 90
       50
102
RTVSPost2010PropOp46
 70
     1
102
RTVSPost2010Prop47
 90
       50
102
RTVSPost2010PropOp47
 70
     1
102
RTVSPost2010Prop48
 90
       50
102
RTVSPost2010PropOp48
 70
     1
102
RTVSPost2010Prop49
280
     0
102
RTVSPost2010PropOp49
 70
     1
102
RTVSPost2010Prop50
 90
       50
102
RTVSPost2010PropOp50
 70
     1
102
RTVSPost2010Prop51ColorIndex
 90
      256
102
RTVSPost2010Prop51ColorRGB
 90
-16777216
102
RTVSPost2010PropOp51
 70
     0
102
RTVSPost2010Prop52
140
1.0
102
RTVSPost2010PropOp52
 70
     0
102
RTVSPost2010Prop53
 90
        2
102
RTVSPost2010PropOp53
 70
     1
102
RTVSPost2010Prop54
  1
strokes_ogs.tif
102
RTVSPost2010PropOp54
 70
     1
102
RTVSPost2010Prop55
280
     0
102
RTVSPost2010PropOp55
 70
     1
102
RTVSPost2010Prop56
140
1.0
102
RTVSPost2010PropOp56
 70
     1
102
RTVSPost2010Prop57
140
1.0
102
RTVSPost2010PropOp57
 70
     1
102
RTVSPropertyOp0
 70
     1
102
RTVSPropertyOp1
 70
     1
102
RTVSPropertyOp2
 70
     1
102
RTVSPropertyOp3
 70
     1
102
RTVSPropertyOp4
 70
     1
102
RTVSPropertyOp5
 70
     1
102
RTVSPropertyOp6
 70
     1
102
RTVSPropertyOp7
 70
     1
102
RTVSPropertyOp8
 70
     1
102
RTVSPropertyOp9
 70
     1
102
RTVSPropertyOp10
 70
     1
102
RTVSPropertyOp11
 70
     1
102
RTVSPropertyOp12
 70
     1
102
RTVSPropertyOp13
 70
     1
102
RTVSPropertyOp14
 70
     1
102
RTVSPropertyOp15
 70
     1
102
RTVSPropertyOp16
 70
     1
102
RTVSPropertyOp17
 70
     1
102
RTVSPropertyOp18
 70
     1
102
RTVSPropertyOp19
 70
     1
102
RTVSPropertyOp20
 70
     1
102
RTVSPropertyOp21
 70
     1
102
RTVSPropertyOp22
 70
     1
102
RTVSPropertyOp23
 70
     1
102
RTVSPropertyOp24
 70
     1
102
RTVSPropertyOp25
 70
     1
102
RTVSPropertyOp26
 70
     1
102
RTVSPropertyOp27
 70
     1
102
RTVSPropertyOp28
 70
     1
102
RTVSPropertyOp29
 70
     1
102
RTVSPropertyOp30
 70
     1
102
RTVSPropertyOp31
 70
     1
102
RTVSPropertyOp32
 70
     1
102
RTVSPropertyOp33
 70
     1
102
RTVSPropertyOp34
 70
     1
102
RTVSPropertyOp35
 70
     1
102
RTVSPropertyOp36
 70
     1
102
RTVSPropertyOp37
 70
     1
102
RTVSPropertyOp38
 70
     1
102
RTVSPropertyOp39
 70
     1
102
RTVSPropertyOp40
 70
     1
102
RTVSPropertyOp41
 70
     1
102
RTVSPropertyOp42
 70
     1
102
RTVSPropertyOp43
 70
     1
102
RTVSPropertyOp44
 70
     1
102
RTVSPropertyOp45
 70
     1
102
RTVSPropertyOp46
 70
     1
102
RTVSPropertyOp47
 70
     1
102
RTVSPropertyOp48
 70
     1
102
RTVSPropertyOp49
 70
     1
102
RTVSPropertyOp50
 70
     1
102
RTVSPropertyOp51
 70
     0
102
RTVSPropertyOp52
 70
     0
102
RTVSPropertyOp53
 70
     1
102
RTVSPropertyOp54
 70
     1
102
RTVSPropertyOp55
 70
     1
102
RTVSPropertyOp56
 70
     1
102
RTVSPropertyOp57
 70
     1
102
RTVSPropertyOp58
 70
     1
102
RTVSPropertyOp59
 70
     1
102
RTVSPropertyOp60
 70
     1
102
RTVSPropertyOp61
 70
     1
102
RTVSPropertyOp62
 70
     1
  0
XRECORD
  5
29E1F
102
{ACAD_REACTORS
330
29E1E
102
}
330
29E1E
100
AcDbXrecord
280
     1
102
RTVSPost2010Prop28
280
     0
102
RTVSPost2010PropOp28
 70
     1
102
RTVSPost2010Prop29
280
     1
102
RTVSPost2010PropOp29
 70
     1
102
RTVSPost2010Prop30
280
     1
102
RTVSPost2010PropOp30
 70
     1
102
RTVSPost2010Prop31
280
     0
102
RTVSPost2010PropOp31
 70
     1
102
RTVSPost2010Prop32
280
     0
102
RTVSPost2010PropOp32
 70
     1
102
RTVSPost2010Prop33
280
     0
102
RTVSPost2010PropOp33
 70
     1
102
RTVSPost2010Prop34
280
     0
102
RTVSPost2010PropOp34
 70
     1
102
RTVSPost2010Prop35
280
     0
102
RTVSPost2010PropOp35
 70
     1
102
RTVSPost2010Prop36
280
     0
102
RTVSPost2010PropOp36
 70
     1
102
RTVSPost2010Prop37
 90
       50
102
RTVSPost2010PropOp37
 70
     1
102
RTVSPost2010Prop38
140
0.0
102
RTVSPost2010PropOp38
 70
     1
102
RTVSPost2010Prop39
140
1.0
102
RTVSPost2010PropOp39
 70
     1
102
RTVSPost2010Prop40
 90
        0
102
RTVSPost2010PropOp40
 70
     1
102
RTVSPost2010Prop41ColorIndex
 90
       18
102
RTVSPost2010Prop41ColorRGB
 90
        0
102
RTVSPost2010PropOp41
 70
     1
102
RTVSPost2010Prop42
 90
       50
102
RTVSPost2010PropOp42
 70
     1
102
RTVSPost2010Prop43
 90
        3
102
RTVSPost2010PropOp43
 70
     1
102
RTVSPost2010Prop44ColorIndex
 90
        5
102
RTVSPost2010Prop44ColorRGB
 90
      255
102
RTVSPost2010PropOp44
 70
     1
102
RTVSPost2010Prop45
280
     0
102
RTVSPost2010PropOp45
 70
     1
102
RTVSPost2010Prop46
 90
       50
102
RTVSPost2010PropOp46
 70
     1
102
RTVSPost2010Prop47
 90
       50
102
RTVSPost2010PropOp47
 70
     1
102
RTVSPost2010Prop48
 90
       50
102
RTVSPost2010PropOp48
 70
     1
102
RTVSPost2010Prop49
280
     0
102
RTVSPost2010PropOp49
 70
     1
102
RTVSPost2010Prop50
 90
       50
102
RTVSPost2010PropOp50
 70
     1
102
RTVSPost2010Prop51ColorIndex
 90
      256
102
RTVSPost2010Prop51ColorRGB
 90
-16777216
102
RTVSPost2010PropOp51
 70
     0
102
RTVSPost2010Prop52
140
1.0
102
RTVSPost2010PropOp52
 70
     0
102
RTVSPost2010Prop53
 90
        2
102
RTVSPost2010PropOp53
 70
     1
102
RTVSPost2010Prop54
  1
strokes_ogs.tif
102
RTVSPost2010PropOp54
 70
     1
102
RTVSPost2010Prop55
280
     0
102
RTVSPost2010PropOp55
 70
     1
102
RTVSPost2010Prop56
140
1.0
102
RTVSPost2010PropOp56
 70
     1
102
RTVSPost2010Prop57
140
1.0
102
RTVSPost2010PropOp57
 70
     1
102
RTVSPropertyOp0
 70
     1
102
RTVSPropertyOp1
 70
     1
102
RTVSPropertyOp2
 70
     1
102
RTVSPropertyOp3
 70
     1
102
RTVSPropertyOp4
 70
     1
102
RTVSPropertyOp5
 70
     1
102
RTVSPropertyOp6
 70
     1
102
RTVSPropertyOp7
 70
     1
102
RTVSPropertyOp8
 70
     1
102
RTVSPropertyOp9
 70
     1
102
RTVSPropertyOp10
 70
     1
102
RTVSPropertyOp11
 70
     1
102
RTVSPropertyOp12
 70
     1
102
RTVSPropertyOp13
 70
     1
102
RTVSPropertyOp14
 70
     1
102
RTVSPropertyOp15
 70
     1
102
RTVSPropertyOp16
 70
     1
102
RTVSPropertyOp17
 70
     1
102
RTVSPropertyOp18
 70
     1
102
RTVSPropertyOp19
 70
     1
102
RTVSPropertyOp20
 70
     1
102
RTVSPropertyOp21
 70
     1
102
RTVSPropertyOp22
 70
     1
102
RTVSPropertyOp23
 70
     1
102
RTVSPropertyOp24
 70
     1
102
RTVSPropertyOp25
 70
     1
102
RTVSPropertyOp26
 70
     1
102
RTVSPropertyOp27
 70
     1
102
RTVSPropertyOp28
 70
     1
102
RTVSPropertyOp29
 70
     1
102
RTVSPropertyOp30
 70
     1
102
RTVSPropertyOp31
 70
     1
102
RTVSPropertyOp32
 70
     1
102
RTVSPropertyOp33
 70
     1
102
RTVSPropertyOp34
 70
     1
102
RTVSPropertyOp35
 70
     1
102
RTVSPropertyOp36
 70
     1
102
RTVSPropertyOp37
 70
     1
102
RTVSPropertyOp38
 70
     1
102
RTVSPropertyOp39
 70
     1
102
RTVSPropertyOp40
 70
     1
102
RTVSPropertyOp41
 70
     1
102
RTVSPropertyOp42
 70
     1
102
RTVSPropertyOp43
 70
     1
102
RTVSPropertyOp44
 70
     1
102
RTVSPropertyOp45
 70
     1
102
RTVSPropertyOp46
 70
     1
102
RTVSPropertyOp47
 70
     1
102
RTVSPropertyOp48
 70
     1
102
RTVSPropertyOp49
 70
     1
102
RTVSPropertyOp50
 70
     1
102
RTVSPropertyOp51
 70
     0
102
RTVSPropertyOp52
 70
     0
102
RTVSPropertyOp53
 70
     1
102
RTVSPropertyOp54
 70
     1
102
RTVSPropertyOp55
 70
     1
102
RTVSPropertyOp56
 70
     1
102
RTVSPropertyOp57
 70
     1
102
RTVSPropertyOp58
 70
     1
102
RTVSPropertyOp59
 70
     1
102
RTVSPropertyOp60
 70
     1
102
RTVSPropertyOp61
 70
     1
102
RTVSPropertyOp62
 70
     1
  0
XRECORD
  5
29E13
102
{ACAD_REACTORS
330
29E12
102
}
330
29E12
100
AcDbXrecord
280
     1
102
RTVSPost2010Prop28
280
     0
102
RTVSPost2010PropOp28
 70
     1
102
RTVSPost2010Prop29
280
     1
102
RTVSPost2010PropOp29
 70
     1
102
RTVSPost2010Prop30
280
     1
102
RTVSPost2010PropOp30
 70
     1
102
RTVSPost2010Prop31
280
     0
102
RTVSPost2010PropOp31
 70
     1
102
RTVSPost2010Prop32
280
     0
102
RTVSPost2010PropOp32
 70
     1
102
RTVSPost2010Prop33
280
     0
102
RTVSPost2010PropOp33
 70
     1
102
RTVSPost2010Prop34
280
     0
102
RTVSPost2010PropOp34
 70
     1
102
RTVSPost2010Prop35
280
     0
102
RTVSPost2010PropOp35
 70
     1
102
RTVSPost2010Prop36
280
     0
102
RTVSPost2010PropOp36
 70
     1
102
RTVSPost2010Prop37
 90
       50
102
RTVSPost2010PropOp37
 70
     1
102
RTVSPost2010Prop38
140
0.0
102
RTVSPost2010PropOp38
 70
     1
102
RTVSPost2010Prop39
140
1.0
102
RTVSPost2010PropOp39
 70
     1
102
RTVSPost2010Prop40
 90
        0
102
RTVSPost2010PropOp40
 70
     1
102
RTVSPost2010Prop41ColorIndex
 90
       18
102
RTVSPost2010Prop41ColorRGB
 90
        0
102
RTVSPost2010PropOp41
 70
     1
102
RTVSPost2010Prop42
 90
       50
102
RTVSPost2010PropOp42
 70
     1
102
RTVSPost2010Prop43
 90
        3
102
RTVSPost2010PropOp43
 70
     1
102
RTVSPost2010Prop44ColorIndex
 90
        5
102
RTVSPost2010Prop44ColorRGB
 90
      255
102
RTVSPost2010PropOp44
 70
     1
102
RTVSPost2010Prop45
280
     0
102
RTVSPost2010PropOp45
 70
     1
102
RTVSPost2010Prop46
 90
       50
102
RTVSPost2010PropOp46
 70
     1
102
RTVSPost2010Prop47
 90
       50
102
RTVSPost2010PropOp47
 70
     1
102
RTVSPost2010Prop48
 90
       50
102
RTVSPost2010PropOp48
 70
     1
102
RTVSPost2010Prop49
280
     0
102
RTVSPost2010PropOp49
 70
     1
102
RTVSPost2010Prop50
 90
       50
102
RTVSPost2010PropOp50
 70
     1
102
RTVSPost2010Prop51ColorIndex
 90
      256
102
RTVSPost2010Prop51ColorRGB
 90
-16777216
102
RTVSPost2010PropOp51
 70
     0
102
RTVSPost2010Prop52
140
1.0
102
RTVSPost2010PropOp52
 70
     0
102
RTVSPost2010Prop53
 90
        2
102
RTVSPost2010PropOp53
 70
     1
102
RTVSPost2010Prop54
  1
strokes_ogs.tif
102
RTVSPost2010PropOp54
 70
     1
102
RTVSPost2010Prop55
280
     0
102
RTVSPost2010PropOp55
 70
     1
102
RTVSPost2010Prop56
140
1.0
102
RTVSPost2010PropOp56
 70
     1
102
RTVSPost2010Prop57
140
1.0
102
RTVSPost2010PropOp57
 70
     1
102
RTVSPropertyOp0
 70
     1
102
RTVSPropertyOp1
 70
     1
102
RTVSPropertyOp2
 70
     1
102
RTVSPropertyOp3
 70
     1
102
RTVSPropertyOp4
 70
     1
102
RTVSPropertyOp5
 70
     1
102
RTVSPropertyOp6
 70
     1
102
RTVSPropertyOp7
 70
     1
102
RTVSPropertyOp8
 70
     1
102
RTVSPropertyOp9
 70
     1
102
RTVSPropertyOp10
 70
     1
102
RTVSPropertyOp11
 70
     1
102
RTVSPropertyOp12
 70
     1
102
RTVSPropertyOp13
 70
     1
102
RTVSPropertyOp14
 70
     1
102
RTVSPropertyOp15
 70
     1
102
RTVSPropertyOp16
 70
     1
102
RTVSPropertyOp17
 70
     1
102
RTVSPropertyOp18
 70
     1
102
RTVSPropertyOp19
 70
     1
102
RTVSPropertyOp20
 70
     1
102
RTVSPropertyOp21
 70
     1
102
RTVSPropertyOp22
 70
     1
102
RTVSPropertyOp23
 70
     1
102
RTVSPropertyOp24
 70
     1
102
RTVSPropertyOp25
 70
     1
102
RTVSPropertyOp26
 70
     1
102
RTVSPropertyOp27
 70
     1
102
RTVSPropertyOp28
 70
     1
102
RTVSPropertyOp29
 70
     1
102
RTVSPropertyOp30
 70
     1
102
RTVSPropertyOp31
 70
     1
102
RTVSPropertyOp32
 70
     1
102
RTVSPropertyOp33
 70
     1
102
RTVSPropertyOp34
 70
     1
102
RTVSPropertyOp35
 70
     1
102
RTVSPropertyOp36
 70
     1
102
RTVSPropertyOp37
 70
     1
102
RTVSPropertyOp38
 70
     1
102
RTVSPropertyOp39
 70
     1
102
RTVSPropertyOp40
 70
     1
102
RTVSPropertyOp41
 70
     1
102
RTVSPropertyOp42
 70
     1
102
RTVSPropertyOp43
 70
     1
102
RTVSPropertyOp44
 70
     1
102
RTVSPropertyOp45
 70
     1
102
RTVSPropertyOp46
 70
     1
102
RTVSPropertyOp47
 70
     1
102
RTVSPropertyOp48
 70
     1
102
RTVSPropertyOp49
 70
     1
102
RTVSPropertyOp50
 70
     1
102
RTVSPropertyOp51
 70
     0
102
RTVSPropertyOp52
 70
     0
102
RTVSPropertyOp53
 70
     1
102
RTVSPropertyOp54
 70
     1
102
RTVSPropertyOp55
 70
     1
102
RTVSPropertyOp56
 70
     1
102
RTVSPropertyOp57
 70
     1
102
RTVSPropertyOp58
 70
     1
102
RTVSPropertyOp59
 70
     1
102
RTVSPropertyOp60
 70
     1
102
RTVSPropertyOp61
 70
     1
102
RTVSPropertyOp62
 70
     1
  0
XRECORD
  5
29E2B
102
{ACAD_REACTORS
330
29E2A
102
}
330
29E2A
100
AcDbXrecord
280
     1
102
RTVSPost2010Prop28
280
     0
102
RTVSPost2010PropOp28
 70
     1
102
RTVSPost2010Prop29
280
     1
102
RTVSPost2010PropOp29
 70
     1
102
RTVSPost2010Prop30
280
     1
102
RTVSPost2010PropOp30
 70
     1
102
RTVSPost2010Prop31
280
     0
102
RTVSPost2010PropOp31
 70
     1
102
RTVSPost2010Prop32
280
     0
102
RTVSPost2010PropOp32
 70
     1
102
RTVSPost2010Prop33
280
     0
102
RTVSPost2010PropOp33
 70
     1
102
RTVSPost2010Prop34
280
     0
102
RTVSPost2010PropOp34
 70
     1
102
RTVSPost2010Prop35
280
     0
102
RTVSPost2010PropOp35
 70
     1
102
RTVSPost2010Prop36
280
     0
102
RTVSPost2010PropOp36
 70
     1
102
RTVSPost2010Prop37
 90
       50
102
RTVSPost2010PropOp37
 70
     1
102
RTVSPost2010Prop38
140
0.0
102
RTVSPost2010PropOp38
 70
     1
102
RTVSPost2010Prop39
140
1.0
102
RTVSPost2010PropOp39
 70
     1
102
RTVSPost2010Prop40
 90
        0
102
RTVSPost2010PropOp40
 70
     1
102
RTVSPost2010Prop41ColorIndex
 90
       18
102
RTVSPost2010Prop41ColorRGB
 90
        0
102
RTVSPost2010PropOp41
 70
     1
102
RTVSPost2010Prop42
 90
       50
102
RTVSPost2010PropOp42
 70
     1
102
RTVSPost2010Prop43
 90
        3
102
RTVSPost2010PropOp43
 70
     1
102
RTVSPost2010Prop44ColorIndex
 90
        5
102
RTVSPost2010Prop44ColorRGB
 90
      255
102
RTVSPost2010PropOp44
 70
     1
102
RTVSPost2010Prop45
280
     0
102
RTVSPost2010PropOp45
 70
     1
102
RTVSPost2010Prop46
 90
       50
102
RTVSPost2010PropOp46
 70
     1
102
RTVSPost2010Prop47
 90
       50
102
RTVSPost2010PropOp47
 70
     1
102
RTVSPost2010Prop48
 90
       50
102
RTVSPost2010PropOp48
 70
     1
102
RTVSPost2010Prop49
280
     0
102
RTVSPost2010PropOp49
 70
     1
102
RTVSPost2010Prop50
 90
       50
102
RTVSPost2010PropOp50
 70
     1
102
RTVSPost2010Prop51ColorIndex
 90
      256
102
RTVSPost2010Prop51ColorRGB
 90
-16777216
102
RTVSPost2010PropOp51
 70
     0
102
RTVSPost2010Prop52
140
1.0
102
RTVSPost2010PropOp52
 70
     0
102
RTVSPost2010Prop53
 90
        2
102
RTVSPost2010PropOp53
 70
     1
102
RTVSPost2010Prop54
  1
strokes_ogs.tif
102
RTVSPost2010PropOp54
 70
     1
102
RTVSPost2010Prop55
280
     0
102
RTVSPost2010PropOp55
 70
     1
102
RTVSPost2010Prop56
140
1.0
102
RTVSPost2010PropOp56
 70
     1
102
RTVSPost2010Prop57
140
1.0
102
RTVSPost2010PropOp57
 70
     1
102
RTVSPropertyOp0
 70
     1
102
RTVSPropertyOp1
 70
     1
102
RTVSPropertyOp2
 70
     1
102
RTVSPropertyOp3
 70
     1
102
RTVSPropertyOp4
 70
     1
102
RTVSPropertyOp5
 70
     1
102
RTVSPropertyOp6
 70
     1
102
RTVSPropertyOp7
 70
     1
102
RTVSPropertyOp8
 70
     1
102
RTVSPropertyOp9
 70
     1
102
RTVSPropertyOp10
 70
     1
102
RTVSPropertyOp11
 70
     1
102
RTVSPropertyOp12
 70
     1
102
RTVSPropertyOp13
 70
     1
102
RTVSPropertyOp14
 70
     1
102
RTVSPropertyOp15
 70
     1
102
RTVSPropertyOp16
 70
     1
102
RTVSPropertyOp17
 70
     1
102
RTVSPropertyOp18
 70
     1
102
RTVSPropertyOp19
 70
     1
102
RTVSPropertyOp20
 70
     1
102
RTVSPropertyOp21
 70
     1
102
RTVSPropertyOp22
 70
     1
102
RTVSPropertyOp23
 70
     1
102
RTVSPropertyOp24
 70
     1
102
RTVSPropertyOp25
 70
     1
102
RTVSPropertyOp26
 70
     1
102
RTVSPropertyOp27
 70
     1
102
RTVSPropertyOp28
 70
     1
102
RTVSPropertyOp29
 70
     1
102
RTVSPropertyOp30
 70
     1
102
RTVSPropertyOp31
 70
     1
102
RTVSPropertyOp32
 70
     1
102
RTVSPropertyOp33
 70
     1
102
RTVSPropertyOp34
 70
     1
102
RTVSPropertyOp35
 70
     1
102
RTVSPropertyOp36
 70
     1
102
RTVSPropertyOp37
 70
     1
102
RTVSPropertyOp38
 70
     1
102
RTVSPropertyOp39
 70
     1
102
RTVSPropertyOp40
 70
     1
102
RTVSPropertyOp41
 70
     1
102
RTVSPropertyOp42
 70
     1
102
RTVSPropertyOp43
 70
     1
102
RTVSPropertyOp44
 70
     1
102
RTVSPropertyOp45
 70
     1
102
RTVSPropertyOp46
 70
     1
102
RTVSPropertyOp47
 70
     1
102
RTVSPropertyOp48
 70
     1
102
RTVSPropertyOp49
 70
     1
102
RTVSPropertyOp50
 70
     1
102
RTVSPropertyOp51
 70
     0
102
RTVSPropertyOp52
 70
     0
102
RTVSPropertyOp53
 70
     1
102
RTVSPropertyOp54
 70
     1
102
RTVSPropertyOp55
 70
     1
102
RTVSPropertyOp56
 70
     1
102
RTVSPropertyOp57
 70
     1
102
RTVSPropertyOp58
 70
     1
102
RTVSPropertyOp59
 70
     1
102
RTVSPropertyOp60
 70
     1
102
RTVSPropertyOp61
 70
     1
102
RTVSPropertyOp62
 70
     1
  0
ENDSEC
  0
EOF
