  0
SECTION
  2
HEADER
  9
$ACADVER
  1
AC1015
  9
$ACADMAINTVER
 70
    20
  9
$DWGCODEPAGE
  3
ANSI_1252
  9
$INSBASE
 10
0.0
 20
0.0
 30
0.0
  9
$EXTMIN
 10
-72.14214916078162
 20
-49.51522713004976
 30
-0.0000000349181948
  9
$EXTMAX
 10
73.15173448360496
 20
54.28421096676515
 30
0.0000000814935747
  9
$LIMMIN
 10
-170.0
 20
-170.0
  9
$LIMMAX
 10
519.0
 20
260.0
  9
$ORTHOMODE
 70
     0
  9
$REGENMODE
 70
     1
  9
$FILLMODE
 70
     1
  9
$QTEXTMODE
 70
     0
  9
$MIRRTEXT
 70
     0
  9
$LTSCALE
 40
1.0
  9
$ATTMODE
 70
     1
  9
$TEXTSIZE
 40
3.5
  9
$TRACEWID
 40
1.0
  9
$TEXTSTYLE
  7
MM_STANDARD
  9
$CLAYER
  8
0
  9
$CELTYPE
  6
ByLayer
  9
$CECOLOR
 62
   256
  9
$CELTSCALE
 40
1.0
  9
$DISPSILH
 70
     0
  9
$DIMSCALE
 40
1.0
  9
$DIMASZ
 40
2.5
  9
$DIMEXO
 40
0.0
  9
$DIMDLI
 40
3.75
  9
$DIMRND
 40
0.0
  9
$DIMDLE
 40
0.0
  9
$DIMEXE
 40
1.25
  9
$DIMTP
 40
0.0
  9
$DIMTM
 40
0.0
  9
$DIMTXT
 40
3.5
  9
$DIMCEN
 40
0.0
  9
$DIMTSZ
 40
0.0
  9
$DIMTOL
 70
     0
  9
$DIMLIM
 70
     0
  9
$DIMTIH
 70
     0
  9
$DIMTOH
 70
     0
  9
$DIMSE1
 70
     0
  9
$DIMSE2
 70
     0
  9
$DIMTAD
 70
     1
  9
$DIMZIN
 70
     9
  9
$DIMBLK
  1

  9
$DIMASO
 70
     1
  9
$DIMSHO
 70
     1
  9
$DIMPOST
  1

  9
$DIMAPOST
  1

  9
$DIMALT
 70
     0
  9
$DIMALTD
 70
     3
  9
$DIMALTF
 40
0.039370078
  9
$DIMLFAC
 40
1.0
  9
$DIMTOFL
 70
     0
  9
$DIMTVP
 40
0.0
  9
$DIMTIX
 70
     0
  9
$DIMSOXD
 70
     0
  9
$DIMSAH
 70
     0
  9
$DIMBLK1
  1

  9
$DIMBLK2
  1

  9
$DIMSTYLE
  2
MM_STANDARD
  9
$DIMCLRD
 70
   256
  9
$DIMCLRE
 70
   256
  9
$DIMCLRT
 70
   256
  9
$DIMTFAC
 40
1.0
  9
$DIMGAP
 40
0.625
  9
$DIMJUST
 70
     0
  9
$DIMSD1
 70
     0
  9
$DIMSD2
 70
     0
  9
$DIMTOLJ
 70
     1
  9
$DIMTZIN
 70
     8
  9
$DIMALTZ
 70
     0
  9
$DIMALTTZ
 70
     0
  9
$DIMUPT
 70
     0
  9
$DIMDEC
 70
     2
  9
$DIMTDEC
 70
     2
  9
$DIMALTU
 70
     2
  9
$DIMALTTD
 70
     3
  9
$DIMTXSTY
  7
MM_STANDARD
  9
$DIMAUNIT
 70
     0
  9
$DIMADEC
 70
     2
  9
$DIMALTRND
 40
0.0
  9
$DIMAZIN
 70
     2
  9
$DIMDSEP
 70
    46
  9
$DIMATFIT
 70
     3
  9
$DIMFRAC
 70
     0
  9
$DIMLDRBLK
  1

  9
$DIMLUNIT
 70
     2
  9
$DIMLWD
 70
    -1
  9
$DIMLWE
 70
    -1
  9
$DIMTMOVE
 70
     0
  9
$LUNITS
 70
     2
  9
$LUPREC
 70
     4
  9
$SKETCHINC
 40
1.0
  9
$FILLETRAD
 40
0.8
  9
$AUNITS
 70
     0
  9
$AUPREC
 70
     0
  9
$MENU
  1
.
  9
$ELEVATION
 40
0.0
  9
$PELEVATION
 40
0.0
  9
$THICKNESS
 40
0.0
  9
$LIMCHECK
 70
     0
  9
$CHAMFERA
 40
0.0
  9
$CHAMFERB
 40
0.0
  9
$CHAMFERC
 40
0.0
  9
$CHAMFERD
 40
0.0
  9
$SKPOLY
 70
     0
  9
$TDCREATE
 40
2453353.800459155
  9
$TDUCREATE
 40
2453353.717125822
  9
$TDUPDATE
 40
2460185.583365047
  9
$TDUUPDATE
 40
2460185.500031713
  9
$TDINDWG
 40
4096.7269276505
  9
$TDUSRTIMER
 40
4096.7268564931
  9
$USRTIMER
 70
     1
  9
$ANGBASE
 50
0.0
  9
$ANGDIR
 70
     0
  9
$PDMODE
 70
     1
  9
$PDSIZE
 40
0.0
  9
$PLINEWID
 40
0.0
  9
$SPLFRAME
 70
     0
  9
$SPLINETYPE
 70
     6
  9
$SPLINESEGS
 70
     8
  9
$HANDSEED
  5
29B23
  9
$SURFTAB1
 70
     6
  9
$SURFTAB2
 70
     6
  9
$SURFTYPE
 70
     6
  9
$SURFU
 70
     6
  9
$SURFV
 70
     6
  9
$UCSBASE
  2

  9
$UCSNAME
  2

  9
$UCSORG
 10
0.0
 20
0.0
 30
0.0
  9
$UCSXDIR
 10
1.0
 20
0.0
 30
0.0
  9
$UCSYDIR
 10
0.0
 20
1.0
 30
0.0
  9
$UCSORTHOREF
  2

  9
$UCSORTHOVIEW
 70
     0
  9
$UCSORGTOP
 10
0.0
 20
0.0
 30
0.0
  9
$UCSORGBOTTOM
 10
0.0
 20
0.0
 30
0.0
  9
$UCSORGLEFT
 10
0.0
 20
0.0
 30
0.0
  9
$UCSORGRIGHT
 10
0.0
 20
0.0
 30
0.0
  9
$UCSORGFRONT
 10
0.0
 20
0.0
 30
0.0
  9
$UCSORGBACK
 10
0.0
 20
0.0
 30
0.0
  9
$PUCSBASE
  2

  9
$PUCSNAME
  2

  9
$PUCSORG
 10
0.0
 20
0.0
 30
0.0
  9
$PUCSXDIR
 10
1.0
 20
0.0
 30
0.0
  9
$PUCSYDIR
 10
0.0
 20
1.0
 30
0.0
  9
$PUCSORTHOREF
  2

  9
$PUCSORTHOVIEW
 70
     0
  9
$PUCSORGTOP
 10
0.0
 20
0.0
 30
0.0
  9
$PUCSORGBOTTOM
 10
0.0
 20
0.0
 30
0.0
  9
$PUCSORGLEFT
 10
0.0
 20
0.0
 30
0.0
  9
$PUCSORGRIGHT
 10
0.0
 20
0.0
 30
0.0
  9
$PUCSORGFRONT
 10
0.0
 20
0.0
 30
0.0
  9
$PUCSORGBACK
 10
0.0
 20
0.0
 30
0.0
  9
$USERI1
 70
     0
  9
$USERI2
 70
     0
  9
$USERI3
 70
     0
  9
$USERI4
 70
     0
  9
$USERI5
 70
     0
  9
$USERR1
 40
0.0
  9
$USERR2
 40
0.0
  9
$USERR3
 40
0.0
  9
$USERR4
 40
0.0
  9
$USERR5
 40
0.0
  9
$WORLDVIEW
 70
     1
  9
$SHADEDGE
 70
     3
  9
$SHADEDIF
 70
    70
  9
$TILEMODE
 70
     1
  9
$MAXACTVP
 70
    64
  9
$PINSBASE
 10
0.0
 20
0.0
 30
0.0
  9
$PLIMCHECK
 70
     0
  9
$PEXTMIN
 10
0.0
 20
0.0
 30
0.0
  9
$PEXTMAX
 10
0.0
 20
0.0
 30
0.0
  9
$PLIMMIN
 10
0.0
 20
0.0
  9
$PLIMMAX
 10
12.0
 20
9.0
  9
$UNITMODE
 70
     0
  9
$VISRETAIN
 70
     0
  9
$PLINEGEN
 70
     0
  9
$PSLTSCALE
 70
     1
  9
$TREEDEPTH
 70
  3020
  9
$CMLSTYLE
  2
Standard
  9
$CMLJUST
 70
     0
  9
$CMLSCALE
 40
20.0
  9
$PROXYGRAPHICS
 70
     0
  9
$MEASUREMENT
 70
     1
  9
$CELWEIGHT
370
    -1
  9
$ENDCAPS
280
     0
  9
$JOINSTYLE
280
     0
  9
$LWDISPLAY
290
     0
  9
$INSUNITS
 70
     4
  9
$HYPERLINKBASE
  1

  9
$STYLESHEET
  1

  9
$XEDIT
290
     1
  9
$CEPSNTYPE
380
     0
  9
$PSTYLEMODE
290
     1
  9
$FINGERPRINTGUID
  2
{049C219F-BC74-4B97-8A86-7E4B06A8BFF9}
  9
$VERSIONGUID
  2
{3C6F4E57-E1D6-46F3-BC9E-B713247E5703}
  9
$EXTNAMES
290
     1
  9
$PSVPSCALE
 40
0.0
  9
$OLESTARTUP
290
     0
  0
ENDSEC
  0
SECTION
  2
CLASSES
  0
CLASS
  1
ACDBDICTIONARYWDFLT
  2
AcDbDictionaryWithDefault
  3
ObjectDBX Classes
 90
        0
280
     0
281
     0
  0
CLASS
  1
ACDBPLACEHOLDER
  2
AcDbPlaceHolder
  3
ObjectDBX Classes
 90
        0
280
     0
281
     0
  0
CLASS
  1
LAYOUT
  2
AcDbLayout
  3
ObjectDBX Classes
 90
        0
280
     0
281
     0
  0
CLASS
  1
DICTIONARYVAR
  2
AcDbDictionaryVar
  3
ObjectDBX Classes
 90
        0
280
     0
281
     0
  0
CLASS
  1
TABLESTYLE
  2
AcDbTableStyle
  3
ObjectDBX Classes
 90
     4095
280
     0
281
     0
  0
CLASS
  1
SCALE
  2
AcDbScale
  3
ObjectDBX Classes
 90
     1153
280
     0
281
     0
  0
CLASS
  1
RASTERVARIABLES
  2
AcDbRasterVariables
  3
ISM
 90
        0
280
     0
281
     0
  0
CLASS
  1
SORTENTSTABLE
  2
AcDbSortentsTable
  3
ObjectDBX Classes
 90
        0
280
     0
281
     0
  0
CLASS
  1
MATERIAL
  2
AcDbMaterial
  3
ObjectDBX Classes
 90
     1153
280
     0
281
     0
  0
CLASS
  1
VISUALSTYLE
  2
AcDbVisualStyle
  3
ObjectDBX Classes
 90
     4095
280
     0
281
     0
  0
CLASS
  1
MLEADERSTYLE
  2
AcDbMLeaderStyle
  3
ACDB_MLEADERSTYLE_CLASS
 90
     4095
280
     0
281
     0
  0
CLASS
  1
ACDBSECTIONVIEWSTYLE
  2
AcDbSectionViewStyle
  3
ObjectDBX Classes
 90
     1025
280
     0
281
     0
  0
CLASS
  1
ACDBDETAILVIEWSTYLE
  2
AcDbDetailViewStyle
  3
ObjectDBX Classes
 90
     1025
280
     0
281
     0
  0
CLASS
  1
CELLSTYLEMAP
  2
AcDbCellStyleMap
  3
ObjectDBX Classes
 90
     1152
280
     0
281
     0
  0
ENDSEC
  0
SECTION
  2
TABLES
  0
TABLE
  2
VPORT
  5
8
330
0
100
AcDbSymbolTable
 70
     1
  0
VPORT
  5
97
330
8
100
AcDbSymbolTableRecord
100
AcDbViewportTableRecord
  2
*Active
 70
     0
 10
0.0
 20
0.0
 11
1.0
 21
1.0
 12
0.5047926614116634
 22
2.384491918357696
 13
0.0
 23
0.0
 14
5.0
 24
5.0
 15
5.0
 25
5.0
 16
0.0
 26
0.0
 36
1.0
 17
0.0
 27
0.0
 37
0.0
 40
104.5112056723359
 41
1.597254004576659
 42
50.0
 43
0.0
 44
0.0
 50
0.0
 51
0.0
 71
    16
 72
  2000
 73
     1
 74
     3
 75
     0
 76
     0
 77
     0
 78
     0
281
     0
 65
     1
110
0.0
120
0.0
130
0.0
111
1.0
121
0.0
131
0.0
112
0.0
122
1.0
132
0.0
 79
     0
146
0.0
1001
ACAD_NAV_VCDISPLAY
1070
     3
  0
ENDTAB
  0
TABLE
  2
LTYPE
  5
5
330
0
100
AcDbSymbolTable
 70
     5
  0
LTYPE
  5
14
330
5
100
AcDbSymbolTableRecord
100
AcDbLinetypeTableRecord
  2
ByBlock
 70
     0
  3

 72
    65
 73
     0
 40
0.0
  0
LTYPE
  5
15
330
5
100
AcDbSymbolTableRecord
100
AcDbLinetypeTableRecord
  2
ByLayer
 70
     0
  3

 72
    65
 73
     0
 40
0.0
  0
LTYPE
  5
16
330
5
100
AcDbSymbolTableRecord
100
AcDbLinetypeTableRecord
  2
Continuous
 70
     0
  3
Solid line
 72
    65
 73
     0
 40
0.0
  0
LTYPE
  5
29982
330
5
100
AcDbSymbolTableRecord
100
AcDbLinetypeTableRecord
  2
CENTER2
 70
     0
  3
Center (.5x) ___ _ ___ _ ___ _ ___ _ ___ _ ___
 72
    65
 73
     4
 40
28.57499999999999
 49
19.05
 74
     4
 75
     0
340
0
 46
1.0
 50
0.0
 44
0.0
 45
0.0
 49
-3.174999999999998
 74
     4
 75
     0
340
0
 46
1.0
 50
0.0
 44
0.0
 45
0.0
 49
3.174999999999998
 74
     4
 75
     0
340
0
 46
1.0
 50
0.0
 44
0.0
 45
0.0
 49
-3.174999999999998
 74
     4
 75
     0
340
0
 46
1.0
 50
0.0
 44
0.0
 45
0.0
  0
LTYPE
  5
29983
330
5
100
AcDbSymbolTableRecord
100
AcDbLinetypeTableRecord
  2
HIDDEN
 70
     0
  3
Hidden __ __ __ __ __ __ __ __ __ __ __ __ __ _
 72
    65
 73
     2
 40
9.524999999999996
 49
6.349999999999997
 74
     4
 75
     0
340
0
 46
1.0
 50
0.0
 44
0.0
 45
0.0
 49
-3.174999999999998
 74
     4
 75
     0
340
0
 46
1.0
 50
0.0
 44
0.0
 45
0.0
  0
ENDTAB
  0
TABLE
  2
LAYER
  5
2
102
{ACAD_XDICTIONARY
360
29990
102
}
330
0
100
AcDbSymbolTable
 70
    14
  0
LAYER
  5
10
102
{ACAD_XDICTIONARY
360
29986
102
}
330
2
100
AcDbSymbolTableRecord
100
AcDbLayerTableRecord
  2
0
 70
     0
 62
     7
  6
Continuous
370
    -3
390
F
  0
LAYER
  5
23
102
{ACAD_XDICTIONARY
360
29987
102
}
330
2
100
AcDbSymbolTableRecord
100
AcDbLayerTableRecord
  2
1
 70
     0
 62
     4
  6
Continuous
370
    50
390
F
  0
LAYER
  5
25
102
{ACAD_XDICTIONARY
360
29988
102
}
330
2
100
AcDbSymbolTableRecord
100
AcDbLayerTableRecord
  2
2
 70
     0
 62
     7
  6
Continuous
370
    25
390
F
  0
LAYER
  5
173A
102
{ACAD_XDICTIONARY
360
29989
102
}
330
2
100
AcDbSymbolTableRecord
100
AcDbLayerTableRecord
  2
SK2
 70
     0
 62
     7
  6
Continuous
370
    25
390
F
  0
LAYER
  5
2A
102
{ACAD_XDICTIONARY
360
2998A
102
}
330
2
100
AcDbSymbolTableRecord
100
AcDbLayerTableRecord
  2
4
 70
     0
 62
     2
  6
CENTER2
370
    25
390
F
  0
LAYER
  5
2E
102
{ACAD_XDICTIONARY
360
2998B
102
}
330
2
100
AcDbSymbolTableRecord
100
AcDbLayerTableRecord
  2
SK6
 70
     0
 62
     5
  6
Continuous
370
    -3
390
F
  0
LAYER
  5
2F
330
2
100
AcDbSymbolTableRecord
100
AcDbLayerTableRecord
  2
DEFPOINTS
 70
     0
 62
     7
  6
Continuous
290
     0
370
    25
390
F
  0
LAYER
  5
375
102
{ACAD_XDICTIONARY
360
2998C
102
}
330
2
100
AcDbSymbolTableRecord
100
AcDbLayerTableRecord
  2
CUT
 70
     0
 62
     1
  6
Continuous
370
    25
390
F
  0
LAYER
  5
376
102
{ACAD_XDICTIONARY
360
2998D
102
}
330
2
100
AcDbSymbolTableRecord
100
AcDbLayerTableRecord
  2
NOCUT
 70
     0
 62
     7
  6
Continuous
370
    -3
390
F
  0
LAYER
  5
49B
102
{ACAD_XDICTIONARY
360
2998E
102
}
330
2
100
AcDbSymbolTableRecord
100
AcDbLayerTableRecord
  2
INFTOTAL
 70
     0
 62
     9
  6
Continuous
370
    18
390
F
1001
AcAecLayerStandard
1000

1000

  0
LAYER
  5
1D28
330
2
100
AcDbSymbolTableRecord
100
AcDbLayerTableRecord
  2
SK4
 70
     0
 62
     2
  6
CENTER2
370
    25
390
F
  0
LAYER
  5
8BCD
330
2
100
AcDbSymbolTableRecord
100
AcDbLayerTableRecord
  2
SK1
 70
     0
 62
     4
  6
Continuous
370
    50
390
F
  0
LAYER
  5
14429
330
2
100
AcDbSymbolTableRecord
100
AcDbLayerTableRecord
  2
SK3
 70
     0
 62
     1
  6
HIDDEN
370
    35
390
F
  0
ENDTAB
  0
TABLE
  2
STYLE
  5
3
330
0
100
AcDbSymbolTable
 70
     2
  0
STYLE
  5
11
330
3
100
AcDbSymbolTableRecord
100
AcDbTextStyleTableRecord
  2
Standard
 70
     0
 40
0.0
 41
1.0
 50
0.0
 71
     0
 42
5.0
  3
monos.ttf
  4

1001
ACAD
1000
Monospac821 BT
1071
       49
  0
STYLE
  5
8B9
330
3
100
AcDbSymbolTableRecord
100
AcDbTextStyleTableRecord
  2
MM_STANDARD
 70
     0
 40
3.5
 41
1.0
 50
0.0
 71
     0
 42
3.5
  3
monos.ttf
  4

1001
ACAD
1000
Monospac821 BT
1071
       49
  0
ENDTAB
  0
TABLE
  2
VIEW
  5
6
330
0
100
AcDbSymbolTable
 70
     0
  0
ENDTAB
  0
TABLE
  2
UCS
  5
7
330
0
100
AcDbSymbolTable
 70
     0
  0
ENDTAB
  0
TABLE
  2
APPID
  5
9
330
0
100
AcDbSymbolTable
 70
    25
  0
APPID
  5
12
330
9
100
AcDbSymbolTableRecord
100
AcDbRegAppTableRecord
  2
ACAD
 70
     0
  0
APPID
  5
2996A
330
9
100
AcDbSymbolTableRecord
100
AcDbRegAppTableRecord
  2
ACAD_PSEXT
 70
     0
  0
APPID
  5
2996B
330
9
100
AcDbSymbolTableRecord
100
AcDbRegAppTableRecord
  2
ACAD_EXEMPT_FROM_CAD_STANDARDS
 70
     0
  0
APPID
  5
2996C
330
9
100
AcDbSymbolTableRecord
100
AcDbRegAppTableRecord
  2
ACAD_MLEADERVER
 70
     0
  0
APPID
  5
2996D
330
9
100
AcDbSymbolTableRecord
100
AcDbRegAppTableRecord
  2
ACAD_DSTYLE_DIMJAG
 70
     0
  0
APPID
  5
2996E
330
9
100
AcDbSymbolTableRecord
100
AcDbRegAppTableRecord
  2
ACAD_DSTYLE_DIMBREAK
 70
     0
  0
APPID
  5
2996F
330
9
100
AcDbSymbolTableRecord
100
AcDbRegAppTableRecord
  2
ACAD_DSTYLE_DIMTALN
 70
     0
  0
APPID
  5
29970
330
9
100
AcDbSymbolTableRecord
100
AcDbRegAppTableRecord
  2
AcAecLayerStandard
 70
     0
  0
APPID
  5
29971
330
9
100
AcDbSymbolTableRecord
100
AcDbRegAppTableRecord
  2
DCO15
 70
     0
  0
APPID
  5
29972
330
9
100
AcDbSymbolTableRecord
100
AcDbRegAppTableRecord
  2
AcadAnnoPO
 70
     0
  0
APPID
  5
29973
330
9
100
AcDbSymbolTableRecord
100
AcDbRegAppTableRecord
  2
ACAD_DSTYLE_DIMRADIAL_EXTENSION
 70
     0
  0
APPID
  5
29974
330
9
100
AcDbSymbolTableRecord
100
AcDbRegAppTableRecord
  2
AcadAnnotative
 70
     0
  0
APPID
  5
29975
330
9
100
AcDbSymbolTableRecord
100
AcDbRegAppTableRecord
  2
AcDbDynamicBlockGUID
 70
     0
  0
APPID
  5
29976
330
9
100
AcDbSymbolTableRecord
100
AcDbRegAppTableRecord
  2
AcDbBlockRepETag
 70
     0
  0
APPID
  5
29977
330
9
100
AcDbSymbolTableRecord
100
AcDbRegAppTableRecord
  2
MCAD_NO_VIS
 70
     0
  0
APPID
  5
29978
330
9
100
AcDbSymbolTableRecord
100
AcDbRegAppTableRecord
  2
ACAD_TEMP_GRAPHIC
 70
     0
  0
APPID
  5
29979
330
9
100
AcDbSymbolTableRecord
100
AcDbRegAppTableRecord
  2
ACATTRIBSERVICES
 70
     0
  0
APPID
  5
2997A
330
9
100
AcDbSymbolTableRecord
100
AcDbRegAppTableRecord
  2
DESIGNERASSEMBLIES
 70
     0
  0
APPID
  5
2997B
330
9
100
AcDbSymbolTableRecord
100
AcDbRegAppTableRecord
  2
ACAD_NAV_VCDISPLAY
 70
     0
  0
APPID
  5
2997C
330
9
100
AcDbSymbolTableRecord
100
AcDbRegAppTableRecord
  2
ACAD_DSTYLE_DIM_LINETYPE
 70
     0
  0
APPID
  5
2997D
330
9
100
AcDbSymbolTableRecord
100
AcDbRegAppTableRecord
  2
ACAD_DSTYLE_DIM_EXT1_LINETYPE
 70
     0
  0
APPID
  5
2997E
330
9
100
AcDbSymbolTableRecord
100
AcDbRegAppTableRecord
  2
ACAD_DSTYLE_DIM_EXT2_LINETYPE
 70
     0
  0
APPID
  5
2997F
330
9
100
AcDbSymbolTableRecord
100
AcDbRegAppTableRecord
  2
ACAD_DSTYLE_DIMARC_LENGTH_SYMBOL
 70
     0
  0
APPID
  5
29980
330
9
100
AcDbSymbolTableRecord
100
AcDbRegAppTableRecord
  2
AcDbAttr
 70
     0
  0
APPID
  5
29981
330
9
100
AcDbSymbolTableRecord
100
AcDbRegAppTableRecord
  2
AcadAnnoMonitorAlertIconDisabled
 70
     0
  0
ENDTAB
  0
TABLE
  2
DIMSTYLE
  5
A
330
0
100
AcDbSymbolTable
 70
     2
100
AcDbDimStyleTable
 71
     0
  0
DIMSTYLE
105
27
330
A
100
AcDbSymbolTableRecord
100
AcDbDimStyleTableRecord
  2
Standard
 70
     0
 77
     1
276
     1
278
     0
340
11
  0
DIMSTYLE
105
3F
102
{ACAD_REACTORS
330
28E3F
330
28E4C
330
28E5A
330
28E69
330
29231
330
29241
330
29375
102
}
330
A
100
AcDbSymbolTableRecord
100
AcDbDimStyleTableRecord
  2
MM_STANDARD
 70
     0
 41
2.5
 42
0.0
 43
3.75
 44
1.25
 73
     0
 74
     0
 77
     1
 78
     1
140
3.5
141
0.0
143
0.039370078
147
0.625
171
     3
176
   256
177
   256
178
   256
179
     2
271
     2
272
     2
274
     3
284
     8
340
8B9
371
    -1
372
    -1
1001
ACAD_DSTYLE_DIMJAG
1070
   388
1040
1.5
1001
ACAD_DSTYLE_DIMTALN
1070
   392
1070
     0
  0
ENDTAB
  0
TABLE
  2
BLOCK_RECORD
  5
1
330
0
100
AcDbSymbolTable
 70
    42
  0
BLOCK_RECORD
  5
1F
102
{ACAD_XDICTIONARY
360
299E6
102
}
330
1
100
AcDbSymbolTableRecord
100
AcDbBlockTableRecord
  2
*Model_Space
340
22
  0
BLOCK_RECORD
  5
73
330
1
100
AcDbSymbolTableRecord
100
AcDbBlockTableRecord
  2
*Paper_Space
340
74
  0
BLOCK_RECORD
  5
962
330
1
100
AcDbSymbolTableRecord
100
AcDbBlockTableRecord
  2
CERO_POINT
340
0
102
{BLKREFS
331
293D3
102
}
1001
ACAD
1000
DesignCenter Data
1002
{
1070
     1
1070
     4
1002
}
  0
BLOCK_RECORD
  5
2897E
330
1
100
AcDbSymbolTableRecord
100
AcDbBlockTableRecord
  2
_NONE
340
0
  0
BLOCK_RECORD
  5
28E4B
330
1
100
AcDbSymbolTableRecord
100
AcDbBlockTableRecord
  2
*D31
340
0
  0
BLOCK_RECORD
  5
28E59
330
1
100
AcDbSymbolTableRecord
100
AcDbBlockTableRecord
  2
*D32
340
0
  0
BLOCK_RECORD
  5
28E68
330
1
100
AcDbSymbolTableRecord
100
AcDbBlockTableRecord
  2
*D33
340
0
  0
BLOCK_RECORD
  5
28E75
330
1
100
AcDbSymbolTableRecord
100
AcDbBlockTableRecord
  2
*D34
340
0
  0
BLOCK_RECORD
  5
2923C
330
1
100
AcDbSymbolTableRecord
100
AcDbBlockTableRecord
  2
*D38
340
0
  0
BLOCK_RECORD
  5
2924C
330
1
100
AcDbSymbolTableRecord
100
AcDbBlockTableRecord
  2
*D39
340
0
  0
BLOCK_RECORD
  5
29380
330
1
100
AcDbSymbolTableRecord
100
AcDbBlockTableRecord
  2
*D41
340
0
  0
ENDTAB
  0
ENDSEC
  0
SECTION
  2
BLOCKS
  0
BLOCK
  5
20
330
1F
100
AcDbEntity
  8
0
100
AcDbBlockBegin
  2
*Model_Space
 70
     0
 10
0.0
 20
0.0
 30
0.0
  3
*Model_Space
  1

  0
ENDBLK
  5
21
330
1F
100
AcDbEntity
  8
0
100
AcDbBlockEnd
  0
BLOCK
  5
75
330
73
100
AcDbEntity
 67
     1
  8
0
100
AcDbBlockBegin
  2
*Paper_Space
 70
     0
 10
0.0
 20
0.0
 30
0.0
  3
*Paper_Space
  1

  0
ENDBLK
  5
76
330
73
100
AcDbEntity
 67
     1
  8
0
100
AcDbBlockEnd
  0
BLOCK
  5
29991
330
962
100
AcDbEntity
  8
0
100
AcDbBlockBegin
  2
CERO_POINT
 70
     0
 10
0.0
 20
0.0
 30
0.0
  3
CERO_POINT
  1

  0
CIRCLE
  5
964
102
{ACAD_REACTORS
330
969
102
}
330
962
100
AcDbEntity
  8
SK2
100
AcDbCircle
 10
0.0
 20
0.0
 30
0.0
 40
2.5
  0
LINE
  5
965
330
962
100
AcDbEntity
  8
SK2
100
AcDbLine
 10
0.0900000000037835
 20
0.0
 30
0.0
 11
-0.0899999999965076
 21
0.0
 31
0.0
  0
LINE
  5
966
330
962
100
AcDbEntity
  8
SK2
100
AcDbLine
 10
0.0
 20
0.0899999999999182
 30
0.0
 11
0.0
 21
-0.0899999999999182
 31
0.0
  0
LINE
  5
967
102
{ACAD_REACTORS
330
969
102
}
330
962
100
AcDbEntity
  8
SK2
100
AcDbLine
 10
0.0
 20
-2.5
 30
0.0
 11
0.0
 21
2.5
 31
0.0
  0
LINE
  5
968
102
{ACAD_REACTORS
330
969
102
}
330
962
100
AcDbEntity
  8
SK2
100
AcDbLine
 10
2.5
 20
0.0
 30
0.0
 11
-2.5
 21
0.0
 31
0.0
  0
HATCH
  5
969
330
962
100
AcDbEntity
  8
SK2
100
AcDbHatch
 10
0.0
 20
0.0
 30
0.0
210
0.0
220
0.0
230
1.0
  2
ANSI31
 70
     0
 71
     1
 91
        2
 92
        7
 72
     1
 73
     1
 93
        3
 10
0.0
 20
-2.5
 42
0.4142135623730951
 10
2.5
 20
0.0
 42
0.0
 10
0.0
 20
0.0
 42
0.0
 97
        3
330
964
330
968
330
967
 92
        7
 72
     1
 73
     1
 93
        3
 10
0.0
 20
0.0
 42
0.0
 10
0.0
 20
2.5
 42
0.4142135623730951
 10
-2.5
 20
0.0
 42
0.0
 97
        3
330
968
330
967
330
964
 75
     0
 76
     1
 52
180.0
 41
0.1
 77
     0
 78
     1
 53
225.0
 43
5.170976743218488
 44
0.0
 45
0.2245064030267288
 46
-0.2245064030267289
 79
     0
 47
0.0243816376539857
 98
        2
 10
0.8789156907296272
 20
-1.044463114528752
 10
-0.8545028512526187
 20
0.7841600866017872
1001
ACAD
1010
0.0
1020
0.0
1030
0.0
  0
ENDBLK
  5
29992
330
962
100
AcDbEntity
  8
0
100
AcDbBlockEnd
  0
BLOCK
  5
299C9
330
2897E
100
AcDbEntity
  8
0
100
AcDbBlockBegin
  2
_NONE
 70
     0
 10
0.0
 20
0.0
 30
0.0
  3
_NONE
  1

  0
ENDBLK
  5
299CA
330
2897E
100
AcDbEntity
  8
0
100
AcDbBlockEnd
  0
BLOCK
  5
299CF
330
28E4B
100
AcDbEntity
  8
0
100
AcDbBlockBegin
  2
*D31
 70
     1
 10
0.0
 20
0.0
 30
0.0
  3
*D31
  1

  0
POINT
  5
295EB
330
28E4B
100
AcDbEntity
  8
DEFPOINTS
  6
ByBlock
100
AcDbPoint
 10
26.95023
 20
11.773538
 30
0.0
  0
POINT
  5
295EC
330
28E4B
100
AcDbEntity
  8
DEFPOINTS
  6
ByBlock
100
AcDbPoint
 10
0.0
 20
10.5
 30
0.0
  0
LINE
  5
295ED
330
28E4B
100
AcDbEntity
  8
2
  6
ByBlock
100
AcDbLine
 10
26.95023
 20
11.773538
 30
0.0
 11
26.95058565955898
 21
33.13390662764322
 31
0.0
  0
LINE
  5
295EE
330
28E4B
100
AcDbEntity
  8
2
  6
ByBlock
100
AcDbLine
 10
-0.0000000000000016
 20
10.5
 30
0.0
 11
0.0003768719999908
 21
33.13435536050636
 31
0.0
  0
LINE
  5
295EF
330
28E4B
100
AcDbEntity
  8
2
  6
ByBlock
100
AcDbLine
 10
26.95056484650765
 20
31.88390662781649
 30
0.0
 11
0.0003560589486615
 21
31.88435536067962
 31
0.0
  0
SOLID
  5
295F0
330
28E4B
100
AcDbEntity
  8
2
  6
ByBlock
100
AcDbTrace
 10
26.95056484650765
 20
31.88390662781649
 30
0.0
 11
24.45057178453798
 21
32.30061492052814
 31
0.0
 12
24.45055790917042
 22
31.46728158731016
 32
0.0
 13
24.45055790917042
 23
31.46728158731016
 33
0.0
  0
SOLID
  5
295F1
330
28E4B
100
AcDbEntity
  8
2
  6
ByBlock
100
AcDbTrace
 10
0.0003560589486615
 20
31.88435536067962
 30
0.0
 11
2.500362996285891
 21
32.30098040118595
 31
0.0
 12
2.500349120918337
 22
31.46764706796797
 32
0.0
 13
2.500349120918337
 23
31.46764706796797
 33
0.0
  0
LINE
  5
295F2
330
28E4B
100
AcDbEntity
  8
2
  6
ByBlock
100
AcDbLine
 10
26.95023
 20
11.773538
 30
0.0
 11
26.95023
 21
11.773538
 31
0.0
  0
MTEXT
  5
295F3
330
28E4B
100
AcDbEntity
  8
2
  6
ByBlock
100
AcDbMText
 10
13.4751549133772
 20
34.28126733136131
 30
0.0
 40
3.5
 41
0.0
 71
     5
 72
     1
  1
\A1;27
  7
MM_STANDARD
 11
0.9999999998613816
 21
-0.0000166504410634
 31
0.0
 73
     1
 44
1.0
1001
ACAD
1000
MTEXTBEGIN
1070
    73
1070
     1
1070
    44
1040
1.0
1070
    74
1070
     0
1000
MTEXTEND
  0
ENDBLK
  5
299D0
330
28E4B
100
AcDbEntity
  8
0
100
AcDbBlockEnd
  0
BLOCK
  5
299D1
330
28E59
100
AcDbEntity
  8
0
100
AcDbBlockBegin
  2
*D32
 70
     1
 10
0.0
 20
0.0
 30
0.0
  3
*D32
  1

  0
POINT
  5
29696
330
28E59
100
AcDbEntity
  8
DEFPOINTS
  6
ByBlock
100
AcDbPoint
 10
20.65000000000001
 20
12.408019
 30
0.0
  0
POINT
  5
29697
330
28E59
100
AcDbEntity
  8
DEFPOINTS
  6
ByBlock
100
AcDbPoint
 10
26.95023
 20
11.773538
 30
0.0
  0
LINE
  5
29698
330
28E59
100
AcDbEntity
  8
2
  6
ByBlock
100
AcDbLine
 10
20.65000000000001
 20
12.408019
 30
0.0
 11
20.65044544899498
 21
25.78451134302862
 31
0.0
  0
LINE
  5
29699
330
28E59
100
AcDbEntity
  8
2
  6
ByBlock
100
AcDbLine
 10
26.95023
 20
11.773538
 30
0.0
 11
26.95069657078532
 21
25.78430153910856
 31
0.0
  0
LINE
  5
2969A
330
28E59
100
AcDbEntity
  8
2
  6
ByBlock
100
AcDbLine
 10
20.65040382289232
 20
24.53451134372171
 30
0.0
 11
26.95065494468267
 21
24.53430153980164
 31
0.0
  0
SOLID
  5
2969B
330
28E59
100
AcDbEntity
  8
2
  6
ByBlock
100
AcDbTrace
 10
20.65040382289232
 20
24.53451134372171
 30
0.0
 11
23.15038994613859
 21
24.11776142508068
 31
0.0
 12
23.15041769687369
 22
24.95109475795212
 32
0.0
 13
23.15041769687369
 23
24.95109475795212
 33
0.0
  0
LINE
  5
2969C
330
28E59
100
AcDbEntity
  8
2
  6
ByBlock
100
AcDbLine
 10
20.65040382289232
 20
24.53451134372171
 30
0.0
 11
8.144254848800661
 21
24.53492780951473
 31
0.0
  0
SOLID
  5
2969D
330
28E59
100
AcDbEntity
  8
2
  6
ByBlock
100
AcDbTrace
 10
26.95065494468267
 20
24.53430153980164
 30
0.0
 11
24.45064107070131
 21
24.11771812557124
 31
0.0
 12
24.45066882143641
 22
24.95105145844267
 32
0.0
 13
24.45066882143641
 23
24.95105145844267
 33
0.0
  0
LINE
  5
2969E
330
28E59
100
AcDbEntity
  8
2
  6
ByBlock
100
AcDbLine
 10
20.65000000000001
 20
12.408019
 30
0.0
 11
20.65000000000001
 21
12.408019
 31
0.0
  0
MTEXT
  5
2969F
330
28E59
100
AcDbEntity
  8
2
  6
ByBlock
100
AcDbMText
 10
13.14741084237924
 20
26.98231917747058
 30
0.0
 40
3.5
 41
0.0
 71
     5
 72
     1
  1
6.3
  7
MM_STANDARD
 11
0.9999999994455258
 21
-0.0000333008821224
 31
0.0
 73
     1
 44
1.0
1001
ACAD
1000
MTEXTBEGIN
1070
    73
1070
     1
1070
    44
1040
1.0
1070
    74
1070
     0
1000
MTEXTEND
  0
ENDBLK
  5
299D2
330
28E59
100
AcDbEntity
  8
0
100
AcDbBlockEnd
  0
BLOCK
  5
299D3
330
28E68
100
AcDbEntity
  8
0
100
AcDbBlockBegin
  2
*D33
 70
     1
 10
0.0
 20
0.0
 30
0.0
  3
*D33
  1

  0
MTEXT
  5
29831
330
28E68
100
AcDbEntity
  8
2
  6
ByBlock
100
AcDbMText
 10
41.46777068169532
 20
19.18315945634519
 30
0.0
 40
3.5
 41
0.0
 71
     5
 72
     1
  1
\A1;80%%d~90%%d
  7
MM_STANDARD
 11
0.98604780987673
 21
-0.1664623580191757
 31
0.0
 73
     1
 44
1.0
1001
ACAD
1000
MTEXTBEGIN
1070
    73
1070
     1
1070
    44
1040
1.0
1070
    74
1070
     0
1000
MTEXTEND
  0
POINT
  5
29832
330
28E68
100
AcDbEntity
  8
DEFPOINTS
  6
ByBlock
100
AcDbPoint
 10
26.083347
 20
12.12124799999998
 30
0.0
  0
POINT
  5
29833
330
28E68
100
AcDbEntity
  8
DEFPOINTS
  6
ByBlock
100
AcDbPoint
 10
26.95022900000001
 20
11.96839299999999
 30
0.0
  0
POINT
  5
29834
330
28E68
100
AcDbEntity
  8
DEFPOINTS
  6
ByBlock
100
AcDbPoint
 10
26.95022900000001
 20
13.212211
 30
0.0
  0
POINT
  5
29835
330
28E68
100
AcDbEntity
  8
DEFPOINTS
  6
ByBlock
100
AcDbPoint
 10
26.95022900000001
 20
11.96839299999999
 30
0.0
  0
SOLID
  5
29836
330
28E68
100
AcDbEntity
  8
2
  6
ByBlock
100
AcDbTrace
 10
26.95022900000001
 20
19.47759817331616
 30
0.0
 11
24.55446879114952
 21
18.65058902415284
 31
0.0
 12
24.41575015946686
 22
19.47229553238361
 32
0.0
 13
24.41575015946686
 23
19.47229553238361
 33
0.0
  0
SOLID
  5
29837
330
28E68
100
AcDbEntity
  8
2
  6
ByBlock
100
AcDbTrace
 10
19.55510598488596
 20
13.27235539450717
 30
0.0
 11
20.00043657614663
 21
15.7674088559782
 31
0.0
 12
20.78557118033951
 22
15.48810955819244
 32
0.0
 13
20.78557118033951
 23
15.48810955819244
 33
0.0
  0
LINE
  5
29838
330
28E68
100
AcDbEntity
  8
2
  6
ByBlock
100
AcDbLine
 10
26.95022900000001
 20
13.212211
 30
0.0
 11
26.95022900000001
 21
20.72759817331617
 31
0.0
  0
LINE
  5
29839
330
28E68
100
AcDbEntity
  8
2
  6
ByBlock
100
AcDbLine
 10
26.083347
 20
12.12124799999998
 30
0.0
 11
18.32409636994819
 21
13.48941604946516
 31
0.0
  0
ARC
  5
2983A
330
28E68
100
AcDbEntity
  8
2
  6
ByBlock
100
AcDbCircle
 10
26.95022900000001
 20
11.96839299999999
 30
0.0
 40
7.509205173316172
100
AcDbArc
 50
109.1643927205567
 51
150.8355871318578
  0
ARC
  5
2983B
330
28E68
100
AcDbEntity
  8
2
  6
ByBlock
100
AcDbCircle
 10
26.95022900000001
 20
11.96839299999999
 30
0.0
 40
7.509205173316172
100
AcDbArc
 50
62.76802385339694
 51
90.0
  0
LINE
  5
2983C
330
28E68
100
AcDbEntity
  8
2
  6
ByBlock
100
AcDbLine
 10
30.38639795452879
 20
18.64528638322029
 30
0.0
 11
51.75844720827125
 21
15.03730543255554
 31
0.0
  0
ENDBLK
  5
299D4
330
28E68
100
AcDbEntity
  8
0
100
AcDbBlockEnd
  0
BLOCK
  5
299D5
330
28E75
100
AcDbEntity
  8
0
100
AcDbBlockBegin
  2
*D34
 70
     1
 10
0.0
 20
0.0
 30
0.0
  3
*D34
  1

  0
POINT
  5
29629
330
28E75
100
AcDbEntity
  8
DEFPOINTS
  6
ByBlock
100
AcDbPoint
 10
26.95023
 20
11.773538
 30
0.0
  0
POINT
  5
2962A
330
28E75
100
AcDbEntity
  8
DEFPOINTS
  6
ByBlock
100
AcDbPoint
 10
-22.0
 20
6.0
 30
0.0
  0
LINE
  5
2962B
330
28E75
100
AcDbEntity
  8
SK2
  6
ByBlock
100
AcDbLine
 10
26.95023
 20
11.773538
 30
0.0
 11
26.9507022095968
 21
40.13372347085089
 31
0.0
  0
LINE
  5
2962C
330
28E75
100
AcDbEntity
  8
SK2
  6
ByBlock
100
AcDbLine
 10
-22.0
 20
6.0
 30
0.0
 11
-21.9994316448782
 21
40.13453851216978
 31
0.0
  0
LINE
  5
2962D
330
28E75
100
AcDbEntity
  8
SK2
  6
ByBlock
100
AcDbLine
 10
26.95068139654547
 20
38.88372347102416
 30
0.0
 11
-21.99945245792953
 21
38.88453851234307
 31
0.0
  0
SOLID
  5
2962E
330
28E75
100
AcDbEntity
  8
SK2
  6
ByBlock
100
AcDbTrace
 10
26.95068139654547
 20
38.88372347102416
 30
0.0
 11
24.45068833457579
 21
39.30043176373582
 31
0.0
 12
24.45067445920824
 22
38.46709843051783
 32
0.0
 13
24.45067445920824
 23
38.46709843051783
 33
0.0
  0
SOLID
  5
2962F
330
28E75
100
AcDbEntity
  8
SK2
  6
ByBlock
100
AcDbTrace
 10
-21.99945245792953
 20
38.88453851234307
 30
0.0
 11
-19.4994455205923
 21
39.3011635528494
 31
0.0
 12
-19.49945939595985
 22
38.46783021963143
 32
0.0
 13
-19.49945939595985
 23
38.46783021963143
 33
0.0
  0
LINE
  5
29630
330
28E75
100
AcDbEntity
  8
SK2
  6
ByBlock
100
AcDbLine
 10
26.95023
 20
11.773538
 30
0.0
 11
26.95023
 21
11.773538
 31
0.0
  0
MTEXT
  5
29631
330
28E75
100
AcDbEntity
  8
SK2
  6
ByBlock
100
AcDbMText
 10
2.475155752919814
 20
41.33168897576753
 30
0.0
 40
3.5
 41
0.0
 71
     5
 72
     1
  1
\A1;49
  7
MM_STANDARD
 11
0.9999999998613816
 21
-0.0000166504410634
 31
0.0
 73
     1
 44
1.0
1001
ACAD
1000
MTEXTBEGIN
1070
    73
1070
     1
1070
    44
1040
1.0
1070
    74
1070
     0
1000
MTEXTEND
  0
ENDBLK
  5
299D6
330
28E75
100
AcDbEntity
  8
0
100
AcDbBlockEnd
  0
BLOCK
  5
299DD
330
2923C
100
AcDbEntity
  8
0
100
AcDbBlockBegin
  2
*D38
 70
     1
 10
0.0
 20
0.0
 30
0.0
  3
*D38
  1

  0
POINT
  5
2963B
330
2923C
100
AcDbEntity
  8
DEFPOINTS
  6
ByBlock
100
AcDbPoint
 10
-22.0
 20
6.0
 30
0.0
  0
POINT
  5
2963C
330
2923C
100
AcDbEntity
  8
DEFPOINTS
  6
ByBlock
100
AcDbPoint
 10
-22.0
 20
-6.0
 30
0.0
  0
LINE
  5
2963D
330
2923C
100
AcDbEntity
  8
SK2
  6
ByBlock
100
AcDbLine
 10
-22.0
 20
6.0
 30
0.0
 11
-36.37502968552781
 21
6.0
 31
0.0
  0
LINE
  5
2963E
330
2923C
100
AcDbEntity
  8
SK2
  6
ByBlock
100
AcDbLine
 10
-22.0
 20
-6.0
 30
0.0
 11
-36.37502968552781
 21
-6.0
 31
0.0
  0
LINE
  5
2963F
330
2923C
100
AcDbEntity
  8
SK2
  6
ByBlock
100
AcDbLine
 10
-35.12502968552781
 20
6.0
 30
0.0
 11
-35.12502968552781
 21
-6.0
 31
0.0
  0
SOLID
  5
29640
330
2923C
100
AcDbEntity
  8
SK2
  6
ByBlock
100
AcDbTrace
 10
-35.12502968552781
 20
6.0
 30
0.0
 11
-35.54169635219456
 21
3.5
 31
0.0
 12
-34.70836301886106
 22
3.5
 32
0.0
 13
-34.70836301886106
 23
3.5
 33
0.0
  0
SOLID
  5
29641
330
2923C
100
AcDbEntity
  8
SK2
  6
ByBlock
100
AcDbTrace
 10
-35.12502968552781
 20
-6.0
 30
0.0
 11
-35.54169635219456
 21
-3.5
 31
0.0
 12
-34.70836301886106
 22
-3.5
 32
0.0
 13
-34.70836301886106
 23
-3.5
 33
0.0
  0
LINE
  5
29642
330
2923C
100
AcDbEntity
  8
SK2
  6
ByBlock
100
AcDbLine
 10
-22.0
 20
6.0
 30
0.0
 11
-22.0
 21
6.0
 31
0.0
  0
MTEXT
  5
29643
330
2923C
100
AcDbEntity
  8
SK2
  6
ByBlock
100
AcDbMText
 10
-37.52216601722141
 20
0.0
 30
0.0
 40
3.5
 41
0.0
 71
     5
 72
     1
  1
M12
  7
MM_STANDARD
 11
0.0000000000000001
 21
1.0
 31
0.0
 73
     1
 44
1.0
1001
ACAD
1000
MTEXTBEGIN
1070
    73
1070
     1
1070
    44
1040
1.0
1070
    74
1070
     0
1000
MTEXTEND
  0
ENDBLK
  5
299DE
330
2923C
100
AcDbEntity
  8
0
100
AcDbBlockEnd
  0
BLOCK
  5
299DF
330
2924C
100
AcDbEntity
  8
0
100
AcDbBlockBegin
  2
*D39
 70
     1
 10
0.0
 20
0.0
 30
0.0
  3
*D39
  1

  0
LINE
  5
29A42
330
2924C
100
AcDbEntity
  8
SK2
  6
ByBlock
100
AcDbLine
 10
0.0
 20
10.5
 30
0.0
 11
-46.60561399876594
 21
10.49999999999999
 31
0.0
  0
LINE
  5
29A43
330
2924C
100
AcDbEntity
  8
SK2
  6
ByBlock
100
AcDbLine
 10
0.0
 20
-10.5
 30
0.0
 11
-46.60561399876594
 21
-10.50000000000001
 31
0.0
  0
LINE
  5
29A44
330
2924C
100
AcDbEntity
  8
SK2
  6
ByBlock
100
AcDbLine
 10
-45.35561399876594
 20
7.999999999999997
 30
0.0
 11
-45.35561399876594
 21
-8.000000000000008
 31
0.0
  0
SOLID
  5
29A45
330
2924C
100
AcDbEntity
  8
SK2
100
AcDbTrace
 10
-45.7722806654326
 20
7.999999999999997
 30
0.0
 11
-44.93894733209927
 21
7.999999999999997
 31
0.0
 12
-45.35561399876594
 22
10.49999999999999
 32
0.0
 13
-45.35561399876594
 23
10.49999999999999
 33
0.0
  0
SOLID
  5
29A46
330
2924C
100
AcDbEntity
  8
SK2
100
AcDbTrace
 10
-45.7722806654326
 20
-8.000000000000008
 30
0.0
 11
-44.93894733209927
 21
-8.000000000000008
 31
0.0
 12
-45.35561399876594
 22
-10.50000000000001
 32
0.0
 13
-45.35561399876594
 23
-10.50000000000001
 33
0.0
  0
MTEXT
  5
29A47
330
2924C
100
AcDbEntity
  8
SK2
100
AcDbMText
 10
-48.20162594535763
 20
0.0000000000000067
 30
0.0
 40
3.5
 41
0.0
 71
     5
 72
     1
  1
\A1;%%C21
  7
MM_STANDARD
 11
0.0000000000000001
 21
1.0
 31
0.0
 73
     1
 44
1.0
1001
ACAD
1000
MTEXTBEGIN
1070
    73
1070
     1
1070
    44
1040
1.0
1070
    74
1070
     0
1000
MTEXTEND
  0
POINT
  5
29A48
330
2924C
100
AcDbEntity
  8
DEFPOINTS
 62
     0
100
AcDbPoint
 10
0.0
 20
10.5
 30
0.0
  0
POINT
  5
29A49
330
2924C
100
AcDbEntity
  8
DEFPOINTS
 62
     0
100
AcDbPoint
 10
0.0
 20
-10.5
 30
0.0
  0
POINT
  5
29A4A
330
2924C
100
AcDbEntity
  8
DEFPOINTS
 62
     0
100
AcDbPoint
 10
-45.35561399876594
 20
-10.50000000000001
 30
0.0
  0
ENDBLK
  5
299E0
330
2924C
100
AcDbEntity
  8
0
100
AcDbBlockEnd
  0
BLOCK
  5
299E3
330
29380
100
AcDbEntity
  8
0
100
AcDbBlockBegin
  2
*D41
 70
     1
 10
0.0
 20
0.0
 30
0.0
  3
*D41
  1

  0
LINE
  5
29A28
330
29380
100
AcDbEntity
  8
2
  6
ByBlock
100
AcDbLine
 10
22.65815336782942
 20
12.50000000000001
 30
0.0
 11
56.2431008359701
 21
12.50000000000001
 31
0.0
  0
LINE
  5
29A29
330
29380
100
AcDbEntity
  8
2
  6
ByBlock
100
AcDbLine
 10
54.99310083597012
 20
10.00000000000001
 30
0.0
 11
54.99310083597012
 21
-5.010453267744186
 31
0.0
  0
SOLID
  5
29A2A
330
29380
100
AcDbEntity
  8
2
100
AcDbTrace
 10
54.57643416930345
 20
10.00000000000001
 30
0.0
 11
55.40976750263678
 21
10.00000000000001
 31
0.0
 12
54.99310083597012
 22
12.50000000000001
 32
0.0
 13
54.99310083597012
 23
12.50000000000001
 33
0.0
  0
MTEXT
  5
29A2B
330
29380
100
AcDbEntity
  8
2
100
AcDbMText
 10
52.14708888937839
 20
0.0000000000000003
 30
0.0
 40
3.5
 41
0.0
 71
     5
 72
     1
  1
\A1;%%C25
  7
MM_STANDARD
 11
0.0000000000000001
 21
1.0
 31
0.0
 73
     1
 44
1.0
1001
ACAD
1000
MTEXTBEGIN
1070
    73
1070
     1
1070
    44
1040
1.0
1070
    74
1070
     0
1000
MTEXTEND
  0
POINT
  5
29A2C
330
29380
100
AcDbEntity
  8
DEFPOINTS
 62
     0
100
AcDbPoint
 10
22.65815336782942
 20
12.50000000000001
 30
0.0
  0
POINT
  5
29A2D
330
29380
100
AcDbEntity
  8
DEFPOINTS
 62
     0
100
AcDbPoint
 10
26.60000000000001
 20
-12.50000000000001
 30
0.0
  0
POINT
  5
29A2E
330
29380
100
AcDbEntity
  8
DEFPOINTS
 62
     0
100
AcDbPoint
 10
54.99310083597012
 20
-12.5
 30
0.0
  0
ENDBLK
  5
299E4
330
29380
100
AcDbEntity
  8
0
100
AcDbBlockEnd
  0
ENDSEC
  0
SECTION
  2
ENTITIES
  0
LINE
  5
AA8
330
1F
100
AcDbEntity
  8
INFTOTAL
100
AcDbLine
 10
-72.11472452489497
 20
1.185700667213936
 30
0.0
 11
-72.11472452489497
 21
54.28162022488457
 31
0.0
  0
LINE
  5
AA9
330
1F
100
AcDbEntity
  8
INFTOTAL
100
AcDbLine
 10
-72.11472452489497
 20
54.28162022488457
 30
0.0
 11
-5.10141162117469
 21
54.28162022488457
 31
0.0
  0
LINE
  5
AAA
330
1F
100
AcDbEntity
  8
INFTOTAL
100
AcDbLine
 10
13.63153063539536
 20
-49.49375433501502
 30
0.0
 11
73.14495271972269
 21
-49.49375433501508
 31
0.0
  0
LINE
  5
AAB
330
1F
100
AcDbEntity
  8
INFTOTAL
100
AcDbLine
 10
73.14495271972269
 20
-49.49375433501508
 30
0.0
 11
73.14495271972269
 21
-7.33469173581933
 31
0.0
  0
POINT
  5
AFA
330
1F
100
AcDbEntity
  8
1
100
AcDbPoint
 10
120.6316161181774
 20
18.06659889820604
 30
0.0
  0
POINT
  5
AFB
330
1F
100
AcDbEntity
  8
1
100
AcDbPoint
 10
117.3316161181774
 20
20.61513489820602
 30
0.0
  0
POINT
  5
136D
330
1F
100
AcDbEntity
  8
CUT
100
AcDbPoint
 10
120.6316161181774
 20
18.03682647108094
 30
0.0
  0
POINT
  5
410F
330
1F
100
AcDbEntity
  8
0
 62
     7
370
     5
100
AcDbPoint
 10
694.5793644972614
 20
32.06429484497903
 30
0.0
  0
POINT
  5
4112
330
1F
100
AcDbEntity
  8
0
 62
     7
370
     5
100
AcDbPoint
 10
694.7265624972615
 20
3.587258844979031
 30
0.0
  0
POINT
  5
4BBB
330
1F
100
AcDbEntity
  8
0
 62
     7
370
     5
100
AcDbPoint
 10
928.2803214655135
 20
36.14402775200896
 30
0.0
  0
POINT
  5
4BBE
330
1F
100
AcDbEntity
  8
0
 62
     7
370
     5
100
AcDbPoint
 10
927.9725574655133
 20
-13.37717824799107
 30
0.0
  0
POINT
  5
4C3D
330
1F
100
AcDbEntity
  8
0
 62
     7
370
     5
100
AcDbPoint
 10
1260.468250897024
 20
34.18197122255629
 30
0.0
  0
POINT
  5
4C41
330
1F
100
AcDbEntity
  8
0
 62
     7
370
     5
100
AcDbPoint
 10
1192.987798897024
 20
34.42276422255628
 30
0.0
  0
POINT
  5
4CA6
330
1F
100
AcDbEntity
  8
0
 62
     7
370
     5
100
AcDbPoint
 10
1531.370477890708
 20
36.54134112174947
 30
0.0
  0
POINT
  5
4CAA
330
1F
100
AcDbEntity
  8
0
 62
     7
370
     5
100
AcDbPoint
 10
1454.809556890707
 20
33.56345212174947
 30
0.0
  0
POINT
  5
4D13
330
1F
100
AcDbEntity
  8
0
 62
     7
370
     5
100
AcDbPoint
 10
705.1278997494348
 20
-154.9600065549146
 30
0.0
  0
POINT
  5
4D16
330
1F
100
AcDbEntity
  8
0
 62
     7
370
     5
100
AcDbPoint
 10
704.8201357494348
 20
-214.4959135549147
 30
0.0
  0
POINT
  5
4D94
330
1F
100
AcDbEntity
  8
0
 62
     7
370
     5
100
AcDbPoint
 10
1787.824033288602
 20
31.89640981289145
 30
0.0
  0
POINT
  5
4D98
330
1F
100
AcDbEntity
  8
0
 62
     7
370
     5
100
AcDbPoint
 10
1715.838491288602
 20
29.33517681289146
 30
0.0
  0
POINT
  5
4DFF
330
1F
100
AcDbEntity
  8
0
 62
     3
370
     5
100
AcDbPoint
 10
1267.112797580298
 20
-159.0002427017263
 30
0.0
  0
POINT
  5
4E03
330
1F
100
AcDbEntity
  8
0
 62
     3
370
     5
100
AcDbPoint
 10
1194.506377580298
 20
-161.9343927017263
 30
0.0
  0
POINT
  5
4E6A
330
1F
100
AcDbEntity
  8
0
 62
     7
370
     5
100
AcDbPoint
 10
1544.710960196184
 20
-155.8112991948312
 30
0.0
  0
POINT
  5
4E6E
330
1F
100
AcDbEntity
  8
0
 62
     3
370
     5
100
AcDbPoint
 10
1456.283339196184
 20
-157.1011921948312
 30
0.0
  0
POINT
  5
4ED5
330
1F
100
AcDbEntity
  8
0
 62
     7
370
     5
100
AcDbPoint
 10
923.0975508391153
 20
-198.2811869580544
 30
0.0
  0
POINT
  5
4ED6
330
1F
100
AcDbEntity
  8
0
 62
     7
370
     5
100
AcDbPoint
 10
958.0975508391155
 20
-190.2811869580544
 30
0.0
  0
POINT
  5
4ED9
330
1F
100
AcDbEntity
  8
0
 62
     7
370
     5
100
AcDbPoint
 10
957.9030798391153
 20
-228.1917289580544
 30
0.0
  0
POINT
  5
4F57
330
1F
100
AcDbEntity
  8
0
 62
     7
370
     5
100
AcDbPoint
 10
450.9331152202981
 20
34.51099349283641
 30
0.0
  0
POINT
  5
4F5A
330
1F
100
AcDbEntity
  8
0
 62
     7
370
     5
100
AcDbPoint
 10
450.3789362202981
 20
-3.505724507163591
 30
0.0
  0
POINT
  5
4FD6
330
1F
100
AcDbEntity
  8
0
 62
     7
370
     5
100
AcDbPoint
 10
414.7355793530676
 20
-182.3643573412055
 30
0.0
  0
POINT
  5
4FD9
330
1F
100
AcDbEntity
  8
0
 62
     7
370
     5
100
AcDbPoint
 10
414.4028163530678
 20
-227.6410343412055
 30
0.0
  0
POINT
  5
5057
330
1F
100
AcDbEntity
  8
0
 62
     7
370
     5
100
AcDbPoint
 10
411.1596871436125
 20
-404.5108996529686
 30
0.0
  0
POINT
  5
505A
330
1F
100
AcDbEntity
  8
0
 62
     7
370
     5
100
AcDbPoint
 10
410.8519251436126
 20
-448.9004636529686
 30
0.0
  0
POINT
  5
50DA
330
1F
100
AcDbEntity
  8
0
 62
     7
370
     5
100
AcDbPoint
 10
696.3752719090887
 20
-405.5632373962983
 30
0.0
  0
POINT
  5
50DD
330
1F
100
AcDbEntity
  8
0
 62
     7
370
     5
100
AcDbPoint
 10
696.0675099090884
 20
-458.9718843962983
 30
0.0
  0
POINT
  5
515E
330
1F
100
AcDbEntity
  8
0
 62
     7
370
     5
100
AcDbPoint
 10
942.932329238496
 20
-403.2148016805113
 30
0.0
  0
POINT
  5
5161
330
1F
100
AcDbEntity
  8
0
 62
     3
370
     5
100
AcDbPoint
 10
942.624565238496
 20
-476.4638956805113
 30
0.0
  0
POINT
  5
51E0
330
1F
100
AcDbEntity
  8
0
 62
     7
370
     5
100
AcDbPoint
 10
380.0596661818993
 20
-637.2898669140809
 30
0.0
  0
POINT
  5
51E4
330
1F
100
AcDbEntity
  8
0
 62
     7
370
     5
100
AcDbPoint
 10
379.7269051818993
 20
-669.3765459140807
 30
0.0
  0
POINT
  5
5263
330
1F
100
AcDbEntity
  8
0
 62
     7
370
     5
100
AcDbPoint
 10
656.1064603234972
 20
-644.2320044768857
 30
0.0
  0
POINT
  5
5267
330
1F
100
AcDbEntity
  8
0
 62
     7
370
     5
100
AcDbPoint
 10
655.7736983234972
 20
-681.5918884768857
 30
0.0
  0
POINT
  5
52E6
330
1F
100
AcDbEntity
  8
0
 62
     7
370
     5
100
AcDbPoint
 10
921.5387707571863
 20
-642.2430056930917
 30
0.0
  0
POINT
  5
52EA
330
1F
100
AcDbEntity
  8
0
 62
     7
370
     5
100
AcDbPoint
 10
921.2310077571864
 20
-692.8111586930919
 30
0.0
  0
POINT
  5
536A
330
1F
100
AcDbEntity
  8
0
 62
     7
370
     5
100
AcDbPoint
 10
1232.563978885883
 20
-644.0998079544141
 30
0.0
  0
POINT
  5
536E
330
1F
100
AcDbEntity
  8
0
 62
     7
370
     5
100
AcDbPoint
 10
1232.256215885883
 20
-701.4147569544141
 30
0.0
  0
POINT
  5
53EE
330
1F
100
AcDbEntity
  8
0
 62
     7
370
     5
100
AcDbPoint
 10
1530.052638397992
 20
-643.475919607774
 30
0.0
  0
POINT
  5
53F2
330
1F
100
AcDbEntity
  8
0
 62
     7
370
     5
100
AcDbPoint
 10
1529.744875397992
 20
-702.095046607774
 30
0.0
  0
POINT
  5
5472
330
1F
100
AcDbEntity
  8
0
 62
     7
370
     5
100
AcDbPoint
 10
684.9908237883022
 20
27.90718926625232
 30
0.0
  0
POINT
  5
5475
330
1F
100
AcDbEntity
  8
0
 62
     7
370
     5
100
AcDbPoint
 10
685.1380217883022
 20
-0.5698467337476814
 30
0.0
  0
POINT
  5
C167
330
1F
100
AcDbEntity
  8
0
 62
     7
370
     5
100
AcDbPoint
 10
404.6381194571074
 20
31.25869005531058
 30
0.0
  0
POINT
  5
C170
330
1F
100
AcDbEntity
  8
0
 62
     7
370
     5
100
AcDbPoint
 10
404.6381194571074
 20
-40.40044294468938
 30
0.0
  0
POINT
  5
C178
330
1F
100
AcDbEntity
  8
0
 62
     7
370
     5
100
AcDbPoint
 10
693.6166312048997
 20
32.91651042690259
 30
0.0
  0
POINT
  5
C182
330
1F
100
AcDbEntity
  8
0
 62
     7
370
     5
100
AcDbPoint
 10
693.6166312048997
 20
-48.79153757309743
 30
0.0
  0
POINT
  5
C255
330
1F
100
AcDbEntity
  8
0
 62
     7
370
     5
100
AcDbPoint
 10
969.8580521302226
 20
-44.97487572475608
 30
0.0
  0
POINT
  5
C258
330
1F
100
AcDbEntity
  8
0
 62
     7
370
     5
100
AcDbPoint
 10
969.8580521302226
 20
15.7863642752439
 30
0.0
  0
POINT
  5
C2E1
330
1F
100
AcDbEntity
  8
0
 62
     7
370
     5
100
AcDbPoint
 10
1225.348704188238
 20
-52.24776141224177
 30
0.0
  0
POINT
  5
C2E4
330
1F
100
AcDbEntity
  8
0
 62
     7
370
     5
100
AcDbPoint
 10
1225.348704188238
 20
11.68361158775823
 30
0.0
  0
POINT
  5
C36E
330
1F
100
AcDbEntity
  8
0
 62
     7
370
     5
100
AcDbPoint
 10
1738.913115957113
 20
-214.1607529893734
 30
0.0
  0
POINT
  5
C377
330
1F
100
AcDbEntity
  8
0
 62
     3
370
     5
100
AcDbPoint
 10
1738.913115957113
 20
-286.8828409893735
 30
0.0
  0
POINT
  5
C42D
330
1F
100
AcDbEntity
  8
0
 62
     7
370
     5
100
AcDbPoint
 10
430.2380300204257
 20
-176.3158258460635
 30
0.0
  0
POINT
  5
C437
330
1F
100
AcDbEntity
  8
0
 62
     7
370
     5
100
AcDbPoint
 10
430.2380300204257
 20
-251.7521558460636
 30
0.0
  0
POINT
  5
C533
330
1F
100
AcDbEntity
  8
0
 62
     3
370
     5
100
AcDbPoint
 10
724.0359074233313
 20
-257.7049218719476
 30
0.0
  0
POINT
  5
C536
330
1F
100
AcDbEntity
  8
0
 62
     3
370
     5
100
AcDbPoint
 10
724.0359074233313
 20
-176.2890638719476
 30
0.0
  0
POINT
  5
C652
330
1F
100
AcDbEntity
  8
0
 62
     7
370
     5
100
AcDbPoint
 10
1006.718794540682
 20
-163.3460002642659
 30
0.0
  0
POINT
  5
C65C
330
1F
100
AcDbEntity
  8
0
 62
     7
370
     5
100
AcDbPoint
 10
1006.718794540682
 20
-271.4659132642659
 30
0.0
  0
POINT
  5
C79F
330
1F
100
AcDbEntity
  8
0
 62
     7
370
     5
100
AcDbPoint
 10
680.0273543974197
 20
-609.8288373451556
 30
0.0
  0
POINT
  5
C7A3
330
1F
100
AcDbEntity
  8
0
 62
     7
370
     5
100
AcDbPoint
 10
680.0273543974197
 20
-565.0385583451557
 30
0.0
  0
POINT
  5
C85B
330
1F
100
AcDbEntity
  8
0
 62
     7
370
     5
100
AcDbPoint
 10
981.854726218849
 20
-559.8376501395787
 30
0.0
  0
POINT
  5
C863
330
1F
100
AcDbEntity
  8
0
 62
     7
370
     5
100
AcDbPoint
 10
981.854726218849
 20
-623.6282751395788
 30
0.0
  0
POINT
  5
C930
330
1F
100
AcDbEntity
  8
0
 62
     7
370
     5
100
AcDbPoint
 10
1216.759569404171
 20
-624.5477225769705
 30
0.0
  0
POINT
  5
C934
330
1F
100
AcDbEntity
  8
0
 62
     7
370
     5
100
AcDbPoint
 10
1202.759569404171
 20
-560.1965945769704
 30
0.0
  0
POINT
  5
C935
330
1F
100
AcDbEntity
  8
0
 62
     7
370
     5
100
AcDbPoint
 10
1216.759569404171
 20
-551.6965945769704
 30
0.0
  0
POINT
  5
CA12
330
1F
100
AcDbEntity
  8
0
 62
     7
370
     5
100
AcDbPoint
 10
1458.761001673632
 20
-627.5597008720548
 30
0.0
  0
POINT
  5
CA16
330
1F
100
AcDbEntity
  8
0
 62
     7
370
     5
100
AcDbPoint
 10
1443.761001673632
 20
-571.7910898720547
 30
0.0
  0
POINT
  5
CA17
330
1F
100
AcDbEntity
  8
0
 62
     7
370
     5
100
AcDbPoint
 10
1458.761001673632
 20
-561.2910898720547
 30
0.0
  0
POINT
  5
CB25
330
1F
100
AcDbEntity
  8
0
 62
     7
370
     5
100
AcDbPoint
 10
1712.749014983699
 20
-637.6031663899041
 30
0.0
  0
POINT
  5
CB29
330
1F
100
AcDbEntity
  8
0
 62
     7
370
     5
100
AcDbPoint
 10
1712.749014983699
 20
-557.403845389904
 30
0.0
  0
POINT
  5
CC4B
330
1F
100
AcDbEntity
  8
0
 62
     7
370
     5
100
AcDbPoint
 10
1990.420039580178
 20
-639.3672597641932
 30
0.0
  0
POINT
  5
CC4F
330
1F
100
AcDbEntity
  8
0
 62
     7
370
     5
100
AcDbPoint
 10
1975.420039580178
 20
-571.8308197641934
 30
0.0
  0
POINT
  5
CC50
330
1F
100
AcDbEntity
  8
0
 62
     7
370
     5
100
AcDbPoint
 10
1990.420039580178
 20
-554.3308197641933
 30
0.0
  0
POINT
  5
D588
330
1F
100
AcDbEntity
  8
0
 62
     7
370
     5
100
AcDbPoint
 10
643.6762534904714
 20
-418.5518022854259
 30
0.0
  0
POINT
  5
D590
330
1F
100
AcDbEntity
  8
0
 62
     7
370
     5
100
AcDbPoint
 10
698.8426964904712
 20
-418.5518022854259
 30
0.0
  0
POINT
  5
D89C
330
1F
100
AcDbEntity
  8
0
 62
     7
370
     5
100
AcDbPoint
 10
918.4554480131433
 20
-418.2516555129392
 30
0.0
  0
POINT
  5
D8A3
330
1F
100
AcDbEntity
  8
0
 62
     7
370
     5
100
AcDbPoint
 10
998.0069960131432
 20
-418.2516555129392
 30
0.0
  0
POINT
  5
DAF2
330
1F
100
AcDbEntity
  8
0
 62
     7
370
     5
100
AcDbPoint
 10
1973.075374951941
 20
-60.50318164632196
 30
0.0
  0
POINT
  5
DAF5
330
1F
100
AcDbEntity
  8
0
 62
     7
370
     5
100
AcDbPoint
 10
1973.075374951941
 20
1.00896335367804
 30
0.0
  0
POINT
  5
DCBB
330
1F
100
AcDbEntity
  8
0
 62
     7
370
     5
100
AcDbPoint
 10
2228.446041001848
 20
-631.5679862622897
 30
0.0
  0
POINT
  5
DCBF
330
1F
100
AcDbEntity
  8
0
 62
     7
370
     5
100
AcDbPoint
 10
2228.446041001848
 20
-581.1017172622897
 30
0.0
  0
POINT
  5
DECF
330
1F
100
AcDbEntity
  8
0
 62
     7
370
     5
100
AcDbPoint
 10
2470.518201269178
 20
-576.6616946872675
 30
0.0
  0
POINT
  5
DED7
330
1F
100
AcDbEntity
  8
0
 62
     7
370
     5
100
AcDbPoint
 10
2470.518201269178
 20
-638.2022576872675
 30
0.0
  0
POINT
  5
E102
330
1F
100
AcDbEntity
  8
0
 62
     7
370
     5
100
AcDbPoint
 10
1449.716374392063
 20
-281.2570516923841
 30
0.0
  0
POINT
  5
E105
330
1F
100
AcDbEntity
  8
0
 62
     7
370
     5
100
AcDbPoint
 10
1449.716374392063
 20
-216.7933926923841
 30
0.0
  0
POINT
  5
E20E
330
1F
100
AcDbEntity
  8
0
 62
     7
370
     5
100
AcDbPoint
 10
1444.226360693917
 20
7.118696944552222
 30
0.0
  0
POINT
  5
E217
330
1F
100
AcDbEntity
  8
0
 62
     7
370
     5
100
AcDbPoint
 10
1444.226360693917
 20
-50.75492105544778
 30
0.0
  0
POINT
  5
E328
330
1F
100
AcDbEntity
  8
0
 62
     7
370
     5
100
AcDbPoint
 10
1674.557421043983
 20
-57.27887800498226
 30
0.0
  0
POINT
  5
E32B
330
1F
100
AcDbEntity
  8
0
 62
     7
370
     5
100
AcDbPoint
 10
1674.557421043983
 20
6.273895995017768
 30
0.0
  0
POINT
  5
E438
330
1F
100
AcDbEntity
  8
0
 62
     7
370
     5
100
AcDbPoint
 10
1221.741516539144
 20
-220.2351919986821
 30
0.0
  0
POINT
  5
E441
330
1F
100
AcDbEntity
  8
0
 62
     7
370
     5
100
AcDbPoint
 10
1221.741516539144
 20
-278.4038869986821
 30
0.0
  0
POINT
  5
E533
330
1F
100
AcDbEntity
  8
0
 62
     7
370
     5
100
AcDbPoint
 10
435.7613867553435
 20
-401.853645371286
 30
0.0
  0
POINT
  5
E537
330
1F
100
AcDbEntity
  8
0
 62
     7
370
     5
100
AcDbPoint
 10
336.0458187553437
 20
-401.853645371286
 30
0.0
  0
POINT
  5
E6D2
330
1F
100
AcDbEntity
  8
0
 62
     7
370
     5
100
AcDbPoint
 10
394.2075911881555
 20
-612.6712758301417
 30
0.0
  0
POINT
  5
E6D6
330
1F
100
AcDbEntity
  8
0
 62
     7
370
     5
100
AcDbPoint
 10
394.2075911881555
 20
-562.1020128301418
 30
0.0
  0
POINT
  5
12895
330
1F
100
AcDbEntity
  8
0
 62
     7
370
     5
100
AcDbPoint
 10
514.3576994832141
 20
-558.6978028967338
 30
0.0
  0
POINT
  5
1289C
330
1F
100
AcDbEntity
  8
0
 62
     7
370
     5
100
AcDbPoint
 10
514.3576994832141
 20
-524.0331488967338
 30
0.0
  0
POINT
  5
1289D
330
1F
100
AcDbEntity
  8
0
 62
     7
370
     5
100
AcDbPoint
 10
514.3576994832141
 20
-526.4631488967337
 30
0.0
  0
POINT
  5
1299A
330
1F
100
AcDbEntity
  8
0
 62
     7
370
     5
100
AcDbPoint
 10
273.0238152774181
 20
35.53337152575214
 30
0.0
  0
POINT
  5
1299D
330
1F
100
AcDbEntity
  8
0
 62
     7
370
     5
100
AcDbPoint
 10
273.0238152774181
 20
-16.30945047424785
 30
0.0
  0
POINT
  5
12A19
330
1F
100
AcDbEntity
  8
0
 62
     7
370
     5
100
AcDbPoint
 10
530.0071960054782
 20
34.28476473790624
 30
0.0
  0
POINT
  5
12A1A
330
1F
100
AcDbEntity
  8
0
 62
     7
370
     5
100
AcDbPoint
 10
530.0071960054782
 20
28.42976573790625
 30
0.0
  0
POINT
  5
12A1D
330
1F
100
AcDbEntity
  8
0
 62
     7
370
     5
100
AcDbPoint
 10
530.2789780054783
 20
-25.24190226209373
 30
0.0
  0
POINT
  5
12AA6
330
1F
100
AcDbEntity
  8
0
 62
     7
370
     5
100
AcDbPoint
 10
803.5390081451089
 20
38.33315219974614
 30
0.0
  0
POINT
  5
12AA7
330
1F
100
AcDbEntity
  8
0
 62
     7
370
     5
100
AcDbPoint
 10
803.5390081451089
 20
32.44315219974615
 30
0.0
  0
POINT
  5
12AAA
330
1F
100
AcDbEntity
  8
0
 62
     7
370
     5
100
AcDbPoint
 10
803.5390081451089
 20
-33.77549080025384
 30
0.0
  0
POINT
  5
12B2B
330
1F
100
AcDbEntity
  8
0
 62
     7
370
     5
100
AcDbPoint
 10
246.4739127018369
 20
-292.0641451649423
 30
0.0
  0
POINT
  5
12B40
330
1F
100
AcDbEntity
  8
0
 62
     7
370
     5
100
AcDbPoint
 10
246.1857397018369
 20
-234.4124741649423
 30
0.0
  0
POINT
  5
12B41
330
1F
100
AcDbEntity
  8
0
 62
     7
370
     5
100
AcDbPoint
 10
246.1857397018369
 20
-239.6974741649422
 30
0.0
  0
POINT
  5
12BA1
330
1F
100
AcDbEntity
  8
0
 62
     7
370
     5
100
AcDbPoint
 10
503.361992156836
 20
-293.942128217062
 30
0.0
  0
POINT
  5
12BB5
330
1F
100
AcDbEntity
  8
0
 62
     7
370
     5
100
AcDbPoint
 10
503.361992156836
 20
-232.058278217062
 30
0.0
  0
POINT
  5
12BB6
330
1F
100
AcDbEntity
  8
0
 62
     7
370
     5
100
AcDbPoint
 10
503.361992156836
 20
-237.898279217062
 30
0.0
  0
POINT
  5
12C16
330
1F
100
AcDbEntity
  8
0
 62
     7
370
     5
100
AcDbPoint
 10
773.9808530456294
 20
-320.1483272428673
 30
0.0
  0
POINT
  5
12C17
330
1F
100
AcDbEntity
  8
0
 62
     7
370
     5
100
AcDbPoint
 10
776.9808530456294
 20
-286.8983272428673
 30
0.0
  0
POINT
  5
12C2B
330
1F
100
AcDbEntity
  8
0
 62
     7
370
     5
100
AcDbPoint
 10
776.9808530456294
 20
-225.7099922428672
 30
0.0
  0
POINT
  5
12C8B
330
1F
100
AcDbEntity
  8
0
 62
     7
370
     5
100
AcDbPoint
 10
258.823540701837
 20
-572.0746798648522
 30
0.0
  0
POINT
  5
12C92
330
1F
100
AcDbEntity
  8
0
 62
     7
370
     5
100
AcDbPoint
 10
258.8235127018369
 20
-543.1961818648521
 30
0.0
  0
POINT
  5
12C93
330
1F
100
AcDbEntity
  8
0
 62
     7
370
     5
100
AcDbPoint
 10
258.8235127018369
 20
-544.8461818648523
 30
0.0
  0
POINT
  5
14051
330
1F
100
AcDbEntity
  8
0
 62
     7
370
     5
100
AcDbPoint
 10
690.9556627618442
 20
-532.2047645406313
 30
0.0
  0
POINT
  5
14058
330
1F
100
AcDbEntity
  8
0
 62
     7
370
     5
100
AcDbPoint
 10
690.9556627618442
 20
-497.5401105406314
 30
0.0
  0
POINT
  5
14059
330
1F
100
AcDbEntity
  8
0
 62
     7
370
     5
100
AcDbPoint
 10
690.9556627618442
 20
-499.9701105406314
 30
0.0
  0
POINT
  5
175ED
330
1F
100
AcDbEntity
  8
0
 62
     7
370
     5
100
AcDbPoint
 10
329.8984453452037
 20
37.75833189686949
 30
0.0
  0
POINT
  5
175F0
330
1F
100
AcDbEntity
  8
0
 62
     7
370
     5
100
AcDbPoint
 10
329.8984453452037
 20
-10.8089411031305
 30
0.0
  0
POINT
  5
17673
330
1F
100
AcDbEntity
  8
0
 62
     7
370
     5
100
AcDbPoint
 10
651.3183805762602
 20
33.1650220174441
 30
0.0
  0
POINT
  5
17677
330
1F
100
AcDbEntity
  8
0
 62
     7
370
     5
100
AcDbPoint
 10
651.3183805762602
 20
-21.99992098255592
 30
0.0
  0
POINT
  5
1770F
330
1F
100
AcDbEntity
  8
0
 62
     7
370
     5
100
AcDbPoint
 10
1014.212196760976
 20
-27.33731747488401
 30
0.0
  0
POINT
  5
17718
330
1F
100
AcDbEntity
  8
0
 62
     7
370
     5
100
AcDbPoint
 10
1014.212196760976
 20
30.00474752511599
 30
0.0
  0
POINT
  5
17790
330
1F
100
AcDbEntity
  8
0
 62
     7
370
     5
100
AcDbPoint
 10
1421.356448019548
 20
-26.9349024739204
 30
0.0
  0
POINT
  5
1779E
330
1F
100
AcDbEntity
  8
0
 62
     7
370
     5
100
AcDbPoint
 10
1421.356448019548
 20
21.9806675260796
 30
0.0
  0
POINT
  5
1779F
330
1F
100
AcDbEntity
  8
0
 62
     7
370
     5
100
AcDbPoint
 10
1413.056448019548
 20
21.9806675260796
 30
0.0
  0
POINT
  5
1781A
330
1F
100
AcDbEntity
  8
0
 62
     7
370
     5
100
AcDbPoint
 10
1720.045575829729
 20
23.92611327127983
 30
0.0
  0
POINT
  5
1781D
330
1F
100
AcDbEntity
  8
0
 62
     7
370
     5
100
AcDbPoint
 10
1720.045575829729
 20
-24.59612772872018
 30
0.0
  0
POINT
  5
178A0
330
1F
100
AcDbEntity
  8
0
 62
     7
370
     5
100
AcDbPoint
 10
359.2272976195882
 20
-230.0319820838431
 30
0.0
  0
POINT
  5
178A3
330
1F
100
AcDbEntity
  8
0
 62
     7
370
     5
100
AcDbPoint
 10
359.2273026195881
 20
-278.361407083843
 30
0.0
  0
POINT
  5
17926
330
1F
100
AcDbEntity
  8
0
 62
     7
370
     5
100
AcDbPoint
 10
669.6174077737214
 20
-230.0319820838431
 30
0.0
  0
POINT
  5
17929
330
1F
100
AcDbEntity
  8
0
 62
     7
370
     5
100
AcDbPoint
 10
669.6174087737214
 20
-278.361407083843
 30
0.0
  0
POINT
  5
179AC
330
1F
100
AcDbEntity
  8
0
 62
     7
370
     5
100
AcDbPoint
 10
1023.306532042488
 20
-235.6329118492064
 30
0.0
  0
POINT
  5
179AF
330
1F
100
AcDbEntity
  8
0
 62
     7
370
     5
100
AcDbPoint
 10
1023.306532042488
 20
-284.2001848492064
 30
0.0
  0
POINT
  5
17A32
330
1F
100
AcDbEntity
  8
0
 62
     7
370
     5
100
AcDbPoint
 10
1352.196645196622
 20
-235.6329118492064
 30
0.0
  0
POINT
  5
17A36
330
1F
100
AcDbEntity
  8
0
 62
     7
370
     5
100
AcDbPoint
 10
1352.196645196622
 20
-290.7980508492065
 30
0.0
  0
POINT
  5
17AD1
330
1F
100
AcDbEntity
  8
0
 62
     7
370
     5
100
AcDbPoint
 10
1715.365188016996
 20
-237.9716865944066
 30
0.0
  0
POINT
  5
17AD4
330
1F
100
AcDbEntity
  8
0
 62
     7
370
     5
100
AcDbPoint
 10
1715.365188016996
 20
-286.5389595944066
 30
0.0
  0
POINT
  5
17B57
330
1F
100
AcDbEntity
  8
0
 62
     7
370
     5
100
AcDbPoint
 10
331.5674947966618
 20
-480.7206417139288
 30
0.0
  0
POINT
  5
17B5A
330
1F
100
AcDbEntity
  8
0
 62
     7
370
     5
100
AcDbPoint
 10
331.5674987966619
 20
-532.8452337139288
 30
0.0
  0
POINT
  5
17BD8
330
1F
100
AcDbEntity
  8
0
 62
     7
370
     5
100
AcDbPoint
 10
667.4370134195751
 20
-483.059416459129
 30
0.0
  0
POINT
  5
17BDB
330
1F
100
AcDbEntity
  8
0
 62
     7
370
     5
100
AcDbPoint
 10
667.4370134195751
 20
-535.184008459129
 30
0.0
  0
POINT
  5
17C59
330
1F
100
AcDbEntity
  8
0
 62
     7
370
     5
100
AcDbPoint
 10
1032.757662940594
 20
-479.9258798209486
 30
0.0
  0
POINT
  5
17C5C
330
1F
100
AcDbEntity
  8
0
 62
     7
370
     5
100
AcDbPoint
 10
1032.757665940594
 20
-532.1255208209487
 30
0.0
  0
POINT
  5
17CDA
330
1F
100
AcDbEntity
  8
0
 62
     7
370
     5
100
AcDbPoint
 10
1350.446793750775
 20
-475.452849330548
 30
0.0
  0
POINT
  5
17CDE
330
1F
100
AcDbEntity
  8
0
 62
     7
370
     5
100
AcDbPoint
 10
1350.446795750775
 20
-535.7299113305479
 30
0.0
  0
POINT
  5
17D79
330
1F
100
AcDbEntity
  8
0
 62
     7
370
     5
100
AcDbPoint
 10
1724.816312373689
 20
-484.6034323315118
 30
0.0
  0
POINT
  5
17D7C
330
1F
100
AcDbEntity
  8
0
 62
     7
370
     5
100
AcDbPoint
 10
1724.816312373689
 20
-536.8030733315118
 30
0.0
  0
POINT
  5
17DFA
330
1F
100
AcDbEntity
  8
0
 62
     7
370
     5
100
AcDbPoint
 10
292.6784219762804
 20
-717.1006079596696
 30
0.0
  0
POINT
  5
17DFE
330
1F
100
AcDbEntity
  8
0
 62
     7
370
     5
100
AcDbPoint
 10
292.6784249762804
 20
-777.3013929596698
 30
0.0
  0
POINT
  5
17E99
330
1F
100
AcDbEntity
  8
0
 62
     7
370
     5
100
AcDbPoint
 10
668.1772397573285
 20
-728.8489624009062
 30
0.0
  0
POINT
  5
17E9C
330
1F
100
AcDbEntity
  8
0
 62
     7
370
     5
100
AcDbPoint
 10
668.1772397573285
 20
-780.9735614009062
 30
0.0
  0
POINT
  5
17F19
330
1F
100
AcDbEntity
  8
0
 62
     7
370
     5
100
AcDbPoint
 10
1014.680140542377
 20
-727.4779055808943
 30
0.0
  0
POINT
  5
17F1E
330
1F
100
AcDbEntity
  8
0
 62
     7
370
     5
100
AcDbPoint
 10
1014.680139542377
 20
-792.8842465808943
 30
0.0
  0
POINT
  5
17F82
330
1F
100
AcDbEntity
  8
0
 62
     7
370
     5
100
AcDbPoint
 10
1363.039112172955
 20
-778.9168242007557
 30
0.0
  0
POINT
  5
17F8B
330
1F
100
AcDbEntity
  8
0
 62
     7
370
     5
100
AcDbPoint
 10
1363.039112172955
 20
-712.5175752007558
 30
0.0
  0
POINT
  5
17FE8
330
1F
100
AcDbEntity
  8
0
 62
     7
370
     5
100
AcDbPoint
 10
1718.366870633272
 20
-723.7460446679111
 30
0.0
  0
POINT
  5
17FEB
330
1F
100
AcDbEntity
  8
0
 62
     7
370
     5
100
AcDbPoint
 10
1718.366871633272
 20
-789.389202667911
 30
0.0
  0
POINT
  5
18051
330
1F
100
AcDbEntity
  8
0
 62
     7
370
     5
100
AcDbPoint
 10
319.6383345054979
 20
-967.5893901625666
 30
0.0
  0
POINT
  5
18054
330
1F
100
AcDbEntity
  8
0
 62
     7
370
     5
100
AcDbPoint
 10
319.6383355054979
 20
-1032.973459162567
 30
0.0
  0
POINT
  5
180BA
330
1F
100
AcDbEntity
  8
0
 62
     7
370
     5
100
AcDbPoint
 10
680.5370709864296
 20
-963.1934877025301
 30
0.0
  0
POINT
  5
180BB
330
1F
100
AcDbEntity
  8
0
 62
     7
370
     5
100
AcDbPoint
 10
629.5370709864297
 20
-967.19348770253
 30
0.0
  0
POINT
  5
180BE
330
1F
100
AcDbEntity
  8
0
 62
     7
370
     5
100
AcDbPoint
 10
680.5370759864297
 20
-1028.58231170253
 30
0.0
  0
POINT
  5
18125
330
1F
100
AcDbEntity
  8
0
 62
     7
370
     5
100
AcDbPoint
 10
1025.504908559649
 20
-985.5078641637318
 30
0.0
  0
POINT
  5
18128
330
1F
100
AcDbEntity
  8
0
 62
     7
370
     5
100
AcDbPoint
 10
935.4436665596491
 20
-985.5078641637318
 30
0.0
  0
POINT
  5
181A3
330
1F
100
AcDbEntity
  8
0
 62
     7
370
     5
100
AcDbPoint
 10
1372.616021513803
 20
-994.9832624236179
 30
0.0
  0
POINT
  5
181A6
330
1F
100
AcDbEntity
  8
0
 62
     7
370
     5
100
AcDbPoint
 10
1282.554779513803
 20
-994.9832624236179
 30
0.0
  0
POINT
  5
18221
330
1F
100
AcDbEntity
  8
0
 62
     7
370
     5
100
AcDbPoint
 10
1726.183901955964
 20
-986.4057379766256
 30
0.0
  0
POINT
  5
18224
330
1F
100
AcDbEntity
  8
0
 62
     7
370
     5
100
AcDbPoint
 10
1636.122660955965
 20
-987.7852319766256
 30
0.0
  0
POINT
  5
1829F
330
1F
100
AcDbEntity
  8
0
 62
     7
370
     5
100
AcDbPoint
 10
315.0667151318947
 20
-1233.667447704089
 30
0.0
  0
POINT
  5
182A2
330
1F
100
AcDbEntity
  8
0
 62
     7
370
     5
100
AcDbPoint
 10
225.0054731318947
 20
-1234.512880704089
 30
0.0
  0
POINT
  5
1831D
330
1F
100
AcDbEntity
  8
0
 62
     7
370
     5
100
AcDbPoint
 10
666.5716365787308
 20
-1228.374582524101
 30
0.0
  0
POINT
  5
18320
330
1F
100
AcDbEntity
  8
0
 62
     7
370
     5
100
AcDbPoint
 10
576.510395578731
 20
-1229.476628524102
 30
0.0
  0
POINT
  5
1C1E5
330
1F
100
AcDbEntity
  8
0
 62
     7
370
     5
100
AcDbPoint
 10
565.1931729999843
 20
-252.0327741049043
 30
0.0
  0
POINT
  5
1C1E8
330
1F
100
AcDbEntity
  8
0
 62
     7
370
     5
100
AcDbPoint
 10
571.0793859999843
 20
-171.4824511049043
 30
0.0
  0
POINT
  5
1C393
330
1F
100
AcDbEntity
  8
0
 62
     7
370
     5
100
AcDbPoint
 10
852.7529560248229
 20
-161.0786730235244
 30
0.0
  0
POINT
  5
1C3A1
330
1F
100
AcDbEntity
  8
0
 62
     7
370
     5
100
AcDbPoint
 10
853.6840430248233
 20
-256.0650500235244
 30
0.0
  0
POINT
  5
1C476
330
1F
100
AcDbEntity
  8
0
 62
     7
370
     5
100
AcDbPoint
 10
1100.710829294269
 20
-179.9690311044011
 30
0.0
  0
POINT
  5
1C484
330
1F
100
AcDbEntity
  8
0
 62
     7
370
     5
100
AcDbPoint
 10
1097.008556294269
 20
-246.8144071044011
 30
0.0
  0
POINT
  5
1C54E
330
1F
100
AcDbEntity
  8
0
 62
     7
370
     5
100
AcDbPoint
 10
327.4559894717282
 20
-242.3690707660675
 30
0.0
  0
POINT
  5
1C54F
330
1F
100
AcDbEntity
  8
0
 62
     7
370
     5
100
AcDbPoint
 10
323.7573724717281
 20
-242.3490727660675
 30
0.0
  0
POINT
  5
1C632
330
1F
100
AcDbEntity
  8
0
 62
     7
370
     5
100
AcDbPoint
 10
301.1069300782104
 20
37.7626127561465
 30
0.0
  0
POINT
  5
1C640
330
1F
100
AcDbEntity
  8
0
 62
     7
370
     5
100
AcDbPoint
 10
301.4480630782105
 20
-36.93915824385351
 30
0.0
  0
POINT
  5
1C6B9
330
1F
100
AcDbEntity
  8
0
 62
     1
370
     5
100
AcDbPoint
 10
582.4029449258979
 20
29.4620864008466
 30
0.0
  0
POINT
  5
1C6C7
330
1F
100
AcDbEntity
  8
0
 62
     7
370
     5
100
AcDbPoint
 10
567.6899119258981
 20
-44.52450559915339
 30
0.0
  0
POINT
  5
1C740
330
1F
100
AcDbEntity
  8
0
 62
     7
370
     5
100
AcDbPoint
 10
838.8170717714807
 20
31.21800268959555
 30
0.0
  0
POINT
  5
1C74E
330
1F
100
AcDbEntity
  8
0
 62
     7
370
     5
100
AcDbPoint
 10
830.8810477714807
 20
-42.18143931040443
 30
0.0
  0
POINT
  5
1C7C7
330
1F
100
AcDbEntity
  8
0
 62
     7
370
     5
100
AcDbPoint
 10
1082.103046320498
 20
26.65705560741793
 30
0.0
  0
POINT
  5
1C850
330
1F
100
AcDbEntity
  8
0
 62
     7
370
     5
100
AcDbPoint
 10
1320.708032031059
 20
-54.79519568133104
 30
0.0
  0
POINT
  5
1C851
330
1F
100
AcDbEntity
  8
0
 62
     7
370
     5
100
AcDbPoint
 10
1317.008086031059
 20
-54.77519668133105
 30
0.0
  0
POINT
  5
1C9A2
330
1F
100
AcDbEntity
  8
0
 62
     7
370
     5
100
AcDbPoint
 10
1351.994597785224
 20
-177.9923767989125
 30
0.0
  0
POINT
  5
1C9B0
330
1F
100
AcDbEntity
  8
0
 62
     7
370
     5
100
AcDbPoint
 10
1347.069666785224
 20
-246.9150937989126
 30
0.0
  0
POINT
  5
1C9B1
330
1F
100
AcDbEntity
  8
0
 62
     7
370
     5
100
AcDbPoint
 10
1343.369666785224
 20
-246.9154057989126
 30
0.0
  0
POINT
  5
1CBC0
330
1F
100
AcDbEntity
  8
0
 62
     7
370
     5
100
AcDbPoint
 10
317.2946666194903
 20
-384.0973382926297
 30
0.0
  0
POINT
  5
1CBCE
330
1F
100
AcDbEntity
  8
0
 62
     7
370
     5
100
AcDbPoint
 10
305.7896836194903
 20
-451.8667572926297
 30
0.0
  0
POINT
  5
1CE43
330
1F
100
AcDbEntity
  8
0
 62
     7
370
     5
100
AcDbPoint
 10
610.2304875856865
 20
-368.9630837278421
 30
0.0
  0
POINT
  5
1CE51
330
1F
100
AcDbEntity
  8
0
 62
     7
370
     5
100
AcDbPoint
 10
597.1811595856864
 20
-452.2435397278421
 30
0.0
  0
POINT
  5
1CFFB
330
1F
100
AcDbEntity
  8
0
 62
     7
370
     5
100
AcDbPoint
 10
839.2202580447737
 20
-378.5041957660768
 30
0.0
  0
POINT
  5
1D009
330
1F
100
AcDbEntity
  8
0
 62
     7
370
     5
100
AcDbPoint
 10
825.6021750447738
 20
-448.0865117660767
 30
0.0
  0
POINT
  5
1D1B5
330
1F
100
AcDbEntity
  8
0
 62
     7
370
     5
100
AcDbPoint
 10
1100.187375054744
 20
-364.0090280464956
 30
0.0
  0
POINT
  5
1D1C3
330
1F
100
AcDbEntity
  8
0
 62
     7
370
     5
100
AcDbPoint
 10
1086.025427054744
 20
-454.4328780464955
 30
0.0
  0
POINT
  5
1D374
330
1F
100
AcDbEntity
  8
0
 62
     7
370
     5
100
AcDbPoint
 10
1381.669306853374
 20
-372.7791370028926
 30
0.0
  0
POINT
  5
1D382
330
1F
100
AcDbEntity
  8
0
 62
     7
370
     5
100
AcDbPoint
 10
1368.476322853373
 20
-450.1870130028925
 30
0.0
  0
POINT
  5
1D6D5
330
1F
100
AcDbEntity
  8
0
 62
     7
370
     5
100
AcDbPoint
 10
555.980533625745
 20
-586.1972507296687
 30
0.0
  0
POINT
  5
1D6E2
330
1F
100
AcDbEntity
  8
0
 62
     7
370
     5
100
AcDbPoint
 10
545.2688206257452
 20
-642.7388317296686
 30
0.0
  0
POINT
  5
1D913
330
1F
100
AcDbEntity
  8
0
 62
     7
370
     5
100
AcDbPoint
 10
811.7646110501747
 20
-579.6655508098913
 30
0.0
  0
POINT
  5
1D920
330
1F
100
AcDbEntity
  8
0
 62
     7
370
     5
100
AcDbPoint
 10
805.5538980501744
 20
-635.4594578098913
 30
0.0
  0
POINT
  5
1DA40
330
1F
100
AcDbEntity
  8
0
 62
     7
370
     5
100
AcDbPoint
 10
298.0831789389279
 20
-586.3373810040569
 30
0.0
  0
POINT
  5
1E2C1
330
1F
100
AcDbEntity
  8
0
 62
     7
370
     5
100
AcDbPoint
 10
1353.213944337289
 20
-176.2661773838116
 30
0.0
  0
POINT
  5
1E2CF
330
1F
100
AcDbEntity
  8
0
 62
     7
370
     5
100
AcDbPoint
 10
1348.289013337289
 20
-245.1888943838117
 30
0.0
  0
POINT
  5
1E2D0
330
1F
100
AcDbEntity
  8
0
 62
     7
370
     5
100
AcDbPoint
 10
1344.589013337289
 20
-245.1892063838116
 30
0.0
  0
POINT
  5
1E4A3
330
1F
100
AcDbEntity
  8
0
 62
     7
370
     5
100
AcDbPoint
 10
1326.152836266696
 20
34.20326680208106
 30
0.0
  0
POINT
  5
1E4B1
330
1F
100
AcDbEntity
  8
0
 62
     7
370
     5
100
AcDbPoint
 10
1326.493969266696
 20
-40.49850419791893
 30
0.0
  0
POINT
  5
20BCD
330
1F
100
AcDbEntity
  8
0
 62
     7
370
     5
100
AcDbPoint
 10
198.5275522941832
 20
-13.7218025139382
 30
0.0
  0
POINT
  5
20BD6
330
1F
100
AcDbEntity
  8
0
 62
     7
370
     5
100
AcDbPoint
 10
220.4558262941833
 20
15.6077834860618
 30
0.0
  0
POINT
  5
20BD7
330
1F
100
AcDbEntity
  8
0
 62
     7
370
     5
100
AcDbPoint
 10
198.4558262941832
 20
12.6077834860618
 30
0.0
  0
POINT
  5
20C58
330
1F
100
AcDbEntity
  8
0
 62
     7
370
     5
100
AcDbPoint
 10
414.326812844455
 20
11.02280615656721
 30
0.0
  0
POINT
  5
20C59
330
1F
100
AcDbEntity
  8
0
 62
     7
370
     5
100
AcDbPoint
 10
392.3268128444551
 20
7.022806156567212
 30
0.0
  0
POINT
  5
20C5C
330
1F
100
AcDbEntity
  8
0
 62
     7
370
     5
100
AcDbPoint
 10
392.3268138444551
 20
-22.29245184343279
 30
0.0
  0
POINT
  5
20CE3
330
1F
100
AcDbEntity
  8
0
 62
     7
370
     5
100
AcDbPoint
 10
595.8481562583682
 20
11.26212415656721
 30
0.0
  0
POINT
  5
20CE4
330
1F
100
AcDbEntity
  8
0
 62
     7
370
     5
100
AcDbPoint
 10
561.8481562583682
 20
3.262124156567208
 30
0.0
  0
POINT
  5
20CE6
330
1F
100
AcDbEntity
  8
0
 62
     7
370
     5
100
AcDbPoint
 10
561.8481562583682
 20
-39.26495684343278
 30
0.0
  0
POINT
  5
20D5E
330
1F
100
AcDbEntity
  8
0
 62
     7
370
     5
100
AcDbPoint
 10
796.8108405913596
 20
-1.622354670075452
 30
0.0
  0
POINT
  5
20D5F
330
1F
100
AcDbEntity
  8
0
 62
     7
370
     5
100
AcDbPoint
 10
771.8108405913596
 20
-6.622354670075452
 30
0.0
  0
POINT
  5
20D62
330
1F
100
AcDbEntity
  8
0
 62
     7
370
     5
100
AcDbPoint
 10
771.8108415913595
 20
-44.22139367007546
 30
0.0
  0
POINT
  5
20DE5
330
1F
100
AcDbEntity
  8
0
 62
     7
370
     5
100
AcDbPoint
 10
997.5956593431575
 20
6.154053161141687
 30
0.0
  0
POINT
  5
20DE6
330
1F
100
AcDbEntity
  8
0
 62
     7
370
     5
100
AcDbPoint
 10
963.5956593431576
 20
-3.84594683885831
 30
0.0
  0
POINT
  5
20DE8
330
1F
100
AcDbEntity
  8
0
 62
     7
370
     5
100
AcDbPoint
 10
963.5956593431576
 20
-48.6248158388583
 30
0.0
  0
POINT
  5
20E5D
330
1F
100
AcDbEntity
  8
0
 62
     7
370
     5
100
AcDbPoint
 10
209.7442369247441
 20
-211.8062287972217
 30
0.0
  0
POINT
  5
20E66
330
1F
100
AcDbEntity
  8
0
 62
     7
370
     5
100
AcDbPoint
 10
231.7442369247441
 20
-173.8710347972217
 30
0.0
  0
POINT
  5
20E67
330
1F
100
AcDbEntity
  8
0
 62
     7
370
     5
100
AcDbPoint
 10
209.7442369247441
 20
-179.3710347972217
 30
0.0
  0
POINT
  5
20EE1
330
1F
100
AcDbEntity
  8
0
 62
     7
370
     5
100
AcDbPoint
 10
384.6743099214819
 20
-210.4126915562921
 30
0.0
  0
POINT
  5
20EEB
330
1F
100
AcDbEntity
  8
0
 62
     7
370
     5
100
AcDbPoint
 10
409.6743099214817
 20
-168.248029556292
 30
0.0
  0
POINT
  5
20EEC
330
1F
100
AcDbEntity
  8
0
 62
     7
370
     5
100
AcDbPoint
 10
384.6743099214819
 20
-174.248029556292
 30
0.0
  0
POINT
  5
20F6B
330
1F
100
AcDbEntity
  8
0
 62
     7
370
     5
100
AcDbPoint
 10
589.027789486203
 20
-154.2267571311068
 30
0.0
  0
POINT
  5
20F6C
330
1F
100
AcDbEntity
  8
0
 62
     7
370
     5
100
AcDbPoint
 10
555.027789486203
 20
-166.2267571311068
 30
0.0
  0
POINT
  5
20F6E
330
1F
100
AcDbEntity
  8
0
 62
     7
370
     5
100
AcDbPoint
 10
555.027789486203
 20
-220.1583441311068
 30
0.0
  0
POINT
  5
20FE7
330
1F
100
AcDbEntity
  8
0
 62
     7
370
     5
100
AcDbPoint
 10
794.4609892408081
 20
-176.9240641499829
 30
0.0
  0
POINT
  5
20FE8
330
1F
100
AcDbEntity
  8
0
 62
     7
370
     5
100
AcDbPoint
 10
772.4609892408077
 20
-183.4240641499829
 30
0.0
  0
POINT
  5
20FEB
330
1F
100
AcDbEntity
  8
0
 62
     7
370
     5
100
AcDbPoint
 10
772.4609902408077
 20
-220.0080011499829
 30
0.0
  0
POINT
  5
21068
330
1F
100
AcDbEntity
  8
0
 62
     7
370
     5
100
AcDbPoint
 10
980.7257767233267
 20
-225.8659069279295
 30
0.0
  0
POINT
  5
21072
330
1F
100
AcDbEntity
  8
0
 62
     7
370
     5
100
AcDbPoint
 10
1000.725776723327
 20
-181.1593259279295
 30
0.0
  0
POINT
  5
21073
330
1F
100
AcDbEntity
  8
0
 62
     7
370
     5
100
AcDbPoint
 10
980.7257767233267
 20
-188.1593259279295
 30
0.0
  0
POINT
  5
24E51
330
1F
100
AcDbEntity
  8
0
 62
     7
370
     5
100
AcDbPoint
 10
233.2059843961101
 20
-36.0789366070161
 30
0.0
  0
POINT
  5
24E5A
330
1F
100
AcDbEntity
  8
0
 62
     7
370
     5
100
AcDbPoint
 10
314.4377803961102
 20
35.1487553929839
 30
0.0
  0
POINT
  5
24E5B
330
1F
100
AcDbEntity
  8
0
 62
     7
370
     5
100
AcDbPoint
 10
234.4377803961101
 20
19.1487553929839
 30
0.0
  0
POINT
  5
24ECD
330
1F
100
AcDbEntity
  8
0
 62
     7
370
     5
100
AcDbPoint
 10
503.7517578950278
 20
-44.34341865794009
 30
0.0
  0
POINT
  5
24ED5
330
1F
100
AcDbEntity
  8
0
 62
     7
370
     5
100
AcDbPoint
 10
589.9610418950277
 20
46.51953834205989
 30
0.0
  0
POINT
  5
24ED6
330
1F
100
AcDbEntity
  8
0
 62
     7
370
     5
100
AcDbPoint
 10
504.9610418950278
 20
26.51953834205989
 30
0.0
  0
POINT
  5
24F33
330
1F
100
AcDbEntity
  8
0
 62
     7
370
     5
100
AcDbPoint
 10
804.954816789268
 20
-53.36089903708293
 30
0.0
  0
POINT
  5
24F3B
330
1F
100
AcDbEntity
  8
0
 62
     7
370
     5
100
AcDbPoint
 10
901.222594789268
 20
37.79953596291708
 30
0.0
  0
POINT
  5
24F3C
330
1F
100
AcDbEntity
  8
0
 62
     7
370
     5
100
AcDbPoint
 10
806.2225947892681
 20
17.79953596291707
 30
0.0
  0
POINT
  5
24F9C
330
1F
100
AcDbEntity
  8
0
 62
     7
370
     5
100
AcDbPoint
 10
1210.776659634684
 20
28.2041337387349
 30
0.0
  0
POINT
  5
24F9D
330
1F
100
AcDbEntity
  8
0
 62
     7
370
     5
100
AcDbPoint
 10
1125.776659634684
 20
3.204133738734923
 30
0.0
  0
POINT
  5
24FA0
330
1F
100
AcDbEntity
  8
0
 62
     7
370
     5
100
AcDbPoint
 10
1122.825092634684
 20
-62.80906226126507
 30
0.0
  0
POINT
  5
25003
330
1F
100
AcDbEntity
  8
0
 62
     7
370
     5
100
AcDbPoint
 10
1533.294671945107
 20
39.46909335504969
 30
0.0
  0
POINT
  5
25004
330
1F
100
AcDbEntity
  8
0
 62
     7
370
     5
100
AcDbPoint
 10
1423.294671945108
 20
14.46909335504972
 30
0.0
  0
POINT
  5
25007
330
1F
100
AcDbEntity
  8
0
 62
     7
370
     5
100
AcDbPoint
 10
1423.294671945108
 20
-61.69357464495027
 30
0.0
  0
POINT
  5
25069
330
1F
100
AcDbEntity
  8
0
 62
     7
370
     5
100
AcDbPoint
 10
279.5191352462189
 20
-235.8578081995934
 30
0.0
  0
POINT
  5
2506A
330
1F
100
AcDbEntity
  8
0
 62
     7
370
     5
100
AcDbPoint
 10
224.5191352462189
 20
-255.8578081995934
 30
0.0
  0
POINT
  5
2506E
330
1F
100
AcDbEntity
  8
0
 62
     7
370
     5
100
AcDbPoint
 10
223.2724782462189
 20
-314.3072531995934
 30
0.0
  0
POINT
  5
250D0
330
1F
100
AcDbEntity
  8
0
 62
     7
370
     5
100
AcDbPoint
 10
552.5501754157779
 20
-231.1433806045495
 30
0.0
  0
POINT
  5
250D1
330
1F
100
AcDbEntity
  8
0
 62
     7
370
     5
100
AcDbPoint
 10
487.5501754157781
 20
-256.1433806045495
 30
0.0
  0
POINT
  5
250D5
330
1F
100
AcDbEntity
  8
0
 62
     7
370
     5
100
AcDbPoint
 10
487.5501754157781
 20
-323.3343576045494
 30
0.0
  0
POINT
  5
25137
330
1F
100
AcDbEntity
  8
0
 62
     7
370
     5
100
AcDbPoint
 10
855.1566106432487
 20
-229.371519220024
 30
0.0
  0
POINT
  5
25138
330
1F
100
AcDbEntity
  8
0
 62
     7
370
     5
100
AcDbPoint
 10
762.1566106432488
 20
-260.871519220024
 30
0.0
  0
POINT
  5
2513C
330
1F
100
AcDbEntity
  8
0
 62
     7
370
     5
100
AcDbPoint
 10
760.9104996432486
 20
-349.238300220024
 30
0.0
  0
POINT
  5
2519F
330
1F
100
AcDbEntity
  8
0
 62
     7
370
     5
100
AcDbPoint
 10
1192.36388959937
 20
-218.9805098816409
 30
0.0
  0
POINT
  5
251A0
330
1F
100
AcDbEntity
  8
0
 62
     7
370
     5
100
AcDbPoint
 10
1092.36388959937
 20
-258.9805098816409
 30
0.0
  0
POINT
  5
251A4
330
1F
100
AcDbEntity
  8
0
 62
     7
370
     5
100
AcDbPoint
 10
1092.54560259937
 20
-365.6111158816409
 30
0.0
  0
POINT
  5
27C4D
330
1F
100
AcDbEntity
  8
1
 62
     7
370
     5
100
AcDbPoint
 10
185.936684180983
 20
12.22790901277693
 30
0.0
  0
POINT
  5
27C4E
330
1F
100
AcDbEntity
  8
1
 62
     7
370
     5
100
AcDbPoint
 10
185.936684180983
 20
9.517281012776946
 30
0.0
  0
POINT
  5
27DA0
330
1F
100
AcDbEntity
  8
1
 62
     7
370
     5
100
AcDbPoint
 10
159.7240994851886
 20
22.81916357545765
 30
0.0
  0
POINT
  5
27DA1
330
1F
100
AcDbEntity
  8
1
 62
     7
370
     5
100
AcDbPoint
 10
159.7240994851886
 20
20.10853557545767
 30
0.0
  0
POINT
  5
28B80
330
1F
100
AcDbEntity
  8
0
 62
     7
370
     5
100
AcDbPoint
 10
-108.3844236581584
 20
-61.41399158543199
 30
0.0
  0
POINT
  5
28D5B
330
1F
100
AcDbEntity
  8
0
 62
     7
370
     5
100
AcDbPoint
 10
-94.15639370577505
 20
-48.79010226493504
 30
0.0
  0
LINE
  5
28E1E
330
1F
100
AcDbEntity
  8
4
100
AcDbLine
 10
29.6063749433514
 20
0.0
 30
0.0
 11
0.0
 21
0.0
 31
0.0
  0
ARC
  5
28E21
330
1F
100
AcDbEntity
  8
1
100
AcDbCircle
 10
11.95845899999998
 20
15.5
 30
0.0
 40
5.0
100
AcDbArc
 50
270.0
 51
282.0
  0
LINE
  5
28E22
330
1F
100
AcDbEntity
  8
1
100
AcDbLine
 10
11.95845899999998
 20
10.5
 30
0.0
 11
-0.0000000000000284
 21
10.5
 31
0.0
  0
DIMENSION
  5
28E3F
330
1F
100
AcDbEntity
  8
2
100
AcDbDimension
  2
*D31
 10
0.0003560589486615
 20
31.88435536067962
 30
0.0
 11
13.47511499999999
 21
31.884131
 31
0.0
 70
   160
 71
     5
 42
26.95020879129479
  3
MM_STANDARD
100
AcDbAlignedDimension
 13
26.95023
 23
11.773538
 33
0.0
 14
0.0
 24
10.5
 34
0.0
 50
179.999046
100
AcDbRotatedDimension
1001
ACAD
1000
DSTYLE
1002
{
1070
   279
1070
     0
1070
   271
1070
     0
1070
    78
1070
     9
1070
    79
1070
     2
1070
    90
1070
     1
1070
   172
1070
     1
1070
   345
1005
14
1070
   346
1005
14
1070
   347
1005
14
1002
}
1001
ACAD_DSTYLE_DIMARC_LENGTH_SYMBOL
1070
   379
1070
     1
1001
ACAD_DSTYLE_DIM_LINETYPE
1070
   380
1005
14
1001
ACAD_DSTYLE_DIM_EXT1_LINETYPE
1070
   381
1005
14
1001
ACAD_DSTYLE_DIM_EXT2_LINETYPE
1070
   382
1005
14
  0
DIMENSION
  5
28E4C
330
1F
100
AcDbEntity
  8
2
100
AcDbDimension
  2
*D32
 10
26.95065494468267
 20
24.53430153980164
 30
0.0
 11
13.14732933653959
 21
24.53476120272088
 31
0.0
 70
   160
  1
6.3
 71
     5
 42
6.300251125283664
  3
MM_STANDARD
100
AcDbAlignedDimension
 13
20.65000000000001
 23
12.408019
 33
0.0
 14
26.95023
 24
11.773538
 34
0.0
 50
359.998092
100
AcDbRotatedDimension
1001
ACAD
1000
DSTYLE
1002
{
1070
   279
1070
     0
1070
   271
1070
     0
1070
    78
1070
     9
1070
    79
1070
     2
1070
    90
1070
     1
1070
   172
1070
     1
1070
   345
1005
14
1070
   346
1005
14
1070
   347
1005
14
1002
}
1001
ACAD_DSTYLE_DIMARC_LENGTH_SYMBOL
1070
   379
1070
     1
1001
ACAD_DSTYLE_DIM_LINETYPE
1070
   380
1005
14
1001
ACAD_DSTYLE_DIM_EXT1_LINETYPE
1070
   381
1005
14
1001
ACAD_DSTYLE_DIM_EXT2_LINETYPE
1070
   382
1005
14
  0
DIMENSION
  5
28E5A
330
1F
100
AcDbEntity
  8
2
100
AcDbDimension
  2
*D33
 10
26.083347
 20
12.12124799999998
 30
0.0
 11
41.46777068169532
 21
19.18315945634519
 31
0.0
 70
   162
  1
<>~90%%d
 71
     5
 42
1.396263049953758
  3
MM_STANDARD
100
AcDb2LineAngularDimension
 13
26.95022900000001
 23
11.96839299999999
 33
0.0
 14
26.95022900000001
 24
13.212211
 34
0.0
 15
26.95022900000001
 25
11.96839299999999
 35
0.0
 16
23.41925827951357
 26
18.59564040039375
 36
0.0
1001
ACAD
1000
DSTYLE
1002
{
1070
   279
1070
     0
1070
    78
1070
     9
1070
    79
1070
     2
1070
    90
1070
     1
1070
   172
1070
     1
1070
   345
1005
14
1070
   346
1005
14
1070
   347
1005
14
1002
}
1001
ACAD_DSTYLE_DIMARC_LENGTH_SYMBOL
1070
   379
1070
     1
1001
ACAD_DSTYLE_DIM_LINETYPE
1070
   380
1005
14
1001
ACAD_DSTYLE_DIM_EXT1_LINETYPE
1070
   381
1005
14
1001
ACAD_DSTYLE_DIM_EXT2_LINETYPE
1070
   382
1005
14
  0
DIMENSION
  5
28E69
330
1F
100
AcDbEntity
  8
SK2
100
AcDbDimension
  2
*D34
 10
-21.99945245792953
 20
38.88453851234307
 30
0.0
 11
2.475114999999988
 21
38.884131
 31
0.0
 70
   160
 71
     5
 42
48.9501338612604
  3
MM_STANDARD
100
AcDbAlignedDimension
 13
26.95023
 23
11.773538
 33
0.0
 14
-22.0
 24
6.0
 34
0.0
 50
179.999046
100
AcDbRotatedDimension
1001
ACAD
1000
DSTYLE
1002
{
1070
    78
1070
     9
1070
   271
1070
     0
1070
    79
1070
     2
1070
    90
1070
     1
1070
   172
1070
     1
1070
   345
1005
14
1070
   346
1005
14
1070
   347
1005
14
1002
}
1001
ACAD_DSTYLE_DIMARC_LENGTH_SYMBOL
1070
   379
1070
     1
1001
ACAD_DSTYLE_DIM_LINETYPE
1070
   380
1005
14
1001
ACAD_DSTYLE_DIM_EXT1_LINETYPE
1070
   381
1005
14
1001
ACAD_DSTYLE_DIM_EXT2_LINETYPE
1070
   382
1005
14
  0
POINT
  5
28E77
330
1F
100
AcDbEntity
  8
1
 62
     7
370
     5
100
AcDbPoint
 10
-213.1015849931673
 20
30.05398245527181
 30
0.0
  0
LINE
  5
29020
330
1F
100
AcDbEntity
  8
SK3
100
AcDbLine
 10
14.84529899999998
 20
2.0
 30
0.0
 11
14.84529899999998
 21
-1.755164999999996
 31
0.0
  0
LINE
  5
29021
330
1F
100
AcDbEntity
  8
SK3
100
AcDbLine
 10
14.84529899999998
 20
1.755165000000004
 30
0.0
 11
14.84529899999998
 21
-2.0
 31
0.0
  0
LINE
  5
2905C
330
1F
100
AcDbEntity
  8
SK3
100
AcDbLine
 10
16.0
 20
0.0
 30
0.0
 11
14.84529899999998
 21
2.0
 31
0.0
  0
LINE
  5
2905D
330
1F
100
AcDbEntity
  8
SK3
100
AcDbLine
 10
16.0
 20
0.0
 30
0.0
 11
14.84529899999998
 21
-2.0
 31
0.0
  0
LINE
  5
2905E
330
1F
100
AcDbEntity
  8
SK3
100
AcDbLine
 10
14.84529899999998
 20
-2.0
 30
0.0
 11
-22.0
 21
-2.0
 31
0.0
  0
LINE
  5
2905F
330
1F
100
AcDbEntity
  8
SK3
100
AcDbLine
 10
14.84529899999998
 20
2.0
 30
0.0
 11
-22.0
 21
2.0
 31
0.0
  0
LINE
  5
2907E
330
1F
100
AcDbEntity
  8
SK1
100
AcDbLine
 10
-22.0
 20
2.876553000000001
 30
0.0
 11
-22.0
 21
-6.0
 31
0.0
  0
LINE
  5
2907F
330
1F
100
AcDbEntity
  8
SK1
100
AcDbLine
 10
-22.0
 20
6.0
 30
0.0
 11
-22.0
 21
2.876553000000001
 31
0.0
  0
LINE
  5
29080
330
1F
100
AcDbEntity
  8
SK1
100
AcDbLine
 10
-10.26448200000002
 20
2.876553000000001
 30
0.0
 11
-10.26448200000002
 21
6.0
 31
0.0
  0
LINE
  5
29081
330
1F
100
AcDbEntity
  8
SK1
100
AcDbLine
 10
-10.26448200000002
 20
-6.0
 30
0.0
 11
-10.26448200000002
 21
2.876553000000001
 31
0.0
  0
LINE
  5
29082
330
1F
100
AcDbEntity
  8
SK1
100
AcDbLine
 10
-5.166331000000012
 20
2.996410000000001
 30
0.0
 11
-5.166331000000012
 21
-6.25
 31
0.0
  0
LINE
  5
29083
330
1F
100
AcDbEntity
  8
SK1
100
AcDbLine
 10
-5.166331000000012
 20
6.25
 30
0.0
 11
-5.166331000000012
 21
2.996410000000001
 31
0.0
  0
LINE
  5
29085
330
1F
100
AcDbEntity
  8
1
100
AcDbLine
 10
0.0
 20
-10.5
 30
0.0
 11
0.0
 21
10.5
 31
0.0
  0
LINE
  5
29086
330
1F
100
AcDbEntity
  8
1
100
AcDbLine
 10
11.95846
 20
6.164414000000001
 30
0.0
 11
3.0
 21
6.164414000000001
 31
0.0
  0
LINE
  5
29087
330
1F
100
AcDbEntity
  8
1
100
AcDbLine
 10
11.95846
 20
10.5
 30
0.0
 11
11.95846
 21
6.164414000000001
 31
0.0
  0
LINE
  5
29088
330
1F
100
AcDbEntity
  8
1
100
AcDbLine
 10
11.95846
 20
-6.164414000000001
 30
0.0
 11
11.95846
 21
-9.214617
 31
0.0
  0
LINE
  5
29089
330
1F
100
AcDbEntity
  8
1
100
AcDbLine
 10
3.0
 20
-6.164414000000001
 30
0.0
 11
11.95846
 21
-6.164414000000001
 31
0.0
  0
LINE
  5
2908A
330
1F
100
AcDbEntity
  8
1
100
AcDbLine
 10
3.0
 20
6.164414000000001
 30
0.0
 11
3.0
 21
-6.164414000000001
 31
0.0
  0
ARC
  5
2908B
330
1F
100
AcDbEntity
  8
1
100
AcDbCircle
 10
11.94467599999999
 20
9.255086999999999
 30
0.0
 40
3.090996
100
AcDbArc
 50
270.255521
 51
289.9219140000001
  0
ARC
  5
2908C
330
1F
100
AcDbEntity
  8
1
100
AcDbCircle
 10
46.79962699999999
 20
-88.85834799999997
 30
0.0
 40
101.029397
100
AcDbArc
 50
108.94463
 51
109.546516
  0
ARC
  5
2908D
330
1F
100
AcDbEntity
  8
1
100
AcDbCircle
 10
46.799622
 20
88.85833199999998
 30
0.0
 40
101.02938
100
AcDbArc
 50
250.453484
 51
251.05537
  0
ARC
  5
2908E
330
1F
100
AcDbEntity
  8
1
100
AcDbCircle
 10
11.94467599999999
 20
-9.255086999999999
 30
0.0
 40
3.090996000000001
100
AcDbArc
 50
70.07808599999986
 51
89.74447899999987
  0
LINE
  5
2908F
330
1F
100
AcDbEntity
  8
1
100
AcDbLine
 10
12.998018
 20
-6.348734999999997
 30
0.0
 11
12.998018
 21
-9.310503
 31
0.0
  0
LINE
  5
29090
330
1F
100
AcDbEntity
  8
1
100
AcDbLine
 10
11.95846
 20
-9.214617
 30
0.0
 11
11.95846
 21
-10.5
 31
0.0
  0
LINE
  5
29091
330
1F
100
AcDbEntity
  8
1
100
AcDbLine
 10
12.998018
 20
-9.310503
 30
0.0
 11
12.998018
 21
-10.609262
 31
0.0
  0
LINE
  5
29092
330
1F
100
AcDbEntity
  8
1
100
AcDbLine
 10
15.66313199999999
 20
-11.175745
 30
0.0
 11
15.61987099999999
 21
-11.166554
 31
0.0
  0
ARC
  5
29093
330
1F
100
AcDbEntity
  8
1
100
AcDbCircle
 10
84.32909599999998
 20
312.365343
 30
0.0
 40
330.747427
100
AcDbArc
 50
258.017761
 51
258.446484
  0
LINE
  5
29094
330
1F
100
AcDbEntity
  8
1
100
AcDbLine
 10
18.08596299999999
 20
-10.259588
 30
0.0
 11
18.08596299999999
 21
-11.680515
 31
0.0
  0
LINE
  5
29095
330
1F
100
AcDbEntity
  8
1
100
AcDbLine
 10
12.998018
 20
10.609262
 30
0.0
 11
12.998018
 21
6.348734999999998
 31
0.0
  0
LINE
  5
29096
330
1F
100
AcDbEntity
  8
1
100
AcDbLine
 10
18.08596299999999
 20
-0.6339970000000008
 30
0.0
 11
18.08596299999999
 21
-6.900528999999997
 31
0.0
  0
SPLINE
  5
29097
330
1F
100
AcDbEntity
  8
1
100
AcDbSpline
210
0.0
220
0.0
230
1.0
 70
     8
 71
     5
 72
    12
 73
     6
 74
     0
 42
0.000000001
 43
0.0000000001
 40
0.0
 40
0.0
 40
0.0
 40
0.0
 40
0.0
 40
0.0
 40
5.616225325422727
 40
5.616225325422727
 40
5.616225325422727
 40
5.616225325422727
 40
5.616225325422727
 40
5.616225325422727
 10
18.08596272223957
 20
-0.6339971525638966
 30
0.0
 10
17.50304633765168
 20
-0.3341841690489957
 30
0.0
 10
16.93997210063699
 20
0.007069830599697
 30
0.0
 10
16.40029906960388
 20
0.3836041075666934
 30
0.0
 10
15.88514178236073
 20
0.7886580308715097
 30
0.0
 10
15.39462155048969
 20
1.21519162370275
 30
0.0
  0
SPLINE
  5
29098
330
1F
100
AcDbEntity
  8
1
100
AcDbSpline
210
0.0
220
0.0
230
1.0
 70
     8
 71
     5
 72
    21
 73
    15
 74
     0
 42
0.000000001
 43
0.0000000001
 40
0.0
 40
0.0
 40
0.0
 40
0.0
 40
0.0
 40
0.0
 40
0.8850748624495071
 40
0.8850748624495071
 40
0.8850748624495071
 40
1.479767482545276
 40
1.479767482545276
 40
1.479767482545276
 40
2.366505722356035
 40
2.366505722356035
 40
2.366505722356035
 40
2.935268677582286
 40
2.935268677582286
 40
2.935268677582286
 40
2.935268677582286
 40
2.935268677582286
 40
2.935268677582286
 10
15.66313214697044
 20
2.497013641618548
 30
0.0
 10
15.56460650147818
 20
2.473206361419575
 30
0.0
 10
15.46841219332785
 20
2.437783248692988
 30
0.0
 10
15.37617164182413
 20
2.389164287268535
 30
0.0
 10
15.23787065514534
 20
2.283222493063731
 30
0.0
 10
15.14072998719831
 20
2.141286196324656
 30
0.0
 10
15.11010490226724
 20
2.079213009060512
 30
0.0
 10
15.05784230135347
 20
1.915826680585534
 30
0.0
 10
15.06508702678187
 20
1.74317909862445
 30
0.0
 10
15.09041689170084
 20
1.64255870397423
 30
0.0
 10
15.15683640652776
 20
1.488494571627749
 30
0.0
 10
15.25595689186488
 20
1.353812024075896
 30
0.0
 10
15.29910284073506
 20
1.304089598836105
 30
0.0
 10
15.34540439461949
 20
1.257988574691279
 30
0.0
 10
15.39462155048969
 20
1.215191623702791
 30
0.0
  0
ARC
  5
29099
330
1F
100
AcDbEntity
  8
1
100
AcDbCircle
 10
130.085994
 20
-471.226236
 30
0.0
 40
487.3462009999998
100
AcDbArc
 50
103.286248
 51
103.579105
  0
LINE
  5
2909A
330
1F
100
AcDbEntity
  8
1
100
AcDbLine
 10
18.08596299999999
 20
8.731446
 30
0.0
 11
18.08596299999999
 21
3.075696000000001
 31
0.0
  0
SPLINE
  5
2909B
330
1F
100
AcDbEntity
  8
1
100
AcDbSpline
210
0.0
220
0.0
230
1.0
 70
     8
 71
     5
 72
    12
 73
     6
 74
     0
 42
0.000000001
 43
0.0000000001
 40
0.0
 40
0.0
 40
0.0
 40
0.0
 40
0.0
 40
0.0
 40
5.33984911052499
 40
5.33984911052499
 40
5.33984911052499
 40
5.33984911052499
 40
5.33984911052499
 40
5.33984911052499
 10
18.08596272223954
 20
8.731445855911834
 30
0.0
 10
17.51343536887819
 20
8.832263558526207
 30
0.0
 10
16.95529636714102
 20
8.956768351738835
 30
0.0
 10
16.41411894279713
 20
9.098547234237305
 30
0.0
 10
15.8937775968443
 20
9.248658084419719
 30
0.0
 10
15.39462155048966
 20
9.398516178544676
 30
0.0
  0
SPLINE
  5
2909C
330
1F
100
AcDbEntity
  8
1
100
AcDbSpline
210
0.0
220
0.0
230
1.0
 70
     8
 71
     5
 72
    18
 73
    12
 74
     0
 42
0.000000001
 43
0.0000000001
 40
0.0
 40
0.0
 40
0.0
 40
0.0
 40
0.0
 40
0.0
 40
1.089556321496057
 40
1.089556321496057
 40
1.089556321496057
 40
1.625001134061063
 40
1.625001134061063
 40
1.625001134061063
 40
2.06119827078636
 40
2.06119827078636
 40
2.06119827078636
 40
2.06119827078636
 40
2.06119827078636
 40
2.06119827078636
 10
15.66313214697044
 20
10.0735269296263
 30
0.0
 10
15.5421956964023
 20
10.03992525454894
 30
0.0
 10
15.42408778388511
 20
9.998904644130446
 30
0.0
 10
15.30724379465863
 20
9.947902652187043
 30
0.0
 10
15.16064648479363
 20
9.856539271821457
 30
0.0
 10
15.08515273233522
 20
9.750014512422083
 30
0.0
 10
15.07010771407792
 20
9.714174478824174
 30
0.0
 10
15.06218303338107
 20
9.649846817163648
 30
0.0
 10
15.08584909640135
 20
9.590604554191404
 30
0.0
 10
15.1025093850665
 20
9.565195557942386
 30
0.0
 10
15.12369744280676
 20
9.541835270775056
 30
0.0
 10
15.14882917246248
 20
9.520199213939502
 30
0.0
  0
ARC
  5
2909D
330
1F
100
AcDbEntity
  8
1
100
AcDbCircle
 10
15.566012
 20
10.061454
 30
0.0
 40
0.684039999999997
100
AcDbArc
 50
232.3760460000003
 51
255.5045860000004
  0
ARC
  5
2909E
330
1F
100
AcDbEntity
  8
1
100
AcDbCircle
 10
99.01480099999998
 20
-290.082721
 30
0.0
 40
311.514501
100
AcDbArc
 50
105.057694
 51
105.519669
  0
LINE
  5
2909F
330
1F
100
AcDbEntity
  8
1
100
AcDbLine
 10
18.08596299999999
 20
11.690738
 30
0.0
 11
18.08596299999999
 21
10.73586
 31
0.0
  0
LINE
  5
290A0
330
1F
100
AcDbEntity
  8
1
100
AcDbLine
 10
14.0
 20
-6.698572999999998
 30
0.0
 11
14.0
 21
6.698572999999998
 31
0.0
  0
LINE
  5
290A1
330
1F
100
AcDbEntity
  8
1
100
AcDbLine
 10
18.08596299999999
 20
-9.522026999999999
 30
0.0
 11
18.08596299999999
 21
-10.259588
 31
0.0
  0
ARC
  5
290A2
330
1F
100
AcDbEntity
  8
1
100
AcDbCircle
 10
23.80594699999997
 20
2.913921999999999
 30
0.0
 40
13.6875
100
AcDbArc
 50
232.080187
 51
245.299669
  0
ARC
  5
290A3
330
1F
100
AcDbEntity
  8
1
100
AcDbCircle
 10
15.67711299999999
 20
-7.968878
 30
0.0
 40
1.009041999999998
100
AcDbArc
 50
90.79378899999957
 51
104.9598879999996
  0
SPLINE
  5
290A4
330
1F
100
AcDbEntity
  8
1
100
AcDbSpline
210
0.0
220
0.0
230
1.0
 70
     8
 71
     5
 72
    18
 73
    12
 74
     0
 42
0.000000001
 43
0.0000000001
 40
0.0
 40
0.0
 40
0.0
 40
0.0
 40
0.0
 40
0.0
 40
0.7133081242163035
 40
0.7133081242163035
 40
0.7133081242163035
 40
1.407863228115154
 40
1.407863228115154
 40
1.407863228115154
 40
2.346769370145013
 40
2.346769370145013
 40
2.346769370145013
 40
2.346769370145013
 40
2.346769370145013
 40
2.346769370145013
 10
15.41666884837483
 20
-6.994157707332205
 30
0.0
 10
15.34269297052867
 20
-7.014806020427335
 30
0.0
 10
15.27304772295264
 20
-7.043867201463296
 30
0.0
 10
15.20969438970519
 20
-7.082591720491044
 30
0.0
 10
15.10850695187804
 20
-7.179036516952507
 30
0.0
 10
15.06506652727677
 20
-7.304082607678865
 30
0.0
 10
15.06052965708912
 20
-7.369697128342202
 30
0.0
 10
15.08386576286392
 20
-7.524392928165142
 30
0.0
 10
15.17192662646403
 20
-7.670324144960521
 30
0.0
 10
15.23740578401691
 20
-7.747845173278605
 30
0.0
 10
15.31227800697249
 20
-7.818632049060802
 30
0.0
 10
15.39462155048969
 20
-7.883197009178972
 30
0.0
  0
LINE
  5
290A5
330
1F
100
AcDbEntity
  8
1
100
AcDbLine
 10
15.66313199999999
 20
-6.959802
 30
0.0
 11
18.08596299999999
 21
-6.900528999999997
 31
0.0
  0
LINE
  5
290A6
330
1F
100
AcDbEntity
  8
1
100
AcDbLine
 10
19.75022199999998
 20
-9.879164000000002
 30
0.0
 11
19.75022199999998
 21
-10.321092
 31
0.0
  0
ELLIPSE
  5
290A7
330
1F
100
AcDbEntity
  8
1
100
AcDbEllipse
 10
19.37805799999998
 20
-2.467055999999999
 30
0.0
 11
0.5107426047325136
 21
-7.405359745025632
 31
0.0
210
0.0
220
0.0
230
0.9999999999999998
 40
0.680134
 41
5.924039131329587
 42
6.25570587814396
  0
LINE
  5
290A8
330
1F
100
AcDbEntity
  8
1
100
AcDbLine
 10
19.75022199999998
 20
-1.170576
 30
0.0
 11
19.75022199999998
 21
-6.789158999999997
 31
0.0
  0
ELLIPSE
  5
290A9
330
1F
100
AcDbEntity
  8
1
100
AcDbEllipse
 10
18.70611599999998
 20
11.220681
 30
0.0
 11
2.304389715194701
 21
-12.35940265655518
 31
0.0
210
0.0
220
0.0
230
1.0
 40
0.5577340000000001
 41
5.875140580135099
 42
6.104720382821781
  0
ARC
  5
290AA
330
1F
100
AcDbEntity
  8
1
100
AcDbCircle
 10
17.54603399999999
 20
13.638395
 30
0.0
 40
20.546084
100
AcDbArc
 50
271.505848
 51
276.15854
  0
ARC
  5
290AB
330
1F
100
AcDbEntity
  8
1
100
AcDbCircle
 10
19.801177
 20
-4.187584000000001
 30
0.0
 40
7.463037000000002
100
AcDbArc
 50
90.39120699999996
 51
103.286909
  0
LINE
  5
290AC
330
1F
100
AcDbEntity
  8
1
100
AcDbLine
 10
19.75022199999998
 20
8.41948
 30
0.0
 11
19.75022199999998
 21
3.275225999999998
 31
0.0
  0
ARC
  5
290AD
330
1F
100
AcDbEntity
  8
1
100
AcDbCircle
 10
-4.815792000000016
 20
-117.577643
 30
0.0
 40
128.368866
100
AcDbArc
 50
78.967292
 51
79.723054
  0
ARC
  5
290AE
330
1F
100
AcDbEntity
  8
1
100
AcDbCircle
 10
19.29301999999998
 20
6.270345999999999
 30
0.0
 40
4.625684999999998
100
AcDbArc
 50
84.32753400000001
 51
105.125936
  0
LINE
  5
290AF
330
1F
100
AcDbEntity
  8
1
100
AcDbLine
 10
19.75022199999998
 20
11.760821
 30
0.0
 11
19.75022199999998
 21
10.873299
 31
0.0
  0
LINE
  5
290B0
330
1F
100
AcDbEntity
  8
1
100
AcDbLine
 10
19.75022199999998
 20
-10.321092
 30
0.0
 11
19.75022199999998
 21
-11.741169
 31
0.0
  0
ARC
  5
290B1
330
1F
100
AcDbEntity
  8
1
100
AcDbCircle
 10
19.10031899999998
 20
-6.698447000000002
 30
0.0
 40
5.084359000000001
100
AcDbArc
 50
258.491795
 51
277.34376
  0
LINE
  5
290B2
330
1F
100
AcDbEntity
  8
1
100
AcDbLine
 10
23.78492599999998
 20
-9.889255
 30
0.0
 11
23.78492599999998
 21
-10.184663
 31
0.0
  0
ARC
  5
290B3
330
1F
100
AcDbEntity
  8
1
100
AcDbCircle
 10
21.231887
 20
-1.471937
 30
0.0
 40
8.536785999999999
100
AcDbArc
 50
260.004993
 51
267.6576740000001
  0
ARC
  5
290B4
330
1F
100
AcDbEntity
  8
1
100
AcDbCircle
 10
21.62860599999999
 20
8.275999999999998
 30
0.0
 40
18.292791
100
AcDbArc
 50
267.663969
 51
276.7696589999999
  0
ARC
  5
290B5
330
1F
100
AcDbEntity
  8
1
100
AcDbCircle
 10
21.37134699999999
 20
5.754963
 30
0.0
 40
7.112669000000001
100
AcDbArc
 50
256.8254509999999
 51
266.0629209999999
  0
ARC
  5
290B6
330
1F
100
AcDbEntity
  8
1
100
AcDbCircle
 10
23.26039899999998
 20
33.70407
 30
0.0
 40
35.125439
100
AcDbArc
 50
266.119061
 51
270.855627
  0
LINE
  5
290B7
330
1F
100
AcDbEntity
  8
1
100
AcDbLine
 10
23.78492599999998
 20
-1.41742
 30
0.0
 11
23.78492599999998
 21
-4.041204
 31
0.0
  0
ARC
  5
290B8
330
1F
100
AcDbEntity
  8
1
100
AcDbCircle
 10
13.72872599999999
 20
84.00836299999998
 30
0.0
 40
88.621976
100
AcDbArc
 50
274.161285
 51
276.515558
  0
ARC
  5
290B9
330
1F
100
AcDbEntity
  8
1
100
AcDbCircle
 10
-184.248686
 20
-21.446375
 30
0.0
 40
205.11937
100
AcDbArc
 50
4.108617999999998
 51
4.772654
  0
LINE
  5
290BA
330
1F
100
AcDbEntity
  8
1
100
AcDbLine
 10
19.75022199999998
 20
-6.789158999999997
 30
0.0
 11
20.34348299999999
 21
-6.750095000000002
 31
0.0
  0
ARC
  5
290BB
330
1F
100
AcDbEntity
  8
1
100
AcDbCircle
 10
23.414334
 20
-25.589554
 30
0.0
 40
31.578459
100
AcDbArc
 50
93.10756899999999
 51
95.91602899999999
  0
ARC
  5
290BC
330
1F
100
AcDbEntity
  8
1
100
AcDbCircle
 10
-69.41413599999998
 20
-2.080163999999999
 30
0.0
 40
89.92152299999998
100
AcDbArc
 50
3.460879
 51
5.040754000000001
  0
ARC
  5
290BD
330
1F
100
AcDbEntity
  8
1
100
AcDbCircle
 10
23.658447
 20
-26.076405
 30
0.0
 40
29.610682
100
AcDbArc
 50
96.42783100000002
 51
97.58442999999999
  0
ARC
  5
290BE
330
1F
100
AcDbEntity
  8
1
100
AcDbCircle
 10
21.60011499999999
 20
24.530934
 30
0.0
 40
16.217263
100
AcDbArc
 50
263.450067
 51
267.465555
  0
ARC
  5
290BF
330
1F
100
AcDbEntity
  8
1
100
AcDbCircle
 10
18.61033399999999
 20
-43.77374999999999
 30
0.0
 40
52.15286500000001
100
AcDbArc
 50
84.30576000000002
 51
87.50244300000002
  0
LINE
  5
290C0
330
1F
100
AcDbEntity
  8
1
100
AcDbLine
 10
23.78492599999998
 20
8.121762
 30
0.0
 11
23.78492599999998
 21
6.061687999999998
 31
0.0
  0
LINE
  5
290C1
330
1F
100
AcDbEntity
  8
1
100
AcDbLine
 10
20.15951699999999
 20
11.638301
 30
0.0
 11
20.24312399999999
 21
11.642842
 31
0.0
  0
ELLIPSE
  5
290C2
330
1F
100
AcDbEntity
  8
1
100
AcDbEllipse
 10
19.30936399999999
 20
0.0650680000000001
 30
0.0
 11
-0.7076062560081482
 21
-11.71014499664307
 31
0.0
210
0.0
220
0.0
230
1.0
 40
0.087086
 41
2.763446840367673
 42
2.993699283614379
  0
ARC
  5
290C3
330
1F
100
AcDbEntity
  8
1
100
AcDbCircle
 10
21.63643099999999
 20
-7.288513000000002
 30
0.0
 40
18.259497
100
AcDbArc
 50
94.06049000000001
 51
95.929242
  0
LINE
  5
290C4
330
1F
100
AcDbEntity
  8
1
100
AcDbLine
 10
23.78492599999998
 20
-10.184663
 30
0.0
 11
23.78492599999998
 21
-11.02521
 31
0.0
  0
ARC
  5
290C5
330
1F
100
AcDbEntity
  8
1
100
AcDbCircle
 10
20.433481
 20
10.520526
 30
0.0
 40
21.80478
100
AcDbArc
 50
269.280091
 51
278.841517
  0
LINE
  5
290C6
330
1F
100
AcDbEntity
  8
1
100
AcDbLine
 10
20.20649999999998
 20
-11.448247
 30
0.0
 11
20.15951699999999
 21
-11.282468
 31
0.0
  0
ARC
  5
290C7
330
1F
100
AcDbEntity
  8
1
100
AcDbCircle
 10
20.86471399999999
 20
8.302564999999999
 30
0.0
 40
20.074695
100
AcDbArc
 50
266.817457
 51
268.258801
  0
LINE
  5
290C8
330
1F
100
AcDbEntity
  8
1
100
AcDbLine
 10
23.78492599999998
 20
-9.889255
 30
0.0
 11
26.08350399999998
 21
-9.616388999999998
 31
0.0
  0
LINE
  5
290C9
330
1F
100
AcDbEntity
  8
1
100
AcDbLine
 10
26.08350399999998
 20
-9.616388999999998
 30
0.0
 11
26.08350399999998
 21
-9.901164999999998
 31
0.0
  0
LINE
  5
290CA
330
1F
100
AcDbEntity
  8
1
100
AcDbLine
 10
23.78492599999998
 20
-4.041204
 30
0.0
 11
26.08350399999998
 21
-3.778291999999998
 31
0.0
  0
LINE
  5
290CB
330
1F
100
AcDbEntity
  8
1
100
AcDbLine
 10
23.78492599999998
 20
-1.41742
 30
0.0
 11
26.08350399999998
 21
-1.382533999999999
 31
0.0
  0
LINE
  5
290CC
330
1F
100
AcDbEntity
  8
1
100
AcDbLine
 10
26.08350399999998
 20
-1.382533999999999
 30
0.0
 11
26.08350399999998
 21
-3.778291999999998
 31
0.0
  0
LINE
  5
290CD
330
1F
100
AcDbEntity
  8
1
100
AcDbLine
 10
26.08350399999998
 20
7.892398
 30
0.0
 11
26.08350399999998
 21
6.004134000000001
 31
0.0
  0
LINE
  5
290CE
330
1F
100
AcDbEntity
  8
1
100
AcDbLine
 10
23.78492599999998
 20
8.121762
 30
0.0
 11
26.08350399999998
 21
7.892398
 31
0.0
  0
LINE
  5
290CF
330
1F
100
AcDbEntity
  8
1
100
AcDbLine
 10
23.78492599999998
 20
-11.02521
 30
0.0
 11
26.08350399999998
 21
-10.667268
 31
0.0
  0
LINE
  5
290D0
330
1F
100
AcDbEntity
  8
1
100
AcDbLine
 10
26.08350399999998
 20
-9.901164999999998
 30
0.0
 11
26.08350399999998
 21
-10.667268
 31
0.0
  0
SPLINE
  5
290D1
330
1F
100
AcDbEntity
  8
1
100
AcDbSpline
210
0.0
220
0.0
230
1.0
 70
     8
 71
     5
 72
    18
 73
    12
 74
     0
 42
0.000000001
 43
0.0000000001
 40
0.0
 40
0.0
 40
0.0
 40
0.0
 40
0.0
 40
0.0
 40
0.3671781490219621
 40
0.3671781490219621
 40
0.3671781490219621
 40
0.7440120717358595
 40
0.7440120717358595
 40
0.7440120717358595
 40
1.269983016890678
 40
1.269983016890678
 40
1.269983016890678
 40
1.269983016890678
 40
1.269983016890678
 40
1.269983016890678
 10
26.08350386057603
 20
-9.616388727937522
 30
0.0
 10
26.13492524254974
 20
-9.610284414806523
 30
0.0
 10
26.18556926671192
 20
-9.598119008441202
 30
0.0
 10
26.23446572783988
 20
-9.580004047614645
 30
0.0
 10
26.32822929366668
 20
-9.532163925741848
 30
0.0
 10
26.40858454307499
 20
-9.464369758493104
 30
0.0
 10
26.44515739467121
 20
-9.425590394477175
 30
0.0
 10
26.52190187269005
 20
-9.324048551386477
 30
0.0
 10
26.57145722264721
 20
-9.20618341363734
 30
0.0
 10
26.59056300097004
 20
-9.13402560238466
 30
0.0
 10
26.59999999999999
 20
-9.060312198897149
 30
0.0
 10
26.59999999999999
 20
-8.986577626149085
 30
0.0
  0
LINE
  5
290D2
330
1F
100
AcDbEntity
  8
1
100
AcDbLine
 10
26.59999999999999
 20
-8.986578000000001
 30
0.0
 11
26.59999999999999
 21
-9.379739999999998
 31
0.0
  0
SPLINE
  5
290D3
330
1F
100
AcDbEntity
  8
1
100
AcDbSpline
210
0.0
220
0.0
230
1.0
 70
     8
 71
     5
 72
    18
 73
    12
 74
     0
 42
0.000000001
 43
0.0000000001
 40
0.0
 40
0.0
 40
0.0
 40
0.0
 40
0.0
 40
0.0
 40
0.4881078581872488
 40
0.4881078581872488
 40
0.4881078581872488
 40
0.976548357393354
 40
0.976548357393354
 40
0.976548357393354
 40
1.21679238754911
 40
1.21679238754911
 40
1.21679238754911
 40
1.21679238754911
 40
1.21679238754911
 40
1.21679238754911
 10
26.08350386057603
 20
-3.778292017869218
 30
0.0
 10
26.1516986948231
 20
-3.770484110342071
 30
0.0
 10
26.2186017125191
 20
-3.760588101049386
 30
0.0
 10
26.28231662293726
 20
-3.74880950883454
 30
0.0
 10
26.39967673510651
 20
-3.722151810951756
 30
0.0
 10
26.49096108805944
 20
-3.690943122166821
 30
0.0
 10
26.5286271885989
 20
-3.674602902191288
 30
0.0
 10
26.5713307857755
 20
-3.649846564688261
 30
0.0
 10
26.5928798844902
 20
-3.625528468361266
 30
0.0
 10
26.59762921720082
 20
-3.617612189831582
 30
0.0
 10
26.59999999999999
 20
-3.609849502630758
 30
0.0
 10
26.59999999999999
 20
-3.602289212248876
 30
0.0
  0
SPLINE
  5
290D4
330
1F
100
AcDbEntity
  8
1
100
AcDbSpline
210
0.0
220
0.0
230
1.0
 70
     8
 71
     5
 72
    18
 73
    12
 74
     0
 42
0.000000001
 43
0.0000000001
 40
0.0
 40
0.0
 40
0.0
 40
0.0
 40
0.0
 40
0.0
 40
0.3671781490200633
 40
0.3671781490200633
 40
0.3671781490200633
 40
0.7440120717375601
 40
0.7440120717375601
 40
0.7440120717375601
 40
1.269983016869574
 40
1.269983016869574
 40
1.269983016869574
 40
1.269983016869574
 40
1.269983016869574
 40
1.269983016869574
 10
26.08350386057603
 20
-1.38253350651286
 30
0.0
 10
26.13492524254946
 20
-1.381753053189504
 30
0.0
 10
26.18556926671141
 20
-1.377787516112054
 30
0.0
 10
26.23446572784033
 20
-1.370649731743603
 30
0.0
 10
26.32822929366736
 20
-1.350154925971075
 30
0.0
 10
26.40858454307573
 20
-1.318669885414728
 30
0.0
 10
26.44515739467059
 20
-1.300223247432227
 30
0.0
 10
26.52190187268792
 20
-1.25103728001445
 30
0.0
 10
26.57145722264468
 20
-1.192106606879386
 30
0.0
 10
26.59056300097086
 20
-1.155506592118396
 30
0.0
 10
26.59999999999999
 20
-1.117648826415039
 30
0.0
 10
26.59999999999999
 20
-1.079341270471648
 30
0.0
  0
LINE
  5
290D5
330
1F
100
AcDbEntity
  8
1
100
AcDbLine
 10
26.59999999999999
 20
-1.079340999999997
 30
0.0
 11
26.59999999999999
 21
-3.602288999999998
 31
0.0
  0
LINE
  5
290D6
330
1F
100
AcDbEntity
  8
1
100
AcDbLine
 10
26.59999999999999
 20
7.640660999999998
 30
0.0
 11
26.59999999999999
 21
5.959123999999999
 31
0.0
  0
SPLINE
  5
290D7
330
1F
100
AcDbEntity
  8
1
100
AcDbSpline
210
0.0
220
0.0
230
1.0
 70
     8
 71
     5
 72
    18
 73
    12
 74
     0
 42
0.000000001
 43
0.0000000001
 40
0.0
 40
0.0
 40
0.0
 40
0.0
 40
0.0
 40
0.0
 40
0.3671781490225185
 40
0.3671781490225185
 40
0.3671781490225185
 40
0.7440120717362335
 40
0.7440120717362335
 40
0.7440120717362335
 40
1.269983016866385
 40
1.269983016866385
 40
1.269983016866385
 40
1.269983016866385
 40
1.269983016866385
 40
1.269983016866385
 10
26.08350386057603
 20
7.892397643859997
 30
0.0
 10
26.1349252425498
 20
7.887266540104862
 30
0.0
 10
26.18556926671206
 20
7.880046077592947
 30
0.0
 10
26.23446572783971
 20
7.870831788289451
 30
0.0
 10
26.32822929366662
 20
7.848548271197053
 30
0.0
 10
26.40858454307491
 20
7.820015307344112
 30
0.0
 10
26.44515739467124
 20
7.804238524650357
 30
0.0
 10
26.52190187268798
 20
7.764030579721206
 30
0.0
 10
26.57145722264449
 20
7.719650789408026
 30
0.0
 10
26.59056300097092
 20
7.693132450045357
 30
0.0
 10
26.59999999999999
 20
7.666626908235535
 30
0.0
 10
26.59999999999999
 20
7.640661076420436
 30
0.0
  0
SPLINE
  5
290D8
330
1F
100
AcDbEntity
  8
1
100
AcDbSpline
210
0.0
220
0.0
230
1.0
 70
     8
 71
     5
 72
    18
 73
    12
 74
     0
 42
0.000000001
 43
0.0000000001
 40
0.0
 40
0.0
 40
0.0
 40
0.0
 40
0.0
 40
0.0
 40
0.4881078581828663
 40
0.4881078581828663
 40
0.4881078581828663
 40
0.9765483573874451
 40
0.9765483573874451
 40
0.9765483573874451
 40
1.216792387542869
 40
1.216792387542869
 40
1.216792387542869
 40
1.216792387542869
 40
1.216792387542869
 40
1.216792387542869
 10
26.08350386057603
 20
-10.66726789093144
 30
0.0
 10
26.15169869482247
 20
-10.65661693774963
 30
0.0
 10
26.21860171251788
 20
-10.63711433767614
 30
0.0
 10
26.28231662293831
 20
-10.60900931290298
 30
0.0
 10
26.39967673510674
 20
-10.53715018208521
 30
0.0
 10
26.49096108805918
 20
-10.43884895779252
 30
0.0
 10
26.52862718859907
 20
-10.384267055823
 30
0.0
 10
26.57133078577553
 20
-10.29715748118775
 30
0.0
 10
26.5928798844902
 20
-10.20531956276746
 30
0.0
 10
26.59762921720082
 20
-10.1747271172938
 30
0.0
 10
26.59999999999999
 20
-10.14402540067184
 30
0.0
 10
26.59999999999999
 20
-10.11341440985286
 30
0.0
  0
LINE
  5
290D9
330
1F
100
AcDbEntity
  8
1
100
AcDbLine
 10
26.59999999999999
 20
-9.379739999999998
 30
0.0
 11
26.59999999999999
 21
-10.113414
 31
0.0
  0
LINE
  5
290DA
330
1F
100
AcDbEntity
  8
1
100
AcDbLine
 10
26.59999999999999
 20
-0.5686420000000007
 30
0.0
 11
26.59999999999999
 21
-1.079340999999997
 31
0.0
  0
LINE
  5
290DB
330
1F
100
AcDbEntity
  8
1
100
AcDbLine
 10
26.59999999999999
 20
-8.003577999999997
 30
0.0
 11
26.59999999999999
 21
-8.986578000000001
 31
0.0
  0
ARC
  5
290DC
330
1F
100
AcDbEntity
  8
1
100
AcDbCircle
 10
85.806014
 20
17.070395
 30
0.0
 40
61.77769500000001
100
AcDbArc
 50
195.7516939999999
 51
196.5901859999999
  0
SPLINE
  5
290DD
330
1F
100
AcDbEntity
  8
1
100
AcDbSpline
210
0.0
220
0.0
230
1.0
 70
     8
 71
     5
 72
    15
 73
     9
 74
     0
 42
0.000000001
 43
0.0000000001
 40
0.0
 40
0.0
 40
0.0
 40
0.0
 40
0.0
 40
0.0
 40
1.41870251138411
 40
1.41870251138411
 40
1.41870251138411
 40
2.41047289564088
 40
2.41047289564088
 40
2.41047289564088
 40
2.41047289564088
 40
2.41047289564088
 40
2.41047289564088
 10
26.34827452872716
 20
0.2996802935749052
 30
0.0
 10
26.32100616708462
 20
0.3966129332132979
 30
0.0
 10
26.30080335530673
 20
0.5349641102820648
 30
0.0
 10
26.28973313896159
 20
0.6956120366384903
 30
0.0
 10
26.28473609914653
 20
0.9715883008365864
 30
0.0
 10
26.30195764700463
 20
1.244837562682856
 30
0.0
 10
26.3127941594125
 20
1.354564547401241
 30
0.0
 10
26.32727313299043
 20
1.456711267452764
 30
0.0
 10
26.34504685565409
 20
1.545594365304979
 30
0.0
  0
LINE
  5
290DE
330
1F
100
AcDbEntity
  8
1
100
AcDbLine
 10
26.338382
 20
1.609195999999999
 30
0.0
 11
26.34504699999999
 21
1.545594
 31
0.0
  0
ARC
  5
290DF
330
1F
100
AcDbEntity
  8
1
100
AcDbCircle
 10
230.441035
 20
23.973658
 30
0.0
 40
206.333958
100
AcDbArc
 50
188.495683
 51
188.915524
  0
LINE
  5
290E0
330
1F
100
AcDbEntity
  8
1
100
AcDbLine
 10
20.191013
 20
8.375032
 30
0.0
 11
20.34348299999999
 21
10.92515
 31
0.0
  0
ELLIPSE
  5
290E1
330
1F
100
AcDbEntity
  8
1
100
AcDbEllipse
 10
21.34541099999998
 20
16.849924
 30
0.0
 11
0.0
 21
-8.857481956481931
 31
0.0
210
0.0
220
0.0
230
1.0
 40
0.9961949999999999
 41
5.583504502546096
 42
5.847458883762679
  0
ELLIPSE
  5
290E2
330
1F
100
AcDbEntity
  8
1
100
AcDbEllipse
 10
21.43898199999998
 20
-9.025736999999999
 30
0.0
 11
-9.570775985717773
 21
-0.8588680028915415
 31
0.0
210
0.0
220
0.0
230
1.0
 40
0.221674
 41
4.803991332584619
 42
5.375879994406637
  0
LINE
  5
290E3
330
1F
100
AcDbEntity
  8
1
100
AcDbLine
 10
20.54301799999999
 20
-7.066507999999998
 30
0.0
 11
20.88298899999998
 21
-10.001586
 31
0.0
  0
ELLIPSE
  5
290E4
330
1F
100
AcDbEntity
  8
1
100
AcDbEllipse
 10
21.18334899999999
 20
-6.873507
 30
0.0
 11
0.8691089153289794
 21
-0.7887987494468689
 31
0.0
210
0.0
220
0.0
230
1.0
 40
0.4219920000000001
 41
4.863975451482436
 42
7.301320522195718
  0
ARC
  5
290E5
330
1F
100
AcDbEntity
  8
1
100
AcDbCircle
 10
22.70308899999998
 20
-5.199189000000001
 30
0.0
 40
2.75648399999999
100
AcDbArc
 50
222.445321
 51
231.4576700000001
  0
LINE
  5
290E6
330
1F
100
AcDbEntity
  8
1
100
AcDbLine
 10
20.15960999999999
 20
1.308378000000001
 30
0.0
 11
20.48661099999998
 21
1.324110999999998
 31
0.0
  0
LINE
  5
290E7
330
1F
100
AcDbEntity
  8
1
100
AcDbLine
 10
20.48661099999998
 20
1.324110999999998
 30
0.0
 11
21.65947199999999
 21
1.372188999999999
 31
0.0
  0
LINE
  5
290E8
330
1F
100
AcDbEntity
  8
1
100
AcDbLine
 10
25.62725999999998
 20
1.520855999999996
 30
0.0
 11
26.34504699999999
 21
1.545594
 31
0.0
  0
LINE
  5
290E9
330
1F
100
AcDbEntity
  8
1
100
AcDbLine
 10
20.17283499999999
 20
1.556927999999999
 30
0.0
 11
20.34348299999999
 21
3.348134000000001
 31
0.0
  0
ARC
  5
290EA
330
1F
100
AcDbEntity
  8
1
100
AcDbCircle
 10
23.759602
 20
1.244537000000001
 30
0.0
 40
3.600452000000001
100
AcDbArc
 50
175.022366
 51
178.984035
  0
ELLIPSE
  5
290EB
330
1F
100
AcDbEntity
  8
1
100
AcDbEllipse
 10
20.57943299999999
 20
0.9327299999999992
 30
0.0
 11
0.0070855473168194
 21
-0.7999686002731324
 31
0.0
210
0.0
220
0.0
230
0.9999999999999996
 40
0.128144
 41
5.61496111016673
 42
5.738227863957235
  0
ELLIPSE
  5
290EC
330
1F
100
AcDbEntity
  8
1
100
AcDbEllipse
 10
21.43898199999998
 20
6.274511
 30
0.0
 11
-9.549631118774414
 21
-1.06862473487854
 31
0.0
210
0.0
220
0.0
230
1.0
 40
0.6211170000000005
 41
0.8180224197548081
 42
1.412551787869788
  0
ELLIPSE
  5
290ED
330
1F
100
AcDbEntity
  8
1
100
AcDbEllipse
 10
21.34541099999998
 20
7.110702999999999
 30
0.0
 11
-8.802539825439453
 21
-0.9850235581398008
 31
0.0
210
0.0
220
0.0
230
1.0
 40
0.6211170000000004
 41
0.8017227353156858
 42
1.368121145993419
  0
ELLIPSE
  5
290EE
330
1F
100
AcDbEntity
  8
1
100
AcDbEllipse
 10
20.57943299999999
 20
0.9327299999999992
 30
0.0
 11
0.0070855473168194
 21
-0.7999686002731324
 31
0.0
210
0.0
220
0.0
230
0.9999999999999996
 40
0.128144
 41
4.200030992092051
 42
5.131161450644214
  0
SPLINE
  5
290EF
330
1F
100
AcDbEntity
  8
1
100
AcDbSpline
210
0.0
220
0.0
230
1.0
 70
     8
 71
     5
 72
    18
 73
    12
 74
     0
 42
0.000000001
 43
0.0000000001
 40
0.0
 40
0.0
 40
0.0
 40
0.0
 40
0.0
 40
0.0
 40
0.2727128429581983
 40
0.2727128429581983
 40
0.2727128429581983
 40
0.6048294796400608
 40
0.6048294796400608
 40
0.6048294796400608
 40
0.6677305798601853
 40
0.6677305798601853
 40
0.6677305798601853
 40
0.6677305798601853
 40
0.6677305798601853
 40
0.6677305798601853
 10
20.48866099997554
 20
0.6066021608258474
 30
0.0
 10
20.46984805645874
 20
0.5831819139560608
 30
0.0
 10
20.45472488710087
 20
0.5575719486101712
 30
0.0
 10
20.44413313441527
 20
0.5291122898754992
 30
0.0
 10
20.4340640182098
 20
0.4673288714234296
 30
0.0
 10
20.4483243360342
 20
0.4082256802748212
 30
0.0
 10
20.46240989006529
 20
0.3782183849146712
 30
0.0
 10
20.48360898267055
 20
0.3460047088850189
 30
0.0
 10
20.50885817428622
 20
0.3173976543295574
 30
0.0
 10
20.51297855732116
 20
0.312927515599565
 30
0.0
 10
20.51718666428897
 20
0.3085476044903004
 30
0.0
 10
20.52147917453161
 20
0.3042538693919283
 30
0.0
  0
ARC
  5
290F0
330
1F
100
AcDbEntity
  8
1
100
AcDbCircle
 10
20.84354099999999
 20
0.6302170000000018
 30
0.0
 40
0.4582589999999951
100
AcDbArc
 50
225.3448930000004
 51
236.3605180000003
  0
LINE
  5
290F1
330
1F
100
AcDbEntity
  8
1
100
AcDbLine
 10
20.58966599999999
 20
0.2486749999999986
 30
0.0
 11
20.532352
 21
0.2481669999999987
 31
0.0
  0
SPLINE
  5
290F2
330
1F
100
AcDbEntity
  8
1
100
AcDbSpline
210
0.0
220
0.0
230
1.0
 70
     8
 71
     5
 72
    15
 73
     9
 74
     0
 42
0.000000001
 43
0.0000000001
 40
0.0
 40
0.0
 40
0.0
 40
0.0
 40
0.0
 40
0.0
 40
0.226973260583237
 40
0.226973260583237
 40
0.226973260583237
 40
0.7636767760985804
 40
0.7636767760985804
 40
0.7636767760985804
 40
0.7636767760985804
 40
0.7636767760985804
 40
0.7636767760985804
 10
20.48866099996013
 20
0.6066021608067409
 30
0.0
 10
20.50415060220683
 20
0.6258851777507353
 30
0.0
 10
20.52206927287389
 20
0.6436359433115264
 30
0.0
 10
20.5421086933606
 20
0.6599062653162413
 30
0.0
 10
20.61302263646675
 20
0.7083419996597158
 30
0.0
 10
20.69571530265367
 20
0.7393568287954686
 30
0.0
 10
20.75591017247973
 20
0.7537638655758557
 30
0.0
 10
20.81722511402072
 20
0.7615240863484161
 30
0.0
 10
20.87881617405671
 20
0.7630293128934193
 30
0.0
  0
LINE
  5
290F3
330
1F
100
AcDbEntity
  8
1
100
AcDbLine
 10
20.878816
 20
0.7630289999999996
 30
0.0
 11
20.956209
 21
0.7610349999999997
 31
0.0
  0
SPLINE
  5
290F4
330
1F
100
AcDbEntity
  8
1
100
AcDbSpline
210
0.0
220
0.0
230
1.0
 70
     8
 71
     5
 72
    15
 73
     9
 74
     0
 42
0.000000001
 43
0.0000000001
 40
0.0
 40
0.0
 40
0.0
 40
0.0
 40
0.0
 40
0.0
 40
1.091133274591173
 40
1.091133274591173
 40
1.091133274591173
 40
1.852859068605806
 40
1.852859068605806
 40
1.852859068605806
 40
1.852859068605806
 40
1.852859068605806
 40
1.852859068605806
 10
21.82370968911516
 20
0.2596049488156638
 30
0.0
 10
21.74032148662249
 20
0.3192358162938866
 30
0.0
 10
21.6582143475886
 20
0.394967369382158
 30
0.0
 10
21.57220808216161
 20
0.4776942248324509
 30
0.0
 10
21.40693040801494
 20
0.6111260128188079
 30
0.0
 10
21.21377694201874
 20
0.7063147170671194
 30
0.0
 10
21.13023325888713
 20
0.7358635391906887
 30
0.0
 10
21.04356676324039
 20
0.7544602985330151
 30
0.0
 10
20.95620862268913
 20
0.761035378347092
 30
0.0
  0
LINE
  5
290F5
330
1F
100
AcDbEntity
  8
1
100
AcDbLine
 10
26.348275
 20
0.2996799999999986
 30
0.0
 11
21.82370999999998
 21
0.2596050000000005
 31
0.0
  0
LINE
  5
290F6
330
1F
100
AcDbEntity
  8
1
100
AcDbLine
 10
20.532352
 20
0.2481669999999987
 30
0.0
 11
20.88298899999998
 21
-1.340848000000001
 31
0.0
  0
LINE
  5
290F7
330
1F
100
AcDbEntity
  8
1
100
AcDbLine
 10
21.81089499999999
 20
-0.2105899999999998
 30
0.0
 11
21.89150799999999
 21
-0.2124939999999995
 31
0.0
  0
ELLIPSE
  5
290F8
330
1F
100
AcDbEntity
  8
1
100
AcDbEllipse
 10
21.18334899999999
 20
0.2703270000000018
 30
0.0
 11
0.9230849742889404
 21
-0.3962574005126953
 31
0.0
210
0.0
220
0.0
230
1.0
 40
0.299288
 41
5.704906203512021
 42
7.222943237769325
  0
ELLIPSE
  5
290F9
330
1F
100
AcDbEntity
  8
1
100
AcDbEllipse
 10
21.18334899999999
 20
0.2703270000000018
 30
0.0
 11
0.9230849742889404
 21
-0.3962574005126953
 31
0.0
210
0.0
220
0.0
230
1.0
 40
0.299288
 41
4.148387322351303
 42
5.580172888213891
  0
LINE
  5
290FA
330
1F
100
AcDbEntity
  8
SK1
100
AcDbLine
 10
-10.26448200000002
 20
6.0
 30
0.0
 11
-22.0
 21
6.0
 31
0.0
  0
LINE
  5
290FB
330
1F
100
AcDbEntity
  8
SK1
100
AcDbLine
 10
-10.26448200000002
 20
-6.0
 30
0.0
 11
-22.0
 21
-6.0
 31
0.0
  0
ARC
  5
290FC
330
1F
100
AcDbEntity
  8
SK1
100
AcDbCircle
 10
-7.792641000000002
 20
-7.699999999999997
 30
0.0
 40
3.000000000000011
100
AcDbArc
 50
28.90333399999985
 51
145.4818919999998
  0
ARC
  5
290FD
330
1F
100
AcDbEntity
  8
SK1
100
AcDbCircle
 10
-7.792641000000002
 20
7.699999999999997
 30
0.0
 40
2.999999999999993
100
AcDbArc
 50
214.518108
 51
331.0966660000001
  0
LINE
  5
290FE
330
1F
100
AcDbEntity
  8
SK1
100
AcDbLine
 10
0.0
 20
6.25
 30
0.0
 11
-5.166331000000012
 21
6.25
 31
0.0
  0
LINE
  5
290FF
330
1F
100
AcDbEntity
  8
SK1
100
AcDbLine
 10
0.0
 20
-6.25
 30
0.0
 11
-5.166331000000012
 21
-6.25
 31
0.0
  0
LINE
  5
29100
330
1F
100
AcDbEntity
  8
1
100
AcDbLine
 10
11.95846
 20
10.5
 30
0.0
 11
0.0
 21
10.5
 31
0.0
  0
ARC
  5
29101
330
1F
100
AcDbEntity
  8
1
100
AcDbCircle
 10
11.95846
 20
-15.5
 30
0.0
 40
4.999999999999999
100
AcDbArc
 50
78.00000000000007
 51
90.00000000000005
  0
LINE
  5
29102
330
1F
100
AcDbEntity
  8
1
100
AcDbLine
 10
11.95846
 20
-10.5
 30
0.0
 11
0.0
 21
-10.5
 31
0.0
  0
LINE
  5
29103
330
1F
100
AcDbEntity
  8
1
100
AcDbLine
 10
12.998018
 20
-10.609262
 30
0.0
 11
15.61987099999999
 21
-11.166554
 31
0.0
  0
ARC
  5
29104
330
1F
100
AcDbEntity
  8
1
100
AcDbCircle
 10
11.95846
 20
15.5
 30
0.0
 40
5.0
100
AcDbArc
 50
270.0
 51
282.0
  0
LINE
  5
29105
330
1F
100
AcDbEntity
  8
1
100
AcDbLine
 10
12.998018
 20
10.609262
 30
0.0
 11
18.08596299999999
 21
11.690738
 31
0.0
  0
ARC
  5
29106
330
1F
100
AcDbEntity
  8
1
100
AcDbCircle
 10
19.12552099999999
 20
6.800000000000001
 30
0.0
 40
4.999999999999999
100
AcDbArc
 50
82.82270600000009
 51
102.0000000000001
  0
ARC
  5
29107
330
1F
100
AcDbEntity
  8
1
100
AcDbCircle
 10
21.001464
 20
-8.200001999999997
 30
0.0
 40
20.000002
100
AcDbArc
 50
92.01289199999999
 51
93.586887
  0
LINE
  5
29108
330
1F
100
AcDbEntity
  8
1
100
AcDbLine
 10
26.57432599999999
 20
7.708715999999999
 30
0.0
 11
26.594278
 21
7.760452
 31
0.0
  0
LINE
  5
29109
330
1F
100
AcDbEntity
  8
1
100
AcDbLine
 10
26.52955799999998
 20
7.752424999999997
 30
0.0
 11
26.594278
 21
7.760452
 31
0.0
  0
ELLIPSE
  5
2910A
330
1F
100
AcDbEntity
  8
1
100
AcDbEllipse
 10
23.334228
 20
9.653888
 30
0.0
 11
0.0
 21
-1.059999942779539
 31
0.0
210
0.0
220
0.0
230
1.0
 40
0.9961949999999999
 41
0.1158030460539053
 42
3.025779230107548
  0
LINE
  5
2910B
330
1F
100
AcDbEntity
  8
1
100
AcDbLine
 10
26.611627
 20
7.515208000000001
 30
0.0
 11
26.59991399999998
 21
7.489924999999997
 31
0.0
  0
ARC
  5
2910C
330
1F
100
AcDbEntity
  8
1
100
AcDbCircle
 10
26.555824
 20
7.966760999999999
 30
0.0
 40
0.2145420000000096
100
AcDbArc
 50
338.9390200000009
 51
356.5885070000009
  0
ARC
  5
2910D
330
1F
100
AcDbEntity
  8
1
100
AcDbCircle
 10
26.56683999999998
 20
7.960091
 30
0.0
 40
0.2016920000000011
100
AcDbArc
 50
277.8255650000011
 51
339.5820710000011
  0
LINE
  5
2910E
330
1F
100
AcDbEntity
  8
1
100
AcDbLine
 10
26.94961699999999
 20
10.958375
 30
0.0
 11
26.76998699999999
 21
7.953994
 31
0.0
  0
ARC
  5
2910F
330
1F
100
AcDbEntity
  8
1
100
AcDbCircle
 10
26.74704199999999
 20
10.976572
 30
0.0
 40
0.201817999999994
100
AcDbArc
 50
14.23482200000053
 51
75.29542600000053
  0
ARC
  5
29110
330
1F
100
AcDbEntity
  8
1
100
AcDbCircle
 10
26.735445
 20
10.971222
 30
0.0
 40
0.2145560000000098
100
AcDbArc
 50
356.5672440000003
 51
14.85794800000033
  0
ARC
  5
29111
330
1F
100
AcDbEntity
  8
1
100
AcDbCircle
 10
22.68193499999998
 20
-5.210098000000002
 30
0.0
 40
16.89085800000001
100
AcDbArc
 50
75.89509499999995
 51
97.20918499999996
  0
ARC
  5
29112
330
1F
100
AcDbEntity
  8
1
100
AcDbCircle
 10
20.59170999999998
 20
11.344884
 30
0.0
 40
0.2049789999999981
100
AcDbArc
 50
98.27958799999738
 51
177.5169419999974
  0
LINE
  5
29113
330
1F
100
AcDbEntity
  8
1
100
AcDbLine
 10
20.20835399999999
 20
8.373525
 30
0.0
 11
20.38654199999999
 21
11.353781
 31
0.0
  0
ELLIPSE
  5
29114
330
1F
100
AcDbEntity
  8
1
100
AcDbEllipse
 10
23.57826399999999
 20
9.653888
 30
0.0
 11
0.0
 21
-1.059999942779539
 31
0.0
210
0.0
220
0.0
230
1.0
 40
0.9961949999999999
 41
3.141696978784434
 42
6.283289632374226
  0
ELLIPSE
  5
29115
330
1F
100
AcDbEntity
  8
1
100
AcDbEllipse
 10
23.57826399999999
 20
9.653888
 30
0.0
 11
0.0
 21
-1.059999942779539
 31
0.0
210
0.0
220
0.0
230
1.0
 40
0.9961949999999999
 41
0.0001043251946438
 42
1.51085047528775
  0
ELLIPSE
  5
29116
330
1F
100
AcDbEntity
  8
1
100
AcDbEllipse
 10
23.57826399999999
 20
9.653888
 30
0.0
 11
0.0
 21
-1.059999942779539
 31
0.0
210
0.0
220
0.0
230
1.0
 40
0.9961949999999999
 41
1.51085047528775
 42
3.141696978784434
  0
LINE
  5
29117
330
1F
100
AcDbEntity
  8
1
100
AcDbLine
 10
20.38654199999999
 20
11.353781
 30
0.0
 11
20.286912
 21
11.728236
 31
0.0
  0
LINE
  5
29118
330
1F
100
AcDbEntity
  8
1
100
AcDbLine
 10
20.20806999999999
 20
11.523794
 30
0.0
 11
20.286912
 21
11.728236
 31
0.0
  0
ARC
  5
29119
330
1F
100
AcDbEntity
  8
1
100
AcDbCircle
 10
20.50095299999998
 20
11.715495
 30
0.0
 40
0.2144189999999976
100
AcDbArc
 50
158.9336139999997
 51
176.5934229999997
  0
ARC
  5
2911A
330
1F
100
AcDbEntity
  8
1
100
AcDbCircle
 10
20.49005799999998
 20
11.722141
 30
0.0
 40
0.2016909999999998
100
AcDbArc
 50
97.82524899999993
 51
159.5822109999999
  0
LINE
  5
2911B
330
1F
100
AcDbEntity
  8
1
100
AcDbLine
 10
26.6986
 20
11.546079
 30
0.0
 11
26.611999
 21
11.567548
 31
0.0
  0
LINE
  5
2911C
330
1F
100
AcDbEntity
  8
1
100
AcDbLine
 10
20.46262099999998
 20
11.921778
 30
0.0
 11
20.55112199999999
 21
11.932691
 31
0.0
  0
ARC
  5
2911D
330
1F
100
AcDbEntity
  8
1
100
AcDbCircle
 10
26.647413
 20
11.351027
 30
0.0
 40
0.2018190000000004
100
AcDbArc
 50
14.23450700000013
 51
75.29556600000012
  0
LINE
  5
2911E
330
1F
100
AcDbEntity
  8
1
100
AcDbLine
 10
26.79822999999999
 20
11.171624
 30
0.0
 11
26.6986
 21
11.546079
 31
0.0
  0
ARC
  5
2911F
330
1F
100
AcDbEntity
  8
1
100
AcDbCircle
 10
-27.887631
 20
-843.0376859999999
 30
0.0
 40
856.3413390000002
100
AcDbArc
 50
86.351092
 51
86.75734700000004
  0
LINE
  5
29120
330
1F
100
AcDbEntity
  8
1
100
AcDbLine
 10
20.56225099999997
 20
11.547323
 30
0.0
 11
20.46262099999998
 21
11.921778
 31
0.0
  0
LINE
  5
29121
330
1F
100
AcDbEntity
  8
1
100
AcDbLine
 10
26.611626
 20
7.515208000000001
 30
0.0
 11
26.75603300000001
 21
7.889662999999997
 31
0.0
  0
LINE
  5
29122
330
1F
100
AcDbEntity
  8
1
100
AcDbLine
 10
20.20276999999999
 20
11.538198
 30
0.0
 11
20.30086599999998
 21
11.792568
 31
0.0
  0
LINE
  5
29123
330
1F
100
AcDbEntity
  8
1
100
AcDbLine
 10
26.942826
 20
11.026239
 30
0.0
 11
26.84319599999998
 21
11.400693
 31
0.0
  0
ARC
  5
29124
330
1F
100
AcDbEntity
  8
1
100
AcDbCircle
 10
26.74463799999998
 20
10.973943
 30
0.0
 40
0.2052049999999884
100
AcDbArc
 50
355.6569999999999
 51
74.83170799999986
  0
LINE
  5
29125
330
1F
100
AcDbEntity
  8
1
100
AcDbLine
 10
26.94961699999999
 20
10.958375
 30
0.0
 11
26.76998699999999
 21
7.953994
 31
0.0
  0
ARC
  5
29126
330
1F
100
AcDbEntity
  8
1
100
AcDbCircle
 10
26.564819
 20
7.962890999999999
 30
0.0
 40
0.2049789999999981
100
AcDbArc
 50
278.2795879999973
 51
357.5169419999974
  0
LINE
  5
29127
330
1F
100
AcDbEntity
  8
1
100
AcDbLine
 10
26.52955799999998
 20
7.752424999999997
 30
0.0
 11
26.594278
 21
7.760452
 31
0.0
  0
LINE
  5
29128
330
1F
100
AcDbEntity
  8
1
100
AcDbLine
 10
20.20835399999999
 20
8.373525
 30
0.0
 11
20.38654199999999
 21
11.353781
 31
0.0
  0
ARC
  5
29129
330
1F
100
AcDbEntity
  8
1
100
AcDbCircle
 10
20.59170999999998
 20
11.344884
 30
0.0
 40
0.2049789999999981
100
AcDbArc
 50
98.27958799999738
 51
177.5169419999974
  0
ARC
  5
2912A
330
1F
100
AcDbEntity
  8
1
100
AcDbCircle
 10
22.68193499999998
 20
-5.210098000000002
 30
0.0
 40
16.89085800000001
100
AcDbArc
 50
75.89509499999995
 51
97.20918499999996
  0
ARC
  5
2912B
330
1F
100
AcDbEntity
  8
1
100
AcDbCircle
 10
26.53391599999998
 20
6.828433
 30
0.0
 40
0.0923360000000042
100
AcDbArc
 50
315.623047000003
 51
353.4231570000029
  0
LINE
  5
2912C
330
1F
100
AcDbEntity
  8
1
100
AcDbLine
 10
26.94961699999999
 20
10.001115
 30
0.0
 11
26.79925499999999
 21
8.44341
 31
0.0
  0
ARC
  5
2912D
330
1F
100
AcDbEntity
  8
1
100
AcDbCircle
 10
26.836018
 20
10.002701
 30
0.0
 40
0.1141670000000006
100
AcDbArc
 50
359.2004320000003
 51
56.71706300000035
  0
LINE
  5
2912E
330
1F
100
AcDbEntity
  8
1
100
AcDbLine
 10
26.62541199999998
 20
6.816276999999997
 30
0.0
 11
26.59999999999999
 21
6.597316999999998
 31
0.0
  0
LINE
  5
2912F
330
1F
100
AcDbEntity
  8
1
100
AcDbLine
 10
26.62541199999998
 20
6.816276999999997
 30
0.0
 11
26.737337
 21
7.841161
 31
0.0
  0
ARC
  5
29130
330
1F
100
AcDbEntity
  8
1
100
AcDbCircle
 10
26.836018
 20
10.002701
 30
0.0
 40
0.1141670000000006
100
AcDbArc
 50
359.2004320000003
 51
56.71706300000035
  0
LINE
  5
29131
330
1F
100
AcDbEntity
  8
1
100
AcDbLine
 10
26.94961699999999
 20
10.001115
 30
0.0
 11
26.79925499999999
 21
8.44341
 31
0.0
  0
LINE
  5
29132
330
1F
100
AcDbEntity
  8
1
100
AcDbLine
 10
26.36134699999999
 20
0.9902489999999986
 30
0.0
 11
26.290087
 21
0.951079
 31
0.0
  0
LINE
  5
29133
330
1F
100
AcDbEntity
  8
1
100
AcDbLine
 10
26.36134699999999
 20
0.9902489999999986
 30
0.0
 11
26.29230299999998
 21
1.043454
 31
0.0
  0
LINE
  5
29134
330
1F
100
AcDbEntity
  8
1
100
AcDbLine
 10
26.449871
 20
0.9802539999999986
 30
0.0
 11
26.36136999999999
 21
0.9902310000000014
 31
0.0
  0
LINE
  5
29135
330
1F
100
AcDbEntity
  8
1
100
AcDbLine
 10
26.449871
 20
0.9802530000000011
 30
0.0
 11
26.392236
 21
0.1443680000000001
 31
0.0
  0
LINE
  5
29136
330
1F
100
AcDbEntity
  8
1
100
AcDbLine
 10
26.449871
 20
0.9802539999999986
 30
0.0
 11
26.52409599999999
 21
1.635325999999999
 31
0.0
  0
LINE
  5
29137
330
1F
100
AcDbEntity
  8
1
100
AcDbLine
 10
26.705896
 20
-1.210678000000001
 30
0.0
 11
26.705581
 21
-1.206599000000001
 31
0.0
  0
ELLIPSE
  5
29138
330
1F
100
AcDbEntity
  8
1
100
AcDbEllipse
 10
26.5067
 20
-1.192302000000001
 30
0.0
 11
0.199221134185791
 21
-0.018145939335227
 31
0.0
210
0.0
220
0.0
230
1.0
 40
0.2293890000000003
 41
5.22704581681807
 42
6.278141402358677
  0
LINE
  5
29139
330
1F
100
AcDbEntity
  8
1
100
AcDbLine
 10
26.705581
 20
-1.206599000000001
 30
0.0
 11
26.60001399999999
 21
-0.8047019999999989
 31
0.0
  0
SPLINE
  5
2913A
330
1F
100
AcDbEntity
  8
1
100
AcDbSpline
210
0.0
220
0.0
230
1.0
 70
     8
 71
     5
 72
    18
 73
    12
 74
     0
 42
0.000000001
 43
0.0000000001
 40
0.0
 40
0.0
 40
0.0
 40
0.0
 40
0.0
 40
0.0
 40
0.0101137509178716
 40
0.0101137509178716
 40
0.0101137509178716
 40
0.2526669433872238
 40
0.2526669433872238
 40
0.2526669433872238
 40
0.4460076422904747
 40
0.4460076422904747
 40
0.4460076422904747
 40
0.4460076422904747
 40
0.4460076422904747
 40
0.4460076422904747
 10
26.62558040806277
 20
0.9221992272437551
 30
0.0
 10
26.62549495921041
 20
0.9223824891761827
 30
0.0
 10
26.62540951035806
 20
0.9225657511086071
 30
0.0
 10
26.62529323767978
 20
0.9231631806146404
 30
0.0
 10
26.6223281358771
 20
0.931224036067242
 30
0.0
 10
26.61222958604671
 20
0.9396641292258678
 30
0.0
 10
26.59578663197993
 20
0.9478051945027059
 30
0.0
 10
26.55994861728593
 20
0.9606132412855499
 30
0.0
 10
26.51497506448621
 20
0.9706904603699546
 30
0.0
 10
26.49378780904303
 20
0.9745535381623682
 30
0.0
 10
26.47197699408289
 20
0.9777484734265762
 30
0.0
 10
26.44987145261334
 20
0.9802535259579061
 30
0.0
  0
LINE
  5
2913B
330
1F
100
AcDbEntity
  8
1
100
AcDbLine
 10
26.62557999999999
 20
0.9221989999999992
 30
0.0
 11
26.53738799999999
 21
-0.3568660000000001
 31
0.0
  0
LINE
  5
2913C
330
1F
100
AcDbEntity
  8
1
100
AcDbLine
 10
26.62557999999999
 20
0.9221989999999992
 30
0.0
 11
26.712739
 21
1.691424999999999
 31
0.0
  0
LINE
  5
2913D
330
1F
100
AcDbEntity
  8
1
100
AcDbLine
 10
26.94961699999999
 20
1.512810999999999
 30
0.0
 11
26.79924899999997
 21
2.085267999999999
 31
0.0
  0
LINE
  5
2913E
330
1F
100
AcDbEntity
  8
1
100
AcDbLine
 10
26.949974
 20
1.509194
 30
0.0
 11
26.94961699999999
 21
1.512810999999999
 31
0.0
  0
LINE
  5
2913F
330
1F
100
AcDbEntity
  8
1
100
AcDbLine
 10
26.850346
 20
0.0642549999999993
 30
0.0
 11
26.849987
 21
0.0678720000000013
 31
0.0
  0
LINE
  5
29140
330
1F
100
AcDbEntity
  8
1
100
AcDbLine
 10
26.705581
 20
-1.206599000000001
 30
0.0
 11
26.849987
 21
0.0678720000000013
 31
0.0
  0
LINE
  5
29141
330
1F
100
AcDbEntity
  8
1
100
AcDbLine
 10
26.94961699999999
 20
1.512810999999999
 30
0.0
 11
26.849987
 21
0.0678720000000013
 31
0.0
  0
LINE
  5
29142
330
1F
100
AcDbEntity
  8
1
100
AcDbLine
 10
26.70589699999999
 20
-1.210678000000001
 30
0.0
 11
26.85030399999999
 21
0.0637940000000015
 31
0.0
  0
LINE
  5
29143
330
1F
100
AcDbEntity
  8
1
100
AcDbLine
 10
26.94997599999999
 20
1.509194
 30
0.0
 11
26.850346
 21
0.0642549999999993
 31
0.0
  0
LINE
  5
29144
330
1F
100
AcDbEntity
  8
1
100
AcDbLine
 10
26.94961699999999
 20
1.512810999999999
 30
0.0
 11
26.79924899999997
 21
2.085267999999999
 31
0.0
  0
ARC
  5
29145
330
1F
100
AcDbEntity
  8
1
100
AcDbCircle
 10
26.33753899999999
 20
-6.625572999999997
 30
0.0
 40
0.1890300000000079
100
AcDbArc
 50
4.347644999999833
 51
43.64383699999982
  0
LINE
  5
29146
330
1F
100
AcDbEntity
  8
1
100
AcDbLine
 10
26.61373799999998
 20
-7.937452999999997
 30
0.0
 11
26.52595099999999
 21
-6.611249
 31
0.0
  0
LINE
  5
29147
330
1F
100
AcDbEntity
  8
1
100
AcDbLine
 10
26.53915899999998
 20
-6.486184999999997
 30
0.0
 11
26.52595099999999
 21
-6.611249
 31
0.0
  0
LINE
  5
29148
330
1F
100
AcDbEntity
  8
1
100
AcDbLine
 10
26.94961699999999
 20
-8.11467
 30
0.0
 11
26.838978
 21
-6.443241
 31
0.0
  0
LINE
  5
29149
330
1F
100
AcDbEntity
  8
1
100
AcDbLine
 10
26.94904000000001
 20
-8.144486
 30
0.0
 11
26.94961699999999
 21
-8.11467
 31
0.0
  0
ARC
  5
2914A
330
1F
100
AcDbEntity
  8
1
100
AcDbCircle
 10
26.678845
 20
-9.069861999999996
 30
0.0
 40
0.1715110000000061
100
AcDbArc
 50
331.5700470000016
 51
353.9946020000016
  0
LINE
  5
2914B
330
1F
100
AcDbEntity
  8
1
100
AcDbLine
 10
26.84941499999999
 20
-9.087806
 30
0.0
 11
26.849987
 21
-9.058017999999997
 31
0.0
  0
LINE
  5
2914C
330
1F
100
AcDbEntity
  8
1
100
AcDbLine
 10
26.78623999999999
 20
-9.175840999999998
 30
0.0
 11
26.849987
 21
-9.058017999999997
 31
0.0
  0
LINE
  5
2914D
330
1F
100
AcDbEntity
  8
1
100
AcDbLine
 10
26.94961699999999
 20
-8.11467
 30
0.0
 11
26.849987
 21
-9.058017999999997
 31
0.0
  0
LINE
  5
2914E
330
1F
100
AcDbEntity
  8
1
100
AcDbLine
 10
26.78955499999998
 20
-9.225664
 30
0.0
 11
26.82967199999999
 21
-9.151516
 31
0.0
  0
LINE
  5
2914F
330
1F
100
AcDbEntity
  8
1
100
AcDbLine
 10
26.94904199999999
 20
-8.144486
 30
0.0
 11
26.84941499999999
 21
-9.087806999999996
 31
0.0
  0
LINE
  5
29150
330
1F
100
AcDbEntity
  8
1
100
AcDbLine
 10
26.94904299999999
 20
-8.144460999999997
 30
0.0
 11
26.94961699999999
 21
-8.11467
 31
0.0
  0
LINE
  5
29151
330
1F
100
AcDbEntity
  8
1
100
AcDbLine
 10
26.94961699999999
 20
-8.11467
 30
0.0
 11
26.838978
 21
-6.443241
 31
0.0
  0
ARC
  5
29152
330
1F
100
AcDbEntity
  8
1
100
AcDbCircle
 10
21.71949999999998
 20
7.655360999999999
 30
0.0
 40
18.903166
100
AcDbArc
 50
269.918963
 51
284.818547
  0
ARC
  5
29153
330
1F
100
AcDbEntity
  8
1
100
AcDbCircle
 10
26.50982599999998
 20
-10.427038
 30
0.0
 40
0.1965780000000056
100
AcDbArc
 50
282.9967790000032
 51
1.653051000003183
  0
LINE
  5
29154
330
1F
100
AcDbEntity
  8
1
100
AcDbLine
 10
26.705581
 20
-10.421388
 30
0.0
 11
26.60000199999999
 21
-8.834424999999997
 31
0.0
  0
LINE
  5
29155
330
1F
100
AcDbEntity
  8
1
100
AcDbLine
 10
26.62557999999999
 20
-7.989955999999997
 30
0.0
 11
26.62396299999997
 21
-7.975208999999998
 31
0.0
  0
LINE
  5
29156
330
1F
100
AcDbEntity
  8
1
100
AcDbLine
 10
26.62396299999997
 20
-7.975208999999998
 30
0.0
 11
26.61519199999998
 21
-7.941379999999997
 31
0.0
  0
LINE
  5
29157
330
1F
100
AcDbEntity
  8
1
100
AcDbLine
 10
26.62557999999999
 20
-7.989955999999997
 30
0.0
 11
26.57763699999998
 21
-7.860700999999997
 31
0.0
  0
LINE
  5
29158
330
1F
100
AcDbEntity
  8
1
100
AcDbLine
 10
26.76836799999998
 20
-8.916857999999997
 30
0.0
 11
26.76998699999999
 21
-8.931604
 31
0.0
  0
LINE
  5
29159
330
1F
100
AcDbEntity
  8
1
100
AcDbLine
 10
26.62557999999999
 20
-7.989955999999997
 30
0.0
 11
26.76998699999999
 21
-8.931604
 31
0.0
  0
LINE
  5
2915A
330
1F
100
AcDbEntity
  8
1
100
AcDbLine
 10
26.94961699999999
 20
-11.63164
 30
0.0
 11
26.76998699999999
 21
-8.931604
 31
0.0
  0
ARC
  5
2915B
330
1F
100
AcDbEntity
  8
1
100
AcDbCircle
 10
26.75384000000001
 20
-11.637334
 30
0.0
 40
0.1965689999999999
100
AcDbArc
 50
283.0057559999993
 51
1.665868999999311
  0
ARC
  5
2915C
330
1F
100
AcDbEntity
  8
1
100
AcDbCircle
 10
21.97076099999998
 20
6.394701999999997
 30
0.0
 40
18.852402
100
AcDbArc
 50
265.715232
 51
284.836501
  0
ARC
  5
2915D
330
1F
100
AcDbEntity
  8
1
100
AcDbCircle
 10
20.57174099999997
 20
-12.216064
 30
0.0
 40
0.1885020000000092
100
AcDbArc
 50
201.6908849999988
 51
267.1204679999989
  0
LINE
  5
2915E
330
1F
100
AcDbEntity
  8
1
100
AcDbLine
 10
20.28852999999998
 20
-11.983165
 30
0.0
 11
20.29727299999999
 21
-12.016921
 31
0.0
  0
ARC
  5
2915F
330
1F
100
AcDbEntity
  8
1
100
AcDbCircle
 10
20.47210699999999
 20
-11.947467
 30
0.0
 40
0.1884959999999968
100
AcDbArc
 50
201.6657780000011
 51
267.1214480000011
  0
LINE
  5
29160
330
1F
100
AcDbEntity
  8
1
100
AcDbLine
 10
20.33194399999999
 20
-11.284004
 30
0.0
 11
20.46262099999998
 21
-12.136124
 31
0.0
  0
LINE
  5
29161
330
1F
100
AcDbEntity
  8
1
100
AcDbLine
 10
26.554194
 20
-10.619265
 30
0.0
 11
26.6986
 21
-11.560914
 31
0.0
  0
LINE
  5
29162
330
1F
100
AcDbEntity
  8
1
100
AcDbLine
 10
26.6986
 20
-11.560914
 30
0.0
 11
26.611999
 21
-11.583544
 31
0.0
  0
SPLINE
  5
29163
330
1F
100
AcDbEntity
  8
1
100
AcDbSpline
210
0.0
220
0.0
230
1.0
 70
     8
 71
     5
 72
    18
 73
    12
 74
     0
 42
0.000000001
 43
0.0000000001
 40
0.502151655081422
 40
0.502151655081422
 40
0.502151655081422
 40
0.502151655081422
 40
0.502151655081422
 40
0.502151655081422
 40
4.066606102456836
 40
4.066606102456836
 40
4.066606102456836
 40
7.524212728860522
 40
7.524212728860522
 40
7.524212728860522
 40
11.51775886342234
 40
11.51775886342234
 40
11.51775886342234
 40
11.51775886342234
 40
11.51775886342234
 40
11.51775886342234
 10
20.5511485372391
 20
-12.14260194797858
 30
0.0
 10
20.89014049956728
 20
-12.00328748534419
 30
0.0
 10
21.24579354880552
 20
-11.87472266192351
 30
0.0
 10
21.62036184777534
 20
-11.75846711994502
 30
0.0
 10
22.37364734684189
 20
-11.56540121415219
 30
0.0
 10
23.16783997394674
 20
-11.44263816577958
 30
0.0
 10
23.57532326854276
 20
-11.40024040906572
 30
0.0
 10
24.43826242762648
 20
-11.3534081322716
 30
0.0
 10
25.29421231635045
 20
-11.39287077085569
 30
0.0
 10
25.74533970943091
 20
-11.437470298723
 30
0.0
 10
26.18494513266864
 20
-11.50200024647501
 30
0.0
 10
26.61201157182194
 20
-11.58353036603147
 30
0.0
  0
LINE
  5
29164
330
1F
100
AcDbEntity
  8
1
100
AcDbLine
 10
20.46262099999998
 20
-12.136124
 30
0.0
 11
20.55112199999999
 21
-12.142597
 31
0.0
  0
ARC
  5
29165
330
1F
100
AcDbEntity
  8
1
100
AcDbCircle
 10
26.654212
 20
-11.368731
 30
0.0
 40
0.1965680000000012
100
AcDbArc
 50
283.0054470000036
 51
1.666110000003649
  0
LINE
  5
29166
330
1F
100
AcDbEntity
  8
1
100
AcDbLine
 10
26.705581
 20
-10.421388
 30
0.0
 11
26.849987
 21
-11.363037
 31
0.0
  0
LINE
  5
29167
330
1F
100
AcDbEntity
  8
1
100
AcDbLine
 10
26.94961699999999
 20
-11.63164
 30
0.0
 11
26.849987
 21
-11.363037
 31
0.0
  0
LINE
  5
29168
330
1F
100
AcDbEntity
  8
1
100
AcDbLine
 10
26.79822999999999
 20
-11.829517
 30
0.0
 11
26.6986
 21
-11.560914
 31
0.0
  0
SPLINE
  5
29169
330
1F
100
AcDbEntity
  8
1
100
AcDbSpline
210
0.0
220
0.0
230
1.0
 70
     8
 71
     5
 72
    18
 73
    12
 74
     0
 42
0.000000001
 43
0.0000000001
 40
0.5023872400998465
 40
0.5023872400998465
 40
0.5023872400998465
 40
0.5023872400998465
 40
0.5023872400998465
 40
0.5023872400998465
 40
4.764544049339538
 40
4.764544049339538
 40
4.764544049339538
 40
8.212081646334681
 40
8.212081646334681
 40
8.212081646334681
 40
11.52161577632496
 40
11.52161577632496
 40
11.52161577632496
 40
11.52161577632496
 40
11.52161577632496
 40
11.52161577632496
 10
20.5511226671189
 20
-12.14259700916532
 30
0.0
 10
21.00691486381407
 20
-12.22961189354587
 30
0.0
 10
21.47699449449476
 20
-12.29726353969698
 30
0.0
 10
21.96013594515097
 20
-12.34199077865539
 30
0.0
 10
22.84871460718517
 20
-12.37359407332083
 30
0.0
 10
23.74033675855247
 20
-12.31191295470062
 30
0.0
 10
24.14491154714887
 20
-12.26368594670126
 30
0.0
 10
24.90432483561557
 20
-12.13483027020555
 30
0.0
 10
25.62345443754368
 20
-11.94242293199812
 30
0.0
 10
25.96828318869737
 20
-11.83294675537797
 30
0.0
 10
26.29727392050171
 20
-11.71288353126174
 30
0.0
 10
26.61199576156139
 20
-11.58353686386243
 30
0.0
  0
LINE
  5
2916A
330
1F
100
AcDbEntity
  8
1
100
AcDbLine
 10
20.56225099999997
 20
-12.404727
 30
0.0
 11
20.46262099999998
 21
-12.136124
 31
0.0
  0
LINE
  5
2916B
330
1F
100
AcDbEntity
  8
1
100
AcDbLine
 10
26.61519199999998
 20
-7.941379999999997
 30
0.0
 11
26.572158
 21
-7.82536
 31
0.0
  0
LINE
  5
2916C
330
1F
100
AcDbEntity
  8
1
100
AcDbLine
 10
26.62396299999997
 20
-7.975208999999998
 30
0.0
 11
26.76836899999998
 21
-8.916857999999997
 31
0.0
  0
LINE
  5
2916D
330
1F
100
AcDbEntity
  8
1
100
AcDbLine
 10
20.18111599999997
 20
-11.282736
 30
0.0
 11
20.28852999999998
 21
-11.983165
 31
0.0
  0
LINE
  5
2916E
330
1F
100
AcDbEntity
  8
1
100
AcDbLine
 10
20.39693
 20
-12.285598
 30
0.0
 11
20.29727299999999
 21
-12.01692
 31
0.0
  0
ARC
  5
2916F
330
1F
100
AcDbEntity
  8
1
100
AcDbCircle
 10
26.75384000000001
 20
-11.637334
 30
0.0
 40
0.1965689999999999
100
AcDbArc
 50
283.0057559999993
 51
1.665868999999311
  0
LINE
  5
29170
330
1F
100
AcDbEntity
  8
1
100
AcDbLine
 10
26.94961699999999
 20
-11.63164
 30
0.0
 11
26.76998699999999
 21
-8.931604
 31
0.0
  0
ARC
  5
29171
330
1F
100
AcDbEntity
  8
1
100
AcDbCircle
 10
20.57173999999998
 20
-12.216065
 30
0.0
 40
0.188500999999992
100
AcDbArc
 50
201.6876910000006
 51
267.1205990000007
  0
ARC
  5
29172
330
1F
100
AcDbEntity
  8
1
100
AcDbCircle
 10
21.97076099999998
 20
6.394701999999997
 30
0.0
 40
18.852402
100
AcDbArc
 50
265.715232
 51
284.836501
  0
ARC
  5
29173
330
1F
100
AcDbEntity
  8
1
100
AcDbCircle
 10
16.019104
 20
71.182289
 30
0.0
 40
75.650242
100
AcDbArc
 50
274.3011
 51
278.005067
  0
ELLIPSE
  5
29174
330
1F
100
AcDbEntity
  8
1
100
AcDbEllipse
 10
26.5067
 20
-3.689966999999997
 30
0.0
 11
0.1992230117321017
 21
0.0177430175244809
 31
0.0
210
0.0
220
0.0
230
1.0
 40
0.2294669999999997
 41
4.932617397380224
 42
6.324806709631215
  0
LINE
  5
29175
330
1F
100
AcDbEntity
  8
1
100
AcDbLine
 10
26.705581
 20
-3.670337
 30
0.0
 11
26.59999999999999
 21
-3.286397000000001
 31
0.0
  0
ELLIPSE
  5
29176
330
1F
100
AcDbEntity
  8
1
100
AcDbEllipse
 10
26.75073599999999
 20
-6.409376999999999
 30
0.0
 11
0.1992230117321017
 21
0.0177430175244809
 31
0.0
210
0.0
220
0.0
230
1.0
 40
0.2294669999999997
 41
4.932617397380202
 42
6.324806709631231
  0
ARC
  5
29177
330
1F
100
AcDbEntity
  8
1
100
AcDbCircle
 10
16.22738899999999
 20
68.783799
 30
0.0
 40
75.973088
100
AcDbArc
 50
273.270947
 51
277.998061
  0
ELLIPSE
  5
29178
330
1F
100
AcDbEntity
  8
1
100
AcDbEllipse
 10
20.58542299999999
 20
-7.017901999999997
 30
0.0
 11
0.1992230117321017
 21
0.0177430175244809
 31
0.0
210
0.0
220
0.0
230
1.0
 40
0.2294669999999997
 41
3.183214056041371
 42
4.575403368292964
  0
LINE
  5
29179
330
1F
100
AcDbEntity
  8
1
100
AcDbLine
 10
20.30817199999998
 20
-6.752541999999997
 30
0.0
 11
20.38654199999999
 21
-7.037531999999997
 31
0.0
  0
LINE
  5
2917A
330
1F
100
AcDbEntity
  8
1
100
AcDbLine
 10
20.38654199999999
 20
-7.037531999999997
 30
0.0
 11
20.286912
 21
-5.759240999999997
 31
0.0
  0
LINE
  5
2917B
330
1F
100
AcDbEntity
  8
1
100
AcDbLine
 10
20.20779499999998
 20
-4.969685999999998
 30
0.0
 11
20.286912
 21
-5.759240999999997
 31
0.0
  0
SPLINE
  5
2917C
330
1F
100
AcDbEntity
  8
1
100
AcDbSpline
210
0.0
220
0.0
230
1.0
 70
     8
 71
     5
 72
    15
 73
     9
 74
     0
 42
0.000000001
 43
0.0000000001
 40
0.0
 40
0.0
 40
0.0
 40
0.0
 40
0.0
 40
0.0
 40
0.1931380882847795
 40
0.1931380882847795
 40
0.1931380882847795
 40
0.4439017826803898
 40
0.4439017826803898
 40
0.4439017826803898
 40
0.4439017826803898
 40
0.4439017826803898
 40
0.4439017826803898
 10
20.28691226541744
 20
-5.759240960239307
 30
0.0
 10
20.2885221506784
 20
-5.765095261698852
 30
0.0
 10
20.29434611418699
 20
-5.770511728975682
 30
0.0
 10
20.30462435689327
 20
-5.775364206839767
 30
0.0
 10
20.33501535340068
 20
-5.784176213880018
 30
0.0
 10
20.37838094389164
 20
-5.788429096291792
 30
0.0
 10
20.40562011090609
 20
-5.789364814913279
 30
0.0
 10
20.43390533646266
 20
-5.788965517471363
 30
0.0
 10
20.46262122086688
 20
-5.787321019019918
 30
0.0
  0
LINE
  5
2917D
330
1F
100
AcDbEntity
  8
1
100
AcDbLine
 10
20.32041199999998
 20
-4.368130999999998
 30
0.0
 11
20.46262099999998
 21
-5.787320999999997
 31
0.0
  0
LINE
  5
2917E
330
1F
100
AcDbEntity
  8
1
100
AcDbLine
 10
26.554194
 20
-3.730702000000001
 30
0.0
 11
26.6986
 21
-5.171821000000001
 31
0.0
  0
LINE
  5
2917F
330
1F
100
AcDbEntity
  8
1
100
AcDbLine
 10
26.6986
 20
-5.171821000000001
 30
0.0
 11
26.611999
 21
-5.183985999999999
 31
0.0
  0
SPLINE
  5
29180
330
1F
100
AcDbEntity
  8
1
100
AcDbSpline
210
0.0
220
0.0
230
1.0
 70
     8
 71
     5
 72
    18
 73
    12
 74
     0
 42
0.000000001
 43
0.0000000001
 40
0.502151655081422
 40
0.502151655081422
 40
0.502151655081422
 40
0.502151655081422
 40
0.502151655081422
 40
0.502151655081422
 40
4.066606102456836
 40
4.066606102456836
 40
4.066606102456836
 40
7.524212728860522
 40
7.524212728860522
 40
7.524212728860522
 40
11.51775886342234
 40
11.51775886342234
 40
11.51775886342234
 40
11.51775886342234
 40
11.51775886342234
 40
11.51775886342234
 10
20.5511485372391
 20
-5.782214598656674
 30
0.0
 10
20.89014049956728
 20
-5.508301251435781
 30
0.0
 10
21.24579354880552
 20
-5.260086830153792
 30
0.0
 10
21.62036184777534
 20
-5.041282547862657
 30
0.0
 10
22.37364734684189
 20
-4.691900976088238
 30
0.0
 10
23.16783997394674
 20
-4.503337477635583
 30
0.0
 10
23.57532326854276
 20
-4.452410927209183
 30
0.0
 10
24.43826242762648
 20
-4.440157460213698
 30
0.0
 10
25.29421231635045
 20
-4.619207461075426
 30
0.0
 10
25.74533970943091
 20
-4.766543950329023
 30
0.0
 10
26.18494513266864
 20
-4.957007367403861
 30
0.0
 10
26.61201157182194
 20
-5.183968085250638
 30
0.0
  0
LINE
  5
29181
330
1F
100
AcDbEntity
  8
1
100
AcDbLine
 10
20.46262099999998
 20
-5.787320999999997
 30
0.0
 11
20.55112199999999
 21
-5.782201000000001
 31
0.0
  0
SPLINE
  5
29182
330
1F
100
AcDbEntity
  8
1
100
AcDbSpline
210
0.0
220
0.0
230
1.0
 70
     8
 71
     5
 72
    15
 73
     9
 74
     0
 42
0.000000001
 43
0.0000000001
 40
0.0
 40
0.0
 40
0.0
 40
0.0
 40
0.0
 40
0.0
 40
0.3196044161490453
 40
0.3196044161490453
 40
0.3196044161490453
 40
0.4384757613522579
 40
0.4384757613522579
 40
0.4384757613522579
 40
0.4384757613522579
 40
0.4384757613522579
 40
0.4384757613522579
 10
26.69860018394357
 20
-5.171821396785058
 30
0.0
 10
26.73455346397157
 20
-5.166749291050012
 30
0.0
 10
26.76895567993907
 20
-5.159849470540605
 30
0.0
 10
26.80100221787268
 20
-5.150999082799157
 30
0.0
 10
26.83408064746425
 20
-5.137125884099078
 30
0.0
 10
26.84809729311331
 20
-5.122753908631946
 30
0.0
 10
26.85037238689711
 20
-5.118825346941686
 30
0.0
 10
26.85097821032915
 20
-5.115059672834298
 30
0.0
 10
26.84998736859231
 20
-5.111456503200333
 30
0.0
  0
LINE
  5
29183
330
1F
100
AcDbEntity
  8
1
100
AcDbLine
 10
26.79822999999999
 20
-6.450112000000001
 30
0.0
 11
26.6986
 21
-5.171821000000001
 31
0.0
  0
SPLINE
  5
29184
330
1F
100
AcDbEntity
  8
1
100
AcDbSpline
210
0.0
220
0.0
230
1.0
 70
     8
 71
     5
 72
    18
 73
    12
 74
     0
 42
0.000000001
 43
0.0000000001
 40
0.5023872400998465
 40
0.5023872400998465
 40
0.5023872400998465
 40
0.5023872400998465
 40
0.5023872400998465
 40
0.5023872400998465
 40
4.764544049339538
 40
4.764544049339538
 40
4.764544049339538
 40
8.212081646334681
 40
8.212081646334681
 40
8.212081646334681
 40
11.52161577632496
 40
11.52161577632496
 40
11.52161577632496
 40
11.52161577632496
 40
11.52161577632496
 40
11.52161577632496
 10
20.5511226671189
 20
-5.782200850169378
 30
0.0
 10
21.00691486381407
 20
-6.024429415630236
 30
0.0
 10
21.47699449449476
 20
-6.225088050331077
 30
0.0
 10
21.96013594515097
 20
-6.376120787422677
 30
0.0
 10
22.84871460718517
 20
-6.541157449548045
 30
0.0
 10
23.74033675855247
 20
-6.498915056050677
 30
0.0
 10
24.14491154714887
 20
-6.434705585655606
 30
0.0
 10
24.90432483561557
 20
-6.228876261560487
 30
0.0
 10
25.62345443754368
 20
-5.87732002117691
 30
0.0
 10
25.96828318869737
 20
-5.67043352824838
 30
0.0
 10
26.29727392050171
 20
-5.438297677214942
 30
0.0
 10
26.61199576156139
 20
-5.183980861058688
 30
0.0
  0
LINE
  5
29185
330
1F
100
AcDbEntity
  8
1
100
AcDbLine
 10
20.56225099999997
 20
-7.065612000000002
 30
0.0
 11
20.46262099999998
 21
-5.787320999999997
 31
0.0
  0
LINE
  5
29186
330
1F
100
AcDbEntity
  8
1
100
AcDbLine
 10
26.70591199999998
 20
-3.672108000000001
 30
0.0
 11
26.85031799999999
 21
-5.113227999999998
 31
0.0
  0
LINE
  5
29187
330
1F
100
AcDbEntity
  8
1
100
AcDbLine
 10
26.94996899999998
 20
-6.391750000000002
 30
0.0
 11
26.85033899999999
 21
-5.113461999999998
 31
0.0
  0
ELLIPSE
  5
29188
330
1F
100
AcDbEntity
  8
1
100
AcDbEllipse
 10
26.75073599999999
 20
-6.409376999999999
 30
0.0
 11
0.1992230117321017
 21
0.0177430175244809
 31
0.0
210
0.0
220
0.0
230
1.0
 40
0.2294669999999997
 41
4.932617397380202
 42
6.324806709631231
  0
LINE
  5
29189
330
1F
100
AcDbEntity
  8
1
100
AcDbLine
 10
20.30817199999998
 20
-6.752541999999997
 30
0.0
 11
20.38654199999999
 21
-7.037531999999997
 31
0.0
  0
ELLIPSE
  5
2918A
330
1F
100
AcDbEntity
  8
1
100
AcDbEllipse
 10
20.58542299999999
 20
-7.017901999999997
 30
0.0
 11
0.1992230117321017
 21
0.0177430175244809
 31
0.0
210
0.0
220
0.0
230
1.0
 40
0.2294669999999997
 41
3.183214056041371
 42
4.575403368292964
  0
ARC
  5
2918B
330
1F
100
AcDbEntity
  8
1
100
AcDbCircle
 10
16.22738899999999
 20
68.783799
 30
0.0
 40
75.973088
100
AcDbArc
 50
273.270947
 51
277.998061
  0
ARC
  5
2918C
330
1F
100
AcDbEntity
  8
1
100
AcDbCircle
 10
22.64795899999999
 20
28.194895
 30
0.0
 40
26.84028400000001
100
AcDbArc
 50
265.10618
 51
278.454602
  0
ARC
  5
2918D
330
1F
100
AcDbEntity
  8
1
100
AcDbCircle
 10
20.34433799999999
 20
5.530746999999997
 30
0.0
 40
0.2449609999999995
100
AcDbArc
 50
96.10838999999764
 51
135.5180319999976
  0
ARC
  5
2918E
330
1F
100
AcDbEntity
  8
1
100
AcDbCircle
 10
24.264533
 20
-20.774467
 30
0.0
 40
26.84028400000001
100
AcDbArc
 50
85.10618000000002
 51
98.45460199999999
  0
ELLIPSE
  5
2918F
330
1F
100
AcDbEntity
  8
1
100
AcDbEllipse
 10
26.5067
 20
5.838419999999997
 30
0.0
 11
0.1986584514379501
 21
0.0241828206926584
 31
0.0
210
0.0
220
0.0
230
1.0
 40
0.642225
 41
0.0295449097562449
 42
1.252114325209278
  0
ELLIPSE
  5
29190
330
1F
100
AcDbEntity
  8
1
100
AcDbEllipse
 10
26.57110599999999
 20
1.772134000000001
 30
0.0
 11
0.1986584514379501
 21
0.0241828206926584
 31
0.0
210
0.0
220
0.0
230
1.0
 40
0.642225
 41
4.750921007886896
 42
6.143110320137897
  0
ELLIPSE
  5
29191
330
1F
100
AcDbEntity
  8
1
100
AcDbEllipse
 10
20.40579299999999
 20
1.582008000000002
 30
0.0
 11
0.1986584514379501
 21
0.0241828206926584
 31
0.0
210
0.0
220
0.0
230
1.0
 40
0.642225
 41
3.171137563346042
 42
4.393706978800212
  0
LINE
  5
29192
330
1F
100
AcDbEntity
  8
1
100
AcDbLine
 10
20.20768199999998
 20
1.554067
 30
0.0
 11
20.20691199999999
 21
1.575874999999999
 31
0.0
  0
LINE
  5
29193
330
1F
100
AcDbEntity
  8
1
100
AcDbLine
 10
20.18628199999998
 20
1.698074999999999
 30
0.0
 11
20.20691199999999
 21
1.575874999999999
 31
0.0
  0
LINE
  5
29194
330
1F
100
AcDbEntity
  8
1
100
AcDbLine
 10
26.94961699999999
 20
3.663755
 30
0.0
 11
26.76998699999999
 21
1.778266999999999
 31
0.0
  0
ELLIPSE
  5
29195
330
1F
100
AcDbEntity
  8
1
100
AcDbEllipse
 10
26.75073599999999
 20
3.657621999999998
 30
0.0
 11
0.1986584514379501
 21
0.0241828206926584
 31
0.0
210
0.0
220
0.0
230
1.0
 40
0.642225
 41
6.253560761942307
 42
7.535299632388886
  0
LINE
  5
29196
330
1F
100
AcDbEntity
  8
1
100
AcDbLine
 10
26.94976499999999
 20
3.678014999999998
 30
0.0
 11
26.94961699999999
 21
3.663755
 31
0.0
  0
ARC
  5
29197
330
1F
100
AcDbEntity
  8
1
100
AcDbCircle
 10
24.50856899999999
 20
-22.955265
 30
0.0
 40
26.84028400000001
100
AcDbArc
 50
85.10618000000002
 51
98.45460199999999
  0
ELLIPSE
  5
29198
330
1F
100
AcDbEntity
  8
1
100
AcDbEllipse
 10
20.58542299999999
 20
3.467496000000001
 30
0.0
 11
0.1986584514379501
 21
0.0241828206926584
 31
0.0
210
0.0
220
0.0
230
1.0
 40
0.642225
 41
1.609328354296551
 42
3.001517666548116
  0
LINE
  5
29199
330
1F
100
AcDbEntity
  8
1
100
AcDbLine
 10
20.20691199999999
 20
1.575874999999999
 30
0.0
 11
20.38654199999999
 21
3.461362999999998
 31
0.0
  0
ELLIPSE
  5
2919A
330
1F
100
AcDbEntity
  8
1
100
AcDbEllipse
 10
23.57826399999999
 20
2.619814999999999
 30
0.0
 11
-1.053424954414367
 21
-0.1178805753588676
 31
0.0
210
0.0
220
0.0
230
1.0
 40
0.621117
 41
3.141502527230216
 42
6.283095180820007
  0
ELLIPSE
  5
2919B
330
1F
100
AcDbEntity
  8
1
100
AcDbEllipse
 10
23.57826399999999
 20
2.619814999999999
 30
0.0
 11
-1.053424954414367
 21
-0.1178805753588676
 31
0.0
210
0.0
220
0.0
230
1.0
 40
0.621117
 41
6.283095180820007
 42
9.295439322416504
  0
ELLIPSE
  5
2919C
330
1F
100
AcDbEntity
  8
1
100
AcDbEllipse
 10
23.57826399999999
 20
2.619814999999999
 30
0.0
 11
-1.053424954414367
 21
-0.1178805753588676
 31
0.0
210
0.0
220
0.0
230
1.0
 40
0.621117
 41
3.012254015236916
 42
3.141502527230216
  0
LINE
  5
2919D
330
1F
100
AcDbEntity
  8
1
100
AcDbLine
 10
20.38654199999999
 20
3.461362999999998
 30
0.0
 11
20.286912
 21
4.786763000000001
 31
0.0
  0
LINE
  5
2919E
330
1F
100
AcDbEntity
  8
1
100
AcDbLine
 10
20.20779199999998
 20
5.255436
 30
0.0
 11
20.286912
 21
4.786763000000001
 31
0.0
  0
SPLINE
  5
2919F
330
1F
100
AcDbEntity
  8
1
100
AcDbSpline
210
0.0
220
0.0
230
1.0
 70
     8
 71
     5
 72
    15
 73
     9
 74
     0
 42
0.000000001
 43
0.0000000001
 40
0.0
 40
0.0
 40
0.0
 40
0.0
 40
0.0
 40
0.0
 40
0.2229158464775806
 40
0.2229158464775806
 40
0.2229158464775806
 40
0.463676624928393
 40
0.463676624928393
 40
0.463676624928393
 40
0.463676624928393
 40
0.463676624928393
 40
0.463676624928393
 10
20.28691226541744
 20
4.786762551437121
 30
0.0
 10
20.288631248689
 20
4.80480578266787
 30
0.0
 10
20.29515061534286
 20
4.822900539019933
 30
0.0
 10
20.30669861659351
 20
4.840737320619711
 30
0.0
 10
20.33803385098582
 20
4.873548768345386
 30
0.0
 10
20.38231659752242
 20
4.898131688057365
 30
0.0
 10
20.4082084039099
 20
4.908324075449178
 30
0.0
 10
20.43513318205672
 20
4.915413970165183
 30
0.0
 10
20.46262122086688
 20
4.919452841796446
 30
0.0
  0
LINE
  5
291A0
330
1F
100
AcDbEntity
  8
1
100
AcDbLine
 10
20.31821499999998
 20
5.774850999999997
 30
0.0
 11
20.46262099999998
 21
4.919453000000001
 31
0.0
  0
LINE
  5
291A1
330
1F
100
AcDbEntity
  8
1
100
AcDbLine
 10
26.554194
 20
5.967157
 30
0.0
 11
26.6986
 21
5.111758
 31
0.0
  0
LINE
  5
291A2
330
1F
100
AcDbEntity
  8
1
100
AcDbLine
 10
26.6986
 20
5.111758
 30
0.0
 11
26.611999
 21
5.119219999999998
 31
0.0
  0
SPLINE
  5
291A3
330
1F
100
AcDbEntity
  8
1
100
AcDbSpline
210
0.0
220
0.0
230
1.0
 70
     8
 71
     5
 72
    18
 73
    12
 74
     0
 42
0.000000001
 43
0.0000000001
 40
0.502151655081422
 40
0.502151655081422
 40
0.502151655081422
 40
0.502151655081422
 40
0.502151655081422
 40
0.502151655081422
 40
4.066606102456836
 40
4.066606102456836
 40
4.066606102456836
 40
7.524212728860522
 40
7.524212728860522
 40
7.524212728860522
 40
11.51775886342234
 40
11.51775886342234
 40
11.51775886342234
 40
11.51775886342234
 40
11.51775886342234
 40
11.51775886342234
 10
20.5511485372391
 20
4.932298279136337
 30
0.0
 10
20.89014049956728
 20
5.134548173672378
 30
0.0
 10
21.24579354880552
 20
5.315501670938886
 30
0.0
 10
21.62036184777534
 20
5.472090606183479
 30
0.0
 10
22.37364734684189
 20
5.714696394308097
 30
0.0
 10
23.16783997394674
 20
5.827068182511562
 30
0.0
 10
23.57532326854276
 20
5.848174795467107
 30
0.0
 10
24.43826242762648
 20
5.816622342091175
 30
0.0
 10
25.29421231635045
 20
5.632813281555105
 30
0.0
 10
25.74533970943091
 20
5.493687212439837
 30
0.0
 10
26.18494513266864
 20
5.320713163845198
 30
0.0
 10
26.61201157182194
 20
5.119227897401643
 30
0.0
  0
LINE
  5
291A4
330
1F
100
AcDbEntity
  8
1
100
AcDbLine
 10
20.46262099999998
 20
4.919453000000001
 30
0.0
 11
20.55112199999999
 21
4.932310000000001
 31
0.0
  0
SPLINE
  5
291A5
330
1F
100
AcDbEntity
  8
1
100
AcDbSpline
210
0.0
220
0.0
230
1.0
 70
     8
 71
     5
 72
    15
 73
     9
 74
     0
 42
0.000000001
 43
0.0000000001
 40
0.0
 40
0.0
 40
0.0
 40
0.0
 40
0.0
 40
0.0
 40
0.2474029434009666
 40
0.2474029434009666
 40
0.2474029434009666
 40
0.4002997306688715
 40
0.4002997306688715
 40
0.4002997306688715
 40
0.4002997306688715
 40
0.4002997306688715
 40
0.4002997306688715
 10
26.69860018394357
 20
5.111757899076176
 30
0.0
 10
26.72648506489455
 20
5.109307095493881
 30
0.0
 10
26.75339209720923
 20
5.103492734203858
 30
0.0
 10
26.77890079813213
 20
5.094011327114669
 30
0.0
 10
26.81356437350868
 20
5.07363000598626
 30
0.0
 10
26.83615396694523
 20
5.04639255321308
 30
0.0
 10
26.84284623269403
 20
5.034946108610674
 30
0.0
 10
26.84716796214195
 20
5.023113558975695
 30
0.0
 10
26.84921761528071
 20
5.01097242573198
 30
0.0
  0
LINE
  5
291A6
330
1F
100
AcDbEntity
  8
1
100
AcDbLine
 10
26.84921799999998
 20
5.010971999999997
 30
0.0
 11
26.85013799999999
 21
5.003402999999997
 31
0.0
  0
LINE
  5
291A7
330
1F
100
AcDbEntity
  8
1
100
AcDbLine
 10
26.79822999999999
 20
3.786359000000001
 30
0.0
 11
26.6986
 21
5.111758
 31
0.0
  0
SPLINE
  5
291A8
330
1F
100
AcDbEntity
  8
1
100
AcDbSpline
210
0.0
220
0.0
230
1.0
 70
     8
 71
     5
 72
    18
 73
    12
 74
     0
 42
0.000000001
 43
0.0000000001
 40
0.5023872400998465
 40
0.5023872400998465
 40
0.5023872400998465
 40
0.5023872400998465
 40
0.5023872400998465
 40
0.5023872400998465
 40
4.764544049339538
 40
4.764544049339538
 40
4.764544049339538
 40
8.212081646334681
 40
8.212081646334681
 40
8.212081646334681
 40
11.52161577632496
 40
11.52161577632496
 40
11.52161577632496
 40
11.52161577632496
 40
11.52161577632496
 40
11.52161577632496
 10
20.5511226671189
 20
4.932310484406322
 30
0.0
 10
21.00691486381407
 20
4.717271288219443
 30
0.0
 10
21.47699449449476
 20
4.534705709588807
 30
0.0
 10
21.96013594515097
 20
4.391098205900359
 30
0.0
 10
22.84871460718517
 20
4.216904149029858
 30
0.0
 10
23.74033675855247
 20
4.207898433513073
 30
0.0
 10
24.14491154714887
 20
4.239739325461866
 30
0.0
 10
24.90432483561557
 20
4.367548617959731
 30
0.0
 10
25.62345443754368
 20
4.613524741070222
 30
0.0
 10
25.96828318869737
 20
4.762031801416573
 30
0.0
 10
26.29727392050171
 20
4.931437248830651
 30
0.0
 10
26.61199576156139
 20
5.119218464060543
 30
0.0
  0
LINE
  5
291A9
330
1F
100
AcDbEntity
  8
1
100
AcDbLine
 10
20.56225099999997
 20
3.594054
 30
0.0
 11
20.46262099999998
 21
4.919453000000001
 31
0.0
  0
LINE
  5
291AA
330
1F
100
AcDbEntity
  8
1
100
AcDbLine
 10
20.18523099999999
 20
1.687042999999999
 30
0.0
 11
20.20767999999998
 21
1.554067
 31
0.0
  0
LINE
  5
291AB
330
1F
100
AcDbEntity
  8
1
100
AcDbLine
 10
26.704813
 20
5.866361000000001
 30
0.0
 11
26.84921799999998
 21
5.010971999999997
 31
0.0
  0
LINE
  5
291AC
330
1F
100
AcDbEntity
  8
1
100
AcDbLine
 10
26.94976699999998
 20
3.678014999999998
 30
0.0
 11
26.85013799999999
 21
5.003402999999997
 31
0.0
  0
ELLIPSE
  5
291AD
330
1F
100
AcDbEntity
  8
1
100
AcDbEllipse
 10
26.75073599999999
 20
3.657621999999998
 30
0.0
 11
0.1986584514379501
 21
0.0241828206926584
 31
0.0
210
0.0
220
0.0
230
1.0
 40
0.642225
 41
6.143110320137857
 42
7.535299632388886
  0
LINE
  5
291AE
330
1F
100
AcDbEntity
  8
1
100
AcDbLine
 10
26.94961699999999
 20
3.663755
 30
0.0
 11
26.76998699999999
 21
1.778266999999999
 31
0.0
  0
ELLIPSE
  5
291AF
330
1F
100
AcDbEntity
  8
1
100
AcDbEllipse
 10
26.57110599999999
 20
1.772134000000001
 30
0.0
 11
0.1986584514379501
 21
0.0241828206926584
 31
0.0
210
0.0
220
0.0
230
1.0
 40
0.642225
 41
4.750921007886896
 42
6.143110320137897
  0
ARC
  5
291B0
330
1F
100
AcDbEntity
  8
1
100
AcDbCircle
 10
22.64795899999999
 20
28.194895
 30
0.0
 40
26.84028400000001
100
AcDbArc
 50
265.10618
 51
278.454602
  0
ELLIPSE
  5
291B1
330
1F
100
AcDbEntity
  8
1
100
AcDbEllipse
 10
20.40579299999999
 20
1.582008000000002
 30
0.0
 11
0.1986584514379501
 21
0.0241828206926584
 31
0.0
210
0.0
220
0.0
230
1.0
 40
0.642225
 41
3.001517666548078
 42
4.393706978800212
  0
LINE
  5
291B2
330
1F
100
AcDbEntity
  8
1
100
AcDbLine
 10
20.20691199999999
 20
1.575874999999999
 30
0.0
 11
20.38654199999999
 21
3.461362999999998
 31
0.0
  0
ELLIPSE
  5
291B3
330
1F
100
AcDbEntity
  8
1
100
AcDbEllipse
 10
20.58542299999999
 20
3.467496000000001
 30
0.0
 11
0.1986584514379501
 21
0.0241828206926584
 31
0.0
210
0.0
220
0.0
230
1.0
 40
0.642225
 41
1.609328354296551
 42
3.001517666548116
  0
ARC
  5
291B4
330
1F
100
AcDbEntity
  8
1
100
AcDbCircle
 10
24.50856899999999
 20
-22.955265
 30
0.0
 40
26.84028400000001
100
AcDbArc
 50
85.10618000000002
 51
98.45460199999999
  0
LINE
  5
29230
330
1F
100
AcDbEntity
  8
SK4
100
AcDbLine
 10
0.0
 20
0.0
 30
0.0
 11
-25.39639800000003
 21
0.0
 31
0.0
  0
DIMENSION
  5
29231
330
1F
100
AcDbEntity
  8
SK2
100
AcDbDimension
  2
*D38
 10
-35.12502968552781
 20
-6.0
 30
0.0
 11
-37.52216601722141
 21
0.0
 31
0.0
 70
    32
  1
M12
 71
     5
 41
0.0
 42
12.0
  3
MM_STANDARD
100
AcDbAlignedDimension
 13
-22.0
 23
6.0
 33
0.0
 14
-22.0
 24
-6.0
 34
0.0
 50
90.0
100
AcDbRotatedDimension
1001
ACAD
1000
DSTYLE
1002
{
1070
    78
1070
     9
1070
    79
1070
     2
1070
    90
1070
     1
1070
   172
1070
     1
1070
   345
1005
14
1070
   346
1005
14
1070
   347
1005
14
1002
}
1001
ACAD_DSTYLE_DIMARC_LENGTH_SYMBOL
1070
   379
1070
     1
1001
ACAD_DSTYLE_DIM_LINETYPE
1070
   380
1005
14
1001
ACAD_DSTYLE_DIM_EXT1_LINETYPE
1070
   381
1005
14
1001
ACAD_DSTYLE_DIM_EXT2_LINETYPE
1070
   382
1005
14
  0
DIMENSION
  5
29241
330
1F
100
AcDbEntity
  8
SK2
100
AcDbDimension
  2
*D39
 10
-45.35561399876594
 20
-10.50000000000001
 30
0.0
 11
-48.20162594535763
 21
0.0000000000000067
 31
0.0
 70
    32
  1
%%C<>
 71
     5
 41
0.0
 42
21.0
  3
MM_STANDARD
100
AcDbAlignedDimension
 13
0.0
 23
10.5
 33
0.0
 14
0.0
 24
-10.5
 34
0.0
 50
90.0
100
AcDbRotatedDimension
1001
ACAD
1000
DSTYLE
1002
{
1070
    78
1070
     9
1070
    79
1070
     2
1070
    90
1070
     1
1070
   172
1070
     1
1070
   345
1005
14
1070
   346
1005
14
1070
   347
1005
14
1002
}
1001
ACAD_DSTYLE_DIMARC_LENGTH_SYMBOL
1070
   379
1070
     1
1001
ACAD_DSTYLE_DIM_LINETYPE
1070
   380
1005
14
1001
ACAD_DSTYLE_DIM_EXT1_LINETYPE
1070
   381
1005
14
1001
ACAD_DSTYLE_DIM_EXT2_LINETYPE
1070
   382
1005
14
  0
DIMENSION
  5
29375
330
1F
100
AcDbEntity
  8
2
100
AcDbDimension
  2
*D41
 10
54.99310083597012
 20
-12.5
 30
0.0
 11
54.9931008359701
 21
0.0
 31
0.0
 70
   160
  1
%%C<>
 71
     5
 41
0.0
 42
25.00000000000001
  3
MM_STANDARD
100
AcDbAlignedDimension
 13
22.65815336782941
 23
12.5
 33
0.0
 14
26.59999999999999
 24
-12.5
 34
0.0
 50
90.0
100
AcDbRotatedDimension
1001
ACAD
1000
DSTYLE
1002
{
1070
   279
1070
     0
1070
    76
1070
     1
1070
   282
1070
     1
1070
   271
1070
     0
1070
    78
1070
     9
1070
    79
1070
     2
1070
    90
1070
     1
1070
   172
1070
     1
1070
   345
1005
14
1070
   346
1005
14
1070
   347
1005
14
1070
     7
1000
_NONE
1070
   173
1070
     1
1002
}
1001
ACAD_DSTYLE_DIMARC_LENGTH_SYMBOL
1070
   379
1070
     1
1001
ACAD_DSTYLE_DIM_LINETYPE
1070
   380
1005
14
1001
ACAD_DSTYLE_DIM_EXT1_LINETYPE
1070
   381
1005
14
1001
ACAD_DSTYLE_DIM_EXT2_LINETYPE
1070
   382
1005
14
  0
INSERT
  5
293D3
330
1F
100
AcDbEntity
  8
SK2
100
AcDbBlockReference
  2
CERO_POINT
 10
0.0
 20
0.0
 30
0.0
  0
LINE
  5
29440
330
1F
100
AcDbEntity
  8
SK3
100
AcDbLine
 10
15.13323642990528
 20
1.501277941379993
 30
0.0
 11
19.67376499439814
 21
8.433576168548956
 31
0.0
  0
LINE
  5
29441
330
1F
100
AcDbEntity
  8
SK3
100
AcDbLine
 10
15.63613006625488
 20
0.6302409606385169
 30
0.0
 11
20.68554084278583
 21
8.339480287558835
 31
0.0
  0
LWPOLYLINE
  5
29A30
330
1F
100
AcDbEntity
  8
CUT
100
AcDbPolyline
 90
      885
 70
     1
 43
0.0
 10
20.58811084467626
 20
12.40276409584228
 42
0.3751432893666302
 10
20.40132151193487
 20
12.20299883763169
 10
20.401321
 20
12.202999
 10
20.29796782266771
 20
9.168022792619927
 10
20.29806450610895
 20
9.166129346099749
 10
20.29820826419419
 20
9.164227847405259
 10
20.29839901843985
 20
9.162323333243607
 10
20.29863686281863
 20
9.160416019289073
 10
20.29892181386588
 20
9.158506335705403
 10
20.29925381969711
 20
9.15659489215667
 10
20.29963276902545
 20
9.154682442818147
 10
20.3000585001792
 20
9.152769851387155
 10
20.30053081011926
 20
9.15085805609393
 10
20.30104946345669
 20
9.148948034712491
 10
20.30161420147015
 20
9.147040769571487
 10
20.30222475112347
 20
9.145137212565073
 10
20.30288083408305
 20
9.14323825016376
 10
20.30358217573546
 20
9.141344668425288
 10
20.30432851420486
 20
9.139457118005475
 10
20.30511960937054
 20
9.137576079169081
 10
20.30595525188438
 20
9.135701826800683
 10
20.30683527218842
 20
9.133834395415522
 10
20.30775958536149
 20
9.13197355691274
 10
20.3087283650264
 20
9.130119012997747
 10
20.30974174251697
 20
9.128270678544897
 10
20.31079966834427
 20
9.126428694051881
 10
20.31190193303104
 20
9.124593395199507
 10
20.31304818862803
 20
9.122765282413023
 10
20.31423797023041
 20
9.120944990423408
 10
20.31547071749411
 20
9.119133257828687
 10
20.3167457961522
 20
9.117330896655264
 10
20.31806251953122
 20
9.115538761919196
 10
20.31942017006767
 20
9.113757721187539
 10
20.32081802082421
 20
9.111988624139632
 10
20.32225535700618
 20
9.110232272128428
 10
20.32373149747786
 20
9.108489387741792
 10
20.32524581627893
 20
9.106760584363824
 10
20.32679776414078
 20
9.105046335736147
 10
20.32838689000288
 20
9.103346945519255
 10
20.33001286252919
 20
9.101662516853783
 10
20.33167549371929
 20
9.099992922523275
 10
20.33337486314646
 20
9.098337863002159
 10
20.33511117696416
 20
9.096697141892192
 10
20.33688441871384
 20
9.095070743286239
 10
20.33869434887185
 20
9.093458809666543
 10
20.34054053351614
 20
9.091861619637784
 10
20.3424223729929
 20
9.090279565660161
 10
20.3443391305833
 20
9.088713131782483
 10
20.34628996117017
 20
9.087162871375239
 10
20.34827393990468
 20
9.085629384863679
 10
20.35029009087303
 20
9.084113297460897
 10
20.35233741576316
 20
9.082615236900897
 10
20.3544149225314
 20
9.0811358111717
 10
20.35652165406922
 20
9.079675586248397
 10
20.35865671686988
 20
9.078235063826239
 10
20.36081930969511
 20
9.076814659053717
 10
20.36300875224184
 20
9.075414678265644
 10
20.36522451380887
 20
9.074035296716225
 10
20.36746624196354
 20
9.072676536312142
 10
20.36973379424001
 20
9.07133824455682
 10
20.37202733107207
 20
9.070020161481672
 10
20.37434706831627
 20
9.068722119937168
 10
20.37669297615714
 20
9.067444071455064
 10
20.37906479118815
 20
9.066186070611255
 10
20.38146204626134
 20
9.064948260955381
 10
20.38388410033692
 20
9.063730860940426
 10
20.38633016833284
 20
9.062534149852313
 10
20.38879935097439
 20
9.06135845373951
 10
20.39129066464385
 20
9.060204131342626
 10
20.39380307122998
 20
9.059071560024024
 10
20.39633550797774
 20
9.057961121697401
 10
20.39888691733779
 20
9.056873188757394
 10
20.40145627681608
 20
9.055808110009197
 10
20.40404262882359
 20
9.054766196598151
 10
20.40664511052571
 20
9.053747707939328
 10
20.40926298369202
 20
9.05275283764716
 10
20.41189566454575
 20
9.051781699465019
 10
20.41454275361351
 20
9.050834313194828
 10
20.41720406557475
 20
9.049910590626652
 10
20.41987969047617
 20
9.049010345743438
 10
20.42256992829928
 20
9.048133426608675
 10
20.42527488511192
 20
9.047279756957275
 10
20.42799442154068
 20
9.046449321294906
 10
20.43072818272489
 20
9.045642157076573
 10
20.43347562827069
 20
9.044858346885217
 10
20.43623606220505
 20
9.044098010610342
 10
20.43900866292984
 20
9.043361297626583
 10
20.44179251317586
 20
9.042648378972312
 10
20.44458662995687
 20
9.041959439528245
 10
20.44738999452369
 20
9.041294670196043
 10
20.45020158231816
 20
9.040654260076895
 10
20.45302039292726
 20
9.040038388650136
 10
20.45584548003712
 20
9.03944721795184
 10
20.45867598138705
 20
9.038880884753412
 10
20.46151114872362
 20
9.038339492740194
 10
20.4643503777547
 20
9.037823104690057
 10
20.46719323810347
 20
9.037331734652022
 10
20.47003950326251
 20
9.036865340124832
 10
20.47288918055088
 20
9.036423814235083
 10
20.4818951291718
 20
9.035069273037636
 10
20.49090148049091
 20
9.033716388866315
 10
20.49990823473047
 20
9.03236516091499
 10
20.50891539168206
 20
9.0310155884398
 10
20.51792295093872
 20
9.029667670724382
 10
20.52693091189965
 20
9.02832140707934
 10
20.53593927377486
 20
9.026976796841683
 10
20.54494803558979
 20
9.025633839374297
 10
20.55395719619003
 20
9.02429253406539
 10
20.56296675424595
 20
9.022952880327947
 10
20.57197670825738
 20
9.021614877599192
 10
20.58098705655822
 20
9.020278525340039
 10
20.58999779732119
 20
9.01894382303455
 10
20.59900892856243
 20
9.017610770189387
 10
20.60802044814613
 20
9.016279366333264
 10
20.61703235378931
 20
9.014949611016419
 10
20.62604464306636
 20
9.013621503810043
 10
20.63505731341376
 20
9.012295044305759
 10
20.64407036213475
 20
9.010970232115065
 10
20.65308378640394
 20
9.009647066868788
 10
20.66209758327203
 20
9.008325548216555
 10
20.67111174967045
 20
9.00700567582623
 10
20.680126282416
 20
9.005687449383373
 10
20.68914117821554
 20
9.004370868590701
 10
20.69815643367064
 20
9.003055933167541
 10
20.70717204528226
 20
9.001742642849288
 10
20.71618800945537
 20
9.000430997386857
 10
20.72520432250366
 20
8.999120996546132
 10
20.73422098065415
 20
8.997812640107435
 10
20.74323798005192
 20
8.996505927864971
 10
20.7522553167647
 20
8.995200859626292
 10
20.76127298678758
 20
8.993897435211739
 10
20.77029098604766
 20
8.992595654453907
 10
20.77930931040869
 20
8.991295517197107
 10
20.78832795567576
 20
8.989997023296801
 10
20.79734691759997
 20
8.988700172619077
 10
20.80636619188302
 20
8.987404965040099
 10
20.815385774182
 20
8.986111400445546
 10
20.8244056601139
 20
8.984819478730099
 10
20.8334258452604
 20
8.983529199796867
 10
20.84244632517247
 20
8.982240563556851
 10
20.85146709537502
 20
8.980953569928416
 10
20.8604881513716
 20
8.979668218836721
 10
20.86950948864906
 20
8.978384510213189
 10
20.87853110268216
 20
8.977102443994956
 10
20.8875529889383
 20
8.975822020124336
 10
20.89657514288214
 20
8.974543238548267
 10
20.90559755998027
 20
8.973266099217765
 10
20.91462023570586
 20
8.971990602087386
 10
20.92364316554337
 20
8.970716747114677
 10
20.93266634499315
 20
8.969444534259642
 10
20.94168976957613
 20
8.96817396348417
 10
20.95071343483849
 20
8.966905034751526
 10
20.95973733635632
 20
8.965637748025782
 10
20.96876146974024
 20
8.964372103271278
 10
20.97778583064014
 20
8.963108100452082
 10
20.98681041474977
 20
8.961845739531431
 10
20.99583521781142
 20
8.960585020471215
 10
21.00486023562063
 20
8.959325943231402
 10
21.01388546403077
 20
8.958068507769509
 10
21.02291089895778
 20
8.956812714040047
 10
21.03193653638477
 20
8.955558561993996
 10
21.04096237236671
 20
8.954306051578242
 10
21.04998840303511
 20
8.953055182735031
 10
21.05901462460264
 20
8.951805955401445
 10
21.06804103336783
 20
8.950558369508831
 10
21.07706762571968
 20
8.949312424982277
 10
21.08609439814242
 20
8.948068121740051
 10
21.09512134722005
 20
8.946825459693076
 10
21.10414846964107
 20
8.945584438744365
 10
21.11317576220316
 20
8.944345058788487
 10
21.12220322181779
 20
8.943107319711018
 10
21.13123084551491
 20
8.941871221388005
 10
21.1402586304476
 20
8.940636763685413
 10
21.14928657389676
 20
8.939403946458572
 10
21.15831467327573
 20
8.938172769551663
 10
21.16734292613497
 20
8.936943232797132
 10
21.17637133016673
 20
8.935715336015181
 10
21.18539988320972
 20
8.934489079013204
 10
21.19442858325374
 20
8.933264461585244
 10
21.20345742844436
 20
8.932041483511451
 10
21.21248641708759
 20
8.930820144557545
 10
21.22151554765451
 20
8.929600444474251
 10
21.23054481878599
 20
8.928382382996787
 10
21.23957422929729
 20
8.927165959844275
 10
21.24860377818274
 20
8.925951174719237
 10
21.2576332397717
 20
8.924738057347775
 10
21.26666251782071
 20
8.92352662020751
 10
21.27569311746268
 20
8.922316661797895
 10
21.28472269582274
 20
8.921108494353644
 10
21.29373820527075
 20
8.91990385986122
 10
21.30271917243472
 20
8.918705493195917
 10
21.31165027777174
 20
8.917515427438738
 10
21.32052254793692
 20
8.916334830397472
 10
21.3293335170457
 20
8.915163990608302
 10
21.33808736706365
 20
8.914002313035963
 10
21.34679428612345
 20
8.912848425928032
 10
21.35546887443839
 20
8.911700389908407
 10
21.36412833925148
 20
8.910555933194133
 10
21.37279068425196
 20
8.909412688288064
 10
21.38147289899174
 20
8.908268428671483
 10
21.39018914830181
 20
8.907121305496778
 10
21.39894896170876
 20
8.905970084280042
 10
21.40775563914095
 20
8.904814353017689
 10
21.41660601559944
 20
8.903654546207615
 10
21.42548687033016
 20
8.902492404683904
 10
21.43437820585758
 20
8.901330544836064
 10
21.44326105191574
 20
8.900171436695572
 10
21.4521263628458
 20
8.899016242824949
 10
21.46097364205897
 20
8.897865004484071
 10
21.46980231350922
 20
8.896717767097152
 10
21.47860961858901
 20
8.895574852373988
 10
21.48739009002552
 20
8.89443692769856
 10
21.49613960146108
 20
8.893304491094431
 10
21.50485592807426
 20
8.892177800227099
 10
21.51353821137149
 20
8.891056940592642
 10
21.52218684180227
 20
8.88994184033484
 10
21.53080334137415
 20
8.888832285062234
 10
21.53939024626783
 20
8.88772793266524
 10
21.54795098945228
 20
8.886628328133216
 10
21.55648863747437
 20
8.885533063416096
 10
21.56496448981096
 20
8.884447017461152
 10
21.57330248272221
 20
8.883379795779767
 10
21.58145359517599
 20
8.882337576990936
 10
21.58939639229647
 20
8.881323045279023
 10
21.59713301364038
 20
8.880335899525928
 10
21.60468516147346
 20
8.879373362443288
 10
21.61209008904672
 20
8.878430689704662
 10
21.61939658887281
 20
8.877501679077703
 10
21.62666098100236
 20
8.876579179556351
 10
21.6339431013003
 20
8.875655600493018
 10
21.64130228972224
 20
8.874723420730767
 10
21.64879337859074
 20
8.873775697735498
 10
21.65646268087174
 20
8.872806576728139
 10
21.66434397845081
 20
8.871811799816821
 10
21.67245451040956
 20
8.870789215129072
 10
21.68079096130195
 20
8.869739285943992
 10
21.68932544943059
 20
8.868665599824437
 10
21.69800151512317
 20
8.867575377749217
 10
21.70673568980644
 20
8.866479272954796
 10
21.71548629630291
 20
8.865382614429295
 10
21.72425298504085
 20
8.864285469657104
 10
21.73303615868908
 20
8.863187809985618
 10
21.74183607771659
 20
8.862089624250886
 10
21.75065286160426
 20
8.860990918396094
 10
21.75948649005653
 20
8.859891715090045
 10
21.76833680421306
 20
8.858792053345631
 10
21.7772035078604
 20
8.8576919881383
 10
21.7860861686437
 20
8.856591590024541
 10
21.79498421927838
 20
8.855490944760349
 10
21.80389695876177
 20
8.854390152919707
 10
21.81282355358483
 20
8.853289329513053
 10
21.82176303894382
 20
8.85218860360576
 10
21.83071431995196
 20
8.851088117936614
 10
21.83967617285114
 20
8.849988028536266
 10
21.84864724622352
 20
8.848888504345744
 10
21.85762604292866
 20
8.847789729153115
 10
21.86661066986341
 20
8.84669193149527
 10
21.87559916576436
 20
8.845595345113096
 10
21.88459027067918
 20
8.844500116132701
 10
21.89358326267624
 20
8.843406323073443
 10
21.90254881467398
 20
8.842317507398997
 10
21.91147442297848
 20
8.841235160652534
 10
21.92040958213647
 20
8.840153257446164
 10
21.92938300237582
 20
8.839068306880392
 10
21.93835399829456
 20
8.837985257955191
 10
21.94732310209621
 20
8.836904081146828
 10
21.95631595370561
 20
8.835821710039613
 10
21.96535784556916
 20
8.834735119293329
 10
21.9744646414784
 20
8.833642417269764
 10
21.98363291074004
 20
8.832544037811523
 10
21.9928423222729
 20
8.831442453979626
 10
22.00207009486932
 20
8.830340433238641
 10
22.01130585797973
 20
8.829239242910539
 10
22.02055092270047
 20
8.82813873888338
 10
22.02980566671429
 20
8.827038891046537
 10
22.03907116568601
 20
8.825939585702972
 10
22.04834890974151
 20
8.824840657941876
 10
22.05764028083461
 20
8.823741952864622
 10
22.06694603011358
 20
8.822643386810737
 10
22.07626575528804
 20
8.82154500858385
 10
22.08559737799554
 20
8.820447060677675
 10
22.09493684956218
 20
8.819350013236428
 10
22.1042790619711
 20
8.818254455520365
 10
22.11361832396463
 20
8.817161041312568
 10
22.12294860160731
 20
8.816070461458116
 10
22.1322631108682
 20
8.814983490280621
 10
22.14155283571663
 20
8.813901155494447
 10
22.15082026028439
 20
8.812823158383299
 10
22.16008247759674
 20
8.811747514571793
 10
22.16936661835576
 20
8.810671077700439
 10
22.17868632069612
 20
8.809592247643886
 10
22.18802164090887
 20
8.808513292620126
 10
22.19733695431665
 20
8.807438294290706
 10
22.20659488336116
 20
8.806371545346452
 10
22.21576928719566
 20
8.805316052853655
 10
22.2248653293554
 20
8.804271215465446
 10
22.23391750582363
 20
8.803233049857377
 10
22.24296041259947
 20
8.802197569263576
 10
22.25200354200341
 20
8.801163693895265
 10
22.26104671770949
 20
8.800131454544324
 10
22.27009091576755
 20
8.799100743100771
 10
22.27913646175933
 20
8.798071523868221
 10
22.28818324218068
 20
8.797043810060172
 10
22.29723091635347
 20
8.796017640234767
 10
22.30627912833758
 20
8.794993054729529
 10
22.31532771884291
 20
8.793970072096112
 10
22.32437692526876
 20
8.792948666844727
 10
22.33342710478825
 20
8.791928799893897
 10
22.34247832073676
 20
8.790910464498589
 10
22.3515305998303
 20
8.789893658054646
 10
22.36058395631099
 20
8.788878379432112
 10
22.36963839262665
 20
8.78786462889159
 10
22.37869390011033
 20
8.786852408000605
 10
22.38775045965981
 20
8.785841719549955
 10
22.39680804241722
 20
8.784832567470076
 10
22.40586661044849
 20
8.783824956747396
 10
22.41492611742301
 20
8.782818893340706
 10
22.42398650929309
 20
8.781814384097497
 10
22.43304772497352
 20
8.780811436670331
 10
22.44210969702113
 20
8.779810059433206
 10
22.45117235231431
 20
8.7788102613979
 10
22.46023561273261
 20
8.777812052130338
 10
22.46929939583622
 20
8.776815441666949
 10
22.47836361554554
 20
8.775820440431028
 10
22.48742818282073
 20
8.774827059149087
 10
22.49649300634125
 20
8.773835308767218
 10
22.5055579931854
 20
8.772845200367456
 10
22.51462304950988
 20
8.771856745084125
 10
22.52368808122933
 20
8.770869954020206
 10
22.53275299469583
 20
8.769884838163699
 10
22.54181769737853
 20
8.768901408303971
 10
22.55088209854311
 20
8.767919674948121
 10
22.55994610993138
 20
8.766939648237336
 10
22.5690096464408
 20
8.765961337863252
 10
22.57807262680404
 20
8.764984752984313
 10
22.58713497426851
 20
8.764009902142124
 10
22.59619661727589
 20
8.763036793177812
 10
22.60525749014174
 20
8.762065433148395
 10
22.61431753373495
 20
8.761095828243121
 10
22.62337669615737
 20
8.760127983699838
 10
22.63243493342329
 20
8.759161903721357
 10
22.64149220380619
 20
8.7581975919627
 10
22.65054845070324
 20
8.757235053148558
 10
22.65960362957827
 20
8.756274290811161
 10
22.66865771556265
 20
8.755315306636751
 10
22.67771070222655
 20
8.754358100582201
 10
22.68676260034997
 20
8.753402670991706
 10
22.69581343669377
 20
8.752449014713397
 10
22.70486325277059
 20
8.751497127216017
 10
22.71391210361601
 20
8.750547002705575
 10
22.72296005655945
 20
8.749598634241985
 10
22.7320071899952
 20
8.748652013855737
 10
22.74105359215349
 20
8.747707132664547
 10
22.75009935987142
 20
8.746763980989998
 10
22.75914459736407
 20
8.74582254847421
 10
22.76818941499541
 20
8.744882824196489
 10
22.77723392804942
 20
8.743944796789977
 10
22.786278255501
 20
8.743008454558308
 10
22.79532251110798
 20
8.742073786433284
 10
22.80436674006192
 20
8.741140788855371
 10
22.81341094891244
 20
8.740209462379178
 10
22.82245514150786
 20
8.739279807722075
 10
22.83149931969452
 20
8.738351825705326
 10
22.84054348368594
 20
8.737425517231548
 10
22.84958763243197
 20
8.73650088326214
 10
22.85863176398788
 20
8.73557792479475
 10
22.86767587588355
 20
8.734656642840706
 10
22.87671996549253
 20
8.733737038402482
 10
22.88576403040127
 20
8.73281911245113
 10
22.89480806877816
 20
8.731902865903736
 10
22.9038520797427
 20
8.730988299600866
 10
22.91289606373466
 20
8.730075414284018
 10
22.92194002288317
 20
8.729164210573065
 10
22.9309839613759
 20
8.7282546889437
 10
22.94002788582812
 20
8.727346849704899
 10
22.94907180551782
 20
8.726440692988971
 10
22.95811572941816
 20
8.72553621902872
 10
22.96715966426503
 20
8.724633428288269
 10
22.9762036163789
 20
8.723732321268498
 10
22.98524759176737
 20
8.722832898497022
 10
22.9942915961292
 20
8.721935160527923
 10
23.00333563485811
 20
8.721039107941479
 10
23.01237971304675
 20
8.72014474134391
 10
23.02142383549067
 20
8.719252061367113
 10
23.03046800669209
 20
8.718361068668375
 10
23.03951223086394
 20
8.717471763930136
 10
23.0485565119337
 20
8.716584147859707
 10
23.05760085354735
 20
8.715698221189001
 10
23.06664525907327
 20
8.714813984674281
 10
23.07568973160615
 20
8.71393143909588
 10
23.08473427397088
 20
8.713050585257954
 10
23.09377888872651
 20
8.712171423988191
 10
23.10282357817014
 20
8.711293956137568
 10
23.1118683443408
 20
8.71041818258007
 10
23.12091318902345
 20
8.709544104212442
 10
23.12995811375275
 20
8.7086717219539
 10
23.13900311981715
 20
8.707801036745879
 10
23.14804820826263
 20
8.706932049551772
 10
23.15709337989675
 20
8.706064761356659
 10
23.16613863529246
 20
8.705199173167031
 10
23.17518397479208
 20
8.70433528601054
 10
23.18422939851118
 20
8.703473100935731
 10
23.1932749063425
 20
8.702612619011766
 10
23.20232049795988
 20
8.701753841328166
 10
23.21136617282212
 20
8.700896768994546
 10
23.22041193017696
 20
8.70004140314035
 10
23.22945776906494
 20
8.699187744914576
 10
23.23850368832335
 20
8.698335795485528
 10
23.24754968659009
 20
8.697485556040527
 10
23.25659576230766
 20
8.696637027785667
 10
23.26564191372699
 20
8.695790211945542
 10
23.27468813891142
 20
8.694945109762969
 10
23.28373443574056
 20
8.694101722498738
 10
23.29278080191425
 20
8.693260051431346
 10
23.30182723495642
 20
8.692420097856713
 10
23.31087373221905
 20
8.691581863087941
 10
23.31992029088606
 20
8.690745348455031
 10
23.32896690797721
 20
8.689910555304626
 10
23.33801358035203
 20
8.689077484999735
 10
23.34706030471376
 20
8.688246138919485
 10
23.35610707761319
 20
8.687416518458835
 10
23.36515389545263
 20
8.686588625028328
 10
23.37420075448981
 20
8.685762460053812
 10
23.38324765084179
 20
8.684938024976187
 10
23.39229458048885
 20
8.684115321251121
 10
23.40134153927844
 20
8.683294350348813
 10
23.41038852292909
 20
8.682475113753691
 10
23.41943552703426
 20
8.681657612964178
 10
23.42848254706636
 20
8.680841849492409
 10
23.43752957838054
 20
8.680027824863973
 10
23.44657661621871
 20
8.67921554061764
 10
23.45562365571339
 20
8.678404998305103
 10
23.46467069189163
 20
8.677596199490711
 10
23.47371771967896
 20
8.676789145751197
 10
23.48276473390322
 20
8.675983838675422
 10
23.49181172929859
 20
8.675180279864099
 10
23.50085870050937
 20
8.674378470929534
 10
23.50990564209403
 20
8.673578413495361
 10
23.518952548529
 20
8.672780109196278
 10
23.52799941421265
 20
8.671983559677766
 10
23.5370462334692
 20
8.671188766595847
 10
23.54609300055259
 20
8.670395731616798
 10
23.55513970965045
 20
8.669604456416898
 10
23.56418635488796
 20
8.668814942682159
 10
23.57323293033181
 20
8.668027192108057
 10
23.58227942999407
 20
8.667241206399269
 10
23.59132584783613
 20
8.666456987269407
 10
23.60037217777259
 20
8.665674536440754
 10
23.6094184136752
 20
8.664893855643997
 10
23.61846454937675
 20
8.664114946617957
 10
23.62751057867498
 20
8.663337811109334
 10
23.63655649533652
 20
8.66256245087243
 10
23.64560229310077
 20
8.661788867668892
 10
23.65464796568384
 20
8.661017063267435
 10
23.66369350678243
 20
8.660247039443596
 10
23.67273891007777
 20
8.659478797979446
 10
23.68178416923953
 20
8.65871234066334
 10
23.69082927792971
 20
8.657947669289644
 10
23.69987422980658
 20
8.657184785658472
 10
23.70891901852857
 20
8.656423691575419
 10
23.71796363775821
 20
8.655664388851299
 10
23.72700808116601
 20
8.654906879301869
 10
23.73605234243438
 20
8.654151164747585
 10
23.74509641526157
 20
8.653397247013304
 10
23.75414029336553
 20
8.65264512792805
 10
23.76318397048789
 20
8.65189480932473
 10
23.77222744039781
 20
8.651146293039872
 10
23.78127069689592
 20
8.650399580913367
 10
23.79031373381824
 20
8.649654674788186
 10
23.79935654504009
 20
8.648911576510135
 10
23.80839912447997
 20
8.648170287927575
 10
23.81744146610352
 20
8.647430810891162
 10
23.82648356392739
 20
8.646693147253582
 10
23.83552541202319
 20
8.645957298869282
 10
23.84456700452137
 20
8.6452232675942
 10
23.85360833561514
 20
8.644491055285522
 10
23.86264939956443
 20
8.643760663801382
 10
23.8716901906997
 20
8.643032095000622
 10
23.88073070342596
 20
8.642305350742518
 10
23.8897709322266
 20
8.641580432886517
 10
23.89881087166738
 20
8.640857343291964
 10
23.90785051640027
 20
8.640136083817845
 10
23.91688986116738
 20
8.639416656322516
 10
23.92592890080492
 20
8.638699062663445
 10
23.93496763024706
 20
8.637983304696927
 10
23.94400604452984
 20
8.637269384277852
 10
23.95304413879514
 20
8.636557303259399
 10
23.96208190829451
 20
8.635847063492802
 10
23.97111934839317
 20
8.635138666827074
 10
23.98015645457383
 20
8.634432115108731
 10
23.9891932224407
 20
8.633727410181551
 10
23.99822964772332
 20
8.633024553886272
 10
24.0072657262805
 20
8.632323548060369
 10
24.01630145410428
 20
8.631624394537752
 10
24.02533682732373
 20
8.630927095148523
 10
24.034371842209
 20
8.630231651718695
 10
24.04340649517513
 20
8.62953806606994
 10
24.05244078278598
 20
8.628846340019316
 10
24.0614747017582
 20
8.628156475379004
 10
24.07050824896508
 20
8.627468473956035
 10
24.07954142144048
 20
8.626782337552036
 10
24.08857421638273
 20
8.626098067962956
 10
24.0976066311586
 20
8.625415666978803
 10
24.10663866330714
 20
8.624735136383383
 10
24.11567031054361
 20
8.624056477954018
 10
24.12470157076344
 20
8.623379693461304
 10
24.13373244204608
 20
8.622704784668826
 10
24.14276292265894
 20
8.622031753332906
 10
24.15179301106132
 20
8.621360601202329
 10
24.16082270590829
 20
8.620691330018072
 10
24.16985200605461
 20
8.620023941513053
 10
24.17888091055865
 20
8.619358437411861
 10
24.18790941868631
 20
8.618694819430476
 10
24.19693753003392
 20
8.6180330892699
 10
24.20596524518447
 20
8.617373248580117
 10
24.21499256501868
 20
8.616715298990415
 10
24.22401949031632
 20
8.616059242128976
 10
24.23304602178452
 20
8.615405079621714
 10
24.24207216008769
 20
8.614752813091021
 10
24.25109790587749
 20
8.614102444154527
 10
24.26012325982283
 20
8.613453974423832
 10
24.2691482226398
 20
8.612807405503282
 10
24.27817279512165
 20
8.612162738988692
 10
24.28719697816879
 20
8.611519976466112
 10
24.29622077281873
 20
8.610879119510576
 10
24.30524418027605
 20
8.610240169684839
 10
24.31426720194237
 20
8.609603128538147
 10
24.32328983944633
 20
8.608967997604972
 10
24.33231209467354
 20
8.608334778403765
 10
24.34133396979657
 20
8.607703472435709
 10
24.35035546730491
 20
8.607074081183462
 10
24.35937659003494
 20
8.606446606109921
 10
24.36839734119988
 20
8.605821048656952
 10
24.3774177244198
 20
8.605197410244162
 10
24.38643774375155
 20
8.604575692267626
 10
24.39545740371875
 20
8.603955896098652
 10
24.40447670934175
 20
8.60333802308253
 10
24.41349566616759
 20
8.602722074537277
 10
24.42251428030003
 20
8.602108051752386
 10
24.4315325584294
 20
8.601495955987584
 10
24.44055050786269
 20
8.600885788471574
 10
24.44956813655345
 20
8.600277550400784
 10
24.45858545313178
 20
8.599671242938121
 10
24.46760246693429
 20
8.599066867211728
 10
24.47661918803408
 20
8.598464424313712
 10
24.48563562727072
 20
8.597863915298923
 10
24.49465179628017
 20
8.597265341183678
 10
24.50366770726605
 20
8.596668702969957
 10
24.51268336439281
 20
8.596074002392155
 10
24.52169876217623
 20
8.59548124166694
 10
24.53071389655836
 20
8.594890422454772
 10
24.53972876631096
 20
8.594301546071926
 10
24.5487433737582
 20
8.59371461377745
 10
24.5577577254996
 20
8.593129627060079
 10
24.56677183313271
 20
8.592546587925196
 10
24.57578571397606
 20
8.591965499181775
 10
24.58479933431661
 20
8.591386367811402
 10
24.59381275641976
 20
8.590809189238477
 10
24.60282738138528
 20
8.590233864147529
 10
24.6118459829931
 20
8.589660199897661
 10
24.62087228559678
 20
8.58908794137624
 10
24.62991054096883
 20
8.588516801917025
 10
24.63896510514608
 20
8.587946494218243
 10
24.64804001527506
 20
8.587376761260705
 10
24.65713868957132
 20
8.586807399782642
 10
24.6662808259679
 20
8.586237242295812
 10
24.67551146848478
 20
8.585663601528509
 10
24.68486036391716
 20
8.585084720072124
 10
24.69433948297821
 20
8.584499918702407
 10
24.70394591476731
 20
8.58390942020625
 10
24.71366476123824
 20
8.583314173208442
 10
24.72347203166741
 20
8.582715675998441
 10
24.73333753712202
 20
8.582115800357138
 10
24.74322778492835
 20
8.581516615383611
 10
24.7531088731399
 20
8.580920211321906
 10
24.76294938500561
 20
8.580328523387798
 10
24.77272328343813
 20
8.579743155595551
 10
24.78241280548194
 20
8.579165204584683
 10
24.79201135678161
 20
8.578595083446735
 10
24.80152640605002
 20
8.57803234555204
 10
24.81098237953654
 20
8.577475508376481
 10
24.82042132063317
 20
8.576922013232302
 10
24.82987340063936
 20
8.576370063687447
 10
24.83937121346033
 20
8.575817880893383
 10
24.84896211815193
 20
8.575262873253393
 10
24.85868069161739
 20
8.574703144892893
 10
24.86853058222845
 20
8.574138495154032
 10
24.87849951643316
 20
8.573569603436665
 10
24.88856414186889
 20
8.572997766940032
 10
24.89869307095212
 20
8.572424733870198
 10
24.9088541711347
 20
8.571852301707416
 10
24.91902910980622
 20
8.571281515079101
 10
24.92918895654185
 20
8.570714020711676
 10
24.93929141733845
 20
8.570152212159284
 10
24.94929110570251
 20
8.569598649603186
 10
24.95914984552742
 20
8.569055477885884
 10
24.96884697397094
 20
8.568523844545271
 10
24.97838964433248
 20
8.568003317848772
 10
24.98782309153757
 20
8.567491306909619
 10
24.997215613449
 20
8.566983896401493
 10
25.00658819222396
 20
8.566479811026564
 10
25.01593238347235
 20
8.565979449882755
 10
25.02523367720067
 20
8.565483573863412
 10
25.03448762018474
 20
8.564992394622834
 10
25.0436960744558
 20
8.564505783269083
 10
25.05286131758231
 20
8.564023597023874
 10
25.06198780978627
 20
8.563545576566056
 10
25.07108159596857
 20
8.563071378239575
 10
25.08014968062779
 20
8.562600607796436
 10
25.08919940277879
 20
8.562132854139727
 10
25.09823781087132
 20
8.561667723066584
 10
25.10727103770875
 20
8.561204871011209
 10
25.1163036753667
 20
8.560744038787857
 10
25.12533815011168
 20
8.560285085333825
 10
25.13437409731977
 20
8.55982802145245
 10
25.14340773639525
 20
8.559373043556105
 10
25.15243194389396
 20
8.558920531960492
 10
25.16144392112057
 20
8.558470659517329
 10
25.17044552885628
 20
8.55802336306913
 10
25.17943925219285
 20
8.557578544284384
 10
25.18842777784114
 20
8.557136090616754
 10
25.19741363739765
 20
8.556695892942812
 10
25.20639885061091
 20
8.556257863199801
 10
25.215384568648
 20
8.555821952023386
 10
25.22437071736101
 20
8.555388166385382
 10
25.23335604738599
 20
8.554956567833167
 10
25.24233995477926
 20
8.554527186458948
 10
25.25132225035993
 20
8.554100032519016
 10
25.26030279185556
 20
8.553675113989028
 10
25.26928147414959
 20
8.553252436956142
 10
25.27825821958108
 20
8.552832006008657
 10
25.28723296824468
 20
8.552413824625636
 10
25.29620566829051
 20
8.551997895566548
 10
25.30517626628929
 20
8.551584221258405
 10
25.31414471105811
 20
8.551172803671251
 10
25.32311097623508
 20
8.550763643498981
 10
25.33207505007468
 20
8.550356740591762
 10
25.34103693271408
 20
8.549952094087919
 10
25.34999663579447
 20
8.549549702454886
 10
25.35895418208245
 20
8.549149563530098
 10
25.36790960509131
 20
8.548751674561918
 10
25.37686294870246
 20
8.548356032250552
 10
25.38581426678675
 20
8.547962632788967
 10
25.3947636228258
 20
8.547571471903799
 10
25.40371108953337
 20
8.547182544896289
 10
25.41265674847676
 20
8.546795846683171
 10
25.42160068969806
 20
8.546411371837614
 10
25.43054301133559
 20
8.54602911463013
 10
25.43948381924521
 20
8.545649069069487
 10
25.44842322662168
 20
8.545271228943629
 10
25.45736135362004
 20
8.544895587860596
 10
25.46629832690859
 20
8.544522139266792
 10
25.47523427780154
 20
8.544150876432411
 10
25.48416933945177
 20
8.54378179288034
 10
25.49310364595217
 20
8.543414882565397
 10
25.50203733181156
 20
8.543050139878408
 10
25.51097053143077
 20
8.542687559649262
 10
25.51990337857895
 20
8.542327137149957
 10
25.52883600586965
 20
8.541968868097661
 10
25.53776854423704
 20
8.541612748657769
 10
25.54670112241215
 20
8.541258775446937
 10
25.55563386639896
 20
8.540906945536168
 10
25.56456689895068
 20
8.540557256453839
 10
25.5735003390458
 20
8.540209706188765
 10
25.58243430136448
 20
8.539864293193252
 10
25.59136889576453
 20
8.539521016386157
 10
25.60030422675771
 20
8.539179875155936
 10
25.60924039298589
 20
8.53884086936369
 10
25.61817748669723
 20
8.538503999346238
 10
25.62711559322237
 20
8.538169265919155
 10
25.63605479045059
 20
8.537836670379832
 10
25.64499514830606
 20
8.537506214510532
 10
25.65393672822394
 20
8.537177900581436
 10
25.66287958262663
 20
8.536851731353714
 10
25.67182375439993
 20
8.536527710082546
 10
25.68076927636921
 20
8.536205840520226
 10
25.68971617077565
 20
8.535886126919166
 10
25.69866444875235
 20
8.535568574034977
 10
25.70761410980056
 20
8.535253187129521
 10
25.71656514126587
 20
8.534939971973956
 10
25.72551751781437
 20
8.534628934851804
 10
25.73447120090886
 20
8.534320082561983
 10
25.74342613828501
 20
8.534013422421887
 10
25.75238226342755
 20
8.533708962270424
 10
25.76133949504649
 20
8.533406710471064
 10
25.77029773480838
 20
8.533106675989412
 10
25.77925683221219
 20
8.532808869865071
 10
25.78821660356866
 20
8.532513304353932
 10
25.79717687960076
 20
8.532219990887197
 10
25.80613750675539
 20
8.531928940026856
 10
25.815098346491
 20
8.531640161507933
 10
25.82405927456525
 20
8.531353664280747
 10
25.83302018032268
 20
8.531069456553183
 10
25.84198096598238
 20
8.530787545832936
 10
25.85094154592562
 20
8.53050793896978
 10
25.85990184598357
 20
8.530230642197826
 10
25.86886180272486
 20
8.529955661177792
 10
25.87782136274333
 20
8.529683001039236
 10
25.88678048194566
 20
8.52941266642285
 10
25.89573912483902
 20
8.529144661522691
 10
25.90469726381873
 20
8.528878990128458
 10
25.91365487845592
 20
8.528615655667747
 10
25.92261195478522
 20
8.528354661248311
 10
25.93156848459238
 20
8.52809600970032
 10
25.94052446470195
 20
8.527839703618617
 10
25.94947989626491
 20
8.527585745404984
 10
25.95843478404639
 20
8.527334137310406
 10
25.96738913571327
 20
8.527084881477311
 10
25.97634296112188
 20
8.526837979981852
 10
25.98529627160561
 20
8.52659343487616
 10
25.99424907926265
 20
8.526351248230595
 10
26.00320139624356
 20
8.526111422176017
 10
26.01215323403899
 20
8.525873958946041
 10
26.0211046027673
 20
8.525638860919301
 10
26.03005551046229
 20
8.525406130661702
 10
26.03900596236077
 20
8.525175770968687
 10
26.04795596019024
 20
8.524947784907492
 10
26.05690550145665
 20
8.524722175859414
 10
26.06585457873187
 20
8.524498947562062
 10
26.07480317898452
 20
8.524278104148319
 10
26.08375128966664
 20
8.5240596496708
 10
26.09269890840748
 20
8.523843587373848
 10
26.10164603403761
 20
8.523629920396899
 10
26.11059266514465
 20
8.523418651886496
 10
26.11953880008159
 20
8.523209784996117
 10
26.12848443697514
 20
8.52300332288596
 10
26.13742957373404
 20
8.522799268722771
 10
26.14637420805748
 20
8.522597625679638
 10
26.15531833744335
 20
8.522398396935813
 10
26.16426195919667
 20
8.522201585676496
 10
26.17320507043789
 20
8.522007195092667
 10
26.1821476681112
 20
8.521815228380878
 10
26.19108974899296
 20
8.521625688743071
 10
26.20003130969997
 20
8.521438579386373
 10
26.20897234669783
 20
8.521253903522914
 10
26.21791285630933
 20
8.521071664369634
 10
26.22685283472272
 20
8.52089186514808
 10
26.2357922780001
 20
8.520714509084232
 10
26.24473118208575
 20
8.520539599408285
 10
26.2536695428145
 20
8.520367139354483
 10
26.26260735592001
 20
8.520197132160911
 10
26.27154461704319
 20
8.520029581069302
 10
26.28048132174049
 20
8.519864489324852
 10
26.28941746549227
 20
8.519701860176031
 10
26.29835304371111
 20
8.519541696874366
 10
26.30728805175023
 20
8.519384002674282
 10
26.31622248491173
 20
8.519228780832884
 10
26.32515633845501
 20
8.51907603460978
 10
26.33408960760509
 20
8.518925767266877
 10
26.34302228756093
 20
8.518777982068201
 10
26.35195437350384
 20
8.518632682279687
 10
26.36088586060574
 20
8.518489871169007
 10
26.36981674403755
 20
8.518349552005362
 10
26.37874701897756
 20
8.518211728059295
 10
26.3876766806197
 20
8.518076402602501
 10
26.39660572418193
 20
8.51794357890763
 10
26.4055341449146
 20
8.517813260248095
 10
26.41446193810877
 20
8.517685449897882
 10
26.42338909910453
 20
8.517560151131357
 10
26.43231562329938
 20
8.517437367223076
 10
26.44124150615658
 20
8.517317101447583
 10
26.45016674321345
 20
8.517199357079222
 10
26.45909133008975
 20
8.517084137391961
 10
26.46801526249603
 20
8.516971445659164
 10
26.47693853624192
 20
8.516861285153433
 10
26.48586114724455
 20
8.516753659146402
 10
26.49478309153682
 20
8.516648570908539
 10
26.5037043652758
 20
8.516546023708961
 10
26.51262496475105
 20
8.516446020815235
 10
26.52154488639294
 20
8.516348565493197
 10
26.53046412678105
 20
8.516253661006746
 10
26.53938268265247
 20
8.516161310617663
 10
26.54830055091013
 20
8.516071517585409
 10
26.55721772863123
 20
8.515984285166936
 10
26.56613421307545
 20
8.515899616616504
 10
26.57505000169343
 20
8.515817515185466
 10
26.583965092135
 20
8.515737984122099
 10
26.5928794822576
 20
8.515661026671399
 10
26.6017931701346
 20
8.515586646074886
 10
26.61070615406363
 20
8.515514845570432
 10
26.61961843257492
 20
8.515445628392033
 10
26.62853000443969
 20
8.515378997769651
 10
26.63744086867844
 20
8.515314956929
 10
26.64635102456933
 20
8.515253509091362
 10
26.65526047165648
 20
8.515194657473401
 10
26.66416920975838
 20
8.515138405286947
 10
26.67307723897615
 20
8.515084755738831
 10
26.68198456031072
 20
8.515033712027188
 10
26.68468491110785
 20
8.515031572549013
 10
26.6873815776752
 20
8.515055447364712
 10
26.69007459517278
 20
8.515105483524653
 10
26.69276377192851
 20
8.515181801411765
 10
26.69544871767161
 20
8.515284497381179
 10
26.69812887174763
 20
8.515413646399894
 10
26.70080353133349
 20
8.515569304686405
 10
26.70347187965245
 20
8.515751512350385
 10
26.70613301418915
 20
8.51596029603232
 10
26.70878597490466
 20
8.516195671543165
 10
26.71142977245145
 20
8.516457646504006
 10
26.71406341638841
 20
8.516746222985705
 10
26.7166859433959
 20
8.517061400148557
 10
26.71929644549073
 20
8.51740317688195
 10
26.72189409824119
 20
8.517771554443999
 10
26.72447818898209
 20
8.518166539101223
 10
26.72704814502973
 20
8.518588144768182
 10
26.72960356189697
 20
8.519036395647141
 10
26.7321442315082
 20
8.519511328867718
 10
26.73467017046518
 20
8.520012997624869
 10
26.73718161211442
 20
8.520541538224289
 10
26.73967874073504
 20
8.521097187548042
 10
26.74216149990626
 20
8.5216801129756
 10
26.7446296086842
 20
8.522290400624967
 10
26.74708259040197
 20
8.522928064632193
 10
26.74951980146986
 20
8.523593056430888
 10
26.75194046017535
 20
8.524285274031722
 10
26.7543436754832
 20
8.525004571301957
 10
26.75672847583558
 20
8.525750767244941
 10
26.75909383795207
 20
8.526523655279639
 10
26.7614387156299
 20
8.527323012520128
 10
26.7637620685439
 20
8.528148609055124
 10
26.76606289104662
 20
8.529000217227487
 10
26.76834024096847
 20
8.52987762091373
 10
26.77059326841773
 20
8.530780624803552
 10
26.77282124458074
 20
8.531709063679322
 10
26.77502359052188
 20
8.53266281169561
 10
26.77719990598373
 20
8.5336417916587
 10
26.77934999818712
 20
8.534645984306099
 10
26.78147391510577
 20
8.535675460963233
 10
26.78357188029553
 20
8.536730497097178
 10
26.78564397105243
 20
8.537811329136436
 10
26.78769004703037
 20
8.538918042451919
 10
26.78970977658639
 20
8.540050587478205
 10
26.79170266349072
 20
8.541208796530561
 10
26.79366807363677
 20
8.542392400621931
 10
26.79560526175117
 20
8.543601046279936
 10
26.7975133981038
 20
8.544834312363875
 10
26.79939159521778
 20
8.546091726881716
 10
26.80123893457951
 20
8.547372783807107
 10
26.80305449334867
 20
8.548676959896361
 10
26.80483737106828
 20
8.550003731505471
 10
26.80658671637468
 20
8.551352591407086
 10
26.80830175370752
 20
8.552723065607532
 10
26.8099818100199
 20
8.554114730163792
 10
26.81162634148825
 20
8.55552722800053
 10
26.81323496022245
 20
8.556960285727052
 10
26.81480746097577
 20
8.558413730454342
 10
26.81634385035124
 20
8.559887533415771
 10
26.81784430207466
 20
8.561381968123606
 10
26.81930890633735
 20
8.562897280530826
 10
26.82073760539886
 20
8.564433512850317
 10
26.82213021192843
 20
8.565990524832335
 10
26.82348642782574
 20
8.56756801673108
 10
26.8248058630417
 20
8.569165552271313
 10
26.82608805439917
 20
8.570782581614926
 10
26.8273324844138
 20
8.572418464327556
 10
26.82853860011471
 20
8.574072492345186
 10
26.82970583186532
 20
8.575743912940712
 10
26.83083361218408
 20
8.577431951690572
 10
26.83192139456528
 20
8.579135835441324
 10
26.83296867229973
 20
8.580854815276241
 10
26.83397499729563
 20
8.582588189481921
 10
26.83493999889926
 20
8.584335326514857
 10
26.83586340271578
 20
8.586095687968061
 10
26.83674504942997
 20
8.587868851537647
 10
26.83758491362674
 20
8.589654533993773
 10
26.83838310441522
 20
8.591452693756369
 10
26.83913975122674
 20
8.593263605669724
 10
26.83985492798387
 20
8.5950874117276
 10
26.84052865778622
 20
8.596924048365147
 10
26.8411609206943
 20
8.598773270415588
 10
26.84175166151357
 20
8.600634675066874
 10
26.8423007975783
 20
8.602507725818375
 10
26.8428082265355
 20
8.604391776437548
 10
26.84327383412887
 20
8.606286094916615
 10
26.84369750198276
 20
8.608189887429231
 10
26.84407911538608
 20
8.610102322287161
 10
26.84441857107624
 20
8.612022553896968
 10
26.84471578502305
 20
8.613949746716656
 10
26.84497070021274
 20
8.615883099212378
 10
26.84518329443181
 20
8.61782186781509
 10
26.84535358805102
 20
8.619765390877232
 10
26.8454816518093
 20
8.6217131126294
 10
26.84556913504528
 20
8.623699123759843
 10
26.95012399445325
 20
11.76701415217896
 42
0.3547110667106481
 10
26.79712733523738
 20
11.96859082415572
 42
0.0781944450061915
  0
LWPOLYLINE
  5
29A38
330
1F
100
AcDbEntity
  8
NOCUT
100
AcDbPolyline
 90
       12
 70
     1
 43
0.0
 10
19.75022150724529
 20
11.76082143160258
 42
-0.0506004567874689
 10
23.78492601920132
 20
11.6053613748314
 10
23.78492599999998
 20
11.605361
 10
26.08350399999998
 20
11.282317
 10
26.08350386057604
 20
11.28231684124493
 42
-0.3738846794848055
 10
26.6
 20
10.68815599999999
 10
26.59999999999999
 20
0.0
 10
0.0
 20
0.0
 10
0.0
 20
10.5
 10
11.95846
 20
10.5
 42
0.0523581417014647
 10
12.99705003335589
 20
10.60905625235642
 10
18.08693096663037
 20
11.69094374764066
 42
-0.0838227370091856
  0
MTEXT
  5
29AE0
330
1F
100
AcDbEntity
  8
SK6
100
AcDbMText
 10
-21.45350888589809
 20
-29.53455607650946
 30
0.0
 40
3.5
 41
49.98568165846803
 71
     1
 72
     1
  1
12L8D025027X7R00
  7
MM_STANDARD
 73
     1
 44
1.0
1001
ACAD
1000
MTEXTBEGIN
1070
    73
1070
     1
1070
    44
1040
1.0
1070
    74
1070
     0
1000
MTEXTEND
  0
ENDSEC
  0
SECTION
  2
OBJECTS
  0
DICTIONARY
  5
C
330
0
100
AcDbDictionary
281
     1
  3
ACAD_2007HEADERVARS_RT
350
29AE5
  3
ACAD_CIP_PREVIOUS_PRODUCT_INFO
350
741
  3
ACAD_COLOR
350
6C
  3
ACAD_DETAILVIEWSTYLE
350
8E4
  3
ACAD_GROUP
350
D
  3
ACAD_IMAGE_VARS
350
959
  3
ACAD_LAYOUT
350
1A
  3
ACAD_MATERIAL
350
6B
  3
ACAD_MLEADERSTYLE
350
43C
  3
ACAD_MLINESTYLE
350
17
  3
ACAD_PLOTSETTINGS
350
19
  3
ACAD_PLOTSTYLENAME
350
E
  3
ACAD_SCALELIST
350
99
  3
ACAD_SECTIONVIEWSTYLE
350
8E2
  3
ACAD_TABLESTYLE
350
92
  3
ACAD_VISUALSTYLE
350
3F2
  3
ACDB_RECOMPOSE_DATA
350
29AE3
  3
ACDBHEADERROUNDTRIPXREC
350
299E9
  3
AcDbVariableDictionary
350
59
  3
ACMDICTIONARY
350
76D
  3
AEC_PROPERTY_SET_DEFS
350
5CF
  3
AMG
350
743
  3
AMGSNAPSETTINGS
350
7F6
  3
APPDATA
350
958
  3
ASE_INDEX_DICTIONARY
350
8C6
  3
DWGPROPS
350
29AE4
  0
DICTIONARY
  5
29990
330
2
100
AcDbDictionary
280
     1
281
     1
  3
ACAD_LAYERFILTERS
360
6C6
  3
ACAD_LAYERSTATES
360
17C7
  3
ACLYDICTIONARY
360
6C5
  0
DICTIONARY
  5
29986
330
10
100
AcDbDictionary
280
     1
281
     1
  3
ADSK_XREC_LAYER_RECONCILED
360
904
  0
DICTIONARY
  5
29987
330
23
100
AcDbDictionary
280
     1
281
     1
  3
ADSK_XREC_LAYER_RECONCILED
360
905
  0
DICTIONARY
  5
29988
330
25
100
AcDbDictionary
280
     1
281
     1
  3
ADSK_XREC_LAYER_RECONCILED
360
907
  0
DICTIONARY
  5
29989
330
173A
100
AcDbDictionary
280
     1
281
     1
  3
ADSK_XREC_LAYER_RECONCILED
360
908
  0
DICTIONARY
  5
2998A
330
2A
100
AcDbDictionary
280
     1
281
     1
  3
ADSK_XREC_LAYER_RECONCILED
360
90B
  0
DICTIONARY
  5
2998B
330
2E
100
AcDbDictionary
280
     1
281
     1
  3
ADSK_XREC_LAYER_RECONCILED
360
90E
  0
DICTIONARY
  5
2998C
330
375
100
AcDbDictionary
280
     1
281
     1
  3
ADSK_XREC_LAYER_RECONCILED
360
90F
  0
DICTIONARY
  5
2998D
330
376
100
AcDbDictionary
280
     1
281
     1
  3
ADSK_XREC_LAYER_RECONCILED
360
910
  0
DICTIONARY
  5
2998E
330
49B
100
AcDbDictionary
280
     1
281
     1
  3
ADSK_XREC_LAYER_RECONCILED
360
918
  0
DICTIONARY
  5
299E6
330
1F
100
AcDbDictionary
280
     1
281
     1
  3
ACAD_SORTENTS
360
299E7
  0
DICTIONARY
  5
29AE5
102
{ACAD_REACTORS
330
C
102
}
330
C
100
AcDbDictionary
281
     1
  3
DIMARCSYM
350
29AE6
  3
DIMLTEX1
350
29AE8
  3
DIMLTEX2
350
29AE9
  3
DIMLTYPE
350
29AE7
  0
XRECORD
  5
741
102
{ACAD_REACTORS
330
C
102
}
330
C
100
AcDbXrecord
280
     1
300
ACDLT
300
2015
300
ACDLT_F_S
  0
DICTIONARY
  5
6C
102
{ACAD_REACTORS
330
C
102
}
330
C
100
AcDbDictionary
281
     1
  0
DICTIONARY
  5
8E4
102
{ACAD_REACTORS
330
C
102
}
330
C
100
AcDbDictionary
281
     1
  3
Metric50
350
29A25
  0
DICTIONARY
  5
D
102
{ACAD_REACTORS
330
C
102
}
330
C
100
AcDbDictionary
281
     1
  0
RASTERVARIABLES
  5
959
102
{ACAD_REACTORS
330
C
102
}
330
C
100
AcDbRasterVariables
 90
        0
 70
     1
 71
     1
 72
     1
  0
DICTIONARY
  5
1A
102
{ACAD_REACTORS
330
C
102
}
330
C
100
AcDbDictionary
281
     1
  3
Layout1
350
74
  3
Model
350
22
  0
DICTIONARY
  5
6B
102
{ACAD_REACTORS
330
C
102
}
330
C
100
AcDbDictionary
281
     1
  3
ByBlock
350
299FA
  3
ByLayer
350
299F2
  3
Global
350
29A02
  0
DICTIONARY
  5
43C
102
{ACAD_REACTORS
330
C
102
}
330
C
100
AcDbDictionary
281
     1
  3
Standard
350
29A23
  0
DICTIONARY
  5
17
102
{ACAD_REACTORS
330
C
102
}
330
C
100
AcDbDictionary
281
     1
  3
Standard
350
18
  0
DICTIONARY
  5
19
102
{ACAD_REACTORS
330
C
102
}
330
C
100
AcDbDictionary
281
     1
  0
ACDBDICTIONARYWDFLT
  5
E
102
{ACAD_REACTORS
330
C
102
}
330
C
100
AcDbDictionary
281
     1
  3
Normal
350
F
100
AcDbDictionaryWithDefault
340
F
  0
DICTIONARY
  5
99
102
{ACAD_REACTORS
330
C
102
}
330
C
100
AcDbDictionary
281
     1
  3
A0
350
9A
  3
A1
350
9B
  3
A2
350
9C
  3
A3
350
9D
  3
A4
350
9E
  3
A5
350
9F
  3
A6
350
A0
  3
A7
350
A1
  3
A8
350
A2
  3
A9
350
A3
  3
B0
350
A4
  3
B1
350
A5
  3
B2
350
A6
  3
B3
350
A7
  3
B4
350
A8
  3
B5
350
A9
  3
B6
350
AA
  3
B7
350
AB
  3
B8
350
AC
  3
B9
350
AD
  3
C0
350
AE
  3
C1
350
AF
  3
C2
350
B0
  3
C3
350
B1
  3
C4
350
B2
  3
C5
350
B3
  3
C6
350
B4
  3
C7
350
B5
  3
C8
350
B6
  3
C9
350
B7
  3
D0
350
B8
  3
D1
350
B9
  3
D2
350
BA
  0
DICTIONARY
  5
8E2
102
{ACAD_REACTORS
330
C
102
}
330
C
100
AcDbDictionary
281
     1
  3
Metric50
350
29A24
  0
DICTIONARY
  5
92
102
{ACAD_REACTORS
330
C
102
}
330
C
100
AcDbDictionary
281
     1
  3
Standard
350
29A22
  0
DICTIONARY
  5
3F2
102
{ACAD_REACTORS
330
C
102
}
330
C
100
AcDbDictionary
281
     1
  3
2dWireframe
350
29A0F
  3
Basic
350
29A0E
  3
Brighten
350
29A15
  3
ColorChange
350
29A19
  3
Conceptual
350
29A12
  3
Dim
350
29A14
  3
EdgeColorOff
350
29A21
  3
Facepattern
350
29A18
  3
Flat
350
29A0A
  3
FlatWithEdges
350
29A0B
  3
Gouraud
350
29A0C
  3
GouraudWithEdges
350
29A0D
  3
Hidden
350
29A11
  3
JitterOff
350
29A1F
  3
Linepattern
350
29A17
  3
OverhangOff
350
29A20
  3
Realistic
350
29A13
  3
Shaded
350
29A1E
  3
Shaded with edges
350
29A1D
  3
Shades of Gray
350
29A1A
  3
Sketchy
350
29A1B
  3
Thicken
350
29A16
  3
Wireframe
350
29A10
  3
X-Ray
350
29A1C
  0
XRECORD
  5
29AE3
102
{ACAD_REACTORS
330
C
102
}
330
C
100
AcDbXrecord
280
     1
 90
        1
330
29A22
  0
DICTIONARY
  5
299E9
102
{ACAD_REACTORS
330
C
102
}
330
C
100
AcDbDictionary
281
     1
  3
COLORDICT
350
299EA
  3
MATERIALDICT
350
299EB
  0
DICTIONARY
  5
59
102
{ACAD_REACTORS
330
C
102
}
330
C
100
AcDbDictionary
281
     1
  3
CANNOSCALE
350
299E8
  3
CMLEADERSTYLE
350
29A4B
  3
CTABLESTYLE
350
98
  3
CVIEWDETAILSTYLE
350
8FB
  3
CVIEWSECTIONSTYLE
350
8FC
  3
DIMASSOC
350
359
  3
HALOGAP
350
AF7
  3
HIDETEXT
350
358
  3
INDEXCTL
350
9BE
  3
LAYEREVAL
350
7AE
  3
LAYERNOTIFY
350
7AF
  3
LIGHTINGUNITS
350
44A
  3
MSLTSCALE
350
448
  3
SORTENTS
350
9BD
  3
XCLIPFRAME
350
29AE1
  0
DICTIONARY
  5
76D
102
{ACAD_REACTORS
330
C
102
}
330
C
100
AcDbDictionary
281
     1
  3
ACMSTDDICTIONARY
350
76F
  0
DICTIONARY
  5
5CF
102
{ACAD_REACTORS
330
C
102
}
330
C
100
AcDbDictionary
281
     1
  0
DICTIONARY
  5
743
102
{ACAD_REACTORS
330
C
102
}
330
C
100
AcDbDictionary
281
     1
  3
ACMGSETTINGS
350
744
  0
DICTIONARY
  5
7F6
102
{ACAD_REACTORS
330
C
102
}
330
C
100
AcDbDictionary
281
     1
  0
DICTIONARY
  5
958
102
{ACAD_REACTORS
330
C
102
}
330
C
100
AcDbDictionary
281
     1
  0
DICTIONARY
  5
8C6
102
{ACAD_REACTORS
330
C
102
}
330
C
100
AcDbDictionary
281
     1
  3
ASEBLOCKHIERARCHYINDEXRECORD
350
8C7
  0
XRECORD
  5
29AE4
102
{ACAD_REACTORS
330
C
102
}
330
C
100
AcDbXrecord
280
     1
  1
DWGPROPS COOKIE
  2

  3

  4

  6

  7

  8
ruebsamenm
  9

300
=
301
=
302
=
303
=
304
=
305
=
306
=
307
=
308
=
309
=
 40
4096.72692599537
 41
2453353.800459155
 42
2460185.583365047
  1

 90
        0
  0
DICTIONARY
  5
6C6
102
{ACAD_REACTORS
330
29990
102
}
330
29990
100
AcDbDictionary
281
     1
  0
DICTIONARY
  5
17C7
102
{ACAD_REACTORS
330
29990
102
}
330
29990
100
AcDbDictionary
281
     1
  0
DICTIONARY
  5
6C5
102
{ACAD_REACTORS
330
29990
102
}
330
29990
100
AcDbDictionary
281
     1
  0
XRECORD
  5
904
102
{ACAD_REACTORS
330
29986
102
}
330
29986
100
AcDbXrecord
280
     1
290
     1
  0
XRECORD
  5
905
102
{ACAD_REACTORS
330
29987
102
}
330
29987
100
AcDbXrecord
280
     1
290
     1
  0
XRECORD
  5
907
102
{ACAD_REACTORS
330
29988
102
}
330
29988
100
AcDbXrecord
280
     1
290
     1
  0
XRECORD
  5
908
102
{ACAD_REACTORS
330
29989
102
}
330
29989
100
AcDbXrecord
280
     1
290
     1
  0
XRECORD
  5
90B
102
{ACAD_REACTORS
330
2998A
102
}
330
2998A
100
AcDbXrecord
280
     1
290
     1
  0
XRECORD
  5
90E
102
{ACAD_REACTORS
330
2998B
102
}
330
2998B
100
AcDbXrecord
280
     1
290
     1
  0
XRECORD
  5
90F
102
{ACAD_REACTORS
330
2998C
102
}
330
2998C
100
AcDbXrecord
280
     1
290
     1
  0
XRECORD
  5
910
102
{ACAD_REACTORS
330
2998D
102
}
330
2998D
100
AcDbXrecord
280
     1
290
     1
  0
XRECORD
  5
918
102
{ACAD_REACTORS
330
2998E
102
}
330
2998E
100
AcDbXrecord
280
     1
290
     1
  0
SORTENTSTABLE
  5
299E7
102
{ACAD_REACTORS
330
299E6
102
}
330
299E6
100
AcDbSortentsTable
330
1F
331
C42D
  5
C930
331
C258
  5
C2E4
331
CC4F
  5
E102
331
12C17
  5
12BB5
331
1289D
  5
12C93
331
C178
  5
C255
331
CA17
  5
DCBB
331
DCBB
  5
E533
331
12C93
  5
12C2B
331
1C54F
  5
1C6B9
331
C935
  5
D8A3
331
DED7
  5
E6D6
331
1C476
  5
1C6C7
331
C182
  5
C258
331
CB29
  5
DECF
331
1C632
  5
1C1E5
331
12B40
  5
12AA7
331
E102
  5
C79F
331
29A38
  5
2930E
331
12AA7
  5
12A1A
331
12A1A
  5
1299A
331
CC4B
  5
DED7
331
1C851
  5
1C632
331
E105
  5
C7A3
331
1C484
  5
1C740
331
C2E1
  5
C36E
331
12AAA
  5
12A1D
331
12A1D
  5
1299D
331
12C16
  5
12BA1
331
D8A3
  5
E32B
331
12895
  5
12C8B
331
E438
  5
C652
331
1289C
  5
12C92
331
C2E4
  5
C377
331
CA16
  5
DAF5
331
DAF2
  5
E438
331
CB25
  5
DCBF
331
12C92
  5
12C17
331
1C54E
  5
1C640
331
DECF
  5
E6D2
331
C934
  5
D89C
331
DAF5
  5
E441
331
D588
  5
E20E
331
1D920
  5
1DA40
331
C36E
  5
C85B
331
E537
  5
C182
331
C85B
  5
CC50
331
1C640
  5
1C1E8
331
E6D6
  5
CB29
331
1C74E
  5
1C484
331
D89C
  5
E328
331
12C8B
  5
12C16
331
1299A
  5
12895
331
12AA6
  5
12A19
331
12A19
  5
1289D
331
1D6E2
  5
1D913
331
1C850
  5
1C54F
331
CA12
  5
DAF2
331
12BA1
  5
12B2B
331
1299D
  5
1289C
331
1C6C7
  5
1C3A1
331
12BB6
  5
12B41
331
C930
  5
D590
331
29A30
  5
2907D
331
E533
  5
C178
331
E20E
  5
C42D
331
E6D2
  5
CB25
331
C377
  5
C863
331
CC50
  5
E105
331
12B2B
  5
12AA6
331
1C6B9
  5
1C393
331
C7A3
  5
CC4F
331
E441
  5
C65C
331
1C740
  5
1C476
331
C652
  5
CA16
331
1C393
  5
1C850
331
E328
  5
C533
331
C255
  5
C2E1
331
12C2B
  5
12BB6
331
1D913
  5
1D920
331
DCBF
  5
E537
331
E32B
  5
C536
331
C65C
  5
CA17
331
1C7C7
  5
1C54E
331
12B41
  5
12AAA
331
1C1E5
  5
1C74E
331
C533
  5
C935
331
12BB5
  5
12B40
331
E217
  5
C437
331
1C3A1
  5
1C851
331
1D6D5
  5
1D6E2
331
C79F
  5
CC4B
331
C437
  5
C934
331
1C1E8
  5
1C7C7
331
C536
  5
CA12
331
D590
  5
E217
331
C863
  5
D588
331
1DA40
  5
1D6D5
  0
XRECORD
  5
29AE6
102
{ACAD_REACTORS
330
29AE5
102
}
330
29AE5
100
AcDbXrecord
280
     1
 70
     1
  0
XRECORD
  5
29AE8
102
{ACAD_REACTORS
330
29AE5
102
}
330
29AE5
100
AcDbXrecord
280
     1
340
14
  0
XRECORD
  5
29AE9
102
{ACAD_REACTORS
330
29AE5
102
}
330
29AE5
100
AcDbXrecord
280
     1
340
14
  0
XRECORD
  5
29AE7
102
{ACAD_REACTORS
330
29AE5
102
}
330
29AE5
100
AcDbXrecord
280
     1
340
14
  0
ACDBDETAILVIEWSTYLE
  5
29A25
102
{ACAD_XDICTIONARY
360
29B21
102
}
102
{ACAD_REACTORS
330
8E4
102
}
330
8E4
100
AcDbModelDocViewStyle
 70
     0
  3
Metric50
290
     0
100
AcDbDetailViewStyle
 70
     0
 71
     0
 90
        3
 71
     1
340
11
 40
5.0
340
0
 40
5.0
300

 40
0.0
280
     1
 71
     2
340
16
 90
       25
 71
     3
340
11
 40
5.0
 90
        0
 40
15.0
 90
        1
300
%<\AcVar ViewDetailId>% (%<\AcVar ViewScale \f "%sn">%)
 71
     4
340
16
 90
       25
340
16
 90
       25
280
     0
  0
LAYOUT
  5
74
102
{ACAD_XDICTIONARY
360
29AEC
102
}
102
{ACAD_REACTORS
330
1A
102
}
330
1A
100
AcDbPlotSettings
  1

  2
\\ADSCCNDC1\hq601xrx1
  4

  6

 40
0.0
 41
0.0
 42
0.0
 43
0.0
 44
0.0
 45
0.0
 46
0.0
 47
0.0
 48
0.0
 49
0.0
140
0.0
141
0.0
142
1.0
143
1.0
 70
   688
 72
     0
 73
     0
 74
     5
  7
monochrome.ctb
 75
    16
147
1.0
148
0.0
149
0.0
100
AcDbLayout
  1
Layout1
 70
     1
 71
     1
 10
0.0
 20
0.0
 11
12.0
 21
9.0
 12
0.0
 22
0.0
 32
0.0
 14
0.0
 24
0.0
 34
0.0
 15
0.0
 25
0.0
 35
0.0
146
0.0
 13
0.0
 23
0.0
 33
0.0
 16
1.0
 26
0.0
 36
0.0
 17
0.0
 27
1.0
 37
0.0
 76
     0
330
73
  0
LAYOUT
  5
22
102
{ACAD_XDICTIONARY
360
29AEA
102
}
102
{ACAD_REACTORS
330
1A
102
}
330
1A
100
AcDbPlotSettings
  1

  2
DWG To PDF.pc3
  4
ISO_expand_A0_(841.00_x_1189.00_MM)
  6

 40
5.793749809265137
 41
5.79376220703125
 42
10.79374980926514
 43
10.793701171875
 44
841.0
 45
1189.0
 46
-0.0000000000000213
 47
277.0515806674957
 48
0.0
 49
0.0
140
0.0
141
0.0
142
1.0
143
0.0145558200469394
 70
 11956
 72
     1
 73
     0
 74
     1
  7
monochrome.ctb
 75
     0
147
68.70104169845581
148
70.55856307424345
149
1453.505808791571
100
AcDbLayout
  1
Model
 70
     1
 71
     0
 10
-170.0
 20
-170.0
 11
519.0
 21
260.0
 12
0.0
 22
0.0
 32
0.0
 14
-72.11472452489497
 24
-49.49375433501508
 34
0.0
 15
73.14495271972269
 25
54.28162022488457
 35
0.0
146
0.0
 13
0.0
 23
0.0
 33
0.0
 16
1.0
 26
0.0
 36
0.0
 17
0.0
 27
1.0
 37
0.0
 76
     0
330
1F
331
97
  0
MATERIAL
  5
299FA
102
{ACAD_XDICTIONARY
360
299FB
102
}
102
{ACAD_REACTORS
330
6B
102
}
330
6B
100
AcDbMaterial
  1
ByBlock
 72
     0
 43
0.0008202099737533
 43
0.0
 43
0.0
 43
0.0
 43
0.0
 43
0.0008202099737533
 43
0.0
 43
0.0
 43
0.0
 43
0.0
 43
1.0
 43
0.0
 43
0.0
 43
0.0
 43
0.0
 43
1.0
 77
     0
 47
0.0008202099737533
 47
0.0
 47
0.0
 47
0.0
 47
0.0
 47
0.0008202099737533
 47
0.0
 47
0.0
 47
0.0
 47
0.0
 47
1.0
 47
0.0
 47
0.0
 47
0.0
 47
0.0
 47
1.0
171
     0
 49
0.0008202099737533
 49
0.0
 49
0.0
 49
0.0
 49
0.0
 49
0.0008202099737533
 49
0.0
 49
0.0
 49
0.0
 49
0.0
 49
1.0
 49
0.0
 49
0.0
 49
0.0
 49
0.0
 49
1.0
175
     0
142
0.0008202099737533
142
0.0
142
0.0
142
0.0
142
0.0
142
0.0008202099737533
142
0.0
142
0.0
142
0.0
142
0.0
142
1.0
142
0.0
142
0.0
142
0.0
142
0.0
142
1.0
179
     0
144
0.0008202099737533
144
0.0
144
0.0
144
0.0
144
0.0
144
0.0008202099737533
144
0.0
144
0.0
144
0.0
144
0.0
144
1.0
144
0.0
144
0.0
144
0.0
144
0.0
144
1.0
147
0.0008202099737533
147
0.0
147
0.0
147
0.0
147
0.0
147
0.0008202099737533
147
0.0
147
0.0
147
0.0
147
0.0
147
1.0
147
0.0
147
0.0
147
0.0
147
0.0
147
1.0
  0
MATERIAL
  5
299F2
102
{ACAD_XDICTIONARY
360
299F3
102
}
102
{ACAD_REACTORS
330
6B
102
}
330
6B
100
AcDbMaterial
  1
ByLayer
 72
     0
 43
0.0008202099737533
 43
0.0
 43
0.0
 43
0.0
 43
0.0
 43
0.0008202099737533
 43
0.0
 43
0.0
 43
0.0
 43
0.0
 43
1.0
 43
0.0
 43
0.0
 43
0.0
 43
0.0
 43
1.0
 77
     0
 47
0.0008202099737533
 47
0.0
 47
0.0
 47
0.0
 47
0.0
 47
0.0008202099737533
 47
0.0
 47
0.0
 47
0.0
 47
0.0
 47
1.0
 47
0.0
 47
0.0
 47
0.0
 47
0.0
 47
1.0
171
     0
 49
0.0008202099737533
 49
0.0
 49
0.0
 49
0.0
 49
0.0
 49
0.0008202099737533
 49
0.0
 49
0.0
 49
0.0
 49
0.0
 49
1.0
 49
0.0
 49
0.0
 49
0.0
 49
0.0
 49
1.0
175
     0
142
0.0008202099737533
142
0.0
142
0.0
142
0.0
142
0.0
142
0.0008202099737533
142
0.0
142
0.0
142
0.0
142
0.0
142
1.0
142
0.0
142
0.0
142
0.0
142
0.0
142
1.0
179
     0
144
0.0008202099737533
144
0.0
144
0.0
144
0.0
144
0.0
144
0.0008202099737533
144
0.0
144
0.0
144
0.0
144
0.0
144
1.0
144
0.0
144
0.0
144
0.0
144
0.0
144
1.0
147
0.0008202099737533
147
0.0
147
0.0
147
0.0
147
0.0
147
0.0008202099737533
147
0.0
147
0.0
147
0.0
147
0.0
147
1.0
147
0.0
147
0.0
147
0.0
147
0.0
147
1.0
  0
MATERIAL
  5
29A02
102
{ACAD_XDICTIONARY
360
29A03
102
}
102
{ACAD_REACTORS
330
6B
102
}
330
6B
100
AcDbMaterial
  1
Global
 72
     0
 43
0.0008202099737533
 43
0.0
 43
0.0
 43
0.0
 43
0.0
 43
0.0008202099737533
 43
0.0
 43
0.0
 43
0.0
 43
0.0
 43
1.0
 43
0.0
 43
0.0
 43
0.0
 43
0.0
 43
1.0
 77
     0
 47
0.0008202099737533
 47
0.0
 47
0.0
 47
0.0
 47
0.0
 47
0.0008202099737533
 47
0.0
 47
0.0
 47
0.0
 47
0.0
 47
1.0
 47
0.0
 47
0.0
 47
0.0
 47
0.0
 47
1.0
171
     0
 49
0.0008202099737533
 49
0.0
 49
0.0
 49
0.0
 49
0.0
 49
0.0008202099737533
 49
0.0
 49
0.0
 49
0.0
 49
0.0
 49
1.0
 49
0.0
 49
0.0
 49
0.0
 49
0.0
 49
1.0
175
     0
142
0.0008202099737533
142
0.0
142
0.0
142
0.0
142
0.0
142
0.0008202099737533
142
0.0
142
0.0
142
0.0
142
0.0
142
1.0
142
0.0
142
0.0
142
0.0
142
0.0
142
1.0
179
     0
144
0.0008202099737533
144
0.0
144
0.0
144
0.0
144
0.0
144
0.0008202099737533
144
0.0
144
0.0
144
0.0
144
0.0
144
1.0
144
0.0
144
0.0
144
0.0
144
0.0
144
1.0
147
0.0008202099737533
147
0.0
147
0.0
147
0.0
147
0.0
147
0.0008202099737533
147
0.0
147
0.0
147
0.0
147
0.0
147
1.0
147
0.0
147
0.0
147
0.0
147
0.0
147
1.0
  0
MLEADERSTYLE
  5
29A23
102
{ACAD_REACTORS
330
43C
102
}
330
43C
100
AcDbMLeaderStyle
170
     2
171
     1
172
     0
 90
        2
 40
0.0
 41
0.0
173
     1
 91
-1056964608
340
14
 92
       -2
290
     1
 42
2.0
291
     1
 43
0.36
  3
Standard
 44
4.0
300

342
11
174
     1
178
     6
175
     1
176
     0
 93
-1056964608
 45
4.0
292
     0
297
     0
 46
4.0
 94
-1056964608
 47
1.0
 49
1.0
140
1.0
293
     1
141
0.0
294
     1
177
     0
142
1.0
295
     0
296
     0
143
0.125
1001
ACAD_MLEADERVER
1070
     2
  0
MLINESTYLE
  5
18
102
{ACAD_REACTORS
330
17
102
}
330
17
100
AcDbMlineStyle
  2
STANDARD
 70
     0
  3

 62
     0
 51
90.0
 52
90.0
 71
     2
 49
0.5
 62
   256
  6
BYLAYER
 49
-0.5
 62
   256
  6
BYLAYER
  0
ACDBPLACEHOLDER
  5
F
102
{ACAD_REACTORS
330
E
102
}
330
E
  0
SCALE
  5
9A
102
{ACAD_REACTORS
330
99
102
}
330
99
100
AcDbScale
 70
     0
300
1:1
140
1.0
141
1.0
290
     1
  0
SCALE
  5
9B
102
{ACAD_REACTORS
330
99
102
}
330
99
100
AcDbScale
 70
     0
300
1:2
140
1.0
141
2.0
290
     0
  0
SCALE
  5
9C
102
{ACAD_REACTORS
330
99
102
}
330
99
100
AcDbScale
 70
     0
300
1:4
140
1.0
141
4.0
290
     0
  0
SCALE
  5
9D
102
{ACAD_REACTORS
330
99
102
}
330
99
100
AcDbScale
 70
     0
300
1:5
140
1.0
141
5.0
290
     0
  0
SCALE
  5
9E
102
{ACAD_REACTORS
330
99
102
}
330
99
100
AcDbScale
 70
     0
300
1:8
140
1.0
141
8.0
290
     0
  0
SCALE
  5
9F
102
{ACAD_REACTORS
330
99
102
}
330
99
100
AcDbScale
 70
     0
300
1:10
140
1.0
141
10.0
290
     0
  0
SCALE
  5
A0
102
{ACAD_REACTORS
330
99
102
}
330
99
100
AcDbScale
 70
     0
300
1:16
140
1.0
141
16.0
290
     0
  0
SCALE
  5
A1
102
{ACAD_REACTORS
330
99
102
}
330
99
100
AcDbScale
 70
     0
300
1:20
140
1.0
141
20.0
290
     0
  0
SCALE
  5
A2
102
{ACAD_REACTORS
330
99
102
}
330
99
100
AcDbScale
 70
     0
300
1:30
140
1.0
141
30.0
290
     0
  0
SCALE
  5
A3
102
{ACAD_REACTORS
330
99
102
}
330
99
100
AcDbScale
 70
     0
300
1:40
140
1.0
141
40.0
290
     0
  0
SCALE
  5
A4
102
{ACAD_REACTORS
330
99
102
}
330
99
100
AcDbScale
 70
     0
300
1:50
140
1.0
141
50.0
290
     0
  0
SCALE
  5
A5
102
{ACAD_REACTORS
330
99
102
}
330
99
100
AcDbScale
 70
     0
300
1:100
140
1.0
141
100.0
290
     0
  0
SCALE
  5
A6
102
{ACAD_REACTORS
330
99
102
}
330
99
100
AcDbScale
 70
     0
300
2:1
140
2.0
141
1.0
290
     0
  0
SCALE
  5
A7
102
{ACAD_REACTORS
330
99
102
}
330
99
100
AcDbScale
 70
     0
300
4:1
140
4.0
141
1.0
290
     0
  0
SCALE
  5
A8
102
{ACAD_REACTORS
330
99
102
}
330
99
100
AcDbScale
 70
     0
300
8:1
140
8.0
141
1.0
290
     0
  0
SCALE
  5
A9
102
{ACAD_REACTORS
330
99
102
}
330
99
100
AcDbScale
 70
     0
300
10:1
140
10.0
141
1.0
290
     0
  0
SCALE
  5
AA
102
{ACAD_REACTORS
330
99
102
}
330
99
100
AcDbScale
 70
     0
300
100:1
140
100.0
141
1.0
290
     0
  0
SCALE
  5
AB
102
{ACAD_REACTORS
330
99
102
}
330
99
100
AcDbScale
 70
     0
300
1/128" = 1'-0"
140
0.0078125
141
12.0
290
     0
  0
SCALE
  5
AC
102
{ACAD_REACTORS
330
99
102
}
330
99
100
AcDbScale
 70
     0
300
1/64" = 1'-0"
140
0.015625
141
12.0
290
     0
  0
SCALE
  5
AD
102
{ACAD_REACTORS
330
99
102
}
330
99
100
AcDbScale
 70
     0
300
1/32" = 1'-0"
140
0.03125
141
12.0
290
     0
  0
SCALE
  5
AE
102
{ACAD_REACTORS
330
99
102
}
330
99
100
AcDbScale
 70
     0
300
1/16" = 1'-0"
140
0.0625
141
12.0
290
     0
  0
SCALE
  5
AF
102
{ACAD_REACTORS
330
99
102
}
330
99
100
AcDbScale
 70
     0
300
3/32" = 1'-0"
140
0.09375
141
12.0
290
     0
  0
SCALE
  5
B0
102
{ACAD_REACTORS
330
99
102
}
330
99
100
AcDbScale
 70
     0
300
1/8" = 1'-0"
140
0.125
141
12.0
290
     0
  0
SCALE
  5
B1
102
{ACAD_REACTORS
330
99
102
}
330
99
100
AcDbScale
 70
     0
300
3/16" = 1'-0"
140
0.1875
141
12.0
290
     0
  0
SCALE
  5
B2
102
{ACAD_REACTORS
330
99
102
}
330
99
100
AcDbScale
 70
     0
300
1/4" = 1'-0"
140
0.25
141
12.0
290
     0
  0
SCALE
  5
B3
102
{ACAD_REACTORS
330
99
102
}
330
99
100
AcDbScale
 70
     0
300
3/8" = 1'-0"
140
0.375
141
12.0
290
     0
  0
SCALE
  5
B4
102
{ACAD_REACTORS
330
99
102
}
330
99
100
AcDbScale
 70
     0
300
1/2" = 1'-0"
140
0.5
141
12.0
290
     0
  0
SCALE
  5
B5
102
{ACAD_REACTORS
330
99
102
}
330
99
100
AcDbScale
 70
     0
300
3/4" = 1'-0"
140
0.75
141
12.0
290
     0
  0
SCALE
  5
B6
102
{ACAD_REACTORS
330
99
102
}
330
99
100
AcDbScale
 70
     0
300
1" = 1'-0"
140
1.0
141
12.0
290
     0
  0
SCALE
  5
B7
102
{ACAD_REACTORS
330
99
102
}
330
99
100
AcDbScale
 70
     0
300
1-1/2" = 1'-0"
140
1.5
141
12.0
290
     0
  0
SCALE
  5
B8
102
{ACAD_REACTORS
330
99
102
}
330
99
100
AcDbScale
 70
     0
300
3" = 1'-0"
140
3.0
141
12.0
290
     0
  0
SCALE
  5
B9
102
{ACAD_REACTORS
330
99
102
}
330
99
100
AcDbScale
 70
     0
300
6" = 1'-0"
140
6.0
141
12.0
290
     0
  0
SCALE
  5
BA
102
{ACAD_REACTORS
330
99
102
}
330
99
100
AcDbScale
 70
     0
300
1'-0" = 1'-0"
140
12.0
141
12.0
290
     0
  0
ACDBSECTIONVIEWSTYLE
  5
29A24
102
{ACAD_XDICTIONARY
360
29B1F
102
}
102
{ACAD_REACTORS
330
8E2
102
}
330
8E2
100
AcDbModelDocViewStyle
 70
     0
  3
Metric50
290
     0
100
AcDbSectionViewStyle
 70
     0
 71
     0
 90
      102
 71
     1
340
11
 40
5.0
340
0
340
0
 40
5.0
300
I, O, Q, S, X, Z
 40
10.0
 90
        0
 40
2.5
 90
        0
 71
     2
340
16
 90
       25
340
16
 90
       50
 40
5.0
 40
2.5
 40
5.0
 71
     3
340
11
 40
5.0
 90
        0
 40
15.0
 90
        1
300
%<\AcVar ViewSectionStartId>%-%<\AcVar ViewSectionEndId>% (%<\AcVar ViewScale \f "%sn">%)
 71
     4
300
ANSI31
 40
1.0
 90
        0
290
     0
290
     0
 90
        6
 40
0.0
 40
1.570796326794896
 40
0.2617993877991494
 40
1.308996938995747
 40
-0.2617993877991494
 40
1.832595714594045
  0
TABLESTYLE
  5
29A22
102
{ACAD_XDICTIONARY
360
29A94
102
}
102
{ACAD_REACTORS
330
92
102
}
330
92
100
AcDbTableStyle
  3
Standard
 70
     0
 71
     0
 40
1.5
 41
1.5
280
     0
281
     0
  7
Standard
140
4.5
170
     2
 62
     0
 63
     7
283
     0
274
    -2
284
     1
 64
     0
275
    -2
285
     1
 65
     0
276
    -2
286
     1
 66
     0
277
    -2
287
     1
 67
     0
278
    -2
288
     1
 68
     0
279
    -2
289
     1
 69
     0
  7
Standard
140
6.0
170
     5
 62
     0
 63
     7
283
     0
274
    -2
284
     1
 64
     0
275
    -2
285
     1
 65
     0
276
    -2
286
     1
 66
     0
277
    -2
287
     1
 67
     0
278
    -2
288
     1
 68
     0
279
    -2
289
     1
 69
     0
  7
Standard
140
4.5
170
     5
 62
     0
 63
     7
283
     0
274
    -2
284
     1
 64
     0
275
    -2
285
     1
 65
     0
276
    -2
286
     1
 66
     0
277
    -2
287
     1
 67
     0
278
    -2
288
     1
 68
     0
279
    -2
289
     1
 69
     0
  0
VISUALSTYLE
  5
29A0F
102
{ACAD_XDICTIONARY
360
29AF8
102
}
102
{ACAD_REACTORS
330
3F2
102
}
330
3F2
100
AcDbVisualStyle
  2

 70
     4
 71
     0
 72
     2
 73
     0
 90
        0
 40
-0.6
 41
-30.0
 62
     5
 63
     7
 74
     1
 91
        4
 64
     7
 65
   257
 75
     1
175
     1
 42
1.0
 92
        0
 66
   257
 43
1.0
 76
     1
 77
     6
 78
     2
 67
     7
 79
     5
170
     0
171
     0
290
     0
174
     0
 93
        1
 44
0.0
173
     0
291
     0
 45
0.0
1001
ACAD
1000
AcDbSavedByObjectVersion
1070
     0
  0
VISUALSTYLE
  5
29A0E
102
{ACAD_XDICTIONARY
360
29AF6
102
}
102
{ACAD_REACTORS
330
3F2
102
}
330
3F2
100
AcDbVisualStyle
  2

 70
     7
 71
     1
 72
     0
 73
     1
 90
        0
 40
-0.6
 41
-30.0
 62
     5
 63
     7
 74
     0
 91
        4
 64
     7
 65
   257
 75
     1
175
     1
 42
1.0
 92
        8
 66
     7
 43
1.0
 76
     1
 77
     6
 78
     2
 67
     7
 79
     5
170
     0
171
     0
290
     0
174
     0
 93
        1
 44
0.0
173
     0
291
     1
 45
0.0
1001
ACAD
1000
AcDbSavedByObjectVersion
1070
     0
  0
VISUALSTYLE
  5
29A15
102
{ACAD_XDICTIONARY
360
29B04
102
}
102
{ACAD_REACTORS
330
3F2
102
}
330
3F2
100
AcDbVisualStyle
  2

 70
    12
 71
     2
 72
     2
 73
     0
 90
        0
 40
-0.6
 41
-30.0
 62
     5
 63
     7
 74
     1
 91
        4
 64
     7
 65
   257
 75
     1
175
     1
 42
1.0
 92
        8
 66
     7
 43
1.0
 76
     1
 77
     6
 78
     2
 67
     7
 79
     5
170
     0
171
     0
290
     0
174
     0
 93
        1
 44
50.0
173
     0
291
     1
 45
0.0
1001
ACAD
1000
AcDbSavedByObjectVersion
1070
     0
  0
VISUALSTYLE
  5
29A19
102
{ACAD_XDICTIONARY
360
29B0C
102
}
102
{ACAD_REACTORS
330
3F2
102
}
330
3F2
100
AcDbVisualStyle
  2

 70
    16
 71
     2
 72
     2
 73
     3
 90
        0
 40
-0.6
 41
-30.0
 62
     5
 63
     8
 74
     1
 91
        4
 64
     7
 65
   257
 75
     1
175
     1
 42
1.0
 92
        8
 66
     8
 43
1.0
 76
     1
 77
     6
 78
     2
 67
     7
 79
     5
170
     0
171
     0
290
     0
174
     0
 93
        1
 44
0.0
173
     0
291
     1
 45
0.0
1001
ACAD
1000
AcDbSavedByObjectVersion
1070
     0
  0
VISUALSTYLE
  5
29A12
102
{ACAD_XDICTIONARY
360
29AFE
102
}
102
{ACAD_REACTORS
330
3F2
102
}
330
3F2
100
AcDbVisualStyle
  2

 70
     9
 71
     3
 72
     2
 73
     0
 90
        0
 40
-0.6
 41
-30.0
 62
     5
 63
     7
 74
     2
 91
        2
 64
     7
 65
   257
 75
     1
175
     1
 42
179.0
 92
        8
 66
     7
 43
1.0
 76
     1
 77
     6
 78
     2
 67
     7
 79
     3
170
     0
171
     0
290
     0
174
     0
 93
        1
 44
0.0
173
     0
291
     0
 45
0.0
1001
ACAD
1000
AcDbSavedByObjectVersion
1070
     0
  0
VISUALSTYLE
  5
29A14
102
{ACAD_XDICTIONARY
360
29B02
102
}
102
{ACAD_REACTORS
330
3F2
102
}
330
3F2
100
AcDbVisualStyle
  2

 70
    11
 71
     2
 72
     2
 73
     0
 90
        0
 40
-0.6
 41
-30.0
 62
     5
 63
     7
 74
     1
 91
        4
 64
     7
 65
   257
 75
     1
175
     1
 42
1.0
 92
        8
 66
     7
 43
1.0
 76
     1
 77
     6
 78
     2
 67
     7
 79
     5
170
     0
171
     0
290
     0
174
     0
 93
        1
 44
-50.0
173
     0
291
     1
 45
0.0
1001
ACAD
1000
AcDbSavedByObjectVersion
1070
     0
  0
VISUALSTYLE
  5
29A21
102
{ACAD_XDICTIONARY
360
29B1C
102
}
102
{ACAD_REACTORS
330
3F2
102
}
330
3F2
100
AcDbVisualStyle
  2

 70
    22
 71
     2
 72
     2
 73
     0
 90
        0
 40
-0.6
 41
-30.0
 62
     5
 63
     7
 74
     1
 91
        4
 64
     7
 65
   257
 75
     1
175
     1
 42
1.0
 92
        8
 66
     7
 43
1.0
 76
     1
 77
     6
 78
     2
 67
     7
 79
     5
170
     0
171
     0
290
     0
174
     0
 93
        1
 44
0.0
173
     0
291
     1
 45
0.0
1001
ACAD
1000
AcDbSavedByObjectVersion
1070
     0
  0
VISUALSTYLE
  5
29A18
102
{ACAD_XDICTIONARY
360
29B0A
102
}
102
{ACAD_REACTORS
330
3F2
102
}
330
3F2
100
AcDbVisualStyle
  2

 70
    15
 71
     2
 72
     2
 73
     0
 90
        0
 40
-0.6
 41
-30.0
 62
     5
 63
     7
 74
     1
 91
        4
 64
     7
 65
   257
 75
     1
175
     1
 42
1.0
 92
        8
 66
     7
 43
1.0
 76
     1
 77
     6
 78
     2
 67
     7
 79
     5
170
     0
171
     0
290
     0
174
     0
 93
        1
 44
0.0
173
     0
291
     1
 45
0.0
1001
ACAD
1000
AcDbSavedByObjectVersion
1070
     0
  0
VISUALSTYLE
  5
29A0A
102
{ACAD_XDICTIONARY
360
29AEE
102
}
102
{ACAD_REACTORS
330
3F2
102
}
330
3F2
100
AcDbVisualStyle
  2

 70
     0
 71
     2
 72
     1
 73
     1
 90
        2
 40
-0.6
 41
30.0
 62
     5
 63
     7
 74
     0
 91
        0
 64
     7
 65
   257
 75
     1
175
     1
 42
1.0
 92
        8
 66
     7
 43
1.0
 76
     1
 77
     6
 78
     2
 67
     7
 79
     5
170
     0
171
     0
290
     0
174
     0
 93
       13
 44
0.0
173
     0
291
     1
 45
0.0
1001
ACAD
1000
AcDbSavedByObjectVersion
1070
     0
  0
VISUALSTYLE
  5
29A0B
102
{ACAD_XDICTIONARY
360
29AF0
102
}
102
{ACAD_REACTORS
330
3F2
102
}
330
3F2
100
AcDbVisualStyle
  2

 70
     1
 71
     2
 72
     1
 73
     1
 90
        2
 40
-0.6
 41
30.0
 62
     5
 63
     7
 74
     1
 91
        0
 64
     7
 65
   257
 75
     1
175
     1
 42
1.0
 92
        0
 66
   257
 43
1.0
 76
     1
 77
     6
 78
     2
 67
     7
 79
     5
170
     0
171
     0
290
     0
174
     0
 93
       13
 44
0.0
173
     0
291
     1
 45
0.0
1001
ACAD
1000
AcDbSavedByObjectVersion
1070
     0
  0
VISUALSTYLE
  5
29A0C
102
{ACAD_XDICTIONARY
360
29AF2
102
}
102
{ACAD_REACTORS
330
3F2
102
}
330
3F2
100
AcDbVisualStyle
  2

 70
     2
 71
     2
 72
     2
 73
     1
 90
        2
 40
-0.6
 41
30.0
 62
     5
 63
     7
 74
     0
 91
        0
 64
     7
 65
   257
 75
     1
175
     1
 42
1.0
 92
        0
 66
     7
 43
1.0
 76
     1
 77
     6
 78
     2
 67
     7
 79
     5
170
     0
171
     0
290
     0
174
     0
 93
       13
 44
0.0
173
     0
291
     1
 45
0.0
1001
ACAD
1000
AcDbSavedByObjectVersion
1070
     0
  0
VISUALSTYLE
  5
29A0D
102
{ACAD_XDICTIONARY
360
29AF4
102
}
102
{ACAD_REACTORS
330
3F2
102
}
330
3F2
100
AcDbVisualStyle
  2

 70
     3
 71
     2
 72
     2
 73
     1
 90
        2
 40
-0.6
 41
30.0
 62
     5
 63
     7
 74
     1
 91
        0
 64
     7
 65
   257
 75
     1
175
     1
 42
1.0
 92
        0
 66
   257
 43
1.0
 76
     1
 77
     6
 78
     2
 67
     7
 79
     5
170
     0
171
     0
290
     0
174
     0
 93
       13
 44
0.0
173
     0
291
     1
 45
0.0
1001
ACAD
1000
AcDbSavedByObjectVersion
1070
     0
  0
VISUALSTYLE
  5
29A11
102
{ACAD_XDICTIONARY
360
29AFC
102
}
102
{ACAD_REACTORS
330
3F2
102
}
330
3F2
100
AcDbVisualStyle
  2

 70
     6
 71
     1
 72
     2
 73
     2
 90
        0
 40
-0.6
 41
-30.0
 62
     5
 63
     7
 74
     2
 91
        2
 64
     7
 65
   257
 75
     2
175
     1
 42
40.0
 92
        0
 66
   257
 43
1.0
 76
     1
 77
     6
 78
     2
 67
     7
 79
     3
170
     0
171
     0
290
     0
174
     0
 93
        1
 44
0.0
173
     0
291
     0
 45
0.0
1001
ACAD
1000
AcDbSavedByObjectVersion
1070
     0
  0
VISUALSTYLE
  5
29A1F
102
{ACAD_XDICTIONARY
360
29B18
102
}
102
{ACAD_REACTORS
330
3F2
102
}
330
3F2
100
AcDbVisualStyle
  2

 70
    20
 71
     2
 72
     2
 73
     0
 90
        0
 40
-0.6
 41
-30.0
 62
     5
 63
     7
 74
     1
 91
        4
 64
     7
 65
   257
 75
     1
175
     1
 42
1.0
 92
       10
 66
     7
 43
1.0
 76
     1
 77
     6
 78
     2
 67
     7
 79
     5
170
     0
171
     0
290
     0
174
     0
 93
        1
 44
0.0
173
     0
291
     1
 45
0.0
1001
ACAD
1000
AcDbSavedByObjectVersion
1070
     0
  0
VISUALSTYLE
  5
29A17
102
{ACAD_XDICTIONARY
360
29B08
102
}
102
{ACAD_REACTORS
330
3F2
102
}
330
3F2
100
AcDbVisualStyle
  2

 70
    14
 71
     2
 72
     2
 73
     0
 90
        0
 40
-0.6
 41
-30.0
 62
     5
 63
     7
 74
     1
 91
        4
 64
     7
 65
   257
 75
     7
175
     7
 42
1.0
 92
        8
 66
     7
 43
1.0
 76
     1
 77
     6
 78
     2
 67
     7
 79
     5
170
     0
171
     0
290
     0
174
     0
 93
        1
 44
0.0
173
     0
291
     1
 45
0.0
1001
ACAD
1000
AcDbSavedByObjectVersion
1070
     0
  0
VISUALSTYLE
  5
29A20
102
{ACAD_XDICTIONARY
360
29B1A
102
}
102
{ACAD_REACTORS
330
3F2
102
}
330
3F2
100
AcDbVisualStyle
  2

 70
    21
 71
     2
 72
     2
 73
     0
 90
        0
 40
-0.6
 41
-30.0
 62
     5
 63
     7
 74
     1
 91
        4
 64
     7
 65
   257
 75
     1
175
     1
 42
1.0
 92
        9
 66
     7
 43
1.0
 76
     1
 77
     6
 78
     2
 67
     7
 79
     5
170
     0
171
     0
290
     0
174
     0
 93
        1
 44
0.0
173
     0
291
     1
 45
0.0
1001
ACAD
1000
AcDbSavedByObjectVersion
1070
     0
  0
VISUALSTYLE
  5
29A13
102
{ACAD_XDICTIONARY
360
29B00
102
}
102
{ACAD_REACTORS
330
3F2
102
}
330
3F2
100
AcDbVisualStyle
  2

 70
     8
 71
     2
 72
     3
 73
     0
 90
        2
 40
-0.6
 41
30.0
 62
     5
 63
     7
 74
     0
 91
        0
 64
     7
 65
   257
 75
     1
175
     1
 42
1.0
 92
        8
 66
   257
 43
1.0
 76
     1
 77
     6
 78
     2
 67
     7
 79
     3
170
     0
171
     0
290
     0
174
     0
 93
       13
 44
0.0
173
     0
291
     0
 45
0.0
1001
ACAD
1000
AcDbSavedByObjectVersion
1070
     0
  0
VISUALSTYLE
  5
29A1E
102
{ACAD_XDICTIONARY
360
29B16
102
}
102
{ACAD_REACTORS
330
3F2
102
}
330
3F2
100
AcDbVisualStyle
  2

 70
    27
 71
     2
 72
     2
 73
     1
 90
        2
 40
-0.6
 41
30.0
 62
     5
 63
     7
 74
     0
 91
        4
 64
     7
 65
   257
 75
     1
175
     1
 42
1.0
 92
        8
 66
   257
 43
1.0
 76
     1
 77
     6
 78
     2
 67
     8
 79
     3
170
     0
171
     0
290
     0
174
     0
 93
        5
 44
0.0
173
     0
291
     0
 45
0.0
1001
ACAD
1000
AcDbSavedByObjectVersion
1070
     0
  0
VISUALSTYLE
  5
29A1D
102
{ACAD_XDICTIONARY
360
29B14
102
}
102
{ACAD_REACTORS
330
3F2
102
}
330
3F2
100
AcDbVisualStyle
  2

 70
    26
 71
     2
 72
     2
 73
     1
 90
        2
 40
-0.6
 41
30.0
 62
     5
 63
     7
 74
     1
 91
        2
 64
     7
 65
   257
 75
     2
175
     1
 42
1.0
 92
        8
 66
   257
 43
1.0
 76
     1
 77
     6
 78
     2
 67
     7
 79
     3
170
     0
171
     0
290
     0
174
     0
 93
        5
 44
0.0
173
     0
291
     0
 45
0.0
1001
ACAD
1000
AcDbSavedByObjectVersion
1070
     0
  0
VISUALSTYLE
  5
29A1A
102
{ACAD_XDICTIONARY
360
29B0E
102
}
102
{ACAD_REACTORS
330
3F2
102
}
330
3F2
100
AcDbVisualStyle
  2

 70
    23
 71
     2
 72
     2
 73
     3
 90
        0
 40
-0.6
 41
-30.0
 62
     5
 63
     7
 74
     2
 91
        2
 64
     7
 65
     7
 75
     1
175
     1
 42
40.0
 92
        8
 66
     7
 43
1.0
 76
     1
 77
     6
 78
     2
 67
     7
 79
     3
170
     0
171
     0
290
     0
174
     0
 93
        1
 44
0.0
173
     0
291
     0
 45
0.0
1001
ACAD
1000
AcDbSavedByObjectVersion
1070
     0
  0
VISUALSTYLE
  5
29A1B
102
{ACAD_XDICTIONARY
360
29B10
102
}
102
{ACAD_REACTORS
330
3F2
102
}
330
3F2
100
AcDbVisualStyle
  2

 70
    24
 71
     1
 72
     2
 73
     2
 90
        0
 40
-0.6
 41
-30.0
 62
     5
 63
     7
 74
     2
 91
        2
 64
     7
 65
     7
 75
     1
175
     1
 42
40.0
 92
       11
 66
     7
 43
1.0
 76
     1
 77
     6
 78
     2
 67
     7
 79
     6
170
     0
171
     0
290
     0
174
     0
 93
        1
 44
0.0
173
     0
291
     0
 45
0.0
1001
ACAD
1000
AcDbSavedByObjectVersion
1070
     0
  0
VISUALSTYLE
  5
29A16
102
{ACAD_XDICTIONARY
360
29B06
102
}
102
{ACAD_REACTORS
330
3F2
102
}
330
3F2
100
AcDbVisualStyle
  2

 70
    13
 71
     2
 72
     2
 73
     0
 90
        0
 40
-0.6
 41
-30.0
 62
     5
 63
     7
 74
     1
 91
        4
 64
     7
 65
   257
 75
     1
175
     1
 42
1.0
 92
       12
 66
     7
 43
1.0
 76
     1
 77
     6
 78
     2
 67
     7
 79
     5
170
     0
171
     0
290
     0
174
     0
 93
        1
 44
0.0
173
     0
291
     1
 45
0.0
1001
ACAD
1000
AcDbSavedByObjectVersion
1070
     0
  0
VISUALSTYLE
  5
29A10
102
{ACAD_XDICTIONARY
360
29AFA
102
}
102
{ACAD_REACTORS
330
3F2
102
}
330
3F2
100
AcDbVisualStyle
  2

 70
     5
 71
     0
 72
     2
 73
     0
 90
        0
 40
-0.6
 41
-30.0
 62
     5
 63
     7
 74
     1
 91
        4
 64
     7
 65
   257
 75
     1
175
     1
 42
1.0
 92
        0
 66
   257
 43
1.0
 76
     1
 77
     6
 78
     2
 67
     7
 79
     3
170
     0
171
     0
290
     0
174
     0
 93
        1
 44
0.0
173
     0
291
     0
 45
0.0
1001
ACAD
1000
AcDbSavedByObjectVersion
1070
     0
  0
VISUALSTYLE
  5
29A1C
102
{ACAD_XDICTIONARY
360
29B12
102
}
102
{ACAD_REACTORS
330
3F2
102
}
330
3F2
100
AcDbVisualStyle
  2

 70
    25
 71
     2
 72
     2
 73
     1
 90
        1
 40
0.5
 41
-30.0
 62
     5
 63
     7
 74
     1
 91
        0
 64
     7
 65
   257
 75
     1
175
     1
 42
1.0
 92
        8
 66
     7
 43
1.0
 76
     1
 77
     6
 78
     2
 67
     7
 79
     3
170
     0
171
     0
290
     0
174
     0
 93
       13
 44
0.0
173
     0
291
     0
 45
0.0
1001
ACAD
1000
AcDbSavedByObjectVersion
1070
     0
  0
XRECORD
  5
299EA
102
{ACAD_REACTORS
330
299E9
102
}
330
299E9
100
AcDbXrecord
280
     1
340
6C
  0
XRECORD
  5
299EB
102
{ACAD_REACTORS
330
299E9
102
}
330
299E9
100
AcDbXrecord
280
     1
340
6B
  0
DICTIONARYVAR
  5
299E8
102
{ACAD_REACTORS
330
59
102
}
330
59
100
DictionaryVariables
280
     0
  1
1:1
  0
DICTIONARYVAR
  5
29A4B
102
{ACAD_REACTORS
330
59
102
}
330
59
100
DictionaryVariables
280
     0
  1
STANDARD
  0
DICTIONARYVAR
  5
98
102
{ACAD_REACTORS
330
59
102
}
330
59
100
DictionaryVariables
280
     0
  1
STANDARD
  0
DICTIONARYVAR
  5
8FB
102
{ACAD_REACTORS
330
59
102
}
330
59
100
DictionaryVariables
280
     0
  1
Metric50
  0
DICTIONARYVAR
  5
8FC
102
{ACAD_REACTORS
330
59
102
}
330
59
100
DictionaryVariables
280
     0
  1
Metric50
  0
DICTIONARYVAR
  5
359
102
{ACAD_REACTORS
330
59
102
}
330
59
100
DictionaryVariables
280
     0
  1
2
  0
DICTIONARYVAR
  5
AF7
102
{ACAD_REACTORS
330
59
102
}
330
59
100
DictionaryVariables
280
     0
  1
0
  0
DICTIONARYVAR
  5
358
102
{ACAD_REACTORS
330
59
102
}
330
59
100
DictionaryVariables
280
     0
  1
1
  0
DICTIONARYVAR
  5
9BE
102
{ACAD_REACTORS
330
59
102
}
330
59
100
DictionaryVariables
280
     0
  1
0
  0
DICTIONARYVAR
  5
7AE
102
{ACAD_REACTORS
330
59
102
}
330
59
100
DictionaryVariables
280
     0
  1
1
  0
DICTIONARYVAR
  5
7AF
102
{ACAD_REACTORS
330
59
102
}
330
59
100
DictionaryVariables
280
     0
  1
15
  0
DICTIONARYVAR
  5
44A
102
{ACAD_REACTORS
330
59
102
}
330
59
100
DictionaryVariables
280
     0
  1
0
  0
DICTIONARYVAR
  5
448
102
{ACAD_REACTORS
330
59
102
}
330
59
100
DictionaryVariables
280
     0
  1
1
  0
DICTIONARYVAR
  5
9BD
102
{ACAD_REACTORS
330
59
102
}
330
59
100
DictionaryVariables
280
     0
  1
127
  0
DICTIONARYVAR
  5
29AE1
102
{ACAD_REACTORS
330
59
102
}
330
59
100
DictionaryVariables
280
     0
  1
2
  0
DICTIONARY
  5
76F
102
{ACAD_REACTORS
330
76D
102
}
330
76D
100
AcDbDictionary
281
     1
  0
DICTIONARY
  5
744
102
{ACAD_REACTORS
330
743
102
}
330
743
100
AcDbDictionary
281
     1
  0
XRECORD
  5
8C7
102
{ACAD_REACTORS
330
8C6
102
}
330
8C6
100
AcDbXrecord
280
     1
  0
DICTIONARY
  5
29B21
330
29A25
100
AcDbDictionary
280
     1
281
     1
  3
ACAD_XREC_ROUNDTRIP
360
29B22
  0
DICTIONARY
  5
29AEC
330
74
100
AcDbDictionary
280
     1
281
     1
  3
ACAD_XREC_ROUNDTRIP
360
29AED
  0
DICTIONARY
  5
29AEA
330
22
100
AcDbDictionary
280
     1
281
     1
  3
ACAD_XREC_ROUNDTRIP
360
29AEB
  0
DICTIONARY
  5
299FB
330
299FA
100
AcDbDictionary
280
     1
281
     1
  3
ACAD_XREC_ROUNDTRIP
360
29AA4
  3
BUMPTILE
360
299FD
  3
DIFFUSETILE
360
299FC
  3
OPACITYTILE
360
29A00
  3
REFLECTIONTILE
360
299FF
  3
REFRACTIONTILE
360
29A01
  3
SPECULARTILE
360
299FE
  0
DICTIONARY
  5
299F3
330
299F2
100
AcDbDictionary
280
     1
281
     1
  3
ACAD_XREC_ROUNDTRIP
360
29AA3
  3
BUMPTILE
360
299F5
  3
DIFFUSETILE
360
299F4
  3
OPACITYTILE
360
299F8
  3
REFLECTIONTILE
360
299F7
  3
REFRACTIONTILE
360
299F9
  3
SPECULARTILE
360
299F6
  0
DICTIONARY
  5
29A03
330
29A02
100
AcDbDictionary
280
     1
281
     1
  3
ACAD_XREC_ROUNDTRIP
360
29AA5
  3
BUMPTILE
360
29A05
  3
DIFFUSETILE
360
29A04
  3
OPACITYTILE
360
29A08
  3
REFLECTIONTILE
360
29A07
  3
REFRACTIONTILE
360
29A09
  3
SPECULARTILE
360
29A06
  0
DICTIONARY
  5
29B1F
330
29A24
100
AcDbDictionary
280
     1
281
     1
  3
ACAD_XREC_ROUNDTRIP
360
29B20
  0
DICTIONARY
  5
29A94
330
29A22
100
AcDbDictionary
280
     1
281
     1
  3
ACAD_ROUNDTRIP_2008_TABLESTYLE_CELLSTYLEMAP
360
29AE2
  3
ACAD_XREC_ROUNDTRIP
360
29B1E
  0
DICTIONARY
  5
29AF8
330
29A0F
100
AcDbDictionary
280
     1
281
     1
  3
ACAD_XREC_ROUNDTRIP
360
29AF9
  0
DICTIONARY
  5
29AF6
330
29A0E
100
AcDbDictionary
280
     1
281
     1
  3
ACAD_XREC_ROUNDTRIP
360
29AF7
  0
DICTIONARY
  5
29B04
330
29A15
100
AcDbDictionary
280
     1
281
     1
  3
ACAD_XREC_ROUNDTRIP
360
29B05
  0
DICTIONARY
  5
29B0C
330
29A19
100
AcDbDictionary
280
     1
281
     1
  3
ACAD_XREC_ROUNDTRIP
360
29B0D
  0
DICTIONARY
  5
29AFE
330
29A12
100
AcDbDictionary
280
     1
281
     1
  3
ACAD_XREC_ROUNDTRIP
360
29AFF
  0
DICTIONARY
  5
29B02
330
29A14
100
AcDbDictionary
280
     1
281
     1
  3
ACAD_XREC_ROUNDTRIP
360
29B03
  0
DICTIONARY
  5
29B1C
330
29A21
100
AcDbDictionary
280
     1
281
     1
  3
ACAD_XREC_ROUNDTRIP
360
29B1D
  0
DICTIONARY
  5
29B0A
330
29A18
100
AcDbDictionary
280
     1
281
     1
  3
ACAD_XREC_ROUNDTRIP
360
29B0B
  0
DICTIONARY
  5
29AEE
330
29A0A
100
AcDbDictionary
280
     1
281
     1
  3
ACAD_XREC_ROUNDTRIP
360
29AEF
  0
DICTIONARY
  5
29AF0
330
29A0B
100
AcDbDictionary
280
     1
281
     1
  3
ACAD_XREC_ROUNDTRIP
360
29AF1
  0
DICTIONARY
  5
29AF2
330
29A0C
100
AcDbDictionary
280
     1
281
     1
  3
ACAD_XREC_ROUNDTRIP
360
29AF3
  0
DICTIONARY
  5
29AF4
330
29A0D
100
AcDbDictionary
280
     1
281
     1
  3
ACAD_XREC_ROUNDTRIP
360
29AF5
  0
DICTIONARY
  5
29AFC
330
29A11
100
AcDbDictionary
280
     1
281
     1
  3
ACAD_XREC_ROUNDTRIP
360
29AFD
  0
DICTIONARY
  5
29B18
330
29A1F
100
AcDbDictionary
280
     1
281
     1
  3
ACAD_XREC_ROUNDTRIP
360
29B19
  0
DICTIONARY
  5
29B08
330
29A17
100
AcDbDictionary
280
     1
281
     1
  3
ACAD_XREC_ROUNDTRIP
360
29B09
  0
DICTIONARY
  5
29B1A
330
29A20
100
AcDbDictionary
280
     1
281
     1
  3
ACAD_XREC_ROUNDTRIP
360
29B1B
  0
DICTIONARY
  5
29B00
330
29A13
100
AcDbDictionary
280
     1
281
     1
  3
ACAD_XREC_ROUNDTRIP
360
29B01
  0
DICTIONARY
  5
29B16
330
29A1E
100
AcDbDictionary
280
     1
281
     1
  3
ACAD_XREC_ROUNDTRIP
360
29B17
  0
DICTIONARY
  5
29B14
330
29A1D
100
AcDbDictionary
280
     1
281
     1
  3
ACAD_XREC_ROUNDTRIP
360
29B15
  0
DICTIONARY
  5
29B0E
330
29A1A
100
AcDbDictionary
280
     1
281
     1
  3
ACAD_XREC_ROUNDTRIP
360
29B0F
  0
DICTIONARY
  5
29B10
330
29A1B
100
AcDbDictionary
280
     1
281
     1
  3
ACAD_XREC_ROUNDTRIP
360
29B11
  0
DICTIONARY
  5
29B06
330
29A16
100
AcDbDictionary
280
     1
281
     1
  3
ACAD_XREC_ROUNDTRIP
360
29B07
  0
DICTIONARY
  5
29AFA
330
29A10
100
AcDbDictionary
280
     1
281
     1
  3
ACAD_XREC_ROUNDTRIP
360
29AFB
  0
DICTIONARY
  5
29B12
330
29A1C
100
AcDbDictionary
280
     1
281
     1
  3
ACAD_XREC_ROUNDTRIP
360
29B13
  0
XRECORD
  5
29B22
102
{ACAD_REACTORS
330
29B21
102
}
330
29B21
100
AcDbXrecord
280
     1
102
DISPLAYNAME
  1
Metric50
102
FLAGS
 90
        0
  0
XRECORD
  5
29AED
102
{ACAD_REACTORS
330
29AEC
102
}
330
29AEC
100
AcDbXrecord
280
     1
102
SHADEPLOT
 70
     0
102
SHADEPLOTRESLEVEL
 70
     2
102
SHADEPLOTCUSTOMDPI
 70
   300
  0
XRECORD
  5
29AEB
102
{ACAD_REACTORS
330
29AEA
102
}
330
29AEA
100
AcDbXrecord
280
     1
102
SHADEPLOT
 70
     0
102
SHADEPLOTRESLEVEL
 70
     4
102
SHADEPLOTCUSTOMDPI
 70
   300
  0
XRECORD
  5
29AA4
102
{ACAD_REACTORS
330
299FB
102
}
330
299FB
100
AcDbXrecord
280
     1
102
MATERIAL
148
0.0
149
0.0
149
0.0
 93
        0
 94
      127
282
     0
 72
     0
 77
     0
171
     0
175
     0
179
     0
273
     0
  0
XRECORD
  5
299FD
102
{ACAD_REACTORS
330
299FB
102
}
330
299FB
100
AcDbXrecord
280
     1
270
     1
271
     1
  0
XRECORD
  5
299FC
102
{ACAD_REACTORS
330
299FB
102
}
330
299FB
100
AcDbXrecord
280
     1
270
     1
271
     1
  0
XRECORD
  5
29A00
102
{ACAD_REACTORS
330
299FB
102
}
330
299FB
100
AcDbXrecord
280
     1
270
     1
271
     1
  0
XRECORD
  5
299FF
102
{ACAD_REACTORS
330
299FB
102
}
330
299FB
100
AcDbXrecord
280
     1
270
     1
271
     1
  0
XRECORD
  5
29A01
102
{ACAD_REACTORS
330
299FB
102
}
330
299FB
100
AcDbXrecord
280
     1
270
     1
271
     1
  0
XRECORD
  5
299FE
102
{ACAD_REACTORS
330
299FB
102
}
330
299FB
100
AcDbXrecord
280
     1
270
     1
271
     1
  0
XRECORD
  5
29AA3
102
{ACAD_REACTORS
330
299F3
102
}
330
299F3
100
AcDbXrecord
280
     1
102
MATERIAL
148
0.0
149
0.0
149
0.0
 93
        0
 94
      127
282
     0
 72
     0
 77
     0
171
     0
175
     0
179
     0
273
     0
  0
XRECORD
  5
299F5
102
{ACAD_REACTORS
330
299F3
102
}
330
299F3
100
AcDbXrecord
280
     1
270
     1
271
     1
  0
XRECORD
  5
299F4
102
{ACAD_REACTORS
330
299F3
102
}
330
299F3
100
AcDbXrecord
280
     1
270
     1
271
     1
  0
XRECORD
  5
299F8
102
{ACAD_REACTORS
330
299F3
102
}
330
299F3
100
AcDbXrecord
280
     1
270
     1
271
     1
  0
XRECORD
  5
299F7
102
{ACAD_REACTORS
330
299F3
102
}
330
299F3
100
AcDbXrecord
280
     1
270
     1
271
     1
  0
XRECORD
  5
299F9
102
{ACAD_REACTORS
330
299F3
102
}
330
299F3
100
AcDbXrecord
280
     1
270
     1
271
     1
  0
XRECORD
  5
299F6
102
{ACAD_REACTORS
330
299F3
102
}
330
299F3
100
AcDbXrecord
280
     1
270
     1
271
     1
  0
XRECORD
  5
29AA5
102
{ACAD_REACTORS
330
29A03
102
}
330
29A03
100
AcDbXrecord
280
     1
102
MATERIAL
148
0.0
149
0.0
149
0.0
 93
        0
 94
      127
282
     0
 72
     0
 77
     0
171
     0
175
     0
179
     0
273
     0
  0
XRECORD
  5
29A05
102
{ACAD_REACTORS
330
29A03
102
}
330
29A03
100
AcDbXrecord
280
     1
270
     1
271
     1
  0
XRECORD
  5
29A04
102
{ACAD_REACTORS
330
29A03
102
}
330
29A03
100
AcDbXrecord
280
     1
270
     1
271
     1
  0
XRECORD
  5
29A08
102
{ACAD_REACTORS
330
29A03
102
}
330
29A03
100
AcDbXrecord
280
     1
270
     1
271
     1
  0
XRECORD
  5
29A07
102
{ACAD_REACTORS
330
29A03
102
}
330
29A03
100
AcDbXrecord
280
     1
270
     1
271
     1
  0
XRECORD
  5
29A09
102
{ACAD_REACTORS
330
29A03
102
}
330
29A03
100
AcDbXrecord
280
     1
270
     1
271
     1
  0
XRECORD
  5
29A06
102
{ACAD_REACTORS
330
29A03
102
}
330
29A03
100
AcDbXrecord
280
     1
270
     1
271
     1
  0
XRECORD
  5
29B20
102
{ACAD_REACTORS
330
29B1F
102
}
330
29B1F
100
AcDbXrecord
280
     1
102
DISPLAYNAME
  1
Metric50
102
FLAGS
 90
        0
  0
CELLSTYLEMAP
  5
29AE2
102
{ACAD_REACTORS
330
29A94
102
}
330
29A94
100
AcDbCellStyleMap
 90
        3
300
CELLSTYLE
  1
TABLEFORMAT_BEGIN
 90
        5
170
     1
 91
        0
 92
    32768
 62
   257
 93
        1
300
CONTENTFORMAT
  1
CONTENTFORMAT_BEGIN
 90
        0
 91
        0
 92
      512
 93
        0
300

 40
0.0
140
1.0
 94
        5
 62
     0
340
11
144
6.0
309
CONTENTFORMAT_END
171
     1
301
MARGIN
  1
CELLMARGIN_BEGIN
 40
1.5
 40
1.5
 40
1.5
 40
1.5
 40
0.18
 40
0.18
309
CELLMARGIN_END
 94
        6
 95
        1
302
GRIDFORMAT
  1
GRIDFORMAT_BEGIN
 90
        0
 91
        1
 62
     0
 92
       -2
340
0
 93
        0
 40
1.125
309
GRIDFORMAT_END
 95
        2
302
GRIDFORMAT
  1
GRIDFORMAT_BEGIN
 90
        0
 91
        1
 62
     0
 92
       -2
340
0
 93
        0
 40
1.125
309
GRIDFORMAT_END
 95
        4
302
GRIDFORMAT
  1
GRIDFORMAT_BEGIN
 90
        0
 91
        1
 62
     0
 92
       -2
340
0
 93
        0
 40
1.125
309
GRIDFORMAT_END
 95
        8
302
GRIDFORMAT
  1
GRIDFORMAT_BEGIN
 90
        0
 91
        1
 62
     0
 92
       -2
340
0
 93
        0
 40
1.125
309
GRIDFORMAT_END
 95
       16
302
GRIDFORMAT
  1
GRIDFORMAT_BEGIN
 90
        0
 91
        1
 62
     0
 92
       -2
340
0
 93
        0
 40
1.125
309
GRIDFORMAT_END
 95
       32
302
GRIDFORMAT
  1
GRIDFORMAT_BEGIN
 90
        0
 91
        1
 62
     0
 92
       -2
340
0
 93
        0
 40
1.125
309
GRIDFORMAT_END
309
TABLEFORMAT_END
  1
CELLSTYLE_BEGIN
 90
        1
 91
        1
300
_TITLE
309
CELLSTYLE_END
300
CELLSTYLE
  1
TABLEFORMAT_BEGIN
 90
        5
170
     1
 91
        0
 92
        0
 62
   257
 93
        1
300
CONTENTFORMAT
  1
CONTENTFORMAT_BEGIN
 90
        0
 91
        0
 92
      512
 93
        0
300

 40
0.0
140
1.0
 94
        5
 62
     0
340
11
144
4.5
309
CONTENTFORMAT_END
171
     1
301
MARGIN
  1
CELLMARGIN_BEGIN
 40
1.5
 40
1.5
 40
1.5
 40
1.5
 40
0.18
 40
0.18
309
CELLMARGIN_END
 94
        6
 95
        1
302
GRIDFORMAT
  1
GRIDFORMAT_BEGIN
 90
        0
 91
        1
 62
     0
 92
       -2
340
0
 93
        0
 40
1.125
309
GRIDFORMAT_END
 95
        2
302
GRIDFORMAT
  1
GRIDFORMAT_BEGIN
 90
        0
 91
        1
 62
     0
 92
       -2
340
0
 93
        0
 40
1.125
309
GRIDFORMAT_END
 95
        4
302
GRIDFORMAT
  1
GRIDFORMAT_BEGIN
 90
        0
 91
        1
 62
     0
 92
       -2
340
0
 93
        0
 40
1.125
309
GRIDFORMAT_END
 95
        8
302
GRIDFORMAT
  1
GRIDFORMAT_BEGIN
 90
        0
 91
        1
 62
     0
 92
       -2
340
0
 93
        0
 40
1.125
309
GRIDFORMAT_END
 95
       16
302
GRIDFORMAT
  1
GRIDFORMAT_BEGIN
 90
        0
 91
        1
 62
     0
 92
       -2
340
0
 93
        0
 40
1.125
309
GRIDFORMAT_END
 95
       32
302
GRIDFORMAT
  1
GRIDFORMAT_BEGIN
 90
        0
 91
        1
 62
     0
 92
       -2
340
0
 93
        0
 40
1.125
309
GRIDFORMAT_END
309
TABLEFORMAT_END
  1
CELLSTYLE_BEGIN
 90
        2
 91
        1
300
_HEADER
309
CELLSTYLE_END
300
CELLSTYLE
  1
TABLEFORMAT_BEGIN
 90
        5
170
     1
 91
        0
 92
        0
 62
   257
 93
        1
300
CONTENTFORMAT
  1
CONTENTFORMAT_BEGIN
 90
        0
 91
        0
 92
      512
 93
        0
300

 40
0.0
140
1.0
 94
        2
 62
     0
340
11
144
4.5
309
CONTENTFORMAT_END
171
     1
301
MARGIN
  1
CELLMARGIN_BEGIN
 40
1.5
 40
1.5
 40
1.5
 40
1.5
 40
0.18
 40
0.18
309
CELLMARGIN_END
 94
        6
 95
        1
302
GRIDFORMAT
  1
GRIDFORMAT_BEGIN
 90
        0
 91
        1
 62
     0
 92
       -2
340
0
 93
        0
 40
1.125
309
GRIDFORMAT_END
 95
        2
302
GRIDFORMAT
  1
GRIDFORMAT_BEGIN
 90
        0
 91
        1
 62
     0
 92
       -2
340
0
 93
        0
 40
1.125
309
GRIDFORMAT_END
 95
        4
302
GRIDFORMAT
  1
GRIDFORMAT_BEGIN
 90
        0
 91
        1
 62
     0
 92
       -2
340
0
 93
        0
 40
1.125
309
GRIDFORMAT_END
 95
        8
302
GRIDFORMAT
  1
GRIDFORMAT_BEGIN
 90
        0
 91
        1
 62
     0
 92
       -2
340
0
 93
        0
 40
1.125
309
GRIDFORMAT_END
 95
       16
302
GRIDFORMAT
  1
GRIDFORMAT_BEGIN
 90
        0
 91
        1
 62
     0
 92
       -2
340
0
 93
        0
 40
1.125
309
GRIDFORMAT_END
 95
       32
302
GRIDFORMAT
  1
GRIDFORMAT_BEGIN
 90
        0
 91
        1
 62
     0
 92
       -2
340
0
 93
        0
 40
1.125
309
GRIDFORMAT_END
309
TABLEFORMAT_END
  1
CELLSTYLE_BEGIN
 90
        3
 91
        2
300
_DATA
309
CELLSTYLE_END
  0
XRECORD
  5
29B1E
102
{ACAD_REACTORS
330
29A94
102
}
330
29A94
100
AcDbXrecord
280
     1
102
ACAD_ROUNDTRIP_PRE2007_TABLESTYLE
 90
      512
 91
        0
  1

 92
      512
 93
        0
  2

 94
      512
 95
        0
  3

  0
XRECORD
  5
29AF9
102
{ACAD_REACTORS
330
29AF8
102
}
330
29AF8
100
AcDbXrecord
280
     1
102
RTVSPost2010Prop28
280
     1
102
RTVSPost2010PropOp28
 70
     1
102
RTVSPost2010Prop29
280
     1
102
RTVSPost2010PropOp29
 70
     1
102
RTVSPost2010Prop30
280
     0
102
RTVSPost2010PropOp30
 70
     1
102
RTVSPost2010Prop31
280
     0
102
RTVSPost2010PropOp31
 70
     1
102
RTVSPost2010Prop32
280
     0
102
RTVSPost2010PropOp32
 70
     1
102
RTVSPost2010Prop33
280
     0
102
RTVSPost2010PropOp33
 70
     1
102
RTVSPost2010Prop34
280
     0
102
RTVSPost2010PropOp34
 70
     1
102
RTVSPost2010Prop35
280
     0
102
RTVSPost2010PropOp35
 70
     1
102
RTVSPost2010Prop36
280
     0
102
RTVSPost2010PropOp36
 70
     1
102
RTVSPost2010Prop37
 90
       50
102
RTVSPost2010PropOp37
 70
     1
102
RTVSPost2010Prop38
140
0.0
102
RTVSPost2010PropOp38
 70
     1
102
RTVSPost2010Prop39
140
1.0
102
RTVSPost2010PropOp39
 70
     1
102
RTVSPost2010Prop40
 90
        0
102
RTVSPost2010PropOp40
 70
     1
102
RTVSPost2010Prop41ColorIndex
 90
       18
102
RTVSPost2010Prop41ColorRGB
 90
        0
102
RTVSPost2010PropOp41
 70
     1
102
RTVSPost2010Prop42
 90
       50
102
RTVSPost2010PropOp42
 70
     1
102
RTVSPost2010Prop43
 90
        3
102
RTVSPost2010PropOp43
 70
     1
102
RTVSPost2010Prop44ColorIndex
 90
        5
102
RTVSPost2010Prop44ColorRGB
 90
      255
102
RTVSPost2010PropOp44
 70
     1
102
RTVSPost2010Prop45
280
     0
102
RTVSPost2010PropOp45
 70
     1
102
RTVSPost2010Prop46
 90
       50
102
RTVSPost2010PropOp46
 70
     1
102
RTVSPost2010Prop47
 90
       50
102
RTVSPost2010PropOp47
 70
     1
102
RTVSPost2010Prop48
 90
       50
102
RTVSPost2010PropOp48
 70
     1
102
RTVSPost2010Prop49
280
     0
102
RTVSPost2010PropOp49
 70
     1
102
RTVSPost2010Prop50
 90
       50
102
RTVSPost2010PropOp50
 70
     1
102
RTVSPost2010Prop51ColorIndex
 90
      256
102
RTVSPost2010Prop51ColorRGB
 90
-16777216
102
RTVSPost2010PropOp51
 70
     0
102
RTVSPost2010Prop52
140
1.0
102
RTVSPost2010PropOp52
 70
     0
102
RTVSPost2010Prop53
 90
        2
102
RTVSPost2010PropOp53
 70
     1
102
RTVSPost2010Prop54
  1
strokes_ogs.tif
102
RTVSPost2010PropOp54
 70
     1
102
RTVSPost2010Prop55
280
     0
102
RTVSPost2010PropOp55
 70
     1
102
RTVSPost2010Prop56
140
1.0
102
RTVSPost2010PropOp56
 70
     1
102
RTVSPost2010Prop57
140
1.0
102
RTVSPost2010PropOp57
 70
     1
102
RTVSPropertyOp0
 70
     1
102
RTVSPropertyOp1
 70
     1
102
RTVSPropertyOp2
 70
     1
102
RTVSPropertyOp3
 70
     1
102
RTVSPropertyOp4
 70
     1
102
RTVSPropertyOp5
 70
     1
102
RTVSPropertyOp6
 70
     1
102
RTVSPropertyOp7
 70
     1
102
RTVSPropertyOp8
 70
     1
102
RTVSPropertyOp9
 70
     1
102
RTVSPropertyOp10
 70
     1
102
RTVSPropertyOp11
 70
     1
102
RTVSPropertyOp12
 70
     1
102
RTVSPropertyOp13
 70
     1
102
RTVSPropertyOp14
 70
     1
102
RTVSPropertyOp15
 70
     1
102
RTVSPropertyOp16
 70
     1
102
RTVSPropertyOp17
 70
     1
102
RTVSPropertyOp18
 70
     1
102
RTVSPropertyOp19
 70
     1
102
RTVSPropertyOp20
 70
     1
102
RTVSPropertyOp21
 70
     1
102
RTVSPropertyOp22
 70
     1
102
RTVSPropertyOp23
 70
     1
102
RTVSPropertyOp24
 70
     1
102
RTVSPropertyOp25
 70
     1
102
RTVSPropertyOp26
 70
     1
102
RTVSPropertyOp27
 70
     1
102
RTVSPropertyOp28
 70
     1
102
RTVSPropertyOp29
 70
     1
102
RTVSPropertyOp30
 70
     1
102
RTVSPropertyOp31
 70
     1
102
RTVSPropertyOp32
 70
     1
102
RTVSPropertyOp33
 70
     1
102
RTVSPropertyOp34
 70
     1
102
RTVSPropertyOp35
 70
     1
102
RTVSPropertyOp36
 70
     1
102
RTVSPropertyOp37
 70
     1
102
RTVSPropertyOp38
 70
     1
102
RTVSPropertyOp39
 70
     1
102
RTVSPropertyOp40
 70
     1
102
RTVSPropertyOp41
 70
     1
102
RTVSPropertyOp42
 70
     1
102
RTVSPropertyOp43
 70
     1
102
RTVSPropertyOp44
 70
     1
102
RTVSPropertyOp45
 70
     1
102
RTVSPropertyOp46
 70
     1
102
RTVSPropertyOp47
 70
     1
102
RTVSPropertyOp48
 70
     1
102
RTVSPropertyOp49
 70
     1
102
RTVSPropertyOp50
 70
     1
102
RTVSPropertyOp51
 70
     0
102
RTVSPropertyOp52
 70
     0
102
RTVSPropertyOp53
 70
     1
102
RTVSPropertyOp54
 70
     1
102
RTVSPropertyOp55
 70
     1
102
RTVSPropertyOp56
 70
     1
102
RTVSPropertyOp57
 70
     1
102
RTVSPropertyOp58
 70
     1
102
RTVSPropertyOp59
 70
     1
102
RTVSPropertyOp60
 70
     1
102
RTVSPropertyOp61
 70
     1
102
RTVSPropertyOp62
 70
     1
  0
XRECORD
  5
29AF7
102
{ACAD_REACTORS
330
29AF6
102
}
330
29AF6
100
AcDbXrecord
280
     1
102
RTVSPost2010Prop28
280
     0
102
RTVSPost2010PropOp28
 70
     1
102
RTVSPost2010Prop29
280
     1
102
RTVSPost2010PropOp29
 70
     1
102
RTVSPost2010Prop30
280
     1
102
RTVSPost2010PropOp30
 70
     1
102
RTVSPost2010Prop31
280
     0
102
RTVSPost2010PropOp31
 70
     1
102
RTVSPost2010Prop32
280
     0
102
RTVSPost2010PropOp32
 70
     1
102
RTVSPost2010Prop33
280
     0
102
RTVSPost2010PropOp33
 70
     1
102
RTVSPost2010Prop34
280
     0
102
RTVSPost2010PropOp34
 70
     1
102
RTVSPost2010Prop35
280
     0
102
RTVSPost2010PropOp35
 70
     1
102
RTVSPost2010Prop36
280
     0
102
RTVSPost2010PropOp36
 70
     1
102
RTVSPost2010Prop37
 90
       50
102
RTVSPost2010PropOp37
 70
     1
102
RTVSPost2010Prop38
140
0.0
102
RTVSPost2010PropOp38
 70
     1
102
RTVSPost2010Prop39
140
1.0
102
RTVSPost2010PropOp39
 70
     1
102
RTVSPost2010Prop40
 90
        0
102
RTVSPost2010PropOp40
 70
     1
102
RTVSPost2010Prop41ColorIndex
 90
       18
102
RTVSPost2010Prop41ColorRGB
 90
        0
102
RTVSPost2010PropOp41
 70
     1
102
RTVSPost2010Prop42
 90
       50
102
RTVSPost2010PropOp42
 70
     1
102
RTVSPost2010Prop43
 90
        3
102
RTVSPost2010PropOp43
 70
     1
102
RTVSPost2010Prop44ColorIndex
 90
        5
102
RTVSPost2010Prop44ColorRGB
 90
      255
102
RTVSPost2010PropOp44
 70
     1
102
RTVSPost2010Prop45
280
     0
102
RTVSPost2010PropOp45
 70
     1
102
RTVSPost2010Prop46
 90
       50
102
RTVSPost2010PropOp46
 70
     1
102
RTVSPost2010Prop47
 90
       50
102
RTVSPost2010PropOp47
 70
     1
102
RTVSPost2010Prop48
 90
       50
102
RTVSPost2010PropOp48
 70
     1
102
RTVSPost2010Prop49
280
     0
102
RTVSPost2010PropOp49
 70
     1
102
RTVSPost2010Prop50
 90
       50
102
RTVSPost2010PropOp50
 70
     1
102
RTVSPost2010Prop51ColorIndex
 90
      256
102
RTVSPost2010Prop51ColorRGB
 90
-16777216
102
RTVSPost2010PropOp51
 70
     0
102
RTVSPost2010Prop52
140
1.0
102
RTVSPost2010PropOp52
 70
     0
102
RTVSPost2010Prop53
 90
        2
102
RTVSPost2010PropOp53
 70
     1
102
RTVSPost2010Prop54
  1
strokes_ogs.tif
102
RTVSPost2010PropOp54
 70
     1
102
RTVSPost2010Prop55
280
     0
102
RTVSPost2010PropOp55
 70
     1
102
RTVSPost2010Prop56
140
1.0
102
RTVSPost2010PropOp56
 70
     1
102
RTVSPost2010Prop57
140
1.0
102
RTVSPost2010PropOp57
 70
     1
102
RTVSPropertyOp0
 70
     1
102
RTVSPropertyOp1
 70
     1
102
RTVSPropertyOp2
 70
     1
102
RTVSPropertyOp3
 70
     1
102
RTVSPropertyOp4
 70
     1
102
RTVSPropertyOp5
 70
     1
102
RTVSPropertyOp6
 70
     1
102
RTVSPropertyOp7
 70
     1
102
RTVSPropertyOp8
 70
     1
102
RTVSPropertyOp9
 70
     1
102
RTVSPropertyOp10
 70
     1
102
RTVSPropertyOp11
 70
     1
102
RTVSPropertyOp12
 70
     1
102
RTVSPropertyOp13
 70
     1
102
RTVSPropertyOp14
 70
     1
102
RTVSPropertyOp15
 70
     1
102
RTVSPropertyOp16
 70
     1
102
RTVSPropertyOp17
 70
     1
102
RTVSPropertyOp18
 70
     1
102
RTVSPropertyOp19
 70
     1
102
RTVSPropertyOp20
 70
     1
102
RTVSPropertyOp21
 70
     1
102
RTVSPropertyOp22
 70
     1
102
RTVSPropertyOp23
 70
     1
102
RTVSPropertyOp24
 70
     1
102
RTVSPropertyOp25
 70
     1
102
RTVSPropertyOp26
 70
     1
102
RTVSPropertyOp27
 70
     1
102
RTVSPropertyOp28
 70
     1
102
RTVSPropertyOp29
 70
     1
102
RTVSPropertyOp30
 70
     1
102
RTVSPropertyOp31
 70
     1
102
RTVSPropertyOp32
 70
     1
102
RTVSPropertyOp33
 70
     1
102
RTVSPropertyOp34
 70
     1
102
RTVSPropertyOp35
 70
     1
102
RTVSPropertyOp36
 70
     1
102
RTVSPropertyOp37
 70
     1
102
RTVSPropertyOp38
 70
     1
102
RTVSPropertyOp39
 70
     1
102
RTVSPropertyOp40
 70
     1
102
RTVSPropertyOp41
 70
     1
102
RTVSPropertyOp42
 70
     1
102
RTVSPropertyOp43
 70
     1
102
RTVSPropertyOp44
 70
     1
102
RTVSPropertyOp45
 70
     1
102
RTVSPropertyOp46
 70
     1
102
RTVSPropertyOp47
 70
     1
102
RTVSPropertyOp48
 70
     1
102
RTVSPropertyOp49
 70
     1
102
RTVSPropertyOp50
 70
     1
102
RTVSPropertyOp51
 70
     0
102
RTVSPropertyOp52
 70
     0
102
RTVSPropertyOp53
 70
     1
102
RTVSPropertyOp54
 70
     1
102
RTVSPropertyOp55
 70
     1
102
RTVSPropertyOp56
 70
     1
102
RTVSPropertyOp57
 70
     1
102
RTVSPropertyOp58
 70
     1
102
RTVSPropertyOp59
 70
     1
102
RTVSPropertyOp60
 70
     1
102
RTVSPropertyOp61
 70
     1
102
RTVSPropertyOp62
 70
     1
  0
XRECORD
  5
29B05
102
{ACAD_REACTORS
330
29B04
102
}
330
29B04
100
AcDbXrecord
280
     1
102
RTVSPost2010Prop28
280
     0
102
RTVSPost2010PropOp28
 70
     1
102
RTVSPost2010Prop29
280
     1
102
RTVSPost2010PropOp29
 70
     1
102
RTVSPost2010Prop30
280
     1
102
RTVSPost2010PropOp30
 70
     1
102
RTVSPost2010Prop31
280
     0
102
RTVSPost2010PropOp31
 70
     1
102
RTVSPost2010Prop32
280
     0
102
RTVSPost2010PropOp32
 70
     1
102
RTVSPost2010Prop33
280
     0
102
RTVSPost2010PropOp33
 70
     1
102
RTVSPost2010Prop34
280
     0
102
RTVSPost2010PropOp34
 70
     1
102
RTVSPost2010Prop35
280
     0
102
RTVSPost2010PropOp35
 70
     1
102
RTVSPost2010Prop36
280
     0
102
RTVSPost2010PropOp36
 70
     1
102
RTVSPost2010Prop37
 90
       50
102
RTVSPost2010PropOp37
 70
     1
102
RTVSPost2010Prop38
140
0.0
102
RTVSPost2010PropOp38
 70
     1
102
RTVSPost2010Prop39
140
1.0
102
RTVSPost2010PropOp39
 70
     1
102
RTVSPost2010Prop40
 90
        0
102
RTVSPost2010PropOp40
 70
     1
102
RTVSPost2010Prop41ColorIndex
 90
       18
102
RTVSPost2010Prop41ColorRGB
 90
        0
102
RTVSPost2010PropOp41
 70
     1
102
RTVSPost2010Prop42
 90
       50
102
RTVSPost2010PropOp42
 70
     1
102
RTVSPost2010Prop43
 90
        3
102
RTVSPost2010PropOp43
 70
     1
102
RTVSPost2010Prop44ColorIndex
 90
        5
102
RTVSPost2010Prop44ColorRGB
 90
      255
102
RTVSPost2010PropOp44
 70
     1
102
RTVSPost2010Prop45
280
     0
102
RTVSPost2010PropOp45
 70
     1
102
RTVSPost2010Prop46
 90
       50
102
RTVSPost2010PropOp46
 70
     1
102
RTVSPost2010Prop47
 90
       50
102
RTVSPost2010PropOp47
 70
     1
102
RTVSPost2010Prop48
 90
       50
102
RTVSPost2010PropOp48
 70
     1
102
RTVSPost2010Prop49
280
     0
102
RTVSPost2010PropOp49
 70
     1
102
RTVSPost2010Prop50
 90
       50
102
RTVSPost2010PropOp50
 70
     1
102
RTVSPost2010Prop51ColorIndex
 90
      256
102
RTVSPost2010Prop51ColorRGB
 90
-16777216
102
RTVSPost2010PropOp51
 70
     0
102
RTVSPost2010Prop52
140
1.0
102
RTVSPost2010PropOp52
 70
     0
102
RTVSPost2010Prop53
 90
        2
102
RTVSPost2010PropOp53
 70
     1
102
RTVSPost2010Prop54
  1
strokes_ogs.tif
102
RTVSPost2010PropOp54
 70
     1
102
RTVSPost2010Prop55
280
     0
102
RTVSPost2010PropOp55
 70
     1
102
RTVSPost2010Prop56
140
1.0
102
RTVSPost2010PropOp56
 70
     1
102
RTVSPost2010Prop57
140
1.0
102
RTVSPost2010PropOp57
 70
     1
102
RTVSPropertyOp0
 70
     1
102
RTVSPropertyOp1
 70
     1
102
RTVSPropertyOp2
 70
     1
102
RTVSPropertyOp3
 70
     1
102
RTVSPropertyOp4
 70
     1
102
RTVSPropertyOp5
 70
     1
102
RTVSPropertyOp6
 70
     1
102
RTVSPropertyOp7
 70
     1
102
RTVSPropertyOp8
 70
     1
102
RTVSPropertyOp9
 70
     1
102
RTVSPropertyOp10
 70
     1
102
RTVSPropertyOp11
 70
     1
102
RTVSPropertyOp12
 70
     1
102
RTVSPropertyOp13
 70
     1
102
RTVSPropertyOp14
 70
     1
102
RTVSPropertyOp15
 70
     1
102
RTVSPropertyOp16
 70
     1
102
RTVSPropertyOp17
 70
     1
102
RTVSPropertyOp18
 70
     1
102
RTVSPropertyOp19
 70
     1
102
RTVSPropertyOp20
 70
     1
102
RTVSPropertyOp21
 70
     1
102
RTVSPropertyOp22
 70
     1
102
RTVSPropertyOp23
 70
     1
102
RTVSPropertyOp24
 70
     1
102
RTVSPropertyOp25
 70
     1
102
RTVSPropertyOp26
 70
     1
102
RTVSPropertyOp27
 70
     1
102
RTVSPropertyOp28
 70
     1
102
RTVSPropertyOp29
 70
     1
102
RTVSPropertyOp30
 70
     1
102
RTVSPropertyOp31
 70
     1
102
RTVSPropertyOp32
 70
     1
102
RTVSPropertyOp33
 70
     1
102
RTVSPropertyOp34
 70
     1
102
RTVSPropertyOp35
 70
     1
102
RTVSPropertyOp36
 70
     1
102
RTVSPropertyOp37
 70
     1
102
RTVSPropertyOp38
 70
     1
102
RTVSPropertyOp39
 70
     1
102
RTVSPropertyOp40
 70
     1
102
RTVSPropertyOp41
 70
     1
102
RTVSPropertyOp42
 70
     1
102
RTVSPropertyOp43
 70
     1
102
RTVSPropertyOp44
 70
     1
102
RTVSPropertyOp45
 70
     1
102
RTVSPropertyOp46
 70
     1
102
RTVSPropertyOp47
 70
     1
102
RTVSPropertyOp48
 70
     1
102
RTVSPropertyOp49
 70
     1
102
RTVSPropertyOp50
 70
     1
102
RTVSPropertyOp51
 70
     0
102
RTVSPropertyOp52
 70
     0
102
RTVSPropertyOp53
 70
     1
102
RTVSPropertyOp54
 70
     1
102
RTVSPropertyOp55
 70
     1
102
RTVSPropertyOp56
 70
     1
102
RTVSPropertyOp57
 70
     1
102
RTVSPropertyOp58
 70
     1
102
RTVSPropertyOp59
 70
     1
102
RTVSPropertyOp60
 70
     1
102
RTVSPropertyOp61
 70
     1
102
RTVSPropertyOp62
 70
     1
  0
XRECORD
  5
29B0D
102
{ACAD_REACTORS
330
29B0C
102
}
330
29B0C
100
AcDbXrecord
280
     1
102
RTVSPost2010Prop28
280
     0
102
RTVSPost2010PropOp28
 70
     1
102
RTVSPost2010Prop29
280
     1
102
RTVSPost2010PropOp29
 70
     1
102
RTVSPost2010Prop30
280
     1
102
RTVSPost2010PropOp30
 70
     1
102
RTVSPost2010Prop31
280
     0
102
RTVSPost2010PropOp31
 70
     1
102
RTVSPost2010Prop32
280
     0
102
RTVSPost2010PropOp32
 70
     1
102
RTVSPost2010Prop33
280
     0
102
RTVSPost2010PropOp33
 70
     1
102
RTVSPost2010Prop34
280
     0
102
RTVSPost2010PropOp34
 70
     1
102
RTVSPost2010Prop35
280
     0
102
RTVSPost2010PropOp35
 70
     1
102
RTVSPost2010Prop36
280
     0
102
RTVSPost2010PropOp36
 70
     1
102
RTVSPost2010Prop37
 90
       50
102
RTVSPost2010PropOp37
 70
     1
102
RTVSPost2010Prop38
140
0.0
102
RTVSPost2010PropOp38
 70
     1
102
RTVSPost2010Prop39
140
1.0
102
RTVSPost2010PropOp39
 70
     1
102
RTVSPost2010Prop40
 90
        0
102
RTVSPost2010PropOp40
 70
     1
102
RTVSPost2010Prop41ColorIndex
 90
       18
102
RTVSPost2010Prop41ColorRGB
 90
        0
102
RTVSPost2010PropOp41
 70
     1
102
RTVSPost2010Prop42
 90
       50
102
RTVSPost2010PropOp42
 70
     1
102
RTVSPost2010Prop43
 90
        3
102
RTVSPost2010PropOp43
 70
     1
102
RTVSPost2010Prop44ColorIndex
 90
        5
102
RTVSPost2010Prop44ColorRGB
 90
      255
102
RTVSPost2010PropOp44
 70
     1
102
RTVSPost2010Prop45
280
     0
102
RTVSPost2010PropOp45
 70
     1
102
RTVSPost2010Prop46
 90
       50
102
RTVSPost2010PropOp46
 70
     1
102
RTVSPost2010Prop47
 90
       50
102
RTVSPost2010PropOp47
 70
     1
102
RTVSPost2010Prop48
 90
       50
102
RTVSPost2010PropOp48
 70
     1
102
RTVSPost2010Prop49
280
     0
102
RTVSPost2010PropOp49
 70
     1
102
RTVSPost2010Prop50
 90
       50
102
RTVSPost2010PropOp50
 70
     1
102
RTVSPost2010Prop51ColorIndex
 90
      256
102
RTVSPost2010Prop51ColorRGB
 90
-16777216
102
RTVSPost2010PropOp51
 70
     0
102
RTVSPost2010Prop52
140
1.0
102
RTVSPost2010PropOp52
 70
     0
102
RTVSPost2010Prop53
 90
        2
102
RTVSPost2010PropOp53
 70
     1
102
RTVSPost2010Prop54
  1
strokes_ogs.tif
102
RTVSPost2010PropOp54
 70
     1
102
RTVSPost2010Prop55
280
     0
102
RTVSPost2010PropOp55
 70
     1
102
RTVSPost2010Prop56
140
1.0
102
RTVSPost2010PropOp56
 70
     1
102
RTVSPost2010Prop57
140
1.0
102
RTVSPost2010PropOp57
 70
     1
102
RTVSPropertyOp0
 70
     1
102
RTVSPropertyOp1
 70
     1
102
RTVSPropertyOp2
 70
     1
102
RTVSPropertyOp3
 70
     1
102
RTVSPropertyOp4
 70
     1
102
RTVSPropertyOp5
 70
     1
102
RTVSPropertyOp6
 70
     1
102
RTVSPropertyOp7
 70
     1
102
RTVSPropertyOp8
 70
     1
102
RTVSPropertyOp9
 70
     1
102
RTVSPropertyOp10
 70
     1
102
RTVSPropertyOp11
 70
     1
102
RTVSPropertyOp12
 70
     1
102
RTVSPropertyOp13
 70
     1
102
RTVSPropertyOp14
 70
     1
102
RTVSPropertyOp15
 70
     1
102
RTVSPropertyOp16
 70
     1
102
RTVSPropertyOp17
 70
     1
102
RTVSPropertyOp18
 70
     1
102
RTVSPropertyOp19
 70
     1
102
RTVSPropertyOp20
 70
     1
102
RTVSPropertyOp21
 70
     1
102
RTVSPropertyOp22
 70
     1
102
RTVSPropertyOp23
 70
     1
102
RTVSPropertyOp24
 70
     1
102
RTVSPropertyOp25
 70
     1
102
RTVSPropertyOp26
 70
     1
102
RTVSPropertyOp27
 70
     1
102
RTVSPropertyOp28
 70
     1
102
RTVSPropertyOp29
 70
     1
102
RTVSPropertyOp30
 70
     1
102
RTVSPropertyOp31
 70
     1
102
RTVSPropertyOp32
 70
     1
102
RTVSPropertyOp33
 70
     1
102
RTVSPropertyOp34
 70
     1
102
RTVSPropertyOp35
 70
     1
102
RTVSPropertyOp36
 70
     1
102
RTVSPropertyOp37
 70
     1
102
RTVSPropertyOp38
 70
     1
102
RTVSPropertyOp39
 70
     1
102
RTVSPropertyOp40
 70
     1
102
RTVSPropertyOp41
 70
     1
102
RTVSPropertyOp42
 70
     1
102
RTVSPropertyOp43
 70
     1
102
RTVSPropertyOp44
 70
     1
102
RTVSPropertyOp45
 70
     1
102
RTVSPropertyOp46
 70
     1
102
RTVSPropertyOp47
 70
     1
102
RTVSPropertyOp48
 70
     1
102
RTVSPropertyOp49
 70
     1
102
RTVSPropertyOp50
 70
     1
102
RTVSPropertyOp51
 70
     0
102
RTVSPropertyOp52
 70
     0
102
RTVSPropertyOp53
 70
     1
102
RTVSPropertyOp54
 70
     1
102
RTVSPropertyOp55
 70
     1
102
RTVSPropertyOp56
 70
     1
102
RTVSPropertyOp57
 70
     1
102
RTVSPropertyOp58
 70
     1
102
RTVSPropertyOp59
 70
     1
102
RTVSPropertyOp60
 70
     1
102
RTVSPropertyOp61
 70
     1
102
RTVSPropertyOp62
 70
     1
  0
XRECORD
  5
29AFF
102
{ACAD_REACTORS
330
29AFE
102
}
330
29AFE
100
AcDbXrecord
280
     1
102
RTVSPost2010Prop28
280
     0
102
RTVSPost2010PropOp28
 70
     1
102
RTVSPost2010Prop29
280
     1
102
RTVSPost2010PropOp29
 70
     1
102
RTVSPost2010Prop30
280
     1
102
RTVSPost2010PropOp30
 70
     1
102
RTVSPost2010Prop31
280
     0
102
RTVSPost2010PropOp31
 70
     1
102
RTVSPost2010Prop32
280
     0
102
RTVSPost2010PropOp32
 70
     1
102
RTVSPost2010Prop33
280
     0
102
RTVSPost2010PropOp33
 70
     1
102
RTVSPost2010Prop34
280
     0
102
RTVSPost2010PropOp34
 70
     1
102
RTVSPost2010Prop35
280
     0
102
RTVSPost2010PropOp35
 70
     1
102
RTVSPost2010Prop36
280
     0
102
RTVSPost2010PropOp36
 70
     1
102
RTVSPost2010Prop37
 90
       50
102
RTVSPost2010PropOp37
 70
     1
102
RTVSPost2010Prop38
140
0.0
102
RTVSPost2010PropOp38
 70
     1
102
RTVSPost2010Prop39
140
1.0
102
RTVSPost2010PropOp39
 70
     1
102
RTVSPost2010Prop40
 90
        0
102
RTVSPost2010PropOp40
 70
     1
102
RTVSPost2010Prop41ColorIndex
 90
       18
102
RTVSPost2010Prop41ColorRGB
 90
        0
102
RTVSPost2010PropOp41
 70
     1
102
RTVSPost2010Prop42
 90
       50
102
RTVSPost2010PropOp42
 70
     1
102
RTVSPost2010Prop43
 90
        3
102
RTVSPost2010PropOp43
 70
     1
102
RTVSPost2010Prop44ColorIndex
 90
        5
102
RTVSPost2010Prop44ColorRGB
 90
      255
102
RTVSPost2010PropOp44
 70
     1
102
RTVSPost2010Prop45
280
     0
102
RTVSPost2010PropOp45
 70
     1
102
RTVSPost2010Prop46
 90
       50
102
RTVSPost2010PropOp46
 70
     1
102
RTVSPost2010Prop47
 90
       50
102
RTVSPost2010PropOp47
 70
     1
102
RTVSPost2010Prop48
 90
       50
102
RTVSPost2010PropOp48
 70
     1
102
RTVSPost2010Prop49
280
     0
102
RTVSPost2010PropOp49
 70
     1
102
RTVSPost2010Prop50
 90
       50
102
RTVSPost2010PropOp50
 70
     1
102
RTVSPost2010Prop51ColorIndex
 90
      256
102
RTVSPost2010Prop51ColorRGB
 90
-16777216
102
RTVSPost2010PropOp51
 70
     0
102
RTVSPost2010Prop52
140
1.0
102
RTVSPost2010PropOp52
 70
     0
102
RTVSPost2010Prop53
 90
        2
102
RTVSPost2010PropOp53
 70
     1
102
RTVSPost2010Prop54
  1
strokes_ogs.tif
102
RTVSPost2010PropOp54
 70
     1
102
RTVSPost2010Prop55
280
     0
102
RTVSPost2010PropOp55
 70
     1
102
RTVSPost2010Prop56
140
1.0
102
RTVSPost2010PropOp56
 70
     1
102
RTVSPost2010Prop57
140
1.0
102
RTVSPost2010PropOp57
 70
     1
102
RTVSPropertyOp0
 70
     1
102
RTVSPropertyOp1
 70
     1
102
RTVSPropertyOp2
 70
     1
102
RTVSPropertyOp3
 70
     1
102
RTVSPropertyOp4
 70
     1
102
RTVSPropertyOp5
 70
     1
102
RTVSPropertyOp6
 70
     1
102
RTVSPropertyOp7
 70
     1
102
RTVSPropertyOp8
 70
     1
102
RTVSPropertyOp9
 70
     1
102
RTVSPropertyOp10
 70
     1
102
RTVSPropertyOp11
 70
     1
102
RTVSPropertyOp12
 70
     1
102
RTVSPropertyOp13
 70
     1
102
RTVSPropertyOp14
 70
     1
102
RTVSPropertyOp15
 70
     1
102
RTVSPropertyOp16
 70
     1
102
RTVSPropertyOp17
 70
     1
102
RTVSPropertyOp18
 70
     1
102
RTVSPropertyOp19
 70
     1
102
RTVSPropertyOp20
 70
     1
102
RTVSPropertyOp21
 70
     1
102
RTVSPropertyOp22
 70
     1
102
RTVSPropertyOp23
 70
     1
102
RTVSPropertyOp24
 70
     1
102
RTVSPropertyOp25
 70
     1
102
RTVSPropertyOp26
 70
     1
102
RTVSPropertyOp27
 70
     1
102
RTVSPropertyOp28
 70
     1
102
RTVSPropertyOp29
 70
     1
102
RTVSPropertyOp30
 70
     1
102
RTVSPropertyOp31
 70
     1
102
RTVSPropertyOp32
 70
     1
102
RTVSPropertyOp33
 70
     1
102
RTVSPropertyOp34
 70
     1
102
RTVSPropertyOp35
 70
     1
102
RTVSPropertyOp36
 70
     1
102
RTVSPropertyOp37
 70
     1
102
RTVSPropertyOp38
 70
     1
102
RTVSPropertyOp39
 70
     1
102
RTVSPropertyOp40
 70
     1
102
RTVSPropertyOp41
 70
     1
102
RTVSPropertyOp42
 70
     1
102
RTVSPropertyOp43
 70
     1
102
RTVSPropertyOp44
 70
     1
102
RTVSPropertyOp45
 70
     1
102
RTVSPropertyOp46
 70
     1
102
RTVSPropertyOp47
 70
     1
102
RTVSPropertyOp48
 70
     1
102
RTVSPropertyOp49
 70
     1
102
RTVSPropertyOp50
 70
     1
102
RTVSPropertyOp51
 70
     0
102
RTVSPropertyOp52
 70
     0
102
RTVSPropertyOp53
 70
     1
102
RTVSPropertyOp54
 70
     1
102
RTVSPropertyOp55
 70
     1
102
RTVSPropertyOp56
 70
     1
102
RTVSPropertyOp57
 70
     1
102
RTVSPropertyOp58
 70
     1
102
RTVSPropertyOp59
 70
     1
102
RTVSPropertyOp60
 70
     1
102
RTVSPropertyOp61
 70
     1
102
RTVSPropertyOp62
 70
     1
  0
XRECORD
  5
29B03
102
{ACAD_REACTORS
330
29B02
102
}
330
29B02
100
AcDbXrecord
280
     1
102
RTVSPost2010Prop28
280
     0
102
RTVSPost2010PropOp28
 70
     1
102
RTVSPost2010Prop29
280
     1
102
RTVSPost2010PropOp29
 70
     1
102
RTVSPost2010Prop30
280
     1
102
RTVSPost2010PropOp30
 70
     1
102
RTVSPost2010Prop31
280
     0
102
RTVSPost2010PropOp31
 70
     1
102
RTVSPost2010Prop32
280
     0
102
RTVSPost2010PropOp32
 70
     1
102
RTVSPost2010Prop33
280
     0
102
RTVSPost2010PropOp33
 70
     1
102
RTVSPost2010Prop34
280
     0
102
RTVSPost2010PropOp34
 70
     1
102
RTVSPost2010Prop35
280
     0
102
RTVSPost2010PropOp35
 70
     1
102
RTVSPost2010Prop36
280
     0
102
RTVSPost2010PropOp36
 70
     1
102
RTVSPost2010Prop37
 90
       50
102
RTVSPost2010PropOp37
 70
     1
102
RTVSPost2010Prop38
140
0.0
102
RTVSPost2010PropOp38
 70
     1
102
RTVSPost2010Prop39
140
1.0
102
RTVSPost2010PropOp39
 70
     1
102
RTVSPost2010Prop40
 90
        0
102
RTVSPost2010PropOp40
 70
     1
102
RTVSPost2010Prop41ColorIndex
 90
       18
102
RTVSPost2010Prop41ColorRGB
 90
        0
102
RTVSPost2010PropOp41
 70
     1
102
RTVSPost2010Prop42
 90
       50
102
RTVSPost2010PropOp42
 70
     1
102
RTVSPost2010Prop43
 90
        3
102
RTVSPost2010PropOp43
 70
     1
102
RTVSPost2010Prop44ColorIndex
 90
        5
102
RTVSPost2010Prop44ColorRGB
 90
      255
102
RTVSPost2010PropOp44
 70
     1
102
RTVSPost2010Prop45
280
     0
102
RTVSPost2010PropOp45
 70
     1
102
RTVSPost2010Prop46
 90
       50
102
RTVSPost2010PropOp46
 70
     1
102
RTVSPost2010Prop47
 90
       50
102
RTVSPost2010PropOp47
 70
     1
102
RTVSPost2010Prop48
 90
       50
102
RTVSPost2010PropOp48
 70
     1
102
RTVSPost2010Prop49
280
     0
102
RTVSPost2010PropOp49
 70
     1
102
RTVSPost2010Prop50
 90
       50
102
RTVSPost2010PropOp50
 70
     1
102
RTVSPost2010Prop51ColorIndex
 90
      256
102
RTVSPost2010Prop51ColorRGB
 90
-16777216
102
RTVSPost2010PropOp51
 70
     0
102
RTVSPost2010Prop52
140
1.0
102
RTVSPost2010PropOp52
 70
     0
102
RTVSPost2010Prop53
 90
        2
102
RTVSPost2010PropOp53
 70
     1
102
RTVSPost2010Prop54
  1
strokes_ogs.tif
102
RTVSPost2010PropOp54
 70
     1
102
RTVSPost2010Prop55
280
     0
102
RTVSPost2010PropOp55
 70
     1
102
RTVSPost2010Prop56
140
1.0
102
RTVSPost2010PropOp56
 70
     1
102
RTVSPost2010Prop57
140
1.0
102
RTVSPost2010PropOp57
 70
     1
102
RTVSPropertyOp0
 70
     1
102
RTVSPropertyOp1
 70
     1
102
RTVSPropertyOp2
 70
     1
102
RTVSPropertyOp3
 70
     1
102
RTVSPropertyOp4
 70
     1
102
RTVSPropertyOp5
 70
     1
102
RTVSPropertyOp6
 70
     1
102
RTVSPropertyOp7
 70
     1
102
RTVSPropertyOp8
 70
     1
102
RTVSPropertyOp9
 70
     1
102
RTVSPropertyOp10
 70
     1
102
RTVSPropertyOp11
 70
     1
102
RTVSPropertyOp12
 70
     1
102
RTVSPropertyOp13
 70
     1
102
RTVSPropertyOp14
 70
     1
102
RTVSPropertyOp15
 70
     1
102
RTVSPropertyOp16
 70
     1
102
RTVSPropertyOp17
 70
     1
102
RTVSPropertyOp18
 70
     1
102
RTVSPropertyOp19
 70
     1
102
RTVSPropertyOp20
 70
     1
102
RTVSPropertyOp21
 70
     1
102
RTVSPropertyOp22
 70
     1
102
RTVSPropertyOp23
 70
     1
102
RTVSPropertyOp24
 70
     1
102
RTVSPropertyOp25
 70
     1
102
RTVSPropertyOp26
 70
     1
102
RTVSPropertyOp27
 70
     1
102
RTVSPropertyOp28
 70
     1
102
RTVSPropertyOp29
 70
     1
102
RTVSPropertyOp30
 70
     1
102
RTVSPropertyOp31
 70
     1
102
RTVSPropertyOp32
 70
     1
102
RTVSPropertyOp33
 70
     1
102
RTVSPropertyOp34
 70
     1
102
RTVSPropertyOp35
 70
     1
102
RTVSPropertyOp36
 70
     1
102
RTVSPropertyOp37
 70
     1
102
RTVSPropertyOp38
 70
     1
102
RTVSPropertyOp39
 70
     1
102
RTVSPropertyOp40
 70
     1
102
RTVSPropertyOp41
 70
     1
102
RTVSPropertyOp42
 70
     1
102
RTVSPropertyOp43
 70
     1
102
RTVSPropertyOp44
 70
     1
102
RTVSPropertyOp45
 70
     1
102
RTVSPropertyOp46
 70
     1
102
RTVSPropertyOp47
 70
     1
102
RTVSPropertyOp48
 70
     1
102
RTVSPropertyOp49
 70
     1
102
RTVSPropertyOp50
 70
     1
102
RTVSPropertyOp51
 70
     0
102
RTVSPropertyOp52
 70
     0
102
RTVSPropertyOp53
 70
     1
102
RTVSPropertyOp54
 70
     1
102
RTVSPropertyOp55
 70
     1
102
RTVSPropertyOp56
 70
     1
102
RTVSPropertyOp57
 70
     1
102
RTVSPropertyOp58
 70
     1
102
RTVSPropertyOp59
 70
     1
102
RTVSPropertyOp60
 70
     1
102
RTVSPropertyOp61
 70
     1
102
RTVSPropertyOp62
 70
     1
  0
XRECORD
  5
29B1D
102
{ACAD_REACTORS
330
29B1C
102
}
330
29B1C
100
AcDbXrecord
280
     1
102
RTVSPost2010Prop28
280
     0
102
RTVSPost2010PropOp28
 70
     1
102
RTVSPost2010Prop29
280
     1
102
RTVSPost2010PropOp29
 70
     1
102
RTVSPost2010Prop30
280
     1
102
RTVSPost2010PropOp30
 70
     1
102
RTVSPost2010Prop31
280
     0
102
RTVSPost2010PropOp31
 70
     1
102
RTVSPost2010Prop32
280
     0
102
RTVSPost2010PropOp32
 70
     1
102
RTVSPost2010Prop33
280
     0
102
RTVSPost2010PropOp33
 70
     1
102
RTVSPost2010Prop34
280
     0
102
RTVSPost2010PropOp34
 70
     1
102
RTVSPost2010Prop35
280
     0
102
RTVSPost2010PropOp35
 70
     1
102
RTVSPost2010Prop36
280
     0
102
RTVSPost2010PropOp36
 70
     1
102
RTVSPost2010Prop37
 90
       50
102
RTVSPost2010PropOp37
 70
     0
102
RTVSPost2010Prop38
140
0.0
102
RTVSPost2010PropOp38
 70
     0
102
RTVSPost2010Prop39
140
1.0
102
RTVSPost2010PropOp39
 70
     0
102
RTVSPost2010Prop40
 90
        0
102
RTVSPost2010PropOp40
 70
     0
102
RTVSPost2010Prop41ColorIndex
 90
       18
102
RTVSPost2010Prop41ColorRGB
 90
        0
102
RTVSPost2010PropOp41
 70
     0
102
RTVSPost2010Prop42
 90
       50
102
RTVSPost2010PropOp42
 70
     0
102
RTVSPost2010Prop43
 90
        3
102
RTVSPost2010PropOp43
 70
     0
102
RTVSPost2010Prop44ColorIndex
 90
        5
102
RTVSPost2010Prop44ColorRGB
 90
      255
102
RTVSPost2010PropOp44
 70
     0
102
RTVSPost2010Prop45
280
     0
102
RTVSPost2010PropOp45
 70
     1
102
RTVSPost2010Prop46
 90
       50
102
RTVSPost2010PropOp46
 70
     0
102
RTVSPost2010Prop47
 90
       50
102
RTVSPost2010PropOp47
 70
     0
102
RTVSPost2010Prop48
 90
       50
102
RTVSPost2010PropOp48
 70
     0
102
RTVSPost2010Prop49
280
     0
102
RTVSPost2010PropOp49
 70
     1
102
RTVSPost2010Prop50
 90
       50
102
RTVSPost2010PropOp50
 70
     0
102
RTVSPost2010Prop51ColorIndex
 90
      256
102
RTVSPost2010Prop51ColorRGB
 90
-16777216
102
RTVSPost2010PropOp51
 70
     0
102
RTVSPost2010Prop52
140
1.0
102
RTVSPost2010PropOp52
 70
     0
102
RTVSPost2010Prop53
 90
        2
102
RTVSPost2010PropOp53
 70
     0
102
RTVSPost2010Prop54
  1
strokes_ogs.tif
102
RTVSPost2010PropOp54
 70
     0
102
RTVSPost2010Prop55
280
     0
102
RTVSPost2010PropOp55
 70
     1
102
RTVSPost2010Prop56
140
1.0
102
RTVSPost2010PropOp56
 70
     0
102
RTVSPost2010Prop57
140
1.0
102
RTVSPost2010PropOp57
 70
     0
102
RTVSPropertyOp0
 70
     0
102
RTVSPropertyOp1
 70
     0
102
RTVSPropertyOp2
 70
     0
102
RTVSPropertyOp3
 70
     0
102
RTVSPropertyOp4
 70
     0
102
RTVSPropertyOp5
 70
     0
102
RTVSPropertyOp6
 70
     0
102
RTVSPropertyOp7
 70
     0
102
RTVSPropertyOp8
 70
     0
102
RTVSPropertyOp9
 70
     0
102
RTVSPropertyOp10
 70
     0
102
RTVSPropertyOp11
 70
     0
102
RTVSPropertyOp12
 70
     0
102
RTVSPropertyOp13
 70
     0
102
RTVSPropertyOp14
 70
     2
102
RTVSPropertyOp15
 70
     0
102
RTVSPropertyOp16
 70
     0
102
RTVSPropertyOp17
 70
     0
102
RTVSPropertyOp18
 70
     0
102
RTVSPropertyOp19
 70
     0
102
RTVSPropertyOp20
 70
     0
102
RTVSPropertyOp21
 70
     0
102
RTVSPropertyOp22
 70
     0
102
RTVSPropertyOp23
 70
     0
102
RTVSPropertyOp24
 70
     0
102
RTVSPropertyOp25
 70
     0
102
RTVSPropertyOp26
 70
     0
102
RTVSPropertyOp27
 70
     0
102
RTVSPropertyOp28
 70
     1
102
RTVSPropertyOp29
 70
     1
102
RTVSPropertyOp30
 70
     1
102
RTVSPropertyOp31
 70
     1
102
RTVSPropertyOp32
 70
     1
102
RTVSPropertyOp33
 70
     1
102
RTVSPropertyOp34
 70
     1
102
RTVSPropertyOp35
 70
     1
102
RTVSPropertyOp36
 70
     1
102
RTVSPropertyOp37
 70
     0
102
RTVSPropertyOp38
 70
     0
102
RTVSPropertyOp39
 70
     0
102
RTVSPropertyOp40
 70
     0
102
RTVSPropertyOp41
 70
     0
102
RTVSPropertyOp42
 70
     0
102
RTVSPropertyOp43
 70
     0
102
RTVSPropertyOp44
 70
     0
102
RTVSPropertyOp45
 70
     1
102
RTVSPropertyOp46
 70
     0
102
RTVSPropertyOp47
 70
     0
102
RTVSPropertyOp48
 70
     0
102
RTVSPropertyOp49
 70
     1
102
RTVSPropertyOp50
 70
     0
102
RTVSPropertyOp51
 70
     0
102
RTVSPropertyOp52
 70
     0
102
RTVSPropertyOp53
 70
     0
102
RTVSPropertyOp54
 70
     0
102
RTVSPropertyOp55
 70
     1
102
RTVSPropertyOp56
 70
     0
102
RTVSPropertyOp57
 70
     0
102
RTVSPropertyOp58
 70
     0
102
RTVSPropertyOp59
 70
     0
102
RTVSPropertyOp60
 70
     0
102
RTVSPropertyOp61
 70
     0
102
RTVSPropertyOp62
 70
     0
  0
XRECORD
  5
29B0B
102
{ACAD_REACTORS
330
29B0A
102
}
330
29B0A
100
AcDbXrecord
280
     1
102
RTVSPost2010Prop28
280
     0
102
RTVSPost2010PropOp28
 70
     1
102
RTVSPost2010Prop29
280
     1
102
RTVSPost2010PropOp29
 70
     1
102
RTVSPost2010Prop30
280
     1
102
RTVSPost2010PropOp30
 70
     1
102
RTVSPost2010Prop31
280
     0
102
RTVSPost2010PropOp31
 70
     1
102
RTVSPost2010Prop32
280
     0
102
RTVSPost2010PropOp32
 70
     1
102
RTVSPost2010Prop33
280
     0
102
RTVSPost2010PropOp33
 70
     1
102
RTVSPost2010Prop34
280
     0
102
RTVSPost2010PropOp34
 70
     1
102
RTVSPost2010Prop35
280
     0
102
RTVSPost2010PropOp35
 70
     1
102
RTVSPost2010Prop36
280
     0
102
RTVSPost2010PropOp36
 70
     1
102
RTVSPost2010Prop37
 90
       50
102
RTVSPost2010PropOp37
 70
     1
102
RTVSPost2010Prop38
140
0.0
102
RTVSPost2010PropOp38
 70
     1
102
RTVSPost2010Prop39
140
1.0
102
RTVSPost2010PropOp39
 70
     1
102
RTVSPost2010Prop40
 90
        0
102
RTVSPost2010PropOp40
 70
     1
102
RTVSPost2010Prop41ColorIndex
 90
       18
102
RTVSPost2010Prop41ColorRGB
 90
        0
102
RTVSPost2010PropOp41
 70
     1
102
RTVSPost2010Prop42
 90
       50
102
RTVSPost2010PropOp42
 70
     1
102
RTVSPost2010Prop43
 90
        3
102
RTVSPost2010PropOp43
 70
     1
102
RTVSPost2010Prop44ColorIndex
 90
        5
102
RTVSPost2010Prop44ColorRGB
 90
      255
102
RTVSPost2010PropOp44
 70
     1
102
RTVSPost2010Prop45
280
     0
102
RTVSPost2010PropOp45
 70
     1
102
RTVSPost2010Prop46
 90
       50
102
RTVSPost2010PropOp46
 70
     1
102
RTVSPost2010Prop47
 90
       50
102
RTVSPost2010PropOp47
 70
     1
102
RTVSPost2010Prop48
 90
       50
102
RTVSPost2010PropOp48
 70
     1
102
RTVSPost2010Prop49
280
     0
102
RTVSPost2010PropOp49
 70
     1
102
RTVSPost2010Prop50
 90
       50
102
RTVSPost2010PropOp50
 70
     1
102
RTVSPost2010Prop51ColorIndex
 90
      256
102
RTVSPost2010Prop51ColorRGB
 90
-16777216
102
RTVSPost2010PropOp51
 70
     0
102
RTVSPost2010Prop52
140
1.0
102
RTVSPost2010PropOp52
 70
     0
102
RTVSPost2010Prop53
 90
        2
102
RTVSPost2010PropOp53
 70
     1
102
RTVSPost2010Prop54
  1
strokes_ogs.tif
102
RTVSPost2010PropOp54
 70
     1
102
RTVSPost2010Prop55
280
     0
102
RTVSPost2010PropOp55
 70
     1
102
RTVSPost2010Prop56
140
1.0
102
RTVSPost2010PropOp56
 70
     1
102
RTVSPost2010Prop57
140
1.0
102
RTVSPost2010PropOp57
 70
     1
102
RTVSPropertyOp0
 70
     1
102
RTVSPropertyOp1
 70
     1
102
RTVSPropertyOp2
 70
     1
102
RTVSPropertyOp3
 70
     1
102
RTVSPropertyOp4
 70
     1
102
RTVSPropertyOp5
 70
     1
102
RTVSPropertyOp6
 70
     1
102
RTVSPropertyOp7
 70
     1
102
RTVSPropertyOp8
 70
     1
102
RTVSPropertyOp9
 70
     1
102
RTVSPropertyOp10
 70
     1
102
RTVSPropertyOp11
 70
     1
102
RTVSPropertyOp12
 70
     1
102
RTVSPropertyOp13
 70
     1
102
RTVSPropertyOp14
 70
     1
102
RTVSPropertyOp15
 70
     1
102
RTVSPropertyOp16
 70
     1
102
RTVSPropertyOp17
 70
     1
102
RTVSPropertyOp18
 70
     1
102
RTVSPropertyOp19
 70
     1
102
RTVSPropertyOp20
 70
     1
102
RTVSPropertyOp21
 70
     1
102
RTVSPropertyOp22
 70
     1
102
RTVSPropertyOp23
 70
     1
102
RTVSPropertyOp24
 70
     1
102
RTVSPropertyOp25
 70
     1
102
RTVSPropertyOp26
 70
     1
102
RTVSPropertyOp27
 70
     1
102
RTVSPropertyOp28
 70
     1
102
RTVSPropertyOp29
 70
     1
102
RTVSPropertyOp30
 70
     1
102
RTVSPropertyOp31
 70
     1
102
RTVSPropertyOp32
 70
     1
102
RTVSPropertyOp33
 70
     1
102
RTVSPropertyOp34
 70
     1
102
RTVSPropertyOp35
 70
     1
102
RTVSPropertyOp36
 70
     1
102
RTVSPropertyOp37
 70
     1
102
RTVSPropertyOp38
 70
     1
102
RTVSPropertyOp39
 70
     1
102
RTVSPropertyOp40
 70
     1
102
RTVSPropertyOp41
 70
     1
102
RTVSPropertyOp42
 70
     1
102
RTVSPropertyOp43
 70
     1
102
RTVSPropertyOp44
 70
     1
102
RTVSPropertyOp45
 70
     1
102
RTVSPropertyOp46
 70
     1
102
RTVSPropertyOp47
 70
     1
102
RTVSPropertyOp48
 70
     1
102
RTVSPropertyOp49
 70
     1
102
RTVSPropertyOp50
 70
     1
102
RTVSPropertyOp51
 70
     0
102
RTVSPropertyOp52
 70
     0
102
RTVSPropertyOp53
 70
     1
102
RTVSPropertyOp54
 70
     1
102
RTVSPropertyOp55
 70
     1
102
RTVSPropertyOp56
 70
     1
102
RTVSPropertyOp57
 70
     1
102
RTVSPropertyOp58
 70
     1
102
RTVSPropertyOp59
 70
     1
102
RTVSPropertyOp60
 70
     1
102
RTVSPropertyOp61
 70
     1
102
RTVSPropertyOp62
 70
     1
  0
XRECORD
  5
29AEF
102
{ACAD_REACTORS
330
29AEE
102
}
330
29AEE
100
AcDbXrecord
280
     1
102
RTVSPost2010Prop28
280
     0
102
RTVSPost2010PropOp28
 70
     1
102
RTVSPost2010Prop29
280
     1
102
RTVSPost2010PropOp29
 70
     1
102
RTVSPost2010Prop30
280
     1
102
RTVSPost2010PropOp30
 70
     1
102
RTVSPost2010Prop31
280
     0
102
RTVSPost2010PropOp31
 70
     1
102
RTVSPost2010Prop32
280
     0
102
RTVSPost2010PropOp32
 70
     1
102
RTVSPost2010Prop33
280
     0
102
RTVSPost2010PropOp33
 70
     1
102
RTVSPost2010Prop34
280
     0
102
RTVSPost2010PropOp34
 70
     1
102
RTVSPost2010Prop35
280
     0
102
RTVSPost2010PropOp35
 70
     1
102
RTVSPost2010Prop36
280
     0
102
RTVSPost2010PropOp36
 70
     1
102
RTVSPost2010Prop37
 90
       50
102
RTVSPost2010PropOp37
 70
     1
102
RTVSPost2010Prop38
140
0.0
102
RTVSPost2010PropOp38
 70
     1
102
RTVSPost2010Prop39
140
1.0
102
RTVSPost2010PropOp39
 70
     1
102
RTVSPost2010Prop40
 90
        0
102
RTVSPost2010PropOp40
 70
     1
102
RTVSPost2010Prop41ColorIndex
 90
       18
102
RTVSPost2010Prop41ColorRGB
 90
        0
102
RTVSPost2010PropOp41
 70
     1
102
RTVSPost2010Prop42
 90
       50
102
RTVSPost2010PropOp42
 70
     1
102
RTVSPost2010Prop43
 90
        3
102
RTVSPost2010PropOp43
 70
     1
102
RTVSPost2010Prop44ColorIndex
 90
        5
102
RTVSPost2010Prop44ColorRGB
 90
      255
102
RTVSPost2010PropOp44
 70
     1
102
RTVSPost2010Prop45
280
     0
102
RTVSPost2010PropOp45
 70
     1
102
RTVSPost2010Prop46
 90
       50
102
RTVSPost2010PropOp46
 70
     1
102
RTVSPost2010Prop47
 90
       50
102
RTVSPost2010PropOp47
 70
     1
102
RTVSPost2010Prop48
 90
       50
102
RTVSPost2010PropOp48
 70
     1
102
RTVSPost2010Prop49
280
     0
102
RTVSPost2010PropOp49
 70
     1
102
RTVSPost2010Prop50
 90
       50
102
RTVSPost2010PropOp50
 70
     1
102
RTVSPost2010Prop51ColorIndex
 90
      256
102
RTVSPost2010Prop51ColorRGB
 90
-16777216
102
RTVSPost2010PropOp51
 70
     0
102
RTVSPost2010Prop52
140
1.0
102
RTVSPost2010PropOp52
 70
     0
102
RTVSPost2010Prop53
 90
        2
102
RTVSPost2010PropOp53
 70
     1
102
RTVSPost2010Prop54
  1
strokes_ogs.tif
102
RTVSPost2010PropOp54
 70
     1
102
RTVSPost2010Prop55
280
     0
102
RTVSPost2010PropOp55
 70
     1
102
RTVSPost2010Prop56
140
1.0
102
RTVSPost2010PropOp56
 70
     1
102
RTVSPost2010Prop57
140
1.0
102
RTVSPost2010PropOp57
 70
     1
102
RTVSPropertyOp0
 70
     1
102
RTVSPropertyOp1
 70
     1
102
RTVSPropertyOp2
 70
     1
102
RTVSPropertyOp3
 70
     1
102
RTVSPropertyOp4
 70
     1
102
RTVSPropertyOp5
 70
     1
102
RTVSPropertyOp6
 70
     1
102
RTVSPropertyOp7
 70
     1
102
RTVSPropertyOp8
 70
     1
102
RTVSPropertyOp9
 70
     1
102
RTVSPropertyOp10
 70
     1
102
RTVSPropertyOp11
 70
     1
102
RTVSPropertyOp12
 70
     1
102
RTVSPropertyOp13
 70
     1
102
RTVSPropertyOp14
 70
     1
102
RTVSPropertyOp15
 70
     1
102
RTVSPropertyOp16
 70
     1
102
RTVSPropertyOp17
 70
     1
102
RTVSPropertyOp18
 70
     1
102
RTVSPropertyOp19
 70
     1
102
RTVSPropertyOp20
 70
     1
102
RTVSPropertyOp21
 70
     1
102
RTVSPropertyOp22
 70
     1
102
RTVSPropertyOp23
 70
     1
102
RTVSPropertyOp24
 70
     1
102
RTVSPropertyOp25
 70
     1
102
RTVSPropertyOp26
 70
     1
102
RTVSPropertyOp27
 70
     1
102
RTVSPropertyOp28
 70
     1
102
RTVSPropertyOp29
 70
     1
102
RTVSPropertyOp30
 70
     1
102
RTVSPropertyOp31
 70
     1
102
RTVSPropertyOp32
 70
     1
102
RTVSPropertyOp33
 70
     1
102
RTVSPropertyOp34
 70
     1
102
RTVSPropertyOp35
 70
     1
102
RTVSPropertyOp36
 70
     1
102
RTVSPropertyOp37
 70
     1
102
RTVSPropertyOp38
 70
     1
102
RTVSPropertyOp39
 70
     1
102
RTVSPropertyOp40
 70
     1
102
RTVSPropertyOp41
 70
     1
102
RTVSPropertyOp42
 70
     1
102
RTVSPropertyOp43
 70
     1
102
RTVSPropertyOp44
 70
     1
102
RTVSPropertyOp45
 70
     1
102
RTVSPropertyOp46
 70
     1
102
RTVSPropertyOp47
 70
     1
102
RTVSPropertyOp48
 70
     1
102
RTVSPropertyOp49
 70
     1
102
RTVSPropertyOp50
 70
     1
102
RTVSPropertyOp51
 70
     0
102
RTVSPropertyOp52
 70
     0
102
RTVSPropertyOp53
 70
     1
102
RTVSPropertyOp54
 70
     1
102
RTVSPropertyOp55
 70
     1
102
RTVSPropertyOp56
 70
     1
102
RTVSPropertyOp57
 70
     1
102
RTVSPropertyOp58
 70
     1
102
RTVSPropertyOp59
 70
     1
102
RTVSPropertyOp60
 70
     1
102
RTVSPropertyOp61
 70
     1
102
RTVSPropertyOp62
 70
     1
  0
XRECORD
  5
29AF1
102
{ACAD_REACTORS
330
29AF0
102
}
330
29AF0
100
AcDbXrecord
280
     1
102
RTVSPost2010Prop28
280
     0
102
RTVSPost2010PropOp28
 70
     1
102
RTVSPost2010Prop29
280
     1
102
RTVSPost2010PropOp29
 70
     1
102
RTVSPost2010Prop30
280
     1
102
RTVSPost2010PropOp30
 70
     1
102
RTVSPost2010Prop31
280
     0
102
RTVSPost2010PropOp31
 70
     1
102
RTVSPost2010Prop32
280
     0
102
RTVSPost2010PropOp32
 70
     1
102
RTVSPost2010Prop33
280
     0
102
RTVSPost2010PropOp33
 70
     1
102
RTVSPost2010Prop34
280
     0
102
RTVSPost2010PropOp34
 70
     1
102
RTVSPost2010Prop35
280
     0
102
RTVSPost2010PropOp35
 70
     1
102
RTVSPost2010Prop36
280
     0
102
RTVSPost2010PropOp36
 70
     1
102
RTVSPost2010Prop37
 90
       50
102
RTVSPost2010PropOp37
 70
     1
102
RTVSPost2010Prop38
140
0.0
102
RTVSPost2010PropOp38
 70
     1
102
RTVSPost2010Prop39
140
1.0
102
RTVSPost2010PropOp39
 70
     1
102
RTVSPost2010Prop40
 90
        0
102
RTVSPost2010PropOp40
 70
     1
102
RTVSPost2010Prop41ColorIndex
 90
       18
102
RTVSPost2010Prop41ColorRGB
 90
        0
102
RTVSPost2010PropOp41
 70
     1
102
RTVSPost2010Prop42
 90
       50
102
RTVSPost2010PropOp42
 70
     1
102
RTVSPost2010Prop43
 90
        3
102
RTVSPost2010PropOp43
 70
     1
102
RTVSPost2010Prop44ColorIndex
 90
        5
102
RTVSPost2010Prop44ColorRGB
 90
      255
102
RTVSPost2010PropOp44
 70
     1
102
RTVSPost2010Prop45
280
     0
102
RTVSPost2010PropOp45
 70
     1
102
RTVSPost2010Prop46
 90
       50
102
RTVSPost2010PropOp46
 70
     1
102
RTVSPost2010Prop47
 90
       50
102
RTVSPost2010PropOp47
 70
     1
102
RTVSPost2010Prop48
 90
       50
102
RTVSPost2010PropOp48
 70
     1
102
RTVSPost2010Prop49
280
     0
102
RTVSPost2010PropOp49
 70
     1
102
RTVSPost2010Prop50
 90
       50
102
RTVSPost2010PropOp50
 70
     1
102
RTVSPost2010Prop51ColorIndex
 90
      256
102
RTVSPost2010Prop51ColorRGB
 90
-16777216
102
RTVSPost2010PropOp51
 70
     0
102
RTVSPost2010Prop52
140
1.0
102
RTVSPost2010PropOp52
 70
     0
102
RTVSPost2010Prop53
 90
        2
102
RTVSPost2010PropOp53
 70
     1
102
RTVSPost2010Prop54
  1
strokes_ogs.tif
102
RTVSPost2010PropOp54
 70
     1
102
RTVSPost2010Prop55
280
     0
102
RTVSPost2010PropOp55
 70
     1
102
RTVSPost2010Prop56
140
1.0
102
RTVSPost2010PropOp56
 70
     1
102
RTVSPost2010Prop57
140
1.0
102
RTVSPost2010PropOp57
 70
     1
102
RTVSPropertyOp0
 70
     1
102
RTVSPropertyOp1
 70
     1
102
RTVSPropertyOp2
 70
     1
102
RTVSPropertyOp3
 70
     1
102
RTVSPropertyOp4
 70
     1
102
RTVSPropertyOp5
 70
     1
102
RTVSPropertyOp6
 70
     1
102
RTVSPropertyOp7
 70
     1
102
RTVSPropertyOp8
 70
     1
102
RTVSPropertyOp9
 70
     1
102
RTVSPropertyOp10
 70
     1
102
RTVSPropertyOp11
 70
     1
102
RTVSPropertyOp12
 70
     1
102
RTVSPropertyOp13
 70
     1
102
RTVSPropertyOp14
 70
     1
102
RTVSPropertyOp15
 70
     1
102
RTVSPropertyOp16
 70
     1
102
RTVSPropertyOp17
 70
     1
102
RTVSPropertyOp18
 70
     1
102
RTVSPropertyOp19
 70
     1
102
RTVSPropertyOp20
 70
     1
102
RTVSPropertyOp21
 70
     1
102
RTVSPropertyOp22
 70
     1
102
RTVSPropertyOp23
 70
     1
102
RTVSPropertyOp24
 70
     1
102
RTVSPropertyOp25
 70
     1
102
RTVSPropertyOp26
 70
     1
102
RTVSPropertyOp27
 70
     1
102
RTVSPropertyOp28
 70
     1
102
RTVSPropertyOp29
 70
     1
102
RTVSPropertyOp30
 70
     1
102
RTVSPropertyOp31
 70
     1
102
RTVSPropertyOp32
 70
     1
102
RTVSPropertyOp33
 70
     1
102
RTVSPropertyOp34
 70
     1
102
RTVSPropertyOp35
 70
     1
102
RTVSPropertyOp36
 70
     1
102
RTVSPropertyOp37
 70
     1
102
RTVSPropertyOp38
 70
     1
102
RTVSPropertyOp39
 70
     1
102
RTVSPropertyOp40
 70
     1
102
RTVSPropertyOp41
 70
     1
102
RTVSPropertyOp42
 70
     1
102
RTVSPropertyOp43
 70
     1
102
RTVSPropertyOp44
 70
     1
102
RTVSPropertyOp45
 70
     1
102
RTVSPropertyOp46
 70
     1
102
RTVSPropertyOp47
 70
     1
102
RTVSPropertyOp48
 70
     1
102
RTVSPropertyOp49
 70
     1
102
RTVSPropertyOp50
 70
     1
102
RTVSPropertyOp51
 70
     0
102
RTVSPropertyOp52
 70
     0
102
RTVSPropertyOp53
 70
     1
102
RTVSPropertyOp54
 70
     1
102
RTVSPropertyOp55
 70
     1
102
RTVSPropertyOp56
 70
     1
102
RTVSPropertyOp57
 70
     1
102
RTVSPropertyOp58
 70
     1
102
RTVSPropertyOp59
 70
     1
102
RTVSPropertyOp60
 70
     1
102
RTVSPropertyOp61
 70
     1
102
RTVSPropertyOp62
 70
     1
  0
XRECORD
  5
29AF3
102
{ACAD_REACTORS
330
29AF2
102
}
330
29AF2
100
AcDbXrecord
280
     1
102
RTVSPost2010Prop28
280
     0
102
RTVSPost2010PropOp28
 70
     1
102
RTVSPost2010Prop29
280
     1
102
RTVSPost2010PropOp29
 70
     1
102
RTVSPost2010Prop30
280
     1
102
RTVSPost2010PropOp30
 70
     1
102
RTVSPost2010Prop31
280
     0
102
RTVSPost2010PropOp31
 70
     1
102
RTVSPost2010Prop32
280
     0
102
RTVSPost2010PropOp32
 70
     1
102
RTVSPost2010Prop33
280
     0
102
RTVSPost2010PropOp33
 70
     1
102
RTVSPost2010Prop34
280
     0
102
RTVSPost2010PropOp34
 70
     1
102
RTVSPost2010Prop35
280
     0
102
RTVSPost2010PropOp35
 70
     1
102
RTVSPost2010Prop36
280
     0
102
RTVSPost2010PropOp36
 70
     1
102
RTVSPost2010Prop37
 90
       50
102
RTVSPost2010PropOp37
 70
     1
102
RTVSPost2010Prop38
140
0.0
102
RTVSPost2010PropOp38
 70
     1
102
RTVSPost2010Prop39
140
1.0
102
RTVSPost2010PropOp39
 70
     1
102
RTVSPost2010Prop40
 90
        0
102
RTVSPost2010PropOp40
 70
     1
102
RTVSPost2010Prop41ColorIndex
 90
       18
102
RTVSPost2010Prop41ColorRGB
 90
        0
102
RTVSPost2010PropOp41
 70
     1
102
RTVSPost2010Prop42
 90
       50
102
RTVSPost2010PropOp42
 70
     1
102
RTVSPost2010Prop43
 90
        3
102
RTVSPost2010PropOp43
 70
     1
102
RTVSPost2010Prop44ColorIndex
 90
        5
102
RTVSPost2010Prop44ColorRGB
 90
      255
102
RTVSPost2010PropOp44
 70
     1
102
RTVSPost2010Prop45
280
     0
102
RTVSPost2010PropOp45
 70
     1
102
RTVSPost2010Prop46
 90
       50
102
RTVSPost2010PropOp46
 70
     1
102
RTVSPost2010Prop47
 90
       50
102
RTVSPost2010PropOp47
 70
     1
102
RTVSPost2010Prop48
 90
       50
102
RTVSPost2010PropOp48
 70
     1
102
RTVSPost2010Prop49
280
     0
102
RTVSPost2010PropOp49
 70
     1
102
RTVSPost2010Prop50
 90
       50
102
RTVSPost2010PropOp50
 70
     1
102
RTVSPost2010Prop51ColorIndex
 90
      256
102
RTVSPost2010Prop51ColorRGB
 90
-16777216
102
RTVSPost2010PropOp51
 70
     0
102
RTVSPost2010Prop52
140
1.0
102
RTVSPost2010PropOp52
 70
     0
102
RTVSPost2010Prop53
 90
        2
102
RTVSPost2010PropOp53
 70
     1
102
RTVSPost2010Prop54
  1
strokes_ogs.tif
102
RTVSPost2010PropOp54
 70
     1
102
RTVSPost2010Prop55
280
     0
102
RTVSPost2010PropOp55
 70
     1
102
RTVSPost2010Prop56
140
1.0
102
RTVSPost2010PropOp56
 70
     1
102
RTVSPost2010Prop57
140
1.0
102
RTVSPost2010PropOp57
 70
     1
102
RTVSPropertyOp0
 70
     1
102
RTVSPropertyOp1
 70
     1
102
RTVSPropertyOp2
 70
     1
102
RTVSPropertyOp3
 70
     1
102
RTVSPropertyOp4
 70
     1
102
RTVSPropertyOp5
 70
     1
102
RTVSPropertyOp6
 70
     1
102
RTVSPropertyOp7
 70
     1
102
RTVSPropertyOp8
 70
     1
102
RTVSPropertyOp9
 70
     1
102
RTVSPropertyOp10
 70
     1
102
RTVSPropertyOp11
 70
     1
102
RTVSPropertyOp12
 70
     1
102
RTVSPropertyOp13
 70
     1
102
RTVSPropertyOp14
 70
     1
102
RTVSPropertyOp15
 70
     1
102
RTVSPropertyOp16
 70
     1
102
RTVSPropertyOp17
 70
     1
102
RTVSPropertyOp18
 70
     1
102
RTVSPropertyOp19
 70
     1
102
RTVSPropertyOp20
 70
     1
102
RTVSPropertyOp21
 70
     1
102
RTVSPropertyOp22
 70
     1
102
RTVSPropertyOp23
 70
     1
102
RTVSPropertyOp24
 70
     1
102
RTVSPropertyOp25
 70
     1
102
RTVSPropertyOp26
 70
     1
102
RTVSPropertyOp27
 70
     1
102
RTVSPropertyOp28
 70
     1
102
RTVSPropertyOp29
 70
     1
102
RTVSPropertyOp30
 70
     1
102
RTVSPropertyOp31
 70
     1
102
RTVSPropertyOp32
 70
     1
102
RTVSPropertyOp33
 70
     1
102
RTVSPropertyOp34
 70
     1
102
RTVSPropertyOp35
 70
     1
102
RTVSPropertyOp36
 70
     1
102
RTVSPropertyOp37
 70
     1
102
RTVSPropertyOp38
 70
     1
102
RTVSPropertyOp39
 70
     1
102
RTVSPropertyOp40
 70
     1
102
RTVSPropertyOp41
 70
     1
102
RTVSPropertyOp42
 70
     1
102
RTVSPropertyOp43
 70
     1
102
RTVSPropertyOp44
 70
     1
102
RTVSPropertyOp45
 70
     1
102
RTVSPropertyOp46
 70
     1
102
RTVSPropertyOp47
 70
     1
102
RTVSPropertyOp48
 70
     1
102
RTVSPropertyOp49
 70
     1
102
RTVSPropertyOp50
 70
     1
102
RTVSPropertyOp51
 70
     0
102
RTVSPropertyOp52
 70
     0
102
RTVSPropertyOp53
 70
     1
102
RTVSPropertyOp54
 70
     1
102
RTVSPropertyOp55
 70
     1
102
RTVSPropertyOp56
 70
     1
102
RTVSPropertyOp57
 70
     1
102
RTVSPropertyOp58
 70
     1
102
RTVSPropertyOp59
 70
     1
102
RTVSPropertyOp60
 70
     1
102
RTVSPropertyOp61
 70
     1
102
RTVSPropertyOp62
 70
     1
  0
XRECORD
  5
29AF5
102
{ACAD_REACTORS
330
29AF4
102
}
330
29AF4
100
AcDbXrecord
280
     1
102
RTVSPost2010Prop28
280
     0
102
RTVSPost2010PropOp28
 70
     1
102
RTVSPost2010Prop29
280
     1
102
RTVSPost2010PropOp29
 70
     1
102
RTVSPost2010Prop30
280
     1
102
RTVSPost2010PropOp30
 70
     1
102
RTVSPost2010Prop31
280
     0
102
RTVSPost2010PropOp31
 70
     1
102
RTVSPost2010Prop32
280
     0
102
RTVSPost2010PropOp32
 70
     1
102
RTVSPost2010Prop33
280
     0
102
RTVSPost2010PropOp33
 70
     1
102
RTVSPost2010Prop34
280
     0
102
RTVSPost2010PropOp34
 70
     1
102
RTVSPost2010Prop35
280
     0
102
RTVSPost2010PropOp35
 70
     1
102
RTVSPost2010Prop36
280
     0
102
RTVSPost2010PropOp36
 70
     1
102
RTVSPost2010Prop37
 90
       50
102
RTVSPost2010PropOp37
 70
     1
102
RTVSPost2010Prop38
140
0.0
102
RTVSPost2010PropOp38
 70
     1
102
RTVSPost2010Prop39
140
1.0
102
RTVSPost2010PropOp39
 70
     1
102
RTVSPost2010Prop40
 90
        0
102
RTVSPost2010PropOp40
 70
     1
102
RTVSPost2010Prop41ColorIndex
 90
       18
102
RTVSPost2010Prop41ColorRGB
 90
        0
102
RTVSPost2010PropOp41
 70
     1
102
RTVSPost2010Prop42
 90
       50
102
RTVSPost2010PropOp42
 70
     1
102
RTVSPost2010Prop43
 90
        3
102
RTVSPost2010PropOp43
 70
     1
102
RTVSPost2010Prop44ColorIndex
 90
        5
102
RTVSPost2010Prop44ColorRGB
 90
      255
102
RTVSPost2010PropOp44
 70
     1
102
RTVSPost2010Prop45
280
     0
102
RTVSPost2010PropOp45
 70
     1
102
RTVSPost2010Prop46
 90
       50
102
RTVSPost2010PropOp46
 70
     1
102
RTVSPost2010Prop47
 90
       50
102
RTVSPost2010PropOp47
 70
     1
102
RTVSPost2010Prop48
 90
       50
102
RTVSPost2010PropOp48
 70
     1
102
RTVSPost2010Prop49
280
     0
102
RTVSPost2010PropOp49
 70
     1
102
RTVSPost2010Prop50
 90
       50
102
RTVSPost2010PropOp50
 70
     1
102
RTVSPost2010Prop51ColorIndex
 90
      256
102
RTVSPost2010Prop51ColorRGB
 90
-16777216
102
RTVSPost2010PropOp51
 70
     0
102
RTVSPost2010Prop52
140
1.0
102
RTVSPost2010PropOp52
 70
     0
102
RTVSPost2010Prop53
 90
        2
102
RTVSPost2010PropOp53
 70
     1
102
RTVSPost2010Prop54
  1
strokes_ogs.tif
102
RTVSPost2010PropOp54
 70
     1
102
RTVSPost2010Prop55
280
     0
102
RTVSPost2010PropOp55
 70
     1
102
RTVSPost2010Prop56
140
1.0
102
RTVSPost2010PropOp56
 70
     1
102
RTVSPost2010Prop57
140
1.0
102
RTVSPost2010PropOp57
 70
     1
102
RTVSPropertyOp0
 70
     1
102
RTVSPropertyOp1
 70
     1
102
RTVSPropertyOp2
 70
     1
102
RTVSPropertyOp3
 70
     1
102
RTVSPropertyOp4
 70
     1
102
RTVSPropertyOp5
 70
     1
102
RTVSPropertyOp6
 70
     1
102
RTVSPropertyOp7
 70
     1
102
RTVSPropertyOp8
 70
     1
102
RTVSPropertyOp9
 70
     1
102
RTVSPropertyOp10
 70
     1
102
RTVSPropertyOp11
 70
     1
102
RTVSPropertyOp12
 70
     1
102
RTVSPropertyOp13
 70
     1
102
RTVSPropertyOp14
 70
     1
102
RTVSPropertyOp15
 70
     1
102
RTVSPropertyOp16
 70
     1
102
RTVSPropertyOp17
 70
     1
102
RTVSPropertyOp18
 70
     1
102
RTVSPropertyOp19
 70
     1
102
RTVSPropertyOp20
 70
     1
102
RTVSPropertyOp21
 70
     1
102
RTVSPropertyOp22
 70
     1
102
RTVSPropertyOp23
 70
     1
102
RTVSPropertyOp24
 70
     1
102
RTVSPropertyOp25
 70
     1
102
RTVSPropertyOp26
 70
     1
102
RTVSPropertyOp27
 70
     1
102
RTVSPropertyOp28
 70
     1
102
RTVSPropertyOp29
 70
     1
102
RTVSPropertyOp30
 70
     1
102
RTVSPropertyOp31
 70
     1
102
RTVSPropertyOp32
 70
     1
102
RTVSPropertyOp33
 70
     1
102
RTVSPropertyOp34
 70
     1
102
RTVSPropertyOp35
 70
     1
102
RTVSPropertyOp36
 70
     1
102
RTVSPropertyOp37
 70
     1
102
RTVSPropertyOp38
 70
     1
102
RTVSPropertyOp39
 70
     1
102
RTVSPropertyOp40
 70
     1
102
RTVSPropertyOp41
 70
     1
102
RTVSPropertyOp42
 70
     1
102
RTVSPropertyOp43
 70
     1
102
RTVSPropertyOp44
 70
     1
102
RTVSPropertyOp45
 70
     1
102
RTVSPropertyOp46
 70
     1
102
RTVSPropertyOp47
 70
     1
102
RTVSPropertyOp48
 70
     1
102
RTVSPropertyOp49
 70
     1
102
RTVSPropertyOp50
 70
     1
102
RTVSPropertyOp51
 70
     0
102
RTVSPropertyOp52
 70
     0
102
RTVSPropertyOp53
 70
     1
102
RTVSPropertyOp54
 70
     1
102
RTVSPropertyOp55
 70
     1
102
RTVSPropertyOp56
 70
     1
102
RTVSPropertyOp57
 70
     1
102
RTVSPropertyOp58
 70
     1
102
RTVSPropertyOp59
 70
     1
102
RTVSPropertyOp60
 70
     1
102
RTVSPropertyOp61
 70
     1
102
RTVSPropertyOp62
 70
     1
  0
XRECORD
  5
29AFD
102
{ACAD_REACTORS
330
29AFC
102
}
330
29AFC
100
AcDbXrecord
280
     1
102
RTVSPost2010Prop28
280
     0
102
RTVSPost2010PropOp28
 70
     1
102
RTVSPost2010Prop29
280
     1
102
RTVSPost2010PropOp29
 70
     1
102
RTVSPost2010Prop30
280
     1
102
RTVSPost2010PropOp30
 70
     1
102
RTVSPost2010Prop31
280
     0
102
RTVSPost2010PropOp31
 70
     1
102
RTVSPost2010Prop32
280
     0
102
RTVSPost2010PropOp32
 70
     1
102
RTVSPost2010Prop33
280
     0
102
RTVSPost2010PropOp33
 70
     1
102
RTVSPost2010Prop34
280
     0
102
RTVSPost2010PropOp34
 70
     1
102
RTVSPost2010Prop35
280
     0
102
RTVSPost2010PropOp35
 70
     1
102
RTVSPost2010Prop36
280
     0
102
RTVSPost2010PropOp36
 70
     1
102
RTVSPost2010Prop37
 90
       50
102
RTVSPost2010PropOp37
 70
     1
102
RTVSPost2010Prop38
140
0.0
102
RTVSPost2010PropOp38
 70
     1
102
RTVSPost2010Prop39
140
1.0
102
RTVSPost2010PropOp39
 70
     1
102
RTVSPost2010Prop40
 90
        0
102
RTVSPost2010PropOp40
 70
     1
102
RTVSPost2010Prop41ColorIndex
 90
       18
102
RTVSPost2010Prop41ColorRGB
 90
        0
102
RTVSPost2010PropOp41
 70
     1
102
RTVSPost2010Prop42
 90
       50
102
RTVSPost2010PropOp42
 70
     1
102
RTVSPost2010Prop43
 90
        3
102
RTVSPost2010PropOp43
 70
     1
102
RTVSPost2010Prop44ColorIndex
 90
        5
102
RTVSPost2010Prop44ColorRGB
 90
      255
102
RTVSPost2010PropOp44
 70
     1
102
RTVSPost2010Prop45
280
     0
102
RTVSPost2010PropOp45
 70
     1
102
RTVSPost2010Prop46
 90
       50
102
RTVSPost2010PropOp46
 70
     1
102
RTVSPost2010Prop47
 90
       50
102
RTVSPost2010PropOp47
 70
     1
102
RTVSPost2010Prop48
 90
       50
102
RTVSPost2010PropOp48
 70
     1
102
RTVSPost2010Prop49
280
     0
102
RTVSPost2010PropOp49
 70
     1
102
RTVSPost2010Prop50
 90
       50
102
RTVSPost2010PropOp50
 70
     1
102
RTVSPost2010Prop51ColorIndex
 90
      256
102
RTVSPost2010Prop51ColorRGB
 90
-16777216
102
RTVSPost2010PropOp51
 70
     0
102
RTVSPost2010Prop52
140
1.0
102
RTVSPost2010PropOp52
 70
     0
102
RTVSPost2010Prop53
 90
        2
102
RTVSPost2010PropOp53
 70
     1
102
RTVSPost2010Prop54
  1
strokes_ogs.tif
102
RTVSPost2010PropOp54
 70
     1
102
RTVSPost2010Prop55
280
     0
102
RTVSPost2010PropOp55
 70
     1
102
RTVSPost2010Prop56
140
1.0
102
RTVSPost2010PropOp56
 70
     1
102
RTVSPost2010Prop57
140
1.0
102
RTVSPost2010PropOp57
 70
     1
102
RTVSPropertyOp0
 70
     1
102
RTVSPropertyOp1
 70
     1
102
RTVSPropertyOp2
 70
     1
102
RTVSPropertyOp3
 70
     1
102
RTVSPropertyOp4
 70
     1
102
RTVSPropertyOp5
 70
     1
102
RTVSPropertyOp6
 70
     1
102
RTVSPropertyOp7
 70
     1
102
RTVSPropertyOp8
 70
     1
102
RTVSPropertyOp9
 70
     1
102
RTVSPropertyOp10
 70
     1
102
RTVSPropertyOp11
 70
     1
102
RTVSPropertyOp12
 70
     1
102
RTVSPropertyOp13
 70
     1
102
RTVSPropertyOp14
 70
     1
102
RTVSPropertyOp15
 70
     1
102
RTVSPropertyOp16
 70
     1
102
RTVSPropertyOp17
 70
     1
102
RTVSPropertyOp18
 70
     1
102
RTVSPropertyOp19
 70
     1
102
RTVSPropertyOp20
 70
     1
102
RTVSPropertyOp21
 70
     1
102
RTVSPropertyOp22
 70
     1
102
RTVSPropertyOp23
 70
     1
102
RTVSPropertyOp24
 70
     1
102
RTVSPropertyOp25
 70
     1
102
RTVSPropertyOp26
 70
     1
102
RTVSPropertyOp27
 70
     1
102
RTVSPropertyOp28
 70
     1
102
RTVSPropertyOp29
 70
     1
102
RTVSPropertyOp30
 70
     1
102
RTVSPropertyOp31
 70
     1
102
RTVSPropertyOp32
 70
     1
102
RTVSPropertyOp33
 70
     1
102
RTVSPropertyOp34
 70
     1
102
RTVSPropertyOp35
 70
     1
102
RTVSPropertyOp36
 70
     1
102
RTVSPropertyOp37
 70
     1
102
RTVSPropertyOp38
 70
     1
102
RTVSPropertyOp39
 70
     1
102
RTVSPropertyOp40
 70
     1
102
RTVSPropertyOp41
 70
     1
102
RTVSPropertyOp42
 70
     1
102
RTVSPropertyOp43
 70
     1
102
RTVSPropertyOp44
 70
     1
102
RTVSPropertyOp45
 70
     1
102
RTVSPropertyOp46
 70
     1
102
RTVSPropertyOp47
 70
     1
102
RTVSPropertyOp48
 70
     1
102
RTVSPropertyOp49
 70
     1
102
RTVSPropertyOp50
 70
     1
102
RTVSPropertyOp51
 70
     0
102
RTVSPropertyOp52
 70
     0
102
RTVSPropertyOp53
 70
     1
102
RTVSPropertyOp54
 70
     1
102
RTVSPropertyOp55
 70
     1
102
RTVSPropertyOp56
 70
     1
102
RTVSPropertyOp57
 70
     1
102
RTVSPropertyOp58
 70
     1
102
RTVSPropertyOp59
 70
     1
102
RTVSPropertyOp60
 70
     1
102
RTVSPropertyOp61
 70
     1
102
RTVSPropertyOp62
 70
     1
  0
XRECORD
  5
29B19
102
{ACAD_REACTORS
330
29B18
102
}
330
29B18
100
AcDbXrecord
280
     1
102
RTVSPost2010Prop28
280
     0
102
RTVSPost2010PropOp28
 70
     1
102
RTVSPost2010Prop29
280
     1
102
RTVSPost2010PropOp29
 70
     1
102
RTVSPost2010Prop30
280
     1
102
RTVSPost2010PropOp30
 70
     1
102
RTVSPost2010Prop31
280
     0
102
RTVSPost2010PropOp31
 70
     1
102
RTVSPost2010Prop32
280
     0
102
RTVSPost2010PropOp32
 70
     1
102
RTVSPost2010Prop33
280
     0
102
RTVSPost2010PropOp33
 70
     1
102
RTVSPost2010Prop34
280
     0
102
RTVSPost2010PropOp34
 70
     1
102
RTVSPost2010Prop35
280
     0
102
RTVSPost2010PropOp35
 70
     1
102
RTVSPost2010Prop36
280
     0
102
RTVSPost2010PropOp36
 70
     1
102
RTVSPost2010Prop37
 90
       50
102
RTVSPost2010PropOp37
 70
     0
102
RTVSPost2010Prop38
140
0.0
102
RTVSPost2010PropOp38
 70
     0
102
RTVSPost2010Prop39
140
1.0
102
RTVSPost2010PropOp39
 70
     0
102
RTVSPost2010Prop40
 90
        0
102
RTVSPost2010PropOp40
 70
     0
102
RTVSPost2010Prop41ColorIndex
 90
       18
102
RTVSPost2010Prop41ColorRGB
 90
        0
102
RTVSPost2010PropOp41
 70
     0
102
RTVSPost2010Prop42
 90
       50
102
RTVSPost2010PropOp42
 70
     0
102
RTVSPost2010Prop43
 90
        3
102
RTVSPost2010PropOp43
 70
     0
102
RTVSPost2010Prop44ColorIndex
 90
        5
102
RTVSPost2010Prop44ColorRGB
 90
      255
102
RTVSPost2010PropOp44
 70
     0
102
RTVSPost2010Prop45
280
     0
102
RTVSPost2010PropOp45
 70
     1
102
RTVSPost2010Prop46
 90
       50
102
RTVSPost2010PropOp46
 70
     0
102
RTVSPost2010Prop47
 90
       50
102
RTVSPost2010PropOp47
 70
     0
102
RTVSPost2010Prop48
 90
       50
102
RTVSPost2010PropOp48
 70
     0
102
RTVSPost2010Prop49
280
     0
102
RTVSPost2010PropOp49
 70
     1
102
RTVSPost2010Prop50
 90
       50
102
RTVSPost2010PropOp50
 70
     0
102
RTVSPost2010Prop51ColorIndex
 90
      256
102
RTVSPost2010Prop51ColorRGB
 90
-16777216
102
RTVSPost2010PropOp51
 70
     0
102
RTVSPost2010Prop52
140
1.0
102
RTVSPost2010PropOp52
 70
     0
102
RTVSPost2010Prop53
 90
        2
102
RTVSPost2010PropOp53
 70
     0
102
RTVSPost2010Prop54
  1
strokes_ogs.tif
102
RTVSPost2010PropOp54
 70
     0
102
RTVSPost2010Prop55
280
     0
102
RTVSPost2010PropOp55
 70
     1
102
RTVSPost2010Prop56
140
1.0
102
RTVSPost2010PropOp56
 70
     0
102
RTVSPost2010Prop57
140
1.0
102
RTVSPost2010PropOp57
 70
     0
102
RTVSPropertyOp0
 70
     0
102
RTVSPropertyOp1
 70
     0
102
RTVSPropertyOp2
 70
     0
102
RTVSPropertyOp3
 70
     0
102
RTVSPropertyOp4
 70
     0
102
RTVSPropertyOp5
 70
     0
102
RTVSPropertyOp6
 70
     0
102
RTVSPropertyOp7
 70
     0
102
RTVSPropertyOp8
 70
     0
102
RTVSPropertyOp9
 70
     0
102
RTVSPropertyOp10
 70
     0
102
RTVSPropertyOp11
 70
     0
102
RTVSPropertyOp12
 70
     0
102
RTVSPropertyOp13
 70
     0
102
RTVSPropertyOp14
 70
     2
102
RTVSPropertyOp15
 70
     0
102
RTVSPropertyOp16
 70
     0
102
RTVSPropertyOp17
 70
     0
102
RTVSPropertyOp18
 70
     0
102
RTVSPropertyOp19
 70
     0
102
RTVSPropertyOp20
 70
     0
102
RTVSPropertyOp21
 70
     0
102
RTVSPropertyOp22
 70
     0
102
RTVSPropertyOp23
 70
     0
102
RTVSPropertyOp24
 70
     0
102
RTVSPropertyOp25
 70
     0
102
RTVSPropertyOp26
 70
     0
102
RTVSPropertyOp27
 70
     0
102
RTVSPropertyOp28
 70
     1
102
RTVSPropertyOp29
 70
     1
102
RTVSPropertyOp30
 70
     1
102
RTVSPropertyOp31
 70
     1
102
RTVSPropertyOp32
 70
     1
102
RTVSPropertyOp33
 70
     1
102
RTVSPropertyOp34
 70
     1
102
RTVSPropertyOp35
 70
     1
102
RTVSPropertyOp36
 70
     1
102
RTVSPropertyOp37
 70
     0
102
RTVSPropertyOp38
 70
     0
102
RTVSPropertyOp39
 70
     0
102
RTVSPropertyOp40
 70
     0
102
RTVSPropertyOp41
 70
     0
102
RTVSPropertyOp42
 70
     0
102
RTVSPropertyOp43
 70
     0
102
RTVSPropertyOp44
 70
     0
102
RTVSPropertyOp45
 70
     1
102
RTVSPropertyOp46
 70
     0
102
RTVSPropertyOp47
 70
     0
102
RTVSPropertyOp48
 70
     0
102
RTVSPropertyOp49
 70
     1
102
RTVSPropertyOp50
 70
     0
102
RTVSPropertyOp51
 70
     0
102
RTVSPropertyOp52
 70
     0
102
RTVSPropertyOp53
 70
     0
102
RTVSPropertyOp54
 70
     0
102
RTVSPropertyOp55
 70
     1
102
RTVSPropertyOp56
 70
     0
102
RTVSPropertyOp57
 70
     0
102
RTVSPropertyOp58
 70
     0
102
RTVSPropertyOp59
 70
     0
102
RTVSPropertyOp60
 70
     0
102
RTVSPropertyOp61
 70
     0
102
RTVSPropertyOp62
 70
     0
  0
XRECORD
  5
29B09
102
{ACAD_REACTORS
330
29B08
102
}
330
29B08
100
AcDbXrecord
280
     1
102
RTVSPost2010Prop28
280
     0
102
RTVSPost2010PropOp28
 70
     1
102
RTVSPost2010Prop29
280
     1
102
RTVSPost2010PropOp29
 70
     1
102
RTVSPost2010Prop30
280
     1
102
RTVSPost2010PropOp30
 70
     1
102
RTVSPost2010Prop31
280
     0
102
RTVSPost2010PropOp31
 70
     1
102
RTVSPost2010Prop32
280
     0
102
RTVSPost2010PropOp32
 70
     1
102
RTVSPost2010Prop33
280
     0
102
RTVSPost2010PropOp33
 70
     1
102
RTVSPost2010Prop34
280
     0
102
RTVSPost2010PropOp34
 70
     1
102
RTVSPost2010Prop35
280
     0
102
RTVSPost2010PropOp35
 70
     1
102
RTVSPost2010Prop36
280
     0
102
RTVSPost2010PropOp36
 70
     1
102
RTVSPost2010Prop37
 90
       50
102
RTVSPost2010PropOp37
 70
     1
102
RTVSPost2010Prop38
140
0.0
102
RTVSPost2010PropOp38
 70
     1
102
RTVSPost2010Prop39
140
1.0
102
RTVSPost2010PropOp39
 70
     1
102
RTVSPost2010Prop40
 90
        0
102
RTVSPost2010PropOp40
 70
     1
102
RTVSPost2010Prop41ColorIndex
 90
       18
102
RTVSPost2010Prop41ColorRGB
 90
        0
102
RTVSPost2010PropOp41
 70
     1
102
RTVSPost2010Prop42
 90
       50
102
RTVSPost2010PropOp42
 70
     1
102
RTVSPost2010Prop43
 90
        3
102
RTVSPost2010PropOp43
 70
     1
102
RTVSPost2010Prop44ColorIndex
 90
        5
102
RTVSPost2010Prop44ColorRGB
 90
      255
102
RTVSPost2010PropOp44
 70
     1
102
RTVSPost2010Prop45
280
     0
102
RTVSPost2010PropOp45
 70
     1
102
RTVSPost2010Prop46
 90
       50
102
RTVSPost2010PropOp46
 70
     1
102
RTVSPost2010Prop47
 90
       50
102
RTVSPost2010PropOp47
 70
     1
102
RTVSPost2010Prop48
 90
       50
102
RTVSPost2010PropOp48
 70
     1
102
RTVSPost2010Prop49
280
     0
102
RTVSPost2010PropOp49
 70
     1
102
RTVSPost2010Prop50
 90
       50
102
RTVSPost2010PropOp50
 70
     1
102
RTVSPost2010Prop51ColorIndex
 90
      256
102
RTVSPost2010Prop51ColorRGB
 90
-16777216
102
RTVSPost2010PropOp51
 70
     0
102
RTVSPost2010Prop52
140
1.0
102
RTVSPost2010PropOp52
 70
     0
102
RTVSPost2010Prop53
 90
        2
102
RTVSPost2010PropOp53
 70
     1
102
RTVSPost2010Prop54
  1
strokes_ogs.tif
102
RTVSPost2010PropOp54
 70
     1
102
RTVSPost2010Prop55
280
     0
102
RTVSPost2010PropOp55
 70
     1
102
RTVSPost2010Prop56
140
1.0
102
RTVSPost2010PropOp56
 70
     1
102
RTVSPost2010Prop57
140
1.0
102
RTVSPost2010PropOp57
 70
     1
102
RTVSPropertyOp0
 70
     1
102
RTVSPropertyOp1
 70
     1
102
RTVSPropertyOp2
 70
     1
102
RTVSPropertyOp3
 70
     1
102
RTVSPropertyOp4
 70
     1
102
RTVSPropertyOp5
 70
     1
102
RTVSPropertyOp6
 70
     1
102
RTVSPropertyOp7
 70
     1
102
RTVSPropertyOp8
 70
     1
102
RTVSPropertyOp9
 70
     1
102
RTVSPropertyOp10
 70
     1
102
RTVSPropertyOp11
 70
     1
102
RTVSPropertyOp12
 70
     1
102
RTVSPropertyOp13
 70
     1
102
RTVSPropertyOp14
 70
     1
102
RTVSPropertyOp15
 70
     1
102
RTVSPropertyOp16
 70
     1
102
RTVSPropertyOp17
 70
     1
102
RTVSPropertyOp18
 70
     1
102
RTVSPropertyOp19
 70
     1
102
RTVSPropertyOp20
 70
     1
102
RTVSPropertyOp21
 70
     1
102
RTVSPropertyOp22
 70
     1
102
RTVSPropertyOp23
 70
     1
102
RTVSPropertyOp24
 70
     1
102
RTVSPropertyOp25
 70
     1
102
RTVSPropertyOp26
 70
     1
102
RTVSPropertyOp27
 70
     1
102
RTVSPropertyOp28
 70
     1
102
RTVSPropertyOp29
 70
     1
102
RTVSPropertyOp30
 70
     1
102
RTVSPropertyOp31
 70
     1
102
RTVSPropertyOp32
 70
     1
102
RTVSPropertyOp33
 70
     1
102
RTVSPropertyOp34
 70
     1
102
RTVSPropertyOp35
 70
     1
102
RTVSPropertyOp36
 70
     1
102
RTVSPropertyOp37
 70
     1
102
RTVSPropertyOp38
 70
     1
102
RTVSPropertyOp39
 70
     1
102
RTVSPropertyOp40
 70
     1
102
RTVSPropertyOp41
 70
     1
102
RTVSPropertyOp42
 70
     1
102
RTVSPropertyOp43
 70
     1
102
RTVSPropertyOp44
 70
     1
102
RTVSPropertyOp45
 70
     1
102
RTVSPropertyOp46
 70
     1
102
RTVSPropertyOp47
 70
     1
102
RTVSPropertyOp48
 70
     1
102
RTVSPropertyOp49
 70
     1
102
RTVSPropertyOp50
 70
     1
102
RTVSPropertyOp51
 70
     0
102
RTVSPropertyOp52
 70
     0
102
RTVSPropertyOp53
 70
     1
102
RTVSPropertyOp54
 70
     1
102
RTVSPropertyOp55
 70
     1
102
RTVSPropertyOp56
 70
     1
102
RTVSPropertyOp57
 70
     1
102
RTVSPropertyOp58
 70
     1
102
RTVSPropertyOp59
 70
     1
102
RTVSPropertyOp60
 70
     1
102
RTVSPropertyOp61
 70
     1
102
RTVSPropertyOp62
 70
     1
  0
XRECORD
  5
29B1B
102
{ACAD_REACTORS
330
29B1A
102
}
330
29B1A
100
AcDbXrecord
280
     1
102
RTVSPost2010Prop28
280
     0
102
RTVSPost2010PropOp28
 70
     1
102
RTVSPost2010Prop29
280
     1
102
RTVSPost2010PropOp29
 70
     1
102
RTVSPost2010Prop30
280
     1
102
RTVSPost2010PropOp30
 70
     1
102
RTVSPost2010Prop31
280
     0
102
RTVSPost2010PropOp31
 70
     1
102
RTVSPost2010Prop32
280
     0
102
RTVSPost2010PropOp32
 70
     1
102
RTVSPost2010Prop33
280
     0
102
RTVSPost2010PropOp33
 70
     1
102
RTVSPost2010Prop34
280
     0
102
RTVSPost2010PropOp34
 70
     1
102
RTVSPost2010Prop35
280
     0
102
RTVSPost2010PropOp35
 70
     1
102
RTVSPost2010Prop36
280
     0
102
RTVSPost2010PropOp36
 70
     1
102
RTVSPost2010Prop37
 90
       50
102
RTVSPost2010PropOp37
 70
     0
102
RTVSPost2010Prop38
140
0.0
102
RTVSPost2010PropOp38
 70
     0
102
RTVSPost2010Prop39
140
1.0
102
RTVSPost2010PropOp39
 70
     0
102
RTVSPost2010Prop40
 90
        0
102
RTVSPost2010PropOp40
 70
     0
102
RTVSPost2010Prop41ColorIndex
 90
       18
102
RTVSPost2010Prop41ColorRGB
 90
        0
102
RTVSPost2010PropOp41
 70
     0
102
RTVSPost2010Prop42
 90
       50
102
RTVSPost2010PropOp42
 70
     0
102
RTVSPost2010Prop43
 90
        3
102
RTVSPost2010PropOp43
 70
     0
102
RTVSPost2010Prop44ColorIndex
 90
        5
102
RTVSPost2010Prop44ColorRGB
 90
      255
102
RTVSPost2010PropOp44
 70
     0
102
RTVSPost2010Prop45
280
     0
102
RTVSPost2010PropOp45
 70
     1
102
RTVSPost2010Prop46
 90
       50
102
RTVSPost2010PropOp46
 70
     0
102
RTVSPost2010Prop47
 90
       50
102
RTVSPost2010PropOp47
 70
     0
102
RTVSPost2010Prop48
 90
       50
102
RTVSPost2010PropOp48
 70
     0
102
RTVSPost2010Prop49
280
     0
102
RTVSPost2010PropOp49
 70
     1
102
RTVSPost2010Prop50
 90
       50
102
RTVSPost2010PropOp50
 70
     0
102
RTVSPost2010Prop51ColorIndex
 90
      256
102
RTVSPost2010Prop51ColorRGB
 90
-16777216
102
RTVSPost2010PropOp51
 70
     0
102
RTVSPost2010Prop52
140
1.0
102
RTVSPost2010PropOp52
 70
     0
102
RTVSPost2010Prop53
 90
        2
102
RTVSPost2010PropOp53
 70
     0
102
RTVSPost2010Prop54
  1
strokes_ogs.tif
102
RTVSPost2010PropOp54
 70
     0
102
RTVSPost2010Prop55
280
     0
102
RTVSPost2010PropOp55
 70
     1
102
RTVSPost2010Prop56
140
1.0
102
RTVSPost2010PropOp56
 70
     0
102
RTVSPost2010Prop57
140
1.0
102
RTVSPost2010PropOp57
 70
     0
102
RTVSPropertyOp0
 70
     0
102
RTVSPropertyOp1
 70
     0
102
RTVSPropertyOp2
 70
     0
102
RTVSPropertyOp3
 70
     0
102
RTVSPropertyOp4
 70
     0
102
RTVSPropertyOp5
 70
     0
102
RTVSPropertyOp6
 70
     0
102
RTVSPropertyOp7
 70
     0
102
RTVSPropertyOp8
 70
     0
102
RTVSPropertyOp9
 70
     0
102
RTVSPropertyOp10
 70
     0
102
RTVSPropertyOp11
 70
     0
102
RTVSPropertyOp12
 70
     0
102
RTVSPropertyOp13
 70
     0
102
RTVSPropertyOp14
 70
     2
102
RTVSPropertyOp15
 70
     0
102
RTVSPropertyOp16
 70
     0
102
RTVSPropertyOp17
 70
     0
102
RTVSPropertyOp18
 70
     0
102
RTVSPropertyOp19
 70
     0
102
RTVSPropertyOp20
 70
     0
102
RTVSPropertyOp21
 70
     0
102
RTVSPropertyOp22
 70
     0
102
RTVSPropertyOp23
 70
     0
102
RTVSPropertyOp24
 70
     0
102
RTVSPropertyOp25
 70
     0
102
RTVSPropertyOp26
 70
     0
102
RTVSPropertyOp27
 70
     0
102
RTVSPropertyOp28
 70
     1
102
RTVSPropertyOp29
 70
     1
102
RTVSPropertyOp30
 70
     1
102
RTVSPropertyOp31
 70
     1
102
RTVSPropertyOp32
 70
     1
102
RTVSPropertyOp33
 70
     1
102
RTVSPropertyOp34
 70
     1
102
RTVSPropertyOp35
 70
     1
102
RTVSPropertyOp36
 70
     1
102
RTVSPropertyOp37
 70
     0
102
RTVSPropertyOp38
 70
     0
102
RTVSPropertyOp39
 70
     0
102
RTVSPropertyOp40
 70
     0
102
RTVSPropertyOp41
 70
     0
102
RTVSPropertyOp42
 70
     0
102
RTVSPropertyOp43
 70
     0
102
RTVSPropertyOp44
 70
     0
102
RTVSPropertyOp45
 70
     1
102
RTVSPropertyOp46
 70
     0
102
RTVSPropertyOp47
 70
     0
102
RTVSPropertyOp48
 70
     0
102
RTVSPropertyOp49
 70
     1
102
RTVSPropertyOp50
 70
     0
102
RTVSPropertyOp51
 70
     0
102
RTVSPropertyOp52
 70
     0
102
RTVSPropertyOp53
 70
     0
102
RTVSPropertyOp54
 70
     0
102
RTVSPropertyOp55
 70
     1
102
RTVSPropertyOp56
 70
     0
102
RTVSPropertyOp57
 70
     0
102
RTVSPropertyOp58
 70
     0
102
RTVSPropertyOp59
 70
     0
102
RTVSPropertyOp60
 70
     0
102
RTVSPropertyOp61
 70
     0
102
RTVSPropertyOp62
 70
     0
  0
XRECORD
  5
29B01
102
{ACAD_REACTORS
330
29B00
102
}
330
29B00
100
AcDbXrecord
280
     1
102
RTVSPost2010Prop28
280
     0
102
RTVSPost2010PropOp28
 70
     1
102
RTVSPost2010Prop29
280
     1
102
RTVSPost2010PropOp29
 70
     1
102
RTVSPost2010Prop30
280
     1
102
RTVSPost2010PropOp30
 70
     1
102
RTVSPost2010Prop31
280
     0
102
RTVSPost2010PropOp31
 70
     1
102
RTVSPost2010Prop32
280
     0
102
RTVSPost2010PropOp32
 70
     1
102
RTVSPost2010Prop33
280
     0
102
RTVSPost2010PropOp33
 70
     1
102
RTVSPost2010Prop34
280
     0
102
RTVSPost2010PropOp34
 70
     1
102
RTVSPost2010Prop35
280
     0
102
RTVSPost2010PropOp35
 70
     1
102
RTVSPost2010Prop36
280
     0
102
RTVSPost2010PropOp36
 70
     1
102
RTVSPost2010Prop37
 90
       50
102
RTVSPost2010PropOp37
 70
     1
102
RTVSPost2010Prop38
140
0.0
102
RTVSPost2010PropOp38
 70
     1
102
RTVSPost2010Prop39
140
1.0
102
RTVSPost2010PropOp39
 70
     1
102
RTVSPost2010Prop40
 90
        0
102
RTVSPost2010PropOp40
 70
     1
102
RTVSPost2010Prop41ColorIndex
 90
       18
102
RTVSPost2010Prop41ColorRGB
 90
        0
102
RTVSPost2010PropOp41
 70
     1
102
RTVSPost2010Prop42
 90
       50
102
RTVSPost2010PropOp42
 70
     1
102
RTVSPost2010Prop43
 90
        3
102
RTVSPost2010PropOp43
 70
     1
102
RTVSPost2010Prop44ColorIndex
 90
        5
102
RTVSPost2010Prop44ColorRGB
 90
      255
102
RTVSPost2010PropOp44
 70
     1
102
RTVSPost2010Prop45
280
     0
102
RTVSPost2010PropOp45
 70
     1
102
RTVSPost2010Prop46
 90
       50
102
RTVSPost2010PropOp46
 70
     1
102
RTVSPost2010Prop47
 90
       50
102
RTVSPost2010PropOp47
 70
     1
102
RTVSPost2010Prop48
 90
       50
102
RTVSPost2010PropOp48
 70
     1
102
RTVSPost2010Prop49
280
     0
102
RTVSPost2010PropOp49
 70
     1
102
RTVSPost2010Prop50
 90
       50
102
RTVSPost2010PropOp50
 70
     1
102
RTVSPost2010Prop51ColorIndex
 90
      256
102
RTVSPost2010Prop51ColorRGB
 90
-16777216
102
RTVSPost2010PropOp51
 70
     0
102
RTVSPost2010Prop52
140
1.0
102
RTVSPost2010PropOp52
 70
     0
102
RTVSPost2010Prop53
 90
        2
102
RTVSPost2010PropOp53
 70
     1
102
RTVSPost2010Prop54
  1
strokes_ogs.tif
102
RTVSPost2010PropOp54
 70
     1
102
RTVSPost2010Prop55
280
     0
102
RTVSPost2010PropOp55
 70
     1
102
RTVSPost2010Prop56
140
1.0
102
RTVSPost2010PropOp56
 70
     1
102
RTVSPost2010Prop57
140
1.0
102
RTVSPost2010PropOp57
 70
     1
102
RTVSPropertyOp0
 70
     1
102
RTVSPropertyOp1
 70
     1
102
RTVSPropertyOp2
 70
     1
102
RTVSPropertyOp3
 70
     1
102
RTVSPropertyOp4
 70
     1
102
RTVSPropertyOp5
 70
     1
102
RTVSPropertyOp6
 70
     1
102
RTVSPropertyOp7
 70
     1
102
RTVSPropertyOp8
 70
     1
102
RTVSPropertyOp9
 70
     1
102
RTVSPropertyOp10
 70
     1
102
RTVSPropertyOp11
 70
     1
102
RTVSPropertyOp12
 70
     1
102
RTVSPropertyOp13
 70
     1
102
RTVSPropertyOp14
 70
     1
102
RTVSPropertyOp15
 70
     1
102
RTVSPropertyOp16
 70
     1
102
RTVSPropertyOp17
 70
     1
102
RTVSPropertyOp18
 70
     1
102
RTVSPropertyOp19
 70
     1
102
RTVSPropertyOp20
 70
     1
102
RTVSPropertyOp21
 70
     1
102
RTVSPropertyOp22
 70
     1
102
RTVSPropertyOp23
 70
     1
102
RTVSPropertyOp24
 70
     1
102
RTVSPropertyOp25
 70
     1
102
RTVSPropertyOp26
 70
     1
102
RTVSPropertyOp27
 70
     1
102
RTVSPropertyOp28
 70
     1
102
RTVSPropertyOp29
 70
     1
102
RTVSPropertyOp30
 70
     1
102
RTVSPropertyOp31
 70
     1
102
RTVSPropertyOp32
 70
     1
102
RTVSPropertyOp33
 70
     1
102
RTVSPropertyOp34
 70
     1
102
RTVSPropertyOp35
 70
     1
102
RTVSPropertyOp36
 70
     1
102
RTVSPropertyOp37
 70
     1
102
RTVSPropertyOp38
 70
     1
102
RTVSPropertyOp39
 70
     1
102
RTVSPropertyOp40
 70
     1
102
RTVSPropertyOp41
 70
     1
102
RTVSPropertyOp42
 70
     1
102
RTVSPropertyOp43
 70
     1
102
RTVSPropertyOp44
 70
     1
102
RTVSPropertyOp45
 70
     1
102
RTVSPropertyOp46
 70
     1
102
RTVSPropertyOp47
 70
     1
102
RTVSPropertyOp48
 70
     1
102
RTVSPropertyOp49
 70
     1
102
RTVSPropertyOp50
 70
     1
102
RTVSPropertyOp51
 70
     0
102
RTVSPropertyOp52
 70
     0
102
RTVSPropertyOp53
 70
     1
102
RTVSPropertyOp54
 70
     1
102
RTVSPropertyOp55
 70
     1
102
RTVSPropertyOp56
 70
     1
102
RTVSPropertyOp57
 70
     1
102
RTVSPropertyOp58
 70
     1
102
RTVSPropertyOp59
 70
     1
102
RTVSPropertyOp60
 70
     1
102
RTVSPropertyOp61
 70
     1
102
RTVSPropertyOp62
 70
     1
  0
XRECORD
  5
29B17
102
{ACAD_REACTORS
330
29B16
102
}
330
29B16
100
AcDbXrecord
280
     1
102
RTVSPost2010Prop28
280
     0
102
RTVSPost2010PropOp28
 70
     1
102
RTVSPost2010Prop29
280
     1
102
RTVSPost2010PropOp29
 70
     1
102
RTVSPost2010Prop30
280
     1
102
RTVSPost2010PropOp30
 70
     1
102
RTVSPost2010Prop31
280
     0
102
RTVSPost2010PropOp31
 70
     1
102
RTVSPost2010Prop32
280
     0
102
RTVSPost2010PropOp32
 70
     1
102
RTVSPost2010Prop33
280
     0
102
RTVSPost2010PropOp33
 70
     1
102
RTVSPost2010Prop34
280
     0
102
RTVSPost2010PropOp34
 70
     1
102
RTVSPost2010Prop35
280
     0
102
RTVSPost2010PropOp35
 70
     1
102
RTVSPost2010Prop36
280
     0
102
RTVSPost2010PropOp36
 70
     1
102
RTVSPost2010Prop37
 90
       50
102
RTVSPost2010PropOp37
 70
     1
102
RTVSPost2010Prop38
140
0.0
102
RTVSPost2010PropOp38
 70
     1
102
RTVSPost2010Prop39
140
1.0
102
RTVSPost2010PropOp39
 70
     1
102
RTVSPost2010Prop40
 90
        0
102
RTVSPost2010PropOp40
 70
     1
102
RTVSPost2010Prop41ColorIndex
 90
       18
102
RTVSPost2010Prop41ColorRGB
 90
        0
102
RTVSPost2010PropOp41
 70
     1
102
RTVSPost2010Prop42
 90
       50
102
RTVSPost2010PropOp42
 70
     1
102
RTVSPost2010Prop43
 90
        3
102
RTVSPost2010PropOp43
 70
     1
102
RTVSPost2010Prop44ColorIndex
 90
        5
102
RTVSPost2010Prop44ColorRGB
 90
      255
102
RTVSPost2010PropOp44
 70
     1
102
RTVSPost2010Prop45
280
     0
102
RTVSPost2010PropOp45
 70
     1
102
RTVSPost2010Prop46
 90
       50
102
RTVSPost2010PropOp46
 70
     1
102
RTVSPost2010Prop47
 90
       50
102
RTVSPost2010PropOp47
 70
     1
102
RTVSPost2010Prop48
 90
       50
102
RTVSPost2010PropOp48
 70
     1
102
RTVSPost2010Prop49
280
     0
102
RTVSPost2010PropOp49
 70
     1
102
RTVSPost2010Prop50
 90
       50
102
RTVSPost2010PropOp50
 70
     1
102
RTVSPost2010Prop51ColorIndex
 90
      256
102
RTVSPost2010Prop51ColorRGB
 90
-16777216
102
RTVSPost2010PropOp51
 70
     0
102
RTVSPost2010Prop52
140
1.0
102
RTVSPost2010PropOp52
 70
     0
102
RTVSPost2010Prop53
 90
        2
102
RTVSPost2010PropOp53
 70
     1
102
RTVSPost2010Prop54
  1
strokes_ogs.tif
102
RTVSPost2010PropOp54
 70
     1
102
RTVSPost2010Prop55
280
     0
102
RTVSPost2010PropOp55
 70
     1
102
RTVSPost2010Prop56
140
1.0
102
RTVSPost2010PropOp56
 70
     1
102
RTVSPost2010Prop57
140
1.0
102
RTVSPost2010PropOp57
 70
     1
102
RTVSPropertyOp0
 70
     1
102
RTVSPropertyOp1
 70
     1
102
RTVSPropertyOp2
 70
     1
102
RTVSPropertyOp3
 70
     1
102
RTVSPropertyOp4
 70
     1
102
RTVSPropertyOp5
 70
     1
102
RTVSPropertyOp6
 70
     1
102
RTVSPropertyOp7
 70
     1
102
RTVSPropertyOp8
 70
     1
102
RTVSPropertyOp9
 70
     1
102
RTVSPropertyOp10
 70
     1
102
RTVSPropertyOp11
 70
     1
102
RTVSPropertyOp12
 70
     1
102
RTVSPropertyOp13
 70
     1
102
RTVSPropertyOp14
 70
     1
102
RTVSPropertyOp15
 70
     1
102
RTVSPropertyOp16
 70
     1
102
RTVSPropertyOp17
 70
     1
102
RTVSPropertyOp18
 70
     1
102
RTVSPropertyOp19
 70
     1
102
RTVSPropertyOp20
 70
     1
102
RTVSPropertyOp21
 70
     1
102
RTVSPropertyOp22
 70
     1
102
RTVSPropertyOp23
 70
     1
102
RTVSPropertyOp24
 70
     1
102
RTVSPropertyOp25
 70
     1
102
RTVSPropertyOp26
 70
     1
102
RTVSPropertyOp27
 70
     1
102
RTVSPropertyOp28
 70
     1
102
RTVSPropertyOp29
 70
     1
102
RTVSPropertyOp30
 70
     1
102
RTVSPropertyOp31
 70
     1
102
RTVSPropertyOp32
 70
     1
102
RTVSPropertyOp33
 70
     1
102
RTVSPropertyOp34
 70
     1
102
RTVSPropertyOp35
 70
     1
102
RTVSPropertyOp36
 70
     1
102
RTVSPropertyOp37
 70
     1
102
RTVSPropertyOp38
 70
     1
102
RTVSPropertyOp39
 70
     1
102
RTVSPropertyOp40
 70
     1
102
RTVSPropertyOp41
 70
     1
102
RTVSPropertyOp42
 70
     1
102
RTVSPropertyOp43
 70
     1
102
RTVSPropertyOp44
 70
     1
102
RTVSPropertyOp45
 70
     1
102
RTVSPropertyOp46
 70
     1
102
RTVSPropertyOp47
 70
     1
102
RTVSPropertyOp48
 70
     1
102
RTVSPropertyOp49
 70
     1
102
RTVSPropertyOp50
 70
     1
102
RTVSPropertyOp51
 70
     0
102
RTVSPropertyOp52
 70
     0
102
RTVSPropertyOp53
 70
     1
102
RTVSPropertyOp54
 70
     1
102
RTVSPropertyOp55
 70
     1
102
RTVSPropertyOp56
 70
     1
102
RTVSPropertyOp57
 70
     1
102
RTVSPropertyOp58
 70
     1
102
RTVSPropertyOp59
 70
     1
102
RTVSPropertyOp60
 70
     1
102
RTVSPropertyOp61
 70
     1
102
RTVSPropertyOp62
 70
     1
  0
XRECORD
  5
29B15
102
{ACAD_REACTORS
330
29B14
102
}
330
29B14
100
AcDbXrecord
280
     1
102
RTVSPost2010Prop28
280
     0
102
RTVSPost2010PropOp28
 70
     1
102
RTVSPost2010Prop29
280
     1
102
RTVSPost2010PropOp29
 70
     1
102
RTVSPost2010Prop30
280
     1
102
RTVSPost2010PropOp30
 70
     1
102
RTVSPost2010Prop31
280
     0
102
RTVSPost2010PropOp31
 70
     1
102
RTVSPost2010Prop32
280
     0
102
RTVSPost2010PropOp32
 70
     1
102
RTVSPost2010Prop33
280
     0
102
RTVSPost2010PropOp33
 70
     1
102
RTVSPost2010Prop34
280
     0
102
RTVSPost2010PropOp34
 70
     1
102
RTVSPost2010Prop35
280
     0
102
RTVSPost2010PropOp35
 70
     1
102
RTVSPost2010Prop36
280
     0
102
RTVSPost2010PropOp36
 70
     1
102
RTVSPost2010Prop37
 90
       50
102
RTVSPost2010PropOp37
 70
     1
102
RTVSPost2010Prop38
140
0.0
102
RTVSPost2010PropOp38
 70
     1
102
RTVSPost2010Prop39
140
1.0
102
RTVSPost2010PropOp39
 70
     1
102
RTVSPost2010Prop40
 90
        0
102
RTVSPost2010PropOp40
 70
     1
102
RTVSPost2010Prop41ColorIndex
 90
       18
102
RTVSPost2010Prop41ColorRGB
 90
        0
102
RTVSPost2010PropOp41
 70
     1
102
RTVSPost2010Prop42
 90
       50
102
RTVSPost2010PropOp42
 70
     1
102
RTVSPost2010Prop43
 90
        3
102
RTVSPost2010PropOp43
 70
     1
102
RTVSPost2010Prop44ColorIndex
 90
        5
102
RTVSPost2010Prop44ColorRGB
 90
      255
102
RTVSPost2010PropOp44
 70
     1
102
RTVSPost2010Prop45
280
     0
102
RTVSPost2010PropOp45
 70
     1
102
RTVSPost2010Prop46
 90
       50
102
RTVSPost2010PropOp46
 70
     1
102
RTVSPost2010Prop47
 90
       50
102
RTVSPost2010PropOp47
 70
     1
102
RTVSPost2010Prop48
 90
       50
102
RTVSPost2010PropOp48
 70
     1
102
RTVSPost2010Prop49
280
     0
102
RTVSPost2010PropOp49
 70
     1
102
RTVSPost2010Prop50
 90
       50
102
RTVSPost2010PropOp50
 70
     1
102
RTVSPost2010Prop51ColorIndex
 90
      256
102
RTVSPost2010Prop51ColorRGB
 90
-16777216
102
RTVSPost2010PropOp51
 70
     0
102
RTVSPost2010Prop52
140
1.0
102
RTVSPost2010PropOp52
 70
     0
102
RTVSPost2010Prop53
 90
        2
102
RTVSPost2010PropOp53
 70
     1
102
RTVSPost2010Prop54
  1
strokes_ogs.tif
102
RTVSPost2010PropOp54
 70
     1
102
RTVSPost2010Prop55
280
     0
102
RTVSPost2010PropOp55
 70
     1
102
RTVSPost2010Prop56
140
1.0
102
RTVSPost2010PropOp56
 70
     1
102
RTVSPost2010Prop57
140
1.0
102
RTVSPost2010PropOp57
 70
     1
102
RTVSPropertyOp0
 70
     1
102
RTVSPropertyOp1
 70
     1
102
RTVSPropertyOp2
 70
     1
102
RTVSPropertyOp3
 70
     1
102
RTVSPropertyOp4
 70
     1
102
RTVSPropertyOp5
 70
     1
102
RTVSPropertyOp6
 70
     1
102
RTVSPropertyOp7
 70
     1
102
RTVSPropertyOp8
 70
     1
102
RTVSPropertyOp9
 70
     1
102
RTVSPropertyOp10
 70
     1
102
RTVSPropertyOp11
 70
     1
102
RTVSPropertyOp12
 70
     1
102
RTVSPropertyOp13
 70
     1
102
RTVSPropertyOp14
 70
     1
102
RTVSPropertyOp15
 70
     1
102
RTVSPropertyOp16
 70
     1
102
RTVSPropertyOp17
 70
     1
102
RTVSPropertyOp18
 70
     1
102
RTVSPropertyOp19
 70
     1
102
RTVSPropertyOp20
 70
     1
102
RTVSPropertyOp21
 70
     1
102
RTVSPropertyOp22
 70
     1
102
RTVSPropertyOp23
 70
     1
102
RTVSPropertyOp24
 70
     1
102
RTVSPropertyOp25
 70
     1
102
RTVSPropertyOp26
 70
     1
102
RTVSPropertyOp27
 70
     1
102
RTVSPropertyOp28
 70
     1
102
RTVSPropertyOp29
 70
     1
102
RTVSPropertyOp30
 70
     1
102
RTVSPropertyOp31
 70
     1
102
RTVSPropertyOp32
 70
     1
102
RTVSPropertyOp33
 70
     1
102
RTVSPropertyOp34
 70
     1
102
RTVSPropertyOp35
 70
     1
102
RTVSPropertyOp36
 70
     1
102
RTVSPropertyOp37
 70
     1
102
RTVSPropertyOp38
 70
     1
102
RTVSPropertyOp39
 70
     1
102
RTVSPropertyOp40
 70
     1
102
RTVSPropertyOp41
 70
     1
102
RTVSPropertyOp42
 70
     1
102
RTVSPropertyOp43
 70
     1
102
RTVSPropertyOp44
 70
     1
102
RTVSPropertyOp45
 70
     1
102
RTVSPropertyOp46
 70
     1
102
RTVSPropertyOp47
 70
     1
102
RTVSPropertyOp48
 70
     1
102
RTVSPropertyOp49
 70
     1
102
RTVSPropertyOp50
 70
     1
102
RTVSPropertyOp51
 70
     0
102
RTVSPropertyOp52
 70
     0
102
RTVSPropertyOp53
 70
     1
102
RTVSPropertyOp54
 70
     1
102
RTVSPropertyOp55
 70
     1
102
RTVSPropertyOp56
 70
     1
102
RTVSPropertyOp57
 70
     1
102
RTVSPropertyOp58
 70
     1
102
RTVSPropertyOp59
 70
     1
102
RTVSPropertyOp60
 70
     1
102
RTVSPropertyOp61
 70
     1
102
RTVSPropertyOp62
 70
     1
  0
XRECORD
  5
29B0F
102
{ACAD_REACTORS
330
29B0E
102
}
330
29B0E
100
AcDbXrecord
280
     1
102
RTVSPost2010Prop28
280
     0
102
RTVSPost2010PropOp28
 70
     1
102
RTVSPost2010Prop29
280
     1
102
RTVSPost2010PropOp29
 70
     1
102
RTVSPost2010Prop30
280
     1
102
RTVSPost2010PropOp30
 70
     1
102
RTVSPost2010Prop31
280
     0
102
RTVSPost2010PropOp31
 70
     1
102
RTVSPost2010Prop32
280
     0
102
RTVSPost2010PropOp32
 70
     1
102
RTVSPost2010Prop33
280
     0
102
RTVSPost2010PropOp33
 70
     1
102
RTVSPost2010Prop34
280
     0
102
RTVSPost2010PropOp34
 70
     1
102
RTVSPost2010Prop35
280
     0
102
RTVSPost2010PropOp35
 70
     1
102
RTVSPost2010Prop36
280
     0
102
RTVSPost2010PropOp36
 70
     1
102
RTVSPost2010Prop37
 90
       50
102
RTVSPost2010PropOp37
 70
     1
102
RTVSPost2010Prop38
140
0.0
102
RTVSPost2010PropOp38
 70
     1
102
RTVSPost2010Prop39
140
1.0
102
RTVSPost2010PropOp39
 70
     1
102
RTVSPost2010Prop40
 90
        0
102
RTVSPost2010PropOp40
 70
     1
102
RTVSPost2010Prop41ColorIndex
 90
       18
102
RTVSPost2010Prop41ColorRGB
 90
        0
102
RTVSPost2010PropOp41
 70
     1
102
RTVSPost2010Prop42
 90
       50
102
RTVSPost2010PropOp42
 70
     1
102
RTVSPost2010Prop43
 90
        3
102
RTVSPost2010PropOp43
 70
     1
102
RTVSPost2010Prop44ColorIndex
 90
        5
102
RTVSPost2010Prop44ColorRGB
 90
      255
102
RTVSPost2010PropOp44
 70
     1
102
RTVSPost2010Prop45
280
     0
102
RTVSPost2010PropOp45
 70
     1
102
RTVSPost2010Prop46
 90
       50
102
RTVSPost2010PropOp46
 70
     1
102
RTVSPost2010Prop47
 90
       50
102
RTVSPost2010PropOp47
 70
     1
102
RTVSPost2010Prop48
 90
       50
102
RTVSPost2010PropOp48
 70
     1
102
RTVSPost2010Prop49
280
     0
102
RTVSPost2010PropOp49
 70
     1
102
RTVSPost2010Prop50
 90
       50
102
RTVSPost2010PropOp50
 70
     1
102
RTVSPost2010Prop51ColorIndex
 90
      256
102
RTVSPost2010Prop51ColorRGB
 90
-16777216
102
RTVSPost2010PropOp51
 70
     0
102
RTVSPost2010Prop52
140
1.0
102
RTVSPost2010PropOp52
 70
     0
102
RTVSPost2010Prop53
 90
        2
102
RTVSPost2010PropOp53
 70
     1
102
RTVSPost2010Prop54
  1
strokes_ogs.tif
102
RTVSPost2010PropOp54
 70
     1
102
RTVSPost2010Prop55
280
     0
102
RTVSPost2010PropOp55
 70
     1
102
RTVSPost2010Prop56
140
1.0
102
RTVSPost2010PropOp56
 70
     1
102
RTVSPost2010Prop57
140
1.0
102
RTVSPost2010PropOp57
 70
     1
102
RTVSPropertyOp0
 70
     1
102
RTVSPropertyOp1
 70
     1
102
RTVSPropertyOp2
 70
     1
102
RTVSPropertyOp3
 70
     1
102
RTVSPropertyOp4
 70
     1
102
RTVSPropertyOp5
 70
     1
102
RTVSPropertyOp6
 70
     1
102
RTVSPropertyOp7
 70
     1
102
RTVSPropertyOp8
 70
     1
102
RTVSPropertyOp9
 70
     1
102
RTVSPropertyOp10
 70
     1
102
RTVSPropertyOp11
 70
     1
102
RTVSPropertyOp12
 70
     1
102
RTVSPropertyOp13
 70
     1
102
RTVSPropertyOp14
 70
     1
102
RTVSPropertyOp15
 70
     1
102
RTVSPropertyOp16
 70
     1
102
RTVSPropertyOp17
 70
     1
102
RTVSPropertyOp18
 70
     1
102
RTVSPropertyOp19
 70
     1
102
RTVSPropertyOp20
 70
     1
102
RTVSPropertyOp21
 70
     1
102
RTVSPropertyOp22
 70
     1
102
RTVSPropertyOp23
 70
     1
102
RTVSPropertyOp24
 70
     1
102
RTVSPropertyOp25
 70
     1
102
RTVSPropertyOp26
 70
     1
102
RTVSPropertyOp27
 70
     1
102
RTVSPropertyOp28
 70
     1
102
RTVSPropertyOp29
 70
     1
102
RTVSPropertyOp30
 70
     1
102
RTVSPropertyOp31
 70
     1
102
RTVSPropertyOp32
 70
     1
102
RTVSPropertyOp33
 70
     1
102
RTVSPropertyOp34
 70
     1
102
RTVSPropertyOp35
 70
     1
102
RTVSPropertyOp36
 70
     1
102
RTVSPropertyOp37
 70
     1
102
RTVSPropertyOp38
 70
     1
102
RTVSPropertyOp39
 70
     1
102
RTVSPropertyOp40
 70
     1
102
RTVSPropertyOp41
 70
     1
102
RTVSPropertyOp42
 70
     1
102
RTVSPropertyOp43
 70
     1
102
RTVSPropertyOp44
 70
     1
102
RTVSPropertyOp45
 70
     1
102
RTVSPropertyOp46
 70
     1
102
RTVSPropertyOp47
 70
     1
102
RTVSPropertyOp48
 70
     1
102
RTVSPropertyOp49
 70
     1
102
RTVSPropertyOp50
 70
     1
102
RTVSPropertyOp51
 70
     0
102
RTVSPropertyOp52
 70
     0
102
RTVSPropertyOp53
 70
     1
102
RTVSPropertyOp54
 70
     1
102
RTVSPropertyOp55
 70
     1
102
RTVSPropertyOp56
 70
     1
102
RTVSPropertyOp57
 70
     1
102
RTVSPropertyOp58
 70
     1
102
RTVSPropertyOp59
 70
     1
102
RTVSPropertyOp60
 70
     1
102
RTVSPropertyOp61
 70
     1
102
RTVSPropertyOp62
 70
     1
  0
XRECORD
  5
29B11
102
{ACAD_REACTORS
330
29B10
102
}
330
29B10
100
AcDbXrecord
280
     1
102
RTVSPost2010Prop28
280
     0
102
RTVSPost2010PropOp28
 70
     1
102
RTVSPost2010Prop29
280
     1
102
RTVSPost2010PropOp29
 70
     1
102
RTVSPost2010Prop30
280
     1
102
RTVSPost2010PropOp30
 70
     1
102
RTVSPost2010Prop31
280
     0
102
RTVSPost2010PropOp31
 70
     1
102
RTVSPost2010Prop32
280
     0
102
RTVSPost2010PropOp32
 70
     1
102
RTVSPost2010Prop33
280
     0
102
RTVSPost2010PropOp33
 70
     1
102
RTVSPost2010Prop34
280
     0
102
RTVSPost2010PropOp34
 70
     1
102
RTVSPost2010Prop35
280
     0
102
RTVSPost2010PropOp35
 70
     1
102
RTVSPost2010Prop36
280
     0
102
RTVSPost2010PropOp36
 70
     1
102
RTVSPost2010Prop37
 90
       50
102
RTVSPost2010PropOp37
 70
     1
102
RTVSPost2010Prop38
140
0.0
102
RTVSPost2010PropOp38
 70
     1
102
RTVSPost2010Prop39
140
1.0
102
RTVSPost2010PropOp39
 70
     1
102
RTVSPost2010Prop40
 90
        0
102
RTVSPost2010PropOp40
 70
     1
102
RTVSPost2010Prop41ColorIndex
 90
       18
102
RTVSPost2010Prop41ColorRGB
 90
        0
102
RTVSPost2010PropOp41
 70
     1
102
RTVSPost2010Prop42
 90
       50
102
RTVSPost2010PropOp42
 70
     1
102
RTVSPost2010Prop43
 90
        3
102
RTVSPost2010PropOp43
 70
     1
102
RTVSPost2010Prop44ColorIndex
 90
        5
102
RTVSPost2010Prop44ColorRGB
 90
      255
102
RTVSPost2010PropOp44
 70
     1
102
RTVSPost2010Prop45
280
     0
102
RTVSPost2010PropOp45
 70
     1
102
RTVSPost2010Prop46
 90
       50
102
RTVSPost2010PropOp46
 70
     1
102
RTVSPost2010Prop47
 90
       50
102
RTVSPost2010PropOp47
 70
     1
102
RTVSPost2010Prop48
 90
       50
102
RTVSPost2010PropOp48
 70
     1
102
RTVSPost2010Prop49
280
     0
102
RTVSPost2010PropOp49
 70
     1
102
RTVSPost2010Prop50
 90
       50
102
RTVSPost2010PropOp50
 70
     1
102
RTVSPost2010Prop51ColorIndex
 90
      256
102
RTVSPost2010Prop51ColorRGB
 90
-16777216
102
RTVSPost2010PropOp51
 70
     0
102
RTVSPost2010Prop52
140
1.0
102
RTVSPost2010PropOp52
 70
     0
102
RTVSPost2010Prop53
 90
        2
102
RTVSPost2010PropOp53
 70
     1
102
RTVSPost2010Prop54
  1
strokes_ogs.tif
102
RTVSPost2010PropOp54
 70
     1
102
RTVSPost2010Prop55
280
     0
102
RTVSPost2010PropOp55
 70
     1
102
RTVSPost2010Prop56
140
1.0
102
RTVSPost2010PropOp56
 70
     1
102
RTVSPost2010Prop57
140
1.0
102
RTVSPost2010PropOp57
 70
     1
102
RTVSPropertyOp0
 70
     1
102
RTVSPropertyOp1
 70
     1
102
RTVSPropertyOp2
 70
     1
102
RTVSPropertyOp3
 70
     1
102
RTVSPropertyOp4
 70
     1
102
RTVSPropertyOp5
 70
     1
102
RTVSPropertyOp6
 70
     1
102
RTVSPropertyOp7
 70
     1
102
RTVSPropertyOp8
 70
     1
102
RTVSPropertyOp9
 70
     1
102
RTVSPropertyOp10
 70
     1
102
RTVSPropertyOp11
 70
     1
102
RTVSPropertyOp12
 70
     1
102
RTVSPropertyOp13
 70
     1
102
RTVSPropertyOp14
 70
     1
102
RTVSPropertyOp15
 70
     1
102
RTVSPropertyOp16
 70
     1
102
RTVSPropertyOp17
 70
     1
102
RTVSPropertyOp18
 70
     1
102
RTVSPropertyOp19
 70
     1
102
RTVSPropertyOp20
 70
     1
102
RTVSPropertyOp21
 70
     1
102
RTVSPropertyOp22
 70
     1
102
RTVSPropertyOp23
 70
     1
102
RTVSPropertyOp24
 70
     1
102
RTVSPropertyOp25
 70
     1
102
RTVSPropertyOp26
 70
     1
102
RTVSPropertyOp27
 70
     1
102
RTVSPropertyOp28
 70
     1
102
RTVSPropertyOp29
 70
     1
102
RTVSPropertyOp30
 70
     1
102
RTVSPropertyOp31
 70
     1
102
RTVSPropertyOp32
 70
     1
102
RTVSPropertyOp33
 70
     1
102
RTVSPropertyOp34
 70
     1
102
RTVSPropertyOp35
 70
     1
102
RTVSPropertyOp36
 70
     1
102
RTVSPropertyOp37
 70
     1
102
RTVSPropertyOp38
 70
     1
102
RTVSPropertyOp39
 70
     1
102
RTVSPropertyOp40
 70
     1
102
RTVSPropertyOp41
 70
     1
102
RTVSPropertyOp42
 70
     1
102
RTVSPropertyOp43
 70
     1
102
RTVSPropertyOp44
 70
     1
102
RTVSPropertyOp45
 70
     1
102
RTVSPropertyOp46
 70
     1
102
RTVSPropertyOp47
 70
     1
102
RTVSPropertyOp48
 70
     1
102
RTVSPropertyOp49
 70
     1
102
RTVSPropertyOp50
 70
     1
102
RTVSPropertyOp51
 70
     0
102
RTVSPropertyOp52
 70
     0
102
RTVSPropertyOp53
 70
     1
102
RTVSPropertyOp54
 70
     1
102
RTVSPropertyOp55
 70
     1
102
RTVSPropertyOp56
 70
     1
102
RTVSPropertyOp57
 70
     1
102
RTVSPropertyOp58
 70
     1
102
RTVSPropertyOp59
 70
     1
102
RTVSPropertyOp60
 70
     1
102
RTVSPropertyOp61
 70
     1
102
RTVSPropertyOp62
 70
     1
  0
XRECORD
  5
29B07
102
{ACAD_REACTORS
330
29B06
102
}
330
29B06
100
AcDbXrecord
280
     1
102
RTVSPost2010Prop28
280
     0
102
RTVSPost2010PropOp28
 70
     1
102
RTVSPost2010Prop29
280
     1
102
RTVSPost2010PropOp29
 70
     1
102
RTVSPost2010Prop30
280
     1
102
RTVSPost2010PropOp30
 70
     1
102
RTVSPost2010Prop31
280
     0
102
RTVSPost2010PropOp31
 70
     1
102
RTVSPost2010Prop32
280
     0
102
RTVSPost2010PropOp32
 70
     1
102
RTVSPost2010Prop33
280
     0
102
RTVSPost2010PropOp33
 70
     1
102
RTVSPost2010Prop34
280
     0
102
RTVSPost2010PropOp34
 70
     1
102
RTVSPost2010Prop35
280
     0
102
RTVSPost2010PropOp35
 70
     1
102
RTVSPost2010Prop36
280
     0
102
RTVSPost2010PropOp36
 70
     1
102
RTVSPost2010Prop37
 90
       50
102
RTVSPost2010PropOp37
 70
     1
102
RTVSPost2010Prop38
140
0.0
102
RTVSPost2010PropOp38
 70
     1
102
RTVSPost2010Prop39
140
1.0
102
RTVSPost2010PropOp39
 70
     1
102
RTVSPost2010Prop40
 90
        0
102
RTVSPost2010PropOp40
 70
     1
102
RTVSPost2010Prop41ColorIndex
 90
       18
102
RTVSPost2010Prop41ColorRGB
 90
        0
102
RTVSPost2010PropOp41
 70
     1
102
RTVSPost2010Prop42
 90
       50
102
RTVSPost2010PropOp42
 70
     1
102
RTVSPost2010Prop43
 90
        3
102
RTVSPost2010PropOp43
 70
     1
102
RTVSPost2010Prop44ColorIndex
 90
        5
102
RTVSPost2010Prop44ColorRGB
 90
      255
102
RTVSPost2010PropOp44
 70
     1
102
RTVSPost2010Prop45
280
     0
102
RTVSPost2010PropOp45
 70
     1
102
RTVSPost2010Prop46
 90
       50
102
RTVSPost2010PropOp46
 70
     1
102
RTVSPost2010Prop47
 90
       50
102
RTVSPost2010PropOp47
 70
     1
102
RTVSPost2010Prop48
 90
       50
102
RTVSPost2010PropOp48
 70
     1
102
RTVSPost2010Prop49
280
     0
102
RTVSPost2010PropOp49
 70
     1
102
RTVSPost2010Prop50
 90
       50
102
RTVSPost2010PropOp50
 70
     1
102
RTVSPost2010Prop51ColorIndex
 90
      256
102
RTVSPost2010Prop51ColorRGB
 90
-16777216
102
RTVSPost2010PropOp51
 70
     0
102
RTVSPost2010Prop52
140
1.0
102
RTVSPost2010PropOp52
 70
     0
102
RTVSPost2010Prop53
 90
        2
102
RTVSPost2010PropOp53
 70
     1
102
RTVSPost2010Prop54
  1
strokes_ogs.tif
102
RTVSPost2010PropOp54
 70
     1
102
RTVSPost2010Prop55
280
     0
102
RTVSPost2010PropOp55
 70
     1
102
RTVSPost2010Prop56
140
1.0
102
RTVSPost2010PropOp56
 70
     1
102
RTVSPost2010Prop57
140
1.0
102
RTVSPost2010PropOp57
 70
     1
102
RTVSPropertyOp0
 70
     1
102
RTVSPropertyOp1
 70
     1
102
RTVSPropertyOp2
 70
     1
102
RTVSPropertyOp3
 70
     1
102
RTVSPropertyOp4
 70
     1
102
RTVSPropertyOp5
 70
     1
102
RTVSPropertyOp6
 70
     1
102
RTVSPropertyOp7
 70
     1
102
RTVSPropertyOp8
 70
     1
102
RTVSPropertyOp9
 70
     1
102
RTVSPropertyOp10
 70
     1
102
RTVSPropertyOp11
 70
     1
102
RTVSPropertyOp12
 70
     1
102
RTVSPropertyOp13
 70
     1
102
RTVSPropertyOp14
 70
     1
102
RTVSPropertyOp15
 70
     1
102
RTVSPropertyOp16
 70
     1
102
RTVSPropertyOp17
 70
     1
102
RTVSPropertyOp18
 70
     1
102
RTVSPropertyOp19
 70
     1
102
RTVSPropertyOp20
 70
     1
102
RTVSPropertyOp21
 70
     1
102
RTVSPropertyOp22
 70
     1
102
RTVSPropertyOp23
 70
     1
102
RTVSPropertyOp24
 70
     1
102
RTVSPropertyOp25
 70
     1
102
RTVSPropertyOp26
 70
     1
102
RTVSPropertyOp27
 70
     1
102
RTVSPropertyOp28
 70
     1
102
RTVSPropertyOp29
 70
     1
102
RTVSPropertyOp30
 70
     1
102
RTVSPropertyOp31
 70
     1
102
RTVSPropertyOp32
 70
     1
102
RTVSPropertyOp33
 70
     1
102
RTVSPropertyOp34
 70
     1
102
RTVSPropertyOp35
 70
     1
102
RTVSPropertyOp36
 70
     1
102
RTVSPropertyOp37
 70
     1
102
RTVSPropertyOp38
 70
     1
102
RTVSPropertyOp39
 70
     1
102
RTVSPropertyOp40
 70
     1
102
RTVSPropertyOp41
 70
     1
102
RTVSPropertyOp42
 70
     1
102
RTVSPropertyOp43
 70
     1
102
RTVSPropertyOp44
 70
     1
102
RTVSPropertyOp45
 70
     1
102
RTVSPropertyOp46
 70
     1
102
RTVSPropertyOp47
 70
     1
102
RTVSPropertyOp48
 70
     1
102
RTVSPropertyOp49
 70
     1
102
RTVSPropertyOp50
 70
     1
102
RTVSPropertyOp51
 70
     0
102
RTVSPropertyOp52
 70
     0
102
RTVSPropertyOp53
 70
     1
102
RTVSPropertyOp54
 70
     1
102
RTVSPropertyOp55
 70
     1
102
RTVSPropertyOp56
 70
     1
102
RTVSPropertyOp57
 70
     1
102
RTVSPropertyOp58
 70
     1
102
RTVSPropertyOp59
 70
     1
102
RTVSPropertyOp60
 70
     1
102
RTVSPropertyOp61
 70
     1
102
RTVSPropertyOp62
 70
     1
  0
XRECORD
  5
29AFB
102
{ACAD_REACTORS
330
29AFA
102
}
330
29AFA
100
AcDbXrecord
280
     1
102
RTVSPost2010Prop28
280
     0
102
RTVSPost2010PropOp28
 70
     1
102
RTVSPost2010Prop29
280
     1
102
RTVSPost2010PropOp29
 70
     1
102
RTVSPost2010Prop30
280
     1
102
RTVSPost2010PropOp30
 70
     1
102
RTVSPost2010Prop31
280
     0
102
RTVSPost2010PropOp31
 70
     1
102
RTVSPost2010Prop32
280
     0
102
RTVSPost2010PropOp32
 70
     1
102
RTVSPost2010Prop33
280
     0
102
RTVSPost2010PropOp33
 70
     1
102
RTVSPost2010Prop34
280
     0
102
RTVSPost2010PropOp34
 70
     1
102
RTVSPost2010Prop35
280
     0
102
RTVSPost2010PropOp35
 70
     1
102
RTVSPost2010Prop36
280
     0
102
RTVSPost2010PropOp36
 70
     1
102
RTVSPost2010Prop37
 90
       50
102
RTVSPost2010PropOp37
 70
     1
102
RTVSPost2010Prop38
140
0.0
102
RTVSPost2010PropOp38
 70
     1
102
RTVSPost2010Prop39
140
1.0
102
RTVSPost2010PropOp39
 70
     1
102
RTVSPost2010Prop40
 90
        0
102
RTVSPost2010PropOp40
 70
     1
102
RTVSPost2010Prop41ColorIndex
 90
       18
102
RTVSPost2010Prop41ColorRGB
 90
        0
102
RTVSPost2010PropOp41
 70
     1
102
RTVSPost2010Prop42
 90
       50
102
RTVSPost2010PropOp42
 70
     1
102
RTVSPost2010Prop43
 90
        3
102
RTVSPost2010PropOp43
 70
     1
102
RTVSPost2010Prop44ColorIndex
 90
        5
102
RTVSPost2010Prop44ColorRGB
 90
      255
102
RTVSPost2010PropOp44
 70
     1
102
RTVSPost2010Prop45
280
     0
102
RTVSPost2010PropOp45
 70
     1
102
RTVSPost2010Prop46
 90
       50
102
RTVSPost2010PropOp46
 70
     1
102
RTVSPost2010Prop47
 90
       50
102
RTVSPost2010PropOp47
 70
     1
102
RTVSPost2010Prop48
 90
       50
102
RTVSPost2010PropOp48
 70
     1
102
RTVSPost2010Prop49
280
     0
102
RTVSPost2010PropOp49
 70
     1
102
RTVSPost2010Prop50
 90
       50
102
RTVSPost2010PropOp50
 70
     1
102
RTVSPost2010Prop51ColorIndex
 90
      256
102
RTVSPost2010Prop51ColorRGB
 90
-16777216
102
RTVSPost2010PropOp51
 70
     0
102
RTVSPost2010Prop52
140
1.0
102
RTVSPost2010PropOp52
 70
     0
102
RTVSPost2010Prop53
 90
        2
102
RTVSPost2010PropOp53
 70
     1
102
RTVSPost2010Prop54
  1
strokes_ogs.tif
102
RTVSPost2010PropOp54
 70
     1
102
RTVSPost2010Prop55
280
     0
102
RTVSPost2010PropOp55
 70
     1
102
RTVSPost2010Prop56
140
1.0
102
RTVSPost2010PropOp56
 70
     1
102
RTVSPost2010Prop57
140
1.0
102
RTVSPost2010PropOp57
 70
     1
102
RTVSPropertyOp0
 70
     1
102
RTVSPropertyOp1
 70
     1
102
RTVSPropertyOp2
 70
     1
102
RTVSPropertyOp3
 70
     1
102
RTVSPropertyOp4
 70
     1
102
RTVSPropertyOp5
 70
     1
102
RTVSPropertyOp6
 70
     1
102
RTVSPropertyOp7
 70
     1
102
RTVSPropertyOp8
 70
     1
102
RTVSPropertyOp9
 70
     1
102
RTVSPropertyOp10
 70
     1
102
RTVSPropertyOp11
 70
     1
102
RTVSPropertyOp12
 70
     1
102
RTVSPropertyOp13
 70
     1
102
RTVSPropertyOp14
 70
     1
102
RTVSPropertyOp15
 70
     1
102
RTVSPropertyOp16
 70
     1
102
RTVSPropertyOp17
 70
     1
102
RTVSPropertyOp18
 70
     1
102
RTVSPropertyOp19
 70
     1
102
RTVSPropertyOp20
 70
     1
102
RTVSPropertyOp21
 70
     1
102
RTVSPropertyOp22
 70
     1
102
RTVSPropertyOp23
 70
     1
102
RTVSPropertyOp24
 70
     1
102
RTVSPropertyOp25
 70
     1
102
RTVSPropertyOp26
 70
     1
102
RTVSPropertyOp27
 70
     1
102
RTVSPropertyOp28
 70
     1
102
RTVSPropertyOp29
 70
     1
102
RTVSPropertyOp30
 70
     1
102
RTVSPropertyOp31
 70
     1
102
RTVSPropertyOp32
 70
     1
102
RTVSPropertyOp33
 70
     1
102
RTVSPropertyOp34
 70
     1
102
RTVSPropertyOp35
 70
     1
102
RTVSPropertyOp36
 70
     1
102
RTVSPropertyOp37
 70
     1
102
RTVSPropertyOp38
 70
     1
102
RTVSPropertyOp39
 70
     1
102
RTVSPropertyOp40
 70
     1
102
RTVSPropertyOp41
 70
     1
102
RTVSPropertyOp42
 70
     1
102
RTVSPropertyOp43
 70
     1
102
RTVSPropertyOp44
 70
     1
102
RTVSPropertyOp45
 70
     1
102
RTVSPropertyOp46
 70
     1
102
RTVSPropertyOp47
 70
     1
102
RTVSPropertyOp48
 70
     1
102
RTVSPropertyOp49
 70
     1
102
RTVSPropertyOp50
 70
     1
102
RTVSPropertyOp51
 70
     0
102
RTVSPropertyOp52
 70
     0
102
RTVSPropertyOp53
 70
     1
102
RTVSPropertyOp54
 70
     1
102
RTVSPropertyOp55
 70
     1
102
RTVSPropertyOp56
 70
     1
102
RTVSPropertyOp57
 70
     1
102
RTVSPropertyOp58
 70
     1
102
RTVSPropertyOp59
 70
     1
102
RTVSPropertyOp60
 70
     1
102
RTVSPropertyOp61
 70
     1
102
RTVSPropertyOp62
 70
     1
  0
XRECORD
  5
29B13
102
{ACAD_REACTORS
330
29B12
102
}
330
29B12
100
AcDbXrecord
280
     1
102
RTVSPost2010Prop28
280
     0
102
RTVSPost2010PropOp28
 70
     1
102
RTVSPost2010Prop29
280
     1
102
RTVSPost2010PropOp29
 70
     1
102
RTVSPost2010Prop30
280
     1
102
RTVSPost2010PropOp30
 70
     1
102
RTVSPost2010Prop31
280
     0
102
RTVSPost2010PropOp31
 70
     1
102
RTVSPost2010Prop32
280
     0
102
RTVSPost2010PropOp32
 70
     1
102
RTVSPost2010Prop33
280
     0
102
RTVSPost2010PropOp33
 70
     1
102
RTVSPost2010Prop34
280
     0
102
RTVSPost2010PropOp34
 70
     1
102
RTVSPost2010Prop35
280
     0
102
RTVSPost2010PropOp35
 70
     1
102
RTVSPost2010Prop36
280
     0
102
RTVSPost2010PropOp36
 70
     1
102
RTVSPost2010Prop37
 90
       50
102
RTVSPost2010PropOp37
 70
     1
102
RTVSPost2010Prop38
140
0.0
102
RTVSPost2010PropOp38
 70
     1
102
RTVSPost2010Prop39
140
1.0
102
RTVSPost2010PropOp39
 70
     1
102
RTVSPost2010Prop40
 90
        0
102
RTVSPost2010PropOp40
 70
     1
102
RTVSPost2010Prop41ColorIndex
 90
       18
102
RTVSPost2010Prop41ColorRGB
 90
        0
102
RTVSPost2010PropOp41
 70
     1
102
RTVSPost2010Prop42
 90
       50
102
RTVSPost2010PropOp42
 70
     1
102
RTVSPost2010Prop43
 90
        3
102
RTVSPost2010PropOp43
 70
     1
102
RTVSPost2010Prop44ColorIndex
 90
        5
102
RTVSPost2010Prop44ColorRGB
 90
      255
102
RTVSPost2010PropOp44
 70
     1
102
RTVSPost2010Prop45
280
     0
102
RTVSPost2010PropOp45
 70
     1
102
RTVSPost2010Prop46
 90
       50
102
RTVSPost2010PropOp46
 70
     1
102
RTVSPost2010Prop47
 90
       50
102
RTVSPost2010PropOp47
 70
     1
102
RTVSPost2010Prop48
 90
       50
102
RTVSPost2010PropOp48
 70
     1
102
RTVSPost2010Prop49
280
     0
102
RTVSPost2010PropOp49
 70
     1
102
RTVSPost2010Prop50
 90
       50
102
RTVSPost2010PropOp50
 70
     1
102
RTVSPost2010Prop51ColorIndex
 90
      256
102
RTVSPost2010Prop51ColorRGB
 90
-16777216
102
RTVSPost2010PropOp51
 70
     0
102
RTVSPost2010Prop52
140
1.0
102
RTVSPost2010PropOp52
 70
     0
102
RTVSPost2010Prop53
 90
        2
102
RTVSPost2010PropOp53
 70
     1
102
RTVSPost2010Prop54
  1
strokes_ogs.tif
102
RTVSPost2010PropOp54
 70
     1
102
RTVSPost2010Prop55
280
     0
102
RTVSPost2010PropOp55
 70
     1
102
RTVSPost2010Prop56
140
1.0
102
RTVSPost2010PropOp56
 70
     1
102
RTVSPost2010Prop57
140
1.0
102
RTVSPost2010PropOp57
 70
     1
102
RTVSPropertyOp0
 70
     1
102
RTVSPropertyOp1
 70
     1
102
RTVSPropertyOp2
 70
     1
102
RTVSPropertyOp3
 70
     1
102
RTVSPropertyOp4
 70
     1
102
RTVSPropertyOp5
 70
     1
102
RTVSPropertyOp6
 70
     1
102
RTVSPropertyOp7
 70
     1
102
RTVSPropertyOp8
 70
     1
102
RTVSPropertyOp9
 70
     1
102
RTVSPropertyOp10
 70
     1
102
RTVSPropertyOp11
 70
     1
102
RTVSPropertyOp12
 70
     1
102
RTVSPropertyOp13
 70
     1
102
RTVSPropertyOp14
 70
     1
102
RTVSPropertyOp15
 70
     1
102
RTVSPropertyOp16
 70
     1
102
RTVSPropertyOp17
 70
     1
102
RTVSPropertyOp18
 70
     1
102
RTVSPropertyOp19
 70
     1
102
RTVSPropertyOp20
 70
     1
102
RTVSPropertyOp21
 70
     1
102
RTVSPropertyOp22
 70
     1
102
RTVSPropertyOp23
 70
     1
102
RTVSPropertyOp24
 70
     1
102
RTVSPropertyOp25
 70
     1
102
RTVSPropertyOp26
 70
     1
102
RTVSPropertyOp27
 70
     1
102
RTVSPropertyOp28
 70
     1
102
RTVSPropertyOp29
 70
     1
102
RTVSPropertyOp30
 70
     1
102
RTVSPropertyOp31
 70
     1
102
RTVSPropertyOp32
 70
     1
102
RTVSPropertyOp33
 70
     1
102
RTVSPropertyOp34
 70
     1
102
RTVSPropertyOp35
 70
     1
102
RTVSPropertyOp36
 70
     1
102
RTVSPropertyOp37
 70
     1
102
RTVSPropertyOp38
 70
     1
102
RTVSPropertyOp39
 70
     1
102
RTVSPropertyOp40
 70
     1
102
RTVSPropertyOp41
 70
     1
102
RTVSPropertyOp42
 70
     1
102
RTVSPropertyOp43
 70
     1
102
RTVSPropertyOp44
 70
     1
102
RTVSPropertyOp45
 70
     1
102
RTVSPropertyOp46
 70
     1
102
RTVSPropertyOp47
 70
     1
102
RTVSPropertyOp48
 70
     1
102
RTVSPropertyOp49
 70
     1
102
RTVSPropertyOp50
 70
     1
102
RTVSPropertyOp51
 70
     0
102
RTVSPropertyOp52
 70
     0
102
RTVSPropertyOp53
 70
     1
102
RTVSPropertyOp54
 70
     1
102
RTVSPropertyOp55
 70
     1
102
RTVSPropertyOp56
 70
     1
102
RTVSPropertyOp57
 70
     1
102
RTVSPropertyOp58
 70
     1
102
RTVSPropertyOp59
 70
     1
102
RTVSPropertyOp60
 70
     1
102
RTVSPropertyOp61
 70
     1
102
RTVSPropertyOp62
 70
     1
  0
ENDSEC
  0
EOF
