  0
SECTION
  2
HEADER
  9
$ACADVER
  1
AC1015
  9
$ACADMAINTVER
 70
    20
  9
$DWGCODEPAGE
  3
ANSI_1252
  9
$INSBASE
 10
0.0
 20
0.0
 30
0.0
  9
$EXTMIN
 10
-87.35727402936049
 20
-49.934527063568
 30
-0.0000000349181948
  9
$EXTMAX
 10
86.7472926962248
 20
74.46599458796038
 30
0.0000000814935747
  9
$LIMMIN
 10
0.0
 20
0.0
  9
$LIMMAX
 10
420.0
 20
297.0
  9
$ORTHOMODE
 70
     0
  9
$REGENMODE
 70
     1
  9
$FILLMODE
 70
     1
  9
$QTEXTMODE
 70
     0
  9
$MIRRTEXT
 70
     1
  9
$LTSCALE
 40
1.0
  9
$ATTMODE
 70
     1
  9
$TEXTSIZE
 40
0.2
  9
$TRACEWID
 40
1.0
  9
$TEXTSTYLE
  7
Standard
  9
$CLAYER
  8
0
  9
$CELTYPE
  6
ByLayer
  9
$CECOLOR
 62
   256
  9
$CELTSCALE
 40
1.0
  9
$DISPSILH
 70
     0
  9
$DIMSCALE
 40
1.0
  9
$DIMASZ
 40
2.5
  9
$DIMEXO
 40
0.0
  9
$DIMDLI
 40
3.75
  9
$DIMRND
 40
0.0
  9
$DIMDLE
 40
0.0
  9
$DIMEXE
 40
1.25
  9
$DIMTP
 40
0.0
  9
$DIMTM
 40
0.0
  9
$DIMTXT
 40
3.5
  9
$DIMCEN
 40
0.0
  9
$DIMTSZ
 40
0.0
  9
$DIMTOL
 70
     0
  9
$DIMLIM
 70
     0
  9
$DIMTIH
 70
     0
  9
$DIMTOH
 70
     0
  9
$DIMSE1
 70
     0
  9
$DIMSE2
 70
     0
  9
$DIMTAD
 70
     1
  9
$DIMZIN
 70
     8
  9
$DIMBLK
  1

  9
$DIMASO
 70
     1
  9
$DIMSHO
 70
     1
  9
$DIMPOST
  1

  9
$DIMAPOST
  1

  9
$DIMALT
 70
     0
  9
$DIMALTD
 70
     3
  9
$DIMALTF
 40
0.039370078
  9
$DIMLFAC
 40
1.0
  9
$DIMTOFL
 70
     0
  9
$DIMTVP
 40
0.0
  9
$DIMTIX
 70
     0
  9
$DIMSOXD
 70
     0
  9
$DIMSAH
 70
     0
  9
$DIMBLK1
  1

  9
$DIMBLK2
  1

  9
$DIMSTYLE
  2
Standard
  9
$DIMCLRD
 70
     0
  9
$DIMCLRE
 70
     0
  9
$DIMCLRT
 70
     0
  9
$DIMTFAC
 40
1.0
  9
$DIMGAP
 40
0.625
  9
$DIMJUST
 70
     0
  9
$DIMSD1
 70
     0
  9
$DIMSD2
 70
     0
  9
$DIMTOLJ
 70
     0
  9
$DIMTZIN
 70
     8
  9
$DIMALTZ
 70
     0
  9
$DIMALTTZ
 70
     0
  9
$DIMUPT
 70
     0
  9
$DIMDEC
 70
     2
  9
$DIMTDEC
 70
     2
  9
$DIMALTU
 70
     2
  9
$DIMALTTD
 70
     3
  9
$DIMTXSTY
  7
Standard
  9
$DIMAUNIT
 70
     0
  9
$DIMADEC
 70
     2
  9
$DIMALTRND
 40
0.0
  9
$DIMAZIN
 70
     2
  9
$DIMDSEP
 70
    46
  9
$DIMATFIT
 70
     3
  9
$DIMFRAC
 70
     0
  9
$DIMLDRBLK
  1

  9
$DIMLUNIT
 70
     2
  9
$DIMLWD
 70
    -2
  9
$DIMLWE
 70
    -2
  9
$DIMTMOVE
 70
     0
  9
$LUNITS
 70
     2
  9
$LUPREC
 70
     4
  9
$SKETCHINC
 40
1.0
  9
$FILLETRAD
 40
0.0
  9
$AUNITS
 70
     0
  9
$AUPREC
 70
     0
  9
$MENU
  1
.
  9
$ELEVATION
 40
0.0
  9
$PELEVATION
 40
0.0
  9
$THICKNESS
 40
0.0
  9
$LIMCHECK
 70
     0
  9
$CHAMFERA
 40
2.5
  9
$CHAMFERB
 40
2.5
  9
$CHAMFERC
 40
0.0
  9
$CHAMFERD
 40
0.0
  9
$SKPOLY
 70
     0
  9
$TDCREATE
 40
2453353.800459155
  9
$TDUCREATE
 40
2453353.717125822
  9
$TDUPDATE
 40
2460185.580673831
  9
$TDUUPDATE
 40
2460185.497340498
  9
$TDINDWG
 40
0.1068473958
  9
$TDUSRTIMER
 40
0.1068122454
  9
$USRTIMER
 70
     1
  9
$ANGBASE
 50
0.0
  9
$ANGDIR
 70
     0
  9
$PDMODE
 70
     3
  9
$PDSIZE
 40
0.0
  9
$PLINEWID
 40
0.0
  9
$SPLFRAME
 70
     0
  9
$SPLINETYPE
 70
     6
  9
$SPLINESEGS
 70
     8
  9
$HANDSEED
  5
2F69
  9
$SURFTAB1
 70
     6
  9
$SURFTAB2
 70
     6
  9
$SURFTYPE
 70
     6
  9
$SURFU
 70
     6
  9
$SURFV
 70
     6
  9
$UCSBASE
  2

  9
$UCSNAME
  2

  9
$UCSORG
 10
0.0
 20
0.0
 30
0.0
  9
$UCSXDIR
 10
1.0
 20
0.0
 30
0.0
  9
$UCSYDIR
 10
0.0
 20
1.0
 30
0.0
  9
$UCSORTHOREF
  2

  9
$UCSORTHOVIEW
 70
     0
  9
$UCSORGTOP
 10
0.0
 20
0.0
 30
0.0
  9
$UCSORGBOTTOM
 10
0.0
 20
0.0
 30
0.0
  9
$UCSORGLEFT
 10
0.0
 20
0.0
 30
0.0
  9
$UCSORGRIGHT
 10
0.0
 20
0.0
 30
0.0
  9
$UCSORGFRONT
 10
0.0
 20
0.0
 30
0.0
  9
$UCSORGBACK
 10
0.0
 20
0.0
 30
0.0
  9
$PUCSBASE
  2

  9
$PUCSNAME
  2

  9
$PUCSORG
 10
0.0
 20
0.0
 30
0.0
  9
$PUCSXDIR
 10
1.0
 20
0.0
 30
0.0
  9
$PUCSYDIR
 10
0.0
 20
1.0
 30
0.0
  9
$PUCSORTHOREF
  2

  9
$PUCSORTHOVIEW
 70
     0
  9
$PUCSORGTOP
 10
0.0
 20
0.0
 30
0.0
  9
$PUCSORGBOTTOM
 10
0.0
 20
0.0
 30
0.0
  9
$PUCSORGLEFT
 10
0.0
 20
0.0
 30
0.0
  9
$PUCSORGRIGHT
 10
0.0
 20
0.0
 30
0.0
  9
$PUCSORGFRONT
 10
0.0
 20
0.0
 30
0.0
  9
$PUCSORGBACK
 10
0.0
 20
0.0
 30
0.0
  9
$USERI1
 70
     0
  9
$USERI2
 70
     0
  9
$USERI3
 70
     0
  9
$USERI4
 70
     0
  9
$USERI5
 70
     0
  9
$USERR1
 40
0.0
  9
$USERR2
 40
0.0
  9
$USERR3
 40
0.0
  9
$USERR4
 40
0.0
  9
$USERR5
 40
0.0
  9
$WORLDVIEW
 70
     1
  9
$SHADEDGE
 70
     3
  9
$SHADEDIF
 70
    70
  9
$TILEMODE
 70
     1
  9
$MAXACTVP
 70
    48
  9
$PINSBASE
 10
0.0
 20
0.0
 30
0.0
  9
$PLIMCHECK
 70
     0
  9
$PEXTMIN
 10
0.0
 20
0.0
 30
0.0
  9
$PEXTMAX
 10
281.007629
 20
92.32476
 30
2.0
  9
$PLIMMIN
 10
0.0
 20
0.0
  9
$PLIMMAX
 10
420.0
 20
297.0
  9
$UNITMODE
 70
     0
  9
$VISRETAIN
 70
     0
  9
$PLINEGEN
 70
     0
  9
$PSLTSCALE
 70
     1
  9
$TREEDEPTH
 70
  3020
  9
$CMLSTYLE
  2
Standard
  9
$CMLJUST
 70
     0
  9
$CMLSCALE
 40
20.0
  9
$PROXYGRAPHICS
 70
     0
  9
$MEASUREMENT
 70
     1
  9
$CELWEIGHT
370
    -1
  9
$ENDCAPS
280
     0
  9
$JOINSTYLE
280
     0
  9
$LWDISPLAY
290
     0
  9
$INSUNITS
 70
     0
  9
$HYPERLINKBASE
  1

  9
$STYLESHEET
  1

  9
$XEDIT
290
     1
  9
$CEPSNTYPE
380
     0
  9
$PSTYLEMODE
290
     0
  9
$FINGERPRINTGUID
  2

  9
$VERSIONGUID
  2
{1697ADA6-CDC1-4F4C-BD09-E62F5884616C}
  9
$EXTNAMES
290
     0
  9
$PSVPSCALE
 40
0.0
  9
$OLESTARTUP
290
     0
  0
ENDSEC
  0
SECTION
  2
CLASSES
  0
CLASS
  1
ACDBDICTIONARYWDFLT
  2
AcDbDictionaryWithDefault
  3
ObjectDBX Classes
 90
        0
280
     0
281
     0
  0
CLASS
  1
ACDBPLACEHOLDER
  2
AcDbPlaceHolder
  3
ObjectDBX Classes
 90
        0
280
     0
281
     0
  0
CLASS
  1
LAYOUT
  2
AcDbLayout
  3
ObjectDBX Classes
 90
        0
280
     0
281
     0
  0
CLASS
  1
DICTIONARYVAR
  2
AcDbDictionaryVar
  3
ObjectDBX Classes
 90
        0
280
     0
281
     0
  0
CLASS
  1
TABLESTYLE
  2
AcDbTableStyle
  3
ObjectDBX Classes
 90
     4095
280
     0
281
     0
  0
CLASS
  1
SCALE
  2
AcDbScale
  3
ObjectDBX Classes
 90
     1153
280
     0
281
     0
  0
CLASS
  1
WIPEOUTVARIABLES
  2
AcDbWipeoutVariables
  3
"WipeOut|Product Desc:     WipeOut Dbx Application|Company:          Autodesk, Inc.|WEB Address:      www.autodesk.com"
 90
        0
280
     0
281
     0
  0
CLASS
  1
SORTENTSTABLE
  2
AcDbSortentsTable
  3
ObjectDBX Classes
 90
        0
280
     0
281
     0
  0
CLASS
  1
MATERIAL
  2
AcDbMaterial
  3
ObjectDBX Classes
 90
     1153
280
     0
281
     0
  0
CLASS
  1
VISUALSTYLE
  2
AcDbVisualStyle
  3
ObjectDBX Classes
 90
     4095
280
     0
281
     0
  0
CLASS
  1
MLEADERSTYLE
  2
AcDbMLeaderStyle
  3
ACDB_MLEADERSTYLE_CLASS
 90
     4095
280
     0
281
     0
  0
CLASS
  1
ACDBSECTIONVIEWSTYLE
  2
AcDbSectionViewStyle
  3
ObjectDBX Classes
 90
     1025
280
     0
281
     0
  0
CLASS
  1
ACDBDETAILVIEWSTYLE
  2
AcDbDetailViewStyle
  3
ObjectDBX Classes
 90
     1025
280
     0
281
     0
  0
CLASS
  1
CELLSTYLEMAP
  2
AcDbCellStyleMap
  3
ObjectDBX Classes
 90
     1152
280
     0
281
     0
  0
ENDSEC
  0
SECTION
  2
TABLES
  0
TABLE
  2
VPORT
  5
8
330
0
100
AcDbSymbolTable
 70
     1
  0
VPORT
  5
97
330
8
100
AcDbSymbolTableRecord
100
AcDbViewportTableRecord
  2
*ACTIVE
 70
     0
 10
0.0
 20
0.0
 11
1.0
 21
1.0
 12
-0.3049906665678392
 22
12.2657337621962
 13
0.0
 23
0.0
 14
1.0
 24
1.0
 15
0.5
 25
0.5
 16
0.0
 26
0.0
 36
1.0
 17
0.0
 27
0.0
 37
0.0
 40
125.253553799996
 41
1.597254004576659
 42
50.0
 43
0.0
 44
0.0
 50
0.0
 51
0.0
 71
    16
 72
   100
 73
     1
 74
     3
 75
     0
 76
     0
 77
     0
 78
     1
281
     0
 65
     1
110
0.0
120
0.0
130
0.0
111
1.0
121
0.0
131
0.0
112
0.0
122
1.0
132
0.0
 79
     0
146
0.0
1001
ACAD_NAV_VCDISPLAY
1070
     3
  0
ENDTAB
  0
TABLE
  2
LTYPE
  5
5
330
0
100
AcDbSymbolTable
 70
     3
  0
LTYPE
  5
14
330
5
100
AcDbSymbolTableRecord
100
AcDbLinetypeTableRecord
  2
ByBlock
 70
     0
  3

 72
    65
 73
     0
 40
0.0
  0
LTYPE
  5
15
330
5
100
AcDbSymbolTableRecord
100
AcDbLinetypeTableRecord
  2
ByLayer
 70
     0
  3

 72
    65
 73
     0
 40
0.0
  0
LTYPE
  5
16
330
5
100
AcDbSymbolTableRecord
100
AcDbLinetypeTableRecord
  2
Continuous
 70
     0
  3
Solid line
 72
    65
 73
     0
 40
0.0
  0
LTYPE
  5
2CD5
330
5
100
AcDbSymbolTableRecord
100
AcDbLinetypeTableRecord
  2
CENTER2
 70
     0
  3
Center (.5x) ___ _ ___ _ ___ _ ___ _ ___ _ ___
 72
    65
 73
     4
 40
28.57499999999999
 49
19.05
 74
     4
 75
     0
340
0
 46
1.0
 50
0.0
 44
0.0
 45
0.0
 49
-3.174999999999998
 74
     4
 75
     0
340
0
 46
1.0
 50
0.0
 44
0.0
 45
0.0
 49
3.174999999999998
 74
     4
 75
     0
340
0
 46
1.0
 50
0.0
 44
0.0
 45
0.0
 49
-3.174999999999998
 74
     4
 75
     0
340
0
 46
1.0
 50
0.0
 44
0.0
 45
0.0
  0
LTYPE
  5
2CD6
330
5
100
AcDbSymbolTableRecord
100
AcDbLinetypeTableRecord
  2
HIDDEN
 70
     0
  3
Hidden __ __ __ __ __ __ __ __ __ __ __ __ __ _
 72
    65
 73
     2
 40
9.524999999999996
 49
6.349999999999997
 74
     4
 75
     0
340
0
 46
1.0
 50
0.0
 44
0.0
 45
0.0
 49
-3.174999999999998
 74
     4
 75
     0
340
0
 46
1.0
 50
0.0
 44
0.0
 45
0.0
  0
ENDTAB
  0
TABLE
  2
LAYER
  5
2
102
{ACAD_XDICTIONARY
360
2CE3
102
}
330
0
100
AcDbSymbolTable
 70
    13
  0
LAYER
  5
10
102
{ACAD_XDICTIONARY
360
2CD7
102
}
330
2
100
AcDbSymbolTableRecord
100
AcDbLayerTableRecord
  2
0
 70
     0
 62
     7
  6
Continuous
370
    13
390
F
  0
LAYER
  5
5FF
102
{ACAD_XDICTIONARY
360
2CD8
102
}
330
2
100
AcDbSymbolTableRecord
100
AcDbLayerTableRecord
  2
1
 70
     0
 62
     4
  6
Continuous
370
    50
390
F
  0
LAYER
  5
601
102
{ACAD_XDICTIONARY
360
2CD9
102
}
330
2
100
AcDbSymbolTableRecord
100
AcDbLayerTableRecord
  2
2
 70
     0
 62
     7
  6
Continuous
370
    25
390
F
  0
LAYER
  5
603
102
{ACAD_XDICTIONARY
360
2CDA
102
}
330
2
100
AcDbSymbolTableRecord
100
AcDbLayerTableRecord
  2
SK2
 70
     0
 62
     7
  6
Continuous
370
    25
390
F
  0
LAYER
  5
607
102
{ACAD_XDICTIONARY
360
2CDB
102
}
330
2
100
AcDbSymbolTableRecord
100
AcDbLayerTableRecord
  2
4
 70
     0
 62
     2
  6
CENTER2
370
    25
390
F
  0
LAYER
  5
609
102
{ACAD_XDICTIONARY
360
2CDC
102
}
330
2
100
AcDbSymbolTableRecord
100
AcDbLayerTableRecord
  2
SK4
 70
     0
 62
     2
  6
CENTER2
370
    25
390
F
  0
LAYER
  5
60B
102
{ACAD_XDICTIONARY
360
2CDD
102
}
330
2
100
AcDbSymbolTableRecord
100
AcDbLayerTableRecord
  2
SK6
 70
     0
 62
     5
  6
Continuous
370
    -3
390
F
  0
LAYER
  5
60D
102
{ACAD_XDICTIONARY
360
2CDE
102
}
330
2
100
AcDbSymbolTableRecord
100
AcDbLayerTableRecord
  2
CUT
 70
     0
 62
     1
  6
Continuous
370
    25
390
F
  0
LAYER
  5
60F
102
{ACAD_XDICTIONARY
360
2CDF
102
}
330
2
100
AcDbSymbolTableRecord
100
AcDbLayerTableRecord
  2
NOCUT
 70
     0
 62
     7
  6
Continuous
370
    -3
390
F
  0
LAYER
  5
611
102
{ACAD_XDICTIONARY
360
2CE0
102
}
330
2
100
AcDbSymbolTableRecord
100
AcDbLayerTableRecord
  2
INFTOTAL
 70
     0
 62
     9
  6
Continuous
370
    18
390
F
1001
AcAecLayerStandard
1000

1000

  0
LAYER
  5
614
102
{ACAD_XDICTIONARY
360
2CE1
102
}
330
2
100
AcDbSymbolTableRecord
100
AcDbLayerTableRecord
  2
SK1
 70
     0
 62
     4
  6
Continuous
370
    50
390
F
1001
AcAecLayerStandard
1000

1000

  0
LAYER
  5
616
330
2
100
AcDbSymbolTableRecord
100
AcDbLayerTableRecord
  2
Defpoints
 70
     0
 62
     7
  6
Continuous
290
     0
370
    -3
390
F
  0
LAYER
  5
1416
330
2
100
AcDbSymbolTableRecord
100
AcDbLayerTableRecord
  2
SK3
 70
     0
 62
     1
  6
HIDDEN
370
    35
390
F
  0
ENDTAB
  0
TABLE
  2
STYLE
  5
3
330
0
100
AcDbSymbolTable
 70
     2
  0
STYLE
  5
11
330
3
100
AcDbSymbolTableRecord
100
AcDbTextStyleTableRecord
  2
Standard
 70
     0
 40
0.0
 41
1.0
 50
0.0
 71
     0
 42
0.2
  3
monos.ttf
  4

1001
ACAD
1000
Monospac821 BT
1071
       49
  0
ENDTAB
  0
TABLE
  2
VIEW
  5
6
330
0
100
AcDbSymbolTable
 70
     0
  0
ENDTAB
  0
TABLE
  2
UCS
  5
7
330
0
100
AcDbSymbolTable
 70
     0
  0
ENDTAB
  0
TABLE
  2
APPID
  5
9
330
0
100
AcDbSymbolTable
 70
    21
  0
APPID
  5
12
330
9
100
AcDbSymbolTableRecord
100
AcDbRegAppTableRecord
  2
ACAD
 70
     0
  0
APPID
  5
2CC2
330
9
100
AcDbSymbolTableRecord
100
AcDbRegAppTableRecord
  2
ACAD_PSEXT
 70
     0
  0
APPID
  5
2CC3
330
9
100
AcDbSymbolTableRecord
100
AcDbRegAppTableRecord
  2
ACAD_EXEMPT_FROM_CAD_STANDARDS
 70
     0
  0
APPID
  5
2CC4
330
9
100
AcDbSymbolTableRecord
100
AcDbRegAppTableRecord
  2
ACAD_MLEADERVER
 70
     0
  0
APPID
  5
2CC5
330
9
100
AcDbSymbolTableRecord
100
AcDbRegAppTableRecord
  2
ACAD_DSTYLE_DIMJAG
 70
     0
  0
APPID
  5
2CC6
330
9
100
AcDbSymbolTableRecord
100
AcDbRegAppTableRecord
  2
ACAD_DSTYLE_DIMBREAK
 70
     0
  0
APPID
  5
2CC7
330
9
100
AcDbSymbolTableRecord
100
AcDbRegAppTableRecord
  2
ACAD_DSTYLE_DIMTALN
 70
     0
  0
APPID
  5
2CC8
330
9
100
AcDbSymbolTableRecord
100
AcDbRegAppTableRecord
  2
AcAecLayerStandard
 70
     0
  0
APPID
  5
2CC9
330
9
100
AcDbSymbolTableRecord
100
AcDbRegAppTableRecord
  2
DCO15
 70
     0
  0
APPID
  5
2CCA
330
9
100
AcDbSymbolTableRecord
100
AcDbRegAppTableRecord
  2
AcadAnnoPO
 70
     0
  0
APPID
  5
2CCB
330
9
100
AcDbSymbolTableRecord
100
AcDbRegAppTableRecord
  2
ACAD_DSTYLE_DIMRADIAL_EXTENSION
 70
     0
  0
APPID
  5
2CCC
330
9
100
AcDbSymbolTableRecord
100
AcDbRegAppTableRecord
  2
ACAD_DSTYLE_DIMTEXT_FILL
 70
     0
  0
APPID
  5
2CCD
330
9
100
AcDbSymbolTableRecord
100
AcDbRegAppTableRecord
  2
ACAD_DSTYLE_DIMEXT_LENGTH
 70
     0
  0
APPID
  5
2CCE
330
9
100
AcDbSymbolTableRecord
100
AcDbRegAppTableRecord
  2
ACAD_DSTYLE_DIMEXT_ENABLED
 70
     0
  0
APPID
  5
2CCF
330
9
100
AcDbSymbolTableRecord
100
AcDbRegAppTableRecord
  2
ACAD_DSTYLE_DIM_LINETYPE
 70
     0
  0
APPID
  5
2CD0
330
9
100
AcDbSymbolTableRecord
100
AcDbRegAppTableRecord
  2
ACAD_DSTYLE_DIM_EXT1_LINETYPE
 70
     0
  0
APPID
  5
2CD1
330
9
100
AcDbSymbolTableRecord
100
AcDbRegAppTableRecord
  2
ACAD_DSTYLE_DIM_EXT2_LINETYPE
 70
     0
  0
APPID
  5
2CD2
330
9
100
AcDbSymbolTableRecord
100
AcDbRegAppTableRecord
  2
ACAD_DSTYLE_DIMJOGGED_JOGANGLE_SYMBOL
 70
     0
  0
APPID
  5
2CD3
330
9
100
AcDbSymbolTableRecord
100
AcDbRegAppTableRecord
  2
ACAD_DSTYLE_DIMARC_LENGTH_SYMBOL
 70
     0
  0
APPID
  5
2CD4
330
9
100
AcDbSymbolTableRecord
100
AcDbRegAppTableRecord
  2
AcLayerTools
 70
     0
  0
APPID
  5
2D4B
330
9
100
AcDbSymbolTableRecord
100
AcDbRegAppTableRecord
  2
ACAD_NAV_VCDISPLAY
 70
     0
  0
ENDTAB
  0
TABLE
  2
DIMSTYLE
  5
A
330
0
100
AcDbSymbolTable
 70
     1
100
AcDbDimStyleTable
 71
     0
  0
DIMSTYLE
105
27
102
{ACAD_REACTORS
330
179F
330
17CF
330
17DC
330
17E9
330
2563
330
278B
330
2C41
102
}
330
A
100
AcDbSymbolTableRecord
100
AcDbDimStyleTableRecord
  2
Standard
 70
     0
 41
2.5
 42
0.0
 43
3.75
 44
1.25
 73
     0
 74
     0
 77
     1
 78
     8
 79
     2
140
3.5
141
0.0
143
0.039370078
147
0.625
171
     3
179
     2
271
     2
272
     2
274
     3
283
     0
284
     8
340
11
1001
ACAD_DSTYLE_DIMJAG
1070
   388
1040
1.5
1001
ACAD_DSTYLE_DIMTALN
1070
   392
1070
     0
  0
ENDTAB
  0
TABLE
  2
BLOCK_RECORD
  5
1
330
0
100
AcDbSymbolTable
 70
    16
  0
BLOCK_RECORD
  5
1F
102
{ACAD_XDICTIONARY
360
2D05
102
}
330
1
100
AcDbSymbolTableRecord
100
AcDbBlockTableRecord
  2
*Model_Space
340
22
  0
BLOCK_RECORD
  5
73
330
1
100
AcDbSymbolTableRecord
100
AcDbBlockTableRecord
  2
*Paper_Space
340
74
  0
BLOCK_RECORD
  5
2D0
330
1
100
AcDbSymbolTableRecord
100
AcDbBlockTableRecord
  2
CERO_POINT
340
0
102
{BLKREFS
331
63B
102
}
1001
ACAD
1000
DesignCenter Data
1002
{
1070
     1
1070
     4
1002
}
  0
BLOCK_RECORD
  5
17AA
330
1
100
AcDbSymbolTableRecord
100
AcDbBlockTableRecord
  2
*D2
340
0
  0
BLOCK_RECORD
  5
17DB
330
1
100
AcDbSymbolTableRecord
100
AcDbBlockTableRecord
  2
*D4
340
0
  0
BLOCK_RECORD
  5
17E8
330
1
100
AcDbSymbolTableRecord
100
AcDbBlockTableRecord
  2
*D5
340
0
  0
BLOCK_RECORD
  5
17F8
330
1
100
AcDbSymbolTableRecord
100
AcDbBlockTableRecord
  2
*D6
340
0
  0
BLOCK_RECORD
  5
256E
330
1
100
AcDbSymbolTableRecord
100
AcDbBlockTableRecord
  2
*D13
340
0
  0
BLOCK_RECORD
  5
2796
330
1
100
AcDbSymbolTableRecord
100
AcDbBlockTableRecord
  2
*D14
340
0
  0
BLOCK_RECORD
  5
2C4C
330
1
100
AcDbSymbolTableRecord
100
AcDbBlockTableRecord
  2
*D15
340
0
  0
ENDTAB
  0
ENDSEC
  0
SECTION
  2
BLOCKS
  0
BLOCK
  5
20
330
1F
100
AcDbEntity
  8
0
100
AcDbBlockBegin
  2
*Model_Space
 70
     0
 10
0.0
 20
0.0
 30
0.0
  3
*Model_Space
  1

  0
ENDBLK
  5
21
330
1F
100
AcDbEntity
  8
0
100
AcDbBlockEnd
  0
BLOCK
  5
75
330
73
100
AcDbEntity
 67
     1
  8
0
100
AcDbBlockBegin
  2
*Paper_Space
 70
     0
 10
0.0
 20
0.0
 30
0.0
  3
*Paper_Space
  1

  0
ENDBLK
  5
76
330
73
100
AcDbEntity
 67
     1
  8
0
100
AcDbBlockEnd
  0
BLOCK
  5
2CE4
102
{ACAD_REACTORS
330
179F
330
17CF
330
17DC
330
17E9
330
2563
330
278B
102
}
330
2D0
100
AcDbEntity
  8
0
100
AcDbBlockBegin
  2
CERO_POINT
 70
     0
 10
0.0
 20
0.0
 30
0.0
  3
CERO_POINT
  1

  0
CIRCLE
  5
2D2
102
{ACAD_REACTORS
330
2D7
102
}
330
2D0
100
AcDbEntity
  8
SK2
100
AcDbCircle
 10
0.0
 20
0.0
 30
0.0
 40
2.5
  0
LINE
  5
2D3
330
2D0
100
AcDbEntity
  8
SK2
100
AcDbLine
 10
0.0900000000037835
 20
0.0
 30
0.0
 11
-0.0899999999965076
 21
0.0
 31
0.0
  0
LINE
  5
2D4
330
2D0
100
AcDbEntity
  8
SK2
100
AcDbLine
 10
0.0
 20
0.0899999999999182
 30
0.0
 11
0.0
 21
-0.0899999999999182
 31
0.0
  0
LINE
  5
2D5
102
{ACAD_REACTORS
330
2D7
102
}
330
2D0
100
AcDbEntity
  8
SK2
100
AcDbLine
 10
0.0
 20
-2.5
 30
0.0
 11
0.0
 21
2.5
 31
0.0
  0
LINE
  5
2D6
102
{ACAD_REACTORS
330
2D7
102
}
330
2D0
100
AcDbEntity
  8
SK2
100
AcDbLine
 10
2.5
 20
0.0
 30
0.0
 11
-2.5
 21
0.0
 31
0.0
  0
HATCH
  5
2D7
330
2D0
100
AcDbEntity
  8
SK2
100
AcDbHatch
 10
0.0
 20
0.0
 30
0.0
210
0.0
220
0.0
230
1.0
  2
ANSI31
 70
     0
 71
     1
 91
        2
 92
        7
 72
     1
 73
     1
 93
        3
 10
0.0
 20
-2.5
 42
0.4142135623730951
 10
2.5
 20
0.0
 42
0.0
 10
0.0
 20
0.0
 42
0.0
 97
        3
330
2D2
330
2D6
330
2D5
 92
        7
 72
     1
 73
     1
 93
        3
 10
0.0
 20
0.0
 42
0.0
 10
0.0
 20
2.5
 42
0.4142135623730951
 10
-2.5
 20
0.0
 42
0.0
 97
        3
330
2D6
330
2D5
330
2D2
 75
     0
 76
     1
 52
180.0
 41
0.1
 77
     0
 78
     1
 53
225.0
 43
5.170976743218488
 44
0.0
 45
0.2245064030267288
 46
-0.2245064030267289
 79
     0
 47
0.0243816376539857
 98
        2
 10
0.8789156907296272
 20
-1.044463114528752
 10
-0.8545028512526187
 20
0.7841600866017872
1001
ACAD
1010
0.0
1020
0.0
1030
0.0
  0
ENDBLK
  5
2CE5
330
2D0
100
AcDbEntity
  8
0
100
AcDbBlockEnd
  0
BLOCK
  5
2CE8
330
17AA
100
AcDbEntity
  8
0
100
AcDbBlockBegin
  2
*D2
 70
     1
 10
0.0
 20
0.0
 30
0.0
  3
*D2
  1

  0
LINE
  5
2EC4
330
17AA
100
AcDbEntity
  8
SK2
 62
     0
370
    -2
100
AcDbLine
 10
-20.00000000000001
 20
-5.0
 30
0.0
 11
-38.57977400000001
 21
-5.000000000000004
 31
0.0
  0
LINE
  5
2EC5
330
17AA
100
AcDbEntity
  8
SK2
 62
     0
370
    -2
100
AcDbLine
 10
-20.00000000000001
 20
5.0
 30
0.0
 11
-38.57977400000001
 21
4.999999999999998
 31
0.0
  0
LINE
  5
2EC6
330
17AA
100
AcDbEntity
  8
SK2
 62
     0
370
    -2
100
AcDbLine
 10
-37.32977400000001
 20
-2.500000000000003
 30
0.0
 11
-37.32977400000001
 21
2.499999999999997
 31
0.0
  0
SOLID
  5
2EC7
330
17AA
100
AcDbEntity
  8
SK2
 62
     0
100
AcDbTrace
 10
-37.74644066666668
 20
-2.500000000000003
 30
0.0
 11
-36.91310733333335
 21
-2.500000000000003
 31
0.0
 12
-37.32977400000001
 22
-5.000000000000004
 32
0.0
 13
-37.32977400000001
 23
-5.000000000000004
 33
0.0
  0
SOLID
  5
2EC8
330
17AA
100
AcDbEntity
  8
SK2
 62
     0
100
AcDbTrace
 10
-37.74644066666668
 20
2.499999999999997
 30
0.0
 11
-36.91310733333335
 21
2.499999999999997
 31
0.0
 12
-37.32977400000001
 22
4.999999999999999
 32
0.0
 13
-37.32977400000001
 23
4.999999999999999
 33
0.0
  0
MTEXT
  5
2EC9
330
17AA
100
AcDbEntity
  8
SK2
 62
     0
100
AcDbMText
 10
-39.76626381026002
 20
0.0958439999999999
 30
0.0
 40
3.5
 41
0.0
 71
     5
 72
     1
  1
M10
 11
0.0000000000000001
 21
1.0
 31
0.0
 73
     1
 44
1.0
1001
ACAD
1000
MTEXTBEGIN
1070
    73
1070
     1
1070
    44
1040
1.0
1070
    74
1070
     0
1000
MTEXTEND
  0
POINT
  5
2ECA
330
17AA
100
AcDbEntity
  8
Defpoints
 62
     0
100
AcDbPoint
 10
-20.00000000000001
 20
-5.0
 30
0.0
  0
POINT
  5
2ECB
330
17AA
100
AcDbEntity
  8
Defpoints
 62
     0
100
AcDbPoint
 10
-20.00000000000001
 20
5.0
 30
0.0
  0
POINT
  5
2ECC
330
17AA
100
AcDbEntity
  8
Defpoints
 62
     0
100
AcDbPoint
 10
-37.32977400000001
 20
4.999999999999999
 30
0.0
  0
ENDBLK
  5
2CE9
330
17AA
100
AcDbEntity
  8
0
100
AcDbBlockEnd
  0
BLOCK
  5
2CEC
330
17DB
100
AcDbEntity
  8
0
100
AcDbBlockBegin
  2
*D4
 70
     1
 10
0.0
 20
0.0
 30
0.0
  3
*D4
  1

  0
POINT
  5
291C
330
17DB
100
AcDbEntity
  8
Defpoints
  6
ByBlock
 62
     0
100
AcDbPoint
 10
16.649822
 20
10.0
 30
0.0
  0
POINT
  5
291D
330
17DB
100
AcDbEntity
  8
Defpoints
  6
ByBlock
 62
     0
100
AcDbPoint
 10
22.94982199999998
 20
10.0
 30
0.0
  0
LINE
  5
291E
330
17DB
100
AcDbEntity
  8
2
  6
ByBlock
 62
     0
370
    -2
100
AcDbLine
 10
16.649822
 20
10.0
 30
0.0
 11
16.649822
 21
35.027252
 31
0.0
  0
LINE
  5
291F
330
17DB
100
AcDbEntity
  8
2
  6
ByBlock
 62
     0
370
    -2
100
AcDbLine
 10
22.94982199999998
 20
10.0
 30
0.0
 11
22.94982199999998
 21
35.027252
 31
0.0
  0
LINE
  5
2920
330
17DB
100
AcDbEntity
  8
2
  6
ByBlock
 62
     0
370
    -2
100
AcDbLine
 10
16.649822
 20
33.777252
 30
0.0
 11
22.94982199999998
 21
33.777252
 31
0.0
  0
SOLID
  5
2921
330
17DB
100
AcDbEntity
  8
2
  6
ByBlock
 62
     0
100
AcDbTrace
 10
16.649822
 20
33.777252
 30
0.0
 11
19.149822
 21
33.36058533333325
 31
0.0
 12
19.149822
 22
34.19391866666675
 32
0.0
 13
19.149822
 23
34.19391866666675
 33
0.0
  0
LINE
  5
2922
330
17DB
100
AcDbEntity
  8
2
  6
ByBlock
 62
     0
370
    -2
100
AcDbLine
 10
16.649822
 20
33.777252
 30
0.0
 11
4.14367301897399
 21
33.777252
 31
0.0
  0
SOLID
  5
2923
330
17DB
100
AcDbEntity
  8
2
  6
ByBlock
 62
     0
100
AcDbTrace
 10
22.94982199999998
 20
33.777252
 30
0.0
 11
20.44982199999998
 21
33.36058533333325
 31
0.0
 12
20.44982199999998
 22
34.19391866666675
 32
0.0
 13
20.44982199999998
 23
34.19391866666675
 33
0.0
  0
MTEXT
  5
2924
330
17DB
100
AcDbEntity
  8
2
  6
ByBlock
 62
     0
100
AcDbMText
 10
9.146747509486992
 20
36.22480997610682
 30
0.0
 40
3.5
 41
0.0
 71
     5
 72
     1
  1
6.3
 73
     1
 44
1.0
1001
ACAD
1000
MTEXTBEGIN
1070
    73
1070
     1
1070
    44
1040
1.0
1070
    74
1070
     0
1000
MTEXTEND
  0
ENDBLK
  5
2CED
330
17DB
100
AcDbEntity
  8
0
100
AcDbBlockEnd
  0
BLOCK
  5
2CEE
330
17E8
100
AcDbEntity
  8
0
100
AcDbBlockBegin
  2
*D5
 70
     1
 10
0.0
 20
0.0
 30
0.0
  3
*D5
  1

  0
POINT
  5
2AB9
330
17E8
100
AcDbEntity
  8
Defpoints
  6
ByBlock
 62
     0
100
AcDbPoint
 10
22.94999999999999
 20
-10.0
 30
0.0
  0
POINT
  5
2ABA
330
17E8
100
AcDbEntity
  8
Defpoints
  6
ByBlock
 62
     0
100
AcDbPoint
 10
22.94999999999999
 20
10.0
 30
0.0
  0
LINE
  5
2ABB
330
17E8
100
AcDbEntity
  8
2
  6
ByBlock
 62
     0
370
    -2
100
AcDbLine
 10
22.94999999999999
 20
10.0
 30
0.0
 11
57.05556471963389
 21
10.0
 31
0.0
  0
LINE
  5
2ABC
330
17E8
100
AcDbEntity
  8
2
  6
ByBlock
 62
     0
370
    -2
100
AcDbLine
 10
55.80556471963389
 20
10.0
 30
0.0
 11
55.80556471963389
 21
-5.020291637385803
 31
0.0
  0
SOLID
  5
2ABD
330
17E8
100
AcDbEntity
  8
2
  6
ByBlock
 62
     0
100
AcDbTrace
 10
55.80556471963389
 20
10.0
 30
0.0
 11
56.22223138630065
 21
7.5
 31
0.0
 12
55.38889805296715
 22
7.5
 32
0.0
 13
55.38889805296715
 23
7.5
 33
0.0
  0
MTEXT
  5
2ABE
330
17E8
100
AcDbEntity
  8
2
  6
ByBlock
 62
     0
100
AcDbMText
 10
53.25962304711106
 20
0.0
 30
0.0
 40
3.5
 41
0.0
 71
     5
 72
     1
  1
%%c20
 11
0.0000000000000001
 21
1.0
 31
0.0
 73
     1
 44
1.0
1001
ACAD
1000
MTEXTBEGIN
1070
    73
1070
     1
1070
    44
1040
1.0
1070
    74
1070
     0
1000
MTEXTEND
  0
ENDBLK
  5
2CEF
330
17E8
100
AcDbEntity
  8
0
100
AcDbBlockEnd
  0
BLOCK
  5
2CF0
330
17F8
100
AcDbEntity
  8
0
100
AcDbBlockBegin
  2
*D6
 70
     1
 10
0.0
 20
0.0
 30
0.0
  3
*D6
  1

  0
MTEXT
  5
1E75
330
17F8
100
AcDbEntity
  8
2
  6
ByBlock
 62
     0
100
AcDbMText
 10
37.45369629684315
 20
26.50099070149859
 30
0.0
 40
3.5
 41
0.0
 71
     5
 72
     1
  1
\A1;80%%d~90%%d
 11
0.9969108009305227
 21
-0.0785420587205594
 31
0.0
 73
     1
 44
1.0
1001
ACAD
1000
MTEXTBEGIN
1070
    73
1070
     1
1070
    44
1040
1.0
1070
    74
1070
     0
1000
MTEXTEND
  0
POINT
  5
1E76
330
17F8
100
AcDbEntity
  8
Defpoints
  6
ByBlock
 62
     0
100
AcDbPoint
 10
11.58320699999999
 20
11.47207399999999
 30
0.0
  0
POINT
  5
1E77
330
17F8
100
AcDbEntity
  8
Defpoints
  6
ByBlock
 62
     0
100
AcDbPoint
 10
22.950222
 20
9.468104000000012
 30
0.0
  0
POINT
  5
1E78
330
17F8
100
AcDbEntity
  8
Defpoints
  6
ByBlock
 62
     0
100
AcDbPoint
 10
22.94999999999999
 20
17.08547200000001
 30
0.0
  0
POINT
  5
1E79
330
17F8
100
AcDbEntity
  8
Defpoints
  6
ByBlock
 62
     0
100
AcDbPoint
 10
22.950222
 20
9.468104000000012
 30
0.0
  0
SOLID
  5
1E7A
330
17F8
100
AcDbEntity
  8
2
  6
ByBlock
 62
     0
100
AcDbTrace
 10
22.94975834478675
 20
25.37725888420889
 30
0.0
 11
20.49024286113587
 21
24.7653808761119
 31
0.0
 12
20.42474272249096
 22
25.59613606043651
 32
0.0
 13
20.42474272249096
 23
25.59613606043651
 33
0.0
  0
SOLID
  5
1E7B
330
17F8
100
AcDbEntity
  8
2
  6
ByBlock
 62
     0
100
AcDbTrace
 10
7.282682446961477
 20
12.23024333368632
 30
0.0
 11
7.505447741505178
 21
14.7549189038652
 31
0.0
 12
8.31222007266909
 22
14.54620175048994
 32
0.0
 13
8.31222007266909
 23
14.54620175048994
 33
0.0
  0
LINE
  5
1E7C
330
17F8
100
AcDbEntity
  8
2
  6
ByBlock
 62
     0
370
    -2
100
AcDbLine
 10
22.94999999999999
 20
17.08547200000001
 30
0.0
 11
22.94972191488079
 21
26.62725888367804
 31
0.0
  0
LINE
  5
1E7D
330
17F8
100
AcDbEntity
  8
2
  6
ByBlock
 62
     0
370
    -2
100
AcDbLine
 10
11.58320699999999
 20
11.47207399999999
 30
0.0
 11
6.051666432878916
 21
12.44726769423665
 31
0.0
  0
ARC
  5
1E7E
330
17F8
100
AcDbEntity
  8
2
  6
ByBlock
 62
     0
370
    -2
100
AcDbCircle
 10
22.950222
 20
9.468104000000012
 30
0.0
 40
15.90915489096525
100
AcDbArc
 50
99.01454575867422
 51
160.988793190359
  0
ARC
  5
1E7F
330
17F8
100
AcDbEntity
  8
2
  6
ByBlock
 62
     0
370
    -2
100
AcDbCircle
 10
22.950222
 20
9.468104000000012
 30
0.0
 40
15.90915489096525
100
AcDbArc
 50
77.2423272915882
 51
90.00166982388781
  0
LINE
  5
1E80
330
17F8
100
AcDbEntity
  8
2
  6
ByBlock
 62
     0
370
    -2
100
AcDbLine
 10
26.46340957308836
 20
24.98450572272623
 30
0.0
 11
48.07090824167576
 21
23.28214937585094
 31
0.0
  0
ENDBLK
  5
2CF1
330
17F8
100
AcDbEntity
  8
0
100
AcDbBlockEnd
  0
BLOCK
  5
2CFE
330
256E
100
AcDbEntity
  8
0
100
AcDbBlockBegin
  2
*D13
 70
     1
 10
0.0
 20
0.0
 30
0.0
  3
*D13
  1

  0
LINE
  5
2EBB
330
256E
100
AcDbEntity
  8
SK2
 62
     0
370
    -2
100
AcDbLine
 10
-20.0
 20
5.0
 30
0.0
 11
-20.0
 21
53.35980049789943
 31
0.0
  0
LINE
  5
2EBC
330
256E
100
AcDbEntity
  8
SK2
 62
     0
370
    -2
100
AcDbLine
 10
22.94982199999998
 20
8.687544
 30
0.0
 11
22.94982199999998
 21
53.35980049789943
 31
0.0
  0
LINE
  5
2EBD
330
256E
100
AcDbEntity
  8
SK2
 62
     0
370
    -2
100
AcDbLine
 10
-17.5
 20
52.10980049789943
 30
0.0
 11
20.44982199999998
 21
52.10980049789943
 31
0.0
  0
SOLID
  5
2EBE
330
256E
100
AcDbEntity
  8
SK2
 62
     0
100
AcDbTrace
 10
-17.5
 20
52.52646716456609
 30
0.0
 11
-17.5
 21
51.69313383123277
 31
0.0
 12
-20.0
 22
52.10980049789943
 32
0.0
 13
-20.0
 23
52.10980049789943
 33
0.0
  0
SOLID
  5
2EBF
330
256E
100
AcDbEntity
  8
SK2
 62
     0
100
AcDbTrace
 10
20.44982199999998
 20
52.52646716456609
 30
0.0
 11
20.44982199999998
 21
51.69313383123277
 31
0.0
 12
22.94982199999998
 22
52.10980049789943
 32
0.0
 13
22.94982199999998
 23
52.10980049789943
 33
0.0
  0
MTEXT
  5
2EC0
330
256E
100
AcDbEntity
  8
SK2
 62
     0
100
AcDbMText
 10
1.474910999999993
 20
54.54629030815945
 30
0.0
 40
3.5
 41
0.0
 71
     5
 72
     1
  1
43
 73
     1
 44
1.0
1001
ACAD
1000
MTEXTBEGIN
1070
    73
1070
     1
1070
    44
1040
1.0
1070
    74
1070
     0
1000
MTEXTEND
  0
POINT
  5
2EC1
330
256E
100
AcDbEntity
  8
Defpoints
 62
     0
100
AcDbPoint
 10
-20.0
 20
5.0
 30
0.0
  0
POINT
  5
2EC2
330
256E
100
AcDbEntity
  8
Defpoints
 62
     0
100
AcDbPoint
 10
22.94982199999998
 20
8.687544
 30
0.0
  0
POINT
  5
2EC3
330
256E
100
AcDbEntity
  8
Defpoints
 62
     0
100
AcDbPoint
 10
22.94982199999998
 20
52.10980049789943
 30
0.0
  0
ENDBLK
  5
2CFF
330
256E
100
AcDbEntity
  8
0
100
AcDbBlockEnd
  0
BLOCK
  5
2D00
330
2796
100
AcDbEntity
  8
0
100
AcDbBlockBegin
  2
*D14
 70
     1
 10
0.0
 20
0.0
 30
0.0
  3
*D14
  1

  0
POINT
  5
29C3
330
2796
100
AcDbEntity
  8
Defpoints
  6
ByBlock
 62
     0
100
AcDbPoint
 10
0.0
 20
0.0
 30
0.0
  0
POINT
  5
29C4
330
2796
100
AcDbEntity
  8
Defpoints
  6
ByBlock
 62
     0
100
AcDbPoint
 10
22.94982199999998
 20
8.687544
 30
0.0
  0
LINE
  5
29C5
330
2796
100
AcDbEntity
  8
2
  6
ByBlock
 62
     0
370
    -2
100
AcDbLine
 10
0.0
 20
0.0
 30
0.0
 11
0.0
 21
45.32813423934086
 31
0.0
  0
LINE
  5
29C6
330
2796
100
AcDbEntity
  8
2
  6
ByBlock
 62
     0
370
    -2
100
AcDbLine
 10
22.94982199999998
 20
8.687544
 30
0.0
 11
22.94982199999998
 21
45.32813423934086
 31
0.0
  0
LINE
  5
29C7
330
2796
100
AcDbEntity
  8
2
  6
ByBlock
 62
     0
370
    -2
100
AcDbLine
 10
0.0
 20
44.07813423934086
 30
0.0
 11
22.94982199999998
 21
44.07813423934086
 31
0.0
  0
SOLID
  5
29C8
330
2796
100
AcDbEntity
  8
2
  6
ByBlock
 62
     0
100
AcDbTrace
 10
0.0
 20
44.07813423934086
 30
0.0
 11
2.5
 21
43.66146757267411
 31
0.0
 12
2.5
 22
44.4948009060076
 32
0.0
 13
2.5
 23
44.4948009060076
 33
0.0
  0
SOLID
  5
29C9
330
2796
100
AcDbEntity
  8
2
  6
ByBlock
 62
     0
100
AcDbTrace
 10
22.94982199999998
 20
44.07813423934086
 30
0.0
 11
20.44982199999998
 21
43.66146757267411
 31
0.0
 12
20.44982199999998
 22
44.4948009060076
 32
0.0
 13
20.44982199999998
 23
44.4948009060076
 33
0.0
  0
MTEXT
  5
29CA
330
2796
100
AcDbEntity
  8
2
  6
ByBlock
 62
     0
100
AcDbMText
 10
11.47491099999999
 20
46.52569221544768
 30
0.0
 40
3.5
 41
0.0
 71
     5
 72
     1
  1
23
 73
     1
 44
1.0
1001
ACAD
1000
MTEXTBEGIN
1070
    73
1070
     1
1070
    44
1040
1.0
1070
    74
1070
     0
1000
MTEXTEND
  0
ENDBLK
  5
2D01
330
2796
100
AcDbEntity
  8
0
100
AcDbBlockEnd
  0
BLOCK
  5
2D02
330
2C4C
100
AcDbEntity
  8
0
100
AcDbBlockBegin
  2
*D15
 70
     1
 10
0.0
 20
0.0
 30
0.0
  3
*D15
  1

  0
LINE
  5
2EB2
330
2C4C
100
AcDbEntity
  8
SK2
 62
     0
370
    -2
100
AcDbLine
 10
0.0
 20
8.999999888888893
 30
0.0
 11
-47.62809147647437
 21
8.999999888888885
 31
0.0
  0
LINE
  5
2EB3
330
2C4C
100
AcDbEntity
  8
SK2
 62
     0
370
    -2
100
AcDbLine
 10
0.0
 20
-9.000000000000001
 30
0.0
 11
-47.62809147647437
 21
-9.000000000000008
 31
0.0
  0
LINE
  5
2EB4
330
2C4C
100
AcDbEntity
  8
SK2
 62
     0
370
    -2
100
AcDbLine
 10
-46.37809147647437
 20
6.499999888888885
 30
0.0
 11
-46.37809147647437
 21
-6.500000000000009
 31
0.0
  0
SOLID
  5
2EB5
330
2C4C
100
AcDbEntity
  8
SK2
 62
     0
100
AcDbTrace
 10
-46.79475814314104
 20
6.499999888888885
 30
0.0
 11
-45.96142480980771
 21
6.499999888888885
 31
0.0
 12
-46.37809147647437
 22
8.999999888888885
 32
0.0
 13
-46.37809147647437
 23
8.999999888888885
 33
0.0
  0
SOLID
  5
2EB6
330
2C4C
100
AcDbEntity
  8
SK2
 62
     0
100
AcDbTrace
 10
-46.79475814314104
 20
-6.500000000000009
 30
0.0
 11
-45.96142480980771
 21
-6.500000000000007
 31
0.0
 12
-46.37809147647437
 22
-9.000000000000008
 32
0.0
 13
-46.37809147647437
 23
-9.000000000000008
 33
0.0
  0
MTEXT
  5
2EB7
330
2C4C
100
AcDbEntity
  8
SK2
 62
     0
100
AcDbMText
 10
-49.22410342306609
 20
-0.000000055555549
 30
0.0
 40
3.5
 41
0.0
 71
     5
 72
     1
  1
%%C18
 11
0.0000000000000001
 21
1.0
 31
0.0
 73
     1
 44
1.0
1001
ACAD
1000
MTEXTBEGIN
1070
    73
1070
     1
1070
    44
1040
1.0
1070
    74
1070
     0
1000
MTEXTEND
  0
POINT
  5
2EB8
330
2C4C
100
AcDbEntity
  8
Defpoints
 62
     0
100
AcDbPoint
 10
0.0
 20
8.999999888888893
 30
0.0
  0
POINT
  5
2EB9
330
2C4C
100
AcDbEntity
  8
Defpoints
 62
     0
100
AcDbPoint
 10
0.0
 20
-9.000000000000001
 30
0.0
  0
POINT
  5
2EBA
330
2C4C
100
AcDbEntity
  8
Defpoints
 62
     0
100
AcDbPoint
 10
-46.37809147647437
 20
-9.000000000000008
 30
0.0
  0
ENDBLK
  5
2D03
330
2C4C
100
AcDbEntity
  8
0
100
AcDbBlockEnd
  0
ENDSEC
  0
SECTION
  2
ENTITIES
  0
INSERT
  5
63B
330
1F
100
AcDbEntity
  8
SK2
100
AcDbBlockReference
  2
CERO_POINT
 10
0.0
 20
0.0
 30
0.0
  0
LINE
  5
63C
330
1F
100
AcDbEntity
  8
INFTOTAL
100
AcDbLine
 10
-87.32631117866217
 20
74.446036276732
 30
0.0
 11
-37.32631117866219
 21
74.44603627673199
 31
0.0
  0
LINE
  5
63D
330
1F
100
AcDbEntity
  8
INFTOTAL
100
AcDbLine
 10
86.73532450390132
 20
0.0866455548480687
 30
0.0
 11
86.73532450390132
 21
-49.91335444515192
 31
0.0
  0
LINE
  5
63E
330
1F
100
AcDbEntity
  8
INFTOTAL
100
AcDbLine
 10
86.73532450390132
 20
-49.91335444515192
 30
0.0
 11
36.73532450390132
 21
-49.91335444515192
 31
0.0
  0
LINE
  5
63F
330
1F
100
AcDbEntity
  8
INFTOTAL
100
AcDbLine
 10
-87.32631117866217
 20
24.44603627673201
 30
0.0
 11
-87.32631117866217
 21
74.446036276732
 31
0.0
  0
DIMENSION
  5
179F
330
1F
100
AcDbEntity
  8
SK2
100
AcDbDimension
  2
*D2
 10
-37.32977400000001
 20
4.999999999999999
 30
0.0
 11
-37.32977400000001
 21
0.0958439999999996
 31
0.0
 70
   161
  1
M<>
 71
     5
 42
10.0
  3
Standard
100
AcDbAlignedDimension
 13
-20.0
 23
-5.0
 33
0.0
 14
-20.0
 24
5.0
 34
0.0
  0
DIMENSION
  5
17CF
330
1F
100
AcDbEntity
  8
2
100
AcDbDimension
  2
*D4
 10
22.94982199999998
 20
33.777252
 30
0.0
 11
9.146747509486992
 21
33.777252
 31
0.0
 70
   161
 71
     5
 42
6.299999999999977
  3
Standard
100
AcDbAlignedDimension
 13
16.649822
 23
10.0
 33
0.0
 14
22.94982199999998
 24
10.0
 34
0.0
  0
DIMENSION
  5
17DC
330
1F
100
AcDbEntity
  8
2
100
AcDbDimension
  2
*D5
 10
55.80556471963389
 20
10.0
 30
0.0
 11
55.80556471963389
 21
0.0
 31
0.0
 70
   161
  1
%%c<>
 71
     5
 42
20.0
  3
Standard
100
AcDbAlignedDimension
 13
22.94999999999999
 23
-10.0
 33
0.0
 14
22.94999999999999
 24
10.0
 34
0.0
1001
ACAD
1000
DSTYLE
1002
{
1070
   282
1070
     0
1070
    75
1070
     1
1070
   281
1070
     1
1002
}
  0
DIMENSION
  5
17E9
330
1F
100
AcDbEntity
  8
2
100
AcDbDimension
  2
*D6
 10
11.58320699999999
 20
11.47207399999999
 30
0.0
 11
37.45369629684315
 21
26.50099070149859
 31
0.0
 70
   162
  1
<>~90%%d
 71
     5
 42
1.396263389400106
  3
Standard
100
AcDb2LineAngularDimension
 13
22.950222
 23
9.468104000000012
 33
0.0
 14
22.94999999999999
 24
17.08547200000001
 34
0.0
 15
22.950222
 25
9.468104000000012
 35
0.0
 16
15.80979199999999
 26
23.68483599999999
 36
0.0
  0
LINE
  5
17F9
330
1F
100
AcDbEntity
  8
4
100
AcDbLine
 10
21.27950899999999
 20
0.0
 30
0.0
 11
0.0
 21
0.0
 31
0.0
  0
LINE
  5
17FA
330
1F
100
AcDbEntity
  8
SK3
100
AcDbLine
 10
12.13397399999999
 20
1.5
 30
0.0
 11
-20.0
 21
1.5
 31
0.0
  0
LINE
  5
17FB
330
1F
100
AcDbEntity
  8
SK3
100
AcDbLine
 10
11.27885799999999
 20
-1.5
 30
0.0
 11
-20.0
 21
-1.5
 31
0.0
  0
LINE
  5
17FC
330
1F
100
AcDbEntity
  8
SK3
100
AcDbLine
 10
13.0
 20
0.0
 30
0.0
 11
12.13397399999999
 21
1.5
 31
0.0
  0
LINE
  5
17FD
330
1F
100
AcDbEntity
  8
SK3
100
AcDbLine
 10
13.0
 20
0.0
 30
0.0
 11
12.390064
 21
-1.056439000000012
 31
0.0
  0
ARC
  5
17FE
330
1F
100
AcDbEntity
  8
SK3
100
AcDbCircle
 10
14.44874099999998
 20
-2.842502999999993
 30
0.0
 40
2.724496000000006
100
AcDbArc
 50
139.0557909999997
 51
148.1654959999997
  0
SPLINE
  5
17FF
330
1F
100
AcDbEntity
  8
SK3
100
AcDbSpline
210
0.0
220
0.0
230
1.0
 70
     8
 71
     5
 72
    18
 73
    12
 74
     0
 42
0.000000001
 43
0.0000000001
 40
0.0
 40
0.0
 40
0.0
 40
0.0
 40
0.0
 40
0.0
 40
0.5088680093735447
 40
0.5088680093735447
 40
0.5088680093735447
 40
1.469227488836931
 40
1.469227488836931
 40
1.469227488836931
 40
1.88648394992821
 40
1.88648394992821
 40
1.88648394992821
 40
1.88648394992821
 40
1.88648394992821
 40
1.88648394992821
 10
11.27885819143071
 20
-1.49999987500459
 30
0.0
 10
11.28585547044952
 20
-1.499999220671524
 30
0.0
 10
11.30247184070831
 20
-1.495741467032701
 30
0.0
 10
11.32826595831051
 20
-1.487569012081564
 30
0.0
 10
11.42382850710297
 20
-1.457617895767525
 30
0.0
 10
11.56869690753732
 20
-1.420103595285156
 30
0.0
 10
11.67426370162408
 20
-1.401697022502501
 30
0.0
 10
11.83297106950585
 20
-1.388717329862487
 30
0.0
 10
11.99223583926144
 20
-1.393015472640739
 30
0.0
 10
12.04021156165038
 20
-1.39584419911958
 30
0.0
 10
12.08753407497539
 20
-1.400022010385698
 30
0.0
 10
12.133974371405
 20
-1.405355742125323
 30
0.0
  0
LINE
  5
1800
330
1F
100
AcDbEntity
  8
2
100
AcDbLine
 10
11.58320699999999
 20
11.47207399999999
 30
0.0
 11
22.94984575145239
 21
9.46816993431798
 31
0.0
  0
LINE
  5
19F7
330
1F
100
AcDbEntity
  8
1
100
AcDbLine
 10
22.38571499999998
 20
-2.573357
 30
0.0
 11
22.59999999999999
 21
-3.627021
 31
0.0
  0
SPLINE
  5
19F8
330
1F
100
AcDbEntity
  8
1
100
AcDbSpline
210
0.0
220
0.0
230
1.0
 70
     8
 71
     5
 72
    15
 73
     9
 74
     0
 42
0.000000001
 43
0.0000000001
 40
0.0
 40
0.0
 40
0.0
 40
0.0
 40
0.0
 40
0.0
 40
1.526753917789092
 40
1.526753917789092
 40
1.526753917789092
 40
2.152186798504794
 40
2.152186798504794
 40
2.152186798504794
 40
2.152186798504794
 40
2.152186798504794
 40
2.152186798504794
 10
22.38571512339672
 20
-2.573357444002774
 30
0.0
 10
22.3564323808047
 20
-2.426333768857449
 30
0.0
 10
22.33327235351104
 20
-2.252405462294162
 30
0.0
 10
22.31844071297681
 20
-2.07051756820506
 30
0.0
 10
22.31048784210657
 20
-1.82039509670505
 30
0.0
 10
22.32259378227693
 20
-1.600716206458395
 30
0.0
 10
22.32791075815558
 20
-1.540054839465061
 30
0.0
 10
22.33504815225095
 20
-1.48468836614149
 30
0.0
 10
22.34395583990079
 20
-1.436169911910779
 30
0.0
  0
ARC
  5
19F9
330
1F
100
AcDbEntity
  8
1
100
AcDbCircle
 10
26.51337199999999
 20
-1.685972
 30
0.0
 40
4.19736699999999
100
AcDbArc
 50
181.0010609999999
 51
188.652656
  0
LINE
  5
19FA
330
1F
100
AcDbEntity
  8
1
100
AcDbLine
 10
22.35406699999999
 20
-2.381639999999999
 30
0.0
 11
22.36389
 21
-2.317424
 31
0.0
  0
LINE
  5
19FB
330
1F
100
AcDbEntity
  8
1
100
AcDbLine
 10
22.59999999999999
 20
5.305330999999998
 30
0.0
 11
22.59999999999999
 21
2.32065
 31
0.0
  0
LINE
  5
19FC
330
1F
100
AcDbEntity
  8
1
100
AcDbLine
 10
22.59999999999999
 20
-4.533199999999999
 30
0.0
 11
22.59999999999999
 21
-7.033713999999998
 31
0.0
  0
LINE
  5
19FD
330
1F
100
AcDbEntity
  8
1
100
AcDbLine
 10
22.59999999999999
 20
-3.627021
 30
0.0
 11
22.59999999999999
 21
-4.533199999999999
 31
0.0
  0
SPLINE
  5
19FE
330
1F
100
AcDbEntity
  8
1
100
AcDbSpline
210
0.0
220
0.0
230
1.0
 70
     8
 71
     5
 72
    18
 73
    12
 74
     0
 42
0.000000001
 43
0.0000000001
 40
0.0
 40
0.0
 40
0.0
 40
0.0
 40
0.0
 40
0.0
 40
0.5058561353013471
 40
0.5058561353013471
 40
0.5058561353013471
 40
1.011996371165387
 40
1.011996371165387
 40
1.011996371165387
 40
1.25998616791205
 40
1.25998616791205
 40
1.25998616791205
 40
1.25998616791205
 40
1.25998616791205
 40
1.25998616791205
 10
22.59999999999999
 20
-7.033714209531842
 30
0.0
 10
22.59999999999999
 20
-7.091590363608727
 30
0.0
 10
22.58936792045168
 20
-7.150013626066961
 30
0.0
 10
22.5680661050387
 20
-7.207270941017254
 30
0.0
 10
22.50538661559168
 20
-7.315926985025173
 30
0.0
 10
22.4074064977921
 20
-7.406847719615246
 30
0.0
 10
22.35077055240808
 20
-7.446392641365503
 30
0.0
 10
22.25764907582553
 20
-7.494679541198072
 30
0.0
 10
22.15589804859155
 20
-7.52556580605355
 30
0.0
 10
22.12173715329861
 20
-7.533757631680088
 30
0.0
 10
22.08712033124002
 20
-7.539928885723343
 30
0.0
 10
22.05229344564859
 20
-7.544053135154178
 30
0.0
  0
LINE
  5
19FF
330
1F
100
AcDbEntity
  8
1
100
AcDbLine
 10
22.05229299999999
 20
-5.007520999999998
 30
0.0
 11
22.05229299999999
 21
-7.544052999999999
 31
0.0
  0
SPLINE
  5
1A00
330
1F
100
AcDbEntity
  8
1
100
AcDbSpline
210
0.0
220
0.0
230
1.0
 70
     8
 71
     5
 72
    18
 73
    12
 74
     0
 42
0.000000001
 43
0.0000000001
 40
0.0
 40
0.0
 40
0.0
 40
0.0
 40
0.0
 40
0.0
 40
0.3797826857335728
 40
0.3797826857335728
 40
0.3797826857335728
 40
0.7647887906974804
 40
0.7647887906974804
 40
0.7647887906974804
 40
1.288874288734781
 40
1.288874288734781
 40
1.288874288734781
 40
1.288874288734781
 40
1.288874288734781
 40
1.288874288734781
 10
22.05229344564859
 20
-5.007521264049715
 30
0.0
 10
22.10579282726837
 20
-5.005579425597006
 30
0.0
 10
22.15879527656892
 20
-4.998685534122331
 30
0.0
 10
22.21031342345123
 20
-4.98686493354984
 30
0.0
 10
22.30915960542802
 20
-4.953669200331252
 30
0.0
 10
22.39504192356227
 20
-4.903314765723958
 30
0.0
 10
22.43419710224586
 20
-4.874063724873153
 30
0.0
 10
22.51564682420181
 20
-4.797216880964941
 30
0.0
 10
22.56912625442416
 20
-4.705509109029758
 30
0.0
 10
22.58976207968763
 20
-4.649275129216917
 30
0.0
 10
22.59999999999999
 20
-4.591352301560995
 30
0.0
 10
22.59999999999999
 20
-4.533200467736212
 30
0.0
  0
LINE
  5
1A01
330
1F
100
AcDbEntity
  8
1
100
AcDbLine
 10
22.05229299999999
 20
5.542492
 30
0.0
 11
22.05229299999999
 21
2.302272
 31
0.0
  0
SPLINE
  5
1A02
330
1F
100
AcDbEntity
  8
1
100
AcDbSpline
210
0.0
220
0.0
230
1.0
 70
     8
 71
     5
 72
    18
 73
    12
 74
     0
 42
0.000000001
 43
0.0000000001
 40
0.0
 40
0.0
 40
0.0
 40
0.0
 40
0.0
 40
0.0
 40
0.3797826857418369
 40
0.3797826857418369
 40
0.3797826857418369
 40
0.7647887907013203
 40
0.7647887907013203
 40
0.7647887907013203
 40
1.288874288710577
 40
1.288874288710577
 40
1.288874288710577
 40
1.288874288710577
 40
1.288874288710577
 40
1.288874288710577
 10
22.05229344564859
 20
5.542492019142204
 30
0.0
 10
22.10579282726954
 20
5.538970056955553
 30
0.0
 10
22.15879527657123
 20
5.533281390954353
 30
0.0
 10
22.21031342344909
 20
5.525486377548539
 30
0.0
 10
22.30915960542649
 20
5.505876716056807
 30
0.0
 10
22.39504192356131
 20
5.479319006372268
 30
0.0
 10
22.43419710224671
 20
5.464425785657012
 30
0.0
 10
22.51564682419951
 20
5.426364977558578
 30
0.0
 10
22.56912625442093
 20
5.383119819524313
 30
0.0
 10
22.58976207968874
 20
5.357207517153061
 30
0.0
 10
22.59999999999999
 20
5.331065346437426
 30
0.0
 10
22.59999999999999
 20
5.305331369889722
 30
0.0
  0
LINE
  5
1A03
330
1F
100
AcDbEntity
  8
1
100
AcDbLine
 10
19.26989599999999
 20
-7.871213
 30
0.0
 11
22.05229299999999
 21
-7.544052999999999
 31
0.0
  0
LINE
  5
1A04
330
1F
100
AcDbEntity
  8
1
100
AcDbLine
 10
19.26989599999999
 20
-5.108433999999999
 30
0.0
 11
19.26989599999999
 21
-7.871213
 31
0.0
  0
LINE
  5
1A05
330
1F
100
AcDbEntity
  8
1
100
AcDbLine
 10
19.26989599999999
 20
-5.108433999999999
 30
0.0
 11
22.05229299999999
 21
-5.007520999999998
 31
0.0
  0
LINE
  5
1A06
330
1F
100
AcDbEntity
  8
1
100
AcDbLine
 10
19.26989599999999
 20
5.725627999999998
 30
0.0
 11
19.26989599999999
 21
2.180819
 31
0.0
  0
LINE
  5
1A07
330
1F
100
AcDbEntity
  8
1
100
AcDbLine
 10
19.26989599999999
 20
5.725627999999998
 30
0.0
 11
22.05229299999999
 21
5.542492
 31
0.0
  0
LINE
  5
1A08
330
1F
100
AcDbEntity
  8
1
100
AcDbLine
 10
17.526781
 20
-5.108448
 30
0.0
 11
17.526781
 21
-8.011797999999997
 31
0.0
  0
ARC
  5
1A09
330
1F
100
AcDbEntity
  8
1
100
AcDbCircle
 10
18.39824899999999
 20
18.979725
 30
0.0
 40
24.103929
100
AcDbArc
 50
267.9280419999999
 51
272.0723829999999
  0
ARC
  5
1A0A
330
1F
100
AcDbEntity
  8
1
100
AcDbCircle
 10
16.43596199999999
 20
16.387785
 30
0.0
 40
24.423961
100
AcDbArc
 50
272.5597869999999
 51
276.663087
  0
ARC
  5
1A0B
330
1F
100
AcDbEntity
  8
1
100
AcDbCircle
 10
15.68167599999998
 20
-48.812343
 30
0.0
 40
54.65588399999999
100
AcDbArc
 50
86.23576099999999
 51
88.06540799999998
  0
LINE
  5
1A0C
330
1F
100
AcDbEntity
  8
1
100
AcDbLine
 10
17.526781
 20
5.812387999999998
 30
0.0
 11
17.526781
 21
2.01549
 31
0.0
  0
LINE
  5
1A0D
330
1F
100
AcDbEntity
  8
1
100
AcDbLine
 10
16.90186899999998
 20
-5.085824999999998
 30
0.0
 11
17.526781
 21
-5.108448
 31
0.0
  0
ARC
  5
1A0E
330
1F
100
AcDbEntity
  8
1
100
AcDbCircle
 10
17.274236
 20
5.375867999999998
 30
0.0
 40
10.468213
100
AcDbArc
 50
255.198824
 51
267.9615069999999
  0
LINE
  5
1A0F
330
1F
100
AcDbEntity
  8
1
100
AcDbLine
 10
14.59999999999999
 20
-4.744869
 30
0.0
 11
14.59999999999999
 21
-8.161517999999999
 31
0.0
  0
LINE
  5
1A10
330
1F
100
AcDbEntity
  8
1
100
AcDbLine
 10
16.163038
 20
-8.161517999999999
 30
0.0
 11
16.14810699999998
 21
-8.072686
 31
0.0
  0
LINE
  5
1A11
330
1F
100
AcDbEntity
  8
1
100
AcDbLine
 10
16.14810699999998
 20
-8.072686
 30
0.0
 11
17.526781
 21
-8.011797999999997
 31
0.0
  0
LINE
  5
1A12
330
1F
100
AcDbEntity
  8
1
100
AcDbLine
 10
14.59999999999999
 20
-0.9417089999999999
 30
0.0
 11
16.347408
 21
-0.775968
 31
0.0
  0
ARC
  5
1A13
330
1F
100
AcDbEntity
  8
1
100
AcDbCircle
 10
-123.788718
 20
-9.879817999999998
 30
0.0
 40
140.431518
100
AcDbArc
 50
3.716959
 51
4.810548999999999
  0
LINE
  5
1A14
330
1F
100
AcDbEntity
  8
1
100
AcDbLine
 10
16.14810699999998
 20
1.896950999999999
 30
0.0
 11
17.526781
 21
2.01549
 31
0.0
  0
LINE
  5
1A15
330
1F
100
AcDbEntity
  8
1
100
AcDbLine
 10
16.90186899999998
 20
5.833477999999998
 30
0.0
 11
17.526781
 21
5.812387999999998
 31
0.0
  0
ARC
  5
1A16
330
1F
100
AcDbEntity
  8
1
100
AcDbCircle
 10
17.329116
 20
17.78597
 30
0.0
 40
11.960395
100
AcDbArc
 50
256.810425
 51
267.952807
  0
LINE
  5
1A17
330
1F
100
AcDbEntity
  8
1
100
AcDbLine
 10
14.59999999999999
 20
6.140793
 30
0.0
 11
14.59999999999999
 21
-0.9417089999999999
 31
0.0
  0
LINE
  5
1A18
330
1F
100
AcDbEntity
  8
1
100
AcDbLine
 10
14.59999999999999
 20
9.3
 30
0.0
 11
14.59999999999999
 21
8.508359999999997
 31
0.0
  0
LINE
  5
1A19
330
1F
100
AcDbEntity
  8
1
100
AcDbLine
 10
14.59999999999999
 20
8.508359999999997
 30
0.0
 11
16.347408
 21
8.574196999999998
 31
0.0
  0
ELLIPSE
  5
1A1A
330
1F
100
AcDbEntity
  8
1
100
AcDbEllipse
 10
15.681061
 20
0.006448
 30
0.0
 11
-0.3839308023452759
 21
-9.293489456176756
 31
0.0
210
0.0
220
0.0
230
1.0
 40
0.087368
 41
2.747368870966358
 42
3.036421622383738
  0
LINE
  5
1A1B
330
1F
100
AcDbEntity
  8
1
100
AcDbLine
 10
16.14810699999998
 20
9.245065999999999
 30
0.0
 11
16.231257
 21
9.245858
 31
0.0
  0
LINE
  5
1A1C
330
1F
100
AcDbEntity
  8
1
100
AcDbLine
 10
14.59999999999999
 20
-8.161517999999999
 30
0.0
 11
14.59999999999999
 21
-9.090367999999999
 31
0.0
  0
LINE
  5
1A1D
330
1F
100
AcDbEntity
  8
1
100
AcDbLine
 10
14.59999999999999
 20
-9.090367999999999
 30
0.0
 11
16.29109199999999
 21
-9.054990999999999
 31
0.0
  0
LINE
  5
1A1E
330
1F
100
AcDbEntity
  8
1
100
AcDbLine
 10
16.203778
 20
-8.393136999999999
 30
0.0
 11
16.163038
 21
-8.161517999999999
 31
0.0
  0
LINE
  5
1A1F
330
1F
100
AcDbEntity
  8
1
100
AcDbLine
 10
13.18861099999998
 20
-7.898242999999999
 30
0.0
 11
13.18861099999998
 21
-8.850016999999997
 31
0.0
  0
LINE
  5
1A20
330
1F
100
AcDbEntity
  8
1
100
AcDbLine
 10
13.18861099999998
 20
-8.850016999999997
 30
0.0
 11
14.59999999999999
 21
-9.090367999999999
 31
0.0
  0
LINE
  5
1A21
330
1F
100
AcDbEntity
  8
1
100
AcDbLine
 10
14.22895399999999
 20
-9.027878999999996
 30
0.0
 11
13.18861099999998
 21
-8.900539999999997
 31
0.0
  0
ARC
  5
1A22
330
1F
100
AcDbEntity
  8
1
100
AcDbCircle
 10
79.074051
 20
-229.52382
 30
0.0
 40
246.609447
100
AcDbArc
 50
105.155638
 51
105.495644
  0
LINE
  5
1A23
330
1F
100
AcDbEntity
  8
1
100
AcDbLine
 10
13.18861099999998
 20
9.0
 30
0.0
 11
13.18861099999998
 21
8.121555999999998
 31
0.0
  0
ARC
  5
1A24
330
1F
100
AcDbEntity
  8
1
100
AcDbCircle
 10
16.86331199999998
 20
21.464966
 30
0.0
 40
15.490565
100
AcDbArc
 50
256.2775229999999
 51
261.5984099999999
  0
LINE
  5
1A25
330
1F
100
AcDbEntity
  8
1
100
AcDbLine
 10
13.18861099999998
 20
6.416396999999999
 30
0.0
 11
13.18861099999998
 21
-1.178673999999998
 31
0.0
  0
LINE
  5
1A26
330
1F
100
AcDbEntity
  8
1
100
AcDbLine
 10
13.18861099999998
 20
-1.178673999999998
 30
0.0
 11
14.59999999999999
 21
-0.9417089999999999
 31
0.0
  0
LINE
  5
1A27
330
1F
100
AcDbEntity
  8
1
100
AcDbLine
 10
13.18861099999998
 20
-4.019426999999998
 30
0.0
 11
13.18861099999998
 21
-7.898242999999999
 31
0.0
  0
ARC
  5
1A28
330
1F
100
AcDbEntity
  8
1
100
AcDbCircle
 10
19.59945199999999
 20
6.717189
 30
0.0
 40
12.504941
100
AcDbArc
 50
239.158545
 51
246.434421
  0
ARC
  5
1A29
330
1F
100
AcDbEntity
  8
1
100
AcDbCircle
 10
17.16719899999998
 20
5.210830999999998
 30
0.0
 40
10.05145099999999
100
AcDbArc
 50
232.153743
 51
246.6821430000001
  0
LINE
  5
1A2A
330
1F
100
AcDbEntity
  8
1
100
AcDbLine
 10
11.0
 20
-4.974937
 30
0.0
 11
11.0
 21
-2.726633
 31
0.0
  0
LINE
  5
1A2B
330
1F
100
AcDbEntity
  8
1
100
AcDbLine
 10
2.0
 20
-4.974937
 30
0.0
 11
11.0
 21
-4.974937
 31
0.0
  0
LINE
  5
1A2C
330
1F
100
AcDbEntity
  8
1
100
AcDbLine
 10
2.0
 20
-4.974937
 30
0.0
 11
2.0
 21
4.974937
 31
0.0
  0
LINE
  5
1A2D
330
1F
100
AcDbEntity
  8
1
100
AcDbLine
 10
11.0
 20
4.974937
 30
0.0
 11
2.0
 21
4.974937
 31
0.0
  0
LINE
  5
1A2E
330
1F
100
AcDbEntity
  8
1
100
AcDbLine
 10
11.0
 20
-1.401637999999999
 30
0.0
 11
11.0
 21
4.974937
 31
0.0
  0
ARC
  5
1A2F
330
1F
100
AcDbEntity
  8
1
100
AcDbCircle
 10
11.28936999999999
 20
-2.621418999999999
 30
0.0
 40
1.253660000000001
100
AcDbArc
 50
95.36944200000041
 51
103.3456180000004
  0
LINE
  5
1A30
330
1F
100
AcDbEntity
  8
1
100
AcDbLine
 10
11.17205299999998
 20
-1.373234
 30
0.0
 11
13.18861099999998
 21
-1.178673999999998
 31
0.0
  0
SPLINE
  5
1A31
330
1F
100
AcDbEntity
  8
1
100
AcDbSpline
210
0.0
220
0.0
230
1.0
 70
     8
 71
     5
 72
    12
 73
     6
 74
     0
 42
0.000000001
 43
0.0000000001
 40
0.0
 40
0.0
 40
0.0
 40
0.0
 40
0.0
 40
0.0
 40
4.508862697727137
 40
4.508862697727137
 40
4.508862697727137
 40
4.508862697727137
 40
4.508862697727137
 40
4.508862697727137
 10
10.87303683684573
 20
7.374957052021657
 30
0.0
 10
11.30605883008528
 20
7.168261985710177
 30
0.0
 10
11.75491737933137
 20
6.962793935349011
 30
0.0
 10
12.21973170582385
 20
6.765014390225725
 30
0.0
 10
12.69805341786085
 20
6.581431406949789
 30
0.0
 10
13.18861096715648
 20
6.416397044007926
 30
0.0
  0
SPLINE
  5
1A32
330
1F
100
AcDbEntity
  8
1
100
AcDbSpline
210
0.0
220
0.0
230
1.0
 70
     8
 71
     5
 72
    21
 73
    15
 74
     0
 42
0.000000001
 43
0.0000000001
 40
0.0
 40
0.0
 40
0.0
 40
0.0
 40
0.0
 40
0.0
 40
0.7021264782177656
 40
0.7021264782177656
 40
0.7021264782177656
 40
1.368430139157887
 40
1.368430139157887
 40
1.368430139157887
 40
1.782180315884494
 40
1.782180315884494
 40
1.782180315884494
 40
2.181684330235746
 40
2.181684330235746
 40
2.181684330235746
 40
2.181684330235746
 40
2.181684330235746
 40
2.181684330235746
 10
11.17205304540562
 20
8.034931691305692
 30
0.0
 10
11.09126282740476
 20
8.031364900826567
 30
0.0
 10
11.01079256164988
 20
8.025111120989746
 30
0.0
 10
10.93084091815524
 20
8.015657339164523
 30
0.0
 10
10.77877501187635
 20
7.989740653140307
 30
0.0
 10
10.64297041023667
 20
7.944413815996842
 30
0.0
 10
10.58113750950281
 20
7.916132088220964
 30
0.0
 10
10.50402564491066
 20
7.858938518368346
 30
0.0
 10
10.47274139666933
 20
7.788865408145067
 30
0.0
 10
10.46844421541579
 20
7.760837378955161
 30
0.0
 10
10.47381210416265
 20
7.705072106585669
 30
0.0
 10
10.50205911297414
 20
7.650312020310387
 30
0.0
 10
10.52067365768988
 20
7.623849037473223
 30
0.0
 10
10.54265538098298
 20
7.598492585192588
 30
0.0
 10
10.56752788893675
 20
7.574027985268548
 30
0.0
  0
ARC
  5
1A33
330
1F
100
AcDbEntity
  8
1
100
AcDbCircle
 10
11.33836099999999
 20
8.432897999999998
 30
0.0
 40
1.154897999999991
100
AcDbArc
 50
228.0921330000003
 51
246.2582160000004
  0
LINE
  5
1A34
330
1F
100
AcDbEntity
  8
1
100
AcDbLine
 10
11.17205299999998
 20
8.034932000000001
 30
0.0
 11
13.18861099999998
 21
8.121555999999998
 31
0.0
  0
LINE
  5
1A35
330
1F
100
AcDbEntity
  8
1
100
AcDbLine
 10
0.0
 20
-7.898242999999999
 30
0.0
 11
0.0
 21
9.0
 31
0.0
  0
LINE
  5
1A36
330
1F
100
AcDbEntity
  8
SK1
100
AcDbLine
 10
-5.165737000000006
 20
2.516983999999998
 30
0.0
 11
-5.165737000000006
 21
-5.25
 31
0.0
  0
LINE
  5
1A37
330
1F
100
AcDbEntity
  8
SK1
100
AcDbLine
 10
-9.456765000000018
 20
-5.0
 30
0.0
 11
-9.456765000000018
 21
2.397127999999999
 31
0.0
  0
LINE
  5
1A38
330
1F
100
AcDbEntity
  8
1
100
AcDbLine
 10
10.87303699999998
 20
-8.998549
 30
0.0
 11
11.07160199999998
 21
-9.0
 31
0.0
  0
SPLINE
  5
1A39
330
1F
100
AcDbEntity
  8
1
100
AcDbSpline
210
0.0
220
0.0
230
1.0
 70
     8
 71
     5
 72
    12
 73
     6
 74
     0
 42
0.000000001
 43
0.0000000001
 40
0.0
 40
0.0
 40
0.0
 40
0.0
 40
0.0
 40
0.0
 40
4.00739350009868
 40
4.00739350009868
 40
4.00739350009868
 40
4.00739350009868
 40
4.00739350009868
 40
4.00739350009868
 10
11.07160163252976
 20
-8.999999993609723
 30
0.0
 10
11.47214801336816
 20
-8.99998794261633
 30
0.0
 10
11.88545117680297
 20
-8.985773103979557
 30
0.0
 10
12.31070333657138
 20
-8.961631186679859
 30
0.0
 10
12.74546546373426
 20
-8.932059403754001
 30
0.0
 10
13.18861096715648
 20
-8.900539505935807
 30
0.0
  0
SPLINE
  5
1A3A
330
1F
100
AcDbEntity
  8
1
100
AcDbSpline
210
0.0
220
0.0
230
1.0
 70
     8
 71
     5
 72
    15
 73
     9
 74
     0
 42
0.000000001
 43
0.0000000001
 40
0.0
 40
0.0
 40
0.0
 40
0.0
 40
0.0
 40
0.0
 40
1.233308962959057
 40
1.233308962959057
 40
1.233308962959057
 40
1.496498461571468
 40
1.496498461571468
 40
1.496498461571468
 40
1.496498461571468
 40
1.496498461571468
 40
1.496498461571468
 10
11.17205304540562
 20
-8.883637007170211
 30
0.0
 10
11.03010228889553
 20
-8.885866687842025
 30
0.0
 10
10.88903313394039
 20
-8.891014225331398
 30
0.0
 10
10.73599847508666
 20
-8.900263905649554
 30
0.0
 10
10.57670522898019
 20
-8.919237998939937
 30
0.0
 10
10.49857927651169
 20
-8.941388120479988
 30
0.0
 10
10.4876812520543
 20
-8.945364189410117
 30
0.0
 10
10.48017889247947
 20
-8.949241605054119
 30
0.0
 10
10.47590959178484
 20
-8.952995914094616
 30
0.0
  0
SPLINE
  5
1A3B
330
1F
100
AcDbEntity
  8
1
100
AcDbSpline
210
0.0
220
0.0
230
1.0
 70
     8
 71
     5
 72
    15
 73
     9
 74
     0
 42
0.000000001
 43
0.0000000001
 40
0.0
 40
0.0
 40
0.0
 40
0.0
 40
0.0
 40
0.0
 40
0.4546189446261852
 40
0.4546189446261852
 40
0.4546189446261852
 40
1.323482116570386
 40
1.323482116570386
 40
1.323482116570386
 40
1.323482116570386
 40
1.323482116570386
 40
1.323482116570386
 10
10.47590959178484
 20
-8.952995914094616
 30
0.0
 10
10.46853503852068
 20
-8.959480899334497
 30
0.0
 10
10.47080688557995
 20
-8.965598336789806
 30
0.0
 10
10.4826609880098
 20
-8.970989523290992
 30
0.0
 10
10.53678169932257
 20
-8.984376724934302
 30
0.0
 10
10.63589895569115
 20
-8.992018743561702
 30
0.0
 10
10.70860609139271
 20
-8.9951908874879
 30
0.0
 10
10.78857438503451
 20
-8.997286443416204
 30
0.0
 10
10.87303683684561
 20
-8.998549330101317
 30
0.0
  0
LINE
  5
1A3C
330
1F
100
AcDbEntity
  8
1
100
AcDbLine
 10
11.17205299999998
 20
-8.883637
 30
0.0
 11
13.18861099999998
 21
-8.850016999999997
 31
0.0
  0
LINE
  5
1A3D
330
1F
100
AcDbEntity
  8
1
100
AcDbLine
 10
0.0
 20
-9.0
 30
0.0
 11
0.0
 21
-7.898242999999999
 31
0.0
  0
LINE
  5
1A3E
330
1F
100
AcDbEntity
  8
1
100
AcDbLine
 10
11.0
 20
-2.651788999999999
 30
0.0
 11
11.0
 21
-1.401637999999999
 31
0.0
  0
LINE
  5
1A3F
330
1F
100
AcDbEntity
  8
1
100
AcDbLine
 10
11.0
 20
-2.726633
 30
0.0
 11
11.0
 21
-2.651788999999999
 31
0.0
  0
LINE
  5
1A40
330
1F
100
AcDbEntity
  8
SK1
100
AcDbLine
 10
-20.0
 20
2.397127999999999
 30
0.0
 11
-20.0
 21
-5.0
 31
0.0
  0
LINE
  5
1A41
330
1F
100
AcDbEntity
  8
SK1
100
AcDbLine
 10
-20.0
 20
5.0
 30
0.0
 11
-20.0
 21
2.397127999999999
 31
0.0
  0
LINE
  5
1A42
330
1F
100
AcDbEntity
  8
SK1
100
AcDbLine
 10
-5.165737000000006
 20
5.25
 30
0.0
 11
-5.165737000000006
 21
2.516983999999998
 31
0.0
  0
LINE
  5
1A43
330
1F
100
AcDbEntity
  8
SK1
100
AcDbLine
 10
-9.456765000000018
 20
2.397127999999999
 30
0.0
 11
-9.456765000000018
 21
5.0
 31
0.0
  0
LINE
  5
1A44
330
1F
100
AcDbEntity
  8
1
100
AcDbLine
 10
16.23755899999998
 20
5.875208999999999
 30
0.0
 11
16.347408
 21
8.574196999999998
 31
0.0
  0
ELLIPSE
  5
1A45
330
1F
100
AcDbEntity
  8
1
100
AcDbEllipse
 10
17.234465
 20
14.470833
 30
0.0
 11
-0.0000000000000853
 21
-8.857481956481931
 31
0.0
210
0.0
220
0.0
230
1.0
 40
0.9961949999999999
 41
5.525758390485018
 42
5.90123540981136
  0
ELLIPSE
  5
1A46
330
1F
100
AcDbEntity
  8
1
100
AcDbEllipse
 10
17.32803599999999
 20
-14.407289
 30
0.0
 11
-9.50452709197998
 21
-1.414697647094724
 31
0.0
210
0.0
220
0.0
230
1.0
 40
0.805938
 41
5.313054899770301
 42
5.333037272170214
  0
LINE
  5
1A47
330
1F
100
AcDbEntity
  8
1
100
AcDbLine
 10
16.222037
 20
-1.843018
 30
0.0
 11
16.33473199999997
 21
-1.832111
 31
0.0
  0
LINE
  5
1A48
330
1F
100
AcDbEntity
  8
1
100
AcDbLine
 10
16.22924899999998
 20
-1.682931999999999
 30
0.0
 11
16.347408
 21
-0.775968
 31
0.0
  0
ARC
  5
1A49
330
1F
100
AcDbEntity
  8
1
100
AcDbCircle
 10
17.68567399999998
 20
-1.824547
 30
0.0
 40
1.463518000000008
100
AcDbArc
 50
174.446308
 51
180.723002
  0
ELLIPSE
  5
1A4A
330
1F
100
AcDbEntity
  8
1
100
AcDbEllipse
 10
17.32803599999999
 20
0.102818
 30
0.0
 11
-9.568833351135252
 21
-0.8802468180656429
 31
0.0
210
0.0
220
0.0
230
1.0
 40
0.307841
 41
0.8202647796253408
 42
1.184156265951465
  0
ELLIPSE
  5
1A4B
330
1F
100
AcDbEntity
  8
1
100
AcDbEllipse
 10
17.234465
 20
1.120001999999999
 30
0.0
 11
-8.820240020751953
 21
-0.8113829493522663
 31
0.0
210
0.0
220
0.0
230
1.0
 40
0.307841
 41
0.7850583589841409
 42
1.428316097325684
  0
ELLIPSE
  5
1A4C
330
1F
100
AcDbEntity
  8
1
100
AcDbEllipse
 10
16.63652199999999
 20
-2.422768
 30
0.0
 11
0.0476492755115032
 21
-0.798579692840576
 31
0.0
210
0.0
220
0.0
230
0.9999999999999998
 40
0.0988189999999999
 41
3.880497605513153
 42
5.375969778424996
  0
ELLIPSE
  5
1A4D
330
1F
100
AcDbEntity
  8
1
100
AcDbEllipse
 10
17.32803599999999
 20
0.102818
 30
0.0
 11
-9.568833351135252
 21
-0.8802468180656429
 31
0.0
210
0.0
220
0.0
230
1.0
 40
0.307841
 41
1.282818646817893
 42
1.466746054734399
  0
SPLINE
  5
1A4E
330
1F
100
AcDbEntity
  8
1
100
AcDbSpline
210
0.0
220
0.0
230
1.0
 70
     8
 71
     5
 72
    15
 73
     9
 74
     0
 42
0.000000001
 43
0.0000000001
 40
0.0
 40
0.0
 40
0.0
 40
0.0
 40
0.0
 40
0.0
 40
0.8992168720296714
 40
0.8992168720296714
 40
0.8992168720296714
 40
1.006529902581915
 40
1.006529902581915
 40
1.006529902581915
 40
1.006529902581915
 40
1.006529902581915
 40
1.006529902581915
 10
14.87017343492624
 20
-2.971562031418631
 30
0.0
 10
14.88226418348236
 20
-2.887322450290048
 30
0.0
 10
14.89861578029837
 20
-2.794427469772811
 30
0.0
 10
14.91050269844823
 20
-2.693254776242842
 30
0.0
 10
14.91537045834679
 20
-2.576378333426605
 30
0.0
 10
14.90544281025652
 20
-2.460548887529779
 30
0.0
 10
14.90420906041797
 20
-2.448217868401047
 30
0.0
 10
14.90279382953196
 20
-2.435921109792227
 30
0.0
 10
14.90119037778197
 20
-2.42366627242697
 30
0.0
  0
SPLINE
  5
1A4F
330
1F
100
AcDbEntity
  8
1
100
AcDbSpline
210
0.0
220
0.0
230
1.0
 70
     8
 71
     5
 72
    15
 73
     9
 74
     0
 42
0.000000001
 43
0.0000000001
 40
0.0
 40
0.0
 40
0.0
 40
0.0
 40
0.0
 40
0.0
 40
0.7128092287791472
 40
0.7128092287791472
 40
0.7128092287791472
 40
0.7877216290789059
 40
0.7877216290789059
 40
0.7877216290789059
 40
0.7877216290789059
 40
0.7877216290789059
 40
0.7877216290789059
 10
14.90119037778197
 20
-2.423666272426979
 30
0.0
 10
14.89053971216012
 20
-2.342265522432423
 30
0.0
 10
14.87158394426908
 20
-2.262716097513829
 30
0.0
 10
14.84238405600536
 20
-2.188069417329514
 30
0.0
 10
14.79737178854208
 20
-2.116347892208044
 30
0.0
 10
14.73948431283111
 20
-2.059059305931036
 30
0.0
 10
14.73386125573359
 20
-2.053741716467333
 30
0.0
 10
14.72812682214851
 20
-2.048561796228594
 30
0.0
 10
14.72228001148011
 20
-2.043518891416804
 30
0.0
  0
SPLINE
  5
1A50
330
1F
100
AcDbEntity
  8
1
100
AcDbSpline
210
0.0
220
0.0
230
1.0
 70
     8
 71
     5
 72
    21
 73
    15
 74
     0
 42
0.000000001
 43
0.0000000001
 40
0.0
 40
0.0
 40
0.0
 40
0.0
 40
0.0
 40
0.0
 40
0.7206190431626549
 40
0.7206190431626549
 40
0.7206190431626549
 40
1.468051513768208
 40
1.468051513768208
 40
1.468051513768208
 40
1.970116473348803
 40
1.970116473348803
 40
1.970116473348803
 40
2.45739484218072
 40
2.45739484218072
 40
2.45739484218072
 40
2.45739484218072
 40
2.45739484218072
 40
2.45739484218072
 10
14.72228001148011
 20
-2.043518891416804
 30
0.0
 10
14.66603667803238
 20
-1.995008721862905
 30
0.0
 10
14.59939517795613
 20
-1.959177885546623
 30
0.0
 10
14.52390145732113
 20
-1.937800047173911
 30
0.0
 10
14.35932565395947
 20
-1.920301423858012
 30
0.0
 10
14.18905031549934
 20
-1.952648873061014
 30
0.0
 10
14.10414375618399
 20
-1.981135280065753
 30
0.0
 10
13.97227448683773
 20
-2.050105991856498
 30
0.0
 10
13.86958129453402
 20
-2.154159505290063
 30
0.0
 10
13.83452494970328
 20
-2.20145390604547
 30
0.0
 10
13.78107592042642
 20
-2.303825984913753
 30
0.0
 10
13.76016697520865
 20
-2.417163910178576
 30
0.0
 10
13.75815965412073
 20
-2.474023926950701
 30
0.0
 10
13.76349431719612
 20
-2.530394177986826
 30
0.0
 10
13.77502754588491
 20
-2.585358107664331
 30
0.0
  0
ARC
  5
1A51
330
1F
100
AcDbEntity
  8
1
100
AcDbCircle
 10
14.60539199999999
 20
-2.381749
 30
0.0
 40
0.8558230000000108
100
AcDbArc
 50
193.7773679999998
 51
222.2090449999998
  0
LINE
  5
1A52
330
1F
100
AcDbEntity
  8
1
100
AcDbLine
 10
22.38571499999998
 20
-2.573357
 30
0.0
 11
16.603703
 21
-2.918356
 31
0.0
  0
LINE
  5
1A53
330
1F
100
AcDbEntity
  8
1
100
AcDbLine
 10
16.603703
 20
-2.918356
 30
0.0
 11
16.90186899999998
 21
-5.085824999999998
 31
0.0
  0
SPLINE
  5
1A54
330
1F
100
AcDbEntity
  8
1
100
AcDbSpline
210
0.0
220
0.0
230
1.0
 70
     8
 71
     5
 72
    27
 73
    21
 74
     0
 42
0.000000001
 43
0.0000000001
 40
0.0
 40
0.0
 40
0.0
 40
0.0
 40
0.0
 40
0.0
 40
0.6957203147746056
 40
0.6957203147746056
 40
0.6957203147746056
 40
0.8753935046901951
 40
0.8753935046901951
 40
0.8753935046901951
 40
1.060324633790785
 40
1.060324633790785
 40
1.060324633790785
 40
1.25129369014139
 40
1.25129369014139
 40
1.25129369014139
 40
1.443153754653649
 40
1.443153754653649
 40
1.443153754653649
 40
1.815704604268941
 40
1.815704604268941
 40
1.815704604268941
 40
1.815704604268941
 40
1.815704604268941
 40
1.815704604268941
 10
14.87017343492775
 20
-2.971562031408076
 30
0.0
 10
14.86080152096852
 20
-3.036858741754794
 30
0.0
 10
14.84348634857415
 20
-3.100654812213703
 30
0.0
 10
14.81562529155227
 20
-3.164578347719908
 30
0.0
 10
14.76033577331003
 20
-3.234481626383638
 30
0.0
 10
14.67901746614146
 20
-3.277700262801761
 30
0.0
 10
14.66091968917141
 20
-3.285400587221436
 30
0.0
 10
14.62301976966958
 20
-3.297767339969424
 30
0.0
 10
14.58182616583602
 20
-3.303888622088198
 30
0.0
 10
14.5597440962157
 20
-3.305315211184768
 30
0.0
 10
14.51565262368555
 20
-3.30477234189158
 30
0.0
 10
14.47122444504686
 20
-3.298071740450521
 30
0.0
 10
14.44890847132908
 20
-3.293241521615926
 30
0.0
 10
14.40451181858225
 20
-3.281004550569408
 30
0.0
 10
14.36157211947193
 20
-3.264396066255834
 30
0.0
 10
14.34057818474108
 20
-3.255168995696666
 30
0.0
 10
14.28014238237282
 20
-3.225697690238936
 30
0.0
 10
14.22363094270554
 20
-3.190203303044337
 30
0.0
 10
14.18796647745052
 20
-3.164820384572955
 30
0.0
 10
14.15404544405655
 20
-3.138061763100662
 30
0.0
 10
14.12163149256364
 20
-3.110110130154436
 30
0.0
  0
ARC
  5
1A55
330
1F
100
AcDbEntity
  8
1
100
AcDbCircle
 10
15.04347899999999
 20
-2.049929999999998
 30
0.0
 40
1.404954999999995
100
AcDbArc
 50
220.2289540000002
 51
228.9923880000001
  0
LINE
  5
1A56
330
1F
100
AcDbEntity
  8
1
100
AcDbLine
 10
16.25108699999998
 20
9.3
 30
0.0
 11
14.59999999999999
 21
9.3
 31
0.0
  0
LINE
  5
1A57
330
1F
100
AcDbEntity
  8
1
100
AcDbLine
 10
13.18861099999998
 20
9.0
 30
0.0
 11
14.59999999999999
 21
9.3
 31
0.0
  0
LINE
  5
1A58
330
1F
100
AcDbEntity
  8
1
100
AcDbLine
 10
13.18861099999998
 20
9.0
 30
0.0
 11
0.0
 21
9.0
 31
0.0
  0
ARC
  5
1A59
330
1F
100
AcDbEntity
  8
SK1
100
AcDbCircle
 10
-7.385534000000008
 20
-6.4
 30
0.0
 40
2.500000000000003
100
AcDbArc
 50
27.38710699999995
 51
145.944202
  0
LINE
  5
1A5A
330
1F
100
AcDbEntity
  8
1
100
AcDbLine
 10
11.07160199999998
 20
-9.0
 30
0.0
 11
0.0
 21
-9.0
 31
0.0
  0
ARC
  5
1A5B
330
1F
100
AcDbEntity
  8
SK1
100
AcDbCircle
 10
-7.385534000000008
 20
6.4
 30
0.0
 40
2.499999999999995
100
AcDbArc
 50
214.055798
 51
332.612893
  0
LINE
  5
1A5C
330
1F
100
AcDbEntity
  8
SK1
100
AcDbLine
 10
0.0
 20
-5.25
 30
0.0
 11
-5.165737000000006
 21
-5.25
 31
0.0
  0
LINE
  5
1A5D
330
1F
100
AcDbEntity
  8
SK1
100
AcDbLine
 10
0.0
 20
5.25
 30
0.0
 11
-5.165737000000006
 21
5.25
 31
0.0
  0
LINE
  5
1A5E
330
1F
100
AcDbEntity
  8
SK1
100
AcDbLine
 10
-9.456765000000018
 20
5.0
 30
0.0
 11
-20.0
 21
5.0
 31
0.0
  0
LINE
  5
1A5F
330
1F
100
AcDbEntity
  8
SK1
100
AcDbLine
 10
-9.456765000000018
 20
-5.0
 30
0.0
 11
-20.0
 21
-5.0
 31
0.0
  0
LINE
  5
1A60
330
1F
100
AcDbEntity
  8
1
100
AcDbLine
 10
22.597556
 20
5.325355
 30
0.0
 11
22.65543399999999
 21
5.483387
 31
0.0
  0
LINE
  5
1A61
330
1F
100
AcDbEntity
  8
1
100
AcDbLine
 10
22.45219
 20
5.455058999999998
 30
0.0
 11
22.65543399999999
 21
5.483387
 31
0.0
  0
ELLIPSE
  5
1A62
330
1F
100
AcDbEntity
  8
1
100
AcDbEllipse
 10
19.35988599999999
 20
7.318614
 30
0.0
 11
0.0
 21
-1.059999942779539
 31
0.0
210
0.0
220
0.0
230
1.0
 40
0.9961949999999999
 41
0.1158019860375716
 42
3.025779255141058
  0
ARC
  5
1A63
330
1F
100
AcDbEntity
  8
1
100
AcDbCircle
 10
22.48300799999998
 20
5.310787
 30
0.0
 40
0.2065809999999935
100
AcDbArc
 50
304.4959279999975
 51
340.0966799999975
  0
ARC
  5
1A64
330
1F
100
AcDbEntity
  8
1
100
AcDbCircle
 10
22.61305399999998
 20
5.688951
 30
0.0
 40
0.2145469999999888
100
AcDbArc
 50
339.9131449999987
 51
357.6796979999987
  0
ARC
  5
1A65
330
1F
100
AcDbEntity
  8
1
100
AcDbCircle
 10
22.62417499999998
 20
5.682481
 30
0.0
 40
0.2017080000000004
100
AcDbArc
 50
278.9230530000008
 51
340.5538010000009
  0
ARC
  5
1A66
330
1F
100
AcDbEntity
  8
1
100
AcDbCircle
 10
16.47207299999999
 20
5.94089
 30
0.0
 40
0.2142299999999939
100
AcDbArc
 50
177.647072
 51
198.657312
  0
LINE
  5
1A67
330
1F
100
AcDbEntity
  8
1
100
AcDbLine
 10
16.23841099999999
 20
5.896139999999999
 30
0.0
 11
16.25802099999999
 21
5.949684999999998
 31
0.0
  0
LINE
  5
1A68
330
1F
100
AcDbEntity
  8
1
100
AcDbLine
 10
22.94982199999998
 20
8.687544
 30
0.0
 11
22.827426
 21
5.680265
 31
0.0
  0
ARC
  5
1A69
330
1F
100
AcDbEntity
  8
1
100
AcDbCircle
 10
22.74696499999999
 20
8.701874
 30
0.0
 40
0.201795999999987
100
AcDbArc
 50
15.23077500000091
 51
76.39271000000093
  0
ARC
  5
1A6A
330
1F
100
AcDbEntity
  8
1
100
AcDbCircle
 10
22.73544299999998
 20
8.69631
 30
0.0
 40
0.2145569999999989
100
AcDbArc
 50
357.6583249999998
 51
15.85617899999996
  0
ARC
  5
1A6B
330
1F
100
AcDbEntity
  8
1
100
AcDbCircle
 10
18.99319299999999
 20
-7.559457999999997
 30
0.0
 40
16.890489
100
AcDbArc
 50
76.99424700000001
 51
98.30865000000001
  0
ARC
  5
1A6C
330
1F
100
AcDbEntity
  8
1
100
AcDbCircle
 10
16.58575499999998
 20
8.951967999999997
 30
0.0
 40
0.2050169999999988
100
AcDbArc
 50
99.37951799999945
 51
178.6061499999994
  0
LINE
  5
1A6D
330
1F
100
AcDbEntity
  8
1
100
AcDbLine
 10
16.25802099999999
 20
5.949684999999998
 30
0.0
 11
16.38041699999999
 21
8.956963999999997
 31
0.0
  0
ELLIPSE
  5
1A6E
330
1F
100
AcDbEntity
  8
1
100
AcDbEllipse
 10
19.60392199999998
 20
7.318614
 30
0.0
 11
0.0
 21
-1.059999942779539
 31
0.0
210
0.0
220
0.0
230
1.0
 40
0.9961949999999999
 41
3.141714268958517
 42
6.283306922548307
  0
ELLIPSE
  5
1A6F
330
1F
100
AcDbEntity
  8
1
100
AcDbEllipse
 10
19.60392199999998
 20
7.318614
 30
0.0
 11
0.0
 21
-1.059999942779539
 31
0.0
210
0.0
220
0.0
230
1.0
 40
0.9961949999999999
 41
0.0001216153687238
 42
1.529963690890464
  0
ELLIPSE
  5
1A70
330
1F
100
AcDbEntity
  8
1
100
AcDbEllipse
 10
19.60392199999998
 20
7.318614
 30
0.0
 11
0.0
 21
-1.059999942779539
 31
0.0
210
0.0
220
0.0
230
1.0
 40
0.9961949999999999
 41
1.529963690890464
 42
3.141714268958517
  0
LINE
  5
1A71
330
1F
100
AcDbEntity
  8
1
100
AcDbLine
 10
16.38041699999999
 20
8.956963999999997
 30
0.0
 11
16.27365399999999
 21
9.331780999999999
 31
0.0
  0
LINE
  5
1A72
330
1F
100
AcDbEntity
  8
1
100
AcDbLine
 10
16.20518299999998
 20
9.144822999999997
 30
0.0
 11
16.27365399999999
 21
9.331780999999999
 31
0.0
  0
ARC
  5
1A73
330
1F
100
AcDbEntity
  8
1
100
AcDbCircle
 10
16.48790799999998
 20
9.323116999999999
 30
0.0
 40
0.214428000000009
100
AcDbArc
 50
159.9079080000009
 51
177.6844690000009
  0
ARC
  5
1A74
330
1F
100
AcDbEntity
  8
1
100
AcDbCircle
 10
16.47690399999999
 20
9.329565999999999
 30
0.0
 40
0.2017079999999993
100
AcDbArc
 50
98.92275000000021
 51
160.5539230000002
  0
LINE
  5
1A75
330
1F
100
AcDbEntity
  8
1
100
AcDbLine
 10
22.68763899999999
 20
9.272664999999999
 30
0.0
 11
22.60064499999999
 21
9.292469
 31
0.0
  0
LINE
  5
1A76
330
1F
100
AcDbEntity
  8
1
100
AcDbLine
 10
16.44564599999998
 20
9.528658
 30
0.0
 11
16.53392299999999
 21
9.541266999999999
 31
0.0
  0
ARC
  5
1A77
330
1F
100
AcDbEntity
  8
1
100
AcDbCircle
 10
22.64020199999999
 20
9.076689999999999
 30
0.0
 40
0.2017969999999878
100
AcDbArc
 50
15.2303110000009
 51
76.39285900000091
  0
LINE
  5
1A78
330
1F
100
AcDbEntity
  8
1
100
AcDbLine
 10
22.79440199999999
 20
8.897849
 30
0.0
 11
22.68763899999999
 21
9.272664999999999
 31
0.0
  0
ARC
  5
1A79
330
1F
100
AcDbEntity
  8
1
100
AcDbCircle
 10
-31.90115
 20
-1246.274302
 30
0.0
 40
1256.749191
100
AcDbArc
 50
87.51445799999997
 51
87.791276
  0
LINE
  5
1A7A
330
1F
100
AcDbEntity
  8
1
100
AcDbLine
 10
16.55240899999998
 20
9.153841999999999
 30
0.0
 11
16.44564599999998
 21
9.528658
 31
0.0
  0
LINE
  5
1A7B
330
1F
100
AcDbEntity
  8
1
100
AcDbLine
 10
22.67727599999998
 20
5.24045
 30
0.0
 11
22.814549
 21
5.615267
 31
0.0
  0
LINE
  5
1A7C
330
1F
100
AcDbEntity
  8
1
100
AcDbLine
 10
16.19853999999998
 20
9.156525999999999
 30
0.0
 11
16.286531
 21
9.396778999999996
 31
0.0
  0
LINE
  5
1A7D
330
1F
100
AcDbEntity
  8
1
100
AcDbLine
 10
22.941835
 20
8.754932
 30
0.0
 11
22.835072
 21
9.129746
 31
0.0
  0
LINE
  5
1A7E
330
1F
100
AcDbEntity
  8
1
100
AcDbLine
 10
22.59999999999999
 20
4.204170999999998
 30
0.0
 11
22.65543399999999
 21
4.786068
 31
0.0
  0
LINE
  5
1A7F
330
1F
100
AcDbEntity
  8
1
100
AcDbLine
 10
22.59999999999999
 20
4.788216999999998
 30
0.0
 11
22.65543399999999
 21
4.786068
 31
0.0
  0
LINE
  5
1A80
330
1F
100
AcDbEntity
  8
1
100
AcDbLine
 10
22.70578599999999
 20
3.098886999999998
 30
0.0
 11
22.60211999999999
 21
2.320422
 31
0.0
  0
SPLINE
  5
1A81
330
1F
100
AcDbEntity
  8
1
100
AcDbSpline
210
0.0
220
0.0
230
1.0
 70
     8
 71
     5
 72
    18
 73
    12
 74
     0
 42
0.000000001
 43
0.0000000001
 40
0.0
 40
0.0
 40
0.0
 40
0.0
 40
0.0
 40
0.0
 40
0.0141884964881933
 40
0.0141884964881933
 40
0.0141884964881933
 40
0.2011439564411061
 40
0.2011439564411061
 40
0.2011439564411061
 40
0.2952299680495478
 40
0.2952299680495478
 40
0.2952299680495478
 40
0.2952299680495478
 40
0.2952299680495478
 40
0.2952299680495478
 10
22.69015305646221
 20
3.391628352163915
 30
0.0
 10
22.69006920231277
 20
3.390954939250497
 30
0.0
 10
22.68998534816333
 20
3.390281526337083
 30
0.0
 10
22.68984695097583
 20
3.389838770059033
 30
0.0
 10
22.6877692770862
 20
3.381449792080089
 30
0.0
 10
22.68123461051437
 20
3.373584251109627
 30
0.0
 10
22.67112501233856
 20
3.366879713694273
 30
0.0
 10
22.65182537376555
 20
3.358574854607601
 30
0.0
 10
22.62731986239575
 20
3.352592022773043
 30
0.0
 10
22.61858935364364
 20
3.350850704196897
 30
0.0
 10
22.60946662552925
 20
3.34938134207789
 30
0.0
 10
22.5999946425782
 20
3.348175470692347
 30
0.0
  0
LINE
  5
1A82
330
1F
100
AcDbEntity
  8
1
100
AcDbLine
 10
22.69015299999998
 20
3.391627999999998
 30
0.0
 11
22.59999999999999
 21
2.368309999999999
 31
0.0
  0
ELLIPSE
  5
1A83
330
1F
100
AcDbEntity
  8
1
100
AcDbEllipse
 10
22.62835299999998
 20
4.851683
 30
0.0
 11
0.199165865778923
 21
-0.0182596109807491
 31
0.0
210
0.0
220
0.0
230
1.0
 40
0.318697
 41
4.877934585434258
 42
6.270123897685252
  0
LINE
  5
1A84
330
1F
100
AcDbEntity
  8
1
100
AcDbLine
 10
22.69015299999998
 20
3.391627999999998
 30
0.0
 11
22.827426
 21
4.832595999999998
 31
0.0
  0
LINE
  5
1A85
330
1F
100
AcDbEntity
  8
1
100
AcDbLine
 10
22.94982199999998
 20
5.751712
 30
0.0
 11
22.827426
 21
4.832595999999998
 31
0.0
  0
ELLIPSE
  5
1A86
330
1F
100
AcDbEntity
  8
1
100
AcDbEllipse
 10
22.75074899999998
 20
5.770799
 30
0.0
 11
0.199165865778923
 21
-0.0182596109807491
 31
0.0
210
0.0
220
0.0
230
1.0
 40
0.318697
 41
6.270123897685254
 42
7.456537716140737
  0
LINE
  5
1A87
330
1F
100
AcDbEntity
  8
1
100
AcDbLine
 10
22.70578599999999
 20
3.098886999999998
 30
0.0
 11
22.84305899999998
 21
4.539855
 31
0.0
  0
LINE
  5
1A88
330
1F
100
AcDbEntity
  8
1
100
AcDbLine
 10
22.94982199999998
 20
5.751712
 30
0.0
 11
22.84305899999998
 21
4.539855
 31
0.0
  0
LINE
  5
1A89
330
1F
100
AcDbEntity
  8
1
100
AcDbLine
 10
22.705872
 20
3.099642999999998
 30
0.0
 11
22.84314499999999
 21
4.540611
 31
0.0
  0
LINE
  5
1A8A
330
1F
100
AcDbEntity
  8
1
100
AcDbLine
 10
22.94992099999999
 20
5.752612
 30
0.0
 11
22.84314499999999
 21
4.540611
 31
0.0
  0
LINE
  5
1A8B
330
1F
100
AcDbEntity
  8
1
100
AcDbLine
 10
22.51816099999999
 20
-3.041185
 30
0.0
 11
22.478499
 21
-3.034515
 31
0.0
  0
LINE
  5
1A8C
330
1F
100
AcDbEntity
  8
1
100
AcDbLine
 10
22.51816099999999
 20
-3.041185
 30
0.0
 11
22.50597199999999
 21
-3.169483
 31
0.0
  0
LINE
  5
1A8D
330
1F
100
AcDbEntity
  8
1
100
AcDbLine
 10
22.51816099999999
 20
-3.041185
 30
0.0
 11
22.65543399999999
 21
-2.525434
 31
0.0
  0
LINE
  5
1A8E
330
1F
100
AcDbEntity
  8
1
100
AcDbLine
 10
22.36862299999999
 20
-2.478927
 30
0.0
 11
22.65543399999999
 21
-2.525434
 31
0.0
  0
LINE
  5
1A8F
330
1F
100
AcDbEntity
  8
1
100
AcDbLine
 10
22.617638
 20
-5.015627999999998
 30
0.0
 11
22.59999999999999
 21
-4.664113999999998
 31
0.0
  0
SPLINE
  5
1A90
330
1F
100
AcDbEntity
  8
1
100
AcDbSpline
210
0.0
220
0.0
230
1.0
 70
     8
 71
     5
 72
    18
 73
    12
 74
     0
 42
0.000000001
 43
0.0000000001
 40
0.0
 40
0.0
 40
0.0
 40
0.0
 40
0.0
 40
0.0
 40
0.0055834487674998
 40
0.0055834487674998
 40
0.0055834487674998
 40
0.2783448666824507
 40
0.2783448666824507
 40
0.2783448666824507
 40
0.4748265844048655
 40
0.4748265844048655
 40
0.4748265844048655
 40
0.4748265844048655
 40
0.4748265844048655
 40
0.4748265844048655
 10
22.69015305646221
 20
-3.209307107227207
 30
0.0
 10
22.69012243879212
 20
-3.208823484771686
 30
0.0
 10
22.69009182112202
 20
-3.208339862316166
 30
0.0
 10
22.69006134198827
 20
-3.207641936675208
 30
0.0
 10
22.68826629753164
 20
-3.179972930527266
 30
0.0
 10
22.67972348950937
 20
-3.152392653841818
 30
0.0
 10
22.66436352245822
 20
-3.125933339097938
 30
0.0
 10
22.6298146681211
 20
-3.087490645300296
 30
0.0
 10
22.58365416027729
 20
-3.060492626934893
 30
0.0
 10
22.56243269882631
 20
-3.051386215973595
 30
0.0
 10
22.54052959847968
 20
-3.044968191645241
 30
0.0
 10
22.5181611063409
 20
-3.041185029480524
 30
0.0
  0
LINE
  5
1A91
330
1F
100
AcDbEntity
  8
1
100
AcDbLine
 10
22.69015299999998
 20
-3.209306999999999
 30
0.0
 11
22.600008
 21
-4.158174999999999
 31
0.0
  0
ELLIPSE
  5
1A92
330
1F
100
AcDbEntity
  8
1
100
AcDbEllipse
 10
22.62835299999998
 20
-2.689923999999998
 30
0.0
 11
0.1970666795969009
 21
-0.0353360734879971
 31
0.0
210
0.0
220
0.0
230
1.0
 40
0.8326220000000001
 41
0.1904743978259767
 42
1.582663710076982
  0
LINE
  5
1A93
330
1F
100
AcDbEntity
  8
1
100
AcDbLine
 10
22.69015299999998
 20
-3.209306999999999
 30
0.0
 11
22.827426
 21
-2.693556
 31
0.0
  0
LINE
  5
1A94
330
1F
100
AcDbEntity
  8
1
100
AcDbLine
 10
22.94982199999998
 20
-5.132789999999999
 30
0.0
 11
22.827426
 21
-2.693556
 31
0.0
  0
LINE
  5
1A95
330
1F
100
AcDbEntity
  8
1
100
AcDbLine
 10
22.94937199999998
 20
-5.153112
 30
0.0
 11
22.94982199999998
 21
-5.132789999999999
 31
0.0
  0
LINE
  5
1A96
330
1F
100
AcDbEntity
  8
1
100
AcDbLine
 10
22.83855899999998
 20
-6.299493
 30
0.0
 11
22.842612
 21
-6.276886
 31
0.0
  0
LINE
  5
1A97
330
1F
100
AcDbEntity
  8
1
100
AcDbLine
 10
22.842612
 20
-6.276886
 30
0.0
 11
22.84305899999998
 21
-6.256574999999998
 31
0.0
  0
LINE
  5
1A98
330
1F
100
AcDbEntity
  8
1
100
AcDbLine
 10
22.812422
 20
-6.371681999999998
 30
0.0
 11
22.84305899999998
 21
-6.256574999999998
 31
0.0
  0
LINE
  5
1A99
330
1F
100
AcDbEntity
  8
1
100
AcDbLine
 10
22.94982199999998
 20
-5.132789999999999
 30
0.0
 11
22.84305899999998
 21
-6.256574999999998
 31
0.0
  0
LINE
  5
1A9A
330
1F
100
AcDbEntity
  8
1
100
AcDbLine
 10
22.81460199999998
 20
-6.389504
 30
0.0
 11
22.83855899999998
 21
-6.299493
 31
0.0
  0
LINE
  5
1A9B
330
1F
100
AcDbEntity
  8
1
100
AcDbLine
 10
22.94937399999998
 20
-5.153112
 30
0.0
 11
22.842612
 21
-6.276886
 31
0.0
  0
ARC
  5
1A9C
330
1F
100
AcDbEntity
  8
1
100
AcDbCircle
 10
17.67252999999999
 20
12.991743
 30
0.0
 40
21.027667
100
AcDbArc
 50
268.53542
 51
283.413084
  0
ELLIPSE
  5
1A9D
330
1F
100
AcDbEntity
  8
1
100
AcDbEllipse
 10
22.50671299999999
 20
-7.301257
 30
0.0
 11
-0.1974115818738937
 21
-0.0323889330029488
 31
0.0
210
0.0
220
0.0
230
1.0
 40
0.8339439999999999
 41
1.655695486232792
 42
3.047884798483771
  0
LINE
  5
1A9E
330
1F
100
AcDbEntity
  8
1
100
AcDbLine
 10
22.70578599999999
 20
-7.284414999999999
 30
0.0
 11
22.59999999999999
 21
-5.187083
 31
0.0
  0
LINE
  5
1A9F
330
1F
100
AcDbEntity
  8
1
100
AcDbLine
 10
22.69015299999998
 20
-5.375089
 30
0.0
 11
22.68929799999998
 21
-5.365178
 31
0.0
  0
LINE
  5
1AA0
330
1F
100
AcDbEntity
  8
1
100
AcDbLine
 10
22.68929799999998
 20
-5.365178
 30
0.0
 11
22.68744999999998
 21
-5.353917
 31
0.0
  0
LINE
  5
1AA1
330
1F
100
AcDbEntity
  8
1
100
AcDbLine
 10
22.69015299999998
 20
-5.375089
 30
0.0
 11
22.59999999999999
 21
-4.938252999999998
 31
0.0
  0
LINE
  5
1AA2
330
1F
100
AcDbEntity
  8
1
100
AcDbLine
 10
22.826571
 20
-6.487392999999999
 30
0.0
 11
22.827426
 21
-6.497304999999998
 31
0.0
  0
LINE
  5
1AA3
330
1F
100
AcDbEntity
  8
1
100
AcDbLine
 10
22.69015299999998
 20
-5.375089
 30
0.0
 11
22.827426
 21
-6.497304999999998
 31
0.0
  0
LINE
  5
1AA4
330
1F
100
AcDbEntity
  8
1
100
AcDbLine
 10
22.94982199999998
 20
-8.923950999999997
 30
0.0
 11
22.827426
 21
-6.497304999999998
 31
0.0
  0
ELLIPSE
  5
1AA5
330
1F
100
AcDbEntity
  8
1
100
AcDbEllipse
 10
22.75074899999998
 20
-8.940792999999997
 30
0.0
 11
-0.1974115818738937
 21
-0.0323889330029488
 31
0.0
210
0.0
220
0.0
230
1.0
 40
0.8339439999999999
 41
1.655695486232754
 42
3.047884798483758
  0
ARC
  5
1AA6
330
1F
100
AcDbEntity
  8
1
100
AcDbCircle
 10
17.92181699999998
 20
11.310031
 30
0.0
 40
20.985284
100
AcDbArc
 50
266.258409
 51
283.425852
  0
ELLIPSE
  5
1AA7
330
1F
100
AcDbEntity
  8
1
100
AcDbEllipse
 10
16.57948999999999
 20
-9.462903
 30
0.0
 11
-0.1974115818738937
 21
-0.0323889330029488
 31
0.0
210
0.0
220
0.0
230
1.0
 40
0.8339439999999999
 41
0.0343852760674468
 42
1.298481457145445
  0
LINE
  5
1AA8
330
1F
100
AcDbEntity
  8
1
100
AcDbLine
 10
16.27450899999999
 20
-8.972338
 30
0.0
 11
16.27635899999999
 21
-8.983605999999998
 31
0.0
  0
SPLINE
  5
1AA9
330
1F
100
AcDbEntity
  8
1
100
AcDbSpline
210
0.0
220
0.0
230
1.0
 70
     8
 71
     5
 72
    15
 73
     9
 74
     0
 42
0.000000001
 43
0.0000000001
 40
0.0
 40
0.0
 40
0.0
 40
0.0
 40
0.0
 40
0.0
 40
0.2099771916231162
 40
0.2099771916231162
 40
0.2099771916231162
 40
0.4274877443674808
 40
0.4274877443674808
 40
0.4274877443674808
 40
0.4274877443674808
 40
0.4274877443674808
 40
0.4274877443674808
 10
16.27635944743406
 20
-8.983606237372994
 30
0.0
 10
16.28057062204817
 20
-9.003983322138928
 30
0.0
 10
16.28860253798132
 20
-9.023643287725132
 30
0.0
 10
16.30069939646458
 20
-9.042376285163564
 30
0.0
 10
16.33133389622918
 20
-9.075215590748877
 30
0.0
 10
16.37272096640464
 20
-9.09774539103774
 30
0.0
 10
16.39639260761246
 20
-9.106242190170027
 30
0.0
 10
16.42078600804271
 20
-9.111210814062424
 30
0.0
 10
16.44564623742522
 20
-9.1128585493908
 30
0.0
  0
LINE
  5
1AAA
330
1F
100
AcDbEntity
  8
1
100
AcDbLine
 10
16.31750199999999
 20
-8.065274
 30
0.0
 11
16.44564599999998
 21
-9.112859
 31
0.0
  0
LINE
  5
1AAB
330
1F
100
AcDbEntity
  8
1
100
AcDbLine
 10
22.550366
 20
-7.462547999999999
 30
0.0
 11
22.68763899999999
 21
-8.584763999999998
 31
0.0
  0
LINE
  5
1AAC
330
1F
100
AcDbEntity
  8
1
100
AcDbLine
 10
22.68763899999999
 20
-8.584763999999998
 30
0.0
 11
22.60064499999999
 21
-8.605260000000001
 31
0.0
  0
SPLINE
  5
1AAD
330
1F
100
AcDbEntity
  8
1
100
AcDbSpline
210
0.0
220
0.0
230
1.0
 70
     8
 71
     5
 72
    18
 73
    12
 74
     0
 42
0.000000001
 43
0.0000000001
 40
0.502151655081422
 40
0.502151655081422
 40
0.502151655081422
 40
0.502151655081422
 40
0.502151655081422
 40
0.502151655081422
 40
4.066606102456836
 40
4.066606102456836
 40
4.066606102456836
 40
7.524212728860522
 40
7.524212728860522
 40
7.524212728860522
 40
11.51775886342234
 40
11.51775886342234
 40
11.51775886342234
 40
11.51775886342234
 40
11.51775886342234
 40
11.51775886342234
 10
16.53394963530158
 20
-9.118527572635494
 30
0.0
 10
16.87328915245791
 20
-8.944311253263578
 30
0.0
 10
17.22930347899896
 20
-8.785230595406321
 30
0.0
 10
17.60424861423203
 20
-8.643475148861066
 30
0.0
 10
18.35828418338494
 20
-8.41325046857915
 30
0.0
 10
19.1532521896963
 20
-8.279322459229481
 30
0.0
 10
19.56112938403561
 20
-8.238335229642387
 30
0.0
 10
20.4248945153652
 20
-8.209383924263221
 30
0.0
 10
21.2816472840139
 20
-8.296372589593854
 30
0.0
 10
21.73319329012935
 20
-8.374273203090185
 30
0.0
 10
22.17320261240513
 20
-8.478559233703691
 30
0.0
 10
22.60065783311407
 20
-8.605244204832766
 30
0.0
  0
LINE
  5
1AAE
330
1F
100
AcDbEntity
  8
1
100
AcDbLine
 10
16.44564599999998
 20
-9.112859
 30
0.0
 11
16.53392299999999
 21
-9.11852
 31
0.0
  0
SPLINE
  5
1AAF
330
1F
100
AcDbEntity
  8
1
100
AcDbSpline
210
0.0
220
0.0
230
1.0
 70
     8
 71
     5
 72
    15
 73
     9
 74
     0
 42
0.000000001
 43
0.0000000001
 40
0.0
 40
0.0
 40
0.0
 40
0.0
 40
0.0
 40
0.0
 40
0.2422250995417919
 40
0.2422250995417919
 40
0.2422250995417919
 40
0.4732361051848021
 40
0.4732361051848021
 40
0.4732361051848021
 40
0.4732361051848021
 40
0.4732361051848021
 40
0.4732361051848021
 10
22.68763924472395
 20
-8.584764281154813
 30
0.0
 10
22.71481434615092
 20
-8.578301800606633
 30
0.0
 10
22.74092361976213
 20
-8.567899933155491
 30
0.0
 10
22.76555650253508
 20
-8.55339297882918
 30
0.0
 10
22.8063356243369
 20
-8.519397399363468
 30
0.0
 10
22.83215193572144
 20
-8.476126877500771
 30
0.0
 10
22.8406915923654
 20
-8.452735636731061
 30
0.0
 10
22.84421269760122
 20
-8.429506828576871
 30
0.0
 10
22.84305888968598
 20
-8.406631262297915
 30
0.0
  0
LINE
  5
1AB0
330
1F
100
AcDbEntity
  8
1
100
AcDbLine
 10
22.70578599999999
 20
-7.284414999999999
 30
0.0
 11
22.84305899999998
 21
-8.406630999999999
 31
0.0
  0
LINE
  5
1AB1
330
1F
100
AcDbEntity
  8
1
100
AcDbLine
 10
22.94982199999998
 20
-8.923950999999997
 30
0.0
 11
22.84305899999998
 21
-8.406630999999999
 31
0.0
  0
LINE
  5
1AB2
330
1F
100
AcDbEntity
  8
1
100
AcDbLine
 10
22.79440199999999
 20
-9.102083999999999
 30
0.0
 11
22.68763899999999
 21
-8.584763999999998
 31
0.0
  0
SPLINE
  5
1AB3
330
1F
100
AcDbEntity
  8
1
100
AcDbSpline
210
0.0
220
0.0
230
1.0
 70
     8
 71
     5
 72
    18
 73
    12
 74
     0
 42
0.000000001
 43
0.0000000001
 40
0.5023872400998465
 40
0.5023872400998465
 40
0.5023872400998465
 40
0.5023872400998465
 40
0.5023872400998465
 40
0.5023872400998465
 40
4.764544049339538
 40
4.764544049339538
 40
4.764544049339538
 40
8.212081646334681
 40
8.212081646334681
 40
8.212081646334681
 40
11.52161577632496
 40
11.52161577632496
 40
11.52161577632496
 40
11.52161577632496
 40
11.52161577632496
 40
11.52161577632496
 10
16.53392374163045
 20
-9.118519898500762
 30
0.0
 10
16.99013087032978
 20
-9.253727163657146
 30
0.0
 10
17.46064265707207
 20
-9.363422196962526
 30
0.0
 10
17.94423300731088
 20
-9.442760591345612
 30
0.0
 10
18.83364694266828
 20
-9.520454902162999
 30
0.0
 10
19.72612505820246
 20
-9.472640235936045
 30
0.0
 10
20.1310921056504
 20
-9.423687556154318
 30
0.0
 10
20.8912490073902
 20
-9.280179272919184
 30
0.0
 10
21.61109621485079
 20
-9.049491035019633
 30
0.0
 10
21.95627235057233
 20
-8.915689734555675
 30
0.0
 10
22.28559749270974
 20
-8.767004283269217
 30
0.0
 10
22.60064200664385
 20
-8.605252330570039
 30
0.0
  0
LINE
  5
1AB4
330
1F
100
AcDbEntity
  8
1
100
AcDbLine
 10
16.55240899999998
 20
-9.630178
 30
0.0
 11
16.44564599999998
 21
-9.112859
 31
0.0
  0
LINE
  5
1AB5
330
1F
100
AcDbEntity
  8
1
100
AcDbLine
 10
22.68744999999998
 20
-5.353917
 30
0.0
 11
22.59999999999999
 21
-4.93018
 31
0.0
  0
LINE
  5
1AB6
330
1F
100
AcDbEntity
  8
1
100
AcDbLine
 10
22.68929799999998
 20
-5.365178
 30
0.0
 11
22.826571
 21
-6.487392999999999
 31
0.0
  0
LINE
  5
1AB7
330
1F
100
AcDbEntity
  8
1
100
AcDbLine
 10
16.16437399999998
 20
-8.071975
 30
0.0
 11
16.27450899999999
 21
-8.972338
 31
0.0
  0
LINE
  5
1AB8
330
1F
100
AcDbEntity
  8
1
100
AcDbLine
 10
16.38312399999998
 20
-9.500932999999999
 30
0.0
 11
16.27635899999999
 21
-8.983605999999998
 31
0.0
  0
ARC
  5
1AB9
330
1F
100
AcDbEntity
  8
1
100
AcDbCircle
 10
15.70102599999998
 20
52.656911
 30
0.0
 40
54.49933699999998
100
AcDbArc
 50
270.748996
 51
277.331203
  0
ARC
  5
1ABA
330
1F
100
AcDbEntity
  8
1
100
AcDbCircle
 10
16.33172999999999
 20
1.533718
 30
0.0
 40
0.3482569999999999
100
AcDbArc
 50
93.8355739999997
 51
120.8621319999997
  0
ARC
  5
1ABB
330
1F
100
AcDbEntity
  8
1
100
AcDbCircle
 10
23.26278099999999
 20
-52.171963
 30
0.0
 40
54.49933699999998
100
AcDbArc
 50
90.748996
 51
97.33120300000001
  0
ELLIPSE
  5
1ABC
330
1F
100
AcDbEntity
  8
1
100
AcDbEllipse
 10
22.50671299999999
 20
2.256269
 30
0.0
 11
0.1991621404886246
 21
0.0186615884304047
 31
0.0
210
0.0
220
0.0
230
1.0
 40
0.318591
 41
0.0062440433993438
 42
1.320074716564761
  0
ELLIPSE
  5
1ABD
330
1F
100
AcDbEntity
  8
1
100
AcDbEllipse
 10
22.62835299999998
 20
-1.336041
 30
0.0
 11
0.1991621404886246
 21
0.0186615884304047
 31
0.0
210
0.0
220
0.0
230
1.0
 40
0.318591
 41
4.81888139924237
 42
6.211070711493377
  0
ELLIPSE
  5
1ABE
330
1F
100
AcDbEntity
  8
1
100
AcDbEllipse
 10
16.45709399999998
 20
-1.771320999999999
 30
0.0
 11
0.1991621404886246
 21
0.0186615884304047
 31
0.0
210
0.0
220
0.0
230
1.0
 40
0.318591
 41
3.147836696989123
 42
4.461667370155613
  0
LINE
  5
1ABF
330
1F
100
AcDbEntity
  8
1
100
AcDbLine
 10
16.25797399999999
 20
-1.790377999999999
 30
0.0
 11
16.25802099999999
 21
-1.785361999999999
 31
0.0
  0
LINE
  5
1AC0
330
1F
100
AcDbEntity
  8
1
100
AcDbLine
 10
16.23841099999999
 20
-1.612602
 30
0.0
 11
16.25802099999999
 21
-1.785361999999999
 31
0.0
  0
LINE
  5
1AC1
330
1F
100
AcDbEntity
  8
1
100
AcDbLine
 10
22.94982199999998
 20
-0.3825149999999999
 30
0.0
 11
22.827426
 21
-1.321998999999999
 31
0.0
  0
ELLIPSE
  5
1AC2
330
1F
100
AcDbEntity
  8
1
100
AcDbEllipse
 10
22.75074899999998
 20
-0.3965559999999999
 30
0.0
 11
0.1991621404886246
 21
0.0186615884304047
 31
0.0
210
0.0
220
0.0
230
1.0
 40
0.318591
 41
6.276938688292181
 42
7.603260023744383
  0
LINE
  5
1AC3
330
1F
100
AcDbEntity
  8
1
100
AcDbLine
 10
22.94994399999999
 20
-0.3782909999999999
 30
0.0
 11
22.94982199999998
 21
-0.3825149999999999
 31
0.0
  0
ARC
  5
1AC4
330
1F
100
AcDbEntity
  8
1
100
AcDbCircle
 10
23.50681699999998
 20
-54.824787
 30
0.0
 40
54.49933699999998
100
AcDbArc
 50
90.748996
 51
97.33120300000001
  0
ELLIPSE
  5
1AC5
330
1F
100
AcDbEntity
  8
1
100
AcDbEllipse
 10
16.57948999999999
 20
-0.831836
 30
0.0
 11
0.1991621404886246
 21
0.0186615884304047
 31
0.0
210
0.0
220
0.0
230
1.0
 40
0.318591
 41
1.677288745652115
 42
3.069478057903562
  0
LINE
  5
1AC6
330
1F
100
AcDbEntity
  8
1
100
AcDbLine
 10
16.25802099999999
 20
-1.785361999999999
 30
0.0
 11
16.38041699999999
 21
-0.8458779999999999
 31
0.0
  0
ELLIPSE
  5
1AC7
330
1F
100
AcDbEntity
  8
1
100
AcDbEllipse
 10
19.60392199999998
 20
-1.083937999999998
 30
0.0
 11
-1.055543184280395
 21
-0.0971005037426949
 31
0.0
210
0.0
220
0.0
230
1.0
 40
0.307841
 41
3.141677851175062
 42
6.283270504764853
  0
ELLIPSE
  5
1AC8
330
1F
100
AcDbEntity
  8
1
100
AcDbEllipse
 10
19.60392199999998
 20
-1.083937999999998
 30
0.0
 11
-1.055543184280395
 21
-0.0971005037426949
 31
0.0
210
0.0
220
0.0
230
1.0
 40
0.307841
 41
0.0000851975852687
 42
3.072448966569181
  0
ELLIPSE
  5
1AC9
330
1F
100
AcDbEntity
  8
1
100
AcDbEllipse
 10
19.60392199999998
 20
-1.083937999999998
 30
0.0
 11
-1.055543184280395
 21
-0.0971005037426949
 31
0.0
210
0.0
220
0.0
230
1.0
 40
0.307841
 41
3.072448966569181
 42
3.141677851175063
  0
LINE
  5
1ACA
330
1F
100
AcDbEntity
  8
1
100
AcDbLine
 10
16.38041699999999
 20
-0.8458779999999999
 30
0.0
 11
16.27365399999999
 21
0.597629
 31
0.0
  0
LINE
  5
1ACB
330
1F
100
AcDbEntity
  8
1
100
AcDbLine
 10
16.20442
 20
1.207553
 30
0.0
 11
16.27365399999999
 21
0.597629
 31
0.0
  0
SPLINE
  5
1ACC
330
1F
100
AcDbEntity
  8
1
100
AcDbSpline
210
0.0
220
0.0
230
1.0
 70
     8
 71
     5
 72
    15
 73
     9
 74
     0
 42
0.000000001
 43
0.0000000001
 40
0.0
 40
0.0
 40
0.0
 40
0.0
 40
0.0
 40
0.0
 40
0.1669006483249992
 40
0.1669006483249992
 40
0.1669006483249992
 40
0.4479797334864736
 40
0.4479797334864736
 40
0.4479797334864736
 40
0.4479797334864736
 40
0.4479797334864736
 40
0.4479797334864736
 10
16.27365428730391
 20
0.5976287991560402
 30
0.0
 10
16.27459121378206
 20
0.6048203796896136
 30
0.0
 10
16.27860507059074
 20
0.6122031273788054
 30
0.0
 10
16.28580903802967
 20
0.6196907757351257
 30
0.0
 10
16.31161663197744
 20
0.6385530367605769
 30
0.0
 10
16.35247926538273
 20
0.6543494588977588
 30
0.0
 10
16.38226247535437
 20
0.6625249459674416
 30
0.0
 10
16.41358342304446
 20
0.6686688993836384
 30
0.0
 10
16.44564623742522
 20
0.6727782552920722
 30
0.0
  0
LINE
  5
1ACD
330
1F
100
AcDbEntity
  8
1
100
AcDbLine
 10
16.30837299999999
 20
1.882097
 30
0.0
 11
16.44564599999998
 21
0.672778
 31
0.0
  0
LINE
  5
1ACE
330
1F
100
AcDbEntity
  8
1
100
AcDbLine
 10
22.550366
 20
2.322366
 30
0.0
 11
22.68763899999999
 21
1.113048
 31
0.0
  0
LINE
  5
1ACF
330
1F
100
AcDbEntity
  8
1
100
AcDbLine
 10
22.68763899999999
 20
1.113046999999999
 30
0.0
 11
22.60064499999999
 21
1.111929
 31
0.0
  0
SPLINE
  5
1AD0
330
1F
100
AcDbEntity
  8
1
100
AcDbSpline
210
0.0
220
0.0
230
1.0
 70
     8
 71
     5
 72
    18
 73
    12
 74
     0
 42
0.000000001
 43
0.0000000001
 40
0.502151655081422
 40
0.502151655081422
 40
0.502151655081422
 40
0.502151655081422
 40
0.502151655081422
 40
0.502151655081422
 40
4.066606102456836
 40
4.066606102456836
 40
4.066606102456836
 40
7.524212728860522
 40
7.524212728860522
 40
7.524212728860522
 40
11.51775886342234
 40
11.51775886342234
 40
11.51775886342234
 40
11.51775886342234
 40
11.51775886342234
 40
11.51775886342234
 10
16.53394963530158
 20
0.6840056882626007
 30
0.0
 10
16.87328915245791
 20
0.9419564734010407
 30
0.0
 10
17.22930347899896
 20
1.174472135875195
 30
0.0
 10
17.60424861423203
 20
1.37788342542179
 30
0.0
 10
18.35828418338494
 20
1.698735211886793
 30
0.0
 10
19.1532521896963
 20
1.862032596944711
 30
0.0
 10
19.56112938403561
 20
1.901222273536454
 30
0.0
 10
20.4248945153652
 20
1.891179289534418
 30
0.0
 10
21.2816472840139
 20
1.695131929526516
 30
0.0
 10
21.73319329012935
 20
1.540254956810948
 30
0.0
 10
22.17320261240513
 20
1.343698879392001
 30
0.0
 10
22.60065783311407
 20
1.111941741153699
 30
0.0
  0
LINE
  5
1AD1
330
1F
100
AcDbEntity
  8
1
100
AcDbLine
 10
16.44564599999998
 20
0.672778
 30
0.0
 11
16.53392299999999
 21
0.68402
 31
0.0
  0
SPLINE
  5
1AD2
330
1F
100
AcDbEntity
  8
1
100
AcDbSpline
210
0.0
220
0.0
230
1.0
 70
     8
 71
     5
 72
    15
 73
     9
 74
     0
 42
0.000000001
 43
0.0000000001
 40
0.0
 40
0.0
 40
0.0
 40
0.0
 40
0.0
 40
0.0
 40
0.3059461895449295
 40
0.3059461895449295
 40
0.3059461895449295
 40
0.4207754438090275
 40
0.4207754438090275
 40
0.4207754438090275
 40
0.4207754438090275
 40
0.4207754438090275
 40
0.4207754438090275
 10
22.68763924472395
 20
1.113047509199793
 30
0.0
 10
22.72227191579691
 20
1.113463592392136
 30
0.0
 10
22.75567120373969
 20
1.111263587544619
 30
0.0
 10
22.78672332536485
 20
1.106214341142429
 30
0.0
 10
22.82051217082355
 20
1.095002299430275
 30
0.0
 10
22.8376592438963
 20
1.079421756216856
 30
0.0
 10
22.84099768909098
 20
1.074829610883702
 30
0.0
 10
22.84282123257316
 20
1.070087012390535
 30
0.0
 10
22.84318145468529
 20
1.065214533699892
 30
0.0
  0
LINE
  5
1AD3
330
1F
100
AcDbEntity
  8
1
100
AcDbLine
 10
22.79440199999999
 20
-0.3304590000000001
 30
0.0
 11
22.68763899999999
 21
1.113046999999999
 31
0.0
  0
SPLINE
  5
1AD4
330
1F
100
AcDbEntity
  8
1
100
AcDbSpline
210
0.0
220
0.0
230
1.0
 70
     8
 71
     5
 72
    18
 73
    12
 74
     0
 42
0.000000001
 43
0.0000000001
 40
0.5023872400998465
 40
0.5023872400998465
 40
0.5023872400998465
 40
0.5023872400998465
 40
0.5023872400998465
 40
0.5023872400998465
 40
4.764544049339538
 40
4.764544049339538
 40
4.764544049339538
 40
8.212081646334681
 40
8.212081646334681
 40
8.212081646334681
 40
11.52161577632496
 40
11.52161577632496
 40
11.52161577632496
 40
11.52161577632496
 40
11.52161577632496
 40
11.52161577632496
 10
16.53392374163045
 20
0.6840197272984378
 30
0.0
 10
16.99013087032978
 20
0.4366721680229829
 30
0.0
 10
17.46064265707207
 20
0.2294179946384765
 30
0.0
 10
17.94423300731088
 20
0.0701287184212012
 30
0.0
 10
18.83364694266828
 20
-0.1131110903660515
 30
0.0
 10
19.72612505820246
 20
-0.0946981487202754
 30
0.0
 10
20.1310921056504
 20
-0.0425070898541735
 30
0.0
 10
20.8912490073902
 20
0.1384793188597414
 30
0.0
 10
21.61109621485079
 20
0.4623170882776408
 30
0.0
 10
21.95627235057233
 20
0.6548867255034404
 30
0.0
 10
22.28559749270974
 20
0.8724329990244543
 30
0.0
 10
22.60064200664385
 20
1.111929709844386
 30
0.0
  0
LINE
  5
1AD5
330
1F
100
AcDbEntity
  8
1
100
AcDbLine
 10
16.55240899999998
 20
-0.7707280000000001
 30
0.0
 11
16.44564599999998
 21
0.672778
 31
0.0
  0
LINE
  5
1AD6
330
1F
100
AcDbEntity
  8
1
100
AcDbLine
 10
16.23808099999999
 20
-1.615136
 30
0.0
 11
16.25797299999999
 21
-1.790377999999999
 31
0.0
  0
LINE
  5
1AD7
330
1F
100
AcDbEntity
  8
1
100
AcDbLine
 10
22.70583399999998
 20
2.275325999999999
 30
0.0
 11
22.84310699999997
 21
1.066008
 31
0.0
  0
LINE
  5
1AD8
330
1F
100
AcDbEntity
  8
1
100
AcDbLine
 10
22.94994399999999
 20
-0.3782909999999999
 30
0.0
 11
22.84318099999999
 21
1.065215
 31
0.0
  0
LINE
  5
1CA4
330
1F
100
AcDbEntity
  8
SK3
100
AcDbLine
 10
12.13397399999999
 20
1.5
 30
0.0
 11
16.44455505686278
 21
6.471745866345195
 31
0.0
  0
LINE
  5
1CA5
330
1F
100
AcDbEntity
  8
SK3
100
AcDbLine
 10
12.77905102480761
 20
0.3826945874472458
 30
0.0
 11
17.0896320816704
 21
5.354440453792441
 31
0.0
  0
LINE
  5
1CC6
330
1F
100
AcDbEntity
  8
SK4
100
AcDbLine
 10
0.0
 20
0.0
 30
0.0
 11
-23.75322800000001
 21
0.0
 31
0.0
  0
DIMENSION
  5
2563
330
1F
100
AcDbEntity
  8
SK2
100
AcDbDimension
  2
*D13
 10
22.94982199999998
 20
52.10980049789943
 30
0.0
 11
1.474910999999993
 21
54.54629030815945
 31
0.0
 70
    32
  1
43
 71
     5
 41
0.0
 42
42.94982199999998
  3
Standard
100
AcDbAlignedDimension
 13
-20.0
 23
5.0
 33
0.0
 14
22.94982199999998
 24
8.687544
 34
0.0
100
AcDbRotatedDimension
  0
DIMENSION
  5
278B
330
1F
100
AcDbEntity
  8
2
100
AcDbDimension
  2
*D14
 10
22.94982199999998
 20
44.07813423934086
 30
0.0
 11
11.47491099999999
 21
46.52569221544768
 31
0.0
 70
    32
  1
23
 71
     5
 41
0.0
 42
22.94982199999998
  3
Standard
100
AcDbAlignedDimension
 13
0.0
 23
0.0
 33
0.0
 14
22.94982199999998
 24
8.687544
 34
0.0
100
AcDbRotatedDimension
  0
DIMENSION
  5
2C41
330
1F
100
AcDbEntity
  8
SK2
100
AcDbDimension
  2
*D15
 10
-46.37809147647437
 20
-9.000000000000008
 30
0.0
 11
-49.22410342306609
 21
-0.000000055555549
 31
0.0
 70
    32
  1
%%C<>
 71
     5
 41
0.0
 42
17.99999988888889
  3
Standard
100
AcDbAlignedDimension
 13
0.0
 23
8.999999888888886
 33
0.0
 14
0.0
 24
-9.0
 34
0.0
 50
90.0
100
AcDbRotatedDimension
  0
LWPOLYLINE
  5
2D56
330
1F
100
AcDbEntity
  8
CUT
100
AcDbPolyline
 90
      831
 70
     1
 43
0.0
 10
16.401028
 20
9.702538000000004
 10
16.30340586330827
 20
6.735516845540257
 10
16.30350818180774
 20
6.733821443579444
 10
16.30365809973867
 20
6.732119150656357
 10
16.30385555139004
 20
6.730414112933516
 10
16.30410063108616
 20
6.728706532348844
 10
16.30439335080954
 20
6.726996809507392
 10
16.30473364982663
 20
6.725285510925252
 10
16.3051214043134
 20
6.723573336273499
 10
16.30555643698112
 20
6.721861085622102
 10
16.30603852670198
 20
6.720149626683862
 10
16.30656741813477
 20
6.718439862058326
 10
16.30714283135059
 20
6.716732696475721
 10
16.3077644714585
 20
6.715029004040879
 10
16.3084320382312
 20
6.713329595477161
 10
16.30914523573072
 20
6.711635185370383
 10
16.30990378193412
 20
6.70994635941274
 10
16.31070741835909
 20
6.708263541646736
 10
16.31155591968974
 20
6.706586961709111
 10
16.31244910340217
 20
6.704916622074753
 10
16.31338688870197
 20
6.703252284657278
 10
16.31436945347803
 20
6.701593682893889
 10
16.31539689720356
 20
6.699940756065185
 10
16.31646913398721
 20
6.698293646605946
 10
16.31758591483619
 20
6.696652672089776
 10
16.31874685003349
 20
6.695018297220038
 10
16.31995143151523
 20
6.693391105820807
 10
16.32119905524787
 20
6.691771772827799
 10
16.32248904360551
 20
6.690161036279325
 10
16.32382066774717
 20
6.688559669307231
 10
16.32519316999408
 20
6.68696845212785
 10
16.32660578620693
 20
6.685388144032923
 10
16.32805776816317
 20
6.683819455380574
 10
16.32954840593425
 20
6.682263019586222
 10
16.33107705026295
 20
6.680719365113549
 10
16.33264313494062
 20
6.679188887465429
 10
16.33424619918446
 20
6.677671821174877
 10
16.33588591001479
 20
6.676168211795991
 10
16.33756209153629
 20
6.674677890416785
 10
16.33927485632189
 20
6.673200568697236
 10
16.34102436091016
 20
6.671736085001843
 10
16.3428105267838
 20
6.670284436202912
 10
16.34463305702248
 20
6.668845757060495
 10
16.34649146511647
 20
6.667420300309655
 10
16.34838510378031
 20
6.666008416747763
 10
16.35031319376647
 20
6.664610535321798
 10
16.35227485267902
 20
6.663227143215625
 10
16.35426912378732
 20
6.661858765937292
 10
16.35629500483959
 20
6.660505947406327
 10
16.35835147687666
 20
6.659169230041017
 10
16.36043753304563
 20
6.657849134845709
 10
16.36255220741348
 20
6.656546141498093
 10
16.36469460378077
 20
6.6552606684365
 10
16.36686392449528
 20
6.653993052947191
 10
16.3690594992657
 20
6.652743531251642
 10
16.37128081397527
 20
6.651512218593846
 10
16.37352753949544
 20
6.650299089327592
 10
16.37579956915403
 20
6.649103961129577
 10
16.37809709291824
 20
6.647926590185435
 10
16.38042026580148
 20
6.646766831512107
 10
16.38276899812315
 20
6.645624641378106
 10
16.3851429791194
 20
6.64450006435694
 10
16.38754170583554
 20
6.643393221063762
 10
16.38996451201858
 20
6.642304295892014
 10
16.39241059700962
 20
6.641233524750082
 10
16.39487905463631
 20
6.640181182797932
 10
16.39736890210534
 20
6.639147572183759
 10
16.39987910889489
 20
6.638133009780639
 10
16.40240862564708
 20
6.637137814923174
 10
16.4049564130604
 20
6.636162297144133
 10
16.40752147078223
 20
6.635206743911108
 10
16.41010286630125
 20
6.634271408363153
 10
16.41269976383991
 20
6.633356497047432
 10
16.41531145324687
 20
6.632462157655871
 10
16.4179373788895
 20
6.631588466761797
 10
16.4205771685463
 20
6.63073541755659
 10
16.42323066246234
 20
6.629902907629437
 10
16.42589798351143
 20
6.629090758661397
 10
16.42857940391004
 20
6.628298832892212
 10
16.43127498464346
 20
6.627527056007536
 10
16.43398455769678
 20
6.626775406761909
 10
16.43670775426772
 20
6.626043910183472
 10
16.43944403297929
 20
6.625332630778741
 10
16.44219270809259
 20
6.624641665737327
 10
16.44495297771949
 20
6.623971138136688
 10
16.44772395203541
 20
6.62332119014687
 10
16.45050468149206
 20
6.622691976235246
 10
16.45329418503014
 20
6.622083656371269
 10
16.45609147829213
 20
6.621496389231197
 10
16.45889560183494
 20
6.620930325402847
 10
16.46170564934281
 20
6.620385600590339
 10
16.46452079583985
 20
6.619862328818834
 10
16.46734032590293
 20
6.619360595639277
 10
16.47016366187434
 20
6.618880451333134
 10
16.47299039207455
 20
6.618421904117147
 10
16.47582029901498
 20
6.617984913348068
 10
16.4786533876162
 20
6.617569382726586
 10
16.48843313726088
 20
6.616173489919646
 10
16.49821333455222
 20
6.61477916526245
 10
16.50799397956657
 20
6.613386407084057
 10
16.51777507188646
 20
6.611995213783652
 10
16.52755661083238
 20
6.610605583797684
 10
16.53733859546951
 20
6.609217515599173
 10
16.54712102461441
 20
6.607831007696987
 10
16.55690389684178
 20
6.606446058635131
 10
16.5666872104911
 20
6.605062666992044
 10
16.5764709636734
 20
6.603680831379878
 10
16.58625515427792
 20
6.602300550443795
 10
16.59603977997885
 20
6.600921822861246
 10
16.60582483824203
 20
6.599544647341268
 10
16.61561032633163
 20
6.598169022623771
 10
16.62539624131692
 20
6.596794947478822
 10
16.63518258007895
 20
6.595422420705936
 10
16.64496933931719
 20
6.594051441133373
 10
16.65475651555636
 20
6.592682007617408
 10
16.66454410515309
 20
6.591314119041639
 10
16.67433210430256
 20
6.589947774316263
 10
16.6841205090453
 20
6.588582972377366
 10
16.69390931527386
 20
6.587219712186224
 10
16.70369851873955
 20
6.585857992728572
 10
16.71348811505907
 20
6.584497813013908
 10
16.72327809972132
 20
6.583139172074773
 10
16.73306846809403
 20
6.581782068966045
 10
16.74285921543052
 20
6.580426502764222
 10
16.75265033687636
 20
6.57907247256672
 10
16.76244182747613
 20
6.577719977491148
 10
16.77223368218009
 20
6.576369016674612
 10
16.78202589585091
 20
6.575019589272987
 10
16.79181846327036
 20
6.573671694460221
 10
16.80161137914607
 20
6.572325331427613
 10
16.81140463811814
 20
6.570980499383109
 10
16.82119823476594
 20
6.569637197550584
 10
16.83099216361477
 20
6.568295425169135
 10
16.84078641914263
 20
6.566955181492367
 10
16.85058099578682
 20
6.565616465787683
 10
16.86037588795073
 20
6.564279277335575
 10
16.87017109001058
 20
6.56294361542891
 10
16.879966596322
 20
6.56160947937221
 10
16.88976240122687
 20
6.560276868480963
 10
16.89955849905997
 20
6.558945782080888
 10
16.90935488415568
 20
6.557616219507237
 10
16.9191515508547
 20
6.556288180104076
 10
16.92894849351079
 20
6.554961663223585
 10
16.93874570649743
 20
6.553636668225334
 10
16.94854318421453
 20
6.552313194475576
 10
16.95834092109521
 20
6.550991241346542
 10
16.96813891161241
 20
6.549670808215715
 10
16.97793715028566
 20
6.548351894465137
 10
16.98773563168777
 20
6.547034499480682
 10
16.99753435045156
 20
6.545718622651352
 10
17.00733330127652
 20
6.544404263368567
 10
17.01713247893558
 20
6.54309142102545
 10
17.02693187828176
 20
6.541780095016112
 10
17.03673149425493
 20
6.540470284734952
 10
17.04653132188849
 20
6.539161989575932
 10
17.05633135631607
 20
6.537855208931881
 10
17.06613159277827
 20
6.536549942193764
 10
17.07593202662933
 20
6.535246188749991
 10
17.08573265334388
 20
6.533943947985693
 10
17.09553346852362
 20
6.532643219282013
 10
17.10533446790403
 20
6.531344002015393
 10
17.11513564736111
 20
6.53004629555687
 10
17.12493700291803
 20
6.528750099271356
 10
17.13473853075189
 20
6.527455412516928
 10
17.14454022720041
 20
6.52616223464413
 10
17.15434208876865
 20
6.524870564995232
 10
17.16414411213568
 20
6.523580402903558
 10
17.17394629416135
 20
6.522291747692732
 10
17.18374863189296
 20
6.521004598676007
 10
17.19355112257193
 20
6.519718955155521
 10
17.20335376364062
 20
6.518434816421607
 10
17.21315655274893
 20
6.517152181752071
 10
17.22295948776105
 20
6.515871050411481
 10
17.23276256676219
 20
6.514591421650469
 10
17.24256578806524
 20
6.513313294704992
 10
17.25236915021754
 20
6.512036668795652
 10
17.26217259087482
 20
6.510761551047268
 10
17.27197591875485
 20
6.509487965359553
 10
17.28178037943397
 20
6.508215749479809
 10
17.29158286650569
 20
6.50694530421117
 10
17.30136659060476
 20
6.505678801699884
 10
17.3111059408099
 20
6.504419556803227
 10
17.32078304080282
 20
6.503169867714687
 10
17.33038893817636
 20
6.501930860670465
 10
17.33992386245205
 20
6.500702469007926
 10
17.34939709276008
 20
6.499483470951269
 10
17.3588251268279
 20
6.498271737228455
 10
17.36822901780649
 20
6.497064568123088
 10
17.37763166821495
 20
6.495859037247187
 10
17.38705512354185
 20
6.494652335471269
 10
17.39651786584666
 20
6.493442114854429
 10
17.4060321073611
 20
6.492226832574411
 10
17.41560138448856
 20
6.491006056339325
 10
17.42521979661848
 20
6.489780553912632
 10
17.43486770593416
 20
6.488552829602475
 10
17.44451868937425
 20
6.487326238106737
 10
17.4541528391383
 20
6.486103292211002
 10
17.46376585186797
 20
6.484884512066552
 10
17.47335745098049
 20
6.483669899454705
 10
17.48292474013815
 20
6.482459780292712
 10
17.49246160634148
 20
6.481254880544697
 10
17.50196226542429
 20
6.480055886508215
 10
17.5114237490724
 20
6.478863136018819
 10
17.52084501229009
 20
6.477676729494688
 10
17.5302267354932
 20
6.476496554500411
 10
17.53957114508807
 20
6.475322308010861
 10
17.54888183405058
 20
6.474153518675071
 10
17.55816358250511
 20
6.472989569080101
 10
17.56741252068305
 20
6.471830916148308
 10
17.57655035833781
 20
6.470687249480399
 10
17.58549270552497
 20
6.469569012508326
 10
17.59419597035918
 20
6.468481584732178
 10
17.60265174310968
 20
6.467425979882496
 10
17.61088074918236
 20
6.466399597571236
 10
17.61892680210167
 20
6.465396974942732
 10
17.62685075649269
 20
6.46441053832466
 10
17.63472446106303
 20
6.463431354878999
 10
17.64262471158487
 20
6.462449884252999
 10
17.65062720387692
 20
6.461456730230143
 10
17.6588004867864
 20
6.460443392381106
 10
17.66719991517105
 20
6.459403017714731
 10
17.67586160288106
 20
6.458331152328972
 10
17.6847963757411
 20
6.457226493061882
 10
17.69398372453231
 20
6.456091639142552
 10
17.70336575797423
 20
6.454933843842097
 10
17.7128432510451
 20
6.453765505080309
 10
17.72234362525363
 20
6.452595695462282
 10
17.73186295625123
 20
6.451424932064365
 10
17.74140172601262
 20
6.450253182318241
 10
17.75096022924083
 20
6.449080436036227
 10
17.76053857280586
 20
6.447906705163974
 10
17.77013667518332
 20
6.446732023533194
 10
17.77975426589314
 20
6.445556446614346
 10
17.7893908849382
 20
6.444380051269346
 10
17.79904588224304
 20
6.443202935504282
 10
17.80871841709246
 20
6.442025218222112
 10
17.81840745757026
 20
6.440847038975371
 10
17.82811177999786
 20
6.439668557718875
 10
17.837829968373
 20
6.438489954562435
 10
17.84756041380838
 20
6.437311429523552
 10
17.85730131397033
 20
6.436133202280133
 10
17.86705063803044
 20
6.434955516026112
 10
17.87680589658696
 20
6.433778664541307
 10
17.88656486695198
 20
6.43260290551519
 10
17.8963266853035
 20
6.431428330010956
 10
17.90609380592998
 20
6.430254628096299
 10
17.91587162070538
 20
6.429081133333801
 10
17.92564844854053
 20
6.427909218121031
 10
17.93540588807725
 20
6.426741068850192
 10
17.94514097114098
 20
6.425577050523684
 10
17.95487576403222
 20
6.424414552756696
 10
17.96464412570695
 20
6.423249558589417
 10
17.97447724194671
 20
6.422078369728575
 10
17.98438906843374
 20
6.420899343605637
 10
17.99436444086636
 20
6.419714316661258
 10
18.00437486544311
 20
6.418526717701455
 10
18.01439809258298
 20
6.417339226973745
 10
18.02443090355755
 20
6.416152247149758
 10
18.03447501216667
 20
6.41496559051758
 10
18.04453157419068
 20
6.413779136472111
 10
18.0546023971266
 20
6.412592684947452
 10
18.06468918767874
 20
6.411406044112043
 10
18.07479279913659
 20
6.410219118077278
 10
18.0849124787527
 20
6.409031994606108
 10
18.09504511538106
 20
6.40784503279089
 10
18.10518496789409
 20
6.406658894166072
 10
18.11532513126064
 20
6.405474370659557
 10
18.12545807631914
 20
6.404292322902857
 10
18.13557601767541
 20
6.403113637850251
 10
18.14566776653367
 20
6.401939590816147
 10
18.15572971746236
 20
6.400770579583073
 10
18.16578342167227
 20
6.399604099224967
 10
18.17586034723379
 20
6.398436495536523
 10
18.18597486808737
 20
6.39726607683028
 10
18.19610090109271
 20
6.396095816743123
 10
18.20619319065853
 20
6.394930908759794
 10
18.21620827454836
 20
6.393776350461187
 10
18.22612637421734
 20
6.392634416569925
 10
18.23597043496604
 20
6.391502457372732
 10
18.24578562210078
 20
6.390375268072067
 10
18.2556011468945
 20
6.389249495006589
 10
18.26541718641536
 20
6.388125135779142
 10
18.275234168028
 20
6.387002147813447
 10
18.2850526104959
 20
6.385880473653122
 10
18.2948724682499
 20
6.384760118540567
 10
18.30469339252079
 20
6.383641121481147
 10
18.31451499247202
 20
6.382523526307396
 10
18.32433709633231
 20
6.381407352743186
 10
18.33415998943546
 20
6.380292570008506
 10
18.3439840419903
 20
6.379179137675869
 10
18.35380931434577
 20
6.378067049414387
 10
18.36363583221205
 20
6.37695630286612
 10
18.37346360453632
 20
6.375846897668787
 10
18.38329262452542
 20
6.374738835329072
 10
18.39312287066844
 20
6.373632119095892
 10
18.40295430775936
 20
6.372526753833684
 10
18.41278688791964
 20
6.37142274589569
 10
18.42262055162087
 20
6.370320102997237
 10
18.43245522870735
 20
6.369218834089027
 10
18.44229083941876
 20
6.368118949230409
 10
18.45212729541272
 20
6.367020459462671
 10
18.46196450078745
 20
6.365923376682316
 10
18.47180235310438
 20
6.364827713514357
 10
18.48164074441073
 20
6.363733483185582
 10
18.49147956226221
 20
6.362640699397855
 10
18.50131869074553
 20
6.36154937620139
 10
18.51115801150113
 20
6.360459527868028
 10
18.52099740474571
 20
6.359371168764536
 10
18.5308367502949
 20
6.358284313225878
 10
18.54067592858585
 20
6.357198975428496
 10
18.55051482169985
 20
6.356115169263612
 10
18.56035331438498
 20
6.355032908210485
 10
18.57019129507868
 20
6.353952205209712
 10
18.58002865693042
 20
6.352873072536501
 10
18.58986529882425
 20
6.351795521673962
 10
18.5997011264015
 20
6.350719563186388
 10
18.60953605308333
 20
6.349645206592537
 10
18.61937000109338
 20
6.348572460238909
 10
18.62920290248038
 20
6.347501331173039
 10
18.63903470014079
 20
6.346431825016777
 10
18.64886534486027
 20
6.345363946245262
 10
18.65869476576968
 20
6.344297701277559
 10
18.66852290030159
 20
6.343233095709897
 10
18.67834971744409
 20
6.342170132028304
 10
18.68817521526853
 20
6.341108809861856
 10
18.69799941818138
 20
6.340049126263581
 10
18.70782237417595
 20
6.338991075991362
 10
18.71764415208435
 20
6.337934651788839
 10
18.72746483882918
 20
6.336879844666317
 10
18.73728453667544
 20
6.335826644181667
 10
18.7471033604823
 20
6.334775038721232
 10
18.75692143495494
 20
6.333725015780728
 10
18.76673889189637
 20
6.332676562246151
 10
18.77655586745923
 20
6.331629664674675
 10
18.78637249939764
 20
6.330584309575572
 10
18.79618892431899
 20
6.329540483691093
 10
18.80600526426873
 20
6.328498175439132
 10
18.81582156156091
 20
6.327457381935736
 10
18.82563782294256
 20
6.326418104043478
 10
18.83545405202937
 20
6.325380342827253
 10
18.84527024996717
 20
6.324344099504656
 10
18.85508641597622
 20
6.323309375409187
 10
18.86490254789559
 20
6.322276171953446
 10
18.87471864272751
 20
6.321244490592343
 10
18.88453469718164
 20
6.320214332786287
 10
18.89435070821946
 20
6.319185699964393
 10
18.90416667359861
 20
6.318158593487678
 10
18.91398259241716
 20
6.317133014612269
 10
18.92379846565805
 20
6.316108964452593
 10
18.93361429673331
 20
6.315086443944585
 10
18.94343009202849
 20
6.314065453808882
 10
18.95324586144696
 20
6.31304599451403
 10
18.96306161775935
 20
6.312028066347166
 10
18.97287737071066
 20
6.311011669929372
 10
18.98269312824189
 20
6.309996806058371
 10
18.99250889786878
 20
6.308983475575872
 10
19.00232468668823
 20
6.307971679367063
 10
19.01214050138404
 20
6.306961418360192
 10
19.02195634823263
 20
6.305952693526138
 10
19.03177223310879
 20
6.304945505877957
 10
19.04158816149148
 20
6.303939856470473
 10
19.05140413846948
 20
6.302935746399831
 10
19.06122016874724
 20
6.301933176803071
 10
19.07103625665055
 20
6.300932148857686
 10
19.08085240613231
 20
6.2999326637812
 10
19.0906686207783
 20
6.298934722830732
 10
19.10048490381289
 20
6.297938327302559
 10
19.11030125810481
 20
6.296943478531688
 10
19.12011768617289
 20
6.295950177891421
 10
19.12993419019181
 20
6.294958426792919
 10
19.13975077199783
 20
6.293968226684779
 10
19.14956743309456
 20
6.292979579052592
 10
19.1593841746587
 20
6.291992485418511
 10
19.16920099754576
 20
6.291006947340822
 10
19.17901790229585
 20
6.290022966413512
 10
19.18883488913939
 20
6.289040544265827
 10
19.19865195800289
 20
6.288059682561857
 10
19.20846910851465
 20
6.28708038300008
 10
19.21828634001056
 20
6.286102647312949
 10
19.22810365153981
 20
6.285126477266452
 10
19.23792104187065
 20
6.284151874659673
 10
19.24773850949613
 20
6.283178841324367
 10
19.25755605263984
 20
6.282207379124527
 10
19.26737366926168
 20
6.281237489955954
 10
19.27719135706361
 20
6.280269175745808
 10
19.28700911349534
 20
6.279302438452199
 10
19.29682693576014
 20
6.27833728006373
 10
19.30664482082056
 20
6.277373702599084
 10
19.31646276540417
 20
6.276411708106581
 10
19.32628076600933
 20
6.275451298663753
 10
19.33609881891091
 20
6.274492476376894
 10
19.34591692016605
 20
6.273535243380652
 10
19.35573506561989
 20
6.272579601837572
 10
19.36555325091138
 20
6.271625553937683
 10
19.37537147147893
 20
6.270673101898053
 10
19.3851897225662
 20
6.269722247962357
 10
19.3950079992279
 20
6.26877299440045
 10
19.40482629633542
 20
6.267825343507933
 10
19.4146446085827
 20
6.266879297605717
 10
19.4244629304919
 20
6.26593485903959
 10
19.43428125641915
 20
6.264992030179787
 10
19.44409958056033
 20
6.264050813420554
 10
19.45391789695681
 20
6.263111211179722
 10
19.46373619950115
 20
6.262173225898266
 10
19.47355448194293
 20
6.261236860039874
 10
19.48337273789439
 20
6.260302116090517
 10
19.49319096083629
 20
6.259368996558022
 10
19.50300914412357
 20
6.258437503971619
 10
19.51282728099113
 20
6.257507640881532
 10
19.52264536455959
 20
6.256579409858534
 10
19.53246338784101
 20
6.255652813493509
 10
19.54228134374464
 20
6.254727854397034
 10
19.55209922508268
 20
6.253804535198937
 10
19.56191702457603
 20
6.252882858547858
 10
19.57173473486001
 20
6.251962827110836
 10
19.58155234849014
 20
6.251044443572852
 10
19.59136985794786
 20
6.250127710636418
 10
19.60118725564628
 20
6.249212631021124
 10
19.61100453393594
 20
6.248299207463222
 10
19.62082168511055
 20
6.24738744271519
 10
19.63063870141272
 20
6.246477339545286
 10
19.64045557503976
 20
6.245568900737134
 10
19.65027229814934
 20
6.244662129089276
 10
19.6600888628653
 20
6.243757027414753
 10
19.66990526128343
 20
6.242853598540652
 10
19.67972148547708
 20
6.241951845307701
 10
19.68953752750307
 20
6.241051770569809
 10
19.69935337940731
 20
6.240153377193652
 10
19.70916903323063
 20
6.239256668058231
 10
19.71898448101448
 20
6.238361646054442
 10
19.72879971480668
 20
6.237468314084643
 10
19.73861472666719
 20
6.236576675062219
 10
19.74842950867385
 20
6.235686731911157
 10
19.75824405292809
 20
6.234798487565603
 10
19.76805835156074
 20
6.233911944969433
 10
19.77787239673773
 20
6.233027107075824
 10
19.78768618066582
 20
6.232143976846812
 10
19.79749969559842
 20
6.231262557252877
 10
19.80731293384127
 20
6.230382851272487
 10
19.8171258877582
 20
6.229504861891681
 10
19.82693854977689
 20
6.22862859210363
 10
19.83675091239464
 20
6.227754044908214
 10
19.84656296818404
 20
6.226881223311567
 10
19.85637470979879
 20
6.226010130325675
 10
19.86618612997941
 20
6.225140768967912
 10
19.875997221559
 20
6.22427314226063
 10
19.885807977469
 20
6.223407253230719
 10
19.8956183907449
 20
6.222543104909169
 10
19.905428454532
 20
6.221680700330643
 10
19.91523816209117
 20
6.220820042533044
 10
19.92504750680462
 20
6.219961134557078
 10
19.93485648218156
 20
6.219103979445829
 10
19.94466508186404
 20
6.218248580244315
 10
19.95447329963264
 20
6.217394939999067
 10
19.96428112941225
 20
6.216543061757687
 10
19.97408856527779
 20
6.215692948568423
 10
19.98389560145998
 20
6.214844603479727
 10
19.99370223235106
 20
6.213998029539832
 10
20.00350845251054
 20
6.213153229796312
 10
20.013314256671
 20
6.212310207295652
 10
20.02311963974374
 20
6.211468965082817
 10
20.03292459682462
 20
6.210629506200812
 10
20.04272912319976
 20
6.209791833690259
 10
20.05253321435127
 20
6.208955950588959
 10
20.06233686596303
 20
6.20812185993146
 10
20.07214007392645
 20
6.207289564748622
 10
20.08194283434617
 20
6.206459068067187
 10
20.09174514354581
 20
6.205630372909343
 10
20.10154699807378
 20
6.2048034822923
 10
20.11134839470895
 20
6.203978399227846
 10
20.12114933046643
 20
6.203155126721917
 10
20.13094980260332
 20
6.202333667774174
 10
20.14074980862446
 20
6.201514025377552
 10
20.15054934628816
 20
6.200696202517847
 10
20.16034841361194
 20
6.199880202173267
 10
20.17014700887831
 20
6.199066027314008
 10
20.17994513064049
 20
6.198253680901825
 10
20.18974277772816
 20
6.197443165889581
 10
20.19953994925322
 20
6.196634485220842
 10
20.20933664484286
 20
6.195827641816999
 10
20.21913286566185
 20
6.195022638518652
 10
20.22892861320817
 20
6.194219478145273
 10
20.23872388875767
 20
6.193418163524603
 10
20.24851869341724
 20
6.192618697490113
 10
20.25831302817922
 20
6.191821082878407
 10
20.26810689397562
 20
6.19102532252662
 10
20.27790029173268
 20
6.190231419269802
 10
20.287693222425
 20
6.189439375938332
 10
20.29748568713002
 20
6.188649195355306
 10
20.30727768708233
 20
6.187860880333936
 10
20.31706922372803
 20
6.187074433674951
 10
20.32686029877903
 20
6.186289858163986
 10
20.33665091426748
 20
6.185507156568991
 10
20.34644107260005
 20
6.184726331637625
 10
20.35623077661231
 20
6.183947386094644
 10
20.36602002962306
 20
6.183170322639309
 10
20.37580883548869
 20
6.18239514394278
 10
20.38559719865753
 20
6.181621852645516
 10
20.39538512422421
 20
6.180850451354666
 10
20.40517261798397
 20
6.180080942641476
 10
20.41495968648703
 20
6.179313329038675
 10
20.42474633709295
 20
6.178547613037886
 10
20.43453257802495
 20
6.177783797087007
 10
20.4443184184243
 20
6.177021883587628
 10
20.45410386840462
 20
6.176261874892411
 10
20.46388893910627
 20
6.175503773302496
 10
20.47367364275065
 20
6.174747581064899
 10
20.4834579926946
 20
6.173993300369905
 10
20.49324200348472
 20
6.173240933348472
 10
20.50302569091173
 20
6.172490482069618
 10
20.51280907202397
 20
6.171741948540549
 10
20.52259214160943
 20
6.170995336253366
 10
20.5323748601618
 20
6.170250650870585
 10
20.54215723333215
 20
6.169507894980409
 10
20.55193929968973
 20
6.168767069119048
 10
20.56172110237983
 20
6.168028173874356
 10
20.5715026607815
 20
6.167291211989451
 10
20.58128394216543
 20
6.166556190466343
 10
20.59106483443818
 20
6.16582312257471
 10
20.60084553489897
 20
6.165091994696977
 10
20.61062798857141
 20
6.164362648749055
 10
20.62041587111227
 20
6.163634788718986
 10
20.63021400321131
 20
6.162908030731808
 10
20.64002778738494
 20
6.1621819507958
 10
20.64986264476973
 20
6.1614561325487
 10
20.65972345191605
 20
6.160730215003947
 10
20.66961429104408
 20
6.160003917814152
 10
20.67956852786123
 20
6.159274888494319
 10
20.68965808203458
 20
6.158538024678839
 10
20.69992600872533
 20
6.15779029819558
 10
20.71038436622294
 20
6.157030906046567
 10
20.72101998352491
 20
6.156260855285546
 10
20.73180022791657
 20
6.155482547895577
 10
20.74267877255087
 20
6.154699365666587
 10
20.75360136402817
 20
6.153915255072964
 10
20.76451158997601
 20
6.153134312151129
 10
20.77535664662894
 20
6.152360367377097
 10
20.78609310640827
 20
6.151596570544075
 10
20.79669268550187
 20
6.150844975640023
 10
20.80714801144398
 20
6.150106125725228
 10
20.81747839069494
 20
6.149378637809894
 10
20.82773557652622
 20
6.148658787712862
 10
20.83801866390313
 20
6.147939573866794
 10
20.84846332746422
 20
6.147211759945287
 10
20.85915600072172
 20
6.146469527389224
 10
20.8701271627707
 20
6.145710860036797
 10
20.88136152777287
 20
6.144936849514727
 10
20.89280823444053
 20
6.144151000629494
 10
20.90439103552041
 20
6.143358536758567
 10
20.91601848727757
 20
6.142565705241628
 10
20.92759413897928
 20
6.141779082771789
 10
20.93902672237887
 20
6.141004880786836
 10
20.95024034119968
 20
6.14024825086044
 10
20.96118466061886
 20
6.139512590093391
 10
20.97184509675129
 20
6.138798846504823
 10
20.98225300613348
 20
6.13810482442344
 10
20.99249587520741
 20
6.137424489878736
 10
21.00268053483381
 20
6.136750430243752
 10
21.01277084324761
 20
6.136084802506184
 10
21.02271110088367
 20
6.135431145442161
 10
21.03247337318536
 20
6.134791208242623
 10
21.04205323391632
 20
6.134165225783769
 10
21.05146550750427
 20
6.133552193962378
 10
21.06074001138479
 20
6.132950145031081
 10
21.06991729834517
 20
6.132356422933691
 10
21.07904439886813
 20
6.131767958640488
 10
21.08817056347564
 20
6.131181545483531
 10
21.09734300507275
 20
6.130594114491957
 10
21.10660264129132
 20
6.130003009727277
 10
21.11597983683388
 20
6.129406263618684
 10
21.12549014581738
 20
6.12880287229836
 10
21.13513005411699
 20
6.128193070936768
 10
21.1448727217099
 20
6.127578609077964
 10
21.15466383638485
 20
6.126963018799562
 10
21.16444740855316
 20
6.126349952537362
 10
21.17421781307661
 20
6.125739821468052
 10
21.18397823861888
 20
6.125132465169206
 10
21.19373211058363
 20
6.124527702526436
 10
21.20348262712244
 20
6.123925360281245
 10
21.2132322951428
 20
6.123325301578897
 10
21.22298246631603
 20
6.122727454516263
 10
21.23273287418722
 20
6.122131840624269
 10
21.24248203854502
 20
6.121538551889039
 10
21.25222944009856
 20
6.120947622658403
 10
21.26197487368049
 20
6.120359068396146
 10
21.27171818221344
 20
6.119772901434122
 10
21.28145924648206
 20
6.119189131519265
 10
21.29119797490499
 20
6.118607766360598
 10
21.30093429330679
 20
6.118028812176264
 10
21.31066813469207
 20
6.117452274240418
 10
21.32039943735012
 20
6.116878157007482
 10
21.33012816652034
 20
6.116306463069483
 10
21.33985430777658
 20
6.115737193568349
 10
21.34957786310414
 20
6.115170348438657
 10
21.35929885033531
 20
6.114605926475326
 10
21.36901730258486
 20
6.114043925401313
 10
21.3787332676855
 20
6.113484341935295
 10
21.38844680762348
 20
6.11292717185937
 10
21.39815799797402
 20
6.112372410086736
 10
21.4078669273368
 20
6.111820050729397
 10
21.41757369677156
 20
6.11127008716584
 10
21.4272784192335
 20
6.110722512108734
 10
21.43698121900885
 20
6.110177317672622
 10
21.44668223115035
 20
6.109634495441603
 10
21.45638160091274
 20
6.109094036537037
 10
21.46607948318831
 20
6.108555931685222
 10
21.47577604136907
 20
6.108020171260816
 10
21.48547144297429
 20
6.107486745510572
 10
21.49516585746535
 20
6.106955645137242
 10
21.50485945564031
 20
6.10642686142475
 10
21.51455240881274
 20
6.105900386256394
 10
21.52424488799064
 20
6.105376212133054
 10
21.53393706305519
 20
6.104854332191401
 10
21.54362910193967
 20
6.104334740222093
 10
21.55332116980828
 20
6.103817430687993
 10
21.56301342823498
 20
6.103302398742378
 10
21.57270603438233
 20
6.10278964024712
 10
21.58239914018035
 20
6.10227915179093
 10
21.59209289150538
 20
6.101770930707527
 10
21.60178742735888
 20
6.101264975093878
 10
21.61148287904632
 20
6.10076128382837
 10
21.62117936935597
 20
6.100259856589048
 10
21.63087701173783
 20
6.099760693871796
 10
21.64057590948238
 20
6.099263797008563
 10
21.65027615489949
 20
6.098769168185556
 10
21.65997782849727
 20
6.098276810461451
 10
21.66968099816084
 20
6.097786727785598
 10
21.67938571833126
 20
6.097298925016223
 10
21.68909202918434
 20
6.09681340793865
 10
21.69879995580947
 20
6.096330183283488
 10
21.70850950738851
 20
6.095849258744848
 10
21.71822067637457
 20
6.095370642998538
 10
21.72793343767091
 20
6.094894345720293
 10
21.73764774780977
 20
6.094420377603953
 10
21.7473635441312
 20
6.093948750379688
 10
21.75708074396194
 20
6.093479476832197
 10
21.76679924379422
 20
6.09301257081891
 10
21.77651891774393
 20
6.092548047327115
 10
21.78623958161458
 20
6.092085924365281
 10
21.79596099853038
 20
6.091626222514845
 10
21.8056829499617
 20
6.091168961033716
 10
21.81540524028352
 20
6.090714157626918
 10
21.8251276956084
 20
6.090261828529264
 10
21.83485016261941
 20
6.089811988588
 10
21.84457250740303
 20
6.08936465134548
 10
21.85429461428216
 20
6.088919829121817
 10
21.86401638464899
 20
6.088477533097552
 10
21.87373773579799
 20
6.088037773396312
 10
21.88345859975881
 20
6.087600559167462
 10
21.89317892212926
 20
6.087165898668782
 10
21.9028986609082
 20
6.086733799349117
 10
21.91261778532854
 20
6.08630426793104
 10
21.9223362746901
 20
6.085877310493508
 10
21.93205411719264
 20
6.08545293255454
 10
21.94177130876873
 20
6.085031139153852
 10
21.95148785191669
 20
6.084611934935541
 10
21.9612037545336
 20
6.084195324230733
 10
21.97091902874816
 20
6.083781311140245
 10
21.98063368975366
 20
6.083369899617252
 10
21.99034775464092
 20
6.082961093549942
 10
22.00006124123124
 20
6.082554896844182
 10
22.00977416690931
 20
6.082151313506172
 10
22.01948654745617
 20
6.081750347725107
 10
22.02919839588215
 20
6.081352003955847
 10
22.03890972125979
 20
6.080956287001562
 10
22.04862052755682
 20
6.080563202096412
 10
22.05833081246906
 20
6.080172754988188
 10
22.06804056625334
 20
6.079784952020991
 10
22.07774977056052
 20
6.07939980021788
 10
22.08745839965799
 20
6.079017307176527
 10
22.09716644190924
 20
6.078637479381784
 10
22.10687389592316
 20
6.078260322507825
 10
22.11658076007482
 20
6.077885842239529
 10
22.12628703239874
 20
6.077514044281342
 10
22.13599271060193
 20
6.077144934356733
 10
22.14569779207692
 20
6.076778518207683
 10
22.15540227391482
 20
6.076414801594149
 10
22.16510615291837
 20
6.076053790293537
 10
22.17480942561494
 20
6.075695490100182
 10
22.18451208826961
 20
6.075339906824809
 10
22.1942141368982
 20
6.074987046294017
 10
22.20391556728031
 20
6.074636914349751
 10
22.21361637497235
 20
6.074289516848763
 10
22.2233165553206
 20
6.073944859662094
 10
22.23301610347425
 20
6.073602948674553
 10
22.24271501439842
 20
6.07326378978418
 10
22.25241328288724
 20
6.072927388901717
 10
22.26211090357685
 20
6.072593751950091
 10
22.27180787095845
 20
6.072262884863881
 10
22.28150417939136
 20
6.071934793588786
 10
22.29119982311607
 20
6.071609484081107
 10
22.30089479626724
 20
6.071286962307218
 10
22.31058909288677
 20
6.070967234243034
 10
22.32028270693684
 20
6.070650305873486
 10
22.32997563231295
 20
6.070336183191994
 10
22.33966786285694
 20
6.070024872199941
 10
22.34935939237008
 20
6.069716378906152
 10
22.35905021462606
 20
6.069410709326348
 10
22.36874032338405
 20
6.069107869482638
 10
22.37842971240175
 20
6.068807865402986
 10
22.38811837544844
 20
6.068510703120675
 10
22.39780630631797
 20
6.068216388673795
 10
22.40749349884189
 20
6.067924928104705
 10
22.41717994690239
 20
6.067636327459511
 10
22.42686564444543
 20
6.067350592787533
 10
22.43655058549368
 20
6.067067730140787
 10
22.44623476415972
 20
6.066787745573447
 10
22.45591817465889
 20
6.06651064514133
 10
22.46560081132249
 20
6.066236434901357
 10
22.47528266861074
 20
6.06596512091103
 10
22.4849637411258
 20
6.065696709227913
 10
22.49464402362492
 20
6.065431205909093
 10
22.50432351103336
 20
6.065168617010657
 10
22.51400219845747
 20
6.064908948587168
 10
22.52368008119782
 20
6.064652206691135
 10
22.53335715476207
 20
6.064398397372483
 10
22.54303341487821
 20
6.064147526678035
 10
22.55270885750739
 20
6.063899600650973
 10
22.56238347885714
 20
6.063654625330324
 10
22.57205727539432
 20
6.063412606750415
 10
22.58173024385819
 20
6.063173550940367
 10
22.59140238127343
 20
6.062937463923553
 10
22.60107368496322
 20
6.062704351717074
 10
22.61074415256222
 20
6.062474220331234
 10
22.62041378202967
 20
6.062247075769013
 10
22.63008257166241
 20
6.062022924025535
 10
22.63975052010791
 20
6.061801771087552
 10
22.64941762637733
 20
6.061583622932904
 10
22.65908388985856
 20
6.061368485529994
 10
22.66874931032923
 20
6.061156364837273
 10
22.67841388796979
 20
6.060947266802699
 10
22.68807762398516
 20
6.060741197350234
 10
22.69085542217741
 20
6.060694953139448
 10
22.69362934243301
 20
6.0606740239034
 10
22.69639940695819
 20
6.060678565621548
 10
22.69916539451117
 20
6.060708709789849
 10
22.70192687138846
 20
6.060764566008379
 10
22.70468322239283
 20
6.060846224569213
 10
22.70743368180131
 20
6.060953759044346
 10
22.71017736433314
 20
6.061087228873597
 10
22.71291329611772
 20
6.061246681952511
 10
22.71564044566257
 20
6.061432157220275
 10
22.71835775482133
 20
6.061643687247607
 10
22.72106416976167
 20
6.061881300824677
 10
22.72375867193329
 20
6.062145025549009
 10
22.7264403090359
 20
6.062434890413383
 10
22.72910822598712
 20
6.062750928393746
 10
22.73176169589051
 20
6.063093179037116
 10
22.73440015100351
 20
6.063461691049486
 10
22.73702321370539
 20
6.063856524883735
 10
22.7396307274652
 20
6.064277755327527
 10
22.74222278772879
 20
6.06472547415445
 10
22.74479967524813
 20
6.065199833677246
 10
22.74736147179305
 20
6.065701074444995
 10
22.74990798487199
 20
6.066229371125237
 10
22.75243879227039
 20
6.066784815878414
 10
22.75495327397387
 20
6.067367428510342
 10
22.75745064409139
 20
6.067977166624674
 10
22.75992998277846
 20
6.068613935775357
 10
22.76239026816035
 20
6.069277599619119
 10
22.76483040825522
 20
6.069967990067911
 10
22.76724927289738
 20
6.070684917441386
 10
22.76964572566037
 20
6.071428180619371
 10
22.77201865578029
 20
6.072197577194313
 10
22.77436701007886
 20
6.072992913623761
 10
22.77668982488666
 20
6.073814015382827
 10
22.77898625796633
 20
6.07466073711665
 10
22.78125562043572
 20
6.075532972792864
 10
22.78349740869111
 20
6.076430665854068
 10
22.78571133633038
 20
6.077353819370276
 10
22.78789736607619
 20
6.078302506191407
 10
22.79005572203173
 20
6.07927688434795
 10
22.79218655904961
 20
6.080277227082867
 10
22.79428970892936
 20
6.081303742349767
 10
22.79636479173865
 20
6.08235647710534
 10
22.79841124867049
 20
6.08343533540808
 10
22.80042837130609
 20
6.084540098556159
 10
22.80241533087793
 20
6.085670445225317
 10
22.80437120753266
 20
6.086825971606747
 10
22.80629501959413
 20
6.088006211544973
 10
22.80818575282631
 20
6.089210656675736
 10
22.81004238969631
 20
6.090438776563874
 10
22.81186393863727
 20
6.091690038841215
 10
22.81364946331148
 20
6.092963929344445
 10
22.8153981118732
 20
6.094259972253007
 10
22.81710914623172
 20
6.095577750226977
 10
22.8187819713143
 20
6.096916924544938
 10
22.82041616432916
 20
6.098277255241887
 10
22.82201150402844
 20
6.099658621247093
 10
22.82356799997117
 20
6.101061040521999
 10
22.82508590128621
 20
6.102484690070419
 10
22.82656533547306
 20
6.103929849832562
 10
22.82800611919642
 20
6.105396648915801
 10
22.82940794401071
 20
6.10688499328867
 10
22.83077040195387
 20
6.108394593705452
 10
22.83209300447171
 20
6.109924995027165
 10
22.83337520134238
 20
6.111475605542556
 10
22.8346163996007
 20
6.113045726289096
 10
22.83581598246259
 20
6.114634580373961
 10
22.83697332824947
 20
6.116241342295022
 10
22.83808782931265
 20
6.117865167261842
 10
22.83915891095771
 20
6.11950522051667
 10
22.84018605036897
 20
6.121160706655417
 10
22.84116879553376
 20
6.122830898948655
 10
22.84210678416696
 20
6.124515168662608
 10
22.8429997626353
 20
6.126213014380141
 10
22.84384760488179
 20
6.127924091321747
 10
22.84465033135011
 20
6.129648240666544
 10
22.84540812790904
 20
6.131385518873258
 10
22.84612128235439
 20
6.133136192790878
 10
22.84678981731107
 20
6.134900464918255
 10
22.84741363929613
 20
6.136678278318155
 10
22.84799264035513
 20
6.138469342721251
 10
22.84852670350879
 20
6.140273168489041
 10
22.84901570817898
 20
6.142089100572715
 10
22.84945953561459
 20
6.143916352472066
 10
22.84985807431748
 20
6.145754040194353
 10
22.85021122546842
 20
6.147601216213204
 10
22.85051890835297
 20
6.149456903427494
 10
22.85078106578746
 20
6.151320129120236
 10
22.85099766954489
 20
6.153189958917456
 10
22.85116872578088
 20
6.155065530747104
 10
22.85129428045955
 20
6.156946088797911
 10
22.85137442477946
 20
6.158831017478292
 10
22.8514093005996
 20
6.160719875375233
 10
22.85139910586523
 20
6.16261242921317
 10
22.85134404761146
 20
6.164510495010748
 10
22.95013177090889
 20
9.266468207894318
 42
0.354150430181721
 10
22.79686410481454
 20
9.468161688834626
 42
0.0782782332576592
 10
16.58751926302695
 20
9.902368518699212
 42
0.3752491031970323
 10
16.40102941996065
 20
9.702537467752351
  0
LWPOLYLINE
  5
2D5F
330
1F
100
AcDbEntity
  8
NOCUT
100
AcDbPolyline
 90
       15
 70
     1
 43
0.0
 10
22.05229345608072
 20
8.98046581794235
 42
-0.3888787268298159
 10
22.59999999999999
 20
8.382749000000004
 10
22.60000000000002
 20
4.018904000000006
 10
22.60000000000002
 20
0.0
 10
0.0
 20
0.0
 10
0.0
 20
4.314829000000003
 10
0.0
 20
9.0
 10
2.0
 20
9.0
 10
11.0
 20
9.0
 10
13.18861100000001
 20
9.0
 10
14.60000000000002
 20
9.300000000000011
 10
17.526781
 20
9.300000000000002
 42
-0.0218200732567487
 10
19.26989603014996
 20
9.223893969426196
 10
19.26989600000002
 20
9.223893999999999
 10
22.05229300000002
 20
8.980465000000007
  0
MTEXT
  5
2F1D
330
1F
100
AcDbEntity
  8
SK6
100
AcDbMText
 10
-18.1898957786484
 20
-30.63459990225022
 30
0.0
 40
3.5
 41
49.98568165846803
 71
     1
 72
     1
  1
12L8D020023X6R00
 73
     1
 44
1.0
1001
ACAD
1000
MTEXTBEGIN
1070
    73
1070
     1
1070
    44
1040
1.0
1070
    74
1070
     0
1000
MTEXTEND
  0
VIEWPORT
  5
34
102
{ACAD_XDICTIONARY
360
2F30
102
}
330
73
100
AcDbEntity
 67
     1
  8
0
 62
     0
370
     0
100
AcDbViewport
 10
0.0
 20
0.0
 30
0.0
 40
1000.0
 41
1000.0
 68
     1
 69
     1
 12
0.0
 22
0.0
 13
0.0
 23
0.0
 14
1.0
 24
1.0
 15
1.0
 25
1.0
 16
0.0
 26
0.0
 36
1.0
 17
0.0
 27
0.0
 37
0.0
 42
50.0
 43
0.0
 44
0.0
 45
1000.0
 50
0.0
 51
0.0
 72
   100
 90
   557056
  1

281
     0
 71
     0
 74
     0
110
0.0
120
0.0
130
0.0
111
1.0
121
0.0
131
0.0
112
0.0
122
1.0
132
0.0
 79
     0
146
0.0
  0
ENDSEC
  0
SECTION
  2
OBJECTS
  0
DICTIONARY
  5
C
330
0
100
AcDbDictionary
281
     1
  3
ACAD_2007HEADERVARS_RT
350
2F2B
  3
ACAD_CIP_PREVIOUS_PRODUCT_INFO
350
2D49
  3
ACAD_COLOR
350
6C
  3
ACAD_DETAILVIEWSTYLE
350
2D45
  3
ACAD_GROUP
350
D
  3
ACAD_LAYOUT
350
1A
  3
ACAD_MATERIAL
350
6B
  3
ACAD_MLEADERSTYLE
350
2C9
  3
ACAD_MLINESTYLE
350
17
  3
ACAD_PLOTSETTINGS
350
19
  3
ACAD_PLOTSTYLENAME
350
E
  3
ACAD_SCALELIST
350
99
  3
ACAD_SECTIONVIEWSTYLE
350
2D43
  3
ACAD_TABLESTYLE
350
92
  3
ACAD_VISUALSTYLE
350
2A0
  3
ACAD_WIPEOUT_VARS
350
2CE2
  3
ACDB_RECOMPOSE_DATA
350
2F29
  3
ACDBHEADERROUNDTRIPXREC
350
2D08
  3
AcDbVariableDictionary
350
2F1E
  3
ASE_INDEX_DICTIONARY
350
A41
  3
DWGPROPS
350
2F2A
  0
DICTIONARY
  5
2CE3
330
2
100
AcDbDictionary
280
     1
281
     1
  3
ACAD_LAYERSTATES
360
62D
  0
DICTIONARY
  5
2CD7
330
10
100
AcDbDictionary
280
     1
281
     1
  3
ADSK_XREC_LAYER_RECONCILED
360
A32
  0
DICTIONARY
  5
2CD8
330
5FF
100
AcDbDictionary
280
     1
281
     1
  3
ADSK_XREC_LAYER_RECONCILED
360
A33
  0
DICTIONARY
  5
2CD9
330
601
100
AcDbDictionary
280
     1
281
     1
  3
ADSK_XREC_LAYER_RECONCILED
360
A34
  0
DICTIONARY
  5
2CDA
330
603
100
AcDbDictionary
280
     1
281
     1
  3
ADSK_XREC_LAYER_RECONCILED
360
A35
  0
DICTIONARY
  5
2CDB
330
607
100
AcDbDictionary
280
     1
281
     1
  3
ADSK_XREC_LAYER_RECONCILED
360
A36
  0
DICTIONARY
  5
2CDC
330
609
100
AcDbDictionary
280
     1
281
     1
  3
ADSK_XREC_LAYER_RECONCILED
360
A37
  0
DICTIONARY
  5
2CDD
330
60B
100
AcDbDictionary
280
     1
281
     1
  3
ADSK_XREC_LAYER_RECONCILED
360
A38
  0
DICTIONARY
  5
2CDE
330
60D
100
AcDbDictionary
280
     1
281
     1
  3
ADSK_XREC_LAYER_RECONCILED
360
A39
  0
DICTIONARY
  5
2CDF
330
60F
100
AcDbDictionary
280
     1
281
     1
  3
ADSK_XREC_LAYER_RECONCILED
360
A3A
  0
DICTIONARY
  5
2CE0
330
611
100
AcDbDictionary
280
     1
281
     1
  3
ADSK_XREC_LAYER_RECONCILED
360
A3B
  0
DICTIONARY
  5
2CE1
330
614
100
AcDbDictionary
280
     1
281
     1
  3
ADSK_XREC_LAYER_RECONCILED
360
A3D
  0
DICTIONARY
  5
2D05
330
1F
100
AcDbDictionary
280
     1
281
     1
  3
ACAD_SORTENTS
360
2D06
  0
DICTIONARY
  5
2F30
330
34
100
AcDbDictionary
280
     1
281
     1
  3
ACAD_XREC_ROUNDTRIP
360
2F31
  0
DICTIONARY
  5
2F2B
102
{ACAD_REACTORS
330
C
102
}
330
C
100
AcDbDictionary
281
     1
  3
DIMFXL
350
2F2C
  3
DIMJOGANG
350
2F2D
  0
XRECORD
  5
2D49
102
{ACAD_REACTORS
330
C
102
}
330
C
100
AcDbXrecord
280
     1
300
ACDLT
300
2015
300
ACDLT_F_S
  0
DICTIONARY
  5
6C
102
{ACAD_REACTORS
330
C
102
}
330
C
100
AcDbDictionary
281
     1
  0
DICTIONARY
  5
2D45
102
{ACAD_REACTORS
330
C
102
}
330
C
100
AcDbDictionary
281
     1
  3
METRIC50
350
2D46
  0
DICTIONARY
  5
D
102
{ACAD_REACTORS
330
C
102
}
330
C
100
AcDbDictionary
281
     1
  0
DICTIONARY
  5
1A
102
{ACAD_REACTORS
330
C
102
}
330
C
100
AcDbDictionary
281
     1
  3
Layout1
350
74
  3
Model
350
22
  0
DICTIONARY
  5
6B
102
{ACAD_REACTORS
330
C
102
}
330
C
100
AcDbDictionary
281
     1
  3
ByBlock
350
2D19
  3
ByLayer
350
2D11
  3
Global
350
2D21
  0
DICTIONARY
  5
2C9
102
{ACAD_REACTORS
330
C
102
}
330
C
100
AcDbDictionary
281
     1
  3
Standard
350
2D42
  0
DICTIONARY
  5
17
102
{ACAD_REACTORS
330
C
102
}
330
C
100
AcDbDictionary
281
     1
  3
Standard
350
18
  0
DICTIONARY
  5
19
102
{ACAD_REACTORS
330
C
102
}
330
C
100
AcDbDictionary
281
     1
  0
ACDBDICTIONARYWDFLT
  5
E
102
{ACAD_REACTORS
330
C
102
}
330
C
100
AcDbDictionary
281
     1
  3
Normal
350
F
100
AcDbDictionaryWithDefault
340
F
  0
DICTIONARY
  5
99
102
{ACAD_REACTORS
330
C
102
}
330
C
100
AcDbDictionary
281
     1
  3
A0
350
9A
  3
A1
350
9B
  3
A2
350
9C
  3
A3
350
9D
  3
A4
350
9E
  3
A5
350
9F
  3
A6
350
A0
  3
A7
350
A1
  3
A8
350
A2
  3
A9
350
A3
  3
B0
350
A4
  3
B1
350
A5
  3
B2
350
A6
  3
B3
350
A7
  3
B4
350
A8
  3
B5
350
A9
  3
B6
350
AA
  3
B7
350
AB
  3
B8
350
AC
  3
B9
350
AD
  3
C0
350
AE
  3
C1
350
AF
  3
C2
350
B0
  3
C3
350
B1
  3
C4
350
B2
  3
C5
350
B3
  3
C6
350
B4
  3
C7
350
B5
  3
C8
350
B6
  3
C9
350
B7
  3
D0
350
B8
  3
D1
350
B9
  3
D2
350
BA
  0
DICTIONARY
  5
2D43
102
{ACAD_REACTORS
330
C
102
}
330
C
100
AcDbDictionary
281
     1
  3
METRIC50
350
2D44
  0
DICTIONARY
  5
92
102
{ACAD_REACTORS
330
C
102
}
330
C
100
AcDbDictionary
281
     1
  3
Standard
350
2D41
  0
DICTIONARY
  5
2A0
102
{ACAD_REACTORS
330
C
102
}
330
C
100
AcDbDictionary
281
     1
  3
2dWireframe
350
2D2E
  3
Basic
350
2D2D
  3
Brighten
350
2D34
  3
ColorChange
350
2D38
  3
Conceptual
350
2D31
  3
Dim
350
2D33
  3
EdgeColorOff
350
2D40
  3
Facepattern
350
2D37
  3
Flat
350
2D29
  3
FlatWithEdges
350
2D2A
  3
Gouraud
350
2D2B
  3
GouraudWithEdges
350
2D2C
  3
Hidden
350
2D30
  3
JitterOff
350
2D3E
  3
Linepattern
350
2D36
  3
OverhangOff
350
2D3F
  3
Realistic
350
2D32
  3
Shaded
350
2D3D
  3
Shaded with edges
350
2D3C
  3
Shades of Gray
350
2D39
  3
Sketchy
350
2D3A
  3
Thicken
350
2D35
  3
Wireframe
350
2D2F
  3
X-Ray
350
2D3B
  0
WIPEOUTVARIABLES
  5
2CE2
102
{ACAD_REACTORS
330
C
102
}
330
C
100
AcDbWipeoutVariables
 70
     1
  0
XRECORD
  5
2F29
102
{ACAD_REACTORS
330
C
102
}
330
C
100
AcDbXrecord
280
     1
 90
        1
330
2D41
  0
DICTIONARY
  5
2D08
102
{ACAD_REACTORS
330
C
102
}
330
C
100
AcDbDictionary
281
     1
  3
COLORDICT
350
2D09
  3
MATERIALDICT
350
2D0A
  0
DICTIONARY
  5
2F1E
102
{ACAD_REACTORS
330
C
102
}
330
C
100
AcDbDictionary
281
     1
  3
CANNOSCALE
350
2F23
  3
CMLEADERSTYLE
350
2F20
  3
CTABLESTYLE
350
2F1F
  3
CVIEWDETAILSTYLE
350
2F21
  3
CVIEWSECTIONSTYLE
350
2F22
  3
DIMASSOC
350
2F26
  3
INDEXCTL
350
2F25
  3
SORTENTS
350
2F24
  3
XCLIPFRAME
350
2F27
  0
DICTIONARY
  5
A41
102
{ACAD_REACTORS
330
C
102
}
330
C
100
AcDbDictionary
281
     1
  3
ASEBLOCKHIERARCHYINDEXRECORD
350
A42
  0
XRECORD
  5
2F2A
102
{ACAD_REACTORS
330
C
102
}
330
C
100
AcDbXrecord
280
     1
  1
DWGPROPS COOKIE
  2

  3

  4

  6

  7

  8
ruebsamenm
  9

300
=
301
=
302
=
303
=
304
=
305
=
306
=
307
=
308
=
309
=
 40
0.1068457523148148
 41
2453353.800459155
 42
2460185.580673831
  1

 90
        0
  0
DICTIONARY
  5
62D
102
{ACAD_REACTORS
330
2CE3
102
}
330
2CE3
100
AcDbDictionary
281
     1
  3
_LAYISO_STATE
350
B87
  0
XRECORD
  5
A32
102
{ACAD_REACTORS
330
2CD7
102
}
330
2CD7
100
AcDbXrecord
280
     1
290
     1
  0
XRECORD
  5
A33
102
{ACAD_REACTORS
330
2CD8
102
}
330
2CD8
100
AcDbXrecord
280
     1
290
     1
  0
XRECORD
  5
A34
102
{ACAD_REACTORS
330
2CD9
102
}
330
2CD9
100
AcDbXrecord
280
     1
290
     1
  0
XRECORD
  5
A35
102
{ACAD_REACTORS
330
2CDA
102
}
330
2CDA
100
AcDbXrecord
280
     1
290
     1
  0
XRECORD
  5
A36
102
{ACAD_REACTORS
330
2CDB
102
}
330
2CDB
100
AcDbXrecord
280
     1
290
     1
  0
XRECORD
  5
A37
102
{ACAD_REACTORS
330
2CDC
102
}
330
2CDC
100
AcDbXrecord
280
     1
290
     1
  0
XRECORD
  5
A38
102
{ACAD_REACTORS
330
2CDD
102
}
330
2CDD
100
AcDbXrecord
280
     1
290
     1
  0
XRECORD
  5
A39
102
{ACAD_REACTORS
330
2CDE
102
}
330
2CDE
100
AcDbXrecord
280
     1
290
     1
  0
XRECORD
  5
A3A
102
{ACAD_REACTORS
330
2CDF
102
}
330
2CDF
100
AcDbXrecord
280
     1
290
     1
  0
XRECORD
  5
A3B
102
{ACAD_REACTORS
330
2CE0
102
}
330
2CE0
100
AcDbXrecord
280
     1
290
     1
  0
XRECORD
  5
A3D
102
{ACAD_REACTORS
330
2CE1
102
}
330
2CE1
100
AcDbXrecord
280
     1
290
     1
  0
SORTENTSTABLE
  5
2D06
102
{ACAD_REACTORS
330
2D05
102
}
330
2D05
100
AcDbSortentsTable
330
1F
331
2D56
  5
1813
331
2D5F
  5
1C29
  0
XRECORD
  5
2F31
102
{ACAD_REACTORS
330
2F30
102
}
330
2F30
100
AcDbXrecord
280
     1
102
SHADEPLOT
 70
     0
  0
XRECORD
  5
2F2C
102
{ACAD_REACTORS
330
2F2B
102
}
330
2F2B
100
AcDbXrecord
280
     1
 40
1.25
  0
XRECORD
  5
2F2D
102
{ACAD_REACTORS
330
2F2B
102
}
330
2F2B
100
AcDbXrecord
280
     1
 40
1.570796326794896
  0
ACDBDETAILVIEWSTYLE
  5
2D46
102
{ACAD_XDICTIONARY
360
2F67
102
}
102
{ACAD_REACTORS
330
2D45
102
}
330
2D45
100
AcDbModelDocViewStyle
 70
     0
  3
Metric50
290
     0
100
AcDbDetailViewStyle
 70
     0
 71
     0
 90
        3
 71
     1
340
11
 40
5.0
340
0
 40
5.0
300

 40
0.0
280
     1
 71
     2
340
16
 90
       25
 71
     3
340
11
 40
5.0
 90
        0
 40
15.0
 90
        1
300
%<\AcVar ViewDetailId>% (%<\AcVar ViewScale \f "%sn">%)
 71
     4
340
16
 90
       25
340
16
 90
       25
280
     0
  0
LAYOUT
  5
74
102
{ACAD_XDICTIONARY
360
2F32
102
}
102
{ACAD_REACTORS
330
1A
102
}
330
1A
100
AcDbPlotSettings
  1

  2
none_device
  4
Letter_(8.50_x_11.00_Inches)
  6

 40
6.349999999999998
 41
6.349999999999998
 42
6.350005079999998
 43
6.350005079999998
 44
215.9
 45
279.4
 46
0.0
 47
0.0
 48
0.0
 49
0.0
140
0.0
141
0.0
142
1.0
143
1.0
 70
   544
 72
     0
 73
     0
 74
     0
  7

 75
    16
147
1.0
148
0.0
149
0.0
100
AcDbLayout
  1
Layout1
 70
     1
 71
     1
 10
0.0
 20
0.0
 11
420.0
 21
297.0
 12
0.0
 22
0.0
 32
0.0
 14
0.0
 24
0.0
 34
0.0
 15
281.007629
 25
92.32476
 35
2.0
146
0.0
 13
0.0
 23
0.0
 33
0.0
 16
1.0
 26
0.0
 36
0.0
 17
0.0
 27
1.0
 37
0.0
 76
     0
330
73
331
34
  0
LAYOUT
  5
22
102
{ACAD_XDICTIONARY
360
2F2E
102
}
102
{ACAD_REACTORS
330
1A
102
}
330
1A
100
AcDbPlotSettings
  1

  2
none_device
  4
Letter_(8.50_x_11.00_Inches)
  6

 40
6.349999999999998
 41
6.349999999999998
 42
6.350005079999998
 43
6.350005079999998
 44
215.9
 45
279.4
 46
0.0
 47
0.0
 48
0.0
 49
0.0
140
0.0
141
0.0
142
1.0
143
1.0
 70
 11936
 72
     0
 73
     0
 74
     0
  7

 75
     0
147
0.0342362219598424
148
0.0
149
0.0
100
AcDbLayout
  1
Model
 70
     1
 71
     0
 10
0.0
 20
0.0
 11
420.0
 21
297.0
 12
0.0
 22
0.0
 32
0.0
 14
-87.32631117866217
 24
-49.91335444515192
 34
0.0
 15
86.73532450390132
 25
74.446036276732
 35
0.0
146
0.0
 13
0.0
 23
0.0
 33
0.0
 16
1.0
 26
0.0
 36
0.0
 17
0.0
 27
1.0
 37
0.0
 76
     0
330
1F
331
97
  0
MATERIAL
  5
2D19
102
{ACAD_XDICTIONARY
360
2D1A
102
}
102
{ACAD_REACTORS
330
6B
102
}
330
6B
100
AcDbMaterial
  1
ByBlock
 72
     0
 43
0.0208333333333333
 43
0.0
 43
0.0
 43
0.0
 43
0.0
 43
0.0208333333333333
 43
0.0
 43
0.0
 43
0.0
 43
0.0
 43
1.0
 43
0.0
 43
0.0
 43
0.0
 43
0.0
 43
1.0
 77
     0
 47
0.0208333333333333
 47
0.0
 47
0.0
 47
0.0
 47
0.0
 47
0.0208333333333333
 47
0.0
 47
0.0
 47
0.0
 47
0.0
 47
1.0
 47
0.0
 47
0.0
 47
0.0
 47
0.0
 47
1.0
171
     0
 49
0.0208333333333333
 49
0.0
 49
0.0
 49
0.0
 49
0.0
 49
0.0208333333333333
 49
0.0
 49
0.0
 49
0.0
 49
0.0
 49
1.0
 49
0.0
 49
0.0
 49
0.0
 49
0.0
 49
1.0
175
     0
142
0.0208333333333333
142
0.0
142
0.0
142
0.0
142
0.0
142
0.0208333333333333
142
0.0
142
0.0
142
0.0
142
0.0
142
1.0
142
0.0
142
0.0
142
0.0
142
0.0
142
1.0
179
     0
144
0.0208333333333333
144
0.0
144
0.0
144
0.0
144
0.0
144
0.0208333333333333
144
0.0
144
0.0
144
0.0
144
0.0
144
1.0
144
0.0
144
0.0
144
0.0
144
0.0
144
1.0
147
0.0208333333333333
147
0.0
147
0.0
147
0.0
147
0.0
147
0.0208333333333333
147
0.0
147
0.0
147
0.0
147
0.0
147
1.0
147
0.0
147
0.0
147
0.0
147
0.0
147
1.0
  0
MATERIAL
  5
2D11
102
{ACAD_XDICTIONARY
360
2D12
102
}
102
{ACAD_REACTORS
330
6B
102
}
330
6B
100
AcDbMaterial
  1
ByLayer
 72
     0
 43
0.0208333333333333
 43
0.0
 43
0.0
 43
0.0
 43
0.0
 43
0.0208333333333333
 43
0.0
 43
0.0
 43
0.0
 43
0.0
 43
1.0
 43
0.0
 43
0.0
 43
0.0
 43
0.0
 43
1.0
 77
     0
 47
0.0208333333333333
 47
0.0
 47
0.0
 47
0.0
 47
0.0
 47
0.0208333333333333
 47
0.0
 47
0.0
 47
0.0
 47
0.0
 47
1.0
 47
0.0
 47
0.0
 47
0.0
 47
0.0
 47
1.0
171
     0
 49
0.0208333333333333
 49
0.0
 49
0.0
 49
0.0
 49
0.0
 49
0.0208333333333333
 49
0.0
 49
0.0
 49
0.0
 49
0.0
 49
1.0
 49
0.0
 49
0.0
 49
0.0
 49
0.0
 49
1.0
175
     0
142
0.0208333333333333
142
0.0
142
0.0
142
0.0
142
0.0
142
0.0208333333333333
142
0.0
142
0.0
142
0.0
142
0.0
142
1.0
142
0.0
142
0.0
142
0.0
142
0.0
142
1.0
179
     0
144
0.0208333333333333
144
0.0
144
0.0
144
0.0
144
0.0
144
0.0208333333333333
144
0.0
144
0.0
144
0.0
144
0.0
144
1.0
144
0.0
144
0.0
144
0.0
144
0.0
144
1.0
147
0.0208333333333333
147
0.0
147
0.0
147
0.0
147
0.0
147
0.0208333333333333
147
0.0
147
0.0
147
0.0
147
0.0
147
1.0
147
0.0
147
0.0
147
0.0
147
0.0
147
1.0
  0
MATERIAL
  5
2D21
102
{ACAD_XDICTIONARY
360
2D22
102
}
102
{ACAD_REACTORS
330
6B
102
}
330
6B
100
AcDbMaterial
  1
Global
 72
     0
 43
0.0208333333333333
 43
0.0
 43
0.0
 43
0.0
 43
0.0
 43
0.0208333333333333
 43
0.0
 43
0.0
 43
0.0
 43
0.0
 43
1.0
 43
0.0
 43
0.0
 43
0.0
 43
0.0
 43
1.0
 77
     0
 47
0.0208333333333333
 47
0.0
 47
0.0
 47
0.0
 47
0.0
 47
0.0208333333333333
 47
0.0
 47
0.0
 47
0.0
 47
0.0
 47
1.0
 47
0.0
 47
0.0
 47
0.0
 47
0.0
 47
1.0
171
     0
 49
0.0208333333333333
 49
0.0
 49
0.0
 49
0.0
 49
0.0
 49
0.0208333333333333
 49
0.0
 49
0.0
 49
0.0
 49
0.0
 49
1.0
 49
0.0
 49
0.0
 49
0.0
 49
0.0
 49
1.0
175
     0
142
0.0208333333333333
142
0.0
142
0.0
142
0.0
142
0.0
142
0.0208333333333333
142
0.0
142
0.0
142
0.0
142
0.0
142
1.0
142
0.0
142
0.0
142
0.0
142
0.0
142
1.0
179
     0
144
0.0208333333333333
144
0.0
144
0.0
144
0.0
144
0.0
144
0.0208333333333333
144
0.0
144
0.0
144
0.0
144
0.0
144
1.0
144
0.0
144
0.0
144
0.0
144
0.0
144
1.0
147
0.0208333333333333
147
0.0
147
0.0
147
0.0
147
0.0
147
0.0208333333333333
147
0.0
147
0.0
147
0.0
147
0.0
147
1.0
147
0.0
147
0.0
147
0.0
147
0.0
147
1.0
  0
MLEADERSTYLE
  5
2D42
102
{ACAD_REACTORS
330
2C9
102
}
330
2C9
100
AcDbMLeaderStyle
170
     2
171
     1
172
     0
 90
        2
 40
0.0
 41
0.0
173
     1
 91
-1056964608
340
14
 92
       -2
290
     1
 42
2.0
291
     1
 43
0.36
  3
Standard
 44
4.0
300

342
11
174
     1
178
     6
175
     1
176
     0
 93
-1056964608
 45
4.0
292
     0
297
     0
 46
4.0
 94
-1056964608
 47
1.0
 49
1.0
140
1.0
293
     1
141
0.0
294
     1
177
     0
142
1.0
295
     0
296
     0
143
0.125
1001
ACAD_MLEADERVER
1070
     2
  0
MLINESTYLE
  5
18
102
{ACAD_REACTORS
330
17
102
}
330
17
100
AcDbMlineStyle
  2
STANDARD
 70
     0
  3

 62
     0
 51
90.0
 52
90.0
 71
     2
 49
0.5
 62
   256
  6
BYLAYER
 49
-0.5
 62
   256
  6
BYLAYER
  0
ACDBPLACEHOLDER
  5
F
102
{ACAD_REACTORS
330
E
102
}
330
E
  0
SCALE
  5
9A
102
{ACAD_REACTORS
330
99
102
}
330
99
100
AcDbScale
 70
     0
300
1:1
140
1.0
141
1.0
290
     1
  0
SCALE
  5
9B
102
{ACAD_REACTORS
330
99
102
}
330
99
100
AcDbScale
 70
     0
300
1:2
140
1.0
141
2.0
290
     0
  0
SCALE
  5
9C
102
{ACAD_REACTORS
330
99
102
}
330
99
100
AcDbScale
 70
     0
300
1:4
140
1.0
141
4.0
290
     0
  0
SCALE
  5
9D
102
{ACAD_REACTORS
330
99
102
}
330
99
100
AcDbScale
 70
     0
300
1:5
140
1.0
141
5.0
290
     0
  0
SCALE
  5
9E
102
{ACAD_REACTORS
330
99
102
}
330
99
100
AcDbScale
 70
     0
300
1:8
140
1.0
141
8.0
290
     0
  0
SCALE
  5
9F
102
{ACAD_REACTORS
330
99
102
}
330
99
100
AcDbScale
 70
     0
300
1:10
140
1.0
141
10.0
290
     0
  0
SCALE
  5
A0
102
{ACAD_REACTORS
330
99
102
}
330
99
100
AcDbScale
 70
     0
300
1:16
140
1.0
141
16.0
290
     0
  0
SCALE
  5
A1
102
{ACAD_REACTORS
330
99
102
}
330
99
100
AcDbScale
 70
     0
300
1:20
140
1.0
141
20.0
290
     0
  0
SCALE
  5
A2
102
{ACAD_REACTORS
330
99
102
}
330
99
100
AcDbScale
 70
     0
300
1:30
140
1.0
141
30.0
290
     0
  0
SCALE
  5
A3
102
{ACAD_REACTORS
330
99
102
}
330
99
100
AcDbScale
 70
     0
300
1:40
140
1.0
141
40.0
290
     0
  0
SCALE
  5
A4
102
{ACAD_REACTORS
330
99
102
}
330
99
100
AcDbScale
 70
     0
300
1:50
140
1.0
141
50.0
290
     0
  0
SCALE
  5
A5
102
{ACAD_REACTORS
330
99
102
}
330
99
100
AcDbScale
 70
     0
300
1:100
140
1.0
141
100.0
290
     0
  0
SCALE
  5
A6
102
{ACAD_REACTORS
330
99
102
}
330
99
100
AcDbScale
 70
     0
300
2:1
140
2.0
141
1.0
290
     0
  0
SCALE
  5
A7
102
{ACAD_REACTORS
330
99
102
}
330
99
100
AcDbScale
 70
     0
300
4:1
140
4.0
141
1.0
290
     0
  0
SCALE
  5
A8
102
{ACAD_REACTORS
330
99
102
}
330
99
100
AcDbScale
 70
     0
300
8:1
140
8.0
141
1.0
290
     0
  0
SCALE
  5
A9
102
{ACAD_REACTORS
330
99
102
}
330
99
100
AcDbScale
 70
     0
300
10:1
140
10.0
141
1.0
290
     0
  0
SCALE
  5
AA
102
{ACAD_REACTORS
330
99
102
}
330
99
100
AcDbScale
 70
     0
300
100:1
140
100.0
141
1.0
290
     0
  0
SCALE
  5
AB
102
{ACAD_REACTORS
330
99
102
}
330
99
100
AcDbScale
 70
     0
300
1/128" = 1'-0"
140
0.0078125
141
12.0
290
     0
  0
SCALE
  5
AC
102
{ACAD_REACTORS
330
99
102
}
330
99
100
AcDbScale
 70
     0
300
1/64" = 1'-0"
140
0.015625
141
12.0
290
     0
  0
SCALE
  5
AD
102
{ACAD_REACTORS
330
99
102
}
330
99
100
AcDbScale
 70
     0
300
1/32" = 1'-0"
140
0.03125
141
12.0
290
     0
  0
SCALE
  5
AE
102
{ACAD_REACTORS
330
99
102
}
330
99
100
AcDbScale
 70
     0
300
1/16" = 1'-0"
140
0.0625
141
12.0
290
     0
  0
SCALE
  5
AF
102
{ACAD_REACTORS
330
99
102
}
330
99
100
AcDbScale
 70
     0
300
3/32" = 1'-0"
140
0.09375
141
12.0
290
     0
  0
SCALE
  5
B0
102
{ACAD_REACTORS
330
99
102
}
330
99
100
AcDbScale
 70
     0
300
1/8" = 1'-0"
140
0.125
141
12.0
290
     0
  0
SCALE
  5
B1
102
{ACAD_REACTORS
330
99
102
}
330
99
100
AcDbScale
 70
     0
300
3/16" = 1'-0"
140
0.1875
141
12.0
290
     0
  0
SCALE
  5
B2
102
{ACAD_REACTORS
330
99
102
}
330
99
100
AcDbScale
 70
     0
300
1/4" = 1'-0"
140
0.25
141
12.0
290
     0
  0
SCALE
  5
B3
102
{ACAD_REACTORS
330
99
102
}
330
99
100
AcDbScale
 70
     0
300
3/8" = 1'-0"
140
0.375
141
12.0
290
     0
  0
SCALE
  5
B4
102
{ACAD_REACTORS
330
99
102
}
330
99
100
AcDbScale
 70
     0
300
1/2" = 1'-0"
140
0.5
141
12.0
290
     0
  0
SCALE
  5
B5
102
{ACAD_REACTORS
330
99
102
}
330
99
100
AcDbScale
 70
     0
300
3/4" = 1'-0"
140
0.75
141
12.0
290
     0
  0
SCALE
  5
B6
102
{ACAD_REACTORS
330
99
102
}
330
99
100
AcDbScale
 70
     0
300
1" = 1'-0"
140
1.0
141
12.0
290
     0
  0
SCALE
  5
B7
102
{ACAD_REACTORS
330
99
102
}
330
99
100
AcDbScale
 70
     0
300
1-1/2" = 1'-0"
140
1.5
141
12.0
290
     0
  0
SCALE
  5
B8
102
{ACAD_REACTORS
330
99
102
}
330
99
100
AcDbScale
 70
     0
300
3" = 1'-0"
140
3.0
141
12.0
290
     0
  0
SCALE
  5
B9
102
{ACAD_REACTORS
330
99
102
}
330
99
100
AcDbScale
 70
     0
300
6" = 1'-0"
140
6.0
141
12.0
290
     0
  0
SCALE
  5
BA
102
{ACAD_REACTORS
330
99
102
}
330
99
100
AcDbScale
 70
     0
300
1'-0" = 1'-0"
140
12.0
141
12.0
290
     0
  0
ACDBSECTIONVIEWSTYLE
  5
2D44
102
{ACAD_XDICTIONARY
360
2F65
102
}
102
{ACAD_REACTORS
330
2D43
102
}
330
2D43
100
AcDbModelDocViewStyle
 70
     0
  3
Metric50
290
     0
100
AcDbSectionViewStyle
 70
     0
 71
     0
 90
      102
 71
     1
340
11
 40
5.0
340
0
340
0
 40
5.0
300
I, O, Q, S, X, Z
 40
10.0
 90
        0
 40
2.5
 90
        0
 71
     2
340
16
 90
       25
340
16
 90
       50
 40
5.0
 40
2.5
 40
5.0
 71
     3
340
11
 40
5.0
 90
        0
 40
15.0
 90
        1
300
%<\AcVar ViewSectionStartId>%-%<\AcVar ViewSectionEndId>% (%<\AcVar ViewScale \f "%sn">%)
 71
     4
300
ANSI31
 40
1.0
 90
        0
290
     0
290
     0
 90
        6
 40
0.0
 40
1.570796326794896
 40
0.2617993877991494
 40
1.308996938995747
 40
-0.2617993877991494
 40
1.832595714594045
  0
TABLESTYLE
  5
2D41
102
{ACAD_XDICTIONARY
360
2ED1
102
}
102
{ACAD_REACTORS
330
92
102
}
330
92
100
AcDbTableStyle
  3
Standard
 70
     0
 71
     0
 40
1.5
 41
1.5
280
     0
281
     0
  7
Standard
140
4.5
170
     2
 62
     0
 63
     7
283
     0
274
    -2
284
     1
 64
     0
275
    -2
285
     1
 65
     0
276
    -2
286
     1
 66
     0
277
    -2
287
     1
 67
     0
278
    -2
288
     1
 68
     0
279
    -2
289
     1
 69
     0
  7
Standard
140
6.0
170
     5
 62
     0
 63
     7
283
     0
274
    -2
284
     1
 64
     0
275
    -2
285
     1
 65
     0
276
    -2
286
     1
 66
     0
277
    -2
287
     1
 67
     0
278
    -2
288
     1
 68
     0
279
    -2
289
     1
 69
     0
  7
Standard
140
4.5
170
     5
 62
     0
 63
     7
283
     0
274
    -2
284
     1
 64
     0
275
    -2
285
     1
 65
     0
276
    -2
286
     1
 66
     0
277
    -2
287
     1
 67
     0
278
    -2
288
     1
 68
     0
279
    -2
289
     1
 69
     0
  0
VISUALSTYLE
  5
2D2E
102
{ACAD_XDICTIONARY
360
2F3E
102
}
102
{ACAD_REACTORS
330
2A0
102
}
330
2A0
100
AcDbVisualStyle
  2

 70
     4
 71
     0
 72
     2
 73
     0
 90
        0
 40
-0.6
 41
-30.0
 62
     5
 63
     7
 74
     1
 91
        4
 64
     7
 65
   257
 75
     1
175
     1
 42
1.0
 92
        0
 66
   257
 43
1.0
 76
     1
 77
     6
 78
     2
 67
     7
 79
     5
170
     0
171
     0
290
     0
174
     0
 93
        1
 44
0.0
173
     0
291
     0
 45
0.0
1001
ACAD
1000
AcDbSavedByObjectVersion
1070
     0
  0
VISUALSTYLE
  5
2D2D
102
{ACAD_XDICTIONARY
360
2F3C
102
}
102
{ACAD_REACTORS
330
2A0
102
}
330
2A0
100
AcDbVisualStyle
  2

 70
     7
 71
     1
 72
     0
 73
     1
 90
        0
 40
-0.6
 41
-30.0
 62
     5
 63
     7
 74
     0
 91
        4
 64
     7
 65
   257
 75
     1
175
     1
 42
1.0
 92
        8
 66
     7
 43
1.0
 76
     1
 77
     6
 78
     2
 67
     7
 79
     5
170
     0
171
     0
290
     0
174
     0
 93
        1
 44
0.0
173
     0
291
     1
 45
0.0
1001
ACAD
1000
AcDbSavedByObjectVersion
1070
     0
  0
VISUALSTYLE
  5
2D34
102
{ACAD_XDICTIONARY
360
2F4A
102
}
102
{ACAD_REACTORS
330
2A0
102
}
330
2A0
100
AcDbVisualStyle
  2

 70
    12
 71
     2
 72
     2
 73
     0
 90
        0
 40
-0.6
 41
-30.0
 62
     5
 63
     7
 74
     1
 91
        4
 64
     7
 65
   257
 75
     1
175
     1
 42
1.0
 92
        8
 66
     7
 43
1.0
 76
     1
 77
     6
 78
     2
 67
     7
 79
     5
170
     0
171
     0
290
     0
174
     0
 93
        1
 44
50.0
173
     0
291
     1
 45
0.0
1001
ACAD
1000
AcDbSavedByObjectVersion
1070
     0
  0
VISUALSTYLE
  5
2D38
102
{ACAD_XDICTIONARY
360
2F52
102
}
102
{ACAD_REACTORS
330
2A0
102
}
330
2A0
100
AcDbVisualStyle
  2

 70
    16
 71
     2
 72
     2
 73
     3
 90
        0
 40
-0.6
 41
-30.0
 62
     5
 63
     8
 74
     1
 91
        4
 64
     7
 65
   257
 75
     1
175
     1
 42
1.0
 92
        8
 66
     8
 43
1.0
 76
     1
 77
     6
 78
     2
 67
     7
 79
     5
170
     0
171
     0
290
     0
174
     0
 93
        1
 44
0.0
173
     0
291
     1
 45
0.0
1001
ACAD
1000
AcDbSavedByObjectVersion
1070
     0
  0
VISUALSTYLE
  5
2D31
102
{ACAD_XDICTIONARY
360
2F44
102
}
102
{ACAD_REACTORS
330
2A0
102
}
330
2A0
100
AcDbVisualStyle
  2

 70
     9
 71
     3
 72
     2
 73
     0
 90
        0
 40
-0.6
 41
-30.0
 62
     5
 63
     7
 74
     2
 91
        2
 64
     7
 65
   257
 75
     1
175
     1
 42
179.0
 92
        8
 66
     7
 43
1.0
 76
     1
 77
     6
 78
     2
 67
     7
 79
     3
170
     0
171
     0
290
     0
174
     0
 93
        1
 44
0.0
173
     0
291
     0
 45
0.0
1001
ACAD
1000
AcDbSavedByObjectVersion
1070
     0
  0
VISUALSTYLE
  5
2D33
102
{ACAD_XDICTIONARY
360
2F48
102
}
102
{ACAD_REACTORS
330
2A0
102
}
330
2A0
100
AcDbVisualStyle
  2

 70
    11
 71
     2
 72
     2
 73
     0
 90
        0
 40
-0.6
 41
-30.0
 62
     5
 63
     7
 74
     1
 91
        4
 64
     7
 65
   257
 75
     1
175
     1
 42
1.0
 92
        8
 66
     7
 43
1.0
 76
     1
 77
     6
 78
     2
 67
     7
 79
     5
170
     0
171
     0
290
     0
174
     0
 93
        1
 44
-50.0
173
     0
291
     1
 45
0.0
1001
ACAD
1000
AcDbSavedByObjectVersion
1070
     0
  0
VISUALSTYLE
  5
2D40
102
{ACAD_XDICTIONARY
360
2F62
102
}
102
{ACAD_REACTORS
330
2A0
102
}
330
2A0
100
AcDbVisualStyle
  2

 70
    22
 71
     2
 72
     2
 73
     0
 90
        0
 40
-0.6
 41
-30.0
 62
     5
 63
     7
 74
     1
 91
        4
 64
     7
 65
   257
 75
     1
175
     1
 42
1.0
 92
        8
 66
     7
 43
1.0
 76
     1
 77
     6
 78
     2
 67
     7
 79
     5
170
     0
171
     0
290
     0
174
     0
 93
        1
 44
0.0
173
     0
291
     1
 45
0.0
1001
ACAD
1000
AcDbSavedByObjectVersion
1070
     0
  0
VISUALSTYLE
  5
2D37
102
{ACAD_XDICTIONARY
360
2F50
102
}
102
{ACAD_REACTORS
330
2A0
102
}
330
2A0
100
AcDbVisualStyle
  2

 70
    15
 71
     2
 72
     2
 73
     0
 90
        0
 40
-0.6
 41
-30.0
 62
     5
 63
     7
 74
     1
 91
        4
 64
     7
 65
   257
 75
     1
175
     1
 42
1.0
 92
        8
 66
     7
 43
1.0
 76
     1
 77
     6
 78
     2
 67
     7
 79
     5
170
     0
171
     0
290
     0
174
     0
 93
        1
 44
0.0
173
     0
291
     1
 45
0.0
1001
ACAD
1000
AcDbSavedByObjectVersion
1070
     0
  0
VISUALSTYLE
  5
2D29
102
{ACAD_XDICTIONARY
360
2F34
102
}
102
{ACAD_REACTORS
330
2A0
102
}
330
2A0
100
AcDbVisualStyle
  2

 70
     0
 71
     2
 72
     1
 73
     1
 90
        2
 40
-0.6
 41
30.0
 62
     5
 63
     7
 74
     0
 91
        0
 64
     7
 65
   257
 75
     1
175
     1
 42
1.0
 92
        8
 66
     7
 43
1.0
 76
     1
 77
     6
 78
     2
 67
     7
 79
     5
170
     0
171
     0
290
     0
174
     0
 93
       13
 44
0.0
173
     0
291
     1
 45
0.0
1001
ACAD
1000
AcDbSavedByObjectVersion
1070
     0
  0
VISUALSTYLE
  5
2D2A
102
{ACAD_XDICTIONARY
360
2F36
102
}
102
{ACAD_REACTORS
330
2A0
102
}
330
2A0
100
AcDbVisualStyle
  2

 70
     1
 71
     2
 72
     1
 73
     1
 90
        2
 40
-0.6
 41
30.0
 62
     5
 63
     7
 74
     1
 91
        0
 64
     7
 65
   257
 75
     1
175
     1
 42
1.0
 92
        0
 66
   257
 43
1.0
 76
     1
 77
     6
 78
     2
 67
     7
 79
     5
170
     0
171
     0
290
     0
174
     0
 93
       13
 44
0.0
173
     0
291
     1
 45
0.0
1001
ACAD
1000
AcDbSavedByObjectVersion
1070
     0
  0
VISUALSTYLE
  5
2D2B
102
{ACAD_XDICTIONARY
360
2F38
102
}
102
{ACAD_REACTORS
330
2A0
102
}
330
2A0
100
AcDbVisualStyle
  2

 70
     2
 71
     2
 72
     2
 73
     1
 90
        2
 40
-0.6
 41
30.0
 62
     5
 63
     7
 74
     0
 91
        0
 64
     7
 65
   257
 75
     1
175
     1
 42
1.0
 92
        0
 66
     7
 43
1.0
 76
     1
 77
     6
 78
     2
 67
     7
 79
     5
170
     0
171
     0
290
     0
174
     0
 93
       13
 44
0.0
173
     0
291
     1
 45
0.0
1001
ACAD
1000
AcDbSavedByObjectVersion
1070
     0
  0
VISUALSTYLE
  5
2D2C
102
{ACAD_XDICTIONARY
360
2F3A
102
}
102
{ACAD_REACTORS
330
2A0
102
}
330
2A0
100
AcDbVisualStyle
  2

 70
     3
 71
     2
 72
     2
 73
     1
 90
        2
 40
-0.6
 41
30.0
 62
     5
 63
     7
 74
     1
 91
        0
 64
     7
 65
   257
 75
     1
175
     1
 42
1.0
 92
        0
 66
   257
 43
1.0
 76
     1
 77
     6
 78
     2
 67
     7
 79
     5
170
     0
171
     0
290
     0
174
     0
 93
       13
 44
0.0
173
     0
291
     1
 45
0.0
1001
ACAD
1000
AcDbSavedByObjectVersion
1070
     0
  0
VISUALSTYLE
  5
2D30
102
{ACAD_XDICTIONARY
360
2F42
102
}
102
{ACAD_REACTORS
330
2A0
102
}
330
2A0
100
AcDbVisualStyle
  2

 70
     6
 71
     1
 72
     2
 73
     2
 90
        0
 40
-0.6
 41
-30.0
 62
     5
 63
     7
 74
     2
 91
        2
 64
     7
 65
   257
 75
     2
175
     1
 42
40.0
 92
        0
 66
   257
 43
1.0
 76
     1
 77
     6
 78
     2
 67
     7
 79
     3
170
     0
171
     0
290
     0
174
     0
 93
        1
 44
0.0
173
     0
291
     0
 45
0.0
1001
ACAD
1000
AcDbSavedByObjectVersion
1070
     0
  0
VISUALSTYLE
  5
2D3E
102
{ACAD_XDICTIONARY
360
2F5E
102
}
102
{ACAD_REACTORS
330
2A0
102
}
330
2A0
100
AcDbVisualStyle
  2

 70
    20
 71
     2
 72
     2
 73
     0
 90
        0
 40
-0.6
 41
-30.0
 62
     5
 63
     7
 74
     1
 91
        4
 64
     7
 65
   257
 75
     1
175
     1
 42
1.0
 92
       10
 66
     7
 43
1.0
 76
     1
 77
     6
 78
     2
 67
     7
 79
     5
170
     0
171
     0
290
     0
174
     0
 93
        1
 44
0.0
173
     0
291
     1
 45
0.0
1001
ACAD
1000
AcDbSavedByObjectVersion
1070
     0
  0
VISUALSTYLE
  5
2D36
102
{ACAD_XDICTIONARY
360
2F4E
102
}
102
{ACAD_REACTORS
330
2A0
102
}
330
2A0
100
AcDbVisualStyle
  2

 70
    14
 71
     2
 72
     2
 73
     0
 90
        0
 40
-0.6
 41
-30.0
 62
     5
 63
     7
 74
     1
 91
        4
 64
     7
 65
   257
 75
     7
175
     7
 42
1.0
 92
        8
 66
     7
 43
1.0
 76
     1
 77
     6
 78
     2
 67
     7
 79
     5
170
     0
171
     0
290
     0
174
     0
 93
        1
 44
0.0
173
     0
291
     1
 45
0.0
1001
ACAD
1000
AcDbSavedByObjectVersion
1070
     0
  0
VISUALSTYLE
  5
2D3F
102
{ACAD_XDICTIONARY
360
2F60
102
}
102
{ACAD_REACTORS
330
2A0
102
}
330
2A0
100
AcDbVisualStyle
  2

 70
    21
 71
     2
 72
     2
 73
     0
 90
        0
 40
-0.6
 41
-30.0
 62
     5
 63
     7
 74
     1
 91
        4
 64
     7
 65
   257
 75
     1
175
     1
 42
1.0
 92
        9
 66
     7
 43
1.0
 76
     1
 77
     6
 78
     2
 67
     7
 79
     5
170
     0
171
     0
290
     0
174
     0
 93
        1
 44
0.0
173
     0
291
     1
 45
0.0
1001
ACAD
1000
AcDbSavedByObjectVersion
1070
     0
  0
VISUALSTYLE
  5
2D32
102
{ACAD_XDICTIONARY
360
2F46
102
}
102
{ACAD_REACTORS
330
2A0
102
}
330
2A0
100
AcDbVisualStyle
  2

 70
     8
 71
     2
 72
     3
 73
     0
 90
        2
 40
-0.6
 41
30.0
 62
     5
 63
     7
 74
     0
 91
        0
 64
     7
 65
   257
 75
     1
175
     1
 42
1.0
 92
        8
 66
   257
 43
1.0
 76
     1
 77
     6
 78
     2
 67
     7
 79
     3
170
     0
171
     0
290
     0
174
     0
 93
       13
 44
0.0
173
     0
291
     0
 45
0.0
1001
ACAD
1000
AcDbSavedByObjectVersion
1070
     0
  0
VISUALSTYLE
  5
2D3D
102
{ACAD_XDICTIONARY
360
2F5C
102
}
102
{ACAD_REACTORS
330
2A0
102
}
330
2A0
100
AcDbVisualStyle
  2

 70
    27
 71
     2
 72
     2
 73
     1
 90
        2
 40
-0.6
 41
30.0
 62
     5
 63
     7
 74
     0
 91
        4
 64
     7
 65
   257
 75
     1
175
     1
 42
1.0
 92
        8
 66
   257
 43
1.0
 76
     1
 77
     6
 78
     2
 67
     8
 79
     3
170
     0
171
     0
290
     0
174
     0
 93
        5
 44
0.0
173
     0
291
     0
 45
0.0
1001
ACAD
1000
AcDbSavedByObjectVersion
1070
     0
  0
VISUALSTYLE
  5
2D3C
102
{ACAD_XDICTIONARY
360
2F5A
102
}
102
{ACAD_REACTORS
330
2A0
102
}
330
2A0
100
AcDbVisualStyle
  2

 70
    26
 71
     2
 72
     2
 73
     1
 90
        2
 40
-0.6
 41
30.0
 62
     5
 63
     7
 74
     1
 91
        2
 64
     7
 65
   257
 75
     2
175
     1
 42
1.0
 92
        8
 66
   257
 43
1.0
 76
     1
 77
     6
 78
     2
 67
     7
 79
     3
170
     0
171
     0
290
     0
174
     0
 93
        5
 44
0.0
173
     0
291
     0
 45
0.0
1001
ACAD
1000
AcDbSavedByObjectVersion
1070
     0
  0
VISUALSTYLE
  5
2D39
102
{ACAD_XDICTIONARY
360
2F54
102
}
102
{ACAD_REACTORS
330
2A0
102
}
330
2A0
100
AcDbVisualStyle
  2

 70
    23
 71
     2
 72
     2
 73
     3
 90
        0
 40
-0.6
 41
-30.0
 62
     5
 63
     7
 74
     2
 91
        2
 64
     7
 65
     7
 75
     1
175
     1
 42
40.0
 92
        8
 66
     7
 43
1.0
 76
     1
 77
     6
 78
     2
 67
     7
 79
     3
170
     0
171
     0
290
     0
174
     0
 93
        1
 44
0.0
173
     0
291
     0
 45
0.0
1001
ACAD
1000
AcDbSavedByObjectVersion
1070
     0
  0
VISUALSTYLE
  5
2D3A
102
{ACAD_XDICTIONARY
360
2F56
102
}
102
{ACAD_REACTORS
330
2A0
102
}
330
2A0
100
AcDbVisualStyle
  2

 70
    24
 71
     1
 72
     2
 73
     2
 90
        0
 40
-0.6
 41
-30.0
 62
     5
 63
     7
 74
     2
 91
        2
 64
     7
 65
     7
 75
     1
175
     1
 42
40.0
 92
       11
 66
     7
 43
1.0
 76
     1
 77
     6
 78
     2
 67
     7
 79
     6
170
     0
171
     0
290
     0
174
     0
 93
        1
 44
0.0
173
     0
291
     0
 45
0.0
1001
ACAD
1000
AcDbSavedByObjectVersion
1070
     0
  0
VISUALSTYLE
  5
2D35
102
{ACAD_XDICTIONARY
360
2F4C
102
}
102
{ACAD_REACTORS
330
2A0
102
}
330
2A0
100
AcDbVisualStyle
  2

 70
    13
 71
     2
 72
     2
 73
     0
 90
        0
 40
-0.6
 41
-30.0
 62
     5
 63
     7
 74
     1
 91
        4
 64
     7
 65
   257
 75
     1
175
     1
 42
1.0
 92
       12
 66
     7
 43
1.0
 76
     1
 77
     6
 78
     2
 67
     7
 79
     5
170
     0
171
     0
290
     0
174
     0
 93
        1
 44
0.0
173
     0
291
     1
 45
0.0
1001
ACAD
1000
AcDbSavedByObjectVersion
1070
     0
  0
VISUALSTYLE
  5
2D2F
102
{ACAD_XDICTIONARY
360
2F40
102
}
102
{ACAD_REACTORS
330
2A0
102
}
330
2A0
100
AcDbVisualStyle
  2

 70
     5
 71
     0
 72
     2
 73
     0
 90
        0
 40
-0.6
 41
-30.0
 62
     5
 63
     7
 74
     1
 91
        4
 64
     7
 65
   257
 75
     1
175
     1
 42
1.0
 92
        0
 66
   257
 43
1.0
 76
     1
 77
     6
 78
     2
 67
     7
 79
     3
170
     0
171
     0
290
     0
174
     0
 93
        1
 44
0.0
173
     0
291
     0
 45
0.0
1001
ACAD
1000
AcDbSavedByObjectVersion
1070
     0
  0
VISUALSTYLE
  5
2D3B
102
{ACAD_XDICTIONARY
360
2F58
102
}
102
{ACAD_REACTORS
330
2A0
102
}
330
2A0
100
AcDbVisualStyle
  2

 70
    25
 71
     2
 72
     2
 73
     1
 90
        1
 40
0.5
 41
-30.0
 62
     5
 63
     7
 74
     1
 91
        0
 64
     7
 65
   257
 75
     1
175
     1
 42
1.0
 92
        8
 66
     7
 43
1.0
 76
     1
 77
     6
 78
     2
 67
     7
 79
     3
170
     0
171
     0
290
     0
174
     0
 93
       13
 44
0.0
173
     0
291
     0
 45
0.0
1001
ACAD
1000
AcDbSavedByObjectVersion
1070
     0
  0
XRECORD
  5
2D09
102
{ACAD_REACTORS
330
2D08
102
}
330
2D08
100
AcDbXrecord
280
     1
340
6C
  0
XRECORD
  5
2D0A
102
{ACAD_REACTORS
330
2D08
102
}
330
2D08
100
AcDbXrecord
280
     1
340
6B
  0
DICTIONARYVAR
  5
2F23
102
{ACAD_REACTORS
330
2F1E
102
}
330
2F1E
100
DictionaryVariables
280
     0
  1
1:1
  0
DICTIONARYVAR
  5
2F20
102
{ACAD_REACTORS
330
2F1E
102
}
330
2F1E
100
DictionaryVariables
280
     0
  1
STANDARD
  0
DICTIONARYVAR
  5
2F1F
102
{ACAD_REACTORS
330
2F1E
102
}
330
2F1E
100
DictionaryVariables
280
     0
  1
STANDARD
  0
DICTIONARYVAR
  5
2F21
102
{ACAD_REACTORS
330
2F1E
102
}
330
2F1E
100
DictionaryVariables
280
     0
  1
METRIC50
  0
DICTIONARYVAR
  5
2F22
102
{ACAD_REACTORS
330
2F1E
102
}
330
2F1E
100
DictionaryVariables
280
     0
  1
METRIC50
  0
DICTIONARYVAR
  5
2F26
102
{ACAD_REACTORS
330
2F1E
102
}
330
2F1E
100
DictionaryVariables
280
     0
  1
1
  0
DICTIONARYVAR
  5
2F25
102
{ACAD_REACTORS
330
2F1E
102
}
330
2F1E
100
DictionaryVariables
280
     0
  1
0
  0
DICTIONARYVAR
  5
2F24
102
{ACAD_REACTORS
330
2F1E
102
}
330
2F1E
100
DictionaryVariables
280
     0
  1
127
  0
DICTIONARYVAR
  5
2F27
102
{ACAD_REACTORS
330
2F1E
102
}
330
2F1E
100
DictionaryVariables
280
     0
  1
2
  0
XRECORD
  5
A42
102
{ACAD_REACTORS
330
A41
102
}
330
A41
100
AcDbXrecord
280
     1
330
63B
  0
XRECORD
  5
B87
102
{ACAD_REACTORS
330
62D
102
}
330
62D
100
AcDbXrecord
280
     1
 91
      535
301

290
     0
302
0
330
616
 90
        0
 62
     7
370
    -3
331
16
390
0
330
0
 90
        8
 62
     4
370
    50
331
16
390
0
330
614
 90
        8
 62
     4
370
    50
331
16
390
0
330
611
 90
        8
 62
     9
370
    18
331
16
390
0
330
60F
 90
        8
 62
     7
370
    -3
331
16
390
0
330
60D
 90
        8
 62
     1
370
    25
331
16
390
0
330
60B
 90
        8
 62
     5
370
    -3
331
16
390
0
330
609
 90
        8
 62
     2
370
    25
331
2CD5
390
0
330
607
 90
        8
 62
     2
370
    25
331
2CD5
390
0
330
603
 90
        8
 62
     7
370
    25
331
16
390
0
330
601
 90
        8
 62
     7
370
    25
331
16
390
0
330
5FF
 90
        8
 62
     4
370
    50
331
16
390
0
330
10
 90
        8
 62
     7
370
    13
331
16
390
0
  0
DICTIONARY
  5
2F67
330
2D46
100
AcDbDictionary
280
     1
281
     1
  3
ACAD_XREC_ROUNDTRIP
360
2F68
  0
DICTIONARY
  5
2F32
330
74
100
AcDbDictionary
280
     1
281
     1
  3
ACAD_XREC_ROUNDTRIP
360
2F33
  0
DICTIONARY
  5
2F2E
330
22
100
AcDbDictionary
280
     1
281
     1
  3
ACAD_XREC_ROUNDTRIP
360
2F2F
  0
DICTIONARY
  5
2D1A
330
2D19
100
AcDbDictionary
280
     1
281
     1
  3
ACAD_XREC_ROUNDTRIP
360
2EDF
  3
BUMPTILE
360
2D1C
  3
DIFFUSETILE
360
2D1B
  3
OPACITYTILE
360
2D1F
  3
REFLECTIONTILE
360
2D1E
  3
REFRACTIONTILE
360
2D20
  3
SPECULARTILE
360
2D1D
  0
DICTIONARY
  5
2D12
330
2D11
100
AcDbDictionary
280
     1
281
     1
  3
ACAD_XREC_ROUNDTRIP
360
2EDE
  3
BUMPTILE
360
2D14
  3
DIFFUSETILE
360
2D13
  3
OPACITYTILE
360
2D17
  3
REFLECTIONTILE
360
2D16
  3
REFRACTIONTILE
360
2D18
  3
SPECULARTILE
360
2D15
  0
DICTIONARY
  5
2D22
330
2D21
100
AcDbDictionary
280
     1
281
     1
  3
ACAD_XREC_ROUNDTRIP
360
2EE0
  3
BUMPTILE
360
2D24
  3
DIFFUSETILE
360
2D23
  3
OPACITYTILE
360
2D27
  3
REFLECTIONTILE
360
2D26
  3
REFRACTIONTILE
360
2D28
  3
SPECULARTILE
360
2D25
  0
DICTIONARY
  5
2F65
330
2D44
100
AcDbDictionary
280
     1
281
     1
  3
ACAD_XREC_ROUNDTRIP
360
2F66
  0
DICTIONARY
  5
2ED1
330
2D41
100
AcDbDictionary
280
     1
281
     1
  3
ACAD_ROUNDTRIP_2008_TABLESTYLE_CELLSTYLEMAP
360
2F28
  3
ACAD_XREC_ROUNDTRIP
360
2F64
  0
DICTIONARY
  5
2F3E
330
2D2E
100
AcDbDictionary
280
     1
281
     1
  3
ACAD_XREC_ROUNDTRIP
360
2F3F
  0
DICTIONARY
  5
2F3C
330
2D2D
100
AcDbDictionary
280
     1
281
     1
  3
ACAD_XREC_ROUNDTRIP
360
2F3D
  0
DICTIONARY
  5
2F4A
330
2D34
100
AcDbDictionary
280
     1
281
     1
  3
ACAD_XREC_ROUNDTRIP
360
2F4B
  0
DICTIONARY
  5
2F52
330
2D38
100
AcDbDictionary
280
     1
281
     1
  3
ACAD_XREC_ROUNDTRIP
360
2F53
  0
DICTIONARY
  5
2F44
330
2D31
100
AcDbDictionary
280
     1
281
     1
  3
ACAD_XREC_ROUNDTRIP
360
2F45
  0
DICTIONARY
  5
2F48
330
2D33
100
AcDbDictionary
280
     1
281
     1
  3
ACAD_XREC_ROUNDTRIP
360
2F49
  0
DICTIONARY
  5
2F62
330
2D40
100
AcDbDictionary
280
     1
281
     1
  3
ACAD_XREC_ROUNDTRIP
360
2F63
  0
DICTIONARY
  5
2F50
330
2D37
100
AcDbDictionary
280
     1
281
     1
  3
ACAD_XREC_ROUNDTRIP
360
2F51
  0
DICTIONARY
  5
2F34
330
2D29
100
AcDbDictionary
280
     1
281
     1
  3
ACAD_XREC_ROUNDTRIP
360
2F35
  0
DICTIONARY
  5
2F36
330
2D2A
100
AcDbDictionary
280
     1
281
     1
  3
ACAD_XREC_ROUNDTRIP
360
2F37
  0
DICTIONARY
  5
2F38
330
2D2B
100
AcDbDictionary
280
     1
281
     1
  3
ACAD_XREC_ROUNDTRIP
360
2F39
  0
DICTIONARY
  5
2F3A
330
2D2C
100
AcDbDictionary
280
     1
281
     1
  3
ACAD_XREC_ROUNDTRIP
360
2F3B
  0
DICTIONARY
  5
2F42
330
2D30
100
AcDbDictionary
280
     1
281
     1
  3
ACAD_XREC_ROUNDTRIP
360
2F43
  0
DICTIONARY
  5
2F5E
330
2D3E
100
AcDbDictionary
280
     1
281
     1
  3
ACAD_XREC_ROUNDTRIP
360
2F5F
  0
DICTIONARY
  5
2F4E
330
2D36
100
AcDbDictionary
280
     1
281
     1
  3
ACAD_XREC_ROUNDTRIP
360
2F4F
  0
DICTIONARY
  5
2F60
330
2D3F
100
AcDbDictionary
280
     1
281
     1
  3
ACAD_XREC_ROUNDTRIP
360
2F61
  0
DICTIONARY
  5
2F46
330
2D32
100
AcDbDictionary
280
     1
281
     1
  3
ACAD_XREC_ROUNDTRIP
360
2F47
  0
DICTIONARY
  5
2F5C
330
2D3D
100
AcDbDictionary
280
     1
281
     1
  3
ACAD_XREC_ROUNDTRIP
360
2F5D
  0
DICTIONARY
  5
2F5A
330
2D3C
100
AcDbDictionary
280
     1
281
     1
  3
ACAD_XREC_ROUNDTRIP
360
2F5B
  0
DICTIONARY
  5
2F54
330
2D39
100
AcDbDictionary
280
     1
281
     1
  3
ACAD_XREC_ROUNDTRIP
360
2F55
  0
DICTIONARY
  5
2F56
330
2D3A
100
AcDbDictionary
280
     1
281
     1
  3
ACAD_XREC_ROUNDTRIP
360
2F57
  0
DICTIONARY
  5
2F4C
330
2D35
100
AcDbDictionary
280
     1
281
     1
  3
ACAD_XREC_ROUNDTRIP
360
2F4D
  0
DICTIONARY
  5
2F40
330
2D2F
100
AcDbDictionary
280
     1
281
     1
  3
ACAD_XREC_ROUNDTRIP
360
2F41
  0
DICTIONARY
  5
2F58
330
2D3B
100
AcDbDictionary
280
     1
281
     1
  3
ACAD_XREC_ROUNDTRIP
360
2F59
  0
XRECORD
  5
2F68
102
{ACAD_REACTORS
330
2F67
102
}
330
2F67
100
AcDbXrecord
280
     1
102
DISPLAYNAME
  1
METRIC50
102
FLAGS
 90
        0
  0
XRECORD
  5
2F33
102
{ACAD_REACTORS
330
2F32
102
}
330
2F32
100
AcDbXrecord
280
     1
102
SHADEPLOT
 70
     0
102
SHADEPLOTRESLEVEL
 70
     2
102
SHADEPLOTCUSTOMDPI
 70
   300
  0
XRECORD
  5
2F2F
102
{ACAD_REACTORS
330
2F2E
102
}
330
2F2E
100
AcDbXrecord
280
     1
102
SHADEPLOT
 70
     0
102
SHADEPLOTRESLEVEL
 70
     2
102
SHADEPLOTCUSTOMDPI
 70
   300
  0
XRECORD
  5
2EDF
102
{ACAD_REACTORS
330
2D1A
102
}
330
2D1A
100
AcDbXrecord
280
     1
102
MATERIAL
148
0.0
149
0.0
149
0.0
 93
        0
 94
      127
282
     0
 72
     0
 77
     0
171
     0
175
     0
179
     0
273
     0
  0
XRECORD
  5
2D1C
102
{ACAD_REACTORS
330
2D1A
102
}
330
2D1A
100
AcDbXrecord
280
     1
270
     1
271
     1
  0
XRECORD
  5
2D1B
102
{ACAD_REACTORS
330
2D1A
102
}
330
2D1A
100
AcDbXrecord
280
     1
270
     1
271
     1
  0
XRECORD
  5
2D1F
102
{ACAD_REACTORS
330
2D1A
102
}
330
2D1A
100
AcDbXrecord
280
     1
270
     1
271
     1
  0
XRECORD
  5
2D1E
102
{ACAD_REACTORS
330
2D1A
102
}
330
2D1A
100
AcDbXrecord
280
     1
270
     1
271
     1
  0
XRECORD
  5
2D20
102
{ACAD_REACTORS
330
2D1A
102
}
330
2D1A
100
AcDbXrecord
280
     1
270
     1
271
     1
  0
XRECORD
  5
2D1D
102
{ACAD_REACTORS
330
2D1A
102
}
330
2D1A
100
AcDbXrecord
280
     1
270
     1
271
     1
  0
XRECORD
  5
2EDE
102
{ACAD_REACTORS
330
2D12
102
}
330
2D12
100
AcDbXrecord
280
     1
102
MATERIAL
148
0.0
149
0.0
149
0.0
 93
        0
 94
      127
282
     0
 72
     0
 77
     0
171
     0
175
     0
179
     0
273
     0
  0
XRECORD
  5
2D14
102
{ACAD_REACTORS
330
2D12
102
}
330
2D12
100
AcDbXrecord
280
     1
270
     1
271
     1
  0
XRECORD
  5
2D13
102
{ACAD_REACTORS
330
2D12
102
}
330
2D12
100
AcDbXrecord
280
     1
270
     1
271
     1
  0
XRECORD
  5
2D17
102
{ACAD_REACTORS
330
2D12
102
}
330
2D12
100
AcDbXrecord
280
     1
270
     1
271
     1
  0
XRECORD
  5
2D16
102
{ACAD_REACTORS
330
2D12
102
}
330
2D12
100
AcDbXrecord
280
     1
270
     1
271
     1
  0
XRECORD
  5
2D18
102
{ACAD_REACTORS
330
2D12
102
}
330
2D12
100
AcDbXrecord
280
     1
270
     1
271
     1
  0
XRECORD
  5
2D15
102
{ACAD_REACTORS
330
2D12
102
}
330
2D12
100
AcDbXrecord
280
     1
270
     1
271
     1
  0
XRECORD
  5
2EE0
102
{ACAD_REACTORS
330
2D22
102
}
330
2D22
100
AcDbXrecord
280
     1
102
MATERIAL
148
0.0
149
0.0
149
0.0
 93
        0
 94
      127
282
     0
 72
     0
 77
     0
171
     0
175
     0
179
     0
273
     0
  0
XRECORD
  5
2D24
102
{ACAD_REACTORS
330
2D22
102
}
330
2D22
100
AcDbXrecord
280
     1
270
     1
271
     1
  0
XRECORD
  5
2D23
102
{ACAD_REACTORS
330
2D22
102
}
330
2D22
100
AcDbXrecord
280
     1
270
     1
271
     1
  0
XRECORD
  5
2D27
102
{ACAD_REACTORS
330
2D22
102
}
330
2D22
100
AcDbXrecord
280
     1
270
     1
271
     1
  0
XRECORD
  5
2D26
102
{ACAD_REACTORS
330
2D22
102
}
330
2D22
100
AcDbXrecord
280
     1
270
     1
271
     1
  0
XRECORD
  5
2D28
102
{ACAD_REACTORS
330
2D22
102
}
330
2D22
100
AcDbXrecord
280
     1
270
     1
271
     1
  0
XRECORD
  5
2D25
102
{ACAD_REACTORS
330
2D22
102
}
330
2D22
100
AcDbXrecord
280
     1
270
     1
271
     1
  0
XRECORD
  5
2F66
102
{ACAD_REACTORS
330
2F65
102
}
330
2F65
100
AcDbXrecord
280
     1
102
DISPLAYNAME
  1
METRIC50
102
FLAGS
 90
        0
  0
CELLSTYLEMAP
  5
2F28
102
{ACAD_REACTORS
330
2ED1
102
}
330
2ED1
100
AcDbCellStyleMap
 90
        3
300
CELLSTYLE
  1
TABLEFORMAT_BEGIN
 90
        5
170
     1
 91
        0
 92
    32768
 62
   257
 93
        1
300
CONTENTFORMAT
  1
CONTENTFORMAT_BEGIN
 90
        0
 91
        0
 92
      512
 93
        0
300

 40
0.0
140
1.0
 94
        5
 62
     0
340
11
144
6.0
309
CONTENTFORMAT_END
171
     1
301
MARGIN
  1
CELLMARGIN_BEGIN
 40
1.5
 40
1.5
 40
1.5
 40
1.5
 40
0.18
 40
0.18
309
CELLMARGIN_END
 94
        6
 95
        1
302
GRIDFORMAT
  1
GRIDFORMAT_BEGIN
 90
        0
 91
        1
 62
     0
 92
       -2
340
0
 93
        0
 40
1.125
309
GRIDFORMAT_END
 95
        2
302
GRIDFORMAT
  1
GRIDFORMAT_BEGIN
 90
        0
 91
        1
 62
     0
 92
       -2
340
0
 93
        0
 40
1.125
309
GRIDFORMAT_END
 95
        4
302
GRIDFORMAT
  1
GRIDFORMAT_BEGIN
 90
        0
 91
        1
 62
     0
 92
       -2
340
0
 93
        0
 40
1.125
309
GRIDFORMAT_END
 95
        8
302
GRIDFORMAT
  1
GRIDFORMAT_BEGIN
 90
        0
 91
        1
 62
     0
 92
       -2
340
0
 93
        0
 40
1.125
309
GRIDFORMAT_END
 95
       16
302
GRIDFORMAT
  1
GRIDFORMAT_BEGIN
 90
        0
 91
        1
 62
     0
 92
       -2
340
0
 93
        0
 40
1.125
309
GRIDFORMAT_END
 95
       32
302
GRIDFORMAT
  1
GRIDFORMAT_BEGIN
 90
        0
 91
        1
 62
     0
 92
       -2
340
0
 93
        0
 40
1.125
309
GRIDFORMAT_END
309
TABLEFORMAT_END
  1
CELLSTYLE_BEGIN
 90
        1
 91
        1
300
_TITLE
309
CELLSTYLE_END
300
CELLSTYLE
  1
TABLEFORMAT_BEGIN
 90
        5
170
     1
 91
        0
 92
        0
 62
   257
 93
        1
300
CONTENTFORMAT
  1
CONTENTFORMAT_BEGIN
 90
        0
 91
        0
 92
      512
 93
        0
300

 40
0.0
140
1.0
 94
        5
 62
     0
340
11
144
4.5
309
CONTENTFORMAT_END
171
     1
301
MARGIN
  1
CELLMARGIN_BEGIN
 40
1.5
 40
1.5
 40
1.5
 40
1.5
 40
0.18
 40
0.18
309
CELLMARGIN_END
 94
        6
 95
        1
302
GRIDFORMAT
  1
GRIDFORMAT_BEGIN
 90
        0
 91
        1
 62
     0
 92
       -2
340
0
 93
        0
 40
1.125
309
GRIDFORMAT_END
 95
        2
302
GRIDFORMAT
  1
GRIDFORMAT_BEGIN
 90
        0
 91
        1
 62
     0
 92
       -2
340
0
 93
        0
 40
1.125
309
GRIDFORMAT_END
 95
        4
302
GRIDFORMAT
  1
GRIDFORMAT_BEGIN
 90
        0
 91
        1
 62
     0
 92
       -2
340
0
 93
        0
 40
1.125
309
GRIDFORMAT_END
 95
        8
302
GRIDFORMAT
  1
GRIDFORMAT_BEGIN
 90
        0
 91
        1
 62
     0
 92
       -2
340
0
 93
        0
 40
1.125
309
GRIDFORMAT_END
 95
       16
302
GRIDFORMAT
  1
GRIDFORMAT_BEGIN
 90
        0
 91
        1
 62
     0
 92
       -2
340
0
 93
        0
 40
1.125
309
GRIDFORMAT_END
 95
       32
302
GRIDFORMAT
  1
GRIDFORMAT_BEGIN
 90
        0
 91
        1
 62
     0
 92
       -2
340
0
 93
        0
 40
1.125
309
GRIDFORMAT_END
309
TABLEFORMAT_END
  1
CELLSTYLE_BEGIN
 90
        2
 91
        1
300
_HEADER
309
CELLSTYLE_END
300
CELLSTYLE
  1
TABLEFORMAT_BEGIN
 90
        5
170
     1
 91
        0
 92
        0
 62
   257
 93
        1
300
CONTENTFORMAT
  1
CONTENTFORMAT_BEGIN
 90
        0
 91
        0
 92
      512
 93
        0
300

 40
0.0
140
1.0
 94
        2
 62
     0
340
11
144
4.5
309
CONTENTFORMAT_END
171
     1
301
MARGIN
  1
CELLMARGIN_BEGIN
 40
1.5
 40
1.5
 40
1.5
 40
1.5
 40
0.18
 40
0.18
309
CELLMARGIN_END
 94
        6
 95
        1
302
GRIDFORMAT
  1
GRIDFORMAT_BEGIN
 90
        0
 91
        1
 62
     0
 92
       -2
340
0
 93
        0
 40
1.125
309
GRIDFORMAT_END
 95
        2
302
GRIDFORMAT
  1
GRIDFORMAT_BEGIN
 90
        0
 91
        1
 62
     0
 92
       -2
340
0
 93
        0
 40
1.125
309
GRIDFORMAT_END
 95
        4
302
GRIDFORMAT
  1
GRIDFORMAT_BEGIN
 90
        0
 91
        1
 62
     0
 92
       -2
340
0
 93
        0
 40
1.125
309
GRIDFORMAT_END
 95
        8
302
GRIDFORMAT
  1
GRIDFORMAT_BEGIN
 90
        0
 91
        1
 62
     0
 92
       -2
340
0
 93
        0
 40
1.125
309
GRIDFORMAT_END
 95
       16
302
GRIDFORMAT
  1
GRIDFORMAT_BEGIN
 90
        0
 91
        1
 62
     0
 92
       -2
340
0
 93
        0
 40
1.125
309
GRIDFORMAT_END
 95
       32
302
GRIDFORMAT
  1
GRIDFORMAT_BEGIN
 90
        0
 91
        1
 62
     0
 92
       -2
340
0
 93
        0
 40
1.125
309
GRIDFORMAT_END
309
TABLEFORMAT_END
  1
CELLSTYLE_BEGIN
 90
        3
 91
        2
300
_DATA
309
CELLSTYLE_END
  0
XRECORD
  5
2F64
102
{ACAD_REACTORS
330
2ED1
102
}
330
2ED1
100
AcDbXrecord
280
     1
102
ACAD_ROUNDTRIP_PRE2007_TABLESTYLE
 90
      512
 91
        0
  1

 92
      512
 93
        0
  2

 94
      512
 95
        0
  3

  0
XRECORD
  5
2F3F
102
{ACAD_REACTORS
330
2F3E
102
}
330
2F3E
100
AcDbXrecord
280
     1
102
RTVSPost2010Prop28
280
     1
102
RTVSPost2010PropOp28
 70
     1
102
RTVSPost2010Prop29
280
     1
102
RTVSPost2010PropOp29
 70
     1
102
RTVSPost2010Prop30
280
     0
102
RTVSPost2010PropOp30
 70
     1
102
RTVSPost2010Prop31
280
     0
102
RTVSPost2010PropOp31
 70
     1
102
RTVSPost2010Prop32
280
     0
102
RTVSPost2010PropOp32
 70
     1
102
RTVSPost2010Prop33
280
     0
102
RTVSPost2010PropOp33
 70
     1
102
RTVSPost2010Prop34
280
     0
102
RTVSPost2010PropOp34
 70
     1
102
RTVSPost2010Prop35
280
     0
102
RTVSPost2010PropOp35
 70
     1
102
RTVSPost2010Prop36
280
     0
102
RTVSPost2010PropOp36
 70
     1
102
RTVSPost2010Prop37
 90
       50
102
RTVSPost2010PropOp37
 70
     1
102
RTVSPost2010Prop38
140
0.0
102
RTVSPost2010PropOp38
 70
     1
102
RTVSPost2010Prop39
140
1.0
102
RTVSPost2010PropOp39
 70
     1
102
RTVSPost2010Prop40
 90
        0
102
RTVSPost2010PropOp40
 70
     1
102
RTVSPost2010Prop41ColorIndex
 90
       18
102
RTVSPost2010Prop41ColorRGB
 90
        0
102
RTVSPost2010PropOp41
 70
     1
102
RTVSPost2010Prop42
 90
       50
102
RTVSPost2010PropOp42
 70
     1
102
RTVSPost2010Prop43
 90
        3
102
RTVSPost2010PropOp43
 70
     1
102
RTVSPost2010Prop44ColorIndex
 90
        5
102
RTVSPost2010Prop44ColorRGB
 90
      255
102
RTVSPost2010PropOp44
 70
     1
102
RTVSPost2010Prop45
280
     0
102
RTVSPost2010PropOp45
 70
     1
102
RTVSPost2010Prop46
 90
       50
102
RTVSPost2010PropOp46
 70
     1
102
RTVSPost2010Prop47
 90
       50
102
RTVSPost2010PropOp47
 70
     1
102
RTVSPost2010Prop48
 90
       50
102
RTVSPost2010PropOp48
 70
     1
102
RTVSPost2010Prop49
280
     0
102
RTVSPost2010PropOp49
 70
     1
102
RTVSPost2010Prop50
 90
       50
102
RTVSPost2010PropOp50
 70
     1
102
RTVSPost2010Prop51ColorIndex
 90
      256
102
RTVSPost2010Prop51ColorRGB
 90
-16777216
102
RTVSPost2010PropOp51
 70
     0
102
RTVSPost2010Prop52
140
1.0
102
RTVSPost2010PropOp52
 70
     0
102
RTVSPost2010Prop53
 90
        2
102
RTVSPost2010PropOp53
 70
     1
102
RTVSPost2010Prop54
  1
strokes_ogs.tif
102
RTVSPost2010PropOp54
 70
     1
102
RTVSPost2010Prop55
280
     0
102
RTVSPost2010PropOp55
 70
     1
102
RTVSPost2010Prop56
140
1.0
102
RTVSPost2010PropOp56
 70
     1
102
RTVSPost2010Prop57
140
1.0
102
RTVSPost2010PropOp57
 70
     1
102
RTVSPropertyOp0
 70
     1
102
RTVSPropertyOp1
 70
     1
102
RTVSPropertyOp2
 70
     1
102
RTVSPropertyOp3
 70
     1
102
RTVSPropertyOp4
 70
     1
102
RTVSPropertyOp5
 70
     1
102
RTVSPropertyOp6
 70
     1
102
RTVSPropertyOp7
 70
     1
102
RTVSPropertyOp8
 70
     1
102
RTVSPropertyOp9
 70
     1
102
RTVSPropertyOp10
 70
     1
102
RTVSPropertyOp11
 70
     1
102
RTVSPropertyOp12
 70
     1
102
RTVSPropertyOp13
 70
     1
102
RTVSPropertyOp14
 70
     1
102
RTVSPropertyOp15
 70
     1
102
RTVSPropertyOp16
 70
     1
102
RTVSPropertyOp17
 70
     1
102
RTVSPropertyOp18
 70
     1
102
RTVSPropertyOp19
 70
     1
102
RTVSPropertyOp20
 70
     1
102
RTVSPropertyOp21
 70
     1
102
RTVSPropertyOp22
 70
     1
102
RTVSPropertyOp23
 70
     1
102
RTVSPropertyOp24
 70
     1
102
RTVSPropertyOp25
 70
     1
102
RTVSPropertyOp26
 70
     1
102
RTVSPropertyOp27
 70
     1
102
RTVSPropertyOp28
 70
     1
102
RTVSPropertyOp29
 70
     1
102
RTVSPropertyOp30
 70
     1
102
RTVSPropertyOp31
 70
     1
102
RTVSPropertyOp32
 70
     1
102
RTVSPropertyOp33
 70
     1
102
RTVSPropertyOp34
 70
     1
102
RTVSPropertyOp35
 70
     1
102
RTVSPropertyOp36
 70
     1
102
RTVSPropertyOp37
 70
     1
102
RTVSPropertyOp38
 70
     1
102
RTVSPropertyOp39
 70
     1
102
RTVSPropertyOp40
 70
     1
102
RTVSPropertyOp41
 70
     1
102
RTVSPropertyOp42
 70
     1
102
RTVSPropertyOp43
 70
     1
102
RTVSPropertyOp44
 70
     1
102
RTVSPropertyOp45
 70
     1
102
RTVSPropertyOp46
 70
     1
102
RTVSPropertyOp47
 70
     1
102
RTVSPropertyOp48
 70
     1
102
RTVSPropertyOp49
 70
     1
102
RTVSPropertyOp50
 70
     1
102
RTVSPropertyOp51
 70
     0
102
RTVSPropertyOp52
 70
     0
102
RTVSPropertyOp53
 70
     1
102
RTVSPropertyOp54
 70
     1
102
RTVSPropertyOp55
 70
     1
102
RTVSPropertyOp56
 70
     1
102
RTVSPropertyOp57
 70
     1
102
RTVSPropertyOp58
 70
     1
102
RTVSPropertyOp59
 70
     1
102
RTVSPropertyOp60
 70
     1
102
RTVSPropertyOp61
 70
     1
102
RTVSPropertyOp62
 70
     1
  0
XRECORD
  5
2F3D
102
{ACAD_REACTORS
330
2F3C
102
}
330
2F3C
100
AcDbXrecord
280
     1
102
RTVSPost2010Prop28
280
     0
102
RTVSPost2010PropOp28
 70
     1
102
RTVSPost2010Prop29
280
     1
102
RTVSPost2010PropOp29
 70
     1
102
RTVSPost2010Prop30
280
     1
102
RTVSPost2010PropOp30
 70
     1
102
RTVSPost2010Prop31
280
     0
102
RTVSPost2010PropOp31
 70
     1
102
RTVSPost2010Prop32
280
     0
102
RTVSPost2010PropOp32
 70
     1
102
RTVSPost2010Prop33
280
     0
102
RTVSPost2010PropOp33
 70
     1
102
RTVSPost2010Prop34
280
     0
102
RTVSPost2010PropOp34
 70
     1
102
RTVSPost2010Prop35
280
     0
102
RTVSPost2010PropOp35
 70
     1
102
RTVSPost2010Prop36
280
     0
102
RTVSPost2010PropOp36
 70
     1
102
RTVSPost2010Prop37
 90
       50
102
RTVSPost2010PropOp37
 70
     1
102
RTVSPost2010Prop38
140
0.0
102
RTVSPost2010PropOp38
 70
     1
102
RTVSPost2010Prop39
140
1.0
102
RTVSPost2010PropOp39
 70
     1
102
RTVSPost2010Prop40
 90
        0
102
RTVSPost2010PropOp40
 70
     1
102
RTVSPost2010Prop41ColorIndex
 90
       18
102
RTVSPost2010Prop41ColorRGB
 90
        0
102
RTVSPost2010PropOp41
 70
     1
102
RTVSPost2010Prop42
 90
       50
102
RTVSPost2010PropOp42
 70
     1
102
RTVSPost2010Prop43
 90
        3
102
RTVSPost2010PropOp43
 70
     1
102
RTVSPost2010Prop44ColorIndex
 90
        5
102
RTVSPost2010Prop44ColorRGB
 90
      255
102
RTVSPost2010PropOp44
 70
     1
102
RTVSPost2010Prop45
280
     0
102
RTVSPost2010PropOp45
 70
     1
102
RTVSPost2010Prop46
 90
       50
102
RTVSPost2010PropOp46
 70
     1
102
RTVSPost2010Prop47
 90
       50
102
RTVSPost2010PropOp47
 70
     1
102
RTVSPost2010Prop48
 90
       50
102
RTVSPost2010PropOp48
 70
     1
102
RTVSPost2010Prop49
280
     0
102
RTVSPost2010PropOp49
 70
     1
102
RTVSPost2010Prop50
 90
       50
102
RTVSPost2010PropOp50
 70
     1
102
RTVSPost2010Prop51ColorIndex
 90
      256
102
RTVSPost2010Prop51ColorRGB
 90
-16777216
102
RTVSPost2010PropOp51
 70
     0
102
RTVSPost2010Prop52
140
1.0
102
RTVSPost2010PropOp52
 70
     0
102
RTVSPost2010Prop53
 90
        2
102
RTVSPost2010PropOp53
 70
     1
102
RTVSPost2010Prop54
  1
strokes_ogs.tif
102
RTVSPost2010PropOp54
 70
     1
102
RTVSPost2010Prop55
280
     0
102
RTVSPost2010PropOp55
 70
     1
102
RTVSPost2010Prop56
140
1.0
102
RTVSPost2010PropOp56
 70
     1
102
RTVSPost2010Prop57
140
1.0
102
RTVSPost2010PropOp57
 70
     1
102
RTVSPropertyOp0
 70
     1
102
RTVSPropertyOp1
 70
     1
102
RTVSPropertyOp2
 70
     1
102
RTVSPropertyOp3
 70
     1
102
RTVSPropertyOp4
 70
     1
102
RTVSPropertyOp5
 70
     1
102
RTVSPropertyOp6
 70
     1
102
RTVSPropertyOp7
 70
     1
102
RTVSPropertyOp8
 70
     1
102
RTVSPropertyOp9
 70
     1
102
RTVSPropertyOp10
 70
     1
102
RTVSPropertyOp11
 70
     1
102
RTVSPropertyOp12
 70
     1
102
RTVSPropertyOp13
 70
     1
102
RTVSPropertyOp14
 70
     1
102
RTVSPropertyOp15
 70
     1
102
RTVSPropertyOp16
 70
     1
102
RTVSPropertyOp17
 70
     1
102
RTVSPropertyOp18
 70
     1
102
RTVSPropertyOp19
 70
     1
102
RTVSPropertyOp20
 70
     1
102
RTVSPropertyOp21
 70
     1
102
RTVSPropertyOp22
 70
     1
102
RTVSPropertyOp23
 70
     1
102
RTVSPropertyOp24
 70
     1
102
RTVSPropertyOp25
 70
     1
102
RTVSPropertyOp26
 70
     1
102
RTVSPropertyOp27
 70
     1
102
RTVSPropertyOp28
 70
     1
102
RTVSPropertyOp29
 70
     1
102
RTVSPropertyOp30
 70
     1
102
RTVSPropertyOp31
 70
     1
102
RTVSPropertyOp32
 70
     1
102
RTVSPropertyOp33
 70
     1
102
RTVSPropertyOp34
 70
     1
102
RTVSPropertyOp35
 70
     1
102
RTVSPropertyOp36
 70
     1
102
RTVSPropertyOp37
 70
     1
102
RTVSPropertyOp38
 70
     1
102
RTVSPropertyOp39
 70
     1
102
RTVSPropertyOp40
 70
     1
102
RTVSPropertyOp41
 70
     1
102
RTVSPropertyOp42
 70
     1
102
RTVSPropertyOp43
 70
     1
102
RTVSPropertyOp44
 70
     1
102
RTVSPropertyOp45
 70
     1
102
RTVSPropertyOp46
 70
     1
102
RTVSPropertyOp47
 70
     1
102
RTVSPropertyOp48
 70
     1
102
RTVSPropertyOp49
 70
     1
102
RTVSPropertyOp50
 70
     1
102
RTVSPropertyOp51
 70
     0
102
RTVSPropertyOp52
 70
     0
102
RTVSPropertyOp53
 70
     1
102
RTVSPropertyOp54
 70
     1
102
RTVSPropertyOp55
 70
     1
102
RTVSPropertyOp56
 70
     1
102
RTVSPropertyOp57
 70
     1
102
RTVSPropertyOp58
 70
     1
102
RTVSPropertyOp59
 70
     1
102
RTVSPropertyOp60
 70
     1
102
RTVSPropertyOp61
 70
     1
102
RTVSPropertyOp62
 70
     1
  0
XRECORD
  5
2F4B
102
{ACAD_REACTORS
330
2F4A
102
}
330
2F4A
100
AcDbXrecord
280
     1
102
RTVSPost2010Prop28
280
     0
102
RTVSPost2010PropOp28
 70
     1
102
RTVSPost2010Prop29
280
     1
102
RTVSPost2010PropOp29
 70
     1
102
RTVSPost2010Prop30
280
     1
102
RTVSPost2010PropOp30
 70
     1
102
RTVSPost2010Prop31
280
     0
102
RTVSPost2010PropOp31
 70
     1
102
RTVSPost2010Prop32
280
     0
102
RTVSPost2010PropOp32
 70
     1
102
RTVSPost2010Prop33
280
     0
102
RTVSPost2010PropOp33
 70
     1
102
RTVSPost2010Prop34
280
     0
102
RTVSPost2010PropOp34
 70
     1
102
RTVSPost2010Prop35
280
     0
102
RTVSPost2010PropOp35
 70
     1
102
RTVSPost2010Prop36
280
     0
102
RTVSPost2010PropOp36
 70
     1
102
RTVSPost2010Prop37
 90
       50
102
RTVSPost2010PropOp37
 70
     1
102
RTVSPost2010Prop38
140
0.0
102
RTVSPost2010PropOp38
 70
     1
102
RTVSPost2010Prop39
140
1.0
102
RTVSPost2010PropOp39
 70
     1
102
RTVSPost2010Prop40
 90
        0
102
RTVSPost2010PropOp40
 70
     1
102
RTVSPost2010Prop41ColorIndex
 90
       18
102
RTVSPost2010Prop41ColorRGB
 90
        0
102
RTVSPost2010PropOp41
 70
     1
102
RTVSPost2010Prop42
 90
       50
102
RTVSPost2010PropOp42
 70
     1
102
RTVSPost2010Prop43
 90
        3
102
RTVSPost2010PropOp43
 70
     1
102
RTVSPost2010Prop44ColorIndex
 90
        5
102
RTVSPost2010Prop44ColorRGB
 90
      255
102
RTVSPost2010PropOp44
 70
     1
102
RTVSPost2010Prop45
280
     0
102
RTVSPost2010PropOp45
 70
     1
102
RTVSPost2010Prop46
 90
       50
102
RTVSPost2010PropOp46
 70
     1
102
RTVSPost2010Prop47
 90
       50
102
RTVSPost2010PropOp47
 70
     1
102
RTVSPost2010Prop48
 90
       50
102
RTVSPost2010PropOp48
 70
     1
102
RTVSPost2010Prop49
280
     0
102
RTVSPost2010PropOp49
 70
     1
102
RTVSPost2010Prop50
 90
       50
102
RTVSPost2010PropOp50
 70
     1
102
RTVSPost2010Prop51ColorIndex
 90
      256
102
RTVSPost2010Prop51ColorRGB
 90
-16777216
102
RTVSPost2010PropOp51
 70
     0
102
RTVSPost2010Prop52
140
1.0
102
RTVSPost2010PropOp52
 70
     0
102
RTVSPost2010Prop53
 90
        2
102
RTVSPost2010PropOp53
 70
     1
102
RTVSPost2010Prop54
  1
strokes_ogs.tif
102
RTVSPost2010PropOp54
 70
     1
102
RTVSPost2010Prop55
280
     0
102
RTVSPost2010PropOp55
 70
     1
102
RTVSPost2010Prop56
140
1.0
102
RTVSPost2010PropOp56
 70
     1
102
RTVSPost2010Prop57
140
1.0
102
RTVSPost2010PropOp57
 70
     1
102
RTVSPropertyOp0
 70
     1
102
RTVSPropertyOp1
 70
     1
102
RTVSPropertyOp2
 70
     1
102
RTVSPropertyOp3
 70
     1
102
RTVSPropertyOp4
 70
     1
102
RTVSPropertyOp5
 70
     1
102
RTVSPropertyOp6
 70
     1
102
RTVSPropertyOp7
 70
     1
102
RTVSPropertyOp8
 70
     1
102
RTVSPropertyOp9
 70
     1
102
RTVSPropertyOp10
 70
     1
102
RTVSPropertyOp11
 70
     1
102
RTVSPropertyOp12
 70
     1
102
RTVSPropertyOp13
 70
     1
102
RTVSPropertyOp14
 70
     1
102
RTVSPropertyOp15
 70
     1
102
RTVSPropertyOp16
 70
     1
102
RTVSPropertyOp17
 70
     1
102
RTVSPropertyOp18
 70
     1
102
RTVSPropertyOp19
 70
     1
102
RTVSPropertyOp20
 70
     1
102
RTVSPropertyOp21
 70
     1
102
RTVSPropertyOp22
 70
     1
102
RTVSPropertyOp23
 70
     1
102
RTVSPropertyOp24
 70
     1
102
RTVSPropertyOp25
 70
     1
102
RTVSPropertyOp26
 70
     1
102
RTVSPropertyOp27
 70
     1
102
RTVSPropertyOp28
 70
     1
102
RTVSPropertyOp29
 70
     1
102
RTVSPropertyOp30
 70
     1
102
RTVSPropertyOp31
 70
     1
102
RTVSPropertyOp32
 70
     1
102
RTVSPropertyOp33
 70
     1
102
RTVSPropertyOp34
 70
     1
102
RTVSPropertyOp35
 70
     1
102
RTVSPropertyOp36
 70
     1
102
RTVSPropertyOp37
 70
     1
102
RTVSPropertyOp38
 70
     1
102
RTVSPropertyOp39
 70
     1
102
RTVSPropertyOp40
 70
     1
102
RTVSPropertyOp41
 70
     1
102
RTVSPropertyOp42
 70
     1
102
RTVSPropertyOp43
 70
     1
102
RTVSPropertyOp44
 70
     1
102
RTVSPropertyOp45
 70
     1
102
RTVSPropertyOp46
 70
     1
102
RTVSPropertyOp47
 70
     1
102
RTVSPropertyOp48
 70
     1
102
RTVSPropertyOp49
 70
     1
102
RTVSPropertyOp50
 70
     1
102
RTVSPropertyOp51
 70
     0
102
RTVSPropertyOp52
 70
     0
102
RTVSPropertyOp53
 70
     1
102
RTVSPropertyOp54
 70
     1
102
RTVSPropertyOp55
 70
     1
102
RTVSPropertyOp56
 70
     1
102
RTVSPropertyOp57
 70
     1
102
RTVSPropertyOp58
 70
     1
102
RTVSPropertyOp59
 70
     1
102
RTVSPropertyOp60
 70
     1
102
RTVSPropertyOp61
 70
     1
102
RTVSPropertyOp62
 70
     1
  0
XRECORD
  5
2F53
102
{ACAD_REACTORS
330
2F52
102
}
330
2F52
100
AcDbXrecord
280
     1
102
RTVSPost2010Prop28
280
     0
102
RTVSPost2010PropOp28
 70
     1
102
RTVSPost2010Prop29
280
     1
102
RTVSPost2010PropOp29
 70
     1
102
RTVSPost2010Prop30
280
     1
102
RTVSPost2010PropOp30
 70
     1
102
RTVSPost2010Prop31
280
     0
102
RTVSPost2010PropOp31
 70
     1
102
RTVSPost2010Prop32
280
     0
102
RTVSPost2010PropOp32
 70
     1
102
RTVSPost2010Prop33
280
     0
102
RTVSPost2010PropOp33
 70
     1
102
RTVSPost2010Prop34
280
     0
102
RTVSPost2010PropOp34
 70
     1
102
RTVSPost2010Prop35
280
     0
102
RTVSPost2010PropOp35
 70
     1
102
RTVSPost2010Prop36
280
     0
102
RTVSPost2010PropOp36
 70
     1
102
RTVSPost2010Prop37
 90
       50
102
RTVSPost2010PropOp37
 70
     1
102
RTVSPost2010Prop38
140
0.0
102
RTVSPost2010PropOp38
 70
     1
102
RTVSPost2010Prop39
140
1.0
102
RTVSPost2010PropOp39
 70
     1
102
RTVSPost2010Prop40
 90
        0
102
RTVSPost2010PropOp40
 70
     1
102
RTVSPost2010Prop41ColorIndex
 90
       18
102
RTVSPost2010Prop41ColorRGB
 90
        0
102
RTVSPost2010PropOp41
 70
     1
102
RTVSPost2010Prop42
 90
       50
102
RTVSPost2010PropOp42
 70
     1
102
RTVSPost2010Prop43
 90
        3
102
RTVSPost2010PropOp43
 70
     1
102
RTVSPost2010Prop44ColorIndex
 90
        5
102
RTVSPost2010Prop44ColorRGB
 90
      255
102
RTVSPost2010PropOp44
 70
     1
102
RTVSPost2010Prop45
280
     0
102
RTVSPost2010PropOp45
 70
     1
102
RTVSPost2010Prop46
 90
       50
102
RTVSPost2010PropOp46
 70
     1
102
RTVSPost2010Prop47
 90
       50
102
RTVSPost2010PropOp47
 70
     1
102
RTVSPost2010Prop48
 90
       50
102
RTVSPost2010PropOp48
 70
     1
102
RTVSPost2010Prop49
280
     0
102
RTVSPost2010PropOp49
 70
     1
102
RTVSPost2010Prop50
 90
       50
102
RTVSPost2010PropOp50
 70
     1
102
RTVSPost2010Prop51ColorIndex
 90
      256
102
RTVSPost2010Prop51ColorRGB
 90
-16777216
102
RTVSPost2010PropOp51
 70
     0
102
RTVSPost2010Prop52
140
1.0
102
RTVSPost2010PropOp52
 70
     0
102
RTVSPost2010Prop53
 90
        2
102
RTVSPost2010PropOp53
 70
     1
102
RTVSPost2010Prop54
  1
strokes_ogs.tif
102
RTVSPost2010PropOp54
 70
     1
102
RTVSPost2010Prop55
280
     0
102
RTVSPost2010PropOp55
 70
     1
102
RTVSPost2010Prop56
140
1.0
102
RTVSPost2010PropOp56
 70
     1
102
RTVSPost2010Prop57
140
1.0
102
RTVSPost2010PropOp57
 70
     1
102
RTVSPropertyOp0
 70
     1
102
RTVSPropertyOp1
 70
     1
102
RTVSPropertyOp2
 70
     1
102
RTVSPropertyOp3
 70
     1
102
RTVSPropertyOp4
 70
     1
102
RTVSPropertyOp5
 70
     1
102
RTVSPropertyOp6
 70
     1
102
RTVSPropertyOp7
 70
     1
102
RTVSPropertyOp8
 70
     1
102
RTVSPropertyOp9
 70
     1
102
RTVSPropertyOp10
 70
     1
102
RTVSPropertyOp11
 70
     1
102
RTVSPropertyOp12
 70
     1
102
RTVSPropertyOp13
 70
     1
102
RTVSPropertyOp14
 70
     1
102
RTVSPropertyOp15
 70
     1
102
RTVSPropertyOp16
 70
     1
102
RTVSPropertyOp17
 70
     1
102
RTVSPropertyOp18
 70
     1
102
RTVSPropertyOp19
 70
     1
102
RTVSPropertyOp20
 70
     1
102
RTVSPropertyOp21
 70
     1
102
RTVSPropertyOp22
 70
     1
102
RTVSPropertyOp23
 70
     1
102
RTVSPropertyOp24
 70
     1
102
RTVSPropertyOp25
 70
     1
102
RTVSPropertyOp26
 70
     1
102
RTVSPropertyOp27
 70
     1
102
RTVSPropertyOp28
 70
     1
102
RTVSPropertyOp29
 70
     1
102
RTVSPropertyOp30
 70
     1
102
RTVSPropertyOp31
 70
     1
102
RTVSPropertyOp32
 70
     1
102
RTVSPropertyOp33
 70
     1
102
RTVSPropertyOp34
 70
     1
102
RTVSPropertyOp35
 70
     1
102
RTVSPropertyOp36
 70
     1
102
RTVSPropertyOp37
 70
     1
102
RTVSPropertyOp38
 70
     1
102
RTVSPropertyOp39
 70
     1
102
RTVSPropertyOp40
 70
     1
102
RTVSPropertyOp41
 70
     1
102
RTVSPropertyOp42
 70
     1
102
RTVSPropertyOp43
 70
     1
102
RTVSPropertyOp44
 70
     1
102
RTVSPropertyOp45
 70
     1
102
RTVSPropertyOp46
 70
     1
102
RTVSPropertyOp47
 70
     1
102
RTVSPropertyOp48
 70
     1
102
RTVSPropertyOp49
 70
     1
102
RTVSPropertyOp50
 70
     1
102
RTVSPropertyOp51
 70
     0
102
RTVSPropertyOp52
 70
     0
102
RTVSPropertyOp53
 70
     1
102
RTVSPropertyOp54
 70
     1
102
RTVSPropertyOp55
 70
     1
102
RTVSPropertyOp56
 70
     1
102
RTVSPropertyOp57
 70
     1
102
RTVSPropertyOp58
 70
     1
102
RTVSPropertyOp59
 70
     1
102
RTVSPropertyOp60
 70
     1
102
RTVSPropertyOp61
 70
     1
102
RTVSPropertyOp62
 70
     1
  0
XRECORD
  5
2F45
102
{ACAD_REACTORS
330
2F44
102
}
330
2F44
100
AcDbXrecord
280
     1
102
RTVSPost2010Prop28
280
     0
102
RTVSPost2010PropOp28
 70
     1
102
RTVSPost2010Prop29
280
     1
102
RTVSPost2010PropOp29
 70
     1
102
RTVSPost2010Prop30
280
     1
102
RTVSPost2010PropOp30
 70
     1
102
RTVSPost2010Prop31
280
     0
102
RTVSPost2010PropOp31
 70
     1
102
RTVSPost2010Prop32
280
     0
102
RTVSPost2010PropOp32
 70
     1
102
RTVSPost2010Prop33
280
     0
102
RTVSPost2010PropOp33
 70
     1
102
RTVSPost2010Prop34
280
     0
102
RTVSPost2010PropOp34
 70
     1
102
RTVSPost2010Prop35
280
     0
102
RTVSPost2010PropOp35
 70
     1
102
RTVSPost2010Prop36
280
     0
102
RTVSPost2010PropOp36
 70
     1
102
RTVSPost2010Prop37
 90
       50
102
RTVSPost2010PropOp37
 70
     1
102
RTVSPost2010Prop38
140
0.0
102
RTVSPost2010PropOp38
 70
     1
102
RTVSPost2010Prop39
140
1.0
102
RTVSPost2010PropOp39
 70
     1
102
RTVSPost2010Prop40
 90
        0
102
RTVSPost2010PropOp40
 70
     1
102
RTVSPost2010Prop41ColorIndex
 90
       18
102
RTVSPost2010Prop41ColorRGB
 90
        0
102
RTVSPost2010PropOp41
 70
     1
102
RTVSPost2010Prop42
 90
       50
102
RTVSPost2010PropOp42
 70
     1
102
RTVSPost2010Prop43
 90
        3
102
RTVSPost2010PropOp43
 70
     1
102
RTVSPost2010Prop44ColorIndex
 90
        5
102
RTVSPost2010Prop44ColorRGB
 90
      255
102
RTVSPost2010PropOp44
 70
     1
102
RTVSPost2010Prop45
280
     0
102
RTVSPost2010PropOp45
 70
     1
102
RTVSPost2010Prop46
 90
       50
102
RTVSPost2010PropOp46
 70
     1
102
RTVSPost2010Prop47
 90
       50
102
RTVSPost2010PropOp47
 70
     1
102
RTVSPost2010Prop48
 90
       50
102
RTVSPost2010PropOp48
 70
     1
102
RTVSPost2010Prop49
280
     0
102
RTVSPost2010PropOp49
 70
     1
102
RTVSPost2010Prop50
 90
       50
102
RTVSPost2010PropOp50
 70
     1
102
RTVSPost2010Prop51ColorIndex
 90
      256
102
RTVSPost2010Prop51ColorRGB
 90
-16777216
102
RTVSPost2010PropOp51
 70
     0
102
RTVSPost2010Prop52
140
1.0
102
RTVSPost2010PropOp52
 70
     0
102
RTVSPost2010Prop53
 90
        2
102
RTVSPost2010PropOp53
 70
     1
102
RTVSPost2010Prop54
  1
strokes_ogs.tif
102
RTVSPost2010PropOp54
 70
     1
102
RTVSPost2010Prop55
280
     0
102
RTVSPost2010PropOp55
 70
     1
102
RTVSPost2010Prop56
140
1.0
102
RTVSPost2010PropOp56
 70
     1
102
RTVSPost2010Prop57
140
1.0
102
RTVSPost2010PropOp57
 70
     1
102
RTVSPropertyOp0
 70
     1
102
RTVSPropertyOp1
 70
     1
102
RTVSPropertyOp2
 70
     1
102
RTVSPropertyOp3
 70
     1
102
RTVSPropertyOp4
 70
     1
102
RTVSPropertyOp5
 70
     1
102
RTVSPropertyOp6
 70
     1
102
RTVSPropertyOp7
 70
     1
102
RTVSPropertyOp8
 70
     1
102
RTVSPropertyOp9
 70
     1
102
RTVSPropertyOp10
 70
     1
102
RTVSPropertyOp11
 70
     1
102
RTVSPropertyOp12
 70
     1
102
RTVSPropertyOp13
 70
     1
102
RTVSPropertyOp14
 70
     1
102
RTVSPropertyOp15
 70
     1
102
RTVSPropertyOp16
 70
     1
102
RTVSPropertyOp17
 70
     1
102
RTVSPropertyOp18
 70
     1
102
RTVSPropertyOp19
 70
     1
102
RTVSPropertyOp20
 70
     1
102
RTVSPropertyOp21
 70
     1
102
RTVSPropertyOp22
 70
     1
102
RTVSPropertyOp23
 70
     1
102
RTVSPropertyOp24
 70
     1
102
RTVSPropertyOp25
 70
     1
102
RTVSPropertyOp26
 70
     1
102
RTVSPropertyOp27
 70
     1
102
RTVSPropertyOp28
 70
     1
102
RTVSPropertyOp29
 70
     1
102
RTVSPropertyOp30
 70
     1
102
RTVSPropertyOp31
 70
     1
102
RTVSPropertyOp32
 70
     1
102
RTVSPropertyOp33
 70
     1
102
RTVSPropertyOp34
 70
     1
102
RTVSPropertyOp35
 70
     1
102
RTVSPropertyOp36
 70
     1
102
RTVSPropertyOp37
 70
     1
102
RTVSPropertyOp38
 70
     1
102
RTVSPropertyOp39
 70
     1
102
RTVSPropertyOp40
 70
     1
102
RTVSPropertyOp41
 70
     1
102
RTVSPropertyOp42
 70
     1
102
RTVSPropertyOp43
 70
     1
102
RTVSPropertyOp44
 70
     1
102
RTVSPropertyOp45
 70
     1
102
RTVSPropertyOp46
 70
     1
102
RTVSPropertyOp47
 70
     1
102
RTVSPropertyOp48
 70
     1
102
RTVSPropertyOp49
 70
     1
102
RTVSPropertyOp50
 70
     1
102
RTVSPropertyOp51
 70
     0
102
RTVSPropertyOp52
 70
     0
102
RTVSPropertyOp53
 70
     1
102
RTVSPropertyOp54
 70
     1
102
RTVSPropertyOp55
 70
     1
102
RTVSPropertyOp56
 70
     1
102
RTVSPropertyOp57
 70
     1
102
RTVSPropertyOp58
 70
     1
102
RTVSPropertyOp59
 70
     1
102
RTVSPropertyOp60
 70
     1
102
RTVSPropertyOp61
 70
     1
102
RTVSPropertyOp62
 70
     1
  0
XRECORD
  5
2F49
102
{ACAD_REACTORS
330
2F48
102
}
330
2F48
100
AcDbXrecord
280
     1
102
RTVSPost2010Prop28
280
     0
102
RTVSPost2010PropOp28
 70
     1
102
RTVSPost2010Prop29
280
     1
102
RTVSPost2010PropOp29
 70
     1
102
RTVSPost2010Prop30
280
     1
102
RTVSPost2010PropOp30
 70
     1
102
RTVSPost2010Prop31
280
     0
102
RTVSPost2010PropOp31
 70
     1
102
RTVSPost2010Prop32
280
     0
102
RTVSPost2010PropOp32
 70
     1
102
RTVSPost2010Prop33
280
     0
102
RTVSPost2010PropOp33
 70
     1
102
RTVSPost2010Prop34
280
     0
102
RTVSPost2010PropOp34
 70
     1
102
RTVSPost2010Prop35
280
     0
102
RTVSPost2010PropOp35
 70
     1
102
RTVSPost2010Prop36
280
     0
102
RTVSPost2010PropOp36
 70
     1
102
RTVSPost2010Prop37
 90
       50
102
RTVSPost2010PropOp37
 70
     1
102
RTVSPost2010Prop38
140
0.0
102
RTVSPost2010PropOp38
 70
     1
102
RTVSPost2010Prop39
140
1.0
102
RTVSPost2010PropOp39
 70
     1
102
RTVSPost2010Prop40
 90
        0
102
RTVSPost2010PropOp40
 70
     1
102
RTVSPost2010Prop41ColorIndex
 90
       18
102
RTVSPost2010Prop41ColorRGB
 90
        0
102
RTVSPost2010PropOp41
 70
     1
102
RTVSPost2010Prop42
 90
       50
102
RTVSPost2010PropOp42
 70
     1
102
RTVSPost2010Prop43
 90
        3
102
RTVSPost2010PropOp43
 70
     1
102
RTVSPost2010Prop44ColorIndex
 90
        5
102
RTVSPost2010Prop44ColorRGB
 90
      255
102
RTVSPost2010PropOp44
 70
     1
102
RTVSPost2010Prop45
280
     0
102
RTVSPost2010PropOp45
 70
     1
102
RTVSPost2010Prop46
 90
       50
102
RTVSPost2010PropOp46
 70
     1
102
RTVSPost2010Prop47
 90
       50
102
RTVSPost2010PropOp47
 70
     1
102
RTVSPost2010Prop48
 90
       50
102
RTVSPost2010PropOp48
 70
     1
102
RTVSPost2010Prop49
280
     0
102
RTVSPost2010PropOp49
 70
     1
102
RTVSPost2010Prop50
 90
       50
102
RTVSPost2010PropOp50
 70
     1
102
RTVSPost2010Prop51ColorIndex
 90
      256
102
RTVSPost2010Prop51ColorRGB
 90
-16777216
102
RTVSPost2010PropOp51
 70
     0
102
RTVSPost2010Prop52
140
1.0
102
RTVSPost2010PropOp52
 70
     0
102
RTVSPost2010Prop53
 90
        2
102
RTVSPost2010PropOp53
 70
     1
102
RTVSPost2010Prop54
  1
strokes_ogs.tif
102
RTVSPost2010PropOp54
 70
     1
102
RTVSPost2010Prop55
280
     0
102
RTVSPost2010PropOp55
 70
     1
102
RTVSPost2010Prop56
140
1.0
102
RTVSPost2010PropOp56
 70
     1
102
RTVSPost2010Prop57
140
1.0
102
RTVSPost2010PropOp57
 70
     1
102
RTVSPropertyOp0
 70
     1
102
RTVSPropertyOp1
 70
     1
102
RTVSPropertyOp2
 70
     1
102
RTVSPropertyOp3
 70
     1
102
RTVSPropertyOp4
 70
     1
102
RTVSPropertyOp5
 70
     1
102
RTVSPropertyOp6
 70
     1
102
RTVSPropertyOp7
 70
     1
102
RTVSPropertyOp8
 70
     1
102
RTVSPropertyOp9
 70
     1
102
RTVSPropertyOp10
 70
     1
102
RTVSPropertyOp11
 70
     1
102
RTVSPropertyOp12
 70
     1
102
RTVSPropertyOp13
 70
     1
102
RTVSPropertyOp14
 70
     1
102
RTVSPropertyOp15
 70
     1
102
RTVSPropertyOp16
 70
     1
102
RTVSPropertyOp17
 70
     1
102
RTVSPropertyOp18
 70
     1
102
RTVSPropertyOp19
 70
     1
102
RTVSPropertyOp20
 70
     1
102
RTVSPropertyOp21
 70
     1
102
RTVSPropertyOp22
 70
     1
102
RTVSPropertyOp23
 70
     1
102
RTVSPropertyOp24
 70
     1
102
RTVSPropertyOp25
 70
     1
102
RTVSPropertyOp26
 70
     1
102
RTVSPropertyOp27
 70
     1
102
RTVSPropertyOp28
 70
     1
102
RTVSPropertyOp29
 70
     1
102
RTVSPropertyOp30
 70
     1
102
RTVSPropertyOp31
 70
     1
102
RTVSPropertyOp32
 70
     1
102
RTVSPropertyOp33
 70
     1
102
RTVSPropertyOp34
 70
     1
102
RTVSPropertyOp35
 70
     1
102
RTVSPropertyOp36
 70
     1
102
RTVSPropertyOp37
 70
     1
102
RTVSPropertyOp38
 70
     1
102
RTVSPropertyOp39
 70
     1
102
RTVSPropertyOp40
 70
     1
102
RTVSPropertyOp41
 70
     1
102
RTVSPropertyOp42
 70
     1
102
RTVSPropertyOp43
 70
     1
102
RTVSPropertyOp44
 70
     1
102
RTVSPropertyOp45
 70
     1
102
RTVSPropertyOp46
 70
     1
102
RTVSPropertyOp47
 70
     1
102
RTVSPropertyOp48
 70
     1
102
RTVSPropertyOp49
 70
     1
102
RTVSPropertyOp50
 70
     1
102
RTVSPropertyOp51
 70
     0
102
RTVSPropertyOp52
 70
     0
102
RTVSPropertyOp53
 70
     1
102
RTVSPropertyOp54
 70
     1
102
RTVSPropertyOp55
 70
     1
102
RTVSPropertyOp56
 70
     1
102
RTVSPropertyOp57
 70
     1
102
RTVSPropertyOp58
 70
     1
102
RTVSPropertyOp59
 70
     1
102
RTVSPropertyOp60
 70
     1
102
RTVSPropertyOp61
 70
     1
102
RTVSPropertyOp62
 70
     1
  0
XRECORD
  5
2F63
102
{ACAD_REACTORS
330
2F62
102
}
330
2F62
100
AcDbXrecord
280
     1
102
RTVSPost2010Prop28
280
     0
102
RTVSPost2010PropOp28
 70
     1
102
RTVSPost2010Prop29
280
     1
102
RTVSPost2010PropOp29
 70
     1
102
RTVSPost2010Prop30
280
     1
102
RTVSPost2010PropOp30
 70
     1
102
RTVSPost2010Prop31
280
     0
102
RTVSPost2010PropOp31
 70
     1
102
RTVSPost2010Prop32
280
     0
102
RTVSPost2010PropOp32
 70
     1
102
RTVSPost2010Prop33
280
     0
102
RTVSPost2010PropOp33
 70
     1
102
RTVSPost2010Prop34
280
     0
102
RTVSPost2010PropOp34
 70
     1
102
RTVSPost2010Prop35
280
     0
102
RTVSPost2010PropOp35
 70
     1
102
RTVSPost2010Prop36
280
     0
102
RTVSPost2010PropOp36
 70
     1
102
RTVSPost2010Prop37
 90
       50
102
RTVSPost2010PropOp37
 70
     0
102
RTVSPost2010Prop38
140
0.0
102
RTVSPost2010PropOp38
 70
     0
102
RTVSPost2010Prop39
140
1.0
102
RTVSPost2010PropOp39
 70
     0
102
RTVSPost2010Prop40
 90
        0
102
RTVSPost2010PropOp40
 70
     0
102
RTVSPost2010Prop41ColorIndex
 90
       18
102
RTVSPost2010Prop41ColorRGB
 90
        0
102
RTVSPost2010PropOp41
 70
     0
102
RTVSPost2010Prop42
 90
       50
102
RTVSPost2010PropOp42
 70
     0
102
RTVSPost2010Prop43
 90
        3
102
RTVSPost2010PropOp43
 70
     0
102
RTVSPost2010Prop44ColorIndex
 90
        5
102
RTVSPost2010Prop44ColorRGB
 90
      255
102
RTVSPost2010PropOp44
 70
     0
102
RTVSPost2010Prop45
280
     0
102
RTVSPost2010PropOp45
 70
     1
102
RTVSPost2010Prop46
 90
       50
102
RTVSPost2010PropOp46
 70
     0
102
RTVSPost2010Prop47
 90
       50
102
RTVSPost2010PropOp47
 70
     0
102
RTVSPost2010Prop48
 90
       50
102
RTVSPost2010PropOp48
 70
     0
102
RTVSPost2010Prop49
280
     0
102
RTVSPost2010PropOp49
 70
     1
102
RTVSPost2010Prop50
 90
       50
102
RTVSPost2010PropOp50
 70
     0
102
RTVSPost2010Prop51ColorIndex
 90
      256
102
RTVSPost2010Prop51ColorRGB
 90
-16777216
102
RTVSPost2010PropOp51
 70
     0
102
RTVSPost2010Prop52
140
1.0
102
RTVSPost2010PropOp52
 70
     0
102
RTVSPost2010Prop53
 90
        2
102
RTVSPost2010PropOp53
 70
     0
102
RTVSPost2010Prop54
  1
strokes_ogs.tif
102
RTVSPost2010PropOp54
 70
     0
102
RTVSPost2010Prop55
280
     0
102
RTVSPost2010PropOp55
 70
     1
102
RTVSPost2010Prop56
140
1.0
102
RTVSPost2010PropOp56
 70
     0
102
RTVSPost2010Prop57
140
1.0
102
RTVSPost2010PropOp57
 70
     0
102
RTVSPropertyOp0
 70
     0
102
RTVSPropertyOp1
 70
     0
102
RTVSPropertyOp2
 70
     0
102
RTVSPropertyOp3
 70
     0
102
RTVSPropertyOp4
 70
     0
102
RTVSPropertyOp5
 70
     0
102
RTVSPropertyOp6
 70
     0
102
RTVSPropertyOp7
 70
     0
102
RTVSPropertyOp8
 70
     0
102
RTVSPropertyOp9
 70
     0
102
RTVSPropertyOp10
 70
     0
102
RTVSPropertyOp11
 70
     0
102
RTVSPropertyOp12
 70
     0
102
RTVSPropertyOp13
 70
     0
102
RTVSPropertyOp14
 70
     2
102
RTVSPropertyOp15
 70
     0
102
RTVSPropertyOp16
 70
     0
102
RTVSPropertyOp17
 70
     0
102
RTVSPropertyOp18
 70
     0
102
RTVSPropertyOp19
 70
     0
102
RTVSPropertyOp20
 70
     0
102
RTVSPropertyOp21
 70
     0
102
RTVSPropertyOp22
 70
     0
102
RTVSPropertyOp23
 70
     0
102
RTVSPropertyOp24
 70
     0
102
RTVSPropertyOp25
 70
     0
102
RTVSPropertyOp26
 70
     0
102
RTVSPropertyOp27
 70
     0
102
RTVSPropertyOp28
 70
     1
102
RTVSPropertyOp29
 70
     1
102
RTVSPropertyOp30
 70
     1
102
RTVSPropertyOp31
 70
     1
102
RTVSPropertyOp32
 70
     1
102
RTVSPropertyOp33
 70
     1
102
RTVSPropertyOp34
 70
     1
102
RTVSPropertyOp35
 70
     1
102
RTVSPropertyOp36
 70
     1
102
RTVSPropertyOp37
 70
     0
102
RTVSPropertyOp38
 70
     0
102
RTVSPropertyOp39
 70
     0
102
RTVSPropertyOp40
 70
     0
102
RTVSPropertyOp41
 70
     0
102
RTVSPropertyOp42
 70
     0
102
RTVSPropertyOp43
 70
     0
102
RTVSPropertyOp44
 70
     0
102
RTVSPropertyOp45
 70
     1
102
RTVSPropertyOp46
 70
     0
102
RTVSPropertyOp47
 70
     0
102
RTVSPropertyOp48
 70
     0
102
RTVSPropertyOp49
 70
     1
102
RTVSPropertyOp50
 70
     0
102
RTVSPropertyOp51
 70
     0
102
RTVSPropertyOp52
 70
     0
102
RTVSPropertyOp53
 70
     0
102
RTVSPropertyOp54
 70
     0
102
RTVSPropertyOp55
 70
     1
102
RTVSPropertyOp56
 70
     0
102
RTVSPropertyOp57
 70
     0
102
RTVSPropertyOp58
 70
     0
102
RTVSPropertyOp59
 70
     0
102
RTVSPropertyOp60
 70
     0
102
RTVSPropertyOp61
 70
     0
102
RTVSPropertyOp62
 70
     0
  0
XRECORD
  5
2F51
102
{ACAD_REACTORS
330
2F50
102
}
330
2F50
100
AcDbXrecord
280
     1
102
RTVSPost2010Prop28
280
     0
102
RTVSPost2010PropOp28
 70
     1
102
RTVSPost2010Prop29
280
     1
102
RTVSPost2010PropOp29
 70
     1
102
RTVSPost2010Prop30
280
     1
102
RTVSPost2010PropOp30
 70
     1
102
RTVSPost2010Prop31
280
     0
102
RTVSPost2010PropOp31
 70
     1
102
RTVSPost2010Prop32
280
     0
102
RTVSPost2010PropOp32
 70
     1
102
RTVSPost2010Prop33
280
     0
102
RTVSPost2010PropOp33
 70
     1
102
RTVSPost2010Prop34
280
     0
102
RTVSPost2010PropOp34
 70
     1
102
RTVSPost2010Prop35
280
     0
102
RTVSPost2010PropOp35
 70
     1
102
RTVSPost2010Prop36
280
     0
102
RTVSPost2010PropOp36
 70
     1
102
RTVSPost2010Prop37
 90
       50
102
RTVSPost2010PropOp37
 70
     1
102
RTVSPost2010Prop38
140
0.0
102
RTVSPost2010PropOp38
 70
     1
102
RTVSPost2010Prop39
140
1.0
102
RTVSPost2010PropOp39
 70
     1
102
RTVSPost2010Prop40
 90
        0
102
RTVSPost2010PropOp40
 70
     1
102
RTVSPost2010Prop41ColorIndex
 90
       18
102
RTVSPost2010Prop41ColorRGB
 90
        0
102
RTVSPost2010PropOp41
 70
     1
102
RTVSPost2010Prop42
 90
       50
102
RTVSPost2010PropOp42
 70
     1
102
RTVSPost2010Prop43
 90
        3
102
RTVSPost2010PropOp43
 70
     1
102
RTVSPost2010Prop44ColorIndex
 90
        5
102
RTVSPost2010Prop44ColorRGB
 90
      255
102
RTVSPost2010PropOp44
 70
     1
102
RTVSPost2010Prop45
280
     0
102
RTVSPost2010PropOp45
 70
     1
102
RTVSPost2010Prop46
 90
       50
102
RTVSPost2010PropOp46
 70
     1
102
RTVSPost2010Prop47
 90
       50
102
RTVSPost2010PropOp47
 70
     1
102
RTVSPost2010Prop48
 90
       50
102
RTVSPost2010PropOp48
 70
     1
102
RTVSPost2010Prop49
280
     0
102
RTVSPost2010PropOp49
 70
     1
102
RTVSPost2010Prop50
 90
       50
102
RTVSPost2010PropOp50
 70
     1
102
RTVSPost2010Prop51ColorIndex
 90
      256
102
RTVSPost2010Prop51ColorRGB
 90
-16777216
102
RTVSPost2010PropOp51
 70
     0
102
RTVSPost2010Prop52
140
1.0
102
RTVSPost2010PropOp52
 70
     0
102
RTVSPost2010Prop53
 90
        2
102
RTVSPost2010PropOp53
 70
     1
102
RTVSPost2010Prop54
  1
strokes_ogs.tif
102
RTVSPost2010PropOp54
 70
     1
102
RTVSPost2010Prop55
280
     0
102
RTVSPost2010PropOp55
 70
     1
102
RTVSPost2010Prop56
140
1.0
102
RTVSPost2010PropOp56
 70
     1
102
RTVSPost2010Prop57
140
1.0
102
RTVSPost2010PropOp57
 70
     1
102
RTVSPropertyOp0
 70
     1
102
RTVSPropertyOp1
 70
     1
102
RTVSPropertyOp2
 70
     1
102
RTVSPropertyOp3
 70
     1
102
RTVSPropertyOp4
 70
     1
102
RTVSPropertyOp5
 70
     1
102
RTVSPropertyOp6
 70
     1
102
RTVSPropertyOp7
 70
     1
102
RTVSPropertyOp8
 70
     1
102
RTVSPropertyOp9
 70
     1
102
RTVSPropertyOp10
 70
     1
102
RTVSPropertyOp11
 70
     1
102
RTVSPropertyOp12
 70
     1
102
RTVSPropertyOp13
 70
     1
102
RTVSPropertyOp14
 70
     1
102
RTVSPropertyOp15
 70
     1
102
RTVSPropertyOp16
 70
     1
102
RTVSPropertyOp17
 70
     1
102
RTVSPropertyOp18
 70
     1
102
RTVSPropertyOp19
 70
     1
102
RTVSPropertyOp20
 70
     1
102
RTVSPropertyOp21
 70
     1
102
RTVSPropertyOp22
 70
     1
102
RTVSPropertyOp23
 70
     1
102
RTVSPropertyOp24
 70
     1
102
RTVSPropertyOp25
 70
     1
102
RTVSPropertyOp26
 70
     1
102
RTVSPropertyOp27
 70
     1
102
RTVSPropertyOp28
 70
     1
102
RTVSPropertyOp29
 70
     1
102
RTVSPropertyOp30
 70
     1
102
RTVSPropertyOp31
 70
     1
102
RTVSPropertyOp32
 70
     1
102
RTVSPropertyOp33
 70
     1
102
RTVSPropertyOp34
 70
     1
102
RTVSPropertyOp35
 70
     1
102
RTVSPropertyOp36
 70
     1
102
RTVSPropertyOp37
 70
     1
102
RTVSPropertyOp38
 70
     1
102
RTVSPropertyOp39
 70
     1
102
RTVSPropertyOp40
 70
     1
102
RTVSPropertyOp41
 70
     1
102
RTVSPropertyOp42
 70
     1
102
RTVSPropertyOp43
 70
     1
102
RTVSPropertyOp44
 70
     1
102
RTVSPropertyOp45
 70
     1
102
RTVSPropertyOp46
 70
     1
102
RTVSPropertyOp47
 70
     1
102
RTVSPropertyOp48
 70
     1
102
RTVSPropertyOp49
 70
     1
102
RTVSPropertyOp50
 70
     1
102
RTVSPropertyOp51
 70
     0
102
RTVSPropertyOp52
 70
     0
102
RTVSPropertyOp53
 70
     1
102
RTVSPropertyOp54
 70
     1
102
RTVSPropertyOp55
 70
     1
102
RTVSPropertyOp56
 70
     1
102
RTVSPropertyOp57
 70
     1
102
RTVSPropertyOp58
 70
     1
102
RTVSPropertyOp59
 70
     1
102
RTVSPropertyOp60
 70
     1
102
RTVSPropertyOp61
 70
     1
102
RTVSPropertyOp62
 70
     1
  0
XRECORD
  5
2F35
102
{ACAD_REACTORS
330
2F34
102
}
330
2F34
100
AcDbXrecord
280
     1
102
RTVSPost2010Prop28
280
     0
102
RTVSPost2010PropOp28
 70
     1
102
RTVSPost2010Prop29
280
     1
102
RTVSPost2010PropOp29
 70
     1
102
RTVSPost2010Prop30
280
     1
102
RTVSPost2010PropOp30
 70
     1
102
RTVSPost2010Prop31
280
     0
102
RTVSPost2010PropOp31
 70
     1
102
RTVSPost2010Prop32
280
     0
102
RTVSPost2010PropOp32
 70
     1
102
RTVSPost2010Prop33
280
     0
102
RTVSPost2010PropOp33
 70
     1
102
RTVSPost2010Prop34
280
     0
102
RTVSPost2010PropOp34
 70
     1
102
RTVSPost2010Prop35
280
     0
102
RTVSPost2010PropOp35
 70
     1
102
RTVSPost2010Prop36
280
     0
102
RTVSPost2010PropOp36
 70
     1
102
RTVSPost2010Prop37
 90
       50
102
RTVSPost2010PropOp37
 70
     1
102
RTVSPost2010Prop38
140
0.0
102
RTVSPost2010PropOp38
 70
     1
102
RTVSPost2010Prop39
140
1.0
102
RTVSPost2010PropOp39
 70
     1
102
RTVSPost2010Prop40
 90
        0
102
RTVSPost2010PropOp40
 70
     1
102
RTVSPost2010Prop41ColorIndex
 90
       18
102
RTVSPost2010Prop41ColorRGB
 90
        0
102
RTVSPost2010PropOp41
 70
     1
102
RTVSPost2010Prop42
 90
       50
102
RTVSPost2010PropOp42
 70
     1
102
RTVSPost2010Prop43
 90
        3
102
RTVSPost2010PropOp43
 70
     1
102
RTVSPost2010Prop44ColorIndex
 90
        5
102
RTVSPost2010Prop44ColorRGB
 90
      255
102
RTVSPost2010PropOp44
 70
     1
102
RTVSPost2010Prop45
280
     0
102
RTVSPost2010PropOp45
 70
     1
102
RTVSPost2010Prop46
 90
       50
102
RTVSPost2010PropOp46
 70
     1
102
RTVSPost2010Prop47
 90
       50
102
RTVSPost2010PropOp47
 70
     1
102
RTVSPost2010Prop48
 90
       50
102
RTVSPost2010PropOp48
 70
     1
102
RTVSPost2010Prop49
280
     0
102
RTVSPost2010PropOp49
 70
     1
102
RTVSPost2010Prop50
 90
       50
102
RTVSPost2010PropOp50
 70
     1
102
RTVSPost2010Prop51ColorIndex
 90
      256
102
RTVSPost2010Prop51ColorRGB
 90
-16777216
102
RTVSPost2010PropOp51
 70
     0
102
RTVSPost2010Prop52
140
1.0
102
RTVSPost2010PropOp52
 70
     0
102
RTVSPost2010Prop53
 90
        2
102
RTVSPost2010PropOp53
 70
     1
102
RTVSPost2010Prop54
  1
strokes_ogs.tif
102
RTVSPost2010PropOp54
 70
     1
102
RTVSPost2010Prop55
280
     0
102
RTVSPost2010PropOp55
 70
     1
102
RTVSPost2010Prop56
140
1.0
102
RTVSPost2010PropOp56
 70
     1
102
RTVSPost2010Prop57
140
1.0
102
RTVSPost2010PropOp57
 70
     1
102
RTVSPropertyOp0
 70
     1
102
RTVSPropertyOp1
 70
     1
102
RTVSPropertyOp2
 70
     1
102
RTVSPropertyOp3
 70
     1
102
RTVSPropertyOp4
 70
     1
102
RTVSPropertyOp5
 70
     1
102
RTVSPropertyOp6
 70
     1
102
RTVSPropertyOp7
 70
     1
102
RTVSPropertyOp8
 70
     1
102
RTVSPropertyOp9
 70
     1
102
RTVSPropertyOp10
 70
     1
102
RTVSPropertyOp11
 70
     1
102
RTVSPropertyOp12
 70
     1
102
RTVSPropertyOp13
 70
     1
102
RTVSPropertyOp14
 70
     1
102
RTVSPropertyOp15
 70
     1
102
RTVSPropertyOp16
 70
     1
102
RTVSPropertyOp17
 70
     1
102
RTVSPropertyOp18
 70
     1
102
RTVSPropertyOp19
 70
     1
102
RTVSPropertyOp20
 70
     1
102
RTVSPropertyOp21
 70
     1
102
RTVSPropertyOp22
 70
     1
102
RTVSPropertyOp23
 70
     1
102
RTVSPropertyOp24
 70
     1
102
RTVSPropertyOp25
 70
     1
102
RTVSPropertyOp26
 70
     1
102
RTVSPropertyOp27
 70
     1
102
RTVSPropertyOp28
 70
     1
102
RTVSPropertyOp29
 70
     1
102
RTVSPropertyOp30
 70
     1
102
RTVSPropertyOp31
 70
     1
102
RTVSPropertyOp32
 70
     1
102
RTVSPropertyOp33
 70
     1
102
RTVSPropertyOp34
 70
     1
102
RTVSPropertyOp35
 70
     1
102
RTVSPropertyOp36
 70
     1
102
RTVSPropertyOp37
 70
     1
102
RTVSPropertyOp38
 70
     1
102
RTVSPropertyOp39
 70
     1
102
RTVSPropertyOp40
 70
     1
102
RTVSPropertyOp41
 70
     1
102
RTVSPropertyOp42
 70
     1
102
RTVSPropertyOp43
 70
     1
102
RTVSPropertyOp44
 70
     1
102
RTVSPropertyOp45
 70
     1
102
RTVSPropertyOp46
 70
     1
102
RTVSPropertyOp47
 70
     1
102
RTVSPropertyOp48
 70
     1
102
RTVSPropertyOp49
 70
     1
102
RTVSPropertyOp50
 70
     1
102
RTVSPropertyOp51
 70
     0
102
RTVSPropertyOp52
 70
     0
102
RTVSPropertyOp53
 70
     1
102
RTVSPropertyOp54
 70
     1
102
RTVSPropertyOp55
 70
     1
102
RTVSPropertyOp56
 70
     1
102
RTVSPropertyOp57
 70
     1
102
RTVSPropertyOp58
 70
     1
102
RTVSPropertyOp59
 70
     1
102
RTVSPropertyOp60
 70
     1
102
RTVSPropertyOp61
 70
     1
102
RTVSPropertyOp62
 70
     1
  0
XRECORD
  5
2F37
102
{ACAD_REACTORS
330
2F36
102
}
330
2F36
100
AcDbXrecord
280
     1
102
RTVSPost2010Prop28
280
     0
102
RTVSPost2010PropOp28
 70
     1
102
RTVSPost2010Prop29
280
     1
102
RTVSPost2010PropOp29
 70
     1
102
RTVSPost2010Prop30
280
     1
102
RTVSPost2010PropOp30
 70
     1
102
RTVSPost2010Prop31
280
     0
102
RTVSPost2010PropOp31
 70
     1
102
RTVSPost2010Prop32
280
     0
102
RTVSPost2010PropOp32
 70
     1
102
RTVSPost2010Prop33
280
     0
102
RTVSPost2010PropOp33
 70
     1
102
RTVSPost2010Prop34
280
     0
102
RTVSPost2010PropOp34
 70
     1
102
RTVSPost2010Prop35
280
     0
102
RTVSPost2010PropOp35
 70
     1
102
RTVSPost2010Prop36
280
     0
102
RTVSPost2010PropOp36
 70
     1
102
RTVSPost2010Prop37
 90
       50
102
RTVSPost2010PropOp37
 70
     1
102
RTVSPost2010Prop38
140
0.0
102
RTVSPost2010PropOp38
 70
     1
102
RTVSPost2010Prop39
140
1.0
102
RTVSPost2010PropOp39
 70
     1
102
RTVSPost2010Prop40
 90
        0
102
RTVSPost2010PropOp40
 70
     1
102
RTVSPost2010Prop41ColorIndex
 90
       18
102
RTVSPost2010Prop41ColorRGB
 90
        0
102
RTVSPost2010PropOp41
 70
     1
102
RTVSPost2010Prop42
 90
       50
102
RTVSPost2010PropOp42
 70
     1
102
RTVSPost2010Prop43
 90
        3
102
RTVSPost2010PropOp43
 70
     1
102
RTVSPost2010Prop44ColorIndex
 90
        5
102
RTVSPost2010Prop44ColorRGB
 90
      255
102
RTVSPost2010PropOp44
 70
     1
102
RTVSPost2010Prop45
280
     0
102
RTVSPost2010PropOp45
 70
     1
102
RTVSPost2010Prop46
 90
       50
102
RTVSPost2010PropOp46
 70
     1
102
RTVSPost2010Prop47
 90
       50
102
RTVSPost2010PropOp47
 70
     1
102
RTVSPost2010Prop48
 90
       50
102
RTVSPost2010PropOp48
 70
     1
102
RTVSPost2010Prop49
280
     0
102
RTVSPost2010PropOp49
 70
     1
102
RTVSPost2010Prop50
 90
       50
102
RTVSPost2010PropOp50
 70
     1
102
RTVSPost2010Prop51ColorIndex
 90
      256
102
RTVSPost2010Prop51ColorRGB
 90
-16777216
102
RTVSPost2010PropOp51
 70
     0
102
RTVSPost2010Prop52
140
1.0
102
RTVSPost2010PropOp52
 70
     0
102
RTVSPost2010Prop53
 90
        2
102
RTVSPost2010PropOp53
 70
     1
102
RTVSPost2010Prop54
  1
strokes_ogs.tif
102
RTVSPost2010PropOp54
 70
     1
102
RTVSPost2010Prop55
280
     0
102
RTVSPost2010PropOp55
 70
     1
102
RTVSPost2010Prop56
140
1.0
102
RTVSPost2010PropOp56
 70
     1
102
RTVSPost2010Prop57
140
1.0
102
RTVSPost2010PropOp57
 70
     1
102
RTVSPropertyOp0
 70
     1
102
RTVSPropertyOp1
 70
     1
102
RTVSPropertyOp2
 70
     1
102
RTVSPropertyOp3
 70
     1
102
RTVSPropertyOp4
 70
     1
102
RTVSPropertyOp5
 70
     1
102
RTVSPropertyOp6
 70
     1
102
RTVSPropertyOp7
 70
     1
102
RTVSPropertyOp8
 70
     1
102
RTVSPropertyOp9
 70
     1
102
RTVSPropertyOp10
 70
     1
102
RTVSPropertyOp11
 70
     1
102
RTVSPropertyOp12
 70
     1
102
RTVSPropertyOp13
 70
     1
102
RTVSPropertyOp14
 70
     1
102
RTVSPropertyOp15
 70
     1
102
RTVSPropertyOp16
 70
     1
102
RTVSPropertyOp17
 70
     1
102
RTVSPropertyOp18
 70
     1
102
RTVSPropertyOp19
 70
     1
102
RTVSPropertyOp20
 70
     1
102
RTVSPropertyOp21
 70
     1
102
RTVSPropertyOp22
 70
     1
102
RTVSPropertyOp23
 70
     1
102
RTVSPropertyOp24
 70
     1
102
RTVSPropertyOp25
 70
     1
102
RTVSPropertyOp26
 70
     1
102
RTVSPropertyOp27
 70
     1
102
RTVSPropertyOp28
 70
     1
102
RTVSPropertyOp29
 70
     1
102
RTVSPropertyOp30
 70
     1
102
RTVSPropertyOp31
 70
     1
102
RTVSPropertyOp32
 70
     1
102
RTVSPropertyOp33
 70
     1
102
RTVSPropertyOp34
 70
     1
102
RTVSPropertyOp35
 70
     1
102
RTVSPropertyOp36
 70
     1
102
RTVSPropertyOp37
 70
     1
102
RTVSPropertyOp38
 70
     1
102
RTVSPropertyOp39
 70
     1
102
RTVSPropertyOp40
 70
     1
102
RTVSPropertyOp41
 70
     1
102
RTVSPropertyOp42
 70
     1
102
RTVSPropertyOp43
 70
     1
102
RTVSPropertyOp44
 70
     1
102
RTVSPropertyOp45
 70
     1
102
RTVSPropertyOp46
 70
     1
102
RTVSPropertyOp47
 70
     1
102
RTVSPropertyOp48
 70
     1
102
RTVSPropertyOp49
 70
     1
102
RTVSPropertyOp50
 70
     1
102
RTVSPropertyOp51
 70
     0
102
RTVSPropertyOp52
 70
     0
102
RTVSPropertyOp53
 70
     1
102
RTVSPropertyOp54
 70
     1
102
RTVSPropertyOp55
 70
     1
102
RTVSPropertyOp56
 70
     1
102
RTVSPropertyOp57
 70
     1
102
RTVSPropertyOp58
 70
     1
102
RTVSPropertyOp59
 70
     1
102
RTVSPropertyOp60
 70
     1
102
RTVSPropertyOp61
 70
     1
102
RTVSPropertyOp62
 70
     1
  0
XRECORD
  5
2F39
102
{ACAD_REACTORS
330
2F38
102
}
330
2F38
100
AcDbXrecord
280
     1
102
RTVSPost2010Prop28
280
     0
102
RTVSPost2010PropOp28
 70
     1
102
RTVSPost2010Prop29
280
     1
102
RTVSPost2010PropOp29
 70
     1
102
RTVSPost2010Prop30
280
     1
102
RTVSPost2010PropOp30
 70
     1
102
RTVSPost2010Prop31
280
     0
102
RTVSPost2010PropOp31
 70
     1
102
RTVSPost2010Prop32
280
     0
102
RTVSPost2010PropOp32
 70
     1
102
RTVSPost2010Prop33
280
     0
102
RTVSPost2010PropOp33
 70
     1
102
RTVSPost2010Prop34
280
     0
102
RTVSPost2010PropOp34
 70
     1
102
RTVSPost2010Prop35
280
     0
102
RTVSPost2010PropOp35
 70
     1
102
RTVSPost2010Prop36
280
     0
102
RTVSPost2010PropOp36
 70
     1
102
RTVSPost2010Prop37
 90
       50
102
RTVSPost2010PropOp37
 70
     1
102
RTVSPost2010Prop38
140
0.0
102
RTVSPost2010PropOp38
 70
     1
102
RTVSPost2010Prop39
140
1.0
102
RTVSPost2010PropOp39
 70
     1
102
RTVSPost2010Prop40
 90
        0
102
RTVSPost2010PropOp40
 70
     1
102
RTVSPost2010Prop41ColorIndex
 90
       18
102
RTVSPost2010Prop41ColorRGB
 90
        0
102
RTVSPost2010PropOp41
 70
     1
102
RTVSPost2010Prop42
 90
       50
102
RTVSPost2010PropOp42
 70
     1
102
RTVSPost2010Prop43
 90
        3
102
RTVSPost2010PropOp43
 70
     1
102
RTVSPost2010Prop44ColorIndex
 90
        5
102
RTVSPost2010Prop44ColorRGB
 90
      255
102
RTVSPost2010PropOp44
 70
     1
102
RTVSPost2010Prop45
280
     0
102
RTVSPost2010PropOp45
 70
     1
102
RTVSPost2010Prop46
 90
       50
102
RTVSPost2010PropOp46
 70
     1
102
RTVSPost2010Prop47
 90
       50
102
RTVSPost2010PropOp47
 70
     1
102
RTVSPost2010Prop48
 90
       50
102
RTVSPost2010PropOp48
 70
     1
102
RTVSPost2010Prop49
280
     0
102
RTVSPost2010PropOp49
 70
     1
102
RTVSPost2010Prop50
 90
       50
102
RTVSPost2010PropOp50
 70
     1
102
RTVSPost2010Prop51ColorIndex
 90
      256
102
RTVSPost2010Prop51ColorRGB
 90
-16777216
102
RTVSPost2010PropOp51
 70
     0
102
RTVSPost2010Prop52
140
1.0
102
RTVSPost2010PropOp52
 70
     0
102
RTVSPost2010Prop53
 90
        2
102
RTVSPost2010PropOp53
 70
     1
102
RTVSPost2010Prop54
  1
strokes_ogs.tif
102
RTVSPost2010PropOp54
 70
     1
102
RTVSPost2010Prop55
280
     0
102
RTVSPost2010PropOp55
 70
     1
102
RTVSPost2010Prop56
140
1.0
102
RTVSPost2010PropOp56
 70
     1
102
RTVSPost2010Prop57
140
1.0
102
RTVSPost2010PropOp57
 70
     1
102
RTVSPropertyOp0
 70
     1
102
RTVSPropertyOp1
 70
     1
102
RTVSPropertyOp2
 70
     1
102
RTVSPropertyOp3
 70
     1
102
RTVSPropertyOp4
 70
     1
102
RTVSPropertyOp5
 70
     1
102
RTVSPropertyOp6
 70
     1
102
RTVSPropertyOp7
 70
     1
102
RTVSPropertyOp8
 70
     1
102
RTVSPropertyOp9
 70
     1
102
RTVSPropertyOp10
 70
     1
102
RTVSPropertyOp11
 70
     1
102
RTVSPropertyOp12
 70
     1
102
RTVSPropertyOp13
 70
     1
102
RTVSPropertyOp14
 70
     1
102
RTVSPropertyOp15
 70
     1
102
RTVSPropertyOp16
 70
     1
102
RTVSPropertyOp17
 70
     1
102
RTVSPropertyOp18
 70
     1
102
RTVSPropertyOp19
 70
     1
102
RTVSPropertyOp20
 70
     1
102
RTVSPropertyOp21
 70
     1
102
RTVSPropertyOp22
 70
     1
102
RTVSPropertyOp23
 70
     1
102
RTVSPropertyOp24
 70
     1
102
RTVSPropertyOp25
 70
     1
102
RTVSPropertyOp26
 70
     1
102
RTVSPropertyOp27
 70
     1
102
RTVSPropertyOp28
 70
     1
102
RTVSPropertyOp29
 70
     1
102
RTVSPropertyOp30
 70
     1
102
RTVSPropertyOp31
 70
     1
102
RTVSPropertyOp32
 70
     1
102
RTVSPropertyOp33
 70
     1
102
RTVSPropertyOp34
 70
     1
102
RTVSPropertyOp35
 70
     1
102
RTVSPropertyOp36
 70
     1
102
RTVSPropertyOp37
 70
     1
102
RTVSPropertyOp38
 70
     1
102
RTVSPropertyOp39
 70
     1
102
RTVSPropertyOp40
 70
     1
102
RTVSPropertyOp41
 70
     1
102
RTVSPropertyOp42
 70
     1
102
RTVSPropertyOp43
 70
     1
102
RTVSPropertyOp44
 70
     1
102
RTVSPropertyOp45
 70
     1
102
RTVSPropertyOp46
 70
     1
102
RTVSPropertyOp47
 70
     1
102
RTVSPropertyOp48
 70
     1
102
RTVSPropertyOp49
 70
     1
102
RTVSPropertyOp50
 70
     1
102
RTVSPropertyOp51
 70
     0
102
RTVSPropertyOp52
 70
     0
102
RTVSPropertyOp53
 70
     1
102
RTVSPropertyOp54
 70
     1
102
RTVSPropertyOp55
 70
     1
102
RTVSPropertyOp56
 70
     1
102
RTVSPropertyOp57
 70
     1
102
RTVSPropertyOp58
 70
     1
102
RTVSPropertyOp59
 70
     1
102
RTVSPropertyOp60
 70
     1
102
RTVSPropertyOp61
 70
     1
102
RTVSPropertyOp62
 70
     1
  0
XRECORD
  5
2F3B
102
{ACAD_REACTORS
330
2F3A
102
}
330
2F3A
100
AcDbXrecord
280
     1
102
RTVSPost2010Prop28
280
     0
102
RTVSPost2010PropOp28
 70
     1
102
RTVSPost2010Prop29
280
     1
102
RTVSPost2010PropOp29
 70
     1
102
RTVSPost2010Prop30
280
     1
102
RTVSPost2010PropOp30
 70
     1
102
RTVSPost2010Prop31
280
     0
102
RTVSPost2010PropOp31
 70
     1
102
RTVSPost2010Prop32
280
     0
102
RTVSPost2010PropOp32
 70
     1
102
RTVSPost2010Prop33
280
     0
102
RTVSPost2010PropOp33
 70
     1
102
RTVSPost2010Prop34
280
     0
102
RTVSPost2010PropOp34
 70
     1
102
RTVSPost2010Prop35
280
     0
102
RTVSPost2010PropOp35
 70
     1
102
RTVSPost2010Prop36
280
     0
102
RTVSPost2010PropOp36
 70
     1
102
RTVSPost2010Prop37
 90
       50
102
RTVSPost2010PropOp37
 70
     1
102
RTVSPost2010Prop38
140
0.0
102
RTVSPost2010PropOp38
 70
     1
102
RTVSPost2010Prop39
140
1.0
102
RTVSPost2010PropOp39
 70
     1
102
RTVSPost2010Prop40
 90
        0
102
RTVSPost2010PropOp40
 70
     1
102
RTVSPost2010Prop41ColorIndex
 90
       18
102
RTVSPost2010Prop41ColorRGB
 90
        0
102
RTVSPost2010PropOp41
 70
     1
102
RTVSPost2010Prop42
 90
       50
102
RTVSPost2010PropOp42
 70
     1
102
RTVSPost2010Prop43
 90
        3
102
RTVSPost2010PropOp43
 70
     1
102
RTVSPost2010Prop44ColorIndex
 90
        5
102
RTVSPost2010Prop44ColorRGB
 90
      255
102
RTVSPost2010PropOp44
 70
     1
102
RTVSPost2010Prop45
280
     0
102
RTVSPost2010PropOp45
 70
     1
102
RTVSPost2010Prop46
 90
       50
102
RTVSPost2010PropOp46
 70
     1
102
RTVSPost2010Prop47
 90
       50
102
RTVSPost2010PropOp47
 70
     1
102
RTVSPost2010Prop48
 90
       50
102
RTVSPost2010PropOp48
 70
     1
102
RTVSPost2010Prop49
280
     0
102
RTVSPost2010PropOp49
 70
     1
102
RTVSPost2010Prop50
 90
       50
102
RTVSPost2010PropOp50
 70
     1
102
RTVSPost2010Prop51ColorIndex
 90
      256
102
RTVSPost2010Prop51ColorRGB
 90
-16777216
102
RTVSPost2010PropOp51
 70
     0
102
RTVSPost2010Prop52
140
1.0
102
RTVSPost2010PropOp52
 70
     0
102
RTVSPost2010Prop53
 90
        2
102
RTVSPost2010PropOp53
 70
     1
102
RTVSPost2010Prop54
  1
strokes_ogs.tif
102
RTVSPost2010PropOp54
 70
     1
102
RTVSPost2010Prop55
280
     0
102
RTVSPost2010PropOp55
 70
     1
102
RTVSPost2010Prop56
140
1.0
102
RTVSPost2010PropOp56
 70
     1
102
RTVSPost2010Prop57
140
1.0
102
RTVSPost2010PropOp57
 70
     1
102
RTVSPropertyOp0
 70
     1
102
RTVSPropertyOp1
 70
     1
102
RTVSPropertyOp2
 70
     1
102
RTVSPropertyOp3
 70
     1
102
RTVSPropertyOp4
 70
     1
102
RTVSPropertyOp5
 70
     1
102
RTVSPropertyOp6
 70
     1
102
RTVSPropertyOp7
 70
     1
102
RTVSPropertyOp8
 70
     1
102
RTVSPropertyOp9
 70
     1
102
RTVSPropertyOp10
 70
     1
102
RTVSPropertyOp11
 70
     1
102
RTVSPropertyOp12
 70
     1
102
RTVSPropertyOp13
 70
     1
102
RTVSPropertyOp14
 70
     1
102
RTVSPropertyOp15
 70
     1
102
RTVSPropertyOp16
 70
     1
102
RTVSPropertyOp17
 70
     1
102
RTVSPropertyOp18
 70
     1
102
RTVSPropertyOp19
 70
     1
102
RTVSPropertyOp20
 70
     1
102
RTVSPropertyOp21
 70
     1
102
RTVSPropertyOp22
 70
     1
102
RTVSPropertyOp23
 70
     1
102
RTVSPropertyOp24
 70
     1
102
RTVSPropertyOp25
 70
     1
102
RTVSPropertyOp26
 70
     1
102
RTVSPropertyOp27
 70
     1
102
RTVSPropertyOp28
 70
     1
102
RTVSPropertyOp29
 70
     1
102
RTVSPropertyOp30
 70
     1
102
RTVSPropertyOp31
 70
     1
102
RTVSPropertyOp32
 70
     1
102
RTVSPropertyOp33
 70
     1
102
RTVSPropertyOp34
 70
     1
102
RTVSPropertyOp35
 70
     1
102
RTVSPropertyOp36
 70
     1
102
RTVSPropertyOp37
 70
     1
102
RTVSPropertyOp38
 70
     1
102
RTVSPropertyOp39
 70
     1
102
RTVSPropertyOp40
 70
     1
102
RTVSPropertyOp41
 70
     1
102
RTVSPropertyOp42
 70
     1
102
RTVSPropertyOp43
 70
     1
102
RTVSPropertyOp44
 70
     1
102
RTVSPropertyOp45
 70
     1
102
RTVSPropertyOp46
 70
     1
102
RTVSPropertyOp47
 70
     1
102
RTVSPropertyOp48
 70
     1
102
RTVSPropertyOp49
 70
     1
102
RTVSPropertyOp50
 70
     1
102
RTVSPropertyOp51
 70
     0
102
RTVSPropertyOp52
 70
     0
102
RTVSPropertyOp53
 70
     1
102
RTVSPropertyOp54
 70
     1
102
RTVSPropertyOp55
 70
     1
102
RTVSPropertyOp56
 70
     1
102
RTVSPropertyOp57
 70
     1
102
RTVSPropertyOp58
 70
     1
102
RTVSPropertyOp59
 70
     1
102
RTVSPropertyOp60
 70
     1
102
RTVSPropertyOp61
 70
     1
102
RTVSPropertyOp62
 70
     1
  0
XRECORD
  5
2F43
102
{ACAD_REACTORS
330
2F42
102
}
330
2F42
100
AcDbXrecord
280
     1
102
RTVSPost2010Prop28
280
     0
102
RTVSPost2010PropOp28
 70
     1
102
RTVSPost2010Prop29
280
     1
102
RTVSPost2010PropOp29
 70
     1
102
RTVSPost2010Prop30
280
     1
102
RTVSPost2010PropOp30
 70
     1
102
RTVSPost2010Prop31
280
     0
102
RTVSPost2010PropOp31
 70
     1
102
RTVSPost2010Prop32
280
     0
102
RTVSPost2010PropOp32
 70
     1
102
RTVSPost2010Prop33
280
     0
102
RTVSPost2010PropOp33
 70
     1
102
RTVSPost2010Prop34
280
     0
102
RTVSPost2010PropOp34
 70
     1
102
RTVSPost2010Prop35
280
     0
102
RTVSPost2010PropOp35
 70
     1
102
RTVSPost2010Prop36
280
     0
102
RTVSPost2010PropOp36
 70
     1
102
RTVSPost2010Prop37
 90
       50
102
RTVSPost2010PropOp37
 70
     1
102
RTVSPost2010Prop38
140
0.0
102
RTVSPost2010PropOp38
 70
     1
102
RTVSPost2010Prop39
140
1.0
102
RTVSPost2010PropOp39
 70
     1
102
RTVSPost2010Prop40
 90
        0
102
RTVSPost2010PropOp40
 70
     1
102
RTVSPost2010Prop41ColorIndex
 90
       18
102
RTVSPost2010Prop41ColorRGB
 90
        0
102
RTVSPost2010PropOp41
 70
     1
102
RTVSPost2010Prop42
 90
       50
102
RTVSPost2010PropOp42
 70
     1
102
RTVSPost2010Prop43
 90
        3
102
RTVSPost2010PropOp43
 70
     1
102
RTVSPost2010Prop44ColorIndex
 90
        5
102
RTVSPost2010Prop44ColorRGB
 90
      255
102
RTVSPost2010PropOp44
 70
     1
102
RTVSPost2010Prop45
280
     0
102
RTVSPost2010PropOp45
 70
     1
102
RTVSPost2010Prop46
 90
       50
102
RTVSPost2010PropOp46
 70
     1
102
RTVSPost2010Prop47
 90
       50
102
RTVSPost2010PropOp47
 70
     1
102
RTVSPost2010Prop48
 90
       50
102
RTVSPost2010PropOp48
 70
     1
102
RTVSPost2010Prop49
280
     0
102
RTVSPost2010PropOp49
 70
     1
102
RTVSPost2010Prop50
 90
       50
102
RTVSPost2010PropOp50
 70
     1
102
RTVSPost2010Prop51ColorIndex
 90
      256
102
RTVSPost2010Prop51ColorRGB
 90
-16777216
102
RTVSPost2010PropOp51
 70
     0
102
RTVSPost2010Prop52
140
1.0
102
RTVSPost2010PropOp52
 70
     0
102
RTVSPost2010Prop53
 90
        2
102
RTVSPost2010PropOp53
 70
     1
102
RTVSPost2010Prop54
  1
strokes_ogs.tif
102
RTVSPost2010PropOp54
 70
     1
102
RTVSPost2010Prop55
280
     0
102
RTVSPost2010PropOp55
 70
     1
102
RTVSPost2010Prop56
140
1.0
102
RTVSPost2010PropOp56
 70
     1
102
RTVSPost2010Prop57
140
1.0
102
RTVSPost2010PropOp57
 70
     1
102
RTVSPropertyOp0
 70
     1
102
RTVSPropertyOp1
 70
     1
102
RTVSPropertyOp2
 70
     1
102
RTVSPropertyOp3
 70
     1
102
RTVSPropertyOp4
 70
     1
102
RTVSPropertyOp5
 70
     1
102
RTVSPropertyOp6
 70
     1
102
RTVSPropertyOp7
 70
     1
102
RTVSPropertyOp8
 70
     1
102
RTVSPropertyOp9
 70
     1
102
RTVSPropertyOp10
 70
     1
102
RTVSPropertyOp11
 70
     1
102
RTVSPropertyOp12
 70
     1
102
RTVSPropertyOp13
 70
     1
102
RTVSPropertyOp14
 70
     1
102
RTVSPropertyOp15
 70
     1
102
RTVSPropertyOp16
 70
     1
102
RTVSPropertyOp17
 70
     1
102
RTVSPropertyOp18
 70
     1
102
RTVSPropertyOp19
 70
     1
102
RTVSPropertyOp20
 70
     1
102
RTVSPropertyOp21
 70
     1
102
RTVSPropertyOp22
 70
     1
102
RTVSPropertyOp23
 70
     1
102
RTVSPropertyOp24
 70
     1
102
RTVSPropertyOp25
 70
     1
102
RTVSPropertyOp26
 70
     1
102
RTVSPropertyOp27
 70
     1
102
RTVSPropertyOp28
 70
     1
102
RTVSPropertyOp29
 70
     1
102
RTVSPropertyOp30
 70
     1
102
RTVSPropertyOp31
 70
     1
102
RTVSPropertyOp32
 70
     1
102
RTVSPropertyOp33
 70
     1
102
RTVSPropertyOp34
 70
     1
102
RTVSPropertyOp35
 70
     1
102
RTVSPropertyOp36
 70
     1
102
RTVSPropertyOp37
 70
     1
102
RTVSPropertyOp38
 70
     1
102
RTVSPropertyOp39
 70
     1
102
RTVSPropertyOp40
 70
     1
102
RTVSPropertyOp41
 70
     1
102
RTVSPropertyOp42
 70
     1
102
RTVSPropertyOp43
 70
     1
102
RTVSPropertyOp44
 70
     1
102
RTVSPropertyOp45
 70
     1
102
RTVSPropertyOp46
 70
     1
102
RTVSPropertyOp47
 70
     1
102
RTVSPropertyOp48
 70
     1
102
RTVSPropertyOp49
 70
     1
102
RTVSPropertyOp50
 70
     1
102
RTVSPropertyOp51
 70
     0
102
RTVSPropertyOp52
 70
     0
102
RTVSPropertyOp53
 70
     1
102
RTVSPropertyOp54
 70
     1
102
RTVSPropertyOp55
 70
     1
102
RTVSPropertyOp56
 70
     1
102
RTVSPropertyOp57
 70
     1
102
RTVSPropertyOp58
 70
     1
102
RTVSPropertyOp59
 70
     1
102
RTVSPropertyOp60
 70
     1
102
RTVSPropertyOp61
 70
     1
102
RTVSPropertyOp62
 70
     1
  0
XRECORD
  5
2F5F
102
{ACAD_REACTORS
330
2F5E
102
}
330
2F5E
100
AcDbXrecord
280
     1
102
RTVSPost2010Prop28
280
     0
102
RTVSPost2010PropOp28
 70
     1
102
RTVSPost2010Prop29
280
     1
102
RTVSPost2010PropOp29
 70
     1
102
RTVSPost2010Prop30
280
     1
102
RTVSPost2010PropOp30
 70
     1
102
RTVSPost2010Prop31
280
     0
102
RTVSPost2010PropOp31
 70
     1
102
RTVSPost2010Prop32
280
     0
102
RTVSPost2010PropOp32
 70
     1
102
RTVSPost2010Prop33
280
     0
102
RTVSPost2010PropOp33
 70
     1
102
RTVSPost2010Prop34
280
     0
102
RTVSPost2010PropOp34
 70
     1
102
RTVSPost2010Prop35
280
     0
102
RTVSPost2010PropOp35
 70
     1
102
RTVSPost2010Prop36
280
     0
102
RTVSPost2010PropOp36
 70
     1
102
RTVSPost2010Prop37
 90
       50
102
RTVSPost2010PropOp37
 70
     0
102
RTVSPost2010Prop38
140
0.0
102
RTVSPost2010PropOp38
 70
     0
102
RTVSPost2010Prop39
140
1.0
102
RTVSPost2010PropOp39
 70
     0
102
RTVSPost2010Prop40
 90
        0
102
RTVSPost2010PropOp40
 70
     0
102
RTVSPost2010Prop41ColorIndex
 90
       18
102
RTVSPost2010Prop41ColorRGB
 90
        0
102
RTVSPost2010PropOp41
 70
     0
102
RTVSPost2010Prop42
 90
       50
102
RTVSPost2010PropOp42
 70
     0
102
RTVSPost2010Prop43
 90
        3
102
RTVSPost2010PropOp43
 70
     0
102
RTVSPost2010Prop44ColorIndex
 90
        5
102
RTVSPost2010Prop44ColorRGB
 90
      255
102
RTVSPost2010PropOp44
 70
     0
102
RTVSPost2010Prop45
280
     0
102
RTVSPost2010PropOp45
 70
     1
102
RTVSPost2010Prop46
 90
       50
102
RTVSPost2010PropOp46
 70
     0
102
RTVSPost2010Prop47
 90
       50
102
RTVSPost2010PropOp47
 70
     0
102
RTVSPost2010Prop48
 90
       50
102
RTVSPost2010PropOp48
 70
     0
102
RTVSPost2010Prop49
280
     0
102
RTVSPost2010PropOp49
 70
     1
102
RTVSPost2010Prop50
 90
       50
102
RTVSPost2010PropOp50
 70
     0
102
RTVSPost2010Prop51ColorIndex
 90
      256
102
RTVSPost2010Prop51ColorRGB
 90
-16777216
102
RTVSPost2010PropOp51
 70
     0
102
RTVSPost2010Prop52
140
1.0
102
RTVSPost2010PropOp52
 70
     0
102
RTVSPost2010Prop53
 90
        2
102
RTVSPost2010PropOp53
 70
     0
102
RTVSPost2010Prop54
  1
strokes_ogs.tif
102
RTVSPost2010PropOp54
 70
     0
102
RTVSPost2010Prop55
280
     0
102
RTVSPost2010PropOp55
 70
     1
102
RTVSPost2010Prop56
140
1.0
102
RTVSPost2010PropOp56
 70
     0
102
RTVSPost2010Prop57
140
1.0
102
RTVSPost2010PropOp57
 70
     0
102
RTVSPropertyOp0
 70
     0
102
RTVSPropertyOp1
 70
     0
102
RTVSPropertyOp2
 70
     0
102
RTVSPropertyOp3
 70
     0
102
RTVSPropertyOp4
 70
     0
102
RTVSPropertyOp5
 70
     0
102
RTVSPropertyOp6
 70
     0
102
RTVSPropertyOp7
 70
     0
102
RTVSPropertyOp8
 70
     0
102
RTVSPropertyOp9
 70
     0
102
RTVSPropertyOp10
 70
     0
102
RTVSPropertyOp11
 70
     0
102
RTVSPropertyOp12
 70
     0
102
RTVSPropertyOp13
 70
     0
102
RTVSPropertyOp14
 70
     2
102
RTVSPropertyOp15
 70
     0
102
RTVSPropertyOp16
 70
     0
102
RTVSPropertyOp17
 70
     0
102
RTVSPropertyOp18
 70
     0
102
RTVSPropertyOp19
 70
     0
102
RTVSPropertyOp20
 70
     0
102
RTVSPropertyOp21
 70
     0
102
RTVSPropertyOp22
 70
     0
102
RTVSPropertyOp23
 70
     0
102
RTVSPropertyOp24
 70
     0
102
RTVSPropertyOp25
 70
     0
102
RTVSPropertyOp26
 70
     0
102
RTVSPropertyOp27
 70
     0
102
RTVSPropertyOp28
 70
     1
102
RTVSPropertyOp29
 70
     1
102
RTVSPropertyOp30
 70
     1
102
RTVSPropertyOp31
 70
     1
102
RTVSPropertyOp32
 70
     1
102
RTVSPropertyOp33
 70
     1
102
RTVSPropertyOp34
 70
     1
102
RTVSPropertyOp35
 70
     1
102
RTVSPropertyOp36
 70
     1
102
RTVSPropertyOp37
 70
     0
102
RTVSPropertyOp38
 70
     0
102
RTVSPropertyOp39
 70
     0
102
RTVSPropertyOp40
 70
     0
102
RTVSPropertyOp41
 70
     0
102
RTVSPropertyOp42
 70
     0
102
RTVSPropertyOp43
 70
     0
102
RTVSPropertyOp44
 70
     0
102
RTVSPropertyOp45
 70
     1
102
RTVSPropertyOp46
 70
     0
102
RTVSPropertyOp47
 70
     0
102
RTVSPropertyOp48
 70
     0
102
RTVSPropertyOp49
 70
     1
102
RTVSPropertyOp50
 70
     0
102
RTVSPropertyOp51
 70
     0
102
RTVSPropertyOp52
 70
     0
102
RTVSPropertyOp53
 70
     0
102
RTVSPropertyOp54
 70
     0
102
RTVSPropertyOp55
 70
     1
102
RTVSPropertyOp56
 70
     0
102
RTVSPropertyOp57
 70
     0
102
RTVSPropertyOp58
 70
     0
102
RTVSPropertyOp59
 70
     0
102
RTVSPropertyOp60
 70
     0
102
RTVSPropertyOp61
 70
     0
102
RTVSPropertyOp62
 70
     0
  0
XRECORD
  5
2F4F
102
{ACAD_REACTORS
330
2F4E
102
}
330
2F4E
100
AcDbXrecord
280
     1
102
RTVSPost2010Prop28
280
     0
102
RTVSPost2010PropOp28
 70
     1
102
RTVSPost2010Prop29
280
     1
102
RTVSPost2010PropOp29
 70
     1
102
RTVSPost2010Prop30
280
     1
102
RTVSPost2010PropOp30
 70
     1
102
RTVSPost2010Prop31
280
     0
102
RTVSPost2010PropOp31
 70
     1
102
RTVSPost2010Prop32
280
     0
102
RTVSPost2010PropOp32
 70
     1
102
RTVSPost2010Prop33
280
     0
102
RTVSPost2010PropOp33
 70
     1
102
RTVSPost2010Prop34
280
     0
102
RTVSPost2010PropOp34
 70
     1
102
RTVSPost2010Prop35
280
     0
102
RTVSPost2010PropOp35
 70
     1
102
RTVSPost2010Prop36
280
     0
102
RTVSPost2010PropOp36
 70
     1
102
RTVSPost2010Prop37
 90
       50
102
RTVSPost2010PropOp37
 70
     1
102
RTVSPost2010Prop38
140
0.0
102
RTVSPost2010PropOp38
 70
     1
102
RTVSPost2010Prop39
140
1.0
102
RTVSPost2010PropOp39
 70
     1
102
RTVSPost2010Prop40
 90
        0
102
RTVSPost2010PropOp40
 70
     1
102
RTVSPost2010Prop41ColorIndex
 90
       18
102
RTVSPost2010Prop41ColorRGB
 90
        0
102
RTVSPost2010PropOp41
 70
     1
102
RTVSPost2010Prop42
 90
       50
102
RTVSPost2010PropOp42
 70
     1
102
RTVSPost2010Prop43
 90
        3
102
RTVSPost2010PropOp43
 70
     1
102
RTVSPost2010Prop44ColorIndex
 90
        5
102
RTVSPost2010Prop44ColorRGB
 90
      255
102
RTVSPost2010PropOp44
 70
     1
102
RTVSPost2010Prop45
280
     0
102
RTVSPost2010PropOp45
 70
     1
102
RTVSPost2010Prop46
 90
       50
102
RTVSPost2010PropOp46
 70
     1
102
RTVSPost2010Prop47
 90
       50
102
RTVSPost2010PropOp47
 70
     1
102
RTVSPost2010Prop48
 90
       50
102
RTVSPost2010PropOp48
 70
     1
102
RTVSPost2010Prop49
280
     0
102
RTVSPost2010PropOp49
 70
     1
102
RTVSPost2010Prop50
 90
       50
102
RTVSPost2010PropOp50
 70
     1
102
RTVSPost2010Prop51ColorIndex
 90
      256
102
RTVSPost2010Prop51ColorRGB
 90
-16777216
102
RTVSPost2010PropOp51
 70
     0
102
RTVSPost2010Prop52
140
1.0
102
RTVSPost2010PropOp52
 70
     0
102
RTVSPost2010Prop53
 90
        2
102
RTVSPost2010PropOp53
 70
     1
102
RTVSPost2010Prop54
  1
strokes_ogs.tif
102
RTVSPost2010PropOp54
 70
     1
102
RTVSPost2010Prop55
280
     0
102
RTVSPost2010PropOp55
 70
     1
102
RTVSPost2010Prop56
140
1.0
102
RTVSPost2010PropOp56
 70
     1
102
RTVSPost2010Prop57
140
1.0
102
RTVSPost2010PropOp57
 70
     1
102
RTVSPropertyOp0
 70
     1
102
RTVSPropertyOp1
 70
     1
102
RTVSPropertyOp2
 70
     1
102
RTVSPropertyOp3
 70
     1
102
RTVSPropertyOp4
 70
     1
102
RTVSPropertyOp5
 70
     1
102
RTVSPropertyOp6
 70
     1
102
RTVSPropertyOp7
 70
     1
102
RTVSPropertyOp8
 70
     1
102
RTVSPropertyOp9
 70
     1
102
RTVSPropertyOp10
 70
     1
102
RTVSPropertyOp11
 70
     1
102
RTVSPropertyOp12
 70
     1
102
RTVSPropertyOp13
 70
     1
102
RTVSPropertyOp14
 70
     1
102
RTVSPropertyOp15
 70
     1
102
RTVSPropertyOp16
 70
     1
102
RTVSPropertyOp17
 70
     1
102
RTVSPropertyOp18
 70
     1
102
RTVSPropertyOp19
 70
     1
102
RTVSPropertyOp20
 70
     1
102
RTVSPropertyOp21
 70
     1
102
RTVSPropertyOp22
 70
     1
102
RTVSPropertyOp23
 70
     1
102
RTVSPropertyOp24
 70
     1
102
RTVSPropertyOp25
 70
     1
102
RTVSPropertyOp26
 70
     1
102
RTVSPropertyOp27
 70
     1
102
RTVSPropertyOp28
 70
     1
102
RTVSPropertyOp29
 70
     1
102
RTVSPropertyOp30
 70
     1
102
RTVSPropertyOp31
 70
     1
102
RTVSPropertyOp32
 70
     1
102
RTVSPropertyOp33
 70
     1
102
RTVSPropertyOp34
 70
     1
102
RTVSPropertyOp35
 70
     1
102
RTVSPropertyOp36
 70
     1
102
RTVSPropertyOp37
 70
     1
102
RTVSPropertyOp38
 70
     1
102
RTVSPropertyOp39
 70
     1
102
RTVSPropertyOp40
 70
     1
102
RTVSPropertyOp41
 70
     1
102
RTVSPropertyOp42
 70
     1
102
RTVSPropertyOp43
 70
     1
102
RTVSPropertyOp44
 70
     1
102
RTVSPropertyOp45
 70
     1
102
RTVSPropertyOp46
 70
     1
102
RTVSPropertyOp47
 70
     1
102
RTVSPropertyOp48
 70
     1
102
RTVSPropertyOp49
 70
     1
102
RTVSPropertyOp50
 70
     1
102
RTVSPropertyOp51
 70
     0
102
RTVSPropertyOp52
 70
     0
102
RTVSPropertyOp53
 70
     1
102
RTVSPropertyOp54
 70
     1
102
RTVSPropertyOp55
 70
     1
102
RTVSPropertyOp56
 70
     1
102
RTVSPropertyOp57
 70
     1
102
RTVSPropertyOp58
 70
     1
102
RTVSPropertyOp59
 70
     1
102
RTVSPropertyOp60
 70
     1
102
RTVSPropertyOp61
 70
     1
102
RTVSPropertyOp62
 70
     1
  0
XRECORD
  5
2F61
102
{ACAD_REACTORS
330
2F60
102
}
330
2F60
100
AcDbXrecord
280
     1
102
RTVSPost2010Prop28
280
     0
102
RTVSPost2010PropOp28
 70
     1
102
RTVSPost2010Prop29
280
     1
102
RTVSPost2010PropOp29
 70
     1
102
RTVSPost2010Prop30
280
     1
102
RTVSPost2010PropOp30
 70
     1
102
RTVSPost2010Prop31
280
     0
102
RTVSPost2010PropOp31
 70
     1
102
RTVSPost2010Prop32
280
     0
102
RTVSPost2010PropOp32
 70
     1
102
RTVSPost2010Prop33
280
     0
102
RTVSPost2010PropOp33
 70
     1
102
RTVSPost2010Prop34
280
     0
102
RTVSPost2010PropOp34
 70
     1
102
RTVSPost2010Prop35
280
     0
102
RTVSPost2010PropOp35
 70
     1
102
RTVSPost2010Prop36
280
     0
102
RTVSPost2010PropOp36
 70
     1
102
RTVSPost2010Prop37
 90
       50
102
RTVSPost2010PropOp37
 70
     0
102
RTVSPost2010Prop38
140
0.0
102
RTVSPost2010PropOp38
 70
     0
102
RTVSPost2010Prop39
140
1.0
102
RTVSPost2010PropOp39
 70
     0
102
RTVSPost2010Prop40
 90
        0
102
RTVSPost2010PropOp40
 70
     0
102
RTVSPost2010Prop41ColorIndex
 90
       18
102
RTVSPost2010Prop41ColorRGB
 90
        0
102
RTVSPost2010PropOp41
 70
     0
102
RTVSPost2010Prop42
 90
       50
102
RTVSPost2010PropOp42
 70
     0
102
RTVSPost2010Prop43
 90
        3
102
RTVSPost2010PropOp43
 70
     0
102
RTVSPost2010Prop44ColorIndex
 90
        5
102
RTVSPost2010Prop44ColorRGB
 90
      255
102
RTVSPost2010PropOp44
 70
     0
102
RTVSPost2010Prop45
280
     0
102
RTVSPost2010PropOp45
 70
     1
102
RTVSPost2010Prop46
 90
       50
102
RTVSPost2010PropOp46
 70
     0
102
RTVSPost2010Prop47
 90
       50
102
RTVSPost2010PropOp47
 70
     0
102
RTVSPost2010Prop48
 90
       50
102
RTVSPost2010PropOp48
 70
     0
102
RTVSPost2010Prop49
280
     0
102
RTVSPost2010PropOp49
 70
     1
102
RTVSPost2010Prop50
 90
       50
102
RTVSPost2010PropOp50
 70
     0
102
RTVSPost2010Prop51ColorIndex
 90
      256
102
RTVSPost2010Prop51ColorRGB
 90
-16777216
102
RTVSPost2010PropOp51
 70
     0
102
RTVSPost2010Prop52
140
1.0
102
RTVSPost2010PropOp52
 70
     0
102
RTVSPost2010Prop53
 90
        2
102
RTVSPost2010PropOp53
 70
     0
102
RTVSPost2010Prop54
  1
strokes_ogs.tif
102
RTVSPost2010PropOp54
 70
     0
102
RTVSPost2010Prop55
280
     0
102
RTVSPost2010PropOp55
 70
     1
102
RTVSPost2010Prop56
140
1.0
102
RTVSPost2010PropOp56
 70
     0
102
RTVSPost2010Prop57
140
1.0
102
RTVSPost2010PropOp57
 70
     0
102
RTVSPropertyOp0
 70
     0
102
RTVSPropertyOp1
 70
     0
102
RTVSPropertyOp2
 70
     0
102
RTVSPropertyOp3
 70
     0
102
RTVSPropertyOp4
 70
     0
102
RTVSPropertyOp5
 70
     0
102
RTVSPropertyOp6
 70
     0
102
RTVSPropertyOp7
 70
     0
102
RTVSPropertyOp8
 70
     0
102
RTVSPropertyOp9
 70
     0
102
RTVSPropertyOp10
 70
     0
102
RTVSPropertyOp11
 70
     0
102
RTVSPropertyOp12
 70
     0
102
RTVSPropertyOp13
 70
     0
102
RTVSPropertyOp14
 70
     2
102
RTVSPropertyOp15
 70
     0
102
RTVSPropertyOp16
 70
     0
102
RTVSPropertyOp17
 70
     0
102
RTVSPropertyOp18
 70
     0
102
RTVSPropertyOp19
 70
     0
102
RTVSPropertyOp20
 70
     0
102
RTVSPropertyOp21
 70
     0
102
RTVSPropertyOp22
 70
     0
102
RTVSPropertyOp23
 70
     0
102
RTVSPropertyOp24
 70
     0
102
RTVSPropertyOp25
 70
     0
102
RTVSPropertyOp26
 70
     0
102
RTVSPropertyOp27
 70
     0
102
RTVSPropertyOp28
 70
     1
102
RTVSPropertyOp29
 70
     1
102
RTVSPropertyOp30
 70
     1
102
RTVSPropertyOp31
 70
     1
102
RTVSPropertyOp32
 70
     1
102
RTVSPropertyOp33
 70
     1
102
RTVSPropertyOp34
 70
     1
102
RTVSPropertyOp35
 70
     1
102
RTVSPropertyOp36
 70
     1
102
RTVSPropertyOp37
 70
     0
102
RTVSPropertyOp38
 70
     0
102
RTVSPropertyOp39
 70
     0
102
RTVSPropertyOp40
 70
     0
102
RTVSPropertyOp41
 70
     0
102
RTVSPropertyOp42
 70
     0
102
RTVSPropertyOp43
 70
     0
102
RTVSPropertyOp44
 70
     0
102
RTVSPropertyOp45
 70
     1
102
RTVSPropertyOp46
 70
     0
102
RTVSPropertyOp47
 70
     0
102
RTVSPropertyOp48
 70
     0
102
RTVSPropertyOp49
 70
     1
102
RTVSPropertyOp50
 70
     0
102
RTVSPropertyOp51
 70
     0
102
RTVSPropertyOp52
 70
     0
102
RTVSPropertyOp53
 70
     0
102
RTVSPropertyOp54
 70
     0
102
RTVSPropertyOp55
 70
     1
102
RTVSPropertyOp56
 70
     0
102
RTVSPropertyOp57
 70
     0
102
RTVSPropertyOp58
 70
     0
102
RTVSPropertyOp59
 70
     0
102
RTVSPropertyOp60
 70
     0
102
RTVSPropertyOp61
 70
     0
102
RTVSPropertyOp62
 70
     0
  0
XRECORD
  5
2F47
102
{ACAD_REACTORS
330
2F46
102
}
330
2F46
100
AcDbXrecord
280
     1
102
RTVSPost2010Prop28
280
     0
102
RTVSPost2010PropOp28
 70
     1
102
RTVSPost2010Prop29
280
     1
102
RTVSPost2010PropOp29
 70
     1
102
RTVSPost2010Prop30
280
     1
102
RTVSPost2010PropOp30
 70
     1
102
RTVSPost2010Prop31
280
     0
102
RTVSPost2010PropOp31
 70
     1
102
RTVSPost2010Prop32
280
     0
102
RTVSPost2010PropOp32
 70
     1
102
RTVSPost2010Prop33
280
     0
102
RTVSPost2010PropOp33
 70
     1
102
RTVSPost2010Prop34
280
     0
102
RTVSPost2010PropOp34
 70
     1
102
RTVSPost2010Prop35
280
     0
102
RTVSPost2010PropOp35
 70
     1
102
RTVSPost2010Prop36
280
     0
102
RTVSPost2010PropOp36
 70
     1
102
RTVSPost2010Prop37
 90
       50
102
RTVSPost2010PropOp37
 70
     1
102
RTVSPost2010Prop38
140
0.0
102
RTVSPost2010PropOp38
 70
     1
102
RTVSPost2010Prop39
140
1.0
102
RTVSPost2010PropOp39
 70
     1
102
RTVSPost2010Prop40
 90
        0
102
RTVSPost2010PropOp40
 70
     1
102
RTVSPost2010Prop41ColorIndex
 90
       18
102
RTVSPost2010Prop41ColorRGB
 90
        0
102
RTVSPost2010PropOp41
 70
     1
102
RTVSPost2010Prop42
 90
       50
102
RTVSPost2010PropOp42
 70
     1
102
RTVSPost2010Prop43
 90
        3
102
RTVSPost2010PropOp43
 70
     1
102
RTVSPost2010Prop44ColorIndex
 90
        5
102
RTVSPost2010Prop44ColorRGB
 90
      255
102
RTVSPost2010PropOp44
 70
     1
102
RTVSPost2010Prop45
280
     0
102
RTVSPost2010PropOp45
 70
     1
102
RTVSPost2010Prop46
 90
       50
102
RTVSPost2010PropOp46
 70
     1
102
RTVSPost2010Prop47
 90
       50
102
RTVSPost2010PropOp47
 70
     1
102
RTVSPost2010Prop48
 90
       50
102
RTVSPost2010PropOp48
 70
     1
102
RTVSPost2010Prop49
280
     0
102
RTVSPost2010PropOp49
 70
     1
102
RTVSPost2010Prop50
 90
       50
102
RTVSPost2010PropOp50
 70
     1
102
RTVSPost2010Prop51ColorIndex
 90
      256
102
RTVSPost2010Prop51ColorRGB
 90
-16777216
102
RTVSPost2010PropOp51
 70
     0
102
RTVSPost2010Prop52
140
1.0
102
RTVSPost2010PropOp52
 70
     0
102
RTVSPost2010Prop53
 90
        2
102
RTVSPost2010PropOp53
 70
     1
102
RTVSPost2010Prop54
  1
strokes_ogs.tif
102
RTVSPost2010PropOp54
 70
     1
102
RTVSPost2010Prop55
280
     0
102
RTVSPost2010PropOp55
 70
     1
102
RTVSPost2010Prop56
140
1.0
102
RTVSPost2010PropOp56
 70
     1
102
RTVSPost2010Prop57
140
1.0
102
RTVSPost2010PropOp57
 70
     1
102
RTVSPropertyOp0
 70
     1
102
RTVSPropertyOp1
 70
     1
102
RTVSPropertyOp2
 70
     1
102
RTVSPropertyOp3
 70
     1
102
RTVSPropertyOp4
 70
     1
102
RTVSPropertyOp5
 70
     1
102
RTVSPropertyOp6
 70
     1
102
RTVSPropertyOp7
 70
     1
102
RTVSPropertyOp8
 70
     1
102
RTVSPropertyOp9
 70
     1
102
RTVSPropertyOp10
 70
     1
102
RTVSPropertyOp11
 70
     1
102
RTVSPropertyOp12
 70
     1
102
RTVSPropertyOp13
 70
     1
102
RTVSPropertyOp14
 70
     1
102
RTVSPropertyOp15
 70
     1
102
RTVSPropertyOp16
 70
     1
102
RTVSPropertyOp17
 70
     1
102
RTVSPropertyOp18
 70
     1
102
RTVSPropertyOp19
 70
     1
102
RTVSPropertyOp20
 70
     1
102
RTVSPropertyOp21
 70
     1
102
RTVSPropertyOp22
 70
     1
102
RTVSPropertyOp23
 70
     1
102
RTVSPropertyOp24
 70
     1
102
RTVSPropertyOp25
 70
     1
102
RTVSPropertyOp26
 70
     1
102
RTVSPropertyOp27
 70
     1
102
RTVSPropertyOp28
 70
     1
102
RTVSPropertyOp29
 70
     1
102
RTVSPropertyOp30
 70
     1
102
RTVSPropertyOp31
 70
     1
102
RTVSPropertyOp32
 70
     1
102
RTVSPropertyOp33
 70
     1
102
RTVSPropertyOp34
 70
     1
102
RTVSPropertyOp35
 70
     1
102
RTVSPropertyOp36
 70
     1
102
RTVSPropertyOp37
 70
     1
102
RTVSPropertyOp38
 70
     1
102
RTVSPropertyOp39
 70
     1
102
RTVSPropertyOp40
 70
     1
102
RTVSPropertyOp41
 70
     1
102
RTVSPropertyOp42
 70
     1
102
RTVSPropertyOp43
 70
     1
102
RTVSPropertyOp44
 70
     1
102
RTVSPropertyOp45
 70
     1
102
RTVSPropertyOp46
 70
     1
102
RTVSPropertyOp47
 70
     1
102
RTVSPropertyOp48
 70
     1
102
RTVSPropertyOp49
 70
     1
102
RTVSPropertyOp50
 70
     1
102
RTVSPropertyOp51
 70
     0
102
RTVSPropertyOp52
 70
     0
102
RTVSPropertyOp53
 70
     1
102
RTVSPropertyOp54
 70
     1
102
RTVSPropertyOp55
 70
     1
102
RTVSPropertyOp56
 70
     1
102
RTVSPropertyOp57
 70
     1
102
RTVSPropertyOp58
 70
     1
102
RTVSPropertyOp59
 70
     1
102
RTVSPropertyOp60
 70
     1
102
RTVSPropertyOp61
 70
     1
102
RTVSPropertyOp62
 70
     1
  0
XRECORD
  5
2F5D
102
{ACAD_REACTORS
330
2F5C
102
}
330
2F5C
100
AcDbXrecord
280
     1
102
RTVSPost2010Prop28
280
     0
102
RTVSPost2010PropOp28
 70
     1
102
RTVSPost2010Prop29
280
     1
102
RTVSPost2010PropOp29
 70
     1
102
RTVSPost2010Prop30
280
     1
102
RTVSPost2010PropOp30
 70
     1
102
RTVSPost2010Prop31
280
     0
102
RTVSPost2010PropOp31
 70
     1
102
RTVSPost2010Prop32
280
     0
102
RTVSPost2010PropOp32
 70
     1
102
RTVSPost2010Prop33
280
     0
102
RTVSPost2010PropOp33
 70
     1
102
RTVSPost2010Prop34
280
     0
102
RTVSPost2010PropOp34
 70
     1
102
RTVSPost2010Prop35
280
     0
102
RTVSPost2010PropOp35
 70
     1
102
RTVSPost2010Prop36
280
     0
102
RTVSPost2010PropOp36
 70
     1
102
RTVSPost2010Prop37
 90
       50
102
RTVSPost2010PropOp37
 70
     1
102
RTVSPost2010Prop38
140
0.0
102
RTVSPost2010PropOp38
 70
     1
102
RTVSPost2010Prop39
140
1.0
102
RTVSPost2010PropOp39
 70
     1
102
RTVSPost2010Prop40
 90
        0
102
RTVSPost2010PropOp40
 70
     1
102
RTVSPost2010Prop41ColorIndex
 90
       18
102
RTVSPost2010Prop41ColorRGB
 90
        0
102
RTVSPost2010PropOp41
 70
     1
102
RTVSPost2010Prop42
 90
       50
102
RTVSPost2010PropOp42
 70
     1
102
RTVSPost2010Prop43
 90
        3
102
RTVSPost2010PropOp43
 70
     1
102
RTVSPost2010Prop44ColorIndex
 90
        5
102
RTVSPost2010Prop44ColorRGB
 90
      255
102
RTVSPost2010PropOp44
 70
     1
102
RTVSPost2010Prop45
280
     0
102
RTVSPost2010PropOp45
 70
     1
102
RTVSPost2010Prop46
 90
       50
102
RTVSPost2010PropOp46
 70
     1
102
RTVSPost2010Prop47
 90
       50
102
RTVSPost2010PropOp47
 70
     1
102
RTVSPost2010Prop48
 90
       50
102
RTVSPost2010PropOp48
 70
     1
102
RTVSPost2010Prop49
280
     0
102
RTVSPost2010PropOp49
 70
     1
102
RTVSPost2010Prop50
 90
       50
102
RTVSPost2010PropOp50
 70
     1
102
RTVSPost2010Prop51ColorIndex
 90
      256
102
RTVSPost2010Prop51ColorRGB
 90
-16777216
102
RTVSPost2010PropOp51
 70
     0
102
RTVSPost2010Prop52
140
1.0
102
RTVSPost2010PropOp52
 70
     0
102
RTVSPost2010Prop53
 90
        2
102
RTVSPost2010PropOp53
 70
     1
102
RTVSPost2010Prop54
  1
strokes_ogs.tif
102
RTVSPost2010PropOp54
 70
     1
102
RTVSPost2010Prop55
280
     0
102
RTVSPost2010PropOp55
 70
     1
102
RTVSPost2010Prop56
140
1.0
102
RTVSPost2010PropOp56
 70
     1
102
RTVSPost2010Prop57
140
1.0
102
RTVSPost2010PropOp57
 70
     1
102
RTVSPropertyOp0
 70
     1
102
RTVSPropertyOp1
 70
     1
102
RTVSPropertyOp2
 70
     1
102
RTVSPropertyOp3
 70
     1
102
RTVSPropertyOp4
 70
     1
102
RTVSPropertyOp5
 70
     1
102
RTVSPropertyOp6
 70
     1
102
RTVSPropertyOp7
 70
     1
102
RTVSPropertyOp8
 70
     1
102
RTVSPropertyOp9
 70
     1
102
RTVSPropertyOp10
 70
     1
102
RTVSPropertyOp11
 70
     1
102
RTVSPropertyOp12
 70
     1
102
RTVSPropertyOp13
 70
     1
102
RTVSPropertyOp14
 70
     1
102
RTVSPropertyOp15
 70
     1
102
RTVSPropertyOp16
 70
     1
102
RTVSPropertyOp17
 70
     1
102
RTVSPropertyOp18
 70
     1
102
RTVSPropertyOp19
 70
     1
102
RTVSPropertyOp20
 70
     1
102
RTVSPropertyOp21
 70
     1
102
RTVSPropertyOp22
 70
     1
102
RTVSPropertyOp23
 70
     1
102
RTVSPropertyOp24
 70
     1
102
RTVSPropertyOp25
 70
     1
102
RTVSPropertyOp26
 70
     1
102
RTVSPropertyOp27
 70
     1
102
RTVSPropertyOp28
 70
     1
102
RTVSPropertyOp29
 70
     1
102
RTVSPropertyOp30
 70
     1
102
RTVSPropertyOp31
 70
     1
102
RTVSPropertyOp32
 70
     1
102
RTVSPropertyOp33
 70
     1
102
RTVSPropertyOp34
 70
     1
102
RTVSPropertyOp35
 70
     1
102
RTVSPropertyOp36
 70
     1
102
RTVSPropertyOp37
 70
     1
102
RTVSPropertyOp38
 70
     1
102
RTVSPropertyOp39
 70
     1
102
RTVSPropertyOp40
 70
     1
102
RTVSPropertyOp41
 70
     1
102
RTVSPropertyOp42
 70
     1
102
RTVSPropertyOp43
 70
     1
102
RTVSPropertyOp44
 70
     1
102
RTVSPropertyOp45
 70
     1
102
RTVSPropertyOp46
 70
     1
102
RTVSPropertyOp47
 70
     1
102
RTVSPropertyOp48
 70
     1
102
RTVSPropertyOp49
 70
     1
102
RTVSPropertyOp50
 70
     1
102
RTVSPropertyOp51
 70
     0
102
RTVSPropertyOp52
 70
     0
102
RTVSPropertyOp53
 70
     1
102
RTVSPropertyOp54
 70
     1
102
RTVSPropertyOp55
 70
     1
102
RTVSPropertyOp56
 70
     1
102
RTVSPropertyOp57
 70
     1
102
RTVSPropertyOp58
 70
     1
102
RTVSPropertyOp59
 70
     1
102
RTVSPropertyOp60
 70
     1
102
RTVSPropertyOp61
 70
     1
102
RTVSPropertyOp62
 70
     1
  0
XRECORD
  5
2F5B
102
{ACAD_REACTORS
330
2F5A
102
}
330
2F5A
100
AcDbXrecord
280
     1
102
RTVSPost2010Prop28
280
     0
102
RTVSPost2010PropOp28
 70
     1
102
RTVSPost2010Prop29
280
     1
102
RTVSPost2010PropOp29
 70
     1
102
RTVSPost2010Prop30
280
     1
102
RTVSPost2010PropOp30
 70
     1
102
RTVSPost2010Prop31
280
     0
102
RTVSPost2010PropOp31
 70
     1
102
RTVSPost2010Prop32
280
     0
102
RTVSPost2010PropOp32
 70
     1
102
RTVSPost2010Prop33
280
     0
102
RTVSPost2010PropOp33
 70
     1
102
RTVSPost2010Prop34
280
     0
102
RTVSPost2010PropOp34
 70
     1
102
RTVSPost2010Prop35
280
     0
102
RTVSPost2010PropOp35
 70
     1
102
RTVSPost2010Prop36
280
     0
102
RTVSPost2010PropOp36
 70
     1
102
RTVSPost2010Prop37
 90
       50
102
RTVSPost2010PropOp37
 70
     1
102
RTVSPost2010Prop38
140
0.0
102
RTVSPost2010PropOp38
 70
     1
102
RTVSPost2010Prop39
140
1.0
102
RTVSPost2010PropOp39
 70
     1
102
RTVSPost2010Prop40
 90
        0
102
RTVSPost2010PropOp40
 70
     1
102
RTVSPost2010Prop41ColorIndex
 90
       18
102
RTVSPost2010Prop41ColorRGB
 90
        0
102
RTVSPost2010PropOp41
 70
     1
102
RTVSPost2010Prop42
 90
       50
102
RTVSPost2010PropOp42
 70
     1
102
RTVSPost2010Prop43
 90
        3
102
RTVSPost2010PropOp43
 70
     1
102
RTVSPost2010Prop44ColorIndex
 90
        5
102
RTVSPost2010Prop44ColorRGB
 90
      255
102
RTVSPost2010PropOp44
 70
     1
102
RTVSPost2010Prop45
280
     0
102
RTVSPost2010PropOp45
 70
     1
102
RTVSPost2010Prop46
 90
       50
102
RTVSPost2010PropOp46
 70
     1
102
RTVSPost2010Prop47
 90
       50
102
RTVSPost2010PropOp47
 70
     1
102
RTVSPost2010Prop48
 90
       50
102
RTVSPost2010PropOp48
 70
     1
102
RTVSPost2010Prop49
280
     0
102
RTVSPost2010PropOp49
 70
     1
102
RTVSPost2010Prop50
 90
       50
102
RTVSPost2010PropOp50
 70
     1
102
RTVSPost2010Prop51ColorIndex
 90
      256
102
RTVSPost2010Prop51ColorRGB
 90
-16777216
102
RTVSPost2010PropOp51
 70
     0
102
RTVSPost2010Prop52
140
1.0
102
RTVSPost2010PropOp52
 70
     0
102
RTVSPost2010Prop53
 90
        2
102
RTVSPost2010PropOp53
 70
     1
102
RTVSPost2010Prop54
  1
strokes_ogs.tif
102
RTVSPost2010PropOp54
 70
     1
102
RTVSPost2010Prop55
280
     0
102
RTVSPost2010PropOp55
 70
     1
102
RTVSPost2010Prop56
140
1.0
102
RTVSPost2010PropOp56
 70
     1
102
RTVSPost2010Prop57
140
1.0
102
RTVSPost2010PropOp57
 70
     1
102
RTVSPropertyOp0
 70
     1
102
RTVSPropertyOp1
 70
     1
102
RTVSPropertyOp2
 70
     1
102
RTVSPropertyOp3
 70
     1
102
RTVSPropertyOp4
 70
     1
102
RTVSPropertyOp5
 70
     1
102
RTVSPropertyOp6
 70
     1
102
RTVSPropertyOp7
 70
     1
102
RTVSPropertyOp8
 70
     1
102
RTVSPropertyOp9
 70
     1
102
RTVSPropertyOp10
 70
     1
102
RTVSPropertyOp11
 70
     1
102
RTVSPropertyOp12
 70
     1
102
RTVSPropertyOp13
 70
     1
102
RTVSPropertyOp14
 70
     1
102
RTVSPropertyOp15
 70
     1
102
RTVSPropertyOp16
 70
     1
102
RTVSPropertyOp17
 70
     1
102
RTVSPropertyOp18
 70
     1
102
RTVSPropertyOp19
 70
     1
102
RTVSPropertyOp20
 70
     1
102
RTVSPropertyOp21
 70
     1
102
RTVSPropertyOp22
 70
     1
102
RTVSPropertyOp23
 70
     1
102
RTVSPropertyOp24
 70
     1
102
RTVSPropertyOp25
 70
     1
102
RTVSPropertyOp26
 70
     1
102
RTVSPropertyOp27
 70
     1
102
RTVSPropertyOp28
 70
     1
102
RTVSPropertyOp29
 70
     1
102
RTVSPropertyOp30
 70
     1
102
RTVSPropertyOp31
 70
     1
102
RTVSPropertyOp32
 70
     1
102
RTVSPropertyOp33
 70
     1
102
RTVSPropertyOp34
 70
     1
102
RTVSPropertyOp35
 70
     1
102
RTVSPropertyOp36
 70
     1
102
RTVSPropertyOp37
 70
     1
102
RTVSPropertyOp38
 70
     1
102
RTVSPropertyOp39
 70
     1
102
RTVSPropertyOp40
 70
     1
102
RTVSPropertyOp41
 70
     1
102
RTVSPropertyOp42
 70
     1
102
RTVSPropertyOp43
 70
     1
102
RTVSPropertyOp44
 70
     1
102
RTVSPropertyOp45
 70
     1
102
RTVSPropertyOp46
 70
     1
102
RTVSPropertyOp47
 70
     1
102
RTVSPropertyOp48
 70
     1
102
RTVSPropertyOp49
 70
     1
102
RTVSPropertyOp50
 70
     1
102
RTVSPropertyOp51
 70
     0
102
RTVSPropertyOp52
 70
     0
102
RTVSPropertyOp53
 70
     1
102
RTVSPropertyOp54
 70
     1
102
RTVSPropertyOp55
 70
     1
102
RTVSPropertyOp56
 70
     1
102
RTVSPropertyOp57
 70
     1
102
RTVSPropertyOp58
 70
     1
102
RTVSPropertyOp59
 70
     1
102
RTVSPropertyOp60
 70
     1
102
RTVSPropertyOp61
 70
     1
102
RTVSPropertyOp62
 70
     1
  0
XRECORD
  5
2F55
102
{ACAD_REACTORS
330
2F54
102
}
330
2F54
100
AcDbXrecord
280
     1
102
RTVSPost2010Prop28
280
     0
102
RTVSPost2010PropOp28
 70
     1
102
RTVSPost2010Prop29
280
     1
102
RTVSPost2010PropOp29
 70
     1
102
RTVSPost2010Prop30
280
     1
102
RTVSPost2010PropOp30
 70
     1
102
RTVSPost2010Prop31
280
     0
102
RTVSPost2010PropOp31
 70
     1
102
RTVSPost2010Prop32
280
     0
102
RTVSPost2010PropOp32
 70
     1
102
RTVSPost2010Prop33
280
     0
102
RTVSPost2010PropOp33
 70
     1
102
RTVSPost2010Prop34
280
     0
102
RTVSPost2010PropOp34
 70
     1
102
RTVSPost2010Prop35
280
     0
102
RTVSPost2010PropOp35
 70
     1
102
RTVSPost2010Prop36
280
     0
102
RTVSPost2010PropOp36
 70
     1
102
RTVSPost2010Prop37
 90
       50
102
RTVSPost2010PropOp37
 70
     1
102
RTVSPost2010Prop38
140
0.0
102
RTVSPost2010PropOp38
 70
     1
102
RTVSPost2010Prop39
140
1.0
102
RTVSPost2010PropOp39
 70
     1
102
RTVSPost2010Prop40
 90
        0
102
RTVSPost2010PropOp40
 70
     1
102
RTVSPost2010Prop41ColorIndex
 90
       18
102
RTVSPost2010Prop41ColorRGB
 90
        0
102
RTVSPost2010PropOp41
 70
     1
102
RTVSPost2010Prop42
 90
       50
102
RTVSPost2010PropOp42
 70
     1
102
RTVSPost2010Prop43
 90
        3
102
RTVSPost2010PropOp43
 70
     1
102
RTVSPost2010Prop44ColorIndex
 90
        5
102
RTVSPost2010Prop44ColorRGB
 90
      255
102
RTVSPost2010PropOp44
 70
     1
102
RTVSPost2010Prop45
280
     0
102
RTVSPost2010PropOp45
 70
     1
102
RTVSPost2010Prop46
 90
       50
102
RTVSPost2010PropOp46
 70
     1
102
RTVSPost2010Prop47
 90
       50
102
RTVSPost2010PropOp47
 70
     1
102
RTVSPost2010Prop48
 90
       50
102
RTVSPost2010PropOp48
 70
     1
102
RTVSPost2010Prop49
280
     0
102
RTVSPost2010PropOp49
 70
     1
102
RTVSPost2010Prop50
 90
       50
102
RTVSPost2010PropOp50
 70
     1
102
RTVSPost2010Prop51ColorIndex
 90
      256
102
RTVSPost2010Prop51ColorRGB
 90
-16777216
102
RTVSPost2010PropOp51
 70
     0
102
RTVSPost2010Prop52
140
1.0
102
RTVSPost2010PropOp52
 70
     0
102
RTVSPost2010Prop53
 90
        2
102
RTVSPost2010PropOp53
 70
     1
102
RTVSPost2010Prop54
  1
strokes_ogs.tif
102
RTVSPost2010PropOp54
 70
     1
102
RTVSPost2010Prop55
280
     0
102
RTVSPost2010PropOp55
 70
     1
102
RTVSPost2010Prop56
140
1.0
102
RTVSPost2010PropOp56
 70
     1
102
RTVSPost2010Prop57
140
1.0
102
RTVSPost2010PropOp57
 70
     1
102
RTVSPropertyOp0
 70
     1
102
RTVSPropertyOp1
 70
     1
102
RTVSPropertyOp2
 70
     1
102
RTVSPropertyOp3
 70
     1
102
RTVSPropertyOp4
 70
     1
102
RTVSPropertyOp5
 70
     1
102
RTVSPropertyOp6
 70
     1
102
RTVSPropertyOp7
 70
     1
102
RTVSPropertyOp8
 70
     1
102
RTVSPropertyOp9
 70
     1
102
RTVSPropertyOp10
 70
     1
102
RTVSPropertyOp11
 70
     1
102
RTVSPropertyOp12
 70
     1
102
RTVSPropertyOp13
 70
     1
102
RTVSPropertyOp14
 70
     1
102
RTVSPropertyOp15
 70
     1
102
RTVSPropertyOp16
 70
     1
102
RTVSPropertyOp17
 70
     1
102
RTVSPropertyOp18
 70
     1
102
RTVSPropertyOp19
 70
     1
102
RTVSPropertyOp20
 70
     1
102
RTVSPropertyOp21
 70
     1
102
RTVSPropertyOp22
 70
     1
102
RTVSPropertyOp23
 70
     1
102
RTVSPropertyOp24
 70
     1
102
RTVSPropertyOp25
 70
     1
102
RTVSPropertyOp26
 70
     1
102
RTVSPropertyOp27
 70
     1
102
RTVSPropertyOp28
 70
     1
102
RTVSPropertyOp29
 70
     1
102
RTVSPropertyOp30
 70
     1
102
RTVSPropertyOp31
 70
     1
102
RTVSPropertyOp32
 70
     1
102
RTVSPropertyOp33
 70
     1
102
RTVSPropertyOp34
 70
     1
102
RTVSPropertyOp35
 70
     1
102
RTVSPropertyOp36
 70
     1
102
RTVSPropertyOp37
 70
     1
102
RTVSPropertyOp38
 70
     1
102
RTVSPropertyOp39
 70
     1
102
RTVSPropertyOp40
 70
     1
102
RTVSPropertyOp41
 70
     1
102
RTVSPropertyOp42
 70
     1
102
RTVSPropertyOp43
 70
     1
102
RTVSPropertyOp44
 70
     1
102
RTVSPropertyOp45
 70
     1
102
RTVSPropertyOp46
 70
     1
102
RTVSPropertyOp47
 70
     1
102
RTVSPropertyOp48
 70
     1
102
RTVSPropertyOp49
 70
     1
102
RTVSPropertyOp50
 70
     1
102
RTVSPropertyOp51
 70
     0
102
RTVSPropertyOp52
 70
     0
102
RTVSPropertyOp53
 70
     1
102
RTVSPropertyOp54
 70
     1
102
RTVSPropertyOp55
 70
     1
102
RTVSPropertyOp56
 70
     1
102
RTVSPropertyOp57
 70
     1
102
RTVSPropertyOp58
 70
     1
102
RTVSPropertyOp59
 70
     1
102
RTVSPropertyOp60
 70
     1
102
RTVSPropertyOp61
 70
     1
102
RTVSPropertyOp62
 70
     1
  0
XRECORD
  5
2F57
102
{ACAD_REACTORS
330
2F56
102
}
330
2F56
100
AcDbXrecord
280
     1
102
RTVSPost2010Prop28
280
     0
102
RTVSPost2010PropOp28
 70
     1
102
RTVSPost2010Prop29
280
     1
102
RTVSPost2010PropOp29
 70
     1
102
RTVSPost2010Prop30
280
     1
102
RTVSPost2010PropOp30
 70
     1
102
RTVSPost2010Prop31
280
     0
102
RTVSPost2010PropOp31
 70
     1
102
RTVSPost2010Prop32
280
     0
102
RTVSPost2010PropOp32
 70
     1
102
RTVSPost2010Prop33
280
     0
102
RTVSPost2010PropOp33
 70
     1
102
RTVSPost2010Prop34
280
     0
102
RTVSPost2010PropOp34
 70
     1
102
RTVSPost2010Prop35
280
     0
102
RTVSPost2010PropOp35
 70
     1
102
RTVSPost2010Prop36
280
     0
102
RTVSPost2010PropOp36
 70
     1
102
RTVSPost2010Prop37
 90
       50
102
RTVSPost2010PropOp37
 70
     1
102
RTVSPost2010Prop38
140
0.0
102
RTVSPost2010PropOp38
 70
     1
102
RTVSPost2010Prop39
140
1.0
102
RTVSPost2010PropOp39
 70
     1
102
RTVSPost2010Prop40
 90
        0
102
RTVSPost2010PropOp40
 70
     1
102
RTVSPost2010Prop41ColorIndex
 90
       18
102
RTVSPost2010Prop41ColorRGB
 90
        0
102
RTVSPost2010PropOp41
 70
     1
102
RTVSPost2010Prop42
 90
       50
102
RTVSPost2010PropOp42
 70
     1
102
RTVSPost2010Prop43
 90
        3
102
RTVSPost2010PropOp43
 70
     1
102
RTVSPost2010Prop44ColorIndex
 90
        5
102
RTVSPost2010Prop44ColorRGB
 90
      255
102
RTVSPost2010PropOp44
 70
     1
102
RTVSPost2010Prop45
280
     0
102
RTVSPost2010PropOp45
 70
     1
102
RTVSPost2010Prop46
 90
       50
102
RTVSPost2010PropOp46
 70
     1
102
RTVSPost2010Prop47
 90
       50
102
RTVSPost2010PropOp47
 70
     1
102
RTVSPost2010Prop48
 90
       50
102
RTVSPost2010PropOp48
 70
     1
102
RTVSPost2010Prop49
280
     0
102
RTVSPost2010PropOp49
 70
     1
102
RTVSPost2010Prop50
 90
       50
102
RTVSPost2010PropOp50
 70
     1
102
RTVSPost2010Prop51ColorIndex
 90
      256
102
RTVSPost2010Prop51ColorRGB
 90
-16777216
102
RTVSPost2010PropOp51
 70
     0
102
RTVSPost2010Prop52
140
1.0
102
RTVSPost2010PropOp52
 70
     0
102
RTVSPost2010Prop53
 90
        2
102
RTVSPost2010PropOp53
 70
     1
102
RTVSPost2010Prop54
  1
strokes_ogs.tif
102
RTVSPost2010PropOp54
 70
     1
102
RTVSPost2010Prop55
280
     0
102
RTVSPost2010PropOp55
 70
     1
102
RTVSPost2010Prop56
140
1.0
102
RTVSPost2010PropOp56
 70
     1
102
RTVSPost2010Prop57
140
1.0
102
RTVSPost2010PropOp57
 70
     1
102
RTVSPropertyOp0
 70
     1
102
RTVSPropertyOp1
 70
     1
102
RTVSPropertyOp2
 70
     1
102
RTVSPropertyOp3
 70
     1
102
RTVSPropertyOp4
 70
     1
102
RTVSPropertyOp5
 70
     1
102
RTVSPropertyOp6
 70
     1
102
RTVSPropertyOp7
 70
     1
102
RTVSPropertyOp8
 70
     1
102
RTVSPropertyOp9
 70
     1
102
RTVSPropertyOp10
 70
     1
102
RTVSPropertyOp11
 70
     1
102
RTVSPropertyOp12
 70
     1
102
RTVSPropertyOp13
 70
     1
102
RTVSPropertyOp14
 70
     1
102
RTVSPropertyOp15
 70
     1
102
RTVSPropertyOp16
 70
     1
102
RTVSPropertyOp17
 70
     1
102
RTVSPropertyOp18
 70
     1
102
RTVSPropertyOp19
 70
     1
102
RTVSPropertyOp20
 70
     1
102
RTVSPropertyOp21
 70
     1
102
RTVSPropertyOp22
 70
     1
102
RTVSPropertyOp23
 70
     1
102
RTVSPropertyOp24
 70
     1
102
RTVSPropertyOp25
 70
     1
102
RTVSPropertyOp26
 70
     1
102
RTVSPropertyOp27
 70
     1
102
RTVSPropertyOp28
 70
     1
102
RTVSPropertyOp29
 70
     1
102
RTVSPropertyOp30
 70
     1
102
RTVSPropertyOp31
 70
     1
102
RTVSPropertyOp32
 70
     1
102
RTVSPropertyOp33
 70
     1
102
RTVSPropertyOp34
 70
     1
102
RTVSPropertyOp35
 70
     1
102
RTVSPropertyOp36
 70
     1
102
RTVSPropertyOp37
 70
     1
102
RTVSPropertyOp38
 70
     1
102
RTVSPropertyOp39
 70
     1
102
RTVSPropertyOp40
 70
     1
102
RTVSPropertyOp41
 70
     1
102
RTVSPropertyOp42
 70
     1
102
RTVSPropertyOp43
 70
     1
102
RTVSPropertyOp44
 70
     1
102
RTVSPropertyOp45
 70
     1
102
RTVSPropertyOp46
 70
     1
102
RTVSPropertyOp47
 70
     1
102
RTVSPropertyOp48
 70
     1
102
RTVSPropertyOp49
 70
     1
102
RTVSPropertyOp50
 70
     1
102
RTVSPropertyOp51
 70
     0
102
RTVSPropertyOp52
 70
     0
102
RTVSPropertyOp53
 70
     1
102
RTVSPropertyOp54
 70
     1
102
RTVSPropertyOp55
 70
     1
102
RTVSPropertyOp56
 70
     1
102
RTVSPropertyOp57
 70
     1
102
RTVSPropertyOp58
 70
     1
102
RTVSPropertyOp59
 70
     1
102
RTVSPropertyOp60
 70
     1
102
RTVSPropertyOp61
 70
     1
102
RTVSPropertyOp62
 70
     1
  0
XRECORD
  5
2F4D
102
{ACAD_REACTORS
330
2F4C
102
}
330
2F4C
100
AcDbXrecord
280
     1
102
RTVSPost2010Prop28
280
     0
102
RTVSPost2010PropOp28
 70
     1
102
RTVSPost2010Prop29
280
     1
102
RTVSPost2010PropOp29
 70
     1
102
RTVSPost2010Prop30
280
     1
102
RTVSPost2010PropOp30
 70
     1
102
RTVSPost2010Prop31
280
     0
102
RTVSPost2010PropOp31
 70
     1
102
RTVSPost2010Prop32
280
     0
102
RTVSPost2010PropOp32
 70
     1
102
RTVSPost2010Prop33
280
     0
102
RTVSPost2010PropOp33
 70
     1
102
RTVSPost2010Prop34
280
     0
102
RTVSPost2010PropOp34
 70
     1
102
RTVSPost2010Prop35
280
     0
102
RTVSPost2010PropOp35
 70
     1
102
RTVSPost2010Prop36
280
     0
102
RTVSPost2010PropOp36
 70
     1
102
RTVSPost2010Prop37
 90
       50
102
RTVSPost2010PropOp37
 70
     1
102
RTVSPost2010Prop38
140
0.0
102
RTVSPost2010PropOp38
 70
     1
102
RTVSPost2010Prop39
140
1.0
102
RTVSPost2010PropOp39
 70
     1
102
RTVSPost2010Prop40
 90
        0
102
RTVSPost2010PropOp40
 70
     1
102
RTVSPost2010Prop41ColorIndex
 90
       18
102
RTVSPost2010Prop41ColorRGB
 90
        0
102
RTVSPost2010PropOp41
 70
     1
102
RTVSPost2010Prop42
 90
       50
102
RTVSPost2010PropOp42
 70
     1
102
RTVSPost2010Prop43
 90
        3
102
RTVSPost2010PropOp43
 70
     1
102
RTVSPost2010Prop44ColorIndex
 90
        5
102
RTVSPost2010Prop44ColorRGB
 90
      255
102
RTVSPost2010PropOp44
 70
     1
102
RTVSPost2010Prop45
280
     0
102
RTVSPost2010PropOp45
 70
     1
102
RTVSPost2010Prop46
 90
       50
102
RTVSPost2010PropOp46
 70
     1
102
RTVSPost2010Prop47
 90
       50
102
RTVSPost2010PropOp47
 70
     1
102
RTVSPost2010Prop48
 90
       50
102
RTVSPost2010PropOp48
 70
     1
102
RTVSPost2010Prop49
280
     0
102
RTVSPost2010PropOp49
 70
     1
102
RTVSPost2010Prop50
 90
       50
102
RTVSPost2010PropOp50
 70
     1
102
RTVSPost2010Prop51ColorIndex
 90
      256
102
RTVSPost2010Prop51ColorRGB
 90
-16777216
102
RTVSPost2010PropOp51
 70
     0
102
RTVSPost2010Prop52
140
1.0
102
RTVSPost2010PropOp52
 70
     0
102
RTVSPost2010Prop53
 90
        2
102
RTVSPost2010PropOp53
 70
     1
102
RTVSPost2010Prop54
  1
strokes_ogs.tif
102
RTVSPost2010PropOp54
 70
     1
102
RTVSPost2010Prop55
280
     0
102
RTVSPost2010PropOp55
 70
     1
102
RTVSPost2010Prop56
140
1.0
102
RTVSPost2010PropOp56
 70
     1
102
RTVSPost2010Prop57
140
1.0
102
RTVSPost2010PropOp57
 70
     1
102
RTVSPropertyOp0
 70
     1
102
RTVSPropertyOp1
 70
     1
102
RTVSPropertyOp2
 70
     1
102
RTVSPropertyOp3
 70
     1
102
RTVSPropertyOp4
 70
     1
102
RTVSPropertyOp5
 70
     1
102
RTVSPropertyOp6
 70
     1
102
RTVSPropertyOp7
 70
     1
102
RTVSPropertyOp8
 70
     1
102
RTVSPropertyOp9
 70
     1
102
RTVSPropertyOp10
 70
     1
102
RTVSPropertyOp11
 70
     1
102
RTVSPropertyOp12
 70
     1
102
RTVSPropertyOp13
 70
     1
102
RTVSPropertyOp14
 70
     1
102
RTVSPropertyOp15
 70
     1
102
RTVSPropertyOp16
 70
     1
102
RTVSPropertyOp17
 70
     1
102
RTVSPropertyOp18
 70
     1
102
RTVSPropertyOp19
 70
     1
102
RTVSPropertyOp20
 70
     1
102
RTVSPropertyOp21
 70
     1
102
RTVSPropertyOp22
 70
     1
102
RTVSPropertyOp23
 70
     1
102
RTVSPropertyOp24
 70
     1
102
RTVSPropertyOp25
 70
     1
102
RTVSPropertyOp26
 70
     1
102
RTVSPropertyOp27
 70
     1
102
RTVSPropertyOp28
 70
     1
102
RTVSPropertyOp29
 70
     1
102
RTVSPropertyOp30
 70
     1
102
RTVSPropertyOp31
 70
     1
102
RTVSPropertyOp32
 70
     1
102
RTVSPropertyOp33
 70
     1
102
RTVSPropertyOp34
 70
     1
102
RTVSPropertyOp35
 70
     1
102
RTVSPropertyOp36
 70
     1
102
RTVSPropertyOp37
 70
     1
102
RTVSPropertyOp38
 70
     1
102
RTVSPropertyOp39
 70
     1
102
RTVSPropertyOp40
 70
     1
102
RTVSPropertyOp41
 70
     1
102
RTVSPropertyOp42
 70
     1
102
RTVSPropertyOp43
 70
     1
102
RTVSPropertyOp44
 70
     1
102
RTVSPropertyOp45
 70
     1
102
RTVSPropertyOp46
 70
     1
102
RTVSPropertyOp47
 70
     1
102
RTVSPropertyOp48
 70
     1
102
RTVSPropertyOp49
 70
     1
102
RTVSPropertyOp50
 70
     1
102
RTVSPropertyOp51
 70
     0
102
RTVSPropertyOp52
 70
     0
102
RTVSPropertyOp53
 70
     1
102
RTVSPropertyOp54
 70
     1
102
RTVSPropertyOp55
 70
     1
102
RTVSPropertyOp56
 70
     1
102
RTVSPropertyOp57
 70
     1
102
RTVSPropertyOp58
 70
     1
102
RTVSPropertyOp59
 70
     1
102
RTVSPropertyOp60
 70
     1
102
RTVSPropertyOp61
 70
     1
102
RTVSPropertyOp62
 70
     1
  0
XRECORD
  5
2F41
102
{ACAD_REACTORS
330
2F40
102
}
330
2F40
100
AcDbXrecord
280
     1
102
RTVSPost2010Prop28
280
     0
102
RTVSPost2010PropOp28
 70
     1
102
RTVSPost2010Prop29
280
     1
102
RTVSPost2010PropOp29
 70
     1
102
RTVSPost2010Prop30
280
     1
102
RTVSPost2010PropOp30
 70
     1
102
RTVSPost2010Prop31
280
     0
102
RTVSPost2010PropOp31
 70
     1
102
RTVSPost2010Prop32
280
     0
102
RTVSPost2010PropOp32
 70
     1
102
RTVSPost2010Prop33
280
     0
102
RTVSPost2010PropOp33
 70
     1
102
RTVSPost2010Prop34
280
     0
102
RTVSPost2010PropOp34
 70
     1
102
RTVSPost2010Prop35
280
     0
102
RTVSPost2010PropOp35
 70
     1
102
RTVSPost2010Prop36
280
     0
102
RTVSPost2010PropOp36
 70
     1
102
RTVSPost2010Prop37
 90
       50
102
RTVSPost2010PropOp37
 70
     1
102
RTVSPost2010Prop38
140
0.0
102
RTVSPost2010PropOp38
 70
     1
102
RTVSPost2010Prop39
140
1.0
102
RTVSPost2010PropOp39
 70
     1
102
RTVSPost2010Prop40
 90
        0
102
RTVSPost2010PropOp40
 70
     1
102
RTVSPost2010Prop41ColorIndex
 90
       18
102
RTVSPost2010Prop41ColorRGB
 90
        0
102
RTVSPost2010PropOp41
 70
     1
102
RTVSPost2010Prop42
 90
       50
102
RTVSPost2010PropOp42
 70
     1
102
RTVSPost2010Prop43
 90
        3
102
RTVSPost2010PropOp43
 70
     1
102
RTVSPost2010Prop44ColorIndex
 90
        5
102
RTVSPost2010Prop44ColorRGB
 90
      255
102
RTVSPost2010PropOp44
 70
     1
102
RTVSPost2010Prop45
280
     0
102
RTVSPost2010PropOp45
 70
     1
102
RTVSPost2010Prop46
 90
       50
102
RTVSPost2010PropOp46
 70
     1
102
RTVSPost2010Prop47
 90
       50
102
RTVSPost2010PropOp47
 70
     1
102
RTVSPost2010Prop48
 90
       50
102
RTVSPost2010PropOp48
 70
     1
102
RTVSPost2010Prop49
280
     0
102
RTVSPost2010PropOp49
 70
     1
102
RTVSPost2010Prop50
 90
       50
102
RTVSPost2010PropOp50
 70
     1
102
RTVSPost2010Prop51ColorIndex
 90
      256
102
RTVSPost2010Prop51ColorRGB
 90
-16777216
102
RTVSPost2010PropOp51
 70
     0
102
RTVSPost2010Prop52
140
1.0
102
RTVSPost2010PropOp52
 70
     0
102
RTVSPost2010Prop53
 90
        2
102
RTVSPost2010PropOp53
 70
     1
102
RTVSPost2010Prop54
  1
strokes_ogs.tif
102
RTVSPost2010PropOp54
 70
     1
102
RTVSPost2010Prop55
280
     0
102
RTVSPost2010PropOp55
 70
     1
102
RTVSPost2010Prop56
140
1.0
102
RTVSPost2010PropOp56
 70
     1
102
RTVSPost2010Prop57
140
1.0
102
RTVSPost2010PropOp57
 70
     1
102
RTVSPropertyOp0
 70
     1
102
RTVSPropertyOp1
 70
     1
102
RTVSPropertyOp2
 70
     1
102
RTVSPropertyOp3
 70
     1
102
RTVSPropertyOp4
 70
     1
102
RTVSPropertyOp5
 70
     1
102
RTVSPropertyOp6
 70
     1
102
RTVSPropertyOp7
 70
     1
102
RTVSPropertyOp8
 70
     1
102
RTVSPropertyOp9
 70
     1
102
RTVSPropertyOp10
 70
     1
102
RTVSPropertyOp11
 70
     1
102
RTVSPropertyOp12
 70
     1
102
RTVSPropertyOp13
 70
     1
102
RTVSPropertyOp14
 70
     1
102
RTVSPropertyOp15
 70
     1
102
RTVSPropertyOp16
 70
     1
102
RTVSPropertyOp17
 70
     1
102
RTVSPropertyOp18
 70
     1
102
RTVSPropertyOp19
 70
     1
102
RTVSPropertyOp20
 70
     1
102
RTVSPropertyOp21
 70
     1
102
RTVSPropertyOp22
 70
     1
102
RTVSPropertyOp23
 70
     1
102
RTVSPropertyOp24
 70
     1
102
RTVSPropertyOp25
 70
     1
102
RTVSPropertyOp26
 70
     1
102
RTVSPropertyOp27
 70
     1
102
RTVSPropertyOp28
 70
     1
102
RTVSPropertyOp29
 70
     1
102
RTVSPropertyOp30
 70
     1
102
RTVSPropertyOp31
 70
     1
102
RTVSPropertyOp32
 70
     1
102
RTVSPropertyOp33
 70
     1
102
RTVSPropertyOp34
 70
     1
102
RTVSPropertyOp35
 70
     1
102
RTVSPropertyOp36
 70
     1
102
RTVSPropertyOp37
 70
     1
102
RTVSPropertyOp38
 70
     1
102
RTVSPropertyOp39
 70
     1
102
RTVSPropertyOp40
 70
     1
102
RTVSPropertyOp41
 70
     1
102
RTVSPropertyOp42
 70
     1
102
RTVSPropertyOp43
 70
     1
102
RTVSPropertyOp44
 70
     1
102
RTVSPropertyOp45
 70
     1
102
RTVSPropertyOp46
 70
     1
102
RTVSPropertyOp47
 70
     1
102
RTVSPropertyOp48
 70
     1
102
RTVSPropertyOp49
 70
     1
102
RTVSPropertyOp50
 70
     1
102
RTVSPropertyOp51
 70
     0
102
RTVSPropertyOp52
 70
     0
102
RTVSPropertyOp53
 70
     1
102
RTVSPropertyOp54
 70
     1
102
RTVSPropertyOp55
 70
     1
102
RTVSPropertyOp56
 70
     1
102
RTVSPropertyOp57
 70
     1
102
RTVSPropertyOp58
 70
     1
102
RTVSPropertyOp59
 70
     1
102
RTVSPropertyOp60
 70
     1
102
RTVSPropertyOp61
 70
     1
102
RTVSPropertyOp62
 70
     1
  0
XRECORD
  5
2F59
102
{ACAD_REACTORS
330
2F58
102
}
330
2F58
100
AcDbXrecord
280
     1
102
RTVSPost2010Prop28
280
     0
102
RTVSPost2010PropOp28
 70
     1
102
RTVSPost2010Prop29
280
     1
102
RTVSPost2010PropOp29
 70
     1
102
RTVSPost2010Prop30
280
     1
102
RTVSPost2010PropOp30
 70
     1
102
RTVSPost2010Prop31
280
     0
102
RTVSPost2010PropOp31
 70
     1
102
RTVSPost2010Prop32
280
     0
102
RTVSPost2010PropOp32
 70
     1
102
RTVSPost2010Prop33
280
     0
102
RTVSPost2010PropOp33
 70
     1
102
RTVSPost2010Prop34
280
     0
102
RTVSPost2010PropOp34
 70
     1
102
RTVSPost2010Prop35
280
     0
102
RTVSPost2010PropOp35
 70
     1
102
RTVSPost2010Prop36
280
     0
102
RTVSPost2010PropOp36
 70
     1
102
RTVSPost2010Prop37
 90
       50
102
RTVSPost2010PropOp37
 70
     1
102
RTVSPost2010Prop38
140
0.0
102
RTVSPost2010PropOp38
 70
     1
102
RTVSPost2010Prop39
140
1.0
102
RTVSPost2010PropOp39
 70
     1
102
RTVSPost2010Prop40
 90
        0
102
RTVSPost2010PropOp40
 70
     1
102
RTVSPost2010Prop41ColorIndex
 90
       18
102
RTVSPost2010Prop41ColorRGB
 90
        0
102
RTVSPost2010PropOp41
 70
     1
102
RTVSPost2010Prop42
 90
       50
102
RTVSPost2010PropOp42
 70
     1
102
RTVSPost2010Prop43
 90
        3
102
RTVSPost2010PropOp43
 70
     1
102
RTVSPost2010Prop44ColorIndex
 90
        5
102
RTVSPost2010Prop44ColorRGB
 90
      255
102
RTVSPost2010PropOp44
 70
     1
102
RTVSPost2010Prop45
280
     0
102
RTVSPost2010PropOp45
 70
     1
102
RTVSPost2010Prop46
 90
       50
102
RTVSPost2010PropOp46
 70
     1
102
RTVSPost2010Prop47
 90
       50
102
RTVSPost2010PropOp47
 70
     1
102
RTVSPost2010Prop48
 90
       50
102
RTVSPost2010PropOp48
 70
     1
102
RTVSPost2010Prop49
280
     0
102
RTVSPost2010PropOp49
 70
     1
102
RTVSPost2010Prop50
 90
       50
102
RTVSPost2010PropOp50
 70
     1
102
RTVSPost2010Prop51ColorIndex
 90
      256
102
RTVSPost2010Prop51ColorRGB
 90
-16777216
102
RTVSPost2010PropOp51
 70
     0
102
RTVSPost2010Prop52
140
1.0
102
RTVSPost2010PropOp52
 70
     0
102
RTVSPost2010Prop53
 90
        2
102
RTVSPost2010PropOp53
 70
     1
102
RTVSPost2010Prop54
  1
strokes_ogs.tif
102
RTVSPost2010PropOp54
 70
     1
102
RTVSPost2010Prop55
280
     0
102
RTVSPost2010PropOp55
 70
     1
102
RTVSPost2010Prop56
140
1.0
102
RTVSPost2010PropOp56
 70
     1
102
RTVSPost2010Prop57
140
1.0
102
RTVSPost2010PropOp57
 70
     1
102
RTVSPropertyOp0
 70
     1
102
RTVSPropertyOp1
 70
     1
102
RTVSPropertyOp2
 70
     1
102
RTVSPropertyOp3
 70
     1
102
RTVSPropertyOp4
 70
     1
102
RTVSPropertyOp5
 70
     1
102
RTVSPropertyOp6
 70
     1
102
RTVSPropertyOp7
 70
     1
102
RTVSPropertyOp8
 70
     1
102
RTVSPropertyOp9
 70
     1
102
RTVSPropertyOp10
 70
     1
102
RTVSPropertyOp11
 70
     1
102
RTVSPropertyOp12
 70
     1
102
RTVSPropertyOp13
 70
     1
102
RTVSPropertyOp14
 70
     1
102
RTVSPropertyOp15
 70
     1
102
RTVSPropertyOp16
 70
     1
102
RTVSPropertyOp17
 70
     1
102
RTVSPropertyOp18
 70
     1
102
RTVSPropertyOp19
 70
     1
102
RTVSPropertyOp20
 70
     1
102
RTVSPropertyOp21
 70
     1
102
RTVSPropertyOp22
 70
     1
102
RTVSPropertyOp23
 70
     1
102
RTVSPropertyOp24
 70
     1
102
RTVSPropertyOp25
 70
     1
102
RTVSPropertyOp26
 70
     1
102
RTVSPropertyOp27
 70
     1
102
RTVSPropertyOp28
 70
     1
102
RTVSPropertyOp29
 70
     1
102
RTVSPropertyOp30
 70
     1
102
RTVSPropertyOp31
 70
     1
102
RTVSPropertyOp32
 70
     1
102
RTVSPropertyOp33
 70
     1
102
RTVSPropertyOp34
 70
     1
102
RTVSPropertyOp35
 70
     1
102
RTVSPropertyOp36
 70
     1
102
RTVSPropertyOp37
 70
     1
102
RTVSPropertyOp38
 70
     1
102
RTVSPropertyOp39
 70
     1
102
RTVSPropertyOp40
 70
     1
102
RTVSPropertyOp41
 70
     1
102
RTVSPropertyOp42
 70
     1
102
RTVSPropertyOp43
 70
     1
102
RTVSPropertyOp44
 70
     1
102
RTVSPropertyOp45
 70
     1
102
RTVSPropertyOp46
 70
     1
102
RTVSPropertyOp47
 70
     1
102
RTVSPropertyOp48
 70
     1
102
RTVSPropertyOp49
 70
     1
102
RTVSPropertyOp50
 70
     1
102
RTVSPropertyOp51
 70
     0
102
RTVSPropertyOp52
 70
     0
102
RTVSPropertyOp53
 70
     1
102
RTVSPropertyOp54
 70
     1
102
RTVSPropertyOp55
 70
     1
102
RTVSPropertyOp56
 70
     1
102
RTVSPropertyOp57
 70
     1
102
RTVSPropertyOp58
 70
     1
102
RTVSPropertyOp59
 70
     1
102
RTVSPropertyOp60
 70
     1
102
RTVSPropertyOp61
 70
     1
102
RTVSPropertyOp62
 70
     1
  0
ENDSEC
  0
EOF
