  0
SECTION
  2
HEADER
  9
$ACADVER
  1
AC1015
  9
$ACADMAINTVER
 70
    20
  9
$DWGCODEPAGE
  3
ANSI_1252
  9
$INSBASE
 10
0.0
 20
0.0
 30
0.0
  9
$EXTMIN
 10
-64.94053477251509
 20
-39.90295294893781
 30
-0.0000000349181948
  9
$EXTMAX
 10
74.99156297695776
 20
56.81030349900288
 30
0.0000000814935747
  9
$LIMMIN
 10
-170.0
 20
-170.0
  9
$LIMMAX
 10
519.0
 20
260.0
  9
$ORTHOMODE
 70
     0
  9
$REGENMODE
 70
     1
  9
$FILLMODE
 70
     1
  9
$QTEXTMODE
 70
     0
  9
$MIRRTEXT
 70
     0
  9
$LTSCALE
 40
1.0
  9
$ATTMODE
 70
     1
  9
$TEXTSIZE
 40
3.5
  9
$TRACEWID
 40
1.0
  9
$TEXTSTYLE
  7
MM_STANDARD
  9
$CLAYER
  8
0
  9
$CELTYPE
  6
ByLayer
  9
$CECOLOR
 62
   256
  9
$CELTSCALE
 40
1.0
  9
$DISPSILH
 70
     0
  9
$DIMSCALE
 40
1.0
  9
$DIMASZ
 40
2.5
  9
$DIMEXO
 40
0.0
  9
$DIMDLI
 40
3.75
  9
$DIMRND
 40
0.0
  9
$DIMDLE
 40
0.0
  9
$DIMEXE
 40
1.25
  9
$DIMTP
 40
0.0
  9
$DIMTM
 40
0.0
  9
$DIMTXT
 40
3.5
  9
$DIMCEN
 40
0.0
  9
$DIMTSZ
 40
0.0
  9
$DIMTOL
 70
     0
  9
$DIMLIM
 70
     0
  9
$DIMTIH
 70
     0
  9
$DIMTOH
 70
     0
  9
$DIMSE1
 70
     0
  9
$DIMSE2
 70
     0
  9
$DIMTAD
 70
     1
  9
$DIMZIN
 70
     9
  9
$DIMBLK
  1

  9
$DIMASO
 70
     1
  9
$DIMSHO
 70
     1
  9
$DIMPOST
  1

  9
$DIMAPOST
  1

  9
$DIMALT
 70
     0
  9
$DIMALTD
 70
     3
  9
$DIMALTF
 40
0.039370078
  9
$DIMLFAC
 40
1.0
  9
$DIMTOFL
 70
     0
  9
$DIMTVP
 40
0.0
  9
$DIMTIX
 70
     0
  9
$DIMSOXD
 70
     0
  9
$DIMSAH
 70
     0
  9
$DIMBLK1
  1

  9
$DIMBLK2
  1

  9
$DIMSTYLE
  2
MM_STANDARD
  9
$DIMCLRD
 70
   256
  9
$DIMCLRE
 70
   256
  9
$DIMCLRT
 70
   256
  9
$DIMTFAC
 40
1.0
  9
$DIMGAP
 40
0.625
  9
$DIMJUST
 70
     0
  9
$DIMSD1
 70
     0
  9
$DIMSD2
 70
     0
  9
$DIMTOLJ
 70
     1
  9
$DIMTZIN
 70
     8
  9
$DIMALTZ
 70
     0
  9
$DIMALTTZ
 70
     0
  9
$DIMUPT
 70
     0
  9
$DIMDEC
 70
     2
  9
$DIMTDEC
 70
     2
  9
$DIMALTU
 70
     2
  9
$DIMALTTD
 70
     3
  9
$DIMTXSTY
  7
MM_STANDARD
  9
$DIMAUNIT
 70
     0
  9
$DIMADEC
 70
     2
  9
$DIMALTRND
 40
0.0
  9
$DIMAZIN
 70
     2
  9
$DIMDSEP
 70
    46
  9
$DIMATFIT
 70
     3
  9
$DIMFRAC
 70
     0
  9
$DIMLDRBLK
  1

  9
$DIMLUNIT
 70
     2
  9
$DIMLWD
 70
    -1
  9
$DIMLWE
 70
    -1
  9
$DIMTMOVE
 70
     0
  9
$LUNITS
 70
     2
  9
$LUPREC
 70
     4
  9
$SKETCHINC
 40
1.0
  9
$FILLETRAD
 40
0.8
  9
$AUNITS
 70
     0
  9
$AUPREC
 70
     0
  9
$MENU
  1
.
  9
$ELEVATION
 40
0.0
  9
$PELEVATION
 40
0.0
  9
$THICKNESS
 40
0.0
  9
$LIMCHECK
 70
     0
  9
$CHAMFERA
 40
0.0
  9
$CHAMFERB
 40
0.0
  9
$CHAMFERC
 40
0.0
  9
$CHAMFERD
 40
0.0
  9
$SKPOLY
 70
     0
  9
$TDCREATE
 40
2453353.800459155
  9
$TDUCREATE
 40
2453353.717125822
  9
$TDUPDATE
 40
2460185.644089132
  9
$TDUUPDATE
 40
2460185.560755799
  9
$TDINDWG
 40
4096.7124231482
  9
$TDUSRTIMER
 40
4096.7123751157
  9
$USRTIMER
 70
     1
  9
$ANGBASE
 50
0.0
  9
$ANGDIR
 70
     0
  9
$PDMODE
 70
     1
  9
$PDSIZE
 40
0.0
  9
$PLINEWID
 40
0.0
  9
$SPLFRAME
 70
     0
  9
$SPLINETYPE
 70
     6
  9
$SPLINESEGS
 70
     8
  9
$HANDSEED
  5
2993C
  9
$SURFTAB1
 70
     6
  9
$SURFTAB2
 70
     6
  9
$SURFTYPE
 70
     6
  9
$SURFU
 70
     6
  9
$SURFV
 70
     6
  9
$UCSBASE
  2

  9
$UCSNAME
  2

  9
$UCSORG
 10
0.0
 20
0.0
 30
0.0
  9
$UCSXDIR
 10
1.0
 20
0.0
 30
0.0
  9
$UCSYDIR
 10
0.0
 20
1.0
 30
0.0
  9
$UCSORTHOREF
  2

  9
$UCSORTHOVIEW
 70
     0
  9
$UCSORGTOP
 10
0.0
 20
0.0
 30
0.0
  9
$UCSORGBOTTOM
 10
0.0
 20
0.0
 30
0.0
  9
$UCSORGLEFT
 10
0.0
 20
0.0
 30
0.0
  9
$UCSORGRIGHT
 10
0.0
 20
0.0
 30
0.0
  9
$UCSORGFRONT
 10
0.0
 20
0.0
 30
0.0
  9
$UCSORGBACK
 10
0.0
 20
0.0
 30
0.0
  9
$PUCSBASE
  2

  9
$PUCSNAME
  2

  9
$PUCSORG
 10
0.0
 20
0.0
 30
0.0
  9
$PUCSXDIR
 10
1.0
 20
0.0
 30
0.0
  9
$PUCSYDIR
 10
0.0
 20
1.0
 30
0.0
  9
$PUCSORTHOREF
  2

  9
$PUCSORTHOVIEW
 70
     0
  9
$PUCSORGTOP
 10
0.0
 20
0.0
 30
0.0
  9
$PUCSORGBOTTOM
 10
0.0
 20
0.0
 30
0.0
  9
$PUCSORGLEFT
 10
0.0
 20
0.0
 30
0.0
  9
$PUCSORGRIGHT
 10
0.0
 20
0.0
 30
0.0
  9
$PUCSORGFRONT
 10
0.0
 20
0.0
 30
0.0
  9
$PUCSORGBACK
 10
0.0
 20
0.0
 30
0.0
  9
$USERI1
 70
     0
  9
$USERI2
 70
     0
  9
$USERI3
 70
     0
  9
$USERI4
 70
     0
  9
$USERI5
 70
     0
  9
$USERR1
 40
0.0
  9
$USERR2
 40
0.0
  9
$USERR3
 40
0.0
  9
$USERR4
 40
0.0
  9
$USERR5
 40
0.0
  9
$WORLDVIEW
 70
     1
  9
$SHADEDGE
 70
     3
  9
$SHADEDIF
 70
    70
  9
$TILEMODE
 70
     1
  9
$MAXACTVP
 70
    64
  9
$PINSBASE
 10
0.0
 20
0.0
 30
0.0
  9
$PLIMCHECK
 70
     0
  9
$PEXTMIN
 10
0.0
 20
0.0
 30
0.0
  9
$PEXTMAX
 10
0.0
 20
0.0
 30
0.0
  9
$PLIMMIN
 10
0.0
 20
0.0
  9
$PLIMMAX
 10
12.0
 20
9.0
  9
$UNITMODE
 70
     0
  9
$VISRETAIN
 70
     0
  9
$PLINEGEN
 70
     0
  9
$PSLTSCALE
 70
     1
  9
$TREEDEPTH
 70
  3020
  9
$CMLSTYLE
  2
Standard
  9
$CMLJUST
 70
     0
  9
$CMLSCALE
 40
20.0
  9
$PROXYGRAPHICS
 70
     0
  9
$MEASUREMENT
 70
     1
  9
$CELWEIGHT
370
    -1
  9
$ENDCAPS
280
     0
  9
$JOINSTYLE
280
     0
  9
$LWDISPLAY
290
     0
  9
$INSUNITS
 70
     4
  9
$HYPERLINKBASE
  1

  9
$STYLESHEET
  1

  9
$XEDIT
290
     1
  9
$CEPSNTYPE
380
     0
  9
$PSTYLEMODE
290
     1
  9
$FINGERPRINTGUID
  2
{049C219F-BC74-4B97-8A86-7E4B06A8BFF9}
  9
$VERSIONGUID
  2
{543DA5A4-1BD4-434F-AEFF-CC93D238B8BA}
  9
$EXTNAMES
290
     1
  9
$PSVPSCALE
 40
0.0
  9
$OLESTARTUP
290
     0
  0
ENDSEC
  0
SECTION
  2
CLASSES
  0
CLASS
  1
ACDBDICTIONARYWDFLT
  2
AcDbDictionaryWithDefault
  3
ObjectDBX Classes
 90
        0
280
     0
281
     0
  0
CLASS
  1
ACDBPLACEHOLDER
  2
AcDbPlaceHolder
  3
ObjectDBX Classes
 90
        0
280
     0
281
     0
  0
CLASS
  1
LAYOUT
  2
AcDbLayout
  3
ObjectDBX Classes
 90
        0
280
     0
281
     0
  0
CLASS
  1
DICTIONARYVAR
  2
AcDbDictionaryVar
  3
ObjectDBX Classes
 90
        0
280
     0
281
     0
  0
CLASS
  1
TABLESTYLE
  2
AcDbTableStyle
  3
ObjectDBX Classes
 90
     4095
280
     0
281
     0
  0
CLASS
  1
SCALE
  2
AcDbScale
  3
ObjectDBX Classes
 90
     1153
280
     0
281
     0
  0
CLASS
  1
RASTERVARIABLES
  2
AcDbRasterVariables
  3
ISM
 90
        0
280
     0
281
     0
  0
CLASS
  1
SORTENTSTABLE
  2
AcDbSortentsTable
  3
ObjectDBX Classes
 90
        0
280
     0
281
     0
  0
CLASS
  1
MATERIAL
  2
AcDbMaterial
  3
ObjectDBX Classes
 90
     1153
280
     0
281
     0
  0
CLASS
  1
VISUALSTYLE
  2
AcDbVisualStyle
  3
ObjectDBX Classes
 90
     4095
280
     0
281
     0
  0
CLASS
  1
MLEADERSTYLE
  2
AcDbMLeaderStyle
  3
ACDB_MLEADERSTYLE_CLASS
 90
     4095
280
     0
281
     0
  0
CLASS
  1
ACDBSECTIONVIEWSTYLE
  2
AcDbSectionViewStyle
  3
ObjectDBX Classes
 90
     1025
280
     0
281
     0
  0
CLASS
  1
ACDBDETAILVIEWSTYLE
  2
AcDbDetailViewStyle
  3
ObjectDBX Classes
 90
     1025
280
     0
281
     0
  0
CLASS
  1
CELLSTYLEMAP
  2
AcDbCellStyleMap
  3
ObjectDBX Classes
 90
     1152
280
     0
281
     0
  0
ENDSEC
  0
SECTION
  2
TABLES
  0
TABLE
  2
VPORT
  5
8
330
0
100
AcDbSymbolTable
 70
     1
  0
VPORT
  5
97
330
8
100
AcDbSymbolTableRecord
100
AcDbViewportTableRecord
  2
*Active
 70
     0
 10
0.0
 20
0.0
 11
1.0
 21
1.0
 12
5.025514102221337
 22
8.453675275032537
 13
0.0
 23
0.0
 14
5.0
 24
5.0
 15
5.0
 25
5.0
 16
0.0
 26
0.0
 36
1.0
 17
0.0
 27
0.0
 37
0.0
 40
97.37643306358371
 41
1.597254004576659
 42
50.0
 43
0.0
 44
0.0
 50
0.0
 51
0.0
 71
    16
 72
  2000
 73
     1
 74
     3
 75
     0
 76
     0
 77
     0
 78
     0
281
     0
 65
     1
110
0.0
120
0.0
130
0.0
111
1.0
121
0.0
131
0.0
112
0.0
122
1.0
132
0.0
 79
     0
146
0.0
1001
ACAD_NAV_VCDISPLAY
1070
     3
  0
ENDTAB
  0
TABLE
  2
LTYPE
  5
5
330
0
100
AcDbSymbolTable
 70
     5
  0
LTYPE
  5
14
330
5
100
AcDbSymbolTableRecord
100
AcDbLinetypeTableRecord
  2
ByBlock
 70
     0
  3

 72
    65
 73
     0
 40
0.0
  0
LTYPE
  5
15
330
5
100
AcDbSymbolTableRecord
100
AcDbLinetypeTableRecord
  2
ByLayer
 70
     0
  3

 72
    65
 73
     0
 40
0.0
  0
LTYPE
  5
16
330
5
100
AcDbSymbolTableRecord
100
AcDbLinetypeTableRecord
  2
Continuous
 70
     0
  3
Solid line
 72
    65
 73
     0
 40
0.0
  0
LTYPE
  5
297C3
330
5
100
AcDbSymbolTableRecord
100
AcDbLinetypeTableRecord
  2
CENTER2
 70
     0
  3
Center (.5x) ___ _ ___ _ ___ _ ___ _ ___ _ ___
 72
    65
 73
     4
 40
28.57499999999999
 49
19.05
 74
     4
 75
     0
340
0
 46
1.0
 50
0.0
 44
0.0
 45
0.0
 49
-3.174999999999998
 74
     4
 75
     0
340
0
 46
1.0
 50
0.0
 44
0.0
 45
0.0
 49
3.174999999999998
 74
     4
 75
     0
340
0
 46
1.0
 50
0.0
 44
0.0
 45
0.0
 49
-3.174999999999998
 74
     4
 75
     0
340
0
 46
1.0
 50
0.0
 44
0.0
 45
0.0
  0
LTYPE
  5
297C4
330
5
100
AcDbSymbolTableRecord
100
AcDbLinetypeTableRecord
  2
HIDDEN
 70
     0
  3
Hidden __ __ __ __ __ __ __ __ __ __ __ __ __ _
 72
    65
 73
     2
 40
9.524999999999996
 49
6.349999999999997
 74
     4
 75
     0
340
0
 46
1.0
 50
0.0
 44
0.0
 45
0.0
 49
-3.174999999999998
 74
     4
 75
     0
340
0
 46
1.0
 50
0.0
 44
0.0
 45
0.0
  0
ENDTAB
  0
TABLE
  2
LAYER
  5
2
102
{ACAD_XDICTIONARY
360
297D0
102
}
330
0
100
AcDbSymbolTable
 70
    13
  0
LAYER
  5
10
102
{ACAD_XDICTIONARY
360
297C7
102
}
330
2
100
AcDbSymbolTableRecord
100
AcDbLayerTableRecord
  2
0
 70
     0
 62
     7
  6
Continuous
370
    -3
390
F
  0
LAYER
  5
23
102
{ACAD_XDICTIONARY
360
297C8
102
}
330
2
100
AcDbSymbolTableRecord
100
AcDbLayerTableRecord
  2
1
 70
     0
 62
     4
  6
Continuous
370
    50
390
F
  0
LAYER
  5
25
102
{ACAD_XDICTIONARY
360
297C9
102
}
330
2
100
AcDbSymbolTableRecord
100
AcDbLayerTableRecord
  2
2
 70
     0
 62
     7
  6
Continuous
370
    25
390
F
  0
LAYER
  5
173A
102
{ACAD_XDICTIONARY
360
297CA
102
}
330
2
100
AcDbSymbolTableRecord
100
AcDbLayerTableRecord
  2
SK2
 70
     0
 62
     7
  6
Continuous
370
    25
390
F
  0
LAYER
  5
2A
102
{ACAD_XDICTIONARY
360
297CB
102
}
330
2
100
AcDbSymbolTableRecord
100
AcDbLayerTableRecord
  2
4
 70
     0
 62
     2
  6
CENTER2
370
    25
390
F
  0
LAYER
  5
2E
102
{ACAD_XDICTIONARY
360
297CC
102
}
330
2
100
AcDbSymbolTableRecord
100
AcDbLayerTableRecord
  2
SK6
 70
     0
 62
     5
  6
Continuous
370
    -3
390
F
  0
LAYER
  5
2F
330
2
100
AcDbSymbolTableRecord
100
AcDbLayerTableRecord
  2
DEFPOINTS
 70
     0
 62
     7
  6
Continuous
290
     0
370
    25
390
F
  0
LAYER
  5
375
102
{ACAD_XDICTIONARY
360
297CD
102
}
330
2
100
AcDbSymbolTableRecord
100
AcDbLayerTableRecord
  2
CUT
 70
     0
 62
     1
  6
Continuous
370
    25
390
F
  0
LAYER
  5
376
102
{ACAD_XDICTIONARY
360
297CE
102
}
330
2
100
AcDbSymbolTableRecord
100
AcDbLayerTableRecord
  2
NOCUT
 70
     0
 62
     7
  6
Continuous
370
    -3
390
F
  0
LAYER
  5
49B
102
{ACAD_XDICTIONARY
360
297CF
102
}
330
2
100
AcDbSymbolTableRecord
100
AcDbLayerTableRecord
  2
INFTOTAL
 70
     0
 62
     9
  6
Continuous
370
    18
390
F
1001
AcAecLayerStandard
1000

1000

  0
LAYER
  5
1D28
330
2
100
AcDbSymbolTableRecord
100
AcDbLayerTableRecord
  2
SK4
 70
     0
 62
     2
  6
CENTER2
370
    25
390
F
  0
LAYER
  5
8BCD
330
2
100
AcDbSymbolTableRecord
100
AcDbLayerTableRecord
  2
SK1
 70
     0
 62
     4
  6
Continuous
370
    50
390
F
  0
LAYER
  5
14429
330
2
100
AcDbSymbolTableRecord
100
AcDbLayerTableRecord
  2
SK3
 70
     0
 62
     1
  6
HIDDEN
370
    35
390
F
  0
ENDTAB
  0
TABLE
  2
STYLE
  5
3
330
0
100
AcDbSymbolTable
 70
     2
  0
STYLE
  5
11
330
3
100
AcDbSymbolTableRecord
100
AcDbTextStyleTableRecord
  2
Standard
 70
     0
 40
0.0
 41
1.0
 50
0.0
 71
     0
 42
5.0
  3
monos.ttf
  4

1001
ACAD
1000
Monospac821 BT
1071
       49
  0
STYLE
  5
8B9
330
3
100
AcDbSymbolTableRecord
100
AcDbTextStyleTableRecord
  2
MM_STANDARD
 70
     0
 40
3.5
 41
1.0
 50
0.0
 71
     0
 42
3.5
  3
monos.ttf
  4

1001
ACAD
1000
Monospac821 BT
1071
       49
  0
ENDTAB
  0
TABLE
  2
VIEW
  5
6
330
0
100
AcDbSymbolTable
 70
     0
  0
ENDTAB
  0
TABLE
  2
UCS
  5
7
330
0
100
AcDbSymbolTable
 70
     0
  0
ENDTAB
  0
TABLE
  2
APPID
  5
9
330
0
100
AcDbSymbolTable
 70
    25
  0
APPID
  5
12
330
9
100
AcDbSymbolTableRecord
100
AcDbRegAppTableRecord
  2
ACAD
 70
     0
  0
APPID
  5
297AB
330
9
100
AcDbSymbolTableRecord
100
AcDbRegAppTableRecord
  2
ACAD_PSEXT
 70
     0
  0
APPID
  5
297AC
330
9
100
AcDbSymbolTableRecord
100
AcDbRegAppTableRecord
  2
ACAD_EXEMPT_FROM_CAD_STANDARDS
 70
     0
  0
APPID
  5
297AD
330
9
100
AcDbSymbolTableRecord
100
AcDbRegAppTableRecord
  2
ACAD_MLEADERVER
 70
     0
  0
APPID
  5
297AE
330
9
100
AcDbSymbolTableRecord
100
AcDbRegAppTableRecord
  2
ACAD_DSTYLE_DIMJAG
 70
     0
  0
APPID
  5
297AF
330
9
100
AcDbSymbolTableRecord
100
AcDbRegAppTableRecord
  2
ACAD_DSTYLE_DIMBREAK
 70
     0
  0
APPID
  5
297B0
330
9
100
AcDbSymbolTableRecord
100
AcDbRegAppTableRecord
  2
ACAD_DSTYLE_DIMTALN
 70
     0
  0
APPID
  5
297B1
330
9
100
AcDbSymbolTableRecord
100
AcDbRegAppTableRecord
  2
AcAecLayerStandard
 70
     0
  0
APPID
  5
297B2
330
9
100
AcDbSymbolTableRecord
100
AcDbRegAppTableRecord
  2
DCO15
 70
     0
  0
APPID
  5
297B3
330
9
100
AcDbSymbolTableRecord
100
AcDbRegAppTableRecord
  2
AcadAnnoPO
 70
     0
  0
APPID
  5
297B4
330
9
100
AcDbSymbolTableRecord
100
AcDbRegAppTableRecord
  2
ACAD_DSTYLE_DIMRADIAL_EXTENSION
 70
     0
  0
APPID
  5
297B5
330
9
100
AcDbSymbolTableRecord
100
AcDbRegAppTableRecord
  2
AcadAnnotative
 70
     0
  0
APPID
  5
297B6
330
9
100
AcDbSymbolTableRecord
100
AcDbRegAppTableRecord
  2
AcDbDynamicBlockGUID
 70
     0
  0
APPID
  5
297B7
330
9
100
AcDbSymbolTableRecord
100
AcDbRegAppTableRecord
  2
AcDbBlockRepETag
 70
     0
  0
APPID
  5
297B8
330
9
100
AcDbSymbolTableRecord
100
AcDbRegAppTableRecord
  2
MCAD_NO_VIS
 70
     0
  0
APPID
  5
297B9
330
9
100
AcDbSymbolTableRecord
100
AcDbRegAppTableRecord
  2
ACAD_TEMP_GRAPHIC
 70
     0
  0
APPID
  5
297BA
330
9
100
AcDbSymbolTableRecord
100
AcDbRegAppTableRecord
  2
ACATTRIBSERVICES
 70
     0
  0
APPID
  5
297BB
330
9
100
AcDbSymbolTableRecord
100
AcDbRegAppTableRecord
  2
DESIGNERASSEMBLIES
 70
     0
  0
APPID
  5
297BC
330
9
100
AcDbSymbolTableRecord
100
AcDbRegAppTableRecord
  2
ACAD_NAV_VCDISPLAY
 70
     0
  0
APPID
  5
297BD
330
9
100
AcDbSymbolTableRecord
100
AcDbRegAppTableRecord
  2
ACAD_DSTYLE_DIM_LINETYPE
 70
     0
  0
APPID
  5
297BE
330
9
100
AcDbSymbolTableRecord
100
AcDbRegAppTableRecord
  2
ACAD_DSTYLE_DIM_EXT1_LINETYPE
 70
     0
  0
APPID
  5
297BF
330
9
100
AcDbSymbolTableRecord
100
AcDbRegAppTableRecord
  2
ACAD_DSTYLE_DIM_EXT2_LINETYPE
 70
     0
  0
APPID
  5
297C0
330
9
100
AcDbSymbolTableRecord
100
AcDbRegAppTableRecord
  2
ACAD_DSTYLE_DIMARC_LENGTH_SYMBOL
 70
     0
  0
APPID
  5
297C1
330
9
100
AcDbSymbolTableRecord
100
AcDbRegAppTableRecord
  2
AcDbAttr
 70
     0
  0
APPID
  5
297C2
330
9
100
AcDbSymbolTableRecord
100
AcDbRegAppTableRecord
  2
AcadAnnoMonitorAlertIconDisabled
 70
     0
  0
ENDTAB
  0
TABLE
  2
DIMSTYLE
  5
A
330
0
100
AcDbSymbolTable
 70
     2
100
AcDbDimStyleTable
 71
     0
  0
DIMSTYLE
105
27
330
A
100
AcDbSymbolTableRecord
100
AcDbDimStyleTableRecord
  2
Standard
 70
     0
 77
     1
276
     1
278
     0
340
11
  0
DIMSTYLE
105
3F
102
{ACAD_REACTORS
330
28EA8
330
28EC3
330
28ED0
330
28EDD
330
28EEC
330
28FD4
330
29105
102
}
330
A
100
AcDbSymbolTableRecord
100
AcDbDimStyleTableRecord
  2
MM_STANDARD
 70
     0
 41
2.5
 42
0.0
 43
3.75
 44
1.25
 73
     0
 74
     0
 77
     1
 78
     1
140
3.5
141
0.0
143
0.039370078
147
0.625
171
     3
176
   256
177
   256
178
   256
179
     2
271
     2
272
     2
274
     3
284
     8
340
8B9
371
    -1
372
    -1
1001
ACAD_DSTYLE_DIMJAG
1070
   388
1040
1.5
1001
ACAD_DSTYLE_DIMTALN
1070
   392
1070
     0
  0
ENDTAB
  0
TABLE
  2
BLOCK_RECORD
  5
1
330
0
100
AcDbSymbolTable
 70
    24
  0
BLOCK_RECORD
  5
1F
102
{ACAD_XDICTIONARY
360
29802
102
}
330
1
100
AcDbSymbolTableRecord
100
AcDbBlockTableRecord
  2
*Model_Space
340
22
  0
BLOCK_RECORD
  5
73
330
1
100
AcDbSymbolTableRecord
100
AcDbBlockTableRecord
  2
*Paper_Space
340
74
  0
BLOCK_RECORD
  5
962
330
1
100
AcDbSymbolTableRecord
100
AcDbBlockTableRecord
  2
CERO_POINT
340
0
102
{BLKREFS
331
29243
102
}
1001
ACAD
1000
DesignCenter Data
1002
{
1070
     1
1070
     4
1002
}
  0
BLOCK_RECORD
  5
28EB4
330
1
100
AcDbSymbolTableRecord
100
AcDbBlockTableRecord
  2
*D8
340
0
  0
BLOCK_RECORD
  5
28ECF
330
1
100
AcDbSymbolTableRecord
100
AcDbBlockTableRecord
  2
*D9
340
0
  0
BLOCK_RECORD
  5
28EDC
330
1
100
AcDbSymbolTableRecord
100
AcDbBlockTableRecord
  2
*D10
340
0
  0
BLOCK_RECORD
  5
28EEB
330
1
100
AcDbSymbolTableRecord
100
AcDbBlockTableRecord
  2
*D11
340
0
  0
BLOCK_RECORD
  5
28EF8
330
1
100
AcDbSymbolTableRecord
100
AcDbBlockTableRecord
  2
*D12
340
0
  0
BLOCK_RECORD
  5
28FDF
330
1
100
AcDbSymbolTableRecord
100
AcDbBlockTableRecord
  2
*D13
340
0
  0
BLOCK_RECORD
  5
29110
330
1
100
AcDbSymbolTableRecord
100
AcDbBlockTableRecord
  2
*D14
340
0
  0
BLOCK_RECORD
  5
295AF
330
1
100
AcDbSymbolTableRecord
100
AcDbBlockTableRecord
  2
_NONE
340
0
  0
ENDTAB
  0
ENDSEC
  0
SECTION
  2
BLOCKS
  0
BLOCK
  5
20
330
1F
100
AcDbEntity
  8
0
100
AcDbBlockBegin
  2
*Model_Space
 70
     0
 10
0.0
 20
0.0
 30
0.0
  3
*Model_Space
  1

  0
ENDBLK
  5
21
330
1F
100
AcDbEntity
  8
0
100
AcDbBlockEnd
  0
BLOCK
  5
75
330
73
100
AcDbEntity
 67
     1
  8
0
100
AcDbBlockBegin
  2
*Paper_Space
 70
     0
 10
0.0
 20
0.0
 30
0.0
  3
*Paper_Space
  1

  0
ENDBLK
  5
76
330
73
100
AcDbEntity
 67
     1
  8
0
100
AcDbBlockEnd
  0
BLOCK
  5
297D1
330
962
100
AcDbEntity
  8
0
100
AcDbBlockBegin
  2
CERO_POINT
 70
     0
 10
0.0
 20
0.0
 30
0.0
  3
CERO_POINT
  1

  0
CIRCLE
  5
964
102
{ACAD_REACTORS
330
969
102
}
330
962
100
AcDbEntity
  8
SK2
100
AcDbCircle
 10
0.0
 20
0.0
 30
0.0
 40
2.5
  0
LINE
  5
965
330
962
100
AcDbEntity
  8
SK2
100
AcDbLine
 10
0.0900000000037835
 20
0.0
 30
0.0
 11
-0.0899999999965076
 21
0.0
 31
0.0
  0
LINE
  5
966
330
962
100
AcDbEntity
  8
SK2
100
AcDbLine
 10
0.0
 20
0.0899999999999182
 30
0.0
 11
0.0
 21
-0.0899999999999182
 31
0.0
  0
LINE
  5
967
102
{ACAD_REACTORS
330
969
102
}
330
962
100
AcDbEntity
  8
SK2
100
AcDbLine
 10
0.0
 20
-2.5
 30
0.0
 11
0.0
 21
2.5
 31
0.0
  0
LINE
  5
968
102
{ACAD_REACTORS
330
969
102
}
330
962
100
AcDbEntity
  8
SK2
100
AcDbLine
 10
2.5
 20
0.0
 30
0.0
 11
-2.5
 21
0.0
 31
0.0
  0
HATCH
  5
969
330
962
100
AcDbEntity
  8
SK2
100
AcDbHatch
 10
0.0
 20
0.0
 30
0.0
210
0.0
220
0.0
230
1.0
  2
ANSI31
 70
     0
 71
     1
 91
        2
 92
        7
 72
     1
 73
     1
 93
        3
 10
0.0
 20
-2.5
 42
0.4142135623730951
 10
2.5
 20
0.0
 42
0.0
 10
0.0
 20
0.0
 42
0.0
 97
        3
330
964
330
968
330
967
 92
        7
 72
     1
 73
     1
 93
        3
 10
0.0
 20
0.0
 42
0.0
 10
0.0
 20
2.5
 42
0.4142135623730951
 10
-2.5
 20
0.0
 42
0.0
 97
        3
330
968
330
967
330
964
 75
     0
 76
     1
 52
180.0
 41
0.1
 77
     0
 78
     1
 53
225.0
 43
5.170976743218488
 44
0.0
 45
0.2245064030267288
 46
-0.2245064030267289
 79
     0
 47
0.0243816376539857
 98
        2
 10
0.8789156907296272
 20
-1.044463114528752
 10
-0.8545028512526187
 20
0.7841600866017872
1001
ACAD
1010
0.0
1020
0.0
1030
0.0
  0
ENDBLK
  5
297D2
330
962
100
AcDbEntity
  8
0
100
AcDbBlockEnd
  0
BLOCK
  5
297E1
330
28EB4
100
AcDbEntity
  8
0
100
AcDbBlockBegin
  2
*D8
 70
     1
 10
0.0
 20
0.0
 30
0.0
  3
*D8
  1

  0
POINT
  5
294C1
330
28EB4
100
AcDbEntity
  8
DEFPOINTS
  6
ByBlock
100
AcDbPoint
 10
-20.0
 20
-5.0
 30
0.0
  0
POINT
  5
294C2
330
28EB4
100
AcDbEntity
  8
DEFPOINTS
  6
ByBlock
100
AcDbPoint
 10
-20.0
 20
5.0
 30
0.0
  0
LINE
  5
294C3
330
28EB4
100
AcDbEntity
  8
SK2
  6
ByBlock
100
AcDbLine
 10
-20.0
 20
-5.0
 30
0.0
 11
-31.20520115624896
 21
-5.0
 31
0.0
  0
LINE
  5
294C4
330
28EB4
100
AcDbEntity
  8
SK2
  6
ByBlock
100
AcDbLine
 10
-20.0
 20
5.0
 30
0.0
 11
-31.20520115624896
 21
5.0
 31
0.0
  0
LINE
  5
294C5
330
28EB4
100
AcDbEntity
  8
SK2
  6
ByBlock
100
AcDbLine
 10
-29.95520115624896
 20
-5.0
 30
0.0
 11
-29.95520115624896
 21
5.0
 31
0.0
  0
SOLID
  5
294C6
330
28EB4
100
AcDbEntity
  8
SK2
  6
ByBlock
100
AcDbTrace
 10
-29.95520115624896
 20
-5.0
 30
0.0
 11
-29.53853448958221
 21
-2.5
 31
0.0
 12
-30.37186782291571
 22
-2.5
 32
0.0
 13
-30.37186782291571
 23
-2.5
 33
0.0
  0
SOLID
  5
294C7
330
28EB4
100
AcDbEntity
  8
SK2
  6
ByBlock
100
AcDbTrace
 10
-29.95520115624896
 20
5.0
 30
0.0
 11
-29.53853448958221
 21
2.5
 31
0.0
 12
-30.37186782291571
 22
2.5
 32
0.0
 13
-30.37186782291571
 23
2.5
 33
0.0
  0
LINE
  5
294C8
330
28EB4
100
AcDbEntity
  8
SK2
  6
ByBlock
100
AcDbLine
 10
-20.0
 20
-5.0
 30
0.0
 11
-20.0
 21
-5.0
 31
0.0
  0
MTEXT
  5
294C9
330
28EB4
100
AcDbEntity
  8
SK2
  6
ByBlock
100
AcDbMText
 10
-32.40275913235578
 20
-0.1295199999999852
 30
0.0
 40
3.5
 41
0.0
 71
     5
 72
     1
  1
M\A1;10
  7
MM_STANDARD
 11
0.0000000000000001
 21
1.0
 31
0.0
 73
     1
 44
1.0
1001
ACAD
1000
MTEXTBEGIN
1070
    73
1070
     1
1070
    44
1040
1.0
1070
    74
1070
     0
1000
MTEXTEND
  0
ENDBLK
  5
297E2
330
28EB4
100
AcDbEntity
  8
0
100
AcDbBlockEnd
  0
BLOCK
  5
297E3
330
28ECF
100
AcDbEntity
  8
0
100
AcDbBlockBegin
  2
*D9
 70
     1
 10
0.0
 20
0.0
 30
0.0
  3
*D9
  1

  0
POINT
  5
294D3
330
28ECF
100
AcDbEntity
  8
DEFPOINTS
  6
ByBlock
100
AcDbPoint
 10
0.0
 20
9.0
 30
0.0
  0
POINT
  5
294D4
330
28ECF
100
AcDbEntity
  8
DEFPOINTS
  6
ByBlock
100
AcDbPoint
 10
26.950425
 20
6.682482000000022
 30
0.0
  0
LINE
  5
294D5
330
28ECF
100
AcDbEntity
  8
2
  6
ByBlock
100
AcDbLine
 10
0.0
 20
9.0
 30
0.0
 11
0.0010610125831093
 21
40.86139570184039
 31
0.0
  0
LINE
  5
294D6
330
28ECF
100
AcDbEntity
  8
2
  6
ByBlock
100
AcDbLine
 10
26.950425
 20
6.682482000000022
 30
0.0
 11
26.95156315809017
 21
40.86049822634478
 31
0.0
  0
LINE
  5
294D7
330
28ECF
100
AcDbEntity
  8
2
  6
ByBlock
100
AcDbLine
 10
0.0010193864804563
 20
39.61139570253348
 30
0.0
 11
26.95152153198751
 21
39.6104982270379
 31
0.0
  0
SOLID
  5
294D8
330
28ECF
100
AcDbEntity
  8
2
  6
ByBlock
100
AcDbTrace
 10
0.0010193864804563
 20
39.61139570253348
 30
0.0
 11
2.50100550972672
 21
39.19464578389245
 31
0.0
 12
2.50103326046182
 22
40.02797911676389
 32
0.0
 13
2.50103326046182
 23
40.02797911676389
 33
0.0
  0
SOLID
  5
294D9
330
28ECF
100
AcDbEntity
  8
2
  6
ByBlock
100
AcDbTrace
 10
26.95152153198751
 20
39.6104982270379
 30
0.0
 11
24.45150765800614
 21
39.19391481280748
 31
0.0
 12
24.45153540874124
 22
40.0272481456789
 32
0.0
 13
24.45153540874124
 23
40.0272481456789
 33
0.0
  0
LINE
  5
294DA
330
28ECF
100
AcDbEntity
  8
2
  6
ByBlock
100
AcDbLine
 10
0.0
 20
9.0
 30
0.0
 11
0.0
 21
9.0
 31
0.0
  0
MTEXT
  5
294DB
330
28ECF
100
AcDbEntity
  8
2
  6
ByBlock
100
AcDbMText
 10
13.47529282675441
 20
42.00808333036446
 30
0.0
 40
3.5
 41
0.0
 71
     5
 72
     1
  1
\A1;27
  7
MM_STANDARD
 11
0.9999999994455258
 21
-0.0000333008821224
 31
0.0
 73
     1
 44
1.0
1001
ACAD
1000
MTEXTBEGIN
1070
    73
1070
     1
1070
    44
1040
1.0
1070
    74
1070
     0
1000
MTEXTEND
  0
ENDBLK
  5
297E4
330
28ECF
100
AcDbEntity
  8
0
100
AcDbBlockEnd
  0
BLOCK
  5
297E5
330
28EDC
100
AcDbEntity
  8
0
100
AcDbBlockBegin
  2
*D10
 70
     1
 10
0.0
 20
0.0
 30
0.0
  3
*D10
  1

  0
POINT
  5
294E5
330
28EDC
100
AcDbEntity
  8
DEFPOINTS
  6
ByBlock
100
AcDbPoint
 10
-20.0
 20
5.0
 30
0.0
  0
POINT
  5
294E6
330
28EDC
100
AcDbEntity
  8
DEFPOINTS
  6
ByBlock
100
AcDbPoint
 10
26.950425
 20
6.682482000000022
 30
0.0
  0
LINE
  5
294E7
330
28EDC
100
AcDbEntity
  8
SK2
  6
ByBlock
100
AcDbLine
 10
-20.0
 20
5.0
 30
0.0
 11
-19.99847276397795
 21
50.86172869513614
 31
0.0
  0
LINE
  5
294E8
330
28EDC
100
AcDbEntity
  8
SK2
  6
ByBlock
100
AcDbLine
 10
26.950425
 20
6.682482000000022
 30
0.0
 11
26.95189615582171
 21
50.86016520643426
 31
0.0
  0
LINE
  5
294E9
330
28EDC
100
AcDbEntity
  8
SK2
  6
ByBlock
100
AcDbLine
 10
-19.9985143900806
 20
49.61172869582924
 30
0.0
 11
26.95185452971906
 21
49.61016520712737
 31
0.0
  0
SOLID
  5
294EA
330
28EDC
100
AcDbEntity
  8
SK2
  6
ByBlock
100
AcDbTrace
 10
-19.9985143900806
 20
49.61172869582924
 30
0.0
 11
-17.49852826683434
 21
49.19497877718821
 31
0.0
 12
-17.49850051609924
 22
50.02831211005965
 32
0.0
 13
-17.49850051609924
 23
50.02831211005965
 33
0.0
  0
SOLID
  5
294EB
330
28EDC
100
AcDbEntity
  8
SK2
  6
ByBlock
100
AcDbTrace
 10
26.95185452971906
 20
49.61016520712737
 30
0.0
 11
24.45184065573769
 21
49.19358179289695
 31
0.0
 12
24.4518684064728
 22
50.0269151257684
 32
0.0
 13
24.4518684064728
 23
50.0269151257684
 33
0.0
  0
LINE
  5
294EC
330
28EDC
100
AcDbEntity
  8
SK2
  6
ByBlock
100
AcDbLine
 10
-20.0
 20
5.0
 30
0.0
 11
-20.0
 21
5.0
 31
0.0
  0
MTEXT
  5
294ED
330
28EDC
100
AcDbEntity
  8
SK2
  6
ByBlock
100
AcDbMText
 10
3.475292089595038
 20
51.98594699868314
 30
0.0
 40
3.5
 41
0.0
 71
     5
 72
     1
  1
\A1;47
  7
MM_STANDARD
 11
0.9999999994455258
 21
-0.0000333008821224
 31
0.0
 73
     1
 44
1.0
1001
ACAD
1000
MTEXTBEGIN
1070
    73
1070
     1
1070
    44
1040
1.0
1070
    74
1070
     0
1000
MTEXTEND
  0
ENDBLK
  5
297E6
330
28EDC
100
AcDbEntity
  8
0
100
AcDbBlockEnd
  0
BLOCK
  5
297E7
330
28EEB
100
AcDbEntity
  8
0
100
AcDbBlockBegin
  2
*D11
 70
     1
 10
0.0
 20
0.0
 30
0.0
  3
*D11
  1

  0
MTEXT
  5
294FA
330
28EEB
100
AcDbEntity
  8
2
  6
ByBlock
100
AcDbMText
 10
41.47659307795636
 20
18.55249361260034
 30
0.0
 40
3.5
 41
0.0
 71
     5
 72
     1
  1
\A1;67%%d~83%%d
  7
MM_STANDARD
 11
0.9936350774249406
 21
-0.1126469391982423
 31
0.0
 73
     1
 44
1.0
1001
ACAD
1000
MTEXTBEGIN
1070
    73
1070
     1
1070
    44
1040
1.0
1070
    74
1070
     0
1000
MTEXTEND
  0
POINT
  5
294FB
330
28EEB
100
AcDbEntity
  8
DEFPOINTS
  6
ByBlock
100
AcDbPoint
 10
25.34445600000001
 20
7.561700999999997
 30
0.0
  0
POINT
  5
294FC
330
28EEB
100
AcDbEntity
  8
DEFPOINTS
  6
ByBlock
100
AcDbPoint
 10
26.950425
 20
6.880008000000002
 30
0.0
  0
POINT
  5
294FD
330
28EEB
100
AcDbEntity
  8
DEFPOINTS
  6
ByBlock
100
AcDbPoint
 10
26.950425
 20
6.837648000000002
 30
0.0
  0
POINT
  5
294FE
330
28EEB
100
AcDbEntity
  8
DEFPOINTS
  6
ByBlock
100
AcDbPoint
 10
26.950425
 20
6.880008000000002
 30
0.0
  0
SOLID
  5
294FF
330
28EEB
100
AcDbEntity
  8
2
  6
ByBlock
100
AcDbTrace
 10
26.950425
 20
17.97662552815303
 30
0.0
 11
24.5132735311036
 21
17.28099356456362
 31
0.0
 12
24.4194010817717
 22
18.10902279575124
 32
0.0
 13
24.4194010817717
 23
18.10902279575124
 33
0.0
  0
SOLID
  5
29500
330
28EEB
100
AcDbEntity
  8
2
  6
ByBlock
100
AcDbTrace
 10
16.73593380227361
 20
11.21579975441849
 30
0.0
 11
17.60301080893753
 21
13.59735147034361
 31
0.0
 12
18.32853693266127
 22
13.18740478083493
 32
0.0
 13
18.32853693266127
 23
13.18740478083493
 33
0.0
  0
LINE
  5
29501
330
28EEB
100
AcDbEntity
  8
2
  6
ByBlock
100
AcDbLine
 10
26.950425
 20
6.880008000000002
 30
0.0
 11
26.950425
 21
17.97662552815303
 31
0.0
  0
LINE
  5
29502
330
28EEB
100
AcDbEntity
  8
2
  6
ByBlock
100
AcDbLine
 10
25.34445600000001
 20
7.561700999999997
 30
0.0
 11
15.58530263338235
 21
11.7042134245547
 31
0.0
  0
ARC
  5
29503
330
28EEB
100
AcDbEntity
  8
2
  6
ByBlock
100
AcDbCircle
 10
26.950425
 20
6.880008000000002
 30
0.0
 40
11.09661752815303
100
AcDbArc
 50
102.935845263563
 51
144.0641667109299
  0
ARC
  5
29504
330
28EEB
100
AcDbEntity
  8
2
  6
ByBlock
100
AcDbCircle
 10
26.950425
 20
6.880008000000002
 30
0.0
 40
11.09661752815303
100
AcDbArc
 50
71.66667118119386
 51
90.0
  0
LINE
  5
29505
330
28EEB
100
AcDbEntity
  8
2
  6
ByBlock
100
AcDbLine
 10
30.44080702453996
 20
17.41339083216182
 30
0.0
 11
51.97730617018162
 21
14.97182977527034
 31
0.0
  0
ENDBLK
  5
297E8
330
28EEB
100
AcDbEntity
  8
0
100
AcDbBlockEnd
  0
BLOCK
  5
297E9
330
28EF8
100
AcDbEntity
  8
0
100
AcDbBlockBegin
  2
*D12
 70
     1
 10
0.0
 20
0.0
 30
0.0
  3
*D12
  1

  0
POINT
  5
29552
330
28EF8
100
AcDbEntity
  8
DEFPOINTS
  6
ByBlock
100
AcDbPoint
 10
15.25
 20
9.975508000000019
 30
0.0
  0
POINT
  5
29553
330
28EF8
100
AcDbEntity
  8
DEFPOINTS
  6
ByBlock
100
AcDbPoint
 10
26.950425
 20
6.837648000000002
 30
0.0
  0
LINE
  5
29554
330
28EF8
100
AcDbEntity
  8
2
  6
ByBlock
100
AcDbLine
 10
15.25
 20
9.975508000000019
 30
0.0
 11
15.25069552257155
 21
30.86151842477567
 31
0.0
  0
LINE
  5
29555
330
28EF8
100
AcDbEntity
  8
2
  6
ByBlock
100
AcDbLine
 10
26.950425
 20
6.837648000000002
 30
0.0
 11
26.95122500310229
 21
30.86112878682246
 31
0.0
  0
LINE
  5
29556
330
28EF8
100
AcDbEntity
  8
2
  6
ByBlock
100
AcDbLine
 10
15.2506538964689
 20
29.61151842546877
 30
0.0
 11
26.95118337699964
 21
29.61112878751555
 31
0.0
  0
SOLID
  5
29557
330
28EF8
100
AcDbEntity
  8
2
  6
ByBlock
100
AcDbTrace
 10
15.2506538964689
 20
29.61151842546877
 30
0.0
 11
17.75064001971516
 21
29.19476850682773
 31
0.0
 12
17.75066777045026
 22
30.02810183969918
 32
0.0
 13
17.75066777045026
 23
30.02810183969918
 33
0.0
  0
LINE
  5
29558
330
28EF8
100
AcDbEntity
  8
2
  6
ByBlock
100
AcDbLine
 10
24.45118337838582
 20
29.61121203972085
 30
0.0
 11
42.53428245479631
 21
29.61060985656978
 31
0.0
  0
SOLID
  5
29559
330
28EF8
100
AcDbEntity
  8
2
  6
ByBlock
100
AcDbTrace
 10
26.95118337699964
 20
29.61112878751555
 30
0.0
 11
24.45116950301827
 21
29.19454537328514
 31
0.0
 12
24.45119725375337
 22
30.02787870615657
 32
0.0
 13
24.45119725375337
 23
30.02787870615657
 33
0.0
  0
LINE
  5
2955A
330
28EF8
100
AcDbEntity
  8
2
  6
ByBlock
100
AcDbLine
 10
15.25
 20
9.975508000000019
 30
0.0
 11
15.25
 21
9.975508000000019
 31
0.0
  0
MTEXT
  5
2955B
330
28EF8
100
AcDbEntity
  8
2
  6
ByBlock
100
AcDbMText
 10
35.99281274195929
 20
32.00796402630446
 30
0.0
 40
3.5
 41
0.0
 71
     5
 72
     1
  1
\A1;11.7
  7
MM_STANDARD
 11
0.9999999994455258
 21
-0.0000333008821224
 31
0.0
 73
     1
 44
1.0
1001
ACAD
1000
MTEXTBEGIN
1070
    73
1070
     1
1070
    44
1040
1.0
1070
    74
1070
     0
1000
MTEXTEND
  0
ENDBLK
  5
297EA
330
28EF8
100
AcDbEntity
  8
0
100
AcDbBlockEnd
  0
BLOCK
  5
297EB
330
28FDF
100
AcDbEntity
  8
0
100
AcDbBlockBegin
  2
*D13
 70
     1
 10
0.0
 20
0.0
 30
0.0
  3
*D13
  1

  0
LINE
  5
2984B
330
28FDF
100
AcDbEntity
  8
SK2
  6
ByBlock
100
AcDbLine
 10
0.0
 20
9.000000000000001
 30
0.0
 11
-41.53600646744924
 21
8.999999999999996
 31
0.0
  0
LINE
  5
2984C
330
28FDF
100
AcDbEntity
  8
SK2
  6
ByBlock
100
AcDbLine
 10
0.0
 20
-9.000000000000001
 30
0.0
 11
-41.53600646744924
 21
-9.000000000000008
 31
0.0
  0
LINE
  5
2984D
330
28FDF
100
AcDbEntity
  8
SK2
  6
ByBlock
100
AcDbLine
 10
-40.28600646744924
 20
6.499999999999996
 30
0.0
 11
-40.28600646744924
 21
-6.500000000000009
 31
0.0
  0
SOLID
  5
2984E
330
28FDF
100
AcDbEntity
  8
SK2
100
AcDbTrace
 10
-40.7026731341159
 20
6.499999999999996
 30
0.0
 11
-39.86933980078259
 21
6.499999999999996
 31
0.0
 12
-40.28600646744924
 22
8.999999999999996
 32
0.0
 13
-40.28600646744924
 23
8.999999999999996
 33
0.0
  0
SOLID
  5
2984F
330
28FDF
100
AcDbEntity
  8
SK2
100
AcDbTrace
 10
-40.7026731341159
 20
-6.500000000000009
 30
0.0
 11
-39.86933980078259
 21
-6.500000000000009
 31
0.0
 12
-40.28600646744924
 22
-9.000000000000008
 32
0.0
 13
-40.28600646744924
 23
-9.000000000000008
 33
0.0
  0
MTEXT
  5
29850
330
28FDF
100
AcDbEntity
  8
SK2
100
AcDbMText
 10
-43.13201841404093
 20
0.0000000000000046
 30
0.0
 40
3.5
 41
0.0
 71
     5
 72
     1
  1
\A1;%%C18
  7
MM_STANDARD
 11
0.0000000000000001
 21
1.0
 31
0.0
 73
     1
 44
1.0
1001
ACAD
1000
MTEXTBEGIN
1070
    73
1070
     1
1070
    44
1040
1.0
1070
    74
1070
     0
1000
MTEXTEND
  0
POINT
  5
29851
330
28FDF
100
AcDbEntity
  8
DEFPOINTS
 62
     0
100
AcDbPoint
 10
0.0
 20
9.000000000000001
 30
0.0
  0
POINT
  5
29852
330
28FDF
100
AcDbEntity
  8
DEFPOINTS
 62
     0
100
AcDbPoint
 10
0.0
 20
-9.000000000000001
 30
0.0
  0
POINT
  5
29853
330
28FDF
100
AcDbEntity
  8
DEFPOINTS
 62
     0
100
AcDbPoint
 10
-40.28600646744924
 20
-9.000000000000008
 30
0.0
  0
ENDBLK
  5
297EC
330
28FDF
100
AcDbEntity
  8
0
100
AcDbBlockEnd
  0
BLOCK
  5
297ED
330
29110
100
AcDbEntity
  8
0
100
AcDbBlockBegin
  2
*D14
 70
     1
 10
0.0
 20
0.0
 30
0.0
  3
*D14
  1

  0
LINE
  5
29844
330
29110
100
AcDbEntity
  8
2
  6
ByBlock
100
AcDbLine
 10
15.25000081551187
 20
9.999997196780435
 30
0.0
 11
58.28224439989845
 21
9.999997196780443
 31
0.0
  0
LINE
  5
29845
330
29110
100
AcDbEntity
  8
2
  6
ByBlock
100
AcDbLine
 10
57.03224439989845
 20
7.499997196780443
 30
0.0
 11
57.03224439989845
 21
-5.020293038995568
 31
0.0
  0
SOLID
  5
29846
330
29110
100
AcDbEntity
  8
2
100
AcDbTrace
 10
56.61557773323179
 20
7.499997196780443
 30
0.0
 11
57.44891106656513
 21
7.499997196780443
 31
0.0
 12
57.03224439989845
 22
9.999997196780443
 32
0.0
 13
57.03224439989845
 23
9.999997196780443
 33
0.0
  0
MTEXT
  5
29847
330
29110
100
AcDbEntity
  8
2
100
AcDbMText
 10
54.18623245330675
 20
-0.0000014016097791
 30
0.0
 40
3.5
 41
0.0
 71
     5
 72
     1
  1
\A1;%%C20
  7
MM_STANDARD
 11
0.0000000000000001
 21
1.0
 31
0.0
 73
     1
 44
1.0
1001
ACAD
1000
MTEXTBEGIN
1070
    73
1070
     1
1070
    44
1040
1.0
1070
    74
1070
     0
1000
MTEXTEND
  0
POINT
  5
29848
330
29110
100
AcDbEntity
  8
DEFPOINTS
 62
     0
100
AcDbPoint
 10
15.25000081551187
 20
9.999997196780435
 30
0.0
  0
POINT
  5
29849
330
29110
100
AcDbEntity
  8
DEFPOINTS
 62
     0
100
AcDbPoint
 10
30.76505000000001
 20
-10.0
 30
0.0
  0
POINT
  5
2984A
330
29110
100
AcDbEntity
  8
DEFPOINTS
 62
     0
100
AcDbPoint
 10
57.03224439989845
 20
-10.0
 30
0.0
  0
ENDBLK
  5
297EE
330
29110
100
AcDbEntity
  8
0
100
AcDbBlockEnd
  0
BLOCK
  5
297EF
330
295AF
100
AcDbEntity
  8
0
100
AcDbBlockBegin
  2
_NONE
 70
     0
 10
0.0
 20
0.0
 30
0.0
  3
_NONE
  1

  0
ENDBLK
  5
297F0
330
295AF
100
AcDbEntity
  8
0
100
AcDbBlockEnd
  0
ENDSEC
  0
SECTION
  2
ENTITIES
  0
LINE
  5
AA8
330
1F
100
AcDbEntity
  8
INFTOTAL
100
AcDbLine
 10
-64.90092962931091
 20
3.682751682042943
 30
0.0
 11
-64.90092962931091
 21
56.77867123971357
 31
0.0
  0
LINE
  5
AA9
330
1F
100
AcDbEntity
  8
INFTOTAL
100
AcDbLine
 10
-64.90092962931091
 20
56.77867123971357
 30
0.0
 11
2.112383274409372
 21
56.77867123971357
 31
0.0
  0
LINE
  5
AAA
330
1F
100
AcDbEntity
  8
INFTOTAL
100
AcDbLine
 10
15.47419589353826
 20
-39.87094687582434
 30
0.0
 11
74.98761797786561
 21
-39.87094687582439
 31
0.0
  0
LINE
  5
AAB
330
1F
100
AcDbEntity
  8
INFTOTAL
100
AcDbLine
 10
74.98761797786561
 20
-39.87094687582439
 30
0.0
 11
74.98761797786561
 21
2.288115723371365
 31
0.0
  0
POINT
  5
AFA
330
1F
100
AcDbEntity
  8
1
100
AcDbPoint
 10
120.6316161181774
 20
18.06659889820604
 30
0.0
  0
POINT
  5
AFB
330
1F
100
AcDbEntity
  8
1
100
AcDbPoint
 10
117.3316161181774
 20
20.61513489820602
 30
0.0
  0
POINT
  5
136D
330
1F
100
AcDbEntity
  8
CUT
100
AcDbPoint
 10
120.6316161181774
 20
18.03682647108094
 30
0.0
  0
POINT
  5
410F
330
1F
100
AcDbEntity
  8
0
 62
     7
370
     5
100
AcDbPoint
 10
694.5793644972614
 20
32.06429484497903
 30
0.0
  0
POINT
  5
4112
330
1F
100
AcDbEntity
  8
0
 62
     7
370
     5
100
AcDbPoint
 10
694.7265624972615
 20
3.587258844979031
 30
0.0
  0
POINT
  5
4BBB
330
1F
100
AcDbEntity
  8
0
 62
     7
370
     5
100
AcDbPoint
 10
928.2803214655135
 20
36.14402775200896
 30
0.0
  0
POINT
  5
4BBE
330
1F
100
AcDbEntity
  8
0
 62
     7
370
     5
100
AcDbPoint
 10
927.9725574655133
 20
-13.37717824799107
 30
0.0
  0
POINT
  5
4C3D
330
1F
100
AcDbEntity
  8
0
 62
     7
370
     5
100
AcDbPoint
 10
1260.468250897024
 20
34.18197122255629
 30
0.0
  0
POINT
  5
4C41
330
1F
100
AcDbEntity
  8
0
 62
     7
370
     5
100
AcDbPoint
 10
1192.987798897024
 20
34.42276422255628
 30
0.0
  0
POINT
  5
4CA6
330
1F
100
AcDbEntity
  8
0
 62
     7
370
     5
100
AcDbPoint
 10
1531.370477890708
 20
36.54134112174947
 30
0.0
  0
POINT
  5
4CAA
330
1F
100
AcDbEntity
  8
0
 62
     7
370
     5
100
AcDbPoint
 10
1454.809556890707
 20
33.56345212174947
 30
0.0
  0
POINT
  5
4D13
330
1F
100
AcDbEntity
  8
0
 62
     7
370
     5
100
AcDbPoint
 10
705.1278997494348
 20
-154.9600065549146
 30
0.0
  0
POINT
  5
4D16
330
1F
100
AcDbEntity
  8
0
 62
     7
370
     5
100
AcDbPoint
 10
704.8201357494348
 20
-214.4959135549147
 30
0.0
  0
POINT
  5
4D94
330
1F
100
AcDbEntity
  8
0
 62
     7
370
     5
100
AcDbPoint
 10
1787.824033288602
 20
31.89640981289145
 30
0.0
  0
POINT
  5
4D98
330
1F
100
AcDbEntity
  8
0
 62
     7
370
     5
100
AcDbPoint
 10
1715.838491288602
 20
29.33517681289146
 30
0.0
  0
POINT
  5
4DFF
330
1F
100
AcDbEntity
  8
0
 62
     3
370
     5
100
AcDbPoint
 10
1267.112797580298
 20
-159.0002427017263
 30
0.0
  0
POINT
  5
4E03
330
1F
100
AcDbEntity
  8
0
 62
     3
370
     5
100
AcDbPoint
 10
1194.506377580298
 20
-161.9343927017263
 30
0.0
  0
POINT
  5
4E6A
330
1F
100
AcDbEntity
  8
0
 62
     7
370
     5
100
AcDbPoint
 10
1544.710960196184
 20
-155.8112991948312
 30
0.0
  0
POINT
  5
4E6E
330
1F
100
AcDbEntity
  8
0
 62
     3
370
     5
100
AcDbPoint
 10
1456.283339196184
 20
-157.1011921948312
 30
0.0
  0
POINT
  5
4ED5
330
1F
100
AcDbEntity
  8
0
 62
     7
370
     5
100
AcDbPoint
 10
923.0975508391153
 20
-198.2811869580544
 30
0.0
  0
POINT
  5
4ED6
330
1F
100
AcDbEntity
  8
0
 62
     7
370
     5
100
AcDbPoint
 10
958.0975508391155
 20
-190.2811869580544
 30
0.0
  0
POINT
  5
4ED9
330
1F
100
AcDbEntity
  8
0
 62
     7
370
     5
100
AcDbPoint
 10
957.9030798391153
 20
-228.1917289580544
 30
0.0
  0
POINT
  5
4F57
330
1F
100
AcDbEntity
  8
0
 62
     7
370
     5
100
AcDbPoint
 10
450.9331152202981
 20
34.51099349283641
 30
0.0
  0
POINT
  5
4F5A
330
1F
100
AcDbEntity
  8
0
 62
     7
370
     5
100
AcDbPoint
 10
450.3789362202981
 20
-3.505724507163591
 30
0.0
  0
POINT
  5
4FD6
330
1F
100
AcDbEntity
  8
0
 62
     7
370
     5
100
AcDbPoint
 10
414.7355793530676
 20
-182.3643573412055
 30
0.0
  0
POINT
  5
4FD9
330
1F
100
AcDbEntity
  8
0
 62
     7
370
     5
100
AcDbPoint
 10
414.4028163530678
 20
-227.6410343412055
 30
0.0
  0
POINT
  5
5057
330
1F
100
AcDbEntity
  8
0
 62
     7
370
     5
100
AcDbPoint
 10
411.1596871436125
 20
-404.5108996529686
 30
0.0
  0
POINT
  5
505A
330
1F
100
AcDbEntity
  8
0
 62
     7
370
     5
100
AcDbPoint
 10
410.8519251436126
 20
-448.9004636529686
 30
0.0
  0
POINT
  5
50DA
330
1F
100
AcDbEntity
  8
0
 62
     7
370
     5
100
AcDbPoint
 10
696.3752719090887
 20
-405.5632373962983
 30
0.0
  0
POINT
  5
50DD
330
1F
100
AcDbEntity
  8
0
 62
     7
370
     5
100
AcDbPoint
 10
696.0675099090884
 20
-458.9718843962983
 30
0.0
  0
POINT
  5
515E
330
1F
100
AcDbEntity
  8
0
 62
     7
370
     5
100
AcDbPoint
 10
942.932329238496
 20
-403.2148016805113
 30
0.0
  0
POINT
  5
5161
330
1F
100
AcDbEntity
  8
0
 62
     3
370
     5
100
AcDbPoint
 10
942.624565238496
 20
-476.4638956805113
 30
0.0
  0
POINT
  5
51E0
330
1F
100
AcDbEntity
  8
0
 62
     7
370
     5
100
AcDbPoint
 10
380.0596661818993
 20
-637.2898669140809
 30
0.0
  0
POINT
  5
51E4
330
1F
100
AcDbEntity
  8
0
 62
     7
370
     5
100
AcDbPoint
 10
379.7269051818993
 20
-669.3765459140807
 30
0.0
  0
POINT
  5
5263
330
1F
100
AcDbEntity
  8
0
 62
     7
370
     5
100
AcDbPoint
 10
656.1064603234972
 20
-644.2320044768857
 30
0.0
  0
POINT
  5
5267
330
1F
100
AcDbEntity
  8
0
 62
     7
370
     5
100
AcDbPoint
 10
655.7736983234972
 20
-681.5918884768857
 30
0.0
  0
POINT
  5
52E6
330
1F
100
AcDbEntity
  8
0
 62
     7
370
     5
100
AcDbPoint
 10
921.5387707571863
 20
-642.2430056930917
 30
0.0
  0
POINT
  5
52EA
330
1F
100
AcDbEntity
  8
0
 62
     7
370
     5
100
AcDbPoint
 10
921.2310077571864
 20
-692.8111586930919
 30
0.0
  0
POINT
  5
536A
330
1F
100
AcDbEntity
  8
0
 62
     7
370
     5
100
AcDbPoint
 10
1232.563978885883
 20
-644.0998079544141
 30
0.0
  0
POINT
  5
536E
330
1F
100
AcDbEntity
  8
0
 62
     7
370
     5
100
AcDbPoint
 10
1232.256215885883
 20
-701.4147569544141
 30
0.0
  0
POINT
  5
53EE
330
1F
100
AcDbEntity
  8
0
 62
     7
370
     5
100
AcDbPoint
 10
1530.052638397992
 20
-643.475919607774
 30
0.0
  0
POINT
  5
53F2
330
1F
100
AcDbEntity
  8
0
 62
     7
370
     5
100
AcDbPoint
 10
1529.744875397992
 20
-702.095046607774
 30
0.0
  0
POINT
  5
5472
330
1F
100
AcDbEntity
  8
0
 62
     7
370
     5
100
AcDbPoint
 10
684.9908237883022
 20
27.90718926625232
 30
0.0
  0
POINT
  5
5475
330
1F
100
AcDbEntity
  8
0
 62
     7
370
     5
100
AcDbPoint
 10
685.1380217883022
 20
-0.5698467337476814
 30
0.0
  0
POINT
  5
C167
330
1F
100
AcDbEntity
  8
0
 62
     7
370
     5
100
AcDbPoint
 10
404.6381194571074
 20
31.25869005531058
 30
0.0
  0
POINT
  5
C170
330
1F
100
AcDbEntity
  8
0
 62
     7
370
     5
100
AcDbPoint
 10
404.6381194571074
 20
-40.40044294468938
 30
0.0
  0
POINT
  5
C178
330
1F
100
AcDbEntity
  8
0
 62
     7
370
     5
100
AcDbPoint
 10
693.6166312048997
 20
32.91651042690259
 30
0.0
  0
POINT
  5
C182
330
1F
100
AcDbEntity
  8
0
 62
     7
370
     5
100
AcDbPoint
 10
693.6166312048997
 20
-48.79153757309743
 30
0.0
  0
POINT
  5
C255
330
1F
100
AcDbEntity
  8
0
 62
     7
370
     5
100
AcDbPoint
 10
969.8580521302226
 20
-44.97487572475608
 30
0.0
  0
POINT
  5
C258
330
1F
100
AcDbEntity
  8
0
 62
     7
370
     5
100
AcDbPoint
 10
969.8580521302226
 20
15.7863642752439
 30
0.0
  0
POINT
  5
C2E1
330
1F
100
AcDbEntity
  8
0
 62
     7
370
     5
100
AcDbPoint
 10
1225.348704188238
 20
-52.24776141224177
 30
0.0
  0
POINT
  5
C2E4
330
1F
100
AcDbEntity
  8
0
 62
     7
370
     5
100
AcDbPoint
 10
1225.348704188238
 20
11.68361158775823
 30
0.0
  0
POINT
  5
C36E
330
1F
100
AcDbEntity
  8
0
 62
     7
370
     5
100
AcDbPoint
 10
1738.913115957113
 20
-214.1607529893734
 30
0.0
  0
POINT
  5
C377
330
1F
100
AcDbEntity
  8
0
 62
     3
370
     5
100
AcDbPoint
 10
1738.913115957113
 20
-286.8828409893735
 30
0.0
  0
POINT
  5
C42D
330
1F
100
AcDbEntity
  8
0
 62
     7
370
     5
100
AcDbPoint
 10
430.2380300204257
 20
-176.3158258460635
 30
0.0
  0
POINT
  5
C437
330
1F
100
AcDbEntity
  8
0
 62
     7
370
     5
100
AcDbPoint
 10
430.2380300204257
 20
-251.7521558460636
 30
0.0
  0
POINT
  5
C533
330
1F
100
AcDbEntity
  8
0
 62
     3
370
     5
100
AcDbPoint
 10
724.0359074233313
 20
-257.7049218719476
 30
0.0
  0
POINT
  5
C536
330
1F
100
AcDbEntity
  8
0
 62
     3
370
     5
100
AcDbPoint
 10
724.0359074233313
 20
-176.2890638719476
 30
0.0
  0
POINT
  5
C652
330
1F
100
AcDbEntity
  8
0
 62
     7
370
     5
100
AcDbPoint
 10
1006.718794540682
 20
-163.3460002642659
 30
0.0
  0
POINT
  5
C65C
330
1F
100
AcDbEntity
  8
0
 62
     7
370
     5
100
AcDbPoint
 10
1006.718794540682
 20
-271.4659132642659
 30
0.0
  0
POINT
  5
C79F
330
1F
100
AcDbEntity
  8
0
 62
     7
370
     5
100
AcDbPoint
 10
680.0273543974197
 20
-609.8288373451556
 30
0.0
  0
POINT
  5
C7A3
330
1F
100
AcDbEntity
  8
0
 62
     7
370
     5
100
AcDbPoint
 10
680.0273543974197
 20
-565.0385583451557
 30
0.0
  0
POINT
  5
C85B
330
1F
100
AcDbEntity
  8
0
 62
     7
370
     5
100
AcDbPoint
 10
981.854726218849
 20
-559.8376501395787
 30
0.0
  0
POINT
  5
C863
330
1F
100
AcDbEntity
  8
0
 62
     7
370
     5
100
AcDbPoint
 10
981.854726218849
 20
-623.6282751395788
 30
0.0
  0
POINT
  5
C930
330
1F
100
AcDbEntity
  8
0
 62
     7
370
     5
100
AcDbPoint
 10
1216.759569404171
 20
-624.5477225769705
 30
0.0
  0
POINT
  5
C934
330
1F
100
AcDbEntity
  8
0
 62
     7
370
     5
100
AcDbPoint
 10
1202.759569404171
 20
-560.1965945769704
 30
0.0
  0
POINT
  5
C935
330
1F
100
AcDbEntity
  8
0
 62
     7
370
     5
100
AcDbPoint
 10
1216.759569404171
 20
-551.6965945769704
 30
0.0
  0
POINT
  5
CA12
330
1F
100
AcDbEntity
  8
0
 62
     7
370
     5
100
AcDbPoint
 10
1458.761001673632
 20
-627.5597008720548
 30
0.0
  0
POINT
  5
CA16
330
1F
100
AcDbEntity
  8
0
 62
     7
370
     5
100
AcDbPoint
 10
1443.761001673632
 20
-571.7910898720547
 30
0.0
  0
POINT
  5
CA17
330
1F
100
AcDbEntity
  8
0
 62
     7
370
     5
100
AcDbPoint
 10
1458.761001673632
 20
-561.2910898720547
 30
0.0
  0
POINT
  5
CB25
330
1F
100
AcDbEntity
  8
0
 62
     7
370
     5
100
AcDbPoint
 10
1712.749014983699
 20
-637.6031663899041
 30
0.0
  0
POINT
  5
CB29
330
1F
100
AcDbEntity
  8
0
 62
     7
370
     5
100
AcDbPoint
 10
1712.749014983699
 20
-557.403845389904
 30
0.0
  0
POINT
  5
CC4B
330
1F
100
AcDbEntity
  8
0
 62
     7
370
     5
100
AcDbPoint
 10
1990.420039580178
 20
-639.3672597641932
 30
0.0
  0
POINT
  5
CC4F
330
1F
100
AcDbEntity
  8
0
 62
     7
370
     5
100
AcDbPoint
 10
1975.420039580178
 20
-571.8308197641934
 30
0.0
  0
POINT
  5
CC50
330
1F
100
AcDbEntity
  8
0
 62
     7
370
     5
100
AcDbPoint
 10
1990.420039580178
 20
-554.3308197641933
 30
0.0
  0
POINT
  5
D588
330
1F
100
AcDbEntity
  8
0
 62
     7
370
     5
100
AcDbPoint
 10
643.6762534904714
 20
-418.5518022854259
 30
0.0
  0
POINT
  5
D590
330
1F
100
AcDbEntity
  8
0
 62
     7
370
     5
100
AcDbPoint
 10
698.8426964904712
 20
-418.5518022854259
 30
0.0
  0
POINT
  5
D89C
330
1F
100
AcDbEntity
  8
0
 62
     7
370
     5
100
AcDbPoint
 10
918.4554480131433
 20
-418.2516555129392
 30
0.0
  0
POINT
  5
D8A3
330
1F
100
AcDbEntity
  8
0
 62
     7
370
     5
100
AcDbPoint
 10
998.0069960131432
 20
-418.2516555129392
 30
0.0
  0
POINT
  5
DAF2
330
1F
100
AcDbEntity
  8
0
 62
     7
370
     5
100
AcDbPoint
 10
1973.075374951941
 20
-60.50318164632196
 30
0.0
  0
POINT
  5
DAF5
330
1F
100
AcDbEntity
  8
0
 62
     7
370
     5
100
AcDbPoint
 10
1973.075374951941
 20
1.00896335367804
 30
0.0
  0
POINT
  5
DCBB
330
1F
100
AcDbEntity
  8
0
 62
     7
370
     5
100
AcDbPoint
 10
2228.446041001848
 20
-631.5679862622897
 30
0.0
  0
POINT
  5
DCBF
330
1F
100
AcDbEntity
  8
0
 62
     7
370
     5
100
AcDbPoint
 10
2228.446041001848
 20
-581.1017172622897
 30
0.0
  0
POINT
  5
DECF
330
1F
100
AcDbEntity
  8
0
 62
     7
370
     5
100
AcDbPoint
 10
2470.518201269178
 20
-576.6616946872675
 30
0.0
  0
POINT
  5
DED7
330
1F
100
AcDbEntity
  8
0
 62
     7
370
     5
100
AcDbPoint
 10
2470.518201269178
 20
-638.2022576872675
 30
0.0
  0
POINT
  5
E102
330
1F
100
AcDbEntity
  8
0
 62
     7
370
     5
100
AcDbPoint
 10
1449.716374392063
 20
-281.2570516923841
 30
0.0
  0
POINT
  5
E105
330
1F
100
AcDbEntity
  8
0
 62
     7
370
     5
100
AcDbPoint
 10
1449.716374392063
 20
-216.7933926923841
 30
0.0
  0
POINT
  5
E20E
330
1F
100
AcDbEntity
  8
0
 62
     7
370
     5
100
AcDbPoint
 10
1444.226360693917
 20
7.118696944552222
 30
0.0
  0
POINT
  5
E217
330
1F
100
AcDbEntity
  8
0
 62
     7
370
     5
100
AcDbPoint
 10
1444.226360693917
 20
-50.75492105544778
 30
0.0
  0
POINT
  5
E328
330
1F
100
AcDbEntity
  8
0
 62
     7
370
     5
100
AcDbPoint
 10
1674.557421043983
 20
-57.27887800498226
 30
0.0
  0
POINT
  5
E32B
330
1F
100
AcDbEntity
  8
0
 62
     7
370
     5
100
AcDbPoint
 10
1674.557421043983
 20
6.273895995017768
 30
0.0
  0
POINT
  5
E438
330
1F
100
AcDbEntity
  8
0
 62
     7
370
     5
100
AcDbPoint
 10
1221.741516539144
 20
-220.2351919986821
 30
0.0
  0
POINT
  5
E441
330
1F
100
AcDbEntity
  8
0
 62
     7
370
     5
100
AcDbPoint
 10
1221.741516539144
 20
-278.4038869986821
 30
0.0
  0
POINT
  5
E533
330
1F
100
AcDbEntity
  8
0
 62
     7
370
     5
100
AcDbPoint
 10
435.7613867553435
 20
-401.853645371286
 30
0.0
  0
POINT
  5
E537
330
1F
100
AcDbEntity
  8
0
 62
     7
370
     5
100
AcDbPoint
 10
336.0458187553437
 20
-401.853645371286
 30
0.0
  0
POINT
  5
E6D2
330
1F
100
AcDbEntity
  8
0
 62
     7
370
     5
100
AcDbPoint
 10
394.2075911881555
 20
-612.6712758301417
 30
0.0
  0
POINT
  5
E6D6
330
1F
100
AcDbEntity
  8
0
 62
     7
370
     5
100
AcDbPoint
 10
394.2075911881555
 20
-562.1020128301418
 30
0.0
  0
POINT
  5
12895
330
1F
100
AcDbEntity
  8
0
 62
     7
370
     5
100
AcDbPoint
 10
514.3576994832141
 20
-558.6978028967338
 30
0.0
  0
POINT
  5
1289C
330
1F
100
AcDbEntity
  8
0
 62
     7
370
     5
100
AcDbPoint
 10
514.3576994832141
 20
-524.0331488967338
 30
0.0
  0
POINT
  5
1289D
330
1F
100
AcDbEntity
  8
0
 62
     7
370
     5
100
AcDbPoint
 10
514.3576994832141
 20
-526.4631488967337
 30
0.0
  0
POINT
  5
1299A
330
1F
100
AcDbEntity
  8
0
 62
     7
370
     5
100
AcDbPoint
 10
273.0238152774181
 20
35.53337152575214
 30
0.0
  0
POINT
  5
1299D
330
1F
100
AcDbEntity
  8
0
 62
     7
370
     5
100
AcDbPoint
 10
273.0238152774181
 20
-16.30945047424785
 30
0.0
  0
POINT
  5
12A19
330
1F
100
AcDbEntity
  8
0
 62
     7
370
     5
100
AcDbPoint
 10
530.0071960054782
 20
34.28476473790624
 30
0.0
  0
POINT
  5
12A1A
330
1F
100
AcDbEntity
  8
0
 62
     7
370
     5
100
AcDbPoint
 10
530.0071960054782
 20
28.42976573790625
 30
0.0
  0
POINT
  5
12A1D
330
1F
100
AcDbEntity
  8
0
 62
     7
370
     5
100
AcDbPoint
 10
530.2789780054783
 20
-25.24190226209373
 30
0.0
  0
POINT
  5
12AA6
330
1F
100
AcDbEntity
  8
0
 62
     7
370
     5
100
AcDbPoint
 10
803.5390081451089
 20
38.33315219974614
 30
0.0
  0
POINT
  5
12AA7
330
1F
100
AcDbEntity
  8
0
 62
     7
370
     5
100
AcDbPoint
 10
803.5390081451089
 20
32.44315219974615
 30
0.0
  0
POINT
  5
12AAA
330
1F
100
AcDbEntity
  8
0
 62
     7
370
     5
100
AcDbPoint
 10
803.5390081451089
 20
-33.77549080025384
 30
0.0
  0
POINT
  5
12B2B
330
1F
100
AcDbEntity
  8
0
 62
     7
370
     5
100
AcDbPoint
 10
246.4739127018369
 20
-292.0641451649423
 30
0.0
  0
POINT
  5
12B40
330
1F
100
AcDbEntity
  8
0
 62
     7
370
     5
100
AcDbPoint
 10
246.1857397018369
 20
-234.4124741649423
 30
0.0
  0
POINT
  5
12B41
330
1F
100
AcDbEntity
  8
0
 62
     7
370
     5
100
AcDbPoint
 10
246.1857397018369
 20
-239.6974741649422
 30
0.0
  0
POINT
  5
12BA1
330
1F
100
AcDbEntity
  8
0
 62
     7
370
     5
100
AcDbPoint
 10
503.361992156836
 20
-293.942128217062
 30
0.0
  0
POINT
  5
12BB5
330
1F
100
AcDbEntity
  8
0
 62
     7
370
     5
100
AcDbPoint
 10
503.361992156836
 20
-232.058278217062
 30
0.0
  0
POINT
  5
12BB6
330
1F
100
AcDbEntity
  8
0
 62
     7
370
     5
100
AcDbPoint
 10
503.361992156836
 20
-237.898279217062
 30
0.0
  0
POINT
  5
12C16
330
1F
100
AcDbEntity
  8
0
 62
     7
370
     5
100
AcDbPoint
 10
773.9808530456294
 20
-320.1483272428673
 30
0.0
  0
POINT
  5
12C17
330
1F
100
AcDbEntity
  8
0
 62
     7
370
     5
100
AcDbPoint
 10
776.9808530456294
 20
-286.8983272428673
 30
0.0
  0
POINT
  5
12C2B
330
1F
100
AcDbEntity
  8
0
 62
     7
370
     5
100
AcDbPoint
 10
776.9808530456294
 20
-225.7099922428672
 30
0.0
  0
POINT
  5
12C8B
330
1F
100
AcDbEntity
  8
0
 62
     7
370
     5
100
AcDbPoint
 10
258.823540701837
 20
-572.0746798648522
 30
0.0
  0
POINT
  5
12C92
330
1F
100
AcDbEntity
  8
0
 62
     7
370
     5
100
AcDbPoint
 10
258.8235127018369
 20
-543.1961818648521
 30
0.0
  0
POINT
  5
12C93
330
1F
100
AcDbEntity
  8
0
 62
     7
370
     5
100
AcDbPoint
 10
258.8235127018369
 20
-544.8461818648523
 30
0.0
  0
POINT
  5
14051
330
1F
100
AcDbEntity
  8
0
 62
     7
370
     5
100
AcDbPoint
 10
690.9556627618442
 20
-532.2047645406313
 30
0.0
  0
POINT
  5
14058
330
1F
100
AcDbEntity
  8
0
 62
     7
370
     5
100
AcDbPoint
 10
690.9556627618442
 20
-497.5401105406314
 30
0.0
  0
POINT
  5
14059
330
1F
100
AcDbEntity
  8
0
 62
     7
370
     5
100
AcDbPoint
 10
690.9556627618442
 20
-499.9701105406314
 30
0.0
  0
POINT
  5
175ED
330
1F
100
AcDbEntity
  8
0
 62
     7
370
     5
100
AcDbPoint
 10
329.8984453452037
 20
37.75833189686949
 30
0.0
  0
POINT
  5
175F0
330
1F
100
AcDbEntity
  8
0
 62
     7
370
     5
100
AcDbPoint
 10
329.8984453452037
 20
-10.8089411031305
 30
0.0
  0
POINT
  5
17673
330
1F
100
AcDbEntity
  8
0
 62
     7
370
     5
100
AcDbPoint
 10
651.3183805762602
 20
33.1650220174441
 30
0.0
  0
POINT
  5
17677
330
1F
100
AcDbEntity
  8
0
 62
     7
370
     5
100
AcDbPoint
 10
651.3183805762602
 20
-21.99992098255592
 30
0.0
  0
POINT
  5
1770F
330
1F
100
AcDbEntity
  8
0
 62
     7
370
     5
100
AcDbPoint
 10
1014.212196760976
 20
-27.33731747488401
 30
0.0
  0
POINT
  5
17718
330
1F
100
AcDbEntity
  8
0
 62
     7
370
     5
100
AcDbPoint
 10
1014.212196760976
 20
30.00474752511599
 30
0.0
  0
POINT
  5
17790
330
1F
100
AcDbEntity
  8
0
 62
     7
370
     5
100
AcDbPoint
 10
1421.356448019548
 20
-26.9349024739204
 30
0.0
  0
POINT
  5
1779E
330
1F
100
AcDbEntity
  8
0
 62
     7
370
     5
100
AcDbPoint
 10
1421.356448019548
 20
21.9806675260796
 30
0.0
  0
POINT
  5
1779F
330
1F
100
AcDbEntity
  8
0
 62
     7
370
     5
100
AcDbPoint
 10
1413.056448019548
 20
21.9806675260796
 30
0.0
  0
POINT
  5
1781A
330
1F
100
AcDbEntity
  8
0
 62
     7
370
     5
100
AcDbPoint
 10
1720.045575829729
 20
23.92611327127983
 30
0.0
  0
POINT
  5
1781D
330
1F
100
AcDbEntity
  8
0
 62
     7
370
     5
100
AcDbPoint
 10
1720.045575829729
 20
-24.59612772872018
 30
0.0
  0
POINT
  5
178A0
330
1F
100
AcDbEntity
  8
0
 62
     7
370
     5
100
AcDbPoint
 10
359.2272976195882
 20
-230.0319820838431
 30
0.0
  0
POINT
  5
178A3
330
1F
100
AcDbEntity
  8
0
 62
     7
370
     5
100
AcDbPoint
 10
359.2273026195881
 20
-278.361407083843
 30
0.0
  0
POINT
  5
17926
330
1F
100
AcDbEntity
  8
0
 62
     7
370
     5
100
AcDbPoint
 10
669.6174077737214
 20
-230.0319820838431
 30
0.0
  0
POINT
  5
17929
330
1F
100
AcDbEntity
  8
0
 62
     7
370
     5
100
AcDbPoint
 10
669.6174087737214
 20
-278.361407083843
 30
0.0
  0
POINT
  5
179AC
330
1F
100
AcDbEntity
  8
0
 62
     7
370
     5
100
AcDbPoint
 10
1023.306532042488
 20
-235.6329118492064
 30
0.0
  0
POINT
  5
179AF
330
1F
100
AcDbEntity
  8
0
 62
     7
370
     5
100
AcDbPoint
 10
1023.306532042488
 20
-284.2001848492064
 30
0.0
  0
POINT
  5
17A32
330
1F
100
AcDbEntity
  8
0
 62
     7
370
     5
100
AcDbPoint
 10
1352.196645196622
 20
-235.6329118492064
 30
0.0
  0
POINT
  5
17A36
330
1F
100
AcDbEntity
  8
0
 62
     7
370
     5
100
AcDbPoint
 10
1352.196645196622
 20
-290.7980508492065
 30
0.0
  0
POINT
  5
17AD1
330
1F
100
AcDbEntity
  8
0
 62
     7
370
     5
100
AcDbPoint
 10
1715.365188016996
 20
-237.9716865944066
 30
0.0
  0
POINT
  5
17AD4
330
1F
100
AcDbEntity
  8
0
 62
     7
370
     5
100
AcDbPoint
 10
1715.365188016996
 20
-286.5389595944066
 30
0.0
  0
POINT
  5
17B57
330
1F
100
AcDbEntity
  8
0
 62
     7
370
     5
100
AcDbPoint
 10
331.5674947966618
 20
-480.7206417139288
 30
0.0
  0
POINT
  5
17B5A
330
1F
100
AcDbEntity
  8
0
 62
     7
370
     5
100
AcDbPoint
 10
331.5674987966619
 20
-532.8452337139288
 30
0.0
  0
POINT
  5
17BD8
330
1F
100
AcDbEntity
  8
0
 62
     7
370
     5
100
AcDbPoint
 10
667.4370134195751
 20
-483.059416459129
 30
0.0
  0
POINT
  5
17BDB
330
1F
100
AcDbEntity
  8
0
 62
     7
370
     5
100
AcDbPoint
 10
667.4370134195751
 20
-535.184008459129
 30
0.0
  0
POINT
  5
17C59
330
1F
100
AcDbEntity
  8
0
 62
     7
370
     5
100
AcDbPoint
 10
1032.757662940594
 20
-479.9258798209486
 30
0.0
  0
POINT
  5
17C5C
330
1F
100
AcDbEntity
  8
0
 62
     7
370
     5
100
AcDbPoint
 10
1032.757665940594
 20
-532.1255208209487
 30
0.0
  0
POINT
  5
17CDA
330
1F
100
AcDbEntity
  8
0
 62
     7
370
     5
100
AcDbPoint
 10
1350.446793750775
 20
-475.452849330548
 30
0.0
  0
POINT
  5
17CDE
330
1F
100
AcDbEntity
  8
0
 62
     7
370
     5
100
AcDbPoint
 10
1350.446795750775
 20
-535.7299113305479
 30
0.0
  0
POINT
  5
17D79
330
1F
100
AcDbEntity
  8
0
 62
     7
370
     5
100
AcDbPoint
 10
1724.816312373689
 20
-484.6034323315118
 30
0.0
  0
POINT
  5
17D7C
330
1F
100
AcDbEntity
  8
0
 62
     7
370
     5
100
AcDbPoint
 10
1724.816312373689
 20
-536.8030733315118
 30
0.0
  0
POINT
  5
17DFA
330
1F
100
AcDbEntity
  8
0
 62
     7
370
     5
100
AcDbPoint
 10
292.6784219762804
 20
-717.1006079596696
 30
0.0
  0
POINT
  5
17DFE
330
1F
100
AcDbEntity
  8
0
 62
     7
370
     5
100
AcDbPoint
 10
292.6784249762804
 20
-777.3013929596698
 30
0.0
  0
POINT
  5
17E99
330
1F
100
AcDbEntity
  8
0
 62
     7
370
     5
100
AcDbPoint
 10
668.1772397573285
 20
-728.8489624009062
 30
0.0
  0
POINT
  5
17E9C
330
1F
100
AcDbEntity
  8
0
 62
     7
370
     5
100
AcDbPoint
 10
668.1772397573285
 20
-780.9735614009062
 30
0.0
  0
POINT
  5
17F19
330
1F
100
AcDbEntity
  8
0
 62
     7
370
     5
100
AcDbPoint
 10
1014.680140542377
 20
-727.4779055808943
 30
0.0
  0
POINT
  5
17F1E
330
1F
100
AcDbEntity
  8
0
 62
     7
370
     5
100
AcDbPoint
 10
1014.680139542377
 20
-792.8842465808943
 30
0.0
  0
POINT
  5
17F82
330
1F
100
AcDbEntity
  8
0
 62
     7
370
     5
100
AcDbPoint
 10
1363.039112172955
 20
-778.9168242007557
 30
0.0
  0
POINT
  5
17F8B
330
1F
100
AcDbEntity
  8
0
 62
     7
370
     5
100
AcDbPoint
 10
1363.039112172955
 20
-712.5175752007558
 30
0.0
  0
POINT
  5
17FE8
330
1F
100
AcDbEntity
  8
0
 62
     7
370
     5
100
AcDbPoint
 10
1718.366870633272
 20
-723.7460446679111
 30
0.0
  0
POINT
  5
17FEB
330
1F
100
AcDbEntity
  8
0
 62
     7
370
     5
100
AcDbPoint
 10
1718.366871633272
 20
-789.389202667911
 30
0.0
  0
POINT
  5
18051
330
1F
100
AcDbEntity
  8
0
 62
     7
370
     5
100
AcDbPoint
 10
319.6383345054979
 20
-967.5893901625666
 30
0.0
  0
POINT
  5
18054
330
1F
100
AcDbEntity
  8
0
 62
     7
370
     5
100
AcDbPoint
 10
319.6383355054979
 20
-1032.973459162567
 30
0.0
  0
POINT
  5
180BA
330
1F
100
AcDbEntity
  8
0
 62
     7
370
     5
100
AcDbPoint
 10
680.5370709864296
 20
-963.1934877025301
 30
0.0
  0
POINT
  5
180BB
330
1F
100
AcDbEntity
  8
0
 62
     7
370
     5
100
AcDbPoint
 10
629.5370709864297
 20
-967.19348770253
 30
0.0
  0
POINT
  5
180BE
330
1F
100
AcDbEntity
  8
0
 62
     7
370
     5
100
AcDbPoint
 10
680.5370759864297
 20
-1028.58231170253
 30
0.0
  0
POINT
  5
18125
330
1F
100
AcDbEntity
  8
0
 62
     7
370
     5
100
AcDbPoint
 10
1025.504908559649
 20
-985.5078641637318
 30
0.0
  0
POINT
  5
18128
330
1F
100
AcDbEntity
  8
0
 62
     7
370
     5
100
AcDbPoint
 10
935.4436665596491
 20
-985.5078641637318
 30
0.0
  0
POINT
  5
181A3
330
1F
100
AcDbEntity
  8
0
 62
     7
370
     5
100
AcDbPoint
 10
1372.616021513803
 20
-994.9832624236179
 30
0.0
  0
POINT
  5
181A6
330
1F
100
AcDbEntity
  8
0
 62
     7
370
     5
100
AcDbPoint
 10
1282.554779513803
 20
-994.9832624236179
 30
0.0
  0
POINT
  5
18221
330
1F
100
AcDbEntity
  8
0
 62
     7
370
     5
100
AcDbPoint
 10
1726.183901955964
 20
-986.4057379766256
 30
0.0
  0
POINT
  5
18224
330
1F
100
AcDbEntity
  8
0
 62
     7
370
     5
100
AcDbPoint
 10
1636.122660955965
 20
-987.7852319766256
 30
0.0
  0
POINT
  5
1829F
330
1F
100
AcDbEntity
  8
0
 62
     7
370
     5
100
AcDbPoint
 10
315.0667151318947
 20
-1233.667447704089
 30
0.0
  0
POINT
  5
182A2
330
1F
100
AcDbEntity
  8
0
 62
     7
370
     5
100
AcDbPoint
 10
225.0054731318947
 20
-1234.512880704089
 30
0.0
  0
POINT
  5
1831D
330
1F
100
AcDbEntity
  8
0
 62
     7
370
     5
100
AcDbPoint
 10
666.5716365787308
 20
-1228.374582524101
 30
0.0
  0
POINT
  5
18320
330
1F
100
AcDbEntity
  8
0
 62
     7
370
     5
100
AcDbPoint
 10
576.510395578731
 20
-1229.476628524102
 30
0.0
  0
POINT
  5
1C1E5
330
1F
100
AcDbEntity
  8
0
 62
     7
370
     5
100
AcDbPoint
 10
565.1931729999843
 20
-252.0327741049043
 30
0.0
  0
POINT
  5
1C1E8
330
1F
100
AcDbEntity
  8
0
 62
     7
370
     5
100
AcDbPoint
 10
571.0793859999843
 20
-171.4824511049043
 30
0.0
  0
POINT
  5
1C393
330
1F
100
AcDbEntity
  8
0
 62
     7
370
     5
100
AcDbPoint
 10
852.7529560248229
 20
-161.0786730235244
 30
0.0
  0
POINT
  5
1C3A1
330
1F
100
AcDbEntity
  8
0
 62
     7
370
     5
100
AcDbPoint
 10
853.6840430248233
 20
-256.0650500235244
 30
0.0
  0
POINT
  5
1C476
330
1F
100
AcDbEntity
  8
0
 62
     7
370
     5
100
AcDbPoint
 10
1100.710829294269
 20
-179.9690311044011
 30
0.0
  0
POINT
  5
1C484
330
1F
100
AcDbEntity
  8
0
 62
     7
370
     5
100
AcDbPoint
 10
1097.008556294269
 20
-246.8144071044011
 30
0.0
  0
POINT
  5
1C54E
330
1F
100
AcDbEntity
  8
0
 62
     7
370
     5
100
AcDbPoint
 10
327.4559894717282
 20
-242.3690707660675
 30
0.0
  0
POINT
  5
1C54F
330
1F
100
AcDbEntity
  8
0
 62
     7
370
     5
100
AcDbPoint
 10
323.7573724717281
 20
-242.3490727660675
 30
0.0
  0
POINT
  5
1C632
330
1F
100
AcDbEntity
  8
0
 62
     7
370
     5
100
AcDbPoint
 10
301.1069300782104
 20
37.7626127561465
 30
0.0
  0
POINT
  5
1C640
330
1F
100
AcDbEntity
  8
0
 62
     7
370
     5
100
AcDbPoint
 10
301.4480630782105
 20
-36.93915824385351
 30
0.0
  0
POINT
  5
1C6B9
330
1F
100
AcDbEntity
  8
0
 62
     1
370
     5
100
AcDbPoint
 10
582.4029449258979
 20
29.4620864008466
 30
0.0
  0
POINT
  5
1C6C7
330
1F
100
AcDbEntity
  8
0
 62
     7
370
     5
100
AcDbPoint
 10
567.6899119258981
 20
-44.52450559915339
 30
0.0
  0
POINT
  5
1C740
330
1F
100
AcDbEntity
  8
0
 62
     7
370
     5
100
AcDbPoint
 10
838.8170717714807
 20
31.21800268959555
 30
0.0
  0
POINT
  5
1C74E
330
1F
100
AcDbEntity
  8
0
 62
     7
370
     5
100
AcDbPoint
 10
830.8810477714807
 20
-42.18143931040443
 30
0.0
  0
POINT
  5
1C7C7
330
1F
100
AcDbEntity
  8
0
 62
     7
370
     5
100
AcDbPoint
 10
1082.103046320498
 20
26.65705560741793
 30
0.0
  0
POINT
  5
1C850
330
1F
100
AcDbEntity
  8
0
 62
     7
370
     5
100
AcDbPoint
 10
1320.708032031059
 20
-54.79519568133104
 30
0.0
  0
POINT
  5
1C851
330
1F
100
AcDbEntity
  8
0
 62
     7
370
     5
100
AcDbPoint
 10
1317.008086031059
 20
-54.77519668133105
 30
0.0
  0
POINT
  5
1C9A2
330
1F
100
AcDbEntity
  8
0
 62
     7
370
     5
100
AcDbPoint
 10
1351.994597785224
 20
-177.9923767989125
 30
0.0
  0
POINT
  5
1C9B0
330
1F
100
AcDbEntity
  8
0
 62
     7
370
     5
100
AcDbPoint
 10
1347.069666785224
 20
-246.9150937989126
 30
0.0
  0
POINT
  5
1C9B1
330
1F
100
AcDbEntity
  8
0
 62
     7
370
     5
100
AcDbPoint
 10
1343.369666785224
 20
-246.9154057989126
 30
0.0
  0
POINT
  5
1CBC0
330
1F
100
AcDbEntity
  8
0
 62
     7
370
     5
100
AcDbPoint
 10
317.2946666194903
 20
-384.0973382926297
 30
0.0
  0
POINT
  5
1CBCE
330
1F
100
AcDbEntity
  8
0
 62
     7
370
     5
100
AcDbPoint
 10
305.7896836194903
 20
-451.8667572926297
 30
0.0
  0
POINT
  5
1CE43
330
1F
100
AcDbEntity
  8
0
 62
     7
370
     5
100
AcDbPoint
 10
610.2304875856865
 20
-368.9630837278421
 30
0.0
  0
POINT
  5
1CE51
330
1F
100
AcDbEntity
  8
0
 62
     7
370
     5
100
AcDbPoint
 10
597.1811595856864
 20
-452.2435397278421
 30
0.0
  0
POINT
  5
1CFFB
330
1F
100
AcDbEntity
  8
0
 62
     7
370
     5
100
AcDbPoint
 10
839.2202580447737
 20
-378.5041957660768
 30
0.0
  0
POINT
  5
1D009
330
1F
100
AcDbEntity
  8
0
 62
     7
370
     5
100
AcDbPoint
 10
825.6021750447738
 20
-448.0865117660767
 30
0.0
  0
POINT
  5
1D1B5
330
1F
100
AcDbEntity
  8
0
 62
     7
370
     5
100
AcDbPoint
 10
1100.187375054744
 20
-364.0090280464956
 30
0.0
  0
POINT
  5
1D1C3
330
1F
100
AcDbEntity
  8
0
 62
     7
370
     5
100
AcDbPoint
 10
1086.025427054744
 20
-454.4328780464955
 30
0.0
  0
POINT
  5
1D374
330
1F
100
AcDbEntity
  8
0
 62
     7
370
     5
100
AcDbPoint
 10
1381.669306853374
 20
-372.7791370028926
 30
0.0
  0
POINT
  5
1D382
330
1F
100
AcDbEntity
  8
0
 62
     7
370
     5
100
AcDbPoint
 10
1368.476322853373
 20
-450.1870130028925
 30
0.0
  0
POINT
  5
1D6D5
330
1F
100
AcDbEntity
  8
0
 62
     7
370
     5
100
AcDbPoint
 10
555.980533625745
 20
-586.1972507296687
 30
0.0
  0
POINT
  5
1D6E2
330
1F
100
AcDbEntity
  8
0
 62
     7
370
     5
100
AcDbPoint
 10
545.2688206257452
 20
-642.7388317296686
 30
0.0
  0
POINT
  5
1D913
330
1F
100
AcDbEntity
  8
0
 62
     7
370
     5
100
AcDbPoint
 10
811.7646110501747
 20
-579.6655508098913
 30
0.0
  0
POINT
  5
1D920
330
1F
100
AcDbEntity
  8
0
 62
     7
370
     5
100
AcDbPoint
 10
805.5538980501744
 20
-635.4594578098913
 30
0.0
  0
POINT
  5
1DA40
330
1F
100
AcDbEntity
  8
0
 62
     7
370
     5
100
AcDbPoint
 10
298.0831789389279
 20
-586.3373810040569
 30
0.0
  0
POINT
  5
1E2C1
330
1F
100
AcDbEntity
  8
0
 62
     7
370
     5
100
AcDbPoint
 10
1353.213944337289
 20
-176.2661773838116
 30
0.0
  0
POINT
  5
1E2CF
330
1F
100
AcDbEntity
  8
0
 62
     7
370
     5
100
AcDbPoint
 10
1348.289013337289
 20
-245.1888943838117
 30
0.0
  0
POINT
  5
1E2D0
330
1F
100
AcDbEntity
  8
0
 62
     7
370
     5
100
AcDbPoint
 10
1344.589013337289
 20
-245.1892063838116
 30
0.0
  0
POINT
  5
1E4A3
330
1F
100
AcDbEntity
  8
0
 62
     7
370
     5
100
AcDbPoint
 10
1326.152836266696
 20
34.20326680208106
 30
0.0
  0
POINT
  5
1E4B1
330
1F
100
AcDbEntity
  8
0
 62
     7
370
     5
100
AcDbPoint
 10
1326.493969266696
 20
-40.49850419791893
 30
0.0
  0
POINT
  5
20BCD
330
1F
100
AcDbEntity
  8
0
 62
     7
370
     5
100
AcDbPoint
 10
198.5275522941832
 20
-13.7218025139382
 30
0.0
  0
POINT
  5
20BD6
330
1F
100
AcDbEntity
  8
0
 62
     7
370
     5
100
AcDbPoint
 10
220.4558262941833
 20
15.6077834860618
 30
0.0
  0
POINT
  5
20BD7
330
1F
100
AcDbEntity
  8
0
 62
     7
370
     5
100
AcDbPoint
 10
198.4558262941832
 20
12.6077834860618
 30
0.0
  0
POINT
  5
20C58
330
1F
100
AcDbEntity
  8
0
 62
     7
370
     5
100
AcDbPoint
 10
414.326812844455
 20
11.02280615656721
 30
0.0
  0
POINT
  5
20C59
330
1F
100
AcDbEntity
  8
0
 62
     7
370
     5
100
AcDbPoint
 10
392.3268128444551
 20
7.022806156567212
 30
0.0
  0
POINT
  5
20C5C
330
1F
100
AcDbEntity
  8
0
 62
     7
370
     5
100
AcDbPoint
 10
392.3268138444551
 20
-22.29245184343279
 30
0.0
  0
POINT
  5
20CE3
330
1F
100
AcDbEntity
  8
0
 62
     7
370
     5
100
AcDbPoint
 10
595.8481562583682
 20
11.26212415656721
 30
0.0
  0
POINT
  5
20CE4
330
1F
100
AcDbEntity
  8
0
 62
     7
370
     5
100
AcDbPoint
 10
561.8481562583682
 20
3.262124156567208
 30
0.0
  0
POINT
  5
20CE6
330
1F
100
AcDbEntity
  8
0
 62
     7
370
     5
100
AcDbPoint
 10
561.8481562583682
 20
-39.26495684343278
 30
0.0
  0
POINT
  5
20D5E
330
1F
100
AcDbEntity
  8
0
 62
     7
370
     5
100
AcDbPoint
 10
796.8108405913596
 20
-1.622354670075452
 30
0.0
  0
POINT
  5
20D5F
330
1F
100
AcDbEntity
  8
0
 62
     7
370
     5
100
AcDbPoint
 10
771.8108405913596
 20
-6.622354670075452
 30
0.0
  0
POINT
  5
20D62
330
1F
100
AcDbEntity
  8
0
 62
     7
370
     5
100
AcDbPoint
 10
771.8108415913595
 20
-44.22139367007546
 30
0.0
  0
POINT
  5
20DE5
330
1F
100
AcDbEntity
  8
0
 62
     7
370
     5
100
AcDbPoint
 10
997.5956593431575
 20
6.154053161141687
 30
0.0
  0
POINT
  5
20DE6
330
1F
100
AcDbEntity
  8
0
 62
     7
370
     5
100
AcDbPoint
 10
963.5956593431576
 20
-3.84594683885831
 30
0.0
  0
POINT
  5
20DE8
330
1F
100
AcDbEntity
  8
0
 62
     7
370
     5
100
AcDbPoint
 10
963.5956593431576
 20
-48.6248158388583
 30
0.0
  0
POINT
  5
20E5D
330
1F
100
AcDbEntity
  8
0
 62
     7
370
     5
100
AcDbPoint
 10
209.7442369247441
 20
-211.8062287972217
 30
0.0
  0
POINT
  5
20E66
330
1F
100
AcDbEntity
  8
0
 62
     7
370
     5
100
AcDbPoint
 10
231.7442369247441
 20
-173.8710347972217
 30
0.0
  0
POINT
  5
20E67
330
1F
100
AcDbEntity
  8
0
 62
     7
370
     5
100
AcDbPoint
 10
209.7442369247441
 20
-179.3710347972217
 30
0.0
  0
POINT
  5
20EE1
330
1F
100
AcDbEntity
  8
0
 62
     7
370
     5
100
AcDbPoint
 10
384.6743099214819
 20
-210.4126915562921
 30
0.0
  0
POINT
  5
20EEB
330
1F
100
AcDbEntity
  8
0
 62
     7
370
     5
100
AcDbPoint
 10
409.6743099214817
 20
-168.248029556292
 30
0.0
  0
POINT
  5
20EEC
330
1F
100
AcDbEntity
  8
0
 62
     7
370
     5
100
AcDbPoint
 10
384.6743099214819
 20
-174.248029556292
 30
0.0
  0
POINT
  5
20F6B
330
1F
100
AcDbEntity
  8
0
 62
     7
370
     5
100
AcDbPoint
 10
589.027789486203
 20
-154.2267571311068
 30
0.0
  0
POINT
  5
20F6C
330
1F
100
AcDbEntity
  8
0
 62
     7
370
     5
100
AcDbPoint
 10
555.027789486203
 20
-166.2267571311068
 30
0.0
  0
POINT
  5
20F6E
330
1F
100
AcDbEntity
  8
0
 62
     7
370
     5
100
AcDbPoint
 10
555.027789486203
 20
-220.1583441311068
 30
0.0
  0
POINT
  5
20FE7
330
1F
100
AcDbEntity
  8
0
 62
     7
370
     5
100
AcDbPoint
 10
794.4609892408081
 20
-176.9240641499829
 30
0.0
  0
POINT
  5
20FE8
330
1F
100
AcDbEntity
  8
0
 62
     7
370
     5
100
AcDbPoint
 10
772.4609892408077
 20
-183.4240641499829
 30
0.0
  0
POINT
  5
20FEB
330
1F
100
AcDbEntity
  8
0
 62
     7
370
     5
100
AcDbPoint
 10
772.4609902408077
 20
-220.0080011499829
 30
0.0
  0
POINT
  5
21068
330
1F
100
AcDbEntity
  8
0
 62
     7
370
     5
100
AcDbPoint
 10
980.7257767233267
 20
-225.8659069279295
 30
0.0
  0
POINT
  5
21072
330
1F
100
AcDbEntity
  8
0
 62
     7
370
     5
100
AcDbPoint
 10
1000.725776723327
 20
-181.1593259279295
 30
0.0
  0
POINT
  5
21073
330
1F
100
AcDbEntity
  8
0
 62
     7
370
     5
100
AcDbPoint
 10
980.7257767233267
 20
-188.1593259279295
 30
0.0
  0
POINT
  5
24E51
330
1F
100
AcDbEntity
  8
0
 62
     7
370
     5
100
AcDbPoint
 10
233.2059843961101
 20
-36.0789366070161
 30
0.0
  0
POINT
  5
24E5A
330
1F
100
AcDbEntity
  8
0
 62
     7
370
     5
100
AcDbPoint
 10
314.4377803961102
 20
35.1487553929839
 30
0.0
  0
POINT
  5
24E5B
330
1F
100
AcDbEntity
  8
0
 62
     7
370
     5
100
AcDbPoint
 10
234.4377803961101
 20
19.1487553929839
 30
0.0
  0
POINT
  5
24ECD
330
1F
100
AcDbEntity
  8
0
 62
     7
370
     5
100
AcDbPoint
 10
503.7517578950278
 20
-44.34341865794009
 30
0.0
  0
POINT
  5
24ED5
330
1F
100
AcDbEntity
  8
0
 62
     7
370
     5
100
AcDbPoint
 10
589.9610418950277
 20
46.51953834205989
 30
0.0
  0
POINT
  5
24ED6
330
1F
100
AcDbEntity
  8
0
 62
     7
370
     5
100
AcDbPoint
 10
504.9610418950278
 20
26.51953834205989
 30
0.0
  0
POINT
  5
24F33
330
1F
100
AcDbEntity
  8
0
 62
     7
370
     5
100
AcDbPoint
 10
804.954816789268
 20
-53.36089903708293
 30
0.0
  0
POINT
  5
24F3B
330
1F
100
AcDbEntity
  8
0
 62
     7
370
     5
100
AcDbPoint
 10
901.222594789268
 20
37.79953596291708
 30
0.0
  0
POINT
  5
24F3C
330
1F
100
AcDbEntity
  8
0
 62
     7
370
     5
100
AcDbPoint
 10
806.2225947892681
 20
17.79953596291707
 30
0.0
  0
POINT
  5
24F9C
330
1F
100
AcDbEntity
  8
0
 62
     7
370
     5
100
AcDbPoint
 10
1210.776659634684
 20
28.2041337387349
 30
0.0
  0
POINT
  5
24F9D
330
1F
100
AcDbEntity
  8
0
 62
     7
370
     5
100
AcDbPoint
 10
1125.776659634684
 20
3.204133738734923
 30
0.0
  0
POINT
  5
24FA0
330
1F
100
AcDbEntity
  8
0
 62
     7
370
     5
100
AcDbPoint
 10
1122.825092634684
 20
-62.80906226126507
 30
0.0
  0
POINT
  5
25003
330
1F
100
AcDbEntity
  8
0
 62
     7
370
     5
100
AcDbPoint
 10
1533.294671945107
 20
39.46909335504969
 30
0.0
  0
POINT
  5
25004
330
1F
100
AcDbEntity
  8
0
 62
     7
370
     5
100
AcDbPoint
 10
1423.294671945108
 20
14.46909335504972
 30
0.0
  0
POINT
  5
25007
330
1F
100
AcDbEntity
  8
0
 62
     7
370
     5
100
AcDbPoint
 10
1423.294671945108
 20
-61.69357464495027
 30
0.0
  0
POINT
  5
25069
330
1F
100
AcDbEntity
  8
0
 62
     7
370
     5
100
AcDbPoint
 10
279.5191352462189
 20
-235.8578081995934
 30
0.0
  0
POINT
  5
2506A
330
1F
100
AcDbEntity
  8
0
 62
     7
370
     5
100
AcDbPoint
 10
224.5191352462189
 20
-255.8578081995934
 30
0.0
  0
POINT
  5
2506E
330
1F
100
AcDbEntity
  8
0
 62
     7
370
     5
100
AcDbPoint
 10
223.2724782462189
 20
-314.3072531995934
 30
0.0
  0
POINT
  5
250D0
330
1F
100
AcDbEntity
  8
0
 62
     7
370
     5
100
AcDbPoint
 10
552.5501754157779
 20
-231.1433806045495
 30
0.0
  0
POINT
  5
250D1
330
1F
100
AcDbEntity
  8
0
 62
     7
370
     5
100
AcDbPoint
 10
487.5501754157781
 20
-256.1433806045495
 30
0.0
  0
POINT
  5
250D5
330
1F
100
AcDbEntity
  8
0
 62
     7
370
     5
100
AcDbPoint
 10
487.5501754157781
 20
-323.3343576045494
 30
0.0
  0
POINT
  5
25137
330
1F
100
AcDbEntity
  8
0
 62
     7
370
     5
100
AcDbPoint
 10
855.1566106432487
 20
-229.371519220024
 30
0.0
  0
POINT
  5
25138
330
1F
100
AcDbEntity
  8
0
 62
     7
370
     5
100
AcDbPoint
 10
762.1566106432488
 20
-260.871519220024
 30
0.0
  0
POINT
  5
2513C
330
1F
100
AcDbEntity
  8
0
 62
     7
370
     5
100
AcDbPoint
 10
760.9104996432486
 20
-349.238300220024
 30
0.0
  0
POINT
  5
2519F
330
1F
100
AcDbEntity
  8
0
 62
     7
370
     5
100
AcDbPoint
 10
1192.36388959937
 20
-218.9805098816409
 30
0.0
  0
POINT
  5
251A0
330
1F
100
AcDbEntity
  8
0
 62
     7
370
     5
100
AcDbPoint
 10
1092.36388959937
 20
-258.9805098816409
 30
0.0
  0
POINT
  5
251A4
330
1F
100
AcDbEntity
  8
0
 62
     7
370
     5
100
AcDbPoint
 10
1092.54560259937
 20
-365.6111158816409
 30
0.0
  0
POINT
  5
27C4D
330
1F
100
AcDbEntity
  8
1
 62
     7
370
     5
100
AcDbPoint
 10
185.936684180983
 20
12.22790901277693
 30
0.0
  0
POINT
  5
27C4E
330
1F
100
AcDbEntity
  8
1
 62
     7
370
     5
100
AcDbPoint
 10
185.936684180983
 20
9.517281012776946
 30
0.0
  0
POINT
  5
27DA0
330
1F
100
AcDbEntity
  8
1
 62
     7
370
     5
100
AcDbPoint
 10
159.7240994851886
 20
22.81916357545765
 30
0.0
  0
POINT
  5
27DA1
330
1F
100
AcDbEntity
  8
1
 62
     7
370
     5
100
AcDbPoint
 10
159.7240994851886
 20
20.10853557545767
 30
0.0
  0
POINT
  5
28B80
330
1F
100
AcDbEntity
  8
0
 62
     7
370
     5
100
AcDbPoint
 10
-108.3844236581584
 20
-61.41399158543199
 30
0.0
  0
POINT
  5
28D5B
330
1F
100
AcDbEntity
  8
0
 62
     7
370
     5
100
AcDbPoint
 10
-94.15639370577505
 20
-48.79010226493504
 30
0.0
  0
DIMENSION
  5
28EA8
330
1F
100
AcDbEntity
  8
SK2
100
AcDbDimension
  2
*D8
 10
-29.95520115624896
 20
5.0
 30
0.0
 11
-29.95520115624896
 21
-0.1295199999999852
 31
0.0
 70
   161
  1
M<>
 71
     5
 42
10.0
  3
MM_STANDARD
100
AcDbAlignedDimension
 13
-20.0
 23
-5.0
 33
0.0
 14
-20.0
 24
5.0
 34
0.0
1001
ACAD
1000
DSTYLE
1002
{
1070
    78
1070
     9
1070
    79
1070
     2
1070
    90
1070
     1
1070
   172
1070
     1
1070
   345
1005
14
1070
   346
1005
14
1070
   347
1005
14
1002
}
1001
ACAD_DSTYLE_DIMARC_LENGTH_SYMBOL
1070
   379
1070
     1
1001
ACAD_DSTYLE_DIM_LINETYPE
1070
   380
1005
14
1001
ACAD_DSTYLE_DIM_EXT1_LINETYPE
1070
   381
1005
14
1001
ACAD_DSTYLE_DIM_EXT2_LINETYPE
1070
   382
1005
14
  0
DIMENSION
  5
28EC3
330
1F
100
AcDbEntity
  8
2
100
AcDbDimension
  2
*D9
 10
26.95152153198751
 20
39.6104982270379
 30
0.0
 11
13.475213
 21
39.61094700000001
 31
0.0
 70
   160
 71
     5
 42
26.95050216045042
  3
MM_STANDARD
100
AcDbAlignedDimension
 13
0.0
 23
9.0
 33
0.0
 14
26.950425
 24
6.682482000000022
 34
0.0
 50
359.998092
100
AcDbRotatedDimension
1001
ACAD
1000
DSTYLE
1002
{
1070
   279
1070
     0
1070
   271
1070
     0
1070
    78
1070
     9
1070
    79
1070
     2
1070
    90
1070
     1
1070
   172
1070
     1
1070
   345
1005
14
1070
   346
1005
14
1070
   347
1005
14
1002
}
1001
ACAD_DSTYLE_DIMARC_LENGTH_SYMBOL
1070
   379
1070
     1
1001
ACAD_DSTYLE_DIM_LINETYPE
1070
   380
1005
14
1001
ACAD_DSTYLE_DIM_EXT1_LINETYPE
1070
   381
1005
14
1001
ACAD_DSTYLE_DIM_EXT2_LINETYPE
1070
   382
1005
14
  0
DIMENSION
  5
28ED0
330
1F
100
AcDbEntity
  8
SK2
100
AcDbDimension
  2
*D10
 10
26.95185452971906
 20
49.61016520712737
 30
0.0
 11
3.475212999999995
 21
49.61094700000001
 31
0.0
 70
   160
 71
     5
 42
46.95036894583243
  3
MM_STANDARD
100
AcDbAlignedDimension
 13
-20.0
 23
5.0
 33
0.0
 14
26.950425
 24
6.682482000000022
 34
0.0
 50
359.998092
100
AcDbRotatedDimension
1001
ACAD
1000
DSTYLE
1002
{
1070
    78
1070
     9
1070
   271
1070
     0
1070
    79
1070
     2
1070
    90
1070
     1
1070
   172
1070
     1
1070
   345
1005
14
1070
   346
1005
14
1070
   347
1005
14
1002
}
1001
ACAD_DSTYLE_DIMARC_LENGTH_SYMBOL
1070
   379
1070
     1
1001
ACAD_DSTYLE_DIM_LINETYPE
1070
   380
1005
14
1001
ACAD_DSTYLE_DIM_EXT1_LINETYPE
1070
   381
1005
14
1001
ACAD_DSTYLE_DIM_EXT2_LINETYPE
1070
   382
1005
14
  0
DIMENSION
  5
28EDD
330
1F
100
AcDbEntity
  8
2
100
AcDbDimension
  2
*D11
 10
25.34445600000001
 20
7.561700999999997
 30
0.0
 11
41.47659307795636
 21
18.55249361260034
 31
0.0
 70
   162
  1
<>~83%%d
 71
     5
 42
1.169370807830524
  3
MM_STANDARD
100
AcDb2LineAngularDimension
 13
26.950425
 23
6.880008000000002
 33
0.0
 14
26.950425
 24
6.837648000000002
 34
0.0
 15
26.950425
 25
6.880008000000002
 35
0.0
 16
22.73377300000001
 26
17.14425500000002
 36
0.0
1001
ACAD
1000
DSTYLE
1002
{
1070
   279
1070
     0
1070
    78
1070
     9
1070
    79
1070
     2
1070
    90
1070
     1
1070
   172
1070
     1
1070
   345
1005
14
1070
   346
1005
14
1070
   347
1005
14
1002
}
1001
ACAD_DSTYLE_DIMARC_LENGTH_SYMBOL
1070
   379
1070
     1
1001
ACAD_DSTYLE_DIM_LINETYPE
1070
   380
1005
14
1001
ACAD_DSTYLE_DIM_EXT1_LINETYPE
1070
   381
1005
14
1001
ACAD_DSTYLE_DIM_EXT2_LINETYPE
1070
   382
1005
14
  0
DIMENSION
  5
28EEC
330
1F
100
AcDbEntity
  8
2
100
AcDbDimension
  2
*D12
 10
26.95118337699964
 20
29.61112878751555
 30
0.0
 11
35.99273291520488
 21
29.61082769594002
 31
0.0
 70
   160
 71
     5
 42
11.70052948701839
  3
MM_STANDARD
100
AcDbAlignedDimension
 13
15.25
 23
9.975508000000019
 33
0.0
 14
26.950425
 24
6.837648000000002
 34
0.0
 50
359.998092
100
AcDbRotatedDimension
1001
ACAD
1000
DSTYLE
1002
{
1070
   279
1070
     0
1070
    78
1070
     9
1070
    79
1070
     2
1070
    90
1070
     1
1070
   172
1070
     1
1070
   345
1005
14
1070
   346
1005
14
1070
   347
1005
14
1002
}
1001
ACAD_DSTYLE_DIMARC_LENGTH_SYMBOL
1070
   379
1070
     1
1001
ACAD_DSTYLE_DIM_LINETYPE
1070
   380
1005
14
1001
ACAD_DSTYLE_DIM_EXT1_LINETYPE
1070
   381
1005
14
1001
ACAD_DSTYLE_DIM_EXT2_LINETYPE
1070
   382
1005
14
  0
POINT
  5
28EFA
330
1F
100
AcDbEntity
  8
1
 62
     7
370
     5
100
AcDbPoint
 10
-232.8318923611295
 20
7.497061983849674
 30
0.0
  0
LINE
  5
28EFD
330
1F
100
AcDbEntity
  8
4
100
AcDbLine
 10
30.78598599999998
 20
0.0
 30
0.0
 11
0.0
 21
0.0
 31
0.0
  0
DIMENSION
  5
28FD4
330
1F
100
AcDbEntity
  8
SK2
100
AcDbDimension
  2
*D13
 10
-40.28600646744924
 20
-9.000000000000008
 30
0.0
 11
-43.13201841404093
 21
0.0000000000000046
 31
0.0
 70
    32
  1
%%C<>
 71
     5
 41
0.0
 42
18.0
  3
MM_STANDARD
100
AcDbAlignedDimension
 13
0.0
 23
9.0
 33
0.0
 14
0.0
 24
-9.0
 34
0.0
 50
90.0
100
AcDbRotatedDimension
1001
ACAD
1000
DSTYLE
1002
{
1070
    78
1070
     9
1070
    79
1070
     2
1070
    90
1070
     1
1070
   172
1070
     1
1070
   345
1005
14
1070
   346
1005
14
1070
   347
1005
14
1002
}
1001
ACAD_DSTYLE_DIMARC_LENGTH_SYMBOL
1070
   379
1070
     1
1001
ACAD_DSTYLE_DIM_LINETYPE
1070
   380
1005
14
1001
ACAD_DSTYLE_DIM_EXT1_LINETYPE
1070
   381
1005
14
1001
ACAD_DSTYLE_DIM_EXT2_LINETYPE
1070
   382
1005
14
  0
DIMENSION
  5
29105
330
1F
100
AcDbEntity
  8
2
100
AcDbDimension
  2
*D14
 10
57.03224439989845
 20
-10.0
 30
0.0
 11
57.03224439989845
 21
-0.0000014016097794
 31
0.0
 70
   160
  1
%%C<>
 71
     5
 41
0.0
 42
19.99999719678044
  3
MM_STANDARD
100
AcDbAlignedDimension
 13
15.25000081551187
 23
9.999997196780434
 33
0.0
 14
30.76505
 24
-10.0
 34
0.0
 50
90.0
100
AcDbRotatedDimension
1001
ACAD
1000
DSTYLE
1002
{
1070
   279
1070
     0
1070
    76
1070
     1
1070
   282
1070
     1
1070
   271
1070
     0
1070
    78
1070
     9
1070
    79
1070
     2
1070
    90
1070
     1
1070
   172
1070
     1
1070
   345
1005
14
1070
   346
1005
14
1070
   347
1005
14
1070
     7
1000
_NONE
1070
   173
1070
     1
1002
}
1001
ACAD_DSTYLE_DIMARC_LENGTH_SYMBOL
1070
   379
1070
     1
1001
ACAD_DSTYLE_DIM_LINETYPE
1070
   380
1005
14
1001
ACAD_DSTYLE_DIM_EXT1_LINETYPE
1070
   381
1005
14
1001
ACAD_DSTYLE_DIM_EXT2_LINETYPE
1070
   382
1005
14
  0
LINE
  5
29161
330
1F
100
AcDbEntity
  8
SK1
100
AcDbLine
 10
-20.0
 20
2.397128000000002
 30
0.0
 11
-20.0
 21
-5.0
 31
0.0
  0
LINE
  5
29162
330
1F
100
AcDbEntity
  8
SK1
100
AcDbLine
 10
-20.0
 20
5.0
 30
0.0
 11
-20.0
 21
2.397128000000002
 31
0.0
  0
LINE
  5
29163
330
1F
100
AcDbEntity
  8
SK1
100
AcDbLine
 10
-9.456765000000018
 20
5.0
 30
0.0
 11
-9.456765000000018
 21
2.397128000000002
 31
0.0
  0
LINE
  5
29164
330
1F
100
AcDbEntity
  8
SK1
100
AcDbLine
 10
-9.456765000000018
 20
2.397128000000002
 30
0.0
 11
-9.456765000000018
 21
-5.0
 31
0.0
  0
LINE
  5
29165
330
1F
100
AcDbEntity
  8
SK1
100
AcDbLine
 10
-5.165737000000006
 20
2.516983999999999
 30
0.0
 11
-5.165737000000006
 21
-5.25
 31
0.0
  0
LINE
  5
29166
330
1F
100
AcDbEntity
  8
SK1
100
AcDbLine
 10
-5.165737000000006
 20
5.25
 30
0.0
 11
-5.165737000000006
 21
2.516983999999999
 31
0.0
  0
LINE
  5
29167
330
1F
100
AcDbEntity
  8
1
100
AcDbLine
 10
0.0
 20
-7.898242999999999
 30
0.0
 11
0.0
 21
9.0
 31
0.0
  0
LINE
  5
29168
330
1F
100
AcDbEntity
  8
1
100
AcDbLine
 10
0.0
 20
-9.0
 30
0.0
 11
0.0
 21
-7.898242999999999
 31
0.0
  0
LINE
  5
29169
330
1F
100
AcDbEntity
  8
1
100
AcDbLine
 10
12.14028499999998
 20
-7.898242999999999
 30
0.0
 11
12.14028499999998
 21
-8.999035000000002
 31
0.0
  0
LINE
  5
2916A
330
1F
100
AcDbEntity
  8
1
100
AcDbLine
 10
11.43626599999999
 20
-9.0
 30
0.0
 11
12.14028499999998
 21
-8.999035000000002
 31
0.0
  0
LINE
  5
2916B
330
1F
100
AcDbEntity
  8
1
100
AcDbLine
 10
11.0
 20
4.974936999999997
 30
0.0
 11
2.0
 21
4.974936999999997
 31
0.0
  0
LINE
  5
2916C
330
1F
100
AcDbEntity
  8
1
100
AcDbLine
 10
2.0
 20
-4.974936999999997
 30
0.0
 11
11.0
 21
-4.974936999999997
 31
0.0
  0
LINE
  5
2916D
330
1F
100
AcDbEntity
  8
1
100
AcDbLine
 10
11.0
 20
-4.974936999999997
 30
0.0
 11
11.0
 21
4.974936999999997
 31
0.0
  0
LINE
  5
2916E
330
1F
100
AcDbEntity
  8
1
100
AcDbLine
 10
2.0
 20
-4.974936999999997
 30
0.0
 11
2.0
 21
4.974936999999997
 31
0.0
  0
LINE
  5
2916F
330
1F
100
AcDbEntity
  8
1
100
AcDbLine
 10
12.14028499999998
 20
7.656866999999997
 30
0.0
 11
12.14028499999998
 21
-7.898242999999999
 31
0.0
  0
SPLINE
  5
29170
330
1F
100
AcDbEntity
  8
1
100
AcDbSpline
210
0.0
220
0.0
230
1.0
 70
     8
 71
     5
 72
    12
 73
     6
 74
     0
 42
0.000000001
 43
0.0000000001
 40
0.0
 40
0.0
 40
0.0
 40
0.0
 40
0.0
 40
0.0
 40
7.995312365085477
 40
7.995312365085477
 40
7.995312365085477
 40
7.995312365085477
 40
7.995312365085477
 40
7.995312365085477
 10
8.279891358887821
 20
8.814039299551426
 30
0.0
 10
8.999207701947907
 20
8.66541117996757
 30
0.0
 10
9.746611755656887
 20
8.45258600266165
 30
0.0
 10
10.52027925982432
 20
8.197847872767397
 30
0.0
 10
11.31877850692598
 20
7.926470096935695
 30
0.0
 10
12.14028484331143
 20
7.656866562375874
 30
0.0
  0
SPLINE
  5
29171
330
1F
100
AcDbEntity
  8
1
100
AcDbSpline
210
0.0
220
0.0
230
1.0
 70
     8
 71
     5
 72
    15
 73
     9
 74
     0
 42
0.000000001
 43
0.0000000001
 40
0.0
 40
0.0
 40
0.0
 40
0.0
 40
0.0
 40
0.0
 40
1.15588806215511
 40
1.15588806215511
 40
1.15588806215511
 40
1.586011785333929
 40
1.586011785333929
 40
1.586011785333929
 40
1.586011785333929
 40
1.586011785333929
 40
1.586011785333929
 10
8.587124314140339
 20
8.983754087149812
 30
0.0
 10
8.455270329290442
 20
8.982232149703925
 30
0.0
 10
8.326242199866698
 20
8.979243974838338
 30
0.0
 10
8.189841518293036
 20
8.974057873976796
 30
0.0
 10
8.049614272248023
 20
8.960342606343473
 30
0.0
 10
7.994004035190329
 20
8.935779888525393
 30
0.0
 10
7.986158980422544
 20
8.928356463641216
 30
0.0
 10
7.985464110131431
 20
8.920318899799292
 30
0.0
 10
7.991106367830667
 20
8.911896710168271
 30
0.0
  0
SPLINE
  5
29172
330
1F
100
AcDbEntity
  8
1
100
AcDbSpline
210
0.0
220
0.0
230
1.0
 70
     8
 71
     5
 72
    15
 73
     9
 74
     0
 42
0.000000001
 43
0.0000000001
 40
0.0
 40
0.0
 40
0.0
 40
0.0
 40
0.0
 40
0.0
 40
0.6639544179497952
 40
0.6639544179497952
 40
0.6639544179497952
 40
0.9707720563468839
 40
0.9707720563468839
 40
0.9707720563468839
 40
0.9707720563468839
 40
0.9707720563468839
 40
0.9707720563468839
 10
7.991106367830667
 20
8.911896710168271
 30
0.0
 10
7.999815959338262
 20
8.898895915947944
 30
0.0
 10
8.023624499335369
 20
8.884978952728562
 30
0.0
 10
8.059810155824294
 20
8.870735964332304
 30
0.0
 10
8.123629338389719
 20
8.850574551387866
 30
0.0
 10
8.200634266157834
 20
8.831417805465733
 30
0.0
 10
8.226128979721353
 20
8.825478167066172
 30
0.0
 10
8.252574266017402
 20
8.819683670327931
 30
0.0
 10
8.279891358887795
 20
8.814039299551431
 30
0.0
  0
ARC
  5
29173
330
1F
100
AcDbEntity
  8
1
100
AcDbCircle
 10
11.41775999999999
 20
-237.929687
 30
0.0
 40
246.929676
100
AcDbArc
 50
89.99570600000001
 51
90.656815
  0
LINE
  5
29174
330
1F
100
AcDbEntity
  8
1
100
AcDbLine
 10
11.43626599999999
 20
9.0
 30
0.0
 11
12.14028499999998
 21
8.999035000000002
 31
0.0
  0
LINE
  5
29175
330
1F
100
AcDbEntity
  8
1
100
AcDbLine
 10
13.01206499999998
 20
-9.192723
 30
0.0
 11
13.01206499999998
 21
-8.07376
 31
0.0
  0
ARC
  5
29176
330
1F
100
AcDbEntity
  8
1
100
AcDbCircle
 10
12.145185
 20
-11.035533
 30
0.0
 40
2.036518
100
AcDbArc
 50
64.80715899999992
 51
90.13786899999992
  0
LINE
  5
29177
330
1F
100
AcDbEntity
  8
1
100
AcDbLine
 10
13.01206499999998
 20
-8.07376
 30
0.0
 11
13.01206499999998
 21
7.529296000000002
 31
0.0
  0
ARC
  5
29178
330
1F
100
AcDbEntity
  8
1
100
AcDbCircle
 10
12.92461499999999
 20
9.948003999999995
 30
0.0
 40
2.420990000000001
100
AcDbArc
 50
251.1022789999999
 51
272.0706639999999
  0
ARC
  5
29179
330
1F
100
AcDbEntity
  8
1
100
AcDbCircle
 10
12.145185
 20
11.035533
 30
0.0
 40
2.036517999999999
100
AcDbArc
 50
269.8621309999996
 51
295.1928409999997
  0
LINE
  5
2917A
330
1F
100
AcDbEntity
  8
1
100
AcDbLine
 10
15.40455699999998
 20
-8.486170999999997
 30
0.0
 11
15.40455699999998
 21
-8.07376
 31
0.0
  0
ARC
  5
2917B
330
1F
100
AcDbEntity
  8
1
100
AcDbCircle
 10
10.97506299999998
 20
266.9679910000001
 30
0.0
 40
276.168228
100
AcDbArc
 50
270.422614
 51
270.745113
  0
ARC
  5
2917C
330
1F
100
AcDbEntity
  8
1
100
AcDbCircle
 10
17.55532799999997
 20
-6.994953999999999
 30
0.0
 40
3.648565999999998
100
AcDbArc
 50
206.494127
 51
212.558501
  0
LINE
  5
2917D
330
1F
100
AcDbEntity
  8
1
100
AcDbLine
 10
14.34374699999998
 20
-8.619370000000001
 30
0.0
 11
14.289749
 21
-8.622693999999995
 31
0.0
  0
ARC
  5
2917E
330
1F
100
AcDbEntity
  8
1
100
AcDbCircle
 10
-0.5770570000000248
 20
114.49497
 30
0.0
 40
124.015209
100
AcDbArc
 50
276.910243
 51
277.404194
  0
LINE
  5
2917F
330
1F
100
AcDbEntity
  8
1
100
AcDbLine
 10
15.40455699999998
 20
-8.07376
 30
0.0
 11
15.40455699999998
 21
6.854790999999997
 31
0.0
  0
ARC
  5
29180
330
1F
100
AcDbEntity
  8
1
100
AcDbCircle
 10
23.243909
 20
39.185261
 30
0.0
 40
33.26784099999999
100
AcDbArc
 50
252.088125
 51
256.370223
  0
ARC
  5
29181
330
1F
100
AcDbEntity
  8
1
100
AcDbCircle
 10
10.97264899999999
 20
-267.221366
 30
0.0
 40
276.421613
100
AcDbArc
 50
89.23394
 51
89.577273
  0
LINE
  5
29182
330
1F
100
AcDbEntity
  8
1
100
AcDbLine
 10
18.45519999999998
 20
-7.760933999999998
 30
0.0
 11
18.45519999999998
 21
-7.840606999999997
 31
0.0
  0
ARC
  5
29183
330
1F
100
AcDbEntity
  8
1
100
AcDbCircle
 10
-34.42173400000001
 20
234.49213
 30
0.0
 40
248.034513
100
AcDbArc
 50
281.588688
 51
282.308995
  0
LINE
  5
29184
330
1F
100
AcDbEntity
  8
1
100
AcDbLine
 10
18.45519999999998
 20
6.100795999999997
 30
0.0
 11
18.45519999999998
 21
-7.760933999999998
 31
0.0
  0
ARC
  5
29185
330
1F
100
AcDbEntity
  8
1
100
AcDbCircle
 10
22.12816999999998
 20
27.475728
 30
0.0
 40
21.688771
100
AcDbArc
 50
251.941051
 51
260.24978
  0
ARC
  5
29186
330
1F
100
AcDbEntity
  8
1
100
AcDbCircle
 10
9.119371999999998
 20
34.947572
 30
0.0
 40
43.79481799999999
100
AcDbArc
 50
282.308304
 51
283.2478669999998
  0
ARC
  5
29187
330
1F
100
AcDbEntity
  8
1
100
AcDbCircle
 10
8.121012999999976
 20
38.930464
 30
0.0
 40
47.900907
100
AcDbArc
 50
283.318504
 51
289.036002
  0
LINE
  5
29188
330
1F
100
AcDbEntity
  8
1
100
AcDbLine
 10
18.45519999999998
 20
6.100795999999997
 30
0.0
 11
18.77387899999998
 21
6.048649000000001
 31
0.0
  0
ARC
  5
29189
330
1F
100
AcDbEntity
  8
1
100
AcDbCircle
 10
11.92871199999999
 20
-37.19856500000001
 30
0.0
 40
43.78544799999999
100
AcDbArc
 50
74.34409699999998
 51
81.005841
  0
LINE
  5
2918A
330
1F
100
AcDbEntity
  8
1
100
AcDbLine
 10
23.74458399999997
 20
4.962270000000002
 30
0.0
 11
23.74458399999997
 21
-6.351227999999997
 31
0.0
  0
LINE
  5
2918B
330
1F
100
AcDbEntity
  8
1
100
AcDbLine
 10
25.72542299999998
 20
4.403712999999996
 30
0.0
 11
23.74458399999997
 21
4.962270000000002
 31
0.0
  0
LINE
  5
2918C
330
1F
100
AcDbEntity
  8
1
100
AcDbLine
 10
25.72542299999998
 20
4.403712999999996
 30
0.0
 11
25.72542299999998
 21
-5.665804999999997
 31
0.0
  0
LINE
  5
2918D
330
1F
100
AcDbEntity
  8
1
100
AcDbLine
 10
23.74458399999997
 20
-6.351227999999997
 30
0.0
 11
25.72542299999998
 21
-5.665804999999997
 31
0.0
  0
SPLINE
  5
2918E
330
1F
100
AcDbEntity
  8
1
100
AcDbSpline
210
0.0
220
0.0
230
1.0
 70
     8
 71
     5
 72
    18
 73
    12
 74
     0
 42
0.000000001
 43
0.0000000001
 40
0.0
 40
0.0
 40
0.0
 40
0.0
 40
0.0
 40
0.0
 40
0.4353200517193833
 40
0.4353200517193833
 40
0.4353200517193833
 40
0.8718963502449055
 40
0.8718963502449055
 40
0.8718963502449055
 40
1.086982315579354
 40
1.086982315579354
 40
1.086982315579354
 40
1.086982315579354
 40
1.086982315579354
 40
1.086982315579354
 10
26.14999999999998
 20
3.988280018596078
 30
0.0
 10
26.14999999999998
 20
4.029099155017163
 30
0.0
 10
26.14214365908572
 20
4.070517392560006
 30
0.0
 10
26.12645488134714
 20
4.111641794031405
 30
0.0
 10
26.08010336234008
 20
4.191591248116983
 30
0.0
 10
26.0064978591399
 20
4.26345615841548
 30
0.0
 10
25.96346902265104
 20
4.296597949169801
 30
0.0
 10
25.89145555779263
 20
4.340735964260857
 30
0.0
 10
25.81032409893714
 20
4.375697794188993
 30
0.0
 10
25.78268723442977
 20
4.386171895361974
 30
0.0
 10
25.75433653694921
 20
4.395525012093501
 30
0.0
 10
25.72542302283364
 20
4.403713388564
 30
0.0
  0
LINE
  5
2918F
330
1F
100
AcDbEntity
  8
1
100
AcDbLine
 10
26.14999999999998
 20
3.988280000000003
 30
0.0
 11
26.14999999999998
 21
-5.080345000000001
 31
0.0
  0
ARC
  5
29190
330
1F
100
AcDbEntity
  8
1
100
AcDbCircle
 10
25.48219599999999
 20
-5.068502999999998
 30
0.0
 40
0.668567
100
AcDbArc
 50
310.8165070000002
 51
358.9840540000001
  0
ARC
  5
29191
330
1F
100
AcDbEntity
  8
1
100
AcDbCircle
 10
25.399923
 20
-4.716580999999997
 30
0.0
 40
1.003411000000005
100
AcDbArc
 50
288.9274270000004
 51
301.1909950000004
  0
ELLIPSE
  5
29192
330
1F
100
AcDbEntity
  8
1
100
AcDbEllipse
 10
19.87478999999998
 20
15.621597
 30
0.0
 11
12.31697177886963
 21
-6.349960803985598
 31
0.0
210
0.0
220
0.0
230
1.0
 40
0.925417
 41
4.183581468093303
 42
4.209174144798123
  0
LINE
  5
29193
330
1F
100
AcDbEntity
  8
1
100
AcDbLine
 10
14.21492099999998
 20
7.166088000000002
 30
0.0
 11
14.66836999999998
 21
9.175542
 31
0.0
  0
LINE
  5
29194
330
1F
100
AcDbEntity
  8
SK1
100
AcDbLine
 10
-9.456765000000018
 20
5.0
 30
0.0
 11
-20.0
 21
5.0
 31
0.0
  0
LINE
  5
29195
330
1F
100
AcDbEntity
  8
SK1
100
AcDbLine
 10
-9.456765000000018
 20
-5.0
 30
0.0
 11
-20.0
 21
-5.0
 31
0.0
  0
ARC
  5
29196
330
1F
100
AcDbEntity
  8
SK1
100
AcDbCircle
 10
-7.385534000000008
 20
-6.399999999999997
 30
0.0
 40
2.500000000000003
100
AcDbArc
 50
27.38710699999989
 51
145.9442019999999
  0
LINE
  5
29197
330
1F
100
AcDbEntity
  8
SK1
100
AcDbLine
 10
0.0
 20
-5.25
 30
0.0
 11
-5.165737000000006
 21
-5.25
 31
0.0
  0
ARC
  5
29198
330
1F
100
AcDbEntity
  8
SK1
100
AcDbCircle
 10
-7.385534000000008
 20
6.399999999999997
 30
0.0
 40
2.499999999999994
100
AcDbArc
 50
214.055798
 51
332.612893
  0
LINE
  5
29199
330
1F
100
AcDbEntity
  8
SK1
100
AcDbLine
 10
0.0
 20
5.25
 30
0.0
 11
-5.165737000000006
 21
5.25
 31
0.0
  0
LINE
  5
2919A
330
1F
100
AcDbEntity
  8
1
100
AcDbLine
 10
11.43626599999999
 20
-9.0
 30
0.0
 11
0.0
 21
-9.0
 31
0.0
  0
LINE
  5
2919B
330
1F
100
AcDbEntity
  8
1
100
AcDbLine
 10
11.43626599999999
 20
9.0
 30
0.0
 11
0.0
 21
9.0
 31
0.0
  0
ELLIPSE
  5
2919C
330
1F
100
AcDbEntity
  8
1
100
AcDbEllipse
 10
19.68131199999999
 20
4.477313999999998
 30
0.0
 11
-1.511014223098754
 21
0.7789967656135559
 31
0.0
210
0.0
220
0.0
230
1.0
 40
0.925417
 41
4.523704827080835
 42
5.532313801651122
  0
ELLIPSE
  5
2919D
330
1F
100
AcDbEntity
  8
1
100
AcDbEllipse
 10
20.47314799999998
 20
6.013232000000002
 30
0.0
 11
-1.511014223098754
 21
0.7789967656135559
 31
0.0
210
0.0
220
0.0
230
1.0
 40
0.925417
 41
6.283063890315056
 42
6.771713245286878
  0
ELLIPSE
  5
2919E
330
1F
100
AcDbEntity
  8
1
100
AcDbEllipse
 10
20.47314799999998
 20
6.013232000000002
 30
0.0
 11
-1.511014223098754
 21
0.7789967656135559
 31
0.0
210
0.0
220
0.0
230
1.0
 40
0.925417
 41
3.377430765072398
 42
6.283063890315056
  0
ELLIPSE
  5
2919F
330
1F
100
AcDbEntity
  8
1
100
AcDbEllipse
 10
20.47314799999998
 20
6.013232000000002
 30
0.0
 11
-1.511014223098754
 21
0.7789967656135559
 31
0.0
210
0.0
220
0.0
230
1.0
 40
0.925417
 41
3.25637384462149
 42
3.377430765072396
  0
LINE
  5
291A0
330
1F
100
AcDbEntity
  8
1
100
AcDbLine
 10
26.94539499999999
 20
6.656891000000002
 30
0.0
 11
26.14999999999998
 21
3.132106
 31
0.0
  0
ARC
  5
291A1
330
1F
100
AcDbEntity
  8
1
100
AcDbCircle
 10
26.74706599999999
 20
6.697158999999999
 30
0.0
 40
0.2027689999999955
100
AcDbArc
 50
348.5226609999998
 51
62.89527599999985
  0
LINE
  5
291A2
330
1F
100
AcDbEntity
  8
1
100
AcDbLine
 10
15.00032299999998
 20
9.798505
 30
0.0
 11
14.729422
 21
9.584557
 31
0.0
  0
LINE
  5
291A3
330
1F
100
AcDbEntity
  8
1
100
AcDbLine
 10
14.56876399999999
 20
9.176854999999999
 30
0.0
 11
14.729422
 21
9.584557
 31
0.0
  0
LINE
  5
291A4
330
1F
100
AcDbEntity
  8
1
100
AcDbLine
 10
14.39490899999998
 20
7.115616999999998
 30
0.0
 11
15.00032299999998
 21
9.798505
 31
0.0
  0
ELLIPSE
  5
291A5
330
1F
100
AcDbEntity
  8
1
100
AcDbEllipse
 10
13.243639
 20
-26.018827
 30
0.0
 11
-4.73136568069458
 21
-35.74434661865235
 31
0.0
210
0.0
220
0.0
230
1.0
 40
0.8472389999999998
 41
2.836997615865927
 42
3.233081107630289
  0
ARC
  5
291A6
330
1F
100
AcDbEntity
  8
1
100
AcDbCircle
 10
15.17839199999997
 20
9.758651999999996
 30
0.0
 40
0.1824619999999998
100
AcDbArc
 50
128.3131120000001
 51
167.3848220000001
  0
ARC
  5
291A7
330
1F
100
AcDbEntity
  8
1
100
AcDbCircle
 10
15.18270999999999
 20
9.751478999999999
 30
0.0
 40
0.190816000000001
100
AcDbArc
 50
88.27897700000123
 51
127.9950650000012
  0
ARC
  5
291A8
330
1F
100
AcDbEntity
  8
1
100
AcDbCircle
 10
14.90723499999999
 20
9.544914999999999
 30
0.0
 40
0.1821400000000009
100
AcDbArc
 50
128.2897360000007
 51
158.5200160000006
  0
LINE
  5
291A9
330
1F
100
AcDbEntity
  8
1
100
AcDbLine
 10
14.73774499999999
 20
9.611610999999999
 30
0.0
 11
14.729422
 21
9.584557
 31
0.0
  0
LINE
  5
291AA
330
1F
100
AcDbEntity
  8
1
100
AcDbLine
 10
15.065271
 20
9.901819999999997
 30
0.0
 11
14.79437399999998
 21
9.687874999999998
 31
0.0
  0
LINE
  5
291AB
330
1F
100
AcDbEntity
  8
1
100
AcDbLine
 10
14.56643699999998
 20
9.176885
 30
0.0
 11
14.73774499999999
 21
9.611610999999999
 31
0.0
  0
ARC
  5
291AC
330
1F
100
AcDbEntity
  8
1
100
AcDbCircle
 10
26.74706599999999
 20
6.697158999999999
 30
0.0
 40
0.2027689999999955
100
AcDbArc
 50
348.5226609999998
 51
62.89527599999985
  0
LINE
  5
291AD
330
1F
100
AcDbEntity
  8
1
100
AcDbLine
 10
26.94539499999999
 20
6.656891000000002
 30
0.0
 11
26.14999999999998
 21
3.132106
 31
0.0
  0
LINE
  5
291AE
330
1F
100
AcDbEntity
  8
1
100
AcDbLine
 10
14.39490899999998
 20
7.115616999999998
 30
0.0
 11
15.00032299999998
 21
9.798505
 31
0.0
  0
ARC
  5
291AF
330
1F
100
AcDbEntity
  8
1
100
AcDbCircle
 10
15.18270899999999
 20
9.751481999999999
 30
0.0
 40
0.1908119999999985
100
AcDbArc
 50
88.27868700000204
 51
128.0118780000021
  0
ELLIPSE
  5
291B0
330
1F
100
AcDbEntity
  8
1
100
AcDbEllipse
 10
13.243639
 20
-26.018827
 30
0.0
 11
-4.73136568069458
 21
-35.74434661865235
 31
0.0
210
0.0
220
0.0
230
1.0
 40
0.8472389999999998
 41
2.836997615865927
 42
3.233081107630289
  0
ELLIPSE
  5
291B1
330
1F
100
AcDbEntity
  8
1
100
AcDbEllipse
 10
45.226293
 20
-55.83995399999999
 30
0.0
 11
29.42106437683107
 21
-46.03771591186524
 31
0.0
210
0.0
220
0.0
230
0.9999999999999998
 40
0.537908
 41
2.80644568453604
 42
3.1337830647421
  0
ELLIPSE
  5
291B2
330
1F
100
AcDbEntity
  8
1
100
AcDbEllipse
 10
-3.891341000000011
 20
39.453037
 30
0.0
 11
29.66247940063477
 21
-46.49594879150391
 31
0.0
210
0.0
220
0.0
230
1.0
 40
0.5354100000000002
 41
5.950044897044217
 42
6.275830917981277
  0
LINE
  5
291B3
330
1F
100
AcDbEntity
  8
1
100
AcDbLine
 10
26.15356
 20
-5.120972999999998
 30
0.0
 11
26.67449399999998
 21
-6.442942999999998
 31
0.0
  0
LINE
  5
291B4
330
1F
100
AcDbEntity
  8
1
100
AcDbLine
 10
26.94539499999999
 20
-6.656891000000002
 30
0.0
 11
26.67449399999998
 21
-6.442942999999998
 31
0.0
  0
LINE
  5
291B5
330
1F
100
AcDbEntity
  8
1
100
AcDbLine
 10
26.94539499999999
 20
-6.656891000000002
 30
0.0
 11
26.15000499999999
 21
-3.132128999999998
 31
0.0
  0
LINE
  5
291B6
330
1F
100
AcDbEntity
  8
1
100
AcDbLine
 10
26.15356
 20
-5.120972999999998
 30
0.0
 11
26.14470599999999
 21
-5.081737000000003
 31
0.0
  0
ARC
  5
291B7
330
1F
100
AcDbEntity
  8
1
100
AcDbCircle
 10
26.47617799999998
 20
-6.483214000000002
 30
0.0
 40
0.2027600000000091
100
AcDbArc
 50
297.101846000003
 51
11.47882000000302
  0
LINE
  5
291B8
330
1F
100
AcDbEntity
  8
1
100
AcDbLine
 10
26.83959899999999
 20
-6.877948000000002
 30
0.0
 11
26.56869799999998
 21
-6.664000000000001
 31
0.0
  0
ARC
  5
291B9
330
1F
100
AcDbEntity
  8
1
100
AcDbCircle
 10
26.74706599999999
 20
-6.697158999999999
 30
0.0
 40
0.2027689999999975
100
AcDbArc
 50
297.1047240000004
 51
11.47733900000039
  0
ARC
  5
291BA
330
1F
100
AcDbEntity
  8
1
100
AcDbCircle
 10
25.96031199999999
 20
-5.162376
 30
0.0
 40
0.1977569999999989
100
AcDbArc
 50
321.2314579999993
 51
12.09270399999941
  0
LINE
  5
291BB
330
1F
100
AcDbEntity
  8
1
100
AcDbLine
 10
26.06727599999999
 20
-5.391548
 30
0.0
 11
26.56869799999998
 21
-6.664000000000001
 31
0.0
  0
ARC
  5
291BC
330
1F
100
AcDbEntity
  8
1
100
AcDbCircle
 10
13.74106999999998
 20
17.704616
 30
0.0
 40
26.121998
100
AcDbArc
 50
275.8174959999999
 51
294.5174999999998
  0
ARC
  5
291BD
330
1F
100
AcDbEntity
  8
1
100
AcDbCircle
 10
13.87988199999998
 20
17.300614
 30
0.0
 40
27.11657499999999
100
AcDbArc
 50
295.5783739999999
 51
297.900386
  0
ARC
  5
291BE
330
1F
100
AcDbEntity
  8
1
100
AcDbCircle
 10
14.30162299999998
 20
16.230195
 30
0.0
 40
25.965812
100
AcDbArc
 50
271.359203
 51
273.749207
  0
LINE
  5
291BF
330
1F
100
AcDbEntity
  8
1
100
AcDbLine
 10
14.47429099999999
 20
-8.603479999999997
 30
0.0
 11
14.917542
 21
-9.728312000000004
 31
0.0
  0
LINE
  5
291C0
330
1F
100
AcDbEntity
  8
1
100
AcDbLine
 10
15.18844299999998
 20
-9.942259999999995
 30
0.0
 11
14.917542
 21
-9.728312000000004
 31
0.0
  0
ELLIPSE
  5
291C1
330
1F
100
AcDbEntity
  8
1
100
AcDbEllipse
 10
13.243639
 20
26.018827
 30
0.0
 11
4.73136568069458
 21
-35.74434661865235
 31
0.0
210
0.0
220
0.0
230
1.0
 40
0.8472389999999998
 41
6.19169685313833
 42
6.587780344902028
  0
ARC
  5
291C2
330
1F
100
AcDbEntity
  8
1
100
AcDbCircle
 10
15.18270999999999
 20
-9.751479000000003
 30
0.0
 40
0.1908160000000028
100
AcDbArc
 50
232.0049350000005
 51
271.7210230000006
  0
ARC
  5
291C3
330
1F
100
AcDbEntity
  8
1
100
AcDbCircle
 10
14.91181999999998
 20
-9.537480999999999
 30
0.0
 40
0.1908670000000047
100
AcDbArc
 50
232.0130219999991
 51
271.7174489999991
  0
ARC
  5
291C4
330
1F
100
AcDbEntity
  8
1
100
AcDbCircle
 10
14.90723499999999
 20
-9.544915000000003
 30
0.0
 40
0.1821400000000115
100
AcDbArc
 50
201.4799839999993
 51
231.7102639999994
  0
LINE
  5
291C5
330
1F
100
AcDbEntity
  8
1
100
AcDbLine
 10
15.065271
 20
-9.901819999999997
 30
0.0
 11
14.79437399999998
 21
-9.687874999999998
 31
0.0
  0
LINE
  5
291C6
330
1F
100
AcDbEntity
  8
1
100
AcDbLine
 10
14.34660699999998
 20
-8.619023999999996
 30
0.0
 11
14.73774499999999
 21
-9.611610999999996
 31
0.0
  0
ARC
  5
291C7
330
1F
100
AcDbEntity
  8
1
100
AcDbCircle
 10
26.74706599999999
 20
-6.697158999999999
 30
0.0
 40
0.2027689999999975
100
AcDbArc
 50
297.1047240000004
 51
11.47733900000039
  0
LINE
  5
291C8
330
1F
100
AcDbEntity
  8
1
100
AcDbLine
 10
26.94539499999999
 20
-6.656891000000002
 30
0.0
 11
26.15000499999999
 21
-3.132128999999998
 31
0.0
  0
ARC
  5
291C9
330
1F
100
AcDbEntity
  8
1
100
AcDbCircle
 10
15.18270899999999
 20
-9.751481999999995
 30
0.0
 40
0.1908119999999994
100
AcDbArc
 50
231.9877569999996
 51
271.7213189999998
  0
ELLIPSE
  5
291CA
330
1F
100
AcDbEntity
  8
1
100
AcDbEllipse
 10
13.243639
 20
26.018827
 30
0.0
 11
4.73136568069458
 21
-35.74434661865235
 31
0.0
210
0.0
220
0.0
230
1.0
 40
0.8472389999999998
 41
6.19169685313833
 42
6.587780344902028
  0
LINE
  5
291CC
330
1F
100
AcDbEntity
  8
SK4
100
AcDbLine
 10
0.0
 20
0.0
 30
0.0
 11
-24.61745200000001
 21
0.0
 31
0.0
  0
LINE
  5
291CD
330
1F
100
AcDbEntity
  8
SK3
100
AcDbLine
 10
9.133974999999992
 20
1.316374000000003
 30
0.0
 11
9.133974999999992
 21
-1.5
 31
0.0
  0
LINE
  5
291CE
330
1F
100
AcDbEntity
  8
SK3
100
AcDbLine
 10
9.133974999999992
 20
1.5
 30
0.0
 11
9.133974999999992
 21
-1.316373999999995
 31
0.0
  0
LINE
  5
291FD
330
1F
100
AcDbEntity
  8
SK3
100
AcDbLine
 10
10.0
 20
0.0
 30
0.0
 11
9.133974999999992
 21
-1.5
 31
0.0
  0
LINE
  5
291FE
330
1F
100
AcDbEntity
  8
SK3
100
AcDbLine
 10
10.0
 20
0.0
 30
0.0
 11
9.133974999999992
 21
1.5
 31
0.0
  0
LINE
  5
291FF
330
1F
100
AcDbEntity
  8
SK3
100
AcDbLine
 10
9.133974999999992
 20
1.5
 30
0.0
 11
-20.0
 21
1.5
 31
0.0
  0
LINE
  5
29200
330
1F
100
AcDbEntity
  8
SK3
100
AcDbLine
 10
9.133974999999992
 20
-1.5
 30
0.0
 11
-20.0
 21
-1.5
 31
0.0
  0
LINE
  5
2923C
330
1F
100
AcDbEntity
  8
SK3
100
AcDbLine
 10
9.133974999999992
 20
1.5
 30
0.0
 11
15.40475229643479
 21
6.855387511205272
 31
0.0
  0
LINE
  5
2923D
330
1F
100
AcDbEntity
  8
SK3
100
AcDbLine
 10
9.733024907542274
 20
0.4624146400930726
 30
0.0
 11
16.75835860643531
 21
6.462210610281927
 31
0.0
  0
INSERT
  5
29243
330
1F
100
AcDbEntity
  8
SK2
100
AcDbBlockReference
  2
CERO_POINT
 10
-0.0000000000036948
 20
-0.0000000000000142
 30
0.0
  0
POINT
  5
2967A
330
1F
100
AcDbEntity
  8
1
 62
     3
370
     5
100
AcDbPoint
 10
23.67371789088895
 20
88.82916750398262
 30
0.0
  0
LWPOLYLINE
  5
29854
330
1F
100
AcDbEntity
  8
CUT
100
AcDbPolyline
 90
     1520
 70
     1
 43
0.0
 10
15.21955567606227
 20
9.977164004479313
 42
0.3509914447098917
 10
15.00683555792432
 20
9.820624022042396
 10
15.006835
 20
9.820623999999996
 10
13.84499100368252
 20
5.475182013773078
 10
13.84465474277691
 20
5.474479270604961
 10
13.84436285583263
 20
5.473768718776386
 10
13.84411575824324
 20
5.473050621519745
 10
13.84391368278311
 20
5.472325045118863
 10
13.84375682987987
 20
5.471592155267481
 10
13.84364536845558
 20
5.470852201135283
 10
13.84357943676802
 20
5.470105499433945
 10
13.84355914325194
 20
5.469352418483175
 10
13.84358456736024
 20
5.468593362276759
 10
13.84365576040529
 20
5.467828754548588
 10
13.84377274640012
 20
5.467059022838717
 10
13.84393552289965
 20
5.46628458255939
 10
13.844144061842
 20
5.465505821061095
 10
13.84439831038965
 20
5.464723081698599
 10
13.84469819177072
 20
5.463936647896979
 10
13.84504360612021
 20
5.463146727217683
 10
13.84543443132123
 20
5.462353435424558
 10
13.84587052384627
 20
5.461556780549894
 10
13.84635179374227
 20
5.460756649891768
 10
13.84687840480146
 20
5.459952896405455
 10
13.84745046071901
 20
5.459145483727962
 10
13.84806792067491
 20
5.458334492504338
 10
13.84873061598029
 20
5.457520104092703
 10
13.84943826672532
 20
5.456702584269136
 10
13.85019049842704
 20
5.455882266932554
 10
13.85098685867731
 20
5.455059537809589
 10
13.85182683379068
 20
5.454234818159464
 10
13.85270986545227
 20
5.453408548478886
 10
13.85363536736568
 20
5.452581172206915
 10
13.85460274190086
 20
5.451753119429842
 10
13.85561139674204
 20
5.450924790586077
 10
13.85666076153555
 20
5.450096540171023
 10
13.85775030453777
 20
5.449268660441962
 10
13.85887954926301
 20
5.448441365122926
 10
13.86004809113138
 20
5.447614773109582
 10
13.8612556141167
 20
5.446788892174112
 10
13.86250193358798
 20
5.445963606876327
 10
13.86378712769298
 20
5.445138754980945
 10
13.86511121756269
 20
5.444314261316653
 10
13.86647401950682
 20
5.443490149063329
 10
13.86787516875903
 20
5.442666526872114
 10
13.8693141443539
 20
5.441843575964504
 10
13.87079029400395
 20
5.441021537231409
 10
13.87230285897664
 20
5.44020069833224
 10
13.8738509989713
 20
5.439381380793983
 10
13.87543381699619
 20
5.438563927110271
 10
13.87705038424544
 20
5.437748687840465
 10
13.87869976497605
 20
5.436936008708728
 10
13.8803810413849
 20
5.436126217703097
 10
13.88209333848571
 20
5.435319612174563
 10
13.88383584898606
 20
5.434516445936151
 10
13.88560785816433
 20
5.433716916361984
 10
13.88740876874676
 20
5.432921151486373
 10
13.88923812578438
 20
5.432129197102876
 10
13.89109564153009
 20
5.431341003863403
 10
13.89298125035188
 20
5.430556427164903
 10
13.8948950623363
 20
5.42977532175186
 10
13.89683703138639
 20
5.428997614626932
 10
13.8988069143282
 20
5.428223301094381
 10
13.90080429509523
 20
5.427452436101433
 10
13.90282860891302
 20
5.426685125579647
 10
13.90487916648364
 20
5.425921517786274
 10
13.90695517817022
 20
5.425161794645616
 10
13.90905577818147
 20
5.424406163090398
 10
13.91118004875622
 20
5.423654846403139
 10
13.91332704434791
 20
5.422908075557496
 10
13.91549581580916
 20
5.422166080559645
 10
13.91768543457624
 20
5.421429081789636
 10
13.91989501685365
 20
5.420697281342759
 10
13.92212374779857
 20
5.419970854370908
 10
13.92437090570548
 20
5.41924994042395
 10
13.92663588619059
 20
5.418534634791082
 10
13.92891822637643
 20
5.417824979842191
 10
13.93121762907631
 20
5.417120956369236
 10
13.93353399232062
 20
5.416422475695644
 10
13.93586744491922
 20
5.415729406231074
 10
13.93821808264818
 20
5.415041650377402
 10
13.94058581766209
 20
5.414359160449824
 10
13.94297039610184
 20
5.413681933156165
 10
13.9453714193543
 20
5.413010003934518
 10
13.94778836531209
 20
5.412343441290876
 10
13.9502206096332
 20
5.411682341136762
 10
13.95266744700081
 20
5.411026821126863
 10
13.9551281123829
 20
5.410377014996661
 10
13.95760180229206
 20
5.409733066900076
 10
13.9600876960451
 20
5.409095125747088
 10
13.96258497702286
 20
5.408463339541378
 10
13.96509285392987
 20
5.407837849717948
 10
13.96761058205406
 20
5.407218785480773
 10
13.97013748452648
 20
5.406606258140418
 10
13.97267297358103
 20
5.406000355451682
 10
13.97521657181416
 20
5.405401135951222
 10
13.97776793344458
 20
5.404808623295197
 10
13.98032686557296
 20
5.404222800596889
 10
13.98289334944555
 20
5.403643604763463
 10
13.99959829982102
 20
5.399901708197523
 10
14.01630513316827
 20
5.396161591726304
 10
14.03301383725477
 20
5.392423236249829
 10
14.04972439942281
 20
5.38868662273084
 10
14.06643680660469
 20
5.384951732193782
 10
14.08315104534306
 20
5.381218545722626
 10
14.09986710181125
 20
5.377487044458724
 10
14.11658496183356
 20
5.373757209598648
 10
14.13330461090555
 20
5.370029022392027
 10
14.1500260342144
 20
5.366302464139391
 10
14.16674921665918
 20
5.362577516190012
 10
14.18347414287117
 20
5.358854159939747
 10
14.20020079723418
 20
5.355132376828874
 10
14.21692916390485
 20
5.351412148339941
 10
14.23365922683297
 20
5.347693455995598
 10
14.25039096978177
 20
5.343976281356446
 10
14.26712437634827
 20
5.340260606018873
 10
14.28385942998352
 20
5.336546411612902
 10
14.30059611401302
 20
5.332833679800023
 10
14.3173344116569
 20
5.32912239227104
 10
14.33407430605034
 20
5.325412530743914
 10
14.35081578026382
 20
5.321704076961598
 10
14.36755881732344
 20
5.317997012689883
 10
14.38430340023125
 20
5.31429131971524
 10
14.40104951198554
 20
5.310586979842657
 10
14.41779713560115
 20
5.306883974893478
 10
14.43454625412981
 20
5.303182286703258
 10
14.4512968506804
 20
5.29948189711959
 10
14.4680489084393
 20
5.295782787999947
 10
14.4848024106907
 20
5.292084941209533
 10
14.50155734083688
 20
5.288388338619117
 10
14.51831368241855
 20
5.284692962102875
 10
14.53507141913514
 20
5.280998793536233
 10
14.55183053486513
 20
5.277305814793707
 10
14.56859101258963
 20
5.273614008030516
 10
14.58535282993126
 20
5.26992335684033
 10
14.60211596618406
 20
5.266233844439875
 10
14.61888040489258
 20
5.262545453004061
 10
14.63564613304854
 20
5.258858163876056
 10
14.65241314028076
 20
5.255171957779108
 10
14.66918141804513
 20
5.251486815028372
 10
14.68595095881446
 20
5.247802715742746
 10
14.70272175526846
 20
5.244119640056688
 10
14.7194937994836
 20
5.240437568332042
 10
14.73626708212312
 20
5.236756481369877
 10
14.75304159162685
 20
5.233076360622296
 10
14.7698173134012
 20
5.22939718840428
 10
14.78659422900907
 20
5.225718948105502
 10
14.80337231535975
 20
5.222041624402161
 10
14.82015154389886
 20
5.218365203468808
 10
14.83693187979825
 20
5.214689673190168
 10
14.85371331497935
 20
5.211015014654687
 10
14.87049606362922
 20
5.207341151921323
 10
14.88728031882672
 20
5.20366801500587
 10
14.90406611226991
 20
5.199995575836247
 10
14.92085333067423
 20
5.196323843714324
 10
14.93764173308479
 20
5.192652860541846
 10
14.95443096818857
 20
5.188982696046362
 10
14.97122059162673
 20
5.185313443007151
 10
14.98801008330687
 20
5.181645212481152
 10
15.00479886471528
 20
5.17797812902888
 10
15.02158631622921
 20
5.174312325940364
 10
15.0383717944291
 20
5.170647940461075
 10
15.05515464941092
 20
5.166985109017838
 10
15.07193424209834
 20
5.163323962444777
 10
15.08870996155507
 20
5.159664621209223
 10
15.10548124229706
 20
5.156007190637661
 10
15.12224758160483
 20
5.152351756141642
 10
15.13900856197978
 20
5.148698377074924
 10
15.15576391447545
 20
5.145047071604316
 10
15.17251350084315
 20
5.141397826967433
 10
15.18925727766686
 20
5.137750610435668
 10
15.20599529019994
 20
5.134105370740138
 10
15.22272766660665
 20
5.130462039379511
 10
15.23945461220376
 20
5.126820531927832
 10
15.25617640370205
 20
5.123180749342353
 10
15.27289338344787
 20
5.119542579271353
 10
15.2896059536647
 20
5.115905897361967
 10
15.30631457069472
 20
5.112270568568018
 10
15.32301973924029
 20
5.108636448457833
 10
15.3397220066056
 20
5.105003384522075
 10
15.35642195693812
 20
5.101371217481568
 10
15.37312020547023
 20
5.097739782595124
 10
15.38981739276072
 20
5.094108910967369
 10
15.40651417893637
 20
5.090478430856568
 10
15.42321123793346
 20
5.086848168982451
 10
15.4399092517394
 20
5.083217951834044
 10
15.45660890463417
 20
5.079587606977488
 10
15.47331087743197
 20
5.075956964363868
 10
15.49001584172271
 20
5.072325857637039
 10
15.50672445411358
 20
5.068694125441459
 10
15.52343735047061
 20
5.065061612730001
 10
15.54015514016018
 20
5.061428172071795
 10
15.55687840020303
 20
5.057793664979492
 10
15.57360740504966
 20
5.054158021931846
 10
15.59034195802818
 20
5.050521279869926
 10
15.60708256284362
 20
5.046883322157661
 10
15.62383032255265
 20
5.043243900944853
 10
15.64058656877132
 20
5.039602719408997
 10
15.65735249088283
 20
5.035959513997124
 10
15.67412876524526
 20
5.032314136667597
 10
15.69091518439938
 20
5.028666637131962
 10
15.7077348716716
 20
5.025012013909098
 10
15.72488148625295
 20
5.021286650232768
 10
15.74219341046956
 20
5.0175257874187
 10
15.7590215729888
 20
5.013870330699856
 10
15.77514697852521
 20
5.010367616147227
 10
15.7909675178301
 20
5.006930959452384
 10
15.80667687560378
 20
5.00351813680399
 10
15.82245595594172
 20
5.000089792084567
 10
15.83846508291367
 20
4.996611138332118
 10
15.8547866213184
 20
4.993064440374696
 10
15.87138524901922
 20
4.989457657530598
 10
15.88815643684973
 20
4.985813706597478
 10
15.90500740117285
 20
4.982152530691255
 10
15.92186748044852
 20
4.978488570282534
 10
15.93850628599258
 20
4.974870858700412
 10
15.95513968744434
 20
4.971251955905048
 10
15.97220596649673
 20
4.967536542419535
 10
15.98974362320963
 20
4.96371657470882
 10
16.00747493803185
 20
4.95985294961621
 10
16.02529610543755
 20
4.955968789175836
 10
16.04304574960709
 20
4.952099724989039
 10
16.06058740005771
 20
4.948275907053629
 10
16.0779096456525
 20
4.944500177468841
 10
16.09513259557276
 20
4.940746668511531
 10
16.11243543357412
 20
4.936976580336664
 10
16.12998809170507
 20
4.933153065744392
 10
16.14788161518908
 20
4.929256403499374
 10
16.16606737411623
 20
4.925297262053274
 10
16.1844017110113
 20
4.921306982513726
 10
16.20274399585209
 20
4.917316203291127
 10
16.22104836172512
 20
4.913334860814446
 10
16.23933387769998
 20
4.909358692088503
 10
16.25760666326497
 20
4.905386222031281
 10
16.27586875936826
 20
4.901416834702811
 10
16.29410927964031
 20
4.897452703668754
 10
16.31229348664102
 20
4.893501152238532
 10
16.33042170993607
 20
4.889561776379501
 10
16.34830516123886
 20
4.885675192462333
 10
16.36558713760033
 20
4.881918437817967
 10
16.38254865101156
 20
4.87822981148803
 10
16.39969587300905
 20
4.874498714967621
 10
16.41694855290422
 20
4.870742171079941
 10
16.43401289975368
 20
4.867023604013686
 10
16.45089262079869
 20
4.863342211821295
 10
16.4677463500061
 20
4.859664273749856
 10
16.48462715112282
 20
4.855979122699286
 10
16.50151932060278
 20
4.852290614806512
 10
16.51841220867668
 20
4.84860106998125
 10
16.53530562187372
 20
4.844910508345536
 10
16.5521995764436
 20
4.84121890659503
 10
16.56909408821405
 20
4.837526241594755
 10
16.58598917259283
 20
4.833832490377771
 10
16.6028848445699
 20
4.830137630143856
 10
16.61978111871936
 20
4.82644163825817
 10
16.63667800920159
 20
4.822744492249936
 10
16.6535755297653
 20
4.819046169811111
 10
16.67047369374955
 20
4.815346648795054
 10
16.68737251408585
 20
4.811645907215215
 10
16.70427200330022
 20
4.807943923243792
 10
16.72117217351521
 20
4.804240675210413
 10
16.73807303645201
 20
4.800536141600812
 10
16.75497460343248
 20
4.796830301055496
 10
16.77187688538121
 20
4.793123132368426
 10
16.78877989282761
 20
4.789414614485679
 10
16.80568363590792
 20
4.785704726504139
 10
16.82258812436732
 20
4.781993447670157
 10
16.83949336756196
 20
4.77828075737823
 10
16.85639937446104
 20
4.774566635169675
 10
16.87330615364883
 20
4.770851060731295
 10
16.8902137133268
 20
4.767134013894071
 10
16.90712206131561
 20
4.763415474631814
 10
16.92403120505722
 20
4.759695423059853
 10
16.9409411516169
 20
4.755973839433707
 10
16.95785190768535
 20
4.752250704147751
 10
16.97476347958072
 20
4.748525997733903
 10
16.99167587325067
 20
4.744799700860278
 10
17.00858909427447
 20
4.741071794329887
 10
17.025503147865
 20
4.737342259079288
 10
17.04241803887085
 20
4.733611076177273
 10
17.05933377177838
 20
4.72987822682354
 10
17.07625035071376
 20
4.726143692347356
 10
17.09316777944505
 20
4.72240745420625
 10
17.11008606138426
 20
4.718669493984672
 10
17.12700519958938
 20
4.714929793392667
 10
17.14392519676647
 20
4.711188334264558
 10
17.16084605527173
 20
4.707445098557615
 10
17.17776777711352
 20
4.703700068350721
 10
17.19469036395446
 20
4.699953225843061
 10
17.21161381711346
 20
4.696204553352782
 10
17.22853813756779
 20
4.692454033315677
 10
17.24546332595517
 20
4.688701648283851
 10
17.26238938257577
 20
4.6849473809244
 10
17.27931630739434
 20
4.681191214018078
 10
17.29624410004219
 20
4.677433130457981
 10
17.31317275981933
 20
4.673673113248216
 10
17.33010228569648
 20
4.669911145502565
 10
17.34703267631716
 20
4.666147210443178
 10
17.3639639299997
 20
4.662381291399228
 10
17.38089604473938
 20
4.658613371805603
 10
17.3978290182104
 20
4.654843435201559
 10
17.41476284776802
 20
4.651071465229414
 10
17.43169753045058
 20
4.647297445633204
 10
17.44863306298155
 20
4.643521360257369
 10
17.46556944177162
 20
4.639743193045427
 10
17.48250666292074
 20
4.635962928038638
 10
17.49944472222018
 20
4.632180549374684
 10
17.51638361515462
 20
4.628396041286347
 10
17.53332333690417
 20
4.624609388100168
 10
17.55026388234644
 20
4.620820574235144
 10
17.56720524605862
 20
4.617029584201374
 10
17.58414742231953
 20
4.613236402598761
 10
17.60109040511166
 20
4.609441014115661
 10
17.61803418812327
 20
4.605643403527576
 10
17.63497876475041
 20
4.601843555695809
 10
17.651924128099
 20
4.598041455566161
 10
17.66887027098691
 20
4.594237088167584
 10
17.68581718594597
 20
4.59043043861086
 10
17.70276486522408
 20
4.586621492087284
 10
17.71971330078723
 20
4.582810233867331
 10
17.73666248432158
 20
4.578996649299322
 10
17.75361240723556
 20
4.575180723808117
 10
17.77056306066184
 20
4.571362442893766
 10
17.78751443545945
 20
4.567541792130205
 10
17.80446652221586
 20
4.563718757163909
 10
17.82141931124896
 20
4.55989332371258
 10
17.83837279260923
 20
4.556065477563818
 10
17.85532695608168
 20
4.552235204573793
 10
17.87228179118802
 20
4.548402490665917
 10
17.88923728718864
 20
4.544567321829516
 10
17.90619343308472
 20
4.540729684118516
 10
17.92315021762026
 20
4.536889563650101
 10
17.94010762928415
 20
4.533046946603399
 10
17.95706565631225
 20
4.529201819218146
 10
17.9740242866894
 20
4.525354167793366
 10
17.99098350815155
 20
4.521503978686046
 10
18.00794330818775
 20
4.5176512383098
 10
18.02490367404226
 20
4.513795933133559
 10
18.04186459271659
 20
4.509938049680227
 10
18.05882605097156
 20
4.506077574525369
 10
18.07578803532936
 20
4.502214494295874
 10
18.09275053207563
 20
4.498348795668637
 10
18.10971352726147
 20
4.494480465369228
 10
18.12667700670558
 20
4.490609490170568
 10
18.14364095599624
 20
4.486735856891601
 10
18.1606053604934
 20
4.482859552395971
 10
18.17757020533077
 20
4.478980563590686
 10
18.19453547541785
 20
4.475098877424808
 10
18.21150115544197
 20
4.471214480888114
 10
18.2284672298704
 20
4.467327361009775
 10
18.24543368295237
 20
4.463437504857023
 10
18.26240049886941
 20
4.459544899516396
 10
18.27936766283568
 20
4.45564953196048
 10
18.29633516051207
 20
4.451751389108896
 10
18.31330297741713
 20
4.447850457896008
 10
18.33027109893589
 20
4.443946725270235
 10
18.34723951033314
 20
4.440040178192853
 10
18.36420819676678
 20
4.436130803636818
 10
18.38117714330102
 20
4.432218588585561
 10
18.39814633491972
 20
4.428303520031797
 10
18.41511575653969
 20
4.424385584976342
 10
18.43208539302392
 20
4.420464770426907
 10
18.44905522919492
 20
4.41654106339692
 10
18.46602524984799
 20
4.412614450904317
 10
18.48299543976447
 20
4.408684919970374
 10
18.49996578372509
 20
4.404752457618487
 10
18.51693626652322
 20
4.400817050872995
 10
18.53390687297814
 20
4.396878686757992
 10
18.55087758794837
 20
4.392937352296125
 10
18.56784839634495
 20
4.388993034507399
 10
18.58481928314466
 20
4.385045720408002
 10
18.6017902334034
 20
4.381095397009091
 10
18.61876123226942
 20
4.377142051315618
 10
18.63573226499662
 20
4.373185670325124
 10
18.65270331695784
 20
4.369226241026558
 10
18.66967437365815
 20
4.365263750399076
 10
18.68664542074812
 20
4.361298185410853
 10
18.70361644403711
 20
4.357329533017888
 10
18.72058742950658
 20
4.353357780162816
 10
18.73755836332336
 20
4.349382913773715
 10
18.75452923185292
 20
4.345404920762908
 10
18.77150002167269
 20
4.341423788025776
 10
18.78847071958532
 20
4.337439502439567
 10
18.80544131263198
 20
4.333452050862196
 10
18.82241178810562
 20
4.329461420131064
 10
18.83938213356433
 20
4.325467597061856
 10
18.85635233684453
 20
4.321470568447352
 10
18.87332238607431
 20
4.31747032105624
 10
18.89029226968672
 20
4.313466841631911
 10
18.90726197643304
 20
4.309460116891281
 10
18.92423149539608
 20
4.30545013352359
 10
18.94120081600344
 20
4.301436878189213
 10
18.95816992804084
 20
4.297420337518466
 10
18.97513882166534
 20
4.293400498110412
 10
18.99210748741872
 20
4.289377346531678
 10
19.00907591624066
 20
4.285350869315248
 10
19.02604409948214
 20
4.281321052959283
 10
19.04301202891861
 20
4.277287883925928
 10
19.05997969676337
 20
4.273251348640108
 10
19.07694709568081
 20
4.269211433488347
 10
19.09391421879971
 20
4.265168124817578
 10
19.11088105972651
 20
4.261121408933938
 10
19.12784761255863
 20
4.257071272101587
 10
19.14481387189772
 20
4.25301770054151
 10
19.16177983286297
 20
4.248960680430329
 10
19.1787454911044
 20
4.244900197899104
 10
19.1957108428161
 20
4.240836239032151
 10
19.2126758847496
 20
4.236768789865837
 10
19.22964061422708
 20
4.232697836387399
 10
19.24660502915469
 20
4.228623364533746
 10
19.26356912803583
 20
4.224545360190267
 10
19.28053290998445
 20
4.220463809189642
 10
19.29749637473831
 20
4.216378697310648
 10
19.3144595226723
 20
4.212290010276959
 10
19.33142235481168
 20
4.208197733755968
 10
19.34838487284543
 20
4.204101853357585
 10
19.36534707913948
 20
4.200002354633046
 10
19.38230897675001
 20
4.195899223073728
 10
19.39927056943677
 20
4.191792444109943
 10
19.41623186167593
 20
4.187682003109904
 10
19.43319285808606
 20
4.183567885586781
 10
19.45015356199168
 20
4.179450077620582
 10
19.46711397645002
 20
4.175328565365148
 10
19.48407410452664
 20
4.171203334937389
 10
19.50103394928855
 20
4.167074372421109
 10
19.51799351379731
 20
4.162941663870856
 10
19.5349528011022
 20
4.158805195315736
 10
19.55191181423321
 20
4.154664952763265
 10
19.56887055619434
 20
4.150520922203194
 10
19.58582902995647
 20
4.146373089611342
 10
19.6027872384507
 20
4.142221440953441
 10
19.61974518456132
 20
4.138065962188957
 10
19.63670287111899
 20
4.133906639274931
 10
19.65366030089381
 20
4.129743458169813
 10
19.67061747658846
 20
4.125576404837298
 10
19.68757440083131
 20
4.121405465250155
 10
19.70453107616951
 20
4.117230625394064
 10
19.72148750506212
 20
4.113051871271458
 10
19.73844368987323
 20
4.108869188905337
 10
19.75539963286506
 20
4.104682564343128
 10
19.77235533619106
 20
4.100491983660497
 10
19.78931080188903
 20
4.096297432965203
 10
19.80626603187429
 20
4.092098898400908
 10
19.82322102793266
 20
4.087896366151039
 10
19.8401757917137
 20
4.083689822442603
 10
19.85713032472378
 20
4.079479253550027
 10
19.87408462831915
 20
4.07526464579899
 10
19.89103870369912
 20
4.071045985570263
 10
19.90799255189912
 20
4.066823259303541
 10
19.92494617378383
 20
4.062596453501273
 10
19.94189957004034
 20
4.058365554732501
 10
19.95885274117114
 20
4.054130549636689
 10
19.97580568748735
 20
4.049891424927571
 10
19.9927584091018
 20
4.045648167396961
 10
20.00971090592211
 20
4.041400763918616
 10
20.02666317764383
 20
4.037149201452046
 10
20.04361522374354
 20
4.032893467046362
 10
20.06056704347199
 20
4.028633547844107
 10
20.07751863584716
 20
4.024369431085086
 10
20.09446999964743
 20
4.020101104110211
 10
20.11142113340464
 20
4.015828554365319
 10
20.12837203539723
 20
4.011551769405026
 10
20.14532270364338
 20
4.007270736896542
 10
20.16227313589405
 20
4.00298544462352
 10
20.17922332962615
 20
3.998695880489881
 10
20.19617328203562
 20
3.994402032523654
 10
20.21312299003059
 20
3.99010388888081
 10
20.23007245022442
 20
3.985801437849087
 10
20.24702165892887
 20
3.981494667851841
 10
20.26397061214719
 20
3.977183567451865
 10
20.28091930556724
 20
3.972868125355231
 10
20.29786773455458
 20
3.968548330415121
 10
20.31481589414561
 20
3.964224171635665
 10
20.33176377904069
 20
3.959895638175773
 10
20.34871138359718
 20
3.955562719352968
 10
20.36565870182266
 20
3.951225404647223
 10
20.38260572736795
 20
3.946883683704794
 10
20.39955245352028
 20
3.942537546342055
 10
20.41649887319637
 20
3.938186982549328
 10
20.43344497893557
 20
3.933831982494723
 10
20.45039076289292
 20
3.929472536527973
 10
20.46733621683233
 20
3.925108635184262
 10
20.48428133211964
 20
3.920740269188065
 10
20.50122609971576
 20
3.916367429456975
 10
20.51817051016977
 20
3.911990107105549
 10
20.53511455361205
 20
3.907608293449133
 10
20.55205821974735
 20
3.9032219800077
 10
20.56900149784794
 20
3.898831158509678
 10
20.58594437578003
 20
3.894435821154678
 10
20.60288679819017
 20
3.890035971806201
 10
20.61982865545009
 20
3.885631628916025
 10
20.636769843207
 20
3.881222809556522
 10
20.65371026669178
 20
3.876809528266063
 10
20.6706498404133
 20
3.872391797130736
 10
20.68758848785257
 20
3.867969625866048
 10
20.70452614115697
 20
3.863543021898651
 10
20.72146274083455
 20
3.859111990448046
 10
20.73839823544815
 20
3.854676534608301
 10
20.75533258130972
 20
3.850236655429771
 10
20.77226574217449
 20
3.845792352000796
 10
20.78919768893521
 20
3.841343621529431
 10
20.80612839931639
 20
3.836890459425148
 10
20.82305785756853
 20
3.832432859380556
 10
20.83998605416231
 20
3.827970813453115
 10
20.85691298548285
 20
3.823504312146841
 10
20.87383865352395
 20
3.819033344494035
 10
20.89076306558224
 20
3.814557898136982
 10
20.90768623395154
 20
3.810077959409671
 10
20.92460817561693
 20
3.805593513419511
 10
20.94152891194911
 20
3.80110454412904
 10
20.95844846839854
 20
3.796611034437638
 10
20.97536687418973
 20
3.792112966263251
 10
20.99228416201539
 20
3.787610320624088
 10
21.00920036773073
 20
3.783103077720349
 10
21.02611553004767
 20
3.778591217015933
 10
21.04302969022903
 20
3.774074717320151
 10
21.0599428917828
 20
3.76955355686944
 10
21.07685518015633
 20
3.765027713409077
 10
21.09376660243058
 20
3.760497164274893
 10
21.11067720701436
 20
3.755961886474991
 10
21.12758704333852
 20
3.751421856771449
 10
21.1444961615502
 20
3.746877051762046
 10
21.16140461220706
 20
3.742327447961963
 10
21.17831244597148
 20
3.737773021885508
 10
21.19521971330482
 20
3.733213750127825
 10
21.21212646416163
 20
3.728649609446605
 10
21.22903274768388
 20
3.724080576843805
 10
21.24593861189517
 20
3.71950662964736
 10
21.26284410339501
 20
3.71492774559289
 10
21.27974926705296
 20
3.710343902905425
 10
21.29665414570293
 20
3.705755080381111
 10
21.3135587798374
 20
3.701161257468926
 10
21.33046320730159
 20
3.696562414352396
 10
21.34736746298776
 20
3.691958532031299
 10
21.36427157852939
 20
3.687349592403392
 10
21.3811755819954
 20
3.682735578346116
 10
21.39807949758442
 20
3.678116473798316
 10
21.41498334531899
 20
3.673492263841943
 10
21.43188714073979
 20
3.668862934783785
 10
21.44879089459985
 20
3.664228474237161
 10
21.4656946125588
 20
3.659588871203653
 10
21.48259829487709
 20
3.654944116154806
 10
21.49950193611024
 20
3.650294201113853
 10
21.51640552480299
 20
3.645639119737417
 10
21.53330904318363
 20
3.640978867397233
 10
21.55021246685815
 20
3.636313441261861
 10
21.5671157645045
 20
3.631642840378392
 10
21.5840188975668
 20
3.626967065754174
 10
21.60092181994961
 20
3.622286120438517
 10
21.61782447771205
 20
3.617600009604408
 10
21.63472680876218
 20
3.612908740630225
 10
21.65162874255111
 20
3.608212323181453
 10
21.66853019976723
 20
3.603510769292393
 10
21.68543109203056
 20
3.598804093447883
 10
21.7023313215868
 20
3.594092312665006
 10
21.71923078100167
 20
3.589375446574801
 10
21.73612935285513
 20
3.584653517503982
 10
21.75302691299298
 20
3.579926549606353
 10
21.76992339412211
 20
3.57519455187247
 10
21.78681878421567
 20
3.570457518547812
 10
21.80371307299675
 20
3.565715443426477
 10
21.82060625001438
 20
3.560968320366171
 10
21.8374983046629
 20
3.556216143284133
 10
21.85438922620132
 20
3.551458906153051
 10
21.87127900377278
 20
3.546696602996978
 10
21.88816762642383
 20
3.541929227887258
 10
21.90505508312389
 20
3.537156774938426
 10
21.92194136278461
 20
3.532379238304146
 10
21.93882645427925
 20
3.527596612173113
 10
21.95571034646206
 20
3.522808890764981
 10
21.97259302818768
 20
3.518016068326274
 10
21.9894744883305
 20
3.513218139126306
 10
22.00635471580406
 20
3.508415097453103
 10
22.02323369958045
 20
3.50360693760931
 10
22.04011142870964
 20
3.498793653908121
 10
22.05698789233891
 20
3.493975240669187
 10
22.07386307973222
 20
3.48915169221454
 10
22.0907369802896
 20
3.484323002864508
 10
22.10760958356652
 20
3.479489166933628
 10
22.12448087929328
 20
3.474650178726578
 10
22.14135085739437
 20
3.469806032534076
 10
22.15821950800794
 20
3.464956722628812
 10
22.17508682150504
 20
3.460102243261359
 10
22.19195278850914
 20
3.455242588656093
 10
22.20881739991544
 20
3.450377753007106
 10
22.22568064691026
 20
3.445507730474133
 10
22.24254252099045
 20
3.440632515178461
 10
22.25940301398273
 20
3.43575210119885
 10
22.27626211806314
 20
3.430866482567453
 10
22.29311982577635
 20
3.425975653265727
 10
22.30997613005508
 20
3.421079607220357
 10
22.32683102423951
 20
3.416178338299173
 10
22.34368450209659
 20
3.411271840307062
 10
22.36053655783949
 20
3.406360106981893
 10
22.37738718614698
 20
3.401443131990431
 10
22.39423638218275
 20
3.396520908924256
 10
22.41108414161487
 20
3.391593431295678
 10
22.42793046063512
 20
3.386660692533657
 10
22.44477533597843
 20
3.38172268597972
 10
22.46161876494215
 20
3.376779404883877
 10
22.47846074540561
 20
3.371830842400544
 10
22.49530127584933
 20
3.366876991584457
 10
22.51214035537452
 20
3.361917845386587
 10
22.52897798372238
 20
3.356953396650061
 10
22.54581416129356
 20
3.351983638106081
 10
22.56264888916749
 20
3.347008562369836
 10
22.5794821691218
 20
3.342028161936428
 10
22.59631400365164
 20
3.337042429176782
 10
22.61314439598916
 20
3.33205135633357
 10
22.62997335012281
 20
3.327054935517121
 10
22.64680087081676
 20
3.322053158701343
 10
22.66362696363028
 20
3.317046017719647
 10
22.68045163493713
 20
3.312033504260853
 10
22.6972748919449
 20
3.307015609865113
 10
22.71409674271447
 20
3.301992325919831
 10
22.73091719617934
 20
3.296963643655578
 10
22.74773626216501
 20
3.291929554142009
 10
22.76455395140837
 20
3.286890048283781
 10
22.78137027557713
 20
3.281845116816476
 10
22.79818524728915
 20
3.276794750302506
 10
22.81499888013179
 20
3.271738939127046
 10
22.83181118868141
 20
3.266677673493941
 10
22.84862218852264
 20
3.261610943421628
 10
22.86543189626785
 20
3.256538738739051
 10
22.88224032957644
 20
3.251461049081584
 10
22.89904750717431
 20
3.24637786388694
 10
22.91585343747348
 20
3.241289176125416
 10
22.93265804382866
 20
3.236195006785727
 10
22.94946129362763
 20
3.231095362587997
 10
22.96626326208781
 20
3.225990215089076
 10
22.98306409955586
 20
3.220879511399401
 10
22.99986399775898
 20
3.215763185243211
 10
23.01666315605641
 20
3.210641168018758
 10
23.03346174769076
 20
3.205513399858521
 10
23.05025988280485
 20
3.200379841742314
 10
23.06705371664475
 20
3.195241740093656
 10
23.0838390500601
 20
3.190100444858759
 10
23.10063675783558
 20
3.1849491648962
 10
23.11749495952653
 20
3.179772329526463
 10
23.13448429958533
 20
3.174547196517929
 10
23.15166013248004
 20
3.169256100592504
 10
23.16903245842137
 20
3.163895947188041
 10
23.18657993436707
 20
3.158473641683753
 10
23.20425433281029
 20
3.153004542097841
 10
23.2217486037649
 20
3.147584585435486
 10
23.23872554247602
 20
3.142319144736276
 10
23.25516738136327
 20
3.137214172422384
 10
23.27128599600607
 20
3.132204119744146
 10
23.28741407680805
 20
3.127185782728845
 10
23.30389630066159
 20
3.122052148129465
 10
23.32098050261224
 20
3.116726239373466
 10
23.33870884752323
 20
3.111194962511548
 10
23.35681449499968
 20
3.105541245185291
 10
23.37496168797013
 20
3.099869452766473
 10
23.39311053506961
 20
3.094192016523388
 10
23.41125128960918
 20
3.08851197969891
 10
23.42937411774345
 20
3.082832380915045
 10
23.44747344260403
 20
3.077154871662028
 10
23.46554561887696
 20
3.071480454803276
 10
23.48356888081119
 20
3.065815848551296
 10
23.50151383902562
 20
3.06017014210705
 10
23.51935911521594
 20
3.054549820584167
 10
23.53709621547219
 20
3.048957230532642
 10
23.55472224380059
 20
3.043392916220088
 10
23.57223503528967
 20
3.037857173260353
 10
23.58961360014403
 20
3.032356270004187
 10
23.60652254612817
 20
3.02699639503953
 10
23.62289069772245
 20
3.021799966137645
 10
23.63923353004234
 20
3.016603292888938
 10
23.65591661672016
 20
3.011290650329113
 10
23.67267516936245
 20
3.005946965799313
 10
23.6894151113887
 20
3.000602909212453
 10
23.70615295538857
 20
2.995253541424455
 10
23.72288810666922
 20
2.989899069389331
 10
23.73961803087253
 20
2.984540282051321
 10
23.75634268867291
 20
2.979177213224921
 10
23.7730614225064
 20
2.973810077617401
 10
23.78977364771158
 20
2.968439063811741
 10
23.80647764643613
 20
2.963064727560111
 10
23.82313025005171
 20
2.957701120384201
 10
23.83965445258009
 20
2.952373319370146
 10
23.85600125854663
 20
2.947097293121848
 10
23.87214953583242
 20
2.941879947336147
 10
23.88810173555457
 20
2.936720515860431
 10
23.90387961194667
 20
2.93161195175023
 10
23.91951994223912
 20
2.926542318326823
 10
23.93507024653955
 20
2.921496180234841
 10
23.95058450771321
 20
2.916455994499854
 10
23.96611889126335
 20
2.911403501585991
 10
23.98172746521157
 20
2.906321116453529
 10
23.99745791997826
 20
2.901193319616495
 10
24.01334728826298
 20
2.89600804820027
 10
24.02941766492479
 20
2.890758086999191
 10
24.04567192686271
 20
2.885442459534149
 10
24.06208945289606
 20
2.880067819110193
 10
24.07862184364486
 20
2.874649839874128
 10
24.09519182872878
 20
2.869213574174683
 10
24.11175209714325
 20
2.863774372387758
 10
24.12830018321904
 20
2.858333043527821
 10
24.14483577695405
 20
2.852889695375158
 10
24.16135896660736
 20
2.847444304572217
 10
24.17787020096844
 20
2.8419967290882
 10
24.19437025162663
 20
2.836546720683638
 10
24.21086017524034
 20
2.83109393737499
 10
24.22734127580639
 20
2.825637955899214
 10
24.24381506692938
 20
2.820178284178366
 10
24.26028323409098
 20
2.814714373784179
 10
24.27674759691927
 20
2.809245632402641
 10
24.29321007145805
 20
2.803771436298595
 10
24.30967263243616
 20
2.798291142780317
 10
24.3261372755368
 20
2.792804102664097
 10
24.3426059796669
 20
2.787309672738837
 10
24.35908066922636
 20
2.781807228230619
 10
24.37556317636403
 20
2.776296175259999
 10
24.39205520104455
 20
2.770775963411216
 10
24.40855826537146
 20
2.765246100121093
 10
24.42507367501834
 20
2.759706163667513
 10
24.44160248501971
 20
2.754155814174174
 10
24.45814546566462
 20
2.748594804526109
 10
24.4747030683902
 20
2.74302299128522
 10
24.49127539167525
 20
2.73744034560579
 10
24.50786214693386
 20
2.731846964150022
 10
24.52446265228755
 20
2.726243071055085
 10
24.54107584480843
 20
2.720629014067856
 10
24.55769987861414
 20
2.715005393527261
 10
24.57433223943191
 20
2.709373025000293
 10
24.59097009306396
 20
2.703732826716738
 10
24.60761063487375
 20
2.69808570667591
 10
24.62425143927213
 20
2.692432449753404
 10
24.64089080920358
 20
2.686773604807819
 10
24.65752812409299
 20
2.681109372288607
 10
24.67416368249186
 20
2.675439656077216
 10
24.6907975454944
 20
2.669764438826505
 10
24.70742968946381
 20
2.66408373110097
 10
24.72406009275653
 20
2.658397543074694
 10
24.74068873557035
 20
2.652705884579948
 10
24.75731559979261
 20
2.647008765155801
 10
24.77394066884829
 20
2.641306194096725
 10
24.79056392754822
 20
2.635598180501201
 10
24.80718536193722
 20
2.629884733320336
 10
24.82380495914223
 20
2.624165861406456
 10
24.84042270722045
 20
2.618441573561725
 10
24.85703859500756
 20
2.612711878586746
 10
24.87365261196579
 20
2.60697678532917
 10
24.89026474803214
 20
2.601236302732303
 10
24.90687499346649
 20
2.595490439883715
 10
24.92348333869974
 20
2.589739206063845
 10
24.94008977418201
 20
2.583982610794611
 10
24.95669429023076
 20
2.578220663888011
 10
24.97329687687896
 20
2.572453375494743
 10
24.98989752372321
 20
2.566680756152795
 10
25.00649621977192
 20
2.560902816836069
 10
25.02309295329345
 20
2.555119569002977
 10
25.03968771166429
 20
2.54933102464505
 10
25.05628048121715
 20
2.543537196335555
 10
25.07287124708919
 20
2.537738097278086
 10
25.08945999307007
 20
2.531933741355187
 10
25.10604670145024
 20
2.52612414317695
 10
25.12263135286897
 20
2.520309318129621
 10
25.13921392616256
 20
2.514489282424214
 10
25.15579439821246
 20
2.508664053145119
 10
25.17237274379346
 20
2.502833648298699
 10
25.18894893542183
 20
2.496998086861907
 10
25.20552294320344
 20
2.491157388830893
 10
25.22209473468196
 20
2.485311575269602
 10
25.23866427570967
 20
2.479460668034513
 10
25.25523153675804
 20
2.473604687773798
 10
25.27179649041134
 20
2.467743654713038
 10
25.28835910902973
 20
2.461877589390454
 10
25.30491936487715
 20
2.456006512612658
 10
25.3214772302573
 20
2.450130445407892
 10
25.33803267764947
 20
2.444249408979271
 10
25.35458567984452
 20
2.438363424658028
 10
25.37113621008077
 20
2.432472513856748
 10
25.38768424217984
 20
2.426576698022613
 10
25.4042297506827
 20
2.420675998590643
 10
25.42077271098545
 20
2.414770436936935
 10
25.43731309947527
 20
2.408860034331906
 10
25.45385089366636
 20
2.402944811893536
 10
25.47038607233579
 20
2.3970247905406
 10
25.48691861565947
 20
2.39109999094592
 10
25.50344850534802
 20
2.385170433489602
 10
25.51997572478269
 20
2.379236138212272
 10
25.53650025915127
 20
2.373297124768326
 10
25.55302209558397
 20
2.367353412379163
 10
25.5695412232894
 20
2.361405019786428
 10
25.58605763369041
 20
2.355451965205261
 10
25.60269936512416
 20
2.349448071205011
 42
-0.0277013137272359
 10
25.78087084360364
 20
2.27471528381949
 10
25.78453313701266
 20
2.27292254096297
 10
25.78840737138314
 20
2.27151536736035
 10
25.79228152711613
 20
2.270598426531506
 10
25.79615560183817
 20
2.270172281252238
 10
25.80002960002393
 20
2.270237177801029
 10
25.80390353170385
 20
2.27079304885074
 10
25.8077774111718
 20
2.27183951636031
 10
25.81165125569265
 20
2.273375894466441
 10
25.81552508420999
 20
2.275401192375301
 10
25.8193989160537
 20
2.277914117254213
 10
25.82327276964764
 20
2.280913077123352
 10
25.82714666121725
 20
2.28439618374744
 10
25.83102060349721
 20
2.288361255527441
 10
25.83489460443905
 20
2.292805820392255
 10
25.83876866591884
 20
2.297727118690413
 10
25.84264278244477
 20
2.303122106081766
 10
25.84651693986481
 20
2.30898745642919
 10
25.85039111407435
 20
2.315319564690273
 10
25.85426526972386
 20
2.322114549809016
 10
25.85813935892647
 20
2.329368257607515
 10
25.86201331996567
 20
2.337076263677675
 10
25.8658870760029
 20
2.345233876272885
 10
25.86976166684139
 20
2.353838655516582
 10
26.94457876259946
 20
6.634008795042138
 42
0.3470357041863065
 10
26.83974429181118
 20
6.863805326636866
 10
26.82468877056308
 20
6.871212907033932
 10
26.80956795449184
 20
6.878643789501906
 10
26.79444168668828
 20
6.886068513845986
 10
26.77930997394933
 20
6.89348706051805
 10
26.76417282491006
 20
6.900899409205575
 10
26.74903024996962
 20
6.908305538867106
 10
26.73388226121695
 20
6.91570542776774
 10
26.71872887235668
 20
6.923099053514602
 10
26.70357009863486
 20
6.930486393092326
 10
26.68840595676484
 20
6.937867422898531
 10
26.67323646485308
 20
6.945242118779304
 10
26.65806164232485
 20
6.952610456064667
 10
26.64288150985025
 20
6.95997240960407
 10
26.62769608926984
 20
6.96732795380186
 10
26.61250540352052
 20
6.974677062652762
 10
26.59730947656136
 20
6.982019709777365
 10
26.58210833329941
 20
6.989355868457582
 10
26.56690199951545
 20
6.996685511672147
 10
26.5516905017899
 20
7.004008612132087
 10
26.53647386742856
 20
7.011325142316197
 10
26.52125212438847
 20
7.018635074506522
 10
26.50602530120366
 20
7.025938380823837
 10
26.49079342691105
 20
7.03323503326312
 10
26.47555653097619
 20
7.040525003729037
 10
26.46031464321911
 20
7.047808264071417
 10
26.44506779374013
 20
7.055084786120728
 10
26.42981601284564
 20
7.062354541723563
 10
26.41455933097396
 20
7.069617502778112
 10
26.39929777862115
 20
7.076873641269641
 10
26.38403138626676
 20
7.084122929305974
 10
26.36876018429972
 20
7.09136533915297
 10
26.35348420294413
 20
7.098600843269996
 10
26.33820347218503
 20
7.105829414345415
 10
26.32291802169429
 20
7.113051025332062
 10
26.30762788075632
 20
7.120265649482716
 10
26.29233307346301
 20
7.127473262531136
 10
26.27703360037144
 20
7.134673851033598
 10
26.26172945130884
 20
7.14186740659911
 10
26.24642061174763
 20
7.149053922994986
 10
26.2311070635956
 20
7.156233395778158
 10
26.21578878598568
 20
7.163405821926634
 10
26.2004657560656
 20
7.17057119947099
 10
26.18513794978762
 20
7.177729527125842
 10
26.16980534269826
 20
7.184880803921321
 10
26.15446791072808
 20
7.192025028834542
 10
26.13912563098127
 20
7.199162200421102
 10
26.12377848252554
 20
7.206292316446524
 10
26.1084264471817
 20
7.213415373517768
 10
26.09306951031348
 20
7.220531366714681
 10
26.07770766161721
 20
7.227640289221482
 10
26.06234089591153
 20
7.234742131958247
 10
26.04696921392715
 20
7.24183688321237
 10
26.03159262309656
 20
7.248924528270048
 10
26.01621113834375
 20
7.256005049047759
 10
26.00082478287393
 20
7.263078423723733
 10
25.98543358896327
 20
7.270144626369432
 10
25.97003759883352
 20
7.277203626543
 10
25.95463716709146
 20
7.284255253906446
 10
25.93923236773199
 20
7.291299463488547
 10
25.92382202764992
 20
7.298336768209445
 10
25.90840707158572
 20
7.305366742030556
 10
25.89299426266132
 20
7.31238634583598
 10
25.87759422602156
 20
7.319390810104462
 10
25.86221437016137
 20
7.326376805629264
 10
25.84685821151393
 20
7.333342748460721
 10
25.83152596377629
 20
7.340288536819979
 10
25.81621512409868
 20
7.347215289387151
 10
25.80092105927374
 20
7.354125083589463
 10
25.78563759192587
 20
7.361020693889387
 10
25.77035758670044
 20
7.367905330072823
 10
25.75513746624992
 20
7.37475380567898
 10
25.74026688905214
 20
7.381436745648016
 10
25.72588043336382
 20
7.387894173875417
 10
25.71189305496501
 20
7.394164320863341
 10
25.69808175587644
 20
7.400347074351991
 10
25.68416731242582
 20
7.406567403424789
 10
25.66989600331401
 20
7.412938782613543
 10
25.65512133768138
 20
7.419526616003596
 10
25.63988578317395
 20
7.426311661339006
 10
25.62447047278188
 20
7.433167805931256
 10
25.60905347824217
 20
7.440015242377785
 10
25.59363995821785
 20
7.446851687349282
 10
25.57823114063026
 20
7.453676612013027
 10
25.56282786111945
 20
7.460489656271217
 10
25.54743059118239
 20
7.467290616601251
 10
25.5320394663112
 20
7.474079433896012
 10
25.51665431413131
 20
7.480856181304161
 10
25.5012746825397
 20
7.487621052070413
 10
25.48589986784309
 20
7.494374347375825
 10
25.47052894289612
 20
7.501116464178079
 10
25.45516078523958
 20
7.507847883051765
 10
25.43979410523861
 20
7.514569156028676
 10
25.42442747422088
 20
7.52128089443808
 10
25.40905935261482
 20
7.527983756747003
 10
25.3936881180878
 20
7.534678436400533
 10
25.37831209368434
 20
7.541365649662084
 10
25.36292957596433
 20
7.548046123453691
 10
25.34753886314119
 20
7.554720583196287
 10
25.33213828322012
 20
7.56138974065
 10
25.31672622213627
 20
7.568054281754424
 10
25.30130115189295
 20
7.574714854468915
 10
25.28586165869983
 20
7.581372056612867
 10
25.27040647111117
 20
7.588026423706001
 10
25.25493448816396
 20
7.59467841680865
 10
25.2394448075162
 20
7.601328410362043
 10
25.22393675358504
 20
7.607976680028581
 10
25.20840990568501
 20
7.614623390532146
 10
25.19286412616621
 20
7.621268583498352
 10
25.17729958855253
 20
7.627912165294858
 10
25.16171680567985
 20
7.634553894871639
 10
25.1461166578342
 20
7.641193371601269
 10
25.13050042089003
 20
7.647830023119218
 10
25.11486979444836
 20
7.654463093164117
 10
25.099226929975
 20
7.661091629418067
 10
25.08357434594754
 20
7.667714519920256
 10
25.06791329938616
 20
7.674331198363192
 10
25.05224486229582
 20
7.680941197858512
 10
25.03657099853135
 20
7.68754368327874
 10
25.02089266908307
 20
7.694138243800906
 10
25.00507466972213
 20
7.700781452281098
 10
24.98894670862477
 20
7.707544328871152
 10
24.97271269896339
 20
7.714341034800614
 10
24.95662119689623
 20
7.721067232468086
 10
24.94060920357536
 20
7.727749435417576
 10
24.92449740822896
 20
7.734462429381808
 10
24.90817216066906
 20
7.741253329481829
 10
24.89158890923647
 20
7.748140513017728
 10
24.8748236691263
 20
7.755092198888319
 10
24.85810928795471
 20
7.762012058550602
 10
24.84162340626433
 20
7.768826968690889
 10
24.82537908230162
 20
7.775531593369776
 10
24.80927519492216
 20
7.782167595629362
 10
24.79315164842694
 20
7.788800898969227
 10
24.77684457739854
 20
7.79549894882238
 10
24.76024155153732
 20
7.802307974031249
 10
24.74333678049769
 20
7.809230248323621
 10
24.72628023347477
 20
7.81620387290856
 10
24.70923354444139
 20
7.823162335143802
 10
24.69219286433699
 20
7.83010708717444
 10
24.67513027532505
 20
7.837049377015235
 10
24.65810287405977
 20
7.843966141964624
 10
24.64132323157369
 20
7.850771530622297
 10
24.62483290904391
 20
7.857448769326497
 10
24.60833704019582
 20
7.864117132858813
 10
24.59177714166821
 20
7.87080066256775
 10
24.57531778257489
 20
7.877432938994505
 10
24.55868917001284
 20
7.884122345948608
 10
24.54216708816081
 20
7.890758023836318
 10
24.52612976591233
 20
7.897188647364487
 10
24.51054094349998
 20
7.90342902532396
 10
24.49513393083539
 20
7.909586110903128
 10
24.47961208533254
 20
7.915778789727156
 10
24.4638492897311
 20
7.922057667897255
 10
24.4480106674626
 20
7.928356780614621
 10
24.43217207508896
 20
7.934645849090848
 10
24.41632681669834
 20
7.94092755341186
 10
24.40047635542733
 20
7.947201293821819
 10
24.3846218027009
 20
7.953466618808906
 10
24.36876376366133
 20
7.959723278342157
 10
24.35290194062847
 20
7.965971385112889
 10
24.33703614083507
 20
7.97221100926488
 10
24.32116633465304
 20
7.978442155263607
 10
24.30529249440481
 20
7.984664826851911
 10
24.28941459383113
 20
7.990879027263963
 10
24.27353260806827
 20
7.997084759234114
 10
24.257646513625
 20
8.003282025005795
 10
24.24175628835971
 20
8.009470826340344
 10
24.22586191145748
 20
8.015651164525896
 10
24.2099633634072
 20
8.021823040386236
 10
24.19406062597859
 20
8.027986454289665
 10
24.17815368219935
 20
8.034141406157869
 10
24.16224251633217
 20
8.040287895474778
 10
24.14632711385188
 20
8.046425921295433
 10
24.13040746142248
 20
8.052555482254852
 10
24.11448354687427
 20
8.058676576576891
 10
24.09855535918088
 20
8.064789202083114
 10
24.08262288843639
 20
8.070893356201644
 10
24.06668612583239
 20
8.076989035976055
 10
24.05074506363508
 20
8.083076238074202
 10
24.03479969516235
 20
8.089154958797111
 10
24.01885001476083
 20
8.095225194087834
 10
24.00289601778303
 20
8.101286939540321
 10
23.98693770056435
 20
8.107340190408264
 10
23.97097506040024
 20
8.113384941613983
 10
23.95500809552323
 20
8.119421187757289
 10
23.93903680508001
 20
8.12544892312434
 10
23.92306118910854
 20
8.131468141696501
 10
23.90708124851513
 20
8.137478837159221
 10
23.89109698505149
 20
8.143481002910901
 10
23.87510840129184
 20
8.149474632071735
 10
23.85911550060999
 20
8.155459717492599
 10
23.84311828715642
 20
8.161436251763902
 10
23.82711676583534
 20
8.167404227224459
 10
23.81111094228182
 20
8.173363635970348
 10
23.79510082283882
 20
8.179314469863777
 10
23.7790864145343
 20
8.185256720541957
 10
23.7630677250583
 20
8.191190379425945
 10
23.74704476274002
 20
8.197115437729534
 10
23.73101753652489
 20
8.203031886468101
 10
23.71498605595169
 20
8.208939716467476
 10
23.69895033112957
 20
8.214838918372816
 10
23.68291037271518
 20
8.220729482657441
 10
23.66686619188975
 20
8.226611399631742
 10
23.65081780033616
 20
8.232484659452003
 10
23.634765210216
 20
8.238349252129292
 10
23.6187084341467
 20
8.244205167538316
 10
23.60264748517857
 20
8.250052395426292
 10
23.5865823767719
 20
8.255890925421798
 10
23.57051312277405
 20
8.261720747043655
 10
23.55443973739654
 20
8.267541849709777
 10
23.53836223519206
 20
8.273354222746043
 10
23.52228063103166
 20
8.279157855395162
 10
23.50619494008174
 20
8.28495273682553
 10
23.49010517778121
 20
8.29073885614011
 10
23.47401135981849
 20
8.296516202385276
 10
23.45791350210866
 20
8.302284764559692
 10
23.44181162077052
 20
8.308044531623178
 10
23.42570573210365
 20
8.313795492505562
 10
23.40959585256552
 20
8.319537636115551
 10
23.39348199874857
 20
8.325270951349605
 10
23.37736418735727
 20
8.330995427100782
 10
23.36124243518522
 20
8.336711052267624
 10
23.34511675909225
 20
8.342417815763001
 10
23.32898717598144
 20
8.348115706522991
 10
23.31285370277626
 20
8.35380471351574
 10
23.29671635639765
 20
8.359484825750321
 10
23.28057515374108
 20
8.365156032285611
 10
23.26443011165362
 20
8.370818322239136
 10
23.24828124691105
 20
8.376471684795955
 10
23.23212857619494
 20
8.382116109217516
 10
23.21597211606972
 20
8.387751584850521
 10
23.19981188295975
 20
8.393378101135786
 10
23.18364789312645
 20
8.39899564761712
 10
23.16748016264532
 20
8.404604213950172
 10
23.15130870738307
 20
8.410203789911305
 10
23.13513354297467
 20
8.415794365406458
 10
23.11895468480047
 20
8.421375930480017
 10
23.1027721479632
 20
8.426948475323666
 10
23.0865859472652
 20
8.432511990285263
 10
23.07039609718534
 20
8.438066465877707
 10
23.0542026118562
 20
8.443611892787789
 10
23.03800550504113
 20
8.449148261885062
 10
23.02180479011131
 20
8.454675564230717
 10
23.00560048002285
 20
8.460193791086433
 10
22.9893925872939
 20
8.465702933923246
 10
22.97318112398168
 20
8.471202984430417
 10
22.95696610165959
 20
8.476693934524289
 10
22.94074753139429
 20
8.482175776357165
 10
22.92452542372277
 20
8.487648502326154
 10
22.90829978862946
 20
8.493112105082053
 10
22.89207063552328
 20
8.498566577538197
 10
22.87583797321474
 20
8.504011912879343
 10
22.85960180989301
 20
8.509448104570509
 10
22.84336215310301
 20
8.514875146365856
 10
22.82711900972251
 20
8.52029303231755
 10
22.81087238593918
 20
8.525701756784624
 10
22.79462228722768
 20
8.531101314441841
 10
22.77836871832676
 20
8.536491700288566
 10
22.76211168321631
 20
8.54187290965762
 10
22.74585118511189
 20
8.547244938214918
 10
22.72958722782172
 20
8.552607781251865
 10
22.71331981719918
 20
8.557961433004857
 10
22.69704895952493
 20
8.563305887567043
 10
22.68077466130591
 20
8.568641138995136
 10
22.66449692926678
 20
8.573967181311918
 10
22.64821577034103
 20
8.579284008508777
 10
22.63193119166237
 20
8.584591614548216
 10
22.61564320055597
 20
8.589889993366387
 10
22.5993518045298
 20
8.595179138875607
 10
22.58305701126584
 20
8.600459044966877
 10
22.56675882861144
 20
8.6057297055124
 10
22.55045726457053
 20
8.610991114368117
 10
22.53415232729499
 20
8.616243265376223
 10
22.51784402507585
 20
8.62148615236768
 10
22.50153236633464
 20
8.626719769164747
 10
22.48521735961465
 20
8.631944109583496
 10
22.46889901357221
 20
8.637159167436347
 10
22.45257733696798
 20
8.642364936534576
 10
22.43625233865826
 20
8.647561410690837
 10
22.41992402758622
 20
8.65274858372169
 10
22.40359241277325
 20
8.657926449450121
 10
22.38725750331019
 20
8.66309500170807
 10
22.37091930834866
 20
8.668254234338931
 10
22.35457783709232
 20
8.673404141200105
 10
22.33823309878815
 20
8.678544716165491
 10
22.32188510271775
 20
8.683675953128036
 10
22.30553385818864
 20
8.688797846002227
 10
22.2891793745255
 20
8.693910388726648
 10
22.27282166106149
 20
8.699013575266468
 10
22.25646072712955
 20
8.704107399615978
 10
22.24009658205365
 20
8.709191855801117
 10
22.22372923514006
 20
8.714266937881987
 10
22.20735869566872
 20
8.719332639955377
 10
22.19098497288442
 20
8.724388956157282
 10
22.17460807598816
 20
8.729435880665427
 10
22.15822801412841
 20
8.734473407701791
 10
22.14184479639239
 20
8.739501531535124
 10
22.12545843179738
 20
8.744520246483471
 10
22.10906892928195
 20
8.749529546916695
 10
22.09267629769732
 20
8.754529427258997
 10
22.07628054579858
 20
8.759519881991437
 10
22.05988168223602
 20
8.764500905654459
 10
22.0434797155464
 20
8.769472492850411
 10
22.02707465414423
 20
8.774434638246063
 10
22.01066650631305
 20
8.779387336575132
 10
21.99425528019674
 20
8.784330582640812
 10
21.97784098379079
 20
8.789264371318276
 10
21.96142362493358
 20
8.794188697557217
 10
21.94500321129767
 20
8.799103556384361
 10
21.9285797503811
 20
8.804008942905989
 10
21.91215324949864
 20
8.808904852310456
 10
21.89572371577311
 20
8.813791279870724
 10
21.87929115612667
 20
8.818668220946866
 10
21.86285557727206
 20
8.82353567098861
 10
21.84641698570394
 20
8.82839362553784
 10
21.82997538769012
 20
8.833242080231125
 10
21.81353078926291
 20
8.838081030802246
 10
21.79708319621035
 20
8.842910473084716
 10
21.78063261406752
 20
8.847730403014288
 10
21.76417904810783
 20
8.852540816631508
 10
21.74772250333426
 20
8.857341710084195
 10
21.73126298447074
 20
8.862133079629998
 10
21.71480049595335
 20
8.866914921638899
 10
21.69833504192162
 20
8.871687232595748
 10
21.68186662620985
 20
8.876450009102764
 10
21.66539525233835
 20
8.881203247882082
 10
21.64892092350479
 20
8.885946945778249
 10
21.63244364257541
 20
8.890681099760776
 10
21.61596341207635
 20
8.895405706926627
 10
21.59948023418494
 20
8.900120764502764
 10
21.58299410897708
 20
8.904826270312851
 10
21.56650502522054
 20
8.909522225216916
 10
21.55001296830947
 20
8.914208630972952
 10
21.53351792504882
 20
8.918885488958196
 10
21.51701988362494
 20
8.923552800177429
 10
21.50051883356322
 20
8.928210565274723
 10
21.48401476568585
 20
8.932858784545166
 10
21.46750767206949
 20
8.937497457946625
 10
21.45099754600291
 20
8.942126585111472
 10
21.43448438194479
 20
8.946746165358348
 10
21.41796817548132
 20
8.951356197703876
 10
21.40144892328393
 20
8.955956680874422
 10
21.38492662306701
 20
8.96054761331784
 10
21.36840127354554
 20
8.965128993215206
 10
21.35187287439286
 20
8.969700818492555
 10
21.33534142619828
 20
8.974263086832639
 10
21.31880693042486
 20
8.978815795686658
 10
21.30226938936704
 20
8.983358942286008
 10
21.28572880610835
 20
8.987892523654016
 10
21.26918518447914
 20
8.992416536617694
 10
21.25263852901421
 20
8.99693097781947
 10
21.23608884491055
 20
9.001435843728932
 10
21.21953613798504
 20
9.005931130654582
 10
21.20298041463209
 20
9.010416834755559
 10
21.18642168178141
 20
9.014892952053401
 10
21.16985994685561
 20
9.019359478443773
 10
21.153295217728
 20
9.023816409708217
 10
21.13672750268021
 20
9.02826374152589
 10
21.1201568103599
 20
9.032701469485306
 10
21.10358314973845
 20
9.037129589096092
 10
21.08700653006869
 20
9.041548095800706
 10
21.07042696084254
 20
9.045956984986196
 10
21.05384445174875
 20
9.050356251995943
 10
21.03725901263054
 20
9.05474589214139
 10
21.02067065344338
 20
9.059125900713805
 10
21.00407938421259
 20
9.063496272996003
 10
20.98748521499109
 20
9.067857004274095
 10
20.97088815581707
 20
9.072208089849247
 10
20.95428821667171
 20
9.07654952504939
 10
20.93768540743685
 20
9.080881305240989
 10
20.92107973785267
 20
9.085203425840774
 10
20.90447121747544
 20
9.089515882327487
 10
20.88785985563514
 20
9.093818670253622
 10
20.87124566139324
 20
9.09811178525716
 10
20.8546286435003
 20
9.102395223073331
 10
20.83800881035374
 20
9.106668979546338
 10
20.82138616995548
 20
9.110933050641099
 10
20.80476072986968
 20
9.115187432455003
 10
20.78813249718038
 20
9.119432121229651
 10
20.77150147844928
 20
9.123667113362575
 10
20.75486767967333
 20
9.127892405419013
 10
20.73823110624248
 20
9.132107994143632
 10
20.72159176289739
 20
9.136313876472275
 10
20.70494965368707
 20
9.140510049543696
 10
20.68830478192664
 20
9.144696510711316
 10
20.67165715015494
 20
9.148873257554956
 10
20.65500676009234
 20
9.153040287892588
 10
20.6383536125983
 20
9.157197599792061
 10
20.62169770762916
 20
9.161345191582855
 10
20.6050390441958
 20
9.165483061867831
 10
20.58837762032135
 20
9.169611209534958
 10
20.57171343299884
 20
9.173729633769054
 10
20.55504647814896
 20
9.177838334063553
 10
20.5383767505777
 20
9.181937310232212
 10
20.52170424393406
 20
9.186026562420886
 10
20.50502895066776
 20
9.190106091119247
 10
20.48835086198691
 20
9.194175897172538
 10
20.47166996781572
 20
9.198235981793317
 10
20.45498625675219
 20
9.202286346573183
 10
20.43829971602579
 20
9.206326993494542
 10
20.42161033170042
 20
9.210357924878982
 10
20.40491810143715
 20
9.214379140091331
 10
20.38822304139246
 20
9.218390633761083
 10
20.37152516916301
 20
9.222392400190019
 10
20.35482450227269
 20
9.226384433742559
 10
20.33812105817102
 20
9.230366728845622
 10
20.32141485423155
 20
9.234339279988454
 10
20.3047059077503
 20
9.238302081722435
 10
20.2879942359441
 20
9.242255128660968
 10
20.27127985594908
 20
9.246198415479259
 10
20.254562784819
 20
9.250131936914195
 10
20.23784303952373
 20
9.254055687764143
 10
20.22112063694757
 20
9.257969662888813
 10
20.20439559388777
 20
9.261873857209074
 10
20.18766792705282
 20
9.265768265706805
 10
20.17093765306092
 20
9.269652883424711
 10
20.15420478843841
 20
9.273527705466179
 10
20.13746934961811
 20
9.277392726995094
 10
20.12073135293778
 20
9.281247943235676
 10
20.10399081463851
 20
9.285093349472337
 10
20.08724775086311
 20
9.288928941049483
 10
20.07050217765454
 20
9.292754713371376
 10
20.05375411095432
 20
9.296570661901952
 10
20.03700356660093
 20
9.30037678216466
 10
20.02025056032818
 20
9.304173069742306
 10
20.0034951077637
 20
9.307959520276869
 10
19.98673722442726
 20
9.311736129469359
 10
19.96997692572923
 20
9.315502893079631
 10
19.95321422696899
 20
9.319259806926234
 10
19.93644914333328
 20
9.323006866886236
 10
19.91968168989469
 20
9.326744068895068
 10
19.90291188160997
 20
9.330471408946348
 10
19.88613973331855
 20
9.334188883091727
 10
19.86936525974084
 20
9.337896487440717
 10
19.85258847547672
 20
9.341594218160524
 10
19.83580939500389
 20
9.345282071475898
 10
19.81902803267631
 20
9.348960043668938
 10
19.80224440272258
 20
9.352628131078963
 10
19.78545851924438
 20
9.356286330102316
 10
19.76867039621486
 20
9.359934637192212
 10
19.75188004747703
 20
9.363573048858583
 10
19.73508748674221
 20
9.367201561667894
 10
19.71829272758838
 20
9.370820172242984
 10
19.70149578345864
 20
9.374428877262907
 10
19.6846966676596
 20
9.378027673462764
 10
19.66789539335975
 20
9.381616557633533
 10
19.65109197358793
 20
9.385195526621904
 10
19.6342864212317
 20
9.388764577330126
 10
19.61747874903575
 20
9.392323706715828
 10
19.60066896960032
 20
9.395872911791855
 10
19.58385709537957
 20
9.399412189626113
 10
19.56704313868003
 20
9.402941537341391
 10
19.55022711165902
 20
9.406460952115207
 10
19.53340902632299
 20
9.40997043117964
 10
19.51658889452598
 20
9.41346997182115
 10
19.499766727968
 20
9.41695957138044
 10
19.48294253819348
 20
9.420439227252273
 10
19.4661163365896
 20
9.423908936885302
 10
19.44928813438481
 20
9.42736869778192
 10
19.4324579426471
 20
9.430818507498088
 10
19.41562577228253
 20
9.434258363643165
 10
19.39879163403356
 20
9.437688263879751
 10
19.38195553847748
 20
9.441108205923519
 10
19.36511749602484
 20
9.444518187543046
 10
19.34827751691781
 20
9.447918206559654
 10
19.33143561122864
 20
9.451308260847236
 10
19.31459178885801
 20
9.4546883483321
 10
19.2977460595335
 20
9.458058466992802
 10
19.28089843280794
 20
9.461418614859976
 10
19.26404891805784
 20
9.464768790016174
 10
19.24719752448183
 20
9.468108990595696
 10
19.23034426109899
 20
9.471439214784432
 10
19.21348913674734
 20
9.474759460819683
 10
19.19663216008219
 20
9.478069726990019
 10
19.17977333957457
 20
9.481370011635087
 10
19.16291268350965
 20
9.484660313145463
 10
19.1460501999851
 20
9.487940629962487
 10
19.12918589690954
 20
9.49121096057809
 10
19.11231978200095
 20
9.494471303534627
 10
19.09545186278506
 20
9.497721657424726
 10
19.07858214659373
 20
9.500962020891106
 10
19.06171064056341
 20
9.504192392626427
 10
19.04483735163352
 20
9.507412771373108
 10
19.02796228654487
 20
9.510623155923179
 10
19.01108545183803
 20
9.513823545118107
 10
18.99420685385178
 20
9.517013937848625
 10
18.97732649872152
 20
9.520194333054584
 10
18.96044439237762
 20
9.523364729724773
 10
18.94356054054387
 20
9.526525126896752
 10
18.92667494873595
 20
9.529675523656699
 10
18.90978762225966
 20
9.532815919139242
 10
18.89289856620951
 20
9.535946312527283
 10
18.87600778546707
 20
9.539066703051847
 10
18.85911528469928
 20
9.542177089991906
 10
18.842221068357
 20
9.54527747267422
 10
18.82532514067334
 20
9.548367850473168
 10
18.80842750566209
 20
9.551448222810588
 10
18.79152816711609
 20
9.554518589155604
 10
18.7746271286057
 20
9.557578949024472
 10
18.75772439347715
 20
9.560629301980402
 10
18.74081996485097
 20
9.5636696476334
 10
18.72391384562043
 20
9.5666999856401
 10
18.70700603844985
 20
9.569720315703614
 10
18.69009654577316
 20
9.572730637573327
 10
18.67318536979212
 20
9.575730951044787
 10
18.6562725124749
 20
9.578721255959488
 10
18.63935797555437
 20
9.581701552204743
 10
18.62244176052657
 20
9.584671839713498
 10
18.60552386864909
 20
9.587632118464174
 10
18.58860430093949
 20
9.590582388480497
 10
18.57168305817367
 20
9.593522649831331
 10
18.55476014088436
 20
9.596452902630533
 10
18.53783554935943
 20
9.599373147036763
 10
18.52090928364036
 20
9.602283383253327
 10
18.50398134352062
 20
9.605183611528019
 10
18.4870517285441
 20
9.608073832152944
 10
18.47012043800348
 20
9.610954045464366
 10
18.45318747093869
 20
9.613824251842526
 10
18.43625282613526
 20
9.616684451711499
 10
18.41931650212276
 20
9.619534645538999
 10
18.40237849717322
 20
9.622374833836254
 10
18.38543880929949
 20
9.625205017157796
 10
18.36849743625368
 20
9.628025196101331
 10
18.35155437552558
 20
9.63083537130756
 10
18.33460962434104
 20
9.633635543460004
 10
18.31766317966038
 20
9.636425713284859
 10
18.30071503817681
 20
9.639205881550822
 10
18.28376519631483
 20
9.641976049068919
 10
18.26681365022862
 20
9.644736216692344
 10
18.24986039580049
 20
9.647486385316305
 10
18.23290542863925
 20
9.650226555877839
 10
18.21594874407862
 20
9.652956729355663
 10
18.19899033717567
 20
9.655676906770001
 10
18.18203020270917
 20
9.658387089182422
 10
18.16506833517806
 20
9.661087277695672
 10
18.1481047287998
 20
9.663777473453512
 10
18.13113937750882
 20
9.666457677640542
 10
18.1141722749549
 20
9.669127891482066
 10
18.09720341450161
 20
9.671788116243881
 10
18.08023278922467
 20
9.674438353232153
 10
18.06326039191038
 20
9.677078603793226
 10
18.04628621505405
 20
9.679708869313476
 10
18.02931025085838
 20
9.682329151219127
 10
18.01233249123185
 20
9.684939450976099
 10
17.99535292778719
 20
9.68753977008984
 10
17.97837155183971
 20
9.690130110105151
 10
17.96138835440576
 20
9.692710472606036
 10
17.94440332620113
 20
9.695280859215538
 10
17.92741645763943
 20
9.697841271595542
 10
17.91042773883052
 20
9.700391711446664
 10
17.89343514583148
 20
9.702932473730212
 10
17.87640431938799
 20
9.705468563632496
 10
17.85936984033654
 20
9.707994950522452
 10
17.84246125698585
 20
9.710492754298131
 10
17.82577251939204
 20
9.712948223279012
 10
17.809159263267
 20
9.715382266374046
 10
17.79225724834907
 20
9.717847842555759
 10
17.77502463510934
 20
9.720350847198336
 10
17.75762159832134
 20
9.722867674550872
 10
17.74015247442469
 20
9.725382825499952
 10
17.72249248623621
 20
9.727913999152931
 10
17.70456516998777
 20
9.730472007511608
 10
17.68642620538276
 20
9.7330487219659
 10
17.66816849969464
 20
9.735630723464296
 10
17.64984600787686
 20
9.738210260135382
 10
17.63148701773128
 20
9.740783319569246
 10
17.613108671358
 20
9.743347495423636
 10
17.59471645236107
 20
9.745902032158957
 10
17.57630464667995
 20
9.74844772778449
 10
17.55786180487218
 20
9.750986111749796
 10
17.5393925138424
 20
9.753516554952676
 10
17.52095952563243
 20
9.756030725969255
 10
17.5027295240844
 20
9.758506541685406
 10
17.48494145158536
 20
9.760912231523739
 10
17.46761713155471
 20
9.763244841549042
 10
17.45054255450354
 20
9.765532938863225
 10
17.43345229019486
 20
9.767811982150712
 10
17.41616964355689
 20
9.770105636275104
 10
17.39856633961451
 20
9.772431232204905
 10
17.3806818635932
 20
9.774783533859087
 10
17.36267641875711
 20
9.77714103851714
 10
17.34471834177071
 20
9.779481137252744
 10
17.32688559931548
 20
9.781793484656995
 10
17.309209884542
 20
9.784074109640997
 10
17.29171525336856
 20
9.786320105105405
 10
17.27440615806066
 20
9.788531167558998
 10
17.25724709054073
 20
9.79071217472409
 10
17.24017410823823
 20
9.792871658825935
 10
17.22314023356305
 20
9.795015957125333
 10
17.20609939692817
 20
9.797150990063601
 10
17.18898322664361
 20
9.799284967884956
 10
17.17171549634965
 20
9.801426975510127
 10
17.15427146772898
 20
9.803580007144059
 10
17.13667724440117
 20
9.805740939606428
 10
17.11899186572135
 20
9.807902657460797
 10
17.10129057724618
 20
9.810056047319466
 10
17.08365322787258
 20
9.812191394336332
 10
17.06615097881549
 20
9.814300008512216
 10
17.04883053562233
 20
9.816376173245343
 10
17.03169382813057
 20
9.818419659877474
 10
17.01468279788095
 20
9.820437639894471
 10
16.99773197348929
 20
9.82243821959798
 10
16.98079610441475
 20
9.824427016611787
 10
16.96386415652905
 20
9.826405416869363
 10
16.94694414326443
 20
9.828372443813583
 10
16.930036121758
 20
9.830328100839702
 10
16.9131393216593
 20
9.832272490200619
 10
16.89625280618611
 20
9.834205731372042
 10
16.87937549100158
 20
9.836127958882
 10
16.86250616309129
 20
9.838039320140373
 10
16.84564349964031
 20
9.839939973268377
 10
16.8287860869103
 20
9.841830084928083
 10
16.81193243911656
 20
9.843709828151947
 10
16.79508101730515
 20
9.845579380172296
 10
16.77823024822989
 20
9.847438920250841
 10
16.76137854322953
 20
9.849288627508206
 10
16.74452431710473
 20
9.85112867875342
 10
16.72766600699521
 20
9.852959246313439
 10
16.71080209125679
 20
9.854780495862645
 10
16.69393110833848
 20
9.856592584252366
 10
16.67705167565954
 20
9.858395657340397
 10
16.66016259247865
 20
9.860189839192806
 10
16.64326176183049
 20
9.861975337971939
 10
16.62634764672354
 20
9.863752302394646
 10
16.60942958078188
 20
9.865519797169453
 10
16.59253867112381
 20
9.867274718700953
 10
16.57571074002656
 20
9.869013485910372
 10
16.55895359942887
 20
9.870735300546137
 10
16.54225380716604
 20
9.872441490031398
 10
16.5255835673317
 20
9.874134829994208
 10
16.5090686366536
 20
9.875803074721961
 10
16.49310841787495
 20
9.877407218020568
 10
16.4778211318346
 20
9.878935937447847
 10
16.46304621643011
 20
9.88040530337758
 10
16.44845262632941
 20
9.881848092804171
 10
16.43364713268235
 20
9.883303103147339
 10
16.41828262283236
 20
9.884804466056795
 10
16.40216640002802
 20
9.886370961216904
 10
16.38536848313469
 20
9.887995330151358
 10
16.36829120654773
 20
9.889637432802553
 10
16.35120121774379
 20
9.891270743139504
 10
16.3341057267702
 20
9.89289453757542
 10
16.31700549918636
 20
9.894508733487876
 10
16.29990136838512
 20
9.896113242288699
 10
16.28279416889884
 20
9.897707976212155
 10
16.26568466970538
 20
9.899292855103087
 10
16.2485735075341
 20
9.900867813205103
 10
16.23146112017191
 20
9.902432805948722
 10
16.21434768640438
 20
9.903987815951467
 10
16.19723319586974
 20
9.905532845079511
 10
16.18011761663445
 20
9.90706789729103
 10
16.16300092203379
 20
9.908592976068339
 10
16.14588309042833
 20
9.910108084442533
 10
16.12876410494655
 20
9.911613225019026
 10
16.11164395322754
 20
9.913108400003093
 10
16.09452262716372
 20
9.914593611225386
 10
16.07740012264349
 20
9.916068860167523
 10
16.06027643929394
 20
9.917534147987572
 10
16.04315158022352
 20
9.918989475545632
 10
16.02602555176477
 20
9.920434843429354
 10
16.00889836321694
 20
9.921870251979488
 10
15.99177002658874
 20
9.923295701315414
 10
15.974640556341
 20
9.924711191360692
 10
15.95750996912935
 20
9.926116721868595
 10
15.94037828354693
 20
9.927512292447651
 10
15.92324551986707
 20
9.928897902587186
 10
15.90611169978598
 20
9.930273551682866
 10
15.88897684616542
 20
9.931639239062215
 10
15.8718409827754
 20
9.932994964010187
 10
15.85470413403688
 20
9.934340725794687
 10
15.83756632476446
 20
9.935676523692109
 10
15.82042757990904
 20
9.937002357012893
 10
15.80328792430052
 20
9.938318225127035
 10
15.78614738239051
 20
9.939624127489665
 10
15.76900597799497
 20
9.940920063666553
 10
15.75186373403697
 20
9.942206033359664
 10
15.7347206722893
 20
9.943482036432698
 10
15.71757681311722
 20
9.944748072936642
 10
15.70043217522111
 20
9.946004143135272
 10
15.68328677537916
 20
9.947250247530732
 10
15.6661406281901
 20
9.948486386889054
 10
15.64899374581583
 20
9.949712562265707
 10
15.63184613772413
 20
9.95092877503113
 10
15.61469781118164
 20
9.952135026810159
 10
15.5975487781949
 20
9.953331318698381
 10
15.58039905471086
 20
9.954517651398234
 10
15.56324865737942
 20
9.955694025598726
 10
15.5460976034091
 20
9.956860441986931
 10
15.52894591045876
 20
9.958016901255184
 10
15.51179359652927
 20
9.959163404108362
 10
15.49464067985522
 20
9.960299951271107
 10
15.47748717879656
 20
9.961426543495075
 10
15.46033311173035
 20
9.962543181566202
 10
15.44317849694237
 20
9.963649866311927
 10
15.42602335251886
 20
9.964746598608444
 10
15.40886769623821
 20
9.965833379387946
 10
15.39171154546259
 20
9.96691020964589
 10
15.37455491702968
 20
9.967977090448211
 10
15.35739782714437
 20
9.969034022938592
 10
15.3402402912704
 20
9.970081008345703
 10
15.32308232402205
 20
9.971118047990444
 10
15.30592393905588
 20
9.972145143293193
 10
15.28876514896235
 20
9.973162295781047
 10
15.27160596515755
 20
9.974169507095091
 10
15.25444639777485
 20
9.975166778997603
 10
15.23728645555661
 20
9.976154113379335
  0
LWPOLYLINE
  5
2985E
330
1F
100
AcDbEntity
  8
NOCUT
100
AcDbPolyline
 90
       13
 70
     1
 43
0.0
 10
23.74458399999997
 20
7.735410000000002
 10
25.72542299999998
 20
7.129806000000002
 10
25.72542302283362
 20
7.129805853577815
 42
-0.3297505471403161
 10
26.14999999999997
 20
6.556022999999999
 10
26.14999999999998
 20
0.0
 10
0.0
 20
0.0
 10
0.0
 20
9.0
 10
12.14028499999998
 20
9.0
 42
0.1132370114589057
 10
13.01206478870811
 20
9.199999999999999
 10
15.40455699999998
 20
9.199999999999999
 10
18.45519999999998
 20
8.843536999999997
 10
18.45519924051139
 20
8.843536956875272
 42
-0.0451268269034372
 10
23.74458314168211
 20
7.735409678891063
  0
MTEXT
  5
298F9
330
1F
100
AcDbEntity
  8
SK6
100
AcDbMText
 10
-18.62227418409588
 20
-23.16103638241685
 30
0.0
 40
3.5
 41
49.98568165846803
 71
     1
 72
     1
  1
12M8G020027X6R00
  7
MM_STANDARD
 73
     1
 44
1.0
1001
ACAD
1000
MTEXTBEGIN
1070
    73
1070
     1
1070
    44
1040
1.0
1070
    74
1070
     0
1000
MTEXTEND
  0
ENDSEC
  0
SECTION
  2
OBJECTS
  0
DICTIONARY
  5
C
330
0
100
AcDbDictionary
281
     1
  3
ACAD_2007HEADERVARS_RT
350
298FE
  3
ACAD_CIP_PREVIOUS_PRODUCT_INFO
350
741
  3
ACAD_COLOR
350
6C
  3
ACAD_DETAILVIEWSTYLE
350
8E4
  3
ACAD_GROUP
350
D
  3
ACAD_IMAGE_VARS
350
959
  3
ACAD_LAYOUT
350
1A
  3
ACAD_MATERIAL
350
6B
  3
ACAD_MLEADERSTYLE
350
43C
  3
ACAD_MLINESTYLE
350
17
  3
ACAD_PLOTSETTINGS
350
19
  3
ACAD_PLOTSTYLENAME
350
E
  3
ACAD_SCALELIST
350
99
  3
ACAD_SECTIONVIEWSTYLE
350
8E2
  3
ACAD_TABLESTYLE
350
92
  3
ACAD_VISUALSTYLE
350
3F2
  3
ACDB_RECOMPOSE_DATA
350
298FC
  3
ACDBHEADERROUNDTRIPXREC
350
29805
  3
AcDbVariableDictionary
350
59
  3
ACMDICTIONARY
350
76D
  3
AEC_PROPERTY_SET_DEFS
350
5CF
  3
AMG
350
743
  3
AMGSNAPSETTINGS
350
7F6
  3
APPDATA
350
958
  3
ASE_INDEX_DICTIONARY
350
8C6
  3
DWGPROPS
350
298FD
  0
DICTIONARY
  5
297D0
330
2
100
AcDbDictionary
280
     1
281
     1
  3
ACAD_LAYERFILTERS
360
6C6
  3
ACAD_LAYERSTATES
360
17C7
  3
ACLYDICTIONARY
360
6C5
  0
DICTIONARY
  5
297C7
330
10
100
AcDbDictionary
280
     1
281
     1
  3
ADSK_XREC_LAYER_RECONCILED
360
904
  0
DICTIONARY
  5
297C8
330
23
100
AcDbDictionary
280
     1
281
     1
  3
ADSK_XREC_LAYER_RECONCILED
360
905
  0
DICTIONARY
  5
297C9
330
25
100
AcDbDictionary
280
     1
281
     1
  3
ADSK_XREC_LAYER_RECONCILED
360
907
  0
DICTIONARY
  5
297CA
330
173A
100
AcDbDictionary
280
     1
281
     1
  3
ADSK_XREC_LAYER_RECONCILED
360
908
  0
DICTIONARY
  5
297CB
330
2A
100
AcDbDictionary
280
     1
281
     1
  3
ADSK_XREC_LAYER_RECONCILED
360
90B
  0
DICTIONARY
  5
297CC
330
2E
100
AcDbDictionary
280
     1
281
     1
  3
ADSK_XREC_LAYER_RECONCILED
360
90E
  0
DICTIONARY
  5
297CD
330
375
100
AcDbDictionary
280
     1
281
     1
  3
ADSK_XREC_LAYER_RECONCILED
360
90F
  0
DICTIONARY
  5
297CE
330
376
100
AcDbDictionary
280
     1
281
     1
  3
ADSK_XREC_LAYER_RECONCILED
360
910
  0
DICTIONARY
  5
297CF
330
49B
100
AcDbDictionary
280
     1
281
     1
  3
ADSK_XREC_LAYER_RECONCILED
360
918
  0
DICTIONARY
  5
29802
330
1F
100
AcDbDictionary
280
     1
281
     1
  3
ACAD_SORTENTS
360
29803
  0
DICTIONARY
  5
298FE
102
{ACAD_REACTORS
330
C
102
}
330
C
100
AcDbDictionary
281
     1
  3
DIMARCSYM
350
298FF
  3
DIMLTEX1
350
29901
  3
DIMLTEX2
350
29902
  3
DIMLTYPE
350
29900
  0
XRECORD
  5
741
102
{ACAD_REACTORS
330
C
102
}
330
C
100
AcDbXrecord
280
     1
300
ACDLT
300
2015
300
ACDLT_F_S
  0
DICTIONARY
  5
6C
102
{ACAD_REACTORS
330
C
102
}
330
C
100
AcDbDictionary
281
     1
  0
DICTIONARY
  5
8E4
102
{ACAD_REACTORS
330
C
102
}
330
C
100
AcDbDictionary
281
     1
  3
Metric50
350
29841
  0
DICTIONARY
  5
D
102
{ACAD_REACTORS
330
C
102
}
330
C
100
AcDbDictionary
281
     1
  0
RASTERVARIABLES
  5
959
102
{ACAD_REACTORS
330
C
102
}
330
C
100
AcDbRasterVariables
 90
        0
 70
     1
 71
     1
 72
     1
  0
DICTIONARY
  5
1A
102
{ACAD_REACTORS
330
C
102
}
330
C
100
AcDbDictionary
281
     1
  3
Layout1
350
74
  3
Model
350
22
  0
DICTIONARY
  5
6B
102
{ACAD_REACTORS
330
C
102
}
330
C
100
AcDbDictionary
281
     1
  3
ByBlock
350
29816
  3
ByLayer
350
2980E
  3
Global
350
2981E
  0
DICTIONARY
  5
43C
102
{ACAD_REACTORS
330
C
102
}
330
C
100
AcDbDictionary
281
     1
  3
Standard
350
2983F
  0
DICTIONARY
  5
17
102
{ACAD_REACTORS
330
C
102
}
330
C
100
AcDbDictionary
281
     1
  3
Standard
350
18
  0
DICTIONARY
  5
19
102
{ACAD_REACTORS
330
C
102
}
330
C
100
AcDbDictionary
281
     1
  0
ACDBDICTIONARYWDFLT
  5
E
102
{ACAD_REACTORS
330
C
102
}
330
C
100
AcDbDictionary
281
     1
  3
Normal
350
F
100
AcDbDictionaryWithDefault
340
F
  0
DICTIONARY
  5
99
102
{ACAD_REACTORS
330
C
102
}
330
C
100
AcDbDictionary
281
     1
  3
A0
350
9A
  3
A1
350
9B
  3
A2
350
9C
  3
A3
350
9D
  3
A4
350
9E
  3
A5
350
9F
  3
A6
350
A0
  3
A7
350
A1
  3
A8
350
A2
  3
A9
350
A3
  3
B0
350
A4
  3
B1
350
A5
  3
B2
350
A6
  3
B3
350
A7
  3
B4
350
A8
  3
B5
350
A9
  3
B6
350
AA
  3
B7
350
AB
  3
B8
350
AC
  3
B9
350
AD
  3
C0
350
AE
  3
C1
350
AF
  3
C2
350
B0
  3
C3
350
B1
  3
C4
350
B2
  3
C5
350
B3
  3
C6
350
B4
  3
C7
350
B5
  3
C8
350
B6
  3
C9
350
B7
  3
D0
350
B8
  3
D1
350
B9
  3
D2
350
BA
  0
DICTIONARY
  5
8E2
102
{ACAD_REACTORS
330
C
102
}
330
C
100
AcDbDictionary
281
     1
  3
Metric50
350
29840
  0
DICTIONARY
  5
92
102
{ACAD_REACTORS
330
C
102
}
330
C
100
AcDbDictionary
281
     1
  3
Standard
350
2983E
  0
DICTIONARY
  5
3F2
102
{ACAD_REACTORS
330
C
102
}
330
C
100
AcDbDictionary
281
     1
  3
2dWireframe
350
2982B
  3
Basic
350
2982A
  3
Brighten
350
29831
  3
ColorChange
350
29835
  3
Conceptual
350
2982E
  3
Dim
350
29830
  3
EdgeColorOff
350
2983D
  3
Facepattern
350
29834
  3
Flat
350
29826
  3
FlatWithEdges
350
29827
  3
Gouraud
350
29828
  3
GouraudWithEdges
350
29829
  3
Hidden
350
2982D
  3
JitterOff
350
2983B
  3
Linepattern
350
29833
  3
OverhangOff
350
2983C
  3
Realistic
350
2982F
  3
Shaded
350
2983A
  3
Shaded with edges
350
29839
  3
Shades of Gray
350
29836
  3
Sketchy
350
29837
  3
Thicken
350
29832
  3
Wireframe
350
2982C
  3
X-Ray
350
29838
  0
XRECORD
  5
298FC
102
{ACAD_REACTORS
330
C
102
}
330
C
100
AcDbXrecord
280
     1
 90
        1
330
2983E
  0
DICTIONARY
  5
29805
102
{ACAD_REACTORS
330
C
102
}
330
C
100
AcDbDictionary
281
     1
  3
COLORDICT
350
29806
  3
MATERIALDICT
350
29807
  0
DICTIONARY
  5
59
102
{ACAD_REACTORS
330
C
102
}
330
C
100
AcDbDictionary
281
     1
  3
CANNOSCALE
350
29804
  3
CMLEADERSTYLE
350
29868
  3
CTABLESTYLE
350
98
  3
CVIEWDETAILSTYLE
350
8FB
  3
CVIEWSECTIONSTYLE
350
8FC
  3
DIMASSOC
350
359
  3
HALOGAP
350
AF7
  3
HIDETEXT
350
358
  3
INDEXCTL
350
9BE
  3
LAYEREVAL
350
7AE
  3
LAYERNOTIFY
350
7AF
  3
LIGHTINGUNITS
350
44A
  3
MSLTSCALE
350
448
  3
SORTENTS
350
9BD
  3
XCLIPFRAME
350
298FA
  0
DICTIONARY
  5
76D
102
{ACAD_REACTORS
330
C
102
}
330
C
100
AcDbDictionary
281
     1
  3
ACMSTDDICTIONARY
350
76F
  0
DICTIONARY
  5
5CF
102
{ACAD_REACTORS
330
C
102
}
330
C
100
AcDbDictionary
281
     1
  0
DICTIONARY
  5
743
102
{ACAD_REACTORS
330
C
102
}
330
C
100
AcDbDictionary
281
     1
  3
ACMGSETTINGS
350
744
  0
DICTIONARY
  5
7F6
102
{ACAD_REACTORS
330
C
102
}
330
C
100
AcDbDictionary
281
     1
  0
DICTIONARY
  5
958
102
{ACAD_REACTORS
330
C
102
}
330
C
100
AcDbDictionary
281
     1
  0
DICTIONARY
  5
8C6
102
{ACAD_REACTORS
330
C
102
}
330
C
100
AcDbDictionary
281
     1
  3
ASEBLOCKHIERARCHYINDEXRECORD
350
8C7
  0
XRECORD
  5
298FD
102
{ACAD_REACTORS
330
C
102
}
330
C
100
AcDbXrecord
280
     1
  1
DWGPROPS COOKIE
  2

  3

  4

  6

  7

  8
ruebsamenm
  9

300
=
301
=
302
=
303
=
304
=
305
=
306
=
307
=
308
=
309
=
 40
4096.712421469907
 41
2453353.800459155
 42
2460185.644089132
  1

 90
        0
  0
DICTIONARY
  5
6C6
102
{ACAD_REACTORS
330
297D0
102
}
330
297D0
100
AcDbDictionary
281
     1
  0
DICTIONARY
  5
17C7
102
{ACAD_REACTORS
330
297D0
102
}
330
297D0
100
AcDbDictionary
281
     1
  0
DICTIONARY
  5
6C5
102
{ACAD_REACTORS
330
297D0
102
}
330
297D0
100
AcDbDictionary
281
     1
  0
XRECORD
  5
904
102
{ACAD_REACTORS
330
297C7
102
}
330
297C7
100
AcDbXrecord
280
     1
290
     1
  0
XRECORD
  5
905
102
{ACAD_REACTORS
330
297C8
102
}
330
297C8
100
AcDbXrecord
280
     1
290
     1
  0
XRECORD
  5
907
102
{ACAD_REACTORS
330
297C9
102
}
330
297C9
100
AcDbXrecord
280
     1
290
     1
  0
XRECORD
  5
908
102
{ACAD_REACTORS
330
297CA
102
}
330
297CA
100
AcDbXrecord
280
     1
290
     1
  0
XRECORD
  5
90B
102
{ACAD_REACTORS
330
297CB
102
}
330
297CB
100
AcDbXrecord
280
     1
290
     1
  0
XRECORD
  5
90E
102
{ACAD_REACTORS
330
297CC
102
}
330
297CC
100
AcDbXrecord
280
     1
290
     1
  0
XRECORD
  5
90F
102
{ACAD_REACTORS
330
297CD
102
}
330
297CD
100
AcDbXrecord
280
     1
290
     1
  0
XRECORD
  5
910
102
{ACAD_REACTORS
330
297CE
102
}
330
297CE
100
AcDbXrecord
280
     1
290
     1
  0
XRECORD
  5
918
102
{ACAD_REACTORS
330
297CF
102
}
330
297CF
100
AcDbXrecord
280
     1
290
     1
  0
SORTENTSTABLE
  5
29803
102
{ACAD_REACTORS
330
29802
102
}
330
29802
100
AcDbSortentsTable
330
1F
331
1C54F
  5
1C6B9
331
1C3A1
  5
1C851
331
1D920
  5
1DA40
331
1C476
  5
1C6C7
331
C65C
  5
CA17
331
C377
  5
C863
331
1C1E8
  5
1C7C7
331
CC50
  5
E105
331
12AAA
  5
12A1D
331
C7A3
  5
CC4F
331
C533
  5
C935
331
C652
  5
CA16
331
12C8B
  5
12C16
331
12C92
  5
12C17
331
C255
  5
C2E1
331
1289D
  5
12C93
331
C536
  5
CA12
331
1D6E2
  5
1D913
331
E217
  5
C437
331
12BA1
  5
12B2B
331
C42D
  5
C930
331
C258
  5
C2E4
331
DED7
  5
E6D6
331
CC4F
  5
E102
331
1C632
  5
1C1E5
331
C935
  5
D8A3
331
1C54E
  5
1C640
331
12B2B
  5
12AA6
331
C437
  5
C934
331
1C851
  5
1C632
331
12A1A
  5
1299A
331
C182
  5
C258
331
D590
  5
E217
331
C863
  5
D588
331
12BB6
  5
12B41
331
1C484
  5
1C740
331
C178
  5
C255
331
CA17
  5
DCBB
331
1C740
  5
1C476
331
12A1D
  5
1299D
331
1C640
  5
1C1E8
331
CC4B
  5
DED7
331
1289C
  5
12C92
331
E102
  5
C79F
331
CB29
  5
DECF
331
2985E
  5
2923F
331
12AA7
  5
12A1A
331
1C74E
  5
1C484
331
E105
  5
C7A3
331
DAF2
  5
E438
331
1C6C7
  5
1C3A1
331
12C2B
  5
12BB6
331
CB25
  5
DCBF
331
1D913
  5
1D920
331
E6D6
  5
CB29
331
12895
  5
12C8B
331
E438
  5
C652
331
C934
  5
D89C
331
C2E1
  5
C36E
331
DAF5
  5
E441
331
12C17
  5
12BB5
331
D588
  5
E20E
331
1C850
  5
1C54F
331
12B41
  5
12AAA
331
12A19
  5
1289D
331
C36E
  5
C85B
331
C85B
  5
CC50
331
DECF
  5
E6D2
331
D89C
  5
E328
331
D8A3
  5
E32B
331
12BB5
  5
12B40
331
1D6D5
  5
1D6E2
331
CA16
  5
DAF5
331
1C393
  5
1C850
331
29854
  5
2972E
331
C2E4
  5
C377
331
E537
  5
C182
331
DCBF
  5
E537
331
1C7C7
  5
1C54E
331
1DA40
  5
1D6D5
331
E20E
  5
C42D
331
1299A
  5
12895
331
E6D2
  5
CB25
331
12C93
  5
12C2B
331
1C6B9
  5
1C393
331
C930
  5
D590
331
1C1E5
  5
1C74E
331
12AA6
  5
12A19
331
C79F
  5
CC4B
331
E441
  5
C65C
331
1299D
  5
1289C
331
E328
  5
C533
331
12C16
  5
12BA1
331
CA12
  5
DAF2
331
12B40
  5
12AA7
331
E533
  5
C178
331
DCBB
  5
E533
331
E32B
  5
C536
  0
XRECORD
  5
298FF
102
{ACAD_REACTORS
330
298FE
102
}
330
298FE
100
AcDbXrecord
280
     1
 70
     1
  0
XRECORD
  5
29901
102
{ACAD_REACTORS
330
298FE
102
}
330
298FE
100
AcDbXrecord
280
     1
340
14
  0
XRECORD
  5
29902
102
{ACAD_REACTORS
330
298FE
102
}
330
298FE
100
AcDbXrecord
280
     1
340
14
  0
XRECORD
  5
29900
102
{ACAD_REACTORS
330
298FE
102
}
330
298FE
100
AcDbXrecord
280
     1
340
14
  0
ACDBDETAILVIEWSTYLE
  5
29841
102
{ACAD_XDICTIONARY
360
2993A
102
}
102
{ACAD_REACTORS
330
8E4
102
}
330
8E4
100
AcDbModelDocViewStyle
 70
     0
  3
Metric50
290
     0
100
AcDbDetailViewStyle
 70
     0
 71
     0
 90
        3
 71
     1
340
11
 40
5.0
340
0
 40
5.0
300

 40
0.0
280
     1
 71
     2
340
16
 90
       25
 71
     3
340
11
 40
5.0
 90
        0
 40
15.0
 90
        1
300
%<\AcVar ViewDetailId>% (%<\AcVar ViewScale \f "%sn">%)
 71
     4
340
16
 90
       25
340
16
 90
       25
280
     0
  0
LAYOUT
  5
74
102
{ACAD_XDICTIONARY
360
29905
102
}
102
{ACAD_REACTORS
330
1A
102
}
330
1A
100
AcDbPlotSettings
  1

  2
\\ADSCCNDC1\hq601xrx1
  4

  6

 40
0.0
 41
0.0
 42
0.0
 43
0.0
 44
0.0
 45
0.0
 46
0.0
 47
0.0
 48
0.0
 49
0.0
140
0.0
141
0.0
142
1.0
143
1.0
 70
   688
 72
     0
 73
     0
 74
     5
  7
monochrome.ctb
 75
    16
147
1.0
148
0.0
149
0.0
100
AcDbLayout
  1
Layout1
 70
     1
 71
     1
 10
0.0
 20
0.0
 11
12.0
 21
9.0
 12
0.0
 22
0.0
 32
0.0
 14
0.0
 24
0.0
 34
0.0
 15
0.0
 25
0.0
 35
0.0
146
0.0
 13
0.0
 23
0.0
 33
0.0
 16
1.0
 26
0.0
 36
0.0
 17
0.0
 27
1.0
 37
0.0
 76
     0
330
73
  0
LAYOUT
  5
22
102
{ACAD_XDICTIONARY
360
29903
102
}
102
{ACAD_REACTORS
330
1A
102
}
330
1A
100
AcDbPlotSettings
  1

  2
DWG To PDF.pc3
  4
ISO_expand_A0_(841.00_x_1189.00_MM)
  6

 40
5.793749809265137
 41
5.79376220703125
 42
10.79374980926514
 43
10.793701171875
 44
841.0
 45
1189.0
 46
-0.0000000000000568
 47
277.0515806674957
 48
0.0
 49
0.0
140
0.0
141
0.0
142
1.0
143
0.0145558200469394
 70
 11956
 72
     1
 73
     0
 74
     1
  7
monochrome.ctb
 75
     0
147
68.70104169845581
148
70.55856307424345
149
1453.505808791571
100
AcDbLayout
  1
Model
 70
     1
 71
     0
 10
-170.0
 20
-170.0
 11
519.0
 21
260.0
 12
0.0
 22
0.0
 32
0.0
 14
-64.90092962931091
 24
-39.87094687582439
 34
0.0
 15
74.98761797786561
 25
56.77867123971357
 35
0.0
146
0.0
 13
0.0
 23
0.0
 33
0.0
 16
1.0
 26
0.0
 36
0.0
 17
0.0
 27
1.0
 37
0.0
 76
     0
330
1F
331
97
  0
MATERIAL
  5
29816
102
{ACAD_XDICTIONARY
360
29817
102
}
102
{ACAD_REACTORS
330
6B
102
}
330
6B
100
AcDbMaterial
  1
ByBlock
 72
     0
 43
0.0008202099737533
 43
0.0
 43
0.0
 43
0.0
 43
0.0
 43
0.0008202099737533
 43
0.0
 43
0.0
 43
0.0
 43
0.0
 43
1.0
 43
0.0
 43
0.0
 43
0.0
 43
0.0
 43
1.0
 77
     0
 47
0.0008202099737533
 47
0.0
 47
0.0
 47
0.0
 47
0.0
 47
0.0008202099737533
 47
0.0
 47
0.0
 47
0.0
 47
0.0
 47
1.0
 47
0.0
 47
0.0
 47
0.0
 47
0.0
 47
1.0
171
     0
 49
0.0008202099737533
 49
0.0
 49
0.0
 49
0.0
 49
0.0
 49
0.0008202099737533
 49
0.0
 49
0.0
 49
0.0
 49
0.0
 49
1.0
 49
0.0
 49
0.0
 49
0.0
 49
0.0
 49
1.0
175
     0
142
0.0008202099737533
142
0.0
142
0.0
142
0.0
142
0.0
142
0.0008202099737533
142
0.0
142
0.0
142
0.0
142
0.0
142
1.0
142
0.0
142
0.0
142
0.0
142
0.0
142
1.0
179
     0
144
0.0008202099737533
144
0.0
144
0.0
144
0.0
144
0.0
144
0.0008202099737533
144
0.0
144
0.0
144
0.0
144
0.0
144
1.0
144
0.0
144
0.0
144
0.0
144
0.0
144
1.0
147
0.0008202099737533
147
0.0
147
0.0
147
0.0
147
0.0
147
0.0008202099737533
147
0.0
147
0.0
147
0.0
147
0.0
147
1.0
147
0.0
147
0.0
147
0.0
147
0.0
147
1.0
  0
MATERIAL
  5
2980E
102
{ACAD_XDICTIONARY
360
2980F
102
}
102
{ACAD_REACTORS
330
6B
102
}
330
6B
100
AcDbMaterial
  1
ByLayer
 72
     0
 43
0.0008202099737533
 43
0.0
 43
0.0
 43
0.0
 43
0.0
 43
0.0008202099737533
 43
0.0
 43
0.0
 43
0.0
 43
0.0
 43
1.0
 43
0.0
 43
0.0
 43
0.0
 43
0.0
 43
1.0
 77
     0
 47
0.0008202099737533
 47
0.0
 47
0.0
 47
0.0
 47
0.0
 47
0.0008202099737533
 47
0.0
 47
0.0
 47
0.0
 47
0.0
 47
1.0
 47
0.0
 47
0.0
 47
0.0
 47
0.0
 47
1.0
171
     0
 49
0.0008202099737533
 49
0.0
 49
0.0
 49
0.0
 49
0.0
 49
0.0008202099737533
 49
0.0
 49
0.0
 49
0.0
 49
0.0
 49
1.0
 49
0.0
 49
0.0
 49
0.0
 49
0.0
 49
1.0
175
     0
142
0.0008202099737533
142
0.0
142
0.0
142
0.0
142
0.0
142
0.0008202099737533
142
0.0
142
0.0
142
0.0
142
0.0
142
1.0
142
0.0
142
0.0
142
0.0
142
0.0
142
1.0
179
     0
144
0.0008202099737533
144
0.0
144
0.0
144
0.0
144
0.0
144
0.0008202099737533
144
0.0
144
0.0
144
0.0
144
0.0
144
1.0
144
0.0
144
0.0
144
0.0
144
0.0
144
1.0
147
0.0008202099737533
147
0.0
147
0.0
147
0.0
147
0.0
147
0.0008202099737533
147
0.0
147
0.0
147
0.0
147
0.0
147
1.0
147
0.0
147
0.0
147
0.0
147
0.0
147
1.0
  0
MATERIAL
  5
2981E
102
{ACAD_XDICTIONARY
360
2981F
102
}
102
{ACAD_REACTORS
330
6B
102
}
330
6B
100
AcDbMaterial
  1
Global
 72
     0
 43
0.0008202099737533
 43
0.0
 43
0.0
 43
0.0
 43
0.0
 43
0.0008202099737533
 43
0.0
 43
0.0
 43
0.0
 43
0.0
 43
1.0
 43
0.0
 43
0.0
 43
0.0
 43
0.0
 43
1.0
 77
     0
 47
0.0008202099737533
 47
0.0
 47
0.0
 47
0.0
 47
0.0
 47
0.0008202099737533
 47
0.0
 47
0.0
 47
0.0
 47
0.0
 47
1.0
 47
0.0
 47
0.0
 47
0.0
 47
0.0
 47
1.0
171
     0
 49
0.0008202099737533
 49
0.0
 49
0.0
 49
0.0
 49
0.0
 49
0.0008202099737533
 49
0.0
 49
0.0
 49
0.0
 49
0.0
 49
1.0
 49
0.0
 49
0.0
 49
0.0
 49
0.0
 49
1.0
175
     0
142
0.0008202099737533
142
0.0
142
0.0
142
0.0
142
0.0
142
0.0008202099737533
142
0.0
142
0.0
142
0.0
142
0.0
142
1.0
142
0.0
142
0.0
142
0.0
142
0.0
142
1.0
179
     0
144
0.0008202099737533
144
0.0
144
0.0
144
0.0
144
0.0
144
0.0008202099737533
144
0.0
144
0.0
144
0.0
144
0.0
144
1.0
144
0.0
144
0.0
144
0.0
144
0.0
144
1.0
147
0.0008202099737533
147
0.0
147
0.0
147
0.0
147
0.0
147
0.0008202099737533
147
0.0
147
0.0
147
0.0
147
0.0
147
1.0
147
0.0
147
0.0
147
0.0
147
0.0
147
1.0
  0
MLEADERSTYLE
  5
2983F
102
{ACAD_REACTORS
330
43C
102
}
330
43C
100
AcDbMLeaderStyle
170
     2
171
     1
172
     0
 90
        2
 40
0.0
 41
0.0
173
     1
 91
-1056964608
340
14
 92
       -2
290
     1
 42
2.0
291
     1
 43
0.36
  3
Standard
 44
4.0
300

342
11
174
     1
178
     6
175
     1
176
     0
 93
-1056964608
 45
4.0
292
     0
297
     0
 46
4.0
 94
-1056964608
 47
1.0
 49
1.0
140
1.0
293
     1
141
0.0
294
     1
177
     0
142
1.0
295
     0
296
     0
143
0.125
1001
ACAD_MLEADERVER
1070
     2
  0
MLINESTYLE
  5
18
102
{ACAD_REACTORS
330
17
102
}
330
17
100
AcDbMlineStyle
  2
STANDARD
 70
     0
  3

 62
     0
 51
90.0
 52
90.0
 71
     2
 49
0.5
 62
   256
  6
BYLAYER
 49
-0.5
 62
   256
  6
BYLAYER
  0
ACDBPLACEHOLDER
  5
F
102
{ACAD_REACTORS
330
E
102
}
330
E
  0
SCALE
  5
9A
102
{ACAD_REACTORS
330
99
102
}
330
99
100
AcDbScale
 70
     0
300
1:1
140
1.0
141
1.0
290
     1
  0
SCALE
  5
9B
102
{ACAD_REACTORS
330
99
102
}
330
99
100
AcDbScale
 70
     0
300
1:2
140
1.0
141
2.0
290
     0
  0
SCALE
  5
9C
102
{ACAD_REACTORS
330
99
102
}
330
99
100
AcDbScale
 70
     0
300
1:4
140
1.0
141
4.0
290
     0
  0
SCALE
  5
9D
102
{ACAD_REACTORS
330
99
102
}
330
99
100
AcDbScale
 70
     0
300
1:5
140
1.0
141
5.0
290
     0
  0
SCALE
  5
9E
102
{ACAD_REACTORS
330
99
102
}
330
99
100
AcDbScale
 70
     0
300
1:8
140
1.0
141
8.0
290
     0
  0
SCALE
  5
9F
102
{ACAD_REACTORS
330
99
102
}
330
99
100
AcDbScale
 70
     0
300
1:10
140
1.0
141
10.0
290
     0
  0
SCALE
  5
A0
102
{ACAD_REACTORS
330
99
102
}
330
99
100
AcDbScale
 70
     0
300
1:16
140
1.0
141
16.0
290
     0
  0
SCALE
  5
A1
102
{ACAD_REACTORS
330
99
102
}
330
99
100
AcDbScale
 70
     0
300
1:20
140
1.0
141
20.0
290
     0
  0
SCALE
  5
A2
102
{ACAD_REACTORS
330
99
102
}
330
99
100
AcDbScale
 70
     0
300
1:30
140
1.0
141
30.0
290
     0
  0
SCALE
  5
A3
102
{ACAD_REACTORS
330
99
102
}
330
99
100
AcDbScale
 70
     0
300
1:40
140
1.0
141
40.0
290
     0
  0
SCALE
  5
A4
102
{ACAD_REACTORS
330
99
102
}
330
99
100
AcDbScale
 70
     0
300
1:50
140
1.0
141
50.0
290
     0
  0
SCALE
  5
A5
102
{ACAD_REACTORS
330
99
102
}
330
99
100
AcDbScale
 70
     0
300
1:100
140
1.0
141
100.0
290
     0
  0
SCALE
  5
A6
102
{ACAD_REACTORS
330
99
102
}
330
99
100
AcDbScale
 70
     0
300
2:1
140
2.0
141
1.0
290
     0
  0
SCALE
  5
A7
102
{ACAD_REACTORS
330
99
102
}
330
99
100
AcDbScale
 70
     0
300
4:1
140
4.0
141
1.0
290
     0
  0
SCALE
  5
A8
102
{ACAD_REACTORS
330
99
102
}
330
99
100
AcDbScale
 70
     0
300
8:1
140
8.0
141
1.0
290
     0
  0
SCALE
  5
A9
102
{ACAD_REACTORS
330
99
102
}
330
99
100
AcDbScale
 70
     0
300
10:1
140
10.0
141
1.0
290
     0
  0
SCALE
  5
AA
102
{ACAD_REACTORS
330
99
102
}
330
99
100
AcDbScale
 70
     0
300
100:1
140
100.0
141
1.0
290
     0
  0
SCALE
  5
AB
102
{ACAD_REACTORS
330
99
102
}
330
99
100
AcDbScale
 70
     0
300
1/128" = 1'-0"
140
0.0078125
141
12.0
290
     0
  0
SCALE
  5
AC
102
{ACAD_REACTORS
330
99
102
}
330
99
100
AcDbScale
 70
     0
300
1/64" = 1'-0"
140
0.015625
141
12.0
290
     0
  0
SCALE
  5
AD
102
{ACAD_REACTORS
330
99
102
}
330
99
100
AcDbScale
 70
     0
300
1/32" = 1'-0"
140
0.03125
141
12.0
290
     0
  0
SCALE
  5
AE
102
{ACAD_REACTORS
330
99
102
}
330
99
100
AcDbScale
 70
     0
300
1/16" = 1'-0"
140
0.0625
141
12.0
290
     0
  0
SCALE
  5
AF
102
{ACAD_REACTORS
330
99
102
}
330
99
100
AcDbScale
 70
     0
300
3/32" = 1'-0"
140
0.09375
141
12.0
290
     0
  0
SCALE
  5
B0
102
{ACAD_REACTORS
330
99
102
}
330
99
100
AcDbScale
 70
     0
300
1/8" = 1'-0"
140
0.125
141
12.0
290
     0
  0
SCALE
  5
B1
102
{ACAD_REACTORS
330
99
102
}
330
99
100
AcDbScale
 70
     0
300
3/16" = 1'-0"
140
0.1875
141
12.0
290
     0
  0
SCALE
  5
B2
102
{ACAD_REACTORS
330
99
102
}
330
99
100
AcDbScale
 70
     0
300
1/4" = 1'-0"
140
0.25
141
12.0
290
     0
  0
SCALE
  5
B3
102
{ACAD_REACTORS
330
99
102
}
330
99
100
AcDbScale
 70
     0
300
3/8" = 1'-0"
140
0.375
141
12.0
290
     0
  0
SCALE
  5
B4
102
{ACAD_REACTORS
330
99
102
}
330
99
100
AcDbScale
 70
     0
300
1/2" = 1'-0"
140
0.5
141
12.0
290
     0
  0
SCALE
  5
B5
102
{ACAD_REACTORS
330
99
102
}
330
99
100
AcDbScale
 70
     0
300
3/4" = 1'-0"
140
0.75
141
12.0
290
     0
  0
SCALE
  5
B6
102
{ACAD_REACTORS
330
99
102
}
330
99
100
AcDbScale
 70
     0
300
1" = 1'-0"
140
1.0
141
12.0
290
     0
  0
SCALE
  5
B7
102
{ACAD_REACTORS
330
99
102
}
330
99
100
AcDbScale
 70
     0
300
1-1/2" = 1'-0"
140
1.5
141
12.0
290
     0
  0
SCALE
  5
B8
102
{ACAD_REACTORS
330
99
102
}
330
99
100
AcDbScale
 70
     0
300
3" = 1'-0"
140
3.0
141
12.0
290
     0
  0
SCALE
  5
B9
102
{ACAD_REACTORS
330
99
102
}
330
99
100
AcDbScale
 70
     0
300
6" = 1'-0"
140
6.0
141
12.0
290
     0
  0
SCALE
  5
BA
102
{ACAD_REACTORS
330
99
102
}
330
99
100
AcDbScale
 70
     0
300
1'-0" = 1'-0"
140
12.0
141
12.0
290
     0
  0
ACDBSECTIONVIEWSTYLE
  5
29840
102
{ACAD_XDICTIONARY
360
29938
102
}
102
{ACAD_REACTORS
330
8E2
102
}
330
8E2
100
AcDbModelDocViewStyle
 70
     0
  3
Metric50
290
     0
100
AcDbSectionViewStyle
 70
     0
 71
     0
 90
      102
 71
     1
340
11
 40
5.0
340
0
340
0
 40
5.0
300
I, O, Q, S, X, Z
 40
10.0
 90
        0
 40
2.5
 90
        0
 71
     2
340
16
 90
       25
340
16
 90
       50
 40
5.0
 40
2.5
 40
5.0
 71
     3
340
11
 40
5.0
 90
        0
 40
15.0
 90
        1
300
%<\AcVar ViewSectionStartId>%-%<\AcVar ViewSectionEndId>% (%<\AcVar ViewScale \f "%sn">%)
 71
     4
300
ANSI31
 40
1.0
 90
        0
290
     0
290
     0
 90
        6
 40
0.0
 40
1.570796326794896
 40
0.2617993877991494
 40
1.308996938995747
 40
-0.2617993877991494
 40
1.832595714594045
  0
TABLESTYLE
  5
2983E
102
{ACAD_XDICTIONARY
360
298AF
102
}
102
{ACAD_REACTORS
330
92
102
}
330
92
100
AcDbTableStyle
  3
Standard
 70
     0
 71
     0
 40
1.5
 41
1.5
280
     0
281
     0
  7
Standard
140
4.5
170
     2
 62
     0
 63
     7
283
     0
274
    -2
284
     1
 64
     0
275
    -2
285
     1
 65
     0
276
    -2
286
     1
 66
     0
277
    -2
287
     1
 67
     0
278
    -2
288
     1
 68
     0
279
    -2
289
     1
 69
     0
  7
Standard
140
6.0
170
     5
 62
     0
 63
     7
283
     0
274
    -2
284
     1
 64
     0
275
    -2
285
     1
 65
     0
276
    -2
286
     1
 66
     0
277
    -2
287
     1
 67
     0
278
    -2
288
     1
 68
     0
279
    -2
289
     1
 69
     0
  7
Standard
140
4.5
170
     5
 62
     0
 63
     7
283
     0
274
    -2
284
     1
 64
     0
275
    -2
285
     1
 65
     0
276
    -2
286
     1
 66
     0
277
    -2
287
     1
 67
     0
278
    -2
288
     1
 68
     0
279
    -2
289
     1
 69
     0
  0
VISUALSTYLE
  5
2982B
102
{ACAD_XDICTIONARY
360
29911
102
}
102
{ACAD_REACTORS
330
3F2
102
}
330
3F2
100
AcDbVisualStyle
  2

 70
     4
 71
     0
 72
     2
 73
     0
 90
        0
 40
-0.6
 41
-30.0
 62
     5
 63
     7
 74
     1
 91
        4
 64
     7
 65
   257
 75
     1
175
     1
 42
1.0
 92
        0
 66
   257
 43
1.0
 76
     1
 77
     6
 78
     2
 67
     7
 79
     5
170
     0
171
     0
290
     0
174
     0
 93
        1
 44
0.0
173
     0
291
     0
 45
0.0
1001
ACAD
1000
AcDbSavedByObjectVersion
1070
     0
  0
VISUALSTYLE
  5
2982A
102
{ACAD_XDICTIONARY
360
2990F
102
}
102
{ACAD_REACTORS
330
3F2
102
}
330
3F2
100
AcDbVisualStyle
  2

 70
     7
 71
     1
 72
     0
 73
     1
 90
        0
 40
-0.6
 41
-30.0
 62
     5
 63
     7
 74
     0
 91
        4
 64
     7
 65
   257
 75
     1
175
     1
 42
1.0
 92
        8
 66
     7
 43
1.0
 76
     1
 77
     6
 78
     2
 67
     7
 79
     5
170
     0
171
     0
290
     0
174
     0
 93
        1
 44
0.0
173
     0
291
     1
 45
0.0
1001
ACAD
1000
AcDbSavedByObjectVersion
1070
     0
  0
VISUALSTYLE
  5
29831
102
{ACAD_XDICTIONARY
360
2991D
102
}
102
{ACAD_REACTORS
330
3F2
102
}
330
3F2
100
AcDbVisualStyle
  2

 70
    12
 71
     2
 72
     2
 73
     0
 90
        0
 40
-0.6
 41
-30.0
 62
     5
 63
     7
 74
     1
 91
        4
 64
     7
 65
   257
 75
     1
175
     1
 42
1.0
 92
        8
 66
     7
 43
1.0
 76
     1
 77
     6
 78
     2
 67
     7
 79
     5
170
     0
171
     0
290
     0
174
     0
 93
        1
 44
50.0
173
     0
291
     1
 45
0.0
1001
ACAD
1000
AcDbSavedByObjectVersion
1070
     0
  0
VISUALSTYLE
  5
29835
102
{ACAD_XDICTIONARY
360
29925
102
}
102
{ACAD_REACTORS
330
3F2
102
}
330
3F2
100
AcDbVisualStyle
  2

 70
    16
 71
     2
 72
     2
 73
     3
 90
        0
 40
-0.6
 41
-30.0
 62
     5
 63
     8
 74
     1
 91
        4
 64
     7
 65
   257
 75
     1
175
     1
 42
1.0
 92
        8
 66
     8
 43
1.0
 76
     1
 77
     6
 78
     2
 67
     7
 79
     5
170
     0
171
     0
290
     0
174
     0
 93
        1
 44
0.0
173
     0
291
     1
 45
0.0
1001
ACAD
1000
AcDbSavedByObjectVersion
1070
     0
  0
VISUALSTYLE
  5
2982E
102
{ACAD_XDICTIONARY
360
29917
102
}
102
{ACAD_REACTORS
330
3F2
102
}
330
3F2
100
AcDbVisualStyle
  2

 70
     9
 71
     3
 72
     2
 73
     0
 90
        0
 40
-0.6
 41
-30.0
 62
     5
 63
     7
 74
     2
 91
        2
 64
     7
 65
   257
 75
     1
175
     1
 42
179.0
 92
        8
 66
     7
 43
1.0
 76
     1
 77
     6
 78
     2
 67
     7
 79
     3
170
     0
171
     0
290
     0
174
     0
 93
        1
 44
0.0
173
     0
291
     0
 45
0.0
1001
ACAD
1000
AcDbSavedByObjectVersion
1070
     0
  0
VISUALSTYLE
  5
29830
102
{ACAD_XDICTIONARY
360
2991B
102
}
102
{ACAD_REACTORS
330
3F2
102
}
330
3F2
100
AcDbVisualStyle
  2

 70
    11
 71
     2
 72
     2
 73
     0
 90
        0
 40
-0.6
 41
-30.0
 62
     5
 63
     7
 74
     1
 91
        4
 64
     7
 65
   257
 75
     1
175
     1
 42
1.0
 92
        8
 66
     7
 43
1.0
 76
     1
 77
     6
 78
     2
 67
     7
 79
     5
170
     0
171
     0
290
     0
174
     0
 93
        1
 44
-50.0
173
     0
291
     1
 45
0.0
1001
ACAD
1000
AcDbSavedByObjectVersion
1070
     0
  0
VISUALSTYLE
  5
2983D
102
{ACAD_XDICTIONARY
360
29935
102
}
102
{ACAD_REACTORS
330
3F2
102
}
330
3F2
100
AcDbVisualStyle
  2

 70
    22
 71
     2
 72
     2
 73
     0
 90
        0
 40
-0.6
 41
-30.0
 62
     5
 63
     7
 74
     1
 91
        4
 64
     7
 65
   257
 75
     1
175
     1
 42
1.0
 92
        8
 66
     7
 43
1.0
 76
     1
 77
     6
 78
     2
 67
     7
 79
     5
170
     0
171
     0
290
     0
174
     0
 93
        1
 44
0.0
173
     0
291
     1
 45
0.0
1001
ACAD
1000
AcDbSavedByObjectVersion
1070
     0
  0
VISUALSTYLE
  5
29834
102
{ACAD_XDICTIONARY
360
29923
102
}
102
{ACAD_REACTORS
330
3F2
102
}
330
3F2
100
AcDbVisualStyle
  2

 70
    15
 71
     2
 72
     2
 73
     0
 90
        0
 40
-0.6
 41
-30.0
 62
     5
 63
     7
 74
     1
 91
        4
 64
     7
 65
   257
 75
     1
175
     1
 42
1.0
 92
        8
 66
     7
 43
1.0
 76
     1
 77
     6
 78
     2
 67
     7
 79
     5
170
     0
171
     0
290
     0
174
     0
 93
        1
 44
0.0
173
     0
291
     1
 45
0.0
1001
ACAD
1000
AcDbSavedByObjectVersion
1070
     0
  0
VISUALSTYLE
  5
29826
102
{ACAD_XDICTIONARY
360
29907
102
}
102
{ACAD_REACTORS
330
3F2
102
}
330
3F2
100
AcDbVisualStyle
  2

 70
     0
 71
     2
 72
     1
 73
     1
 90
        2
 40
-0.6
 41
30.0
 62
     5
 63
     7
 74
     0
 91
        0
 64
     7
 65
   257
 75
     1
175
     1
 42
1.0
 92
        8
 66
     7
 43
1.0
 76
     1
 77
     6
 78
     2
 67
     7
 79
     5
170
     0
171
     0
290
     0
174
     0
 93
       13
 44
0.0
173
     0
291
     1
 45
0.0
1001
ACAD
1000
AcDbSavedByObjectVersion
1070
     0
  0
VISUALSTYLE
  5
29827
102
{ACAD_XDICTIONARY
360
29909
102
}
102
{ACAD_REACTORS
330
3F2
102
}
330
3F2
100
AcDbVisualStyle
  2

 70
     1
 71
     2
 72
     1
 73
     1
 90
        2
 40
-0.6
 41
30.0
 62
     5
 63
     7
 74
     1
 91
        0
 64
     7
 65
   257
 75
     1
175
     1
 42
1.0
 92
        0
 66
   257
 43
1.0
 76
     1
 77
     6
 78
     2
 67
     7
 79
     5
170
     0
171
     0
290
     0
174
     0
 93
       13
 44
0.0
173
     0
291
     1
 45
0.0
1001
ACAD
1000
AcDbSavedByObjectVersion
1070
     0
  0
VISUALSTYLE
  5
29828
102
{ACAD_XDICTIONARY
360
2990B
102
}
102
{ACAD_REACTORS
330
3F2
102
}
330
3F2
100
AcDbVisualStyle
  2

 70
     2
 71
     2
 72
     2
 73
     1
 90
        2
 40
-0.6
 41
30.0
 62
     5
 63
     7
 74
     0
 91
        0
 64
     7
 65
   257
 75
     1
175
     1
 42
1.0
 92
        0
 66
     7
 43
1.0
 76
     1
 77
     6
 78
     2
 67
     7
 79
     5
170
     0
171
     0
290
     0
174
     0
 93
       13
 44
0.0
173
     0
291
     1
 45
0.0
1001
ACAD
1000
AcDbSavedByObjectVersion
1070
     0
  0
VISUALSTYLE
  5
29829
102
{ACAD_XDICTIONARY
360
2990D
102
}
102
{ACAD_REACTORS
330
3F2
102
}
330
3F2
100
AcDbVisualStyle
  2

 70
     3
 71
     2
 72
     2
 73
     1
 90
        2
 40
-0.6
 41
30.0
 62
     5
 63
     7
 74
     1
 91
        0
 64
     7
 65
   257
 75
     1
175
     1
 42
1.0
 92
        0
 66
   257
 43
1.0
 76
     1
 77
     6
 78
     2
 67
     7
 79
     5
170
     0
171
     0
290
     0
174
     0
 93
       13
 44
0.0
173
     0
291
     1
 45
0.0
1001
ACAD
1000
AcDbSavedByObjectVersion
1070
     0
  0
VISUALSTYLE
  5
2982D
102
{ACAD_XDICTIONARY
360
29915
102
}
102
{ACAD_REACTORS
330
3F2
102
}
330
3F2
100
AcDbVisualStyle
  2

 70
     6
 71
     1
 72
     2
 73
     2
 90
        0
 40
-0.6
 41
-30.0
 62
     5
 63
     7
 74
     2
 91
        2
 64
     7
 65
   257
 75
     2
175
     1
 42
40.0
 92
        0
 66
   257
 43
1.0
 76
     1
 77
     6
 78
     2
 67
     7
 79
     3
170
     0
171
     0
290
     0
174
     0
 93
        1
 44
0.0
173
     0
291
     0
 45
0.0
1001
ACAD
1000
AcDbSavedByObjectVersion
1070
     0
  0
VISUALSTYLE
  5
2983B
102
{ACAD_XDICTIONARY
360
29931
102
}
102
{ACAD_REACTORS
330
3F2
102
}
330
3F2
100
AcDbVisualStyle
  2

 70
    20
 71
     2
 72
     2
 73
     0
 90
        0
 40
-0.6
 41
-30.0
 62
     5
 63
     7
 74
     1
 91
        4
 64
     7
 65
   257
 75
     1
175
     1
 42
1.0
 92
       10
 66
     7
 43
1.0
 76
     1
 77
     6
 78
     2
 67
     7
 79
     5
170
     0
171
     0
290
     0
174
     0
 93
        1
 44
0.0
173
     0
291
     1
 45
0.0
1001
ACAD
1000
AcDbSavedByObjectVersion
1070
     0
  0
VISUALSTYLE
  5
29833
102
{ACAD_XDICTIONARY
360
29921
102
}
102
{ACAD_REACTORS
330
3F2
102
}
330
3F2
100
AcDbVisualStyle
  2

 70
    14
 71
     2
 72
     2
 73
     0
 90
        0
 40
-0.6
 41
-30.0
 62
     5
 63
     7
 74
     1
 91
        4
 64
     7
 65
   257
 75
     7
175
     7
 42
1.0
 92
        8
 66
     7
 43
1.0
 76
     1
 77
     6
 78
     2
 67
     7
 79
     5
170
     0
171
     0
290
     0
174
     0
 93
        1
 44
0.0
173
     0
291
     1
 45
0.0
1001
ACAD
1000
AcDbSavedByObjectVersion
1070
     0
  0
VISUALSTYLE
  5
2983C
102
{ACAD_XDICTIONARY
360
29933
102
}
102
{ACAD_REACTORS
330
3F2
102
}
330
3F2
100
AcDbVisualStyle
  2

 70
    21
 71
     2
 72
     2
 73
     0
 90
        0
 40
-0.6
 41
-30.0
 62
     5
 63
     7
 74
     1
 91
        4
 64
     7
 65
   257
 75
     1
175
     1
 42
1.0
 92
        9
 66
     7
 43
1.0
 76
     1
 77
     6
 78
     2
 67
     7
 79
     5
170
     0
171
     0
290
     0
174
     0
 93
        1
 44
0.0
173
     0
291
     1
 45
0.0
1001
ACAD
1000
AcDbSavedByObjectVersion
1070
     0
  0
VISUALSTYLE
  5
2982F
102
{ACAD_XDICTIONARY
360
29919
102
}
102
{ACAD_REACTORS
330
3F2
102
}
330
3F2
100
AcDbVisualStyle
  2

 70
     8
 71
     2
 72
     3
 73
     0
 90
        2
 40
-0.6
 41
30.0
 62
     5
 63
     7
 74
     0
 91
        0
 64
     7
 65
   257
 75
     1
175
     1
 42
1.0
 92
        8
 66
   257
 43
1.0
 76
     1
 77
     6
 78
     2
 67
     7
 79
     3
170
     0
171
     0
290
     0
174
     0
 93
       13
 44
0.0
173
     0
291
     0
 45
0.0
1001
ACAD
1000
AcDbSavedByObjectVersion
1070
     0
  0
VISUALSTYLE
  5
2983A
102
{ACAD_XDICTIONARY
360
2992F
102
}
102
{ACAD_REACTORS
330
3F2
102
}
330
3F2
100
AcDbVisualStyle
  2

 70
    27
 71
     2
 72
     2
 73
     1
 90
        2
 40
-0.6
 41
30.0
 62
     5
 63
     7
 74
     0
 91
        4
 64
     7
 65
   257
 75
     1
175
     1
 42
1.0
 92
        8
 66
   257
 43
1.0
 76
     1
 77
     6
 78
     2
 67
     8
 79
     3
170
     0
171
     0
290
     0
174
     0
 93
        5
 44
0.0
173
     0
291
     0
 45
0.0
1001
ACAD
1000
AcDbSavedByObjectVersion
1070
     0
  0
VISUALSTYLE
  5
29839
102
{ACAD_XDICTIONARY
360
2992D
102
}
102
{ACAD_REACTORS
330
3F2
102
}
330
3F2
100
AcDbVisualStyle
  2

 70
    26
 71
     2
 72
     2
 73
     1
 90
        2
 40
-0.6
 41
30.0
 62
     5
 63
     7
 74
     1
 91
        2
 64
     7
 65
   257
 75
     2
175
     1
 42
1.0
 92
        8
 66
   257
 43
1.0
 76
     1
 77
     6
 78
     2
 67
     7
 79
     3
170
     0
171
     0
290
     0
174
     0
 93
        5
 44
0.0
173
     0
291
     0
 45
0.0
1001
ACAD
1000
AcDbSavedByObjectVersion
1070
     0
  0
VISUALSTYLE
  5
29836
102
{ACAD_XDICTIONARY
360
29927
102
}
102
{ACAD_REACTORS
330
3F2
102
}
330
3F2
100
AcDbVisualStyle
  2

 70
    23
 71
     2
 72
     2
 73
     3
 90
        0
 40
-0.6
 41
-30.0
 62
     5
 63
     7
 74
     2
 91
        2
 64
     7
 65
     7
 75
     1
175
     1
 42
40.0
 92
        8
 66
     7
 43
1.0
 76
     1
 77
     6
 78
     2
 67
     7
 79
     3
170
     0
171
     0
290
     0
174
     0
 93
        1
 44
0.0
173
     0
291
     0
 45
0.0
1001
ACAD
1000
AcDbSavedByObjectVersion
1070
     0
  0
VISUALSTYLE
  5
29837
102
{ACAD_XDICTIONARY
360
29929
102
}
102
{ACAD_REACTORS
330
3F2
102
}
330
3F2
100
AcDbVisualStyle
  2

 70
    24
 71
     1
 72
     2
 73
     2
 90
        0
 40
-0.6
 41
-30.0
 62
     5
 63
     7
 74
     2
 91
        2
 64
     7
 65
     7
 75
     1
175
     1
 42
40.0
 92
       11
 66
     7
 43
1.0
 76
     1
 77
     6
 78
     2
 67
     7
 79
     6
170
     0
171
     0
290
     0
174
     0
 93
        1
 44
0.0
173
     0
291
     0
 45
0.0
1001
ACAD
1000
AcDbSavedByObjectVersion
1070
     0
  0
VISUALSTYLE
  5
29832
102
{ACAD_XDICTIONARY
360
2991F
102
}
102
{ACAD_REACTORS
330
3F2
102
}
330
3F2
100
AcDbVisualStyle
  2

 70
    13
 71
     2
 72
     2
 73
     0
 90
        0
 40
-0.6
 41
-30.0
 62
     5
 63
     7
 74
     1
 91
        4
 64
     7
 65
   257
 75
     1
175
     1
 42
1.0
 92
       12
 66
     7
 43
1.0
 76
     1
 77
     6
 78
     2
 67
     7
 79
     5
170
     0
171
     0
290
     0
174
     0
 93
        1
 44
0.0
173
     0
291
     1
 45
0.0
1001
ACAD
1000
AcDbSavedByObjectVersion
1070
     0
  0
VISUALSTYLE
  5
2982C
102
{ACAD_XDICTIONARY
360
29913
102
}
102
{ACAD_REACTORS
330
3F2
102
}
330
3F2
100
AcDbVisualStyle
  2

 70
     5
 71
     0
 72
     2
 73
     0
 90
        0
 40
-0.6
 41
-30.0
 62
     5
 63
     7
 74
     1
 91
        4
 64
     7
 65
   257
 75
     1
175
     1
 42
1.0
 92
        0
 66
   257
 43
1.0
 76
     1
 77
     6
 78
     2
 67
     7
 79
     3
170
     0
171
     0
290
     0
174
     0
 93
        1
 44
0.0
173
     0
291
     0
 45
0.0
1001
ACAD
1000
AcDbSavedByObjectVersion
1070
     0
  0
VISUALSTYLE
  5
29838
102
{ACAD_XDICTIONARY
360
2992B
102
}
102
{ACAD_REACTORS
330
3F2
102
}
330
3F2
100
AcDbVisualStyle
  2

 70
    25
 71
     2
 72
     2
 73
     1
 90
        1
 40
0.5
 41
-30.0
 62
     5
 63
     7
 74
     1
 91
        0
 64
     7
 65
   257
 75
     1
175
     1
 42
1.0
 92
        8
 66
     7
 43
1.0
 76
     1
 77
     6
 78
     2
 67
     7
 79
     3
170
     0
171
     0
290
     0
174
     0
 93
       13
 44
0.0
173
     0
291
     0
 45
0.0
1001
ACAD
1000
AcDbSavedByObjectVersion
1070
     0
  0
XRECORD
  5
29806
102
{ACAD_REACTORS
330
29805
102
}
330
29805
100
AcDbXrecord
280
     1
340
6C
  0
XRECORD
  5
29807
102
{ACAD_REACTORS
330
29805
102
}
330
29805
100
AcDbXrecord
280
     1
340
6B
  0
DICTIONARYVAR
  5
29804
102
{ACAD_REACTORS
330
59
102
}
330
59
100
DictionaryVariables
280
     0
  1
1:1
  0
DICTIONARYVAR
  5
29868
102
{ACAD_REACTORS
330
59
102
}
330
59
100
DictionaryVariables
280
     0
  1
STANDARD
  0
DICTIONARYVAR
  5
98
102
{ACAD_REACTORS
330
59
102
}
330
59
100
DictionaryVariables
280
     0
  1
STANDARD
  0
DICTIONARYVAR
  5
8FB
102
{ACAD_REACTORS
330
59
102
}
330
59
100
DictionaryVariables
280
     0
  1
Metric50
  0
DICTIONARYVAR
  5
8FC
102
{ACAD_REACTORS
330
59
102
}
330
59
100
DictionaryVariables
280
     0
  1
Metric50
  0
DICTIONARYVAR
  5
359
102
{ACAD_REACTORS
330
59
102
}
330
59
100
DictionaryVariables
280
     0
  1
2
  0
DICTIONARYVAR
  5
AF7
102
{ACAD_REACTORS
330
59
102
}
330
59
100
DictionaryVariables
280
     0
  1
0
  0
DICTIONARYVAR
  5
358
102
{ACAD_REACTORS
330
59
102
}
330
59
100
DictionaryVariables
280
     0
  1
1
  0
DICTIONARYVAR
  5
9BE
102
{ACAD_REACTORS
330
59
102
}
330
59
100
DictionaryVariables
280
     0
  1
0
  0
DICTIONARYVAR
  5
7AE
102
{ACAD_REACTORS
330
59
102
}
330
59
100
DictionaryVariables
280
     0
  1
1
  0
DICTIONARYVAR
  5
7AF
102
{ACAD_REACTORS
330
59
102
}
330
59
100
DictionaryVariables
280
     0
  1
15
  0
DICTIONARYVAR
  5
44A
102
{ACAD_REACTORS
330
59
102
}
330
59
100
DictionaryVariables
280
     0
  1
0
  0
DICTIONARYVAR
  5
448
102
{ACAD_REACTORS
330
59
102
}
330
59
100
DictionaryVariables
280
     0
  1
1
  0
DICTIONARYVAR
  5
9BD
102
{ACAD_REACTORS
330
59
102
}
330
59
100
DictionaryVariables
280
     0
  1
127
  0
DICTIONARYVAR
  5
298FA
102
{ACAD_REACTORS
330
59
102
}
330
59
100
DictionaryVariables
280
     0
  1
2
  0
DICTIONARY
  5
76F
102
{ACAD_REACTORS
330
76D
102
}
330
76D
100
AcDbDictionary
281
     1
  0
DICTIONARY
  5
744
102
{ACAD_REACTORS
330
743
102
}
330
743
100
AcDbDictionary
281
     1
  0
XRECORD
  5
8C7
102
{ACAD_REACTORS
330
8C6
102
}
330
8C6
100
AcDbXrecord
280
     1
  0
DICTIONARY
  5
2993A
330
29841
100
AcDbDictionary
280
     1
281
     1
  3
ACAD_XREC_ROUNDTRIP
360
2993B
  0
DICTIONARY
  5
29905
330
74
100
AcDbDictionary
280
     1
281
     1
  3
ACAD_XREC_ROUNDTRIP
360
29906
  0
DICTIONARY
  5
29903
330
22
100
AcDbDictionary
280
     1
281
     1
  3
ACAD_XREC_ROUNDTRIP
360
29904
  0
DICTIONARY
  5
29817
330
29816
100
AcDbDictionary
280
     1
281
     1
  3
ACAD_XREC_ROUNDTRIP
360
298BD
  3
BUMPTILE
360
29819
  3
DIFFUSETILE
360
29818
  3
OPACITYTILE
360
2981C
  3
REFLECTIONTILE
360
2981B
  3
REFRACTIONTILE
360
2981D
  3
SPECULARTILE
360
2981A
  0
DICTIONARY
  5
2980F
330
2980E
100
AcDbDictionary
280
     1
281
     1
  3
ACAD_XREC_ROUNDTRIP
360
298BC
  3
BUMPTILE
360
29811
  3
DIFFUSETILE
360
29810
  3
OPACITYTILE
360
29814
  3
REFLECTIONTILE
360
29813
  3
REFRACTIONTILE
360
29815
  3
SPECULARTILE
360
29812
  0
DICTIONARY
  5
2981F
330
2981E
100
AcDbDictionary
280
     1
281
     1
  3
ACAD_XREC_ROUNDTRIP
360
298BE
  3
BUMPTILE
360
29821
  3
DIFFUSETILE
360
29820
  3
OPACITYTILE
360
29824
  3
REFLECTIONTILE
360
29823
  3
REFRACTIONTILE
360
29825
  3
SPECULARTILE
360
29822
  0
DICTIONARY
  5
29938
330
29840
100
AcDbDictionary
280
     1
281
     1
  3
ACAD_XREC_ROUNDTRIP
360
29939
  0
DICTIONARY
  5
298AF
330
2983E
100
AcDbDictionary
280
     1
281
     1
  3
ACAD_ROUNDTRIP_2008_TABLESTYLE_CELLSTYLEMAP
360
298FB
  3
ACAD_XREC_ROUNDTRIP
360
29937
  0
DICTIONARY
  5
29911
330
2982B
100
AcDbDictionary
280
     1
281
     1
  3
ACAD_XREC_ROUNDTRIP
360
29912
  0
DICTIONARY
  5
2990F
330
2982A
100
AcDbDictionary
280
     1
281
     1
  3
ACAD_XREC_ROUNDTRIP
360
29910
  0
DICTIONARY
  5
2991D
330
29831
100
AcDbDictionary
280
     1
281
     1
  3
ACAD_XREC_ROUNDTRIP
360
2991E
  0
DICTIONARY
  5
29925
330
29835
100
AcDbDictionary
280
     1
281
     1
  3
ACAD_XREC_ROUNDTRIP
360
29926
  0
DICTIONARY
  5
29917
330
2982E
100
AcDbDictionary
280
     1
281
     1
  3
ACAD_XREC_ROUNDTRIP
360
29918
  0
DICTIONARY
  5
2991B
330
29830
100
AcDbDictionary
280
     1
281
     1
  3
ACAD_XREC_ROUNDTRIP
360
2991C
  0
DICTIONARY
  5
29935
330
2983D
100
AcDbDictionary
280
     1
281
     1
  3
ACAD_XREC_ROUNDTRIP
360
29936
  0
DICTIONARY
  5
29923
330
29834
100
AcDbDictionary
280
     1
281
     1
  3
ACAD_XREC_ROUNDTRIP
360
29924
  0
DICTIONARY
  5
29907
330
29826
100
AcDbDictionary
280
     1
281
     1
  3
ACAD_XREC_ROUNDTRIP
360
29908
  0
DICTIONARY
  5
29909
330
29827
100
AcDbDictionary
280
     1
281
     1
  3
ACAD_XREC_ROUNDTRIP
360
2990A
  0
DICTIONARY
  5
2990B
330
29828
100
AcDbDictionary
280
     1
281
     1
  3
ACAD_XREC_ROUNDTRIP
360
2990C
  0
DICTIONARY
  5
2990D
330
29829
100
AcDbDictionary
280
     1
281
     1
  3
ACAD_XREC_ROUNDTRIP
360
2990E
  0
DICTIONARY
  5
29915
330
2982D
100
AcDbDictionary
280
     1
281
     1
  3
ACAD_XREC_ROUNDTRIP
360
29916
  0
DICTIONARY
  5
29931
330
2983B
100
AcDbDictionary
280
     1
281
     1
  3
ACAD_XREC_ROUNDTRIP
360
29932
  0
DICTIONARY
  5
29921
330
29833
100
AcDbDictionary
280
     1
281
     1
  3
ACAD_XREC_ROUNDTRIP
360
29922
  0
DICTIONARY
  5
29933
330
2983C
100
AcDbDictionary
280
     1
281
     1
  3
ACAD_XREC_ROUNDTRIP
360
29934
  0
DICTIONARY
  5
29919
330
2982F
100
AcDbDictionary
280
     1
281
     1
  3
ACAD_XREC_ROUNDTRIP
360
2991A
  0
DICTIONARY
  5
2992F
330
2983A
100
AcDbDictionary
280
     1
281
     1
  3
ACAD_XREC_ROUNDTRIP
360
29930
  0
DICTIONARY
  5
2992D
330
29839
100
AcDbDictionary
280
     1
281
     1
  3
ACAD_XREC_ROUNDTRIP
360
2992E
  0
DICTIONARY
  5
29927
330
29836
100
AcDbDictionary
280
     1
281
     1
  3
ACAD_XREC_ROUNDTRIP
360
29928
  0
DICTIONARY
  5
29929
330
29837
100
AcDbDictionary
280
     1
281
     1
  3
ACAD_XREC_ROUNDTRIP
360
2992A
  0
DICTIONARY
  5
2991F
330
29832
100
AcDbDictionary
280
     1
281
     1
  3
ACAD_XREC_ROUNDTRIP
360
29920
  0
DICTIONARY
  5
29913
330
2982C
100
AcDbDictionary
280
     1
281
     1
  3
ACAD_XREC_ROUNDTRIP
360
29914
  0
DICTIONARY
  5
2992B
330
29838
100
AcDbDictionary
280
     1
281
     1
  3
ACAD_XREC_ROUNDTRIP
360
2992C
  0
XRECORD
  5
2993B
102
{ACAD_REACTORS
330
2993A
102
}
330
2993A
100
AcDbXrecord
280
     1
102
DISPLAYNAME
  1
Metric50
102
FLAGS
 90
        0
  0
XRECORD
  5
29906
102
{ACAD_REACTORS
330
29905
102
}
330
29905
100
AcDbXrecord
280
     1
102
SHADEPLOT
 70
     0
102
SHADEPLOTRESLEVEL
 70
     2
102
SHADEPLOTCUSTOMDPI
 70
   300
  0
XRECORD
  5
29904
102
{ACAD_REACTORS
330
29903
102
}
330
29903
100
AcDbXrecord
280
     1
102
SHADEPLOT
 70
     0
102
SHADEPLOTRESLEVEL
 70
     4
102
SHADEPLOTCUSTOMDPI
 70
   300
  0
XRECORD
  5
298BD
102
{ACAD_REACTORS
330
29817
102
}
330
29817
100
AcDbXrecord
280
     1
102
MATERIAL
148
0.0
149
0.0
149
0.0
 93
        0
 94
      127
282
     0
 72
     0
 77
     0
171
     0
175
     0
179
     0
273
     0
  0
XRECORD
  5
29819
102
{ACAD_REACTORS
330
29817
102
}
330
29817
100
AcDbXrecord
280
     1
270
     1
271
     1
  0
XRECORD
  5
29818
102
{ACAD_REACTORS
330
29817
102
}
330
29817
100
AcDbXrecord
280
     1
270
     1
271
     1
  0
XRECORD
  5
2981C
102
{ACAD_REACTORS
330
29817
102
}
330
29817
100
AcDbXrecord
280
     1
270
     1
271
     1
  0
XRECORD
  5
2981B
102
{ACAD_REACTORS
330
29817
102
}
330
29817
100
AcDbXrecord
280
     1
270
     1
271
     1
  0
XRECORD
  5
2981D
102
{ACAD_REACTORS
330
29817
102
}
330
29817
100
AcDbXrecord
280
     1
270
     1
271
     1
  0
XRECORD
  5
2981A
102
{ACAD_REACTORS
330
29817
102
}
330
29817
100
AcDbXrecord
280
     1
270
     1
271
     1
  0
XRECORD
  5
298BC
102
{ACAD_REACTORS
330
2980F
102
}
330
2980F
100
AcDbXrecord
280
     1
102
MATERIAL
148
0.0
149
0.0
149
0.0
 93
        0
 94
      127
282
     0
 72
     0
 77
     0
171
     0
175
     0
179
     0
273
     0
  0
XRECORD
  5
29811
102
{ACAD_REACTORS
330
2980F
102
}
330
2980F
100
AcDbXrecord
280
     1
270
     1
271
     1
  0
XRECORD
  5
29810
102
{ACAD_REACTORS
330
2980F
102
}
330
2980F
100
AcDbXrecord
280
     1
270
     1
271
     1
  0
XRECORD
  5
29814
102
{ACAD_REACTORS
330
2980F
102
}
330
2980F
100
AcDbXrecord
280
     1
270
     1
271
     1
  0
XRECORD
  5
29813
102
{ACAD_REACTORS
330
2980F
102
}
330
2980F
100
AcDbXrecord
280
     1
270
     1
271
     1
  0
XRECORD
  5
29815
102
{ACAD_REACTORS
330
2980F
102
}
330
2980F
100
AcDbXrecord
280
     1
270
     1
271
     1
  0
XRECORD
  5
29812
102
{ACAD_REACTORS
330
2980F
102
}
330
2980F
100
AcDbXrecord
280
     1
270
     1
271
     1
  0
XRECORD
  5
298BE
102
{ACAD_REACTORS
330
2981F
102
}
330
2981F
100
AcDbXrecord
280
     1
102
MATERIAL
148
0.0
149
0.0
149
0.0
 93
        0
 94
      127
282
     0
 72
     0
 77
     0
171
     0
175
     0
179
     0
273
     0
  0
XRECORD
  5
29821
102
{ACAD_REACTORS
330
2981F
102
}
330
2981F
100
AcDbXrecord
280
     1
270
     1
271
     1
  0
XRECORD
  5
29820
102
{ACAD_REACTORS
330
2981F
102
}
330
2981F
100
AcDbXrecord
280
     1
270
     1
271
     1
  0
XRECORD
  5
29824
102
{ACAD_REACTORS
330
2981F
102
}
330
2981F
100
AcDbXrecord
280
     1
270
     1
271
     1
  0
XRECORD
  5
29823
102
{ACAD_REACTORS
330
2981F
102
}
330
2981F
100
AcDbXrecord
280
     1
270
     1
271
     1
  0
XRECORD
  5
29825
102
{ACAD_REACTORS
330
2981F
102
}
330
2981F
100
AcDbXrecord
280
     1
270
     1
271
     1
  0
XRECORD
  5
29822
102
{ACAD_REACTORS
330
2981F
102
}
330
2981F
100
AcDbXrecord
280
     1
270
     1
271
     1
  0
XRECORD
  5
29939
102
{ACAD_REACTORS
330
29938
102
}
330
29938
100
AcDbXrecord
280
     1
102
DISPLAYNAME
  1
Metric50
102
FLAGS
 90
        0
  0
CELLSTYLEMAP
  5
298FB
102
{ACAD_REACTORS
330
298AF
102
}
330
298AF
100
AcDbCellStyleMap
 90
        3
300
CELLSTYLE
  1
TABLEFORMAT_BEGIN
 90
        5
170
     1
 91
        0
 92
    32768
 62
   257
 93
        1
300
CONTENTFORMAT
  1
CONTENTFORMAT_BEGIN
 90
        0
 91
        0
 92
      512
 93
        0
300

 40
0.0
140
1.0
 94
        5
 62
     0
340
11
144
6.0
309
CONTENTFORMAT_END
171
     1
301
MARGIN
  1
CELLMARGIN_BEGIN
 40
1.5
 40
1.5
 40
1.5
 40
1.5
 40
0.18
 40
0.18
309
CELLMARGIN_END
 94
        6
 95
        1
302
GRIDFORMAT
  1
GRIDFORMAT_BEGIN
 90
        0
 91
        1
 62
     0
 92
       -2
340
0
 93
        0
 40
1.125
309
GRIDFORMAT_END
 95
        2
302
GRIDFORMAT
  1
GRIDFORMAT_BEGIN
 90
        0
 91
        1
 62
     0
 92
       -2
340
0
 93
        0
 40
1.125
309
GRIDFORMAT_END
 95
        4
302
GRIDFORMAT
  1
GRIDFORMAT_BEGIN
 90
        0
 91
        1
 62
     0
 92
       -2
340
0
 93
        0
 40
1.125
309
GRIDFORMAT_END
 95
        8
302
GRIDFORMAT
  1
GRIDFORMAT_BEGIN
 90
        0
 91
        1
 62
     0
 92
       -2
340
0
 93
        0
 40
1.125
309
GRIDFORMAT_END
 95
       16
302
GRIDFORMAT
  1
GRIDFORMAT_BEGIN
 90
        0
 91
        1
 62
     0
 92
       -2
340
0
 93
        0
 40
1.125
309
GRIDFORMAT_END
 95
       32
302
GRIDFORMAT
  1
GRIDFORMAT_BEGIN
 90
        0
 91
        1
 62
     0
 92
       -2
340
0
 93
        0
 40
1.125
309
GRIDFORMAT_END
309
TABLEFORMAT_END
  1
CELLSTYLE_BEGIN
 90
        1
 91
        1
300
_TITLE
309
CELLSTYLE_END
300
CELLSTYLE
  1
TABLEFORMAT_BEGIN
 90
        5
170
     1
 91
        0
 92
        0
 62
   257
 93
        1
300
CONTENTFORMAT
  1
CONTENTFORMAT_BEGIN
 90
        0
 91
        0
 92
      512
 93
        0
300

 40
0.0
140
1.0
 94
        5
 62
     0
340
11
144
4.5
309
CONTENTFORMAT_END
171
     1
301
MARGIN
  1
CELLMARGIN_BEGIN
 40
1.5
 40
1.5
 40
1.5
 40
1.5
 40
0.18
 40
0.18
309
CELLMARGIN_END
 94
        6
 95
        1
302
GRIDFORMAT
  1
GRIDFORMAT_BEGIN
 90
        0
 91
        1
 62
     0
 92
       -2
340
0
 93
        0
 40
1.125
309
GRIDFORMAT_END
 95
        2
302
GRIDFORMAT
  1
GRIDFORMAT_BEGIN
 90
        0
 91
        1
 62
     0
 92
       -2
340
0
 93
        0
 40
1.125
309
GRIDFORMAT_END
 95
        4
302
GRIDFORMAT
  1
GRIDFORMAT_BEGIN
 90
        0
 91
        1
 62
     0
 92
       -2
340
0
 93
        0
 40
1.125
309
GRIDFORMAT_END
 95
        8
302
GRIDFORMAT
  1
GRIDFORMAT_BEGIN
 90
        0
 91
        1
 62
     0
 92
       -2
340
0
 93
        0
 40
1.125
309
GRIDFORMAT_END
 95
       16
302
GRIDFORMAT
  1
GRIDFORMAT_BEGIN
 90
        0
 91
        1
 62
     0
 92
       -2
340
0
 93
        0
 40
1.125
309
GRIDFORMAT_END
 95
       32
302
GRIDFORMAT
  1
GRIDFORMAT_BEGIN
 90
        0
 91
        1
 62
     0
 92
       -2
340
0
 93
        0
 40
1.125
309
GRIDFORMAT_END
309
TABLEFORMAT_END
  1
CELLSTYLE_BEGIN
 90
        2
 91
        1
300
_HEADER
309
CELLSTYLE_END
300
CELLSTYLE
  1
TABLEFORMAT_BEGIN
 90
        5
170
     1
 91
        0
 92
        0
 62
   257
 93
        1
300
CONTENTFORMAT
  1
CONTENTFORMAT_BEGIN
 90
        0
 91
        0
 92
      512
 93
        0
300

 40
0.0
140
1.0
 94
        2
 62
     0
340
11
144
4.5
309
CONTENTFORMAT_END
171
     1
301
MARGIN
  1
CELLMARGIN_BEGIN
 40
1.5
 40
1.5
 40
1.5
 40
1.5
 40
0.18
 40
0.18
309
CELLMARGIN_END
 94
        6
 95
        1
302
GRIDFORMAT
  1
GRIDFORMAT_BEGIN
 90
        0
 91
        1
 62
     0
 92
       -2
340
0
 93
        0
 40
1.125
309
GRIDFORMAT_END
 95
        2
302
GRIDFORMAT
  1
GRIDFORMAT_BEGIN
 90
        0
 91
        1
 62
     0
 92
       -2
340
0
 93
        0
 40
1.125
309
GRIDFORMAT_END
 95
        4
302
GRIDFORMAT
  1
GRIDFORMAT_BEGIN
 90
        0
 91
        1
 62
     0
 92
       -2
340
0
 93
        0
 40
1.125
309
GRIDFORMAT_END
 95
        8
302
GRIDFORMAT
  1
GRIDFORMAT_BEGIN
 90
        0
 91
        1
 62
     0
 92
       -2
340
0
 93
        0
 40
1.125
309
GRIDFORMAT_END
 95
       16
302
GRIDFORMAT
  1
GRIDFORMAT_BEGIN
 90
        0
 91
        1
 62
     0
 92
       -2
340
0
 93
        0
 40
1.125
309
GRIDFORMAT_END
 95
       32
302
GRIDFORMAT
  1
GRIDFORMAT_BEGIN
 90
        0
 91
        1
 62
     0
 92
       -2
340
0
 93
        0
 40
1.125
309
GRIDFORMAT_END
309
TABLEFORMAT_END
  1
CELLSTYLE_BEGIN
 90
        3
 91
        2
300
_DATA
309
CELLSTYLE_END
  0
XRECORD
  5
29937
102
{ACAD_REACTORS
330
298AF
102
}
330
298AF
100
AcDbXrecord
280
     1
102
ACAD_ROUNDTRIP_PRE2007_TABLESTYLE
 90
      512
 91
        0
  1

 92
      512
 93
        0
  2

 94
      512
 95
        0
  3

  0
XRECORD
  5
29912
102
{ACAD_REACTORS
330
29911
102
}
330
29911
100
AcDbXrecord
280
     1
102
RTVSPost2010Prop28
280
     1
102
RTVSPost2010PropOp28
 70
     1
102
RTVSPost2010Prop29
280
     1
102
RTVSPost2010PropOp29
 70
     1
102
RTVSPost2010Prop30
280
     0
102
RTVSPost2010PropOp30
 70
     1
102
RTVSPost2010Prop31
280
     0
102
RTVSPost2010PropOp31
 70
     1
102
RTVSPost2010Prop32
280
     0
102
RTVSPost2010PropOp32
 70
     1
102
RTVSPost2010Prop33
280
     0
102
RTVSPost2010PropOp33
 70
     1
102
RTVSPost2010Prop34
280
     0
102
RTVSPost2010PropOp34
 70
     1
102
RTVSPost2010Prop35
280
     0
102
RTVSPost2010PropOp35
 70
     1
102
RTVSPost2010Prop36
280
     0
102
RTVSPost2010PropOp36
 70
     1
102
RTVSPost2010Prop37
 90
       50
102
RTVSPost2010PropOp37
 70
     1
102
RTVSPost2010Prop38
140
0.0
102
RTVSPost2010PropOp38
 70
     1
102
RTVSPost2010Prop39
140
1.0
102
RTVSPost2010PropOp39
 70
     1
102
RTVSPost2010Prop40
 90
        0
102
RTVSPost2010PropOp40
 70
     1
102
RTVSPost2010Prop41ColorIndex
 90
       18
102
RTVSPost2010Prop41ColorRGB
 90
        0
102
RTVSPost2010PropOp41
 70
     1
102
RTVSPost2010Prop42
 90
       50
102
RTVSPost2010PropOp42
 70
     1
102
RTVSPost2010Prop43
 90
        3
102
RTVSPost2010PropOp43
 70
     1
102
RTVSPost2010Prop44ColorIndex
 90
        5
102
RTVSPost2010Prop44ColorRGB
 90
      255
102
RTVSPost2010PropOp44
 70
     1
102
RTVSPost2010Prop45
280
     0
102
RTVSPost2010PropOp45
 70
     1
102
RTVSPost2010Prop46
 90
       50
102
RTVSPost2010PropOp46
 70
     1
102
RTVSPost2010Prop47
 90
       50
102
RTVSPost2010PropOp47
 70
     1
102
RTVSPost2010Prop48
 90
       50
102
RTVSPost2010PropOp48
 70
     1
102
RTVSPost2010Prop49
280
     0
102
RTVSPost2010PropOp49
 70
     1
102
RTVSPost2010Prop50
 90
       50
102
RTVSPost2010PropOp50
 70
     1
102
RTVSPost2010Prop51ColorIndex
 90
      256
102
RTVSPost2010Prop51ColorRGB
 90
-16777216
102
RTVSPost2010PropOp51
 70
     0
102
RTVSPost2010Prop52
140
1.0
102
RTVSPost2010PropOp52
 70
     0
102
RTVSPost2010Prop53
 90
        2
102
RTVSPost2010PropOp53
 70
     1
102
RTVSPost2010Prop54
  1
strokes_ogs.tif
102
RTVSPost2010PropOp54
 70
     1
102
RTVSPost2010Prop55
280
     0
102
RTVSPost2010PropOp55
 70
     1
102
RTVSPost2010Prop56
140
1.0
102
RTVSPost2010PropOp56
 70
     1
102
RTVSPost2010Prop57
140
1.0
102
RTVSPost2010PropOp57
 70
     1
102
RTVSPropertyOp0
 70
     1
102
RTVSPropertyOp1
 70
     1
102
RTVSPropertyOp2
 70
     1
102
RTVSPropertyOp3
 70
     1
102
RTVSPropertyOp4
 70
     1
102
RTVSPropertyOp5
 70
     1
102
RTVSPropertyOp6
 70
     1
102
RTVSPropertyOp7
 70
     1
102
RTVSPropertyOp8
 70
     1
102
RTVSPropertyOp9
 70
     1
102
RTVSPropertyOp10
 70
     1
102
RTVSPropertyOp11
 70
     1
102
RTVSPropertyOp12
 70
     1
102
RTVSPropertyOp13
 70
     1
102
RTVSPropertyOp14
 70
     1
102
RTVSPropertyOp15
 70
     1
102
RTVSPropertyOp16
 70
     1
102
RTVSPropertyOp17
 70
     1
102
RTVSPropertyOp18
 70
     1
102
RTVSPropertyOp19
 70
     1
102
RTVSPropertyOp20
 70
     1
102
RTVSPropertyOp21
 70
     1
102
RTVSPropertyOp22
 70
     1
102
RTVSPropertyOp23
 70
     1
102
RTVSPropertyOp24
 70
     1
102
RTVSPropertyOp25
 70
     1
102
RTVSPropertyOp26
 70
     1
102
RTVSPropertyOp27
 70
     1
102
RTVSPropertyOp28
 70
     1
102
RTVSPropertyOp29
 70
     1
102
RTVSPropertyOp30
 70
     1
102
RTVSPropertyOp31
 70
     1
102
RTVSPropertyOp32
 70
     1
102
RTVSPropertyOp33
 70
     1
102
RTVSPropertyOp34
 70
     1
102
RTVSPropertyOp35
 70
     1
102
RTVSPropertyOp36
 70
     1
102
RTVSPropertyOp37
 70
     1
102
RTVSPropertyOp38
 70
     1
102
RTVSPropertyOp39
 70
     1
102
RTVSPropertyOp40
 70
     1
102
RTVSPropertyOp41
 70
     1
102
RTVSPropertyOp42
 70
     1
102
RTVSPropertyOp43
 70
     1
102
RTVSPropertyOp44
 70
     1
102
RTVSPropertyOp45
 70
     1
102
RTVSPropertyOp46
 70
     1
102
RTVSPropertyOp47
 70
     1
102
RTVSPropertyOp48
 70
     1
102
RTVSPropertyOp49
 70
     1
102
RTVSPropertyOp50
 70
     1
102
RTVSPropertyOp51
 70
     0
102
RTVSPropertyOp52
 70
     0
102
RTVSPropertyOp53
 70
     1
102
RTVSPropertyOp54
 70
     1
102
RTVSPropertyOp55
 70
     1
102
RTVSPropertyOp56
 70
     1
102
RTVSPropertyOp57
 70
     1
102
RTVSPropertyOp58
 70
     1
102
RTVSPropertyOp59
 70
     1
102
RTVSPropertyOp60
 70
     1
102
RTVSPropertyOp61
 70
     1
102
RTVSPropertyOp62
 70
     1
  0
XRECORD
  5
29910
102
{ACAD_REACTORS
330
2990F
102
}
330
2990F
100
AcDbXrecord
280
     1
102
RTVSPost2010Prop28
280
     0
102
RTVSPost2010PropOp28
 70
     1
102
RTVSPost2010Prop29
280
     1
102
RTVSPost2010PropOp29
 70
     1
102
RTVSPost2010Prop30
280
     1
102
RTVSPost2010PropOp30
 70
     1
102
RTVSPost2010Prop31
280
     0
102
RTVSPost2010PropOp31
 70
     1
102
RTVSPost2010Prop32
280
     0
102
RTVSPost2010PropOp32
 70
     1
102
RTVSPost2010Prop33
280
     0
102
RTVSPost2010PropOp33
 70
     1
102
RTVSPost2010Prop34
280
     0
102
RTVSPost2010PropOp34
 70
     1
102
RTVSPost2010Prop35
280
     0
102
RTVSPost2010PropOp35
 70
     1
102
RTVSPost2010Prop36
280
     0
102
RTVSPost2010PropOp36
 70
     1
102
RTVSPost2010Prop37
 90
       50
102
RTVSPost2010PropOp37
 70
     1
102
RTVSPost2010Prop38
140
0.0
102
RTVSPost2010PropOp38
 70
     1
102
RTVSPost2010Prop39
140
1.0
102
RTVSPost2010PropOp39
 70
     1
102
RTVSPost2010Prop40
 90
        0
102
RTVSPost2010PropOp40
 70
     1
102
RTVSPost2010Prop41ColorIndex
 90
       18
102
RTVSPost2010Prop41ColorRGB
 90
        0
102
RTVSPost2010PropOp41
 70
     1
102
RTVSPost2010Prop42
 90
       50
102
RTVSPost2010PropOp42
 70
     1
102
RTVSPost2010Prop43
 90
        3
102
RTVSPost2010PropOp43
 70
     1
102
RTVSPost2010Prop44ColorIndex
 90
        5
102
RTVSPost2010Prop44ColorRGB
 90
      255
102
RTVSPost2010PropOp44
 70
     1
102
RTVSPost2010Prop45
280
     0
102
RTVSPost2010PropOp45
 70
     1
102
RTVSPost2010Prop46
 90
       50
102
RTVSPost2010PropOp46
 70
     1
102
RTVSPost2010Prop47
 90
       50
102
RTVSPost2010PropOp47
 70
     1
102
RTVSPost2010Prop48
 90
       50
102
RTVSPost2010PropOp48
 70
     1
102
RTVSPost2010Prop49
280
     0
102
RTVSPost2010PropOp49
 70
     1
102
RTVSPost2010Prop50
 90
       50
102
RTVSPost2010PropOp50
 70
     1
102
RTVSPost2010Prop51ColorIndex
 90
      256
102
RTVSPost2010Prop51ColorRGB
 90
-16777216
102
RTVSPost2010PropOp51
 70
     0
102
RTVSPost2010Prop52
140
1.0
102
RTVSPost2010PropOp52
 70
     0
102
RTVSPost2010Prop53
 90
        2
102
RTVSPost2010PropOp53
 70
     1
102
RTVSPost2010Prop54
  1
strokes_ogs.tif
102
RTVSPost2010PropOp54
 70
     1
102
RTVSPost2010Prop55
280
     0
102
RTVSPost2010PropOp55
 70
     1
102
RTVSPost2010Prop56
140
1.0
102
RTVSPost2010PropOp56
 70
     1
102
RTVSPost2010Prop57
140
1.0
102
RTVSPost2010PropOp57
 70
     1
102
RTVSPropertyOp0
 70
     1
102
RTVSPropertyOp1
 70
     1
102
RTVSPropertyOp2
 70
     1
102
RTVSPropertyOp3
 70
     1
102
RTVSPropertyOp4
 70
     1
102
RTVSPropertyOp5
 70
     1
102
RTVSPropertyOp6
 70
     1
102
RTVSPropertyOp7
 70
     1
102
RTVSPropertyOp8
 70
     1
102
RTVSPropertyOp9
 70
     1
102
RTVSPropertyOp10
 70
     1
102
RTVSPropertyOp11
 70
     1
102
RTVSPropertyOp12
 70
     1
102
RTVSPropertyOp13
 70
     1
102
RTVSPropertyOp14
 70
     1
102
RTVSPropertyOp15
 70
     1
102
RTVSPropertyOp16
 70
     1
102
RTVSPropertyOp17
 70
     1
102
RTVSPropertyOp18
 70
     1
102
RTVSPropertyOp19
 70
     1
102
RTVSPropertyOp20
 70
     1
102
RTVSPropertyOp21
 70
     1
102
RTVSPropertyOp22
 70
     1
102
RTVSPropertyOp23
 70
     1
102
RTVSPropertyOp24
 70
     1
102
RTVSPropertyOp25
 70
     1
102
RTVSPropertyOp26
 70
     1
102
RTVSPropertyOp27
 70
     1
102
RTVSPropertyOp28
 70
     1
102
RTVSPropertyOp29
 70
     1
102
RTVSPropertyOp30
 70
     1
102
RTVSPropertyOp31
 70
     1
102
RTVSPropertyOp32
 70
     1
102
RTVSPropertyOp33
 70
     1
102
RTVSPropertyOp34
 70
     1
102
RTVSPropertyOp35
 70
     1
102
RTVSPropertyOp36
 70
     1
102
RTVSPropertyOp37
 70
     1
102
RTVSPropertyOp38
 70
     1
102
RTVSPropertyOp39
 70
     1
102
RTVSPropertyOp40
 70
     1
102
RTVSPropertyOp41
 70
     1
102
RTVSPropertyOp42
 70
     1
102
RTVSPropertyOp43
 70
     1
102
RTVSPropertyOp44
 70
     1
102
RTVSPropertyOp45
 70
     1
102
RTVSPropertyOp46
 70
     1
102
RTVSPropertyOp47
 70
     1
102
RTVSPropertyOp48
 70
     1
102
RTVSPropertyOp49
 70
     1
102
RTVSPropertyOp50
 70
     1
102
RTVSPropertyOp51
 70
     0
102
RTVSPropertyOp52
 70
     0
102
RTVSPropertyOp53
 70
     1
102
RTVSPropertyOp54
 70
     1
102
RTVSPropertyOp55
 70
     1
102
RTVSPropertyOp56
 70
     1
102
RTVSPropertyOp57
 70
     1
102
RTVSPropertyOp58
 70
     1
102
RTVSPropertyOp59
 70
     1
102
RTVSPropertyOp60
 70
     1
102
RTVSPropertyOp61
 70
     1
102
RTVSPropertyOp62
 70
     1
  0
XRECORD
  5
2991E
102
{ACAD_REACTORS
330
2991D
102
}
330
2991D
100
AcDbXrecord
280
     1
102
RTVSPost2010Prop28
280
     0
102
RTVSPost2010PropOp28
 70
     1
102
RTVSPost2010Prop29
280
     1
102
RTVSPost2010PropOp29
 70
     1
102
RTVSPost2010Prop30
280
     1
102
RTVSPost2010PropOp30
 70
     1
102
RTVSPost2010Prop31
280
     0
102
RTVSPost2010PropOp31
 70
     1
102
RTVSPost2010Prop32
280
     0
102
RTVSPost2010PropOp32
 70
     1
102
RTVSPost2010Prop33
280
     0
102
RTVSPost2010PropOp33
 70
     1
102
RTVSPost2010Prop34
280
     0
102
RTVSPost2010PropOp34
 70
     1
102
RTVSPost2010Prop35
280
     0
102
RTVSPost2010PropOp35
 70
     1
102
RTVSPost2010Prop36
280
     0
102
RTVSPost2010PropOp36
 70
     1
102
RTVSPost2010Prop37
 90
       50
102
RTVSPost2010PropOp37
 70
     1
102
RTVSPost2010Prop38
140
0.0
102
RTVSPost2010PropOp38
 70
     1
102
RTVSPost2010Prop39
140
1.0
102
RTVSPost2010PropOp39
 70
     1
102
RTVSPost2010Prop40
 90
        0
102
RTVSPost2010PropOp40
 70
     1
102
RTVSPost2010Prop41ColorIndex
 90
       18
102
RTVSPost2010Prop41ColorRGB
 90
        0
102
RTVSPost2010PropOp41
 70
     1
102
RTVSPost2010Prop42
 90
       50
102
RTVSPost2010PropOp42
 70
     1
102
RTVSPost2010Prop43
 90
        3
102
RTVSPost2010PropOp43
 70
     1
102
RTVSPost2010Prop44ColorIndex
 90
        5
102
RTVSPost2010Prop44ColorRGB
 90
      255
102
RTVSPost2010PropOp44
 70
     1
102
RTVSPost2010Prop45
280
     0
102
RTVSPost2010PropOp45
 70
     1
102
RTVSPost2010Prop46
 90
       50
102
RTVSPost2010PropOp46
 70
     1
102
RTVSPost2010Prop47
 90
       50
102
RTVSPost2010PropOp47
 70
     1
102
RTVSPost2010Prop48
 90
       50
102
RTVSPost2010PropOp48
 70
     1
102
RTVSPost2010Prop49
280
     0
102
RTVSPost2010PropOp49
 70
     1
102
RTVSPost2010Prop50
 90
       50
102
RTVSPost2010PropOp50
 70
     1
102
RTVSPost2010Prop51ColorIndex
 90
      256
102
RTVSPost2010Prop51ColorRGB
 90
-16777216
102
RTVSPost2010PropOp51
 70
     0
102
RTVSPost2010Prop52
140
1.0
102
RTVSPost2010PropOp52
 70
     0
102
RTVSPost2010Prop53
 90
        2
102
RTVSPost2010PropOp53
 70
     1
102
RTVSPost2010Prop54
  1
strokes_ogs.tif
102
RTVSPost2010PropOp54
 70
     1
102
RTVSPost2010Prop55
280
     0
102
RTVSPost2010PropOp55
 70
     1
102
RTVSPost2010Prop56
140
1.0
102
RTVSPost2010PropOp56
 70
     1
102
RTVSPost2010Prop57
140
1.0
102
RTVSPost2010PropOp57
 70
     1
102
RTVSPropertyOp0
 70
     1
102
RTVSPropertyOp1
 70
     1
102
RTVSPropertyOp2
 70
     1
102
RTVSPropertyOp3
 70
     1
102
RTVSPropertyOp4
 70
     1
102
RTVSPropertyOp5
 70
     1
102
RTVSPropertyOp6
 70
     1
102
RTVSPropertyOp7
 70
     1
102
RTVSPropertyOp8
 70
     1
102
RTVSPropertyOp9
 70
     1
102
RTVSPropertyOp10
 70
     1
102
RTVSPropertyOp11
 70
     1
102
RTVSPropertyOp12
 70
     1
102
RTVSPropertyOp13
 70
     1
102
RTVSPropertyOp14
 70
     1
102
RTVSPropertyOp15
 70
     1
102
RTVSPropertyOp16
 70
     1
102
RTVSPropertyOp17
 70
     1
102
RTVSPropertyOp18
 70
     1
102
RTVSPropertyOp19
 70
     1
102
RTVSPropertyOp20
 70
     1
102
RTVSPropertyOp21
 70
     1
102
RTVSPropertyOp22
 70
     1
102
RTVSPropertyOp23
 70
     1
102
RTVSPropertyOp24
 70
     1
102
RTVSPropertyOp25
 70
     1
102
RTVSPropertyOp26
 70
     1
102
RTVSPropertyOp27
 70
     1
102
RTVSPropertyOp28
 70
     1
102
RTVSPropertyOp29
 70
     1
102
RTVSPropertyOp30
 70
     1
102
RTVSPropertyOp31
 70
     1
102
RTVSPropertyOp32
 70
     1
102
RTVSPropertyOp33
 70
     1
102
RTVSPropertyOp34
 70
     1
102
RTVSPropertyOp35
 70
     1
102
RTVSPropertyOp36
 70
     1
102
RTVSPropertyOp37
 70
     1
102
RTVSPropertyOp38
 70
     1
102
RTVSPropertyOp39
 70
     1
102
RTVSPropertyOp40
 70
     1
102
RTVSPropertyOp41
 70
     1
102
RTVSPropertyOp42
 70
     1
102
RTVSPropertyOp43
 70
     1
102
RTVSPropertyOp44
 70
     1
102
RTVSPropertyOp45
 70
     1
102
RTVSPropertyOp46
 70
     1
102
RTVSPropertyOp47
 70
     1
102
RTVSPropertyOp48
 70
     1
102
RTVSPropertyOp49
 70
     1
102
RTVSPropertyOp50
 70
     1
102
RTVSPropertyOp51
 70
     0
102
RTVSPropertyOp52
 70
     0
102
RTVSPropertyOp53
 70
     1
102
RTVSPropertyOp54
 70
     1
102
RTVSPropertyOp55
 70
     1
102
RTVSPropertyOp56
 70
     1
102
RTVSPropertyOp57
 70
     1
102
RTVSPropertyOp58
 70
     1
102
RTVSPropertyOp59
 70
     1
102
RTVSPropertyOp60
 70
     1
102
RTVSPropertyOp61
 70
     1
102
RTVSPropertyOp62
 70
     1
  0
XRECORD
  5
29926
102
{ACAD_REACTORS
330
29925
102
}
330
29925
100
AcDbXrecord
280
     1
102
RTVSPost2010Prop28
280
     0
102
RTVSPost2010PropOp28
 70
     1
102
RTVSPost2010Prop29
280
     1
102
RTVSPost2010PropOp29
 70
     1
102
RTVSPost2010Prop30
280
     1
102
RTVSPost2010PropOp30
 70
     1
102
RTVSPost2010Prop31
280
     0
102
RTVSPost2010PropOp31
 70
     1
102
RTVSPost2010Prop32
280
     0
102
RTVSPost2010PropOp32
 70
     1
102
RTVSPost2010Prop33
280
     0
102
RTVSPost2010PropOp33
 70
     1
102
RTVSPost2010Prop34
280
     0
102
RTVSPost2010PropOp34
 70
     1
102
RTVSPost2010Prop35
280
     0
102
RTVSPost2010PropOp35
 70
     1
102
RTVSPost2010Prop36
280
     0
102
RTVSPost2010PropOp36
 70
     1
102
RTVSPost2010Prop37
 90
       50
102
RTVSPost2010PropOp37
 70
     1
102
RTVSPost2010Prop38
140
0.0
102
RTVSPost2010PropOp38
 70
     1
102
RTVSPost2010Prop39
140
1.0
102
RTVSPost2010PropOp39
 70
     1
102
RTVSPost2010Prop40
 90
        0
102
RTVSPost2010PropOp40
 70
     1
102
RTVSPost2010Prop41ColorIndex
 90
       18
102
RTVSPost2010Prop41ColorRGB
 90
        0
102
RTVSPost2010PropOp41
 70
     1
102
RTVSPost2010Prop42
 90
       50
102
RTVSPost2010PropOp42
 70
     1
102
RTVSPost2010Prop43
 90
        3
102
RTVSPost2010PropOp43
 70
     1
102
RTVSPost2010Prop44ColorIndex
 90
        5
102
RTVSPost2010Prop44ColorRGB
 90
      255
102
RTVSPost2010PropOp44
 70
     1
102
RTVSPost2010Prop45
280
     0
102
RTVSPost2010PropOp45
 70
     1
102
RTVSPost2010Prop46
 90
       50
102
RTVSPost2010PropOp46
 70
     1
102
RTVSPost2010Prop47
 90
       50
102
RTVSPost2010PropOp47
 70
     1
102
RTVSPost2010Prop48
 90
       50
102
RTVSPost2010PropOp48
 70
     1
102
RTVSPost2010Prop49
280
     0
102
RTVSPost2010PropOp49
 70
     1
102
RTVSPost2010Prop50
 90
       50
102
RTVSPost2010PropOp50
 70
     1
102
RTVSPost2010Prop51ColorIndex
 90
      256
102
RTVSPost2010Prop51ColorRGB
 90
-16777216
102
RTVSPost2010PropOp51
 70
     0
102
RTVSPost2010Prop52
140
1.0
102
RTVSPost2010PropOp52
 70
     0
102
RTVSPost2010Prop53
 90
        2
102
RTVSPost2010PropOp53
 70
     1
102
RTVSPost2010Prop54
  1
strokes_ogs.tif
102
RTVSPost2010PropOp54
 70
     1
102
RTVSPost2010Prop55
280
     0
102
RTVSPost2010PropOp55
 70
     1
102
RTVSPost2010Prop56
140
1.0
102
RTVSPost2010PropOp56
 70
     1
102
RTVSPost2010Prop57
140
1.0
102
RTVSPost2010PropOp57
 70
     1
102
RTVSPropertyOp0
 70
     1
102
RTVSPropertyOp1
 70
     1
102
RTVSPropertyOp2
 70
     1
102
RTVSPropertyOp3
 70
     1
102
RTVSPropertyOp4
 70
     1
102
RTVSPropertyOp5
 70
     1
102
RTVSPropertyOp6
 70
     1
102
RTVSPropertyOp7
 70
     1
102
RTVSPropertyOp8
 70
     1
102
RTVSPropertyOp9
 70
     1
102
RTVSPropertyOp10
 70
     1
102
RTVSPropertyOp11
 70
     1
102
RTVSPropertyOp12
 70
     1
102
RTVSPropertyOp13
 70
     1
102
RTVSPropertyOp14
 70
     1
102
RTVSPropertyOp15
 70
     1
102
RTVSPropertyOp16
 70
     1
102
RTVSPropertyOp17
 70
     1
102
RTVSPropertyOp18
 70
     1
102
RTVSPropertyOp19
 70
     1
102
RTVSPropertyOp20
 70
     1
102
RTVSPropertyOp21
 70
     1
102
RTVSPropertyOp22
 70
     1
102
RTVSPropertyOp23
 70
     1
102
RTVSPropertyOp24
 70
     1
102
RTVSPropertyOp25
 70
     1
102
RTVSPropertyOp26
 70
     1
102
RTVSPropertyOp27
 70
     1
102
RTVSPropertyOp28
 70
     1
102
RTVSPropertyOp29
 70
     1
102
RTVSPropertyOp30
 70
     1
102
RTVSPropertyOp31
 70
     1
102
RTVSPropertyOp32
 70
     1
102
RTVSPropertyOp33
 70
     1
102
RTVSPropertyOp34
 70
     1
102
RTVSPropertyOp35
 70
     1
102
RTVSPropertyOp36
 70
     1
102
RTVSPropertyOp37
 70
     1
102
RTVSPropertyOp38
 70
     1
102
RTVSPropertyOp39
 70
     1
102
RTVSPropertyOp40
 70
     1
102
RTVSPropertyOp41
 70
     1
102
RTVSPropertyOp42
 70
     1
102
RTVSPropertyOp43
 70
     1
102
RTVSPropertyOp44
 70
     1
102
RTVSPropertyOp45
 70
     1
102
RTVSPropertyOp46
 70
     1
102
RTVSPropertyOp47
 70
     1
102
RTVSPropertyOp48
 70
     1
102
RTVSPropertyOp49
 70
     1
102
RTVSPropertyOp50
 70
     1
102
RTVSPropertyOp51
 70
     0
102
RTVSPropertyOp52
 70
     0
102
RTVSPropertyOp53
 70
     1
102
RTVSPropertyOp54
 70
     1
102
RTVSPropertyOp55
 70
     1
102
RTVSPropertyOp56
 70
     1
102
RTVSPropertyOp57
 70
     1
102
RTVSPropertyOp58
 70
     1
102
RTVSPropertyOp59
 70
     1
102
RTVSPropertyOp60
 70
     1
102
RTVSPropertyOp61
 70
     1
102
RTVSPropertyOp62
 70
     1
  0
XRECORD
  5
29918
102
{ACAD_REACTORS
330
29917
102
}
330
29917
100
AcDbXrecord
280
     1
102
RTVSPost2010Prop28
280
     0
102
RTVSPost2010PropOp28
 70
     1
102
RTVSPost2010Prop29
280
     1
102
RTVSPost2010PropOp29
 70
     1
102
RTVSPost2010Prop30
280
     1
102
RTVSPost2010PropOp30
 70
     1
102
RTVSPost2010Prop31
280
     0
102
RTVSPost2010PropOp31
 70
     1
102
RTVSPost2010Prop32
280
     0
102
RTVSPost2010PropOp32
 70
     1
102
RTVSPost2010Prop33
280
     0
102
RTVSPost2010PropOp33
 70
     1
102
RTVSPost2010Prop34
280
     0
102
RTVSPost2010PropOp34
 70
     1
102
RTVSPost2010Prop35
280
     0
102
RTVSPost2010PropOp35
 70
     1
102
RTVSPost2010Prop36
280
     0
102
RTVSPost2010PropOp36
 70
     1
102
RTVSPost2010Prop37
 90
       50
102
RTVSPost2010PropOp37
 70
     1
102
RTVSPost2010Prop38
140
0.0
102
RTVSPost2010PropOp38
 70
     1
102
RTVSPost2010Prop39
140
1.0
102
RTVSPost2010PropOp39
 70
     1
102
RTVSPost2010Prop40
 90
        0
102
RTVSPost2010PropOp40
 70
     1
102
RTVSPost2010Prop41ColorIndex
 90
       18
102
RTVSPost2010Prop41ColorRGB
 90
        0
102
RTVSPost2010PropOp41
 70
     1
102
RTVSPost2010Prop42
 90
       50
102
RTVSPost2010PropOp42
 70
     1
102
RTVSPost2010Prop43
 90
        3
102
RTVSPost2010PropOp43
 70
     1
102
RTVSPost2010Prop44ColorIndex
 90
        5
102
RTVSPost2010Prop44ColorRGB
 90
      255
102
RTVSPost2010PropOp44
 70
     1
102
RTVSPost2010Prop45
280
     0
102
RTVSPost2010PropOp45
 70
     1
102
RTVSPost2010Prop46
 90
       50
102
RTVSPost2010PropOp46
 70
     1
102
RTVSPost2010Prop47
 90
       50
102
RTVSPost2010PropOp47
 70
     1
102
RTVSPost2010Prop48
 90
       50
102
RTVSPost2010PropOp48
 70
     1
102
RTVSPost2010Prop49
280
     0
102
RTVSPost2010PropOp49
 70
     1
102
RTVSPost2010Prop50
 90
       50
102
RTVSPost2010PropOp50
 70
     1
102
RTVSPost2010Prop51ColorIndex
 90
      256
102
RTVSPost2010Prop51ColorRGB
 90
-16777216
102
RTVSPost2010PropOp51
 70
     0
102
RTVSPost2010Prop52
140
1.0
102
RTVSPost2010PropOp52
 70
     0
102
RTVSPost2010Prop53
 90
        2
102
RTVSPost2010PropOp53
 70
     1
102
RTVSPost2010Prop54
  1
strokes_ogs.tif
102
RTVSPost2010PropOp54
 70
     1
102
RTVSPost2010Prop55
280
     0
102
RTVSPost2010PropOp55
 70
     1
102
RTVSPost2010Prop56
140
1.0
102
RTVSPost2010PropOp56
 70
     1
102
RTVSPost2010Prop57
140
1.0
102
RTVSPost2010PropOp57
 70
     1
102
RTVSPropertyOp0
 70
     1
102
RTVSPropertyOp1
 70
     1
102
RTVSPropertyOp2
 70
     1
102
RTVSPropertyOp3
 70
     1
102
RTVSPropertyOp4
 70
     1
102
RTVSPropertyOp5
 70
     1
102
RTVSPropertyOp6
 70
     1
102
RTVSPropertyOp7
 70
     1
102
RTVSPropertyOp8
 70
     1
102
RTVSPropertyOp9
 70
     1
102
RTVSPropertyOp10
 70
     1
102
RTVSPropertyOp11
 70
     1
102
RTVSPropertyOp12
 70
     1
102
RTVSPropertyOp13
 70
     1
102
RTVSPropertyOp14
 70
     1
102
RTVSPropertyOp15
 70
     1
102
RTVSPropertyOp16
 70
     1
102
RTVSPropertyOp17
 70
     1
102
RTVSPropertyOp18
 70
     1
102
RTVSPropertyOp19
 70
     1
102
RTVSPropertyOp20
 70
     1
102
RTVSPropertyOp21
 70
     1
102
RTVSPropertyOp22
 70
     1
102
RTVSPropertyOp23
 70
     1
102
RTVSPropertyOp24
 70
     1
102
RTVSPropertyOp25
 70
     1
102
RTVSPropertyOp26
 70
     1
102
RTVSPropertyOp27
 70
     1
102
RTVSPropertyOp28
 70
     1
102
RTVSPropertyOp29
 70
     1
102
RTVSPropertyOp30
 70
     1
102
RTVSPropertyOp31
 70
     1
102
RTVSPropertyOp32
 70
     1
102
RTVSPropertyOp33
 70
     1
102
RTVSPropertyOp34
 70
     1
102
RTVSPropertyOp35
 70
     1
102
RTVSPropertyOp36
 70
     1
102
RTVSPropertyOp37
 70
     1
102
RTVSPropertyOp38
 70
     1
102
RTVSPropertyOp39
 70
     1
102
RTVSPropertyOp40
 70
     1
102
RTVSPropertyOp41
 70
     1
102
RTVSPropertyOp42
 70
     1
102
RTVSPropertyOp43
 70
     1
102
RTVSPropertyOp44
 70
     1
102
RTVSPropertyOp45
 70
     1
102
RTVSPropertyOp46
 70
     1
102
RTVSPropertyOp47
 70
     1
102
RTVSPropertyOp48
 70
     1
102
RTVSPropertyOp49
 70
     1
102
RTVSPropertyOp50
 70
     1
102
RTVSPropertyOp51
 70
     0
102
RTVSPropertyOp52
 70
     0
102
RTVSPropertyOp53
 70
     1
102
RTVSPropertyOp54
 70
     1
102
RTVSPropertyOp55
 70
     1
102
RTVSPropertyOp56
 70
     1
102
RTVSPropertyOp57
 70
     1
102
RTVSPropertyOp58
 70
     1
102
RTVSPropertyOp59
 70
     1
102
RTVSPropertyOp60
 70
     1
102
RTVSPropertyOp61
 70
     1
102
RTVSPropertyOp62
 70
     1
  0
XRECORD
  5
2991C
102
{ACAD_REACTORS
330
2991B
102
}
330
2991B
100
AcDbXrecord
280
     1
102
RTVSPost2010Prop28
280
     0
102
RTVSPost2010PropOp28
 70
     1
102
RTVSPost2010Prop29
280
     1
102
RTVSPost2010PropOp29
 70
     1
102
RTVSPost2010Prop30
280
     1
102
RTVSPost2010PropOp30
 70
     1
102
RTVSPost2010Prop31
280
     0
102
RTVSPost2010PropOp31
 70
     1
102
RTVSPost2010Prop32
280
     0
102
RTVSPost2010PropOp32
 70
     1
102
RTVSPost2010Prop33
280
     0
102
RTVSPost2010PropOp33
 70
     1
102
RTVSPost2010Prop34
280
     0
102
RTVSPost2010PropOp34
 70
     1
102
RTVSPost2010Prop35
280
     0
102
RTVSPost2010PropOp35
 70
     1
102
RTVSPost2010Prop36
280
     0
102
RTVSPost2010PropOp36
 70
     1
102
RTVSPost2010Prop37
 90
       50
102
RTVSPost2010PropOp37
 70
     1
102
RTVSPost2010Prop38
140
0.0
102
RTVSPost2010PropOp38
 70
     1
102
RTVSPost2010Prop39
140
1.0
102
RTVSPost2010PropOp39
 70
     1
102
RTVSPost2010Prop40
 90
        0
102
RTVSPost2010PropOp40
 70
     1
102
RTVSPost2010Prop41ColorIndex
 90
       18
102
RTVSPost2010Prop41ColorRGB
 90
        0
102
RTVSPost2010PropOp41
 70
     1
102
RTVSPost2010Prop42
 90
       50
102
RTVSPost2010PropOp42
 70
     1
102
RTVSPost2010Prop43
 90
        3
102
RTVSPost2010PropOp43
 70
     1
102
RTVSPost2010Prop44ColorIndex
 90
        5
102
RTVSPost2010Prop44ColorRGB
 90
      255
102
RTVSPost2010PropOp44
 70
     1
102
RTVSPost2010Prop45
280
     0
102
RTVSPost2010PropOp45
 70
     1
102
RTVSPost2010Prop46
 90
       50
102
RTVSPost2010PropOp46
 70
     1
102
RTVSPost2010Prop47
 90
       50
102
RTVSPost2010PropOp47
 70
     1
102
RTVSPost2010Prop48
 90
       50
102
RTVSPost2010PropOp48
 70
     1
102
RTVSPost2010Prop49
280
     0
102
RTVSPost2010PropOp49
 70
     1
102
RTVSPost2010Prop50
 90
       50
102
RTVSPost2010PropOp50
 70
     1
102
RTVSPost2010Prop51ColorIndex
 90
      256
102
RTVSPost2010Prop51ColorRGB
 90
-16777216
102
RTVSPost2010PropOp51
 70
     0
102
RTVSPost2010Prop52
140
1.0
102
RTVSPost2010PropOp52
 70
     0
102
RTVSPost2010Prop53
 90
        2
102
RTVSPost2010PropOp53
 70
     1
102
RTVSPost2010Prop54
  1
strokes_ogs.tif
102
RTVSPost2010PropOp54
 70
     1
102
RTVSPost2010Prop55
280
     0
102
RTVSPost2010PropOp55
 70
     1
102
RTVSPost2010Prop56
140
1.0
102
RTVSPost2010PropOp56
 70
     1
102
RTVSPost2010Prop57
140
1.0
102
RTVSPost2010PropOp57
 70
     1
102
RTVSPropertyOp0
 70
     1
102
RTVSPropertyOp1
 70
     1
102
RTVSPropertyOp2
 70
     1
102
RTVSPropertyOp3
 70
     1
102
RTVSPropertyOp4
 70
     1
102
RTVSPropertyOp5
 70
     1
102
RTVSPropertyOp6
 70
     1
102
RTVSPropertyOp7
 70
     1
102
RTVSPropertyOp8
 70
     1
102
RTVSPropertyOp9
 70
     1
102
RTVSPropertyOp10
 70
     1
102
RTVSPropertyOp11
 70
     1
102
RTVSPropertyOp12
 70
     1
102
RTVSPropertyOp13
 70
     1
102
RTVSPropertyOp14
 70
     1
102
RTVSPropertyOp15
 70
     1
102
RTVSPropertyOp16
 70
     1
102
RTVSPropertyOp17
 70
     1
102
RTVSPropertyOp18
 70
     1
102
RTVSPropertyOp19
 70
     1
102
RTVSPropertyOp20
 70
     1
102
RTVSPropertyOp21
 70
     1
102
RTVSPropertyOp22
 70
     1
102
RTVSPropertyOp23
 70
     1
102
RTVSPropertyOp24
 70
     1
102
RTVSPropertyOp25
 70
     1
102
RTVSPropertyOp26
 70
     1
102
RTVSPropertyOp27
 70
     1
102
RTVSPropertyOp28
 70
     1
102
RTVSPropertyOp29
 70
     1
102
RTVSPropertyOp30
 70
     1
102
RTVSPropertyOp31
 70
     1
102
RTVSPropertyOp32
 70
     1
102
RTVSPropertyOp33
 70
     1
102
RTVSPropertyOp34
 70
     1
102
RTVSPropertyOp35
 70
     1
102
RTVSPropertyOp36
 70
     1
102
RTVSPropertyOp37
 70
     1
102
RTVSPropertyOp38
 70
     1
102
RTVSPropertyOp39
 70
     1
102
RTVSPropertyOp40
 70
     1
102
RTVSPropertyOp41
 70
     1
102
RTVSPropertyOp42
 70
     1
102
RTVSPropertyOp43
 70
     1
102
RTVSPropertyOp44
 70
     1
102
RTVSPropertyOp45
 70
     1
102
RTVSPropertyOp46
 70
     1
102
RTVSPropertyOp47
 70
     1
102
RTVSPropertyOp48
 70
     1
102
RTVSPropertyOp49
 70
     1
102
RTVSPropertyOp50
 70
     1
102
RTVSPropertyOp51
 70
     0
102
RTVSPropertyOp52
 70
     0
102
RTVSPropertyOp53
 70
     1
102
RTVSPropertyOp54
 70
     1
102
RTVSPropertyOp55
 70
     1
102
RTVSPropertyOp56
 70
     1
102
RTVSPropertyOp57
 70
     1
102
RTVSPropertyOp58
 70
     1
102
RTVSPropertyOp59
 70
     1
102
RTVSPropertyOp60
 70
     1
102
RTVSPropertyOp61
 70
     1
102
RTVSPropertyOp62
 70
     1
  0
XRECORD
  5
29936
102
{ACAD_REACTORS
330
29935
102
}
330
29935
100
AcDbXrecord
280
     1
102
RTVSPost2010Prop28
280
     0
102
RTVSPost2010PropOp28
 70
     1
102
RTVSPost2010Prop29
280
     1
102
RTVSPost2010PropOp29
 70
     1
102
RTVSPost2010Prop30
280
     1
102
RTVSPost2010PropOp30
 70
     1
102
RTVSPost2010Prop31
280
     0
102
RTVSPost2010PropOp31
 70
     1
102
RTVSPost2010Prop32
280
     0
102
RTVSPost2010PropOp32
 70
     1
102
RTVSPost2010Prop33
280
     0
102
RTVSPost2010PropOp33
 70
     1
102
RTVSPost2010Prop34
280
     0
102
RTVSPost2010PropOp34
 70
     1
102
RTVSPost2010Prop35
280
     0
102
RTVSPost2010PropOp35
 70
     1
102
RTVSPost2010Prop36
280
     0
102
RTVSPost2010PropOp36
 70
     1
102
RTVSPost2010Prop37
 90
       50
102
RTVSPost2010PropOp37
 70
     0
102
RTVSPost2010Prop38
140
0.0
102
RTVSPost2010PropOp38
 70
     0
102
RTVSPost2010Prop39
140
1.0
102
RTVSPost2010PropOp39
 70
     0
102
RTVSPost2010Prop40
 90
        0
102
RTVSPost2010PropOp40
 70
     0
102
RTVSPost2010Prop41ColorIndex
 90
       18
102
RTVSPost2010Prop41ColorRGB
 90
        0
102
RTVSPost2010PropOp41
 70
     0
102
RTVSPost2010Prop42
 90
       50
102
RTVSPost2010PropOp42
 70
     0
102
RTVSPost2010Prop43
 90
        3
102
RTVSPost2010PropOp43
 70
     0
102
RTVSPost2010Prop44ColorIndex
 90
        5
102
RTVSPost2010Prop44ColorRGB
 90
      255
102
RTVSPost2010PropOp44
 70
     0
102
RTVSPost2010Prop45
280
     0
102
RTVSPost2010PropOp45
 70
     1
102
RTVSPost2010Prop46
 90
       50
102
RTVSPost2010PropOp46
 70
     0
102
RTVSPost2010Prop47
 90
       50
102
RTVSPost2010PropOp47
 70
     0
102
RTVSPost2010Prop48
 90
       50
102
RTVSPost2010PropOp48
 70
     0
102
RTVSPost2010Prop49
280
     0
102
RTVSPost2010PropOp49
 70
     1
102
RTVSPost2010Prop50
 90
       50
102
RTVSPost2010PropOp50
 70
     0
102
RTVSPost2010Prop51ColorIndex
 90
      256
102
RTVSPost2010Prop51ColorRGB
 90
-16777216
102
RTVSPost2010PropOp51
 70
     0
102
RTVSPost2010Prop52
140
1.0
102
RTVSPost2010PropOp52
 70
     0
102
RTVSPost2010Prop53
 90
        2
102
RTVSPost2010PropOp53
 70
     0
102
RTVSPost2010Prop54
  1
strokes_ogs.tif
102
RTVSPost2010PropOp54
 70
     0
102
RTVSPost2010Prop55
280
     0
102
RTVSPost2010PropOp55
 70
     1
102
RTVSPost2010Prop56
140
1.0
102
RTVSPost2010PropOp56
 70
     0
102
RTVSPost2010Prop57
140
1.0
102
RTVSPost2010PropOp57
 70
     0
102
RTVSPropertyOp0
 70
     0
102
RTVSPropertyOp1
 70
     0
102
RTVSPropertyOp2
 70
     0
102
RTVSPropertyOp3
 70
     0
102
RTVSPropertyOp4
 70
     0
102
RTVSPropertyOp5
 70
     0
102
RTVSPropertyOp6
 70
     0
102
RTVSPropertyOp7
 70
     0
102
RTVSPropertyOp8
 70
     0
102
RTVSPropertyOp9
 70
     0
102
RTVSPropertyOp10
 70
     0
102
RTVSPropertyOp11
 70
     0
102
RTVSPropertyOp12
 70
     0
102
RTVSPropertyOp13
 70
     0
102
RTVSPropertyOp14
 70
     2
102
RTVSPropertyOp15
 70
     0
102
RTVSPropertyOp16
 70
     0
102
RTVSPropertyOp17
 70
     0
102
RTVSPropertyOp18
 70
     0
102
RTVSPropertyOp19
 70
     0
102
RTVSPropertyOp20
 70
     0
102
RTVSPropertyOp21
 70
     0
102
RTVSPropertyOp22
 70
     0
102
RTVSPropertyOp23
 70
     0
102
RTVSPropertyOp24
 70
     0
102
RTVSPropertyOp25
 70
     0
102
RTVSPropertyOp26
 70
     0
102
RTVSPropertyOp27
 70
     0
102
RTVSPropertyOp28
 70
     1
102
RTVSPropertyOp29
 70
     1
102
RTVSPropertyOp30
 70
     1
102
RTVSPropertyOp31
 70
     1
102
RTVSPropertyOp32
 70
     1
102
RTVSPropertyOp33
 70
     1
102
RTVSPropertyOp34
 70
     1
102
RTVSPropertyOp35
 70
     1
102
RTVSPropertyOp36
 70
     1
102
RTVSPropertyOp37
 70
     0
102
RTVSPropertyOp38
 70
     0
102
RTVSPropertyOp39
 70
     0
102
RTVSPropertyOp40
 70
     0
102
RTVSPropertyOp41
 70
     0
102
RTVSPropertyOp42
 70
     0
102
RTVSPropertyOp43
 70
     0
102
RTVSPropertyOp44
 70
     0
102
RTVSPropertyOp45
 70
     1
102
RTVSPropertyOp46
 70
     0
102
RTVSPropertyOp47
 70
     0
102
RTVSPropertyOp48
 70
     0
102
RTVSPropertyOp49
 70
     1
102
RTVSPropertyOp50
 70
     0
102
RTVSPropertyOp51
 70
     0
102
RTVSPropertyOp52
 70
     0
102
RTVSPropertyOp53
 70
     0
102
RTVSPropertyOp54
 70
     0
102
RTVSPropertyOp55
 70
     1
102
RTVSPropertyOp56
 70
     0
102
RTVSPropertyOp57
 70
     0
102
RTVSPropertyOp58
 70
     0
102
RTVSPropertyOp59
 70
     0
102
RTVSPropertyOp60
 70
     0
102
RTVSPropertyOp61
 70
     0
102
RTVSPropertyOp62
 70
     0
  0
XRECORD
  5
29924
102
{ACAD_REACTORS
330
29923
102
}
330
29923
100
AcDbXrecord
280
     1
102
RTVSPost2010Prop28
280
     0
102
RTVSPost2010PropOp28
 70
     1
102
RTVSPost2010Prop29
280
     1
102
RTVSPost2010PropOp29
 70
     1
102
RTVSPost2010Prop30
280
     1
102
RTVSPost2010PropOp30
 70
     1
102
RTVSPost2010Prop31
280
     0
102
RTVSPost2010PropOp31
 70
     1
102
RTVSPost2010Prop32
280
     0
102
RTVSPost2010PropOp32
 70
     1
102
RTVSPost2010Prop33
280
     0
102
RTVSPost2010PropOp33
 70
     1
102
RTVSPost2010Prop34
280
     0
102
RTVSPost2010PropOp34
 70
     1
102
RTVSPost2010Prop35
280
     0
102
RTVSPost2010PropOp35
 70
     1
102
RTVSPost2010Prop36
280
     0
102
RTVSPost2010PropOp36
 70
     1
102
RTVSPost2010Prop37
 90
       50
102
RTVSPost2010PropOp37
 70
     1
102
RTVSPost2010Prop38
140
0.0
102
RTVSPost2010PropOp38
 70
     1
102
RTVSPost2010Prop39
140
1.0
102
RTVSPost2010PropOp39
 70
     1
102
RTVSPost2010Prop40
 90
        0
102
RTVSPost2010PropOp40
 70
     1
102
RTVSPost2010Prop41ColorIndex
 90
       18
102
RTVSPost2010Prop41ColorRGB
 90
        0
102
RTVSPost2010PropOp41
 70
     1
102
RTVSPost2010Prop42
 90
       50
102
RTVSPost2010PropOp42
 70
     1
102
RTVSPost2010Prop43
 90
        3
102
RTVSPost2010PropOp43
 70
     1
102
RTVSPost2010Prop44ColorIndex
 90
        5
102
RTVSPost2010Prop44ColorRGB
 90
      255
102
RTVSPost2010PropOp44
 70
     1
102
RTVSPost2010Prop45
280
     0
102
RTVSPost2010PropOp45
 70
     1
102
RTVSPost2010Prop46
 90
       50
102
RTVSPost2010PropOp46
 70
     1
102
RTVSPost2010Prop47
 90
       50
102
RTVSPost2010PropOp47
 70
     1
102
RTVSPost2010Prop48
 90
       50
102
RTVSPost2010PropOp48
 70
     1
102
RTVSPost2010Prop49
280
     0
102
RTVSPost2010PropOp49
 70
     1
102
RTVSPost2010Prop50
 90
       50
102
RTVSPost2010PropOp50
 70
     1
102
RTVSPost2010Prop51ColorIndex
 90
      256
102
RTVSPost2010Prop51ColorRGB
 90
-16777216
102
RTVSPost2010PropOp51
 70
     0
102
RTVSPost2010Prop52
140
1.0
102
RTVSPost2010PropOp52
 70
     0
102
RTVSPost2010Prop53
 90
        2
102
RTVSPost2010PropOp53
 70
     1
102
RTVSPost2010Prop54
  1
strokes_ogs.tif
102
RTVSPost2010PropOp54
 70
     1
102
RTVSPost2010Prop55
280
     0
102
RTVSPost2010PropOp55
 70
     1
102
RTVSPost2010Prop56
140
1.0
102
RTVSPost2010PropOp56
 70
     1
102
RTVSPost2010Prop57
140
1.0
102
RTVSPost2010PropOp57
 70
     1
102
RTVSPropertyOp0
 70
     1
102
RTVSPropertyOp1
 70
     1
102
RTVSPropertyOp2
 70
     1
102
RTVSPropertyOp3
 70
     1
102
RTVSPropertyOp4
 70
     1
102
RTVSPropertyOp5
 70
     1
102
RTVSPropertyOp6
 70
     1
102
RTVSPropertyOp7
 70
     1
102
RTVSPropertyOp8
 70
     1
102
RTVSPropertyOp9
 70
     1
102
RTVSPropertyOp10
 70
     1
102
RTVSPropertyOp11
 70
     1
102
RTVSPropertyOp12
 70
     1
102
RTVSPropertyOp13
 70
     1
102
RTVSPropertyOp14
 70
     1
102
RTVSPropertyOp15
 70
     1
102
RTVSPropertyOp16
 70
     1
102
RTVSPropertyOp17
 70
     1
102
RTVSPropertyOp18
 70
     1
102
RTVSPropertyOp19
 70
     1
102
RTVSPropertyOp20
 70
     1
102
RTVSPropertyOp21
 70
     1
102
RTVSPropertyOp22
 70
     1
102
RTVSPropertyOp23
 70
     1
102
RTVSPropertyOp24
 70
     1
102
RTVSPropertyOp25
 70
     1
102
RTVSPropertyOp26
 70
     1
102
RTVSPropertyOp27
 70
     1
102
RTVSPropertyOp28
 70
     1
102
RTVSPropertyOp29
 70
     1
102
RTVSPropertyOp30
 70
     1
102
RTVSPropertyOp31
 70
     1
102
RTVSPropertyOp32
 70
     1
102
RTVSPropertyOp33
 70
     1
102
RTVSPropertyOp34
 70
     1
102
RTVSPropertyOp35
 70
     1
102
RTVSPropertyOp36
 70
     1
102
RTVSPropertyOp37
 70
     1
102
RTVSPropertyOp38
 70
     1
102
RTVSPropertyOp39
 70
     1
102
RTVSPropertyOp40
 70
     1
102
RTVSPropertyOp41
 70
     1
102
RTVSPropertyOp42
 70
     1
102
RTVSPropertyOp43
 70
     1
102
RTVSPropertyOp44
 70
     1
102
RTVSPropertyOp45
 70
     1
102
RTVSPropertyOp46
 70
     1
102
RTVSPropertyOp47
 70
     1
102
RTVSPropertyOp48
 70
     1
102
RTVSPropertyOp49
 70
     1
102
RTVSPropertyOp50
 70
     1
102
RTVSPropertyOp51
 70
     0
102
RTVSPropertyOp52
 70
     0
102
RTVSPropertyOp53
 70
     1
102
RTVSPropertyOp54
 70
     1
102
RTVSPropertyOp55
 70
     1
102
RTVSPropertyOp56
 70
     1
102
RTVSPropertyOp57
 70
     1
102
RTVSPropertyOp58
 70
     1
102
RTVSPropertyOp59
 70
     1
102
RTVSPropertyOp60
 70
     1
102
RTVSPropertyOp61
 70
     1
102
RTVSPropertyOp62
 70
     1
  0
XRECORD
  5
29908
102
{ACAD_REACTORS
330
29907
102
}
330
29907
100
AcDbXrecord
280
     1
102
RTVSPost2010Prop28
280
     0
102
RTVSPost2010PropOp28
 70
     1
102
RTVSPost2010Prop29
280
     1
102
RTVSPost2010PropOp29
 70
     1
102
RTVSPost2010Prop30
280
     1
102
RTVSPost2010PropOp30
 70
     1
102
RTVSPost2010Prop31
280
     0
102
RTVSPost2010PropOp31
 70
     1
102
RTVSPost2010Prop32
280
     0
102
RTVSPost2010PropOp32
 70
     1
102
RTVSPost2010Prop33
280
     0
102
RTVSPost2010PropOp33
 70
     1
102
RTVSPost2010Prop34
280
     0
102
RTVSPost2010PropOp34
 70
     1
102
RTVSPost2010Prop35
280
     0
102
RTVSPost2010PropOp35
 70
     1
102
RTVSPost2010Prop36
280
     0
102
RTVSPost2010PropOp36
 70
     1
102
RTVSPost2010Prop37
 90
       50
102
RTVSPost2010PropOp37
 70
     1
102
RTVSPost2010Prop38
140
0.0
102
RTVSPost2010PropOp38
 70
     1
102
RTVSPost2010Prop39
140
1.0
102
RTVSPost2010PropOp39
 70
     1
102
RTVSPost2010Prop40
 90
        0
102
RTVSPost2010PropOp40
 70
     1
102
RTVSPost2010Prop41ColorIndex
 90
       18
102
RTVSPost2010Prop41ColorRGB
 90
        0
102
RTVSPost2010PropOp41
 70
     1
102
RTVSPost2010Prop42
 90
       50
102
RTVSPost2010PropOp42
 70
     1
102
RTVSPost2010Prop43
 90
        3
102
RTVSPost2010PropOp43
 70
     1
102
RTVSPost2010Prop44ColorIndex
 90
        5
102
RTVSPost2010Prop44ColorRGB
 90
      255
102
RTVSPost2010PropOp44
 70
     1
102
RTVSPost2010Prop45
280
     0
102
RTVSPost2010PropOp45
 70
     1
102
RTVSPost2010Prop46
 90
       50
102
RTVSPost2010PropOp46
 70
     1
102
RTVSPost2010Prop47
 90
       50
102
RTVSPost2010PropOp47
 70
     1
102
RTVSPost2010Prop48
 90
       50
102
RTVSPost2010PropOp48
 70
     1
102
RTVSPost2010Prop49
280
     0
102
RTVSPost2010PropOp49
 70
     1
102
RTVSPost2010Prop50
 90
       50
102
RTVSPost2010PropOp50
 70
     1
102
RTVSPost2010Prop51ColorIndex
 90
      256
102
RTVSPost2010Prop51ColorRGB
 90
-16777216
102
RTVSPost2010PropOp51
 70
     0
102
RTVSPost2010Prop52
140
1.0
102
RTVSPost2010PropOp52
 70
     0
102
RTVSPost2010Prop53
 90
        2
102
RTVSPost2010PropOp53
 70
     1
102
RTVSPost2010Prop54
  1
strokes_ogs.tif
102
RTVSPost2010PropOp54
 70
     1
102
RTVSPost2010Prop55
280
     0
102
RTVSPost2010PropOp55
 70
     1
102
RTVSPost2010Prop56
140
1.0
102
RTVSPost2010PropOp56
 70
     1
102
RTVSPost2010Prop57
140
1.0
102
RTVSPost2010PropOp57
 70
     1
102
RTVSPropertyOp0
 70
     1
102
RTVSPropertyOp1
 70
     1
102
RTVSPropertyOp2
 70
     1
102
RTVSPropertyOp3
 70
     1
102
RTVSPropertyOp4
 70
     1
102
RTVSPropertyOp5
 70
     1
102
RTVSPropertyOp6
 70
     1
102
RTVSPropertyOp7
 70
     1
102
RTVSPropertyOp8
 70
     1
102
RTVSPropertyOp9
 70
     1
102
RTVSPropertyOp10
 70
     1
102
RTVSPropertyOp11
 70
     1
102
RTVSPropertyOp12
 70
     1
102
RTVSPropertyOp13
 70
     1
102
RTVSPropertyOp14
 70
     1
102
RTVSPropertyOp15
 70
     1
102
RTVSPropertyOp16
 70
     1
102
RTVSPropertyOp17
 70
     1
102
RTVSPropertyOp18
 70
     1
102
RTVSPropertyOp19
 70
     1
102
RTVSPropertyOp20
 70
     1
102
RTVSPropertyOp21
 70
     1
102
RTVSPropertyOp22
 70
     1
102
RTVSPropertyOp23
 70
     1
102
RTVSPropertyOp24
 70
     1
102
RTVSPropertyOp25
 70
     1
102
RTVSPropertyOp26
 70
     1
102
RTVSPropertyOp27
 70
     1
102
RTVSPropertyOp28
 70
     1
102
RTVSPropertyOp29
 70
     1
102
RTVSPropertyOp30
 70
     1
102
RTVSPropertyOp31
 70
     1
102
RTVSPropertyOp32
 70
     1
102
RTVSPropertyOp33
 70
     1
102
RTVSPropertyOp34
 70
     1
102
RTVSPropertyOp35
 70
     1
102
RTVSPropertyOp36
 70
     1
102
RTVSPropertyOp37
 70
     1
102
RTVSPropertyOp38
 70
     1
102
RTVSPropertyOp39
 70
     1
102
RTVSPropertyOp40
 70
     1
102
RTVSPropertyOp41
 70
     1
102
RTVSPropertyOp42
 70
     1
102
RTVSPropertyOp43
 70
     1
102
RTVSPropertyOp44
 70
     1
102
RTVSPropertyOp45
 70
     1
102
RTVSPropertyOp46
 70
     1
102
RTVSPropertyOp47
 70
     1
102
RTVSPropertyOp48
 70
     1
102
RTVSPropertyOp49
 70
     1
102
RTVSPropertyOp50
 70
     1
102
RTVSPropertyOp51
 70
     0
102
RTVSPropertyOp52
 70
     0
102
RTVSPropertyOp53
 70
     1
102
RTVSPropertyOp54
 70
     1
102
RTVSPropertyOp55
 70
     1
102
RTVSPropertyOp56
 70
     1
102
RTVSPropertyOp57
 70
     1
102
RTVSPropertyOp58
 70
     1
102
RTVSPropertyOp59
 70
     1
102
RTVSPropertyOp60
 70
     1
102
RTVSPropertyOp61
 70
     1
102
RTVSPropertyOp62
 70
     1
  0
XRECORD
  5
2990A
102
{ACAD_REACTORS
330
29909
102
}
330
29909
100
AcDbXrecord
280
     1
102
RTVSPost2010Prop28
280
     0
102
RTVSPost2010PropOp28
 70
     1
102
RTVSPost2010Prop29
280
     1
102
RTVSPost2010PropOp29
 70
     1
102
RTVSPost2010Prop30
280
     1
102
RTVSPost2010PropOp30
 70
     1
102
RTVSPost2010Prop31
280
     0
102
RTVSPost2010PropOp31
 70
     1
102
RTVSPost2010Prop32
280
     0
102
RTVSPost2010PropOp32
 70
     1
102
RTVSPost2010Prop33
280
     0
102
RTVSPost2010PropOp33
 70
     1
102
RTVSPost2010Prop34
280
     0
102
RTVSPost2010PropOp34
 70
     1
102
RTVSPost2010Prop35
280
     0
102
RTVSPost2010PropOp35
 70
     1
102
RTVSPost2010Prop36
280
     0
102
RTVSPost2010PropOp36
 70
     1
102
RTVSPost2010Prop37
 90
       50
102
RTVSPost2010PropOp37
 70
     1
102
RTVSPost2010Prop38
140
0.0
102
RTVSPost2010PropOp38
 70
     1
102
RTVSPost2010Prop39
140
1.0
102
RTVSPost2010PropOp39
 70
     1
102
RTVSPost2010Prop40
 90
        0
102
RTVSPost2010PropOp40
 70
     1
102
RTVSPost2010Prop41ColorIndex
 90
       18
102
RTVSPost2010Prop41ColorRGB
 90
        0
102
RTVSPost2010PropOp41
 70
     1
102
RTVSPost2010Prop42
 90
       50
102
RTVSPost2010PropOp42
 70
     1
102
RTVSPost2010Prop43
 90
        3
102
RTVSPost2010PropOp43
 70
     1
102
RTVSPost2010Prop44ColorIndex
 90
        5
102
RTVSPost2010Prop44ColorRGB
 90
      255
102
RTVSPost2010PropOp44
 70
     1
102
RTVSPost2010Prop45
280
     0
102
RTVSPost2010PropOp45
 70
     1
102
RTVSPost2010Prop46
 90
       50
102
RTVSPost2010PropOp46
 70
     1
102
RTVSPost2010Prop47
 90
       50
102
RTVSPost2010PropOp47
 70
     1
102
RTVSPost2010Prop48
 90
       50
102
RTVSPost2010PropOp48
 70
     1
102
RTVSPost2010Prop49
280
     0
102
RTVSPost2010PropOp49
 70
     1
102
RTVSPost2010Prop50
 90
       50
102
RTVSPost2010PropOp50
 70
     1
102
RTVSPost2010Prop51ColorIndex
 90
      256
102
RTVSPost2010Prop51ColorRGB
 90
-16777216
102
RTVSPost2010PropOp51
 70
     0
102
RTVSPost2010Prop52
140
1.0
102
RTVSPost2010PropOp52
 70
     0
102
RTVSPost2010Prop53
 90
        2
102
RTVSPost2010PropOp53
 70
     1
102
RTVSPost2010Prop54
  1
strokes_ogs.tif
102
RTVSPost2010PropOp54
 70
     1
102
RTVSPost2010Prop55
280
     0
102
RTVSPost2010PropOp55
 70
     1
102
RTVSPost2010Prop56
140
1.0
102
RTVSPost2010PropOp56
 70
     1
102
RTVSPost2010Prop57
140
1.0
102
RTVSPost2010PropOp57
 70
     1
102
RTVSPropertyOp0
 70
     1
102
RTVSPropertyOp1
 70
     1
102
RTVSPropertyOp2
 70
     1
102
RTVSPropertyOp3
 70
     1
102
RTVSPropertyOp4
 70
     1
102
RTVSPropertyOp5
 70
     1
102
RTVSPropertyOp6
 70
     1
102
RTVSPropertyOp7
 70
     1
102
RTVSPropertyOp8
 70
     1
102
RTVSPropertyOp9
 70
     1
102
RTVSPropertyOp10
 70
     1
102
RTVSPropertyOp11
 70
     1
102
RTVSPropertyOp12
 70
     1
102
RTVSPropertyOp13
 70
     1
102
RTVSPropertyOp14
 70
     1
102
RTVSPropertyOp15
 70
     1
102
RTVSPropertyOp16
 70
     1
102
RTVSPropertyOp17
 70
     1
102
RTVSPropertyOp18
 70
     1
102
RTVSPropertyOp19
 70
     1
102
RTVSPropertyOp20
 70
     1
102
RTVSPropertyOp21
 70
     1
102
RTVSPropertyOp22
 70
     1
102
RTVSPropertyOp23
 70
     1
102
RTVSPropertyOp24
 70
     1
102
RTVSPropertyOp25
 70
     1
102
RTVSPropertyOp26
 70
     1
102
RTVSPropertyOp27
 70
     1
102
RTVSPropertyOp28
 70
     1
102
RTVSPropertyOp29
 70
     1
102
RTVSPropertyOp30
 70
     1
102
RTVSPropertyOp31
 70
     1
102
RTVSPropertyOp32
 70
     1
102
RTVSPropertyOp33
 70
     1
102
RTVSPropertyOp34
 70
     1
102
RTVSPropertyOp35
 70
     1
102
RTVSPropertyOp36
 70
     1
102
RTVSPropertyOp37
 70
     1
102
RTVSPropertyOp38
 70
     1
102
RTVSPropertyOp39
 70
     1
102
RTVSPropertyOp40
 70
     1
102
RTVSPropertyOp41
 70
     1
102
RTVSPropertyOp42
 70
     1
102
RTVSPropertyOp43
 70
     1
102
RTVSPropertyOp44
 70
     1
102
RTVSPropertyOp45
 70
     1
102
RTVSPropertyOp46
 70
     1
102
RTVSPropertyOp47
 70
     1
102
RTVSPropertyOp48
 70
     1
102
RTVSPropertyOp49
 70
     1
102
RTVSPropertyOp50
 70
     1
102
RTVSPropertyOp51
 70
     0
102
RTVSPropertyOp52
 70
     0
102
RTVSPropertyOp53
 70
     1
102
RTVSPropertyOp54
 70
     1
102
RTVSPropertyOp55
 70
     1
102
RTVSPropertyOp56
 70
     1
102
RTVSPropertyOp57
 70
     1
102
RTVSPropertyOp58
 70
     1
102
RTVSPropertyOp59
 70
     1
102
RTVSPropertyOp60
 70
     1
102
RTVSPropertyOp61
 70
     1
102
RTVSPropertyOp62
 70
     1
  0
XRECORD
  5
2990C
102
{ACAD_REACTORS
330
2990B
102
}
330
2990B
100
AcDbXrecord
280
     1
102
RTVSPost2010Prop28
280
     0
102
RTVSPost2010PropOp28
 70
     1
102
RTVSPost2010Prop29
280
     1
102
RTVSPost2010PropOp29
 70
     1
102
RTVSPost2010Prop30
280
     1
102
RTVSPost2010PropOp30
 70
     1
102
RTVSPost2010Prop31
280
     0
102
RTVSPost2010PropOp31
 70
     1
102
RTVSPost2010Prop32
280
     0
102
RTVSPost2010PropOp32
 70
     1
102
RTVSPost2010Prop33
280
     0
102
RTVSPost2010PropOp33
 70
     1
102
RTVSPost2010Prop34
280
     0
102
RTVSPost2010PropOp34
 70
     1
102
RTVSPost2010Prop35
280
     0
102
RTVSPost2010PropOp35
 70
     1
102
RTVSPost2010Prop36
280
     0
102
RTVSPost2010PropOp36
 70
     1
102
RTVSPost2010Prop37
 90
       50
102
RTVSPost2010PropOp37
 70
     1
102
RTVSPost2010Prop38
140
0.0
102
RTVSPost2010PropOp38
 70
     1
102
RTVSPost2010Prop39
140
1.0
102
RTVSPost2010PropOp39
 70
     1
102
RTVSPost2010Prop40
 90
        0
102
RTVSPost2010PropOp40
 70
     1
102
RTVSPost2010Prop41ColorIndex
 90
       18
102
RTVSPost2010Prop41ColorRGB
 90
        0
102
RTVSPost2010PropOp41
 70
     1
102
RTVSPost2010Prop42
 90
       50
102
RTVSPost2010PropOp42
 70
     1
102
RTVSPost2010Prop43
 90
        3
102
RTVSPost2010PropOp43
 70
     1
102
RTVSPost2010Prop44ColorIndex
 90
        5
102
RTVSPost2010Prop44ColorRGB
 90
      255
102
RTVSPost2010PropOp44
 70
     1
102
RTVSPost2010Prop45
280
     0
102
RTVSPost2010PropOp45
 70
     1
102
RTVSPost2010Prop46
 90
       50
102
RTVSPost2010PropOp46
 70
     1
102
RTVSPost2010Prop47
 90
       50
102
RTVSPost2010PropOp47
 70
     1
102
RTVSPost2010Prop48
 90
       50
102
RTVSPost2010PropOp48
 70
     1
102
RTVSPost2010Prop49
280
     0
102
RTVSPost2010PropOp49
 70
     1
102
RTVSPost2010Prop50
 90
       50
102
RTVSPost2010PropOp50
 70
     1
102
RTVSPost2010Prop51ColorIndex
 90
      256
102
RTVSPost2010Prop51ColorRGB
 90
-16777216
102
RTVSPost2010PropOp51
 70
     0
102
RTVSPost2010Prop52
140
1.0
102
RTVSPost2010PropOp52
 70
     0
102
RTVSPost2010Prop53
 90
        2
102
RTVSPost2010PropOp53
 70
     1
102
RTVSPost2010Prop54
  1
strokes_ogs.tif
102
RTVSPost2010PropOp54
 70
     1
102
RTVSPost2010Prop55
280
     0
102
RTVSPost2010PropOp55
 70
     1
102
RTVSPost2010Prop56
140
1.0
102
RTVSPost2010PropOp56
 70
     1
102
RTVSPost2010Prop57
140
1.0
102
RTVSPost2010PropOp57
 70
     1
102
RTVSPropertyOp0
 70
     1
102
RTVSPropertyOp1
 70
     1
102
RTVSPropertyOp2
 70
     1
102
RTVSPropertyOp3
 70
     1
102
RTVSPropertyOp4
 70
     1
102
RTVSPropertyOp5
 70
     1
102
RTVSPropertyOp6
 70
     1
102
RTVSPropertyOp7
 70
     1
102
RTVSPropertyOp8
 70
     1
102
RTVSPropertyOp9
 70
     1
102
RTVSPropertyOp10
 70
     1
102
RTVSPropertyOp11
 70
     1
102
RTVSPropertyOp12
 70
     1
102
RTVSPropertyOp13
 70
     1
102
RTVSPropertyOp14
 70
     1
102
RTVSPropertyOp15
 70
     1
102
RTVSPropertyOp16
 70
     1
102
RTVSPropertyOp17
 70
     1
102
RTVSPropertyOp18
 70
     1
102
RTVSPropertyOp19
 70
     1
102
RTVSPropertyOp20
 70
     1
102
RTVSPropertyOp21
 70
     1
102
RTVSPropertyOp22
 70
     1
102
RTVSPropertyOp23
 70
     1
102
RTVSPropertyOp24
 70
     1
102
RTVSPropertyOp25
 70
     1
102
RTVSPropertyOp26
 70
     1
102
RTVSPropertyOp27
 70
     1
102
RTVSPropertyOp28
 70
     1
102
RTVSPropertyOp29
 70
     1
102
RTVSPropertyOp30
 70
     1
102
RTVSPropertyOp31
 70
     1
102
RTVSPropertyOp32
 70
     1
102
RTVSPropertyOp33
 70
     1
102
RTVSPropertyOp34
 70
     1
102
RTVSPropertyOp35
 70
     1
102
RTVSPropertyOp36
 70
     1
102
RTVSPropertyOp37
 70
     1
102
RTVSPropertyOp38
 70
     1
102
RTVSPropertyOp39
 70
     1
102
RTVSPropertyOp40
 70
     1
102
RTVSPropertyOp41
 70
     1
102
RTVSPropertyOp42
 70
     1
102
RTVSPropertyOp43
 70
     1
102
RTVSPropertyOp44
 70
     1
102
RTVSPropertyOp45
 70
     1
102
RTVSPropertyOp46
 70
     1
102
RTVSPropertyOp47
 70
     1
102
RTVSPropertyOp48
 70
     1
102
RTVSPropertyOp49
 70
     1
102
RTVSPropertyOp50
 70
     1
102
RTVSPropertyOp51
 70
     0
102
RTVSPropertyOp52
 70
     0
102
RTVSPropertyOp53
 70
     1
102
RTVSPropertyOp54
 70
     1
102
RTVSPropertyOp55
 70
     1
102
RTVSPropertyOp56
 70
     1
102
RTVSPropertyOp57
 70
     1
102
RTVSPropertyOp58
 70
     1
102
RTVSPropertyOp59
 70
     1
102
RTVSPropertyOp60
 70
     1
102
RTVSPropertyOp61
 70
     1
102
RTVSPropertyOp62
 70
     1
  0
XRECORD
  5
2990E
102
{ACAD_REACTORS
330
2990D
102
}
330
2990D
100
AcDbXrecord
280
     1
102
RTVSPost2010Prop28
280
     0
102
RTVSPost2010PropOp28
 70
     1
102
RTVSPost2010Prop29
280
     1
102
RTVSPost2010PropOp29
 70
     1
102
RTVSPost2010Prop30
280
     1
102
RTVSPost2010PropOp30
 70
     1
102
RTVSPost2010Prop31
280
     0
102
RTVSPost2010PropOp31
 70
     1
102
RTVSPost2010Prop32
280
     0
102
RTVSPost2010PropOp32
 70
     1
102
RTVSPost2010Prop33
280
     0
102
RTVSPost2010PropOp33
 70
     1
102
RTVSPost2010Prop34
280
     0
102
RTVSPost2010PropOp34
 70
     1
102
RTVSPost2010Prop35
280
     0
102
RTVSPost2010PropOp35
 70
     1
102
RTVSPost2010Prop36
280
     0
102
RTVSPost2010PropOp36
 70
     1
102
RTVSPost2010Prop37
 90
       50
102
RTVSPost2010PropOp37
 70
     1
102
RTVSPost2010Prop38
140
0.0
102
RTVSPost2010PropOp38
 70
     1
102
RTVSPost2010Prop39
140
1.0
102
RTVSPost2010PropOp39
 70
     1
102
RTVSPost2010Prop40
 90
        0
102
RTVSPost2010PropOp40
 70
     1
102
RTVSPost2010Prop41ColorIndex
 90
       18
102
RTVSPost2010Prop41ColorRGB
 90
        0
102
RTVSPost2010PropOp41
 70
     1
102
RTVSPost2010Prop42
 90
       50
102
RTVSPost2010PropOp42
 70
     1
102
RTVSPost2010Prop43
 90
        3
102
RTVSPost2010PropOp43
 70
     1
102
RTVSPost2010Prop44ColorIndex
 90
        5
102
RTVSPost2010Prop44ColorRGB
 90
      255
102
RTVSPost2010PropOp44
 70
     1
102
RTVSPost2010Prop45
280
     0
102
RTVSPost2010PropOp45
 70
     1
102
RTVSPost2010Prop46
 90
       50
102
RTVSPost2010PropOp46
 70
     1
102
RTVSPost2010Prop47
 90
       50
102
RTVSPost2010PropOp47
 70
     1
102
RTVSPost2010Prop48
 90
       50
102
RTVSPost2010PropOp48
 70
     1
102
RTVSPost2010Prop49
280
     0
102
RTVSPost2010PropOp49
 70
     1
102
RTVSPost2010Prop50
 90
       50
102
RTVSPost2010PropOp50
 70
     1
102
RTVSPost2010Prop51ColorIndex
 90
      256
102
RTVSPost2010Prop51ColorRGB
 90
-16777216
102
RTVSPost2010PropOp51
 70
     0
102
RTVSPost2010Prop52
140
1.0
102
RTVSPost2010PropOp52
 70
     0
102
RTVSPost2010Prop53
 90
        2
102
RTVSPost2010PropOp53
 70
     1
102
RTVSPost2010Prop54
  1
strokes_ogs.tif
102
RTVSPost2010PropOp54
 70
     1
102
RTVSPost2010Prop55
280
     0
102
RTVSPost2010PropOp55
 70
     1
102
RTVSPost2010Prop56
140
1.0
102
RTVSPost2010PropOp56
 70
     1
102
RTVSPost2010Prop57
140
1.0
102
RTVSPost2010PropOp57
 70
     1
102
RTVSPropertyOp0
 70
     1
102
RTVSPropertyOp1
 70
     1
102
RTVSPropertyOp2
 70
     1
102
RTVSPropertyOp3
 70
     1
102
RTVSPropertyOp4
 70
     1
102
RTVSPropertyOp5
 70
     1
102
RTVSPropertyOp6
 70
     1
102
RTVSPropertyOp7
 70
     1
102
RTVSPropertyOp8
 70
     1
102
RTVSPropertyOp9
 70
     1
102
RTVSPropertyOp10
 70
     1
102
RTVSPropertyOp11
 70
     1
102
RTVSPropertyOp12
 70
     1
102
RTVSPropertyOp13
 70
     1
102
RTVSPropertyOp14
 70
     1
102
RTVSPropertyOp15
 70
     1
102
RTVSPropertyOp16
 70
     1
102
RTVSPropertyOp17
 70
     1
102
RTVSPropertyOp18
 70
     1
102
RTVSPropertyOp19
 70
     1
102
RTVSPropertyOp20
 70
     1
102
RTVSPropertyOp21
 70
     1
102
RTVSPropertyOp22
 70
     1
102
RTVSPropertyOp23
 70
     1
102
RTVSPropertyOp24
 70
     1
102
RTVSPropertyOp25
 70
     1
102
RTVSPropertyOp26
 70
     1
102
RTVSPropertyOp27
 70
     1
102
RTVSPropertyOp28
 70
     1
102
RTVSPropertyOp29
 70
     1
102
RTVSPropertyOp30
 70
     1
102
RTVSPropertyOp31
 70
     1
102
RTVSPropertyOp32
 70
     1
102
RTVSPropertyOp33
 70
     1
102
RTVSPropertyOp34
 70
     1
102
RTVSPropertyOp35
 70
     1
102
RTVSPropertyOp36
 70
     1
102
RTVSPropertyOp37
 70
     1
102
RTVSPropertyOp38
 70
     1
102
RTVSPropertyOp39
 70
     1
102
RTVSPropertyOp40
 70
     1
102
RTVSPropertyOp41
 70
     1
102
RTVSPropertyOp42
 70
     1
102
RTVSPropertyOp43
 70
     1
102
RTVSPropertyOp44
 70
     1
102
RTVSPropertyOp45
 70
     1
102
RTVSPropertyOp46
 70
     1
102
RTVSPropertyOp47
 70
     1
102
RTVSPropertyOp48
 70
     1
102
RTVSPropertyOp49
 70
     1
102
RTVSPropertyOp50
 70
     1
102
RTVSPropertyOp51
 70
     0
102
RTVSPropertyOp52
 70
     0
102
RTVSPropertyOp53
 70
     1
102
RTVSPropertyOp54
 70
     1
102
RTVSPropertyOp55
 70
     1
102
RTVSPropertyOp56
 70
     1
102
RTVSPropertyOp57
 70
     1
102
RTVSPropertyOp58
 70
     1
102
RTVSPropertyOp59
 70
     1
102
RTVSPropertyOp60
 70
     1
102
RTVSPropertyOp61
 70
     1
102
RTVSPropertyOp62
 70
     1
  0
XRECORD
  5
29916
102
{ACAD_REACTORS
330
29915
102
}
330
29915
100
AcDbXrecord
280
     1
102
RTVSPost2010Prop28
280
     0
102
RTVSPost2010PropOp28
 70
     1
102
RTVSPost2010Prop29
280
     1
102
RTVSPost2010PropOp29
 70
     1
102
RTVSPost2010Prop30
280
     1
102
RTVSPost2010PropOp30
 70
     1
102
RTVSPost2010Prop31
280
     0
102
RTVSPost2010PropOp31
 70
     1
102
RTVSPost2010Prop32
280
     0
102
RTVSPost2010PropOp32
 70
     1
102
RTVSPost2010Prop33
280
     0
102
RTVSPost2010PropOp33
 70
     1
102
RTVSPost2010Prop34
280
     0
102
RTVSPost2010PropOp34
 70
     1
102
RTVSPost2010Prop35
280
     0
102
RTVSPost2010PropOp35
 70
     1
102
RTVSPost2010Prop36
280
     0
102
RTVSPost2010PropOp36
 70
     1
102
RTVSPost2010Prop37
 90
       50
102
RTVSPost2010PropOp37
 70
     1
102
RTVSPost2010Prop38
140
0.0
102
RTVSPost2010PropOp38
 70
     1
102
RTVSPost2010Prop39
140
1.0
102
RTVSPost2010PropOp39
 70
     1
102
RTVSPost2010Prop40
 90
        0
102
RTVSPost2010PropOp40
 70
     1
102
RTVSPost2010Prop41ColorIndex
 90
       18
102
RTVSPost2010Prop41ColorRGB
 90
        0
102
RTVSPost2010PropOp41
 70
     1
102
RTVSPost2010Prop42
 90
       50
102
RTVSPost2010PropOp42
 70
     1
102
RTVSPost2010Prop43
 90
        3
102
RTVSPost2010PropOp43
 70
     1
102
RTVSPost2010Prop44ColorIndex
 90
        5
102
RTVSPost2010Prop44ColorRGB
 90
      255
102
RTVSPost2010PropOp44
 70
     1
102
RTVSPost2010Prop45
280
     0
102
RTVSPost2010PropOp45
 70
     1
102
RTVSPost2010Prop46
 90
       50
102
RTVSPost2010PropOp46
 70
     1
102
RTVSPost2010Prop47
 90
       50
102
RTVSPost2010PropOp47
 70
     1
102
RTVSPost2010Prop48
 90
       50
102
RTVSPost2010PropOp48
 70
     1
102
RTVSPost2010Prop49
280
     0
102
RTVSPost2010PropOp49
 70
     1
102
RTVSPost2010Prop50
 90
       50
102
RTVSPost2010PropOp50
 70
     1
102
RTVSPost2010Prop51ColorIndex
 90
      256
102
RTVSPost2010Prop51ColorRGB
 90
-16777216
102
RTVSPost2010PropOp51
 70
     0
102
RTVSPost2010Prop52
140
1.0
102
RTVSPost2010PropOp52
 70
     0
102
RTVSPost2010Prop53
 90
        2
102
RTVSPost2010PropOp53
 70
     1
102
RTVSPost2010Prop54
  1
strokes_ogs.tif
102
RTVSPost2010PropOp54
 70
     1
102
RTVSPost2010Prop55
280
     0
102
RTVSPost2010PropOp55
 70
     1
102
RTVSPost2010Prop56
140
1.0
102
RTVSPost2010PropOp56
 70
     1
102
RTVSPost2010Prop57
140
1.0
102
RTVSPost2010PropOp57
 70
     1
102
RTVSPropertyOp0
 70
     1
102
RTVSPropertyOp1
 70
     1
102
RTVSPropertyOp2
 70
     1
102
RTVSPropertyOp3
 70
     1
102
RTVSPropertyOp4
 70
     1
102
RTVSPropertyOp5
 70
     1
102
RTVSPropertyOp6
 70
     1
102
RTVSPropertyOp7
 70
     1
102
RTVSPropertyOp8
 70
     1
102
RTVSPropertyOp9
 70
     1
102
RTVSPropertyOp10
 70
     1
102
RTVSPropertyOp11
 70
     1
102
RTVSPropertyOp12
 70
     1
102
RTVSPropertyOp13
 70
     1
102
RTVSPropertyOp14
 70
     1
102
RTVSPropertyOp15
 70
     1
102
RTVSPropertyOp16
 70
     1
102
RTVSPropertyOp17
 70
     1
102
RTVSPropertyOp18
 70
     1
102
RTVSPropertyOp19
 70
     1
102
RTVSPropertyOp20
 70
     1
102
RTVSPropertyOp21
 70
     1
102
RTVSPropertyOp22
 70
     1
102
RTVSPropertyOp23
 70
     1
102
RTVSPropertyOp24
 70
     1
102
RTVSPropertyOp25
 70
     1
102
RTVSPropertyOp26
 70
     1
102
RTVSPropertyOp27
 70
     1
102
RTVSPropertyOp28
 70
     1
102
RTVSPropertyOp29
 70
     1
102
RTVSPropertyOp30
 70
     1
102
RTVSPropertyOp31
 70
     1
102
RTVSPropertyOp32
 70
     1
102
RTVSPropertyOp33
 70
     1
102
RTVSPropertyOp34
 70
     1
102
RTVSPropertyOp35
 70
     1
102
RTVSPropertyOp36
 70
     1
102
RTVSPropertyOp37
 70
     1
102
RTVSPropertyOp38
 70
     1
102
RTVSPropertyOp39
 70
     1
102
RTVSPropertyOp40
 70
     1
102
RTVSPropertyOp41
 70
     1
102
RTVSPropertyOp42
 70
     1
102
RTVSPropertyOp43
 70
     1
102
RTVSPropertyOp44
 70
     1
102
RTVSPropertyOp45
 70
     1
102
RTVSPropertyOp46
 70
     1
102
RTVSPropertyOp47
 70
     1
102
RTVSPropertyOp48
 70
     1
102
RTVSPropertyOp49
 70
     1
102
RTVSPropertyOp50
 70
     1
102
RTVSPropertyOp51
 70
     0
102
RTVSPropertyOp52
 70
     0
102
RTVSPropertyOp53
 70
     1
102
RTVSPropertyOp54
 70
     1
102
RTVSPropertyOp55
 70
     1
102
RTVSPropertyOp56
 70
     1
102
RTVSPropertyOp57
 70
     1
102
RTVSPropertyOp58
 70
     1
102
RTVSPropertyOp59
 70
     1
102
RTVSPropertyOp60
 70
     1
102
RTVSPropertyOp61
 70
     1
102
RTVSPropertyOp62
 70
     1
  0
XRECORD
  5
29932
102
{ACAD_REACTORS
330
29931
102
}
330
29931
100
AcDbXrecord
280
     1
102
RTVSPost2010Prop28
280
     0
102
RTVSPost2010PropOp28
 70
     1
102
RTVSPost2010Prop29
280
     1
102
RTVSPost2010PropOp29
 70
     1
102
RTVSPost2010Prop30
280
     1
102
RTVSPost2010PropOp30
 70
     1
102
RTVSPost2010Prop31
280
     0
102
RTVSPost2010PropOp31
 70
     1
102
RTVSPost2010Prop32
280
     0
102
RTVSPost2010PropOp32
 70
     1
102
RTVSPost2010Prop33
280
     0
102
RTVSPost2010PropOp33
 70
     1
102
RTVSPost2010Prop34
280
     0
102
RTVSPost2010PropOp34
 70
     1
102
RTVSPost2010Prop35
280
     0
102
RTVSPost2010PropOp35
 70
     1
102
RTVSPost2010Prop36
280
     0
102
RTVSPost2010PropOp36
 70
     1
102
RTVSPost2010Prop37
 90
       50
102
RTVSPost2010PropOp37
 70
     0
102
RTVSPost2010Prop38
140
0.0
102
RTVSPost2010PropOp38
 70
     0
102
RTVSPost2010Prop39
140
1.0
102
RTVSPost2010PropOp39
 70
     0
102
RTVSPost2010Prop40
 90
        0
102
RTVSPost2010PropOp40
 70
     0
102
RTVSPost2010Prop41ColorIndex
 90
       18
102
RTVSPost2010Prop41ColorRGB
 90
        0
102
RTVSPost2010PropOp41
 70
     0
102
RTVSPost2010Prop42
 90
       50
102
RTVSPost2010PropOp42
 70
     0
102
RTVSPost2010Prop43
 90
        3
102
RTVSPost2010PropOp43
 70
     0
102
RTVSPost2010Prop44ColorIndex
 90
        5
102
RTVSPost2010Prop44ColorRGB
 90
      255
102
RTVSPost2010PropOp44
 70
     0
102
RTVSPost2010Prop45
280
     0
102
RTVSPost2010PropOp45
 70
     1
102
RTVSPost2010Prop46
 90
       50
102
RTVSPost2010PropOp46
 70
     0
102
RTVSPost2010Prop47
 90
       50
102
RTVSPost2010PropOp47
 70
     0
102
RTVSPost2010Prop48
 90
       50
102
RTVSPost2010PropOp48
 70
     0
102
RTVSPost2010Prop49
280
     0
102
RTVSPost2010PropOp49
 70
     1
102
RTVSPost2010Prop50
 90
       50
102
RTVSPost2010PropOp50
 70
     0
102
RTVSPost2010Prop51ColorIndex
 90
      256
102
RTVSPost2010Prop51ColorRGB
 90
-16777216
102
RTVSPost2010PropOp51
 70
     0
102
RTVSPost2010Prop52
140
1.0
102
RTVSPost2010PropOp52
 70
     0
102
RTVSPost2010Prop53
 90
        2
102
RTVSPost2010PropOp53
 70
     0
102
RTVSPost2010Prop54
  1
strokes_ogs.tif
102
RTVSPost2010PropOp54
 70
     0
102
RTVSPost2010Prop55
280
     0
102
RTVSPost2010PropOp55
 70
     1
102
RTVSPost2010Prop56
140
1.0
102
RTVSPost2010PropOp56
 70
     0
102
RTVSPost2010Prop57
140
1.0
102
RTVSPost2010PropOp57
 70
     0
102
RTVSPropertyOp0
 70
     0
102
RTVSPropertyOp1
 70
     0
102
RTVSPropertyOp2
 70
     0
102
RTVSPropertyOp3
 70
     0
102
RTVSPropertyOp4
 70
     0
102
RTVSPropertyOp5
 70
     0
102
RTVSPropertyOp6
 70
     0
102
RTVSPropertyOp7
 70
     0
102
RTVSPropertyOp8
 70
     0
102
RTVSPropertyOp9
 70
     0
102
RTVSPropertyOp10
 70
     0
102
RTVSPropertyOp11
 70
     0
102
RTVSPropertyOp12
 70
     0
102
RTVSPropertyOp13
 70
     0
102
RTVSPropertyOp14
 70
     2
102
RTVSPropertyOp15
 70
     0
102
RTVSPropertyOp16
 70
     0
102
RTVSPropertyOp17
 70
     0
102
RTVSPropertyOp18
 70
     0
102
RTVSPropertyOp19
 70
     0
102
RTVSPropertyOp20
 70
     0
102
RTVSPropertyOp21
 70
     0
102
RTVSPropertyOp22
 70
     0
102
RTVSPropertyOp23
 70
     0
102
RTVSPropertyOp24
 70
     0
102
RTVSPropertyOp25
 70
     0
102
RTVSPropertyOp26
 70
     0
102
RTVSPropertyOp27
 70
     0
102
RTVSPropertyOp28
 70
     1
102
RTVSPropertyOp29
 70
     1
102
RTVSPropertyOp30
 70
     1
102
RTVSPropertyOp31
 70
     1
102
RTVSPropertyOp32
 70
     1
102
RTVSPropertyOp33
 70
     1
102
RTVSPropertyOp34
 70
     1
102
RTVSPropertyOp35
 70
     1
102
RTVSPropertyOp36
 70
     1
102
RTVSPropertyOp37
 70
     0
102
RTVSPropertyOp38
 70
     0
102
RTVSPropertyOp39
 70
     0
102
RTVSPropertyOp40
 70
     0
102
RTVSPropertyOp41
 70
     0
102
RTVSPropertyOp42
 70
     0
102
RTVSPropertyOp43
 70
     0
102
RTVSPropertyOp44
 70
     0
102
RTVSPropertyOp45
 70
     1
102
RTVSPropertyOp46
 70
     0
102
RTVSPropertyOp47
 70
     0
102
RTVSPropertyOp48
 70
     0
102
RTVSPropertyOp49
 70
     1
102
RTVSPropertyOp50
 70
     0
102
RTVSPropertyOp51
 70
     0
102
RTVSPropertyOp52
 70
     0
102
RTVSPropertyOp53
 70
     0
102
RTVSPropertyOp54
 70
     0
102
RTVSPropertyOp55
 70
     1
102
RTVSPropertyOp56
 70
     0
102
RTVSPropertyOp57
 70
     0
102
RTVSPropertyOp58
 70
     0
102
RTVSPropertyOp59
 70
     0
102
RTVSPropertyOp60
 70
     0
102
RTVSPropertyOp61
 70
     0
102
RTVSPropertyOp62
 70
     0
  0
XRECORD
  5
29922
102
{ACAD_REACTORS
330
29921
102
}
330
29921
100
AcDbXrecord
280
     1
102
RTVSPost2010Prop28
280
     0
102
RTVSPost2010PropOp28
 70
     1
102
RTVSPost2010Prop29
280
     1
102
RTVSPost2010PropOp29
 70
     1
102
RTVSPost2010Prop30
280
     1
102
RTVSPost2010PropOp30
 70
     1
102
RTVSPost2010Prop31
280
     0
102
RTVSPost2010PropOp31
 70
     1
102
RTVSPost2010Prop32
280
     0
102
RTVSPost2010PropOp32
 70
     1
102
RTVSPost2010Prop33
280
     0
102
RTVSPost2010PropOp33
 70
     1
102
RTVSPost2010Prop34
280
     0
102
RTVSPost2010PropOp34
 70
     1
102
RTVSPost2010Prop35
280
     0
102
RTVSPost2010PropOp35
 70
     1
102
RTVSPost2010Prop36
280
     0
102
RTVSPost2010PropOp36
 70
     1
102
RTVSPost2010Prop37
 90
       50
102
RTVSPost2010PropOp37
 70
     1
102
RTVSPost2010Prop38
140
0.0
102
RTVSPost2010PropOp38
 70
     1
102
RTVSPost2010Prop39
140
1.0
102
RTVSPost2010PropOp39
 70
     1
102
RTVSPost2010Prop40
 90
        0
102
RTVSPost2010PropOp40
 70
     1
102
RTVSPost2010Prop41ColorIndex
 90
       18
102
RTVSPost2010Prop41ColorRGB
 90
        0
102
RTVSPost2010PropOp41
 70
     1
102
RTVSPost2010Prop42
 90
       50
102
RTVSPost2010PropOp42
 70
     1
102
RTVSPost2010Prop43
 90
        3
102
RTVSPost2010PropOp43
 70
     1
102
RTVSPost2010Prop44ColorIndex
 90
        5
102
RTVSPost2010Prop44ColorRGB
 90
      255
102
RTVSPost2010PropOp44
 70
     1
102
RTVSPost2010Prop45
280
     0
102
RTVSPost2010PropOp45
 70
     1
102
RTVSPost2010Prop46
 90
       50
102
RTVSPost2010PropOp46
 70
     1
102
RTVSPost2010Prop47
 90
       50
102
RTVSPost2010PropOp47
 70
     1
102
RTVSPost2010Prop48
 90
       50
102
RTVSPost2010PropOp48
 70
     1
102
RTVSPost2010Prop49
280
     0
102
RTVSPost2010PropOp49
 70
     1
102
RTVSPost2010Prop50
 90
       50
102
RTVSPost2010PropOp50
 70
     1
102
RTVSPost2010Prop51ColorIndex
 90
      256
102
RTVSPost2010Prop51ColorRGB
 90
-16777216
102
RTVSPost2010PropOp51
 70
     0
102
RTVSPost2010Prop52
140
1.0
102
RTVSPost2010PropOp52
 70
     0
102
RTVSPost2010Prop53
 90
        2
102
RTVSPost2010PropOp53
 70
     1
102
RTVSPost2010Prop54
  1
strokes_ogs.tif
102
RTVSPost2010PropOp54
 70
     1
102
RTVSPost2010Prop55
280
     0
102
RTVSPost2010PropOp55
 70
     1
102
RTVSPost2010Prop56
140
1.0
102
RTVSPost2010PropOp56
 70
     1
102
RTVSPost2010Prop57
140
1.0
102
RTVSPost2010PropOp57
 70
     1
102
RTVSPropertyOp0
 70
     1
102
RTVSPropertyOp1
 70
     1
102
RTVSPropertyOp2
 70
     1
102
RTVSPropertyOp3
 70
     1
102
RTVSPropertyOp4
 70
     1
102
RTVSPropertyOp5
 70
     1
102
RTVSPropertyOp6
 70
     1
102
RTVSPropertyOp7
 70
     1
102
RTVSPropertyOp8
 70
     1
102
RTVSPropertyOp9
 70
     1
102
RTVSPropertyOp10
 70
     1
102
RTVSPropertyOp11
 70
     1
102
RTVSPropertyOp12
 70
     1
102
RTVSPropertyOp13
 70
     1
102
RTVSPropertyOp14
 70
     1
102
RTVSPropertyOp15
 70
     1
102
RTVSPropertyOp16
 70
     1
102
RTVSPropertyOp17
 70
     1
102
RTVSPropertyOp18
 70
     1
102
RTVSPropertyOp19
 70
     1
102
RTVSPropertyOp20
 70
     1
102
RTVSPropertyOp21
 70
     1
102
RTVSPropertyOp22
 70
     1
102
RTVSPropertyOp23
 70
     1
102
RTVSPropertyOp24
 70
     1
102
RTVSPropertyOp25
 70
     1
102
RTVSPropertyOp26
 70
     1
102
RTVSPropertyOp27
 70
     1
102
RTVSPropertyOp28
 70
     1
102
RTVSPropertyOp29
 70
     1
102
RTVSPropertyOp30
 70
     1
102
RTVSPropertyOp31
 70
     1
102
RTVSPropertyOp32
 70
     1
102
RTVSPropertyOp33
 70
     1
102
RTVSPropertyOp34
 70
     1
102
RTVSPropertyOp35
 70
     1
102
RTVSPropertyOp36
 70
     1
102
RTVSPropertyOp37
 70
     1
102
RTVSPropertyOp38
 70
     1
102
RTVSPropertyOp39
 70
     1
102
RTVSPropertyOp40
 70
     1
102
RTVSPropertyOp41
 70
     1
102
RTVSPropertyOp42
 70
     1
102
RTVSPropertyOp43
 70
     1
102
RTVSPropertyOp44
 70
     1
102
RTVSPropertyOp45
 70
     1
102
RTVSPropertyOp46
 70
     1
102
RTVSPropertyOp47
 70
     1
102
RTVSPropertyOp48
 70
     1
102
RTVSPropertyOp49
 70
     1
102
RTVSPropertyOp50
 70
     1
102
RTVSPropertyOp51
 70
     0
102
RTVSPropertyOp52
 70
     0
102
RTVSPropertyOp53
 70
     1
102
RTVSPropertyOp54
 70
     1
102
RTVSPropertyOp55
 70
     1
102
RTVSPropertyOp56
 70
     1
102
RTVSPropertyOp57
 70
     1
102
RTVSPropertyOp58
 70
     1
102
RTVSPropertyOp59
 70
     1
102
RTVSPropertyOp60
 70
     1
102
RTVSPropertyOp61
 70
     1
102
RTVSPropertyOp62
 70
     1
  0
XRECORD
  5
29934
102
{ACAD_REACTORS
330
29933
102
}
330
29933
100
AcDbXrecord
280
     1
102
RTVSPost2010Prop28
280
     0
102
RTVSPost2010PropOp28
 70
     1
102
RTVSPost2010Prop29
280
     1
102
RTVSPost2010PropOp29
 70
     1
102
RTVSPost2010Prop30
280
     1
102
RTVSPost2010PropOp30
 70
     1
102
RTVSPost2010Prop31
280
     0
102
RTVSPost2010PropOp31
 70
     1
102
RTVSPost2010Prop32
280
     0
102
RTVSPost2010PropOp32
 70
     1
102
RTVSPost2010Prop33
280
     0
102
RTVSPost2010PropOp33
 70
     1
102
RTVSPost2010Prop34
280
     0
102
RTVSPost2010PropOp34
 70
     1
102
RTVSPost2010Prop35
280
     0
102
RTVSPost2010PropOp35
 70
     1
102
RTVSPost2010Prop36
280
     0
102
RTVSPost2010PropOp36
 70
     1
102
RTVSPost2010Prop37
 90
       50
102
RTVSPost2010PropOp37
 70
     0
102
RTVSPost2010Prop38
140
0.0
102
RTVSPost2010PropOp38
 70
     0
102
RTVSPost2010Prop39
140
1.0
102
RTVSPost2010PropOp39
 70
     0
102
RTVSPost2010Prop40
 90
        0
102
RTVSPost2010PropOp40
 70
     0
102
RTVSPost2010Prop41ColorIndex
 90
       18
102
RTVSPost2010Prop41ColorRGB
 90
        0
102
RTVSPost2010PropOp41
 70
     0
102
RTVSPost2010Prop42
 90
       50
102
RTVSPost2010PropOp42
 70
     0
102
RTVSPost2010Prop43
 90
        3
102
RTVSPost2010PropOp43
 70
     0
102
RTVSPost2010Prop44ColorIndex
 90
        5
102
RTVSPost2010Prop44ColorRGB
 90
      255
102
RTVSPost2010PropOp44
 70
     0
102
RTVSPost2010Prop45
280
     0
102
RTVSPost2010PropOp45
 70
     1
102
RTVSPost2010Prop46
 90
       50
102
RTVSPost2010PropOp46
 70
     0
102
RTVSPost2010Prop47
 90
       50
102
RTVSPost2010PropOp47
 70
     0
102
RTVSPost2010Prop48
 90
       50
102
RTVSPost2010PropOp48
 70
     0
102
RTVSPost2010Prop49
280
     0
102
RTVSPost2010PropOp49
 70
     1
102
RTVSPost2010Prop50
 90
       50
102
RTVSPost2010PropOp50
 70
     0
102
RTVSPost2010Prop51ColorIndex
 90
      256
102
RTVSPost2010Prop51ColorRGB
 90
-16777216
102
RTVSPost2010PropOp51
 70
     0
102
RTVSPost2010Prop52
140
1.0
102
RTVSPost2010PropOp52
 70
     0
102
RTVSPost2010Prop53
 90
        2
102
RTVSPost2010PropOp53
 70
     0
102
RTVSPost2010Prop54
  1
strokes_ogs.tif
102
RTVSPost2010PropOp54
 70
     0
102
RTVSPost2010Prop55
280
     0
102
RTVSPost2010PropOp55
 70
     1
102
RTVSPost2010Prop56
140
1.0
102
RTVSPost2010PropOp56
 70
     0
102
RTVSPost2010Prop57
140
1.0
102
RTVSPost2010PropOp57
 70
     0
102
RTVSPropertyOp0
 70
     0
102
RTVSPropertyOp1
 70
     0
102
RTVSPropertyOp2
 70
     0
102
RTVSPropertyOp3
 70
     0
102
RTVSPropertyOp4
 70
     0
102
RTVSPropertyOp5
 70
     0
102
RTVSPropertyOp6
 70
     0
102
RTVSPropertyOp7
 70
     0
102
RTVSPropertyOp8
 70
     0
102
RTVSPropertyOp9
 70
     0
102
RTVSPropertyOp10
 70
     0
102
RTVSPropertyOp11
 70
     0
102
RTVSPropertyOp12
 70
     0
102
RTVSPropertyOp13
 70
     0
102
RTVSPropertyOp14
 70
     2
102
RTVSPropertyOp15
 70
     0
102
RTVSPropertyOp16
 70
     0
102
RTVSPropertyOp17
 70
     0
102
RTVSPropertyOp18
 70
     0
102
RTVSPropertyOp19
 70
     0
102
RTVSPropertyOp20
 70
     0
102
RTVSPropertyOp21
 70
     0
102
RTVSPropertyOp22
 70
     0
102
RTVSPropertyOp23
 70
     0
102
RTVSPropertyOp24
 70
     0
102
RTVSPropertyOp25
 70
     0
102
RTVSPropertyOp26
 70
     0
102
RTVSPropertyOp27
 70
     0
102
RTVSPropertyOp28
 70
     1
102
RTVSPropertyOp29
 70
     1
102
RTVSPropertyOp30
 70
     1
102
RTVSPropertyOp31
 70
     1
102
RTVSPropertyOp32
 70
     1
102
RTVSPropertyOp33
 70
     1
102
RTVSPropertyOp34
 70
     1
102
RTVSPropertyOp35
 70
     1
102
RTVSPropertyOp36
 70
     1
102
RTVSPropertyOp37
 70
     0
102
RTVSPropertyOp38
 70
     0
102
RTVSPropertyOp39
 70
     0
102
RTVSPropertyOp40
 70
     0
102
RTVSPropertyOp41
 70
     0
102
RTVSPropertyOp42
 70
     0
102
RTVSPropertyOp43
 70
     0
102
RTVSPropertyOp44
 70
     0
102
RTVSPropertyOp45
 70
     1
102
RTVSPropertyOp46
 70
     0
102
RTVSPropertyOp47
 70
     0
102
RTVSPropertyOp48
 70
     0
102
RTVSPropertyOp49
 70
     1
102
RTVSPropertyOp50
 70
     0
102
RTVSPropertyOp51
 70
     0
102
RTVSPropertyOp52
 70
     0
102
RTVSPropertyOp53
 70
     0
102
RTVSPropertyOp54
 70
     0
102
RTVSPropertyOp55
 70
     1
102
RTVSPropertyOp56
 70
     0
102
RTVSPropertyOp57
 70
     0
102
RTVSPropertyOp58
 70
     0
102
RTVSPropertyOp59
 70
     0
102
RTVSPropertyOp60
 70
     0
102
RTVSPropertyOp61
 70
     0
102
RTVSPropertyOp62
 70
     0
  0
XRECORD
  5
2991A
102
{ACAD_REACTORS
330
29919
102
}
330
29919
100
AcDbXrecord
280
     1
102
RTVSPost2010Prop28
280
     0
102
RTVSPost2010PropOp28
 70
     1
102
RTVSPost2010Prop29
280
     1
102
RTVSPost2010PropOp29
 70
     1
102
RTVSPost2010Prop30
280
     1
102
RTVSPost2010PropOp30
 70
     1
102
RTVSPost2010Prop31
280
     0
102
RTVSPost2010PropOp31
 70
     1
102
RTVSPost2010Prop32
280
     0
102
RTVSPost2010PropOp32
 70
     1
102
RTVSPost2010Prop33
280
     0
102
RTVSPost2010PropOp33
 70
     1
102
RTVSPost2010Prop34
280
     0
102
RTVSPost2010PropOp34
 70
     1
102
RTVSPost2010Prop35
280
     0
102
RTVSPost2010PropOp35
 70
     1
102
RTVSPost2010Prop36
280
     0
102
RTVSPost2010PropOp36
 70
     1
102
RTVSPost2010Prop37
 90
       50
102
RTVSPost2010PropOp37
 70
     1
102
RTVSPost2010Prop38
140
0.0
102
RTVSPost2010PropOp38
 70
     1
102
RTVSPost2010Prop39
140
1.0
102
RTVSPost2010PropOp39
 70
     1
102
RTVSPost2010Prop40
 90
        0
102
RTVSPost2010PropOp40
 70
     1
102
RTVSPost2010Prop41ColorIndex
 90
       18
102
RTVSPost2010Prop41ColorRGB
 90
        0
102
RTVSPost2010PropOp41
 70
     1
102
RTVSPost2010Prop42
 90
       50
102
RTVSPost2010PropOp42
 70
     1
102
RTVSPost2010Prop43
 90
        3
102
RTVSPost2010PropOp43
 70
     1
102
RTVSPost2010Prop44ColorIndex
 90
        5
102
RTVSPost2010Prop44ColorRGB
 90
      255
102
RTVSPost2010PropOp44
 70
     1
102
RTVSPost2010Prop45
280
     0
102
RTVSPost2010PropOp45
 70
     1
102
RTVSPost2010Prop46
 90
       50
102
RTVSPost2010PropOp46
 70
     1
102
RTVSPost2010Prop47
 90
       50
102
RTVSPost2010PropOp47
 70
     1
102
RTVSPost2010Prop48
 90
       50
102
RTVSPost2010PropOp48
 70
     1
102
RTVSPost2010Prop49
280
     0
102
RTVSPost2010PropOp49
 70
     1
102
RTVSPost2010Prop50
 90
       50
102
RTVSPost2010PropOp50
 70
     1
102
RTVSPost2010Prop51ColorIndex
 90
      256
102
RTVSPost2010Prop51ColorRGB
 90
-16777216
102
RTVSPost2010PropOp51
 70
     0
102
RTVSPost2010Prop52
140
1.0
102
RTVSPost2010PropOp52
 70
     0
102
RTVSPost2010Prop53
 90
        2
102
RTVSPost2010PropOp53
 70
     1
102
RTVSPost2010Prop54
  1
strokes_ogs.tif
102
RTVSPost2010PropOp54
 70
     1
102
RTVSPost2010Prop55
280
     0
102
RTVSPost2010PropOp55
 70
     1
102
RTVSPost2010Prop56
140
1.0
102
RTVSPost2010PropOp56
 70
     1
102
RTVSPost2010Prop57
140
1.0
102
RTVSPost2010PropOp57
 70
     1
102
RTVSPropertyOp0
 70
     1
102
RTVSPropertyOp1
 70
     1
102
RTVSPropertyOp2
 70
     1
102
RTVSPropertyOp3
 70
     1
102
RTVSPropertyOp4
 70
     1
102
RTVSPropertyOp5
 70
     1
102
RTVSPropertyOp6
 70
     1
102
RTVSPropertyOp7
 70
     1
102
RTVSPropertyOp8
 70
     1
102
RTVSPropertyOp9
 70
     1
102
RTVSPropertyOp10
 70
     1
102
RTVSPropertyOp11
 70
     1
102
RTVSPropertyOp12
 70
     1
102
RTVSPropertyOp13
 70
     1
102
RTVSPropertyOp14
 70
     1
102
RTVSPropertyOp15
 70
     1
102
RTVSPropertyOp16
 70
     1
102
RTVSPropertyOp17
 70
     1
102
RTVSPropertyOp18
 70
     1
102
RTVSPropertyOp19
 70
     1
102
RTVSPropertyOp20
 70
     1
102
RTVSPropertyOp21
 70
     1
102
RTVSPropertyOp22
 70
     1
102
RTVSPropertyOp23
 70
     1
102
RTVSPropertyOp24
 70
     1
102
RTVSPropertyOp25
 70
     1
102
RTVSPropertyOp26
 70
     1
102
RTVSPropertyOp27
 70
     1
102
RTVSPropertyOp28
 70
     1
102
RTVSPropertyOp29
 70
     1
102
RTVSPropertyOp30
 70
     1
102
RTVSPropertyOp31
 70
     1
102
RTVSPropertyOp32
 70
     1
102
RTVSPropertyOp33
 70
     1
102
RTVSPropertyOp34
 70
     1
102
RTVSPropertyOp35
 70
     1
102
RTVSPropertyOp36
 70
     1
102
RTVSPropertyOp37
 70
     1
102
RTVSPropertyOp38
 70
     1
102
RTVSPropertyOp39
 70
     1
102
RTVSPropertyOp40
 70
     1
102
RTVSPropertyOp41
 70
     1
102
RTVSPropertyOp42
 70
     1
102
RTVSPropertyOp43
 70
     1
102
RTVSPropertyOp44
 70
     1
102
RTVSPropertyOp45
 70
     1
102
RTVSPropertyOp46
 70
     1
102
RTVSPropertyOp47
 70
     1
102
RTVSPropertyOp48
 70
     1
102
RTVSPropertyOp49
 70
     1
102
RTVSPropertyOp50
 70
     1
102
RTVSPropertyOp51
 70
     0
102
RTVSPropertyOp52
 70
     0
102
RTVSPropertyOp53
 70
     1
102
RTVSPropertyOp54
 70
     1
102
RTVSPropertyOp55
 70
     1
102
RTVSPropertyOp56
 70
     1
102
RTVSPropertyOp57
 70
     1
102
RTVSPropertyOp58
 70
     1
102
RTVSPropertyOp59
 70
     1
102
RTVSPropertyOp60
 70
     1
102
RTVSPropertyOp61
 70
     1
102
RTVSPropertyOp62
 70
     1
  0
XRECORD
  5
29930
102
{ACAD_REACTORS
330
2992F
102
}
330
2992F
100
AcDbXrecord
280
     1
102
RTVSPost2010Prop28
280
     0
102
RTVSPost2010PropOp28
 70
     1
102
RTVSPost2010Prop29
280
     1
102
RTVSPost2010PropOp29
 70
     1
102
RTVSPost2010Prop30
280
     1
102
RTVSPost2010PropOp30
 70
     1
102
RTVSPost2010Prop31
280
     0
102
RTVSPost2010PropOp31
 70
     1
102
RTVSPost2010Prop32
280
     0
102
RTVSPost2010PropOp32
 70
     1
102
RTVSPost2010Prop33
280
     0
102
RTVSPost2010PropOp33
 70
     1
102
RTVSPost2010Prop34
280
     0
102
RTVSPost2010PropOp34
 70
     1
102
RTVSPost2010Prop35
280
     0
102
RTVSPost2010PropOp35
 70
     1
102
RTVSPost2010Prop36
280
     0
102
RTVSPost2010PropOp36
 70
     1
102
RTVSPost2010Prop37
 90
       50
102
RTVSPost2010PropOp37
 70
     1
102
RTVSPost2010Prop38
140
0.0
102
RTVSPost2010PropOp38
 70
     1
102
RTVSPost2010Prop39
140
1.0
102
RTVSPost2010PropOp39
 70
     1
102
RTVSPost2010Prop40
 90
        0
102
RTVSPost2010PropOp40
 70
     1
102
RTVSPost2010Prop41ColorIndex
 90
       18
102
RTVSPost2010Prop41ColorRGB
 90
        0
102
RTVSPost2010PropOp41
 70
     1
102
RTVSPost2010Prop42
 90
       50
102
RTVSPost2010PropOp42
 70
     1
102
RTVSPost2010Prop43
 90
        3
102
RTVSPost2010PropOp43
 70
     1
102
RTVSPost2010Prop44ColorIndex
 90
        5
102
RTVSPost2010Prop44ColorRGB
 90
      255
102
RTVSPost2010PropOp44
 70
     1
102
RTVSPost2010Prop45
280
     0
102
RTVSPost2010PropOp45
 70
     1
102
RTVSPost2010Prop46
 90
       50
102
RTVSPost2010PropOp46
 70
     1
102
RTVSPost2010Prop47
 90
       50
102
RTVSPost2010PropOp47
 70
     1
102
RTVSPost2010Prop48
 90
       50
102
RTVSPost2010PropOp48
 70
     1
102
RTVSPost2010Prop49
280
     0
102
RTVSPost2010PropOp49
 70
     1
102
RTVSPost2010Prop50
 90
       50
102
RTVSPost2010PropOp50
 70
     1
102
RTVSPost2010Prop51ColorIndex
 90
      256
102
RTVSPost2010Prop51ColorRGB
 90
-16777216
102
RTVSPost2010PropOp51
 70
     0
102
RTVSPost2010Prop52
140
1.0
102
RTVSPost2010PropOp52
 70
     0
102
RTVSPost2010Prop53
 90
        2
102
RTVSPost2010PropOp53
 70
     1
102
RTVSPost2010Prop54
  1
strokes_ogs.tif
102
RTVSPost2010PropOp54
 70
     1
102
RTVSPost2010Prop55
280
     0
102
RTVSPost2010PropOp55
 70
     1
102
RTVSPost2010Prop56
140
1.0
102
RTVSPost2010PropOp56
 70
     1
102
RTVSPost2010Prop57
140
1.0
102
RTVSPost2010PropOp57
 70
     1
102
RTVSPropertyOp0
 70
     1
102
RTVSPropertyOp1
 70
     1
102
RTVSPropertyOp2
 70
     1
102
RTVSPropertyOp3
 70
     1
102
RTVSPropertyOp4
 70
     1
102
RTVSPropertyOp5
 70
     1
102
RTVSPropertyOp6
 70
     1
102
RTVSPropertyOp7
 70
     1
102
RTVSPropertyOp8
 70
     1
102
RTVSPropertyOp9
 70
     1
102
RTVSPropertyOp10
 70
     1
102
RTVSPropertyOp11
 70
     1
102
RTVSPropertyOp12
 70
     1
102
RTVSPropertyOp13
 70
     1
102
RTVSPropertyOp14
 70
     1
102
RTVSPropertyOp15
 70
     1
102
RTVSPropertyOp16
 70
     1
102
RTVSPropertyOp17
 70
     1
102
RTVSPropertyOp18
 70
     1
102
RTVSPropertyOp19
 70
     1
102
RTVSPropertyOp20
 70
     1
102
RTVSPropertyOp21
 70
     1
102
RTVSPropertyOp22
 70
     1
102
RTVSPropertyOp23
 70
     1
102
RTVSPropertyOp24
 70
     1
102
RTVSPropertyOp25
 70
     1
102
RTVSPropertyOp26
 70
     1
102
RTVSPropertyOp27
 70
     1
102
RTVSPropertyOp28
 70
     1
102
RTVSPropertyOp29
 70
     1
102
RTVSPropertyOp30
 70
     1
102
RTVSPropertyOp31
 70
     1
102
RTVSPropertyOp32
 70
     1
102
RTVSPropertyOp33
 70
     1
102
RTVSPropertyOp34
 70
     1
102
RTVSPropertyOp35
 70
     1
102
RTVSPropertyOp36
 70
     1
102
RTVSPropertyOp37
 70
     1
102
RTVSPropertyOp38
 70
     1
102
RTVSPropertyOp39
 70
     1
102
RTVSPropertyOp40
 70
     1
102
RTVSPropertyOp41
 70
     1
102
RTVSPropertyOp42
 70
     1
102
RTVSPropertyOp43
 70
     1
102
RTVSPropertyOp44
 70
     1
102
RTVSPropertyOp45
 70
     1
102
RTVSPropertyOp46
 70
     1
102
RTVSPropertyOp47
 70
     1
102
RTVSPropertyOp48
 70
     1
102
RTVSPropertyOp49
 70
     1
102
RTVSPropertyOp50
 70
     1
102
RTVSPropertyOp51
 70
     0
102
RTVSPropertyOp52
 70
     0
102
RTVSPropertyOp53
 70
     1
102
RTVSPropertyOp54
 70
     1
102
RTVSPropertyOp55
 70
     1
102
RTVSPropertyOp56
 70
     1
102
RTVSPropertyOp57
 70
     1
102
RTVSPropertyOp58
 70
     1
102
RTVSPropertyOp59
 70
     1
102
RTVSPropertyOp60
 70
     1
102
RTVSPropertyOp61
 70
     1
102
RTVSPropertyOp62
 70
     1
  0
XRECORD
  5
2992E
102
{ACAD_REACTORS
330
2992D
102
}
330
2992D
100
AcDbXrecord
280
     1
102
RTVSPost2010Prop28
280
     0
102
RTVSPost2010PropOp28
 70
     1
102
RTVSPost2010Prop29
280
     1
102
RTVSPost2010PropOp29
 70
     1
102
RTVSPost2010Prop30
280
     1
102
RTVSPost2010PropOp30
 70
     1
102
RTVSPost2010Prop31
280
     0
102
RTVSPost2010PropOp31
 70
     1
102
RTVSPost2010Prop32
280
     0
102
RTVSPost2010PropOp32
 70
     1
102
RTVSPost2010Prop33
280
     0
102
RTVSPost2010PropOp33
 70
     1
102
RTVSPost2010Prop34
280
     0
102
RTVSPost2010PropOp34
 70
     1
102
RTVSPost2010Prop35
280
     0
102
RTVSPost2010PropOp35
 70
     1
102
RTVSPost2010Prop36
280
     0
102
RTVSPost2010PropOp36
 70
     1
102
RTVSPost2010Prop37
 90
       50
102
RTVSPost2010PropOp37
 70
     1
102
RTVSPost2010Prop38
140
0.0
102
RTVSPost2010PropOp38
 70
     1
102
RTVSPost2010Prop39
140
1.0
102
RTVSPost2010PropOp39
 70
     1
102
RTVSPost2010Prop40
 90
        0
102
RTVSPost2010PropOp40
 70
     1
102
RTVSPost2010Prop41ColorIndex
 90
       18
102
RTVSPost2010Prop41ColorRGB
 90
        0
102
RTVSPost2010PropOp41
 70
     1
102
RTVSPost2010Prop42
 90
       50
102
RTVSPost2010PropOp42
 70
     1
102
RTVSPost2010Prop43
 90
        3
102
RTVSPost2010PropOp43
 70
     1
102
RTVSPost2010Prop44ColorIndex
 90
        5
102
RTVSPost2010Prop44ColorRGB
 90
      255
102
RTVSPost2010PropOp44
 70
     1
102
RTVSPost2010Prop45
280
     0
102
RTVSPost2010PropOp45
 70
     1
102
RTVSPost2010Prop46
 90
       50
102
RTVSPost2010PropOp46
 70
     1
102
RTVSPost2010Prop47
 90
       50
102
RTVSPost2010PropOp47
 70
     1
102
RTVSPost2010Prop48
 90
       50
102
RTVSPost2010PropOp48
 70
     1
102
RTVSPost2010Prop49
280
     0
102
RTVSPost2010PropOp49
 70
     1
102
RTVSPost2010Prop50
 90
       50
102
RTVSPost2010PropOp50
 70
     1
102
RTVSPost2010Prop51ColorIndex
 90
      256
102
RTVSPost2010Prop51ColorRGB
 90
-16777216
102
RTVSPost2010PropOp51
 70
     0
102
RTVSPost2010Prop52
140
1.0
102
RTVSPost2010PropOp52
 70
     0
102
RTVSPost2010Prop53
 90
        2
102
RTVSPost2010PropOp53
 70
     1
102
RTVSPost2010Prop54
  1
strokes_ogs.tif
102
RTVSPost2010PropOp54
 70
     1
102
RTVSPost2010Prop55
280
     0
102
RTVSPost2010PropOp55
 70
     1
102
RTVSPost2010Prop56
140
1.0
102
RTVSPost2010PropOp56
 70
     1
102
RTVSPost2010Prop57
140
1.0
102
RTVSPost2010PropOp57
 70
     1
102
RTVSPropertyOp0
 70
     1
102
RTVSPropertyOp1
 70
     1
102
RTVSPropertyOp2
 70
     1
102
RTVSPropertyOp3
 70
     1
102
RTVSPropertyOp4
 70
     1
102
RTVSPropertyOp5
 70
     1
102
RTVSPropertyOp6
 70
     1
102
RTVSPropertyOp7
 70
     1
102
RTVSPropertyOp8
 70
     1
102
RTVSPropertyOp9
 70
     1
102
RTVSPropertyOp10
 70
     1
102
RTVSPropertyOp11
 70
     1
102
RTVSPropertyOp12
 70
     1
102
RTVSPropertyOp13
 70
     1
102
RTVSPropertyOp14
 70
     1
102
RTVSPropertyOp15
 70
     1
102
RTVSPropertyOp16
 70
     1
102
RTVSPropertyOp17
 70
     1
102
RTVSPropertyOp18
 70
     1
102
RTVSPropertyOp19
 70
     1
102
RTVSPropertyOp20
 70
     1
102
RTVSPropertyOp21
 70
     1
102
RTVSPropertyOp22
 70
     1
102
RTVSPropertyOp23
 70
     1
102
RTVSPropertyOp24
 70
     1
102
RTVSPropertyOp25
 70
     1
102
RTVSPropertyOp26
 70
     1
102
RTVSPropertyOp27
 70
     1
102
RTVSPropertyOp28
 70
     1
102
RTVSPropertyOp29
 70
     1
102
RTVSPropertyOp30
 70
     1
102
RTVSPropertyOp31
 70
     1
102
RTVSPropertyOp32
 70
     1
102
RTVSPropertyOp33
 70
     1
102
RTVSPropertyOp34
 70
     1
102
RTVSPropertyOp35
 70
     1
102
RTVSPropertyOp36
 70
     1
102
RTVSPropertyOp37
 70
     1
102
RTVSPropertyOp38
 70
     1
102
RTVSPropertyOp39
 70
     1
102
RTVSPropertyOp40
 70
     1
102
RTVSPropertyOp41
 70
     1
102
RTVSPropertyOp42
 70
     1
102
RTVSPropertyOp43
 70
     1
102
RTVSPropertyOp44
 70
     1
102
RTVSPropertyOp45
 70
     1
102
RTVSPropertyOp46
 70
     1
102
RTVSPropertyOp47
 70
     1
102
RTVSPropertyOp48
 70
     1
102
RTVSPropertyOp49
 70
     1
102
RTVSPropertyOp50
 70
     1
102
RTVSPropertyOp51
 70
     0
102
RTVSPropertyOp52
 70
     0
102
RTVSPropertyOp53
 70
     1
102
RTVSPropertyOp54
 70
     1
102
RTVSPropertyOp55
 70
     1
102
RTVSPropertyOp56
 70
     1
102
RTVSPropertyOp57
 70
     1
102
RTVSPropertyOp58
 70
     1
102
RTVSPropertyOp59
 70
     1
102
RTVSPropertyOp60
 70
     1
102
RTVSPropertyOp61
 70
     1
102
RTVSPropertyOp62
 70
     1
  0
XRECORD
  5
29928
102
{ACAD_REACTORS
330
29927
102
}
330
29927
100
AcDbXrecord
280
     1
102
RTVSPost2010Prop28
280
     0
102
RTVSPost2010PropOp28
 70
     1
102
RTVSPost2010Prop29
280
     1
102
RTVSPost2010PropOp29
 70
     1
102
RTVSPost2010Prop30
280
     1
102
RTVSPost2010PropOp30
 70
     1
102
RTVSPost2010Prop31
280
     0
102
RTVSPost2010PropOp31
 70
     1
102
RTVSPost2010Prop32
280
     0
102
RTVSPost2010PropOp32
 70
     1
102
RTVSPost2010Prop33
280
     0
102
RTVSPost2010PropOp33
 70
     1
102
RTVSPost2010Prop34
280
     0
102
RTVSPost2010PropOp34
 70
     1
102
RTVSPost2010Prop35
280
     0
102
RTVSPost2010PropOp35
 70
     1
102
RTVSPost2010Prop36
280
     0
102
RTVSPost2010PropOp36
 70
     1
102
RTVSPost2010Prop37
 90
       50
102
RTVSPost2010PropOp37
 70
     1
102
RTVSPost2010Prop38
140
0.0
102
RTVSPost2010PropOp38
 70
     1
102
RTVSPost2010Prop39
140
1.0
102
RTVSPost2010PropOp39
 70
     1
102
RTVSPost2010Prop40
 90
        0
102
RTVSPost2010PropOp40
 70
     1
102
RTVSPost2010Prop41ColorIndex
 90
       18
102
RTVSPost2010Prop41ColorRGB
 90
        0
102
RTVSPost2010PropOp41
 70
     1
102
RTVSPost2010Prop42
 90
       50
102
RTVSPost2010PropOp42
 70
     1
102
RTVSPost2010Prop43
 90
        3
102
RTVSPost2010PropOp43
 70
     1
102
RTVSPost2010Prop44ColorIndex
 90
        5
102
RTVSPost2010Prop44ColorRGB
 90
      255
102
RTVSPost2010PropOp44
 70
     1
102
RTVSPost2010Prop45
280
     0
102
RTVSPost2010PropOp45
 70
     1
102
RTVSPost2010Prop46
 90
       50
102
RTVSPost2010PropOp46
 70
     1
102
RTVSPost2010Prop47
 90
       50
102
RTVSPost2010PropOp47
 70
     1
102
RTVSPost2010Prop48
 90
       50
102
RTVSPost2010PropOp48
 70
     1
102
RTVSPost2010Prop49
280
     0
102
RTVSPost2010PropOp49
 70
     1
102
RTVSPost2010Prop50
 90
       50
102
RTVSPost2010PropOp50
 70
     1
102
RTVSPost2010Prop51ColorIndex
 90
      256
102
RTVSPost2010Prop51ColorRGB
 90
-16777216
102
RTVSPost2010PropOp51
 70
     0
102
RTVSPost2010Prop52
140
1.0
102
RTVSPost2010PropOp52
 70
     0
102
RTVSPost2010Prop53
 90
        2
102
RTVSPost2010PropOp53
 70
     1
102
RTVSPost2010Prop54
  1
strokes_ogs.tif
102
RTVSPost2010PropOp54
 70
     1
102
RTVSPost2010Prop55
280
     0
102
RTVSPost2010PropOp55
 70
     1
102
RTVSPost2010Prop56
140
1.0
102
RTVSPost2010PropOp56
 70
     1
102
RTVSPost2010Prop57
140
1.0
102
RTVSPost2010PropOp57
 70
     1
102
RTVSPropertyOp0
 70
     1
102
RTVSPropertyOp1
 70
     1
102
RTVSPropertyOp2
 70
     1
102
RTVSPropertyOp3
 70
     1
102
RTVSPropertyOp4
 70
     1
102
RTVSPropertyOp5
 70
     1
102
RTVSPropertyOp6
 70
     1
102
RTVSPropertyOp7
 70
     1
102
RTVSPropertyOp8
 70
     1
102
RTVSPropertyOp9
 70
     1
102
RTVSPropertyOp10
 70
     1
102
RTVSPropertyOp11
 70
     1
102
RTVSPropertyOp12
 70
     1
102
RTVSPropertyOp13
 70
     1
102
RTVSPropertyOp14
 70
     1
102
RTVSPropertyOp15
 70
     1
102
RTVSPropertyOp16
 70
     1
102
RTVSPropertyOp17
 70
     1
102
RTVSPropertyOp18
 70
     1
102
RTVSPropertyOp19
 70
     1
102
RTVSPropertyOp20
 70
     1
102
RTVSPropertyOp21
 70
     1
102
RTVSPropertyOp22
 70
     1
102
RTVSPropertyOp23
 70
     1
102
RTVSPropertyOp24
 70
     1
102
RTVSPropertyOp25
 70
     1
102
RTVSPropertyOp26
 70
     1
102
RTVSPropertyOp27
 70
     1
102
RTVSPropertyOp28
 70
     1
102
RTVSPropertyOp29
 70
     1
102
RTVSPropertyOp30
 70
     1
102
RTVSPropertyOp31
 70
     1
102
RTVSPropertyOp32
 70
     1
102
RTVSPropertyOp33
 70
     1
102
RTVSPropertyOp34
 70
     1
102
RTVSPropertyOp35
 70
     1
102
RTVSPropertyOp36
 70
     1
102
RTVSPropertyOp37
 70
     1
102
RTVSPropertyOp38
 70
     1
102
RTVSPropertyOp39
 70
     1
102
RTVSPropertyOp40
 70
     1
102
RTVSPropertyOp41
 70
     1
102
RTVSPropertyOp42
 70
     1
102
RTVSPropertyOp43
 70
     1
102
RTVSPropertyOp44
 70
     1
102
RTVSPropertyOp45
 70
     1
102
RTVSPropertyOp46
 70
     1
102
RTVSPropertyOp47
 70
     1
102
RTVSPropertyOp48
 70
     1
102
RTVSPropertyOp49
 70
     1
102
RTVSPropertyOp50
 70
     1
102
RTVSPropertyOp51
 70
     0
102
RTVSPropertyOp52
 70
     0
102
RTVSPropertyOp53
 70
     1
102
RTVSPropertyOp54
 70
     1
102
RTVSPropertyOp55
 70
     1
102
RTVSPropertyOp56
 70
     1
102
RTVSPropertyOp57
 70
     1
102
RTVSPropertyOp58
 70
     1
102
RTVSPropertyOp59
 70
     1
102
RTVSPropertyOp60
 70
     1
102
RTVSPropertyOp61
 70
     1
102
RTVSPropertyOp62
 70
     1
  0
XRECORD
  5
2992A
102
{ACAD_REACTORS
330
29929
102
}
330
29929
100
AcDbXrecord
280
     1
102
RTVSPost2010Prop28
280
     0
102
RTVSPost2010PropOp28
 70
     1
102
RTVSPost2010Prop29
280
     1
102
RTVSPost2010PropOp29
 70
     1
102
RTVSPost2010Prop30
280
     1
102
RTVSPost2010PropOp30
 70
     1
102
RTVSPost2010Prop31
280
     0
102
RTVSPost2010PropOp31
 70
     1
102
RTVSPost2010Prop32
280
     0
102
RTVSPost2010PropOp32
 70
     1
102
RTVSPost2010Prop33
280
     0
102
RTVSPost2010PropOp33
 70
     1
102
RTVSPost2010Prop34
280
     0
102
RTVSPost2010PropOp34
 70
     1
102
RTVSPost2010Prop35
280
     0
102
RTVSPost2010PropOp35
 70
     1
102
RTVSPost2010Prop36
280
     0
102
RTVSPost2010PropOp36
 70
     1
102
RTVSPost2010Prop37
 90
       50
102
RTVSPost2010PropOp37
 70
     1
102
RTVSPost2010Prop38
140
0.0
102
RTVSPost2010PropOp38
 70
     1
102
RTVSPost2010Prop39
140
1.0
102
RTVSPost2010PropOp39
 70
     1
102
RTVSPost2010Prop40
 90
        0
102
RTVSPost2010PropOp40
 70
     1
102
RTVSPost2010Prop41ColorIndex
 90
       18
102
RTVSPost2010Prop41ColorRGB
 90
        0
102
RTVSPost2010PropOp41
 70
     1
102
RTVSPost2010Prop42
 90
       50
102
RTVSPost2010PropOp42
 70
     1
102
RTVSPost2010Prop43
 90
        3
102
RTVSPost2010PropOp43
 70
     1
102
RTVSPost2010Prop44ColorIndex
 90
        5
102
RTVSPost2010Prop44ColorRGB
 90
      255
102
RTVSPost2010PropOp44
 70
     1
102
RTVSPost2010Prop45
280
     0
102
RTVSPost2010PropOp45
 70
     1
102
RTVSPost2010Prop46
 90
       50
102
RTVSPost2010PropOp46
 70
     1
102
RTVSPost2010Prop47
 90
       50
102
RTVSPost2010PropOp47
 70
     1
102
RTVSPost2010Prop48
 90
       50
102
RTVSPost2010PropOp48
 70
     1
102
RTVSPost2010Prop49
280
     0
102
RTVSPost2010PropOp49
 70
     1
102
RTVSPost2010Prop50
 90
       50
102
RTVSPost2010PropOp50
 70
     1
102
RTVSPost2010Prop51ColorIndex
 90
      256
102
RTVSPost2010Prop51ColorRGB
 90
-16777216
102
RTVSPost2010PropOp51
 70
     0
102
RTVSPost2010Prop52
140
1.0
102
RTVSPost2010PropOp52
 70
     0
102
RTVSPost2010Prop53
 90
        2
102
RTVSPost2010PropOp53
 70
     1
102
RTVSPost2010Prop54
  1
strokes_ogs.tif
102
RTVSPost2010PropOp54
 70
     1
102
RTVSPost2010Prop55
280
     0
102
RTVSPost2010PropOp55
 70
     1
102
RTVSPost2010Prop56
140
1.0
102
RTVSPost2010PropOp56
 70
     1
102
RTVSPost2010Prop57
140
1.0
102
RTVSPost2010PropOp57
 70
     1
102
RTVSPropertyOp0
 70
     1
102
RTVSPropertyOp1
 70
     1
102
RTVSPropertyOp2
 70
     1
102
RTVSPropertyOp3
 70
     1
102
RTVSPropertyOp4
 70
     1
102
RTVSPropertyOp5
 70
     1
102
RTVSPropertyOp6
 70
     1
102
RTVSPropertyOp7
 70
     1
102
RTVSPropertyOp8
 70
     1
102
RTVSPropertyOp9
 70
     1
102
RTVSPropertyOp10
 70
     1
102
RTVSPropertyOp11
 70
     1
102
RTVSPropertyOp12
 70
     1
102
RTVSPropertyOp13
 70
     1
102
RTVSPropertyOp14
 70
     1
102
RTVSPropertyOp15
 70
     1
102
RTVSPropertyOp16
 70
     1
102
RTVSPropertyOp17
 70
     1
102
RTVSPropertyOp18
 70
     1
102
RTVSPropertyOp19
 70
     1
102
RTVSPropertyOp20
 70
     1
102
RTVSPropertyOp21
 70
     1
102
RTVSPropertyOp22
 70
     1
102
RTVSPropertyOp23
 70
     1
102
RTVSPropertyOp24
 70
     1
102
RTVSPropertyOp25
 70
     1
102
RTVSPropertyOp26
 70
     1
102
RTVSPropertyOp27
 70
     1
102
RTVSPropertyOp28
 70
     1
102
RTVSPropertyOp29
 70
     1
102
RTVSPropertyOp30
 70
     1
102
RTVSPropertyOp31
 70
     1
102
RTVSPropertyOp32
 70
     1
102
RTVSPropertyOp33
 70
     1
102
RTVSPropertyOp34
 70
     1
102
RTVSPropertyOp35
 70
     1
102
RTVSPropertyOp36
 70
     1
102
RTVSPropertyOp37
 70
     1
102
RTVSPropertyOp38
 70
     1
102
RTVSPropertyOp39
 70
     1
102
RTVSPropertyOp40
 70
     1
102
RTVSPropertyOp41
 70
     1
102
RTVSPropertyOp42
 70
     1
102
RTVSPropertyOp43
 70
     1
102
RTVSPropertyOp44
 70
     1
102
RTVSPropertyOp45
 70
     1
102
RTVSPropertyOp46
 70
     1
102
RTVSPropertyOp47
 70
     1
102
RTVSPropertyOp48
 70
     1
102
RTVSPropertyOp49
 70
     1
102
RTVSPropertyOp50
 70
     1
102
RTVSPropertyOp51
 70
     0
102
RTVSPropertyOp52
 70
     0
102
RTVSPropertyOp53
 70
     1
102
RTVSPropertyOp54
 70
     1
102
RTVSPropertyOp55
 70
     1
102
RTVSPropertyOp56
 70
     1
102
RTVSPropertyOp57
 70
     1
102
RTVSPropertyOp58
 70
     1
102
RTVSPropertyOp59
 70
     1
102
RTVSPropertyOp60
 70
     1
102
RTVSPropertyOp61
 70
     1
102
RTVSPropertyOp62
 70
     1
  0
XRECORD
  5
29920
102
{ACAD_REACTORS
330
2991F
102
}
330
2991F
100
AcDbXrecord
280
     1
102
RTVSPost2010Prop28
280
     0
102
RTVSPost2010PropOp28
 70
     1
102
RTVSPost2010Prop29
280
     1
102
RTVSPost2010PropOp29
 70
     1
102
RTVSPost2010Prop30
280
     1
102
RTVSPost2010PropOp30
 70
     1
102
RTVSPost2010Prop31
280
     0
102
RTVSPost2010PropOp31
 70
     1
102
RTVSPost2010Prop32
280
     0
102
RTVSPost2010PropOp32
 70
     1
102
RTVSPost2010Prop33
280
     0
102
RTVSPost2010PropOp33
 70
     1
102
RTVSPost2010Prop34
280
     0
102
RTVSPost2010PropOp34
 70
     1
102
RTVSPost2010Prop35
280
     0
102
RTVSPost2010PropOp35
 70
     1
102
RTVSPost2010Prop36
280
     0
102
RTVSPost2010PropOp36
 70
     1
102
RTVSPost2010Prop37
 90
       50
102
RTVSPost2010PropOp37
 70
     1
102
RTVSPost2010Prop38
140
0.0
102
RTVSPost2010PropOp38
 70
     1
102
RTVSPost2010Prop39
140
1.0
102
RTVSPost2010PropOp39
 70
     1
102
RTVSPost2010Prop40
 90
        0
102
RTVSPost2010PropOp40
 70
     1
102
RTVSPost2010Prop41ColorIndex
 90
       18
102
RTVSPost2010Prop41ColorRGB
 90
        0
102
RTVSPost2010PropOp41
 70
     1
102
RTVSPost2010Prop42
 90
       50
102
RTVSPost2010PropOp42
 70
     1
102
RTVSPost2010Prop43
 90
        3
102
RTVSPost2010PropOp43
 70
     1
102
RTVSPost2010Prop44ColorIndex
 90
        5
102
RTVSPost2010Prop44ColorRGB
 90
      255
102
RTVSPost2010PropOp44
 70
     1
102
RTVSPost2010Prop45
280
     0
102
RTVSPost2010PropOp45
 70
     1
102
RTVSPost2010Prop46
 90
       50
102
RTVSPost2010PropOp46
 70
     1
102
RTVSPost2010Prop47
 90
       50
102
RTVSPost2010PropOp47
 70
     1
102
RTVSPost2010Prop48
 90
       50
102
RTVSPost2010PropOp48
 70
     1
102
RTVSPost2010Prop49
280
     0
102
RTVSPost2010PropOp49
 70
     1
102
RTVSPost2010Prop50
 90
       50
102
RTVSPost2010PropOp50
 70
     1
102
RTVSPost2010Prop51ColorIndex
 90
      256
102
RTVSPost2010Prop51ColorRGB
 90
-16777216
102
RTVSPost2010PropOp51
 70
     0
102
RTVSPost2010Prop52
140
1.0
102
RTVSPost2010PropOp52
 70
     0
102
RTVSPost2010Prop53
 90
        2
102
RTVSPost2010PropOp53
 70
     1
102
RTVSPost2010Prop54
  1
strokes_ogs.tif
102
RTVSPost2010PropOp54
 70
     1
102
RTVSPost2010Prop55
280
     0
102
RTVSPost2010PropOp55
 70
     1
102
RTVSPost2010Prop56
140
1.0
102
RTVSPost2010PropOp56
 70
     1
102
RTVSPost2010Prop57
140
1.0
102
RTVSPost2010PropOp57
 70
     1
102
RTVSPropertyOp0
 70
     1
102
RTVSPropertyOp1
 70
     1
102
RTVSPropertyOp2
 70
     1
102
RTVSPropertyOp3
 70
     1
102
RTVSPropertyOp4
 70
     1
102
RTVSPropertyOp5
 70
     1
102
RTVSPropertyOp6
 70
     1
102
RTVSPropertyOp7
 70
     1
102
RTVSPropertyOp8
 70
     1
102
RTVSPropertyOp9
 70
     1
102
RTVSPropertyOp10
 70
     1
102
RTVSPropertyOp11
 70
     1
102
RTVSPropertyOp12
 70
     1
102
RTVSPropertyOp13
 70
     1
102
RTVSPropertyOp14
 70
     1
102
RTVSPropertyOp15
 70
     1
102
RTVSPropertyOp16
 70
     1
102
RTVSPropertyOp17
 70
     1
102
RTVSPropertyOp18
 70
     1
102
RTVSPropertyOp19
 70
     1
102
RTVSPropertyOp20
 70
     1
102
RTVSPropertyOp21
 70
     1
102
RTVSPropertyOp22
 70
     1
102
RTVSPropertyOp23
 70
     1
102
RTVSPropertyOp24
 70
     1
102
RTVSPropertyOp25
 70
     1
102
RTVSPropertyOp26
 70
     1
102
RTVSPropertyOp27
 70
     1
102
RTVSPropertyOp28
 70
     1
102
RTVSPropertyOp29
 70
     1
102
RTVSPropertyOp30
 70
     1
102
RTVSPropertyOp31
 70
     1
102
RTVSPropertyOp32
 70
     1
102
RTVSPropertyOp33
 70
     1
102
RTVSPropertyOp34
 70
     1
102
RTVSPropertyOp35
 70
     1
102
RTVSPropertyOp36
 70
     1
102
RTVSPropertyOp37
 70
     1
102
RTVSPropertyOp38
 70
     1
102
RTVSPropertyOp39
 70
     1
102
RTVSPropertyOp40
 70
     1
102
RTVSPropertyOp41
 70
     1
102
RTVSPropertyOp42
 70
     1
102
RTVSPropertyOp43
 70
     1
102
RTVSPropertyOp44
 70
     1
102
RTVSPropertyOp45
 70
     1
102
RTVSPropertyOp46
 70
     1
102
RTVSPropertyOp47
 70
     1
102
RTVSPropertyOp48
 70
     1
102
RTVSPropertyOp49
 70
     1
102
RTVSPropertyOp50
 70
     1
102
RTVSPropertyOp51
 70
     0
102
RTVSPropertyOp52
 70
     0
102
RTVSPropertyOp53
 70
     1
102
RTVSPropertyOp54
 70
     1
102
RTVSPropertyOp55
 70
     1
102
RTVSPropertyOp56
 70
     1
102
RTVSPropertyOp57
 70
     1
102
RTVSPropertyOp58
 70
     1
102
RTVSPropertyOp59
 70
     1
102
RTVSPropertyOp60
 70
     1
102
RTVSPropertyOp61
 70
     1
102
RTVSPropertyOp62
 70
     1
  0
XRECORD
  5
29914
102
{ACAD_REACTORS
330
29913
102
}
330
29913
100
AcDbXrecord
280
     1
102
RTVSPost2010Prop28
280
     0
102
RTVSPost2010PropOp28
 70
     1
102
RTVSPost2010Prop29
280
     1
102
RTVSPost2010PropOp29
 70
     1
102
RTVSPost2010Prop30
280
     1
102
RTVSPost2010PropOp30
 70
     1
102
RTVSPost2010Prop31
280
     0
102
RTVSPost2010PropOp31
 70
     1
102
RTVSPost2010Prop32
280
     0
102
RTVSPost2010PropOp32
 70
     1
102
RTVSPost2010Prop33
280
     0
102
RTVSPost2010PropOp33
 70
     1
102
RTVSPost2010Prop34
280
     0
102
RTVSPost2010PropOp34
 70
     1
102
RTVSPost2010Prop35
280
     0
102
RTVSPost2010PropOp35
 70
     1
102
RTVSPost2010Prop36
280
     0
102
RTVSPost2010PropOp36
 70
     1
102
RTVSPost2010Prop37
 90
       50
102
RTVSPost2010PropOp37
 70
     1
102
RTVSPost2010Prop38
140
0.0
102
RTVSPost2010PropOp38
 70
     1
102
RTVSPost2010Prop39
140
1.0
102
RTVSPost2010PropOp39
 70
     1
102
RTVSPost2010Prop40
 90
        0
102
RTVSPost2010PropOp40
 70
     1
102
RTVSPost2010Prop41ColorIndex
 90
       18
102
RTVSPost2010Prop41ColorRGB
 90
        0
102
RTVSPost2010PropOp41
 70
     1
102
RTVSPost2010Prop42
 90
       50
102
RTVSPost2010PropOp42
 70
     1
102
RTVSPost2010Prop43
 90
        3
102
RTVSPost2010PropOp43
 70
     1
102
RTVSPost2010Prop44ColorIndex
 90
        5
102
RTVSPost2010Prop44ColorRGB
 90
      255
102
RTVSPost2010PropOp44
 70
     1
102
RTVSPost2010Prop45
280
     0
102
RTVSPost2010PropOp45
 70
     1
102
RTVSPost2010Prop46
 90
       50
102
RTVSPost2010PropOp46
 70
     1
102
RTVSPost2010Prop47
 90
       50
102
RTVSPost2010PropOp47
 70
     1
102
RTVSPost2010Prop48
 90
       50
102
RTVSPost2010PropOp48
 70
     1
102
RTVSPost2010Prop49
280
     0
102
RTVSPost2010PropOp49
 70
     1
102
RTVSPost2010Prop50
 90
       50
102
RTVSPost2010PropOp50
 70
     1
102
RTVSPost2010Prop51ColorIndex
 90
      256
102
RTVSPost2010Prop51ColorRGB
 90
-16777216
102
RTVSPost2010PropOp51
 70
     0
102
RTVSPost2010Prop52
140
1.0
102
RTVSPost2010PropOp52
 70
     0
102
RTVSPost2010Prop53
 90
        2
102
RTVSPost2010PropOp53
 70
     1
102
RTVSPost2010Prop54
  1
strokes_ogs.tif
102
RTVSPost2010PropOp54
 70
     1
102
RTVSPost2010Prop55
280
     0
102
RTVSPost2010PropOp55
 70
     1
102
RTVSPost2010Prop56
140
1.0
102
RTVSPost2010PropOp56
 70
     1
102
RTVSPost2010Prop57
140
1.0
102
RTVSPost2010PropOp57
 70
     1
102
RTVSPropertyOp0
 70
     1
102
RTVSPropertyOp1
 70
     1
102
RTVSPropertyOp2
 70
     1
102
RTVSPropertyOp3
 70
     1
102
RTVSPropertyOp4
 70
     1
102
RTVSPropertyOp5
 70
     1
102
RTVSPropertyOp6
 70
     1
102
RTVSPropertyOp7
 70
     1
102
RTVSPropertyOp8
 70
     1
102
RTVSPropertyOp9
 70
     1
102
RTVSPropertyOp10
 70
     1
102
RTVSPropertyOp11
 70
     1
102
RTVSPropertyOp12
 70
     1
102
RTVSPropertyOp13
 70
     1
102
RTVSPropertyOp14
 70
     1
102
RTVSPropertyOp15
 70
     1
102
RTVSPropertyOp16
 70
     1
102
RTVSPropertyOp17
 70
     1
102
RTVSPropertyOp18
 70
     1
102
RTVSPropertyOp19
 70
     1
102
RTVSPropertyOp20
 70
     1
102
RTVSPropertyOp21
 70
     1
102
RTVSPropertyOp22
 70
     1
102
RTVSPropertyOp23
 70
     1
102
RTVSPropertyOp24
 70
     1
102
RTVSPropertyOp25
 70
     1
102
RTVSPropertyOp26
 70
     1
102
RTVSPropertyOp27
 70
     1
102
RTVSPropertyOp28
 70
     1
102
RTVSPropertyOp29
 70
     1
102
RTVSPropertyOp30
 70
     1
102
RTVSPropertyOp31
 70
     1
102
RTVSPropertyOp32
 70
     1
102
RTVSPropertyOp33
 70
     1
102
RTVSPropertyOp34
 70
     1
102
RTVSPropertyOp35
 70
     1
102
RTVSPropertyOp36
 70
     1
102
RTVSPropertyOp37
 70
     1
102
RTVSPropertyOp38
 70
     1
102
RTVSPropertyOp39
 70
     1
102
RTVSPropertyOp40
 70
     1
102
RTVSPropertyOp41
 70
     1
102
RTVSPropertyOp42
 70
     1
102
RTVSPropertyOp43
 70
     1
102
RTVSPropertyOp44
 70
     1
102
RTVSPropertyOp45
 70
     1
102
RTVSPropertyOp46
 70
     1
102
RTVSPropertyOp47
 70
     1
102
RTVSPropertyOp48
 70
     1
102
RTVSPropertyOp49
 70
     1
102
RTVSPropertyOp50
 70
     1
102
RTVSPropertyOp51
 70
     0
102
RTVSPropertyOp52
 70
     0
102
RTVSPropertyOp53
 70
     1
102
RTVSPropertyOp54
 70
     1
102
RTVSPropertyOp55
 70
     1
102
RTVSPropertyOp56
 70
     1
102
RTVSPropertyOp57
 70
     1
102
RTVSPropertyOp58
 70
     1
102
RTVSPropertyOp59
 70
     1
102
RTVSPropertyOp60
 70
     1
102
RTVSPropertyOp61
 70
     1
102
RTVSPropertyOp62
 70
     1
  0
XRECORD
  5
2992C
102
{ACAD_REACTORS
330
2992B
102
}
330
2992B
100
AcDbXrecord
280
     1
102
RTVSPost2010Prop28
280
     0
102
RTVSPost2010PropOp28
 70
     1
102
RTVSPost2010Prop29
280
     1
102
RTVSPost2010PropOp29
 70
     1
102
RTVSPost2010Prop30
280
     1
102
RTVSPost2010PropOp30
 70
     1
102
RTVSPost2010Prop31
280
     0
102
RTVSPost2010PropOp31
 70
     1
102
RTVSPost2010Prop32
280
     0
102
RTVSPost2010PropOp32
 70
     1
102
RTVSPost2010Prop33
280
     0
102
RTVSPost2010PropOp33
 70
     1
102
RTVSPost2010Prop34
280
     0
102
RTVSPost2010PropOp34
 70
     1
102
RTVSPost2010Prop35
280
     0
102
RTVSPost2010PropOp35
 70
     1
102
RTVSPost2010Prop36
280
     0
102
RTVSPost2010PropOp36
 70
     1
102
RTVSPost2010Prop37
 90
       50
102
RTVSPost2010PropOp37
 70
     1
102
RTVSPost2010Prop38
140
0.0
102
RTVSPost2010PropOp38
 70
     1
102
RTVSPost2010Prop39
140
1.0
102
RTVSPost2010PropOp39
 70
     1
102
RTVSPost2010Prop40
 90
        0
102
RTVSPost2010PropOp40
 70
     1
102
RTVSPost2010Prop41ColorIndex
 90
       18
102
RTVSPost2010Prop41ColorRGB
 90
        0
102
RTVSPost2010PropOp41
 70
     1
102
RTVSPost2010Prop42
 90
       50
102
RTVSPost2010PropOp42
 70
     1
102
RTVSPost2010Prop43
 90
        3
102
RTVSPost2010PropOp43
 70
     1
102
RTVSPost2010Prop44ColorIndex
 90
        5
102
RTVSPost2010Prop44ColorRGB
 90
      255
102
RTVSPost2010PropOp44
 70
     1
102
RTVSPost2010Prop45
280
     0
102
RTVSPost2010PropOp45
 70
     1
102
RTVSPost2010Prop46
 90
       50
102
RTVSPost2010PropOp46
 70
     1
102
RTVSPost2010Prop47
 90
       50
102
RTVSPost2010PropOp47
 70
     1
102
RTVSPost2010Prop48
 90
       50
102
RTVSPost2010PropOp48
 70
     1
102
RTVSPost2010Prop49
280
     0
102
RTVSPost2010PropOp49
 70
     1
102
RTVSPost2010Prop50
 90
       50
102
RTVSPost2010PropOp50
 70
     1
102
RTVSPost2010Prop51ColorIndex
 90
      256
102
RTVSPost2010Prop51ColorRGB
 90
-16777216
102
RTVSPost2010PropOp51
 70
     0
102
RTVSPost2010Prop52
140
1.0
102
RTVSPost2010PropOp52
 70
     0
102
RTVSPost2010Prop53
 90
        2
102
RTVSPost2010PropOp53
 70
     1
102
RTVSPost2010Prop54
  1
strokes_ogs.tif
102
RTVSPost2010PropOp54
 70
     1
102
RTVSPost2010Prop55
280
     0
102
RTVSPost2010PropOp55
 70
     1
102
RTVSPost2010Prop56
140
1.0
102
RTVSPost2010PropOp56
 70
     1
102
RTVSPost2010Prop57
140
1.0
102
RTVSPost2010PropOp57
 70
     1
102
RTVSPropertyOp0
 70
     1
102
RTVSPropertyOp1
 70
     1
102
RTVSPropertyOp2
 70
     1
102
RTVSPropertyOp3
 70
     1
102
RTVSPropertyOp4
 70
     1
102
RTVSPropertyOp5
 70
     1
102
RTVSPropertyOp6
 70
     1
102
RTVSPropertyOp7
 70
     1
102
RTVSPropertyOp8
 70
     1
102
RTVSPropertyOp9
 70
     1
102
RTVSPropertyOp10
 70
     1
102
RTVSPropertyOp11
 70
     1
102
RTVSPropertyOp12
 70
     1
102
RTVSPropertyOp13
 70
     1
102
RTVSPropertyOp14
 70
     1
102
RTVSPropertyOp15
 70
     1
102
RTVSPropertyOp16
 70
     1
102
RTVSPropertyOp17
 70
     1
102
RTVSPropertyOp18
 70
     1
102
RTVSPropertyOp19
 70
     1
102
RTVSPropertyOp20
 70
     1
102
RTVSPropertyOp21
 70
     1
102
RTVSPropertyOp22
 70
     1
102
RTVSPropertyOp23
 70
     1
102
RTVSPropertyOp24
 70
     1
102
RTVSPropertyOp25
 70
     1
102
RTVSPropertyOp26
 70
     1
102
RTVSPropertyOp27
 70
     1
102
RTVSPropertyOp28
 70
     1
102
RTVSPropertyOp29
 70
     1
102
RTVSPropertyOp30
 70
     1
102
RTVSPropertyOp31
 70
     1
102
RTVSPropertyOp32
 70
     1
102
RTVSPropertyOp33
 70
     1
102
RTVSPropertyOp34
 70
     1
102
RTVSPropertyOp35
 70
     1
102
RTVSPropertyOp36
 70
     1
102
RTVSPropertyOp37
 70
     1
102
RTVSPropertyOp38
 70
     1
102
RTVSPropertyOp39
 70
     1
102
RTVSPropertyOp40
 70
     1
102
RTVSPropertyOp41
 70
     1
102
RTVSPropertyOp42
 70
     1
102
RTVSPropertyOp43
 70
     1
102
RTVSPropertyOp44
 70
     1
102
RTVSPropertyOp45
 70
     1
102
RTVSPropertyOp46
 70
     1
102
RTVSPropertyOp47
 70
     1
102
RTVSPropertyOp48
 70
     1
102
RTVSPropertyOp49
 70
     1
102
RTVSPropertyOp50
 70
     1
102
RTVSPropertyOp51
 70
     0
102
RTVSPropertyOp52
 70
     0
102
RTVSPropertyOp53
 70
     1
102
RTVSPropertyOp54
 70
     1
102
RTVSPropertyOp55
 70
     1
102
RTVSPropertyOp56
 70
     1
102
RTVSPropertyOp57
 70
     1
102
RTVSPropertyOp58
 70
     1
102
RTVSPropertyOp59
 70
     1
102
RTVSPropertyOp60
 70
     1
102
RTVSPropertyOp61
 70
     1
102
RTVSPropertyOp62
 70
     1
  0
ENDSEC
  0
EOF
