  0
SECTION
  2
HEADER
  9
$ACADVER
  1
AC1015
  9
$ACADMAINTVER
 70
    20
  9
$DWGCODEPAGE
  3
ANSI_1252
  9
$INSBASE
 10
0.0
 20
0.0
 30
0.0
  9
$EXTMIN
 10
-64.94053477251509
 20
-39.90295294893781
 30
-0.0000000349181948
  9
$EXTMAX
 10
74.99156297695776
 20
56.81030349900288
 30
0.0000000814935747
  9
$LIMMIN
 10
-170.0
 20
-170.0
  9
$LIMMAX
 10
519.0
 20
260.0
  9
$ORTHOMODE
 70
     0
  9
$REGENMODE
 70
     1
  9
$FILLMODE
 70
     1
  9
$QTEXTMODE
 70
     0
  9
$MIRRTEXT
 70
     0
  9
$LTSCALE
 40
1.0
  9
$ATTMODE
 70
     1
  9
$TEXTSIZE
 40
3.5
  9
$TRACEWID
 40
1.0
  9
$TEXTSTYLE
  7
MM_STANDARD
  9
$CLAYER
  8
0
  9
$CELTYPE
  6
ByLayer
  9
$CECOLOR
 62
   256
  9
$CELTSCALE
 40
1.0
  9
$DISPSILH
 70
     0
  9
$DIMSCALE
 40
1.0
  9
$DIMASZ
 40
2.5
  9
$DIMEXO
 40
0.0
  9
$DIMDLI
 40
3.75
  9
$DIMRND
 40
0.0
  9
$DIMDLE
 40
0.0
  9
$DIMEXE
 40
1.25
  9
$DIMTP
 40
0.0
  9
$DIMTM
 40
0.0
  9
$DIMTXT
 40
3.5
  9
$DIMCEN
 40
0.0
  9
$DIMTSZ
 40
0.0
  9
$DIMTOL
 70
     0
  9
$DIMLIM
 70
     0
  9
$DIMTIH
 70
     0
  9
$DIMTOH
 70
     0
  9
$DIMSE1
 70
     0
  9
$DIMSE2
 70
     0
  9
$DIMTAD
 70
     1
  9
$DIMZIN
 70
     9
  9
$DIMBLK
  1

  9
$DIMASO
 70
     1
  9
$DIMSHO
 70
     1
  9
$DIMPOST
  1

  9
$DIMAPOST
  1

  9
$DIMALT
 70
     0
  9
$DIMALTD
 70
     3
  9
$DIMALTF
 40
0.039370078
  9
$DIMLFAC
 40
1.0
  9
$DIMTOFL
 70
     0
  9
$DIMTVP
 40
0.0
  9
$DIMTIX
 70
     0
  9
$DIMSOXD
 70
     0
  9
$DIMSAH
 70
     0
  9
$DIMBLK1
  1

  9
$DIMBLK2
  1

  9
$DIMSTYLE
  2
MM_STANDARD
  9
$DIMCLRD
 70
   256
  9
$DIMCLRE
 70
   256
  9
$DIMCLRT
 70
   256
  9
$DIMTFAC
 40
1.0
  9
$DIMGAP
 40
0.625
  9
$DIMJUST
 70
     0
  9
$DIMSD1
 70
     0
  9
$DIMSD2
 70
     0
  9
$DIMTOLJ
 70
     1
  9
$DIMTZIN
 70
     8
  9
$DIMALTZ
 70
     0
  9
$DIMALTTZ
 70
     0
  9
$DIMUPT
 70
     0
  9
$DIMDEC
 70
     2
  9
$DIMTDEC
 70
     2
  9
$DIMALTU
 70
     2
  9
$DIMALTTD
 70
     3
  9
$DIMTXSTY
  7
MM_STANDARD
  9
$DIMAUNIT
 70
     0
  9
$DIMADEC
 70
     2
  9
$DIMALTRND
 40
0.0
  9
$DIMAZIN
 70
     2
  9
$DIMDSEP
 70
    46
  9
$DIMATFIT
 70
     3
  9
$DIMFRAC
 70
     0
  9
$DIMLDRBLK
  1

  9
$DIMLUNIT
 70
     2
  9
$DIMLWD
 70
    -1
  9
$DIMLWE
 70
    -1
  9
$DIMTMOVE
 70
     0
  9
$LUNITS
 70
     2
  9
$LUPREC
 70
     4
  9
$SKETCHINC
 40
1.0
  9
$FILLETRAD
 40
0.8
  9
$AUNITS
 70
     0
  9
$AUPREC
 70
     0
  9
$MENU
  1
.
  9
$ELEVATION
 40
0.0
  9
$PELEVATION
 40
0.0
  9
$THICKNESS
 40
0.0
  9
$LIMCHECK
 70
     0
  9
$CHAMFERA
 40
0.0
  9
$CHAMFERB
 40
0.0
  9
$CHAMFERC
 40
0.0
  9
$CHAMFERD
 40
0.0
  9
$SKPOLY
 70
     0
  9
$TDCREATE
 40
2453353.800459155
  9
$TDUCREATE
 40
2453353.717125822
  9
$TDUPDATE
 40
2460185.646228403
  9
$TDUUPDATE
 40
2460185.562895070
  9
$TDINDWG
 40
8192.7355221875
  9
$TDUSRTIMER
 40
8192.7354510417
  9
$USRTIMER
 70
     1
  9
$ANGBASE
 50
0.0
  9
$ANGDIR
 70
     0
  9
$PDMODE
 70
     1
  9
$PDSIZE
 40
0.0
  9
$PLINEWID
 40
0.0
  9
$SPLFRAME
 70
     0
  9
$SPLINETYPE
 70
     6
  9
$SPLINESEGS
 70
     8
  9
$HANDSEED
  5
2A813
  9
$SURFTAB1
 70
     6
  9
$SURFTAB2
 70
     6
  9
$SURFTYPE
 70
     6
  9
$SURFU
 70
     6
  9
$SURFV
 70
     6
  9
$UCSBASE
  2

  9
$UCSNAME
  2

  9
$UCSORG
 10
0.0
 20
0.0
 30
0.0
  9
$UCSXDIR
 10
1.0
 20
0.0
 30
0.0
  9
$UCSYDIR
 10
0.0
 20
1.0
 30
0.0
  9
$UCSORTHOREF
  2

  9
$UCSORTHOVIEW
 70
     0
  9
$UCSORGTOP
 10
0.0
 20
0.0
 30
0.0
  9
$UCSORGBOTTOM
 10
0.0
 20
0.0
 30
0.0
  9
$UCSORGLEFT
 10
0.0
 20
0.0
 30
0.0
  9
$UCSORGRIGHT
 10
0.0
 20
0.0
 30
0.0
  9
$UCSORGFRONT
 10
0.0
 20
0.0
 30
0.0
  9
$UCSORGBACK
 10
0.0
 20
0.0
 30
0.0
  9
$PUCSBASE
  2

  9
$PUCSNAME
  2

  9
$PUCSORG
 10
0.0
 20
0.0
 30
0.0
  9
$PUCSXDIR
 10
1.0
 20
0.0
 30
0.0
  9
$PUCSYDIR
 10
0.0
 20
1.0
 30
0.0
  9
$PUCSORTHOREF
  2

  9
$PUCSORTHOVIEW
 70
     0
  9
$PUCSORGTOP
 10
0.0
 20
0.0
 30
0.0
  9
$PUCSORGBOTTOM
 10
0.0
 20
0.0
 30
0.0
  9
$PUCSORGLEFT
 10
0.0
 20
0.0
 30
0.0
  9
$PUCSORGRIGHT
 10
0.0
 20
0.0
 30
0.0
  9
$PUCSORGFRONT
 10
0.0
 20
0.0
 30
0.0
  9
$PUCSORGBACK
 10
0.0
 20
0.0
 30
0.0
  9
$USERI1
 70
     0
  9
$USERI2
 70
     0
  9
$USERI3
 70
     0
  9
$USERI4
 70
     0
  9
$USERI5
 70
     0
  9
$USERR1
 40
0.0
  9
$USERR2
 40
0.0
  9
$USERR3
 40
0.0
  9
$USERR4
 40
0.0
  9
$USERR5
 40
0.0
  9
$WORLDVIEW
 70
     1
  9
$SHADEDGE
 70
     3
  9
$SHADEDIF
 70
    70
  9
$TILEMODE
 70
     1
  9
$MAXACTVP
 70
    64
  9
$PINSBASE
 10
0.0
 20
0.0
 30
0.0
  9
$PLIMCHECK
 70
     0
  9
$PEXTMIN
 10
0.0
 20
0.0
 30
0.0
  9
$PEXTMAX
 10
0.0
 20
0.0
 30
0.0
  9
$PLIMMIN
 10
0.0
 20
0.0
  9
$PLIMMAX
 10
12.0
 20
9.0
  9
$UNITMODE
 70
     0
  9
$VISRETAIN
 70
     0
  9
$PLINEGEN
 70
     0
  9
$PSLTSCALE
 70
     1
  9
$TREEDEPTH
 70
  3020
  9
$CMLSTYLE
  2
Standard
  9
$CMLJUST
 70
     0
  9
$CMLSCALE
 40
20.0
  9
$PROXYGRAPHICS
 70
     0
  9
$MEASUREMENT
 70
     1
  9
$CELWEIGHT
370
    -1
  9
$ENDCAPS
280
     0
  9
$JOINSTYLE
280
     0
  9
$LWDISPLAY
290
     0
  9
$INSUNITS
 70
     4
  9
$HYPERLINKBASE
  1

  9
$STYLESHEET
  1

  9
$XEDIT
290
     1
  9
$CEPSNTYPE
380
     0
  9
$PSTYLEMODE
290
     1
  9
$FINGERPRINTGUID
  2
{049C219F-BC74-4B97-8A86-7E4B06A8BFF9}
  9
$VERSIONGUID
  2
{FE18F47E-E369-4919-885A-62425AC27217}
  9
$EXTNAMES
290
     1
  9
$PSVPSCALE
 40
0.0
  9
$OLESTARTUP
290
     0
  0
ENDSEC
  0
SECTION
  2
CLASSES
  0
CLASS
  1
ACDBDICTIONARYWDFLT
  2
AcDbDictionaryWithDefault
  3
ObjectDBX Classes
 90
        0
280
     0
281
     0
  0
CLASS
  1
ACDBPLACEHOLDER
  2
AcDbPlaceHolder
  3
ObjectDBX Classes
 90
        0
280
     0
281
     0
  0
CLASS
  1
LAYOUT
  2
AcDbLayout
  3
ObjectDBX Classes
 90
        0
280
     0
281
     0
  0
CLASS
  1
DICTIONARYVAR
  2
AcDbDictionaryVar
  3
ObjectDBX Classes
 90
        0
280
     0
281
     0
  0
CLASS
  1
TABLESTYLE
  2
AcDbTableStyle
  3
ObjectDBX Classes
 90
     4095
280
     0
281
     0
  0
CLASS
  1
SCALE
  2
AcDbScale
  3
ObjectDBX Classes
 90
     1153
280
     0
281
     0
  0
CLASS
  1
RASTERVARIABLES
  2
AcDbRasterVariables
  3
ISM
 90
        0
280
     0
281
     0
  0
CLASS
  1
SORTENTSTABLE
  2
AcDbSortentsTable
  3
ObjectDBX Classes
 90
        0
280
     0
281
     0
  0
CLASS
  1
MATERIAL
  2
AcDbMaterial
  3
ObjectDBX Classes
 90
     1153
280
     0
281
     0
  0
CLASS
  1
VISUALSTYLE
  2
AcDbVisualStyle
  3
ObjectDBX Classes
 90
     4095
280
     0
281
     0
  0
CLASS
  1
MLEADERSTYLE
  2
AcDbMLeaderStyle
  3
ACDB_MLEADERSTYLE_CLASS
 90
     4095
280
     0
281
     0
  0
CLASS
  1
ACDBSECTIONVIEWSTYLE
  2
AcDbSectionViewStyle
  3
ObjectDBX Classes
 90
     1025
280
     0
281
     0
  0
CLASS
  1
ACDBDETAILVIEWSTYLE
  2
AcDbDetailViewStyle
  3
ObjectDBX Classes
 90
     1025
280
     0
281
     0
  0
CLASS
  1
CELLSTYLEMAP
  2
AcDbCellStyleMap
  3
ObjectDBX Classes
 90
     1152
280
     0
281
     0
  0
ENDSEC
  0
SECTION
  2
TABLES
  0
TABLE
  2
VPORT
  5
8
330
0
100
AcDbSymbolTable
 70
     1
  0
VPORT
  5
97
330
8
100
AcDbSymbolTableRecord
100
AcDbViewportTableRecord
  2
*Active
 70
     0
 10
0.0
 20
0.0
 11
1.0
 21
1.0
 12
5.025514102221337
 22
8.453675275032537
 13
0.0
 23
0.0
 14
5.0
 24
5.0
 15
5.0
 25
5.0
 16
0.0
 26
0.0
 36
1.0
 17
0.0
 27
0.0
 37
0.0
 40
97.37643306358371
 41
1.597254004576659
 42
50.0
 43
0.0
 44
0.0
 50
0.0
 51
0.0
 71
    16
 72
  2000
 73
     1
 74
     3
 75
     0
 76
     0
 77
     0
 78
     0
281
     0
 65
     1
110
0.0
120
0.0
130
0.0
111
1.0
121
0.0
131
0.0
112
0.0
122
1.0
132
0.0
 79
     0
146
0.0
1001
ACAD_NAV_VCDISPLAY
1070
     3
  0
ENDTAB
  0
TABLE
  2
LTYPE
  5
5
330
0
100
AcDbSymbolTable
 70
     5
  0
LTYPE
  5
14
330
5
100
AcDbSymbolTableRecord
100
AcDbLinetypeTableRecord
  2
ByBlock
 70
     0
  3

 72
    65
 73
     0
 40
0.0
  0
LTYPE
  5
15
330
5
100
AcDbSymbolTableRecord
100
AcDbLinetypeTableRecord
  2
ByLayer
 70
     0
  3

 72
    65
 73
     0
 40
0.0
  0
LTYPE
  5
16
330
5
100
AcDbSymbolTableRecord
100
AcDbLinetypeTableRecord
  2
Continuous
 70
     0
  3
Solid line
 72
    65
 73
     0
 40
0.0
  0
LTYPE
  5
2A6DD
330
5
100
AcDbSymbolTableRecord
100
AcDbLinetypeTableRecord
  2
CENTER2
 70
     0
  3
Center (.5x) ___ _ ___ _ ___ _ ___ _ ___ _ ___
 72
    65
 73
     4
 40
28.57499999999999
 49
19.05
 74
     4
 75
     0
340
0
 46
1.0
 50
0.0
 44
0.0
 45
0.0
 49
-3.174999999999998
 74
     4
 75
     0
340
0
 46
1.0
 50
0.0
 44
0.0
 45
0.0
 49
3.174999999999998
 74
     4
 75
     0
340
0
 46
1.0
 50
0.0
 44
0.0
 45
0.0
 49
-3.174999999999998
 74
     4
 75
     0
340
0
 46
1.0
 50
0.0
 44
0.0
 45
0.0
  0
LTYPE
  5
2A6DE
330
5
100
AcDbSymbolTableRecord
100
AcDbLinetypeTableRecord
  2
HIDDEN
 70
     0
  3
Hidden __ __ __ __ __ __ __ __ __ __ __ __ __ _
 72
    65
 73
     2
 40
9.524999999999996
 49
6.349999999999997
 74
     4
 75
     0
340
0
 46
1.0
 50
0.0
 44
0.0
 45
0.0
 49
-3.174999999999998
 74
     4
 75
     0
340
0
 46
1.0
 50
0.0
 44
0.0
 45
0.0
  0
ENDTAB
  0
TABLE
  2
LAYER
  5
2
102
{ACAD_XDICTIONARY
360
2A6EA
102
}
330
0
100
AcDbSymbolTable
 70
    13
  0
LAYER
  5
10
102
{ACAD_XDICTIONARY
360
2A6E1
102
}
330
2
100
AcDbSymbolTableRecord
100
AcDbLayerTableRecord
  2
0
 70
     0
 62
     7
  6
Continuous
370
    -3
390
F
  0
LAYER
  5
23
102
{ACAD_XDICTIONARY
360
2A6E2
102
}
330
2
100
AcDbSymbolTableRecord
100
AcDbLayerTableRecord
  2
1
 70
     0
 62
     4
  6
Continuous
370
    50
390
F
  0
LAYER
  5
25
102
{ACAD_XDICTIONARY
360
2A6E3
102
}
330
2
100
AcDbSymbolTableRecord
100
AcDbLayerTableRecord
  2
2
 70
     0
 62
     7
  6
Continuous
370
    25
390
F
  0
LAYER
  5
173A
102
{ACAD_XDICTIONARY
360
2A6E4
102
}
330
2
100
AcDbSymbolTableRecord
100
AcDbLayerTableRecord
  2
SK2
 70
     0
 62
     7
  6
Continuous
370
    25
390
F
  0
LAYER
  5
2A
102
{ACAD_XDICTIONARY
360
2A6E5
102
}
330
2
100
AcDbSymbolTableRecord
100
AcDbLayerTableRecord
  2
4
 70
     0
 62
     2
  6
CENTER2
370
    25
390
F
  0
LAYER
  5
2E
102
{ACAD_XDICTIONARY
360
2A6E6
102
}
330
2
100
AcDbSymbolTableRecord
100
AcDbLayerTableRecord
  2
SK6
 70
     0
 62
     5
  6
Continuous
370
    -3
390
F
  0
LAYER
  5
2F
330
2
100
AcDbSymbolTableRecord
100
AcDbLayerTableRecord
  2
DEFPOINTS
 70
     0
 62
     7
  6
Continuous
290
     0
370
    25
390
F
  0
LAYER
  5
375
102
{ACAD_XDICTIONARY
360
2A6E7
102
}
330
2
100
AcDbSymbolTableRecord
100
AcDbLayerTableRecord
  2
CUT
 70
     0
 62
     1
  6
Continuous
370
    25
390
F
  0
LAYER
  5
376
102
{ACAD_XDICTIONARY
360
2A6E8
102
}
330
2
100
AcDbSymbolTableRecord
100
AcDbLayerTableRecord
  2
NOCUT
 70
     0
 62
     7
  6
Continuous
370
    -3
390
F
  0
LAYER
  5
49B
102
{ACAD_XDICTIONARY
360
2A6E9
102
}
330
2
100
AcDbSymbolTableRecord
100
AcDbLayerTableRecord
  2
INFTOTAL
 70
     0
 62
     9
  6
Continuous
370
    18
390
F
1001
AcAecLayerStandard
1000

1000

  0
LAYER
  5
1D28
330
2
100
AcDbSymbolTableRecord
100
AcDbLayerTableRecord
  2
SK4
 70
     0
 62
     2
  6
CENTER2
370
    25
390
F
  0
LAYER
  5
8BCD
330
2
100
AcDbSymbolTableRecord
100
AcDbLayerTableRecord
  2
SK1
 70
     0
 62
     4
  6
Continuous
370
    50
390
F
  0
LAYER
  5
14429
330
2
100
AcDbSymbolTableRecord
100
AcDbLayerTableRecord
  2
SK3
 70
     0
 62
     1
  6
HIDDEN
370
    35
390
F
  0
ENDTAB
  0
TABLE
  2
STYLE
  5
3
330
0
100
AcDbSymbolTable
 70
     2
  0
STYLE
  5
11
330
3
100
AcDbSymbolTableRecord
100
AcDbTextStyleTableRecord
  2
Standard
 70
     0
 40
0.0
 41
1.0
 50
0.0
 71
     0
 42
5.0
  3
monos.ttf
  4

1001
ACAD
1000
Monospac821 BT
1071
       49
  0
STYLE
  5
8B9
330
3
100
AcDbSymbolTableRecord
100
AcDbTextStyleTableRecord
  2
MM_STANDARD
 70
     0
 40
3.5
 41
1.0
 50
0.0
 71
     0
 42
3.5
  3
monos.ttf
  4

1001
ACAD
1000
Monospac821 BT
1071
       49
  0
ENDTAB
  0
TABLE
  2
VIEW
  5
6
330
0
100
AcDbSymbolTable
 70
     0
  0
ENDTAB
  0
TABLE
  2
UCS
  5
7
330
0
100
AcDbSymbolTable
 70
     0
  0
ENDTAB
  0
TABLE
  2
APPID
  5
9
330
0
100
AcDbSymbolTable
 70
    25
  0
APPID
  5
12
330
9
100
AcDbSymbolTableRecord
100
AcDbRegAppTableRecord
  2
ACAD
 70
     0
  0
APPID
  5
2A6C5
330
9
100
AcDbSymbolTableRecord
100
AcDbRegAppTableRecord
  2
ACAD_PSEXT
 70
     0
  0
APPID
  5
2A6C6
330
9
100
AcDbSymbolTableRecord
100
AcDbRegAppTableRecord
  2
ACAD_EXEMPT_FROM_CAD_STANDARDS
 70
     0
  0
APPID
  5
2A6C7
330
9
100
AcDbSymbolTableRecord
100
AcDbRegAppTableRecord
  2
ACAD_MLEADERVER
 70
     0
  0
APPID
  5
2A6C8
330
9
100
AcDbSymbolTableRecord
100
AcDbRegAppTableRecord
  2
ACAD_DSTYLE_DIMJAG
 70
     0
  0
APPID
  5
2A6C9
330
9
100
AcDbSymbolTableRecord
100
AcDbRegAppTableRecord
  2
ACAD_DSTYLE_DIMBREAK
 70
     0
  0
APPID
  5
2A6CA
330
9
100
AcDbSymbolTableRecord
100
AcDbRegAppTableRecord
  2
ACAD_DSTYLE_DIMTALN
 70
     0
  0
APPID
  5
2A6CB
330
9
100
AcDbSymbolTableRecord
100
AcDbRegAppTableRecord
  2
AcAecLayerStandard
 70
     0
  0
APPID
  5
2A6CC
330
9
100
AcDbSymbolTableRecord
100
AcDbRegAppTableRecord
  2
DCO15
 70
     0
  0
APPID
  5
2A6CD
330
9
100
AcDbSymbolTableRecord
100
AcDbRegAppTableRecord
  2
AcadAnnoPO
 70
     0
  0
APPID
  5
2A6CE
330
9
100
AcDbSymbolTableRecord
100
AcDbRegAppTableRecord
  2
ACAD_DSTYLE_DIMRADIAL_EXTENSION
 70
     0
  0
APPID
  5
2A6CF
330
9
100
AcDbSymbolTableRecord
100
AcDbRegAppTableRecord
  2
AcadAnnotative
 70
     0
  0
APPID
  5
2A6D0
330
9
100
AcDbSymbolTableRecord
100
AcDbRegAppTableRecord
  2
AcDbDynamicBlockGUID
 70
     0
  0
APPID
  5
2A6D1
330
9
100
AcDbSymbolTableRecord
100
AcDbRegAppTableRecord
  2
AcDbBlockRepETag
 70
     0
  0
APPID
  5
2A6D2
330
9
100
AcDbSymbolTableRecord
100
AcDbRegAppTableRecord
  2
MCAD_NO_VIS
 70
     0
  0
APPID
  5
2A6D3
330
9
100
AcDbSymbolTableRecord
100
AcDbRegAppTableRecord
  2
ACAD_TEMP_GRAPHIC
 70
     0
  0
APPID
  5
2A6D4
330
9
100
AcDbSymbolTableRecord
100
AcDbRegAppTableRecord
  2
ACATTRIBSERVICES
 70
     0
  0
APPID
  5
2A6D5
330
9
100
AcDbSymbolTableRecord
100
AcDbRegAppTableRecord
  2
DESIGNERASSEMBLIES
 70
     0
  0
APPID
  5
2A6D6
330
9
100
AcDbSymbolTableRecord
100
AcDbRegAppTableRecord
  2
ACAD_NAV_VCDISPLAY
 70
     0
  0
APPID
  5
2A6D7
330
9
100
AcDbSymbolTableRecord
100
AcDbRegAppTableRecord
  2
ACAD_DSTYLE_DIM_LINETYPE
 70
     0
  0
APPID
  5
2A6D8
330
9
100
AcDbSymbolTableRecord
100
AcDbRegAppTableRecord
  2
ACAD_DSTYLE_DIM_EXT1_LINETYPE
 70
     0
  0
APPID
  5
2A6D9
330
9
100
AcDbSymbolTableRecord
100
AcDbRegAppTableRecord
  2
ACAD_DSTYLE_DIM_EXT2_LINETYPE
 70
     0
  0
APPID
  5
2A6DA
330
9
100
AcDbSymbolTableRecord
100
AcDbRegAppTableRecord
  2
ACAD_DSTYLE_DIMARC_LENGTH_SYMBOL
 70
     0
  0
APPID
  5
2A6DB
330
9
100
AcDbSymbolTableRecord
100
AcDbRegAppTableRecord
  2
AcDbAttr
 70
     0
  0
APPID
  5
2A6DC
330
9
100
AcDbSymbolTableRecord
100
AcDbRegAppTableRecord
  2
AcadAnnoMonitorAlertIconDisabled
 70
     0
  0
ENDTAB
  0
TABLE
  2
DIMSTYLE
  5
A
330
0
100
AcDbSymbolTable
 70
     2
100
AcDbDimStyleTable
 71
     0
  0
DIMSTYLE
105
27
330
A
100
AcDbSymbolTableRecord
100
AcDbDimStyleTableRecord
  2
Standard
 70
     0
 77
     1
276
     1
278
     0
340
11
  0
DIMSTYLE
105
3F
102
{ACAD_REACTORS
330
295B9
330
295EE
330
297FC
330
29D23
330
29DB7
330
29F17
330
2A63A
102
}
330
A
100
AcDbSymbolTableRecord
100
AcDbDimStyleTableRecord
  2
MM_STANDARD
 70
     0
 41
2.5
 42
0.0
 43
3.75
 44
1.25
 73
     0
 74
     0
 77
     1
 78
     1
140
3.5
141
0.0
143
0.039370078
147
0.625
171
     3
176
   256
177
   256
178
   256
179
     2
271
     2
272
     2
274
     3
284
     8
340
8B9
371
    -1
372
    -1
1001
ACAD_DSTYLE_DIMJAG
1070
   388
1040
1.5
1001
ACAD_DSTYLE_DIMTALN
1070
   392
1070
     0
  0
ENDTAB
  0
TABLE
  2
BLOCK_RECORD
  5
1
330
0
100
AcDbSymbolTable
 70
    25
  0
BLOCK_RECORD
  5
1F
102
{ACAD_XDICTIONARY
360
2A71E
102
}
330
1
100
AcDbSymbolTableRecord
100
AcDbBlockTableRecord
  2
*Model_Space
340
22
  0
BLOCK_RECORD
  5
73
330
1
100
AcDbSymbolTableRecord
100
AcDbBlockTableRecord
  2
*Paper_Space
340
74
  0
BLOCK_RECORD
  5
962
330
1
100
AcDbSymbolTableRecord
100
AcDbBlockTableRecord
  2
CERO_POINT
340
0
102
{BLKREFS
331
29243
102
}
1001
ACAD
1000
DesignCenter Data
1002
{
1070
     1
1070
     4
1002
}
  0
BLOCK_RECORD
  5
295C5
330
1
100
AcDbSymbolTableRecord
100
AcDbBlockTableRecord
  2
*D2
340
0
  0
BLOCK_RECORD
  5
295FA
330
1
100
AcDbSymbolTableRecord
100
AcDbBlockTableRecord
  2
*D4
340
0
  0
BLOCK_RECORD
  5
2980B
330
1
100
AcDbSymbolTableRecord
100
AcDbBlockTableRecord
  2
*D5
340
0
  0
BLOCK_RECORD
  5
29D2E
330
1
100
AcDbSymbolTableRecord
100
AcDbBlockTableRecord
  2
*D7
340
0
  0
BLOCK_RECORD
  5
29DC2
330
1
100
AcDbSymbolTableRecord
100
AcDbBlockTableRecord
  2
*D8
340
0
  0
BLOCK_RECORD
  5
29F22
330
1
100
AcDbSymbolTableRecord
100
AcDbBlockTableRecord
  2
*D9
340
0
  0
BLOCK_RECORD
  5
2A645
330
1
100
AcDbSymbolTableRecord
100
AcDbBlockTableRecord
  2
*D24
340
0
  0
ENDTAB
  0
ENDSEC
  0
SECTION
  2
BLOCKS
  0
BLOCK
  5
20
330
1F
100
AcDbEntity
  8
0
100
AcDbBlockBegin
  2
*Model_Space
 70
     0
 10
0.0
 20
0.0
 30
0.0
  3
*Model_Space
  1

  0
ENDBLK
  5
21
330
1F
100
AcDbEntity
  8
0
100
AcDbBlockEnd
  0
BLOCK
  5
75
330
73
100
AcDbEntity
 67
     1
  8
0
100
AcDbBlockBegin
  2
*Paper_Space
 70
     0
 10
0.0
 20
0.0
 30
0.0
  3
*Paper_Space
  1

  0
ENDBLK
  5
76
330
73
100
AcDbEntity
 67
     1
  8
0
100
AcDbBlockEnd
  0
BLOCK
  5
2A6EB
330
962
100
AcDbEntity
  8
0
100
AcDbBlockBegin
  2
CERO_POINT
 70
     0
 10
0.0
 20
0.0
 30
0.0
  3
CERO_POINT
  1

  0
CIRCLE
  5
964
102
{ACAD_REACTORS
330
969
102
}
330
962
100
AcDbEntity
  8
SK2
100
AcDbCircle
 10
0.0
 20
0.0
 30
0.0
 40
2.5
  0
LINE
  5
965
330
962
100
AcDbEntity
  8
SK2
100
AcDbLine
 10
0.0900000000037835
 20
0.0
 30
0.0
 11
-0.0899999999965076
 21
0.0
 31
0.0
  0
LINE
  5
966
330
962
100
AcDbEntity
  8
SK2
100
AcDbLine
 10
0.0
 20
0.0899999999999182
 30
0.0
 11
0.0
 21
-0.0899999999999182
 31
0.0
  0
LINE
  5
967
102
{ACAD_REACTORS
330
969
102
}
330
962
100
AcDbEntity
  8
SK2
100
AcDbLine
 10
0.0
 20
-2.5
 30
0.0
 11
0.0
 21
2.5
 31
0.0
  0
LINE
  5
968
102
{ACAD_REACTORS
330
969
102
}
330
962
100
AcDbEntity
  8
SK2
100
AcDbLine
 10
2.5
 20
0.0
 30
0.0
 11
-2.5
 21
0.0
 31
0.0
  0
HATCH
  5
969
330
962
100
AcDbEntity
  8
SK2
100
AcDbHatch
 10
0.0
 20
0.0
 30
0.0
210
0.0
220
0.0
230
1.0
  2
ANSI31
 70
     0
 71
     1
 91
        2
 92
        7
 72
     1
 73
     1
 93
        3
 10
0.0
 20
-2.5
 42
0.4142135623730951
 10
2.5
 20
0.0
 42
0.0
 10
0.0
 20
0.0
 42
0.0
 97
        3
330
964
330
968
330
967
 92
        7
 72
     1
 73
     1
 93
        3
 10
0.0
 20
0.0
 42
0.0
 10
0.0
 20
2.5
 42
0.4142135623730951
 10
-2.5
 20
0.0
 42
0.0
 97
        3
330
968
330
967
330
964
 75
     0
 76
     1
 52
180.0
 41
0.1
 77
     0
 78
     1
 53
225.0
 43
5.170976743218488
 44
0.0
 45
0.2245064030267288
 46
-0.2245064030267289
 79
     0
 47
0.0243816376539857
 98
        2
 10
0.8789156907296272
 20
-1.044463114528752
 10
-0.8545028512526187
 20
0.7841600866017872
1001
ACAD
1010
0.0
1020
0.0
1030
0.0
  0
ENDBLK
  5
2A6EC
330
962
100
AcDbEntity
  8
0
100
AcDbBlockEnd
  0
BLOCK
  5
2A6EF
330
295C5
100
AcDbEntity
  8
0
100
AcDbBlockBegin
  2
*D2
 70
     1
 10
0.0
 20
0.0
 30
0.0
  3
*D2
  1

  0
POINT
  5
29AF8
330
295C5
100
AcDbEntity
  8
DEFPOINTS
  6
ByBlock
100
AcDbPoint
 10
-21.99999999999999
 20
-6.0
 30
0.0
  0
POINT
  5
29AF9
330
295C5
100
AcDbEntity
  8
DEFPOINTS
  6
ByBlock
100
AcDbPoint
 10
-21.99999999999999
 20
6.0
 30
0.0
  0
LINE
  5
29AFA
330
295C5
100
AcDbEntity
  8
SK2
  6
ByBlock
100
AcDbLine
 10
-21.99999999999999
 20
-6.0
 30
0.0
 11
-40.79507099999999
 21
-6.0
 31
0.0
  0
LINE
  5
29AFB
330
295C5
100
AcDbEntity
  8
SK2
  6
ByBlock
100
AcDbLine
 10
-21.99999999999999
 20
6.0
 30
0.0
 11
-40.79507099999999
 21
6.0
 31
0.0
  0
LINE
  5
29AFC
330
295C5
100
AcDbEntity
  8
SK2
  6
ByBlock
100
AcDbLine
 10
-39.54507099999999
 20
-6.0
 30
0.0
 11
-39.54507099999999
 21
6.0
 31
0.0
  0
SOLID
  5
29AFD
330
295C5
100
AcDbEntity
  8
SK2
  6
ByBlock
100
AcDbTrace
 10
-39.54507099999999
 20
-6.0
 30
0.0
 11
-39.12840433333324
 21
-3.5
 31
0.0
 12
-39.96173766666674
 22
-3.5
 32
0.0
 13
-39.96173766666674
 23
-3.5
 33
0.0
  0
SOLID
  5
29AFE
330
295C5
100
AcDbEntity
  8
SK2
  6
ByBlock
100
AcDbTrace
 10
-39.54507099999999
 20
6.0
 30
0.0
 11
-39.12840433333324
 21
3.5
 31
0.0
 12
-39.96173766666674
 22
3.5
 32
0.0
 13
-39.96173766666674
 23
3.5
 33
0.0
  0
LINE
  5
29AFF
330
295C5
100
AcDbEntity
  8
SK2
  6
ByBlock
100
AcDbLine
 10
-21.99999999999999
 20
-6.0
 30
0.0
 11
-21.99999999999999
 21
-6.0
 31
0.0
  0
MTEXT
  5
29B00
330
295C5
100
AcDbEntity
  8
SK2
  6
ByBlock
100
AcDbMText
 10
-41.9422073316936
 20
0.0
 30
0.0
 40
3.5
 41
0.0
 71
     5
 72
     1
  1
M12
  7
MM_STANDARD
 11
0.0000000000000001
 21
1.0
 31
0.0
 73
     1
 44
1.0
1001
ACAD
1000
MTEXTBEGIN
1070
    73
1070
     1
1070
    44
1040
1.0
1070
    74
1070
     0
1000
MTEXTEND
  0
ENDBLK
  5
2A6F0
330
295C5
100
AcDbEntity
  8
0
100
AcDbBlockEnd
  0
BLOCK
  5
2A6F3
330
295FA
100
AcDbEntity
  8
0
100
AcDbBlockBegin
  2
*D4
 70
     1
 10
0.0
 20
0.0
 30
0.0
  3
*D4
  1

  0
POINT
  5
29E45
330
295FA
100
AcDbEntity
  8
DEFPOINTS
  6
ByBlock
100
AcDbPoint
 10
23.24357400000002
 20
12.63968199999999
 30
0.0
  0
POINT
  5
29E46
330
295FA
100
AcDbEntity
  8
DEFPOINTS
  6
ByBlock
100
AcDbPoint
 10
34.94357400000001
 20
12.63968199999999
 30
0.0
  0
LINE
  5
29E47
330
295FA
100
AcDbEntity
  8
2
  6
ByBlock
100
AcDbLine
 10
23.24357400000002
 20
12.63968199999999
 30
0.0
 11
23.24357400000002
 21
31.59993299999999
 31
0.0
  0
LINE
  5
29E48
330
295FA
100
AcDbEntity
  8
2
  6
ByBlock
100
AcDbLine
 10
34.94357400000001
 20
12.63968199999999
 30
0.0
 11
34.94357400000001
 21
31.59993299999999
 31
0.0
  0
LINE
  5
29E49
330
295FA
100
AcDbEntity
  8
2
  6
ByBlock
100
AcDbLine
 10
23.24357400000002
 20
30.34993299999999
 30
0.0
 11
34.94357400000001
 21
30.34993299999999
 31
0.0
  0
SOLID
  5
29E4A
330
295FA
100
AcDbEntity
  8
2
  6
ByBlock
100
AcDbTrace
 10
23.24357400000002
 20
30.34993299999999
 30
0.0
 11
25.74357400000002
 21
29.93326633333324
 31
0.0
 12
25.74357400000002
 22
30.76659966666674
 32
0.0
 13
25.74357400000002
 23
30.76659966666674
 33
0.0
  0
LINE
  5
29E4B
330
295FA
100
AcDbEntity
  8
2
  6
ByBlock
100
AcDbLine
 10
23.24357400000002
 20
30.34993299999999
 30
0.0
 11
7.660474913562922
 21
30.34993299999999
 31
0.0
  0
SOLID
  5
29E4C
330
295FA
100
AcDbEntity
  8
2
  6
ByBlock
100
AcDbTrace
 10
34.94357400000001
 20
30.34993299999999
 30
0.0
 11
32.44357400000001
 21
29.93326633333324
 31
0.0
 12
32.44357400000001
 22
30.76659966666674
 32
0.0
 13
32.44357400000001
 23
30.76659966666674
 33
0.0
  0
LINE
  5
29E4D
330
295FA
100
AcDbEntity
  8
2
  6
ByBlock
100
AcDbLine
 10
23.24357400000002
 20
12.63968199999999
 30
0.0
 11
23.24357400000002
 21
12.63968199999999
 31
0.0
  0
MTEXT
  5
29E4E
330
295FA
100
AcDbEntity
  8
2
  6
ByBlock
100
AcDbMText
 10
14.20202445678147
 20
32.74706933169361
 30
0.0
 40
3.5
 41
0.0
 71
     5
 72
     1
  1
\A1;11.7
  7
MM_STANDARD
 73
     1
 44
1.0
1001
ACAD
1000
MTEXTBEGIN
1070
    73
1070
     1
1070
    44
1040
1.0
1070
    74
1070
     0
1000
MTEXTEND
  0
ENDBLK
  5
2A6F4
330
295FA
100
AcDbEntity
  8
0
100
AcDbBlockEnd
  0
BLOCK
  5
2A6F5
330
2980B
100
AcDbEntity
  8
0
100
AcDbBlockBegin
  2
*D5
 70
     1
 10
0.0
 20
0.0
 30
0.0
  3
*D5
  1

  0
MTEXT
  5
29B29
330
2980B
100
AcDbEntity
  8
2
  6
ByBlock
100
AcDbMText
 10
49.47634363509508
 20
21.16555563476515
 30
0.0
 40
3.5
 41
0.0
 71
     5
 72
     1
  1
\A1;67%%d~83%%d
  7
MM_STANDARD
 11
0.9936350774249406
 21
-0.1126469391982423
 31
0.0
 73
     1
 44
1.0
1001
ACAD
1000
MTEXTBEGIN
1070
    73
1070
     1
1070
    44
1040
1.0
1070
    74
1070
     0
1000
MTEXTEND
  0
POINT
  5
29B2A
330
2980B
100
AcDbEntity
  8
DEFPOINTS
  6
ByBlock
100
AcDbPoint
 10
33.34420655713873
 20
10.1747630221648
 30
0.0
  0
POINT
  5
29B2B
330
2980B
100
AcDbEntity
  8
DEFPOINTS
  6
ByBlock
100
AcDbPoint
 10
34.95017555713871
 20
9.493070022164806
 30
0.0
  0
POINT
  5
29B2C
330
2980B
100
AcDbEntity
  8
DEFPOINTS
  6
ByBlock
100
AcDbPoint
 10
34.95017555713871
 20
9.450710022164804
 30
0.0
  0
POINT
  5
29B2D
330
2980B
100
AcDbEntity
  8
DEFPOINTS
  6
ByBlock
100
AcDbPoint
 10
34.95017555713871
 20
9.493070022164806
 30
0.0
  0
SOLID
  5
29B2E
330
2980B
100
AcDbEntity
  8
2
  6
ByBlock
100
AcDbTrace
 10
34.95017555713871
 20
20.58968755031784
 30
0.0
 11
32.5130240882423
 21
19.89405558672843
 31
0.0
 12
32.41915163891042
 22
20.72208481791604
 32
0.0
 13
32.41915163891042
 23
20.72208481791604
 33
0.0
  0
SOLID
  5
29B2F
330
2980B
100
AcDbEntity
  8
2
  6
ByBlock
100
AcDbTrace
 10
24.73568435941233
 20
13.82886177658329
 30
0.0
 11
25.60276136607625
 21
16.21041349250842
 31
0.0
 12
26.32828748979999
 22
15.80046680299974
 32
0.0
 13
26.32828748979999
 23
15.80046680299974
 33
0.0
  0
LINE
  5
29B30
330
2980B
100
AcDbEntity
  8
2
  6
ByBlock
100
AcDbLine
 10
34.95017555713871
 20
9.493070022164806
 30
0.0
 11
34.95017555713871
 21
20.58968755031784
 31
0.0
  0
LINE
  5
29B31
330
2980B
100
AcDbEntity
  8
2
  6
ByBlock
100
AcDbLine
 10
33.34420655713873
 20
10.1747630221648
 30
0.0
 11
23.58505319052107
 21
14.31727544671951
 31
0.0
  0
ARC
  5
29B32
330
2980B
100
AcDbEntity
  8
2
  6
ByBlock
100
AcDbCircle
 10
34.95017555713871
 20
9.493070022164806
 30
0.0
 40
11.09661752815303
100
AcDbArc
 50
102.935845263563
 51
144.0641667109299
  0
ARC
  5
29B33
330
2980B
100
AcDbEntity
  8
2
  6
ByBlock
100
AcDbCircle
 10
34.95017555713871
 20
9.493070022164806
 30
0.0
 40
11.09661752815303
100
AcDbArc
 50
71.66667118119389
 51
90.0
  0
LINE
  5
29B34
330
2980B
100
AcDbEntity
  8
2
  6
ByBlock
100
AcDbLine
 10
38.44055758167868
 20
20.02645285432663
 30
0.0
 11
59.97705672732035
 21
17.58489179743514
 31
0.0
  0
ENDBLK
  5
2A6F6
330
2980B
100
AcDbEntity
  8
0
100
AcDbBlockEnd
  0
BLOCK
  5
2A6F9
330
29D2E
100
AcDbEntity
  8
0
100
AcDbBlockBegin
  2
*D7
 70
     1
 10
0.0
 20
0.0
 30
0.0
  3
*D7
  1

  0
POINT
  5
2A034
330
29D2E
100
AcDbEntity
  8
DEFPOINTS
  6
ByBlock
100
AcDbPoint
 10
0.0
 20
10.5
 30
0.0
  0
POINT
  5
2A035
330
29D2E
100
AcDbEntity
  8
DEFPOINTS
  6
ByBlock
100
AcDbPoint
 10
0.0
 20
-10.5
 30
0.0
  0
LINE
  5
2A036
330
29D2E
100
AcDbEntity
  8
SK2
  6
ByBlock
100
AcDbLine
 10
0.0
 20
10.5
 30
0.0
 11
-52.17693523201345
 21
10.5
 31
0.0
  0
LINE
  5
2A037
330
29D2E
100
AcDbEntity
  8
SK2
  6
ByBlock
100
AcDbLine
 10
0.0
 20
-10.5
 30
0.0
 11
-52.17693523201345
 21
-10.5
 31
0.0
  0
LINE
  5
2A038
330
29D2E
100
AcDbEntity
  8
SK2
  6
ByBlock
100
AcDbLine
 10
-50.92693523201345
 20
10.5
 30
0.0
 11
-50.92693523201345
 21
-10.5
 31
0.0
  0
SOLID
  5
2A039
330
29D2E
100
AcDbEntity
  8
SK2
  6
ByBlock
100
AcDbTrace
 10
-50.92693523201345
 20
10.5
 30
0.0
 11
-51.3436018986802
 21
8.0
 31
0.0
 12
-50.5102685653467
 22
8.0
 32
0.0
 13
-50.5102685653467
 23
8.0
 33
0.0
  0
SOLID
  5
2A03A
330
29D2E
100
AcDbEntity
  8
SK2
  6
ByBlock
100
AcDbTrace
 10
-50.92693523201345
 20
-10.5
 30
0.0
 11
-51.3436018986802
 21
-8.0
 31
0.0
 12
-50.5102685653467
 22
-8.0
 32
0.0
 13
-50.5102685653467
 23
-8.0
 33
0.0
  0
LINE
  5
2A03B
330
29D2E
100
AcDbEntity
  8
SK2
  6
ByBlock
100
AcDbLine
 10
0.0
 20
10.5
 30
0.0
 11
0.0
 21
10.5
 31
0.0
  0
MTEXT
  5
2A03C
330
29D2E
100
AcDbEntity
  8
SK2
  6
ByBlock
100
AcDbMText
 10
-53.47287690453629
 20
0.0
 30
0.0
 40
3.5
 41
0.0
 71
     5
 72
     1
  1
%%c\A1;21
  7
MM_STANDARD
 11
0.0000000000000001
 21
1.0
 31
0.0
 73
     1
 44
1.0
1001
ACAD
1000
MTEXTBEGIN
1070
    73
1070
     1
1070
    44
1040
1.0
1070
    74
1070
     0
1000
MTEXTEND
  0
ENDBLK
  5
2A6FA
330
29D2E
100
AcDbEntity
  8
0
100
AcDbBlockEnd
  0
BLOCK
  5
2A6FB
330
29DC2
100
AcDbEntity
  8
0
100
AcDbBlockBegin
  2
*D8
 70
     1
 10
0.0
 20
0.0
 30
0.0
  3
*D8
  1

  0
POINT
  5
29F4C
330
29DC2
100
AcDbEntity
  8
DEFPOINTS
  6
ByBlock
100
AcDbPoint
 10
0.0
 20
10.5
 30
0.0
  0
POINT
  5
29F4D
330
29DC2
100
AcDbEntity
  8
DEFPOINTS
  6
ByBlock
100
AcDbPoint
 10
34.94357400000001
 20
8.967850999999996
 30
0.0
  0
LINE
  5
29F4E
330
29DC2
100
AcDbEntity
  8
2
  6
ByBlock
100
AcDbLine
 10
0.0
 20
10.5
 30
0.0
 11
0.0
 21
38.79610099407676
 31
0.0
  0
LINE
  5
29F4F
330
29DC2
100
AcDbEntity
  8
2
  6
ByBlock
100
AcDbLine
 10
34.94357400000001
 20
8.967850999999996
 30
0.0
 11
34.94357400000001
 21
38.79610099407676
 31
0.0
  0
LINE
  5
29F50
330
29DC2
100
AcDbEntity
  8
2
  6
ByBlock
100
AcDbLine
 10
0.0
 20
37.54610099407676
 30
0.0
 11
34.94357400000001
 21
37.54610099407676
 31
0.0
  0
SOLID
  5
29F51
330
29DC2
100
AcDbEntity
  8
2
  6
ByBlock
100
AcDbTrace
 10
0.0
 20
37.54610099407676
 30
0.0
 11
2.5
 21
37.12943432741001
 31
0.0
 12
2.5
 22
37.96276766074351
 32
0.0
 13
2.5
 23
37.96276766074351
 33
0.0
  0
SOLID
  5
29F52
330
29DC2
100
AcDbEntity
  8
2
  6
ByBlock
100
AcDbTrace
 10
34.94357400000001
 20
37.54610099407676
 30
0.0
 11
32.44357400000001
 21
37.12943432741001
 31
0.0
 12
32.44357400000001
 22
37.96276766074351
 32
0.0
 13
32.44357400000001
 23
37.96276766074351
 33
0.0
  0
LINE
  5
29F53
330
29DC2
100
AcDbEntity
  8
2
  6
ByBlock
100
AcDbLine
 10
0.0
 20
10.5
 30
0.0
 11
0.0
 21
10.5
 31
0.0
  0
MTEXT
  5
29F54
330
29DC2
100
AcDbEntity
  8
2
  6
ByBlock
100
AcDbMText
 10
17.47178700000001
 20
39.99365897018357
 30
0.0
 40
3.5
 41
0.0
 71
     5
 72
     1
  1
35
  7
MM_STANDARD
 73
     1
 44
1.0
1001
ACAD
1000
MTEXTBEGIN
1070
    73
1070
     1
1070
    44
1040
1.0
1070
    74
1070
     0
1000
MTEXTEND
  0
ENDBLK
  5
2A6FC
330
29DC2
100
AcDbEntity
  8
0
100
AcDbBlockEnd
  0
BLOCK
  5
2A6FD
330
29F22
100
AcDbEntity
  8
0
100
AcDbBlockBegin
  2
*D9
 70
     1
 10
0.0
 20
0.0
 30
0.0
  3
*D9
  1

  0
POINT
  5
29F5E
330
29F22
100
AcDbEntity
  8
DEFPOINTS
  6
ByBlock
100
AcDbPoint
 10
-21.99999999999999
 20
6.0
 30
0.0
  0
POINT
  5
29F5F
330
29F22
100
AcDbEntity
  8
DEFPOINTS
  6
ByBlock
100
AcDbPoint
 10
34.94357400000001
 20
8.967850999999996
 30
0.0
  0
LINE
  5
29F60
330
29F22
100
AcDbEntity
  8
SK2
  6
ByBlock
100
AcDbLine
 10
-21.99999999999999
 20
6.0
 30
0.0
 11
-21.99999999999999
 21
45.80269889489
 31
0.0
  0
LINE
  5
29F61
330
29F22
100
AcDbEntity
  8
SK2
  6
ByBlock
100
AcDbLine
 10
34.94357400000001
 20
8.967850999999996
 30
0.0
 11
34.94357400000001
 21
45.80269889489
 31
0.0
  0
LINE
  5
29F62
330
29F22
100
AcDbEntity
  8
SK2
  6
ByBlock
100
AcDbLine
 10
-21.99999999999999
 20
44.55269889489
 30
0.0
 11
34.94357400000001
 21
44.55269889489
 31
0.0
  0
SOLID
  5
29F63
330
29F22
100
AcDbEntity
  8
SK2
  6
ByBlock
100
AcDbTrace
 10
-21.99999999999999
 20
44.55269889489
 30
0.0
 11
-19.49999999999999
 21
44.13603222822327
 31
0.0
 12
-19.49999999999999
 22
44.96936556155677
 32
0.0
 13
-19.49999999999999
 23
44.96936556155677
 33
0.0
  0
SOLID
  5
29F64
330
29F22
100
AcDbEntity
  8
SK2
  6
ByBlock
100
AcDbTrace
 10
34.94357400000001
 20
44.55269889489
 30
0.0
 11
32.44357400000001
 21
44.13603222822327
 31
0.0
 12
32.44357400000001
 22
44.96936556155677
 32
0.0
 13
32.44357400000001
 23
44.96936556155677
 33
0.0
  0
LINE
  5
29F65
330
29F22
100
AcDbEntity
  8
SK2
  6
ByBlock
100
AcDbLine
 10
-21.99999999999999
 20
6.0
 30
0.0
 11
-21.99999999999999
 21
6.0
 31
0.0
  0
MTEXT
  5
29F66
330
29F22
100
AcDbEntity
  8
SK2
  6
ByBlock
100
AcDbMText
 10
6.471787000000013
 20
46.97812053930323
 30
0.0
 40
3.5
 41
0.0
 71
     5
 72
     1
  1
57
  7
MM_STANDARD
 73
     1
 44
1.0
1001
ACAD
1000
MTEXTBEGIN
1070
    73
1070
     1
1070
    44
1040
1.0
1070
    74
1070
     0
1000
MTEXTEND
  0
ENDBLK
  5
2A6FE
330
29F22
100
AcDbEntity
  8
0
100
AcDbBlockEnd
  0
BLOCK
  5
2A71B
330
2A645
100
AcDbEntity
  8
0
100
AcDbBlockBegin
  2
*D24
 70
     1
 10
0.0
 20
0.0
 30
0.0
  3
*D24
  1

  0
LINE
  5
2A767
330
2A645
100
AcDbEntity
  8
2
  6
ByBlock
100
AcDbLine
 10
23.24357400000003
 20
12.50000000000001
 30
0.0
 11
59.74992900000004
 21
12.50000000000001
 31
0.0
  0
LINE
  5
2A768
330
2A645
100
AcDbEntity
  8
2
  6
ByBlock
100
AcDbLine
 10
58.49992900000004
 20
10.00000000000001
 30
0.0
 11
58.49992900000004
 21
-5.182605527768306
 31
0.0
  0
SOLID
  5
2A769
330
2A645
100
AcDbEntity
  8
2
100
AcDbTrace
 10
58.08326233333339
 20
10.00000000000001
 30
0.0
 11
58.91659566666671
 21
10.00000000000001
 31
0.0
 12
58.49992900000004
 22
12.50000000000001
 32
0.0
 13
58.49992900000004
 23
12.50000000000001
 33
0.0
  0
MTEXT
  5
2A76A
330
2A645
100
AcDbEntity
  8
2
100
AcDbMText
 10
55.65391705340831
 20
-0.1721522600241198
 30
0.0
 40
3.5
 41
0.0
 71
     5
 72
     1
  1
\A1;%%C25
  7
MM_STANDARD
 11
0.0000000000000001
 21
1.0
 31
0.0
 73
     1
 44
1.0
1001
ACAD
1000
MTEXTBEGIN
1070
    73
1070
     1
1070
    44
1040
1.0
1070
    74
1070
     0
1000
MTEXTEND
  0
POINT
  5
2A76B
330
2A645
100
AcDbEntity
  8
DEFPOINTS
 62
     0
100
AcDbPoint
 10
34.95
 20
-12.50000000000001
 30
0.0
  0
POINT
  5
2A76C
330
2A645
100
AcDbEntity
  8
DEFPOINTS
 62
     0
100
AcDbPoint
 10
23.24357400000003
 20
12.50000000000001
 30
0.0
  0
POINT
  5
2A76D
330
2A645
100
AcDbEntity
  8
DEFPOINTS
 62
     0
100
AcDbPoint
 10
58.49992900000004
 20
12.50000000000001
 30
0.0
  0
ENDBLK
  5
2A71C
330
2A645
100
AcDbEntity
  8
0
100
AcDbBlockEnd
  0
ENDSEC
  0
SECTION
  2
ENTITIES
  0
LINE
  5
AA8
330
1F
100
AcDbEntity
  8
INFTOTAL
100
AcDbLine
 10
-64.90092962931091
 20
3.682751682042943
 30
0.0
 11
-64.90092962931091
 21
56.77867123971357
 31
0.0
  0
LINE
  5
AA9
330
1F
100
AcDbEntity
  8
INFTOTAL
100
AcDbLine
 10
-64.90092962931091
 20
56.77867123971357
 30
0.0
 11
2.112383274409372
 21
56.77867123971357
 31
0.0
  0
LINE
  5
AAA
330
1F
100
AcDbEntity
  8
INFTOTAL
100
AcDbLine
 10
15.47419589353826
 20
-39.87094687582434
 30
0.0
 11
74.98761797786561
 21
-39.87094687582439
 31
0.0
  0
LINE
  5
AAB
330
1F
100
AcDbEntity
  8
INFTOTAL
100
AcDbLine
 10
74.98761797786561
 20
-39.87094687582439
 30
0.0
 11
74.98761797786561
 21
2.288115723371365
 31
0.0
  0
POINT
  5
AFA
330
1F
100
AcDbEntity
  8
1
100
AcDbPoint
 10
120.6316161181774
 20
18.06659889820604
 30
0.0
  0
POINT
  5
AFB
330
1F
100
AcDbEntity
  8
1
100
AcDbPoint
 10
117.3316161181774
 20
20.61513489820602
 30
0.0
  0
POINT
  5
136D
330
1F
100
AcDbEntity
  8
CUT
100
AcDbPoint
 10
120.6316161181774
 20
18.03682647108094
 30
0.0
  0
POINT
  5
410F
330
1F
100
AcDbEntity
  8
0
 62
     7
370
     5
100
AcDbPoint
 10
694.5793644972614
 20
32.06429484497903
 30
0.0
  0
POINT
  5
4112
330
1F
100
AcDbEntity
  8
0
 62
     7
370
     5
100
AcDbPoint
 10
694.7265624972615
 20
3.587258844979031
 30
0.0
  0
POINT
  5
4BBB
330
1F
100
AcDbEntity
  8
0
 62
     7
370
     5
100
AcDbPoint
 10
928.2803214655135
 20
36.14402775200896
 30
0.0
  0
POINT
  5
4BBE
330
1F
100
AcDbEntity
  8
0
 62
     7
370
     5
100
AcDbPoint
 10
927.9725574655133
 20
-13.37717824799107
 30
0.0
  0
POINT
  5
4C3D
330
1F
100
AcDbEntity
  8
0
 62
     7
370
     5
100
AcDbPoint
 10
1260.468250897024
 20
34.18197122255629
 30
0.0
  0
POINT
  5
4C41
330
1F
100
AcDbEntity
  8
0
 62
     7
370
     5
100
AcDbPoint
 10
1192.987798897024
 20
34.42276422255628
 30
0.0
  0
POINT
  5
4CA6
330
1F
100
AcDbEntity
  8
0
 62
     7
370
     5
100
AcDbPoint
 10
1531.370477890708
 20
36.54134112174947
 30
0.0
  0
POINT
  5
4CAA
330
1F
100
AcDbEntity
  8
0
 62
     7
370
     5
100
AcDbPoint
 10
1454.809556890707
 20
33.56345212174947
 30
0.0
  0
POINT
  5
4D13
330
1F
100
AcDbEntity
  8
0
 62
     7
370
     5
100
AcDbPoint
 10
705.1278997494348
 20
-154.9600065549146
 30
0.0
  0
POINT
  5
4D16
330
1F
100
AcDbEntity
  8
0
 62
     7
370
     5
100
AcDbPoint
 10
704.8201357494348
 20
-214.4959135549147
 30
0.0
  0
POINT
  5
4D94
330
1F
100
AcDbEntity
  8
0
 62
     7
370
     5
100
AcDbPoint
 10
1787.824033288602
 20
31.89640981289145
 30
0.0
  0
POINT
  5
4D98
330
1F
100
AcDbEntity
  8
0
 62
     7
370
     5
100
AcDbPoint
 10
1715.838491288602
 20
29.33517681289146
 30
0.0
  0
POINT
  5
4DFF
330
1F
100
AcDbEntity
  8
0
 62
     3
370
     5
100
AcDbPoint
 10
1267.112797580298
 20
-159.0002427017263
 30
0.0
  0
POINT
  5
4E03
330
1F
100
AcDbEntity
  8
0
 62
     3
370
     5
100
AcDbPoint
 10
1194.506377580298
 20
-161.9343927017263
 30
0.0
  0
POINT
  5
4E6A
330
1F
100
AcDbEntity
  8
0
 62
     7
370
     5
100
AcDbPoint
 10
1544.710960196184
 20
-155.8112991948312
 30
0.0
  0
POINT
  5
4E6E
330
1F
100
AcDbEntity
  8
0
 62
     3
370
     5
100
AcDbPoint
 10
1456.283339196184
 20
-157.1011921948312
 30
0.0
  0
POINT
  5
4ED5
330
1F
100
AcDbEntity
  8
0
 62
     7
370
     5
100
AcDbPoint
 10
923.0975508391153
 20
-198.2811869580544
 30
0.0
  0
POINT
  5
4ED6
330
1F
100
AcDbEntity
  8
0
 62
     7
370
     5
100
AcDbPoint
 10
958.0975508391155
 20
-190.2811869580544
 30
0.0
  0
POINT
  5
4ED9
330
1F
100
AcDbEntity
  8
0
 62
     7
370
     5
100
AcDbPoint
 10
957.9030798391153
 20
-228.1917289580544
 30
0.0
  0
POINT
  5
4F57
330
1F
100
AcDbEntity
  8
0
 62
     7
370
     5
100
AcDbPoint
 10
450.9331152202981
 20
34.51099349283641
 30
0.0
  0
POINT
  5
4F5A
330
1F
100
AcDbEntity
  8
0
 62
     7
370
     5
100
AcDbPoint
 10
450.3789362202981
 20
-3.505724507163591
 30
0.0
  0
POINT
  5
4FD6
330
1F
100
AcDbEntity
  8
0
 62
     7
370
     5
100
AcDbPoint
 10
414.7355793530676
 20
-182.3643573412055
 30
0.0
  0
POINT
  5
4FD9
330
1F
100
AcDbEntity
  8
0
 62
     7
370
     5
100
AcDbPoint
 10
414.4028163530678
 20
-227.6410343412055
 30
0.0
  0
POINT
  5
5057
330
1F
100
AcDbEntity
  8
0
 62
     7
370
     5
100
AcDbPoint
 10
411.1596871436125
 20
-404.5108996529686
 30
0.0
  0
POINT
  5
505A
330
1F
100
AcDbEntity
  8
0
 62
     7
370
     5
100
AcDbPoint
 10
410.8519251436126
 20
-448.9004636529686
 30
0.0
  0
POINT
  5
50DA
330
1F
100
AcDbEntity
  8
0
 62
     7
370
     5
100
AcDbPoint
 10
696.3752719090887
 20
-405.5632373962983
 30
0.0
  0
POINT
  5
50DD
330
1F
100
AcDbEntity
  8
0
 62
     7
370
     5
100
AcDbPoint
 10
696.0675099090884
 20
-458.9718843962983
 30
0.0
  0
POINT
  5
515E
330
1F
100
AcDbEntity
  8
0
 62
     7
370
     5
100
AcDbPoint
 10
942.932329238496
 20
-403.2148016805113
 30
0.0
  0
POINT
  5
5161
330
1F
100
AcDbEntity
  8
0
 62
     3
370
     5
100
AcDbPoint
 10
942.624565238496
 20
-476.4638956805113
 30
0.0
  0
POINT
  5
51E0
330
1F
100
AcDbEntity
  8
0
 62
     7
370
     5
100
AcDbPoint
 10
380.0596661818993
 20
-637.2898669140809
 30
0.0
  0
POINT
  5
51E4
330
1F
100
AcDbEntity
  8
0
 62
     7
370
     5
100
AcDbPoint
 10
379.7269051818993
 20
-669.3765459140807
 30
0.0
  0
POINT
  5
5263
330
1F
100
AcDbEntity
  8
0
 62
     7
370
     5
100
AcDbPoint
 10
656.1064603234972
 20
-644.2320044768857
 30
0.0
  0
POINT
  5
5267
330
1F
100
AcDbEntity
  8
0
 62
     7
370
     5
100
AcDbPoint
 10
655.7736983234972
 20
-681.5918884768857
 30
0.0
  0
POINT
  5
52E6
330
1F
100
AcDbEntity
  8
0
 62
     7
370
     5
100
AcDbPoint
 10
921.5387707571863
 20
-642.2430056930917
 30
0.0
  0
POINT
  5
52EA
330
1F
100
AcDbEntity
  8
0
 62
     7
370
     5
100
AcDbPoint
 10
921.2310077571864
 20
-692.8111586930919
 30
0.0
  0
POINT
  5
536A
330
1F
100
AcDbEntity
  8
0
 62
     7
370
     5
100
AcDbPoint
 10
1232.563978885883
 20
-644.0998079544141
 30
0.0
  0
POINT
  5
536E
330
1F
100
AcDbEntity
  8
0
 62
     7
370
     5
100
AcDbPoint
 10
1232.256215885883
 20
-701.4147569544141
 30
0.0
  0
POINT
  5
53EE
330
1F
100
AcDbEntity
  8
0
 62
     7
370
     5
100
AcDbPoint
 10
1530.052638397992
 20
-643.475919607774
 30
0.0
  0
POINT
  5
53F2
330
1F
100
AcDbEntity
  8
0
 62
     7
370
     5
100
AcDbPoint
 10
1529.744875397992
 20
-702.095046607774
 30
0.0
  0
POINT
  5
5472
330
1F
100
AcDbEntity
  8
0
 62
     7
370
     5
100
AcDbPoint
 10
684.9908237883022
 20
27.90718926625232
 30
0.0
  0
POINT
  5
5475
330
1F
100
AcDbEntity
  8
0
 62
     7
370
     5
100
AcDbPoint
 10
685.1380217883022
 20
-0.5698467337476814
 30
0.0
  0
POINT
  5
C167
330
1F
100
AcDbEntity
  8
0
 62
     7
370
     5
100
AcDbPoint
 10
404.6381194571074
 20
31.25869005531058
 30
0.0
  0
POINT
  5
C170
330
1F
100
AcDbEntity
  8
0
 62
     7
370
     5
100
AcDbPoint
 10
404.6381194571074
 20
-40.40044294468938
 30
0.0
  0
POINT
  5
C178
330
1F
100
AcDbEntity
  8
0
 62
     7
370
     5
100
AcDbPoint
 10
693.6166312048997
 20
32.91651042690259
 30
0.0
  0
POINT
  5
C182
330
1F
100
AcDbEntity
  8
0
 62
     7
370
     5
100
AcDbPoint
 10
693.6166312048997
 20
-48.79153757309743
 30
0.0
  0
POINT
  5
C255
330
1F
100
AcDbEntity
  8
0
 62
     7
370
     5
100
AcDbPoint
 10
969.8580521302226
 20
-44.97487572475608
 30
0.0
  0
POINT
  5
C258
330
1F
100
AcDbEntity
  8
0
 62
     7
370
     5
100
AcDbPoint
 10
969.8580521302226
 20
15.7863642752439
 30
0.0
  0
POINT
  5
C2E1
330
1F
100
AcDbEntity
  8
0
 62
     7
370
     5
100
AcDbPoint
 10
1225.348704188238
 20
-52.24776141224177
 30
0.0
  0
POINT
  5
C2E4
330
1F
100
AcDbEntity
  8
0
 62
     7
370
     5
100
AcDbPoint
 10
1225.348704188238
 20
11.68361158775823
 30
0.0
  0
POINT
  5
C36E
330
1F
100
AcDbEntity
  8
0
 62
     7
370
     5
100
AcDbPoint
 10
1738.913115957113
 20
-214.1607529893734
 30
0.0
  0
POINT
  5
C377
330
1F
100
AcDbEntity
  8
0
 62
     3
370
     5
100
AcDbPoint
 10
1738.913115957113
 20
-286.8828409893735
 30
0.0
  0
POINT
  5
C42D
330
1F
100
AcDbEntity
  8
0
 62
     7
370
     5
100
AcDbPoint
 10
430.2380300204257
 20
-176.3158258460635
 30
0.0
  0
POINT
  5
C437
330
1F
100
AcDbEntity
  8
0
 62
     7
370
     5
100
AcDbPoint
 10
430.2380300204257
 20
-251.7521558460636
 30
0.0
  0
POINT
  5
C533
330
1F
100
AcDbEntity
  8
0
 62
     3
370
     5
100
AcDbPoint
 10
724.0359074233313
 20
-257.7049218719476
 30
0.0
  0
POINT
  5
C536
330
1F
100
AcDbEntity
  8
0
 62
     3
370
     5
100
AcDbPoint
 10
724.0359074233313
 20
-176.2890638719476
 30
0.0
  0
POINT
  5
C652
330
1F
100
AcDbEntity
  8
0
 62
     7
370
     5
100
AcDbPoint
 10
1006.718794540682
 20
-163.3460002642659
 30
0.0
  0
POINT
  5
C65C
330
1F
100
AcDbEntity
  8
0
 62
     7
370
     5
100
AcDbPoint
 10
1006.718794540682
 20
-271.4659132642659
 30
0.0
  0
POINT
  5
C79F
330
1F
100
AcDbEntity
  8
0
 62
     7
370
     5
100
AcDbPoint
 10
680.0273543974197
 20
-609.8288373451556
 30
0.0
  0
POINT
  5
C7A3
330
1F
100
AcDbEntity
  8
0
 62
     7
370
     5
100
AcDbPoint
 10
680.0273543974197
 20
-565.0385583451557
 30
0.0
  0
POINT
  5
C85B
330
1F
100
AcDbEntity
  8
0
 62
     7
370
     5
100
AcDbPoint
 10
981.854726218849
 20
-559.8376501395787
 30
0.0
  0
POINT
  5
C863
330
1F
100
AcDbEntity
  8
0
 62
     7
370
     5
100
AcDbPoint
 10
981.854726218849
 20
-623.6282751395788
 30
0.0
  0
POINT
  5
C930
330
1F
100
AcDbEntity
  8
0
 62
     7
370
     5
100
AcDbPoint
 10
1216.759569404171
 20
-624.5477225769705
 30
0.0
  0
POINT
  5
C934
330
1F
100
AcDbEntity
  8
0
 62
     7
370
     5
100
AcDbPoint
 10
1202.759569404171
 20
-560.1965945769704
 30
0.0
  0
POINT
  5
C935
330
1F
100
AcDbEntity
  8
0
 62
     7
370
     5
100
AcDbPoint
 10
1216.759569404171
 20
-551.6965945769704
 30
0.0
  0
POINT
  5
CA12
330
1F
100
AcDbEntity
  8
0
 62
     7
370
     5
100
AcDbPoint
 10
1458.761001673632
 20
-627.5597008720548
 30
0.0
  0
POINT
  5
CA16
330
1F
100
AcDbEntity
  8
0
 62
     7
370
     5
100
AcDbPoint
 10
1443.761001673632
 20
-571.7910898720547
 30
0.0
  0
POINT
  5
CA17
330
1F
100
AcDbEntity
  8
0
 62
     7
370
     5
100
AcDbPoint
 10
1458.761001673632
 20
-561.2910898720547
 30
0.0
  0
POINT
  5
CB25
330
1F
100
AcDbEntity
  8
0
 62
     7
370
     5
100
AcDbPoint
 10
1712.749014983699
 20
-637.6031663899041
 30
0.0
  0
POINT
  5
CB29
330
1F
100
AcDbEntity
  8
0
 62
     7
370
     5
100
AcDbPoint
 10
1712.749014983699
 20
-557.403845389904
 30
0.0
  0
POINT
  5
CC4B
330
1F
100
AcDbEntity
  8
0
 62
     7
370
     5
100
AcDbPoint
 10
1990.420039580178
 20
-639.3672597641932
 30
0.0
  0
POINT
  5
CC4F
330
1F
100
AcDbEntity
  8
0
 62
     7
370
     5
100
AcDbPoint
 10
1975.420039580178
 20
-571.8308197641934
 30
0.0
  0
POINT
  5
CC50
330
1F
100
AcDbEntity
  8
0
 62
     7
370
     5
100
AcDbPoint
 10
1990.420039580178
 20
-554.3308197641933
 30
0.0
  0
POINT
  5
D588
330
1F
100
AcDbEntity
  8
0
 62
     7
370
     5
100
AcDbPoint
 10
643.6762534904714
 20
-418.5518022854259
 30
0.0
  0
POINT
  5
D590
330
1F
100
AcDbEntity
  8
0
 62
     7
370
     5
100
AcDbPoint
 10
698.8426964904712
 20
-418.5518022854259
 30
0.0
  0
POINT
  5
D89C
330
1F
100
AcDbEntity
  8
0
 62
     7
370
     5
100
AcDbPoint
 10
918.4554480131433
 20
-418.2516555129392
 30
0.0
  0
POINT
  5
D8A3
330
1F
100
AcDbEntity
  8
0
 62
     7
370
     5
100
AcDbPoint
 10
998.0069960131432
 20
-418.2516555129392
 30
0.0
  0
POINT
  5
DAF2
330
1F
100
AcDbEntity
  8
0
 62
     7
370
     5
100
AcDbPoint
 10
1973.075374951941
 20
-60.50318164632196
 30
0.0
  0
POINT
  5
DAF5
330
1F
100
AcDbEntity
  8
0
 62
     7
370
     5
100
AcDbPoint
 10
1973.075374951941
 20
1.00896335367804
 30
0.0
  0
POINT
  5
DCBB
330
1F
100
AcDbEntity
  8
0
 62
     7
370
     5
100
AcDbPoint
 10
2228.446041001848
 20
-631.5679862622897
 30
0.0
  0
POINT
  5
DCBF
330
1F
100
AcDbEntity
  8
0
 62
     7
370
     5
100
AcDbPoint
 10
2228.446041001848
 20
-581.1017172622897
 30
0.0
  0
POINT
  5
DECF
330
1F
100
AcDbEntity
  8
0
 62
     7
370
     5
100
AcDbPoint
 10
2470.518201269178
 20
-576.6616946872675
 30
0.0
  0
POINT
  5
DED7
330
1F
100
AcDbEntity
  8
0
 62
     7
370
     5
100
AcDbPoint
 10
2470.518201269178
 20
-638.2022576872675
 30
0.0
  0
POINT
  5
E102
330
1F
100
AcDbEntity
  8
0
 62
     7
370
     5
100
AcDbPoint
 10
1449.716374392063
 20
-281.2570516923841
 30
0.0
  0
POINT
  5
E105
330
1F
100
AcDbEntity
  8
0
 62
     7
370
     5
100
AcDbPoint
 10
1449.716374392063
 20
-216.7933926923841
 30
0.0
  0
POINT
  5
E20E
330
1F
100
AcDbEntity
  8
0
 62
     7
370
     5
100
AcDbPoint
 10
1444.226360693917
 20
7.118696944552222
 30
0.0
  0
POINT
  5
E217
330
1F
100
AcDbEntity
  8
0
 62
     7
370
     5
100
AcDbPoint
 10
1444.226360693917
 20
-50.75492105544778
 30
0.0
  0
POINT
  5
E328
330
1F
100
AcDbEntity
  8
0
 62
     7
370
     5
100
AcDbPoint
 10
1674.557421043983
 20
-57.27887800498226
 30
0.0
  0
POINT
  5
E32B
330
1F
100
AcDbEntity
  8
0
 62
     7
370
     5
100
AcDbPoint
 10
1674.557421043983
 20
6.273895995017768
 30
0.0
  0
POINT
  5
E438
330
1F
100
AcDbEntity
  8
0
 62
     7
370
     5
100
AcDbPoint
 10
1221.741516539144
 20
-220.2351919986821
 30
0.0
  0
POINT
  5
E441
330
1F
100
AcDbEntity
  8
0
 62
     7
370
     5
100
AcDbPoint
 10
1221.741516539144
 20
-278.4038869986821
 30
0.0
  0
POINT
  5
E533
330
1F
100
AcDbEntity
  8
0
 62
     7
370
     5
100
AcDbPoint
 10
435.7613867553435
 20
-401.853645371286
 30
0.0
  0
POINT
  5
E537
330
1F
100
AcDbEntity
  8
0
 62
     7
370
     5
100
AcDbPoint
 10
336.0458187553437
 20
-401.853645371286
 30
0.0
  0
POINT
  5
E6D2
330
1F
100
AcDbEntity
  8
0
 62
     7
370
     5
100
AcDbPoint
 10
394.2075911881555
 20
-612.6712758301417
 30
0.0
  0
POINT
  5
E6D6
330
1F
100
AcDbEntity
  8
0
 62
     7
370
     5
100
AcDbPoint
 10
394.2075911881555
 20
-562.1020128301418
 30
0.0
  0
POINT
  5
12895
330
1F
100
AcDbEntity
  8
0
 62
     7
370
     5
100
AcDbPoint
 10
514.3576994832141
 20
-558.6978028967338
 30
0.0
  0
POINT
  5
1289C
330
1F
100
AcDbEntity
  8
0
 62
     7
370
     5
100
AcDbPoint
 10
514.3576994832141
 20
-524.0331488967338
 30
0.0
  0
POINT
  5
1289D
330
1F
100
AcDbEntity
  8
0
 62
     7
370
     5
100
AcDbPoint
 10
514.3576994832141
 20
-526.4631488967337
 30
0.0
  0
POINT
  5
1299A
330
1F
100
AcDbEntity
  8
0
 62
     7
370
     5
100
AcDbPoint
 10
273.0238152774181
 20
35.53337152575214
 30
0.0
  0
POINT
  5
1299D
330
1F
100
AcDbEntity
  8
0
 62
     7
370
     5
100
AcDbPoint
 10
273.0238152774181
 20
-16.30945047424785
 30
0.0
  0
POINT
  5
12A19
330
1F
100
AcDbEntity
  8
0
 62
     7
370
     5
100
AcDbPoint
 10
530.0071960054782
 20
34.28476473790624
 30
0.0
  0
POINT
  5
12A1A
330
1F
100
AcDbEntity
  8
0
 62
     7
370
     5
100
AcDbPoint
 10
530.0071960054782
 20
28.42976573790625
 30
0.0
  0
POINT
  5
12A1D
330
1F
100
AcDbEntity
  8
0
 62
     7
370
     5
100
AcDbPoint
 10
530.2789780054783
 20
-25.24190226209373
 30
0.0
  0
POINT
  5
12AA6
330
1F
100
AcDbEntity
  8
0
 62
     7
370
     5
100
AcDbPoint
 10
803.5390081451089
 20
38.33315219974614
 30
0.0
  0
POINT
  5
12AA7
330
1F
100
AcDbEntity
  8
0
 62
     7
370
     5
100
AcDbPoint
 10
803.5390081451089
 20
32.44315219974615
 30
0.0
  0
POINT
  5
12AAA
330
1F
100
AcDbEntity
  8
0
 62
     7
370
     5
100
AcDbPoint
 10
803.5390081451089
 20
-33.77549080025384
 30
0.0
  0
POINT
  5
12B2B
330
1F
100
AcDbEntity
  8
0
 62
     7
370
     5
100
AcDbPoint
 10
246.4739127018369
 20
-292.0641451649423
 30
0.0
  0
POINT
  5
12B40
330
1F
100
AcDbEntity
  8
0
 62
     7
370
     5
100
AcDbPoint
 10
246.1857397018369
 20
-234.4124741649423
 30
0.0
  0
POINT
  5
12B41
330
1F
100
AcDbEntity
  8
0
 62
     7
370
     5
100
AcDbPoint
 10
246.1857397018369
 20
-239.6974741649422
 30
0.0
  0
POINT
  5
12BA1
330
1F
100
AcDbEntity
  8
0
 62
     7
370
     5
100
AcDbPoint
 10
503.361992156836
 20
-293.942128217062
 30
0.0
  0
POINT
  5
12BB5
330
1F
100
AcDbEntity
  8
0
 62
     7
370
     5
100
AcDbPoint
 10
503.361992156836
 20
-232.058278217062
 30
0.0
  0
POINT
  5
12BB6
330
1F
100
AcDbEntity
  8
0
 62
     7
370
     5
100
AcDbPoint
 10
503.361992156836
 20
-237.898279217062
 30
0.0
  0
POINT
  5
12C16
330
1F
100
AcDbEntity
  8
0
 62
     7
370
     5
100
AcDbPoint
 10
773.9808530456294
 20
-320.1483272428673
 30
0.0
  0
POINT
  5
12C17
330
1F
100
AcDbEntity
  8
0
 62
     7
370
     5
100
AcDbPoint
 10
776.9808530456294
 20
-286.8983272428673
 30
0.0
  0
POINT
  5
12C2B
330
1F
100
AcDbEntity
  8
0
 62
     7
370
     5
100
AcDbPoint
 10
776.9808530456294
 20
-225.7099922428672
 30
0.0
  0
POINT
  5
12C8B
330
1F
100
AcDbEntity
  8
0
 62
     7
370
     5
100
AcDbPoint
 10
258.823540701837
 20
-572.0746798648522
 30
0.0
  0
POINT
  5
12C92
330
1F
100
AcDbEntity
  8
0
 62
     7
370
     5
100
AcDbPoint
 10
258.8235127018369
 20
-543.1961818648521
 30
0.0
  0
POINT
  5
12C93
330
1F
100
AcDbEntity
  8
0
 62
     7
370
     5
100
AcDbPoint
 10
258.8235127018369
 20
-544.8461818648523
 30
0.0
  0
POINT
  5
14051
330
1F
100
AcDbEntity
  8
0
 62
     7
370
     5
100
AcDbPoint
 10
690.9556627618442
 20
-532.2047645406313
 30
0.0
  0
POINT
  5
14058
330
1F
100
AcDbEntity
  8
0
 62
     7
370
     5
100
AcDbPoint
 10
690.9556627618442
 20
-497.5401105406314
 30
0.0
  0
POINT
  5
14059
330
1F
100
AcDbEntity
  8
0
 62
     7
370
     5
100
AcDbPoint
 10
690.9556627618442
 20
-499.9701105406314
 30
0.0
  0
POINT
  5
175ED
330
1F
100
AcDbEntity
  8
0
 62
     7
370
     5
100
AcDbPoint
 10
329.8984453452037
 20
37.75833189686949
 30
0.0
  0
POINT
  5
175F0
330
1F
100
AcDbEntity
  8
0
 62
     7
370
     5
100
AcDbPoint
 10
329.8984453452037
 20
-10.8089411031305
 30
0.0
  0
POINT
  5
17673
330
1F
100
AcDbEntity
  8
0
 62
     7
370
     5
100
AcDbPoint
 10
651.3183805762602
 20
33.1650220174441
 30
0.0
  0
POINT
  5
17677
330
1F
100
AcDbEntity
  8
0
 62
     7
370
     5
100
AcDbPoint
 10
651.3183805762602
 20
-21.99992098255592
 30
0.0
  0
POINT
  5
1770F
330
1F
100
AcDbEntity
  8
0
 62
     7
370
     5
100
AcDbPoint
 10
1014.212196760976
 20
-27.33731747488401
 30
0.0
  0
POINT
  5
17718
330
1F
100
AcDbEntity
  8
0
 62
     7
370
     5
100
AcDbPoint
 10
1014.212196760976
 20
30.00474752511599
 30
0.0
  0
POINT
  5
17790
330
1F
100
AcDbEntity
  8
0
 62
     7
370
     5
100
AcDbPoint
 10
1421.356448019548
 20
-26.9349024739204
 30
0.0
  0
POINT
  5
1779E
330
1F
100
AcDbEntity
  8
0
 62
     7
370
     5
100
AcDbPoint
 10
1421.356448019548
 20
21.9806675260796
 30
0.0
  0
POINT
  5
1779F
330
1F
100
AcDbEntity
  8
0
 62
     7
370
     5
100
AcDbPoint
 10
1413.056448019548
 20
21.9806675260796
 30
0.0
  0
POINT
  5
1781A
330
1F
100
AcDbEntity
  8
0
 62
     7
370
     5
100
AcDbPoint
 10
1720.045575829729
 20
23.92611327127983
 30
0.0
  0
POINT
  5
1781D
330
1F
100
AcDbEntity
  8
0
 62
     7
370
     5
100
AcDbPoint
 10
1720.045575829729
 20
-24.59612772872018
 30
0.0
  0
POINT
  5
178A0
330
1F
100
AcDbEntity
  8
0
 62
     7
370
     5
100
AcDbPoint
 10
359.2272976195882
 20
-230.0319820838431
 30
0.0
  0
POINT
  5
178A3
330
1F
100
AcDbEntity
  8
0
 62
     7
370
     5
100
AcDbPoint
 10
359.2273026195881
 20
-278.361407083843
 30
0.0
  0
POINT
  5
17926
330
1F
100
AcDbEntity
  8
0
 62
     7
370
     5
100
AcDbPoint
 10
669.6174077737214
 20
-230.0319820838431
 30
0.0
  0
POINT
  5
17929
330
1F
100
AcDbEntity
  8
0
 62
     7
370
     5
100
AcDbPoint
 10
669.6174087737214
 20
-278.361407083843
 30
0.0
  0
POINT
  5
179AC
330
1F
100
AcDbEntity
  8
0
 62
     7
370
     5
100
AcDbPoint
 10
1023.306532042488
 20
-235.6329118492064
 30
0.0
  0
POINT
  5
179AF
330
1F
100
AcDbEntity
  8
0
 62
     7
370
     5
100
AcDbPoint
 10
1023.306532042488
 20
-284.2001848492064
 30
0.0
  0
POINT
  5
17A32
330
1F
100
AcDbEntity
  8
0
 62
     7
370
     5
100
AcDbPoint
 10
1352.196645196622
 20
-235.6329118492064
 30
0.0
  0
POINT
  5
17A36
330
1F
100
AcDbEntity
  8
0
 62
     7
370
     5
100
AcDbPoint
 10
1352.196645196622
 20
-290.7980508492065
 30
0.0
  0
POINT
  5
17AD1
330
1F
100
AcDbEntity
  8
0
 62
     7
370
     5
100
AcDbPoint
 10
1715.365188016996
 20
-237.9716865944066
 30
0.0
  0
POINT
  5
17AD4
330
1F
100
AcDbEntity
  8
0
 62
     7
370
     5
100
AcDbPoint
 10
1715.365188016996
 20
-286.5389595944066
 30
0.0
  0
POINT
  5
17B57
330
1F
100
AcDbEntity
  8
0
 62
     7
370
     5
100
AcDbPoint
 10
331.5674947966618
 20
-480.7206417139288
 30
0.0
  0
POINT
  5
17B5A
330
1F
100
AcDbEntity
  8
0
 62
     7
370
     5
100
AcDbPoint
 10
331.5674987966619
 20
-532.8452337139288
 30
0.0
  0
POINT
  5
17BD8
330
1F
100
AcDbEntity
  8
0
 62
     7
370
     5
100
AcDbPoint
 10
667.4370134195751
 20
-483.059416459129
 30
0.0
  0
POINT
  5
17BDB
330
1F
100
AcDbEntity
  8
0
 62
     7
370
     5
100
AcDbPoint
 10
667.4370134195751
 20
-535.184008459129
 30
0.0
  0
POINT
  5
17C59
330
1F
100
AcDbEntity
  8
0
 62
     7
370
     5
100
AcDbPoint
 10
1032.757662940594
 20
-479.9258798209486
 30
0.0
  0
POINT
  5
17C5C
330
1F
100
AcDbEntity
  8
0
 62
     7
370
     5
100
AcDbPoint
 10
1032.757665940594
 20
-532.1255208209487
 30
0.0
  0
POINT
  5
17CDA
330
1F
100
AcDbEntity
  8
0
 62
     7
370
     5
100
AcDbPoint
 10
1350.446793750775
 20
-475.452849330548
 30
0.0
  0
POINT
  5
17CDE
330
1F
100
AcDbEntity
  8
0
 62
     7
370
     5
100
AcDbPoint
 10
1350.446795750775
 20
-535.7299113305479
 30
0.0
  0
POINT
  5
17D79
330
1F
100
AcDbEntity
  8
0
 62
     7
370
     5
100
AcDbPoint
 10
1724.816312373689
 20
-484.6034323315118
 30
0.0
  0
POINT
  5
17D7C
330
1F
100
AcDbEntity
  8
0
 62
     7
370
     5
100
AcDbPoint
 10
1724.816312373689
 20
-536.8030733315118
 30
0.0
  0
POINT
  5
17DFA
330
1F
100
AcDbEntity
  8
0
 62
     7
370
     5
100
AcDbPoint
 10
292.6784219762804
 20
-717.1006079596696
 30
0.0
  0
POINT
  5
17DFE
330
1F
100
AcDbEntity
  8
0
 62
     7
370
     5
100
AcDbPoint
 10
292.6784249762804
 20
-777.3013929596698
 30
0.0
  0
POINT
  5
17E99
330
1F
100
AcDbEntity
  8
0
 62
     7
370
     5
100
AcDbPoint
 10
668.1772397573285
 20
-728.8489624009062
 30
0.0
  0
POINT
  5
17E9C
330
1F
100
AcDbEntity
  8
0
 62
     7
370
     5
100
AcDbPoint
 10
668.1772397573285
 20
-780.9735614009062
 30
0.0
  0
POINT
  5
17F19
330
1F
100
AcDbEntity
  8
0
 62
     7
370
     5
100
AcDbPoint
 10
1014.680140542377
 20
-727.4779055808943
 30
0.0
  0
POINT
  5
17F1E
330
1F
100
AcDbEntity
  8
0
 62
     7
370
     5
100
AcDbPoint
 10
1014.680139542377
 20
-792.8842465808943
 30
0.0
  0
POINT
  5
17F82
330
1F
100
AcDbEntity
  8
0
 62
     7
370
     5
100
AcDbPoint
 10
1363.039112172955
 20
-778.9168242007557
 30
0.0
  0
POINT
  5
17F8B
330
1F
100
AcDbEntity
  8
0
 62
     7
370
     5
100
AcDbPoint
 10
1363.039112172955
 20
-712.5175752007558
 30
0.0
  0
POINT
  5
17FE8
330
1F
100
AcDbEntity
  8
0
 62
     7
370
     5
100
AcDbPoint
 10
1718.366870633272
 20
-723.7460446679111
 30
0.0
  0
POINT
  5
17FEB
330
1F
100
AcDbEntity
  8
0
 62
     7
370
     5
100
AcDbPoint
 10
1718.366871633272
 20
-789.389202667911
 30
0.0
  0
POINT
  5
18051
330
1F
100
AcDbEntity
  8
0
 62
     7
370
     5
100
AcDbPoint
 10
319.6383345054979
 20
-967.5893901625666
 30
0.0
  0
POINT
  5
18054
330
1F
100
AcDbEntity
  8
0
 62
     7
370
     5
100
AcDbPoint
 10
319.6383355054979
 20
-1032.973459162567
 30
0.0
  0
POINT
  5
180BA
330
1F
100
AcDbEntity
  8
0
 62
     7
370
     5
100
AcDbPoint
 10
680.5370709864296
 20
-963.1934877025301
 30
0.0
  0
POINT
  5
180BB
330
1F
100
AcDbEntity
  8
0
 62
     7
370
     5
100
AcDbPoint
 10
629.5370709864297
 20
-967.19348770253
 30
0.0
  0
POINT
  5
180BE
330
1F
100
AcDbEntity
  8
0
 62
     7
370
     5
100
AcDbPoint
 10
680.5370759864297
 20
-1028.58231170253
 30
0.0
  0
POINT
  5
18125
330
1F
100
AcDbEntity
  8
0
 62
     7
370
     5
100
AcDbPoint
 10
1025.504908559649
 20
-985.5078641637318
 30
0.0
  0
POINT
  5
18128
330
1F
100
AcDbEntity
  8
0
 62
     7
370
     5
100
AcDbPoint
 10
935.4436665596491
 20
-985.5078641637318
 30
0.0
  0
POINT
  5
181A3
330
1F
100
AcDbEntity
  8
0
 62
     7
370
     5
100
AcDbPoint
 10
1372.616021513803
 20
-994.9832624236179
 30
0.0
  0
POINT
  5
181A6
330
1F
100
AcDbEntity
  8
0
 62
     7
370
     5
100
AcDbPoint
 10
1282.554779513803
 20
-994.9832624236179
 30
0.0
  0
POINT
  5
18221
330
1F
100
AcDbEntity
  8
0
 62
     7
370
     5
100
AcDbPoint
 10
1726.183901955964
 20
-986.4057379766256
 30
0.0
  0
POINT
  5
18224
330
1F
100
AcDbEntity
  8
0
 62
     7
370
     5
100
AcDbPoint
 10
1636.122660955965
 20
-987.7852319766256
 30
0.0
  0
POINT
  5
1829F
330
1F
100
AcDbEntity
  8
0
 62
     7
370
     5
100
AcDbPoint
 10
315.0667151318947
 20
-1233.667447704089
 30
0.0
  0
POINT
  5
182A2
330
1F
100
AcDbEntity
  8
0
 62
     7
370
     5
100
AcDbPoint
 10
225.0054731318947
 20
-1234.512880704089
 30
0.0
  0
POINT
  5
1831D
330
1F
100
AcDbEntity
  8
0
 62
     7
370
     5
100
AcDbPoint
 10
666.5716365787308
 20
-1228.374582524101
 30
0.0
  0
POINT
  5
18320
330
1F
100
AcDbEntity
  8
0
 62
     7
370
     5
100
AcDbPoint
 10
576.510395578731
 20
-1229.476628524102
 30
0.0
  0
POINT
  5
1C1E5
330
1F
100
AcDbEntity
  8
0
 62
     7
370
     5
100
AcDbPoint
 10
565.1931729999843
 20
-252.0327741049043
 30
0.0
  0
POINT
  5
1C1E8
330
1F
100
AcDbEntity
  8
0
 62
     7
370
     5
100
AcDbPoint
 10
571.0793859999843
 20
-171.4824511049043
 30
0.0
  0
POINT
  5
1C393
330
1F
100
AcDbEntity
  8
0
 62
     7
370
     5
100
AcDbPoint
 10
852.7529560248229
 20
-161.0786730235244
 30
0.0
  0
POINT
  5
1C3A1
330
1F
100
AcDbEntity
  8
0
 62
     7
370
     5
100
AcDbPoint
 10
853.6840430248233
 20
-256.0650500235244
 30
0.0
  0
POINT
  5
1C476
330
1F
100
AcDbEntity
  8
0
 62
     7
370
     5
100
AcDbPoint
 10
1100.710829294269
 20
-179.9690311044011
 30
0.0
  0
POINT
  5
1C484
330
1F
100
AcDbEntity
  8
0
 62
     7
370
     5
100
AcDbPoint
 10
1097.008556294269
 20
-246.8144071044011
 30
0.0
  0
POINT
  5
1C54E
330
1F
100
AcDbEntity
  8
0
 62
     7
370
     5
100
AcDbPoint
 10
327.4559894717282
 20
-242.3690707660675
 30
0.0
  0
POINT
  5
1C54F
330
1F
100
AcDbEntity
  8
0
 62
     7
370
     5
100
AcDbPoint
 10
323.7573724717281
 20
-242.3490727660675
 30
0.0
  0
POINT
  5
1C632
330
1F
100
AcDbEntity
  8
0
 62
     7
370
     5
100
AcDbPoint
 10
301.1069300782104
 20
37.7626127561465
 30
0.0
  0
POINT
  5
1C640
330
1F
100
AcDbEntity
  8
0
 62
     7
370
     5
100
AcDbPoint
 10
301.4480630782105
 20
-36.93915824385351
 30
0.0
  0
POINT
  5
1C6B9
330
1F
100
AcDbEntity
  8
0
 62
     1
370
     5
100
AcDbPoint
 10
582.4029449258979
 20
29.4620864008466
 30
0.0
  0
POINT
  5
1C6C7
330
1F
100
AcDbEntity
  8
0
 62
     7
370
     5
100
AcDbPoint
 10
567.6899119258981
 20
-44.52450559915339
 30
0.0
  0
POINT
  5
1C740
330
1F
100
AcDbEntity
  8
0
 62
     7
370
     5
100
AcDbPoint
 10
838.8170717714807
 20
31.21800268959555
 30
0.0
  0
POINT
  5
1C74E
330
1F
100
AcDbEntity
  8
0
 62
     7
370
     5
100
AcDbPoint
 10
830.8810477714807
 20
-42.18143931040443
 30
0.0
  0
POINT
  5
1C7C7
330
1F
100
AcDbEntity
  8
0
 62
     7
370
     5
100
AcDbPoint
 10
1082.103046320498
 20
26.65705560741793
 30
0.0
  0
POINT
  5
1C850
330
1F
100
AcDbEntity
  8
0
 62
     7
370
     5
100
AcDbPoint
 10
1320.708032031059
 20
-54.79519568133104
 30
0.0
  0
POINT
  5
1C851
330
1F
100
AcDbEntity
  8
0
 62
     7
370
     5
100
AcDbPoint
 10
1317.008086031059
 20
-54.77519668133105
 30
0.0
  0
POINT
  5
1C9A2
330
1F
100
AcDbEntity
  8
0
 62
     7
370
     5
100
AcDbPoint
 10
1351.994597785224
 20
-177.9923767989125
 30
0.0
  0
POINT
  5
1C9B0
330
1F
100
AcDbEntity
  8
0
 62
     7
370
     5
100
AcDbPoint
 10
1347.069666785224
 20
-246.9150937989126
 30
0.0
  0
POINT
  5
1C9B1
330
1F
100
AcDbEntity
  8
0
 62
     7
370
     5
100
AcDbPoint
 10
1343.369666785224
 20
-246.9154057989126
 30
0.0
  0
POINT
  5
1CBC0
330
1F
100
AcDbEntity
  8
0
 62
     7
370
     5
100
AcDbPoint
 10
317.2946666194903
 20
-384.0973382926297
 30
0.0
  0
POINT
  5
1CBCE
330
1F
100
AcDbEntity
  8
0
 62
     7
370
     5
100
AcDbPoint
 10
305.7896836194903
 20
-451.8667572926297
 30
0.0
  0
POINT
  5
1CE43
330
1F
100
AcDbEntity
  8
0
 62
     7
370
     5
100
AcDbPoint
 10
610.2304875856865
 20
-368.9630837278421
 30
0.0
  0
POINT
  5
1CE51
330
1F
100
AcDbEntity
  8
0
 62
     7
370
     5
100
AcDbPoint
 10
597.1811595856864
 20
-452.2435397278421
 30
0.0
  0
POINT
  5
1CFFB
330
1F
100
AcDbEntity
  8
0
 62
     7
370
     5
100
AcDbPoint
 10
839.2202580447737
 20
-378.5041957660768
 30
0.0
  0
POINT
  5
1D009
330
1F
100
AcDbEntity
  8
0
 62
     7
370
     5
100
AcDbPoint
 10
825.6021750447738
 20
-448.0865117660767
 30
0.0
  0
POINT
  5
1D1B5
330
1F
100
AcDbEntity
  8
0
 62
     7
370
     5
100
AcDbPoint
 10
1100.187375054744
 20
-364.0090280464956
 30
0.0
  0
POINT
  5
1D1C3
330
1F
100
AcDbEntity
  8
0
 62
     7
370
     5
100
AcDbPoint
 10
1086.025427054744
 20
-454.4328780464955
 30
0.0
  0
POINT
  5
1D374
330
1F
100
AcDbEntity
  8
0
 62
     7
370
     5
100
AcDbPoint
 10
1381.669306853374
 20
-372.7791370028926
 30
0.0
  0
POINT
  5
1D382
330
1F
100
AcDbEntity
  8
0
 62
     7
370
     5
100
AcDbPoint
 10
1368.476322853373
 20
-450.1870130028925
 30
0.0
  0
POINT
  5
1D6D5
330
1F
100
AcDbEntity
  8
0
 62
     7
370
     5
100
AcDbPoint
 10
555.980533625745
 20
-586.1972507296687
 30
0.0
  0
POINT
  5
1D6E2
330
1F
100
AcDbEntity
  8
0
 62
     7
370
     5
100
AcDbPoint
 10
545.2688206257452
 20
-642.7388317296686
 30
0.0
  0
POINT
  5
1D913
330
1F
100
AcDbEntity
  8
0
 62
     7
370
     5
100
AcDbPoint
 10
811.7646110501747
 20
-579.6655508098913
 30
0.0
  0
POINT
  5
1D920
330
1F
100
AcDbEntity
  8
0
 62
     7
370
     5
100
AcDbPoint
 10
805.5538980501744
 20
-635.4594578098913
 30
0.0
  0
POINT
  5
1DA40
330
1F
100
AcDbEntity
  8
0
 62
     7
370
     5
100
AcDbPoint
 10
298.0831789389279
 20
-586.3373810040569
 30
0.0
  0
POINT
  5
1E2C1
330
1F
100
AcDbEntity
  8
0
 62
     7
370
     5
100
AcDbPoint
 10
1353.213944337289
 20
-176.2661773838116
 30
0.0
  0
POINT
  5
1E2CF
330
1F
100
AcDbEntity
  8
0
 62
     7
370
     5
100
AcDbPoint
 10
1348.289013337289
 20
-245.1888943838117
 30
0.0
  0
POINT
  5
1E2D0
330
1F
100
AcDbEntity
  8
0
 62
     7
370
     5
100
AcDbPoint
 10
1344.589013337289
 20
-245.1892063838116
 30
0.0
  0
POINT
  5
1E4A3
330
1F
100
AcDbEntity
  8
0
 62
     7
370
     5
100
AcDbPoint
 10
1326.152836266696
 20
34.20326680208106
 30
0.0
  0
POINT
  5
1E4B1
330
1F
100
AcDbEntity
  8
0
 62
     7
370
     5
100
AcDbPoint
 10
1326.493969266696
 20
-40.49850419791893
 30
0.0
  0
POINT
  5
20BCD
330
1F
100
AcDbEntity
  8
0
 62
     7
370
     5
100
AcDbPoint
 10
198.5275522941832
 20
-13.7218025139382
 30
0.0
  0
POINT
  5
20BD6
330
1F
100
AcDbEntity
  8
0
 62
     7
370
     5
100
AcDbPoint
 10
220.4558262941833
 20
15.6077834860618
 30
0.0
  0
POINT
  5
20BD7
330
1F
100
AcDbEntity
  8
0
 62
     7
370
     5
100
AcDbPoint
 10
198.4558262941832
 20
12.6077834860618
 30
0.0
  0
POINT
  5
20C58
330
1F
100
AcDbEntity
  8
0
 62
     7
370
     5
100
AcDbPoint
 10
414.326812844455
 20
11.02280615656721
 30
0.0
  0
POINT
  5
20C59
330
1F
100
AcDbEntity
  8
0
 62
     7
370
     5
100
AcDbPoint
 10
392.3268128444551
 20
7.022806156567212
 30
0.0
  0
POINT
  5
20C5C
330
1F
100
AcDbEntity
  8
0
 62
     7
370
     5
100
AcDbPoint
 10
392.3268138444551
 20
-22.29245184343279
 30
0.0
  0
POINT
  5
20CE3
330
1F
100
AcDbEntity
  8
0
 62
     7
370
     5
100
AcDbPoint
 10
595.8481562583682
 20
11.26212415656721
 30
0.0
  0
POINT
  5
20CE4
330
1F
100
AcDbEntity
  8
0
 62
     7
370
     5
100
AcDbPoint
 10
561.8481562583682
 20
3.262124156567208
 30
0.0
  0
POINT
  5
20CE6
330
1F
100
AcDbEntity
  8
0
 62
     7
370
     5
100
AcDbPoint
 10
561.8481562583682
 20
-39.26495684343278
 30
0.0
  0
POINT
  5
20D5E
330
1F
100
AcDbEntity
  8
0
 62
     7
370
     5
100
AcDbPoint
 10
796.8108405913596
 20
-1.622354670075452
 30
0.0
  0
POINT
  5
20D5F
330
1F
100
AcDbEntity
  8
0
 62
     7
370
     5
100
AcDbPoint
 10
771.8108405913596
 20
-6.622354670075452
 30
0.0
  0
POINT
  5
20D62
330
1F
100
AcDbEntity
  8
0
 62
     7
370
     5
100
AcDbPoint
 10
771.8108415913595
 20
-44.22139367007546
 30
0.0
  0
POINT
  5
20DE5
330
1F
100
AcDbEntity
  8
0
 62
     7
370
     5
100
AcDbPoint
 10
997.5956593431575
 20
6.154053161141687
 30
0.0
  0
POINT
  5
20DE6
330
1F
100
AcDbEntity
  8
0
 62
     7
370
     5
100
AcDbPoint
 10
963.5956593431576
 20
-3.84594683885831
 30
0.0
  0
POINT
  5
20DE8
330
1F
100
AcDbEntity
  8
0
 62
     7
370
     5
100
AcDbPoint
 10
963.5956593431576
 20
-48.6248158388583
 30
0.0
  0
POINT
  5
20E5D
330
1F
100
AcDbEntity
  8
0
 62
     7
370
     5
100
AcDbPoint
 10
209.7442369247441
 20
-211.8062287972217
 30
0.0
  0
POINT
  5
20E66
330
1F
100
AcDbEntity
  8
0
 62
     7
370
     5
100
AcDbPoint
 10
231.7442369247441
 20
-173.8710347972217
 30
0.0
  0
POINT
  5
20E67
330
1F
100
AcDbEntity
  8
0
 62
     7
370
     5
100
AcDbPoint
 10
209.7442369247441
 20
-179.3710347972217
 30
0.0
  0
POINT
  5
20EE1
330
1F
100
AcDbEntity
  8
0
 62
     7
370
     5
100
AcDbPoint
 10
384.6743099214819
 20
-210.4126915562921
 30
0.0
  0
POINT
  5
20EEB
330
1F
100
AcDbEntity
  8
0
 62
     7
370
     5
100
AcDbPoint
 10
409.6743099214817
 20
-168.248029556292
 30
0.0
  0
POINT
  5
20EEC
330
1F
100
AcDbEntity
  8
0
 62
     7
370
     5
100
AcDbPoint
 10
384.6743099214819
 20
-174.248029556292
 30
0.0
  0
POINT
  5
20F6B
330
1F
100
AcDbEntity
  8
0
 62
     7
370
     5
100
AcDbPoint
 10
589.027789486203
 20
-154.2267571311068
 30
0.0
  0
POINT
  5
20F6C
330
1F
100
AcDbEntity
  8
0
 62
     7
370
     5
100
AcDbPoint
 10
555.027789486203
 20
-166.2267571311068
 30
0.0
  0
POINT
  5
20F6E
330
1F
100
AcDbEntity
  8
0
 62
     7
370
     5
100
AcDbPoint
 10
555.027789486203
 20
-220.1583441311068
 30
0.0
  0
POINT
  5
20FE7
330
1F
100
AcDbEntity
  8
0
 62
     7
370
     5
100
AcDbPoint
 10
794.4609892408081
 20
-176.9240641499829
 30
0.0
  0
POINT
  5
20FE8
330
1F
100
AcDbEntity
  8
0
 62
     7
370
     5
100
AcDbPoint
 10
772.4609892408077
 20
-183.4240641499829
 30
0.0
  0
POINT
  5
20FEB
330
1F
100
AcDbEntity
  8
0
 62
     7
370
     5
100
AcDbPoint
 10
772.4609902408077
 20
-220.0080011499829
 30
0.0
  0
POINT
  5
21068
330
1F
100
AcDbEntity
  8
0
 62
     7
370
     5
100
AcDbPoint
 10
980.7257767233267
 20
-225.8659069279295
 30
0.0
  0
POINT
  5
21072
330
1F
100
AcDbEntity
  8
0
 62
     7
370
     5
100
AcDbPoint
 10
1000.725776723327
 20
-181.1593259279295
 30
0.0
  0
POINT
  5
21073
330
1F
100
AcDbEntity
  8
0
 62
     7
370
     5
100
AcDbPoint
 10
980.7257767233267
 20
-188.1593259279295
 30
0.0
  0
POINT
  5
24E51
330
1F
100
AcDbEntity
  8
0
 62
     7
370
     5
100
AcDbPoint
 10
233.2059843961101
 20
-36.0789366070161
 30
0.0
  0
POINT
  5
24E5A
330
1F
100
AcDbEntity
  8
0
 62
     7
370
     5
100
AcDbPoint
 10
314.4377803961102
 20
35.1487553929839
 30
0.0
  0
POINT
  5
24E5B
330
1F
100
AcDbEntity
  8
0
 62
     7
370
     5
100
AcDbPoint
 10
234.4377803961101
 20
19.1487553929839
 30
0.0
  0
POINT
  5
24ECD
330
1F
100
AcDbEntity
  8
0
 62
     7
370
     5
100
AcDbPoint
 10
503.7517578950278
 20
-44.34341865794009
 30
0.0
  0
POINT
  5
24ED5
330
1F
100
AcDbEntity
  8
0
 62
     7
370
     5
100
AcDbPoint
 10
589.9610418950277
 20
46.51953834205989
 30
0.0
  0
POINT
  5
24ED6
330
1F
100
AcDbEntity
  8
0
 62
     7
370
     5
100
AcDbPoint
 10
504.9610418950278
 20
26.51953834205989
 30
0.0
  0
POINT
  5
24F33
330
1F
100
AcDbEntity
  8
0
 62
     7
370
     5
100
AcDbPoint
 10
804.954816789268
 20
-53.36089903708293
 30
0.0
  0
POINT
  5
24F3B
330
1F
100
AcDbEntity
  8
0
 62
     7
370
     5
100
AcDbPoint
 10
901.222594789268
 20
37.79953596291708
 30
0.0
  0
POINT
  5
24F3C
330
1F
100
AcDbEntity
  8
0
 62
     7
370
     5
100
AcDbPoint
 10
806.2225947892681
 20
17.79953596291707
 30
0.0
  0
POINT
  5
24F9C
330
1F
100
AcDbEntity
  8
0
 62
     7
370
     5
100
AcDbPoint
 10
1210.776659634684
 20
28.2041337387349
 30
0.0
  0
POINT
  5
24F9D
330
1F
100
AcDbEntity
  8
0
 62
     7
370
     5
100
AcDbPoint
 10
1125.776659634684
 20
3.204133738734923
 30
0.0
  0
POINT
  5
24FA0
330
1F
100
AcDbEntity
  8
0
 62
     7
370
     5
100
AcDbPoint
 10
1122.825092634684
 20
-62.80906226126507
 30
0.0
  0
POINT
  5
25003
330
1F
100
AcDbEntity
  8
0
 62
     7
370
     5
100
AcDbPoint
 10
1533.294671945107
 20
39.46909335504969
 30
0.0
  0
POINT
  5
25004
330
1F
100
AcDbEntity
  8
0
 62
     7
370
     5
100
AcDbPoint
 10
1423.294671945108
 20
14.46909335504972
 30
0.0
  0
POINT
  5
25007
330
1F
100
AcDbEntity
  8
0
 62
     7
370
     5
100
AcDbPoint
 10
1423.294671945108
 20
-61.69357464495027
 30
0.0
  0
POINT
  5
25069
330
1F
100
AcDbEntity
  8
0
 62
     7
370
     5
100
AcDbPoint
 10
279.5191352462189
 20
-235.8578081995934
 30
0.0
  0
POINT
  5
2506A
330
1F
100
AcDbEntity
  8
0
 62
     7
370
     5
100
AcDbPoint
 10
224.5191352462189
 20
-255.8578081995934
 30
0.0
  0
POINT
  5
2506E
330
1F
100
AcDbEntity
  8
0
 62
     7
370
     5
100
AcDbPoint
 10
223.2724782462189
 20
-314.3072531995934
 30
0.0
  0
POINT
  5
250D0
330
1F
100
AcDbEntity
  8
0
 62
     7
370
     5
100
AcDbPoint
 10
552.5501754157779
 20
-231.1433806045495
 30
0.0
  0
POINT
  5
250D1
330
1F
100
AcDbEntity
  8
0
 62
     7
370
     5
100
AcDbPoint
 10
487.5501754157781
 20
-256.1433806045495
 30
0.0
  0
POINT
  5
250D5
330
1F
100
AcDbEntity
  8
0
 62
     7
370
     5
100
AcDbPoint
 10
487.5501754157781
 20
-323.3343576045494
 30
0.0
  0
POINT
  5
25137
330
1F
100
AcDbEntity
  8
0
 62
     7
370
     5
100
AcDbPoint
 10
855.1566106432487
 20
-229.371519220024
 30
0.0
  0
POINT
  5
25138
330
1F
100
AcDbEntity
  8
0
 62
     7
370
     5
100
AcDbPoint
 10
762.1566106432488
 20
-260.871519220024
 30
0.0
  0
POINT
  5
2513C
330
1F
100
AcDbEntity
  8
0
 62
     7
370
     5
100
AcDbPoint
 10
760.9104996432486
 20
-349.238300220024
 30
0.0
  0
POINT
  5
2519F
330
1F
100
AcDbEntity
  8
0
 62
     7
370
     5
100
AcDbPoint
 10
1192.36388959937
 20
-218.9805098816409
 30
0.0
  0
POINT
  5
251A0
330
1F
100
AcDbEntity
  8
0
 62
     7
370
     5
100
AcDbPoint
 10
1092.36388959937
 20
-258.9805098816409
 30
0.0
  0
POINT
  5
251A4
330
1F
100
AcDbEntity
  8
0
 62
     7
370
     5
100
AcDbPoint
 10
1092.54560259937
 20
-365.6111158816409
 30
0.0
  0
POINT
  5
27C4D
330
1F
100
AcDbEntity
  8
1
 62
     7
370
     5
100
AcDbPoint
 10
185.936684180983
 20
12.22790901277693
 30
0.0
  0
POINT
  5
27C4E
330
1F
100
AcDbEntity
  8
1
 62
     7
370
     5
100
AcDbPoint
 10
185.936684180983
 20
9.517281012776946
 30
0.0
  0
POINT
  5
27DA0
330
1F
100
AcDbEntity
  8
1
 62
     7
370
     5
100
AcDbPoint
 10
159.7240994851886
 20
22.81916357545765
 30
0.0
  0
POINT
  5
27DA1
330
1F
100
AcDbEntity
  8
1
 62
     7
370
     5
100
AcDbPoint
 10
159.7240994851886
 20
20.10853557545767
 30
0.0
  0
POINT
  5
28B80
330
1F
100
AcDbEntity
  8
0
 62
     7
370
     5
100
AcDbPoint
 10
-108.3844236581584
 20
-61.41399158543199
 30
0.0
  0
POINT
  5
28D5B
330
1F
100
AcDbEntity
  8
0
 62
     7
370
     5
100
AcDbPoint
 10
-94.15639370577505
 20
-48.79010226493504
 30
0.0
  0
POINT
  5
28EFA
330
1F
100
AcDbEntity
  8
1
 62
     7
370
     5
100
AcDbPoint
 10
-232.8318923611295
 20
7.497061983849674
 30
0.0
  0
INSERT
  5
29243
330
1F
100
AcDbEntity
  8
SK2
100
AcDbBlockReference
  2
CERO_POINT
 10
-0.0000000000036948
 20
-0.0000000000000142
 30
0.0
  0
DIMENSION
  5
295B9
330
1F
100
AcDbEntity
  8
SK2
100
AcDbDimension
  2
*D2
 10
-39.54507099999999
 20
6.0
 30
0.0
 11
-39.54507099999999
 21
0.0
 31
0.0
 70
   161
  1
M12
 71
     5
 42
12.0
  3
MM_STANDARD
100
AcDbAlignedDimension
 13
-21.99999999999999
 23
-6.0
 33
0.0
 14
-21.99999999999999
 24
6.0
 34
0.0
1001
ACAD
1000
DSTYLE
1002
{
1070
   279
1070
     0
1070
    78
1070
     9
1070
    79
1070
     2
1070
    90
1070
     1
1070
   172
1070
     1
1070
   345
1005
14
1070
   346
1005
14
1070
   347
1005
14
1002
}
1001
ACAD_DSTYLE_DIMARC_LENGTH_SYMBOL
1070
   379
1070
     1
1001
ACAD_DSTYLE_DIM_LINETYPE
1070
   380
1005
14
1001
ACAD_DSTYLE_DIM_EXT1_LINETYPE
1070
   381
1005
14
1001
ACAD_DSTYLE_DIM_EXT2_LINETYPE
1070
   382
1005
14
  0
DIMENSION
  5
295EE
330
1F
100
AcDbEntity
  8
2
100
AcDbDimension
  2
*D4
 10
34.94357400000001
 20
30.34993299999999
 30
0.0
 11
14.20202445678147
 21
30.34993299999999
 31
0.0
 70
   161
 71
     5
 42
11.69999999999999
  3
MM_STANDARD
100
AcDbAlignedDimension
 13
23.24357400000002
 23
12.63968199999999
 33
0.0
 14
34.94357400000001
 24
12.63968199999999
 34
0.0
1001
ACAD
1000
DSTYLE
1002
{
1070
   279
1070
     0
1070
    78
1070
     9
1070
    79
1070
     2
1070
    90
1070
     1
1070
   172
1070
     1
1070
   345
1005
14
1070
   346
1005
14
1070
   347
1005
14
1002
}
1001
ACAD_DSTYLE_DIMARC_LENGTH_SYMBOL
1070
   379
1070
     1
1001
ACAD_DSTYLE_DIM_LINETYPE
1070
   380
1005
14
1001
ACAD_DSTYLE_DIM_EXT1_LINETYPE
1070
   381
1005
14
1001
ACAD_DSTYLE_DIM_EXT2_LINETYPE
1070
   382
1005
14
  0
LINE
  5
29609
330
1F
100
AcDbEntity
  8
SK4
100
AcDbLine
 10
-27.61751199999999
 20
0.0
 30
0.0
 11
0.0
 21
0.0
 31
0.0
  0
LINE
  5
2960A
330
1F
100
AcDbEntity
  8
SK3
100
AcDbLine
 10
18.56990000000002
 20
1.5
 30
0.0
 11
-21.99999999999999
 21
1.5
 31
0.0
  0
LINE
  5
2960B
330
1F
100
AcDbEntity
  8
SK3
100
AcDbLine
 10
18.56990000000002
 20
1.5
 30
0.0
 11
19.04923000000002
 21
1.496477999999995
 31
0.0
  0
ARC
  5
2960C
330
1F
100
AcDbEntity
  8
SK3
100
AcDbCircle
 10
35.223821
 20
10.48632999999998
 30
0.0
 40
18.43087499999998
100
AcDbArc
 50
209.192878
 51
211.211637
  0
LINE
  5
2960D
330
1F
100
AcDbEntity
  8
SK3
100
AcDbLine
 10
20.0
 20
0.0
 30
0.0
 11
19.46011299999998
 21
0.9351120000000035
 31
0.0
  0
LINE
  5
2960E
330
1F
100
AcDbEntity
  8
SK3
100
AcDbLine
 10
20.0
 20
0.0
 30
0.0
 11
19.13397500000002
 21
-1.5
 31
0.0
  0
LINE
  5
2960F
330
1F
100
AcDbEntity
  8
SK3
100
AcDbLine
 10
19.13397500000002
 20
-1.5
 30
0.0
 11
-21.99999999999999
 21
-1.5
 31
0.0
  0
LINE
  5
29611
330
1F
100
AcDbEntity
  8
1
100
AcDbLine
 10
33.56643500000001
 20
-4.886950000000012
 30
0.0
 11
34.14999999999999
 21
-6.736262000000011
 31
0.0
  0
LINE
  5
29612
330
1F
100
AcDbEntity
  8
1
100
AcDbLine
 10
34.14999999999999
 20
-6.736256999999993
 30
0.0
 11
34.14999999999999
 21
-7.445534000000008
 31
0.0
  0
ARC
  5
29613
330
1F
100
AcDbEntity
  8
1
100
AcDbCircle
 10
802.5059269999996
 20
184.126546
 30
0.0
 40
791.8779019999997
100
AcDbArc
 50
193.8097889999999
 51
193.9999599999999
  0
LINE
  5
29614
330
1F
100
AcDbEntity
  8
1
100
AcDbLine
 10
34.14999999999999
 20
6.233525000000013
 30
0.0
 11
34.14999999999999
 21
-0.1689079999999876
 31
0.0
  0
LINE
  5
29615
330
1F
100
AcDbEntity
  8
1
100
AcDbLine
 10
34.14999999999999
 20
-8.182027000000005
 30
0.0
 11
34.14999999999999
 21
-8.547867999999994
 31
0.0
  0
LINE
  5
29616
330
1F
100
AcDbEntity
  8
1
100
AcDbLine
 10
34.14999999999999
 20
-7.445533000000013
 30
0.0
 11
34.14999999999999
 21
-8.182027000000005
 31
0.0
  0
SPLINE
  5
29617
330
1F
100
AcDbEntity
  8
1
100
AcDbSpline
210
0.0
220
0.0
230
1.0
 70
     8
 71
     5
 72
    18
 73
    12
 74
     0
 42
0.000000001
 43
0.0000000001
 40
0.0
 40
0.0
 40
0.0
 40
0.0
 40
0.0
 40
0.0
 40
0.443066300447324
 40
0.443066300447324
 40
0.443066300447324
 40
0.8884711346369018
 40
0.8884711346369018
 40
0.8884711346369018
 40
1.108089896522817
 40
1.108089896522817
 40
1.108089896522817
 40
1.108089896522817
 40
1.108089896522817
 40
1.108089896522817
 10
33.7153824134902
 20
-0.3008858129343537
 30
0.0
 10
33.77529198775973
 20
-0.2936433016723186
 30
0.0
 10
33.83287730293813
 20
-0.2852041041220446
 30
0.0
 10
33.88680325238655
 20
-0.2757377625888182
 30
0.0
 10
33.98519927365282
 20
-0.2551412533172766
 30
0.0
 10
34.06038712243526
 20
-0.232268301221751
 30
0.0
 10
34.09131635401576
 20
-0.2204712448238126
 30
0.0
 10
34.1263923416804
 20
-0.202759162922149
 30
0.0
 10
34.14411834855537
 20
-0.1854654081205354
 30
0.0
 10
34.14803807565988
 20
-0.1798303914711425
 30
0.0
 10
34.15000000000004
 20
-0.1743017155999951
 30
0.0
 10
34.15000000000004
 20
-0.1689084145035338
 30
0.0
  0
LINE
  5
29618
330
1F
100
AcDbEntity
  8
1
100
AcDbLine
 10
33.71538199999998
 20
6.681489999999997
 30
0.0
 11
33.71538199999998
 21
-0.3008859999999913
 31
0.0
  0
SPLINE
  5
29619
330
1F
100
AcDbEntity
  8
1
100
AcDbSpline
210
0.0
220
0.0
230
1.0
 70
     8
 71
     5
 72
    18
 73
    12
 74
     0
 42
0.000000001
 43
0.0000000001
 40
0.0
 40
0.0
 40
0.0
 40
0.0
 40
0.0
 40
0.0
 40
0.4405902628980762
 40
0.4405902628980762
 40
0.4405902628980762
 40
0.8818781876630181
 40
0.8818781876630181
 40
0.8818781876630181
 40
1.100759081356499
 40
1.100759081356499
 40
1.100759081356499
 40
1.100759081356499
 40
1.100759081356499
 40
1.100759081356499
 10
34.15000000000004
 20
6.233524691229717
 30
0.0
 10
34.15000000000004
 20
6.274778977750287
 30
0.0
 10
34.14198233391426
 20
6.317331610082987
 30
0.0
 10
34.12585625732976
 20
6.360237500277405
 30
0.0
 10
34.07806011670488
 20
6.444724050122089
 30
0.0
 10
34.00223834068328
 20
6.522585167306202
 30
0.0
 10
33.95803257951377
 20
6.558928307286093
 30
0.0
 10
33.88421254024973
 20
6.608125839541457
 30
0.0
 10
33.80167775822719
 20
6.648242936325261
 30
0.0
 10
33.7735067862381
 20
6.660472206703532
 30
0.0
 10
33.74468851041956
 20
6.671569786147045
 30
0.0
 10
33.7153824134902
 20
6.681489531072799
 30
0.0
  0
LINE
  5
2961A
330
1F
100
AcDbEntity
  8
1
100
AcDbLine
 10
33.71538199999998
 20
-8.722412999999987
 30
0.0
 11
33.71538199999998
 21
-9.124625000000008
 31
0.0
  0
ARC
  5
2961B
330
1F
100
AcDbEntity
  8
1
100
AcDbCircle
 10
33.603092
 20
-8.187184000000002
 30
0.0
 40
0.5466349999999957
100
AcDbArc
 50
281.8487320000015
 51
0.5402170000015114
  0
LINE
  5
2961C
330
1F
100
AcDbEntity
  8
1
100
AcDbLine
 10
29.88964900000002
 20
-9.533768000000009
 30
0.0
 11
29.88964900000002
 21
-10.22163599999999
 31
0.0
  0
ARC
  5
2961D
330
1F
100
AcDbEntity
  8
1
100
AcDbCircle
 10
-35.721411
 20
309.322081
 30
0.0
 40
325.536196
100
AcDbArc
 50
281.627474
 51
282.3158
  0
ARC
  5
2961E
330
1F
100
AcDbEntity
  8
1
100
AcDbCircle
 10
-135.669657
 20
-494.1072019999999
 30
0.0
 40
528.6593
100
AcDbArc
 50
71.312584
 51
71.749734
  0
LINE
  5
2961F
330
1F
100
AcDbEntity
  8
1
100
AcDbLine
 10
33.71538199999998
 20
-0.3008859999999913
 30
0.0
 11
29.88964900000002
 21
-0.7618290000000059
 31
0.0
  0
LINE
  5
29620
330
1F
100
AcDbEntity
  8
1
100
AcDbLine
 10
29.88964900000002
 20
7.959350000000001
 30
0.0
 11
29.88964900000002
 21
-0.7618290000000059
 31
0.0
  0
ARC
  5
29621
330
1F
100
AcDbEntity
  8
1
100
AcDbCircle
 10
8.476018000000008
 20
178.318933
 30
0.0
 40
180.356722
100
AcDbArc
 50
274.487727
 51
276.818783
  0
ARC
  5
29622
330
1F
100
AcDbEntity
  8
1
100
AcDbCircle
 10
-20.79605199999999
 20
-5.036397999999991
 30
0.0
 40
43.52919199999997
100
AcDbArc
 50
1.351189999999995
 51
4.679704999999995
  0
ARC
  5
29623
330
1F
100
AcDbEntity
  8
1
100
AcDbCircle
 10
8.487684000000001
 20
180.967683
 30
0.0
 40
185.524427
100
AcDbArc
 50
273.803251
 51
274.399992
  0
LINE
  5
29624
330
1F
100
AcDbEntity
  8
1
100
AcDbLine
 10
20.79361599999999
 20
10.27242699999999
 30
0.0
 11
20.79361599999999
 21
-4.148164000000008
 31
0.0
  0
SPLINE
  5
29625
330
1F
100
AcDbEntity
  8
1
100
AcDbSpline
210
0.0
220
0.0
230
1.0
 70
     8
 71
     5
 72
    12
 73
     6
 74
     0
 42
0.000000001
 43
0.0000000001
 40
0.0
 40
0.0
 40
0.0
 40
0.0
 40
0.0
 40
0.0
 40
8.242383818397286
 40
8.242383818397286
 40
8.242383818397286
 40
8.242383818397286
 40
8.242383818397286
 40
8.242383818397286
 10
20.79361634521877
 20
10.27242725981077
 30
0.0
 10
21.66469825347139
 20
10.0698901752335
 30
0.0
 10
22.55483264112479
 20
9.8534909175481
 30
0.0
 10
23.45924902265955
 20
9.635450318469507
 30
0.0
 10
24.37289835022574
 20
9.423410582463192
 30
0.0
 10
25.29193054840368
 20
9.221235909811895
 30
0.0
  0
ARC
  5
29626
330
1F
100
AcDbEntity
  8
1
100
AcDbCircle
 10
15.23780599999998
 20
-36.41327799999999
 30
0.0
 40
46.72901699999999
100
AcDbArc
 50
71.72677499999995
 51
77.57517999999993
  0
ARC
  5
29627
330
1F
100
AcDbEntity
  8
1
100
AcDbCircle
 10
20.41807699999998
 20
-22.738527
 30
0.0
 40
34.10349399999999
100
AcDbArc
 50
86.20791299999996
 51
89.36905999999996
  0
LINE
  5
29628
330
1F
100
AcDbEntity
  8
1
100
AcDbLine
 10
20.79361599999999
 20
-9.613426000000004
 30
0.0
 11
20.79361599999999
 21
-10.09219899999999
 31
0.0
  0
ARC
  5
29629
330
1F
100
AcDbEntity
  8
1
100
AcDbCircle
 10
24.358857
 20
3.049257000000011
 30
0.0
 40
13.15527299999999
100
AcDbArc
 50
254.2751740000002
 51
263.8436990000002
  0
LINE
  5
2962A
330
1F
100
AcDbEntity
  8
1
100
AcDbLine
 10
20.79361599999999
 20
-10.09219899999999
 30
0.0
 11
20.79361599999999
 21
-11.5
 31
0.0
  0
ARC
  5
2962B
330
1F
100
AcDbEntity
  8
1
100
AcDbCircle
 10
24.59349900000001
 20
5.241230000000001
 30
0.0
 40
15.36032900000001
100
AcDbArc
 50
263.8503389999999
 51
272.6060759999999
  0
ARC
  5
2962C
330
1F
100
AcDbEntity
  8
1
100
AcDbCircle
 10
24.036586
 20
18.86259799999999
 30
0.0
 40
28.99330299999999
100
AcDbArc
 50
272.4815550000001
 51
281.6467040000001
  0
LINE
  5
2962D
330
1F
100
AcDbEntity
  8
1
100
AcDbLine
 10
18.14999999999998
 20
-10.09219899999999
 30
0.0
 11
18.14999999999998
 21
-11.5
 31
0.0
  0
LINE
  5
2962E
330
1F
100
AcDbEntity
  8
1
100
AcDbLine
 10
18.14999999999998
 20
-8.614958999999997
 30
0.0
 11
18.14999999999998
 21
-10.09219899999999
 31
0.0
  0
ARC
  5
2962F
330
1F
100
AcDbEntity
  8
1
100
AcDbCircle
 10
25.06248199999999
 20
5.711137000000007
 30
0.0
 40
15.90727499999999
100
AcDbArc
 50
244.2422350000001
 51
254.4340990000001
  0
SPLINE
  5
29630
330
1F
100
AcDbEntity
  8
1
100
AcDbSpline
210
0.0
220
0.0
230
1.0
 70
     8
 71
     5
 72
    12
 73
     6
 74
     0
 42
0.000000001
 43
0.0000000001
 40
0.0
 40
0.0
 40
0.0
 40
0.0
 40
0.0
 40
0.0
 40
5.170130620677386
 40
5.170130620677386
 40
5.170130620677386
 40
5.170130620677386
 40
5.170130620677386
 40
5.170130620677386
 10
18.15000000000003
 20
10.9047792038628
 30
0.0
 10
18.66099213605639
 20
10.78525114606521
 30
0.0
 10
19.18169472295926
 20
10.65857563832947
 30
0.0
 10
19.71137588884721
 20
10.52870231355655
 30
0.0
 10
20.24888116256687
 20
10.39908478158421
 30
0.0
 10
20.79361634521882
 20
10.27242725981074
 30
0.0
  0
LINE
  5
29631
330
1F
100
AcDbEntity
  8
1
100
AcDbLine
 10
18.14999999999998
 20
10.90477899999999
 30
0.0
 11
18.14999999999998
 21
-4.323618000000008
 31
0.0
  0
LINE
  5
29632
330
1F
100
AcDbEntity
  8
1
100
AcDbLine
 10
18.14999999999998
 20
-4.323618000000008
 30
0.0
 11
20.79361599999999
 21
-4.148164000000008
 31
0.0
  0
LINE
  5
29633
330
1F
100
AcDbEntity
  8
1
100
AcDbLine
 10
18.14999999999998
 20
11.39041900000001
 30
0.0
 11
20.79361599999999
 21
11.36289500000001
 31
0.0
  0
ARC
  5
29634
330
1F
100
AcDbEntity
  8
1
100
AcDbCircle
 10
195.8851389999999
 20
-576.535385
 30
0.0
 40
614.203972
100
AcDbArc
 50
106.820528
 51
107.046835
  0
SPLINE
  5
29635
330
1F
100
AcDbEntity
  8
1
100
AcDbSpline
210
0.0
220
0.0
230
1.0
 70
     8
 71
     5
 72
    12
 73
     6
 74
     0
 42
0.000000001
 43
0.0000000001
 40
0.0
 40
0.0
 40
0.0
 40
0.0
 40
0.0
 40
0.0
 40
7.269479887108696
 40
7.269479887108696
 40
7.269479887108696
 40
7.269479887108696
 40
7.269479887108696
 40
7.269479887108696
 10
15.07231646282474
 20
10.49855568701574
 30
0.0
 10
15.61945662034407
 20
10.66400877259034
 30
0.0
 10
16.20654883480381
 20
10.77722546512101
 30
0.0
 10
16.82761917094695
 20
10.84703657135699
 30
0.0
 10
17.47691478631634
 20
10.88588810363319
 30
0.0
 10
18.15000000000003
 20
10.9047792038628
 30
0.0
  0
LINE
  5
29636
330
1F
100
AcDbEntity
  8
1
100
AcDbLine
 10
15.072316
 20
10.49855600000001
 30
0.0
 11
15.072316
 21
-4.485362000000009
 31
0.0
  0
ARC
  5
29637
330
1F
100
AcDbEntity
  8
1
100
AcDbCircle
 10
15.46783199999999
 20
-5.00314399999999
 30
0.0
 40
0.6517039999999829
100
AcDbArc
 50
103.6037429999977
 51
127.3749479999977
  0
ARC
  5
29638
330
1F
100
AcDbEntity
  8
1
100
AcDbCircle
 10
15.51405799999998
 20
-5.17166499999999
 30
0.0
 40
0.826575999999989
100
AcDbArc
 50
90.21121800000043
 51
103.9706000000004
  0
LINE
  5
29639
330
1F
100
AcDbEntity
  8
1
100
AcDbLine
 10
15.511011
 20
-4.345054000000003
 30
0.0
 11
18.14999999999998
 21
-4.323618000000008
 31
0.0
  0
LINE
  5
2963A
330
1F
100
AcDbEntity
  8
1
100
AcDbLine
 10
15.072316
 20
-5.400096999999988
 30
0.0
 11
15.072316
 21
-9.214617000000004
 31
0.0
  0
ARC
  5
2963B
330
1F
100
AcDbEntity
  8
1
100
AcDbCircle
 10
30.185633
 20
5.993098000000002
 30
0.0
 40
18.92700299999997
100
AcDbArc
 50
217.010864
 51
230.514761
  0
LINE
  5
2963C
330
1F
100
AcDbEntity
  8
1
100
AcDbLine
 10
15.072316
 20
-9.214617000000004
 30
0.0
 11
15.072316
 21
-10.5
 31
0.0
  0
LINE
  5
2963D
330
1F
100
AcDbEntity
  8
1
100
AcDbLine
 10
0.0
 20
-10.5
 30
0.0
 11
0.0
 21
-9.214617000000004
 31
0.0
  0
LINE
  5
2963E
330
1F
100
AcDbEntity
  8
1
100
AcDbLine
 10
14.0
 20
6.164413999999991
 30
0.0
 11
14.0
 21
-6.164413999999991
 31
0.0
  0
LINE
  5
2963F
330
1F
100
AcDbEntity
  8
1
100
AcDbLine
 10
3.0
 20
-6.164413999999991
 30
0.0
 11
14.0
 21
-6.164413999999991
 31
0.0
  0
LINE
  5
29640
330
1F
100
AcDbEntity
  8
1
100
AcDbLine
 10
14.0
 20
6.164413999999991
 30
0.0
 11
3.0
 21
6.164413999999991
 31
0.0
  0
LINE
  5
29641
330
1F
100
AcDbEntity
  8
1
100
AcDbLine
 10
15.02203600000001
 20
10.49933000000001
 30
0.0
 11
15.072316
 21
10.49855600000001
 31
0.0
  0
LINE
  5
29642
330
1F
100
AcDbEntity
  8
1
100
AcDbLine
 10
14.93010800000002
 20
10.5
 30
0.0
 11
15.02203600000001
 21
10.49933000000001
 31
0.0
  0
LINE
  5
29643
330
1F
100
AcDbEntity
  8
1
100
AcDbLine
 10
0.0
 20
-9.214617000000004
 30
0.0
 11
0.0
 21
10.5
 31
0.0
  0
LINE
  5
29644
330
1F
100
AcDbEntity
  8
1
100
AcDbLine
 10
15.02203600000001
 20
-5.352398999999991
 30
0.0
 11
15.072316
 21
-5.400096999999988
 31
0.0
  0
SPLINE
  5
29645
330
1F
100
AcDbEntity
  8
1
100
AcDbSpline
210
0.0
220
0.0
230
1.0
 70
     8
 71
     5
 72
    18
 73
    12
 74
     0
 42
0.000000001
 43
0.0000000001
 40
0.0
 40
0.0
 40
0.0
 40
0.0
 40
0.0
 40
0.0
 40
0.7677373003567181
 40
0.7677373003567181
 40
0.7677373003567181
 40
1.3351075650288
 40
1.3351075650288
 40
1.3351075650288
 40
1.894896930911013
 40
1.894896930911013
 40
1.894896930911013
 40
1.894896930911013
 40
1.894896930911013
 40
1.894896930911013
 10
15.07231646282474
 20
-4.485362224636758
 30
0.0
 10
14.99970584360511
 20
-4.533063278321804
 30
0.0
 10
14.9341422026061
 20
-4.589962077597674
 30
0.0
 10
14.87832923410537
 20
-4.657125734401461
 30
0.0
 10
14.81125689302598
 20
-4.789225789823943
 30
0.0
 10
14.80087732200292
 20
-4.932246243323731
 30
0.0
 10
14.8073338203817
 20
-4.992836817664795
 30
0.0
 10
14.83863056579827
 20
-5.109360134462236
 30
0.0
 10
14.90011354753091
 20
-5.215021254638428
 30
0.0
 10
14.93653576384122
 20
-5.264131782548871
 30
0.0
 10
14.97744114080228
 20
-5.309872516173783
 30
0.0
 10
15.02203592791687
 20
-5.352398509601726
 30
0.0
  0
LINE
  5
29646
330
1F
100
AcDbEntity
  8
1
100
AcDbLine
 10
3.0
 20
6.164413999999991
 30
0.0
 11
3.0
 21
-6.164413999999991
 31
0.0
  0
LINE
  5
29647
330
1F
100
AcDbEntity
  8
SK1
100
AcDbLine
 10
-5.166331000000012
 20
-6.25
 30
0.0
 11
-5.166331000000012
 21
2.996409999999995
 31
0.0
  0
LINE
  5
29648
330
1F
100
AcDbEntity
  8
SK1
100
AcDbLine
 10
-5.166331000000012
 20
2.996409999999995
 30
0.0
 11
-5.166331000000012
 21
6.25
 31
0.0
  0
LINE
  5
29649
330
1F
100
AcDbEntity
  8
SK1
100
AcDbLine
 10
-10.26448199999999
 20
-6.0
 30
0.0
 11
-10.26448199999999
 21
2.876553000000001
 31
0.0
  0
LINE
  5
2964A
330
1F
100
AcDbEntity
  8
SK1
100
AcDbLine
 10
-10.26448199999999
 20
2.876553000000001
 30
0.0
 11
-10.26448199999999
 21
6.0
 31
0.0
  0
LINE
  5
2964B
330
1F
100
AcDbEntity
  8
SK1
100
AcDbLine
 10
-22.00000000000001
 20
2.876553000000001
 30
0.0
 11
-22.00000000000001
 21
-6.0
 31
0.0
  0
LINE
  5
2964C
330
1F
100
AcDbEntity
  8
SK1
100
AcDbLine
 10
-22.00000000000001
 20
6.0
 30
0.0
 11
-22.00000000000001
 21
2.876553000000001
 31
0.0
  0
LINE
  5
2964D
330
1F
100
AcDbEntity
  8
1
100
AcDbLine
 10
24.69791700000002
 20
-6.269699000000002
 30
0.0
 11
25.29193099999998
 21
-10.10350600000001
 31
0.0
  0
ELLIPSE
  5
2964E
330
1F
100
AcDbEntity
  8
1
100
AcDbEllipse
 10
29.210151
 20
-6.71949699999999
 30
0.0
 11
-19.55998992919922
 21
-1.388867735862731
 31
0.0
210
0.0
220
0.0
230
1.0
 40
0.173225
 41
5.100398562854447
 42
5.511573223605847
  0
ARC
  5
2964F
330
1F
100
AcDbEntity
  8
1
100
AcDbCircle
 10
27.56435800000004
 20
-3.201522000000011
 30
0.0
 40
4.198814000000028
100
AcDbArc
 50
220.4652589999997
 51
226.9469179999997
  0
ELLIPSE
  5
29650
330
1F
100
AcDbEntity
  8
1
100
AcDbEllipse
 10
25.11645700000003
 20
-5.675384000000008
 30
0.0
 11
1.267547249794004
 21
-1.252128720283508
 31
0.0
210
0.0
220
0.0
230
0.9999999999999998
 40
0.4033050000000002
 41
5.030752865379491
 42
7.390465611505954
  0
ARC
  5
29651
330
1F
100
AcDbEntity
  8
1
100
AcDbCircle
 10
27.57158800000002
 20
-3.204016999999993
 30
0.0
 40
4.201926000000023
100
AcDbArc
 50
226.8516589999997
 51
232.8425269999997
  0
ARC
  5
29652
330
1F
100
AcDbEntity
  8
1
100
AcDbCircle
 10
33.55000000000001
 20
-8.547867999999994
 30
0.0
 40
0.6000000000000023
100
AcDbArc
 50
285.999997
 51
0.0000020000000079
  0
LINE
  5
29653
330
1F
100
AcDbEntity
  8
1
100
AcDbLine
 10
33.71538199999998
 20
-9.124625000000008
 30
0.0
 11
29.88964900000002
 21
-10.22163599999999
 31
0.0
  0
ARC
  5
29654
330
1F
100
AcDbEntity
  8
1
100
AcDbCircle
 10
20.79361699999998
 20
21.49999800000001
 30
0.0
 40
32.99999800000001
100
AcDbArc
 50
269.999999
 51
286.0
  0
LINE
  5
29655
330
1F
100
AcDbEntity
  8
1
100
AcDbLine
 10
20.79361599999999
 20
-11.5
 30
0.0
 11
18.14999999999998
 21
-11.5
 31
0.0
  0
LINE
  5
29656
330
1F
100
AcDbEntity
  8
1
100
AcDbLine
 10
15.072316
 20
-10.5
 30
0.0
 11
18.14999999999998
 21
-11.5
 31
0.0
  0
LINE
  5
29657
330
1F
100
AcDbEntity
  8
1
100
AcDbLine
 10
15.072316
 20
-10.5
 30
0.0
 11
0.0
 21
-10.5
 31
0.0
  0
LINE
  5
29658
330
1F
100
AcDbEntity
  8
1
100
AcDbLine
 10
14.93010800000002
 20
10.5
 30
0.0
 11
0.0
 21
10.5
 31
0.0
  0
LINE
  5
29659
330
1F
100
AcDbEntity
  8
SK1
100
AcDbLine
 10
0.0
 20
-6.25
 30
0.0
 11
-5.166331000000012
 21
-6.25
 31
0.0
  0
LINE
  5
2965A
330
1F
100
AcDbEntity
  8
SK1
100
AcDbLine
 10
0.0
 20
6.25
 30
0.0
 11
-5.166331000000012
 21
6.25
 31
0.0
  0
ARC
  5
2965B
330
1F
100
AcDbEntity
  8
SK1
100
AcDbCircle
 10
-7.792641000000002
 20
-7.699999999999986
 30
0.0
 40
3.000000000000041
100
AcDbArc
 50
28.90333399999977
 51
145.4818919999998
  0
ARC
  5
2965C
330
1F
100
AcDbEntity
  8
SK1
100
AcDbCircle
 10
-7.792641000000002
 20
7.699999999999986
 30
0.0
 40
2.999999999999993
100
AcDbArc
 50
214.518108
 51
331.0966660000001
  0
LINE
  5
2965D
330
1F
100
AcDbEntity
  8
SK1
100
AcDbLine
 10
-10.26448199999999
 20
-6.0
 30
0.0
 11
-22.00000000000001
 21
-6.0
 31
0.0
  0
LINE
  5
2965E
330
1F
100
AcDbEntity
  8
SK1
100
AcDbLine
 10
-10.26448199999999
 20
6.0
 30
0.0
 11
-22.00000000000001
 21
6.0
 31
0.0
  0
ELLIPSE
  5
2965F
330
1F
100
AcDbEntity
  8
1
100
AcDbEllipse
 10
28.02714600000002
 20
6.989071999999991
 30
0.0
 11
-1.665545821189879
 21
0.3405247032642365
 31
0.0
210
0.0
220
0.0
230
1.0
 40
0.937404
 41
4.235606981852532
 42
5.007323292795465
  0
ELLIPSE
  5
29660
330
1F
100
AcDbEntity
  8
1
100
AcDbEllipse
 10
28.345236
 20
8.544884999999991
 30
0.0
 11
-1.665545821189879
 21
0.3405247032642365
 31
0.0
210
0.0
220
0.0
230
1.0
 40
0.937404
 41
3.141689488864833
 42
6.278416058480794
  0
ELLIPSE
  5
29661
330
1F
100
AcDbEntity
  8
1
100
AcDbEllipse
 10
28.345236
 20
8.544884999999991
 30
0.0
 11
-1.665545821189879
 21
0.3405247032642365
 31
0.0
210
0.0
220
0.0
230
1.0
 40
0.937404
 41
3.077708548209643
 42
3.141689488864833
  0
ELLIPSE
  5
29662
330
1F
100
AcDbEntity
  8
1
100
AcDbEllipse
 10
28.345236
 20
8.544884999999991
 30
0.0
 11
-1.665545821189879
 21
0.3405247032642365
 31
0.0
210
0.0
220
0.0
230
1.0
 40
0.937404
 41
2.971698592901955
 42
3.077708548209642
  0
LINE
  5
29663
330
1F
100
AcDbEntity
  8
1
100
AcDbLine
 10
34.62510400000002
 20
7.593078999999987
 30
0.0
 11
34.93684000000002
 21
8.923103999999991
 31
0.0
  0
LINE
  5
29664
330
1F
100
AcDbEntity
  8
1
100
AcDbLine
 10
34.94319400000001
 20
9.148890999999991
 30
0.0
 11
34.93684000000002
 21
8.923103999999991
 31
0.0
  0
LINE
  5
29665
330
1F
100
AcDbEntity
  8
1
100
AcDbLine
 10
34.94319400000001
 20
9.148890999999991
 30
0.0
 11
34.14737200000002
 21
6.271254999999996
 31
0.0
  0
LINE
  5
29666
330
1F
100
AcDbEntity
  8
1
100
AcDbLine
 10
34.62510400000002
 20
7.593078999999987
 30
0.0
 11
34.14999999999999
 21
5.875133000000003
 31
0.0
  0
ARC
  5
29667
330
1F
100
AcDbEntity
  8
1
100
AcDbCircle
 10
34.75540999999998
 20
8.973286999999997
 30
0.0
 40
0.1882420000000395
100
AcDbArc
 50
344.538523000001
 51
358.345193000001
  0
ARC
  5
29668
330
1F
100
AcDbEntity
  8
1
100
AcDbCircle
 10
34.75521600000002
 20
9.197563000000002
 30
0.0
 40
0.1948880000000091
100
AcDbArc
 50
358.8484569999969
 51
62.21440399999675
  0
ARC
  5
29669
330
1F
100
AcDbEntity
  8
1
100
AcDbCircle
 10
34.76161000000002
 20
9.199054999999988
 30
0.0
 40
0.1883859999999902
100
AcDbArc
 50
344.5570070000016
 51
358.3557400000016
  0
LINE
  5
2966A
330
1F
100
AcDbEntity
  8
1
100
AcDbLine
 10
22.29372499999999
 20
9.916797000000004
 30
0.0
 11
22.96793200000002
 21
12.35468399999999
 31
0.0
  0
ARC
  5
2966B
330
1F
100
AcDbEntity
  8
1
100
AcDbCircle
 10
22.44139899999999
 20
-13.59562
 30
0.0
 40
26.10178600000001
100
AcDbArc
 50
61.62469299999997
 51
88.41030899999996
  0
ARC
  5
2966C
330
1F
100
AcDbEntity
  8
1
100
AcDbCircle
 10
23.15718800000002
 20
12.29952900000001
 30
0.0
 40
0.1974010000000082
100
AcDbArc
 50
87.58013400000194
 51
163.752520000002
  0
LINE
  5
2966D
330
1F
100
AcDbEntity
  8
1
100
AcDbLine
 10
34.949928
 20
9.193648999999991
 30
0.0
 11
34.94357400000001
 21
8.967850999999996
 31
0.0
  0
LINE
  5
2966E
330
1F
100
AcDbEntity
  8
1
100
AcDbLine
 10
34.62695000000002
 20
7.600304999999991
 30
0.0
 11
34.938692
 21
8.930360000000009
 31
0.0
  0
ARC
  5
2966F
330
1F
100
AcDbEntity
  8
1
100
AcDbCircle
 10
34.75659000000002
 20
9.198502999999988
 30
0.0
 40
0.1933039999999697
100
AcDbArc
 50
345.1115599999972
 51
62.44436899999717
  0
LINE
  5
29670
330
1F
100
AcDbEntity
  8
1
100
AcDbLine
 10
34.94319400000001
 20
9.148890999999991
 30
0.0
 11
34.14737200000002
 21
6.271254999999996
 31
0.0
  0
LINE
  5
29671
330
1F
100
AcDbEntity
  8
1
100
AcDbLine
 10
22.29372499999999
 20
9.916797000000004
 30
0.0
 11
22.96793200000002
 21
12.35468399999999
 31
0.0
  0
ARC
  5
29672
330
1F
100
AcDbEntity
  8
1
100
AcDbCircle
 10
23.15718800000002
 20
12.29952900000001
 30
0.0
 40
0.1974010000000082
100
AcDbArc
 50
87.58013400000194
 51
163.752520000002
  0
ARC
  5
29673
330
1F
100
AcDbEntity
  8
1
100
AcDbCircle
 10
22.44139899999999
 20
-13.59562
 30
0.0
 40
26.10178600000001
100
AcDbArc
 50
61.62469299999997
 51
88.41030899999996
  0
LINE
  5
29674
330
1F
100
AcDbEntity
  8
1
100
AcDbLine
 10
34.62510400000002
 20
-7.434942000000008
 30
0.0
 11
34.93684000000002
 21
-6.432887999999991
 31
0.0
  0
LINE
  5
29675
330
1F
100
AcDbEntity
  8
1
100
AcDbLine
 10
34.94271100000003
 20
-4.656884999999988
 30
0.0
 11
34.93684000000002
 21
-6.432887999999991
 31
0.0
  0
LINE
  5
29676
330
1F
100
AcDbEntity
  8
1
100
AcDbLine
 10
34.62510400000002
 20
-7.434942000000008
 30
0.0
 11
33.76895500000002
 21
-4.856065999999998
 31
0.0
  0
ARC
  5
29677
330
1F
100
AcDbEntity
  8
1
100
AcDbCircle
 10
34.81263300000001
 20
-6.474628999999991
 30
0.0
 40
0.1310249999999916
100
AcDbArc
 50
359.9883050000061
 51
18.57571200000596
  0
ARC
  5
29678
330
1F
100
AcDbEntity
  8
1
100
AcDbCircle
 10
34.81978600000002
 20
-6.474284000000013
 30
0.0
 40
0.1238659999999942
100
AcDbArc
 50
342.7018759999957
 51
359.8278769999956
  0
LINE
  5
29679
330
1F
100
AcDbEntity
  8
1
100
AcDbLine
 10
34.94999899999999
 20
-4.552738000000005
 30
0.0
 11
34.949727
 21
-4.544082000000003
 31
0.0
  0
ARC
  5
2967A
330
1F
100
AcDbEntity
  8
1
100
AcDbCircle
 10
34.50500799999999
 20
-7.476010000000002
 30
0.0
 40
0.1268920000000291
100
AcDbArc
 50
342.9693690000029
 51
18.87896400000292
  0
ARC
  5
2967B
330
1F
100
AcDbEntity
  8
1
100
AcDbCircle
 10
34.48016699999999
 20
-7.460191000000008
 30
0.0
 40
0.155877000000008
100
AcDbArc
 50
287.8327790000126
 51
340.0746960000126
  0
ELLIPSE
  5
2967C
330
1F
100
AcDbEntity
  8
1
100
AcDbEllipse
 10
19.19756899999999
 20
20.075264
 30
0.0
 11
26.82492828369141
 21
-18.94250106811523
 31
0.0
210
0.0
220
0.0
230
0.9999999999999998
 40
0.8434200000000002
 41
5.366722643513521
 42
5.762806135084879
  0
LINE
  5
2967D
330
1F
100
AcDbEntity
  8
1
100
AcDbLine
 10
34.95000600000003
 20
-4.552738000000005
 30
0.0
 11
34.94986499999999
 21
-4.595182999999992
 31
0.0
  0
LINE
  5
2967E
330
1F
100
AcDbEntity
  8
1
100
AcDbLine
 10
34.94968799999998
 20
-4.64884599999999
 30
0.0
 11
34.94365199999999
 21
-6.474656000000008
 31
0.0
  0
LINE
  5
2967F
330
1F
100
AcDbEntity
  8
1
100
AcDbLine
 10
34.62631399999998
 20
-7.513168000000008
 30
0.0
 11
34.93804999999998
 21
-6.511113999999992
 31
0.0
  0
LINE
  5
29680
330
1F
100
AcDbEntity
  8
1
100
AcDbLine
 10
34.94999999999999
 20
-4.552152000000005
 30
0.0
 11
34.94972999999999
 21
-4.544135000000012
 31
0.0
  0
ELLIPSE
  5
29681
330
1F
100
AcDbEntity
  8
1
100
AcDbEllipse
 10
38.86812600000002
 20
-141.542526
 30
0.0
 11
9.661745071411141
 21
-140.2014465332031
 31
0.0
210
0.0
220
0.0
230
1.0
 40
0.211039
 41
2.987345577488796
 42
3.31468295770045
  0
ELLIPSE
  5
29682
330
1F
100
AcDbEntity
  8
1
100
AcDbEllipse
 10
19.14242899999999
 20
136.390961
 30
0.0
 11
9.774126052856443
 21
-141.5293273925781
 31
0.0
210
0.0
220
0.0
230
1.0
 40
0.210044
 41
6.129637903837242
 42
6.455423924776343
  0
ARC
  5
29683
330
1F
100
AcDbEntity
  8
1
100
AcDbCircle
 10
21.752342
 20
-5.253744000000011
 30
0.0
 40
0.0123529999999936
100
AcDbArc
 50
195.9106400000672
 51
245.9615750000672
  0
LINE
  5
29684
330
1F
100
AcDbEntity
  8
1
100
AcDbLine
 10
21.59066100000001
 20
-4.093458999999994
 30
0.0
 11
21.747277
 21
-5.265098999999992
 31
0.0
  0
LINE
  5
29685
330
1F
100
AcDbEntity
  8
1
100
AcDbLine
 10
34.62510400000002
 20
-0.1581370000000106
 30
0.0
 11
34.14999999999999
 21
0.1287079999999889
 31
0.0
  0
SPLINE
  5
29686
330
1F
100
AcDbEntity
  8
1
100
AcDbSpline
210
0.0
220
0.0
230
1.0
 70
     8
 71
     5
 72
    15
 73
     9
 74
     0
 42
0.000000001
 43
0.0000000001
 40
0.0
 40
0.0
 40
0.0
 40
0.0
 40
0.0
 40
0.0
 40
0.1782508700485793
 40
0.1782508700485793
 40
0.1782508700485793
 40
0.3297463664694806
 40
0.3297463664694806
 40
0.3297463664694806
 40
0.3297463664694806
 40
0.3297463664694806
 40
0.3297463664694806
 10
34.94365220854473
 20
-2.499032577530784
 30
0.0
 10
34.94366508012058
 20
-2.503382286819316
 30
0.0
 10
34.94000139921985
 20
-2.507987393615223
 30
0.0
 10
34.93233871926054
 20
-2.512798925659665
 30
0.0
 10
34.91282410262312
 20
-2.521157309319134
 30
0.0
 10
34.88502630491882
 20
-2.528635723265635
 30
0.0
 10
34.87080185495108
 20
-2.531840204391614
 30
0.0
 10
34.8556664236466
 20
-2.534744309864038
 30
0.0
 10
34.83978321353277
 20
-2.53735163475281
 30
0.0
  0
LINE
  5
29687
330
1F
100
AcDbEntity
  8
1
100
AcDbLine
 10
34.846137
 20
-4.685056000000002
 30
0.0
 11
34.83978300000001
 21
-2.537351999999998
 31
0.0
  0
ELLIPSE
  5
29688
330
1F
100
AcDbEntity
  8
1
100
AcDbEllipse
 10
34.750045
 20
-4.65992399999999
 30
0.0
 11
0.1999471336603165
 21
0.0136016858741641
 31
0.0
210
0.0
220
0.0
230
1.0
 40
0.1786039999999998
 41
5.201528268064931
 42
6.27156444715457
  0
ARC
  5
29689
330
1F
100
AcDbEntity
  8
1
100
AcDbCircle
 10
34.62004000000002
 20
-0.1694919999999911
 30
0.0
 40
0.0123529999999936
100
AcDbArc
 50
15.91064000006717
 51
65.96157500006717
  0
ELLIPSE
  5
2968A
330
1F
100
AcDbEntity
  8
1
100
AcDbEllipse
 10
34.43195500000002
 20
-0.1801389999999969
 30
0.0
 11
0.1999471336603165
 21
0.0136016858741641
 31
0.0
210
0.0
220
0.0
230
1.0
 40
0.1786039999999998
 41
5.201528268064923
 42
6.294801336486096
  0
LINE
  5
2968B
330
1F
100
AcDbEntity
  8
1
100
AcDbLine
 10
34.52804800000001
 20
-0.2052720000000079
 30
0.0
 11
34.83978300000001
 21
-2.537351999999998
 31
0.0
  0
LINE
  5
2968C
330
1F
100
AcDbEntity
  8
1
100
AcDbLine
 10
22.96793200000002
 20
-6.002071999999997
 30
0.0
 11
22.96157800000004
 21
-3.854366999999995
 31
0.0
  0
LINE
  5
2968D
330
1F
100
AcDbEntity
  8
1
100
AcDbLine
 10
22.64984199999998
 20
-1.522288000000003
 30
0.0
 11
22.96157800000004
 21
-3.854366999999995
 31
0.0
  0
LINE
  5
2968E
330
1F
100
AcDbEntity
  8
1
100
AcDbLine
 10
22.588145
 20
-1.485038000000003
 30
0.0
 11
22.64984199999998
 21
-1.522288000000003
 31
0.0
  0
LINE
  5
2968F
330
1F
100
AcDbEntity
  8
1
100
AcDbLine
 10
21.747277
 20
-5.265098999999992
 30
0.0
 11
22.96793200000002
 21
-6.002071999999997
 31
0.0
  0
ELLIPSE
  5
29690
330
1F
100
AcDbEntity
  8
1
100
AcDbEllipse
 10
19.19756899999999
 20
4.858321999999987
 30
0.0
 11
31.22064399719238
 21
1.46886360645294
 31
0.0
210
0.0
220
0.0
230
1.0
 40
0.211054
 41
4.819627655743643
 42
5.215711147260118
  0
ARC
  5
29691
330
1F
100
AcDbEntity
  8
1
100
AcDbCircle
 10
17.92972900000001
 20
100.505275
 30
0.0
 40
104.420943
100
AcDbArc
 50
278.779069
 51
279.319589
  0
ARC
  5
29692
330
1F
100
AcDbEntity
  8
1
100
AcDbCircle
 10
13.07729399999999
 20
140.502027
 30
0.0
 40
144.721563
100
AcDbArc
 50
273.99469
 51
274.429665
  0
LINE
  5
29693
330
1F
100
AcDbEntity
  8
1
100
AcDbLine
 10
22.84744499999999
 20
-1.535856999999993
 30
0.0
 11
23.15917999999999
 21
-3.867937000000011
 31
0.0
  0
LINE
  5
29694
330
1F
100
AcDbEntity
  8
1
100
AcDbLine
 10
23.16553399999998
 20
-6.015641999999987
 30
0.0
 11
23.15917999999999
 21
-3.867937000000011
 31
0.0
  0
ELLIPSE
  5
29695
330
1F
100
AcDbEntity
  8
1
100
AcDbEllipse
 10
19.51565900000003
 20
0.3785369999999944
 30
0.0
 11
31.22064399719238
 21
1.46886360645294
 31
0.0
210
0.0
220
0.0
230
1.0
 40
0.211054
 41
4.819627655520768
 42
5.215711147229669
  0
ELLIPSE
  5
29696
330
1F
100
AcDbEntity
  8
1
100
AcDbEllipse
 10
22.84299199999998
 20
-1.500285999999988
 30
0.0
 11
0.1999471336603165
 21
0.0136016858741641
 31
0.0
210
0.0
220
0.0
230
1.0
 40
0.1786039999999998
 41
3.391222941565896
 42
4.722510410534118
  0
ELLIPSE
  5
29697
330
1F
100
AcDbEntity
  8
1
100
AcDbEllipse
 10
23.16108200000002
 20
-5.980070000000012
 30
0.0
 11
0.1999471336603165
 21
0.0136016858741641
 31
0.0
210
0.0
220
0.0
230
1.0
 40
0.1786039999999998
 41
3.391222941565908
 42
4.722510410533787
  0
SPLINE
  5
29698
330
1F
100
AcDbEntity
  8
1
100
AcDbSpline
210
0.0
220
0.0
230
1.0
 70
     8
 71
     5
 72
    15
 73
     9
 74
     0
 42
0.000000001
 43
0.0000000001
 40
0.0
 40
0.0
 40
0.0
 40
0.0
 40
0.0
 40
0.0
 40
0.3964734317215885
 40
0.3964734317215885
 40
0.3964734317215885
 40
0.4323732030518794
 40
0.4323732030518794
 40
0.4323732030518794
 40
0.4323732030518794
 40
0.4323732030518794
 40
0.4323732030518794
 10
23.15918011315767
 20
-3.86793684359327
 30
0.0
 10
23.11351121624256
 20
-3.871126485676228
 30
0.0
 10
23.06773909024622
 20
-3.871982433476801
 30
0.0
 10
23.02305177783467
 20
-3.870282132134918
 30
0.0
 10
22.98543351995744
 20
-3.864910335289834
 30
0.0
 10
22.96571020196745
 20
-3.856563488387904
 30
0.0
 10
22.96419859418296
 20
-3.855849864920542
 30
0.0
 10
22.96282055121924
 20
-3.855117644899933
 30
0.0
 10
22.96157784406546
 20
-3.854367366711441
 30
0.0
  0
LINE
  5
29699
330
1F
100
AcDbEntity
  8
1
100
AcDbLine
 10
21.58502600000003
 20
-4.093858000000011
 30
0.0
 11
21.740521
 21
-5.257112000000004
 31
0.0
  0
LINE
  5
2969A
330
1F
100
AcDbEntity
  8
1
100
AcDbLine
 10
34.95000600000003
 20
-4.646737999999999
 30
0.0
 11
34.94365199999999
 21
-2.499032999999997
 31
0.0
  0
LINE
  5
2969B
330
1F
100
AcDbEntity
  8
1
100
AcDbLine
 10
34.63186000000002
 20
-0.1661229999999989
 30
0.0
 11
34.94359600000001
 21
-2.498202999999989
 31
0.0
  0
ELLIPSE
  5
2969C
330
1F
100
AcDbEntity
  8
1
100
AcDbEllipse
 10
34.750045
 20
-4.65992399999999
 30
0.0
 11
0.1999471336603165
 21
0.0136016858741641
 31
0.0
210
0.0
220
0.0
230
1.0
 40
0.1786039999999998
 41
5.201528268064931
 42
6.203927301909258
  0
LINE
  5
2969D
330
1F
100
AcDbEntity
  8
1
100
AcDbLine
 10
21.747277
 20
-5.265098999999992
 30
0.0
 11
22.96793200000002
 21
-6.002071999999997
 31
0.0
  0
ELLIPSE
  5
2969E
330
1F
100
AcDbEntity
  8
1
100
AcDbEllipse
 10
23.16108200000002
 20
-5.980070000000012
 30
0.0
 11
0.1999471336603165
 21
0.0136016858741641
 31
0.0
210
0.0
220
0.0
230
1.0
 40
0.1786039999999998
 41
3.391222941565908
 42
4.722510410533787
  0
ELLIPSE
  5
2969F
330
1F
100
AcDbEntity
  8
1
100
AcDbEllipse
 10
19.51565900000003
 20
0.3785369999999944
 30
0.0
 11
31.22064399719238
 21
1.46886360645294
 31
0.0
210
0.0
220
0.0
230
1.0
 40
0.211054
 41
4.819627655520768
 42
5.215711147229669
  0
DIMENSION
  5
297FC
330
1F
100
AcDbEntity
  8
2
100
AcDbDimension
  2
*D5
 10
33.34420655713873
 20
10.1747630221648
 30
0.0
 11
49.47634363509508
 21
21.16555563476515
 31
0.0
 70
   162
  1
<>~83%%d
 71
     5
 42
1.169370807830524
  3
MM_STANDARD
100
AcDb2LineAngularDimension
 13
34.95017555713871
 23
9.493070022164806
 33
0.0
 14
34.95017555713871
 24
9.450710022164804
 34
0.0
 15
34.95017555713871
 25
9.493070022164806
 35
0.0
 16
30.73352355713873
 26
19.75731702216482
 36
0.0
1001
ACAD
1000
DSTYLE
1002
{
1070
   279
1070
     0
1070
    78
1070
     9
1070
    79
1070
     2
1070
    90
1070
     1
1070
   172
1070
     1
1070
   345
1005
14
1070
   346
1005
14
1070
   347
1005
14
1002
}
1001
ACAD_DSTYLE_DIMARC_LENGTH_SYMBOL
1070
   379
1070
     1
1001
ACAD_DSTYLE_DIM_LINETYPE
1070
   380
1005
14
1001
ACAD_DSTYLE_DIM_EXT1_LINETYPE
1070
   381
1005
14
1001
ACAD_DSTYLE_DIM_EXT2_LINETYPE
1070
   382
1005
14
  0
LINE
  5
299B2
330
1F
100
AcDbEntity
  8
4
100
AcDbLine
 10
0.0
 20
0.0
 30
0.0
 11
39.78665799999999
 21
0.0
 31
0.0
  0
LINE
  5
29A6F
330
1F
100
AcDbEntity
  8
SK3
100
AcDbLine
 10
19.29484546064745
 20
1.214604619450097
 30
0.0
 11
23.41916071321279
 21
5.902184707311192
 31
0.0
  0
LINE
  5
29A70
330
1F
100
AcDbEntity
  8
SK3
100
AcDbLine
 10
19.73005649999999
 20
0.4675560000000021
 30
0.0
 11
23.85437175256532
 21
5.155136087861096
 31
0.0
  0
DIMENSION
  5
29D23
330
1F
100
AcDbEntity
  8
SK2
100
AcDbDimension
  2
*D7
 10
-50.92693523201345
 20
-10.5
 30
0.0
 11
-53.47287690453629
 21
0.0
 31
0.0
 70
    32
  1
%%c<>
 71
     5
 41
0.0
 42
21.0
  3
MM_STANDARD
100
AcDbAlignedDimension
 13
0.0
 23
10.5
 33
0.0
 14
0.0
 24
-10.5
 34
0.0
 50
90.0
100
AcDbRotatedDimension
1001
ACAD
1000
DSTYLE
1002
{
1070
   279
1070
     0
1070
    78
1070
     9
1070
    79
1070
     2
1070
    90
1070
     1
1070
   172
1070
     1
1070
   345
1005
14
1070
   346
1005
14
1070
   347
1005
14
1002
}
1001
ACAD_DSTYLE_DIMARC_LENGTH_SYMBOL
1070
   379
1070
     1
1001
ACAD_DSTYLE_DIM_LINETYPE
1070
   380
1005
14
1001
ACAD_DSTYLE_DIM_EXT1_LINETYPE
1070
   381
1005
14
1001
ACAD_DSTYLE_DIM_EXT2_LINETYPE
1070
   382
1005
14
  0
DIMENSION
  5
29DB7
330
1F
100
AcDbEntity
  8
2
100
AcDbDimension
  2
*D8
 10
34.94357400000001
 20
37.54610099407676
 30
0.0
 11
17.47178700000001
 21
39.99365897018357
 31
0.0
 70
    32
  1
35
 71
     5
 41
0.0
 42
34.94357400000001
  3
MM_STANDARD
100
AcDbAlignedDimension
 13
0.0
 23
10.5
 33
0.0
 14
34.94357400000001
 24
8.967850999999996
 34
0.0
100
AcDbRotatedDimension
1001
ACAD
1000
DSTYLE
1002
{
1070
   279
1070
     0
1070
    78
1070
     9
1070
    79
1070
     2
1070
    90
1070
     1
1070
   172
1070
     1
1070
   345
1005
14
1070
   346
1005
14
1070
   347
1005
14
1002
}
1001
ACAD_DSTYLE_DIMARC_LENGTH_SYMBOL
1070
   379
1070
     1
1001
ACAD_DSTYLE_DIM_LINETYPE
1070
   380
1005
14
1001
ACAD_DSTYLE_DIM_EXT1_LINETYPE
1070
   381
1005
14
1001
ACAD_DSTYLE_DIM_EXT2_LINETYPE
1070
   382
1005
14
  0
DIMENSION
  5
29F17
330
1F
100
AcDbEntity
  8
SK2
100
AcDbDimension
  2
*D9
 10
34.94357400000001
 20
44.55269889489
 30
0.0
 11
6.471787000000013
 21
46.97812053930323
 31
0.0
 70
    32
  1
57
 71
     5
 41
0.0
 42
56.943574
  3
MM_STANDARD
100
AcDbAlignedDimension
 13
-21.99999999999999
 23
6.0
 33
0.0
 14
34.94357400000001
 24
8.967850999999996
 34
0.0
100
AcDbRotatedDimension
1001
ACAD
1000
DSTYLE
1002
{
1070
   279
1070
     0
1070
    78
1070
     9
1070
    79
1070
     2
1070
    90
1070
     1
1070
   172
1070
     1
1070
   345
1005
14
1070
   346
1005
14
1070
   347
1005
14
1002
}
1001
ACAD_DSTYLE_DIMARC_LENGTH_SYMBOL
1070
   379
1070
     1
1001
ACAD_DSTYLE_DIM_LINETYPE
1070
   380
1005
14
1001
ACAD_DSTYLE_DIM_EXT1_LINETYPE
1070
   381
1005
14
1001
ACAD_DSTYLE_DIM_EXT2_LINETYPE
1070
   382
1005
14
  0
DIMENSION
  5
2A63A
330
1F
100
AcDbEntity
  8
2
100
AcDbDimension
  2
*D24
 10
58.49992900000004
 20
12.50000000000001
 30
0.0
 11
58.49992900000003
 21
-0.1721522600241201
 31
0.0
 70
   160
  1
%%C<>
 71
     5
 41
0.0
 42
25.00000000000001
  3
MM_STANDARD
100
AcDbAlignedDimension
 13
34.94999999999999
 23
-12.5
 33
0.0
 14
23.24357400000002
 24
12.5
 34
0.0
 50
90.0
100
AcDbRotatedDimension
1001
ACAD_DSTYLE_DIMARC_LENGTH_SYMBOL
1070
   379
1070
     1
1001
ACAD_DSTYLE_DIM_LINETYPE
1070
   380
1005
14
1001
ACAD_DSTYLE_DIM_EXT1_LINETYPE
1070
   381
1005
14
1001
ACAD_DSTYLE_DIM_EXT2_LINETYPE
1070
   382
1005
14
1001
ACAD
1000
DSTYLE
1002
{
1070
    75
1070
     1
1070
    78
1070
     9
1070
    79
1070
     2
1070
    90
1070
     1
1070
   172
1070
     1
1070
   281
1070
     1
1070
   345
1005
14
1070
   346
1005
14
1070
   347
1005
14
1002
}
  0
LWPOLYLINE
  5
2A76F
330
1F
100
AcDbEntity
  8
CUT
100
AcDbPolyline
 90
     1538
 70
     1
 43
0.0
 10
23.22492783217612
 20
12.47715354598011
 42
0.355529982326952
 10
23.01111759332816
 20
12.31798475438371
 10
23.01111699999998
 20
12.317985
 10
21.83932431682299
 20
7.683856162419662
 10
21.8389813437616
 20
7.682594170805327
 10
21.8386849423779
 20
7.681331683923763
 10
21.83843297222708
 20
7.680059908498119
 10
21.83822563511707
 20
7.678778969035527
 10
21.83806310358933
 20
7.677489152733713
 10
21.83794552169346
 20
7.676190883396195
 10
21.83787300576167
 20
7.674884695347487
 10
21.83784564518332
 20
7.673571207348315
 10
21.83786350317954
 20
7.672251096510802
 10
21.83792661757768
 20
7.670925072213695
 10
21.83803500158592
 20
7.669593850017557
 10
21.83818864456775
 20
7.668258125579977
 10
21.83838751281655
 20
7.666918548570772
 10
21.83863155033015
 20
7.665575696587199
 10
21.83892067958532
 20
7.664230049069152
 10
21.83925480231234
 20
7.66288196121437
 10
21.83963380026956
 20
7.661531637893647
 10
21.84005753601786
 20
7.660179107566027
 10
21.84052590438618
 20
7.658824202897807
 10
21.84103904278432
 20
7.657466694717991
 10
21.84159706395303
 20
7.656106523730857
 10
21.84219994527583
 20
7.654743816099392
 10
21.84284754400268
 20
7.653378858092677
 10
21.84353961264371
 20
7.652012070714071
 10
21.84427581436299
 20
7.650643984329414
 10
21.84505573837233
 20
7.649275213295195
 10
21.84587891532503
 20
7.647906430586767
 10
21.84674483270964
 20
7.646538342426523
 10
21.84765295024377
 20
7.645171662912083
 10
21.84860271526782
 20
7.643807088644501
 10
21.84959357813879
 20
7.642445273356432
 10
21.850625007624
 20
7.641086802540343
 10
21.85169650629492
 20
7.639732168076688
 10
21.85280762592088
 20
7.638381742862105
 10
21.8539579828629
 20
7.637035755437612
 10
21.85514727346742
 20
7.635694264616782
 10
21.85637529943802
 20
7.634357136541494
 10
21.85764211070665
 20
7.63302412733154
 10
21.85894778958102
 20
7.631695108385265
 10
21.86029222225621
 20
7.630370105658744
 10
21.86167511503914
 20
7.629049280112074
 10
21.86309601818677
 20
7.627732907962911
 10
21.86455434974433
 20
7.626421360939983
 10
21.86604941938353
 20
7.625115086536605
 10
21.86758045224078
 20
7.623814588264213
 10
21.86914661275539
 20
7.622520405905883
 10
21.87074702850777
 20
7.621233095769849
 10
21.87238081405771
 20
7.619953210943022
 10
21.87404709478252
 20
7.618681281544526
 10
21.87574503071529
 20
7.617417794979207
 10
21.87747384038308
 20
7.616163176191152
 10
21.87923282464514
 20
7.614917767917226
 10
21.88102139053116
 20
7.61368181094058
 10
21.88283907507943
 20
7.612455424344179
 10
21.88468556917507
 20
7.611238585764326
 10
21.88656075636293
 20
7.610031118938707
 10
21.88846475910161
 20
7.608832802653846
 10
21.89039761705563
 20
7.607643518535499
 10
21.89235916344884
 20
7.606463254218637
 10
21.89434904861847
 20
7.605292090108924
 10
21.89636676462412
 20
7.604130186241057
 10
21.8984116698567
 20
7.602977769137154
 10
21.90048301364745
 20
7.601835118665099
 10
21.90257996087689
 20
7.600702554896915
 10
21.90470161658382
 20
7.599580424967122
 10
21.90684705057426
 20
7.598469089931103
 10
21.90901532203047
 20
7.597368911623461
 10
21.91120550411989
 20
7.596280239516392
 10
21.91341670860413
 20
7.595203397578043
 10
21.91564811044796
 20
7.594138671130865
 10
21.91789897242828
 20
7.593086293709994
 10
21.92016866974308
 20
7.592046433921605
 10
21.92245671462043
 20
7.591019182301268
 10
21.92476278092744
 20
7.590004538172327
 10
21.92708673002154
 20
7.589002396791431
 10
21.92942866692899
 20
7.588012574682939
 10
21.93178874802138
 20
7.587034927769852
 10
21.93416694044117
 20
7.586069385611051
 10
21.93656302836993
 20
7.585115943214037
 10
21.9389766360104
 20
7.584174652671735
 10
21.94140725056863
 20
7.583245614799258
 10
21.94385424523601
 20
7.582328970770706
 10
21.94631690217134
 20
7.581424893755942
 10
21.94879443548296
 20
7.580533580557373
 10
21.95128601421079
 20
7.579655243246741
 10
21.95379078530843
 20
7.578790100801897
 10
21.9563078966252
 20
7.577938370743596
 10
21.95883651988832
 20
7.577100260772267
 10
21.96137587368484
 20
7.576275960404812
 10
21.96392524644387
 20
7.575465632611372
 10
21.96648401941856
 20
7.574669405452126
 10
21.9690516896682
 20
7.573887363714066
 10
21.97162789304033
 20
7.57311954054778
 10
21.97421242715279
 20
7.572365909104242
 10
21.97680527436341
 20
7.57162637417513
 10
21.9949028716177
 20
7.566523008789821
 10
22.0130028147683
 20
7.561421644658426
 10
22.03110508927652
 20
7.556322266742474
 10
22.04920967991651
 20
7.551224860162383
 10
22.06731657082112
 20
7.546129410187753
 10
22.08542574551626
 20
7.541035902230825
 10
22.10353718695544
 20
7.53594432183995
 10
22.1216508775542
 20
7.530854654693044
 10
22.1397667992246
 20
7.525766886591049
 10
22.15788493340969
 20
7.520681003451405
 10
22.17600526111799
 20
7.515596991301504
 10
22.19412776295793
 20
7.510514836272156
 10
22.21225241917236
 20
7.505434524591048
 10
22.23037920967302
 20
7.500356042576217
 10
22.24850811407494
 20
7.495279376629492
 10
22.26663911173103
 20
7.490204513229983
 10
22.28477218176646
 20
7.485131438927518
 10
22.30290730311314
 20
7.480060140336122
 10
22.32104445454425
 20
7.474990604127473
 10
22.33918361470866
 20
7.469922817024366
 10
22.35732476216538
 20
7.464856765794178
 10
22.37546787541812
 20
7.459792437242317
 10
22.39361293294967
 20
7.454729818205707
 10
22.41175991325641
 20
7.449668895546233
 10
22.4299087948828
 20
7.444609656144208
 10
22.4480595564558
 20
7.439552086891838
 10
22.4662121767194
 20
7.434496174686682
 10
22.48436663456905
 20
7.429441906425109
 10
22.50252290908615
 20
7.42438926899578
 10
22.5206809795725
 20
7.419338249273081
 10
22.53884082558481
 20
7.414288834110617
 10
22.55700242662376
 20
7.409241010442244
 10
22.57516575737152
 20
7.404194766769927
 10
22.59333079191451
 20
7.399150091851457
 10
22.61149750928325
 20
7.394106972977766
 10
22.62966589264024
 20
7.389065396229408
 10
22.6478359282782
 20
7.384025346792064
 10
22.6660076046184
 20
7.378986809272061
 10
22.68418091120903
 20
7.373949768011878
 10
22.70235583772343
 20
7.368914207405679
 10
22.72053237295843
 20
7.363880112214802
 10
22.73871050383264
 20
7.358847467883298
 10
22.75689021438481
 20
7.353816260853425
 10
22.77507148477209
 20
7.348786478881177
 10
22.79325429026834
 20
7.34375811135179
 10
22.81143860026247
 20
7.338731149595258
 10
22.82962437725673
 20
7.333705587201854
 10
22.84781162731348
 20
7.32868140434365
 10
22.86600062149303
 20
7.323658499138402
 10
22.8841915610004
 20
7.318636792053853
 10
22.90238443616408
 20
7.313616269451738
 10
22.92057905064003
 20
7.308596975635311
 10
22.93877504600987
 20
7.303579004774112
 10
22.95697192637904
 20
7.29856249282876
 10
22.97516908297511
 20
7.293547609475712
 10
22.99336581874591
 20
7.288534550032064
 10
23.0115613729578
 20
7.283523527380312
 10
23.02975494579385
 20
7.278514763893142
 10
23.04794572295207
 20
7.273508483358194
 10
23.06613290024364
 20
7.268504902902866
 10
23.08431570819108
 20
7.263504224919066
 10
23.10249343662652
 20
7.258506628988005
 10
23.1206654593294
 20
7.253512263791506
 10
23.13883129047578
 20
7.248521228877388
 10
23.15699066296231
 20
7.243533554105242
 10
23.17514345752124
 20
7.238549228427385
 10
23.19328967945454
 20
7.233568207675038
 10
23.21142945027208
 20
7.228590416918669
 10
23.22956299933001
 20
7.223615752828306
 10
23.24769065546909
 20
7.21864408603387
 10
23.26581283865302
 20
7.21367526348551
 10
23.28393005160673
 20
7.208709110813924
 10
23.30204287145472
 20
7.203745434690696
 10
23.3201519413594
 20
7.198784025188612
 10
23.33825796215938
 20
7.193824658142008
 10
23.35636168400785
 20
7.188867097507076
 10
23.37446389801081
 20
7.183911097722208
 10
23.39256542786551
 20
7.178956406068325
 10
23.41066498561264
 20
7.17400334835921
 10
23.42868098238071
 20
7.169074182765776
 10
23.44646405836738
 20
7.164209675655257
 10
23.46392345690027
 20
7.159434587119269
 10
23.48102642075595
 20
7.154757836606297
 10
23.4977884772719
 20
7.150175156949724
 10
23.51426372345834
 20
7.145671748395876
 10
23.53053511111008
 20
7.141224932632058
 10
23.54670473191851
 20
7.136806806814592
 10
23.56288410258341
 20
7.132386897596846
 10
23.57918444992487
 20
7.127934815157284
 10
23.59570699599515
 20
7.123422907227499
 10
23.61253324319063
 20
7.118828913120242
 10
23.62971525936362
 20
7.114138617757474
 10
23.64726596293429
 20
7.109348505698395
 10
23.66514940800257
 20
7.104468415167481
 10
23.68327106945999
 20
7.099524192082522
 10
23.70140561525959
 20
7.094577400587769
 10
23.71897889371865
 20
7.089784816580199
 10
23.73618875138389
 20
7.085092583449856
 10
23.75367736262916
 20
7.080325479552478
 10
23.77138085192049
 20
7.075500659388589
 10
23.78897782849822
 20
7.070705510752516
 10
23.80654534356858
 20
7.065918907768843
 10
23.82418057376809
 20
7.061114360701668
 10
23.84191107612589
 20
7.056284474778344
 10
23.85946125779383
 20
7.051504568129863
 10
23.87701831694354
 20
7.046723989353313
 10
23.89500978892684
 20
7.041826273134558
 10
23.91328833063258
 20
7.036850683630547
 10
23.93133231014904
 20
7.031938025562378
 10
23.94940114826402
 20
7.027017104569246
 10
23.96801232557182
 20
7.021947092278827
 10
23.98708725941105
 20
7.016749854011387
 10
24.00635280273271
 20
7.011500394930648
 10
24.02566130173245
 20
7.006239500407259
 10
24.04480967328515
 20
7.001022967283217
 10
24.06368826489453
 20
6.995881100202355
 10
24.08237988639753
 20
6.99079176696338
 10
24.10109282253685
 20
6.985698606434013
 10
24.12005320976079
 20
6.980540307949588
 10
24.13940266285335
 20
6.975278474056155
 10
24.15910335487926
 20
6.969923492415242
 10
24.17897472545576
 20
6.964524577600388
 10
24.19884327390711
 20
6.95912896951871
 10
24.21867420703304
 20
6.953746068596744
 10
24.23848603741839
 20
6.948370706336302
 10
24.25828522287635
 20
6.943000960682959
 10
24.27806902076077
 20
6.93763737368316
 10
24.29780349832157
 20
6.932288912134159
 10
24.31747398494625
 20
6.926959233247554
 10
24.33697971124126
 20
6.921675166849187
 10
24.35588134118943
 20
6.916555109130177
 10
24.37435172333325
 20
6.911551547012712
 10
24.39296754733048
 20
6.906507615459782
 10
24.41166237440155
 20
6.901440770449682
 10
24.4301254505126
 20
6.896434664087909
 10
24.44841458343991
 20
6.891473834521303
 10
24.46670425229352
 20
6.886512021860532
 10
24.48502235853432
 20
6.881542544416282
 10
24.50334547041811
 20
6.876571976648849
 10
24.52166938349243
 20
6.8716014354155
 10
24.53999412002912
 20
6.866630898563849
 10
24.55831970164298
 20
6.861660344228912
 10
24.57664614929659
 20
6.856689750830573
 10
24.5949734833051
 20
6.851719097071065
 10
24.61330172334097
 20
6.846748361932449
 10
24.63163088843888
 20
6.841777524674069
 10
24.64996099700044
 20
6.836806564830053
 10
24.66829206679899
 20
6.831835462206764
 10
24.6866241149844
 20
6.826864196880295
 10
24.70495715808795
 20
6.821892749193928
 10
24.72329121202698
 20
6.816921099755615
 10
24.7416262921098
 20
6.811949229435455
 10
24.75996241304045
 20
6.806977119363166
 10
24.77829958892348
 20
6.802004750925556
 10
24.79663783326876
 20
6.797032105764005
 10
24.81497715899628
 20
6.792059165771934
 10
24.83331757844095
 20
6.787085913092286
 10
24.85165910335739
 20
6.78211233011499
 10
24.8700017449247
 20
6.777138399474447
 10
24.88834551375131
 20
6.772164104046996
 10
24.90669041987974
 20
6.7671894269484
 10
24.92503647279138
 20
6.762214351531303
 10
24.94338368141134
 20
6.757238861382724
 10
24.9617320541132
 20
6.752262940321513
 10
24.98008159872381
 20
6.747286572395847
 10
24.99843232252813
 20
6.742309741880685
 10
25.01678423227395
 20
6.737332433275248
 10
25.03513733417678
 20
6.732354631300505
 10
25.05349163392454
 20
6.727376320896635
 10
25.07184713668245
 20
6.722397487220503
 10
25.09020384709779
 20
6.717418115643138
 10
25.10856176930466
 20
6.712438191747208
 10
25.12692090692884
 20
6.707457701324499
 10
25.14528126309255
 20
6.702476630373377
 10
25.16364284041924
 20
6.697494965096272
 10
25.1820056410384
 20
6.692512691897152
 10
25.20036966659038
 20
6.687529797378994
 10
25.21873491823112
 20
6.682546268341265
 10
25.23710139663702
 20
6.677562091777387
 10
25.25546910200969
 20
6.672577254872224
 10
25.27383803408074
 20
6.667591744999548
 10
25.29220819211662
 20
6.66260554971951
 10
25.31057957492339
 20
6.657618656776127
 10
25.32895218085152
 20
6.652631054094753
 10
25.34732600780062
 20
6.647642729779541
 10
25.36570105322441
 20
6.642653672110933
 10
25.38407731413531
 20
6.637663869543132
 10
25.40245478710938
 20
6.632673310701567
 10
25.42083346829105
 20
6.627681984380382
 10
25.43921335339793
 20
6.622689879539897
 10
25.45759443772563
 20
6.617696985304093
 10
25.47597671615251
 20
6.612703290958081
 10
25.49436018314452
 20
6.607708785945576
 10
25.51274483275996
 20
6.602713459866379
 10
25.53113065865431
 20
6.59771730247384
 10
25.549517654085
 20
6.592720303672348
 10
25.56790581191622
 20
6.58772245351479
 10
25.58629512462371
 20
6.582723742200036
 10
25.60468558429956
 20
6.577724160070407
 10
25.623077182657
 20
6.572723697609156
 10
25.6414699110352
 20
6.567722345437937
 10
25.65986376040408
 20
6.562720094314291
 10
25.67825872136908
 20
6.557716935129097
 10
25.69665478417594
 20
6.552712858904075
 10
25.71505193871559
 20
6.547707856789242
 10
25.73345017452882
 20
6.542701920060391
 10
25.75184948081118
 20
6.537695040116569
 10
25.7702498464177
 20
6.532687208477549
 10
25.78865125986773
 20
6.527678416781307
 10
25.80705370934974
 20
6.522668656781488
 10
25.82545718272607
 20
6.517657920344897
 10
25.84386166753779
 20
6.512646199448957
 10
25.86226715100944
 20
6.507633486179193
 10
25.88067362005385
 20
6.502619772726707
 10
25.89908106127695
 20
6.497605051385646
 10
25.91748946098255
 20
6.492589314550687
 10
25.93589880517711
 20
6.487572554714494
 10
25.95430907957461
 20
6.482554764465217
 10
25.97272026960125
 20
6.47753593648395
 10
25.99113236040033
 20
6.472516063542204
 10
26.009545336837
 20
6.467495138499394
 10
26.02795918350306
 20
6.462473154300304
 10
26.04637388472179
 20
6.457450103972567
 10
26.06478942455269
 20
6.452425980624134
 10
26.08320578679631
 20
6.447400777440755
 10
26.10162295499907
 20
6.442374487683446
 10
26.120040912458
 20
6.437347104685974
 10
26.13845964222557
 20
6.432318621852325
 10
26.15687912711449
 20
6.427289032654175
 10
26.17529934970248
 20
6.422258330628378
 10
26.19372029233709
 20
6.41722650937442
 10
26.21214193714051
 20
6.412193562551919
 10
26.2305642660143
 20
6.407159483878076
 10
26.24898726070344
 20
6.40212426711573
 10
26.26741090386263
 20
6.397087905902731
 10
26.2858351788539
 20
6.39205039378779
 10
26.30426006872498
 20
6.387011724395075
 10
26.32268555619632
 20
6.381971891426331
 10
26.3411116236863
 20
6.376930888656846
 10
26.3595382533366
 20
6.371888709931424
 10
26.37796542703748
 20
6.366845349160351
 10
26.39639312645306
 20
6.361800800315375
 10
26.41482133304666
 20
6.356755057425658
 10
26.43325002810609
 20
6.351708114573766
 10
26.45167919276893
 20
6.346659965891624
 10
26.47010880804788
 20
6.34161060555649
 10
26.48853885485601
 20
6.336560027786926
 10
26.50696931403208
 20
6.331508226838771
 10
26.52540016636587
 20
6.326455197001101
 10
26.54383139262345
 20
6.321400932592212
 10
26.56226297357249
 20
6.316345427955575
 10
26.58069489000757
 20
6.311288677455819
 10
26.59912712277547
 20
6.306230675474697
 10
26.61755965280049
 20
6.301171416407047
 10
26.63599246110976
 20
6.296110894656774
 10
26.65442552885846
 20
6.291049104632816
 10
26.67285883735527
 20
6.285986040745107
 10
26.69129236808754
 20
6.280921697400558
 10
26.70972610274664
 20
6.275856068999019
 10
26.72816002325329
 20
6.27078914992925
 10
26.74659411178283
 20
6.265720934564892
 10
26.7650283507905
 20
6.260651417260441
 10
26.78346272303683
 20
6.255580592347204
 10
26.80189721161282
 20
6.250508454129287
 10
26.82033179996536
 20
6.245434996879552
 10
26.83876647192244
 20
6.240360214835591
 10
26.85720121171851
 20
6.235284102195696
 10
26.87563600401976
 20
6.23020665311483
 10
26.89407083394944
 20
6.22512786170059
 10
26.91250568711312
 20
6.220047722009191
 10
26.93094054962405
 20
6.214966228041417
 10
26.94937540812841
 20
6.209883373738605
 10
26.96781024983066
 20
6.204799152978613
 10
26.98624506251879
 20
6.199713559571782
 10
27.00467983458967
 20
6.194626587256915
 10
27.02311455507434
 20
6.189538229697241
 10
27.04154921366328
 20
6.184448480476388
 10
27.05998380073177
 20
6.179357333094346
 10
27.07841830736511
 20
6.17426478096345
 10
27.09685272538403
 20
6.169170817404338
 10
27.11528704736993
 20
6.164075435641923
 10
27.13372126669011
 20
6.158978628801372
 10
27.15215537752326
 20
6.153880389904058
 10
27.17058937488459
 20
6.148780711863547
 10
27.1890232546512
 20
6.143679587481558
 10
27.20745701358737
 20
6.138577009443941
 10
27.2258906493699
 20
6.133472970316634
 10
27.24432416061336
 20
6.128367462541646
 10
27.26275754689542
 20
6.123260478433021
 10
27.28119080878214
 20
6.118152010172802
 10
27.29962394785329
 20
6.113042049807017
 10
27.31805696672763
 20
6.107930589241626
 10
27.33648986908824
 20
6.102817620238514
 10
27.3549226597078
 20
6.097703134411449
 10
27.37335534447389
 20
6.092587123222044
 10
27.3917879304143
 20
6.08746957797575
 10
27.41022042570356
 20
6.082350489825632
 10
27.42865283847413
 20
6.077229850236017
 10
27.44708517541923
 20
6.072107651352219
 10
27.46551744283313
 20
6.066983885446218
 10
27.48394964673382
 20
6.061858544863835
 10
27.50238179286407
 20
6.056731622027263
 10
27.52081388669255
 20
6.051603109437575
 10
27.53924593341487
 20
6.046472999677246
 10
27.55767793795474
 20
6.041341285412678
 10
27.57610990496495
 20
6.036207959396715
 10
27.59454183882851
 20
6.031073014471155
 10
27.61297374365977
 20
6.025936443569285
 10
27.63140562330539
 20
6.020798239718389
 10
27.64983748134558
 20
6.015658396042268
 10
27.66826932109504
 20
6.010516905763763
 10
27.68670114560411
 20
6.005373762207267
 10
27.70513295765986
 20
6.000228958801257
 10
27.72356475978713
 20
5.995082489080802
 10
27.74199655424967
 20
5.989934346690086
 10
27.76042834305119
 20
5.984784525384924
 10
27.77886012793643
 20
5.97963301903529
 10
27.79729191039226
 20
5.974479821627826
 10
27.81572369164879
 20
5.969324927268365
 10
27.83415547268039
 20
5.964168330184455
 10
27.85258725420685
 20
5.959010024727871
 10
27.87101903669439
 20
5.953850005377136
 10
27.88945082035679
 20
5.948688266740044
 10
27.90788260515646
 20
5.943524803556173
 10
27.92631439080553
 20
5.938359610699413
 10
27.94474617676691
 20
5.933192683180477
 10
27.96317796225539
 20
5.928024016149422
 10
27.98160974623874
 20
5.922853604898171
 10
28.00004152743876
 20
5.917681444863028
 10
28.01847330433239
 20
5.912507531627204
 10
28.03690507515277
 20
5.907331860923327
 10
28.05533683789034
 20
5.902154428635972
 10
28.07376859029393
 20
5.896975230804168
 10
28.09220032987181
 20
5.891794263623927
 10
28.11063205389282
 20
5.886611523450758
 10
28.12906375938739
 20
5.881427006802192
 10
28.14749544314873
 20
5.876240710360293
 10
28.16592710173377
 20
5.871052630974181
 10
28.18435873146436
 20
5.865862765662553
 10
28.20279032842828
 20
5.860671111616201
 10
28.22122188848041
 20
5.85547766620053
 10
28.2396534072437
 20
5.850282426958079
 10
28.25808488011034
 20
5.845085391611037
 10
28.2765163022428
 20
5.839886558063769
 10
28.29494766857495
 20
5.834685924405325
 10
28.31337897381309
 20
5.829483488911968
 10
28.33181021243709
 20
5.824279250049692
 10
28.35024137870142
 20
5.819073206476733
 10
28.3686724666363
 20
5.813865357046101
 10
28.38710347004871
 20
5.808655700808092
 10
28.4055343825235
 20
5.803444237012802
 10
28.42396519742452
 20
5.798230965112656
 10
28.44239590789563
 20
5.793015884764924
 10
28.46082650686181
 20
5.787798995834241
 10
28.47925698703029
 20
5.782580298395117
 10
28.49768734089155
 20
5.777359792734474
 10
28.51611756072046
 20
5.772137479354148
 10
28.53454763857737
 20
5.766913358973415
 10
28.55297756630914
 20
5.761687432531513
 10
28.5714073355403
 20
5.75645970119295
 10
28.58983692653281
 20
5.751230169452409
 10
28.60826628868434
 20
5.745998850528661
 10
28.62669536989752
 20
5.740765758132112
 10
28.64512412264974
 20
5.735530904769372
 10
28.66355250383039
 20
5.730294301789442
 10
28.68198047457789
 20
5.725055959429866
 10
28.70040800011683
 20
5.719815886862912
 10
28.71883504959504
 20
5.714574092241732
 10
28.73726159592077
 20
5.709330582746539
 10
28.75568761559972
 20
5.704085364630764
 10
28.77411308857222
 20
5.69883844326724
 10
28.79253799805029
 20
5.693589823194357
 10
28.81096233035475
 20
5.688339508162239
 10
28.82938607475238
 20
5.68308750117891
 10
28.84780922329296
 20
5.677833804556462
 10
28.86623177064646
 20
5.672578419957228
 10
28.88465371394003
 20
5.667321348439946
 10
28.90307505259526
 20
5.662062590505925
 10
28.92149578816516
 20
5.656802146145227
 10
28.93991592417133
 20
5.65154001488282
 10
28.95833546594107
 20
5.646276195824757
 10
28.97675442044448
 20
5.64101068770434
 10
28.99517279613156
 20
5.635743488928293
 10
29.01359060276933
 20
5.630474597622924
 10
29.03200785127891
 20
5.6252040116803
 10
29.05042455357272
 20
5.619931728804417
 10
29.06884072239146
 20
5.614657746557363
 10
29.08725637114133
 20
5.609382062405486
 10
29.10567151373106
 20
5.604104673765569
 10
29.12408616440908
 20
5.598825578050997
 10
29.14250033760057
 20
5.593544772717923
 10
29.16091404774464
 20
5.588262255311438
 10
29.17932730913136
 20
5.582978023511743
 10
29.19774013573895
 20
5.577692075180311
 10
29.21615254107081
 20
5.572404408406063
 10
29.2345645379927
 20
5.567115021551532
 10
29.2529761385698
 20
5.561823913299033
 10
29.27138735390384
 20
5.556531082696832
 10
29.28979819397021
 20
5.551236529205318
 10
29.30820866745505
 20
5.545940252743164
 10
29.32661878159241
 20
5.540642253733505
 10
29.34502854200127
 20
5.535342533150097
 10
29.36343795252275
 20
5.530041092563495
 10
29.38184701505715
 20
5.524737934187218
 10
29.40025572940109
 20
5.519433060923915
 10
29.41866409308459
 20
5.514126476411537
 10
29.43707210120824
 20
5.508818185069507
 10
29.45547974628022
 20
5.503508192144885
 10
29.47388701805349
 20
5.498196503758542
 10
29.49229390336287
 20
5.492883126951317
 10
29.51070038596212
 20
5.487568069730206
 10
29.52910644636111
 20
5.482251341114511
 10
29.54751206166287
 20
5.476932951182018
 10
29.56591720540071
 20
5.471612911115165
 10
29.5843218473754
 20
5.466291233247214
 10
29.60272595349218
 20
5.460967931108411
 10
29.6211294855979
 20
5.455643019472161
 10
29.63953240131818
 20
5.450316514401198
 10
29.65793465389444
 20
5.444988433293752
 10
29.67633619202109
 20
5.439658794929714
 10
29.69473695968259
 20
5.434327619516809
 10
29.71313689599053
 20
5.428994928736764
 10
29.73153593502083
 20
5.42366074579148
 10
29.74993401194996
 20
5.418325093651766
 10
29.76833110005527
 20
5.412987984494606
 10
29.78672718870921
 20
5.407649425971894
 10
29.8051222667366
 20
5.402309425959613
 10
29.82351632240234
 20
5.396967992564344
 10
29.84190934345152
 20
5.391625134114856
 10
29.86030131714952
 20
5.386280859153677
 10
29.87869223032206
 20
5.380935176428677
 10
29.89708206939536
 20
5.375588094884641
 10
29.91547082043619
 20
5.370239623654851
 10
29.933858469192
 20
5.364889772052664
 10
29.95224500113099
 20
5.359538549563088
 10
29.97063040148221
 20
5.354185965834366
 10
29.98901465527569
 20
5.34883203066954
 10
30.00739774738249
 20
5.343476754018051
 10
30.02577966255483
 20
5.338120145967294
 10
30.04416038546616
 20
5.332762216734213
 10
30.06253990075131
 20
5.327402976656873
 10
30.08091819304651
 20
5.322042436186039
 10
30.09929524702954
 20
5.316680605876751
 10
30.11767104745981
 20
5.311317496379905
 10
30.13604557921847
 20
5.305953118433833
 10
30.1544188273485
 20
5.300587482855879
 10
30.1727907770948
 20
5.295220600533978
 10
30.19116141394427
 20
5.289852482418228
 10
30.20953072366595
 20
5.284483139512483
 10
30.2278986923511
 20
5.279112582865911
 10
30.24626530645328
 20
5.273740823564592
 10
30.26463055282845
 20
5.268367872723084
 10
30.28299441877511
 20
5.262993741476003
 10
30.30135689207432
 20
5.257618440969605
 10
30.31971796102986
 20
5.252241982353358
 10
30.33807761450831
 20
5.246864376771527
 10
30.35643584197913
 20
5.241485635354749
 10
30.37479263355479
 20
5.236105769211608
 10
30.39314798003085
 20
5.230724789420219
 10
30.41150187292599
 20
5.225342707019806
 10
30.42985430452227
 20
5.219959533002271
 10
30.44820526790505
 20
5.214575278303785
 10
30.46655475700321
 20
5.209189953796355
 10
30.48490276662918
 20
5.20380357027941
 10
30.50324929251904
 20
5.19841613847138
 10
30.52159433137269
 20
5.193027669001261
 10
30.53993788089385
 20
5.18763817240021
 10
30.55827993983021
 20
5.182247659093113
 10
30.57662050801351
 20
5.176856139390171
 10
30.59495958639966
 20
5.171463623478463
 10
30.61329717710879
 20
5.166070121413547
 10
30.63163328346542
 20
5.160675643111011
 10
30.64996791003848
 20
5.155280198338081
 10
30.66830106268144
 20
5.149883796705171
 10
30.68663274857243
 20
5.144486447657481
 10
30.7049629762543
 20
5.139088160466568
 10
30.72329175567474
 20
5.133688944221919
 10
30.74161909822635
 20
5.128288807822542
 10
30.75994501678677
 20
5.122887759968532
 10
30.77826952575878
 20
5.117485809152653
 10
30.79659264111032
 20
5.11208296365192
 10
30.81491438041471
 20
5.106679231519174
 10
30.83323476289065
 20
5.101274620574657
 10
30.85155380944236
 20
5.095869138397596
 10
30.86987154269968
 20
5.090462792317781
 10
30.8881879870581
 20
5.085055589407134
 10
30.90650315698268
 20
5.079647540154844
 10
30.92481692666022
 20
5.074238699376405
 10
30.94312924847531
 20
5.068829097631646
 10
30.96144030016052
 20
5.063418695057136
 10
30.97975037969808
 20
5.0580074143807
 10
30.99805979374213
 20
5.052595175969677
 10
31.01636874604112
 20
5.047181932879199
 10
31.03467722586009
 20
5.04176770590045
 10
31.05293944517897
 20
5.036366081863797
 10
31.07071197248301
 20
5.031108380795351
 10
31.08770505992958
 20
5.026080184542324
 10
31.10408624236566
 20
5.021231448125639
 10
31.12030297289177
 20
5.016429152838846
 10
31.1368983596244
 20
5.011512003435141
 10
31.15432690245854
 20
5.006345125314388
 10
31.17277022983015
 20
5.000874761710131
 10
31.19195293484497
 20
4.995182941640588
 10
31.21109257641764
 20
4.98950235750758
 10
31.2295705359155
 20
4.984017172360283
 10
31.24730296578618
 20
4.978752730759721
 10
31.26458322138613
 20
4.973622324988808
 10
31.28189714932931
 20
4.968482038976688
 10
31.29973837583595
 20
4.963185592223092
 10
31.31842359508128
 20
4.957639183722693
 10
31.33790785754423
 20
4.95185633588944
 10
31.35768604190849
 20
4.945987149370464
 10
31.37747306985105
 20
4.940116340736856
 10
31.39725382371674
 20
4.934248425576936
 10
31.41701565811653
 20
4.928387133203488
 10
31.43674916871422
 20
4.922535165128202
 10
31.4564567580331
 20
4.916691636927329
 10
31.47614063802701
 20
4.910855694689671
 10
31.49578942182133
 20
4.905030496748718
 10
31.51537127433079
 20
4.899225217868106
 10
31.53480773737762
 20
4.893462741640599
 10
31.5539647323337
 20
4.887782289845263
 10
31.5728045172952
 20
4.882194426690332
 10
31.59150537757368
 20
4.876645634864327
 10
31.61014345665205
 20
4.871112780022316
 10
31.62865606632254
 20
4.865614298609378
 10
31.64700722787586
 20
4.860161272307427
 10
31.66527287802306
 20
4.854732176457521
 10
31.68352271923139
 20
4.849307178190088
 10
31.70177183982982
 20
4.843882073759181
 10
31.72001634873792
 20
4.838458019877478
 10
31.73825438745165
 20
4.833035588000011
 10
31.75648587755398
 20
4.827614839131499
 10
31.7747100063091
 20
4.822196036552629
 10
31.79292609194158
 20
4.816779401175044
 10
31.81113357870149
 20
4.811365113398419
 10
31.82933203192845
 20
4.805953314967823
 10
31.84752113311569
 20
4.800544110831086
 10
31.86570067497416
 20
4.795137570996156
 10
31.88387055649662
 20
4.789733732388469
 10
31.90203077802169
 20
4.784332600708308
 10
31.92018143629789
 20
4.778934152288168
 10
31.93832271954784
 20
4.773538335950124
 10
31.95645490253219
 20
4.768145074863188
 10
31.97457834161381
 20
4.762754268400668
 10
31.9926934698218
 20
4.75736579399755
 10
32.01080079191563
 20
4.751979509007837
 10
32.02890087944914
 20
4.746595252561933
 10
32.0469943658347
 20
4.741212847423996
 10
32.06508194140719
 20
4.735832101849301
 10
32.08316434843773
 20
4.730452811449969
 10
32.101242367813
 20
4.725074762672738
 10
32.11931679569277
 20
4.719697739248672
 10
32.13738844091782
 20
4.714321524592528
 10
32.15545811844684
 20
4.708945903812278
 10
32.1735266415264
 20
4.703570665873559
 10
32.19159481386105
 20
4.698195605764131
 10
32.20966342178331
 20
4.69282052665831
 10
32.22773322642382
 20
4.687445242081418
 10
32.24580495588121
 20
4.682069578074238
 10
32.26387929739232
 20
4.676693375357451
 10
32.28195688950212
 20
4.67131649149609
 10
32.3000383142338
 20
4.665938803063983
 10
32.31812408925879
 20
4.660560207808202
 10
32.33621466006686
 20
4.655180626813507
 10
32.35431039213606
 20
4.649800006666798
 10
32.37240665362605
 20
4.644419779427773
 10
32.39039892411808
 20
4.639071037573073
 10
32.40813032593623
 20
4.633800413442494
 10
32.42550978827065
 20
4.628634990002539
 10
32.44250693431901
 20
4.623583820234212
 10
32.45914177717927
 20
4.618640988057863
 10
32.47547441574229
 20
4.613788669258031
 10
32.49159473058453
 20
4.609000192408283
 10
32.50761207986083
 20
4.604243099796058
 10
32.52364499519693
 20
4.599482208347511
 10
32.5398108775823
 20
4.594682670552347
 10
32.55621569326272
 20
4.589813035388676
 10
32.57294366963306
 20
4.584848309247846
 10
32.59004699112989
 20
4.579773016859284
 10
32.60753549512418
 20
4.574584262215347
 10
32.62536636781403
 20
4.569294789496158
 10
32.64343384011726
 20
4.563936043994445
 10
32.66157526848377
 20
4.558556367922951
 10
32.67972585484461
 20
4.553175058022524
 10
32.69789688873014
 20
4.547788817312811
 10
32.71609794845079
 20
4.542394853272027
 10
32.73433607979519
 20
4.536991121959469
 10
32.75261599376192
 20
4.53157626957541
 10
32.77094026429127
 20
4.526149574020964
 10
32.78930952599691
 20
4.520710886457983
 10
32.8077226718977
 20
4.515260572868934
 10
32.82617705114936
 20
4.509799455616783
 10
32.84466866677622
 20
4.504328755004873
 10
32.86319237340297
 20
4.498850030836816
 10
32.88174207498638
 20
4.49336512397637
 10
32.90031092254702
 20
4.487876097907316
 10
32.91889151190099
 20
4.482385180293358
 10
32.93747608139169
 20
4.476894704537988
 10
32.95605670962152
 20
4.471407051344376
 10
32.97462551318361
 20
4.465924590275258
 10
32.99317484439356
 20
4.460449621312804
 10
33.01169748902117
 20
4.454984316418521
 10
33.03018686402221
 20
4.44953066109312
 10
33.04863721527006
 20
4.444090395936401
 10
33.06704381528753
 20
4.438664958207143
 10
33.08540316097856
 20
4.433255423382981
 10
33.10371317135996
 20
4.427862446720292
 10
33.12197338529311
 20
4.42248620481407
 10
33.14018515921574
 20
4.417126337157823
 10
33.15835186487363
 20
4.411781887703445
 10
33.17647908705236
 20
4.406451246421096
 10
33.194574821309
 20
4.401132090859096
 10
33.21264967170391
 20
4.395821327703801
 10
33.23071620440345
 20
4.390515283996434
 10
33.24877988388902
 20
4.38521238776692
 10
33.26684077474395
 20
4.379912664479069
 10
33.28489884837058
 20
4.374616167456226
 10
33.30295407210126
 20
4.369322951525345
 10
33.32100640987321
 20
4.364033072817261
 10
33.33905582290344
 20
4.358746588566956
 10
33.35710227036354
 20
4.353463556913839
 10
33.3751457100546
 20
4.348184036702001
 10
33.39318609908203
 20
4.342908087280503
 10
33.41122339453043
 20
4.337635768303634
 10
33.42925755413852
 20
4.332367139531191
 10
33.44728853697391
 20
4.327102260628736
 10
33.46531630410801
 20
4.321841190967884
 10
33.48334081929088
 20
4.316583989426558
 10
33.50136204962614
 20
4.311330714189266
 10
33.51937996624574
 20
4.30608142254738
 10
33.53739454498492
 20
4.300836170699385
 10
33.55540576705701
 20
4.295595013551174
 10
33.57341361972833
 20
4.290358004516301
 10
33.5914180970116
 20
4.285125195310858
 10
33.59402650805071
 20
4.284375018243204
 10
33.59663571903734
 20
4.283640069241595
 10
33.59924576722141
 20
4.282920434209525
 10
33.60185649446708
 20
4.282216241779472
 10
33.60446757156733
 20
4.281527657915502
 10
33.60707852257802
 20
4.280854880510267
 10
33.60968874915201
 20
4.280198133982
 10
33.61229755487325
 20
4.279557663871488
 10
33.61490416959083
 20
4.278933731439084
 10
33.6175077737531
 20
4.278326608261687
 10
33.62010752274176
 20
4.277736570829731
 10
33.62270257120596
 20
4.277163895144182
 10
33.62529209739636
 20
4.276608851313529
 10
33.62787532749923
 20
4.276071698150767
 10
33.63045155997055
 20
4.275552677770397
 10
33.6330201898701
 20
4.275052010185413
 10
33.63558073319552
 20
4.274569887904293
 10
33.63813285121647
 20
4.274106470527993
 10
33.64067637480861
 20
4.273661879346928
 10
33.64321132878782
 20
4.273236191937978
 10
33.64573792941231
 20
4.27282945548553
 10
33.64825633754919
 20
4.272441794668029
 10
33.65076647694783
 20
4.272073382083011
 10
33.65326805961962
 20
4.27172440348275
 10
33.65576061342264
 20
4.271395055578325
 10
33.65824350959992
 20
4.271085543903353
 10
33.66071599031766
 20
4.270796080677699
 10
33.66317719620364
 20
4.270526882671211
 10
33.66562619388531
 20
4.270278169067456
 10
33.66806200352822
 20
4.270050159327423
 10
33.67048362637422
 20
4.269843071053273
 10
33.67289007227974
 20
4.269657117852051
 10
33.67528038725406
 20
4.269492507199416
 10
33.6776536809976
 20
4.269349438303366
 10
33.68000915444023
 20
4.269228099967973
 10
33.68234612727945
 20
4.269128668457091
 10
33.68466406551875
 20
4.269051305358102
 10
33.68696260900584
 20
4.26899615544563
 10
33.68924159897093
 20
4.268963344545268
 10
33.69150110541309
 20
4.268952977502711
 10
33.69374134810505
 20
4.268965184956956
 10
33.69596232909888
 20
4.269000193453111
 10
33.69816379924351
 20
4.269058211607291
 10
33.7003453039269
 20
4.269139412567032
 10
33.70250621303015
 20
4.269243937809997
 10
33.7046457508818
 20
4.269371900942714
 10
33.70676302621192
 20
4.269523391499311
 10
33.7088570621064
 20
4.269698478740232
 10
33.71092682596103
 20
4.269897215450972
 10
33.71297125943577
 20
4.27011964174081
 10
33.71498930840895
 20
4.270365788841528
 10
33.71697995293141
 20
4.270635682906153
 10
33.71894223718071
 20
4.270929348807667
 10
33.72087529941533
 20
4.271246813937756
 10
33.7227784019289
 20
4.271588112005527
 10
33.72465096100429
 20
4.271953286836232
 10
33.72649257686791
 20
4.272342396170016
 10
33.72830306364384
 20
4.272755515460626
 10
33.73008247930302
 20
4.273192741676409
 10
33.73183104496804
 20
4.273654228758767
 10
33.73354871060224
 20
4.274140218019383
 10
33.73523519292245
 20
4.274650871530083
 10
33.7368900500935
 20
4.275186248708267
 10
33.73851270733491
 20
4.275746319427629
 10
33.74010248252773
 20
4.276330977128901
 10
33.74165861182122
 20
4.276940051930596
 10
33.74318027523965
 20
4.277573323739725
 10
33.74466662228906
 20
4.278230535362551
 10
33.74611679756402
 20
4.278911405615314
 10
33.74752996635436
 20
4.279615642434973
 10
33.74890534025196
 20
4.280342955989938
 10
33.75024220275751
 20
4.281093071790811
 10
33.75153993488722
 20
4.281865743801113
 10
33.75279804077964
 20
4.282660767548032
 10
33.75401617330243
 20
4.283477993233143
 10
33.75519415965902
 20
4.284317338843163
 10
33.75633202699549
 20
4.285178803260675
 10
33.75743001376692
 20
4.286062481063424
 10
33.75848826471653
 20
4.28696856195908
 10
33.75950664957091
 20
4.287897155549751
 10
33.76048494908011
 20
4.288848205064093
 10
33.76142287871612
 20
4.289821507145228
 10
33.76232010365264
 20
4.290816734262831
 10
33.76317625374479
 20
4.291833457125187
 10
33.76399093850903
 20
4.292871167091278
 10
33.76476376210277
 20
4.293929298582848
 10
33.76549433830434
 20
4.295007251496484
 10
33.76618230549264
 20
4.296104413615673
 10
33.76682734162693
 20
4.297220183022899
 10
33.76742917922671
 20
4.29835399051169
 10
33.76798762035143
 20
4.299505321998714
 10
33.76850255158021
 20
4.300673740935837
 10
33.76897395899182
 20
4.301858910722203
 10
33.76940194314427
 20
4.303060617116305
 10
33.76978766804733
 20
4.304281747488011
 10
34.94467599999999
 20
9.136262000000002
 10
34.94467851734339
 20
9.13626160236684
 42
0.3464378063053578
 10
34.84016563597498
 20
9.365062103910661
 10
34.82500543224322
 20
9.372525007826695
 10
34.80987988733363
 20
9.379961589353488
 10
34.79474901259127
 20
9.38739152219432
 10
34.77961281386719
 20
9.39481479208514
 10
34.76447129875234
 20
9.402231384007466
 10
34.74932447650913
 20
9.409641282221327
 10
34.73417235800286
 20
9.417044470298185
 10
34.71901495563332
 20
9.424440931153897
 10
34.70385228326617
 20
9.43183064708165
 10
34.68868435616457
 20
9.439213599784894
 10
34.67351119092052
 20
9.446589770410293
 10
34.65833280538654
 20
9.453959139580655
 10
34.64314921860699
 20
9.46132168742789
 10
34.6279604507497
 20
9.468677393625931
 10
34.61276652303743
 20
9.476026237423685
 10
34.59756745767933
 20
9.483368197677984
 10
34.58236327780249
 20
9.490703252886495
 10
34.5671540073834
 20
9.498031381220704
 10
34.5519396711795
 20
9.505352560558806
 10
34.53672029466061
 20
9.512666768518702
 10
34.52149590394047
 20
9.519973982490892
 10
34.50626652570826
 20
9.527274179671444
 10
34.49103218716005
 20
9.534567337094918
 10
34.47579291593033
 20
9.541853431667323
 10
34.46054874002348
 20
9.549132440199054
 10
34.44529968774533
 20
9.556404339437811
 10
34.43004578763455
 20
9.563669106101576
 10
34.41478706839428
 20
9.570926716911523
 10
34.39952355882353
 20
9.578177148624977
 10
34.38425528774871
 20
9.585420378068347
 10
34.36898228395518
 20
9.592656382170073
 10
34.35370457611862
 20
9.599885137993561
 10
34.33842219273667
 20
9.607106622770118
 10
34.32313516206035
 20
9.614320813931914
 10
34.30784351202557
 20
9.621527689144899
 10
34.29254726550859
 20
9.628727228460792
 10
34.27724642227806
 20
9.635919422518702
 10
34.26194097171247
 20
9.643104266818641
 10
34.24663089907497
 20
9.650281758875141
 10
34.23131618627167
 20
9.65745189786392
 10
34.21599681260951
 20
9.664614684268618
 10
34.20067275555422
 20
9.671770119527591
 10
34.18534399148813
 20
9.678918205680684
 10
34.17001049646819
 20
9.686058945016007
 10
34.15467224698379
 20
9.693192339716725
 10
34.13932922071467
 20
9.700318391507826
 10
34.12398139728888
 20
9.707437101302883
 10
34.10862875904058
 20
9.714548468850868
 10
34.09327129176812
 20
9.721652492382895
 10
34.07790898549172
 20
9.728749168259023
 10
34.06254183521155
 20
9.735838490615014
 10
34.04716984166554
 20
9.742920451009126
 10
34.03179301208735
 20
9.749995038068878
 10
34.01641136096419
 20
9.757062237137835
 10
34.00102491079481
 20
9.764122029922392
 10
33.98563369284733
 20
9.771174394138533
 10
33.97023774800845
 20
9.778219303117882
 10
33.95483743296217
 20
9.785256589060354
 10
33.93943278663988
 20
9.792286225794292
 10
33.92402262338599
 20
9.799308733705524
 10
33.9086081436009
 20
9.806323567689901
 10
33.89319689726765
 20
9.813327347271098
 10
33.87780017901722
 20
9.820315017583466
 10
33.86242558602396
 20
9.827283175335653
 10
33.84707659573964
 20
9.834230260330935
 10
33.83175320009625
 20
9.841156273008003
 10
33.8164525315374
 20
9.848062495597508
 10
33.8011694890498
 20
9.854951213278594
 10
33.78589736419473
 20
9.861825435335461
 10
33.77062846713941
 20
9.868688616313892
 10
33.75542201417297
 20
9.875514395331094
 10
33.7405820321149
 20
9.882167332838266
 10
33.72625030222062
 20
9.888584410352976
 10
33.71233874833045
 20
9.894805130429793
 10
33.69861455743552
 20
9.900933519002682
 10
33.68478536015447
 20
9.907100101018578
 10
33.6705844112101
 20
9.913423876070867
 10
33.65585576990608
 20
9.919974294032952
 10
33.64063948060362
 20
9.926733230691763
 10
33.62522672131613
 20
9.933570389880603
 10
33.60981127912777
 20
9.940399137851452
 10
33.59439927162269
 20
9.947216771621626
 10
33.57899191544588
 20
9.954022771982856
 10
33.56359003801913
 20
9.960816786512687
 10
33.54819410546728
 20
9.967598617547947
 10
33.53280425054441
 20
9.974368210158219
 10
33.51742030056023
 20
9.981125640119314
 10
33.50204180530623
 20
9.987871101886721
 10
33.48666806498196
 20
9.994604896569095
 10
33.47129815812134
 20
10.00132741990171
 10
33.45593096951886
 20
10.00803915021993
 10
33.44056521815585
 20
10.01474063643269
 10
33.42519948512679
 20
10.02143248599595
 10
33.4098322415655
 20
10.02811535288616
 10
33.39446187657142
 20
10.03478992557373
 10
33.37908672513591
 20
10.0414569149965
 10
33.36370509606846
 20
10.04811704253324
 10
33.34831529992296
 20
10.05477102797705
 10
33.33291567692397
 20
10.06141957750887
 10
33.31750462489299
 20
10.06806337167096
 10
33.30208062717467
 20
10.07470305334033
 10
33.28664228056317
 20
10.08133921570225
 10
33.27118832322824
 20
10.08797239022367
 10
33.2557176626417
 20
10.09460303462674
 10
33.24022940350353
 20
10.10123152086223
 10
33.2247228756682
 20
10.10785812308302
 10
33.20919766207092
 20
10.11448300561758
 10
33.19365362665391
 20
10.12110621094342
 10
33.17809094229263
 20
10.12772764766054
 10
33.16251011872206
 20
10.13434707846497
 10
33.14691203046293
 20
10.14096410812214
 10
33.13129794474806
 20
10.14757817144041
 10
33.11566954944851
 20
10.15418852124453
 10
33.10002898099991
 20
10.1607942163491
 10
33.08437872815507
 20
10.16739416252989
 10
33.068719917383
 20
10.17398785101587
 10
33.0530538060611
 20
10.18057474159082
 10
33.03738267954348
 20
10.18715387072769
 10
33.02170798196157
 20
10.19372462817718
 10
33.00605310710353
 20
10.20027722239581
 10
32.99040712307335
 20
10.20681605426799
 10
32.9746539173338
 20
10.21338931415372
 10
32.95872394504004
 20
10.22002580956032
 10
32.94271793169404
 20
10.22668342524529
 10
32.92661190209846
 20
10.23337176907267
 10
32.91029212377341
 20
10.24013781574137
 10
32.89371749663712
 20
10.24699843456813
 10
32.87695705223397
 20
10.25392483402997
 10
32.86026784774764
 20
10.26081109247957
 10
32.84389018685684
 20
10.26755867695865
 10
32.82785314983363
 20
10.27415573696847
 10
32.81203255539673
 20
10.28065327440175
 10
32.79622135457096
 20
10.28713625418739
 10
32.78020002454637
 20
10.29369471493521
 10
32.76380696253787
 20
10.30039487958062
 10
32.74700887964431
 20
10.30725026602942
 10
32.72996892521967
 20
10.31419373423301
 10
32.71292166363166
 20
10.3211290154753
 10
32.69588593709408
 20
10.32804830225774
 10
32.67882827820744
 20
10.33496503729352
 10
32.66179117150621
 20
10.34186212204469
 10
32.64497959205364
 20
10.34865708148009
 10
32.62847578030255
 20
10.35531682711387
 10
32.61200163129923
 20
10.36195345179562
 10
32.59530879662655
 20
10.36866715641642
 10
32.57849830106451
 20
10.37541720694012
 10
32.56175086395181
 20
10.38213070333519
 10
32.54519900674023
 20
10.3887547351964
 10
32.52912640263415
 20
10.39517661846403
 10
32.51353654373661
 20
10.40139529136524
 10
32.49816803491387
 20
10.40751521590678
 10
32.48270380068952
 20
10.4136629854368
 10
32.46698034903236
 20
10.41990390949723
 10
32.45114585714009
 20
10.42617900436254
 10
32.43531136994828
 20
10.43244406187786
 10
32.4194701288077
 20
10.43870177901051
 10
32.40362364702932
 20
10.44495153864315
 10
32.38777302025332
 20
10.45119289936087
 10
32.37191891395512
 20
10.45742558963151
 10
32.35606106262809
 20
10.46364971012843
 10
32.34019925215183
 20
10.46986534061859
 10
32.32433345172889
 20
10.47607248738233
 10
32.30846363415223
 20
10.48227115530841
 10
32.2925897735859
 20
10.48846134878371
 10
32.27671184554321
 20
10.49464307170179
 10
32.26082982686478
 20
10.5008163274714
 10
32.24494369569682
 20
10.50698111902504
 10
32.2290534314692
 20
10.51313744882751
 10
32.21315901487358
 20
10.51928531888443
 10
32.19726042784163
 20
10.52542473075077
 10
32.18135765352315
 20
10.53155568553942
 10
32.16545067626415
 20
10.53767818392972
 10
32.14953948158508
 20
10.54379222617598
 10
32.13362405615901
 20
10.54989781211603
 10
32.11770438778966
 20
10.5559949411798
 10
32.10178046538962
 20
10.56208361239779
 10
32.08585227895853
 20
10.56816382440965
 10
32.06991981956115
 20
10.57423557547272
 10
32.05398307930552
 20
10.58029886347056
 10
32.03804205132121
 20
10.58635368592151
 10
32.02209672973737
 20
10.59240003998717
 10
32.00614710966084
 20
10.59843792248102
 10
31.99019318715445
 20
10.60446732987693
 10
31.97423495921501
 20
10.61048825831765
 10
31.95827242375157
 20
10.61650070362343
 10
31.9423055795635
 20
10.62250466130051
 10
31.92633442631868
 20
10.62850012654967
 10
31.9103589645316
 20
10.63448709427477
 10
31.89437919554159
 20
10.64046555909128
 10
31.87839512149088
 20
10.64643551533487
 10
31.86240674530282
 20
10.65239695706986
 10
31.84641407065995
 20
10.65834987809785
 10
31.83041710198223
 20
10.66429427196619
 10
31.81441584440514
 20
10.67023013197658
 10
31.79841030375786
 20
10.67615745119356
 10
31.78240048654134
 20
10.68207622245306
 10
31.76638639990658
 20
10.68798643837099
 10
31.75036805163267
 20
10.69388809135169
 10
31.73434545010497
 20
10.69978117359655
 10
31.71831860429327
 20
10.7056656771125
 10
31.70228752372994
 20
10.71154159372059
 10
31.68625221848805
 20
10.71740891506449
 10
31.67021269915955
 20
10.72326763261906
 10
31.65416897683338
 20
10.72911773769885
 10
31.6381210630737
 20
10.73495922146672
 10
31.62206896989794
 20
10.74079207494227
 10
31.60601270975499
 20
10.74661628901047
 10
31.58995229550336
 20
10.75243185443016
 10
31.57388774038932
 20
10.7582387618426
 10
31.55781905802504
 20
10.76403700177999
 10
31.54174626236674
 20
10.76982656467405
 10
31.52566936769285
 20
10.77560744086452
 10
31.50958838858216
 20
10.78137962060771
 10
31.49350333989194
 20
10.78714309408506
 10
31.4774142367361
 20
10.79289785141166
 10
31.46132109446339
 20
10.7986438826448
 10
31.44522392863546
 20
10.80438117779249
 10
31.42912275500507
 20
10.81010972682201
 10
31.41301758949423
 20
10.81582951966849
 10
31.39690844817231
 20
10.82154054624338
 10
31.38079534723424
 20
10.82724279644303
 10
31.36467830297865
 20
10.83293626015724
 10
31.34855733178597
 20
10.83862092727776
 10
31.33243245009663
 20
10.84429678770686
 10
31.3163036743892
 20
10.84996383136588
 10
31.30017102115852
 20
10.85562204820372
 10
31.28403450689385
 20
10.86127142820545
 10
31.26789414805704
 20
10.86691196140077
 10
31.25174996106065
 20
10.87254363787264
 10
31.23560196224613
 20
10.87816644776572
 10
31.21945016786195
 20
10.883780381295
 10
31.20329459404172
 20
10.8893854287543
 10
31.18713525678241
 20
10.89498158052478
 10
31.17097217192243
 20
10.90056882708353
 10
31.15480535511981
 20
10.9061471590121
 10
31.13863482183035
 20
10.91171656700501
 10
31.12246058728574
 20
10.91727704187833
 10
31.10628266647176
 20
10.92282857457817
 10
31.09010107410638
 20
10.92837115618929
 10
31.07391582461793
 20
10.93390477794357
 10
31.05772693212325
 20
10.93942943122858
 10
31.04153441040581
 20
10.94494510759614
 10
31.02533827289392
 20
10.9504517987708
 10
31.00913853263881
 20
10.95594949665846
 10
30.9929352022928
 20
10.96143819335485
 10
30.97672829408751
 20
10.96691788115408
 10
30.96051781981188
 20
10.97238855255719
 10
30.94430379079046
 20
10.9778502002807
 10
30.92808621786146
 20
10.98330281726514
 10
30.91186511135493
 20
10.98874639668355
 10
30.8956404810709
 20
10.9941809319501
 10
30.87941233625756
 20
10.99960641672857
 10
30.86318068558937
 20
11.0050228449409
 10
30.84694553714522
 20
11.01043021077573
 10
30.83070689838661
 20
11.01582850869697
 10
30.81446477613573
 20
11.02121773345231
 10
30.79821917655368
 20
11.02659788008173
 10
30.78197010511855
 20
11.03196894392612
 10
30.76571756660365
 20
11.03733092063576
 10
30.74946156506196
 20
11.04268380617519
 10
30.73320210475835
 20
11.04802759629804
 10
30.71693919158661
 20
11.05336228583555
 10
30.70067283186352
 20
11.05868786946213
 10
30.68440303212589
 20
11.06400434181349
 10
30.6681297991221
 20
11.06931169748915
 10
30.6518531398035
 20
11.0746099310549
 10
30.63557306131592
 20
11.07989903704525
 10
30.61928957099116
 20
11.08517900996591
 10
30.60300267633847
 20
11.09044984429622
 10
30.58671238503597
 20
11.09571153449168
 10
30.57041870492222
 20
11.10096407498634
 10
30.55412164398761
 20
11.10620746019532
 10
30.5378212103659
 20
11.11144168451725
 10
30.52151741232565
 20
11.11666674233672
 10
30.50521025826175
 20
11.12188262802678
 10
30.48889975668684
 20
11.12708933595139
 10
30.47258591622284
 20
11.13228686046785
 10
30.45626874559238
 20
11.13747519592936
 10
30.43994825361031
 20
11.14265433668734
 10
30.42362444917516
 20
11.14782427709403
 10
30.40729734126065
 20
11.15298501150486
 10
30.39096693890711
 20
11.15813653428098
 10
30.374633251213
 20
11.16327883979168
 10
30.35829628732639
 20
11.16841192241689
 10
30.34195605643642
 20
11.1735357765496
 10
30.32561256776477
 20
11.17865039659837
 10
30.30926583055714
 20
11.18375577698977
 10
30.29291585407479
 20
11.18885191217084
 10
30.2765626475859
 20
11.19393879661156
 10
30.26020622035713
 20
11.19901642480733
 10
30.24384658164513
 20
11.20408479128141
 10
30.22748374068787
 20
11.20914389058742
 10
30.21111770669631
 20
11.21419371731174
 10
30.19474848884574
 20
11.21923426607603
 10
30.17837609626727
 20
11.2242655315397
 10
30.16200053803939
 20
11.22928750840233
 10
30.14562182317936
 20
11.23430019140616
 10
30.12923996063472
 20
11.23930357533856
 10
30.11285495927479
 20
11.24429765503448
 10
30.0964668278821
 20
11.24928242537891
 10
30.08007557514393
 20
11.25425788130937
 10
30.0636812096437
 20
11.25922401781837
 10
30.04728373985254
 20
11.26418082995582
 10
30.03088317412072
 20
11.26912831283158
 10
30.01447952066909
 20
11.27406646161787
 10
29.99807278758067
 20
11.27899527155173
 10
29.98166298279201
 20
11.28391473793752
 10
29.96525011408472
 20
11.28882485614935
 10
29.94883418907695
 20
11.29372562163358
 10
29.93241521521487
 20
11.29861702991125
 10
29.91599319976411
 20
11.30349907658054
 10
29.8995681498013
 20
11.30837175731929
 10
29.88314007220548
 20
11.31323506788739
 10
29.86670897364963
 20
11.31808900412931
 10
29.85027486059212
 20
11.32293356197651
 10
29.8338377392682
 20
11.32776873744996
 10
29.81739761568146
 20
11.33259452666253
 10
29.80095449559532
 20
11.33741092582155
 10
29.78450838452453
 20
11.34221793123118
 10
29.76805928772659
 20
11.34701553929493
 10
29.7516072101933
 20
11.35180374651813
 10
29.73515215664216
 20
11.35658254951034
 10
29.7186941315079
 20
11.36135194498788
 10
29.70223313893397
 20
11.36611192977626
 10
29.68576918276396
 20
11.37086250081263
 10
29.66930226653311
 20
11.37560365514827
 10
29.6528323934598
 20
11.38033538995106
 10
29.63635956643701
 20
11.38505770250793
 10
29.6198837880238
 20
11.38977059022729
 10
29.60340506043678
 20
11.39447405064159
 10
29.58692338395405
 20
11.39916808183002
 10
29.57043874704639
 20
11.4038526850216
 10
29.5539511340483
 20
11.40852786253843
 10
29.53746053077998
 20
11.4131936163015
 10
29.52096692453025
 20
11.41784994783572
 10
29.50447030401154
 20
11.42249685828229
 10
29.48797065931502
 20
11.42713434841109
 10
29.47146798186564
 20
11.43176241863308
 10
29.45496226437724
 20
11.43638106901266
 10
29.4384535008075
 20
11.44099029928007
 10
29.42194168631321
 20
11.44559010884378
 10
29.40542681720515
 20
11.45018049680287
 10
29.38890889090323
 20
11.45476146195941
 10
29.37238790589159
 20
11.45933300283083
 10
29.35586386167364
 20
11.46389511766237
 10
29.33933675872711
 20
11.46844780443939
 10
29.32280659845913
 20
11.47299106089978
 10
29.30627338316135
 20
11.47752488454638
 10
29.2897371159649
 20
11.48204927265932
 10
29.27319780079558
 20
11.48656422230841
 10
29.25665544232883
 20
11.49106973036556
 10
29.24011004594488
 20
11.49556579351713
 10
29.22356161768375
 20
11.50005240827635
 10
29.20701016420036
 20
11.50452957099565
 10
29.19045569271957
 20
11.5089972778791
 10
29.17389821099129
 20
11.51345552499479
 10
29.15733772724552
 20
11.51790430828716
 10
29.1407742501474
 20
11.52234362358947
 10
29.12420778875232
 20
11.5267734666361
 10
29.10763835246098
 20
11.53119383307502
 10
29.09106595097443
 20
11.5356047184801
 10
29.07449059424916
 20
11.54000611836353
 10
29.05791229245217
 20
11.54439802818822
 10
29.04133105591604
 20
11.54878044338016
 10
29.02474689509399
 20
11.55315335934081
 10
29.00815982051495
 20
11.5575167714595
 10
28.99156984273863
 20
11.56187067512579
 10
28.9749769723106
 20
11.56621506574188
 10
28.95838121971734
 20
11.57054993873499
 10
28.94178259534132
 20
11.57487528956973
 10
28.92518110941606
 20
11.5791911137605
 10
28.90857677198121
 20
11.58349740688389
 10
28.89196959283762
 20
11.587794164591
 10
28.8753595815024
 20
11.59208138261994
 10
28.85874674716399
 20
11.59635905680808
 10
28.84213109863719
 20
11.60062718310456
 10
28.82551264431835
 20
11.60488575758259
 10
28.80889139214029
 20
11.60913477645187
 10
28.79226734952747
 20
11.61337423607097
 10
28.77564052335099
 20
11.61760413295971
 10
28.75901091988375
 20
11.62182446381157
 10
28.7423785447554
 20
11.62603522550603
 10
28.72574340290751
 20
11.630236415121
 10
28.70910549854858
 20
11.63442802994519
 10
28.69246483510915
 20
11.63861006749048
 10
28.67582141519682
 20
11.64278252550432
 10
28.65917524055137
 20
11.64694540198213
 10
28.64252631199978
 20
11.65109869517963
 10
28.62587462941134
 20
11.65524240362532
 10
28.60922019165269
 20
11.65937652613276
 10
28.59256299654293
 20
11.66350106181303
 10
28.57590304080862
 20
11.66761601008709
 10
28.5592403200389
 20
11.67172137069817
 10
28.54257482864056
 20
11.67581714372412
 10
28.52590655979309
 20
11.67990332958988
 10
28.50923550540374
 20
11.68397992907976
 10
28.49256165606263
 20
11.68804694334991
 10
28.47588500099775
 20
11.69210437394067
 10
28.45920552803011
 20
11.69615222278895
 10
28.44252322352875
 20
11.70019049224062
 10
28.42583807257787
 20
11.70421918500817
 10
28.40915007181405
 20
11.70823830085688
 10
28.39245923748912
 20
11.71224783452714
 10
28.37576558750392
 20
11.71624778037612
 10
28.35906913967277
 20
11.72023813282555
 10
28.34236991172209
 20
11.72421888636148
 10
28.32566792128897
 20
11.72819003553414
 10
28.3089631859198
 20
11.73215157495765
 10
28.29225572306879
 20
11.7361034993099
 10
28.27554555009668
 20
11.74004580333229
 10
28.2588326842692
 20
11.74397848182956
 10
28.24211714275581
 20
11.74790152966955
 10
28.22539894262816
 20
11.75181494178305
 10
28.20867810085877
 20
11.75571871316356
 10
28.19195463431962
 20
11.75961283886709
 10
28.17522855978068
 20
11.76349731401197
 10
28.1584998939086
 20
11.76737213377863
 10
28.14176865326523
 20
11.77123729340943
 10
28.12503485430623
 20
11.77509278820841
 10
28.10829851337971
 20
11.77893861354112
 10
28.09155964672477
 20
11.78277476483441
 10
28.07481827047011
 20
11.78660123757623
 10
28.05807440063265
 20
11.79041802731541
 10
28.04132805311609
 20
11.79422512966149
 10
28.02457924370955
 20
11.79802254028449
 10
28.00782798808608
 20
11.8018102549147
 10
27.99107430180139
 20
11.80558826934251
 10
27.9743182002923
 20
11.80935657941819
 10
27.95755969887543
 20
11.81311518105165
 10
27.94079881274579
 20
11.81686407021233
 10
27.92403555697529
 20
11.8206032429289
 10
27.90726994651144
 20
11.82433269528911
 10
27.89050199617593
 20
11.82805242343956
 10
27.87373172066312
 20
11.83176242358555
 10
27.85695913453879
 20
11.83546269199079
 10
27.84018425223862
 20
11.83915322497728
 10
27.82340708806682
 20
11.84283401892507
 10
27.80662765619473
 20
11.84650507027203
 10
27.78984597065943
 20
11.85016637551373
 10
27.77306204536231
 20
11.85381793120313
 10
27.75627589406765
 20
11.85745973395046
 10
27.73948753040127
 20
11.86109178042299
 10
27.72269696784908
 20
11.86471406734482
 10
27.7059042197557
 20
11.86832659149669
 10
27.68910929932301
 20
11.87192934971575
 10
27.67231221960881
 20
11.87552233889539
 10
27.65551299352538
 20
11.87910555598504
 10
27.63871163383807
 20
11.88267899798992
 10
27.6219081531639
 20
11.8862426619709
 10
27.60510256397017
 20
11.88979654504424
 10
27.58829487857305
 20
11.89334064438144
 10
27.57148510913614
 20
11.89687495720897
 10
27.55467326766912
 20
11.90039948080816
 10
27.53785936602632
 20
11.90391421251489
 10
27.52104341590529
 20
11.90741914971948
 10
27.50422542884545
 20
11.91091428986644
 10
27.48740541622662
 20
11.91439963045426
 10
27.47058338926769
 20
11.91787516903524
 10
27.45375935902514
 20
11.92134090321527
 10
27.4369333363917
 20
11.92479683065362
 10
27.42010533209486
 20
11.92824294906273
 10
27.40327535669559
 20
11.93167925620807
 10
27.38644342058683
 20
11.93510574990782
 10
27.3696095339921
 20
11.9385224280328
 10
27.35277370696416
 20
11.94192928850617
 10
27.33593594938353
 20
11.94532632930325
 10
27.31909627095711
 20
11.94871354845135
 10
27.30225468121681
 20
11.95209094402954
 10
27.28541118951809
 20
11.95545851416845
 10
27.26856580503859
 20
11.95881625705006
 10
27.25171853677671
 20
11.9621641709075
 10
27.23486939355021
 20
11.96550225402489
 10
27.21801838399482
 20
11.96883050473706
 10
27.20116551656281
 20
11.97214892142941
 10
27.18431079952158
 20
11.97545750253766
 10
27.1674542409523
 20
11.97875624654771
 10
27.15059584874847
 20
11.98204515199535
 10
27.1337356306145
 20
11.98532421746616
 10
27.11687359406435
 20
11.9885934415952
 10
27.10000974642008
 20
11.99185282306689
 10
27.08314409481048
 20
11.99510236061477
 10
27.06627664616966
 20
11.99834205302133
 10
27.04940740723563
 20
12.00157189911773
 10
27.03253638454886
 20
12.00479189778368
 10
27.01566358445099
 20
12.0080020479472
 10
26.9987890130833
 20
12.01120234858443
 10
26.98191267638538
 20
12.01439279871941
 10
26.96503458009368
 20
12.01757339742388
 10
26.94815472974016
 20
12.02074414381711
 10
26.93127313065081
 20
12.02390503706566
 10
26.91438978794433
 20
12.02705607638317
 10
26.89750470653065
 20
12.03019726103019
 10
26.88061789110957
 20
12.03332859031397
 10
26.86372934616934
 20
12.03645006358823
 10
26.84683907598527
 20
12.03956168025301
 10
26.82994708461829
 20
12.0426634397544
 10
26.81305337591358
 20
12.04575534158438
 10
26.79615795349914
 20
12.04883738528063
 10
26.77926082078444
 20
12.05190957042627
 10
26.76236198095891
 20
12.05497189664972
 10
26.74546143699065
 20
12.05802436362446
 10
26.72855919162494
 20
12.06106697106884
 10
26.71165524738289
 20
12.06409971874587
 10
26.69474960656
 20
12.06712260646302
 10
26.67784227122477
 20
12.07013563407202
 10
26.6609332432173
 20
12.07313880146867
 10
26.64402252414787
 20
12.07613210859259
 10
26.62711011539554
 20
12.07911555542708
 10
26.61019601810676
 20
12.08208914199888
 10
26.59328023319396
 20
12.08505286837797
 10
26.57636276133412
 20
12.08800673467736
 10
26.55944360296739
 20
12.09095074105292
 10
26.54252275829568
 20
12.09388488770313
 10
26.52560022728125
 20
12.09680917486894
 10
26.50867600964533
 20
12.09972360283349
 10
26.49175010486665
 20
12.10262817192197
 10
26.47482251218014
 20
12.10552288250139
 10
26.45789323057539
 20
12.10840773498038
 10
26.4409622587954
 20
12.11128272980898
 10
26.42402959533503
 20
12.11414786747845
 10
26.4070952384397
 20
12.11700314852108
 10
26.39015918610391
 20
12.11984857350995
 10
26.3732214360699
 20
12.12268414305874
 10
26.3562819858262
 20
12.12550985782155
 10
26.33934083260624
 20
12.12832571849269
 10
26.32239797338695
 20
12.13113172580644
 10
26.30545340488736
 20
12.1339278805369
 10
26.28850712356713
 20
12.13671418349774
 10
26.27155912562529
 20
12.13949063554204
 10
26.25460940699869
 20
12.14225723756207
 10
26.23765796336062
 20
12.14501399048905
 10
26.22070479011952
 20
12.14776089529302
 10
26.20374988241741
 20
12.15049795298258
 10
26.18679323512863
 20
12.1532251646047
 10
26.16983484285831
 20
12.15594253124454
 10
26.15287469994107
 20
12.15865005402521
 10
26.13591280043956
 20
12.1613477341076
 10
26.11894913814305
 20
12.16403557269016
 10
26.10198370656607
 20
12.1667135710087
 10
26.08501649894694
 20
12.16938173033619
 10
26.06804750824643
 20
12.17204005198256
 10
26.05107672714631
 20
12.17468853729447
 10
26.03410414804798
 20
12.17732718765516
 10
26.01712976307102
 20
12.17995600448419
 10
26.00015356405183
 20
12.1825749892373
 10
25.98317554254221
 20
12.18518414340612
 10
25.96619568980793
 20
12.18778346851806
 10
25.94921399682736
 20
12.19037296613606
 10
25.93223045429007
 20
12.19295263785836
 10
25.91524505259537
 20
12.19552248531836
 10
25.89825564036936
 20
12.19808282469264
 10
25.88122786627582
 20
12.20063870291044
 10
25.86419725787794
 20
12.20318490648313
 10
25.84729282349363
 20
12.2057024740352
 10
25.83060793585847
 20
12.20817762901176
 10
25.81399646557336
 20
12.21063173900097
 10
25.79709589097556
 20
12.21311798593712
 10
25.77986604040633
 20
12.21564208479962
 10
25.76246629364236
 20
12.21818035120646
 10
25.74499981385102
 20
12.22071732352331
 10
25.72734161658221
 20
12.2232708778165
 10
25.70941661463818
 20
12.22585171096223
 10
25.69128060421284
 20
12.22845159307121
 10
25.67302601116647
 20
12.23105704402529
 10
25.65470669780738
 20
12.23366024660782
 10
25.63635096685541
 20
12.23625714241244
 10
25.61797593297976
 20
12.23884530118626
 10
25.59958703687269
 20
12.24142396165573
 10
25.58117854090928
 20
12.24399392882638
 10
25.56273920740406
 20
12.24655671622732
 10
25.54427339701597
 20
12.24911171648738
 10
25.52584391150876
 20
12.25165050233675
 10
25.50761888073564
 20
12.25415056324935
 10
25.48983735372899
 20
12.25657977947864
 10
25.47251811218387
 20
12.25893558035332
 10
25.45544622450552
 20
12.26124695975408
 10
25.43835756472725
 20
12.2635495744223
 10
25.42107614272802
 20
12.26586724690799
 10
25.40347402672236
 20
12.26821744574307
 10
25.38559170925641
 20
12.27059475187714
 10
25.36758926273388
 20
12.27297746941894
 10
25.34963487710247
 20
12.27534278739642
 10
25.33180606244036
 20
12.27768032737579
 10
25.31413443000625
 20
12.27998609680798
 10
25.2966439338218
 20
12.2822571773698
 10
25.27933887187868
 20
12.28449328343843
 10
25.26218333127419
 20
12.28669938679449
 10
25.24511366837952
 20
12.28888404969589
 10
25.22808297141213
 20
12.29105364352395
 10
25.21104489092423
 20
12.29321417460771
 10
25.19393082157208
 20
12.29537398519245
 10
25.17666463698719
 20
12.29754227455526
 10
25.15922195061105
 20
12.29972203316403
 10
25.14162918008198
 20
12.30191005750903
 10
25.12394558502995
 20
12.30409911102017
 10
25.10624656154645
 20
12.30627994247175
 10
25.08861206535956
 20
12.30844269783601
 10
25.07111322616891
 20
12.31057857941366
 10
25.05379657803764
 20
12.31268181892436
 10
25.03666354550711
 20
12.31475224769291
 10
25.01965595019742
 20
12.31679714259615
 10
25.00270829843481
 20
12.31882471463609
 10
24.98577521871272
 20
12.32084066707497
 10
24.96884608038948
 20
12.32284635291401
 10
24.95192892176441
 20
12.32484078077102
 10
24.93502373846133
 20
12.32682396232917
 10
24.91812975897709
 20
12.32879600183356
 10
24.90124604549597
 20
12.33075702097877
 10
24.88437151276911
 20
12.33270715670198
 10
24.86750494699391
 20
12.33464655897621
 10
24.85064502469347
 20
12.33657538860341
 10
24.83379033159597
 20
12.33849381500772
 10
24.81693938151408
 20
12.34040201402856
 10
24.80009063522443
 20
12.34230016571388
 10
24.78324251934692
 20
12.34418845211327
 10
24.76639344522423
 20
12.34606705507116
 10
24.7495418278012
 20
12.34793615402001
 10
24.73268610450419
 20
12.34979592377344
 10
24.71582475412057
 20
12.35164653231945
 10
24.69895631567808
 20
12.35348813861355
 10
24.68207940732428
 20
12.35532089037196
 10
24.6651928649641
 20
12.35714490945391
 10
24.64829460522572
 20
12.35896040578001
 10
24.63138299076164
 20
12.3607675401696
 10
24.61446742297523
 20
12.36256535190088
 10
24.59757940459101
 20
12.36435063788028
 10
24.58075454078795
 20
12.36611977083577
 10
24.56400039280998
 20
12.36787196270057
 10
24.54730338130818
 20
12.36960857951501
 10
24.5306358058584
 20
12.37133243910549
 10
24.51413500569698
 20
12.37302989606044
 10
24.49820398234226
 20
12.37466082238988
 10
24.48295488110597
 20
12.37621427823384
 10
24.46822024005771
 20
12.37770733062053
 10
24.45366242778279
 20
12.37917404663702
 10
24.43888308114012
 20
12.38065448659997
 10
24.42353254302021
 20
12.38218369722638
 10
24.40741930010297
 20
12.38378070480424
 10
24.39061942061566
 20
12.38543750836333
 10
24.37354389452802
 20
12.38711233271739
 10
24.35645632348255
 20
12.38877845664029
 10
24.33936323728413
 20
12.39043521210615
 10
24.32226540185685
 20
12.39208251555003
 10
24.30516365075015
 20
12.39372027747373
 10
24.28805881847966
 20
12.39534840927755
 10
24.2709516738682
 20
12.39696683009208
 10
24.25384285338664
 20
12.39857547360996
 10
24.23673279449481
 20
12.40017429491764
 10
24.21962167562636
 20
12.40176327651949
 10
24.20250948655954
 20
12.4033424202386
 10
24.1853961958011
 20
12.40491172996726
 10
24.16828177706688
 20
12.40647120911965
 10
24.15116620903879
 20
12.40802086065661
 10
24.13404947511079
 20
12.40956068711109
 10
24.11693156313496
 20
12.41109069061374
 10
24.09981246516745
 20
12.41261087291835
 10
24.08269217721449
 20
12.41412123542744
 10
24.06557069897842
 20
12.41562177921773
 10
24.04844803360369
 20
12.41711250506565
 10
24.03132418742286
 20
12.41859341347288
 10
24.01419916970261
 20
12.42006450469188
 10
23.99707299238974
 20
12.42152577875133
 10
23.97994566985719
 20
12.42297723548174
 10
23.96281721865002
 20
12.4244188745409
 10
23.94568765723145
 20
12.42585069543943
 10
23.92855700572884
 20
12.42727269756625
 10
23.91142528567973
 20
12.42868488021417
 10
23.89429251977778
 20
12.43008724260534
 10
23.87715873161885
 20
12.43147978391678
 10
23.860023945447
 20
12.43286250330591
 10
23.84288818590039
 20
12.43423539993606
 10
23.82575147775745
 20
12.43559847300198
 10
23.80861384568277
 20
12.43695172175536
 10
23.79147531397312
 20
12.43829514553034
 10
23.77433590630352
 20
12.43962874376902
 10
23.75719564547318
 20
12.440952516047
 10
23.74005455315153
 20
12.44226646209887
 10
23.72291264962424
 20
12.44357058184374
 10
23.70576995353918
 20
12.44486487541074
 10
23.68862648165248
 20
12.44614934316454
 10
23.67148224857453
 20
12.44742398573088
 10
23.65433726651593
 20
12.44868880402208
 10
23.63719154503359
 20
12.44994379926253
 10
23.62004509158397
 20
12.4511889729212
 10
23.60289791843538
 20
12.45242432592775
 10
23.58575004160011
 20
12.45364985883703
 10
23.56860147776145
 20
12.45486557219038
 10
23.55145224413985
 20
12.4560714665262
 10
23.53430235838666
 20
12.45726754238743
 10
23.51715183847812
 20
12.45845380032892
 10
23.50000070260914
 20
12.45963024092485
 10
23.48284896908722
 20
12.46079686477614
 10
23.46569665622634
 20
12.46195367251782
 10
23.44854378224072
 20
12.4631006648265
 10
23.43139036513883
 20
12.46423784242771
 10
23.41423642261713
 20
12.46536520610337
 10
23.39708197195403
 20
12.46648275669913
 10
23.3799270299037
 20
12.46759049513183
 10
23.36277161258998
 20
12.46868842239689
 10
23.34561573540021
 20
12.4697765395757
 10
23.32845941287912
 20
12.47085484784307
 10
23.31130265862269
 20
12.47192334847456
 10
23.29414548517203
 20
12.47298204285397
 10
23.27698790390723
 20
12.47403093248069
 10
23.25982992494123
 20
12.47507001897715
 10
23.24267155701372
 20
12.47609930409617
  0
LWPOLYLINE
  5
2A778
330
1F
100
AcDbEntity
  8
NOCUT
100
AcDbPolyline
 90
       12
 70
     1
 43
0.0
 10
33.71500142194086
 20
9.124734128974044
 42
-0.3347789446684453
 10
34.14999999999999
 20
8.547867999999994
 10
34.14999999999999
 20
0.0
 10
0.0
 20
0.0
 10
0.0
 20
10.5
 10
3.0
 20
10.5
 10
14.0
 20
10.5
 10
15.072316
 20
10.5
 10
18.14999999999998
 20
11.5
 10
20.79361599999999
 20
11.5
 42
-0.0699268119435102
 10
29.88964901759828
 20
10.22163592722622
 10
29.88964899999997
 20
10.22163599999999
  0
MTEXT
  5
2A7D0
330
1F
100
AcDbEntity
  8
SK6
100
AcDbMText
 10
-19.78893802908789
 20
-23.90389476523063
 30
0.0
 40
3.5
 41
49.98568165846803
 71
     1
 72
     1
  1
12M8G025035X7R00
  7
MM_STANDARD
 73
     1
 44
1.0
1001
ACAD
1000
MTEXTBEGIN
1070
    73
1070
     1
1070
    44
1040
1.0
1070
    74
1070
     0
1000
MTEXTEND
  0
ENDSEC
  0
SECTION
  2
OBJECTS
  0
DICTIONARY
  5
C
330
0
100
AcDbDictionary
281
     1
  3
ACAD_2007HEADERVARS_RT
350
2A7D5
  3
ACAD_CIP_PREVIOUS_PRODUCT_INFO
350
741
  3
ACAD_COLOR
350
6C
  3
ACAD_DETAILVIEWSTYLE
350
8E4
  3
ACAD_GROUP
350
D
  3
ACAD_IMAGE_VARS
350
959
  3
ACAD_LAYOUT
350
1A
  3
ACAD_MATERIAL
350
6B
  3
ACAD_MLEADERSTYLE
350
43C
  3
ACAD_MLINESTYLE
350
17
  3
ACAD_PLOTSETTINGS
350
19
  3
ACAD_PLOTSTYLENAME
350
E
  3
ACAD_SCALELIST
350
99
  3
ACAD_SECTIONVIEWSTYLE
350
8E2
  3
ACAD_TABLESTYLE
350
92
  3
ACAD_VISUALSTYLE
350
3F2
  3
ACDB_RECOMPOSE_DATA
350
2A7D3
  3
ACDBHEADERROUNDTRIPXREC
350
2A721
  3
AcDbVariableDictionary
350
59
  3
ACMDICTIONARY
350
76D
  3
AEC_PROPERTY_SET_DEFS
350
5CF
  3
AMG
350
743
  3
AMGSNAPSETTINGS
350
7F6
  3
APPDATA
350
958
  3
ASE_INDEX_DICTIONARY
350
8C6
  3
DWGPROPS
350
2A7D4
  0
DICTIONARY
  5
2A6EA
330
2
100
AcDbDictionary
280
     1
281
     1
  3
ACAD_LAYERFILTERS
360
6C6
  3
ACAD_LAYERSTATES
360
17C7
  3
ACLYDICTIONARY
360
6C5
  0
DICTIONARY
  5
2A6E1
330
10
100
AcDbDictionary
280
     1
281
     1
  3
ADSK_XREC_LAYER_RECONCILED
360
904
  0
DICTIONARY
  5
2A6E2
330
23
100
AcDbDictionary
280
     1
281
     1
  3
ADSK_XREC_LAYER_RECONCILED
360
905
  0
DICTIONARY
  5
2A6E3
330
25
100
AcDbDictionary
280
     1
281
     1
  3
ADSK_XREC_LAYER_RECONCILED
360
907
  0
DICTIONARY
  5
2A6E4
330
173A
100
AcDbDictionary
280
     1
281
     1
  3
ADSK_XREC_LAYER_RECONCILED
360
908
  0
DICTIONARY
  5
2A6E5
330
2A
100
AcDbDictionary
280
     1
281
     1
  3
ADSK_XREC_LAYER_RECONCILED
360
90B
  0
DICTIONARY
  5
2A6E6
330
2E
100
AcDbDictionary
280
     1
281
     1
  3
ADSK_XREC_LAYER_RECONCILED
360
90E
  0
DICTIONARY
  5
2A6E7
330
375
100
AcDbDictionary
280
     1
281
     1
  3
ADSK_XREC_LAYER_RECONCILED
360
90F
  0
DICTIONARY
  5
2A6E8
330
376
100
AcDbDictionary
280
     1
281
     1
  3
ADSK_XREC_LAYER_RECONCILED
360
910
  0
DICTIONARY
  5
2A6E9
330
49B
100
AcDbDictionary
280
     1
281
     1
  3
ADSK_XREC_LAYER_RECONCILED
360
918
  0
DICTIONARY
  5
2A71E
330
1F
100
AcDbDictionary
280
     1
281
     1
  3
ACAD_SORTENTS
360
2A71F
  0
DICTIONARY
  5
2A7D5
102
{ACAD_REACTORS
330
C
102
}
330
C
100
AcDbDictionary
281
     1
  3
DIMARCSYM
350
2A7D6
  3
DIMLTEX1
350
2A7D8
  3
DIMLTEX2
350
2A7D9
  3
DIMLTYPE
350
2A7D7
  0
XRECORD
  5
741
102
{ACAD_REACTORS
330
C
102
}
330
C
100
AcDbXrecord
280
     1
300
ACDLT
300
2015
300
ACDLT_F_S
  0
DICTIONARY
  5
6C
102
{ACAD_REACTORS
330
C
102
}
330
C
100
AcDbDictionary
281
     1
  0
DICTIONARY
  5
8E4
102
{ACAD_REACTORS
330
C
102
}
330
C
100
AcDbDictionary
281
     1
  3
Metric50
350
2A75D
  0
DICTIONARY
  5
D
102
{ACAD_REACTORS
330
C
102
}
330
C
100
AcDbDictionary
281
     1
  0
RASTERVARIABLES
  5
959
102
{ACAD_REACTORS
330
C
102
}
330
C
100
AcDbRasterVariables
 90
        0
 70
     1
 71
     1
 72
     1
  0
DICTIONARY
  5
1A
102
{ACAD_REACTORS
330
C
102
}
330
C
100
AcDbDictionary
281
     1
  3
Layout1
350
74
  3
Model
350
22
  0
DICTIONARY
  5
6B
102
{ACAD_REACTORS
330
C
102
}
330
C
100
AcDbDictionary
281
     1
  3
ByBlock
350
2A732
  3
ByLayer
350
2A72A
  3
Global
350
2A73A
  0
DICTIONARY
  5
43C
102
{ACAD_REACTORS
330
C
102
}
330
C
100
AcDbDictionary
281
     1
  3
Standard
350
2A75B
  0
DICTIONARY
  5
17
102
{ACAD_REACTORS
330
C
102
}
330
C
100
AcDbDictionary
281
     1
  3
Standard
350
18
  0
DICTIONARY
  5
19
102
{ACAD_REACTORS
330
C
102
}
330
C
100
AcDbDictionary
281
     1
  0
ACDBDICTIONARYWDFLT
  5
E
102
{ACAD_REACTORS
330
C
102
}
330
C
100
AcDbDictionary
281
     1
  3
Normal
350
F
100
AcDbDictionaryWithDefault
340
F
  0
DICTIONARY
  5
99
102
{ACAD_REACTORS
330
C
102
}
330
C
100
AcDbDictionary
281
     1
  3
A0
350
9A
  3
A1
350
9B
  3
A2
350
9C
  3
A3
350
9D
  3
A4
350
9E
  3
A5
350
9F
  3
A6
350
A0
  3
A7
350
A1
  3
A8
350
A2
  3
A9
350
A3
  3
B0
350
A4
  3
B1
350
A5
  3
B2
350
A6
  3
B3
350
A7
  3
B4
350
A8
  3
B5
350
A9
  3
B6
350
AA
  3
B7
350
AB
  3
B8
350
AC
  3
B9
350
AD
  3
C0
350
AE
  3
C1
350
AF
  3
C2
350
B0
  3
C3
350
B1
  3
C4
350
B2
  3
C5
350
B3
  3
C6
350
B4
  3
C7
350
B5
  3
C8
350
B6
  3
C9
350
B7
  3
D0
350
B8
  3
D1
350
B9
  3
D2
350
BA
  0
DICTIONARY
  5
8E2
102
{ACAD_REACTORS
330
C
102
}
330
C
100
AcDbDictionary
281
     1
  3
Metric50
350
2A75C
  0
DICTIONARY
  5
92
102
{ACAD_REACTORS
330
C
102
}
330
C
100
AcDbDictionary
281
     1
  3
Standard
350
2A75A
  0
DICTIONARY
  5
3F2
102
{ACAD_REACTORS
330
C
102
}
330
C
100
AcDbDictionary
281
     1
  3
2dWireframe
350
2A747
  3
Basic
350
2A746
  3
Brighten
350
2A74D
  3
ColorChange
350
2A751
  3
Conceptual
350
2A74A
  3
Dim
350
2A74C
  3
EdgeColorOff
350
2A759
  3
Facepattern
350
2A750
  3
Flat
350
2A742
  3
FlatWithEdges
350
2A743
  3
Gouraud
350
2A744
  3
GouraudWithEdges
350
2A745
  3
Hidden
350
2A749
  3
JitterOff
350
2A757
  3
Linepattern
350
2A74F
  3
OverhangOff
350
2A758
  3
Realistic
350
2A74B
  3
Shaded
350
2A756
  3
Shaded with edges
350
2A755
  3
Shades of Gray
350
2A752
  3
Sketchy
350
2A753
  3
Thicken
350
2A74E
  3
Wireframe
350
2A748
  3
X-Ray
350
2A754
  0
XRECORD
  5
2A7D3
102
{ACAD_REACTORS
330
C
102
}
330
C
100
AcDbXrecord
280
     1
 90
        1
330
2A75A
  0
DICTIONARY
  5
2A721
102
{ACAD_REACTORS
330
C
102
}
330
C
100
AcDbDictionary
281
     1
  3
COLORDICT
350
2A722
  3
MATERIALDICT
350
2A723
  0
DICTIONARY
  5
59
102
{ACAD_REACTORS
330
C
102
}
330
C
100
AcDbDictionary
281
     1
  3
CANNOSCALE
350
2A720
  3
CMLEADERSTYLE
350
2A784
  3
CTABLESTYLE
350
98
  3
CVIEWDETAILSTYLE
350
8FB
  3
CVIEWSECTIONSTYLE
350
8FC
  3
DIMASSOC
350
359
  3
HALOGAP
350
AF7
  3
HIDETEXT
350
358
  3
INDEXCTL
350
9BE
  3
LAYEREVAL
350
7AE
  3
LAYERNOTIFY
350
7AF
  3
LIGHTINGUNITS
350
44A
  3
MSLTSCALE
350
448
  3
SORTENTS
350
9BD
  3
XCLIPFRAME
350
2A7D1
  0
DICTIONARY
  5
76D
102
{ACAD_REACTORS
330
C
102
}
330
C
100
AcDbDictionary
281
     1
  3
ACMSTDDICTIONARY
350
76F
  0
DICTIONARY
  5
5CF
102
{ACAD_REACTORS
330
C
102
}
330
C
100
AcDbDictionary
281
     1
  0
DICTIONARY
  5
743
102
{ACAD_REACTORS
330
C
102
}
330
C
100
AcDbDictionary
281
     1
  3
ACMGSETTINGS
350
744
  0
DICTIONARY
  5
7F6
102
{ACAD_REACTORS
330
C
102
}
330
C
100
AcDbDictionary
281
     1
  0
DICTIONARY
  5
958
102
{ACAD_REACTORS
330
C
102
}
330
C
100
AcDbDictionary
281
     1
  0
DICTIONARY
  5
8C6
102
{ACAD_REACTORS
330
C
102
}
330
C
100
AcDbDictionary
281
     1
  3
ASEBLOCKHIERARCHYINDEXRECORD
350
8C7
  0
XRECORD
  5
2A7D4
102
{ACAD_REACTORS
330
C
102
}
330
C
100
AcDbXrecord
280
     1
  1
DWGPROPS COOKIE
  2

  3

  4

  6

  7

  8
ruebsamenm
  9

300
=
301
=
302
=
303
=
304
=
305
=
306
=
307
=
308
=
309
=
 40
8192.735520567131
 41
2453353.800459155
 42
2460185.646228403
  1

 90
        0
  0
DICTIONARY
  5
6C6
102
{ACAD_REACTORS
330
2A6EA
102
}
330
2A6EA
100
AcDbDictionary
281
     1
  0
DICTIONARY
  5
17C7
102
{ACAD_REACTORS
330
2A6EA
102
}
330
2A6EA
100
AcDbDictionary
281
     1
  0
DICTIONARY
  5
6C5
102
{ACAD_REACTORS
330
2A6EA
102
}
330
2A6EA
100
AcDbDictionary
281
     1
  0
XRECORD
  5
904
102
{ACAD_REACTORS
330
2A6E1
102
}
330
2A6E1
100
AcDbXrecord
280
     1
290
     1
  0
XRECORD
  5
905
102
{ACAD_REACTORS
330
2A6E2
102
}
330
2A6E2
100
AcDbXrecord
280
     1
290
     1
  0
XRECORD
  5
907
102
{ACAD_REACTORS
330
2A6E3
102
}
330
2A6E3
100
AcDbXrecord
280
     1
290
     1
  0
XRECORD
  5
908
102
{ACAD_REACTORS
330
2A6E4
102
}
330
2A6E4
100
AcDbXrecord
280
     1
290
     1
  0
XRECORD
  5
90B
102
{ACAD_REACTORS
330
2A6E5
102
}
330
2A6E5
100
AcDbXrecord
280
     1
290
     1
  0
XRECORD
  5
90E
102
{ACAD_REACTORS
330
2A6E6
102
}
330
2A6E6
100
AcDbXrecord
280
     1
290
     1
  0
XRECORD
  5
90F
102
{ACAD_REACTORS
330
2A6E7
102
}
330
2A6E7
100
AcDbXrecord
280
     1
290
     1
  0
XRECORD
  5
910
102
{ACAD_REACTORS
330
2A6E8
102
}
330
2A6E8
100
AcDbXrecord
280
     1
290
     1
  0
XRECORD
  5
918
102
{ACAD_REACTORS
330
2A6E9
102
}
330
2A6E9
100
AcDbXrecord
280
     1
290
     1
  0
SORTENTSTABLE
  5
2A71F
102
{ACAD_REACTORS
330
2A71E
102
}
330
2A71E
100
AcDbSortentsTable
330
1F
331
C85B
  5
CC50
331
D89C
  5
E328
331
E6D6
  5
CB29
331
12AAA
  5
12A1D
331
D8A3
  5
E32B
331
12895
  5
12C8B
331
E438
  5
C652
331
CA16
  5
DAF5
331
12A19
  5
1289D
331
12C8B
  5
12C16
331
DCBF
  5
E537
331
DECF
  5
E6D2
331
12C92
  5
12C17
331
1C54F
  5
1C6B9
331
1C3A1
  5
1C851
331
1C476
  5
1C6C7
331
1C1E8
  5
1C7C7
331
E537
  5
C182
331
12BA1
  5
12B2B
331
C2E1
  5
C36E
331
C930
  5
D590
331
C36E
  5
C85B
331
E20E
  5
C42D
331
1299A
  5
12895
331
E6D2
  5
CB25
331
1D913
  5
1D920
331
12AA6
  5
12A19
331
C2E4
  5
C377
331
E441
  5
C65C
331
12B2B
  5
12AA6
331
2A76F
  5
2A487
331
CA12
  5
DAF2
331
DCBB
  5
E533
331
1299D
  5
1289C
331
E328
  5
C533
331
1C632
  5
1C1E5
331
12BB6
  5
12B41
331
1D6D5
  5
1D6E2
331
E533
  5
C178
331
C79F
  5
CC4B
331
1C54E
  5
1C640
331
E32B
  5
C536
331
CC50
  5
E105
331
1DA40
  5
1D6D5
331
C7A3
  5
CC4F
331
1C484
  5
1C740
331
1C851
  5
1C632
331
1C740
  5
1C476
331
1C640
  5
1C1E8
331
12C2B
  5
12BB6
331
CC4F
  5
E102
331
12C17
  5
12BB5
331
1289D
  5
12C93
331
12B41
  5
12AAA
331
C65C
  5
CA17
331
C377
  5
C863
331
E217
  5
C437
331
1C6C7
  5
1C3A1
331
C935
  5
D8A3
331
DED7
  5
E6D6
331
C533
  5
C935
331
12BB5
  5
12B40
331
C652
  5
CA16
331
1C74E
  5
1C484
331
D590
  5
E217
331
C255
  5
C2E1
331
C863
  5
D588
331
C536
  5
CA12
331
1D920
  5
1DA40
331
CA17
  5
DCBB
331
12A1A
  5
1299A
331
C42D
  5
C930
331
C258
  5
C2E4
331
1C850
  5
1C54F
331
12C93
  5
12C2B
331
CC4B
  5
DED7
331
1C393
  5
1C850
331
CB29
  5
DECF
331
12A1D
  5
1299D
331
1D6E2
  5
1D913
331
C437
  5
C934
331
E102
  5
C79F
331
C182
  5
C258
331
1289C
  5
12C92
331
12C16
  5
12BA1
331
DAF2
  5
E438
331
12B40
  5
12AA7
331
CB25
  5
DCBF
331
1C1E5
  5
1C74E
331
1C6B9
  5
1C393
331
1C7C7
  5
1C54E
331
C178
  5
C255
331
12AA7
  5
12A1A
331
C934
  5
D89C
331
2A778
  5
299B1
331
E105
  5
C7A3
331
DAF5
  5
E441
331
D588
  5
E20E
  0
XRECORD
  5
2A7D6
102
{ACAD_REACTORS
330
2A7D5
102
}
330
2A7D5
100
AcDbXrecord
280
     1
 70
     1
  0
XRECORD
  5
2A7D8
102
{ACAD_REACTORS
330
2A7D5
102
}
330
2A7D5
100
AcDbXrecord
280
     1
340
14
  0
XRECORD
  5
2A7D9
102
{ACAD_REACTORS
330
2A7D5
102
}
330
2A7D5
100
AcDbXrecord
280
     1
340
14
  0
XRECORD
  5
2A7D7
102
{ACAD_REACTORS
330
2A7D5
102
}
330
2A7D5
100
AcDbXrecord
280
     1
340
14
  0
ACDBDETAILVIEWSTYLE
  5
2A75D
102
{ACAD_XDICTIONARY
360
2A811
102
}
102
{ACAD_REACTORS
330
8E4
102
}
330
8E4
100
AcDbModelDocViewStyle
 70
     0
  3
Metric50
290
     0
100
AcDbDetailViewStyle
 70
     0
 71
     0
 90
        3
 71
     1
340
11
 40
5.0
340
0
 40
5.0
300

 40
0.0
280
     1
 71
     2
340
16
 90
       25
 71
     3
340
11
 40
5.0
 90
        0
 40
15.0
 90
        1
300
%<\AcVar ViewDetailId>% (%<\AcVar ViewScale \f "%sn">%)
 71
     4
340
16
 90
       25
340
16
 90
       25
280
     0
  0
LAYOUT
  5
74
102
{ACAD_XDICTIONARY
360
2A7DC
102
}
102
{ACAD_REACTORS
330
1A
102
}
330
1A
100
AcDbPlotSettings
  1

  2
\\ADSCCNDC1\hq601xrx1
  4

  6

 40
0.0
 41
0.0
 42
0.0
 43
0.0
 44
0.0
 45
0.0
 46
0.0
 47
0.0
 48
0.0
 49
0.0
140
0.0
141
0.0
142
1.0
143
1.0
 70
   688
 72
     0
 73
     0
 74
     5
  7
monochrome.ctb
 75
    16
147
1.0
148
0.0
149
0.0
100
AcDbLayout
  1
Layout1
 70
     1
 71
     1
 10
0.0
 20
0.0
 11
12.0
 21
9.0
 12
0.0
 22
0.0
 32
0.0
 14
0.0
 24
0.0
 34
0.0
 15
0.0
 25
0.0
 35
0.0
146
0.0
 13
0.0
 23
0.0
 33
0.0
 16
1.0
 26
0.0
 36
0.0
 17
0.0
 27
1.0
 37
0.0
 76
     0
330
73
  0
LAYOUT
  5
22
102
{ACAD_XDICTIONARY
360
2A7DA
102
}
102
{ACAD_REACTORS
330
1A
102
}
330
1A
100
AcDbPlotSettings
  1

  2
DWG To PDF.pc3
  4
ISO_expand_A0_(841.00_x_1189.00_MM)
  6

 40
5.793749809265137
 41
5.79376220703125
 42
10.79374980926514
 43
10.793701171875
 44
841.0
 45
1189.0
 46
-0.0000000000000568
 47
277.0515806674957
 48
0.0
 49
0.0
140
0.0
141
0.0
142
1.0
143
0.0145558200469394
 70
 11956
 72
     1
 73
     0
 74
     1
  7
monochrome.ctb
 75
     0
147
68.70104169845581
148
70.55856307424345
149
1453.505808791571
100
AcDbLayout
  1
Model
 70
     1
 71
     0
 10
-170.0
 20
-170.0
 11
519.0
 21
260.0
 12
0.0
 22
0.0
 32
0.0
 14
-64.90092962931091
 24
-39.87094687582439
 34
0.0
 15
74.98761797786561
 25
56.77867123971357
 35
0.0
146
0.0
 13
0.0
 23
0.0
 33
0.0
 16
1.0
 26
0.0
 36
0.0
 17
0.0
 27
1.0
 37
0.0
 76
     0
330
1F
331
97
  0
MATERIAL
  5
2A732
102
{ACAD_XDICTIONARY
360
2A733
102
}
102
{ACAD_REACTORS
330
6B
102
}
330
6B
100
AcDbMaterial
  1
ByBlock
 72
     0
 43
0.0008202099737533
 43
0.0
 43
0.0
 43
0.0
 43
0.0
 43
0.0008202099737533
 43
0.0
 43
0.0
 43
0.0
 43
0.0
 43
1.0
 43
0.0
 43
0.0
 43
0.0
 43
0.0
 43
1.0
 77
     0
 47
0.0008202099737533
 47
0.0
 47
0.0
 47
0.0
 47
0.0
 47
0.0008202099737533
 47
0.0
 47
0.0
 47
0.0
 47
0.0
 47
1.0
 47
0.0
 47
0.0
 47
0.0
 47
0.0
 47
1.0
171
     0
 49
0.0008202099737533
 49
0.0
 49
0.0
 49
0.0
 49
0.0
 49
0.0008202099737533
 49
0.0
 49
0.0
 49
0.0
 49
0.0
 49
1.0
 49
0.0
 49
0.0
 49
0.0
 49
0.0
 49
1.0
175
     0
142
0.0008202099737533
142
0.0
142
0.0
142
0.0
142
0.0
142
0.0008202099737533
142
0.0
142
0.0
142
0.0
142
0.0
142
1.0
142
0.0
142
0.0
142
0.0
142
0.0
142
1.0
179
     0
144
0.0008202099737533
144
0.0
144
0.0
144
0.0
144
0.0
144
0.0008202099737533
144
0.0
144
0.0
144
0.0
144
0.0
144
1.0
144
0.0
144
0.0
144
0.0
144
0.0
144
1.0
147
0.0008202099737533
147
0.0
147
0.0
147
0.0
147
0.0
147
0.0008202099737533
147
0.0
147
0.0
147
0.0
147
0.0
147
1.0
147
0.0
147
0.0
147
0.0
147
0.0
147
1.0
  0
MATERIAL
  5
2A72A
102
{ACAD_XDICTIONARY
360
2A72B
102
}
102
{ACAD_REACTORS
330
6B
102
}
330
6B
100
AcDbMaterial
  1
ByLayer
 72
     0
 43
0.0008202099737533
 43
0.0
 43
0.0
 43
0.0
 43
0.0
 43
0.0008202099737533
 43
0.0
 43
0.0
 43
0.0
 43
0.0
 43
1.0
 43
0.0
 43
0.0
 43
0.0
 43
0.0
 43
1.0
 77
     0
 47
0.0008202099737533
 47
0.0
 47
0.0
 47
0.0
 47
0.0
 47
0.0008202099737533
 47
0.0
 47
0.0
 47
0.0
 47
0.0
 47
1.0
 47
0.0
 47
0.0
 47
0.0
 47
0.0
 47
1.0
171
     0
 49
0.0008202099737533
 49
0.0
 49
0.0
 49
0.0
 49
0.0
 49
0.0008202099737533
 49
0.0
 49
0.0
 49
0.0
 49
0.0
 49
1.0
 49
0.0
 49
0.0
 49
0.0
 49
0.0
 49
1.0
175
     0
142
0.0008202099737533
142
0.0
142
0.0
142
0.0
142
0.0
142
0.0008202099737533
142
0.0
142
0.0
142
0.0
142
0.0
142
1.0
142
0.0
142
0.0
142
0.0
142
0.0
142
1.0
179
     0
144
0.0008202099737533
144
0.0
144
0.0
144
0.0
144
0.0
144
0.0008202099737533
144
0.0
144
0.0
144
0.0
144
0.0
144
1.0
144
0.0
144
0.0
144
0.0
144
0.0
144
1.0
147
0.0008202099737533
147
0.0
147
0.0
147
0.0
147
0.0
147
0.0008202099737533
147
0.0
147
0.0
147
0.0
147
0.0
147
1.0
147
0.0
147
0.0
147
0.0
147
0.0
147
1.0
  0
MATERIAL
  5
2A73A
102
{ACAD_XDICTIONARY
360
2A73B
102
}
102
{ACAD_REACTORS
330
6B
102
}
330
6B
100
AcDbMaterial
  1
Global
 72
     0
 43
0.0008202099737533
 43
0.0
 43
0.0
 43
0.0
 43
0.0
 43
0.0008202099737533
 43
0.0
 43
0.0
 43
0.0
 43
0.0
 43
1.0
 43
0.0
 43
0.0
 43
0.0
 43
0.0
 43
1.0
 77
     0
 47
0.0008202099737533
 47
0.0
 47
0.0
 47
0.0
 47
0.0
 47
0.0008202099737533
 47
0.0
 47
0.0
 47
0.0
 47
0.0
 47
1.0
 47
0.0
 47
0.0
 47
0.0
 47
0.0
 47
1.0
171
     0
 49
0.0008202099737533
 49
0.0
 49
0.0
 49
0.0
 49
0.0
 49
0.0008202099737533
 49
0.0
 49
0.0
 49
0.0
 49
0.0
 49
1.0
 49
0.0
 49
0.0
 49
0.0
 49
0.0
 49
1.0
175
     0
142
0.0008202099737533
142
0.0
142
0.0
142
0.0
142
0.0
142
0.0008202099737533
142
0.0
142
0.0
142
0.0
142
0.0
142
1.0
142
0.0
142
0.0
142
0.0
142
0.0
142
1.0
179
     0
144
0.0008202099737533
144
0.0
144
0.0
144
0.0
144
0.0
144
0.0008202099737533
144
0.0
144
0.0
144
0.0
144
0.0
144
1.0
144
0.0
144
0.0
144
0.0
144
0.0
144
1.0
147
0.0008202099737533
147
0.0
147
0.0
147
0.0
147
0.0
147
0.0008202099737533
147
0.0
147
0.0
147
0.0
147
0.0
147
1.0
147
0.0
147
0.0
147
0.0
147
0.0
147
1.0
  0
MLEADERSTYLE
  5
2A75B
102
{ACAD_REACTORS
330
43C
102
}
330
43C
100
AcDbMLeaderStyle
170
     2
171
     1
172
     0
 90
        2
 40
0.0
 41
0.0
173
     1
 91
-1056964608
340
14
 92
       -2
290
     1
 42
2.0
291
     1
 43
0.36
  3
Standard
 44
4.0
300

342
11
174
     1
178
     6
175
     1
176
     0
 93
-1056964608
 45
4.0
292
     0
297
     0
 46
4.0
 94
-1056964608
 47
1.0
 49
1.0
140
1.0
293
     1
141
0.0
294
     1
177
     0
142
1.0
295
     0
296
     0
143
0.125
1001
ACAD_MLEADERVER
1070
     2
  0
MLINESTYLE
  5
18
102
{ACAD_REACTORS
330
17
102
}
330
17
100
AcDbMlineStyle
  2
STANDARD
 70
     0
  3

 62
     0
 51
90.0
 52
90.0
 71
     2
 49
0.5
 62
   256
  6
BYLAYER
 49
-0.5
 62
   256
  6
BYLAYER
  0
ACDBPLACEHOLDER
  5
F
102
{ACAD_REACTORS
330
E
102
}
330
E
  0
SCALE
  5
9A
102
{ACAD_REACTORS
330
99
102
}
330
99
100
AcDbScale
 70
     0
300
1:1
140
1.0
141
1.0
290
     1
  0
SCALE
  5
9B
102
{ACAD_REACTORS
330
99
102
}
330
99
100
AcDbScale
 70
     0
300
1:2
140
1.0
141
2.0
290
     0
  0
SCALE
  5
9C
102
{ACAD_REACTORS
330
99
102
}
330
99
100
AcDbScale
 70
     0
300
1:4
140
1.0
141
4.0
290
     0
  0
SCALE
  5
9D
102
{ACAD_REACTORS
330
99
102
}
330
99
100
AcDbScale
 70
     0
300
1:5
140
1.0
141
5.0
290
     0
  0
SCALE
  5
9E
102
{ACAD_REACTORS
330
99
102
}
330
99
100
AcDbScale
 70
     0
300
1:8
140
1.0
141
8.0
290
     0
  0
SCALE
  5
9F
102
{ACAD_REACTORS
330
99
102
}
330
99
100
AcDbScale
 70
     0
300
1:10
140
1.0
141
10.0
290
     0
  0
SCALE
  5
A0
102
{ACAD_REACTORS
330
99
102
}
330
99
100
AcDbScale
 70
     0
300
1:16
140
1.0
141
16.0
290
     0
  0
SCALE
  5
A1
102
{ACAD_REACTORS
330
99
102
}
330
99
100
AcDbScale
 70
     0
300
1:20
140
1.0
141
20.0
290
     0
  0
SCALE
  5
A2
102
{ACAD_REACTORS
330
99
102
}
330
99
100
AcDbScale
 70
     0
300
1:30
140
1.0
141
30.0
290
     0
  0
SCALE
  5
A3
102
{ACAD_REACTORS
330
99
102
}
330
99
100
AcDbScale
 70
     0
300
1:40
140
1.0
141
40.0
290
     0
  0
SCALE
  5
A4
102
{ACAD_REACTORS
330
99
102
}
330
99
100
AcDbScale
 70
     0
300
1:50
140
1.0
141
50.0
290
     0
  0
SCALE
  5
A5
102
{ACAD_REACTORS
330
99
102
}
330
99
100
AcDbScale
 70
     0
300
1:100
140
1.0
141
100.0
290
     0
  0
SCALE
  5
A6
102
{ACAD_REACTORS
330
99
102
}
330
99
100
AcDbScale
 70
     0
300
2:1
140
2.0
141
1.0
290
     0
  0
SCALE
  5
A7
102
{ACAD_REACTORS
330
99
102
}
330
99
100
AcDbScale
 70
     0
300
4:1
140
4.0
141
1.0
290
     0
  0
SCALE
  5
A8
102
{ACAD_REACTORS
330
99
102
}
330
99
100
AcDbScale
 70
     0
300
8:1
140
8.0
141
1.0
290
     0
  0
SCALE
  5
A9
102
{ACAD_REACTORS
330
99
102
}
330
99
100
AcDbScale
 70
     0
300
10:1
140
10.0
141
1.0
290
     0
  0
SCALE
  5
AA
102
{ACAD_REACTORS
330
99
102
}
330
99
100
AcDbScale
 70
     0
300
100:1
140
100.0
141
1.0
290
     0
  0
SCALE
  5
AB
102
{ACAD_REACTORS
330
99
102
}
330
99
100
AcDbScale
 70
     0
300
1/128" = 1'-0"
140
0.0078125
141
12.0
290
     0
  0
SCALE
  5
AC
102
{ACAD_REACTORS
330
99
102
}
330
99
100
AcDbScale
 70
     0
300
1/64" = 1'-0"
140
0.015625
141
12.0
290
     0
  0
SCALE
  5
AD
102
{ACAD_REACTORS
330
99
102
}
330
99
100
AcDbScale
 70
     0
300
1/32" = 1'-0"
140
0.03125
141
12.0
290
     0
  0
SCALE
  5
AE
102
{ACAD_REACTORS
330
99
102
}
330
99
100
AcDbScale
 70
     0
300
1/16" = 1'-0"
140
0.0625
141
12.0
290
     0
  0
SCALE
  5
AF
102
{ACAD_REACTORS
330
99
102
}
330
99
100
AcDbScale
 70
     0
300
3/32" = 1'-0"
140
0.09375
141
12.0
290
     0
  0
SCALE
  5
B0
102
{ACAD_REACTORS
330
99
102
}
330
99
100
AcDbScale
 70
     0
300
1/8" = 1'-0"
140
0.125
141
12.0
290
     0
  0
SCALE
  5
B1
102
{ACAD_REACTORS
330
99
102
}
330
99
100
AcDbScale
 70
     0
300
3/16" = 1'-0"
140
0.1875
141
12.0
290
     0
  0
SCALE
  5
B2
102
{ACAD_REACTORS
330
99
102
}
330
99
100
AcDbScale
 70
     0
300
1/4" = 1'-0"
140
0.25
141
12.0
290
     0
  0
SCALE
  5
B3
102
{ACAD_REACTORS
330
99
102
}
330
99
100
AcDbScale
 70
     0
300
3/8" = 1'-0"
140
0.375
141
12.0
290
     0
  0
SCALE
  5
B4
102
{ACAD_REACTORS
330
99
102
}
330
99
100
AcDbScale
 70
     0
300
1/2" = 1'-0"
140
0.5
141
12.0
290
     0
  0
SCALE
  5
B5
102
{ACAD_REACTORS
330
99
102
}
330
99
100
AcDbScale
 70
     0
300
3/4" = 1'-0"
140
0.75
141
12.0
290
     0
  0
SCALE
  5
B6
102
{ACAD_REACTORS
330
99
102
}
330
99
100
AcDbScale
 70
     0
300
1" = 1'-0"
140
1.0
141
12.0
290
     0
  0
SCALE
  5
B7
102
{ACAD_REACTORS
330
99
102
}
330
99
100
AcDbScale
 70
     0
300
1-1/2" = 1'-0"
140
1.5
141
12.0
290
     0
  0
SCALE
  5
B8
102
{ACAD_REACTORS
330
99
102
}
330
99
100
AcDbScale
 70
     0
300
3" = 1'-0"
140
3.0
141
12.0
290
     0
  0
SCALE
  5
B9
102
{ACAD_REACTORS
330
99
102
}
330
99
100
AcDbScale
 70
     0
300
6" = 1'-0"
140
6.0
141
12.0
290
     0
  0
SCALE
  5
BA
102
{ACAD_REACTORS
330
99
102
}
330
99
100
AcDbScale
 70
     0
300
1'-0" = 1'-0"
140
12.0
141
12.0
290
     0
  0
ACDBSECTIONVIEWSTYLE
  5
2A75C
102
{ACAD_XDICTIONARY
360
2A80F
102
}
102
{ACAD_REACTORS
330
8E2
102
}
330
8E2
100
AcDbModelDocViewStyle
 70
     0
  3
Metric50
290
     0
100
AcDbSectionViewStyle
 70
     0
 71
     0
 90
      102
 71
     1
340
11
 40
5.0
340
0
340
0
 40
5.0
300
I, O, Q, S, X, Z
 40
10.0
 90
        0
 40
2.5
 90
        0
 71
     2
340
16
 90
       25
340
16
 90
       50
 40
5.0
 40
2.5
 40
5.0
 71
     3
340
11
 40
5.0
 90
        0
 40
15.0
 90
        1
300
%<\AcVar ViewSectionStartId>%-%<\AcVar ViewSectionEndId>% (%<\AcVar ViewScale \f "%sn">%)
 71
     4
300
ANSI31
 40
1.0
 90
        0
290
     0
290
     0
 90
        6
 40
0.0
 40
1.570796326794896
 40
0.2617993877991494
 40
1.308996938995747
 40
-0.2617993877991494
 40
1.832595714594045
  0
TABLESTYLE
  5
2A75A
102
{ACAD_XDICTIONARY
360
2A786
102
}
102
{ACAD_REACTORS
330
92
102
}
330
92
100
AcDbTableStyle
  3
Standard
 70
     0
 71
     0
 40
1.5
 41
1.5
280
     0
281
     0
  7
Standard
140
4.5
170
     2
 62
     0
 63
     7
283
     0
274
    -2
284
     1
 64
     0
275
    -2
285
     1
 65
     0
276
    -2
286
     1
 66
     0
277
    -2
287
     1
 67
     0
278
    -2
288
     1
 68
     0
279
    -2
289
     1
 69
     0
  7
Standard
140
6.0
170
     5
 62
     0
 63
     7
283
     0
274
    -2
284
     1
 64
     0
275
    -2
285
     1
 65
     0
276
    -2
286
     1
 66
     0
277
    -2
287
     1
 67
     0
278
    -2
288
     1
 68
     0
279
    -2
289
     1
 69
     0
  7
Standard
140
4.5
170
     5
 62
     0
 63
     7
283
     0
274
    -2
284
     1
 64
     0
275
    -2
285
     1
 65
     0
276
    -2
286
     1
 66
     0
277
    -2
287
     1
 67
     0
278
    -2
288
     1
 68
     0
279
    -2
289
     1
 69
     0
  0
VISUALSTYLE
  5
2A747
102
{ACAD_XDICTIONARY
360
2A7E8
102
}
102
{ACAD_REACTORS
330
3F2
102
}
330
3F2
100
AcDbVisualStyle
  2

 70
     4
 71
     0
 72
     2
 73
     0
 90
        0
 40
-0.6
 41
-30.0
 62
     5
 63
     7
 74
     1
 91
        4
 64
     7
 65
   257
 75
     1
175
     1
 42
1.0
 92
        0
 66
   257
 43
1.0
 76
     1
 77
     6
 78
     2
 67
     7
 79
     5
170
     0
171
     0
290
     0
174
     0
 93
        1
 44
0.0
173
     0
291
     0
 45
0.0
1001
ACAD
1000
AcDbSavedByObjectVersion
1070
     0
  0
VISUALSTYLE
  5
2A746
102
{ACAD_XDICTIONARY
360
2A7E6
102
}
102
{ACAD_REACTORS
330
3F2
102
}
330
3F2
100
AcDbVisualStyle
  2

 70
     7
 71
     1
 72
     0
 73
     1
 90
        0
 40
-0.6
 41
-30.0
 62
     5
 63
     7
 74
     0
 91
        4
 64
     7
 65
   257
 75
     1
175
     1
 42
1.0
 92
        8
 66
     7
 43
1.0
 76
     1
 77
     6
 78
     2
 67
     7
 79
     5
170
     0
171
     0
290
     0
174
     0
 93
        1
 44
0.0
173
     0
291
     1
 45
0.0
1001
ACAD
1000
AcDbSavedByObjectVersion
1070
     0
  0
VISUALSTYLE
  5
2A74D
102
{ACAD_XDICTIONARY
360
2A7F4
102
}
102
{ACAD_REACTORS
330
3F2
102
}
330
3F2
100
AcDbVisualStyle
  2

 70
    12
 71
     2
 72
     2
 73
     0
 90
        0
 40
-0.6
 41
-30.0
 62
     5
 63
     7
 74
     1
 91
        4
 64
     7
 65
   257
 75
     1
175
     1
 42
1.0
 92
        8
 66
     7
 43
1.0
 76
     1
 77
     6
 78
     2
 67
     7
 79
     5
170
     0
171
     0
290
     0
174
     0
 93
        1
 44
50.0
173
     0
291
     1
 45
0.0
1001
ACAD
1000
AcDbSavedByObjectVersion
1070
     0
  0
VISUALSTYLE
  5
2A751
102
{ACAD_XDICTIONARY
360
2A7FC
102
}
102
{ACAD_REACTORS
330
3F2
102
}
330
3F2
100
AcDbVisualStyle
  2

 70
    16
 71
     2
 72
     2
 73
     3
 90
        0
 40
-0.6
 41
-30.0
 62
     5
 63
     8
 74
     1
 91
        4
 64
     7
 65
   257
 75
     1
175
     1
 42
1.0
 92
        8
 66
     8
 43
1.0
 76
     1
 77
     6
 78
     2
 67
     7
 79
     5
170
     0
171
     0
290
     0
174
     0
 93
        1
 44
0.0
173
     0
291
     1
 45
0.0
1001
ACAD
1000
AcDbSavedByObjectVersion
1070
     0
  0
VISUALSTYLE
  5
2A74A
102
{ACAD_XDICTIONARY
360
2A7EE
102
}
102
{ACAD_REACTORS
330
3F2
102
}
330
3F2
100
AcDbVisualStyle
  2

 70
     9
 71
     3
 72
     2
 73
     0
 90
        0
 40
-0.6
 41
-30.0
 62
     5
 63
     7
 74
     2
 91
        2
 64
     7
 65
   257
 75
     1
175
     1
 42
179.0
 92
        8
 66
     7
 43
1.0
 76
     1
 77
     6
 78
     2
 67
     7
 79
     3
170
     0
171
     0
290
     0
174
     0
 93
        1
 44
0.0
173
     0
291
     0
 45
0.0
1001
ACAD
1000
AcDbSavedByObjectVersion
1070
     0
  0
VISUALSTYLE
  5
2A74C
102
{ACAD_XDICTIONARY
360
2A7F2
102
}
102
{ACAD_REACTORS
330
3F2
102
}
330
3F2
100
AcDbVisualStyle
  2

 70
    11
 71
     2
 72
     2
 73
     0
 90
        0
 40
-0.6
 41
-30.0
 62
     5
 63
     7
 74
     1
 91
        4
 64
     7
 65
   257
 75
     1
175
     1
 42
1.0
 92
        8
 66
     7
 43
1.0
 76
     1
 77
     6
 78
     2
 67
     7
 79
     5
170
     0
171
     0
290
     0
174
     0
 93
        1
 44
-50.0
173
     0
291
     1
 45
0.0
1001
ACAD
1000
AcDbSavedByObjectVersion
1070
     0
  0
VISUALSTYLE
  5
2A759
102
{ACAD_XDICTIONARY
360
2A80C
102
}
102
{ACAD_REACTORS
330
3F2
102
}
330
3F2
100
AcDbVisualStyle
  2

 70
    22
 71
     2
 72
     2
 73
     0
 90
        0
 40
-0.6
 41
-30.0
 62
     5
 63
     7
 74
     1
 91
        4
 64
     7
 65
   257
 75
     1
175
     1
 42
1.0
 92
        8
 66
     7
 43
1.0
 76
     1
 77
     6
 78
     2
 67
     7
 79
     5
170
     0
171
     0
290
     0
174
     0
 93
        1
 44
0.0
173
     0
291
     1
 45
0.0
1001
ACAD
1000
AcDbSavedByObjectVersion
1070
     0
  0
VISUALSTYLE
  5
2A750
102
{ACAD_XDICTIONARY
360
2A7FA
102
}
102
{ACAD_REACTORS
330
3F2
102
}
330
3F2
100
AcDbVisualStyle
  2

 70
    15
 71
     2
 72
     2
 73
     0
 90
        0
 40
-0.6
 41
-30.0
 62
     5
 63
     7
 74
     1
 91
        4
 64
     7
 65
   257
 75
     1
175
     1
 42
1.0
 92
        8
 66
     7
 43
1.0
 76
     1
 77
     6
 78
     2
 67
     7
 79
     5
170
     0
171
     0
290
     0
174
     0
 93
        1
 44
0.0
173
     0
291
     1
 45
0.0
1001
ACAD
1000
AcDbSavedByObjectVersion
1070
     0
  0
VISUALSTYLE
  5
2A742
102
{ACAD_XDICTIONARY
360
2A7DE
102
}
102
{ACAD_REACTORS
330
3F2
102
}
330
3F2
100
AcDbVisualStyle
  2

 70
     0
 71
     2
 72
     1
 73
     1
 90
        2
 40
-0.6
 41
30.0
 62
     5
 63
     7
 74
     0
 91
        0
 64
     7
 65
   257
 75
     1
175
     1
 42
1.0
 92
        8
 66
     7
 43
1.0
 76
     1
 77
     6
 78
     2
 67
     7
 79
     5
170
     0
171
     0
290
     0
174
     0
 93
       13
 44
0.0
173
     0
291
     1
 45
0.0
1001
ACAD
1000
AcDbSavedByObjectVersion
1070
     0
  0
VISUALSTYLE
  5
2A743
102
{ACAD_XDICTIONARY
360
2A7E0
102
}
102
{ACAD_REACTORS
330
3F2
102
}
330
3F2
100
AcDbVisualStyle
  2

 70
     1
 71
     2
 72
     1
 73
     1
 90
        2
 40
-0.6
 41
30.0
 62
     5
 63
     7
 74
     1
 91
        0
 64
     7
 65
   257
 75
     1
175
     1
 42
1.0
 92
        0
 66
   257
 43
1.0
 76
     1
 77
     6
 78
     2
 67
     7
 79
     5
170
     0
171
     0
290
     0
174
     0
 93
       13
 44
0.0
173
     0
291
     1
 45
0.0
1001
ACAD
1000
AcDbSavedByObjectVersion
1070
     0
  0
VISUALSTYLE
  5
2A744
102
{ACAD_XDICTIONARY
360
2A7E2
102
}
102
{ACAD_REACTORS
330
3F2
102
}
330
3F2
100
AcDbVisualStyle
  2

 70
     2
 71
     2
 72
     2
 73
     1
 90
        2
 40
-0.6
 41
30.0
 62
     5
 63
     7
 74
     0
 91
        0
 64
     7
 65
   257
 75
     1
175
     1
 42
1.0
 92
        0
 66
     7
 43
1.0
 76
     1
 77
     6
 78
     2
 67
     7
 79
     5
170
     0
171
     0
290
     0
174
     0
 93
       13
 44
0.0
173
     0
291
     1
 45
0.0
1001
ACAD
1000
AcDbSavedByObjectVersion
1070
     0
  0
VISUALSTYLE
  5
2A745
102
{ACAD_XDICTIONARY
360
2A7E4
102
}
102
{ACAD_REACTORS
330
3F2
102
}
330
3F2
100
AcDbVisualStyle
  2

 70
     3
 71
     2
 72
     2
 73
     1
 90
        2
 40
-0.6
 41
30.0
 62
     5
 63
     7
 74
     1
 91
        0
 64
     7
 65
   257
 75
     1
175
     1
 42
1.0
 92
        0
 66
   257
 43
1.0
 76
     1
 77
     6
 78
     2
 67
     7
 79
     5
170
     0
171
     0
290
     0
174
     0
 93
       13
 44
0.0
173
     0
291
     1
 45
0.0
1001
ACAD
1000
AcDbSavedByObjectVersion
1070
     0
  0
VISUALSTYLE
  5
2A749
102
{ACAD_XDICTIONARY
360
2A7EC
102
}
102
{ACAD_REACTORS
330
3F2
102
}
330
3F2
100
AcDbVisualStyle
  2

 70
     6
 71
     1
 72
     2
 73
     2
 90
        0
 40
-0.6
 41
-30.0
 62
     5
 63
     7
 74
     2
 91
        2
 64
     7
 65
   257
 75
     2
175
     1
 42
40.0
 92
        0
 66
   257
 43
1.0
 76
     1
 77
     6
 78
     2
 67
     7
 79
     3
170
     0
171
     0
290
     0
174
     0
 93
        1
 44
0.0
173
     0
291
     0
 45
0.0
1001
ACAD
1000
AcDbSavedByObjectVersion
1070
     0
  0
VISUALSTYLE
  5
2A757
102
{ACAD_XDICTIONARY
360
2A808
102
}
102
{ACAD_REACTORS
330
3F2
102
}
330
3F2
100
AcDbVisualStyle
  2

 70
    20
 71
     2
 72
     2
 73
     0
 90
        0
 40
-0.6
 41
-30.0
 62
     5
 63
     7
 74
     1
 91
        4
 64
     7
 65
   257
 75
     1
175
     1
 42
1.0
 92
       10
 66
     7
 43
1.0
 76
     1
 77
     6
 78
     2
 67
     7
 79
     5
170
     0
171
     0
290
     0
174
     0
 93
        1
 44
0.0
173
     0
291
     1
 45
0.0
1001
ACAD
1000
AcDbSavedByObjectVersion
1070
     0
  0
VISUALSTYLE
  5
2A74F
102
{ACAD_XDICTIONARY
360
2A7F8
102
}
102
{ACAD_REACTORS
330
3F2
102
}
330
3F2
100
AcDbVisualStyle
  2

 70
    14
 71
     2
 72
     2
 73
     0
 90
        0
 40
-0.6
 41
-30.0
 62
     5
 63
     7
 74
     1
 91
        4
 64
     7
 65
   257
 75
     7
175
     7
 42
1.0
 92
        8
 66
     7
 43
1.0
 76
     1
 77
     6
 78
     2
 67
     7
 79
     5
170
     0
171
     0
290
     0
174
     0
 93
        1
 44
0.0
173
     0
291
     1
 45
0.0
1001
ACAD
1000
AcDbSavedByObjectVersion
1070
     0
  0
VISUALSTYLE
  5
2A758
102
{ACAD_XDICTIONARY
360
2A80A
102
}
102
{ACAD_REACTORS
330
3F2
102
}
330
3F2
100
AcDbVisualStyle
  2

 70
    21
 71
     2
 72
     2
 73
     0
 90
        0
 40
-0.6
 41
-30.0
 62
     5
 63
     7
 74
     1
 91
        4
 64
     7
 65
   257
 75
     1
175
     1
 42
1.0
 92
        9
 66
     7
 43
1.0
 76
     1
 77
     6
 78
     2
 67
     7
 79
     5
170
     0
171
     0
290
     0
174
     0
 93
        1
 44
0.0
173
     0
291
     1
 45
0.0
1001
ACAD
1000
AcDbSavedByObjectVersion
1070
     0
  0
VISUALSTYLE
  5
2A74B
102
{ACAD_XDICTIONARY
360
2A7F0
102
}
102
{ACAD_REACTORS
330
3F2
102
}
330
3F2
100
AcDbVisualStyle
  2

 70
     8
 71
     2
 72
     3
 73
     0
 90
        2
 40
-0.6
 41
30.0
 62
     5
 63
     7
 74
     0
 91
        0
 64
     7
 65
   257
 75
     1
175
     1
 42
1.0
 92
        8
 66
   257
 43
1.0
 76
     1
 77
     6
 78
     2
 67
     7
 79
     3
170
     0
171
     0
290
     0
174
     0
 93
       13
 44
0.0
173
     0
291
     0
 45
0.0
1001
ACAD
1000
AcDbSavedByObjectVersion
1070
     0
  0
VISUALSTYLE
  5
2A756
102
{ACAD_XDICTIONARY
360
2A806
102
}
102
{ACAD_REACTORS
330
3F2
102
}
330
3F2
100
AcDbVisualStyle
  2

 70
    27
 71
     2
 72
     2
 73
     1
 90
        2
 40
-0.6
 41
30.0
 62
     5
 63
     7
 74
     0
 91
        4
 64
     7
 65
   257
 75
     1
175
     1
 42
1.0
 92
        8
 66
   257
 43
1.0
 76
     1
 77
     6
 78
     2
 67
     8
 79
     3
170
     0
171
     0
290
     0
174
     0
 93
        5
 44
0.0
173
     0
291
     0
 45
0.0
1001
ACAD
1000
AcDbSavedByObjectVersion
1070
     0
  0
VISUALSTYLE
  5
2A755
102
{ACAD_XDICTIONARY
360
2A804
102
}
102
{ACAD_REACTORS
330
3F2
102
}
330
3F2
100
AcDbVisualStyle
  2

 70
    26
 71
     2
 72
     2
 73
     1
 90
        2
 40
-0.6
 41
30.0
 62
     5
 63
     7
 74
     1
 91
        2
 64
     7
 65
   257
 75
     2
175
     1
 42
1.0
 92
        8
 66
   257
 43
1.0
 76
     1
 77
     6
 78
     2
 67
     7
 79
     3
170
     0
171
     0
290
     0
174
     0
 93
        5
 44
0.0
173
     0
291
     0
 45
0.0
1001
ACAD
1000
AcDbSavedByObjectVersion
1070
     0
  0
VISUALSTYLE
  5
2A752
102
{ACAD_XDICTIONARY
360
2A7FE
102
}
102
{ACAD_REACTORS
330
3F2
102
}
330
3F2
100
AcDbVisualStyle
  2

 70
    23
 71
     2
 72
     2
 73
     3
 90
        0
 40
-0.6
 41
-30.0
 62
     5
 63
     7
 74
     2
 91
        2
 64
     7
 65
     7
 75
     1
175
     1
 42
40.0
 92
        8
 66
     7
 43
1.0
 76
     1
 77
     6
 78
     2
 67
     7
 79
     3
170
     0
171
     0
290
     0
174
     0
 93
        1
 44
0.0
173
     0
291
     0
 45
0.0
1001
ACAD
1000
AcDbSavedByObjectVersion
1070
     0
  0
VISUALSTYLE
  5
2A753
102
{ACAD_XDICTIONARY
360
2A800
102
}
102
{ACAD_REACTORS
330
3F2
102
}
330
3F2
100
AcDbVisualStyle
  2

 70
    24
 71
     1
 72
     2
 73
     2
 90
        0
 40
-0.6
 41
-30.0
 62
     5
 63
     7
 74
     2
 91
        2
 64
     7
 65
     7
 75
     1
175
     1
 42
40.0
 92
       11
 66
     7
 43
1.0
 76
     1
 77
     6
 78
     2
 67
     7
 79
     6
170
     0
171
     0
290
     0
174
     0
 93
        1
 44
0.0
173
     0
291
     0
 45
0.0
1001
ACAD
1000
AcDbSavedByObjectVersion
1070
     0
  0
VISUALSTYLE
  5
2A74E
102
{ACAD_XDICTIONARY
360
2A7F6
102
}
102
{ACAD_REACTORS
330
3F2
102
}
330
3F2
100
AcDbVisualStyle
  2

 70
    13
 71
     2
 72
     2
 73
     0
 90
        0
 40
-0.6
 41
-30.0
 62
     5
 63
     7
 74
     1
 91
        4
 64
     7
 65
   257
 75
     1
175
     1
 42
1.0
 92
       12
 66
     7
 43
1.0
 76
     1
 77
     6
 78
     2
 67
     7
 79
     5
170
     0
171
     0
290
     0
174
     0
 93
        1
 44
0.0
173
     0
291
     1
 45
0.0
1001
ACAD
1000
AcDbSavedByObjectVersion
1070
     0
  0
VISUALSTYLE
  5
2A748
102
{ACAD_XDICTIONARY
360
2A7EA
102
}
102
{ACAD_REACTORS
330
3F2
102
}
330
3F2
100
AcDbVisualStyle
  2

 70
     5
 71
     0
 72
     2
 73
     0
 90
        0
 40
-0.6
 41
-30.0
 62
     5
 63
     7
 74
     1
 91
        4
 64
     7
 65
   257
 75
     1
175
     1
 42
1.0
 92
        0
 66
   257
 43
1.0
 76
     1
 77
     6
 78
     2
 67
     7
 79
     3
170
     0
171
     0
290
     0
174
     0
 93
        1
 44
0.0
173
     0
291
     0
 45
0.0
1001
ACAD
1000
AcDbSavedByObjectVersion
1070
     0
  0
VISUALSTYLE
  5
2A754
102
{ACAD_XDICTIONARY
360
2A802
102
}
102
{ACAD_REACTORS
330
3F2
102
}
330
3F2
100
AcDbVisualStyle
  2

 70
    25
 71
     2
 72
     2
 73
     1
 90
        1
 40
0.5
 41
-30.0
 62
     5
 63
     7
 74
     1
 91
        0
 64
     7
 65
   257
 75
     1
175
     1
 42
1.0
 92
        8
 66
     7
 43
1.0
 76
     1
 77
     6
 78
     2
 67
     7
 79
     3
170
     0
171
     0
290
     0
174
     0
 93
       13
 44
0.0
173
     0
291
     0
 45
0.0
1001
ACAD
1000
AcDbSavedByObjectVersion
1070
     0
  0
XRECORD
  5
2A722
102
{ACAD_REACTORS
330
2A721
102
}
330
2A721
100
AcDbXrecord
280
     1
340
6C
  0
XRECORD
  5
2A723
102
{ACAD_REACTORS
330
2A721
102
}
330
2A721
100
AcDbXrecord
280
     1
340
6B
  0
DICTIONARYVAR
  5
2A720
102
{ACAD_REACTORS
330
59
102
}
330
59
100
DictionaryVariables
280
     0
  1
1:1
  0
DICTIONARYVAR
  5
2A784
102
{ACAD_REACTORS
330
59
102
}
330
59
100
DictionaryVariables
280
     0
  1
STANDARD
  0
DICTIONARYVAR
  5
98
102
{ACAD_REACTORS
330
59
102
}
330
59
100
DictionaryVariables
280
     0
  1
STANDARD
  0
DICTIONARYVAR
  5
8FB
102
{ACAD_REACTORS
330
59
102
}
330
59
100
DictionaryVariables
280
     0
  1
Metric50
  0
DICTIONARYVAR
  5
8FC
102
{ACAD_REACTORS
330
59
102
}
330
59
100
DictionaryVariables
280
     0
  1
Metric50
  0
DICTIONARYVAR
  5
359
102
{ACAD_REACTORS
330
59
102
}
330
59
100
DictionaryVariables
280
     0
  1
2
  0
DICTIONARYVAR
  5
AF7
102
{ACAD_REACTORS
330
59
102
}
330
59
100
DictionaryVariables
280
     0
  1
0
  0
DICTIONARYVAR
  5
358
102
{ACAD_REACTORS
330
59
102
}
330
59
100
DictionaryVariables
280
     0
  1
1
  0
DICTIONARYVAR
  5
9BE
102
{ACAD_REACTORS
330
59
102
}
330
59
100
DictionaryVariables
280
     0
  1
0
  0
DICTIONARYVAR
  5
7AE
102
{ACAD_REACTORS
330
59
102
}
330
59
100
DictionaryVariables
280
     0
  1
1
  0
DICTIONARYVAR
  5
7AF
102
{ACAD_REACTORS
330
59
102
}
330
59
100
DictionaryVariables
280
     0
  1
15
  0
DICTIONARYVAR
  5
44A
102
{ACAD_REACTORS
330
59
102
}
330
59
100
DictionaryVariables
280
     0
  1
0
  0
DICTIONARYVAR
  5
448
102
{ACAD_REACTORS
330
59
102
}
330
59
100
DictionaryVariables
280
     0
  1
1
  0
DICTIONARYVAR
  5
9BD
102
{ACAD_REACTORS
330
59
102
}
330
59
100
DictionaryVariables
280
     0
  1
127
  0
DICTIONARYVAR
  5
2A7D1
102
{ACAD_REACTORS
330
59
102
}
330
59
100
DictionaryVariables
280
     0
  1
2
  0
DICTIONARY
  5
76F
102
{ACAD_REACTORS
330
76D
102
}
330
76D
100
AcDbDictionary
281
     1
  0
DICTIONARY
  5
744
102
{ACAD_REACTORS
330
743
102
}
330
743
100
AcDbDictionary
281
     1
  0
XRECORD
  5
8C7
102
{ACAD_REACTORS
330
8C6
102
}
330
8C6
100
AcDbXrecord
280
     1
  0
DICTIONARY
  5
2A811
330
2A75D
100
AcDbDictionary
280
     1
281
     1
  3
ACAD_XREC_ROUNDTRIP
360
2A812
  0
DICTIONARY
  5
2A7DC
330
74
100
AcDbDictionary
280
     1
281
     1
  3
ACAD_XREC_ROUNDTRIP
360
2A7DD
  0
DICTIONARY
  5
2A7DA
330
22
100
AcDbDictionary
280
     1
281
     1
  3
ACAD_XREC_ROUNDTRIP
360
2A7DB
  0
DICTIONARY
  5
2A733
330
2A732
100
AcDbDictionary
280
     1
281
     1
  3
ACAD_XREC_ROUNDTRIP
360
2A794
  3
BUMPTILE
360
2A735
  3
DIFFUSETILE
360
2A734
  3
OPACITYTILE
360
2A738
  3
REFLECTIONTILE
360
2A737
  3
REFRACTIONTILE
360
2A739
  3
SPECULARTILE
360
2A736
  0
DICTIONARY
  5
2A72B
330
2A72A
100
AcDbDictionary
280
     1
281
     1
  3
ACAD_XREC_ROUNDTRIP
360
2A793
  3
BUMPTILE
360
2A72D
  3
DIFFUSETILE
360
2A72C
  3
OPACITYTILE
360
2A730
  3
REFLECTIONTILE
360
2A72F
  3
REFRACTIONTILE
360
2A731
  3
SPECULARTILE
360
2A72E
  0
DICTIONARY
  5
2A73B
330
2A73A
100
AcDbDictionary
280
     1
281
     1
  3
ACAD_XREC_ROUNDTRIP
360
2A795
  3
BUMPTILE
360
2A73D
  3
DIFFUSETILE
360
2A73C
  3
OPACITYTILE
360
2A740
  3
REFLECTIONTILE
360
2A73F
  3
REFRACTIONTILE
360
2A741
  3
SPECULARTILE
360
2A73E
  0
DICTIONARY
  5
2A80F
330
2A75C
100
AcDbDictionary
280
     1
281
     1
  3
ACAD_XREC_ROUNDTRIP
360
2A810
  0
DICTIONARY
  5
2A786
330
2A75A
100
AcDbDictionary
280
     1
281
     1
  3
ACAD_ROUNDTRIP_2008_TABLESTYLE_CELLSTYLEMAP
360
2A7D2
  3
ACAD_XREC_ROUNDTRIP
360
2A80E
  0
DICTIONARY
  5
2A7E8
330
2A747
100
AcDbDictionary
280
     1
281
     1
  3
ACAD_XREC_ROUNDTRIP
360
2A7E9
  0
DICTIONARY
  5
2A7E6
330
2A746
100
AcDbDictionary
280
     1
281
     1
  3
ACAD_XREC_ROUNDTRIP
360
2A7E7
  0
DICTIONARY
  5
2A7F4
330
2A74D
100
AcDbDictionary
280
     1
281
     1
  3
ACAD_XREC_ROUNDTRIP
360
2A7F5
  0
DICTIONARY
  5
2A7FC
330
2A751
100
AcDbDictionary
280
     1
281
     1
  3
ACAD_XREC_ROUNDTRIP
360
2A7FD
  0
DICTIONARY
  5
2A7EE
330
2A74A
100
AcDbDictionary
280
     1
281
     1
  3
ACAD_XREC_ROUNDTRIP
360
2A7EF
  0
DICTIONARY
  5
2A7F2
330
2A74C
100
AcDbDictionary
280
     1
281
     1
  3
ACAD_XREC_ROUNDTRIP
360
2A7F3
  0
DICTIONARY
  5
2A80C
330
2A759
100
AcDbDictionary
280
     1
281
     1
  3
ACAD_XREC_ROUNDTRIP
360
2A80D
  0
DICTIONARY
  5
2A7FA
330
2A750
100
AcDbDictionary
280
     1
281
     1
  3
ACAD_XREC_ROUNDTRIP
360
2A7FB
  0
DICTIONARY
  5
2A7DE
330
2A742
100
AcDbDictionary
280
     1
281
     1
  3
ACAD_XREC_ROUNDTRIP
360
2A7DF
  0
DICTIONARY
  5
2A7E0
330
2A743
100
AcDbDictionary
280
     1
281
     1
  3
ACAD_XREC_ROUNDTRIP
360
2A7E1
  0
DICTIONARY
  5
2A7E2
330
2A744
100
AcDbDictionary
280
     1
281
     1
  3
ACAD_XREC_ROUNDTRIP
360
2A7E3
  0
DICTIONARY
  5
2A7E4
330
2A745
100
AcDbDictionary
280
     1
281
     1
  3
ACAD_XREC_ROUNDTRIP
360
2A7E5
  0
DICTIONARY
  5
2A7EC
330
2A749
100
AcDbDictionary
280
     1
281
     1
  3
ACAD_XREC_ROUNDTRIP
360
2A7ED
  0
DICTIONARY
  5
2A808
330
2A757
100
AcDbDictionary
280
     1
281
     1
  3
ACAD_XREC_ROUNDTRIP
360
2A809
  0
DICTIONARY
  5
2A7F8
330
2A74F
100
AcDbDictionary
280
     1
281
     1
  3
ACAD_XREC_ROUNDTRIP
360
2A7F9
  0
DICTIONARY
  5
2A80A
330
2A758
100
AcDbDictionary
280
     1
281
     1
  3
ACAD_XREC_ROUNDTRIP
360
2A80B
  0
DICTIONARY
  5
2A7F0
330
2A74B
100
AcDbDictionary
280
     1
281
     1
  3
ACAD_XREC_ROUNDTRIP
360
2A7F1
  0
DICTIONARY
  5
2A806
330
2A756
100
AcDbDictionary
280
     1
281
     1
  3
ACAD_XREC_ROUNDTRIP
360
2A807
  0
DICTIONARY
  5
2A804
330
2A755
100
AcDbDictionary
280
     1
281
     1
  3
ACAD_XREC_ROUNDTRIP
360
2A805
  0
DICTIONARY
  5
2A7FE
330
2A752
100
AcDbDictionary
280
     1
281
     1
  3
ACAD_XREC_ROUNDTRIP
360
2A7FF
  0
DICTIONARY
  5
2A800
330
2A753
100
AcDbDictionary
280
     1
281
     1
  3
ACAD_XREC_ROUNDTRIP
360
2A801
  0
DICTIONARY
  5
2A7F6
330
2A74E
100
AcDbDictionary
280
     1
281
     1
  3
ACAD_XREC_ROUNDTRIP
360
2A7F7
  0
DICTIONARY
  5
2A7EA
330
2A748
100
AcDbDictionary
280
     1
281
     1
  3
ACAD_XREC_ROUNDTRIP
360
2A7EB
  0
DICTIONARY
  5
2A802
330
2A754
100
AcDbDictionary
280
     1
281
     1
  3
ACAD_XREC_ROUNDTRIP
360
2A803
  0
XRECORD
  5
2A812
102
{ACAD_REACTORS
330
2A811
102
}
330
2A811
100
AcDbXrecord
280
     1
102
DISPLAYNAME
  1
Metric50
102
FLAGS
 90
        0
  0
XRECORD
  5
2A7DD
102
{ACAD_REACTORS
330
2A7DC
102
}
330
2A7DC
100
AcDbXrecord
280
     1
102
SHADEPLOT
 70
     0
102
SHADEPLOTRESLEVEL
 70
     2
102
SHADEPLOTCUSTOMDPI
 70
   300
  0
XRECORD
  5
2A7DB
102
{ACAD_REACTORS
330
2A7DA
102
}
330
2A7DA
100
AcDbXrecord
280
     1
102
SHADEPLOT
 70
     0
102
SHADEPLOTRESLEVEL
 70
     4
102
SHADEPLOTCUSTOMDPI
 70
   300
  0
XRECORD
  5
2A794
102
{ACAD_REACTORS
330
2A733
102
}
330
2A733
100
AcDbXrecord
280
     1
102
MATERIAL
148
0.0
149
0.0
149
0.0
 93
        0
 94
      127
282
     0
 72
     0
 77
     0
171
     0
175
     0
179
     0
273
     0
  0
XRECORD
  5
2A735
102
{ACAD_REACTORS
330
2A733
102
}
330
2A733
100
AcDbXrecord
280
     1
270
     1
271
     1
  0
XRECORD
  5
2A734
102
{ACAD_REACTORS
330
2A733
102
}
330
2A733
100
AcDbXrecord
280
     1
270
     1
271
     1
  0
XRECORD
  5
2A738
102
{ACAD_REACTORS
330
2A733
102
}
330
2A733
100
AcDbXrecord
280
     1
270
     1
271
     1
  0
XRECORD
  5
2A737
102
{ACAD_REACTORS
330
2A733
102
}
330
2A733
100
AcDbXrecord
280
     1
270
     1
271
     1
  0
XRECORD
  5
2A739
102
{ACAD_REACTORS
330
2A733
102
}
330
2A733
100
AcDbXrecord
280
     1
270
     1
271
     1
  0
XRECORD
  5
2A736
102
{ACAD_REACTORS
330
2A733
102
}
330
2A733
100
AcDbXrecord
280
     1
270
     1
271
     1
  0
XRECORD
  5
2A793
102
{ACAD_REACTORS
330
2A72B
102
}
330
2A72B
100
AcDbXrecord
280
     1
102
MATERIAL
148
0.0
149
0.0
149
0.0
 93
        0
 94
      127
282
     0
 72
     0
 77
     0
171
     0
175
     0
179
     0
273
     0
  0
XRECORD
  5
2A72D
102
{ACAD_REACTORS
330
2A72B
102
}
330
2A72B
100
AcDbXrecord
280
     1
270
     1
271
     1
  0
XRECORD
  5
2A72C
102
{ACAD_REACTORS
330
2A72B
102
}
330
2A72B
100
AcDbXrecord
280
     1
270
     1
271
     1
  0
XRECORD
  5
2A730
102
{ACAD_REACTORS
330
2A72B
102
}
330
2A72B
100
AcDbXrecord
280
     1
270
     1
271
     1
  0
XRECORD
  5
2A72F
102
{ACAD_REACTORS
330
2A72B
102
}
330
2A72B
100
AcDbXrecord
280
     1
270
     1
271
     1
  0
XRECORD
  5
2A731
102
{ACAD_REACTORS
330
2A72B
102
}
330
2A72B
100
AcDbXrecord
280
     1
270
     1
271
     1
  0
XRECORD
  5
2A72E
102
{ACAD_REACTORS
330
2A72B
102
}
330
2A72B
100
AcDbXrecord
280
     1
270
     1
271
     1
  0
XRECORD
  5
2A795
102
{ACAD_REACTORS
330
2A73B
102
}
330
2A73B
100
AcDbXrecord
280
     1
102
MATERIAL
148
0.0
149
0.0
149
0.0
 93
        0
 94
      127
282
     0
 72
     0
 77
     0
171
     0
175
     0
179
     0
273
     0
  0
XRECORD
  5
2A73D
102
{ACAD_REACTORS
330
2A73B
102
}
330
2A73B
100
AcDbXrecord
280
     1
270
     1
271
     1
  0
XRECORD
  5
2A73C
102
{ACAD_REACTORS
330
2A73B
102
}
330
2A73B
100
AcDbXrecord
280
     1
270
     1
271
     1
  0
XRECORD
  5
2A740
102
{ACAD_REACTORS
330
2A73B
102
}
330
2A73B
100
AcDbXrecord
280
     1
270
     1
271
     1
  0
XRECORD
  5
2A73F
102
{ACAD_REACTORS
330
2A73B
102
}
330
2A73B
100
AcDbXrecord
280
     1
270
     1
271
     1
  0
XRECORD
  5
2A741
102
{ACAD_REACTORS
330
2A73B
102
}
330
2A73B
100
AcDbXrecord
280
     1
270
     1
271
     1
  0
XRECORD
  5
2A73E
102
{ACAD_REACTORS
330
2A73B
102
}
330
2A73B
100
AcDbXrecord
280
     1
270
     1
271
     1
  0
XRECORD
  5
2A810
102
{ACAD_REACTORS
330
2A80F
102
}
330
2A80F
100
AcDbXrecord
280
     1
102
DISPLAYNAME
  1
Metric50
102
FLAGS
 90
        0
  0
CELLSTYLEMAP
  5
2A7D2
102
{ACAD_REACTORS
330
2A786
102
}
330
2A786
100
AcDbCellStyleMap
 90
        3
300
CELLSTYLE
  1
TABLEFORMAT_BEGIN
 90
        5
170
     1
 91
        0
 92
    32768
 62
   257
 93
        1
300
CONTENTFORMAT
  1
CONTENTFORMAT_BEGIN
 90
        0
 91
        0
 92
      512
 93
        0
300

 40
0.0
140
1.0
 94
        5
 62
     0
340
11
144
6.0
309
CONTENTFORMAT_END
171
     1
301
MARGIN
  1
CELLMARGIN_BEGIN
 40
1.5
 40
1.5
 40
1.5
 40
1.5
 40
0.18
 40
0.18
309
CELLMARGIN_END
 94
        6
 95
        1
302
GRIDFORMAT
  1
GRIDFORMAT_BEGIN
 90
        0
 91
        1
 62
     0
 92
       -2
340
0
 93
        0
 40
1.125
309
GRIDFORMAT_END
 95
        2
302
GRIDFORMAT
  1
GRIDFORMAT_BEGIN
 90
        0
 91
        1
 62
     0
 92
       -2
340
0
 93
        0
 40
1.125
309
GRIDFORMAT_END
 95
        4
302
GRIDFORMAT
  1
GRIDFORMAT_BEGIN
 90
        0
 91
        1
 62
     0
 92
       -2
340
0
 93
        0
 40
1.125
309
GRIDFORMAT_END
 95
        8
302
GRIDFORMAT
  1
GRIDFORMAT_BEGIN
 90
        0
 91
        1
 62
     0
 92
       -2
340
0
 93
        0
 40
1.125
309
GRIDFORMAT_END
 95
       16
302
GRIDFORMAT
  1
GRIDFORMAT_BEGIN
 90
        0
 91
        1
 62
     0
 92
       -2
340
0
 93
        0
 40
1.125
309
GRIDFORMAT_END
 95
       32
302
GRIDFORMAT
  1
GRIDFORMAT_BEGIN
 90
        0
 91
        1
 62
     0
 92
       -2
340
0
 93
        0
 40
1.125
309
GRIDFORMAT_END
309
TABLEFORMAT_END
  1
CELLSTYLE_BEGIN
 90
        1
 91
        1
300
_TITLE
309
CELLSTYLE_END
300
CELLSTYLE
  1
TABLEFORMAT_BEGIN
 90
        5
170
     1
 91
        0
 92
        0
 62
   257
 93
        1
300
CONTENTFORMAT
  1
CONTENTFORMAT_BEGIN
 90
        0
 91
        0
 92
      512
 93
        0
300

 40
0.0
140
1.0
 94
        5
 62
     0
340
11
144
4.5
309
CONTENTFORMAT_END
171
     1
301
MARGIN
  1
CELLMARGIN_BEGIN
 40
1.5
 40
1.5
 40
1.5
 40
1.5
 40
0.18
 40
0.18
309
CELLMARGIN_END
 94
        6
 95
        1
302
GRIDFORMAT
  1
GRIDFORMAT_BEGIN
 90
        0
 91
        1
 62
     0
 92
       -2
340
0
 93
        0
 40
1.125
309
GRIDFORMAT_END
 95
        2
302
GRIDFORMAT
  1
GRIDFORMAT_BEGIN
 90
        0
 91
        1
 62
     0
 92
       -2
340
0
 93
        0
 40
1.125
309
GRIDFORMAT_END
 95
        4
302
GRIDFORMAT
  1
GRIDFORMAT_BEGIN
 90
        0
 91
        1
 62
     0
 92
       -2
340
0
 93
        0
 40
1.125
309
GRIDFORMAT_END
 95
        8
302
GRIDFORMAT
  1
GRIDFORMAT_BEGIN
 90
        0
 91
        1
 62
     0
 92
       -2
340
0
 93
        0
 40
1.125
309
GRIDFORMAT_END
 95
       16
302
GRIDFORMAT
  1
GRIDFORMAT_BEGIN
 90
        0
 91
        1
 62
     0
 92
       -2
340
0
 93
        0
 40
1.125
309
GRIDFORMAT_END
 95
       32
302
GRIDFORMAT
  1
GRIDFORMAT_BEGIN
 90
        0
 91
        1
 62
     0
 92
       -2
340
0
 93
        0
 40
1.125
309
GRIDFORMAT_END
309
TABLEFORMAT_END
  1
CELLSTYLE_BEGIN
 90
        2
 91
        1
300
_HEADER
309
CELLSTYLE_END
300
CELLSTYLE
  1
TABLEFORMAT_BEGIN
 90
        5
170
     1
 91
        0
 92
        0
 62
   257
 93
        1
300
CONTENTFORMAT
  1
CONTENTFORMAT_BEGIN
 90
        0
 91
        0
 92
      512
 93
        0
300

 40
0.0
140
1.0
 94
        2
 62
     0
340
11
144
4.5
309
CONTENTFORMAT_END
171
     1
301
MARGIN
  1
CELLMARGIN_BEGIN
 40
1.5
 40
1.5
 40
1.5
 40
1.5
 40
0.18
 40
0.18
309
CELLMARGIN_END
 94
        6
 95
        1
302
GRIDFORMAT
  1
GRIDFORMAT_BEGIN
 90
        0
 91
        1
 62
     0
 92
       -2
340
0
 93
        0
 40
1.125
309
GRIDFORMAT_END
 95
        2
302
GRIDFORMAT
  1
GRIDFORMAT_BEGIN
 90
        0
 91
        1
 62
     0
 92
       -2
340
0
 93
        0
 40
1.125
309
GRIDFORMAT_END
 95
        4
302
GRIDFORMAT
  1
GRIDFORMAT_BEGIN
 90
        0
 91
        1
 62
     0
 92
       -2
340
0
 93
        0
 40
1.125
309
GRIDFORMAT_END
 95
        8
302
GRIDFORMAT
  1
GRIDFORMAT_BEGIN
 90
        0
 91
        1
 62
     0
 92
       -2
340
0
 93
        0
 40
1.125
309
GRIDFORMAT_END
 95
       16
302
GRIDFORMAT
  1
GRIDFORMAT_BEGIN
 90
        0
 91
        1
 62
     0
 92
       -2
340
0
 93
        0
 40
1.125
309
GRIDFORMAT_END
 95
       32
302
GRIDFORMAT
  1
GRIDFORMAT_BEGIN
 90
        0
 91
        1
 62
     0
 92
       -2
340
0
 93
        0
 40
1.125
309
GRIDFORMAT_END
309
TABLEFORMAT_END
  1
CELLSTYLE_BEGIN
 90
        3
 91
        2
300
_DATA
309
CELLSTYLE_END
  0
XRECORD
  5
2A80E
102
{ACAD_REACTORS
330
2A786
102
}
330
2A786
100
AcDbXrecord
280
     1
102
ACAD_ROUNDTRIP_PRE2007_TABLESTYLE
 90
      512
 91
        0
  1

 92
      512
 93
        0
  2

 94
      512
 95
        0
  3

  0
XRECORD
  5
2A7E9
102
{ACAD_REACTORS
330
2A7E8
102
}
330
2A7E8
100
AcDbXrecord
280
     1
102
RTVSPost2010Prop28
280
     1
102
RTVSPost2010PropOp28
 70
     1
102
RTVSPost2010Prop29
280
     1
102
RTVSPost2010PropOp29
 70
     1
102
RTVSPost2010Prop30
280
     0
102
RTVSPost2010PropOp30
 70
     1
102
RTVSPost2010Prop31
280
     0
102
RTVSPost2010PropOp31
 70
     1
102
RTVSPost2010Prop32
280
     0
102
RTVSPost2010PropOp32
 70
     1
102
RTVSPost2010Prop33
280
     0
102
RTVSPost2010PropOp33
 70
     1
102
RTVSPost2010Prop34
280
     0
102
RTVSPost2010PropOp34
 70
     1
102
RTVSPost2010Prop35
280
     0
102
RTVSPost2010PropOp35
 70
     1
102
RTVSPost2010Prop36
280
     0
102
RTVSPost2010PropOp36
 70
     1
102
RTVSPost2010Prop37
 90
       50
102
RTVSPost2010PropOp37
 70
     1
102
RTVSPost2010Prop38
140
0.0
102
RTVSPost2010PropOp38
 70
     1
102
RTVSPost2010Prop39
140
1.0
102
RTVSPost2010PropOp39
 70
     1
102
RTVSPost2010Prop40
 90
        0
102
RTVSPost2010PropOp40
 70
     1
102
RTVSPost2010Prop41ColorIndex
 90
       18
102
RTVSPost2010Prop41ColorRGB
 90
        0
102
RTVSPost2010PropOp41
 70
     1
102
RTVSPost2010Prop42
 90
       50
102
RTVSPost2010PropOp42
 70
     1
102
RTVSPost2010Prop43
 90
        3
102
RTVSPost2010PropOp43
 70
     1
102
RTVSPost2010Prop44ColorIndex
 90
        5
102
RTVSPost2010Prop44ColorRGB
 90
      255
102
RTVSPost2010PropOp44
 70
     1
102
RTVSPost2010Prop45
280
     0
102
RTVSPost2010PropOp45
 70
     1
102
RTVSPost2010Prop46
 90
       50
102
RTVSPost2010PropOp46
 70
     1
102
RTVSPost2010Prop47
 90
       50
102
RTVSPost2010PropOp47
 70
     1
102
RTVSPost2010Prop48
 90
       50
102
RTVSPost2010PropOp48
 70
     1
102
RTVSPost2010Prop49
280
     0
102
RTVSPost2010PropOp49
 70
     1
102
RTVSPost2010Prop50
 90
       50
102
RTVSPost2010PropOp50
 70
     1
102
RTVSPost2010Prop51ColorIndex
 90
      256
102
RTVSPost2010Prop51ColorRGB
 90
-16777216
102
RTVSPost2010PropOp51
 70
     0
102
RTVSPost2010Prop52
140
1.0
102
RTVSPost2010PropOp52
 70
     0
102
RTVSPost2010Prop53
 90
        2
102
RTVSPost2010PropOp53
 70
     1
102
RTVSPost2010Prop54
  1
strokes_ogs.tif
102
RTVSPost2010PropOp54
 70
     1
102
RTVSPost2010Prop55
280
     0
102
RTVSPost2010PropOp55
 70
     1
102
RTVSPost2010Prop56
140
1.0
102
RTVSPost2010PropOp56
 70
     1
102
RTVSPost2010Prop57
140
1.0
102
RTVSPost2010PropOp57
 70
     1
102
RTVSPropertyOp0
 70
     1
102
RTVSPropertyOp1
 70
     1
102
RTVSPropertyOp2
 70
     1
102
RTVSPropertyOp3
 70
     1
102
RTVSPropertyOp4
 70
     1
102
RTVSPropertyOp5
 70
     1
102
RTVSPropertyOp6
 70
     1
102
RTVSPropertyOp7
 70
     1
102
RTVSPropertyOp8
 70
     1
102
RTVSPropertyOp9
 70
     1
102
RTVSPropertyOp10
 70
     1
102
RTVSPropertyOp11
 70
     1
102
RTVSPropertyOp12
 70
     1
102
RTVSPropertyOp13
 70
     1
102
RTVSPropertyOp14
 70
     1
102
RTVSPropertyOp15
 70
     1
102
RTVSPropertyOp16
 70
     1
102
RTVSPropertyOp17
 70
     1
102
RTVSPropertyOp18
 70
     1
102
RTVSPropertyOp19
 70
     1
102
RTVSPropertyOp20
 70
     1
102
RTVSPropertyOp21
 70
     1
102
RTVSPropertyOp22
 70
     1
102
RTVSPropertyOp23
 70
     1
102
RTVSPropertyOp24
 70
     1
102
RTVSPropertyOp25
 70
     1
102
RTVSPropertyOp26
 70
     1
102
RTVSPropertyOp27
 70
     1
102
RTVSPropertyOp28
 70
     1
102
RTVSPropertyOp29
 70
     1
102
RTVSPropertyOp30
 70
     1
102
RTVSPropertyOp31
 70
     1
102
RTVSPropertyOp32
 70
     1
102
RTVSPropertyOp33
 70
     1
102
RTVSPropertyOp34
 70
     1
102
RTVSPropertyOp35
 70
     1
102
RTVSPropertyOp36
 70
     1
102
RTVSPropertyOp37
 70
     1
102
RTVSPropertyOp38
 70
     1
102
RTVSPropertyOp39
 70
     1
102
RTVSPropertyOp40
 70
     1
102
RTVSPropertyOp41
 70
     1
102
RTVSPropertyOp42
 70
     1
102
RTVSPropertyOp43
 70
     1
102
RTVSPropertyOp44
 70
     1
102
RTVSPropertyOp45
 70
     1
102
RTVSPropertyOp46
 70
     1
102
RTVSPropertyOp47
 70
     1
102
RTVSPropertyOp48
 70
     1
102
RTVSPropertyOp49
 70
     1
102
RTVSPropertyOp50
 70
     1
102
RTVSPropertyOp51
 70
     0
102
RTVSPropertyOp52
 70
     0
102
RTVSPropertyOp53
 70
     1
102
RTVSPropertyOp54
 70
     1
102
RTVSPropertyOp55
 70
     1
102
RTVSPropertyOp56
 70
     1
102
RTVSPropertyOp57
 70
     1
102
RTVSPropertyOp58
 70
     1
102
RTVSPropertyOp59
 70
     1
102
RTVSPropertyOp60
 70
     1
102
RTVSPropertyOp61
 70
     1
102
RTVSPropertyOp62
 70
     1
  0
XRECORD
  5
2A7E7
102
{ACAD_REACTORS
330
2A7E6
102
}
330
2A7E6
100
AcDbXrecord
280
     1
102
RTVSPost2010Prop28
280
     0
102
RTVSPost2010PropOp28
 70
     1
102
RTVSPost2010Prop29
280
     1
102
RTVSPost2010PropOp29
 70
     1
102
RTVSPost2010Prop30
280
     1
102
RTVSPost2010PropOp30
 70
     1
102
RTVSPost2010Prop31
280
     0
102
RTVSPost2010PropOp31
 70
     1
102
RTVSPost2010Prop32
280
     0
102
RTVSPost2010PropOp32
 70
     1
102
RTVSPost2010Prop33
280
     0
102
RTVSPost2010PropOp33
 70
     1
102
RTVSPost2010Prop34
280
     0
102
RTVSPost2010PropOp34
 70
     1
102
RTVSPost2010Prop35
280
     0
102
RTVSPost2010PropOp35
 70
     1
102
RTVSPost2010Prop36
280
     0
102
RTVSPost2010PropOp36
 70
     1
102
RTVSPost2010Prop37
 90
       50
102
RTVSPost2010PropOp37
 70
     1
102
RTVSPost2010Prop38
140
0.0
102
RTVSPost2010PropOp38
 70
     1
102
RTVSPost2010Prop39
140
1.0
102
RTVSPost2010PropOp39
 70
     1
102
RTVSPost2010Prop40
 90
        0
102
RTVSPost2010PropOp40
 70
     1
102
RTVSPost2010Prop41ColorIndex
 90
       18
102
RTVSPost2010Prop41ColorRGB
 90
        0
102
RTVSPost2010PropOp41
 70
     1
102
RTVSPost2010Prop42
 90
       50
102
RTVSPost2010PropOp42
 70
     1
102
RTVSPost2010Prop43
 90
        3
102
RTVSPost2010PropOp43
 70
     1
102
RTVSPost2010Prop44ColorIndex
 90
        5
102
RTVSPost2010Prop44ColorRGB
 90
      255
102
RTVSPost2010PropOp44
 70
     1
102
RTVSPost2010Prop45
280
     0
102
RTVSPost2010PropOp45
 70
     1
102
RTVSPost2010Prop46
 90
       50
102
RTVSPost2010PropOp46
 70
     1
102
RTVSPost2010Prop47
 90
       50
102
RTVSPost2010PropOp47
 70
     1
102
RTVSPost2010Prop48
 90
       50
102
RTVSPost2010PropOp48
 70
     1
102
RTVSPost2010Prop49
280
     0
102
RTVSPost2010PropOp49
 70
     1
102
RTVSPost2010Prop50
 90
       50
102
RTVSPost2010PropOp50
 70
     1
102
RTVSPost2010Prop51ColorIndex
 90
      256
102
RTVSPost2010Prop51ColorRGB
 90
-16777216
102
RTVSPost2010PropOp51
 70
     0
102
RTVSPost2010Prop52
140
1.0
102
RTVSPost2010PropOp52
 70
     0
102
RTVSPost2010Prop53
 90
        2
102
RTVSPost2010PropOp53
 70
     1
102
RTVSPost2010Prop54
  1
strokes_ogs.tif
102
RTVSPost2010PropOp54
 70
     1
102
RTVSPost2010Prop55
280
     0
102
RTVSPost2010PropOp55
 70
     1
102
RTVSPost2010Prop56
140
1.0
102
RTVSPost2010PropOp56
 70
     1
102
RTVSPost2010Prop57
140
1.0
102
RTVSPost2010PropOp57
 70
     1
102
RTVSPropertyOp0
 70
     1
102
RTVSPropertyOp1
 70
     1
102
RTVSPropertyOp2
 70
     1
102
RTVSPropertyOp3
 70
     1
102
RTVSPropertyOp4
 70
     1
102
RTVSPropertyOp5
 70
     1
102
RTVSPropertyOp6
 70
     1
102
RTVSPropertyOp7
 70
     1
102
RTVSPropertyOp8
 70
     1
102
RTVSPropertyOp9
 70
     1
102
RTVSPropertyOp10
 70
     1
102
RTVSPropertyOp11
 70
     1
102
RTVSPropertyOp12
 70
     1
102
RTVSPropertyOp13
 70
     1
102
RTVSPropertyOp14
 70
     1
102
RTVSPropertyOp15
 70
     1
102
RTVSPropertyOp16
 70
     1
102
RTVSPropertyOp17
 70
     1
102
RTVSPropertyOp18
 70
     1
102
RTVSPropertyOp19
 70
     1
102
RTVSPropertyOp20
 70
     1
102
RTVSPropertyOp21
 70
     1
102
RTVSPropertyOp22
 70
     1
102
RTVSPropertyOp23
 70
     1
102
RTVSPropertyOp24
 70
     1
102
RTVSPropertyOp25
 70
     1
102
RTVSPropertyOp26
 70
     1
102
RTVSPropertyOp27
 70
     1
102
RTVSPropertyOp28
 70
     1
102
RTVSPropertyOp29
 70
     1
102
RTVSPropertyOp30
 70
     1
102
RTVSPropertyOp31
 70
     1
102
RTVSPropertyOp32
 70
     1
102
RTVSPropertyOp33
 70
     1
102
RTVSPropertyOp34
 70
     1
102
RTVSPropertyOp35
 70
     1
102
RTVSPropertyOp36
 70
     1
102
RTVSPropertyOp37
 70
     1
102
RTVSPropertyOp38
 70
     1
102
RTVSPropertyOp39
 70
     1
102
RTVSPropertyOp40
 70
     1
102
RTVSPropertyOp41
 70
     1
102
RTVSPropertyOp42
 70
     1
102
RTVSPropertyOp43
 70
     1
102
RTVSPropertyOp44
 70
     1
102
RTVSPropertyOp45
 70
     1
102
RTVSPropertyOp46
 70
     1
102
RTVSPropertyOp47
 70
     1
102
RTVSPropertyOp48
 70
     1
102
RTVSPropertyOp49
 70
     1
102
RTVSPropertyOp50
 70
     1
102
RTVSPropertyOp51
 70
     0
102
RTVSPropertyOp52
 70
     0
102
RTVSPropertyOp53
 70
     1
102
RTVSPropertyOp54
 70
     1
102
RTVSPropertyOp55
 70
     1
102
RTVSPropertyOp56
 70
     1
102
RTVSPropertyOp57
 70
     1
102
RTVSPropertyOp58
 70
     1
102
RTVSPropertyOp59
 70
     1
102
RTVSPropertyOp60
 70
     1
102
RTVSPropertyOp61
 70
     1
102
RTVSPropertyOp62
 70
     1
  0
XRECORD
  5
2A7F5
102
{ACAD_REACTORS
330
2A7F4
102
}
330
2A7F4
100
AcDbXrecord
280
     1
102
RTVSPost2010Prop28
280
     0
102
RTVSPost2010PropOp28
 70
     1
102
RTVSPost2010Prop29
280
     1
102
RTVSPost2010PropOp29
 70
     1
102
RTVSPost2010Prop30
280
     1
102
RTVSPost2010PropOp30
 70
     1
102
RTVSPost2010Prop31
280
     0
102
RTVSPost2010PropOp31
 70
     1
102
RTVSPost2010Prop32
280
     0
102
RTVSPost2010PropOp32
 70
     1
102
RTVSPost2010Prop33
280
     0
102
RTVSPost2010PropOp33
 70
     1
102
RTVSPost2010Prop34
280
     0
102
RTVSPost2010PropOp34
 70
     1
102
RTVSPost2010Prop35
280
     0
102
RTVSPost2010PropOp35
 70
     1
102
RTVSPost2010Prop36
280
     0
102
RTVSPost2010PropOp36
 70
     1
102
RTVSPost2010Prop37
 90
       50
102
RTVSPost2010PropOp37
 70
     1
102
RTVSPost2010Prop38
140
0.0
102
RTVSPost2010PropOp38
 70
     1
102
RTVSPost2010Prop39
140
1.0
102
RTVSPost2010PropOp39
 70
     1
102
RTVSPost2010Prop40
 90
        0
102
RTVSPost2010PropOp40
 70
     1
102
RTVSPost2010Prop41ColorIndex
 90
       18
102
RTVSPost2010Prop41ColorRGB
 90
        0
102
RTVSPost2010PropOp41
 70
     1
102
RTVSPost2010Prop42
 90
       50
102
RTVSPost2010PropOp42
 70
     1
102
RTVSPost2010Prop43
 90
        3
102
RTVSPost2010PropOp43
 70
     1
102
RTVSPost2010Prop44ColorIndex
 90
        5
102
RTVSPost2010Prop44ColorRGB
 90
      255
102
RTVSPost2010PropOp44
 70
     1
102
RTVSPost2010Prop45
280
     0
102
RTVSPost2010PropOp45
 70
     1
102
RTVSPost2010Prop46
 90
       50
102
RTVSPost2010PropOp46
 70
     1
102
RTVSPost2010Prop47
 90
       50
102
RTVSPost2010PropOp47
 70
     1
102
RTVSPost2010Prop48
 90
       50
102
RTVSPost2010PropOp48
 70
     1
102
RTVSPost2010Prop49
280
     0
102
RTVSPost2010PropOp49
 70
     1
102
RTVSPost2010Prop50
 90
       50
102
RTVSPost2010PropOp50
 70
     1
102
RTVSPost2010Prop51ColorIndex
 90
      256
102
RTVSPost2010Prop51ColorRGB
 90
-16777216
102
RTVSPost2010PropOp51
 70
     0
102
RTVSPost2010Prop52
140
1.0
102
RTVSPost2010PropOp52
 70
     0
102
RTVSPost2010Prop53
 90
        2
102
RTVSPost2010PropOp53
 70
     1
102
RTVSPost2010Prop54
  1
strokes_ogs.tif
102
RTVSPost2010PropOp54
 70
     1
102
RTVSPost2010Prop55
280
     0
102
RTVSPost2010PropOp55
 70
     1
102
RTVSPost2010Prop56
140
1.0
102
RTVSPost2010PropOp56
 70
     1
102
RTVSPost2010Prop57
140
1.0
102
RTVSPost2010PropOp57
 70
     1
102
RTVSPropertyOp0
 70
     1
102
RTVSPropertyOp1
 70
     1
102
RTVSPropertyOp2
 70
     1
102
RTVSPropertyOp3
 70
     1
102
RTVSPropertyOp4
 70
     1
102
RTVSPropertyOp5
 70
     1
102
RTVSPropertyOp6
 70
     1
102
RTVSPropertyOp7
 70
     1
102
RTVSPropertyOp8
 70
     1
102
RTVSPropertyOp9
 70
     1
102
RTVSPropertyOp10
 70
     1
102
RTVSPropertyOp11
 70
     1
102
RTVSPropertyOp12
 70
     1
102
RTVSPropertyOp13
 70
     1
102
RTVSPropertyOp14
 70
     1
102
RTVSPropertyOp15
 70
     1
102
RTVSPropertyOp16
 70
     1
102
RTVSPropertyOp17
 70
     1
102
RTVSPropertyOp18
 70
     1
102
RTVSPropertyOp19
 70
     1
102
RTVSPropertyOp20
 70
     1
102
RTVSPropertyOp21
 70
     1
102
RTVSPropertyOp22
 70
     1
102
RTVSPropertyOp23
 70
     1
102
RTVSPropertyOp24
 70
     1
102
RTVSPropertyOp25
 70
     1
102
RTVSPropertyOp26
 70
     1
102
RTVSPropertyOp27
 70
     1
102
RTVSPropertyOp28
 70
     1
102
RTVSPropertyOp29
 70
     1
102
RTVSPropertyOp30
 70
     1
102
RTVSPropertyOp31
 70
     1
102
RTVSPropertyOp32
 70
     1
102
RTVSPropertyOp33
 70
     1
102
RTVSPropertyOp34
 70
     1
102
RTVSPropertyOp35
 70
     1
102
RTVSPropertyOp36
 70
     1
102
RTVSPropertyOp37
 70
     1
102
RTVSPropertyOp38
 70
     1
102
RTVSPropertyOp39
 70
     1
102
RTVSPropertyOp40
 70
     1
102
RTVSPropertyOp41
 70
     1
102
RTVSPropertyOp42
 70
     1
102
RTVSPropertyOp43
 70
     1
102
RTVSPropertyOp44
 70
     1
102
RTVSPropertyOp45
 70
     1
102
RTVSPropertyOp46
 70
     1
102
RTVSPropertyOp47
 70
     1
102
RTVSPropertyOp48
 70
     1
102
RTVSPropertyOp49
 70
     1
102
RTVSPropertyOp50
 70
     1
102
RTVSPropertyOp51
 70
     0
102
RTVSPropertyOp52
 70
     0
102
RTVSPropertyOp53
 70
     1
102
RTVSPropertyOp54
 70
     1
102
RTVSPropertyOp55
 70
     1
102
RTVSPropertyOp56
 70
     1
102
RTVSPropertyOp57
 70
     1
102
RTVSPropertyOp58
 70
     1
102
RTVSPropertyOp59
 70
     1
102
RTVSPropertyOp60
 70
     1
102
RTVSPropertyOp61
 70
     1
102
RTVSPropertyOp62
 70
     1
  0
XRECORD
  5
2A7FD
102
{ACAD_REACTORS
330
2A7FC
102
}
330
2A7FC
100
AcDbXrecord
280
     1
102
RTVSPost2010Prop28
280
     0
102
RTVSPost2010PropOp28
 70
     1
102
RTVSPost2010Prop29
280
     1
102
RTVSPost2010PropOp29
 70
     1
102
RTVSPost2010Prop30
280
     1
102
RTVSPost2010PropOp30
 70
     1
102
RTVSPost2010Prop31
280
     0
102
RTVSPost2010PropOp31
 70
     1
102
RTVSPost2010Prop32
280
     0
102
RTVSPost2010PropOp32
 70
     1
102
RTVSPost2010Prop33
280
     0
102
RTVSPost2010PropOp33
 70
     1
102
RTVSPost2010Prop34
280
     0
102
RTVSPost2010PropOp34
 70
     1
102
RTVSPost2010Prop35
280
     0
102
RTVSPost2010PropOp35
 70
     1
102
RTVSPost2010Prop36
280
     0
102
RTVSPost2010PropOp36
 70
     1
102
RTVSPost2010Prop37
 90
       50
102
RTVSPost2010PropOp37
 70
     1
102
RTVSPost2010Prop38
140
0.0
102
RTVSPost2010PropOp38
 70
     1
102
RTVSPost2010Prop39
140
1.0
102
RTVSPost2010PropOp39
 70
     1
102
RTVSPost2010Prop40
 90
        0
102
RTVSPost2010PropOp40
 70
     1
102
RTVSPost2010Prop41ColorIndex
 90
       18
102
RTVSPost2010Prop41ColorRGB
 90
        0
102
RTVSPost2010PropOp41
 70
     1
102
RTVSPost2010Prop42
 90
       50
102
RTVSPost2010PropOp42
 70
     1
102
RTVSPost2010Prop43
 90
        3
102
RTVSPost2010PropOp43
 70
     1
102
RTVSPost2010Prop44ColorIndex
 90
        5
102
RTVSPost2010Prop44ColorRGB
 90
      255
102
RTVSPost2010PropOp44
 70
     1
102
RTVSPost2010Prop45
280
     0
102
RTVSPost2010PropOp45
 70
     1
102
RTVSPost2010Prop46
 90
       50
102
RTVSPost2010PropOp46
 70
     1
102
RTVSPost2010Prop47
 90
       50
102
RTVSPost2010PropOp47
 70
     1
102
RTVSPost2010Prop48
 90
       50
102
RTVSPost2010PropOp48
 70
     1
102
RTVSPost2010Prop49
280
     0
102
RTVSPost2010PropOp49
 70
     1
102
RTVSPost2010Prop50
 90
       50
102
RTVSPost2010PropOp50
 70
     1
102
RTVSPost2010Prop51ColorIndex
 90
      256
102
RTVSPost2010Prop51ColorRGB
 90
-16777216
102
RTVSPost2010PropOp51
 70
     0
102
RTVSPost2010Prop52
140
1.0
102
RTVSPost2010PropOp52
 70
     0
102
RTVSPost2010Prop53
 90
        2
102
RTVSPost2010PropOp53
 70
     1
102
RTVSPost2010Prop54
  1
strokes_ogs.tif
102
RTVSPost2010PropOp54
 70
     1
102
RTVSPost2010Prop55
280
     0
102
RTVSPost2010PropOp55
 70
     1
102
RTVSPost2010Prop56
140
1.0
102
RTVSPost2010PropOp56
 70
     1
102
RTVSPost2010Prop57
140
1.0
102
RTVSPost2010PropOp57
 70
     1
102
RTVSPropertyOp0
 70
     1
102
RTVSPropertyOp1
 70
     1
102
RTVSPropertyOp2
 70
     1
102
RTVSPropertyOp3
 70
     1
102
RTVSPropertyOp4
 70
     1
102
RTVSPropertyOp5
 70
     1
102
RTVSPropertyOp6
 70
     1
102
RTVSPropertyOp7
 70
     1
102
RTVSPropertyOp8
 70
     1
102
RTVSPropertyOp9
 70
     1
102
RTVSPropertyOp10
 70
     1
102
RTVSPropertyOp11
 70
     1
102
RTVSPropertyOp12
 70
     1
102
RTVSPropertyOp13
 70
     1
102
RTVSPropertyOp14
 70
     1
102
RTVSPropertyOp15
 70
     1
102
RTVSPropertyOp16
 70
     1
102
RTVSPropertyOp17
 70
     1
102
RTVSPropertyOp18
 70
     1
102
RTVSPropertyOp19
 70
     1
102
RTVSPropertyOp20
 70
     1
102
RTVSPropertyOp21
 70
     1
102
RTVSPropertyOp22
 70
     1
102
RTVSPropertyOp23
 70
     1
102
RTVSPropertyOp24
 70
     1
102
RTVSPropertyOp25
 70
     1
102
RTVSPropertyOp26
 70
     1
102
RTVSPropertyOp27
 70
     1
102
RTVSPropertyOp28
 70
     1
102
RTVSPropertyOp29
 70
     1
102
RTVSPropertyOp30
 70
     1
102
RTVSPropertyOp31
 70
     1
102
RTVSPropertyOp32
 70
     1
102
RTVSPropertyOp33
 70
     1
102
RTVSPropertyOp34
 70
     1
102
RTVSPropertyOp35
 70
     1
102
RTVSPropertyOp36
 70
     1
102
RTVSPropertyOp37
 70
     1
102
RTVSPropertyOp38
 70
     1
102
RTVSPropertyOp39
 70
     1
102
RTVSPropertyOp40
 70
     1
102
RTVSPropertyOp41
 70
     1
102
RTVSPropertyOp42
 70
     1
102
RTVSPropertyOp43
 70
     1
102
RTVSPropertyOp44
 70
     1
102
RTVSPropertyOp45
 70
     1
102
RTVSPropertyOp46
 70
     1
102
RTVSPropertyOp47
 70
     1
102
RTVSPropertyOp48
 70
     1
102
RTVSPropertyOp49
 70
     1
102
RTVSPropertyOp50
 70
     1
102
RTVSPropertyOp51
 70
     0
102
RTVSPropertyOp52
 70
     0
102
RTVSPropertyOp53
 70
     1
102
RTVSPropertyOp54
 70
     1
102
RTVSPropertyOp55
 70
     1
102
RTVSPropertyOp56
 70
     1
102
RTVSPropertyOp57
 70
     1
102
RTVSPropertyOp58
 70
     1
102
RTVSPropertyOp59
 70
     1
102
RTVSPropertyOp60
 70
     1
102
RTVSPropertyOp61
 70
     1
102
RTVSPropertyOp62
 70
     1
  0
XRECORD
  5
2A7EF
102
{ACAD_REACTORS
330
2A7EE
102
}
330
2A7EE
100
AcDbXrecord
280
     1
102
RTVSPost2010Prop28
280
     0
102
RTVSPost2010PropOp28
 70
     1
102
RTVSPost2010Prop29
280
     1
102
RTVSPost2010PropOp29
 70
     1
102
RTVSPost2010Prop30
280
     1
102
RTVSPost2010PropOp30
 70
     1
102
RTVSPost2010Prop31
280
     0
102
RTVSPost2010PropOp31
 70
     1
102
RTVSPost2010Prop32
280
     0
102
RTVSPost2010PropOp32
 70
     1
102
RTVSPost2010Prop33
280
     0
102
RTVSPost2010PropOp33
 70
     1
102
RTVSPost2010Prop34
280
     0
102
RTVSPost2010PropOp34
 70
     1
102
RTVSPost2010Prop35
280
     0
102
RTVSPost2010PropOp35
 70
     1
102
RTVSPost2010Prop36
280
     0
102
RTVSPost2010PropOp36
 70
     1
102
RTVSPost2010Prop37
 90
       50
102
RTVSPost2010PropOp37
 70
     1
102
RTVSPost2010Prop38
140
0.0
102
RTVSPost2010PropOp38
 70
     1
102
RTVSPost2010Prop39
140
1.0
102
RTVSPost2010PropOp39
 70
     1
102
RTVSPost2010Prop40
 90
        0
102
RTVSPost2010PropOp40
 70
     1
102
RTVSPost2010Prop41ColorIndex
 90
       18
102
RTVSPost2010Prop41ColorRGB
 90
        0
102
RTVSPost2010PropOp41
 70
     1
102
RTVSPost2010Prop42
 90
       50
102
RTVSPost2010PropOp42
 70
     1
102
RTVSPost2010Prop43
 90
        3
102
RTVSPost2010PropOp43
 70
     1
102
RTVSPost2010Prop44ColorIndex
 90
        5
102
RTVSPost2010Prop44ColorRGB
 90
      255
102
RTVSPost2010PropOp44
 70
     1
102
RTVSPost2010Prop45
280
     0
102
RTVSPost2010PropOp45
 70
     1
102
RTVSPost2010Prop46
 90
       50
102
RTVSPost2010PropOp46
 70
     1
102
RTVSPost2010Prop47
 90
       50
102
RTVSPost2010PropOp47
 70
     1
102
RTVSPost2010Prop48
 90
       50
102
RTVSPost2010PropOp48
 70
     1
102
RTVSPost2010Prop49
280
     0
102
RTVSPost2010PropOp49
 70
     1
102
RTVSPost2010Prop50
 90
       50
102
RTVSPost2010PropOp50
 70
     1
102
RTVSPost2010Prop51ColorIndex
 90
      256
102
RTVSPost2010Prop51ColorRGB
 90
-16777216
102
RTVSPost2010PropOp51
 70
     0
102
RTVSPost2010Prop52
140
1.0
102
RTVSPost2010PropOp52
 70
     0
102
RTVSPost2010Prop53
 90
        2
102
RTVSPost2010PropOp53
 70
     1
102
RTVSPost2010Prop54
  1
strokes_ogs.tif
102
RTVSPost2010PropOp54
 70
     1
102
RTVSPost2010Prop55
280
     0
102
RTVSPost2010PropOp55
 70
     1
102
RTVSPost2010Prop56
140
1.0
102
RTVSPost2010PropOp56
 70
     1
102
RTVSPost2010Prop57
140
1.0
102
RTVSPost2010PropOp57
 70
     1
102
RTVSPropertyOp0
 70
     1
102
RTVSPropertyOp1
 70
     1
102
RTVSPropertyOp2
 70
     1
102
RTVSPropertyOp3
 70
     1
102
RTVSPropertyOp4
 70
     1
102
RTVSPropertyOp5
 70
     1
102
RTVSPropertyOp6
 70
     1
102
RTVSPropertyOp7
 70
     1
102
RTVSPropertyOp8
 70
     1
102
RTVSPropertyOp9
 70
     1
102
RTVSPropertyOp10
 70
     1
102
RTVSPropertyOp11
 70
     1
102
RTVSPropertyOp12
 70
     1
102
RTVSPropertyOp13
 70
     1
102
RTVSPropertyOp14
 70
     1
102
RTVSPropertyOp15
 70
     1
102
RTVSPropertyOp16
 70
     1
102
RTVSPropertyOp17
 70
     1
102
RTVSPropertyOp18
 70
     1
102
RTVSPropertyOp19
 70
     1
102
RTVSPropertyOp20
 70
     1
102
RTVSPropertyOp21
 70
     1
102
RTVSPropertyOp22
 70
     1
102
RTVSPropertyOp23
 70
     1
102
RTVSPropertyOp24
 70
     1
102
RTVSPropertyOp25
 70
     1
102
RTVSPropertyOp26
 70
     1
102
RTVSPropertyOp27
 70
     1
102
RTVSPropertyOp28
 70
     1
102
RTVSPropertyOp29
 70
     1
102
RTVSPropertyOp30
 70
     1
102
RTVSPropertyOp31
 70
     1
102
RTVSPropertyOp32
 70
     1
102
RTVSPropertyOp33
 70
     1
102
RTVSPropertyOp34
 70
     1
102
RTVSPropertyOp35
 70
     1
102
RTVSPropertyOp36
 70
     1
102
RTVSPropertyOp37
 70
     1
102
RTVSPropertyOp38
 70
     1
102
RTVSPropertyOp39
 70
     1
102
RTVSPropertyOp40
 70
     1
102
RTVSPropertyOp41
 70
     1
102
RTVSPropertyOp42
 70
     1
102
RTVSPropertyOp43
 70
     1
102
RTVSPropertyOp44
 70
     1
102
RTVSPropertyOp45
 70
     1
102
RTVSPropertyOp46
 70
     1
102
RTVSPropertyOp47
 70
     1
102
RTVSPropertyOp48
 70
     1
102
RTVSPropertyOp49
 70
     1
102
RTVSPropertyOp50
 70
     1
102
RTVSPropertyOp51
 70
     0
102
RTVSPropertyOp52
 70
     0
102
RTVSPropertyOp53
 70
     1
102
RTVSPropertyOp54
 70
     1
102
RTVSPropertyOp55
 70
     1
102
RTVSPropertyOp56
 70
     1
102
RTVSPropertyOp57
 70
     1
102
RTVSPropertyOp58
 70
     1
102
RTVSPropertyOp59
 70
     1
102
RTVSPropertyOp60
 70
     1
102
RTVSPropertyOp61
 70
     1
102
RTVSPropertyOp62
 70
     1
  0
XRECORD
  5
2A7F3
102
{ACAD_REACTORS
330
2A7F2
102
}
330
2A7F2
100
AcDbXrecord
280
     1
102
RTVSPost2010Prop28
280
     0
102
RTVSPost2010PropOp28
 70
     1
102
RTVSPost2010Prop29
280
     1
102
RTVSPost2010PropOp29
 70
     1
102
RTVSPost2010Prop30
280
     1
102
RTVSPost2010PropOp30
 70
     1
102
RTVSPost2010Prop31
280
     0
102
RTVSPost2010PropOp31
 70
     1
102
RTVSPost2010Prop32
280
     0
102
RTVSPost2010PropOp32
 70
     1
102
RTVSPost2010Prop33
280
     0
102
RTVSPost2010PropOp33
 70
     1
102
RTVSPost2010Prop34
280
     0
102
RTVSPost2010PropOp34
 70
     1
102
RTVSPost2010Prop35
280
     0
102
RTVSPost2010PropOp35
 70
     1
102
RTVSPost2010Prop36
280
     0
102
RTVSPost2010PropOp36
 70
     1
102
RTVSPost2010Prop37
 90
       50
102
RTVSPost2010PropOp37
 70
     1
102
RTVSPost2010Prop38
140
0.0
102
RTVSPost2010PropOp38
 70
     1
102
RTVSPost2010Prop39
140
1.0
102
RTVSPost2010PropOp39
 70
     1
102
RTVSPost2010Prop40
 90
        0
102
RTVSPost2010PropOp40
 70
     1
102
RTVSPost2010Prop41ColorIndex
 90
       18
102
RTVSPost2010Prop41ColorRGB
 90
        0
102
RTVSPost2010PropOp41
 70
     1
102
RTVSPost2010Prop42
 90
       50
102
RTVSPost2010PropOp42
 70
     1
102
RTVSPost2010Prop43
 90
        3
102
RTVSPost2010PropOp43
 70
     1
102
RTVSPost2010Prop44ColorIndex
 90
        5
102
RTVSPost2010Prop44ColorRGB
 90
      255
102
RTVSPost2010PropOp44
 70
     1
102
RTVSPost2010Prop45
280
     0
102
RTVSPost2010PropOp45
 70
     1
102
RTVSPost2010Prop46
 90
       50
102
RTVSPost2010PropOp46
 70
     1
102
RTVSPost2010Prop47
 90
       50
102
RTVSPost2010PropOp47
 70
     1
102
RTVSPost2010Prop48
 90
       50
102
RTVSPost2010PropOp48
 70
     1
102
RTVSPost2010Prop49
280
     0
102
RTVSPost2010PropOp49
 70
     1
102
RTVSPost2010Prop50
 90
       50
102
RTVSPost2010PropOp50
 70
     1
102
RTVSPost2010Prop51ColorIndex
 90
      256
102
RTVSPost2010Prop51ColorRGB
 90
-16777216
102
RTVSPost2010PropOp51
 70
     0
102
RTVSPost2010Prop52
140
1.0
102
RTVSPost2010PropOp52
 70
     0
102
RTVSPost2010Prop53
 90
        2
102
RTVSPost2010PropOp53
 70
     1
102
RTVSPost2010Prop54
  1
strokes_ogs.tif
102
RTVSPost2010PropOp54
 70
     1
102
RTVSPost2010Prop55
280
     0
102
RTVSPost2010PropOp55
 70
     1
102
RTVSPost2010Prop56
140
1.0
102
RTVSPost2010PropOp56
 70
     1
102
RTVSPost2010Prop57
140
1.0
102
RTVSPost2010PropOp57
 70
     1
102
RTVSPropertyOp0
 70
     1
102
RTVSPropertyOp1
 70
     1
102
RTVSPropertyOp2
 70
     1
102
RTVSPropertyOp3
 70
     1
102
RTVSPropertyOp4
 70
     1
102
RTVSPropertyOp5
 70
     1
102
RTVSPropertyOp6
 70
     1
102
RTVSPropertyOp7
 70
     1
102
RTVSPropertyOp8
 70
     1
102
RTVSPropertyOp9
 70
     1
102
RTVSPropertyOp10
 70
     1
102
RTVSPropertyOp11
 70
     1
102
RTVSPropertyOp12
 70
     1
102
RTVSPropertyOp13
 70
     1
102
RTVSPropertyOp14
 70
     1
102
RTVSPropertyOp15
 70
     1
102
RTVSPropertyOp16
 70
     1
102
RTVSPropertyOp17
 70
     1
102
RTVSPropertyOp18
 70
     1
102
RTVSPropertyOp19
 70
     1
102
RTVSPropertyOp20
 70
     1
102
RTVSPropertyOp21
 70
     1
102
RTVSPropertyOp22
 70
     1
102
RTVSPropertyOp23
 70
     1
102
RTVSPropertyOp24
 70
     1
102
RTVSPropertyOp25
 70
     1
102
RTVSPropertyOp26
 70
     1
102
RTVSPropertyOp27
 70
     1
102
RTVSPropertyOp28
 70
     1
102
RTVSPropertyOp29
 70
     1
102
RTVSPropertyOp30
 70
     1
102
RTVSPropertyOp31
 70
     1
102
RTVSPropertyOp32
 70
     1
102
RTVSPropertyOp33
 70
     1
102
RTVSPropertyOp34
 70
     1
102
RTVSPropertyOp35
 70
     1
102
RTVSPropertyOp36
 70
     1
102
RTVSPropertyOp37
 70
     1
102
RTVSPropertyOp38
 70
     1
102
RTVSPropertyOp39
 70
     1
102
RTVSPropertyOp40
 70
     1
102
RTVSPropertyOp41
 70
     1
102
RTVSPropertyOp42
 70
     1
102
RTVSPropertyOp43
 70
     1
102
RTVSPropertyOp44
 70
     1
102
RTVSPropertyOp45
 70
     1
102
RTVSPropertyOp46
 70
     1
102
RTVSPropertyOp47
 70
     1
102
RTVSPropertyOp48
 70
     1
102
RTVSPropertyOp49
 70
     1
102
RTVSPropertyOp50
 70
     1
102
RTVSPropertyOp51
 70
     0
102
RTVSPropertyOp52
 70
     0
102
RTVSPropertyOp53
 70
     1
102
RTVSPropertyOp54
 70
     1
102
RTVSPropertyOp55
 70
     1
102
RTVSPropertyOp56
 70
     1
102
RTVSPropertyOp57
 70
     1
102
RTVSPropertyOp58
 70
     1
102
RTVSPropertyOp59
 70
     1
102
RTVSPropertyOp60
 70
     1
102
RTVSPropertyOp61
 70
     1
102
RTVSPropertyOp62
 70
     1
  0
XRECORD
  5
2A80D
102
{ACAD_REACTORS
330
2A80C
102
}
330
2A80C
100
AcDbXrecord
280
     1
102
RTVSPost2010Prop28
280
     0
102
RTVSPost2010PropOp28
 70
     1
102
RTVSPost2010Prop29
280
     1
102
RTVSPost2010PropOp29
 70
     1
102
RTVSPost2010Prop30
280
     1
102
RTVSPost2010PropOp30
 70
     1
102
RTVSPost2010Prop31
280
     0
102
RTVSPost2010PropOp31
 70
     1
102
RTVSPost2010Prop32
280
     0
102
RTVSPost2010PropOp32
 70
     1
102
RTVSPost2010Prop33
280
     0
102
RTVSPost2010PropOp33
 70
     1
102
RTVSPost2010Prop34
280
     0
102
RTVSPost2010PropOp34
 70
     1
102
RTVSPost2010Prop35
280
     0
102
RTVSPost2010PropOp35
 70
     1
102
RTVSPost2010Prop36
280
     0
102
RTVSPost2010PropOp36
 70
     1
102
RTVSPost2010Prop37
 90
       50
102
RTVSPost2010PropOp37
 70
     0
102
RTVSPost2010Prop38
140
0.0
102
RTVSPost2010PropOp38
 70
     0
102
RTVSPost2010Prop39
140
1.0
102
RTVSPost2010PropOp39
 70
     0
102
RTVSPost2010Prop40
 90
        0
102
RTVSPost2010PropOp40
 70
     0
102
RTVSPost2010Prop41ColorIndex
 90
       18
102
RTVSPost2010Prop41ColorRGB
 90
        0
102
RTVSPost2010PropOp41
 70
     0
102
RTVSPost2010Prop42
 90
       50
102
RTVSPost2010PropOp42
 70
     0
102
RTVSPost2010Prop43
 90
        3
102
RTVSPost2010PropOp43
 70
     0
102
RTVSPost2010Prop44ColorIndex
 90
        5
102
RTVSPost2010Prop44ColorRGB
 90
      255
102
RTVSPost2010PropOp44
 70
     0
102
RTVSPost2010Prop45
280
     0
102
RTVSPost2010PropOp45
 70
     1
102
RTVSPost2010Prop46
 90
       50
102
RTVSPost2010PropOp46
 70
     0
102
RTVSPost2010Prop47
 90
       50
102
RTVSPost2010PropOp47
 70
     0
102
RTVSPost2010Prop48
 90
       50
102
RTVSPost2010PropOp48
 70
     0
102
RTVSPost2010Prop49
280
     0
102
RTVSPost2010PropOp49
 70
     1
102
RTVSPost2010Prop50
 90
       50
102
RTVSPost2010PropOp50
 70
     0
102
RTVSPost2010Prop51ColorIndex
 90
      256
102
RTVSPost2010Prop51ColorRGB
 90
-16777216
102
RTVSPost2010PropOp51
 70
     0
102
RTVSPost2010Prop52
140
1.0
102
RTVSPost2010PropOp52
 70
     0
102
RTVSPost2010Prop53
 90
        2
102
RTVSPost2010PropOp53
 70
     0
102
RTVSPost2010Prop54
  1
strokes_ogs.tif
102
RTVSPost2010PropOp54
 70
     0
102
RTVSPost2010Prop55
280
     0
102
RTVSPost2010PropOp55
 70
     1
102
RTVSPost2010Prop56
140
1.0
102
RTVSPost2010PropOp56
 70
     0
102
RTVSPost2010Prop57
140
1.0
102
RTVSPost2010PropOp57
 70
     0
102
RTVSPropertyOp0
 70
     0
102
RTVSPropertyOp1
 70
     0
102
RTVSPropertyOp2
 70
     0
102
RTVSPropertyOp3
 70
     0
102
RTVSPropertyOp4
 70
     0
102
RTVSPropertyOp5
 70
     0
102
RTVSPropertyOp6
 70
     0
102
RTVSPropertyOp7
 70
     0
102
RTVSPropertyOp8
 70
     0
102
RTVSPropertyOp9
 70
     0
102
RTVSPropertyOp10
 70
     0
102
RTVSPropertyOp11
 70
     0
102
RTVSPropertyOp12
 70
     0
102
RTVSPropertyOp13
 70
     0
102
RTVSPropertyOp14
 70
     2
102
RTVSPropertyOp15
 70
     0
102
RTVSPropertyOp16
 70
     0
102
RTVSPropertyOp17
 70
     0
102
RTVSPropertyOp18
 70
     0
102
RTVSPropertyOp19
 70
     0
102
RTVSPropertyOp20
 70
     0
102
RTVSPropertyOp21
 70
     0
102
RTVSPropertyOp22
 70
     0
102
RTVSPropertyOp23
 70
     0
102
RTVSPropertyOp24
 70
     0
102
RTVSPropertyOp25
 70
     0
102
RTVSPropertyOp26
 70
     0
102
RTVSPropertyOp27
 70
     0
102
RTVSPropertyOp28
 70
     1
102
RTVSPropertyOp29
 70
     1
102
RTVSPropertyOp30
 70
     1
102
RTVSPropertyOp31
 70
     1
102
RTVSPropertyOp32
 70
     1
102
RTVSPropertyOp33
 70
     1
102
RTVSPropertyOp34
 70
     1
102
RTVSPropertyOp35
 70
     1
102
RTVSPropertyOp36
 70
     1
102
RTVSPropertyOp37
 70
     0
102
RTVSPropertyOp38
 70
     0
102
RTVSPropertyOp39
 70
     0
102
RTVSPropertyOp40
 70
     0
102
RTVSPropertyOp41
 70
     0
102
RTVSPropertyOp42
 70
     0
102
RTVSPropertyOp43
 70
     0
102
RTVSPropertyOp44
 70
     0
102
RTVSPropertyOp45
 70
     1
102
RTVSPropertyOp46
 70
     0
102
RTVSPropertyOp47
 70
     0
102
RTVSPropertyOp48
 70
     0
102
RTVSPropertyOp49
 70
     1
102
RTVSPropertyOp50
 70
     0
102
RTVSPropertyOp51
 70
     0
102
RTVSPropertyOp52
 70
     0
102
RTVSPropertyOp53
 70
     0
102
RTVSPropertyOp54
 70
     0
102
RTVSPropertyOp55
 70
     1
102
RTVSPropertyOp56
 70
     0
102
RTVSPropertyOp57
 70
     0
102
RTVSPropertyOp58
 70
     0
102
RTVSPropertyOp59
 70
     0
102
RTVSPropertyOp60
 70
     0
102
RTVSPropertyOp61
 70
     0
102
RTVSPropertyOp62
 70
     0
  0
XRECORD
  5
2A7FB
102
{ACAD_REACTORS
330
2A7FA
102
}
330
2A7FA
100
AcDbXrecord
280
     1
102
RTVSPost2010Prop28
280
     0
102
RTVSPost2010PropOp28
 70
     1
102
RTVSPost2010Prop29
280
     1
102
RTVSPost2010PropOp29
 70
     1
102
RTVSPost2010Prop30
280
     1
102
RTVSPost2010PropOp30
 70
     1
102
RTVSPost2010Prop31
280
     0
102
RTVSPost2010PropOp31
 70
     1
102
RTVSPost2010Prop32
280
     0
102
RTVSPost2010PropOp32
 70
     1
102
RTVSPost2010Prop33
280
     0
102
RTVSPost2010PropOp33
 70
     1
102
RTVSPost2010Prop34
280
     0
102
RTVSPost2010PropOp34
 70
     1
102
RTVSPost2010Prop35
280
     0
102
RTVSPost2010PropOp35
 70
     1
102
RTVSPost2010Prop36
280
     0
102
RTVSPost2010PropOp36
 70
     1
102
RTVSPost2010Prop37
 90
       50
102
RTVSPost2010PropOp37
 70
     1
102
RTVSPost2010Prop38
140
0.0
102
RTVSPost2010PropOp38
 70
     1
102
RTVSPost2010Prop39
140
1.0
102
RTVSPost2010PropOp39
 70
     1
102
RTVSPost2010Prop40
 90
        0
102
RTVSPost2010PropOp40
 70
     1
102
RTVSPost2010Prop41ColorIndex
 90
       18
102
RTVSPost2010Prop41ColorRGB
 90
        0
102
RTVSPost2010PropOp41
 70
     1
102
RTVSPost2010Prop42
 90
       50
102
RTVSPost2010PropOp42
 70
     1
102
RTVSPost2010Prop43
 90
        3
102
RTVSPost2010PropOp43
 70
     1
102
RTVSPost2010Prop44ColorIndex
 90
        5
102
RTVSPost2010Prop44ColorRGB
 90
      255
102
RTVSPost2010PropOp44
 70
     1
102
RTVSPost2010Prop45
280
     0
102
RTVSPost2010PropOp45
 70
     1
102
RTVSPost2010Prop46
 90
       50
102
RTVSPost2010PropOp46
 70
     1
102
RTVSPost2010Prop47
 90
       50
102
RTVSPost2010PropOp47
 70
     1
102
RTVSPost2010Prop48
 90
       50
102
RTVSPost2010PropOp48
 70
     1
102
RTVSPost2010Prop49
280
     0
102
RTVSPost2010PropOp49
 70
     1
102
RTVSPost2010Prop50
 90
       50
102
RTVSPost2010PropOp50
 70
     1
102
RTVSPost2010Prop51ColorIndex
 90
      256
102
RTVSPost2010Prop51ColorRGB
 90
-16777216
102
RTVSPost2010PropOp51
 70
     0
102
RTVSPost2010Prop52
140
1.0
102
RTVSPost2010PropOp52
 70
     0
102
RTVSPost2010Prop53
 90
        2
102
RTVSPost2010PropOp53
 70
     1
102
RTVSPost2010Prop54
  1
strokes_ogs.tif
102
RTVSPost2010PropOp54
 70
     1
102
RTVSPost2010Prop55
280
     0
102
RTVSPost2010PropOp55
 70
     1
102
RTVSPost2010Prop56
140
1.0
102
RTVSPost2010PropOp56
 70
     1
102
RTVSPost2010Prop57
140
1.0
102
RTVSPost2010PropOp57
 70
     1
102
RTVSPropertyOp0
 70
     1
102
RTVSPropertyOp1
 70
     1
102
RTVSPropertyOp2
 70
     1
102
RTVSPropertyOp3
 70
     1
102
RTVSPropertyOp4
 70
     1
102
RTVSPropertyOp5
 70
     1
102
RTVSPropertyOp6
 70
     1
102
RTVSPropertyOp7
 70
     1
102
RTVSPropertyOp8
 70
     1
102
RTVSPropertyOp9
 70
     1
102
RTVSPropertyOp10
 70
     1
102
RTVSPropertyOp11
 70
     1
102
RTVSPropertyOp12
 70
     1
102
RTVSPropertyOp13
 70
     1
102
RTVSPropertyOp14
 70
     1
102
RTVSPropertyOp15
 70
     1
102
RTVSPropertyOp16
 70
     1
102
RTVSPropertyOp17
 70
     1
102
RTVSPropertyOp18
 70
     1
102
RTVSPropertyOp19
 70
     1
102
RTVSPropertyOp20
 70
     1
102
RTVSPropertyOp21
 70
     1
102
RTVSPropertyOp22
 70
     1
102
RTVSPropertyOp23
 70
     1
102
RTVSPropertyOp24
 70
     1
102
RTVSPropertyOp25
 70
     1
102
RTVSPropertyOp26
 70
     1
102
RTVSPropertyOp27
 70
     1
102
RTVSPropertyOp28
 70
     1
102
RTVSPropertyOp29
 70
     1
102
RTVSPropertyOp30
 70
     1
102
RTVSPropertyOp31
 70
     1
102
RTVSPropertyOp32
 70
     1
102
RTVSPropertyOp33
 70
     1
102
RTVSPropertyOp34
 70
     1
102
RTVSPropertyOp35
 70
     1
102
RTVSPropertyOp36
 70
     1
102
RTVSPropertyOp37
 70
     1
102
RTVSPropertyOp38
 70
     1
102
RTVSPropertyOp39
 70
     1
102
RTVSPropertyOp40
 70
     1
102
RTVSPropertyOp41
 70
     1
102
RTVSPropertyOp42
 70
     1
102
RTVSPropertyOp43
 70
     1
102
RTVSPropertyOp44
 70
     1
102
RTVSPropertyOp45
 70
     1
102
RTVSPropertyOp46
 70
     1
102
RTVSPropertyOp47
 70
     1
102
RTVSPropertyOp48
 70
     1
102
RTVSPropertyOp49
 70
     1
102
RTVSPropertyOp50
 70
     1
102
RTVSPropertyOp51
 70
     0
102
RTVSPropertyOp52
 70
     0
102
RTVSPropertyOp53
 70
     1
102
RTVSPropertyOp54
 70
     1
102
RTVSPropertyOp55
 70
     1
102
RTVSPropertyOp56
 70
     1
102
RTVSPropertyOp57
 70
     1
102
RTVSPropertyOp58
 70
     1
102
RTVSPropertyOp59
 70
     1
102
RTVSPropertyOp60
 70
     1
102
RTVSPropertyOp61
 70
     1
102
RTVSPropertyOp62
 70
     1
  0
XRECORD
  5
2A7DF
102
{ACAD_REACTORS
330
2A7DE
102
}
330
2A7DE
100
AcDbXrecord
280
     1
102
RTVSPost2010Prop28
280
     0
102
RTVSPost2010PropOp28
 70
     1
102
RTVSPost2010Prop29
280
     1
102
RTVSPost2010PropOp29
 70
     1
102
RTVSPost2010Prop30
280
     1
102
RTVSPost2010PropOp30
 70
     1
102
RTVSPost2010Prop31
280
     0
102
RTVSPost2010PropOp31
 70
     1
102
RTVSPost2010Prop32
280
     0
102
RTVSPost2010PropOp32
 70
     1
102
RTVSPost2010Prop33
280
     0
102
RTVSPost2010PropOp33
 70
     1
102
RTVSPost2010Prop34
280
     0
102
RTVSPost2010PropOp34
 70
     1
102
RTVSPost2010Prop35
280
     0
102
RTVSPost2010PropOp35
 70
     1
102
RTVSPost2010Prop36
280
     0
102
RTVSPost2010PropOp36
 70
     1
102
RTVSPost2010Prop37
 90
       50
102
RTVSPost2010PropOp37
 70
     1
102
RTVSPost2010Prop38
140
0.0
102
RTVSPost2010PropOp38
 70
     1
102
RTVSPost2010Prop39
140
1.0
102
RTVSPost2010PropOp39
 70
     1
102
RTVSPost2010Prop40
 90
        0
102
RTVSPost2010PropOp40
 70
     1
102
RTVSPost2010Prop41ColorIndex
 90
       18
102
RTVSPost2010Prop41ColorRGB
 90
        0
102
RTVSPost2010PropOp41
 70
     1
102
RTVSPost2010Prop42
 90
       50
102
RTVSPost2010PropOp42
 70
     1
102
RTVSPost2010Prop43
 90
        3
102
RTVSPost2010PropOp43
 70
     1
102
RTVSPost2010Prop44ColorIndex
 90
        5
102
RTVSPost2010Prop44ColorRGB
 90
      255
102
RTVSPost2010PropOp44
 70
     1
102
RTVSPost2010Prop45
280
     0
102
RTVSPost2010PropOp45
 70
     1
102
RTVSPost2010Prop46
 90
       50
102
RTVSPost2010PropOp46
 70
     1
102
RTVSPost2010Prop47
 90
       50
102
RTVSPost2010PropOp47
 70
     1
102
RTVSPost2010Prop48
 90
       50
102
RTVSPost2010PropOp48
 70
     1
102
RTVSPost2010Prop49
280
     0
102
RTVSPost2010PropOp49
 70
     1
102
RTVSPost2010Prop50
 90
       50
102
RTVSPost2010PropOp50
 70
     1
102
RTVSPost2010Prop51ColorIndex
 90
      256
102
RTVSPost2010Prop51ColorRGB
 90
-16777216
102
RTVSPost2010PropOp51
 70
     0
102
RTVSPost2010Prop52
140
1.0
102
RTVSPost2010PropOp52
 70
     0
102
RTVSPost2010Prop53
 90
        2
102
RTVSPost2010PropOp53
 70
     1
102
RTVSPost2010Prop54
  1
strokes_ogs.tif
102
RTVSPost2010PropOp54
 70
     1
102
RTVSPost2010Prop55
280
     0
102
RTVSPost2010PropOp55
 70
     1
102
RTVSPost2010Prop56
140
1.0
102
RTVSPost2010PropOp56
 70
     1
102
RTVSPost2010Prop57
140
1.0
102
RTVSPost2010PropOp57
 70
     1
102
RTVSPropertyOp0
 70
     1
102
RTVSPropertyOp1
 70
     1
102
RTVSPropertyOp2
 70
     1
102
RTVSPropertyOp3
 70
     1
102
RTVSPropertyOp4
 70
     1
102
RTVSPropertyOp5
 70
     1
102
RTVSPropertyOp6
 70
     1
102
RTVSPropertyOp7
 70
     1
102
RTVSPropertyOp8
 70
     1
102
RTVSPropertyOp9
 70
     1
102
RTVSPropertyOp10
 70
     1
102
RTVSPropertyOp11
 70
     1
102
RTVSPropertyOp12
 70
     1
102
RTVSPropertyOp13
 70
     1
102
RTVSPropertyOp14
 70
     1
102
RTVSPropertyOp15
 70
     1
102
RTVSPropertyOp16
 70
     1
102
RTVSPropertyOp17
 70
     1
102
RTVSPropertyOp18
 70
     1
102
RTVSPropertyOp19
 70
     1
102
RTVSPropertyOp20
 70
     1
102
RTVSPropertyOp21
 70
     1
102
RTVSPropertyOp22
 70
     1
102
RTVSPropertyOp23
 70
     1
102
RTVSPropertyOp24
 70
     1
102
RTVSPropertyOp25
 70
     1
102
RTVSPropertyOp26
 70
     1
102
RTVSPropertyOp27
 70
     1
102
RTVSPropertyOp28
 70
     1
102
RTVSPropertyOp29
 70
     1
102
RTVSPropertyOp30
 70
     1
102
RTVSPropertyOp31
 70
     1
102
RTVSPropertyOp32
 70
     1
102
RTVSPropertyOp33
 70
     1
102
RTVSPropertyOp34
 70
     1
102
RTVSPropertyOp35
 70
     1
102
RTVSPropertyOp36
 70
     1
102
RTVSPropertyOp37
 70
     1
102
RTVSPropertyOp38
 70
     1
102
RTVSPropertyOp39
 70
     1
102
RTVSPropertyOp40
 70
     1
102
RTVSPropertyOp41
 70
     1
102
RTVSPropertyOp42
 70
     1
102
RTVSPropertyOp43
 70
     1
102
RTVSPropertyOp44
 70
     1
102
RTVSPropertyOp45
 70
     1
102
RTVSPropertyOp46
 70
     1
102
RTVSPropertyOp47
 70
     1
102
RTVSPropertyOp48
 70
     1
102
RTVSPropertyOp49
 70
     1
102
RTVSPropertyOp50
 70
     1
102
RTVSPropertyOp51
 70
     0
102
RTVSPropertyOp52
 70
     0
102
RTVSPropertyOp53
 70
     1
102
RTVSPropertyOp54
 70
     1
102
RTVSPropertyOp55
 70
     1
102
RTVSPropertyOp56
 70
     1
102
RTVSPropertyOp57
 70
     1
102
RTVSPropertyOp58
 70
     1
102
RTVSPropertyOp59
 70
     1
102
RTVSPropertyOp60
 70
     1
102
RTVSPropertyOp61
 70
     1
102
RTVSPropertyOp62
 70
     1
  0
XRECORD
  5
2A7E1
102
{ACAD_REACTORS
330
2A7E0
102
}
330
2A7E0
100
AcDbXrecord
280
     1
102
RTVSPost2010Prop28
280
     0
102
RTVSPost2010PropOp28
 70
     1
102
RTVSPost2010Prop29
280
     1
102
RTVSPost2010PropOp29
 70
     1
102
RTVSPost2010Prop30
280
     1
102
RTVSPost2010PropOp30
 70
     1
102
RTVSPost2010Prop31
280
     0
102
RTVSPost2010PropOp31
 70
     1
102
RTVSPost2010Prop32
280
     0
102
RTVSPost2010PropOp32
 70
     1
102
RTVSPost2010Prop33
280
     0
102
RTVSPost2010PropOp33
 70
     1
102
RTVSPost2010Prop34
280
     0
102
RTVSPost2010PropOp34
 70
     1
102
RTVSPost2010Prop35
280
     0
102
RTVSPost2010PropOp35
 70
     1
102
RTVSPost2010Prop36
280
     0
102
RTVSPost2010PropOp36
 70
     1
102
RTVSPost2010Prop37
 90
       50
102
RTVSPost2010PropOp37
 70
     1
102
RTVSPost2010Prop38
140
0.0
102
RTVSPost2010PropOp38
 70
     1
102
RTVSPost2010Prop39
140
1.0
102
RTVSPost2010PropOp39
 70
     1
102
RTVSPost2010Prop40
 90
        0
102
RTVSPost2010PropOp40
 70
     1
102
RTVSPost2010Prop41ColorIndex
 90
       18
102
RTVSPost2010Prop41ColorRGB
 90
        0
102
RTVSPost2010PropOp41
 70
     1
102
RTVSPost2010Prop42
 90
       50
102
RTVSPost2010PropOp42
 70
     1
102
RTVSPost2010Prop43
 90
        3
102
RTVSPost2010PropOp43
 70
     1
102
RTVSPost2010Prop44ColorIndex
 90
        5
102
RTVSPost2010Prop44ColorRGB
 90
      255
102
RTVSPost2010PropOp44
 70
     1
102
RTVSPost2010Prop45
280
     0
102
RTVSPost2010PropOp45
 70
     1
102
RTVSPost2010Prop46
 90
       50
102
RTVSPost2010PropOp46
 70
     1
102
RTVSPost2010Prop47
 90
       50
102
RTVSPost2010PropOp47
 70
     1
102
RTVSPost2010Prop48
 90
       50
102
RTVSPost2010PropOp48
 70
     1
102
RTVSPost2010Prop49
280
     0
102
RTVSPost2010PropOp49
 70
     1
102
RTVSPost2010Prop50
 90
       50
102
RTVSPost2010PropOp50
 70
     1
102
RTVSPost2010Prop51ColorIndex
 90
      256
102
RTVSPost2010Prop51ColorRGB
 90
-16777216
102
RTVSPost2010PropOp51
 70
     0
102
RTVSPost2010Prop52
140
1.0
102
RTVSPost2010PropOp52
 70
     0
102
RTVSPost2010Prop53
 90
        2
102
RTVSPost2010PropOp53
 70
     1
102
RTVSPost2010Prop54
  1
strokes_ogs.tif
102
RTVSPost2010PropOp54
 70
     1
102
RTVSPost2010Prop55
280
     0
102
RTVSPost2010PropOp55
 70
     1
102
RTVSPost2010Prop56
140
1.0
102
RTVSPost2010PropOp56
 70
     1
102
RTVSPost2010Prop57
140
1.0
102
RTVSPost2010PropOp57
 70
     1
102
RTVSPropertyOp0
 70
     1
102
RTVSPropertyOp1
 70
     1
102
RTVSPropertyOp2
 70
     1
102
RTVSPropertyOp3
 70
     1
102
RTVSPropertyOp4
 70
     1
102
RTVSPropertyOp5
 70
     1
102
RTVSPropertyOp6
 70
     1
102
RTVSPropertyOp7
 70
     1
102
RTVSPropertyOp8
 70
     1
102
RTVSPropertyOp9
 70
     1
102
RTVSPropertyOp10
 70
     1
102
RTVSPropertyOp11
 70
     1
102
RTVSPropertyOp12
 70
     1
102
RTVSPropertyOp13
 70
     1
102
RTVSPropertyOp14
 70
     1
102
RTVSPropertyOp15
 70
     1
102
RTVSPropertyOp16
 70
     1
102
RTVSPropertyOp17
 70
     1
102
RTVSPropertyOp18
 70
     1
102
RTVSPropertyOp19
 70
     1
102
RTVSPropertyOp20
 70
     1
102
RTVSPropertyOp21
 70
     1
102
RTVSPropertyOp22
 70
     1
102
RTVSPropertyOp23
 70
     1
102
RTVSPropertyOp24
 70
     1
102
RTVSPropertyOp25
 70
     1
102
RTVSPropertyOp26
 70
     1
102
RTVSPropertyOp27
 70
     1
102
RTVSPropertyOp28
 70
     1
102
RTVSPropertyOp29
 70
     1
102
RTVSPropertyOp30
 70
     1
102
RTVSPropertyOp31
 70
     1
102
RTVSPropertyOp32
 70
     1
102
RTVSPropertyOp33
 70
     1
102
RTVSPropertyOp34
 70
     1
102
RTVSPropertyOp35
 70
     1
102
RTVSPropertyOp36
 70
     1
102
RTVSPropertyOp37
 70
     1
102
RTVSPropertyOp38
 70
     1
102
RTVSPropertyOp39
 70
     1
102
RTVSPropertyOp40
 70
     1
102
RTVSPropertyOp41
 70
     1
102
RTVSPropertyOp42
 70
     1
102
RTVSPropertyOp43
 70
     1
102
RTVSPropertyOp44
 70
     1
102
RTVSPropertyOp45
 70
     1
102
RTVSPropertyOp46
 70
     1
102
RTVSPropertyOp47
 70
     1
102
RTVSPropertyOp48
 70
     1
102
RTVSPropertyOp49
 70
     1
102
RTVSPropertyOp50
 70
     1
102
RTVSPropertyOp51
 70
     0
102
RTVSPropertyOp52
 70
     0
102
RTVSPropertyOp53
 70
     1
102
RTVSPropertyOp54
 70
     1
102
RTVSPropertyOp55
 70
     1
102
RTVSPropertyOp56
 70
     1
102
RTVSPropertyOp57
 70
     1
102
RTVSPropertyOp58
 70
     1
102
RTVSPropertyOp59
 70
     1
102
RTVSPropertyOp60
 70
     1
102
RTVSPropertyOp61
 70
     1
102
RTVSPropertyOp62
 70
     1
  0
XRECORD
  5
2A7E3
102
{ACAD_REACTORS
330
2A7E2
102
}
330
2A7E2
100
AcDbXrecord
280
     1
102
RTVSPost2010Prop28
280
     0
102
RTVSPost2010PropOp28
 70
     1
102
RTVSPost2010Prop29
280
     1
102
RTVSPost2010PropOp29
 70
     1
102
RTVSPost2010Prop30
280
     1
102
RTVSPost2010PropOp30
 70
     1
102
RTVSPost2010Prop31
280
     0
102
RTVSPost2010PropOp31
 70
     1
102
RTVSPost2010Prop32
280
     0
102
RTVSPost2010PropOp32
 70
     1
102
RTVSPost2010Prop33
280
     0
102
RTVSPost2010PropOp33
 70
     1
102
RTVSPost2010Prop34
280
     0
102
RTVSPost2010PropOp34
 70
     1
102
RTVSPost2010Prop35
280
     0
102
RTVSPost2010PropOp35
 70
     1
102
RTVSPost2010Prop36
280
     0
102
RTVSPost2010PropOp36
 70
     1
102
RTVSPost2010Prop37
 90
       50
102
RTVSPost2010PropOp37
 70
     1
102
RTVSPost2010Prop38
140
0.0
102
RTVSPost2010PropOp38
 70
     1
102
RTVSPost2010Prop39
140
1.0
102
RTVSPost2010PropOp39
 70
     1
102
RTVSPost2010Prop40
 90
        0
102
RTVSPost2010PropOp40
 70
     1
102
RTVSPost2010Prop41ColorIndex
 90
       18
102
RTVSPost2010Prop41ColorRGB
 90
        0
102
RTVSPost2010PropOp41
 70
     1
102
RTVSPost2010Prop42
 90
       50
102
RTVSPost2010PropOp42
 70
     1
102
RTVSPost2010Prop43
 90
        3
102
RTVSPost2010PropOp43
 70
     1
102
RTVSPost2010Prop44ColorIndex
 90
        5
102
RTVSPost2010Prop44ColorRGB
 90
      255
102
RTVSPost2010PropOp44
 70
     1
102
RTVSPost2010Prop45
280
     0
102
RTVSPost2010PropOp45
 70
     1
102
RTVSPost2010Prop46
 90
       50
102
RTVSPost2010PropOp46
 70
     1
102
RTVSPost2010Prop47
 90
       50
102
RTVSPost2010PropOp47
 70
     1
102
RTVSPost2010Prop48
 90
       50
102
RTVSPost2010PropOp48
 70
     1
102
RTVSPost2010Prop49
280
     0
102
RTVSPost2010PropOp49
 70
     1
102
RTVSPost2010Prop50
 90
       50
102
RTVSPost2010PropOp50
 70
     1
102
RTVSPost2010Prop51ColorIndex
 90
      256
102
RTVSPost2010Prop51ColorRGB
 90
-16777216
102
RTVSPost2010PropOp51
 70
     0
102
RTVSPost2010Prop52
140
1.0
102
RTVSPost2010PropOp52
 70
     0
102
RTVSPost2010Prop53
 90
        2
102
RTVSPost2010PropOp53
 70
     1
102
RTVSPost2010Prop54
  1
strokes_ogs.tif
102
RTVSPost2010PropOp54
 70
     1
102
RTVSPost2010Prop55
280
     0
102
RTVSPost2010PropOp55
 70
     1
102
RTVSPost2010Prop56
140
1.0
102
RTVSPost2010PropOp56
 70
     1
102
RTVSPost2010Prop57
140
1.0
102
RTVSPost2010PropOp57
 70
     1
102
RTVSPropertyOp0
 70
     1
102
RTVSPropertyOp1
 70
     1
102
RTVSPropertyOp2
 70
     1
102
RTVSPropertyOp3
 70
     1
102
RTVSPropertyOp4
 70
     1
102
RTVSPropertyOp5
 70
     1
102
RTVSPropertyOp6
 70
     1
102
RTVSPropertyOp7
 70
     1
102
RTVSPropertyOp8
 70
     1
102
RTVSPropertyOp9
 70
     1
102
RTVSPropertyOp10
 70
     1
102
RTVSPropertyOp11
 70
     1
102
RTVSPropertyOp12
 70
     1
102
RTVSPropertyOp13
 70
     1
102
RTVSPropertyOp14
 70
     1
102
RTVSPropertyOp15
 70
     1
102
RTVSPropertyOp16
 70
     1
102
RTVSPropertyOp17
 70
     1
102
RTVSPropertyOp18
 70
     1
102
RTVSPropertyOp19
 70
     1
102
RTVSPropertyOp20
 70
     1
102
RTVSPropertyOp21
 70
     1
102
RTVSPropertyOp22
 70
     1
102
RTVSPropertyOp23
 70
     1
102
RTVSPropertyOp24
 70
     1
102
RTVSPropertyOp25
 70
     1
102
RTVSPropertyOp26
 70
     1
102
RTVSPropertyOp27
 70
     1
102
RTVSPropertyOp28
 70
     1
102
RTVSPropertyOp29
 70
     1
102
RTVSPropertyOp30
 70
     1
102
RTVSPropertyOp31
 70
     1
102
RTVSPropertyOp32
 70
     1
102
RTVSPropertyOp33
 70
     1
102
RTVSPropertyOp34
 70
     1
102
RTVSPropertyOp35
 70
     1
102
RTVSPropertyOp36
 70
     1
102
RTVSPropertyOp37
 70
     1
102
RTVSPropertyOp38
 70
     1
102
RTVSPropertyOp39
 70
     1
102
RTVSPropertyOp40
 70
     1
102
RTVSPropertyOp41
 70
     1
102
RTVSPropertyOp42
 70
     1
102
RTVSPropertyOp43
 70
     1
102
RTVSPropertyOp44
 70
     1
102
RTVSPropertyOp45
 70
     1
102
RTVSPropertyOp46
 70
     1
102
RTVSPropertyOp47
 70
     1
102
RTVSPropertyOp48
 70
     1
102
RTVSPropertyOp49
 70
     1
102
RTVSPropertyOp50
 70
     1
102
RTVSPropertyOp51
 70
     0
102
RTVSPropertyOp52
 70
     0
102
RTVSPropertyOp53
 70
     1
102
RTVSPropertyOp54
 70
     1
102
RTVSPropertyOp55
 70
     1
102
RTVSPropertyOp56
 70
     1
102
RTVSPropertyOp57
 70
     1
102
RTVSPropertyOp58
 70
     1
102
RTVSPropertyOp59
 70
     1
102
RTVSPropertyOp60
 70
     1
102
RTVSPropertyOp61
 70
     1
102
RTVSPropertyOp62
 70
     1
  0
XRECORD
  5
2A7E5
102
{ACAD_REACTORS
330
2A7E4
102
}
330
2A7E4
100
AcDbXrecord
280
     1
102
RTVSPost2010Prop28
280
     0
102
RTVSPost2010PropOp28
 70
     1
102
RTVSPost2010Prop29
280
     1
102
RTVSPost2010PropOp29
 70
     1
102
RTVSPost2010Prop30
280
     1
102
RTVSPost2010PropOp30
 70
     1
102
RTVSPost2010Prop31
280
     0
102
RTVSPost2010PropOp31
 70
     1
102
RTVSPost2010Prop32
280
     0
102
RTVSPost2010PropOp32
 70
     1
102
RTVSPost2010Prop33
280
     0
102
RTVSPost2010PropOp33
 70
     1
102
RTVSPost2010Prop34
280
     0
102
RTVSPost2010PropOp34
 70
     1
102
RTVSPost2010Prop35
280
     0
102
RTVSPost2010PropOp35
 70
     1
102
RTVSPost2010Prop36
280
     0
102
RTVSPost2010PropOp36
 70
     1
102
RTVSPost2010Prop37
 90
       50
102
RTVSPost2010PropOp37
 70
     1
102
RTVSPost2010Prop38
140
0.0
102
RTVSPost2010PropOp38
 70
     1
102
RTVSPost2010Prop39
140
1.0
102
RTVSPost2010PropOp39
 70
     1
102
RTVSPost2010Prop40
 90
        0
102
RTVSPost2010PropOp40
 70
     1
102
RTVSPost2010Prop41ColorIndex
 90
       18
102
RTVSPost2010Prop41ColorRGB
 90
        0
102
RTVSPost2010PropOp41
 70
     1
102
RTVSPost2010Prop42
 90
       50
102
RTVSPost2010PropOp42
 70
     1
102
RTVSPost2010Prop43
 90
        3
102
RTVSPost2010PropOp43
 70
     1
102
RTVSPost2010Prop44ColorIndex
 90
        5
102
RTVSPost2010Prop44ColorRGB
 90
      255
102
RTVSPost2010PropOp44
 70
     1
102
RTVSPost2010Prop45
280
     0
102
RTVSPost2010PropOp45
 70
     1
102
RTVSPost2010Prop46
 90
       50
102
RTVSPost2010PropOp46
 70
     1
102
RTVSPost2010Prop47
 90
       50
102
RTVSPost2010PropOp47
 70
     1
102
RTVSPost2010Prop48
 90
       50
102
RTVSPost2010PropOp48
 70
     1
102
RTVSPost2010Prop49
280
     0
102
RTVSPost2010PropOp49
 70
     1
102
RTVSPost2010Prop50
 90
       50
102
RTVSPost2010PropOp50
 70
     1
102
RTVSPost2010Prop51ColorIndex
 90
      256
102
RTVSPost2010Prop51ColorRGB
 90
-16777216
102
RTVSPost2010PropOp51
 70
     0
102
RTVSPost2010Prop52
140
1.0
102
RTVSPost2010PropOp52
 70
     0
102
RTVSPost2010Prop53
 90
        2
102
RTVSPost2010PropOp53
 70
     1
102
RTVSPost2010Prop54
  1
strokes_ogs.tif
102
RTVSPost2010PropOp54
 70
     1
102
RTVSPost2010Prop55
280
     0
102
RTVSPost2010PropOp55
 70
     1
102
RTVSPost2010Prop56
140
1.0
102
RTVSPost2010PropOp56
 70
     1
102
RTVSPost2010Prop57
140
1.0
102
RTVSPost2010PropOp57
 70
     1
102
RTVSPropertyOp0
 70
     1
102
RTVSPropertyOp1
 70
     1
102
RTVSPropertyOp2
 70
     1
102
RTVSPropertyOp3
 70
     1
102
RTVSPropertyOp4
 70
     1
102
RTVSPropertyOp5
 70
     1
102
RTVSPropertyOp6
 70
     1
102
RTVSPropertyOp7
 70
     1
102
RTVSPropertyOp8
 70
     1
102
RTVSPropertyOp9
 70
     1
102
RTVSPropertyOp10
 70
     1
102
RTVSPropertyOp11
 70
     1
102
RTVSPropertyOp12
 70
     1
102
RTVSPropertyOp13
 70
     1
102
RTVSPropertyOp14
 70
     1
102
RTVSPropertyOp15
 70
     1
102
RTVSPropertyOp16
 70
     1
102
RTVSPropertyOp17
 70
     1
102
RTVSPropertyOp18
 70
     1
102
RTVSPropertyOp19
 70
     1
102
RTVSPropertyOp20
 70
     1
102
RTVSPropertyOp21
 70
     1
102
RTVSPropertyOp22
 70
     1
102
RTVSPropertyOp23
 70
     1
102
RTVSPropertyOp24
 70
     1
102
RTVSPropertyOp25
 70
     1
102
RTVSPropertyOp26
 70
     1
102
RTVSPropertyOp27
 70
     1
102
RTVSPropertyOp28
 70
     1
102
RTVSPropertyOp29
 70
     1
102
RTVSPropertyOp30
 70
     1
102
RTVSPropertyOp31
 70
     1
102
RTVSPropertyOp32
 70
     1
102
RTVSPropertyOp33
 70
     1
102
RTVSPropertyOp34
 70
     1
102
RTVSPropertyOp35
 70
     1
102
RTVSPropertyOp36
 70
     1
102
RTVSPropertyOp37
 70
     1
102
RTVSPropertyOp38
 70
     1
102
RTVSPropertyOp39
 70
     1
102
RTVSPropertyOp40
 70
     1
102
RTVSPropertyOp41
 70
     1
102
RTVSPropertyOp42
 70
     1
102
RTVSPropertyOp43
 70
     1
102
RTVSPropertyOp44
 70
     1
102
RTVSPropertyOp45
 70
     1
102
RTVSPropertyOp46
 70
     1
102
RTVSPropertyOp47
 70
     1
102
RTVSPropertyOp48
 70
     1
102
RTVSPropertyOp49
 70
     1
102
RTVSPropertyOp50
 70
     1
102
RTVSPropertyOp51
 70
     0
102
RTVSPropertyOp52
 70
     0
102
RTVSPropertyOp53
 70
     1
102
RTVSPropertyOp54
 70
     1
102
RTVSPropertyOp55
 70
     1
102
RTVSPropertyOp56
 70
     1
102
RTVSPropertyOp57
 70
     1
102
RTVSPropertyOp58
 70
     1
102
RTVSPropertyOp59
 70
     1
102
RTVSPropertyOp60
 70
     1
102
RTVSPropertyOp61
 70
     1
102
RTVSPropertyOp62
 70
     1
  0
XRECORD
  5
2A7ED
102
{ACAD_REACTORS
330
2A7EC
102
}
330
2A7EC
100
AcDbXrecord
280
     1
102
RTVSPost2010Prop28
280
     0
102
RTVSPost2010PropOp28
 70
     1
102
RTVSPost2010Prop29
280
     1
102
RTVSPost2010PropOp29
 70
     1
102
RTVSPost2010Prop30
280
     1
102
RTVSPost2010PropOp30
 70
     1
102
RTVSPost2010Prop31
280
     0
102
RTVSPost2010PropOp31
 70
     1
102
RTVSPost2010Prop32
280
     0
102
RTVSPost2010PropOp32
 70
     1
102
RTVSPost2010Prop33
280
     0
102
RTVSPost2010PropOp33
 70
     1
102
RTVSPost2010Prop34
280
     0
102
RTVSPost2010PropOp34
 70
     1
102
RTVSPost2010Prop35
280
     0
102
RTVSPost2010PropOp35
 70
     1
102
RTVSPost2010Prop36
280
     0
102
RTVSPost2010PropOp36
 70
     1
102
RTVSPost2010Prop37
 90
       50
102
RTVSPost2010PropOp37
 70
     1
102
RTVSPost2010Prop38
140
0.0
102
RTVSPost2010PropOp38
 70
     1
102
RTVSPost2010Prop39
140
1.0
102
RTVSPost2010PropOp39
 70
     1
102
RTVSPost2010Prop40
 90
        0
102
RTVSPost2010PropOp40
 70
     1
102
RTVSPost2010Prop41ColorIndex
 90
       18
102
RTVSPost2010Prop41ColorRGB
 90
        0
102
RTVSPost2010PropOp41
 70
     1
102
RTVSPost2010Prop42
 90
       50
102
RTVSPost2010PropOp42
 70
     1
102
RTVSPost2010Prop43
 90
        3
102
RTVSPost2010PropOp43
 70
     1
102
RTVSPost2010Prop44ColorIndex
 90
        5
102
RTVSPost2010Prop44ColorRGB
 90
      255
102
RTVSPost2010PropOp44
 70
     1
102
RTVSPost2010Prop45
280
     0
102
RTVSPost2010PropOp45
 70
     1
102
RTVSPost2010Prop46
 90
       50
102
RTVSPost2010PropOp46
 70
     1
102
RTVSPost2010Prop47
 90
       50
102
RTVSPost2010PropOp47
 70
     1
102
RTVSPost2010Prop48
 90
       50
102
RTVSPost2010PropOp48
 70
     1
102
RTVSPost2010Prop49
280
     0
102
RTVSPost2010PropOp49
 70
     1
102
RTVSPost2010Prop50
 90
       50
102
RTVSPost2010PropOp50
 70
     1
102
RTVSPost2010Prop51ColorIndex
 90
      256
102
RTVSPost2010Prop51ColorRGB
 90
-16777216
102
RTVSPost2010PropOp51
 70
     0
102
RTVSPost2010Prop52
140
1.0
102
RTVSPost2010PropOp52
 70
     0
102
RTVSPost2010Prop53
 90
        2
102
RTVSPost2010PropOp53
 70
     1
102
RTVSPost2010Prop54
  1
strokes_ogs.tif
102
RTVSPost2010PropOp54
 70
     1
102
RTVSPost2010Prop55
280
     0
102
RTVSPost2010PropOp55
 70
     1
102
RTVSPost2010Prop56
140
1.0
102
RTVSPost2010PropOp56
 70
     1
102
RTVSPost2010Prop57
140
1.0
102
RTVSPost2010PropOp57
 70
     1
102
RTVSPropertyOp0
 70
     1
102
RTVSPropertyOp1
 70
     1
102
RTVSPropertyOp2
 70
     1
102
RTVSPropertyOp3
 70
     1
102
RTVSPropertyOp4
 70
     1
102
RTVSPropertyOp5
 70
     1
102
RTVSPropertyOp6
 70
     1
102
RTVSPropertyOp7
 70
     1
102
RTVSPropertyOp8
 70
     1
102
RTVSPropertyOp9
 70
     1
102
RTVSPropertyOp10
 70
     1
102
RTVSPropertyOp11
 70
     1
102
RTVSPropertyOp12
 70
     1
102
RTVSPropertyOp13
 70
     1
102
RTVSPropertyOp14
 70
     1
102
RTVSPropertyOp15
 70
     1
102
RTVSPropertyOp16
 70
     1
102
RTVSPropertyOp17
 70
     1
102
RTVSPropertyOp18
 70
     1
102
RTVSPropertyOp19
 70
     1
102
RTVSPropertyOp20
 70
     1
102
RTVSPropertyOp21
 70
     1
102
RTVSPropertyOp22
 70
     1
102
RTVSPropertyOp23
 70
     1
102
RTVSPropertyOp24
 70
     1
102
RTVSPropertyOp25
 70
     1
102
RTVSPropertyOp26
 70
     1
102
RTVSPropertyOp27
 70
     1
102
RTVSPropertyOp28
 70
     1
102
RTVSPropertyOp29
 70
     1
102
RTVSPropertyOp30
 70
     1
102
RTVSPropertyOp31
 70
     1
102
RTVSPropertyOp32
 70
     1
102
RTVSPropertyOp33
 70
     1
102
RTVSPropertyOp34
 70
     1
102
RTVSPropertyOp35
 70
     1
102
RTVSPropertyOp36
 70
     1
102
RTVSPropertyOp37
 70
     1
102
RTVSPropertyOp38
 70
     1
102
RTVSPropertyOp39
 70
     1
102
RTVSPropertyOp40
 70
     1
102
RTVSPropertyOp41
 70
     1
102
RTVSPropertyOp42
 70
     1
102
RTVSPropertyOp43
 70
     1
102
RTVSPropertyOp44
 70
     1
102
RTVSPropertyOp45
 70
     1
102
RTVSPropertyOp46
 70
     1
102
RTVSPropertyOp47
 70
     1
102
RTVSPropertyOp48
 70
     1
102
RTVSPropertyOp49
 70
     1
102
RTVSPropertyOp50
 70
     1
102
RTVSPropertyOp51
 70
     0
102
RTVSPropertyOp52
 70
     0
102
RTVSPropertyOp53
 70
     1
102
RTVSPropertyOp54
 70
     1
102
RTVSPropertyOp55
 70
     1
102
RTVSPropertyOp56
 70
     1
102
RTVSPropertyOp57
 70
     1
102
RTVSPropertyOp58
 70
     1
102
RTVSPropertyOp59
 70
     1
102
RTVSPropertyOp60
 70
     1
102
RTVSPropertyOp61
 70
     1
102
RTVSPropertyOp62
 70
     1
  0
XRECORD
  5
2A809
102
{ACAD_REACTORS
330
2A808
102
}
330
2A808
100
AcDbXrecord
280
     1
102
RTVSPost2010Prop28
280
     0
102
RTVSPost2010PropOp28
 70
     1
102
RTVSPost2010Prop29
280
     1
102
RTVSPost2010PropOp29
 70
     1
102
RTVSPost2010Prop30
280
     1
102
RTVSPost2010PropOp30
 70
     1
102
RTVSPost2010Prop31
280
     0
102
RTVSPost2010PropOp31
 70
     1
102
RTVSPost2010Prop32
280
     0
102
RTVSPost2010PropOp32
 70
     1
102
RTVSPost2010Prop33
280
     0
102
RTVSPost2010PropOp33
 70
     1
102
RTVSPost2010Prop34
280
     0
102
RTVSPost2010PropOp34
 70
     1
102
RTVSPost2010Prop35
280
     0
102
RTVSPost2010PropOp35
 70
     1
102
RTVSPost2010Prop36
280
     0
102
RTVSPost2010PropOp36
 70
     1
102
RTVSPost2010Prop37
 90
       50
102
RTVSPost2010PropOp37
 70
     0
102
RTVSPost2010Prop38
140
0.0
102
RTVSPost2010PropOp38
 70
     0
102
RTVSPost2010Prop39
140
1.0
102
RTVSPost2010PropOp39
 70
     0
102
RTVSPost2010Prop40
 90
        0
102
RTVSPost2010PropOp40
 70
     0
102
RTVSPost2010Prop41ColorIndex
 90
       18
102
RTVSPost2010Prop41ColorRGB
 90
        0
102
RTVSPost2010PropOp41
 70
     0
102
RTVSPost2010Prop42
 90
       50
102
RTVSPost2010PropOp42
 70
     0
102
RTVSPost2010Prop43
 90
        3
102
RTVSPost2010PropOp43
 70
     0
102
RTVSPost2010Prop44ColorIndex
 90
        5
102
RTVSPost2010Prop44ColorRGB
 90
      255
102
RTVSPost2010PropOp44
 70
     0
102
RTVSPost2010Prop45
280
     0
102
RTVSPost2010PropOp45
 70
     1
102
RTVSPost2010Prop46
 90
       50
102
RTVSPost2010PropOp46
 70
     0
102
RTVSPost2010Prop47
 90
       50
102
RTVSPost2010PropOp47
 70
     0
102
RTVSPost2010Prop48
 90
       50
102
RTVSPost2010PropOp48
 70
     0
102
RTVSPost2010Prop49
280
     0
102
RTVSPost2010PropOp49
 70
     1
102
RTVSPost2010Prop50
 90
       50
102
RTVSPost2010PropOp50
 70
     0
102
RTVSPost2010Prop51ColorIndex
 90
      256
102
RTVSPost2010Prop51ColorRGB
 90
-16777216
102
RTVSPost2010PropOp51
 70
     0
102
RTVSPost2010Prop52
140
1.0
102
RTVSPost2010PropOp52
 70
     0
102
RTVSPost2010Prop53
 90
        2
102
RTVSPost2010PropOp53
 70
     0
102
RTVSPost2010Prop54
  1
strokes_ogs.tif
102
RTVSPost2010PropOp54
 70
     0
102
RTVSPost2010Prop55
280
     0
102
RTVSPost2010PropOp55
 70
     1
102
RTVSPost2010Prop56
140
1.0
102
RTVSPost2010PropOp56
 70
     0
102
RTVSPost2010Prop57
140
1.0
102
RTVSPost2010PropOp57
 70
     0
102
RTVSPropertyOp0
 70
     0
102
RTVSPropertyOp1
 70
     0
102
RTVSPropertyOp2
 70
     0
102
RTVSPropertyOp3
 70
     0
102
RTVSPropertyOp4
 70
     0
102
RTVSPropertyOp5
 70
     0
102
RTVSPropertyOp6
 70
     0
102
RTVSPropertyOp7
 70
     0
102
RTVSPropertyOp8
 70
     0
102
RTVSPropertyOp9
 70
     0
102
RTVSPropertyOp10
 70
     0
102
RTVSPropertyOp11
 70
     0
102
RTVSPropertyOp12
 70
     0
102
RTVSPropertyOp13
 70
     0
102
RTVSPropertyOp14
 70
     2
102
RTVSPropertyOp15
 70
     0
102
RTVSPropertyOp16
 70
     0
102
RTVSPropertyOp17
 70
     0
102
RTVSPropertyOp18
 70
     0
102
RTVSPropertyOp19
 70
     0
102
RTVSPropertyOp20
 70
     0
102
RTVSPropertyOp21
 70
     0
102
RTVSPropertyOp22
 70
     0
102
RTVSPropertyOp23
 70
     0
102
RTVSPropertyOp24
 70
     0
102
RTVSPropertyOp25
 70
     0
102
RTVSPropertyOp26
 70
     0
102
RTVSPropertyOp27
 70
     0
102
RTVSPropertyOp28
 70
     1
102
RTVSPropertyOp29
 70
     1
102
RTVSPropertyOp30
 70
     1
102
RTVSPropertyOp31
 70
     1
102
RTVSPropertyOp32
 70
     1
102
RTVSPropertyOp33
 70
     1
102
RTVSPropertyOp34
 70
     1
102
RTVSPropertyOp35
 70
     1
102
RTVSPropertyOp36
 70
     1
102
RTVSPropertyOp37
 70
     0
102
RTVSPropertyOp38
 70
     0
102
RTVSPropertyOp39
 70
     0
102
RTVSPropertyOp40
 70
     0
102
RTVSPropertyOp41
 70
     0
102
RTVSPropertyOp42
 70
     0
102
RTVSPropertyOp43
 70
     0
102
RTVSPropertyOp44
 70
     0
102
RTVSPropertyOp45
 70
     1
102
RTVSPropertyOp46
 70
     0
102
RTVSPropertyOp47
 70
     0
102
RTVSPropertyOp48
 70
     0
102
RTVSPropertyOp49
 70
     1
102
RTVSPropertyOp50
 70
     0
102
RTVSPropertyOp51
 70
     0
102
RTVSPropertyOp52
 70
     0
102
RTVSPropertyOp53
 70
     0
102
RTVSPropertyOp54
 70
     0
102
RTVSPropertyOp55
 70
     1
102
RTVSPropertyOp56
 70
     0
102
RTVSPropertyOp57
 70
     0
102
RTVSPropertyOp58
 70
     0
102
RTVSPropertyOp59
 70
     0
102
RTVSPropertyOp60
 70
     0
102
RTVSPropertyOp61
 70
     0
102
RTVSPropertyOp62
 70
     0
  0
XRECORD
  5
2A7F9
102
{ACAD_REACTORS
330
2A7F8
102
}
330
2A7F8
100
AcDbXrecord
280
     1
102
RTVSPost2010Prop28
280
     0
102
RTVSPost2010PropOp28
 70
     1
102
RTVSPost2010Prop29
280
     1
102
RTVSPost2010PropOp29
 70
     1
102
RTVSPost2010Prop30
280
     1
102
RTVSPost2010PropOp30
 70
     1
102
RTVSPost2010Prop31
280
     0
102
RTVSPost2010PropOp31
 70
     1
102
RTVSPost2010Prop32
280
     0
102
RTVSPost2010PropOp32
 70
     1
102
RTVSPost2010Prop33
280
     0
102
RTVSPost2010PropOp33
 70
     1
102
RTVSPost2010Prop34
280
     0
102
RTVSPost2010PropOp34
 70
     1
102
RTVSPost2010Prop35
280
     0
102
RTVSPost2010PropOp35
 70
     1
102
RTVSPost2010Prop36
280
     0
102
RTVSPost2010PropOp36
 70
     1
102
RTVSPost2010Prop37
 90
       50
102
RTVSPost2010PropOp37
 70
     1
102
RTVSPost2010Prop38
140
0.0
102
RTVSPost2010PropOp38
 70
     1
102
RTVSPost2010Prop39
140
1.0
102
RTVSPost2010PropOp39
 70
     1
102
RTVSPost2010Prop40
 90
        0
102
RTVSPost2010PropOp40
 70
     1
102
RTVSPost2010Prop41ColorIndex
 90
       18
102
RTVSPost2010Prop41ColorRGB
 90
        0
102
RTVSPost2010PropOp41
 70
     1
102
RTVSPost2010Prop42
 90
       50
102
RTVSPost2010PropOp42
 70
     1
102
RTVSPost2010Prop43
 90
        3
102
RTVSPost2010PropOp43
 70
     1
102
RTVSPost2010Prop44ColorIndex
 90
        5
102
RTVSPost2010Prop44ColorRGB
 90
      255
102
RTVSPost2010PropOp44
 70
     1
102
RTVSPost2010Prop45
280
     0
102
RTVSPost2010PropOp45
 70
     1
102
RTVSPost2010Prop46
 90
       50
102
RTVSPost2010PropOp46
 70
     1
102
RTVSPost2010Prop47
 90
       50
102
RTVSPost2010PropOp47
 70
     1
102
RTVSPost2010Prop48
 90
       50
102
RTVSPost2010PropOp48
 70
     1
102
RTVSPost2010Prop49
280
     0
102
RTVSPost2010PropOp49
 70
     1
102
RTVSPost2010Prop50
 90
       50
102
RTVSPost2010PropOp50
 70
     1
102
RTVSPost2010Prop51ColorIndex
 90
      256
102
RTVSPost2010Prop51ColorRGB
 90
-16777216
102
RTVSPost2010PropOp51
 70
     0
102
RTVSPost2010Prop52
140
1.0
102
RTVSPost2010PropOp52
 70
     0
102
RTVSPost2010Prop53
 90
        2
102
RTVSPost2010PropOp53
 70
     1
102
RTVSPost2010Prop54
  1
strokes_ogs.tif
102
RTVSPost2010PropOp54
 70
     1
102
RTVSPost2010Prop55
280
     0
102
RTVSPost2010PropOp55
 70
     1
102
RTVSPost2010Prop56
140
1.0
102
RTVSPost2010PropOp56
 70
     1
102
RTVSPost2010Prop57
140
1.0
102
RTVSPost2010PropOp57
 70
     1
102
RTVSPropertyOp0
 70
     1
102
RTVSPropertyOp1
 70
     1
102
RTVSPropertyOp2
 70
     1
102
RTVSPropertyOp3
 70
     1
102
RTVSPropertyOp4
 70
     1
102
RTVSPropertyOp5
 70
     1
102
RTVSPropertyOp6
 70
     1
102
RTVSPropertyOp7
 70
     1
102
RTVSPropertyOp8
 70
     1
102
RTVSPropertyOp9
 70
     1
102
RTVSPropertyOp10
 70
     1
102
RTVSPropertyOp11
 70
     1
102
RTVSPropertyOp12
 70
     1
102
RTVSPropertyOp13
 70
     1
102
RTVSPropertyOp14
 70
     1
102
RTVSPropertyOp15
 70
     1
102
RTVSPropertyOp16
 70
     1
102
RTVSPropertyOp17
 70
     1
102
RTVSPropertyOp18
 70
     1
102
RTVSPropertyOp19
 70
     1
102
RTVSPropertyOp20
 70
     1
102
RTVSPropertyOp21
 70
     1
102
RTVSPropertyOp22
 70
     1
102
RTVSPropertyOp23
 70
     1
102
RTVSPropertyOp24
 70
     1
102
RTVSPropertyOp25
 70
     1
102
RTVSPropertyOp26
 70
     1
102
RTVSPropertyOp27
 70
     1
102
RTVSPropertyOp28
 70
     1
102
RTVSPropertyOp29
 70
     1
102
RTVSPropertyOp30
 70
     1
102
RTVSPropertyOp31
 70
     1
102
RTVSPropertyOp32
 70
     1
102
RTVSPropertyOp33
 70
     1
102
RTVSPropertyOp34
 70
     1
102
RTVSPropertyOp35
 70
     1
102
RTVSPropertyOp36
 70
     1
102
RTVSPropertyOp37
 70
     1
102
RTVSPropertyOp38
 70
     1
102
RTVSPropertyOp39
 70
     1
102
RTVSPropertyOp40
 70
     1
102
RTVSPropertyOp41
 70
     1
102
RTVSPropertyOp42
 70
     1
102
RTVSPropertyOp43
 70
     1
102
RTVSPropertyOp44
 70
     1
102
RTVSPropertyOp45
 70
     1
102
RTVSPropertyOp46
 70
     1
102
RTVSPropertyOp47
 70
     1
102
RTVSPropertyOp48
 70
     1
102
RTVSPropertyOp49
 70
     1
102
RTVSPropertyOp50
 70
     1
102
RTVSPropertyOp51
 70
     0
102
RTVSPropertyOp52
 70
     0
102
RTVSPropertyOp53
 70
     1
102
RTVSPropertyOp54
 70
     1
102
RTVSPropertyOp55
 70
     1
102
RTVSPropertyOp56
 70
     1
102
RTVSPropertyOp57
 70
     1
102
RTVSPropertyOp58
 70
     1
102
RTVSPropertyOp59
 70
     1
102
RTVSPropertyOp60
 70
     1
102
RTVSPropertyOp61
 70
     1
102
RTVSPropertyOp62
 70
     1
  0
XRECORD
  5
2A80B
102
{ACAD_REACTORS
330
2A80A
102
}
330
2A80A
100
AcDbXrecord
280
     1
102
RTVSPost2010Prop28
280
     0
102
RTVSPost2010PropOp28
 70
     1
102
RTVSPost2010Prop29
280
     1
102
RTVSPost2010PropOp29
 70
     1
102
RTVSPost2010Prop30
280
     1
102
RTVSPost2010PropOp30
 70
     1
102
RTVSPost2010Prop31
280
     0
102
RTVSPost2010PropOp31
 70
     1
102
RTVSPost2010Prop32
280
     0
102
RTVSPost2010PropOp32
 70
     1
102
RTVSPost2010Prop33
280
     0
102
RTVSPost2010PropOp33
 70
     1
102
RTVSPost2010Prop34
280
     0
102
RTVSPost2010PropOp34
 70
     1
102
RTVSPost2010Prop35
280
     0
102
RTVSPost2010PropOp35
 70
     1
102
RTVSPost2010Prop36
280
     0
102
RTVSPost2010PropOp36
 70
     1
102
RTVSPost2010Prop37
 90
       50
102
RTVSPost2010PropOp37
 70
     0
102
RTVSPost2010Prop38
140
0.0
102
RTVSPost2010PropOp38
 70
     0
102
RTVSPost2010Prop39
140
1.0
102
RTVSPost2010PropOp39
 70
     0
102
RTVSPost2010Prop40
 90
        0
102
RTVSPost2010PropOp40
 70
     0
102
RTVSPost2010Prop41ColorIndex
 90
       18
102
RTVSPost2010Prop41ColorRGB
 90
        0
102
RTVSPost2010PropOp41
 70
     0
102
RTVSPost2010Prop42
 90
       50
102
RTVSPost2010PropOp42
 70
     0
102
RTVSPost2010Prop43
 90
        3
102
RTVSPost2010PropOp43
 70
     0
102
RTVSPost2010Prop44ColorIndex
 90
        5
102
RTVSPost2010Prop44ColorRGB
 90
      255
102
RTVSPost2010PropOp44
 70
     0
102
RTVSPost2010Prop45
280
     0
102
RTVSPost2010PropOp45
 70
     1
102
RTVSPost2010Prop46
 90
       50
102
RTVSPost2010PropOp46
 70
     0
102
RTVSPost2010Prop47
 90
       50
102
RTVSPost2010PropOp47
 70
     0
102
RTVSPost2010Prop48
 90
       50
102
RTVSPost2010PropOp48
 70
     0
102
RTVSPost2010Prop49
280
     0
102
RTVSPost2010PropOp49
 70
     1
102
RTVSPost2010Prop50
 90
       50
102
RTVSPost2010PropOp50
 70
     0
102
RTVSPost2010Prop51ColorIndex
 90
      256
102
RTVSPost2010Prop51ColorRGB
 90
-16777216
102
RTVSPost2010PropOp51
 70
     0
102
RTVSPost2010Prop52
140
1.0
102
RTVSPost2010PropOp52
 70
     0
102
RTVSPost2010Prop53
 90
        2
102
RTVSPost2010PropOp53
 70
     0
102
RTVSPost2010Prop54
  1
strokes_ogs.tif
102
RTVSPost2010PropOp54
 70
     0
102
RTVSPost2010Prop55
280
     0
102
RTVSPost2010PropOp55
 70
     1
102
RTVSPost2010Prop56
140
1.0
102
RTVSPost2010PropOp56
 70
     0
102
RTVSPost2010Prop57
140
1.0
102
RTVSPost2010PropOp57
 70
     0
102
RTVSPropertyOp0
 70
     0
102
RTVSPropertyOp1
 70
     0
102
RTVSPropertyOp2
 70
     0
102
RTVSPropertyOp3
 70
     0
102
RTVSPropertyOp4
 70
     0
102
RTVSPropertyOp5
 70
     0
102
RTVSPropertyOp6
 70
     0
102
RTVSPropertyOp7
 70
     0
102
RTVSPropertyOp8
 70
     0
102
RTVSPropertyOp9
 70
     0
102
RTVSPropertyOp10
 70
     0
102
RTVSPropertyOp11
 70
     0
102
RTVSPropertyOp12
 70
     0
102
RTVSPropertyOp13
 70
     0
102
RTVSPropertyOp14
 70
     2
102
RTVSPropertyOp15
 70
     0
102
RTVSPropertyOp16
 70
     0
102
RTVSPropertyOp17
 70
     0
102
RTVSPropertyOp18
 70
     0
102
RTVSPropertyOp19
 70
     0
102
RTVSPropertyOp20
 70
     0
102
RTVSPropertyOp21
 70
     0
102
RTVSPropertyOp22
 70
     0
102
RTVSPropertyOp23
 70
     0
102
RTVSPropertyOp24
 70
     0
102
RTVSPropertyOp25
 70
     0
102
RTVSPropertyOp26
 70
     0
102
RTVSPropertyOp27
 70
     0
102
RTVSPropertyOp28
 70
     1
102
RTVSPropertyOp29
 70
     1
102
RTVSPropertyOp30
 70
     1
102
RTVSPropertyOp31
 70
     1
102
RTVSPropertyOp32
 70
     1
102
RTVSPropertyOp33
 70
     1
102
RTVSPropertyOp34
 70
     1
102
RTVSPropertyOp35
 70
     1
102
RTVSPropertyOp36
 70
     1
102
RTVSPropertyOp37
 70
     0
102
RTVSPropertyOp38
 70
     0
102
RTVSPropertyOp39
 70
     0
102
RTVSPropertyOp40
 70
     0
102
RTVSPropertyOp41
 70
     0
102
RTVSPropertyOp42
 70
     0
102
RTVSPropertyOp43
 70
     0
102
RTVSPropertyOp44
 70
     0
102
RTVSPropertyOp45
 70
     1
102
RTVSPropertyOp46
 70
     0
102
RTVSPropertyOp47
 70
     0
102
RTVSPropertyOp48
 70
     0
102
RTVSPropertyOp49
 70
     1
102
RTVSPropertyOp50
 70
     0
102
RTVSPropertyOp51
 70
     0
102
RTVSPropertyOp52
 70
     0
102
RTVSPropertyOp53
 70
     0
102
RTVSPropertyOp54
 70
     0
102
RTVSPropertyOp55
 70
     1
102
RTVSPropertyOp56
 70
     0
102
RTVSPropertyOp57
 70
     0
102
RTVSPropertyOp58
 70
     0
102
RTVSPropertyOp59
 70
     0
102
RTVSPropertyOp60
 70
     0
102
RTVSPropertyOp61
 70
     0
102
RTVSPropertyOp62
 70
     0
  0
XRECORD
  5
2A7F1
102
{ACAD_REACTORS
330
2A7F0
102
}
330
2A7F0
100
AcDbXrecord
280
     1
102
RTVSPost2010Prop28
280
     0
102
RTVSPost2010PropOp28
 70
     1
102
RTVSPost2010Prop29
280
     1
102
RTVSPost2010PropOp29
 70
     1
102
RTVSPost2010Prop30
280
     1
102
RTVSPost2010PropOp30
 70
     1
102
RTVSPost2010Prop31
280
     0
102
RTVSPost2010PropOp31
 70
     1
102
RTVSPost2010Prop32
280
     0
102
RTVSPost2010PropOp32
 70
     1
102
RTVSPost2010Prop33
280
     0
102
RTVSPost2010PropOp33
 70
     1
102
RTVSPost2010Prop34
280
     0
102
RTVSPost2010PropOp34
 70
     1
102
RTVSPost2010Prop35
280
     0
102
RTVSPost2010PropOp35
 70
     1
102
RTVSPost2010Prop36
280
     0
102
RTVSPost2010PropOp36
 70
     1
102
RTVSPost2010Prop37
 90
       50
102
RTVSPost2010PropOp37
 70
     1
102
RTVSPost2010Prop38
140
0.0
102
RTVSPost2010PropOp38
 70
     1
102
RTVSPost2010Prop39
140
1.0
102
RTVSPost2010PropOp39
 70
     1
102
RTVSPost2010Prop40
 90
        0
102
RTVSPost2010PropOp40
 70
     1
102
RTVSPost2010Prop41ColorIndex
 90
       18
102
RTVSPost2010Prop41ColorRGB
 90
        0
102
RTVSPost2010PropOp41
 70
     1
102
RTVSPost2010Prop42
 90
       50
102
RTVSPost2010PropOp42
 70
     1
102
RTVSPost2010Prop43
 90
        3
102
RTVSPost2010PropOp43
 70
     1
102
RTVSPost2010Prop44ColorIndex
 90
        5
102
RTVSPost2010Prop44ColorRGB
 90
      255
102
RTVSPost2010PropOp44
 70
     1
102
RTVSPost2010Prop45
280
     0
102
RTVSPost2010PropOp45
 70
     1
102
RTVSPost2010Prop46
 90
       50
102
RTVSPost2010PropOp46
 70
     1
102
RTVSPost2010Prop47
 90
       50
102
RTVSPost2010PropOp47
 70
     1
102
RTVSPost2010Prop48
 90
       50
102
RTVSPost2010PropOp48
 70
     1
102
RTVSPost2010Prop49
280
     0
102
RTVSPost2010PropOp49
 70
     1
102
RTVSPost2010Prop50
 90
       50
102
RTVSPost2010PropOp50
 70
     1
102
RTVSPost2010Prop51ColorIndex
 90
      256
102
RTVSPost2010Prop51ColorRGB
 90
-16777216
102
RTVSPost2010PropOp51
 70
     0
102
RTVSPost2010Prop52
140
1.0
102
RTVSPost2010PropOp52
 70
     0
102
RTVSPost2010Prop53
 90
        2
102
RTVSPost2010PropOp53
 70
     1
102
RTVSPost2010Prop54
  1
strokes_ogs.tif
102
RTVSPost2010PropOp54
 70
     1
102
RTVSPost2010Prop55
280
     0
102
RTVSPost2010PropOp55
 70
     1
102
RTVSPost2010Prop56
140
1.0
102
RTVSPost2010PropOp56
 70
     1
102
RTVSPost2010Prop57
140
1.0
102
RTVSPost2010PropOp57
 70
     1
102
RTVSPropertyOp0
 70
     1
102
RTVSPropertyOp1
 70
     1
102
RTVSPropertyOp2
 70
     1
102
RTVSPropertyOp3
 70
     1
102
RTVSPropertyOp4
 70
     1
102
RTVSPropertyOp5
 70
     1
102
RTVSPropertyOp6
 70
     1
102
RTVSPropertyOp7
 70
     1
102
RTVSPropertyOp8
 70
     1
102
RTVSPropertyOp9
 70
     1
102
RTVSPropertyOp10
 70
     1
102
RTVSPropertyOp11
 70
     1
102
RTVSPropertyOp12
 70
     1
102
RTVSPropertyOp13
 70
     1
102
RTVSPropertyOp14
 70
     1
102
RTVSPropertyOp15
 70
     1
102
RTVSPropertyOp16
 70
     1
102
RTVSPropertyOp17
 70
     1
102
RTVSPropertyOp18
 70
     1
102
RTVSPropertyOp19
 70
     1
102
RTVSPropertyOp20
 70
     1
102
RTVSPropertyOp21
 70
     1
102
RTVSPropertyOp22
 70
     1
102
RTVSPropertyOp23
 70
     1
102
RTVSPropertyOp24
 70
     1
102
RTVSPropertyOp25
 70
     1
102
RTVSPropertyOp26
 70
     1
102
RTVSPropertyOp27
 70
     1
102
RTVSPropertyOp28
 70
     1
102
RTVSPropertyOp29
 70
     1
102
RTVSPropertyOp30
 70
     1
102
RTVSPropertyOp31
 70
     1
102
RTVSPropertyOp32
 70
     1
102
RTVSPropertyOp33
 70
     1
102
RTVSPropertyOp34
 70
     1
102
RTVSPropertyOp35
 70
     1
102
RTVSPropertyOp36
 70
     1
102
RTVSPropertyOp37
 70
     1
102
RTVSPropertyOp38
 70
     1
102
RTVSPropertyOp39
 70
     1
102
RTVSPropertyOp40
 70
     1
102
RTVSPropertyOp41
 70
     1
102
RTVSPropertyOp42
 70
     1
102
RTVSPropertyOp43
 70
     1
102
RTVSPropertyOp44
 70
     1
102
RTVSPropertyOp45
 70
     1
102
RTVSPropertyOp46
 70
     1
102
RTVSPropertyOp47
 70
     1
102
RTVSPropertyOp48
 70
     1
102
RTVSPropertyOp49
 70
     1
102
RTVSPropertyOp50
 70
     1
102
RTVSPropertyOp51
 70
     0
102
RTVSPropertyOp52
 70
     0
102
RTVSPropertyOp53
 70
     1
102
RTVSPropertyOp54
 70
     1
102
RTVSPropertyOp55
 70
     1
102
RTVSPropertyOp56
 70
     1
102
RTVSPropertyOp57
 70
     1
102
RTVSPropertyOp58
 70
     1
102
RTVSPropertyOp59
 70
     1
102
RTVSPropertyOp60
 70
     1
102
RTVSPropertyOp61
 70
     1
102
RTVSPropertyOp62
 70
     1
  0
XRECORD
  5
2A807
102
{ACAD_REACTORS
330
2A806
102
}
330
2A806
100
AcDbXrecord
280
     1
102
RTVSPost2010Prop28
280
     0
102
RTVSPost2010PropOp28
 70
     1
102
RTVSPost2010Prop29
280
     1
102
RTVSPost2010PropOp29
 70
     1
102
RTVSPost2010Prop30
280
     1
102
RTVSPost2010PropOp30
 70
     1
102
RTVSPost2010Prop31
280
     0
102
RTVSPost2010PropOp31
 70
     1
102
RTVSPost2010Prop32
280
     0
102
RTVSPost2010PropOp32
 70
     1
102
RTVSPost2010Prop33
280
     0
102
RTVSPost2010PropOp33
 70
     1
102
RTVSPost2010Prop34
280
     0
102
RTVSPost2010PropOp34
 70
     1
102
RTVSPost2010Prop35
280
     0
102
RTVSPost2010PropOp35
 70
     1
102
RTVSPost2010Prop36
280
     0
102
RTVSPost2010PropOp36
 70
     1
102
RTVSPost2010Prop37
 90
       50
102
RTVSPost2010PropOp37
 70
     1
102
RTVSPost2010Prop38
140
0.0
102
RTVSPost2010PropOp38
 70
     1
102
RTVSPost2010Prop39
140
1.0
102
RTVSPost2010PropOp39
 70
     1
102
RTVSPost2010Prop40
 90
        0
102
RTVSPost2010PropOp40
 70
     1
102
RTVSPost2010Prop41ColorIndex
 90
       18
102
RTVSPost2010Prop41ColorRGB
 90
        0
102
RTVSPost2010PropOp41
 70
     1
102
RTVSPost2010Prop42
 90
       50
102
RTVSPost2010PropOp42
 70
     1
102
RTVSPost2010Prop43
 90
        3
102
RTVSPost2010PropOp43
 70
     1
102
RTVSPost2010Prop44ColorIndex
 90
        5
102
RTVSPost2010Prop44ColorRGB
 90
      255
102
RTVSPost2010PropOp44
 70
     1
102
RTVSPost2010Prop45
280
     0
102
RTVSPost2010PropOp45
 70
     1
102
RTVSPost2010Prop46
 90
       50
102
RTVSPost2010PropOp46
 70
     1
102
RTVSPost2010Prop47
 90
       50
102
RTVSPost2010PropOp47
 70
     1
102
RTVSPost2010Prop48
 90
       50
102
RTVSPost2010PropOp48
 70
     1
102
RTVSPost2010Prop49
280
     0
102
RTVSPost2010PropOp49
 70
     1
102
RTVSPost2010Prop50
 90
       50
102
RTVSPost2010PropOp50
 70
     1
102
RTVSPost2010Prop51ColorIndex
 90
      256
102
RTVSPost2010Prop51ColorRGB
 90
-16777216
102
RTVSPost2010PropOp51
 70
     0
102
RTVSPost2010Prop52
140
1.0
102
RTVSPost2010PropOp52
 70
     0
102
RTVSPost2010Prop53
 90
        2
102
RTVSPost2010PropOp53
 70
     1
102
RTVSPost2010Prop54
  1
strokes_ogs.tif
102
RTVSPost2010PropOp54
 70
     1
102
RTVSPost2010Prop55
280
     0
102
RTVSPost2010PropOp55
 70
     1
102
RTVSPost2010Prop56
140
1.0
102
RTVSPost2010PropOp56
 70
     1
102
RTVSPost2010Prop57
140
1.0
102
RTVSPost2010PropOp57
 70
     1
102
RTVSPropertyOp0
 70
     1
102
RTVSPropertyOp1
 70
     1
102
RTVSPropertyOp2
 70
     1
102
RTVSPropertyOp3
 70
     1
102
RTVSPropertyOp4
 70
     1
102
RTVSPropertyOp5
 70
     1
102
RTVSPropertyOp6
 70
     1
102
RTVSPropertyOp7
 70
     1
102
RTVSPropertyOp8
 70
     1
102
RTVSPropertyOp9
 70
     1
102
RTVSPropertyOp10
 70
     1
102
RTVSPropertyOp11
 70
     1
102
RTVSPropertyOp12
 70
     1
102
RTVSPropertyOp13
 70
     1
102
RTVSPropertyOp14
 70
     1
102
RTVSPropertyOp15
 70
     1
102
RTVSPropertyOp16
 70
     1
102
RTVSPropertyOp17
 70
     1
102
RTVSPropertyOp18
 70
     1
102
RTVSPropertyOp19
 70
     1
102
RTVSPropertyOp20
 70
     1
102
RTVSPropertyOp21
 70
     1
102
RTVSPropertyOp22
 70
     1
102
RTVSPropertyOp23
 70
     1
102
RTVSPropertyOp24
 70
     1
102
RTVSPropertyOp25
 70
     1
102
RTVSPropertyOp26
 70
     1
102
RTVSPropertyOp27
 70
     1
102
RTVSPropertyOp28
 70
     1
102
RTVSPropertyOp29
 70
     1
102
RTVSPropertyOp30
 70
     1
102
RTVSPropertyOp31
 70
     1
102
RTVSPropertyOp32
 70
     1
102
RTVSPropertyOp33
 70
     1
102
RTVSPropertyOp34
 70
     1
102
RTVSPropertyOp35
 70
     1
102
RTVSPropertyOp36
 70
     1
102
RTVSPropertyOp37
 70
     1
102
RTVSPropertyOp38
 70
     1
102
RTVSPropertyOp39
 70
     1
102
RTVSPropertyOp40
 70
     1
102
RTVSPropertyOp41
 70
     1
102
RTVSPropertyOp42
 70
     1
102
RTVSPropertyOp43
 70
     1
102
RTVSPropertyOp44
 70
     1
102
RTVSPropertyOp45
 70
     1
102
RTVSPropertyOp46
 70
     1
102
RTVSPropertyOp47
 70
     1
102
RTVSPropertyOp48
 70
     1
102
RTVSPropertyOp49
 70
     1
102
RTVSPropertyOp50
 70
     1
102
RTVSPropertyOp51
 70
     0
102
RTVSPropertyOp52
 70
     0
102
RTVSPropertyOp53
 70
     1
102
RTVSPropertyOp54
 70
     1
102
RTVSPropertyOp55
 70
     1
102
RTVSPropertyOp56
 70
     1
102
RTVSPropertyOp57
 70
     1
102
RTVSPropertyOp58
 70
     1
102
RTVSPropertyOp59
 70
     1
102
RTVSPropertyOp60
 70
     1
102
RTVSPropertyOp61
 70
     1
102
RTVSPropertyOp62
 70
     1
  0
XRECORD
  5
2A805
102
{ACAD_REACTORS
330
2A804
102
}
330
2A804
100
AcDbXrecord
280
     1
102
RTVSPost2010Prop28
280
     0
102
RTVSPost2010PropOp28
 70
     1
102
RTVSPost2010Prop29
280
     1
102
RTVSPost2010PropOp29
 70
     1
102
RTVSPost2010Prop30
280
     1
102
RTVSPost2010PropOp30
 70
     1
102
RTVSPost2010Prop31
280
     0
102
RTVSPost2010PropOp31
 70
     1
102
RTVSPost2010Prop32
280
     0
102
RTVSPost2010PropOp32
 70
     1
102
RTVSPost2010Prop33
280
     0
102
RTVSPost2010PropOp33
 70
     1
102
RTVSPost2010Prop34
280
     0
102
RTVSPost2010PropOp34
 70
     1
102
RTVSPost2010Prop35
280
     0
102
RTVSPost2010PropOp35
 70
     1
102
RTVSPost2010Prop36
280
     0
102
RTVSPost2010PropOp36
 70
     1
102
RTVSPost2010Prop37
 90
       50
102
RTVSPost2010PropOp37
 70
     1
102
RTVSPost2010Prop38
140
0.0
102
RTVSPost2010PropOp38
 70
     1
102
RTVSPost2010Prop39
140
1.0
102
RTVSPost2010PropOp39
 70
     1
102
RTVSPost2010Prop40
 90
        0
102
RTVSPost2010PropOp40
 70
     1
102
RTVSPost2010Prop41ColorIndex
 90
       18
102
RTVSPost2010Prop41ColorRGB
 90
        0
102
RTVSPost2010PropOp41
 70
     1
102
RTVSPost2010Prop42
 90
       50
102
RTVSPost2010PropOp42
 70
     1
102
RTVSPost2010Prop43
 90
        3
102
RTVSPost2010PropOp43
 70
     1
102
RTVSPost2010Prop44ColorIndex
 90
        5
102
RTVSPost2010Prop44ColorRGB
 90
      255
102
RTVSPost2010PropOp44
 70
     1
102
RTVSPost2010Prop45
280
     0
102
RTVSPost2010PropOp45
 70
     1
102
RTVSPost2010Prop46
 90
       50
102
RTVSPost2010PropOp46
 70
     1
102
RTVSPost2010Prop47
 90
       50
102
RTVSPost2010PropOp47
 70
     1
102
RTVSPost2010Prop48
 90
       50
102
RTVSPost2010PropOp48
 70
     1
102
RTVSPost2010Prop49
280
     0
102
RTVSPost2010PropOp49
 70
     1
102
RTVSPost2010Prop50
 90
       50
102
RTVSPost2010PropOp50
 70
     1
102
RTVSPost2010Prop51ColorIndex
 90
      256
102
RTVSPost2010Prop51ColorRGB
 90
-16777216
102
RTVSPost2010PropOp51
 70
     0
102
RTVSPost2010Prop52
140
1.0
102
RTVSPost2010PropOp52
 70
     0
102
RTVSPost2010Prop53
 90
        2
102
RTVSPost2010PropOp53
 70
     1
102
RTVSPost2010Prop54
  1
strokes_ogs.tif
102
RTVSPost2010PropOp54
 70
     1
102
RTVSPost2010Prop55
280
     0
102
RTVSPost2010PropOp55
 70
     1
102
RTVSPost2010Prop56
140
1.0
102
RTVSPost2010PropOp56
 70
     1
102
RTVSPost2010Prop57
140
1.0
102
RTVSPost2010PropOp57
 70
     1
102
RTVSPropertyOp0
 70
     1
102
RTVSPropertyOp1
 70
     1
102
RTVSPropertyOp2
 70
     1
102
RTVSPropertyOp3
 70
     1
102
RTVSPropertyOp4
 70
     1
102
RTVSPropertyOp5
 70
     1
102
RTVSPropertyOp6
 70
     1
102
RTVSPropertyOp7
 70
     1
102
RTVSPropertyOp8
 70
     1
102
RTVSPropertyOp9
 70
     1
102
RTVSPropertyOp10
 70
     1
102
RTVSPropertyOp11
 70
     1
102
RTVSPropertyOp12
 70
     1
102
RTVSPropertyOp13
 70
     1
102
RTVSPropertyOp14
 70
     1
102
RTVSPropertyOp15
 70
     1
102
RTVSPropertyOp16
 70
     1
102
RTVSPropertyOp17
 70
     1
102
RTVSPropertyOp18
 70
     1
102
RTVSPropertyOp19
 70
     1
102
RTVSPropertyOp20
 70
     1
102
RTVSPropertyOp21
 70
     1
102
RTVSPropertyOp22
 70
     1
102
RTVSPropertyOp23
 70
     1
102
RTVSPropertyOp24
 70
     1
102
RTVSPropertyOp25
 70
     1
102
RTVSPropertyOp26
 70
     1
102
RTVSPropertyOp27
 70
     1
102
RTVSPropertyOp28
 70
     1
102
RTVSPropertyOp29
 70
     1
102
RTVSPropertyOp30
 70
     1
102
RTVSPropertyOp31
 70
     1
102
RTVSPropertyOp32
 70
     1
102
RTVSPropertyOp33
 70
     1
102
RTVSPropertyOp34
 70
     1
102
RTVSPropertyOp35
 70
     1
102
RTVSPropertyOp36
 70
     1
102
RTVSPropertyOp37
 70
     1
102
RTVSPropertyOp38
 70
     1
102
RTVSPropertyOp39
 70
     1
102
RTVSPropertyOp40
 70
     1
102
RTVSPropertyOp41
 70
     1
102
RTVSPropertyOp42
 70
     1
102
RTVSPropertyOp43
 70
     1
102
RTVSPropertyOp44
 70
     1
102
RTVSPropertyOp45
 70
     1
102
RTVSPropertyOp46
 70
     1
102
RTVSPropertyOp47
 70
     1
102
RTVSPropertyOp48
 70
     1
102
RTVSPropertyOp49
 70
     1
102
RTVSPropertyOp50
 70
     1
102
RTVSPropertyOp51
 70
     0
102
RTVSPropertyOp52
 70
     0
102
RTVSPropertyOp53
 70
     1
102
RTVSPropertyOp54
 70
     1
102
RTVSPropertyOp55
 70
     1
102
RTVSPropertyOp56
 70
     1
102
RTVSPropertyOp57
 70
     1
102
RTVSPropertyOp58
 70
     1
102
RTVSPropertyOp59
 70
     1
102
RTVSPropertyOp60
 70
     1
102
RTVSPropertyOp61
 70
     1
102
RTVSPropertyOp62
 70
     1
  0
XRECORD
  5
2A7FF
102
{ACAD_REACTORS
330
2A7FE
102
}
330
2A7FE
100
AcDbXrecord
280
     1
102
RTVSPost2010Prop28
280
     0
102
RTVSPost2010PropOp28
 70
     1
102
RTVSPost2010Prop29
280
     1
102
RTVSPost2010PropOp29
 70
     1
102
RTVSPost2010Prop30
280
     1
102
RTVSPost2010PropOp30
 70
     1
102
RTVSPost2010Prop31
280
     0
102
RTVSPost2010PropOp31
 70
     1
102
RTVSPost2010Prop32
280
     0
102
RTVSPost2010PropOp32
 70
     1
102
RTVSPost2010Prop33
280
     0
102
RTVSPost2010PropOp33
 70
     1
102
RTVSPost2010Prop34
280
     0
102
RTVSPost2010PropOp34
 70
     1
102
RTVSPost2010Prop35
280
     0
102
RTVSPost2010PropOp35
 70
     1
102
RTVSPost2010Prop36
280
     0
102
RTVSPost2010PropOp36
 70
     1
102
RTVSPost2010Prop37
 90
       50
102
RTVSPost2010PropOp37
 70
     1
102
RTVSPost2010Prop38
140
0.0
102
RTVSPost2010PropOp38
 70
     1
102
RTVSPost2010Prop39
140
1.0
102
RTVSPost2010PropOp39
 70
     1
102
RTVSPost2010Prop40
 90
        0
102
RTVSPost2010PropOp40
 70
     1
102
RTVSPost2010Prop41ColorIndex
 90
       18
102
RTVSPost2010Prop41ColorRGB
 90
        0
102
RTVSPost2010PropOp41
 70
     1
102
RTVSPost2010Prop42
 90
       50
102
RTVSPost2010PropOp42
 70
     1
102
RTVSPost2010Prop43
 90
        3
102
RTVSPost2010PropOp43
 70
     1
102
RTVSPost2010Prop44ColorIndex
 90
        5
102
RTVSPost2010Prop44ColorRGB
 90
      255
102
RTVSPost2010PropOp44
 70
     1
102
RTVSPost2010Prop45
280
     0
102
RTVSPost2010PropOp45
 70
     1
102
RTVSPost2010Prop46
 90
       50
102
RTVSPost2010PropOp46
 70
     1
102
RTVSPost2010Prop47
 90
       50
102
RTVSPost2010PropOp47
 70
     1
102
RTVSPost2010Prop48
 90
       50
102
RTVSPost2010PropOp48
 70
     1
102
RTVSPost2010Prop49
280
     0
102
RTVSPost2010PropOp49
 70
     1
102
RTVSPost2010Prop50
 90
       50
102
RTVSPost2010PropOp50
 70
     1
102
RTVSPost2010Prop51ColorIndex
 90
      256
102
RTVSPost2010Prop51ColorRGB
 90
-16777216
102
RTVSPost2010PropOp51
 70
     0
102
RTVSPost2010Prop52
140
1.0
102
RTVSPost2010PropOp52
 70
     0
102
RTVSPost2010Prop53
 90
        2
102
RTVSPost2010PropOp53
 70
     1
102
RTVSPost2010Prop54
  1
strokes_ogs.tif
102
RTVSPost2010PropOp54
 70
     1
102
RTVSPost2010Prop55
280
     0
102
RTVSPost2010PropOp55
 70
     1
102
RTVSPost2010Prop56
140
1.0
102
RTVSPost2010PropOp56
 70
     1
102
RTVSPost2010Prop57
140
1.0
102
RTVSPost2010PropOp57
 70
     1
102
RTVSPropertyOp0
 70
     1
102
RTVSPropertyOp1
 70
     1
102
RTVSPropertyOp2
 70
     1
102
RTVSPropertyOp3
 70
     1
102
RTVSPropertyOp4
 70
     1
102
RTVSPropertyOp5
 70
     1
102
RTVSPropertyOp6
 70
     1
102
RTVSPropertyOp7
 70
     1
102
RTVSPropertyOp8
 70
     1
102
RTVSPropertyOp9
 70
     1
102
RTVSPropertyOp10
 70
     1
102
RTVSPropertyOp11
 70
     1
102
RTVSPropertyOp12
 70
     1
102
RTVSPropertyOp13
 70
     1
102
RTVSPropertyOp14
 70
     1
102
RTVSPropertyOp15
 70
     1
102
RTVSPropertyOp16
 70
     1
102
RTVSPropertyOp17
 70
     1
102
RTVSPropertyOp18
 70
     1
102
RTVSPropertyOp19
 70
     1
102
RTVSPropertyOp20
 70
     1
102
RTVSPropertyOp21
 70
     1
102
RTVSPropertyOp22
 70
     1
102
RTVSPropertyOp23
 70
     1
102
RTVSPropertyOp24
 70
     1
102
RTVSPropertyOp25
 70
     1
102
RTVSPropertyOp26
 70
     1
102
RTVSPropertyOp27
 70
     1
102
RTVSPropertyOp28
 70
     1
102
RTVSPropertyOp29
 70
     1
102
RTVSPropertyOp30
 70
     1
102
RTVSPropertyOp31
 70
     1
102
RTVSPropertyOp32
 70
     1
102
RTVSPropertyOp33
 70
     1
102
RTVSPropertyOp34
 70
     1
102
RTVSPropertyOp35
 70
     1
102
RTVSPropertyOp36
 70
     1
102
RTVSPropertyOp37
 70
     1
102
RTVSPropertyOp38
 70
     1
102
RTVSPropertyOp39
 70
     1
102
RTVSPropertyOp40
 70
     1
102
RTVSPropertyOp41
 70
     1
102
RTVSPropertyOp42
 70
     1
102
RTVSPropertyOp43
 70
     1
102
RTVSPropertyOp44
 70
     1
102
RTVSPropertyOp45
 70
     1
102
RTVSPropertyOp46
 70
     1
102
RTVSPropertyOp47
 70
     1
102
RTVSPropertyOp48
 70
     1
102
RTVSPropertyOp49
 70
     1
102
RTVSPropertyOp50
 70
     1
102
RTVSPropertyOp51
 70
     0
102
RTVSPropertyOp52
 70
     0
102
RTVSPropertyOp53
 70
     1
102
RTVSPropertyOp54
 70
     1
102
RTVSPropertyOp55
 70
     1
102
RTVSPropertyOp56
 70
     1
102
RTVSPropertyOp57
 70
     1
102
RTVSPropertyOp58
 70
     1
102
RTVSPropertyOp59
 70
     1
102
RTVSPropertyOp60
 70
     1
102
RTVSPropertyOp61
 70
     1
102
RTVSPropertyOp62
 70
     1
  0
XRECORD
  5
2A801
102
{ACAD_REACTORS
330
2A800
102
}
330
2A800
100
AcDbXrecord
280
     1
102
RTVSPost2010Prop28
280
     0
102
RTVSPost2010PropOp28
 70
     1
102
RTVSPost2010Prop29
280
     1
102
RTVSPost2010PropOp29
 70
     1
102
RTVSPost2010Prop30
280
     1
102
RTVSPost2010PropOp30
 70
     1
102
RTVSPost2010Prop31
280
     0
102
RTVSPost2010PropOp31
 70
     1
102
RTVSPost2010Prop32
280
     0
102
RTVSPost2010PropOp32
 70
     1
102
RTVSPost2010Prop33
280
     0
102
RTVSPost2010PropOp33
 70
     1
102
RTVSPost2010Prop34
280
     0
102
RTVSPost2010PropOp34
 70
     1
102
RTVSPost2010Prop35
280
     0
102
RTVSPost2010PropOp35
 70
     1
102
RTVSPost2010Prop36
280
     0
102
RTVSPost2010PropOp36
 70
     1
102
RTVSPost2010Prop37
 90
       50
102
RTVSPost2010PropOp37
 70
     1
102
RTVSPost2010Prop38
140
0.0
102
RTVSPost2010PropOp38
 70
     1
102
RTVSPost2010Prop39
140
1.0
102
RTVSPost2010PropOp39
 70
     1
102
RTVSPost2010Prop40
 90
        0
102
RTVSPost2010PropOp40
 70
     1
102
RTVSPost2010Prop41ColorIndex
 90
       18
102
RTVSPost2010Prop41ColorRGB
 90
        0
102
RTVSPost2010PropOp41
 70
     1
102
RTVSPost2010Prop42
 90
       50
102
RTVSPost2010PropOp42
 70
     1
102
RTVSPost2010Prop43
 90
        3
102
RTVSPost2010PropOp43
 70
     1
102
RTVSPost2010Prop44ColorIndex
 90
        5
102
RTVSPost2010Prop44ColorRGB
 90
      255
102
RTVSPost2010PropOp44
 70
     1
102
RTVSPost2010Prop45
280
     0
102
RTVSPost2010PropOp45
 70
     1
102
RTVSPost2010Prop46
 90
       50
102
RTVSPost2010PropOp46
 70
     1
102
RTVSPost2010Prop47
 90
       50
102
RTVSPost2010PropOp47
 70
     1
102
RTVSPost2010Prop48
 90
       50
102
RTVSPost2010PropOp48
 70
     1
102
RTVSPost2010Prop49
280
     0
102
RTVSPost2010PropOp49
 70
     1
102
RTVSPost2010Prop50
 90
       50
102
RTVSPost2010PropOp50
 70
     1
102
RTVSPost2010Prop51ColorIndex
 90
      256
102
RTVSPost2010Prop51ColorRGB
 90
-16777216
102
RTVSPost2010PropOp51
 70
     0
102
RTVSPost2010Prop52
140
1.0
102
RTVSPost2010PropOp52
 70
     0
102
RTVSPost2010Prop53
 90
        2
102
RTVSPost2010PropOp53
 70
     1
102
RTVSPost2010Prop54
  1
strokes_ogs.tif
102
RTVSPost2010PropOp54
 70
     1
102
RTVSPost2010Prop55
280
     0
102
RTVSPost2010PropOp55
 70
     1
102
RTVSPost2010Prop56
140
1.0
102
RTVSPost2010PropOp56
 70
     1
102
RTVSPost2010Prop57
140
1.0
102
RTVSPost2010PropOp57
 70
     1
102
RTVSPropertyOp0
 70
     1
102
RTVSPropertyOp1
 70
     1
102
RTVSPropertyOp2
 70
     1
102
RTVSPropertyOp3
 70
     1
102
RTVSPropertyOp4
 70
     1
102
RTVSPropertyOp5
 70
     1
102
RTVSPropertyOp6
 70
     1
102
RTVSPropertyOp7
 70
     1
102
RTVSPropertyOp8
 70
     1
102
RTVSPropertyOp9
 70
     1
102
RTVSPropertyOp10
 70
     1
102
RTVSPropertyOp11
 70
     1
102
RTVSPropertyOp12
 70
     1
102
RTVSPropertyOp13
 70
     1
102
RTVSPropertyOp14
 70
     1
102
RTVSPropertyOp15
 70
     1
102
RTVSPropertyOp16
 70
     1
102
RTVSPropertyOp17
 70
     1
102
RTVSPropertyOp18
 70
     1
102
RTVSPropertyOp19
 70
     1
102
RTVSPropertyOp20
 70
     1
102
RTVSPropertyOp21
 70
     1
102
RTVSPropertyOp22
 70
     1
102
RTVSPropertyOp23
 70
     1
102
RTVSPropertyOp24
 70
     1
102
RTVSPropertyOp25
 70
     1
102
RTVSPropertyOp26
 70
     1
102
RTVSPropertyOp27
 70
     1
102
RTVSPropertyOp28
 70
     1
102
RTVSPropertyOp29
 70
     1
102
RTVSPropertyOp30
 70
     1
102
RTVSPropertyOp31
 70
     1
102
RTVSPropertyOp32
 70
     1
102
RTVSPropertyOp33
 70
     1
102
RTVSPropertyOp34
 70
     1
102
RTVSPropertyOp35
 70
     1
102
RTVSPropertyOp36
 70
     1
102
RTVSPropertyOp37
 70
     1
102
RTVSPropertyOp38
 70
     1
102
RTVSPropertyOp39
 70
     1
102
RTVSPropertyOp40
 70
     1
102
RTVSPropertyOp41
 70
     1
102
RTVSPropertyOp42
 70
     1
102
RTVSPropertyOp43
 70
     1
102
RTVSPropertyOp44
 70
     1
102
RTVSPropertyOp45
 70
     1
102
RTVSPropertyOp46
 70
     1
102
RTVSPropertyOp47
 70
     1
102
RTVSPropertyOp48
 70
     1
102
RTVSPropertyOp49
 70
     1
102
RTVSPropertyOp50
 70
     1
102
RTVSPropertyOp51
 70
     0
102
RTVSPropertyOp52
 70
     0
102
RTVSPropertyOp53
 70
     1
102
RTVSPropertyOp54
 70
     1
102
RTVSPropertyOp55
 70
     1
102
RTVSPropertyOp56
 70
     1
102
RTVSPropertyOp57
 70
     1
102
RTVSPropertyOp58
 70
     1
102
RTVSPropertyOp59
 70
     1
102
RTVSPropertyOp60
 70
     1
102
RTVSPropertyOp61
 70
     1
102
RTVSPropertyOp62
 70
     1
  0
XRECORD
  5
2A7F7
102
{ACAD_REACTORS
330
2A7F6
102
}
330
2A7F6
100
AcDbXrecord
280
     1
102
RTVSPost2010Prop28
280
     0
102
RTVSPost2010PropOp28
 70
     1
102
RTVSPost2010Prop29
280
     1
102
RTVSPost2010PropOp29
 70
     1
102
RTVSPost2010Prop30
280
     1
102
RTVSPost2010PropOp30
 70
     1
102
RTVSPost2010Prop31
280
     0
102
RTVSPost2010PropOp31
 70
     1
102
RTVSPost2010Prop32
280
     0
102
RTVSPost2010PropOp32
 70
     1
102
RTVSPost2010Prop33
280
     0
102
RTVSPost2010PropOp33
 70
     1
102
RTVSPost2010Prop34
280
     0
102
RTVSPost2010PropOp34
 70
     1
102
RTVSPost2010Prop35
280
     0
102
RTVSPost2010PropOp35
 70
     1
102
RTVSPost2010Prop36
280
     0
102
RTVSPost2010PropOp36
 70
     1
102
RTVSPost2010Prop37
 90
       50
102
RTVSPost2010PropOp37
 70
     1
102
RTVSPost2010Prop38
140
0.0
102
RTVSPost2010PropOp38
 70
     1
102
RTVSPost2010Prop39
140
1.0
102
RTVSPost2010PropOp39
 70
     1
102
RTVSPost2010Prop40
 90
        0
102
RTVSPost2010PropOp40
 70
     1
102
RTVSPost2010Prop41ColorIndex
 90
       18
102
RTVSPost2010Prop41ColorRGB
 90
        0
102
RTVSPost2010PropOp41
 70
     1
102
RTVSPost2010Prop42
 90
       50
102
RTVSPost2010PropOp42
 70
     1
102
RTVSPost2010Prop43
 90
        3
102
RTVSPost2010PropOp43
 70
     1
102
RTVSPost2010Prop44ColorIndex
 90
        5
102
RTVSPost2010Prop44ColorRGB
 90
      255
102
RTVSPost2010PropOp44
 70
     1
102
RTVSPost2010Prop45
280
     0
102
RTVSPost2010PropOp45
 70
     1
102
RTVSPost2010Prop46
 90
       50
102
RTVSPost2010PropOp46
 70
     1
102
RTVSPost2010Prop47
 90
       50
102
RTVSPost2010PropOp47
 70
     1
102
RTVSPost2010Prop48
 90
       50
102
RTVSPost2010PropOp48
 70
     1
102
RTVSPost2010Prop49
280
     0
102
RTVSPost2010PropOp49
 70
     1
102
RTVSPost2010Prop50
 90
       50
102
RTVSPost2010PropOp50
 70
     1
102
RTVSPost2010Prop51ColorIndex
 90
      256
102
RTVSPost2010Prop51ColorRGB
 90
-16777216
102
RTVSPost2010PropOp51
 70
     0
102
RTVSPost2010Prop52
140
1.0
102
RTVSPost2010PropOp52
 70
     0
102
RTVSPost2010Prop53
 90
        2
102
RTVSPost2010PropOp53
 70
     1
102
RTVSPost2010Prop54
  1
strokes_ogs.tif
102
RTVSPost2010PropOp54
 70
     1
102
RTVSPost2010Prop55
280
     0
102
RTVSPost2010PropOp55
 70
     1
102
RTVSPost2010Prop56
140
1.0
102
RTVSPost2010PropOp56
 70
     1
102
RTVSPost2010Prop57
140
1.0
102
RTVSPost2010PropOp57
 70
     1
102
RTVSPropertyOp0
 70
     1
102
RTVSPropertyOp1
 70
     1
102
RTVSPropertyOp2
 70
     1
102
RTVSPropertyOp3
 70
     1
102
RTVSPropertyOp4
 70
     1
102
RTVSPropertyOp5
 70
     1
102
RTVSPropertyOp6
 70
     1
102
RTVSPropertyOp7
 70
     1
102
RTVSPropertyOp8
 70
     1
102
RTVSPropertyOp9
 70
     1
102
RTVSPropertyOp10
 70
     1
102
RTVSPropertyOp11
 70
     1
102
RTVSPropertyOp12
 70
     1
102
RTVSPropertyOp13
 70
     1
102
RTVSPropertyOp14
 70
     1
102
RTVSPropertyOp15
 70
     1
102
RTVSPropertyOp16
 70
     1
102
RTVSPropertyOp17
 70
     1
102
RTVSPropertyOp18
 70
     1
102
RTVSPropertyOp19
 70
     1
102
RTVSPropertyOp20
 70
     1
102
RTVSPropertyOp21
 70
     1
102
RTVSPropertyOp22
 70
     1
102
RTVSPropertyOp23
 70
     1
102
RTVSPropertyOp24
 70
     1
102
RTVSPropertyOp25
 70
     1
102
RTVSPropertyOp26
 70
     1
102
RTVSPropertyOp27
 70
     1
102
RTVSPropertyOp28
 70
     1
102
RTVSPropertyOp29
 70
     1
102
RTVSPropertyOp30
 70
     1
102
RTVSPropertyOp31
 70
     1
102
RTVSPropertyOp32
 70
     1
102
RTVSPropertyOp33
 70
     1
102
RTVSPropertyOp34
 70
     1
102
RTVSPropertyOp35
 70
     1
102
RTVSPropertyOp36
 70
     1
102
RTVSPropertyOp37
 70
     1
102
RTVSPropertyOp38
 70
     1
102
RTVSPropertyOp39
 70
     1
102
RTVSPropertyOp40
 70
     1
102
RTVSPropertyOp41
 70
     1
102
RTVSPropertyOp42
 70
     1
102
RTVSPropertyOp43
 70
     1
102
RTVSPropertyOp44
 70
     1
102
RTVSPropertyOp45
 70
     1
102
RTVSPropertyOp46
 70
     1
102
RTVSPropertyOp47
 70
     1
102
RTVSPropertyOp48
 70
     1
102
RTVSPropertyOp49
 70
     1
102
RTVSPropertyOp50
 70
     1
102
RTVSPropertyOp51
 70
     0
102
RTVSPropertyOp52
 70
     0
102
RTVSPropertyOp53
 70
     1
102
RTVSPropertyOp54
 70
     1
102
RTVSPropertyOp55
 70
     1
102
RTVSPropertyOp56
 70
     1
102
RTVSPropertyOp57
 70
     1
102
RTVSPropertyOp58
 70
     1
102
RTVSPropertyOp59
 70
     1
102
RTVSPropertyOp60
 70
     1
102
RTVSPropertyOp61
 70
     1
102
RTVSPropertyOp62
 70
     1
  0
XRECORD
  5
2A7EB
102
{ACAD_REACTORS
330
2A7EA
102
}
330
2A7EA
100
AcDbXrecord
280
     1
102
RTVSPost2010Prop28
280
     0
102
RTVSPost2010PropOp28
 70
     1
102
RTVSPost2010Prop29
280
     1
102
RTVSPost2010PropOp29
 70
     1
102
RTVSPost2010Prop30
280
     1
102
RTVSPost2010PropOp30
 70
     1
102
RTVSPost2010Prop31
280
     0
102
RTVSPost2010PropOp31
 70
     1
102
RTVSPost2010Prop32
280
     0
102
RTVSPost2010PropOp32
 70
     1
102
RTVSPost2010Prop33
280
     0
102
RTVSPost2010PropOp33
 70
     1
102
RTVSPost2010Prop34
280
     0
102
RTVSPost2010PropOp34
 70
     1
102
RTVSPost2010Prop35
280
     0
102
RTVSPost2010PropOp35
 70
     1
102
RTVSPost2010Prop36
280
     0
102
RTVSPost2010PropOp36
 70
     1
102
RTVSPost2010Prop37
 90
       50
102
RTVSPost2010PropOp37
 70
     1
102
RTVSPost2010Prop38
140
0.0
102
RTVSPost2010PropOp38
 70
     1
102
RTVSPost2010Prop39
140
1.0
102
RTVSPost2010PropOp39
 70
     1
102
RTVSPost2010Prop40
 90
        0
102
RTVSPost2010PropOp40
 70
     1
102
RTVSPost2010Prop41ColorIndex
 90
       18
102
RTVSPost2010Prop41ColorRGB
 90
        0
102
RTVSPost2010PropOp41
 70
     1
102
RTVSPost2010Prop42
 90
       50
102
RTVSPost2010PropOp42
 70
     1
102
RTVSPost2010Prop43
 90
        3
102
RTVSPost2010PropOp43
 70
     1
102
RTVSPost2010Prop44ColorIndex
 90
        5
102
RTVSPost2010Prop44ColorRGB
 90
      255
102
RTVSPost2010PropOp44
 70
     1
102
RTVSPost2010Prop45
280
     0
102
RTVSPost2010PropOp45
 70
     1
102
RTVSPost2010Prop46
 90
       50
102
RTVSPost2010PropOp46
 70
     1
102
RTVSPost2010Prop47
 90
       50
102
RTVSPost2010PropOp47
 70
     1
102
RTVSPost2010Prop48
 90
       50
102
RTVSPost2010PropOp48
 70
     1
102
RTVSPost2010Prop49
280
     0
102
RTVSPost2010PropOp49
 70
     1
102
RTVSPost2010Prop50
 90
       50
102
RTVSPost2010PropOp50
 70
     1
102
RTVSPost2010Prop51ColorIndex
 90
      256
102
RTVSPost2010Prop51ColorRGB
 90
-16777216
102
RTVSPost2010PropOp51
 70
     0
102
RTVSPost2010Prop52
140
1.0
102
RTVSPost2010PropOp52
 70
     0
102
RTVSPost2010Prop53
 90
        2
102
RTVSPost2010PropOp53
 70
     1
102
RTVSPost2010Prop54
  1
strokes_ogs.tif
102
RTVSPost2010PropOp54
 70
     1
102
RTVSPost2010Prop55
280
     0
102
RTVSPost2010PropOp55
 70
     1
102
RTVSPost2010Prop56
140
1.0
102
RTVSPost2010PropOp56
 70
     1
102
RTVSPost2010Prop57
140
1.0
102
RTVSPost2010PropOp57
 70
     1
102
RTVSPropertyOp0
 70
     1
102
RTVSPropertyOp1
 70
     1
102
RTVSPropertyOp2
 70
     1
102
RTVSPropertyOp3
 70
     1
102
RTVSPropertyOp4
 70
     1
102
RTVSPropertyOp5
 70
     1
102
RTVSPropertyOp6
 70
     1
102
RTVSPropertyOp7
 70
     1
102
RTVSPropertyOp8
 70
     1
102
RTVSPropertyOp9
 70
     1
102
RTVSPropertyOp10
 70
     1
102
RTVSPropertyOp11
 70
     1
102
RTVSPropertyOp12
 70
     1
102
RTVSPropertyOp13
 70
     1
102
RTVSPropertyOp14
 70
     1
102
RTVSPropertyOp15
 70
     1
102
RTVSPropertyOp16
 70
     1
102
RTVSPropertyOp17
 70
     1
102
RTVSPropertyOp18
 70
     1
102
RTVSPropertyOp19
 70
     1
102
RTVSPropertyOp20
 70
     1
102
RTVSPropertyOp21
 70
     1
102
RTVSPropertyOp22
 70
     1
102
RTVSPropertyOp23
 70
     1
102
RTVSPropertyOp24
 70
     1
102
RTVSPropertyOp25
 70
     1
102
RTVSPropertyOp26
 70
     1
102
RTVSPropertyOp27
 70
     1
102
RTVSPropertyOp28
 70
     1
102
RTVSPropertyOp29
 70
     1
102
RTVSPropertyOp30
 70
     1
102
RTVSPropertyOp31
 70
     1
102
RTVSPropertyOp32
 70
     1
102
RTVSPropertyOp33
 70
     1
102
RTVSPropertyOp34
 70
     1
102
RTVSPropertyOp35
 70
     1
102
RTVSPropertyOp36
 70
     1
102
RTVSPropertyOp37
 70
     1
102
RTVSPropertyOp38
 70
     1
102
RTVSPropertyOp39
 70
     1
102
RTVSPropertyOp40
 70
     1
102
RTVSPropertyOp41
 70
     1
102
RTVSPropertyOp42
 70
     1
102
RTVSPropertyOp43
 70
     1
102
RTVSPropertyOp44
 70
     1
102
RTVSPropertyOp45
 70
     1
102
RTVSPropertyOp46
 70
     1
102
RTVSPropertyOp47
 70
     1
102
RTVSPropertyOp48
 70
     1
102
RTVSPropertyOp49
 70
     1
102
RTVSPropertyOp50
 70
     1
102
RTVSPropertyOp51
 70
     0
102
RTVSPropertyOp52
 70
     0
102
RTVSPropertyOp53
 70
     1
102
RTVSPropertyOp54
 70
     1
102
RTVSPropertyOp55
 70
     1
102
RTVSPropertyOp56
 70
     1
102
RTVSPropertyOp57
 70
     1
102
RTVSPropertyOp58
 70
     1
102
RTVSPropertyOp59
 70
     1
102
RTVSPropertyOp60
 70
     1
102
RTVSPropertyOp61
 70
     1
102
RTVSPropertyOp62
 70
     1
  0
XRECORD
  5
2A803
102
{ACAD_REACTORS
330
2A802
102
}
330
2A802
100
AcDbXrecord
280
     1
102
RTVSPost2010Prop28
280
     0
102
RTVSPost2010PropOp28
 70
     1
102
RTVSPost2010Prop29
280
     1
102
RTVSPost2010PropOp29
 70
     1
102
RTVSPost2010Prop30
280
     1
102
RTVSPost2010PropOp30
 70
     1
102
RTVSPost2010Prop31
280
     0
102
RTVSPost2010PropOp31
 70
     1
102
RTVSPost2010Prop32
280
     0
102
RTVSPost2010PropOp32
 70
     1
102
RTVSPost2010Prop33
280
     0
102
RTVSPost2010PropOp33
 70
     1
102
RTVSPost2010Prop34
280
     0
102
RTVSPost2010PropOp34
 70
     1
102
RTVSPost2010Prop35
280
     0
102
RTVSPost2010PropOp35
 70
     1
102
RTVSPost2010Prop36
280
     0
102
RTVSPost2010PropOp36
 70
     1
102
RTVSPost2010Prop37
 90
       50
102
RTVSPost2010PropOp37
 70
     1
102
RTVSPost2010Prop38
140
0.0
102
RTVSPost2010PropOp38
 70
     1
102
RTVSPost2010Prop39
140
1.0
102
RTVSPost2010PropOp39
 70
     1
102
RTVSPost2010Prop40
 90
        0
102
RTVSPost2010PropOp40
 70
     1
102
RTVSPost2010Prop41ColorIndex
 90
       18
102
RTVSPost2010Prop41ColorRGB
 90
        0
102
RTVSPost2010PropOp41
 70
     1
102
RTVSPost2010Prop42
 90
       50
102
RTVSPost2010PropOp42
 70
     1
102
RTVSPost2010Prop43
 90
        3
102
RTVSPost2010PropOp43
 70
     1
102
RTVSPost2010Prop44ColorIndex
 90
        5
102
RTVSPost2010Prop44ColorRGB
 90
      255
102
RTVSPost2010PropOp44
 70
     1
102
RTVSPost2010Prop45
280
     0
102
RTVSPost2010PropOp45
 70
     1
102
RTVSPost2010Prop46
 90
       50
102
RTVSPost2010PropOp46
 70
     1
102
RTVSPost2010Prop47
 90
       50
102
RTVSPost2010PropOp47
 70
     1
102
RTVSPost2010Prop48
 90
       50
102
RTVSPost2010PropOp48
 70
     1
102
RTVSPost2010Prop49
280
     0
102
RTVSPost2010PropOp49
 70
     1
102
RTVSPost2010Prop50
 90
       50
102
RTVSPost2010PropOp50
 70
     1
102
RTVSPost2010Prop51ColorIndex
 90
      256
102
RTVSPost2010Prop51ColorRGB
 90
-16777216
102
RTVSPost2010PropOp51
 70
     0
102
RTVSPost2010Prop52
140
1.0
102
RTVSPost2010PropOp52
 70
     0
102
RTVSPost2010Prop53
 90
        2
102
RTVSPost2010PropOp53
 70
     1
102
RTVSPost2010Prop54
  1
strokes_ogs.tif
102
RTVSPost2010PropOp54
 70
     1
102
RTVSPost2010Prop55
280
     0
102
RTVSPost2010PropOp55
 70
     1
102
RTVSPost2010Prop56
140
1.0
102
RTVSPost2010PropOp56
 70
     1
102
RTVSPost2010Prop57
140
1.0
102
RTVSPost2010PropOp57
 70
     1
102
RTVSPropertyOp0
 70
     1
102
RTVSPropertyOp1
 70
     1
102
RTVSPropertyOp2
 70
     1
102
RTVSPropertyOp3
 70
     1
102
RTVSPropertyOp4
 70
     1
102
RTVSPropertyOp5
 70
     1
102
RTVSPropertyOp6
 70
     1
102
RTVSPropertyOp7
 70
     1
102
RTVSPropertyOp8
 70
     1
102
RTVSPropertyOp9
 70
     1
102
RTVSPropertyOp10
 70
     1
102
RTVSPropertyOp11
 70
     1
102
RTVSPropertyOp12
 70
     1
102
RTVSPropertyOp13
 70
     1
102
RTVSPropertyOp14
 70
     1
102
RTVSPropertyOp15
 70
     1
102
RTVSPropertyOp16
 70
     1
102
RTVSPropertyOp17
 70
     1
102
RTVSPropertyOp18
 70
     1
102
RTVSPropertyOp19
 70
     1
102
RTVSPropertyOp20
 70
     1
102
RTVSPropertyOp21
 70
     1
102
RTVSPropertyOp22
 70
     1
102
RTVSPropertyOp23
 70
     1
102
RTVSPropertyOp24
 70
     1
102
RTVSPropertyOp25
 70
     1
102
RTVSPropertyOp26
 70
     1
102
RTVSPropertyOp27
 70
     1
102
RTVSPropertyOp28
 70
     1
102
RTVSPropertyOp29
 70
     1
102
RTVSPropertyOp30
 70
     1
102
RTVSPropertyOp31
 70
     1
102
RTVSPropertyOp32
 70
     1
102
RTVSPropertyOp33
 70
     1
102
RTVSPropertyOp34
 70
     1
102
RTVSPropertyOp35
 70
     1
102
RTVSPropertyOp36
 70
     1
102
RTVSPropertyOp37
 70
     1
102
RTVSPropertyOp38
 70
     1
102
RTVSPropertyOp39
 70
     1
102
RTVSPropertyOp40
 70
     1
102
RTVSPropertyOp41
 70
     1
102
RTVSPropertyOp42
 70
     1
102
RTVSPropertyOp43
 70
     1
102
RTVSPropertyOp44
 70
     1
102
RTVSPropertyOp45
 70
     1
102
RTVSPropertyOp46
 70
     1
102
RTVSPropertyOp47
 70
     1
102
RTVSPropertyOp48
 70
     1
102
RTVSPropertyOp49
 70
     1
102
RTVSPropertyOp50
 70
     1
102
RTVSPropertyOp51
 70
     0
102
RTVSPropertyOp52
 70
     0
102
RTVSPropertyOp53
 70
     1
102
RTVSPropertyOp54
 70
     1
102
RTVSPropertyOp55
 70
     1
102
RTVSPropertyOp56
 70
     1
102
RTVSPropertyOp57
 70
     1
102
RTVSPropertyOp58
 70
     1
102
RTVSPropertyOp59
 70
     1
102
RTVSPropertyOp60
 70
     1
102
RTVSPropertyOp61
 70
     1
102
RTVSPropertyOp62
 70
     1
  0
ENDSEC
  0
EOF
