  0
SECTION
  2
HEADER
  9
$ACADVER
  1
AC1015
  9
$ACADMAINTVER
 70
    20
  9
$DWGCODEPAGE
  3
ANSI_1252
  9
$INSBASE
 10
0.0
 20
0.0
 30
0.0
  9
$EXTMIN
 10
-72.14214916078162
 20
-49.51522713004976
 30
-0.0000000349181948
  9
$EXTMAX
 10
73.15173448360496
 20
54.28421096676515
 30
0.0000000814935747
  9
$LIMMIN
 10
-170.0
 20
-170.0
  9
$LIMMAX
 10
519.0
 20
260.0
  9
$ORTHOMODE
 70
     0
  9
$REGENMODE
 70
     1
  9
$FILLMODE
 70
     1
  9
$QTEXTMODE
 70
     0
  9
$MIRRTEXT
 70
     0
  9
$LTSCALE
 40
1.0
  9
$ATTMODE
 70
     1
  9
$TEXTSIZE
 40
3.5
  9
$TRACEWID
 40
1.0
  9
$TEXTSTYLE
  7
MM_STANDARD
  9
$CLAYER
  8
0
  9
$CELTYPE
  6
ByLayer
  9
$CECOLOR
 62
   256
  9
$CELTSCALE
 40
1.0
  9
$DISPSILH
 70
     0
  9
$DIMSCALE
 40
1.0
  9
$DIMASZ
 40
2.5
  9
$DIMEXO
 40
0.0
  9
$DIMDLI
 40
3.75
  9
$DIMRND
 40
0.0
  9
$DIMDLE
 40
0.0
  9
$DIMEXE
 40
1.25
  9
$DIMTP
 40
0.0
  9
$DIMTM
 40
0.0
  9
$DIMTXT
 40
3.5
  9
$DIMCEN
 40
0.0
  9
$DIMTSZ
 40
0.0
  9
$DIMTOL
 70
     0
  9
$DIMLIM
 70
     0
  9
$DIMTIH
 70
     0
  9
$DIMTOH
 70
     0
  9
$DIMSE1
 70
     0
  9
$DIMSE2
 70
     0
  9
$DIMTAD
 70
     1
  9
$DIMZIN
 70
     9
  9
$DIMBLK
  1

  9
$DIMASO
 70
     1
  9
$DIMSHO
 70
     1
  9
$DIMPOST
  1

  9
$DIMAPOST
  1

  9
$DIMALT
 70
     0
  9
$DIMALTD
 70
     3
  9
$DIMALTF
 40
0.039370078
  9
$DIMLFAC
 40
1.0
  9
$DIMTOFL
 70
     0
  9
$DIMTVP
 40
0.0
  9
$DIMTIX
 70
     0
  9
$DIMSOXD
 70
     0
  9
$DIMSAH
 70
     0
  9
$DIMBLK1
  1

  9
$DIMBLK2
  1

  9
$DIMSTYLE
  2
MM_STANDARD
  9
$DIMCLRD
 70
   256
  9
$DIMCLRE
 70
   256
  9
$DIMCLRT
 70
   256
  9
$DIMTFAC
 40
1.0
  9
$DIMGAP
 40
0.625
  9
$DIMJUST
 70
     0
  9
$DIMSD1
 70
     0
  9
$DIMSD2
 70
     0
  9
$DIMTOLJ
 70
     1
  9
$DIMTZIN
 70
     8
  9
$DIMALTZ
 70
     0
  9
$DIMALTTZ
 70
     0
  9
$DIMUPT
 70
     0
  9
$DIMDEC
 70
     2
  9
$DIMTDEC
 70
     2
  9
$DIMALTU
 70
     2
  9
$DIMALTTD
 70
     3
  9
$DIMTXSTY
  7
MM_STANDARD
  9
$DIMAUNIT
 70
     0
  9
$DIMADEC
 70
     2
  9
$DIMALTRND
 40
0.0
  9
$DIMAZIN
 70
     2
  9
$DIMDSEP
 70
    46
  9
$DIMATFIT
 70
     3
  9
$DIMFRAC
 70
     0
  9
$DIMLDRBLK
  1

  9
$DIMLUNIT
 70
     2
  9
$DIMLWD
 70
    -1
  9
$DIMLWE
 70
    -1
  9
$DIMTMOVE
 70
     0
  9
$LUNITS
 70
     2
  9
$LUPREC
 70
     4
  9
$SKETCHINC
 40
1.0
  9
$FILLETRAD
 40
0.8
  9
$AUNITS
 70
     0
  9
$AUPREC
 70
     0
  9
$MENU
  1
.
  9
$ELEVATION
 40
0.0
  9
$PELEVATION
 40
0.0
  9
$THICKNESS
 40
0.0
  9
$LIMCHECK
 70
     0
  9
$CHAMFERA
 40
0.0
  9
$CHAMFERB
 40
0.0
  9
$CHAMFERC
 40
0.0
  9
$CHAMFERD
 40
0.0
  9
$SKPOLY
 70
     0
  9
$TDCREATE
 40
2453353.800459155
  9
$TDUCREATE
 40
2453353.717125822
  9
$TDUPDATE
 40
2460185.585683264
  9
$TDUUPDATE
 40
2460185.502349931
  9
$TDINDWG
 40
16384.7350637847
  9
$TDUSRTIMER
 40
16384.7350158102
  9
$USRTIMER
 70
     1
  9
$ANGBASE
 50
0.0
  9
$ANGDIR
 70
     0
  9
$PDMODE
 70
     1
  9
$PDSIZE
 40
0.0
  9
$PLINEWID
 40
0.0
  9
$SPLFRAME
 70
     0
  9
$SPLINETYPE
 70
     6
  9
$SPLINESEGS
 70
     8
  9
$HANDSEED
  5
29CD3
  9
$SURFTAB1
 70
     6
  9
$SURFTAB2
 70
     6
  9
$SURFTYPE
 70
     6
  9
$SURFU
 70
     6
  9
$SURFV
 70
     6
  9
$UCSBASE
  2

  9
$UCSNAME
  2

  9
$UCSORG
 10
0.0
 20
0.0
 30
0.0
  9
$UCSXDIR
 10
1.0
 20
0.0
 30
0.0
  9
$UCSYDIR
 10
0.0
 20
1.0
 30
0.0
  9
$UCSORTHOREF
  2

  9
$UCSORTHOVIEW
 70
     0
  9
$UCSORGTOP
 10
0.0
 20
0.0
 30
0.0
  9
$UCSORGBOTTOM
 10
0.0
 20
0.0
 30
0.0
  9
$UCSORGLEFT
 10
0.0
 20
0.0
 30
0.0
  9
$UCSORGRIGHT
 10
0.0
 20
0.0
 30
0.0
  9
$UCSORGFRONT
 10
0.0
 20
0.0
 30
0.0
  9
$UCSORGBACK
 10
0.0
 20
0.0
 30
0.0
  9
$PUCSBASE
  2

  9
$PUCSNAME
  2

  9
$PUCSORG
 10
0.0
 20
0.0
 30
0.0
  9
$PUCSXDIR
 10
1.0
 20
0.0
 30
0.0
  9
$PUCSYDIR
 10
0.0
 20
1.0
 30
0.0
  9
$PUCSORTHOREF
  2

  9
$PUCSORTHOVIEW
 70
     0
  9
$PUCSORGTOP
 10
0.0
 20
0.0
 30
0.0
  9
$PUCSORGBOTTOM
 10
0.0
 20
0.0
 30
0.0
  9
$PUCSORGLEFT
 10
0.0
 20
0.0
 30
0.0
  9
$PUCSORGRIGHT
 10
0.0
 20
0.0
 30
0.0
  9
$PUCSORGFRONT
 10
0.0
 20
0.0
 30
0.0
  9
$PUCSORGBACK
 10
0.0
 20
0.0
 30
0.0
  9
$USERI1
 70
     0
  9
$USERI2
 70
     0
  9
$USERI3
 70
     0
  9
$USERI4
 70
     0
  9
$USERI5
 70
     0
  9
$USERR1
 40
0.0
  9
$USERR2
 40
0.0
  9
$USERR3
 40
0.0
  9
$USERR4
 40
0.0
  9
$USERR5
 40
0.0
  9
$WORLDVIEW
 70
     1
  9
$SHADEDGE
 70
     3
  9
$SHADEDIF
 70
    70
  9
$TILEMODE
 70
     1
  9
$MAXACTVP
 70
    64
  9
$PINSBASE
 10
0.0
 20
0.0
 30
0.0
  9
$PLIMCHECK
 70
     0
  9
$PEXTMIN
 10
0.0
 20
0.0
 30
0.0
  9
$PEXTMAX
 10
0.0
 20
0.0
 30
0.0
  9
$PLIMMIN
 10
0.0
 20
0.0
  9
$PLIMMAX
 10
12.0
 20
9.0
  9
$UNITMODE
 70
     0
  9
$VISRETAIN
 70
     0
  9
$PLINEGEN
 70
     0
  9
$PSLTSCALE
 70
     1
  9
$TREEDEPTH
 70
  3020
  9
$CMLSTYLE
  2
Standard
  9
$CMLJUST
 70
     0
  9
$CMLSCALE
 40
20.0
  9
$PROXYGRAPHICS
 70
     0
  9
$MEASUREMENT
 70
     1
  9
$CELWEIGHT
370
    -1
  9
$ENDCAPS
280
     0
  9
$JOINSTYLE
280
     0
  9
$LWDISPLAY
290
     0
  9
$INSUNITS
 70
     4
  9
$HYPERLINKBASE
  1

  9
$STYLESHEET
  1

  9
$XEDIT
290
     1
  9
$CEPSNTYPE
380
     0
  9
$PSTYLEMODE
290
     1
  9
$FINGERPRINTGUID
  2
{049C219F-BC74-4B97-8A86-7E4B06A8BFF9}
  9
$VERSIONGUID
  2
{D283A389-076C-49D3-A6A7-972E86DD92C2}
  9
$EXTNAMES
290
     1
  9
$PSVPSCALE
 40
0.0
  9
$OLESTARTUP
290
     0
  0
ENDSEC
  0
SECTION
  2
CLASSES
  0
CLASS
  1
ACDBDICTIONARYWDFLT
  2
AcDbDictionaryWithDefault
  3
ObjectDBX Classes
 90
        0
280
     0
281
     0
  0
CLASS
  1
ACDBPLACEHOLDER
  2
AcDbPlaceHolder
  3
ObjectDBX Classes
 90
        0
280
     0
281
     0
  0
CLASS
  1
LAYOUT
  2
AcDbLayout
  3
ObjectDBX Classes
 90
        0
280
     0
281
     0
  0
CLASS
  1
DICTIONARYVAR
  2
AcDbDictionaryVar
  3
ObjectDBX Classes
 90
        0
280
     0
281
     0
  0
CLASS
  1
TABLESTYLE
  2
AcDbTableStyle
  3
ObjectDBX Classes
 90
     4095
280
     0
281
     0
  0
CLASS
  1
SCALE
  2
AcDbScale
  3
ObjectDBX Classes
 90
     1153
280
     0
281
     0
  0
CLASS
  1
RASTERVARIABLES
  2
AcDbRasterVariables
  3
ISM
 90
        0
280
     0
281
     0
  0
CLASS
  1
SORTENTSTABLE
  2
AcDbSortentsTable
  3
ObjectDBX Classes
 90
        0
280
     0
281
     0
  0
CLASS
  1
MATERIAL
  2
AcDbMaterial
  3
ObjectDBX Classes
 90
     1153
280
     0
281
     0
  0
CLASS
  1
VISUALSTYLE
  2
AcDbVisualStyle
  3
ObjectDBX Classes
 90
     4095
280
     0
281
     0
  0
CLASS
  1
MLEADERSTYLE
  2
AcDbMLeaderStyle
  3
ACDB_MLEADERSTYLE_CLASS
 90
     4095
280
     0
281
     0
  0
CLASS
  1
ACDBSECTIONVIEWSTYLE
  2
AcDbSectionViewStyle
  3
ObjectDBX Classes
 90
     1025
280
     0
281
     0
  0
CLASS
  1
ACDBDETAILVIEWSTYLE
  2
AcDbDetailViewStyle
  3
ObjectDBX Classes
 90
     1025
280
     0
281
     0
  0
CLASS
  1
CELLSTYLEMAP
  2
AcDbCellStyleMap
  3
ObjectDBX Classes
 90
     1152
280
     0
281
     0
  0
ENDSEC
  0
SECTION
  2
TABLES
  0
TABLE
  2
VPORT
  5
8
330
0
100
AcDbSymbolTable
 70
     1
  0
VPORT
  5
97
330
8
100
AcDbSymbolTableRecord
100
AcDbViewportTableRecord
  2
*Active
 70
     0
 10
0.0
 20
0.0
 11
1.0
 21
1.0
 12
0.5047926614116634
 22
2.384491918357696
 13
0.0
 23
0.0
 14
5.0
 24
5.0
 15
5.0
 25
5.0
 16
0.0
 26
0.0
 36
1.0
 17
0.0
 27
0.0
 37
0.0
 40
104.5112056723359
 41
1.597254004576659
 42
50.0
 43
0.0
 44
0.0
 50
0.0
 51
0.0
 71
    16
 72
  2000
 73
     1
 74
     3
 75
     0
 76
     0
 77
     0
 78
     0
281
     0
 65
     1
110
0.0
120
0.0
130
0.0
111
1.0
121
0.0
131
0.0
112
0.0
122
1.0
132
0.0
 79
     0
146
0.0
1001
ACAD_NAV_VCDISPLAY
1070
     3
  0
ENDTAB
  0
TABLE
  2
LTYPE
  5
5
330
0
100
AcDbSymbolTable
 70
     5
  0
LTYPE
  5
14
330
5
100
AcDbSymbolTableRecord
100
AcDbLinetypeTableRecord
  2
ByBlock
 70
     0
  3

 72
    65
 73
     0
 40
0.0
  0
LTYPE
  5
15
330
5
100
AcDbSymbolTableRecord
100
AcDbLinetypeTableRecord
  2
ByLayer
 70
     0
  3

 72
    65
 73
     0
 40
0.0
  0
LTYPE
  5
16
330
5
100
AcDbSymbolTableRecord
100
AcDbLinetypeTableRecord
  2
Continuous
 70
     0
  3
Solid line
 72
    65
 73
     0
 40
0.0
  0
LTYPE
  5
29B5A
330
5
100
AcDbSymbolTableRecord
100
AcDbLinetypeTableRecord
  2
CENTER2
 70
     0
  3
Center (.5x) ___ _ ___ _ ___ _ ___ _ ___ _ ___
 72
    65
 73
     4
 40
28.57499999999999
 49
19.05
 74
     4
 75
     0
340
0
 46
1.0
 50
0.0
 44
0.0
 45
0.0
 49
-3.174999999999998
 74
     4
 75
     0
340
0
 46
1.0
 50
0.0
 44
0.0
 45
0.0
 49
3.174999999999998
 74
     4
 75
     0
340
0
 46
1.0
 50
0.0
 44
0.0
 45
0.0
 49
-3.174999999999998
 74
     4
 75
     0
340
0
 46
1.0
 50
0.0
 44
0.0
 45
0.0
  0
LTYPE
  5
29B5B
330
5
100
AcDbSymbolTableRecord
100
AcDbLinetypeTableRecord
  2
HIDDEN
 70
     0
  3
Hidden __ __ __ __ __ __ __ __ __ __ __ __ __ _
 72
    65
 73
     2
 40
9.524999999999996
 49
6.349999999999997
 74
     4
 75
     0
340
0
 46
1.0
 50
0.0
 44
0.0
 45
0.0
 49
-3.174999999999998
 74
     4
 75
     0
340
0
 46
1.0
 50
0.0
 44
0.0
 45
0.0
  0
ENDTAB
  0
TABLE
  2
LAYER
  5
2
102
{ACAD_XDICTIONARY
360
29B67
102
}
330
0
100
AcDbSymbolTable
 70
    13
  0
LAYER
  5
10
102
{ACAD_XDICTIONARY
360
29B5E
102
}
330
2
100
AcDbSymbolTableRecord
100
AcDbLayerTableRecord
  2
0
 70
     0
 62
     7
  6
Continuous
370
    -3
390
F
  0
LAYER
  5
23
102
{ACAD_XDICTIONARY
360
29B5F
102
}
330
2
100
AcDbSymbolTableRecord
100
AcDbLayerTableRecord
  2
1
 70
     0
 62
     4
  6
Continuous
370
    50
390
F
  0
LAYER
  5
25
102
{ACAD_XDICTIONARY
360
29B60
102
}
330
2
100
AcDbSymbolTableRecord
100
AcDbLayerTableRecord
  2
2
 70
     0
 62
     7
  6
Continuous
370
    25
390
F
  0
LAYER
  5
173A
102
{ACAD_XDICTIONARY
360
29B61
102
}
330
2
100
AcDbSymbolTableRecord
100
AcDbLayerTableRecord
  2
SK2
 70
     0
 62
     7
  6
Continuous
370
    25
390
F
  0
LAYER
  5
2A
102
{ACAD_XDICTIONARY
360
29B62
102
}
330
2
100
AcDbSymbolTableRecord
100
AcDbLayerTableRecord
  2
4
 70
     0
 62
     2
  6
CENTER2
370
    25
390
F
  0
LAYER
  5
2E
102
{ACAD_XDICTIONARY
360
29B63
102
}
330
2
100
AcDbSymbolTableRecord
100
AcDbLayerTableRecord
  2
SK6
 70
     0
 62
     5
  6
Continuous
370
    -3
390
F
  0
LAYER
  5
2F
330
2
100
AcDbSymbolTableRecord
100
AcDbLayerTableRecord
  2
DEFPOINTS
 70
     0
 62
     7
  6
Continuous
290
     0
370
    25
390
F
  0
LAYER
  5
375
102
{ACAD_XDICTIONARY
360
29B64
102
}
330
2
100
AcDbSymbolTableRecord
100
AcDbLayerTableRecord
  2
CUT
 70
     0
 62
     1
  6
Continuous
370
    25
390
F
  0
LAYER
  5
376
102
{ACAD_XDICTIONARY
360
29B65
102
}
330
2
100
AcDbSymbolTableRecord
100
AcDbLayerTableRecord
  2
NOCUT
 70
     0
 62
     7
  6
Continuous
370
    -3
390
F
  0
LAYER
  5
49B
102
{ACAD_XDICTIONARY
360
29B66
102
}
330
2
100
AcDbSymbolTableRecord
100
AcDbLayerTableRecord
  2
INFTOTAL
 70
     0
 62
     9
  6
Continuous
370
    18
390
F
1001
AcAecLayerStandard
1000

1000

  0
LAYER
  5
1D28
330
2
100
AcDbSymbolTableRecord
100
AcDbLayerTableRecord
  2
SK4
 70
     0
 62
     2
  6
CENTER2
370
    25
390
F
  0
LAYER
  5
8BCD
330
2
100
AcDbSymbolTableRecord
100
AcDbLayerTableRecord
  2
SK1
 70
     0
 62
     4
  6
Continuous
370
    50
390
F
  0
LAYER
  5
14429
330
2
100
AcDbSymbolTableRecord
100
AcDbLayerTableRecord
  2
SK3
 70
     0
 62
     1
  6
HIDDEN
370
    35
390
F
  0
ENDTAB
  0
TABLE
  2
STYLE
  5
3
330
0
100
AcDbSymbolTable
 70
     2
  0
STYLE
  5
11
330
3
100
AcDbSymbolTableRecord
100
AcDbTextStyleTableRecord
  2
Standard
 70
     0
 40
0.0
 41
1.0
 50
0.0
 71
     0
 42
5.0
  3
monos.ttf
  4

1001
ACAD
1000
Monospac821 BT
1071
       49
  0
STYLE
  5
8B9
330
3
100
AcDbSymbolTableRecord
100
AcDbTextStyleTableRecord
  2
MM_STANDARD
 70
     0
 40
3.5
 41
1.0
 50
0.0
 71
     0
 42
3.5
  3
monos.ttf
  4

1001
ACAD
1000
Monospac821 BT
1071
       49
  0
ENDTAB
  0
TABLE
  2
VIEW
  5
6
330
0
100
AcDbSymbolTable
 70
     0
  0
ENDTAB
  0
TABLE
  2
UCS
  5
7
330
0
100
AcDbSymbolTable
 70
     0
  0
ENDTAB
  0
TABLE
  2
APPID
  5
9
330
0
100
AcDbSymbolTable
 70
    25
  0
APPID
  5
12
330
9
100
AcDbSymbolTableRecord
100
AcDbRegAppTableRecord
  2
ACAD
 70
     0
  0
APPID
  5
29B42
330
9
100
AcDbSymbolTableRecord
100
AcDbRegAppTableRecord
  2
ACAD_PSEXT
 70
     0
  0
APPID
  5
29B43
330
9
100
AcDbSymbolTableRecord
100
AcDbRegAppTableRecord
  2
ACAD_EXEMPT_FROM_CAD_STANDARDS
 70
     0
  0
APPID
  5
29B44
330
9
100
AcDbSymbolTableRecord
100
AcDbRegAppTableRecord
  2
ACAD_MLEADERVER
 70
     0
  0
APPID
  5
29B45
330
9
100
AcDbSymbolTableRecord
100
AcDbRegAppTableRecord
  2
ACAD_DSTYLE_DIMJAG
 70
     0
  0
APPID
  5
29B46
330
9
100
AcDbSymbolTableRecord
100
AcDbRegAppTableRecord
  2
ACAD_DSTYLE_DIMBREAK
 70
     0
  0
APPID
  5
29B47
330
9
100
AcDbSymbolTableRecord
100
AcDbRegAppTableRecord
  2
ACAD_DSTYLE_DIMTALN
 70
     0
  0
APPID
  5
29B48
330
9
100
AcDbSymbolTableRecord
100
AcDbRegAppTableRecord
  2
AcAecLayerStandard
 70
     0
  0
APPID
  5
29B49
330
9
100
AcDbSymbolTableRecord
100
AcDbRegAppTableRecord
  2
DCO15
 70
     0
  0
APPID
  5
29B4A
330
9
100
AcDbSymbolTableRecord
100
AcDbRegAppTableRecord
  2
AcadAnnoPO
 70
     0
  0
APPID
  5
29B4B
330
9
100
AcDbSymbolTableRecord
100
AcDbRegAppTableRecord
  2
ACAD_DSTYLE_DIMRADIAL_EXTENSION
 70
     0
  0
APPID
  5
29B4C
330
9
100
AcDbSymbolTableRecord
100
AcDbRegAppTableRecord
  2
AcadAnnotative
 70
     0
  0
APPID
  5
29B4D
330
9
100
AcDbSymbolTableRecord
100
AcDbRegAppTableRecord
  2
AcDbDynamicBlockGUID
 70
     0
  0
APPID
  5
29B4E
330
9
100
AcDbSymbolTableRecord
100
AcDbRegAppTableRecord
  2
AcDbBlockRepETag
 70
     0
  0
APPID
  5
29B4F
330
9
100
AcDbSymbolTableRecord
100
AcDbRegAppTableRecord
  2
MCAD_NO_VIS
 70
     0
  0
APPID
  5
29B50
330
9
100
AcDbSymbolTableRecord
100
AcDbRegAppTableRecord
  2
ACAD_TEMP_GRAPHIC
 70
     0
  0
APPID
  5
29B51
330
9
100
AcDbSymbolTableRecord
100
AcDbRegAppTableRecord
  2
ACATTRIBSERVICES
 70
     0
  0
APPID
  5
29B52
330
9
100
AcDbSymbolTableRecord
100
AcDbRegAppTableRecord
  2
DESIGNERASSEMBLIES
 70
     0
  0
APPID
  5
29B53
330
9
100
AcDbSymbolTableRecord
100
AcDbRegAppTableRecord
  2
ACAD_NAV_VCDISPLAY
 70
     0
  0
APPID
  5
29B54
330
9
100
AcDbSymbolTableRecord
100
AcDbRegAppTableRecord
  2
ACAD_DSTYLE_DIM_LINETYPE
 70
     0
  0
APPID
  5
29B55
330
9
100
AcDbSymbolTableRecord
100
AcDbRegAppTableRecord
  2
ACAD_DSTYLE_DIM_EXT1_LINETYPE
 70
     0
  0
APPID
  5
29B56
330
9
100
AcDbSymbolTableRecord
100
AcDbRegAppTableRecord
  2
ACAD_DSTYLE_DIM_EXT2_LINETYPE
 70
     0
  0
APPID
  5
29B57
330
9
100
AcDbSymbolTableRecord
100
AcDbRegAppTableRecord
  2
ACAD_DSTYLE_DIMARC_LENGTH_SYMBOL
 70
     0
  0
APPID
  5
29B58
330
9
100
AcDbSymbolTableRecord
100
AcDbRegAppTableRecord
  2
AcDbAttr
 70
     0
  0
APPID
  5
29B59
330
9
100
AcDbSymbolTableRecord
100
AcDbRegAppTableRecord
  2
AcadAnnoMonitorAlertIconDisabled
 70
     0
  0
ENDTAB
  0
TABLE
  2
DIMSTYLE
  5
A
330
0
100
AcDbSymbolTable
 70
     2
100
AcDbDimStyleTable
 71
     0
  0
DIMSTYLE
105
27
330
A
100
AcDbSymbolTableRecord
100
AcDbDimStyleTableRecord
  2
Standard
 70
     0
 77
     1
276
     1
278
     0
340
11
  0
DIMSTYLE
105
3F
102
{ACAD_REACTORS
330
28EA8
330
28ED0
330
28EDD
330
28EEC
330
29085
330
2909E
330
29A73
102
}
330
A
100
AcDbSymbolTableRecord
100
AcDbDimStyleTableRecord
  2
MM_STANDARD
 70
     0
 41
2.5
 42
0.0
 43
3.75
 44
1.25
 73
     0
 74
     0
 77
     1
 78
     1
140
3.5
141
0.0
143
0.039370078
147
0.625
171
     3
176
   256
177
   256
178
   256
179
     2
271
     2
272
     2
274
     3
284
     8
340
8B9
371
    -1
372
    -1
1001
ACAD_DSTYLE_DIMJAG
1070
   388
1040
1.5
1001
ACAD_DSTYLE_DIMTALN
1070
   392
1070
     0
  0
ENDTAB
  0
TABLE
  2
BLOCK_RECORD
  5
1
330
0
100
AcDbSymbolTable
 70
    25
  0
BLOCK_RECORD
  5
1F
102
{ACAD_XDICTIONARY
360
29B9B
102
}
330
1
100
AcDbSymbolTableRecord
100
AcDbBlockTableRecord
  2
*Model_Space
340
22
  0
BLOCK_RECORD
  5
73
330
1
100
AcDbSymbolTableRecord
100
AcDbBlockTableRecord
  2
*Paper_Space
340
74
  0
BLOCK_RECORD
  5
962
330
1
100
AcDbSymbolTableRecord
100
AcDbBlockTableRecord
  2
CERO_POINT
340
0
102
{BLKREFS
331
29207
102
}
1001
ACAD
1000
DesignCenter Data
1002
{
1070
     1
1070
     4
1002
}
  0
BLOCK_RECORD
  5
28EB4
330
1
100
AcDbSymbolTableRecord
100
AcDbBlockTableRecord
  2
*D8
340
0
  0
BLOCK_RECORD
  5
28EDC
330
1
100
AcDbSymbolTableRecord
100
AcDbBlockTableRecord
  2
*D10
340
0
  0
BLOCK_RECORD
  5
28EEB
330
1
100
AcDbSymbolTableRecord
100
AcDbBlockTableRecord
  2
*D11
340
0
  0
BLOCK_RECORD
  5
28EF8
330
1
100
AcDbSymbolTableRecord
100
AcDbBlockTableRecord
  2
*D12
340
0
  0
BLOCK_RECORD
  5
29090
330
1
100
AcDbSymbolTableRecord
100
AcDbBlockTableRecord
  2
*D13
340
0
  0
BLOCK_RECORD
  5
290A9
330
1
100
AcDbSymbolTableRecord
100
AcDbBlockTableRecord
  2
*D14
340
0
  0
BLOCK_RECORD
  5
2953A
330
1
100
AcDbSymbolTableRecord
100
AcDbBlockTableRecord
  2
_NONE
340
0
  0
BLOCK_RECORD
  5
29A7E
330
1
100
AcDbSymbolTableRecord
100
AcDbBlockTableRecord
  2
*D24
340
0
  0
ENDTAB
  0
ENDSEC
  0
SECTION
  2
BLOCKS
  0
BLOCK
  5
20
330
1F
100
AcDbEntity
  8
0
100
AcDbBlockBegin
  2
*Model_Space
 70
     0
 10
0.0
 20
0.0
 30
0.0
  3
*Model_Space
  1

  0
ENDBLK
  5
21
330
1F
100
AcDbEntity
  8
0
100
AcDbBlockEnd
  0
BLOCK
  5
75
330
73
100
AcDbEntity
 67
     1
  8
0
100
AcDbBlockBegin
  2
*Paper_Space
 70
     0
 10
0.0
 20
0.0
 30
0.0
  3
*Paper_Space
  1

  0
ENDBLK
  5
76
330
73
100
AcDbEntity
 67
     1
  8
0
100
AcDbBlockEnd
  0
BLOCK
  5
29B68
330
962
100
AcDbEntity
  8
0
100
AcDbBlockBegin
  2
CERO_POINT
 70
     0
 10
0.0
 20
0.0
 30
0.0
  3
CERO_POINT
  1

  0
CIRCLE
  5
964
102
{ACAD_REACTORS
330
969
102
}
330
962
100
AcDbEntity
  8
SK2
100
AcDbCircle
 10
0.0
 20
0.0
 30
0.0
 40
2.5
  0
LINE
  5
965
330
962
100
AcDbEntity
  8
SK2
100
AcDbLine
 10
0.0900000000037835
 20
0.0
 30
0.0
 11
-0.0899999999965076
 21
0.0
 31
0.0
  0
LINE
  5
966
330
962
100
AcDbEntity
  8
SK2
100
AcDbLine
 10
0.0
 20
0.0899999999999182
 30
0.0
 11
0.0
 21
-0.0899999999999182
 31
0.0
  0
LINE
  5
967
102
{ACAD_REACTORS
330
969
102
}
330
962
100
AcDbEntity
  8
SK2
100
AcDbLine
 10
0.0
 20
-2.5
 30
0.0
 11
0.0
 21
2.5
 31
0.0
  0
LINE
  5
968
102
{ACAD_REACTORS
330
969
102
}
330
962
100
AcDbEntity
  8
SK2
100
AcDbLine
 10
2.5
 20
0.0
 30
0.0
 11
-2.5
 21
0.0
 31
0.0
  0
HATCH
  5
969
330
962
100
AcDbEntity
  8
SK2
100
AcDbHatch
 10
0.0
 20
0.0
 30
0.0
210
0.0
220
0.0
230
1.0
  2
ANSI31
 70
     0
 71
     1
 91
        2
 92
        7
 72
     1
 73
     1
 93
        3
 10
0.0
 20
-2.5
 42
0.4142135623730951
 10
2.5
 20
0.0
 42
0.0
 10
0.0
 20
0.0
 42
0.0
 97
        3
330
964
330
968
330
967
 92
        7
 72
     1
 73
     1
 93
        3
 10
0.0
 20
0.0
 42
0.0
 10
0.0
 20
2.5
 42
0.4142135623730951
 10
-2.5
 20
0.0
 42
0.0
 97
        3
330
968
330
967
330
964
 75
     0
 76
     1
 52
180.0
 41
0.1
 77
     0
 78
     1
 53
225.0
 43
5.170976743218488
 44
0.0
 45
0.2245064030267288
 46
-0.2245064030267289
 79
     0
 47
0.0243816376539857
 98
        2
 10
0.8789156907296272
 20
-1.044463114528752
 10
-0.8545028512526187
 20
0.7841600866017872
1001
ACAD
1010
0.0
1020
0.0
1030
0.0
  0
ENDBLK
  5
29B69
330
962
100
AcDbEntity
  8
0
100
AcDbBlockEnd
  0
BLOCK
  5
29B78
330
28EB4
100
AcDbEntity
  8
0
100
AcDbBlockBegin
  2
*D8
 70
     1
 10
0.0
 20
0.0
 30
0.0
  3
*D8
  1

  0
POINT
  5
29470
330
28EB4
100
AcDbEntity
  8
DEFPOINTS
  6
ByBlock
100
AcDbPoint
 10
-20.00000000000003
 20
-5.0
 30
0.0
  0
POINT
  5
29471
330
28EB4
100
AcDbEntity
  8
DEFPOINTS
  6
ByBlock
100
AcDbPoint
 10
-20.00000000000003
 20
5.0
 30
0.0
  0
LINE
  5
29472
330
28EB4
100
AcDbEntity
  8
SK2
  6
ByBlock
100
AcDbLine
 10
-20.00000000000003
 20
-5.0
 30
0.0
 11
-33.87080600000002
 21
-5.0
 31
0.0
  0
LINE
  5
29473
330
28EB4
100
AcDbEntity
  8
SK2
  6
ByBlock
100
AcDbLine
 10
-20.00000000000003
 20
5.0
 30
0.0
 11
-33.87080600000002
 21
5.0
 31
0.0
  0
LINE
  5
29474
330
28EB4
100
AcDbEntity
  8
SK2
  6
ByBlock
100
AcDbLine
 10
-32.62080600000002
 20
-5.0
 30
0.0
 11
-32.62080600000002
 21
5.0
 31
0.0
  0
SOLID
  5
29475
330
28EB4
100
AcDbEntity
  8
SK2
  6
ByBlock
100
AcDbTrace
 10
-32.62080600000002
 20
-5.0
 30
0.0
 11
-32.20413933333327
 21
-2.5
 31
0.0
 12
-33.03747266666678
 22
-2.5
 32
0.0
 13
-33.03747266666678
 23
-2.5
 33
0.0
  0
SOLID
  5
29476
330
28EB4
100
AcDbEntity
  8
SK2
  6
ByBlock
100
AcDbTrace
 10
-32.62080600000002
 20
5.0
 30
0.0
 11
-32.20413933333327
 21
2.5
 31
0.0
 12
-33.03747266666678
 22
2.5
 32
0.0
 13
-33.03747266666678
 23
2.5
 33
0.0
  0
LINE
  5
29477
330
28EB4
100
AcDbEntity
  8
SK2
  6
ByBlock
100
AcDbLine
 10
-20.00000000000003
 20
-5.0
 30
0.0
 11
-20.00000000000003
 21
-5.0
 31
0.0
  0
MTEXT
  5
29478
330
28EB4
100
AcDbEntity
  8
SK2
  6
ByBlock
100
AcDbMText
 10
-35.06836397610683
 20
0.7841750000000049
 30
0.0
 40
3.5
 41
0.0
 71
     5
 72
     1
  1
M\A1;10
  7
MM_STANDARD
 11
0.0000000000000001
 21
1.0
 31
0.0
 73
     1
 44
1.0
1001
ACAD
1000
MTEXTBEGIN
1070
    73
1070
     1
1070
    44
1040
1.0
1070
    74
1070
     0
1000
MTEXTEND
  0
ENDBLK
  5
29B79
330
28EB4
100
AcDbEntity
  8
0
100
AcDbBlockEnd
  0
BLOCK
  5
29B7C
330
28EDC
100
AcDbEntity
  8
0
100
AcDbBlockBegin
  2
*D10
 70
     1
 10
0.0
 20
0.0
 30
0.0
  3
*D10
  1

  0
POINT
  5
29494
330
28EDC
100
AcDbEntity
  8
DEFPOINTS
  6
ByBlock
100
AcDbPoint
 10
-20.00000000000003
 20
5.0
 30
0.0
  0
POINT
  5
29495
330
28EDC
100
AcDbEntity
  8
DEFPOINTS
  6
ByBlock
100
AcDbPoint
 10
26.95027699999997
 20
8.216596000000008
 30
0.0
  0
LINE
  5
29496
330
28EDC
100
AcDbEntity
  8
SK2
  6
ByBlock
100
AcDbLine
 10
-20.00000000000003
 20
5.0
 30
0.0
 11
-19.99861956688741
 21
46.45334969756052
 31
0.0
  0
LINE
  5
29497
330
28EDC
100
AcDbEntity
  8
SK2
  6
ByBlock
100
AcDbLine
 10
26.95027699999997
 20
8.216596000000008
 30
0.0
 11
26.95155026556297
 21
46.45178621548843
 31
0.0
  0
LINE
  5
29498
330
28EDC
100
AcDbEntity
  8
SK2
  6
ByBlock
100
AcDbLine
 10
-19.99866119299005
 20
45.20334969825361
 30
0.0
 11
26.95150863946032
 21
45.20178621618153
 31
0.0
  0
SOLID
  5
29499
330
28EDC
100
AcDbEntity
  8
SK2
  6
ByBlock
100
AcDbTrace
 10
-19.99866119299005
 20
45.20334969825361
 30
0.0
 11
-17.4986750697438
 21
44.78659977961259
 31
0.0
 12
-17.4986473190087
 22
45.61993311248403
 32
0.0
 13
-17.4986473190087
 23
45.61993311248403
 33
0.0
  0
SOLID
  5
2949A
330
28EDC
100
AcDbEntity
  8
SK2
  6
ByBlock
100
AcDbTrace
 10
26.95150863946032
 20
45.20178621618153
 30
0.0
 11
24.45149476547895
 21
44.78520280195112
 31
0.0
 12
24.45152251621407
 22
45.61853613482256
 32
0.0
 13
24.45152251621407
 23
45.61853613482256
 33
0.0
  0
LINE
  5
2949B
330
28EDC
100
AcDbEntity
  8
SK2
  6
ByBlock
100
AcDbLine
 10
-20.00000000000003
 20
5.0
 30
0.0
 11
-20.00000000000003
 21
5.0
 31
0.0
  0
MTEXT
  5
2949C
330
28EDC
100
AcDbEntity
  8
SK2
  6
ByBlock
100
AcDbMText
 10
3.475218089594997
 20
47.57756799868312
 30
0.0
 40
3.5
 41
0.0
 71
     5
 72
     1
  1
\A1;47
  7
MM_STANDARD
 11
0.9999999994455258
 21
-0.0000333008821224
 31
0.0
 73
     1
 44
1.0
1001
ACAD
1000
MTEXTBEGIN
1070
    73
1070
     1
1070
    44
1040
1.0
1070
    74
1070
     0
1000
MTEXTEND
  0
ENDBLK
  5
29B7D
330
28EDC
100
AcDbEntity
  8
0
100
AcDbBlockEnd
  0
BLOCK
  5
29B7E
330
28EEB
100
AcDbEntity
  8
0
100
AcDbBlockBegin
  2
*D11
 70
     1
 10
0.0
 20
0.0
 30
0.0
  3
*D11
  1

  0
MTEXT
  5
294A9
330
28EEB
100
AcDbEntity
  8
2
  6
ByBlock
100
AcDbMText
 10
41.47938868631135
 20
18.65259041406424
 30
0.0
 40
3.5
 41
0.0
 71
     5
 72
     1
  1
\A1;75%%d~90%%d
  7
MM_STANDARD
 11
0.9919513956369975
 21
-0.1266192271884985
 31
0.0
 73
     1
 44
1.0
1001
ACAD
1000
MTEXTBEGIN
1070
    73
1070
     1
1070
    44
1040
1.0
1070
    74
1070
     0
1000
MTEXTEND
  0
POINT
  5
294AA
330
28EEB
100
AcDbEntity
  8
DEFPOINTS
  6
ByBlock
100
AcDbPoint
 10
27.04251199999996
 20
8.405170999999995
 30
0.0
  0
POINT
  5
294AB
330
28EEB
100
AcDbEntity
  8
DEFPOINTS
  6
ByBlock
100
AcDbPoint
 10
26.95027599999995
 20
8.429884999999986
 30
0.0
  0
POINT
  5
294AC
330
28EEB
100
AcDbEntity
  8
DEFPOINTS
  6
ByBlock
100
AcDbPoint
 10
26.95027599999995
 20
8.081085000000001
 30
0.0
  0
POINT
  5
294AD
330
28EEB
100
AcDbEntity
  8
DEFPOINTS
  6
ByBlock
100
AcDbPoint
 10
26.95027599999995
 20
8.429884999999986
 30
0.0
  0
SOLID
  5
294AE
330
28EEB
100
AcDbEntity
  8
2
  6
ByBlock
100
AcDbTrace
 10
26.95027599999995
 20
18.30200338008706
 30
0.0
 11
24.523155522236
 21
17.57214223060032
 31
0.0
 12
24.4176394995789
 22
18.39876839363131
 32
0.0
 13
24.4176394995789
 23
18.39876839363131
 33
0.0
  0
SOLID
  5
294AF
330
28EEB
100
AcDbEntity
  8
2
  6
ByBlock
100
AcDbTrace
 10
17.4145273785747
 20
10.9849230700568
 30
0.0
 11
17.97654007109627
 21
13.45630989622461
 31
0.0
 12
18.7476918691767
 22
13.14044703237062
 32
0.0
 13
18.7476918691767
 23
13.14044703237062
 33
0.0
  0
LINE
  5
294B0
330
28EEB
100
AcDbEntity
  8
2
  6
ByBlock
100
AcDbLine
 10
26.95027599999995
 20
8.429884999999986
 30
0.0
 11
26.95027599999995
 21
18.30200338008706
 31
0.0
  0
LINE
  5
294B1
330
28EEB
100
AcDbEntity
  8
2
  6
ByBlock
100
AcDbLine
 10
26.95027599999995
 20
8.429884999999986
 30
0.0
 11
16.20711825746604
 21
11.30844001592458
 31
0.0
  0
ARC
  5
294B2
330
28EEB
100
AcDbEntity
  8
2
  6
ByBlock
100
AcDbCircle
 10
26.95027599999995
 20
8.429884999999986
 30
0.0
 40
9.872118380087076
100
AcDbArc
 50
104.5485474641033
 51
150.4517780913208
  0
ARC
  5
294B3
330
28EEB
100
AcDbEntity
  8
2
  6
ByBlock
100
AcDbCircle
 10
26.95027599999995
 20
8.429884999999986
 30
0.0
 40
9.872118380087076
100
AcDbArc
 50
69.36920345011827
 51
90.0
  0
LINE
  5
294B4
330
28EEB
100
AcDbEntity
  8
2
  6
ByBlock
100
AcDbLine
 10
30.42866489180815
 20
17.66890724414457
 30
0.0
 11
51.92867115166971
 21
14.92450445470812
 31
0.0
  0
ENDBLK
  5
29B7F
330
28EEB
100
AcDbEntity
  8
0
100
AcDbBlockEnd
  0
BLOCK
  5
29B80
330
28EF8
100
AcDbEntity
  8
0
100
AcDbBlockBegin
  2
*D12
 70
     1
 10
0.0
 20
0.0
 30
0.0
  3
*D12
  1

  0
POINT
  5
294BE
330
28EF8
100
AcDbEntity
  8
DEFPOINTS
  6
ByBlock
100
AcDbPoint
 10
26.95027699999997
 20
8.216596000000008
 30
0.0
  0
POINT
  5
294BF
330
28EF8
100
AcDbEntity
  8
DEFPOINTS
  6
ByBlock
100
AcDbPoint
 10
14.94999999999996
 20
9.881126999999992
 30
0.0
  0
LINE
  5
294C0
330
28EF8
100
AcDbEntity
  8
2
  6
ByBlock
100
AcDbLine
 10
26.95027699999997
 20
8.216596000000008
 30
0.0
 11
26.95058063498765
 21
26.45244852056042
 31
0.0
  0
LINE
  5
294C1
330
28EF8
100
AcDbEntity
  8
2
  6
ByBlock
100
AcDbLine
 10
14.94999999999996
 20
9.881126999999992
 30
0.0
 11
14.95027592313925
 21
26.45264833092678
 31
0.0
  0
LINE
  5
294C2
330
28EF8
100
AcDbEntity
  8
2
  6
ByBlock
100
AcDbLine
 10
26.95055982193632
 20
25.20244852073368
 30
0.0
 11
14.95025511008792
 21
25.20264833110005
 31
0.0
  0
SOLID
  5
294C3
330
28EF8
100
AcDbEntity
  8
2
  6
ByBlock
100
AcDbTrace
 10
26.95055982193632
 20
25.20244852073368
 30
0.0
 11
24.45056675996664
 21
25.61915681344533
 31
0.0
 12
24.45055288459909
 22
24.78582348022735
 32
0.0
 13
24.45055288459909
 23
24.78582348022735
 33
0.0
  0
SOLID
  5
294C4
330
28EF8
100
AcDbEntity
  8
2
  6
ByBlock
100
AcDbTrace
 10
14.95025511008792
 20
25.20264833110005
 30
0.0
 11
17.45026204742515
 21
25.6192733716064
 31
0.0
 12
17.4502481720576
 22
24.7859400383884
 32
0.0
 13
17.4502481720576
 23
24.7859400383884
 33
0.0
  0
LINE
  5
294C5
330
28EF8
100
AcDbEntity
  8
2
  6
ByBlock
100
AcDbLine
 10
26.95027699999997
 20
8.216596000000008
 30
0.0
 11
26.95027699999997
 21
8.216596000000008
 31
0.0
  0
MTEXT
  5
294C6
330
28EF8
100
AcDbEntity
  8
2
  6
ByBlock
100
AcDbMText
 10
19.77485791337716
 20
27.59970433136131
 30
0.0
 40
3.5
 41
0.0
 71
     5
 72
     1
  1
\A1;12
  7
MM_STANDARD
 11
0.9999999998613816
 21
-0.0000166504410634
 31
0.0
 73
     1
 44
1.0
1001
ACAD
1000
MTEXTBEGIN
1070
    73
1070
     1
1070
    44
1040
1.0
1070
    74
1070
     0
1000
MTEXTEND
  0
ENDBLK
  5
29B81
330
28EF8
100
AcDbEntity
  8
0
100
AcDbBlockEnd
  0
BLOCK
  5
29B82
330
29090
100
AcDbEntity
  8
0
100
AcDbBlockBegin
  2
*D13
 70
     1
 10
0.0
 20
0.0
 30
0.0
  3
*D13
  1

  0
LINE
  5
29BE4
330
29090
100
AcDbEntity
  8
SK2
  6
ByBlock
100
AcDbLine
 10
-0.0000000000000284
 20
9.000000000000001
 30
0.0
 11
-45.87032143603193
 21
8.999999999999996
 31
0.0
  0
LINE
  5
29BE5
330
29090
100
AcDbEntity
  8
SK2
  6
ByBlock
100
AcDbLine
 10
-0.0000000000000284
 20
-9.000000000000001
 30
0.0
 11
-45.87032143603193
 21
-9.000000000000008
 31
0.0
  0
LINE
  5
29BE6
330
29090
100
AcDbEntity
  8
SK2
  6
ByBlock
100
AcDbLine
 10
-44.62032143603193
 20
6.499999999999997
 30
0.0
 11
-44.62032143603193
 21
-6.500000000000007
 31
0.0
  0
SOLID
  5
29BE7
330
29090
100
AcDbEntity
  8
SK2
100
AcDbTrace
 10
-45.0369881026986
 20
6.499999999999997
 30
0.0
 11
-44.20365476936527
 21
6.499999999999997
 31
0.0
 12
-44.62032143603193
 22
8.999999999999996
 32
0.0
 13
-44.62032143603193
 23
8.999999999999996
 33
0.0
  0
SOLID
  5
29BE8
330
29090
100
AcDbEntity
  8
SK2
100
AcDbTrace
 10
-45.0369881026986
 20
-6.500000000000007
 30
0.0
 11
-44.20365476936527
 21
-6.500000000000007
 31
0.0
 12
-44.62032143603193
 22
-9.000000000000008
 32
0.0
 13
-44.62032143603193
 23
-9.000000000000008
 33
0.0
  0
MTEXT
  5
29BE9
330
29090
100
AcDbEntity
  8
SK2
100
AcDbMText
 10
-47.46633338262364
 20
0.0000000000000066
 30
0.0
 40
3.5
 41
0.0
 71
     5
 72
     1
  1
\A1;%%C18
  7
MM_STANDARD
 11
0.0000000000000001
 21
1.0
 31
0.0
 73
     1
 44
1.0
1001
ACAD
1000
MTEXTBEGIN
1070
    73
1070
     1
1070
    44
1040
1.0
1070
    74
1070
     0
1000
MTEXTEND
  0
POINT
  5
29BEA
330
29090
100
AcDbEntity
  8
DEFPOINTS
 62
     0
100
AcDbPoint
 10
-0.0000000000000284
 20
9.000000000000001
 30
0.0
  0
POINT
  5
29BEB
330
29090
100
AcDbEntity
  8
DEFPOINTS
 62
     0
100
AcDbPoint
 10
-0.0000000000000284
 20
-9.000000000000001
 30
0.0
  0
POINT
  5
29BEC
330
29090
100
AcDbEntity
  8
DEFPOINTS
 62
     0
100
AcDbPoint
 10
-44.62032143603193
 20
-9.000000000000008
 30
0.0
  0
ENDBLK
  5
29B83
330
29090
100
AcDbEntity
  8
0
100
AcDbBlockEnd
  0
BLOCK
  5
29B84
330
290A9
100
AcDbEntity
  8
0
100
AcDbBlockBegin
  2
*D14
 70
     1
 10
0.0
 20
0.0
 30
0.0
  3
*D14
  1

  0
LINE
  5
29BDD
330
290A9
100
AcDbEntity
  8
2
  6
ByBlock
100
AcDbLine
 10
17.42255098964683
 20
10.0
 30
0.0
 11
56.88133630350407
 21
10.00000000000001
 31
0.0
  0
LINE
  5
29BDE
330
290A9
100
AcDbEntity
  8
2
  6
ByBlock
100
AcDbLine
 10
55.63133630350407
 20
7.500000000000009
 30
0.0
 11
55.63133630350407
 21
-5.020291637385788
 31
0.0
  0
SOLID
  5
29BDF
330
290A9
100
AcDbEntity
  8
2
100
AcDbTrace
 10
55.21466963683741
 20
7.500000000000009
 30
0.0
 11
56.04800297017074
 21
7.500000000000009
 31
0.0
 12
55.63133630350407
 22
10.00000000000001
 32
0.0
 13
55.63133630350407
 23
10.00000000000001
 33
0.0
  0
MTEXT
  5
29BE0
330
290A9
100
AcDbEntity
  8
2
100
AcDbMText
 10
52.78532435691236
 20
0.0000000000000003
 30
0.0
 40
3.5
 41
0.0
 71
     5
 72
     1
  1
\A1;%%C20
  7
MM_STANDARD
 11
0.0000000000000001
 21
1.0
 31
0.0
 73
     1
 44
1.0
1001
ACAD
1000
MTEXTBEGIN
1070
    73
1070
     1
1070
    44
1040
1.0
1070
    74
1070
     0
1000
MTEXTEND
  0
POINT
  5
29BE1
330
290A9
100
AcDbEntity
  8
DEFPOINTS
 62
     0
100
AcDbPoint
 10
17.42255098964683
 20
10.0
 30
0.0
  0
POINT
  5
29BE2
330
290A9
100
AcDbEntity
  8
DEFPOINTS
 62
     0
100
AcDbPoint
 10
31.09505099999998
 20
-10.0
 30
0.0
  0
POINT
  5
29BE3
330
290A9
100
AcDbEntity
  8
DEFPOINTS
 62
     0
100
AcDbPoint
 10
55.63133630350407
 20
-10.0
 30
0.0
  0
ENDBLK
  5
29B85
330
290A9
100
AcDbEntity
  8
0
100
AcDbBlockEnd
  0
BLOCK
  5
29B86
330
2953A
100
AcDbEntity
  8
0
100
AcDbBlockBegin
  2
_NONE
 70
     0
 10
0.0
 20
0.0
 30
0.0
  3
_NONE
  1

  0
ENDBLK
  5
29B87
330
2953A
100
AcDbEntity
  8
0
100
AcDbBlockEnd
  0
BLOCK
  5
29B98
330
29A7E
100
AcDbEntity
  8
0
100
AcDbBlockBegin
  2
*D24
 70
     1
 10
0.0
 20
0.0
 30
0.0
  3
*D24
  1

  0
POINT
  5
29B38
330
29A7E
100
AcDbEntity
  8
DEFPOINTS
  6
ByBlock
100
AcDbPoint
 10
0.0000000000000284
 20
9.0
 30
0.0
  0
POINT
  5
29B39
330
29A7E
100
AcDbEntity
  8
DEFPOINTS
  6
ByBlock
100
AcDbPoint
 10
26.95034890310157
 20
8.202341079242879
 30
0.0
  0
LINE
  5
29B3A
330
29A7E
100
AcDbEntity
  8
2
  6
ByBlock
100
AcDbLine
 10
0.0000000000000284
 20
9.0
 30
0.0
 11
0.0000000000000284
 21
36.32422689432867
 31
0.0
  0
LINE
  5
29B3B
330
29A7E
100
AcDbEntity
  8
2
  6
ByBlock
100
AcDbLine
 10
26.95034890310157
 20
8.202341079242879
 30
0.0
 11
26.95034890310157
 21
36.32422689432867
 31
0.0
  0
LINE
  5
29B3C
330
29A7E
100
AcDbEntity
  8
2
  6
ByBlock
100
AcDbLine
 10
0.0000000000000284
 20
35.07422689432867
 30
0.0
 11
26.95034890310157
 21
35.07422689432867
 31
0.0
  0
SOLID
  5
29B3D
330
29A7E
100
AcDbEntity
  8
2
  6
ByBlock
100
AcDbTrace
 10
0.0000000000000284
 20
35.07422689432867
 30
0.0
 11
2.500000000000028
 21
34.65756022766192
 31
0.0
 12
2.500000000000028
 22
35.49089356099543
 32
0.0
 13
2.500000000000028
 23
35.49089356099543
 33
0.0
  0
SOLID
  5
29B3E
330
29A7E
100
AcDbEntity
  8
2
  6
ByBlock
100
AcDbTrace
 10
26.95034890310157
 20
35.07422689432867
 30
0.0
 11
24.45034890310157
 21
34.65756022766192
 31
0.0
 12
24.45034890310157
 22
35.49089356099543
 32
0.0
 13
24.45034890310157
 23
35.49089356099543
 33
0.0
  0
LINE
  5
29B3F
330
29A7E
100
AcDbEntity
  8
2
  6
ByBlock
100
AcDbLine
 10
0.0000000000000284
 20
9.0
 30
0.0
 11
0.0000000000000284
 21
9.0
 31
0.0
  0
MTEXT
  5
29B40
330
29A7E
100
AcDbEntity
  8
2
  6
ByBlock
100
AcDbMText
 10
13.4751744515508
 20
37.47136322602229
 30
0.0
 40
3.5
 41
0.0
 71
     5
 72
     1
  1
\A1;27
  7
MM_STANDARD
 73
     1
 44
1.0
1001
ACAD
1000
MTEXTBEGIN
1070
    73
1070
     1
1070
    44
1040
1.0
1070
    74
1070
     0
1000
MTEXTEND
  0
ENDBLK
  5
29B99
330
29A7E
100
AcDbEntity
  8
0
100
AcDbBlockEnd
  0
ENDSEC
  0
SECTION
  2
ENTITIES
  0
LINE
  5
AA8
330
1F
100
AcDbEntity
  8
INFTOTAL
100
AcDbLine
 10
-72.11472452489497
 20
1.185700667213936
 30
0.0
 11
-72.11472452489497
 21
54.28162022488457
 31
0.0
  0
LINE
  5
AA9
330
1F
100
AcDbEntity
  8
INFTOTAL
100
AcDbLine
 10
-72.11472452489497
 20
54.28162022488457
 30
0.0
 11
-5.10141162117469
 21
54.28162022488457
 31
0.0
  0
LINE
  5
AAA
330
1F
100
AcDbEntity
  8
INFTOTAL
100
AcDbLine
 10
13.63153063539536
 20
-49.49375433501502
 30
0.0
 11
73.14495271972269
 21
-49.49375433501508
 31
0.0
  0
LINE
  5
AAB
330
1F
100
AcDbEntity
  8
INFTOTAL
100
AcDbLine
 10
73.14495271972269
 20
-49.49375433501508
 30
0.0
 11
73.14495271972269
 21
-7.33469173581933
 31
0.0
  0
POINT
  5
AFA
330
1F
100
AcDbEntity
  8
1
100
AcDbPoint
 10
120.6316161181774
 20
18.06659889820604
 30
0.0
  0
POINT
  5
AFB
330
1F
100
AcDbEntity
  8
1
100
AcDbPoint
 10
117.3316161181774
 20
20.61513489820602
 30
0.0
  0
POINT
  5
136D
330
1F
100
AcDbEntity
  8
CUT
100
AcDbPoint
 10
120.6316161181774
 20
18.03682647108094
 30
0.0
  0
POINT
  5
410F
330
1F
100
AcDbEntity
  8
0
 62
     7
370
     5
100
AcDbPoint
 10
694.5793644972614
 20
32.06429484497903
 30
0.0
  0
POINT
  5
4112
330
1F
100
AcDbEntity
  8
0
 62
     7
370
     5
100
AcDbPoint
 10
694.7265624972615
 20
3.587258844979031
 30
0.0
  0
POINT
  5
4BBB
330
1F
100
AcDbEntity
  8
0
 62
     7
370
     5
100
AcDbPoint
 10
928.2803214655135
 20
36.14402775200896
 30
0.0
  0
POINT
  5
4BBE
330
1F
100
AcDbEntity
  8
0
 62
     7
370
     5
100
AcDbPoint
 10
927.9725574655133
 20
-13.37717824799107
 30
0.0
  0
POINT
  5
4C3D
330
1F
100
AcDbEntity
  8
0
 62
     7
370
     5
100
AcDbPoint
 10
1260.468250897024
 20
34.18197122255629
 30
0.0
  0
POINT
  5
4C41
330
1F
100
AcDbEntity
  8
0
 62
     7
370
     5
100
AcDbPoint
 10
1192.987798897024
 20
34.42276422255628
 30
0.0
  0
POINT
  5
4CA6
330
1F
100
AcDbEntity
  8
0
 62
     7
370
     5
100
AcDbPoint
 10
1531.370477890708
 20
36.54134112174947
 30
0.0
  0
POINT
  5
4CAA
330
1F
100
AcDbEntity
  8
0
 62
     7
370
     5
100
AcDbPoint
 10
1454.809556890707
 20
33.56345212174947
 30
0.0
  0
POINT
  5
4D13
330
1F
100
AcDbEntity
  8
0
 62
     7
370
     5
100
AcDbPoint
 10
705.1278997494348
 20
-154.9600065549146
 30
0.0
  0
POINT
  5
4D16
330
1F
100
AcDbEntity
  8
0
 62
     7
370
     5
100
AcDbPoint
 10
704.8201357494348
 20
-214.4959135549147
 30
0.0
  0
POINT
  5
4D94
330
1F
100
AcDbEntity
  8
0
 62
     7
370
     5
100
AcDbPoint
 10
1787.824033288602
 20
31.89640981289145
 30
0.0
  0
POINT
  5
4D98
330
1F
100
AcDbEntity
  8
0
 62
     7
370
     5
100
AcDbPoint
 10
1715.838491288602
 20
29.33517681289146
 30
0.0
  0
POINT
  5
4DFF
330
1F
100
AcDbEntity
  8
0
 62
     3
370
     5
100
AcDbPoint
 10
1267.112797580298
 20
-159.0002427017263
 30
0.0
  0
POINT
  5
4E03
330
1F
100
AcDbEntity
  8
0
 62
     3
370
     5
100
AcDbPoint
 10
1194.506377580298
 20
-161.9343927017263
 30
0.0
  0
POINT
  5
4E6A
330
1F
100
AcDbEntity
  8
0
 62
     7
370
     5
100
AcDbPoint
 10
1544.710960196184
 20
-155.8112991948312
 30
0.0
  0
POINT
  5
4E6E
330
1F
100
AcDbEntity
  8
0
 62
     3
370
     5
100
AcDbPoint
 10
1456.283339196184
 20
-157.1011921948312
 30
0.0
  0
POINT
  5
4ED5
330
1F
100
AcDbEntity
  8
0
 62
     7
370
     5
100
AcDbPoint
 10
923.0975508391153
 20
-198.2811869580544
 30
0.0
  0
POINT
  5
4ED6
330
1F
100
AcDbEntity
  8
0
 62
     7
370
     5
100
AcDbPoint
 10
958.0975508391155
 20
-190.2811869580544
 30
0.0
  0
POINT
  5
4ED9
330
1F
100
AcDbEntity
  8
0
 62
     7
370
     5
100
AcDbPoint
 10
957.9030798391153
 20
-228.1917289580544
 30
0.0
  0
POINT
  5
4F57
330
1F
100
AcDbEntity
  8
0
 62
     7
370
     5
100
AcDbPoint
 10
450.9331152202981
 20
34.51099349283641
 30
0.0
  0
POINT
  5
4F5A
330
1F
100
AcDbEntity
  8
0
 62
     7
370
     5
100
AcDbPoint
 10
450.3789362202981
 20
-3.505724507163591
 30
0.0
  0
POINT
  5
4FD6
330
1F
100
AcDbEntity
  8
0
 62
     7
370
     5
100
AcDbPoint
 10
414.7355793530676
 20
-182.3643573412055
 30
0.0
  0
POINT
  5
4FD9
330
1F
100
AcDbEntity
  8
0
 62
     7
370
     5
100
AcDbPoint
 10
414.4028163530678
 20
-227.6410343412055
 30
0.0
  0
POINT
  5
5057
330
1F
100
AcDbEntity
  8
0
 62
     7
370
     5
100
AcDbPoint
 10
411.1596871436125
 20
-404.5108996529686
 30
0.0
  0
POINT
  5
505A
330
1F
100
AcDbEntity
  8
0
 62
     7
370
     5
100
AcDbPoint
 10
410.8519251436126
 20
-448.9004636529686
 30
0.0
  0
POINT
  5
50DA
330
1F
100
AcDbEntity
  8
0
 62
     7
370
     5
100
AcDbPoint
 10
696.3752719090887
 20
-405.5632373962983
 30
0.0
  0
POINT
  5
50DD
330
1F
100
AcDbEntity
  8
0
 62
     7
370
     5
100
AcDbPoint
 10
696.0675099090884
 20
-458.9718843962983
 30
0.0
  0
POINT
  5
515E
330
1F
100
AcDbEntity
  8
0
 62
     7
370
     5
100
AcDbPoint
 10
942.932329238496
 20
-403.2148016805113
 30
0.0
  0
POINT
  5
5161
330
1F
100
AcDbEntity
  8
0
 62
     3
370
     5
100
AcDbPoint
 10
942.624565238496
 20
-476.4638956805113
 30
0.0
  0
POINT
  5
51E0
330
1F
100
AcDbEntity
  8
0
 62
     7
370
     5
100
AcDbPoint
 10
380.0596661818993
 20
-637.2898669140809
 30
0.0
  0
POINT
  5
51E4
330
1F
100
AcDbEntity
  8
0
 62
     7
370
     5
100
AcDbPoint
 10
379.7269051818993
 20
-669.3765459140807
 30
0.0
  0
POINT
  5
5263
330
1F
100
AcDbEntity
  8
0
 62
     7
370
     5
100
AcDbPoint
 10
656.1064603234972
 20
-644.2320044768857
 30
0.0
  0
POINT
  5
5267
330
1F
100
AcDbEntity
  8
0
 62
     7
370
     5
100
AcDbPoint
 10
655.7736983234972
 20
-681.5918884768857
 30
0.0
  0
POINT
  5
52E6
330
1F
100
AcDbEntity
  8
0
 62
     7
370
     5
100
AcDbPoint
 10
921.5387707571863
 20
-642.2430056930917
 30
0.0
  0
POINT
  5
52EA
330
1F
100
AcDbEntity
  8
0
 62
     7
370
     5
100
AcDbPoint
 10
921.2310077571864
 20
-692.8111586930919
 30
0.0
  0
POINT
  5
536A
330
1F
100
AcDbEntity
  8
0
 62
     7
370
     5
100
AcDbPoint
 10
1232.563978885883
 20
-644.0998079544141
 30
0.0
  0
POINT
  5
536E
330
1F
100
AcDbEntity
  8
0
 62
     7
370
     5
100
AcDbPoint
 10
1232.256215885883
 20
-701.4147569544141
 30
0.0
  0
POINT
  5
53EE
330
1F
100
AcDbEntity
  8
0
 62
     7
370
     5
100
AcDbPoint
 10
1530.052638397992
 20
-643.475919607774
 30
0.0
  0
POINT
  5
53F2
330
1F
100
AcDbEntity
  8
0
 62
     7
370
     5
100
AcDbPoint
 10
1529.744875397992
 20
-702.095046607774
 30
0.0
  0
POINT
  5
5472
330
1F
100
AcDbEntity
  8
0
 62
     7
370
     5
100
AcDbPoint
 10
684.9908237883022
 20
27.90718926625232
 30
0.0
  0
POINT
  5
5475
330
1F
100
AcDbEntity
  8
0
 62
     7
370
     5
100
AcDbPoint
 10
685.1380217883022
 20
-0.5698467337476814
 30
0.0
  0
POINT
  5
C167
330
1F
100
AcDbEntity
  8
0
 62
     7
370
     5
100
AcDbPoint
 10
404.6381194571074
 20
31.25869005531058
 30
0.0
  0
POINT
  5
C170
330
1F
100
AcDbEntity
  8
0
 62
     7
370
     5
100
AcDbPoint
 10
404.6381194571074
 20
-40.40044294468938
 30
0.0
  0
POINT
  5
C178
330
1F
100
AcDbEntity
  8
0
 62
     7
370
     5
100
AcDbPoint
 10
693.6166312048997
 20
32.91651042690259
 30
0.0
  0
POINT
  5
C182
330
1F
100
AcDbEntity
  8
0
 62
     7
370
     5
100
AcDbPoint
 10
693.6166312048997
 20
-48.79153757309743
 30
0.0
  0
POINT
  5
C255
330
1F
100
AcDbEntity
  8
0
 62
     7
370
     5
100
AcDbPoint
 10
969.8580521302226
 20
-44.97487572475608
 30
0.0
  0
POINT
  5
C258
330
1F
100
AcDbEntity
  8
0
 62
     7
370
     5
100
AcDbPoint
 10
969.8580521302226
 20
15.7863642752439
 30
0.0
  0
POINT
  5
C2E1
330
1F
100
AcDbEntity
  8
0
 62
     7
370
     5
100
AcDbPoint
 10
1225.348704188238
 20
-52.24776141224177
 30
0.0
  0
POINT
  5
C2E4
330
1F
100
AcDbEntity
  8
0
 62
     7
370
     5
100
AcDbPoint
 10
1225.348704188238
 20
11.68361158775823
 30
0.0
  0
POINT
  5
C36E
330
1F
100
AcDbEntity
  8
0
 62
     7
370
     5
100
AcDbPoint
 10
1738.913115957113
 20
-214.1607529893734
 30
0.0
  0
POINT
  5
C377
330
1F
100
AcDbEntity
  8
0
 62
     3
370
     5
100
AcDbPoint
 10
1738.913115957113
 20
-286.8828409893735
 30
0.0
  0
POINT
  5
C42D
330
1F
100
AcDbEntity
  8
0
 62
     7
370
     5
100
AcDbPoint
 10
430.2380300204257
 20
-176.3158258460635
 30
0.0
  0
POINT
  5
C437
330
1F
100
AcDbEntity
  8
0
 62
     7
370
     5
100
AcDbPoint
 10
430.2380300204257
 20
-251.7521558460636
 30
0.0
  0
POINT
  5
C533
330
1F
100
AcDbEntity
  8
0
 62
     3
370
     5
100
AcDbPoint
 10
724.0359074233313
 20
-257.7049218719476
 30
0.0
  0
POINT
  5
C536
330
1F
100
AcDbEntity
  8
0
 62
     3
370
     5
100
AcDbPoint
 10
724.0359074233313
 20
-176.2890638719476
 30
0.0
  0
POINT
  5
C652
330
1F
100
AcDbEntity
  8
0
 62
     7
370
     5
100
AcDbPoint
 10
1006.718794540682
 20
-163.3460002642659
 30
0.0
  0
POINT
  5
C65C
330
1F
100
AcDbEntity
  8
0
 62
     7
370
     5
100
AcDbPoint
 10
1006.718794540682
 20
-271.4659132642659
 30
0.0
  0
POINT
  5
C79F
330
1F
100
AcDbEntity
  8
0
 62
     7
370
     5
100
AcDbPoint
 10
680.0273543974197
 20
-609.8288373451556
 30
0.0
  0
POINT
  5
C7A3
330
1F
100
AcDbEntity
  8
0
 62
     7
370
     5
100
AcDbPoint
 10
680.0273543974197
 20
-565.0385583451557
 30
0.0
  0
POINT
  5
C85B
330
1F
100
AcDbEntity
  8
0
 62
     7
370
     5
100
AcDbPoint
 10
981.854726218849
 20
-559.8376501395787
 30
0.0
  0
POINT
  5
C863
330
1F
100
AcDbEntity
  8
0
 62
     7
370
     5
100
AcDbPoint
 10
981.854726218849
 20
-623.6282751395788
 30
0.0
  0
POINT
  5
C930
330
1F
100
AcDbEntity
  8
0
 62
     7
370
     5
100
AcDbPoint
 10
1216.759569404171
 20
-624.5477225769705
 30
0.0
  0
POINT
  5
C934
330
1F
100
AcDbEntity
  8
0
 62
     7
370
     5
100
AcDbPoint
 10
1202.759569404171
 20
-560.1965945769704
 30
0.0
  0
POINT
  5
C935
330
1F
100
AcDbEntity
  8
0
 62
     7
370
     5
100
AcDbPoint
 10
1216.759569404171
 20
-551.6965945769704
 30
0.0
  0
POINT
  5
CA12
330
1F
100
AcDbEntity
  8
0
 62
     7
370
     5
100
AcDbPoint
 10
1458.761001673632
 20
-627.5597008720548
 30
0.0
  0
POINT
  5
CA16
330
1F
100
AcDbEntity
  8
0
 62
     7
370
     5
100
AcDbPoint
 10
1443.761001673632
 20
-571.7910898720547
 30
0.0
  0
POINT
  5
CA17
330
1F
100
AcDbEntity
  8
0
 62
     7
370
     5
100
AcDbPoint
 10
1458.761001673632
 20
-561.2910898720547
 30
0.0
  0
POINT
  5
CB25
330
1F
100
AcDbEntity
  8
0
 62
     7
370
     5
100
AcDbPoint
 10
1712.749014983699
 20
-637.6031663899041
 30
0.0
  0
POINT
  5
CB29
330
1F
100
AcDbEntity
  8
0
 62
     7
370
     5
100
AcDbPoint
 10
1712.749014983699
 20
-557.403845389904
 30
0.0
  0
POINT
  5
CC4B
330
1F
100
AcDbEntity
  8
0
 62
     7
370
     5
100
AcDbPoint
 10
1990.420039580178
 20
-639.3672597641932
 30
0.0
  0
POINT
  5
CC4F
330
1F
100
AcDbEntity
  8
0
 62
     7
370
     5
100
AcDbPoint
 10
1975.420039580178
 20
-571.8308197641934
 30
0.0
  0
POINT
  5
CC50
330
1F
100
AcDbEntity
  8
0
 62
     7
370
     5
100
AcDbPoint
 10
1990.420039580178
 20
-554.3308197641933
 30
0.0
  0
POINT
  5
D588
330
1F
100
AcDbEntity
  8
0
 62
     7
370
     5
100
AcDbPoint
 10
643.6762534904714
 20
-418.5518022854259
 30
0.0
  0
POINT
  5
D590
330
1F
100
AcDbEntity
  8
0
 62
     7
370
     5
100
AcDbPoint
 10
698.8426964904712
 20
-418.5518022854259
 30
0.0
  0
POINT
  5
D89C
330
1F
100
AcDbEntity
  8
0
 62
     7
370
     5
100
AcDbPoint
 10
918.4554480131433
 20
-418.2516555129392
 30
0.0
  0
POINT
  5
D8A3
330
1F
100
AcDbEntity
  8
0
 62
     7
370
     5
100
AcDbPoint
 10
998.0069960131432
 20
-418.2516555129392
 30
0.0
  0
POINT
  5
DAF2
330
1F
100
AcDbEntity
  8
0
 62
     7
370
     5
100
AcDbPoint
 10
1973.075374951941
 20
-60.50318164632196
 30
0.0
  0
POINT
  5
DAF5
330
1F
100
AcDbEntity
  8
0
 62
     7
370
     5
100
AcDbPoint
 10
1973.075374951941
 20
1.00896335367804
 30
0.0
  0
POINT
  5
DCBB
330
1F
100
AcDbEntity
  8
0
 62
     7
370
     5
100
AcDbPoint
 10
2228.446041001848
 20
-631.5679862622897
 30
0.0
  0
POINT
  5
DCBF
330
1F
100
AcDbEntity
  8
0
 62
     7
370
     5
100
AcDbPoint
 10
2228.446041001848
 20
-581.1017172622897
 30
0.0
  0
POINT
  5
DECF
330
1F
100
AcDbEntity
  8
0
 62
     7
370
     5
100
AcDbPoint
 10
2470.518201269178
 20
-576.6616946872675
 30
0.0
  0
POINT
  5
DED7
330
1F
100
AcDbEntity
  8
0
 62
     7
370
     5
100
AcDbPoint
 10
2470.518201269178
 20
-638.2022576872675
 30
0.0
  0
POINT
  5
E102
330
1F
100
AcDbEntity
  8
0
 62
     7
370
     5
100
AcDbPoint
 10
1449.716374392063
 20
-281.2570516923841
 30
0.0
  0
POINT
  5
E105
330
1F
100
AcDbEntity
  8
0
 62
     7
370
     5
100
AcDbPoint
 10
1449.716374392063
 20
-216.7933926923841
 30
0.0
  0
POINT
  5
E20E
330
1F
100
AcDbEntity
  8
0
 62
     7
370
     5
100
AcDbPoint
 10
1444.226360693917
 20
7.118696944552222
 30
0.0
  0
POINT
  5
E217
330
1F
100
AcDbEntity
  8
0
 62
     7
370
     5
100
AcDbPoint
 10
1444.226360693917
 20
-50.75492105544778
 30
0.0
  0
POINT
  5
E328
330
1F
100
AcDbEntity
  8
0
 62
     7
370
     5
100
AcDbPoint
 10
1674.557421043983
 20
-57.27887800498226
 30
0.0
  0
POINT
  5
E32B
330
1F
100
AcDbEntity
  8
0
 62
     7
370
     5
100
AcDbPoint
 10
1674.557421043983
 20
6.273895995017768
 30
0.0
  0
POINT
  5
E438
330
1F
100
AcDbEntity
  8
0
 62
     7
370
     5
100
AcDbPoint
 10
1221.741516539144
 20
-220.2351919986821
 30
0.0
  0
POINT
  5
E441
330
1F
100
AcDbEntity
  8
0
 62
     7
370
     5
100
AcDbPoint
 10
1221.741516539144
 20
-278.4038869986821
 30
0.0
  0
POINT
  5
E533
330
1F
100
AcDbEntity
  8
0
 62
     7
370
     5
100
AcDbPoint
 10
435.7613867553435
 20
-401.853645371286
 30
0.0
  0
POINT
  5
E537
330
1F
100
AcDbEntity
  8
0
 62
     7
370
     5
100
AcDbPoint
 10
336.0458187553437
 20
-401.853645371286
 30
0.0
  0
POINT
  5
E6D2
330
1F
100
AcDbEntity
  8
0
 62
     7
370
     5
100
AcDbPoint
 10
394.2075911881555
 20
-612.6712758301417
 30
0.0
  0
POINT
  5
E6D6
330
1F
100
AcDbEntity
  8
0
 62
     7
370
     5
100
AcDbPoint
 10
394.2075911881555
 20
-562.1020128301418
 30
0.0
  0
POINT
  5
12895
330
1F
100
AcDbEntity
  8
0
 62
     7
370
     5
100
AcDbPoint
 10
514.3576994832141
 20
-558.6978028967338
 30
0.0
  0
POINT
  5
1289C
330
1F
100
AcDbEntity
  8
0
 62
     7
370
     5
100
AcDbPoint
 10
514.3576994832141
 20
-524.0331488967338
 30
0.0
  0
POINT
  5
1289D
330
1F
100
AcDbEntity
  8
0
 62
     7
370
     5
100
AcDbPoint
 10
514.3576994832141
 20
-526.4631488967337
 30
0.0
  0
POINT
  5
1299A
330
1F
100
AcDbEntity
  8
0
 62
     7
370
     5
100
AcDbPoint
 10
273.0238152774181
 20
35.53337152575214
 30
0.0
  0
POINT
  5
1299D
330
1F
100
AcDbEntity
  8
0
 62
     7
370
     5
100
AcDbPoint
 10
273.0238152774181
 20
-16.30945047424785
 30
0.0
  0
POINT
  5
12A19
330
1F
100
AcDbEntity
  8
0
 62
     7
370
     5
100
AcDbPoint
 10
530.0071960054782
 20
34.28476473790624
 30
0.0
  0
POINT
  5
12A1A
330
1F
100
AcDbEntity
  8
0
 62
     7
370
     5
100
AcDbPoint
 10
530.0071960054782
 20
28.42976573790625
 30
0.0
  0
POINT
  5
12A1D
330
1F
100
AcDbEntity
  8
0
 62
     7
370
     5
100
AcDbPoint
 10
530.2789780054783
 20
-25.24190226209373
 30
0.0
  0
POINT
  5
12AA6
330
1F
100
AcDbEntity
  8
0
 62
     7
370
     5
100
AcDbPoint
 10
803.5390081451089
 20
38.33315219974614
 30
0.0
  0
POINT
  5
12AA7
330
1F
100
AcDbEntity
  8
0
 62
     7
370
     5
100
AcDbPoint
 10
803.5390081451089
 20
32.44315219974615
 30
0.0
  0
POINT
  5
12AAA
330
1F
100
AcDbEntity
  8
0
 62
     7
370
     5
100
AcDbPoint
 10
803.5390081451089
 20
-33.77549080025384
 30
0.0
  0
POINT
  5
12B2B
330
1F
100
AcDbEntity
  8
0
 62
     7
370
     5
100
AcDbPoint
 10
246.4739127018369
 20
-292.0641451649423
 30
0.0
  0
POINT
  5
12B40
330
1F
100
AcDbEntity
  8
0
 62
     7
370
     5
100
AcDbPoint
 10
246.1857397018369
 20
-234.4124741649423
 30
0.0
  0
POINT
  5
12B41
330
1F
100
AcDbEntity
  8
0
 62
     7
370
     5
100
AcDbPoint
 10
246.1857397018369
 20
-239.6974741649422
 30
0.0
  0
POINT
  5
12BA1
330
1F
100
AcDbEntity
  8
0
 62
     7
370
     5
100
AcDbPoint
 10
503.361992156836
 20
-293.942128217062
 30
0.0
  0
POINT
  5
12BB5
330
1F
100
AcDbEntity
  8
0
 62
     7
370
     5
100
AcDbPoint
 10
503.361992156836
 20
-232.058278217062
 30
0.0
  0
POINT
  5
12BB6
330
1F
100
AcDbEntity
  8
0
 62
     7
370
     5
100
AcDbPoint
 10
503.361992156836
 20
-237.898279217062
 30
0.0
  0
POINT
  5
12C16
330
1F
100
AcDbEntity
  8
0
 62
     7
370
     5
100
AcDbPoint
 10
773.9808530456294
 20
-320.1483272428673
 30
0.0
  0
POINT
  5
12C17
330
1F
100
AcDbEntity
  8
0
 62
     7
370
     5
100
AcDbPoint
 10
776.9808530456294
 20
-286.8983272428673
 30
0.0
  0
POINT
  5
12C2B
330
1F
100
AcDbEntity
  8
0
 62
     7
370
     5
100
AcDbPoint
 10
776.9808530456294
 20
-225.7099922428672
 30
0.0
  0
POINT
  5
12C8B
330
1F
100
AcDbEntity
  8
0
 62
     7
370
     5
100
AcDbPoint
 10
258.823540701837
 20
-572.0746798648522
 30
0.0
  0
POINT
  5
12C92
330
1F
100
AcDbEntity
  8
0
 62
     7
370
     5
100
AcDbPoint
 10
258.8235127018369
 20
-543.1961818648521
 30
0.0
  0
POINT
  5
12C93
330
1F
100
AcDbEntity
  8
0
 62
     7
370
     5
100
AcDbPoint
 10
258.8235127018369
 20
-544.8461818648523
 30
0.0
  0
POINT
  5
14051
330
1F
100
AcDbEntity
  8
0
 62
     7
370
     5
100
AcDbPoint
 10
690.9556627618442
 20
-532.2047645406313
 30
0.0
  0
POINT
  5
14058
330
1F
100
AcDbEntity
  8
0
 62
     7
370
     5
100
AcDbPoint
 10
690.9556627618442
 20
-497.5401105406314
 30
0.0
  0
POINT
  5
14059
330
1F
100
AcDbEntity
  8
0
 62
     7
370
     5
100
AcDbPoint
 10
690.9556627618442
 20
-499.9701105406314
 30
0.0
  0
POINT
  5
175ED
330
1F
100
AcDbEntity
  8
0
 62
     7
370
     5
100
AcDbPoint
 10
329.8984453452037
 20
37.75833189686949
 30
0.0
  0
POINT
  5
175F0
330
1F
100
AcDbEntity
  8
0
 62
     7
370
     5
100
AcDbPoint
 10
329.8984453452037
 20
-10.8089411031305
 30
0.0
  0
POINT
  5
17673
330
1F
100
AcDbEntity
  8
0
 62
     7
370
     5
100
AcDbPoint
 10
651.3183805762602
 20
33.1650220174441
 30
0.0
  0
POINT
  5
17677
330
1F
100
AcDbEntity
  8
0
 62
     7
370
     5
100
AcDbPoint
 10
651.3183805762602
 20
-21.99992098255592
 30
0.0
  0
POINT
  5
1770F
330
1F
100
AcDbEntity
  8
0
 62
     7
370
     5
100
AcDbPoint
 10
1014.212196760976
 20
-27.33731747488401
 30
0.0
  0
POINT
  5
17718
330
1F
100
AcDbEntity
  8
0
 62
     7
370
     5
100
AcDbPoint
 10
1014.212196760976
 20
30.00474752511599
 30
0.0
  0
POINT
  5
17790
330
1F
100
AcDbEntity
  8
0
 62
     7
370
     5
100
AcDbPoint
 10
1421.356448019548
 20
-26.9349024739204
 30
0.0
  0
POINT
  5
1779E
330
1F
100
AcDbEntity
  8
0
 62
     7
370
     5
100
AcDbPoint
 10
1421.356448019548
 20
21.9806675260796
 30
0.0
  0
POINT
  5
1779F
330
1F
100
AcDbEntity
  8
0
 62
     7
370
     5
100
AcDbPoint
 10
1413.056448019548
 20
21.9806675260796
 30
0.0
  0
POINT
  5
1781A
330
1F
100
AcDbEntity
  8
0
 62
     7
370
     5
100
AcDbPoint
 10
1720.045575829729
 20
23.92611327127983
 30
0.0
  0
POINT
  5
1781D
330
1F
100
AcDbEntity
  8
0
 62
     7
370
     5
100
AcDbPoint
 10
1720.045575829729
 20
-24.59612772872018
 30
0.0
  0
POINT
  5
178A0
330
1F
100
AcDbEntity
  8
0
 62
     7
370
     5
100
AcDbPoint
 10
359.2272976195882
 20
-230.0319820838431
 30
0.0
  0
POINT
  5
178A3
330
1F
100
AcDbEntity
  8
0
 62
     7
370
     5
100
AcDbPoint
 10
359.2273026195881
 20
-278.361407083843
 30
0.0
  0
POINT
  5
17926
330
1F
100
AcDbEntity
  8
0
 62
     7
370
     5
100
AcDbPoint
 10
669.6174077737214
 20
-230.0319820838431
 30
0.0
  0
POINT
  5
17929
330
1F
100
AcDbEntity
  8
0
 62
     7
370
     5
100
AcDbPoint
 10
669.6174087737214
 20
-278.361407083843
 30
0.0
  0
POINT
  5
179AC
330
1F
100
AcDbEntity
  8
0
 62
     7
370
     5
100
AcDbPoint
 10
1023.306532042488
 20
-235.6329118492064
 30
0.0
  0
POINT
  5
179AF
330
1F
100
AcDbEntity
  8
0
 62
     7
370
     5
100
AcDbPoint
 10
1023.306532042488
 20
-284.2001848492064
 30
0.0
  0
POINT
  5
17A32
330
1F
100
AcDbEntity
  8
0
 62
     7
370
     5
100
AcDbPoint
 10
1352.196645196622
 20
-235.6329118492064
 30
0.0
  0
POINT
  5
17A36
330
1F
100
AcDbEntity
  8
0
 62
     7
370
     5
100
AcDbPoint
 10
1352.196645196622
 20
-290.7980508492065
 30
0.0
  0
POINT
  5
17AD1
330
1F
100
AcDbEntity
  8
0
 62
     7
370
     5
100
AcDbPoint
 10
1715.365188016996
 20
-237.9716865944066
 30
0.0
  0
POINT
  5
17AD4
330
1F
100
AcDbEntity
  8
0
 62
     7
370
     5
100
AcDbPoint
 10
1715.365188016996
 20
-286.5389595944066
 30
0.0
  0
POINT
  5
17B57
330
1F
100
AcDbEntity
  8
0
 62
     7
370
     5
100
AcDbPoint
 10
331.5674947966618
 20
-480.7206417139288
 30
0.0
  0
POINT
  5
17B5A
330
1F
100
AcDbEntity
  8
0
 62
     7
370
     5
100
AcDbPoint
 10
331.5674987966619
 20
-532.8452337139288
 30
0.0
  0
POINT
  5
17BD8
330
1F
100
AcDbEntity
  8
0
 62
     7
370
     5
100
AcDbPoint
 10
667.4370134195751
 20
-483.059416459129
 30
0.0
  0
POINT
  5
17BDB
330
1F
100
AcDbEntity
  8
0
 62
     7
370
     5
100
AcDbPoint
 10
667.4370134195751
 20
-535.184008459129
 30
0.0
  0
POINT
  5
17C59
330
1F
100
AcDbEntity
  8
0
 62
     7
370
     5
100
AcDbPoint
 10
1032.757662940594
 20
-479.9258798209486
 30
0.0
  0
POINT
  5
17C5C
330
1F
100
AcDbEntity
  8
0
 62
     7
370
     5
100
AcDbPoint
 10
1032.757665940594
 20
-532.1255208209487
 30
0.0
  0
POINT
  5
17CDA
330
1F
100
AcDbEntity
  8
0
 62
     7
370
     5
100
AcDbPoint
 10
1350.446793750775
 20
-475.452849330548
 30
0.0
  0
POINT
  5
17CDE
330
1F
100
AcDbEntity
  8
0
 62
     7
370
     5
100
AcDbPoint
 10
1350.446795750775
 20
-535.7299113305479
 30
0.0
  0
POINT
  5
17D79
330
1F
100
AcDbEntity
  8
0
 62
     7
370
     5
100
AcDbPoint
 10
1724.816312373689
 20
-484.6034323315118
 30
0.0
  0
POINT
  5
17D7C
330
1F
100
AcDbEntity
  8
0
 62
     7
370
     5
100
AcDbPoint
 10
1724.816312373689
 20
-536.8030733315118
 30
0.0
  0
POINT
  5
17DFA
330
1F
100
AcDbEntity
  8
0
 62
     7
370
     5
100
AcDbPoint
 10
292.6784219762804
 20
-717.1006079596696
 30
0.0
  0
POINT
  5
17DFE
330
1F
100
AcDbEntity
  8
0
 62
     7
370
     5
100
AcDbPoint
 10
292.6784249762804
 20
-777.3013929596698
 30
0.0
  0
POINT
  5
17E99
330
1F
100
AcDbEntity
  8
0
 62
     7
370
     5
100
AcDbPoint
 10
668.1772397573285
 20
-728.8489624009062
 30
0.0
  0
POINT
  5
17E9C
330
1F
100
AcDbEntity
  8
0
 62
     7
370
     5
100
AcDbPoint
 10
668.1772397573285
 20
-780.9735614009062
 30
0.0
  0
POINT
  5
17F19
330
1F
100
AcDbEntity
  8
0
 62
     7
370
     5
100
AcDbPoint
 10
1014.680140542377
 20
-727.4779055808943
 30
0.0
  0
POINT
  5
17F1E
330
1F
100
AcDbEntity
  8
0
 62
     7
370
     5
100
AcDbPoint
 10
1014.680139542377
 20
-792.8842465808943
 30
0.0
  0
POINT
  5
17F82
330
1F
100
AcDbEntity
  8
0
 62
     7
370
     5
100
AcDbPoint
 10
1363.039112172955
 20
-778.9168242007557
 30
0.0
  0
POINT
  5
17F8B
330
1F
100
AcDbEntity
  8
0
 62
     7
370
     5
100
AcDbPoint
 10
1363.039112172955
 20
-712.5175752007558
 30
0.0
  0
POINT
  5
17FE8
330
1F
100
AcDbEntity
  8
0
 62
     7
370
     5
100
AcDbPoint
 10
1718.366870633272
 20
-723.7460446679111
 30
0.0
  0
POINT
  5
17FEB
330
1F
100
AcDbEntity
  8
0
 62
     7
370
     5
100
AcDbPoint
 10
1718.366871633272
 20
-789.389202667911
 30
0.0
  0
POINT
  5
18051
330
1F
100
AcDbEntity
  8
0
 62
     7
370
     5
100
AcDbPoint
 10
319.6383345054979
 20
-967.5893901625666
 30
0.0
  0
POINT
  5
18054
330
1F
100
AcDbEntity
  8
0
 62
     7
370
     5
100
AcDbPoint
 10
319.6383355054979
 20
-1032.973459162567
 30
0.0
  0
POINT
  5
180BA
330
1F
100
AcDbEntity
  8
0
 62
     7
370
     5
100
AcDbPoint
 10
680.5370709864296
 20
-963.1934877025301
 30
0.0
  0
POINT
  5
180BB
330
1F
100
AcDbEntity
  8
0
 62
     7
370
     5
100
AcDbPoint
 10
629.5370709864297
 20
-967.19348770253
 30
0.0
  0
POINT
  5
180BE
330
1F
100
AcDbEntity
  8
0
 62
     7
370
     5
100
AcDbPoint
 10
680.5370759864297
 20
-1028.58231170253
 30
0.0
  0
POINT
  5
18125
330
1F
100
AcDbEntity
  8
0
 62
     7
370
     5
100
AcDbPoint
 10
1025.504908559649
 20
-985.5078641637318
 30
0.0
  0
POINT
  5
18128
330
1F
100
AcDbEntity
  8
0
 62
     7
370
     5
100
AcDbPoint
 10
935.4436665596491
 20
-985.5078641637318
 30
0.0
  0
POINT
  5
181A3
330
1F
100
AcDbEntity
  8
0
 62
     7
370
     5
100
AcDbPoint
 10
1372.616021513803
 20
-994.9832624236179
 30
0.0
  0
POINT
  5
181A6
330
1F
100
AcDbEntity
  8
0
 62
     7
370
     5
100
AcDbPoint
 10
1282.554779513803
 20
-994.9832624236179
 30
0.0
  0
POINT
  5
18221
330
1F
100
AcDbEntity
  8
0
 62
     7
370
     5
100
AcDbPoint
 10
1726.183901955964
 20
-986.4057379766256
 30
0.0
  0
POINT
  5
18224
330
1F
100
AcDbEntity
  8
0
 62
     7
370
     5
100
AcDbPoint
 10
1636.122660955965
 20
-987.7852319766256
 30
0.0
  0
POINT
  5
1829F
330
1F
100
AcDbEntity
  8
0
 62
     7
370
     5
100
AcDbPoint
 10
315.0667151318947
 20
-1233.667447704089
 30
0.0
  0
POINT
  5
182A2
330
1F
100
AcDbEntity
  8
0
 62
     7
370
     5
100
AcDbPoint
 10
225.0054731318947
 20
-1234.512880704089
 30
0.0
  0
POINT
  5
1831D
330
1F
100
AcDbEntity
  8
0
 62
     7
370
     5
100
AcDbPoint
 10
666.5716365787308
 20
-1228.374582524101
 30
0.0
  0
POINT
  5
18320
330
1F
100
AcDbEntity
  8
0
 62
     7
370
     5
100
AcDbPoint
 10
576.510395578731
 20
-1229.476628524102
 30
0.0
  0
POINT
  5
1C1E5
330
1F
100
AcDbEntity
  8
0
 62
     7
370
     5
100
AcDbPoint
 10
565.1931729999843
 20
-252.0327741049043
 30
0.0
  0
POINT
  5
1C1E8
330
1F
100
AcDbEntity
  8
0
 62
     7
370
     5
100
AcDbPoint
 10
571.0793859999843
 20
-171.4824511049043
 30
0.0
  0
POINT
  5
1C393
330
1F
100
AcDbEntity
  8
0
 62
     7
370
     5
100
AcDbPoint
 10
852.7529560248229
 20
-161.0786730235244
 30
0.0
  0
POINT
  5
1C3A1
330
1F
100
AcDbEntity
  8
0
 62
     7
370
     5
100
AcDbPoint
 10
853.6840430248233
 20
-256.0650500235244
 30
0.0
  0
POINT
  5
1C476
330
1F
100
AcDbEntity
  8
0
 62
     7
370
     5
100
AcDbPoint
 10
1100.710829294269
 20
-179.9690311044011
 30
0.0
  0
POINT
  5
1C484
330
1F
100
AcDbEntity
  8
0
 62
     7
370
     5
100
AcDbPoint
 10
1097.008556294269
 20
-246.8144071044011
 30
0.0
  0
POINT
  5
1C54E
330
1F
100
AcDbEntity
  8
0
 62
     7
370
     5
100
AcDbPoint
 10
327.4559894717282
 20
-242.3690707660675
 30
0.0
  0
POINT
  5
1C54F
330
1F
100
AcDbEntity
  8
0
 62
     7
370
     5
100
AcDbPoint
 10
323.7573724717281
 20
-242.3490727660675
 30
0.0
  0
POINT
  5
1C632
330
1F
100
AcDbEntity
  8
0
 62
     7
370
     5
100
AcDbPoint
 10
301.1069300782104
 20
37.7626127561465
 30
0.0
  0
POINT
  5
1C640
330
1F
100
AcDbEntity
  8
0
 62
     7
370
     5
100
AcDbPoint
 10
301.4480630782105
 20
-36.93915824385351
 30
0.0
  0
POINT
  5
1C6B9
330
1F
100
AcDbEntity
  8
0
 62
     1
370
     5
100
AcDbPoint
 10
582.4029449258979
 20
29.4620864008466
 30
0.0
  0
POINT
  5
1C6C7
330
1F
100
AcDbEntity
  8
0
 62
     7
370
     5
100
AcDbPoint
 10
567.6899119258981
 20
-44.52450559915339
 30
0.0
  0
POINT
  5
1C740
330
1F
100
AcDbEntity
  8
0
 62
     7
370
     5
100
AcDbPoint
 10
838.8170717714807
 20
31.21800268959555
 30
0.0
  0
POINT
  5
1C74E
330
1F
100
AcDbEntity
  8
0
 62
     7
370
     5
100
AcDbPoint
 10
830.8810477714807
 20
-42.18143931040443
 30
0.0
  0
POINT
  5
1C7C7
330
1F
100
AcDbEntity
  8
0
 62
     7
370
     5
100
AcDbPoint
 10
1082.103046320498
 20
26.65705560741793
 30
0.0
  0
POINT
  5
1C850
330
1F
100
AcDbEntity
  8
0
 62
     7
370
     5
100
AcDbPoint
 10
1320.708032031059
 20
-54.79519568133104
 30
0.0
  0
POINT
  5
1C851
330
1F
100
AcDbEntity
  8
0
 62
     7
370
     5
100
AcDbPoint
 10
1317.008086031059
 20
-54.77519668133105
 30
0.0
  0
POINT
  5
1C9A2
330
1F
100
AcDbEntity
  8
0
 62
     7
370
     5
100
AcDbPoint
 10
1351.994597785224
 20
-177.9923767989125
 30
0.0
  0
POINT
  5
1C9B0
330
1F
100
AcDbEntity
  8
0
 62
     7
370
     5
100
AcDbPoint
 10
1347.069666785224
 20
-246.9150937989126
 30
0.0
  0
POINT
  5
1C9B1
330
1F
100
AcDbEntity
  8
0
 62
     7
370
     5
100
AcDbPoint
 10
1343.369666785224
 20
-246.9154057989126
 30
0.0
  0
POINT
  5
1CBC0
330
1F
100
AcDbEntity
  8
0
 62
     7
370
     5
100
AcDbPoint
 10
317.2946666194903
 20
-384.0973382926297
 30
0.0
  0
POINT
  5
1CBCE
330
1F
100
AcDbEntity
  8
0
 62
     7
370
     5
100
AcDbPoint
 10
305.7896836194903
 20
-451.8667572926297
 30
0.0
  0
POINT
  5
1CE43
330
1F
100
AcDbEntity
  8
0
 62
     7
370
     5
100
AcDbPoint
 10
610.2304875856865
 20
-368.9630837278421
 30
0.0
  0
POINT
  5
1CE51
330
1F
100
AcDbEntity
  8
0
 62
     7
370
     5
100
AcDbPoint
 10
597.1811595856864
 20
-452.2435397278421
 30
0.0
  0
POINT
  5
1CFFB
330
1F
100
AcDbEntity
  8
0
 62
     7
370
     5
100
AcDbPoint
 10
839.2202580447737
 20
-378.5041957660768
 30
0.0
  0
POINT
  5
1D009
330
1F
100
AcDbEntity
  8
0
 62
     7
370
     5
100
AcDbPoint
 10
825.6021750447738
 20
-448.0865117660767
 30
0.0
  0
POINT
  5
1D1B5
330
1F
100
AcDbEntity
  8
0
 62
     7
370
     5
100
AcDbPoint
 10
1100.187375054744
 20
-364.0090280464956
 30
0.0
  0
POINT
  5
1D1C3
330
1F
100
AcDbEntity
  8
0
 62
     7
370
     5
100
AcDbPoint
 10
1086.025427054744
 20
-454.4328780464955
 30
0.0
  0
POINT
  5
1D374
330
1F
100
AcDbEntity
  8
0
 62
     7
370
     5
100
AcDbPoint
 10
1381.669306853374
 20
-372.7791370028926
 30
0.0
  0
POINT
  5
1D382
330
1F
100
AcDbEntity
  8
0
 62
     7
370
     5
100
AcDbPoint
 10
1368.476322853373
 20
-450.1870130028925
 30
0.0
  0
POINT
  5
1D6D5
330
1F
100
AcDbEntity
  8
0
 62
     7
370
     5
100
AcDbPoint
 10
555.980533625745
 20
-586.1972507296687
 30
0.0
  0
POINT
  5
1D6E2
330
1F
100
AcDbEntity
  8
0
 62
     7
370
     5
100
AcDbPoint
 10
545.2688206257452
 20
-642.7388317296686
 30
0.0
  0
POINT
  5
1D913
330
1F
100
AcDbEntity
  8
0
 62
     7
370
     5
100
AcDbPoint
 10
811.7646110501747
 20
-579.6655508098913
 30
0.0
  0
POINT
  5
1D920
330
1F
100
AcDbEntity
  8
0
 62
     7
370
     5
100
AcDbPoint
 10
805.5538980501744
 20
-635.4594578098913
 30
0.0
  0
POINT
  5
1DA40
330
1F
100
AcDbEntity
  8
0
 62
     7
370
     5
100
AcDbPoint
 10
298.0831789389279
 20
-586.3373810040569
 30
0.0
  0
POINT
  5
1E2C1
330
1F
100
AcDbEntity
  8
0
 62
     7
370
     5
100
AcDbPoint
 10
1353.213944337289
 20
-176.2661773838116
 30
0.0
  0
POINT
  5
1E2CF
330
1F
100
AcDbEntity
  8
0
 62
     7
370
     5
100
AcDbPoint
 10
1348.289013337289
 20
-245.1888943838117
 30
0.0
  0
POINT
  5
1E2D0
330
1F
100
AcDbEntity
  8
0
 62
     7
370
     5
100
AcDbPoint
 10
1344.589013337289
 20
-245.1892063838116
 30
0.0
  0
POINT
  5
1E4A3
330
1F
100
AcDbEntity
  8
0
 62
     7
370
     5
100
AcDbPoint
 10
1326.152836266696
 20
34.20326680208106
 30
0.0
  0
POINT
  5
1E4B1
330
1F
100
AcDbEntity
  8
0
 62
     7
370
     5
100
AcDbPoint
 10
1326.493969266696
 20
-40.49850419791893
 30
0.0
  0
POINT
  5
20BCD
330
1F
100
AcDbEntity
  8
0
 62
     7
370
     5
100
AcDbPoint
 10
198.5275522941832
 20
-13.7218025139382
 30
0.0
  0
POINT
  5
20BD6
330
1F
100
AcDbEntity
  8
0
 62
     7
370
     5
100
AcDbPoint
 10
220.4558262941833
 20
15.6077834860618
 30
0.0
  0
POINT
  5
20BD7
330
1F
100
AcDbEntity
  8
0
 62
     7
370
     5
100
AcDbPoint
 10
198.4558262941832
 20
12.6077834860618
 30
0.0
  0
POINT
  5
20C58
330
1F
100
AcDbEntity
  8
0
 62
     7
370
     5
100
AcDbPoint
 10
414.326812844455
 20
11.02280615656721
 30
0.0
  0
POINT
  5
20C59
330
1F
100
AcDbEntity
  8
0
 62
     7
370
     5
100
AcDbPoint
 10
392.3268128444551
 20
7.022806156567212
 30
0.0
  0
POINT
  5
20C5C
330
1F
100
AcDbEntity
  8
0
 62
     7
370
     5
100
AcDbPoint
 10
392.3268138444551
 20
-22.29245184343279
 30
0.0
  0
POINT
  5
20CE3
330
1F
100
AcDbEntity
  8
0
 62
     7
370
     5
100
AcDbPoint
 10
595.8481562583682
 20
11.26212415656721
 30
0.0
  0
POINT
  5
20CE4
330
1F
100
AcDbEntity
  8
0
 62
     7
370
     5
100
AcDbPoint
 10
561.8481562583682
 20
3.262124156567208
 30
0.0
  0
POINT
  5
20CE6
330
1F
100
AcDbEntity
  8
0
 62
     7
370
     5
100
AcDbPoint
 10
561.8481562583682
 20
-39.26495684343278
 30
0.0
  0
POINT
  5
20D5E
330
1F
100
AcDbEntity
  8
0
 62
     7
370
     5
100
AcDbPoint
 10
796.8108405913596
 20
-1.622354670075452
 30
0.0
  0
POINT
  5
20D5F
330
1F
100
AcDbEntity
  8
0
 62
     7
370
     5
100
AcDbPoint
 10
771.8108405913596
 20
-6.622354670075452
 30
0.0
  0
POINT
  5
20D62
330
1F
100
AcDbEntity
  8
0
 62
     7
370
     5
100
AcDbPoint
 10
771.8108415913595
 20
-44.22139367007546
 30
0.0
  0
POINT
  5
20DE5
330
1F
100
AcDbEntity
  8
0
 62
     7
370
     5
100
AcDbPoint
 10
997.5956593431575
 20
6.154053161141687
 30
0.0
  0
POINT
  5
20DE6
330
1F
100
AcDbEntity
  8
0
 62
     7
370
     5
100
AcDbPoint
 10
963.5956593431576
 20
-3.84594683885831
 30
0.0
  0
POINT
  5
20DE8
330
1F
100
AcDbEntity
  8
0
 62
     7
370
     5
100
AcDbPoint
 10
963.5956593431576
 20
-48.6248158388583
 30
0.0
  0
POINT
  5
20E5D
330
1F
100
AcDbEntity
  8
0
 62
     7
370
     5
100
AcDbPoint
 10
209.7442369247441
 20
-211.8062287972217
 30
0.0
  0
POINT
  5
20E66
330
1F
100
AcDbEntity
  8
0
 62
     7
370
     5
100
AcDbPoint
 10
231.7442369247441
 20
-173.8710347972217
 30
0.0
  0
POINT
  5
20E67
330
1F
100
AcDbEntity
  8
0
 62
     7
370
     5
100
AcDbPoint
 10
209.7442369247441
 20
-179.3710347972217
 30
0.0
  0
POINT
  5
20EE1
330
1F
100
AcDbEntity
  8
0
 62
     7
370
     5
100
AcDbPoint
 10
384.6743099214819
 20
-210.4126915562921
 30
0.0
  0
POINT
  5
20EEB
330
1F
100
AcDbEntity
  8
0
 62
     7
370
     5
100
AcDbPoint
 10
409.6743099214817
 20
-168.248029556292
 30
0.0
  0
POINT
  5
20EEC
330
1F
100
AcDbEntity
  8
0
 62
     7
370
     5
100
AcDbPoint
 10
384.6743099214819
 20
-174.248029556292
 30
0.0
  0
POINT
  5
20F6B
330
1F
100
AcDbEntity
  8
0
 62
     7
370
     5
100
AcDbPoint
 10
589.027789486203
 20
-154.2267571311068
 30
0.0
  0
POINT
  5
20F6C
330
1F
100
AcDbEntity
  8
0
 62
     7
370
     5
100
AcDbPoint
 10
555.027789486203
 20
-166.2267571311068
 30
0.0
  0
POINT
  5
20F6E
330
1F
100
AcDbEntity
  8
0
 62
     7
370
     5
100
AcDbPoint
 10
555.027789486203
 20
-220.1583441311068
 30
0.0
  0
POINT
  5
20FE7
330
1F
100
AcDbEntity
  8
0
 62
     7
370
     5
100
AcDbPoint
 10
794.4609892408081
 20
-176.9240641499829
 30
0.0
  0
POINT
  5
20FE8
330
1F
100
AcDbEntity
  8
0
 62
     7
370
     5
100
AcDbPoint
 10
772.4609892408077
 20
-183.4240641499829
 30
0.0
  0
POINT
  5
20FEB
330
1F
100
AcDbEntity
  8
0
 62
     7
370
     5
100
AcDbPoint
 10
772.4609902408077
 20
-220.0080011499829
 30
0.0
  0
POINT
  5
21068
330
1F
100
AcDbEntity
  8
0
 62
     7
370
     5
100
AcDbPoint
 10
980.7257767233267
 20
-225.8659069279295
 30
0.0
  0
POINT
  5
21072
330
1F
100
AcDbEntity
  8
0
 62
     7
370
     5
100
AcDbPoint
 10
1000.725776723327
 20
-181.1593259279295
 30
0.0
  0
POINT
  5
21073
330
1F
100
AcDbEntity
  8
0
 62
     7
370
     5
100
AcDbPoint
 10
980.7257767233267
 20
-188.1593259279295
 30
0.0
  0
POINT
  5
24E51
330
1F
100
AcDbEntity
  8
0
 62
     7
370
     5
100
AcDbPoint
 10
233.2059843961101
 20
-36.0789366070161
 30
0.0
  0
POINT
  5
24E5A
330
1F
100
AcDbEntity
  8
0
 62
     7
370
     5
100
AcDbPoint
 10
314.4377803961102
 20
35.1487553929839
 30
0.0
  0
POINT
  5
24E5B
330
1F
100
AcDbEntity
  8
0
 62
     7
370
     5
100
AcDbPoint
 10
234.4377803961101
 20
19.1487553929839
 30
0.0
  0
POINT
  5
24ECD
330
1F
100
AcDbEntity
  8
0
 62
     7
370
     5
100
AcDbPoint
 10
503.7517578950278
 20
-44.34341865794009
 30
0.0
  0
POINT
  5
24ED5
330
1F
100
AcDbEntity
  8
0
 62
     7
370
     5
100
AcDbPoint
 10
589.9610418950277
 20
46.51953834205989
 30
0.0
  0
POINT
  5
24ED6
330
1F
100
AcDbEntity
  8
0
 62
     7
370
     5
100
AcDbPoint
 10
504.9610418950278
 20
26.51953834205989
 30
0.0
  0
POINT
  5
24F33
330
1F
100
AcDbEntity
  8
0
 62
     7
370
     5
100
AcDbPoint
 10
804.954816789268
 20
-53.36089903708293
 30
0.0
  0
POINT
  5
24F3B
330
1F
100
AcDbEntity
  8
0
 62
     7
370
     5
100
AcDbPoint
 10
901.222594789268
 20
37.79953596291708
 30
0.0
  0
POINT
  5
24F3C
330
1F
100
AcDbEntity
  8
0
 62
     7
370
     5
100
AcDbPoint
 10
806.2225947892681
 20
17.79953596291707
 30
0.0
  0
POINT
  5
24F9C
330
1F
100
AcDbEntity
  8
0
 62
     7
370
     5
100
AcDbPoint
 10
1210.776659634684
 20
28.2041337387349
 30
0.0
  0
POINT
  5
24F9D
330
1F
100
AcDbEntity
  8
0
 62
     7
370
     5
100
AcDbPoint
 10
1125.776659634684
 20
3.204133738734923
 30
0.0
  0
POINT
  5
24FA0
330
1F
100
AcDbEntity
  8
0
 62
     7
370
     5
100
AcDbPoint
 10
1122.825092634684
 20
-62.80906226126507
 30
0.0
  0
POINT
  5
25003
330
1F
100
AcDbEntity
  8
0
 62
     7
370
     5
100
AcDbPoint
 10
1533.294671945107
 20
39.46909335504969
 30
0.0
  0
POINT
  5
25004
330
1F
100
AcDbEntity
  8
0
 62
     7
370
     5
100
AcDbPoint
 10
1423.294671945108
 20
14.46909335504972
 30
0.0
  0
POINT
  5
25007
330
1F
100
AcDbEntity
  8
0
 62
     7
370
     5
100
AcDbPoint
 10
1423.294671945108
 20
-61.69357464495027
 30
0.0
  0
POINT
  5
25069
330
1F
100
AcDbEntity
  8
0
 62
     7
370
     5
100
AcDbPoint
 10
279.5191352462189
 20
-235.8578081995934
 30
0.0
  0
POINT
  5
2506A
330
1F
100
AcDbEntity
  8
0
 62
     7
370
     5
100
AcDbPoint
 10
224.5191352462189
 20
-255.8578081995934
 30
0.0
  0
POINT
  5
2506E
330
1F
100
AcDbEntity
  8
0
 62
     7
370
     5
100
AcDbPoint
 10
223.2724782462189
 20
-314.3072531995934
 30
0.0
  0
POINT
  5
250D0
330
1F
100
AcDbEntity
  8
0
 62
     7
370
     5
100
AcDbPoint
 10
552.5501754157779
 20
-231.1433806045495
 30
0.0
  0
POINT
  5
250D1
330
1F
100
AcDbEntity
  8
0
 62
     7
370
     5
100
AcDbPoint
 10
487.5501754157781
 20
-256.1433806045495
 30
0.0
  0
POINT
  5
250D5
330
1F
100
AcDbEntity
  8
0
 62
     7
370
     5
100
AcDbPoint
 10
487.5501754157781
 20
-323.3343576045494
 30
0.0
  0
POINT
  5
25137
330
1F
100
AcDbEntity
  8
0
 62
     7
370
     5
100
AcDbPoint
 10
855.1566106432487
 20
-229.371519220024
 30
0.0
  0
POINT
  5
25138
330
1F
100
AcDbEntity
  8
0
 62
     7
370
     5
100
AcDbPoint
 10
762.1566106432488
 20
-260.871519220024
 30
0.0
  0
POINT
  5
2513C
330
1F
100
AcDbEntity
  8
0
 62
     7
370
     5
100
AcDbPoint
 10
760.9104996432486
 20
-349.238300220024
 30
0.0
  0
POINT
  5
2519F
330
1F
100
AcDbEntity
  8
0
 62
     7
370
     5
100
AcDbPoint
 10
1192.36388959937
 20
-218.9805098816409
 30
0.0
  0
POINT
  5
251A0
330
1F
100
AcDbEntity
  8
0
 62
     7
370
     5
100
AcDbPoint
 10
1092.36388959937
 20
-258.9805098816409
 30
0.0
  0
POINT
  5
251A4
330
1F
100
AcDbEntity
  8
0
 62
     7
370
     5
100
AcDbPoint
 10
1092.54560259937
 20
-365.6111158816409
 30
0.0
  0
POINT
  5
27C4D
330
1F
100
AcDbEntity
  8
1
 62
     7
370
     5
100
AcDbPoint
 10
185.936684180983
 20
12.22790901277693
 30
0.0
  0
POINT
  5
27C4E
330
1F
100
AcDbEntity
  8
1
 62
     7
370
     5
100
AcDbPoint
 10
185.936684180983
 20
9.517281012776946
 30
0.0
  0
POINT
  5
27DA0
330
1F
100
AcDbEntity
  8
1
 62
     7
370
     5
100
AcDbPoint
 10
159.7240994851886
 20
22.81916357545765
 30
0.0
  0
POINT
  5
27DA1
330
1F
100
AcDbEntity
  8
1
 62
     7
370
     5
100
AcDbPoint
 10
159.7240994851886
 20
20.10853557545767
 30
0.0
  0
POINT
  5
28B80
330
1F
100
AcDbEntity
  8
0
 62
     7
370
     5
100
AcDbPoint
 10
-108.3844236581584
 20
-61.41399158543199
 30
0.0
  0
POINT
  5
28D5B
330
1F
100
AcDbEntity
  8
0
 62
     7
370
     5
100
AcDbPoint
 10
-94.15639370577505
 20
-48.79010226493504
 30
0.0
  0
DIMENSION
  5
28EA8
330
1F
100
AcDbEntity
  8
SK2
100
AcDbDimension
  2
*D8
 10
-32.62080600000002
 20
5.0
 30
0.0
 11
-32.62080600000002
 21
0.7841750000000049
 31
0.0
 70
   161
  1
M<>
 71
     5
 42
10.0
  3
MM_STANDARD
100
AcDbAlignedDimension
 13
-20.00000000000003
 23
-5.0
 33
0.0
 14
-20.00000000000003
 24
5.0
 34
0.0
1001
ACAD
1000
DSTYLE
1002
{
1070
    78
1070
     9
1070
    79
1070
     2
1070
    90
1070
     1
1070
   172
1070
     1
1070
   345
1005
14
1070
   346
1005
14
1070
   347
1005
14
1002
}
1001
ACAD_DSTYLE_DIMARC_LENGTH_SYMBOL
1070
   379
1070
     1
1001
ACAD_DSTYLE_DIM_LINETYPE
1070
   380
1005
14
1001
ACAD_DSTYLE_DIM_EXT1_LINETYPE
1070
   381
1005
14
1001
ACAD_DSTYLE_DIM_EXT2_LINETYPE
1070
   382
1005
14
  0
DIMENSION
  5
28ED0
330
1F
100
AcDbEntity
  8
SK2
100
AcDbDimension
  2
*D10
 10
26.95150863946032
 20
45.20178621618153
 30
0.0
 11
3.475138999999956
 21
45.20256799999999
 31
0.0
 70
   160
 71
     5
 42
46.95016985848305
  3
MM_STANDARD
100
AcDbAlignedDimension
 13
-20.00000000000003
 23
5.0
 33
0.0
 14
26.95027699999997
 24
8.216596000000008
 34
0.0
 50
359.998092
100
AcDbRotatedDimension
1001
ACAD
1000
DSTYLE
1002
{
1070
    78
1070
     9
1070
   271
1070
     0
1070
    79
1070
     2
1070
    90
1070
     1
1070
   172
1070
     1
1070
   345
1005
14
1070
   346
1005
14
1070
   347
1005
14
1002
}
1001
ACAD_DSTYLE_DIMARC_LENGTH_SYMBOL
1070
   379
1070
     1
1001
ACAD_DSTYLE_DIM_LINETYPE
1070
   380
1005
14
1001
ACAD_DSTYLE_DIM_EXT1_LINETYPE
1070
   381
1005
14
1001
ACAD_DSTYLE_DIM_EXT2_LINETYPE
1070
   382
1005
14
  0
DIMENSION
  5
28EDD
330
1F
100
AcDbEntity
  8
2
100
AcDbDimension
  2
*D11
 10
27.04251199999996
 20
8.405170999999995
 30
0.0
 11
41.47938868631135
 21
18.65259041406424
 31
0.0
 70
   162
  1
<>~90%%d
 71
     5
 42
1.309002621009784
  3
MM_STANDARD
100
AcDb2LineAngularDimension
 13
26.95027599999995
 23
8.429884999999986
 33
0.0
 14
26.95027599999995
 24
8.081085000000001
 34
0.0
 15
26.95027599999995
 25
8.429884999999986
 35
0.0
 16
22.77813899999995
 26
17.37706299999999
 36
0.0
1001
ACAD
1000
DSTYLE
1002
{
1070
   279
1070
     0
1070
    78
1070
     9
1070
    79
1070
     2
1070
    90
1070
     1
1070
   172
1070
     1
1070
   345
1005
14
1070
   346
1005
14
1070
   347
1005
14
1002
}
1001
ACAD_DSTYLE_DIMARC_LENGTH_SYMBOL
1070
   379
1070
     1
1001
ACAD_DSTYLE_DIM_LINETYPE
1070
   380
1005
14
1001
ACAD_DSTYLE_DIM_EXT1_LINETYPE
1070
   381
1005
14
1001
ACAD_DSTYLE_DIM_EXT2_LINETYPE
1070
   382
1005
14
  0
DIMENSION
  5
28EEC
330
1F
100
AcDbEntity
  8
2
100
AcDbDimension
  2
*D12
 10
14.95025511008792
 20
25.20264833110005
 30
0.0
 11
19.77481799999995
 21
25.20256799999999
 31
0.0
 70
   160
 71
     5
 42
12.00030471351186
  3
MM_STANDARD
100
AcDbAlignedDimension
 13
26.95027699999997
 23
8.216596000000008
 33
0.0
 14
14.94999999999996
 24
9.881126999999992
 34
0.0
 50
179.999046
100
AcDbRotatedDimension
1001
ACAD
1000
DSTYLE
1002
{
1070
   279
1070
     0
1070
    78
1070
     9
1070
    79
1070
     2
1070
    90
1070
     1
1070
   172
1070
     1
1070
   345
1005
14
1070
   346
1005
14
1070
   347
1005
14
1002
}
1001
ACAD_DSTYLE_DIMARC_LENGTH_SYMBOL
1070
   379
1070
     1
1001
ACAD_DSTYLE_DIM_LINETYPE
1070
   380
1005
14
1001
ACAD_DSTYLE_DIM_EXT1_LINETYPE
1070
   381
1005
14
1001
ACAD_DSTYLE_DIM_EXT2_LINETYPE
1070
   382
1005
14
  0
POINT
  5
28EFA
330
1F
100
AcDbEntity
  8
1
 62
     7
370
     5
100
AcDbPoint
 10
-218.5448924936852
 20
10.95749330054963
 30
0.0
  0
LINE
  5
28EFD
330
1F
100
AcDbEntity
  8
4
100
AcDbLine
 10
30.54965800000002
 20
0.0
 30
0.0
 11
0.0
 21
0.0
 31
0.0
  0
DIMENSION
  5
29085
330
1F
100
AcDbEntity
  8
SK2
100
AcDbDimension
  2
*D13
 10
-44.62032143603193
 20
-9.000000000000008
 30
0.0
 11
-47.46633338262364
 21
0.0000000000000066
 31
0.0
 70
    32
  1
%%C<>
 71
     5
 41
0.0
 42
18.0
  3
MM_STANDARD
100
AcDbAlignedDimension
 13
-0.0000000000000284
 23
9.0
 33
0.0
 14
-0.0000000000000284
 24
-9.0
 34
0.0
 50
90.0
100
AcDbRotatedDimension
1001
ACAD
1000
DSTYLE
1002
{
1070
    78
1070
     9
1070
    79
1070
     2
1070
    90
1070
     1
1070
   172
1070
     1
1070
   345
1005
14
1070
   346
1005
14
1070
   347
1005
14
1002
}
1001
ACAD_DSTYLE_DIMARC_LENGTH_SYMBOL
1070
   379
1070
     1
1001
ACAD_DSTYLE_DIM_LINETYPE
1070
   380
1005
14
1001
ACAD_DSTYLE_DIM_EXT1_LINETYPE
1070
   381
1005
14
1001
ACAD_DSTYLE_DIM_EXT2_LINETYPE
1070
   382
1005
14
  0
DIMENSION
  5
2909E
330
1F
100
AcDbEntity
  8
2
100
AcDbDimension
  2
*D14
 10
55.63133630350407
 20
-10.0
 30
0.0
 11
55.63133630350407
 21
0.0
 31
0.0
 70
   160
  1
%%C<>
 71
     5
 41
0.0
 42
20.00000000000001
  3
MM_STANDARD
100
AcDbAlignedDimension
 13
17.42255098964682
 23
10.0
 33
0.0
 14
31.09505099999996
 24
-10.0
 34
0.0
 50
90.0
100
AcDbRotatedDimension
1001
ACAD
1000
DSTYLE
1002
{
1070
   279
1070
     0
1070
    76
1070
     1
1070
   282
1070
     1
1070
   271
1070
     0
1070
    78
1070
     9
1070
    79
1070
     2
1070
    90
1070
     1
1070
   172
1070
     1
1070
   345
1005
14
1070
   346
1005
14
1070
   347
1005
14
1070
     7
1000
_NONE
1070
   173
1070
     1
1002
}
1001
ACAD_DSTYLE_DIMARC_LENGTH_SYMBOL
1070
   379
1070
     1
1001
ACAD_DSTYLE_DIM_LINETYPE
1070
   380
1005
14
1001
ACAD_DSTYLE_DIM_EXT1_LINETYPE
1070
   381
1005
14
1001
ACAD_DSTYLE_DIM_EXT2_LINETYPE
1070
   382
1005
14
  0
LINE
  5
290DC
330
1F
100
AcDbEntity
  8
SK1
100
AcDbLine
 10
-20.0
 20
2.397127999999999
 30
0.0
 11
-20.0
 21
-5.0
 31
0.0
  0
LINE
  5
290DD
330
1F
100
AcDbEntity
  8
SK1
100
AcDbLine
 10
-20.0
 20
5.0
 30
0.0
 11
-20.0
 21
2.397127999999999
 31
0.0
  0
LINE
  5
290DE
330
1F
100
AcDbEntity
  8
SK1
100
AcDbLine
 10
-9.45676499999999
 20
5.0
 30
0.0
 11
-9.45676499999999
 21
2.397127999999999
 31
0.0
  0
LINE
  5
290DF
330
1F
100
AcDbEntity
  8
SK1
100
AcDbLine
 10
-9.45676499999999
 20
2.397127999999999
 30
0.0
 11
-9.45676499999999
 21
-5.0
 31
0.0
  0
LINE
  5
290E0
330
1F
100
AcDbEntity
  8
SK1
100
AcDbLine
 10
-5.165736999999978
 20
-5.25
 30
0.0
 11
-5.165736999999978
 21
2.516983999999999
 31
0.0
  0
LINE
  5
290E1
330
1F
100
AcDbEntity
  8
SK1
100
AcDbLine
 10
-5.165736999999978
 20
2.516983999999999
 30
0.0
 11
-5.165736999999978
 21
5.25
 31
0.0
  0
LINE
  5
290E2
330
1F
100
AcDbEntity
  8
1
100
AcDbLine
 10
0.0000000000000284
 20
9.0
 30
0.0
 11
0.0000000000000284
 21
-7.898242999999999
 31
0.0
  0
LINE
  5
290E3
330
1F
100
AcDbEntity
  8
1
100
AcDbLine
 10
0.0000000000000284
 20
-7.898242999999999
 30
0.0
 11
0.0000000000000284
 21
-9.0
 31
0.0
  0
SPLINE
  5
290E4
330
1F
100
AcDbEntity
  8
1
100
AcDbSpline
210
0.0
220
0.0
230
1.0
 70
     8
 71
     5
 72
    15
 73
     9
 74
     0
 42
0.000000001
 43
0.0000000001
 40
0.0
 40
0.0
 40
0.0
 40
0.0
 40
0.0
 40
0.0
 40
9.289911143267996
 40
9.289911143267996
 40
9.289911143267996
 40
11.71013183050018
 40
11.71013183050018
 40
11.71013183050018
 40
11.71013183050018
 40
11.71013183050018
 40
11.71013183050018
 10
7.75821389657014
 20
8.511220658537173
 30
0.0
 10
8.641982280808091
 20
8.258993767705003
 30
0.0
 10
9.561658250254422
 20
7.950782175211372
 30
0.0
 10
10.51554908738498
 20
7.622850434638254
 30
0.0
 10
11.75591890691678
 20
7.226003751665952
 30
0.0
 10
13.03737218991958
 20
6.88325001494621
 30
0.0
 10
13.30392575733774
 20
6.815093614788431
 30
0.0
 10
13.57199965385905
 20
6.749984022033722
 30
0.0
 10
13.84152520646663
 20
6.688210769091661
 30
0.0
  0
ARC
  5
290E5
330
1F
100
AcDbEntity
  8
1
100
AcDbCircle
 10
3.698279000000013
 20
-5.707948999999997
 30
0.0
 40
14.78742
100
AcDbArc
 50
74.06460799999997
 51
75.53501700000002
  0
SPLINE
  5
290E6
330
1F
100
AcDbEntity
  8
1
100
AcDbSpline
210
0.0
220
0.0
230
1.0
 70
     8
 71
     5
 72
    18
 73
    12
 74
     0
 42
0.000000001
 43
0.0000000001
 40
0.0
 40
0.0
 40
0.0
 40
0.0
 40
0.0
 40
0.0
 40
1.017361750361297
 40
1.017361750361297
 40
1.017361750361297
 40
1.474182917919289
 40
1.474182917919289
 40
1.474182917919289
 40
1.607883593349858
 40
1.607883593349858
 40
1.607883593349858
 40
1.607883593349858
 40
1.607883593349858
 40
1.607883593349858
 10
7.576860961077017
 20
8.90310825041692
 30
0.0
 10
7.460945256594442
 20
8.899707473550144
 30
0.0
 10
7.347278501645746
 20
8.893796836670063
 30
0.0
 10
7.231302984778722
 20
8.884435886536273
 30
0.0
 10
7.089113334786532
 20
8.862775324167369
 30
0.0
 10
7.016333013127477
 20
8.826824571334555
 30
0.0
 10
7.002522525206615
 20
8.814428650294296
 30
0.0
 10
6.996452387117527
 20
8.797159497578476
 30
0.0
 10
7.003581785033388
 20
8.779195166036592
 30
0.0
 10
7.005847467839997
 20
8.775095146192462
 30
0.0
 10
7.008718521647438
 20
8.770987512116816
 30
0.0
 10
7.012162560654445
 20
8.766871550689208
 30
0.0
  0
SPLINE
  5
290E7
330
1F
100
AcDbEntity
  8
1
100
AcDbSpline
210
0.0
220
0.0
230
1.0
 70
     8
 71
     5
 72
    15
 73
     9
 74
     0
 42
0.000000001
 43
0.0000000001
 40
0.0
 40
0.0
 40
0.0
 40
0.0
 40
0.0
 40
0.0
 40
0.9836937248217324
 40
0.9836937248217324
 40
0.9836937248217324
 40
1.105328323092291
 40
1.105328323092291
 40
1.105328323092291
 40
1.105328323092291
 40
1.105328323092291
 40
1.105328323092291
 10
7.012162560654445
 20
8.766871550689208
 30
0.0
 10
7.037501845952136
 20
8.736588641385241
 30
0.0
 10
7.093853700234035
 20
8.70585583229012
 30
0.0
 10
7.167328912926222
 20
8.67675003085554
 30
0.0
 10
7.258421799486113
 20
8.646872483082839
 30
0.0
 10
7.358398302136008
 20
8.619547387625486
 30
0.0
 10
7.369503514482487
 20
8.616571368726161
 30
0.0
 10
7.380705992170107
 20
8.613626990152312
 30
0.0
 10
7.392002598950538
 20
8.61071429139573
 30
0.0
  0
ARC
  5
290E8
330
1F
100
AcDbEntity
  8
1
100
AcDbCircle
 10
14.25620300000003
 20
-222.651803
 30
0.0
 40
231.651386
100
AcDbArc
 50
90.102565
 51
91.65227299999999
  0
ARC
  5
290E9
330
1F
100
AcDbEntity
  8
1
100
AcDbCircle
 10
13.78569600000003
 20
3.749617999999998
 30
0.0
 40
12.141372
100
AcDbArc
 50
240.2335210000001
 51
253.5960850000001
  0
ARC
  5
290EA
330
1F
100
AcDbEntity
  8
1
100
AcDbCircle
 10
17.61910800000001
 20
10.319047
 30
0.0
 40
19.74667399999999
100
AcDbArc
 50
238.8074819999999
 51
240.041681
  0
ARC
  5
290EB
330
1F
100
AcDbEntity
  8
1
100
AcDbCircle
 10
7.742679000000008
 20
-6.692641999999997
 30
0.0
 40
1.112818999999998
100
AcDbArc
 50
98.56876499999987
 51
110.5644269999998
  0
SPLINE
  5
290EC
330
1F
100
AcDbEntity
  8
1
100
AcDbSpline
210
0.0
220
0.0
230
1.0
 70
     8
 71
     5
 72
    21
 73
    15
 74
     0
 42
0.000000001
 43
0.0000000001
 40
0.0
 40
0.0
 40
0.0
 40
0.0
 40
0.0
 40
0.0
 40
0.7721503190406453
 40
0.7721503190406453
 40
0.7721503190406453
 40
1.268694778341034
 40
1.268694778341034
 40
1.268694778341034
 40
2.253809968634013
 40
2.253809968634013
 40
2.253809968634013
 40
2.486878209261729
 40
2.486878209261729
 40
2.486878209261729
 40
2.486878209261729
 40
2.486878209261729
 40
2.486878209261729
 10
7.351816675260919
 20
-5.650807150303677
 30
0.0
 10
7.270747756600682
 20
-5.68189062314611
 30
0.0
 10
7.194719435410545
 20
-5.72196350906772
 30
0.0
 10
7.125422798721047
 20
-5.772705998836287
 30
0.0
 10
7.037762214033987
 20
-5.873296211469295
 30
0.0
 10
7.00138942990867
 20
-5.989802060666946
 30
0.0
 10
6.995951916574796
 20
-6.036414053958848
 30
0.0
 10
7.003589727357508
 20
-6.174387775731596
 30
0.0
 10
7.072012878832567
 20
-6.301814667858613
 30
0.0
 10
7.135916908373474
 20
-6.378083200050915
 30
0.0
 10
7.226743827226754
 20
-6.461298026966842
 30
0.0
 10
7.330188707636352
 20
-6.533653772317101
 30
0.0
 10
7.350414863125932
 20
-6.547114835494213
 30
0.0
 10
7.371024792067004
 20
-6.560188431745068
 30
0.0
 10
7.392002598950538
 20
-6.57288874282392
 30
0.0
  0
ARC
  5
290ED
330
1F
100
AcDbEntity
  8
1
100
AcDbCircle
 10
-194.472931
 20
1279.915223
 30
0.0
 40
1301.289148
100
AcDbArc
 50
278.932395
 51
279.211722
  0
LINE
  5
290EE
330
1F
100
AcDbEntity
  8
1
100
AcDbLine
 10
13.84152500000002
 20
-4.591923000000001
 30
0.0
 11
13.84152500000002
 21
6.688210999999999
 31
0.0
  0
LINE
  5
290EF
330
1F
100
AcDbEntity
  8
1
100
AcDbLine
 10
2.000000000000026
 20
-4.974936999999997
 30
0.0
 11
11.00000000000003
 21
-4.974936999999997
 31
0.0
  0
LINE
  5
290F0
330
1F
100
AcDbEntity
  8
1
100
AcDbLine
 10
2.000000000000026
 20
-4.974936999999997
 30
0.0
 11
2.000000000000026
 21
4.974937000000001
 31
0.0
  0
LINE
  5
290F1
330
1F
100
AcDbEntity
  8
1
100
AcDbLine
 10
11.00000000000003
 20
4.974937000000001
 30
0.0
 11
2.000000000000026
 21
4.974937000000001
 31
0.0
  0
LINE
  5
290F2
330
1F
100
AcDbEntity
  8
1
100
AcDbLine
 10
11.00000000000003
 20
-4.974936999999997
 30
0.0
 11
11.00000000000003
 21
4.974937000000001
 31
0.0
  0
ARC
  5
290F3
330
1F
100
AcDbEntity
  8
1
100
AcDbCircle
 10
14.12754900000002
 20
3.823418
 30
0.0
 40
2.879823000000001
100
AcDbArc
 50
78.26723499999999
 51
95.70157899999999
  0
ARC
  5
290F4
330
1F
100
AcDbEntity
  8
1
100
AcDbCircle
 10
13.14488500000002
 20
4.777515000000001
 30
0.0
 40
9.395358999999999
100
AcDbArc
 50
274.252255
 51
277.857309
  0
ARC
  5
290F5
330
1F
100
AcDbEntity
  8
1
100
AcDbCircle
 10
-314.222586
 20
-60.962676
 30
0.0
 40
333.461795
100
AcDbArc
 50
9.743271
 51
10.21044
  0
ARC
  5
290F6
330
1F
100
AcDbEntity
  8
1
100
AcDbCircle
 10
15.43891000000002
 20
-4.985573000000001
 30
0.0
 40
3.465961999999998
100
AcDbArc
 50
102.08416
 51
115.289563
  0
LINE
  5
290F7
330
1F
100
AcDbEntity
  8
1
100
AcDbLine
 10
14.71330500000002
 20
6.643801999999999
 30
0.0
 11
14.71330500000002
 21
-1.596355999999999
 31
0.0
  0
ARC
  5
290F8
330
1F
100
AcDbEntity
  8
1
100
AcDbCircle
 10
14.70595800000001
 20
7.225303
 30
0.0
 40
1.973652999999999
100
AcDbArc
 50
98.05802900000026
 51
105.8281180000002
  0
ARC
  5
290F9
330
1F
100
AcDbEntity
  8
1
100
AcDbCircle
 10
14.70262400000001
 20
7.236953999999998
 30
0.0
 40
1.961531999999995
100
AcDbArc
 50
105.8272629999997
 51
116.0396729999997
  0
ARC
  5
290FA
330
1F
100
AcDbEntity
  8
1
100
AcDbCircle
 10
18.77247600000001
 20
26.974741
 30
0.0
 40
20.731262
100
AcDbArc
 50
258.709083
 51
269.074478
  0
LINE
  5
290FB
330
1F
100
AcDbEntity
  8
1
100
AcDbLine
 10
18.437622
 20
6.246971000000002
 30
0.0
 11
18.437622
 21
-0.8169639999999985
 31
0.0
  0
ARC
  5
290FC
330
1F
100
AcDbEntity
  8
1
100
AcDbCircle
 10
92.64402099999999
 20
-364.733645
 30
0.0
 40
371.405323
100
AcDbArc
 50
101.525202
 51
102.112192
  0
ARC
  5
290FD
330
1F
100
AcDbEntity
  8
1
100
AcDbCircle
 10
28.63925900000001
 20
-50.99859699999999
 30
0.0
 40
51.208318
100
AcDbArc
 50
95.59451499999999
 51
101.491303
  0
ARC
  5
290FE
330
1F
100
AcDbEntity
  8
1
100
AcDbCircle
 10
18.86439800000002
 20
38.478369
 30
0.0
 40
32.234218
100
AcDbArc
 50
269.241391
 51
270.782898
  0
ARC
  5
290FF
330
1F
100
AcDbEntity
  8
1
100
AcDbCircle
 10
19.94808500000002
 20
-39.38799399999999
 30
0.0
 40
45.639611
100
AcDbArc
 50
85.35120400000002
 51
90.807555
  0
LINE
  5
29100
330
1F
100
AcDbEntity
  8
1
100
AcDbLine
 10
23.64706800000002
 20
6.101383999999997
 30
0.0
 11
23.64706800000002
 21
-0.0340489999999996
 31
0.0
  0
LINE
  5
29101
330
1F
100
AcDbEntity
  8
1
100
AcDbLine
 10
18.437622
 20
-8.972546999999996
 30
0.0
 11
18.437622
 21
-9.200000000000002
 31
0.0
  0
ARC
  5
29102
330
1F
100
AcDbEntity
  8
1
100
AcDbCircle
 10
18.51963000000001
 20
11.565186
 30
0.0
 40
20.537893
100
AcDbArc
 50
269.771217
 51
272.191074
  0
ARC
  5
29103
330
1F
100
AcDbEntity
  8
1
100
AcDbCircle
 10
18.14788800000002
 20
21.239989
 30
0.0
 40
30.21982700000001
100
AcDbArc
 50
272.194074
 51
280.4846799999999
  0
LINE
  5
29104
330
1F
100
AcDbEntity
  8
1
100
AcDbLine
 10
23.64706800000002
 20
-8.475268999999997
 30
0.0
 11
23.64706800000002
 21
-8.744233000000001
 31
0.0
  0
LINE
  5
29105
330
1F
100
AcDbEntity
  8
1
100
AcDbLine
 10
14.71330500000002
 20
-8.833246000000002
 30
0.0
 11
14.71330500000002
 21
-9.200000000000002
 31
0.0
  0
SPLINE
  5
29106
330
1F
100
AcDbEntity
  8
1
100
AcDbSpline
210
0.0
220
0.0
230
1.0
 70
     8
 71
     5
 72
    12
 73
     6
 74
     0
 42
0.000000001
 43
0.0000000001
 40
0.0
 40
0.0
 40
0.0
 40
0.0
 40
0.0
 40
0.0
 40
6.498986719925981
 40
6.498986719925981
 40
6.498986719925981
 40
6.498986719925981
 40
6.498986719925981
 40
6.498986719925981
 10
18.43762236558547
 20
-8.972546541707615
 30
0.0
 10
17.68843081962003
 20
-8.969588310427347
 30
0.0
 10
16.93867078445984
 20
-8.955634104169078
 30
0.0
 10
16.1908424369235
 20
-8.930488683016474
 30
0.0
 10
15.44822814124777
 20
-8.89128853576615
 30
0.0
 10
14.71330499517481
 20
-8.833245588874119
 30
0.0
  0
ARC
  5
29107
330
1F
100
AcDbEntity
  8
1
100
AcDbCircle
 10
14.88824600000001
 20
-6.755439000000002
 30
0.0
 40
2.085464999999995
100
AcDbArc
 50
239.8782780000002
 51
265.1873170000001
  0
LINE
  5
29108
330
1F
100
AcDbEntity
  8
1
100
AcDbLine
 10
13.84152500000002
 20
-9.0
 30
0.0
 11
13.84152500000002
 21
-8.559550999999999
 31
0.0
  0
SPLINE
  5
29109
330
1F
100
AcDbEntity
  8
1
100
AcDbSpline
210
0.0
220
0.0
230
1.0
 70
     8
 71
     5
 72
    12
 73
     6
 74
     0
 42
0.000000001
 43
0.0000000001
 40
0.0
 40
0.0
 40
0.0
 40
0.0
 40
0.0
 40
0.0
 40
6.434693253903994
 40
6.434693253903994
 40
6.434693253903994
 40
6.434693253903994
 40
6.434693253903994
 40
6.434693253903994
 10
10.35667960068719
 20
-7.898243057013353
 30
0.0
 10
11.02275297951576
 20
-8.098117034980999
 30
0.0
 10
11.7070982372021
 20
-8.258529543782486
 30
0.0
 10
12.40847340718938
 20
-8.38477717392719
 30
0.0
 10
13.12029613386147
 20
-8.483217575985753
 30
0.0
 10
13.84152520646663
 20
-8.559551437488451
 30
0.0
  0
LINE
  5
2910A
330
1F
100
AcDbEntity
  8
1
100
AcDbLine
 10
25.95418900000001
 20
-8.047176
 30
0.0
 11
23.64706800000002
 21
-8.475268999999997
 31
0.0
  0
LINE
  5
2910B
330
1F
100
AcDbEntity
  8
1
100
AcDbLine
 10
25.95418900000001
 20
-8.047176
 30
0.0
 11
25.95418900000001
 21
-8.337424999999996
 31
0.0
  0
LINE
  5
2910C
330
1F
100
AcDbEntity
  8
1
100
AcDbLine
 10
26.23305500000001
 20
-4.425130999999998
 30
0.0
 11
26.45000000000002
 21
-6.096000000000002
 31
0.0
  0
LINE
  5
2910D
330
1F
100
AcDbEntity
  8
1
100
AcDbLine
 10
26.45000000000002
 20
-6.475903999999998
 30
0.0
 11
26.45000000000002
 21
-6.095998999999999
 31
0.0
  0
LINE
  5
2910E
330
1F
100
AcDbEntity
  8
1
100
AcDbLine
 10
26.22458600000002
 20
-4.344731999999998
 30
0.0
 11
26.45000000000002
 21
-6.475830999999997
 31
0.0
  0
LINE
  5
2910F
330
1F
100
AcDbEntity
  8
1
100
AcDbLine
 10
25.95418900000001
 20
5.912161000000001
 30
0.0
 11
23.64706800000002
 21
6.101383999999997
 31
0.0
  0
LINE
  5
29110
330
1F
100
AcDbEntity
  8
1
100
AcDbLine
 10
25.95418900000001
 20
5.912161000000001
 30
0.0
 11
25.95418900000001
 21
0.1910769999999999
 31
0.0
  0
LINE
  5
29111
330
1F
100
AcDbEntity
  8
1
100
AcDbLine
 10
23.64706800000002
 20
-0.0340489999999996
 30
0.0
 11
25.95418900000001
 21
0.1910769999999999
 31
0.0
  0
SPLINE
  5
29112
330
1F
100
AcDbEntity
  8
1
100
AcDbSpline
210
0.0
220
0.0
230
1.0
 70
     8
 71
     5
 72
    18
 73
    12
 74
     0
 42
0.000000001
 43
0.0000000001
 40
0.0
 40
0.0
 40
0.0
 40
0.0
 40
0.0
 40
0.0
 40
0.476850133938564
 40
0.476850133938564
 40
0.476850133938564
 40
0.9551343773676499
 40
0.9551343773676499
 40
0.9551343773676499
 40
1.1900519599541
 40
1.1900519599541
 40
1.1900519599541
 40
1.1900519599541
 40
1.1900519599541
 40
1.1900519599541
 10
25.95418890660017
 20
5.912160535896441
 30
0.0
 10
26.02049138356483
 20
5.90670198215841
 30
0.0
 10
26.08510991170562
 20
5.895207462928262
 30
0.0
 10
26.14630741533276
 20
5.877832351259972
 30
0.0
 10
26.25875768518293
 20
5.832228464601412
 30
0.0
 10
26.34582375417324
 20
5.767890175418378
 30
0.0
 10
26.38177137181694
 20
5.731698977221287
 30
0.0
 10
26.42255403527423
 20
5.673258492998187
 30
0.0
 10
26.44317568886089
 20
5.610508130096362
 30
0.0
 10
26.4477245526956
 20
5.589497500092655
 30
0.0
 10
26.45000000000002
 20
5.568277329208518
 30
0.0
 10
26.45000000000002
 20
5.546980747706512
 30
0.0
  0
LINE
  5
29113
330
1F
100
AcDbEntity
  8
1
100
AcDbLine
 10
26.45000000000002
 20
5.546980999999997
 30
0.0
 11
26.45000000000002
 21
0.3467160000000007
 31
0.0
  0
SPLINE
  5
29114
330
1F
100
AcDbEntity
  8
1
100
AcDbSpline
210
0.0
220
0.0
230
1.0
 70
     8
 71
     5
 72
    15
 73
     9
 74
     0
 42
0.000000001
 43
0.0000000001
 40
0.0
 40
0.0
 40
0.0
 40
0.0
 40
0.0
 40
0.0
 40
0.4897625539768788
 40
0.4897625539768788
 40
0.4897625539768788
 40
0.9624009746790191
 40
0.9624009746790191
 40
0.9624009746790191
 40
0.9624009746790191
 40
0.9624009746790191
 40
0.9624009746790191
 10
26.45000000000002
 20
0.3467158510099857
 30
0.0
 10
26.45000000000002
 20
0.334688477316174
 30
0.0
 10
26.44047858837618
 20
0.3210047182433442
 30
0.0
 10
26.42160767877249
 20
0.3060016420808545
 30
0.0
 10
26.3673336932237
 20
0.2747056914247921
 30
0.0
 10
26.28263423230911
 20
0.2413734063103554
 30
0.0
 10
26.23447716780149
 20
0.2248691355347852
 30
0.0
 10
26.18083359715325
 20
0.2086157230108761
 30
0.0
 10
26.12300030632207
 20
0.1929846794458356
 30
0.0
  0
ARC
  5
29115
330
1F
100
AcDbEntity
  8
1
100
AcDbCircle
 10
26.04972200000004
 20
-0.7505650000000017
 30
0.0
 40
0.9464349999999983
100
AcDbArc
 50
85.5592080000005
 51
95.79303800000054
  0
LINE
  5
29116
330
1F
100
AcDbEntity
  8
1
100
AcDbLine
 10
26.45000000000002
 20
-7.456428999999999
 30
0.0
 11
26.45000000000002
 21
-7.746540000000002
 31
0.0
  0
LINE
  5
29117
330
1F
100
AcDbEntity
  8
1
100
AcDbLine
 10
26.45000000000002
 20
-6.475822999999997
 30
0.0
 11
26.45000000000002
 21
-7.456428999999999
 31
0.0
  0
ARC
  5
29118
330
1F
100
AcDbEntity
  8
1
100
AcDbCircle
 10
25.84603300000001
 20
-7.452221000000002
 30
0.0
 40
0.6043900000000027
100
AcDbArc
 50
280.3031869999995
 51
359.6007799999995
  0
LINE
  5
29119
330
1F
100
AcDbEntity
  8
1
100
AcDbLine
 10
7.951481000000001
 20
8.455223
 30
0.0
 11
7.576861000000008
 21
8.903107999999997
 31
0.0
  0
LINE
  5
2911A
330
1F
100
AcDbEntity
  8
1
100
AcDbLine
 10
14.29471800000002
 20
6.698177000000001
 30
0.0
 11
14.42929900000001
 21
9.179470000000002
 31
0.0
  0
LINE
  5
2911B
330
1F
100
AcDbEntity
  8
1
100
AcDbLine
 10
7.617332000000003
 20
-6.486488999999997
 30
0.0
 11
7.758214000000008
 21
-6.789251999999997
 31
0.0
  0
LINE
  5
2911C
330
1F
100
AcDbEntity
  8
1
100
AcDbLine
 10
7.617332000000003
 20
-6.486488999999997
 30
0.0
 11
7.392003000000017
 21
-6.572889000000002
 31
0.0
  0
ELLIPSE
  5
2911D
330
1F
100
AcDbEntity
  8
1
100
AcDbEllipse
 10
18.63104000000001
 20
-6.206240000000001
 30
0.0
 11
-14.38054943084717
 21
-2.574795722961424
 31
0.0
210
0.0
220
0.0
230
0.9999999999999998
 40
0.17101
 41
4.992480869983028
 42
5.15790739156929
  0
LINE
  5
2911E
330
1F
100
AcDbEntity
  8
1
100
AcDbLine
 10
18.755155
 20
-5.799312
 30
0.0
 11
19.30483800000002
 21
-8.957689000000002
 31
0.0
  0
ELLIPSE
  5
2911F
330
1F
100
AcDbEntity
  8
1
100
AcDbEllipse
 10
18.63104000000001
 20
-6.206240000000001
 30
0.0
 11
-14.38054943084717
 21
-2.574795722961424
 31
0.0
210
0.0
220
0.0
230
0.9999999999999998
 40
0.17101
 41
5.253661780987588
 42
5.5536235117963
  0
SPLINE
  5
29120
330
1F
100
AcDbEntity
  8
1
100
AcDbSpline
210
0.0
220
0.0
230
1.0
 70
     8
 71
     5
 72
    21
 73
    15
 74
     0
 42
0.000000001
 43
0.0000000001
 40
0.0
 40
0.0
 40
0.0
 40
0.0
 40
0.0
 40
0.0
 40
0.1924963410340029
 40
0.1924963410340029
 40
0.1924963410340029
 40
0.5804829545878773
 40
0.5804829545878773
 40
0.5804829545878773
 40
1.165265304054803
 40
1.165265304054803
 40
1.165265304054803
 40
1.938529256276403
 40
1.938529256276403
 40
1.938529256276403
 40
1.938529256276403
 40
1.938529256276403
 40
1.938529256276403
 10
12.07619950835269
 20
-5.753483472118802
 30
0.0
 10
12.06406272744439
 20
-5.770822534645987
 30
0.0
 10
12.05032761643869
 20
-5.78699127364958
 30
0.0
 10
12.03465143217417
 20
-5.802067940403672
 30
0.0
 10
11.98453237608209
 20
-5.841543355277308
 30
0.0
 10
11.92396046965638
 20
-5.866299869027793
 30
0.0
 10
11.88100364038834
 20
-5.875919679379739
 30
0.0
 10
11.77211014606908
 20
-5.887077903047952
 30
0.0
 10
11.66094958060478
 20
-5.871600407364255
 30
0.0
 10
11.5955213285182
 20
-5.855918052001954
 30
0.0
 10
11.44780817962314
 20
-5.809130056106617
 30
0.0
 10
11.30690183551042
 20
-5.741927342230397
 30
0.0
 10
11.22870052432066
 20
-5.698967930609923
 30
0.0
 10
11.15284355295378
 20
-5.652289321428711
 30
0.0
 10
11.07903060999885
 20
-5.602374059070733
 30
0.0
  0
ARC
  5
29121
330
1F
100
AcDbEntity
  8
1
100
AcDbCircle
 10
12.72151600000001
 20
-3.184905
 30
0.0
 40
2.922684999999991
100
AcDbArc
 50
230.0405180000001
 51
235.806888
  0
SPLINE
  5
29122
330
1F
100
AcDbEntity
  8
1
100
AcDbSpline
210
0.0
220
0.0
230
1.0
 70
     8
 71
     5
 72
    18
 73
    12
 74
     0
 42
0.000000001
 43
0.0000000001
 40
0.0
 40
0.0
 40
0.0
 40
0.0
 40
0.0
 40
0.0
 40
0.2384984101361001
 40
0.2384984101361001
 40
0.2384984101361001
 40
0.961495531021894
 40
0.961495531021894
 40
0.961495531021894
 40
1.202522779198144
 40
1.202522779198144
 40
1.202522779198144
 40
1.202522779198144
 40
1.202522779198144
 40
1.202522779198144
 10
12.07619950835269
 20
-5.753483472118802
 30
0.0
 10
12.09123669261942
 20
-5.732000784064731
 30
0.0
 10
12.10382064179183
 20
-5.708721921586381
 30
0.0
 10
12.11394960455712
 20
-5.683871419866222
 30
0.0
 10
12.14510323818669
 20
-5.581400083435126
 30
0.0
 10
12.14321826330746
 20
-5.469254786647483
 30
0.0
 10
12.13025460493552
 20
-5.385733787037707
 30
0.0
 10
12.10370239146917
 20
-5.278345371860721
 30
0.0
 10
12.06726408887749
 20
-5.173951709187753
 30
0.0
 10
12.05758127295931
 20
-5.14797990904249
 30
0.0
 10
12.04740189911882
 20
-5.122213265025579
 30
0.0
 10
12.0367555208407
 20
-5.096618016558025
 30
0.0
  0
ELLIPSE
  5
29123
330
1F
100
AcDbEntity
  8
1
100
AcDbEllipse
 10
8.136556000000013
 20
-6.206702999999997
 30
0.0
 11
0.2864160239696503
 21
-0.7469711303710938
 31
0.0
210
0.0
220
0.0
230
1.0
 40
0.7344850000000001
 41
3.488767724203727
 42
4.806713498809262
  0
ARC
  5
29124
330
1F
100
AcDbEntity
  8
1
100
AcDbCircle
 10
13.32041300000003
 20
-4.578731000000001
 30
0.0
 40
1.38429500000001
100
AcDbArc
 50
193.1468449999999
 51
201.9714519999999
  0
SPLINE
  5
29125
330
1F
100
AcDbEntity
  8
1
100
AcDbSpline
210
0.0
220
0.0
230
1.0
 70
     8
 71
     5
 72
    12
 73
     6
 74
     0
 42
0.000000001
 43
0.0000000001
 40
0.0
 40
0.0
 40
0.0
 40
0.0
 40
0.0
 40
0.0
 40
0.7349701921468911
 40
0.7349701921468911
 40
0.7349701921468911
 40
0.7349701921468911
 40
0.7349701921468911
 40
0.7349701921468911
 10
10.57688253356119
 20
-5.117082019453917
 30
0.0
 10
10.61266537446713
 20
-5.187406474297133
 30
0.0
 10
10.66141061208097
 20
-5.252966794457321
 30
0.0
 10
10.71829171217982
 20
-5.314222045915898
 30
0.0
 10
10.77964513672478
 20
-5.371103426156616
 30
0.0
 10
10.84441454728798
 20
-5.425162934972823
 30
0.0
  0
LINE
  5
29126
330
1F
100
AcDbEntity
  8
1
100
AcDbLine
 10
13.98317800000001
 20
-2.025494999999998
 30
0.0
 11
26.12300000000002
 21
0.1929850000000002
 31
0.0
  0
LINE
  5
29127
330
1F
100
AcDbEntity
  8
SK1
100
AcDbLine
 10
-9.45676499999999
 20
5.0
 30
0.0
 11
-20.0
 21
5.0
 31
0.0
  0
LINE
  5
29128
330
1F
100
AcDbEntity
  8
SK1
100
AcDbLine
 10
-9.45676499999999
 20
-5.0
 30
0.0
 11
-20.0
 21
-5.0
 31
0.0
  0
ARC
  5
29129
330
1F
100
AcDbEntity
  8
SK1
100
AcDbCircle
 10
-7.385533999999977
 20
-6.399999999999997
 30
0.0
 40
2.500000000000003
100
AcDbArc
 50
27.38710699999989
 51
145.9442019999999
  0
ARC
  5
2912A
330
1F
100
AcDbEntity
  8
SK1
100
AcDbCircle
 10
-7.385533999999977
 20
6.399999999999997
 30
0.0
 40
2.499999999999994
100
AcDbArc
 50
214.055798
 51
332.612893
  0
LINE
  5
2912B
330
1F
100
AcDbEntity
  8
SK1
100
AcDbLine
 10
0.0000000000000284
 20
5.25
 30
0.0
 11
-5.165736999999978
 21
5.25
 31
0.0
  0
LINE
  5
2912C
330
1F
100
AcDbEntity
  8
SK1
100
AcDbLine
 10
0.0000000000000284
 20
-5.25
 30
0.0
 11
-5.165736999999978
 21
-5.25
 31
0.0
  0
LINE
  5
2912D
330
1F
100
AcDbEntity
  8
1
100
AcDbLine
 10
13.84152500000002
 20
9.0
 30
0.0
 11
0.0000000000000284
 21
9.0
 31
0.0
  0
ARC
  5
2912E
330
1F
100
AcDbEntity
  8
1
100
AcDbCircle
 10
14.71446300000002
 20
7.196760000000001
 30
0.0
 40
2.003427000000002
100
AcDbArc
 50
105.8395120000004
 51
115.8313420000004
  0
ARC
  5
2912F
330
1F
100
AcDbEntity
  8
1
100
AcDbCircle
 10
18.437622
 20
20.800001
 30
0.0
 40
30.000001
100
AcDbArc
 50
270.0
 51
280.0
  0
LINE
  5
29130
330
1F
100
AcDbEntity
  8
1
100
AcDbLine
 10
18.437622
 20
-9.200000000000002
 30
0.0
 11
14.71330500000002
 21
-9.200000000000002
 31
0.0
  0
ARC
  5
29131
330
1F
100
AcDbEntity
  8
1
100
AcDbCircle
 10
14.71330500000002
 20
-7.200000000000001
 30
0.0
 40
1.999999999999993
100
AcDbArc
 50
244.1580640000003
 51
270.0000010000003
  0
LINE
  5
29132
330
1F
100
AcDbEntity
  8
1
100
AcDbLine
 10
13.84152500000002
 20
-9.0
 30
0.0
 11
0.0000000000000284
 21
-9.0
 31
0.0
  0
LINE
  5
29133
330
1F
100
AcDbEntity
  8
1
100
AcDbLine
 10
25.95418900000001
 20
-8.337424999999996
 30
0.0
 11
23.64706800000002
 21
-8.744233000000001
 31
0.0
  0
ARC
  5
29134
330
1F
100
AcDbEntity
  8
1
100
AcDbCircle
 10
25.85000000000002
 20
-7.746540000000002
 30
0.0
 40
0.5999999999999996
100
AcDbArc
 50
280.0000000000013
 51
0.0000000000013231
  0
ELLIPSE
  5
29135
330
1F
100
AcDbEntity
  8
1
100
AcDbEllipse
 10
19.93626900000001
 20
5.068556999999998
 30
0.0
 11
-1.511014223098754
 21
0.7789967656135559
 31
0.0
210
0.0
220
0.0
230
1.0
 40
0.925417
 41
4.470414674988907
 42
5.701822380611575
  0
ELLIPSE
  5
29136
330
1F
100
AcDbEntity
  8
1
100
AcDbEllipse
 10
20.72810400000003
 20
6.604474999999999
 30
0.0
 11
-1.511014223098754
 21
0.7789967656135559
 31
0.0
210
0.0
220
0.0
230
1.0
 40
0.925417
 41
6.283179467254292
 42
7.017553581347588
  0
ELLIPSE
  5
29137
330
1F
100
AcDbEntity
  8
1
100
AcDbEllipse
 10
20.72810400000003
 20
6.604474999999999
 30
0.0
 11
-1.511014223098754
 21
0.7789967656135559
 31
0.0
210
0.0
220
0.0
230
1.0
 40
0.925417
 41
3.535209404491816
 42
6.283179467254292
  0
ELLIPSE
  5
29138
330
1F
100
AcDbEntity
  8
1
100
AcDbEllipse
 10
20.72810400000003
 20
6.604474999999999
 30
0.0
 11
-1.511014223098754
 21
0.7789967656135559
 31
0.0
210
0.0
220
0.0
230
1.0
 40
0.925417
 41
3.386301585726893
 42
3.535209404491816
  0
LINE
  5
29139
330
1F
100
AcDbEntity
  8
1
100
AcDbLine
 10
26.45000000000002
 20
3.46904
 30
0.0
 11
26.541673
 21
3.480716000000001
 31
0.0
  0
LINE
  5
2913A
330
1F
100
AcDbEntity
  8
1
100
AcDbLine
 10
26.45000000000002
 20
3.193097999999998
 30
0.0
 11
26.541673
 21
3.480715
 31
0.0
  0
ARC
  5
2913B
330
1F
100
AcDbEntity
  8
1
100
AcDbCircle
 10
26.51521600000001
 20
3.662456999999998
 30
0.0
 40
0.1869680000000099
100
AcDbArc
 50
342.3663510000011
 51
356.9256530000012
  0
ARC
  5
2913C
330
1F
100
AcDbEntity
  8
1
100
AcDbCircle
 10
26.52039800000003
 20
3.661382
 30
0.0
 40
0.1817750000000002
100
AcDbArc
 50
276.7160859999975
 51
342.1944179999975
  0
LINE
  5
2913D
330
1F
100
AcDbEntity
  8
1
100
AcDbLine
 10
26.94969400000002
 20
8.220770000000001
 30
0.0
 11
26.70191500000001
 21
3.652429999999998
 31
0.0
  0
ARC
  5
2913E
330
1F
100
AcDbEntity
  8
1
100
AcDbCircle
 10
26.741364
 20
8.227902
 30
0.0
 40
0.2087870000000072
100
AcDbArc
 50
358.0392409999998
 51
70.86780699999987
  0
LINE
  5
2913F
330
1F
100
AcDbEntity
  8
1
100
AcDbLine
 10
14.75429300000002
 20
9.556519999999999
 30
0.0
 11
14.38936900000002
 21
9.360010000000004
 31
0.0
  0
LINE
  5
29140
330
1F
100
AcDbEntity
  8
1
100
AcDbLine
 10
14.32628700000001
 20
9.162091999999999
 30
0.0
 11
14.38936900000002
 21
9.360010000000004
 31
0.0
  0
LINE
  5
29141
330
1F
100
AcDbEntity
  8
1
100
AcDbLine
 10
14.59742900000001
 20
6.664394999999997
 30
0.0
 11
14.75429300000002
 21
9.556519999999999
 31
0.0
  0
ELLIPSE
  5
29142
330
1F
100
AcDbEntity
  8
1
100
AcDbEllipse
 10
18.93485900000002
 20
-26.436035
 30
0.0
 11
2.575540781021118
 21
-36.30875396728516
 31
0.0
210
0.0
220
0.0
230
1.0
 40
0.8313080000000001
 41
2.793492052273243
 42
3.189575544035899
  0
ARC
  5
29143
330
1F
100
AcDbEntity
  8
1
100
AcDbCircle
 10
14.93520100000001
 20
9.548049999999999
 30
0.0
 40
0.1810269999999951
100
AcDbArc
 50
117.182894999996
 51
177.3194019999959
  0
ARC
  5
29144
330
1F
100
AcDbEntity
  8
1
100
AcDbCircle
 10
14.93840200000002
 20
9.541036999999999
 30
0.0
 40
0.1887060000000008
100
AcDbArc
 50
97.2657850000038
 51
117.0748060000037
  0
ARC
  5
29145
330
1F
100
AcDbEntity
  8
1
100
AcDbCircle
 10
14.56952100000001
 20
9.352199
 30
0.0
 40
0.180057999999995
100
AcDbArc
 50
118.2394979999963
 51
162.4072059999963
  0
ARC
  5
29146
330
1F
100
AcDbEntity
  8
1
100
AcDbCircle
 10
14.57585300000002
 20
9.350061999999999
 30
0.0
 40
0.1867470000000128
100
AcDbArc
 50
162.369601000001
 51
176.9464580000009
  0
LINE
  5
29147
330
1F
100
AcDbEntity
  8
1
100
AcDbLine
 10
26.45000000000002
 20
2.842151000000001
 30
0.0
 11
26.69340500000001
 21
3.605817000000001
 31
0.0
  0
LINE
  5
29148
330
1F
100
AcDbEntity
  8
1
100
AcDbLine
 10
14.84924300000003
 20
9.707338
 30
0.0
 11
14.48432300000002
 21
9.51083
 31
0.0
  0
LINE
  5
29149
330
1F
100
AcDbEntity
  8
1
100
AcDbLine
 10
14.31951300000003
 20
9.160752000000002
 30
0.0
 11
14.39788000000001
 21
9.406622999999999
 31
0.0
  0
ARC
  5
2914A
330
1F
100
AcDbEntity
  8
1
100
AcDbCircle
 10
26.741364
 20
8.227902
 30
0.0
 40
0.2087870000000072
100
AcDbArc
 50
358.0392409999998
 51
70.86780699999987
  0
LINE
  5
2914B
330
1F
100
AcDbEntity
  8
1
100
AcDbLine
 10
26.94969400000002
 20
8.220770000000001
 30
0.0
 11
26.70191500000001
 21
3.652429999999998
 31
0.0
  0
ARC
  5
2914C
330
1F
100
AcDbEntity
  8
1
100
AcDbCircle
 10
26.52050200000002
 20
3.661223
 30
0.0
 40
0.1815930000000009
100
AcDbArc
 50
276.6893080000014
 51
357.2250160000014
  0
LINE
  5
2914D
330
1F
100
AcDbEntity
  8
1
100
AcDbLine
 10
26.45000000000002
 20
3.46904
 30
0.0
 11
26.541673
 21
3.480716000000001
 31
0.0
  0
LINE
  5
2914E
330
1F
100
AcDbEntity
  8
1
100
AcDbLine
 10
14.59742900000001
 20
6.664394999999997
 30
0.0
 11
14.75429300000002
 21
9.556519999999999
 31
0.0
  0
ARC
  5
2914F
330
1F
100
AcDbEntity
  8
1
100
AcDbCircle
 10
14.93840200000002
 20
9.541036999999999
 30
0.0
 40
0.1887060000000008
100
AcDbArc
 50
97.2657850000038
 51
117.0748060000037
  0
ELLIPSE
  5
29150
330
1F
100
AcDbEntity
  8
1
100
AcDbEllipse
 10
18.93485900000002
 20
-26.436035
 30
0.0
 11
2.575540781021118
 21
-36.30875396728516
 31
0.0
210
0.0
220
0.0
230
1.0
 40
0.8313080000000001
 41
2.793492052273243
 42
3.189575544035899
  0
LINE
  5
29151
330
1F
100
AcDbEntity
  8
1
100
AcDbLine
 10
26.21810000000002
 20
-0.0532739999999983
 30
0.0
 11
26.541673
 21
-0.1382089999999998
 31
0.0
  0
LINE
  5
29152
330
1F
100
AcDbEntity
  8
1
100
AcDbLine
 10
26.32464600000004
 20
-0.6325450000000004
 30
0.0
 11
26.541673
 21
-0.1382089999999998
 31
0.0
  0
LINE
  5
29153
330
1F
100
AcDbEntity
  8
1
100
AcDbLine
 10
26.39367200000001
 20
-1.006336999999996
 30
0.0
 11
26.70191500000001
 21
-0.3042319999999989
 31
0.0
  0
ELLIPSE
  5
29154
330
1F
100
AcDbEntity
  8
1
100
AcDbEllipse
 10
26.50521500000002
 20
-0.2898309999999995
 30
0.0
 11
0.1914857774972916
 21
-0.0594511181116104
 31
0.0
210
0.0
220
0.0
230
1.0
 40
0.7771099999999999
 41
0.2901005180715953
 42
1.621387845162406
  0
LINE
  5
29155
330
1F
100
AcDbEntity
  8
1
100
AcDbLine
 10
26.45000000000002
 20
-6.289794000000001
 30
0.0
 11
26.58477000000002
 21
-5.982818999999999
 31
0.0
  0
LINE
  5
29156
330
1F
100
AcDbEntity
  8
1
100
AcDbLine
 10
26.94969400000002
 20
-4.068642000000001
 30
0.0
 11
26.94215700000001
 21
-4.108178999999998
 31
0.0
  0
LINE
  5
29157
330
1F
100
AcDbEntity
  8
1
100
AcDbLine
 10
26.92972400000002
 20
-4.173391999999998
 30
0.0
 11
26.58477000000002
 21
-5.982818999999999
 31
0.0
  0
LINE
  5
29158
330
1F
100
AcDbEntity
  8
1
100
AcDbLine
 10
26.94969400000002
 20
-4.068642000000001
 30
0.0
 11
26.70191500000001
 21
-0.3042319999999989
 31
0.0
  0
ARC
  5
29159
330
1F
100
AcDbEntity
  8
1
100
AcDbCircle
 10
26.45955000000001
 20
-5.991292000000001
 30
0.0
 40
0.1255039999999992
100
AcDbArc
 50
349.2932569999997
 51
3.871109999999617
  0
LINE
  5
2915A
330
1F
100
AcDbEntity
  8
1
100
AcDbLine
 10
26.58286700000002
 20
-6.014608000000002
 30
0.0
 11
26.57477400000002
 21
-6.040672999999997
 31
0.0
  0
ARC
  5
2915B
330
1F
100
AcDbEntity
  8
1
100
AcDbCircle
 10
26.82454800000002
 20
-4.077078
 30
0.0
 40
0.125428000000005
100
AcDbArc
 50
349.2704709999999
 51
3.856535999999803
  0
LINE
  5
2915C
330
1F
100
AcDbEntity
  8
1
100
AcDbLine
 10
26.94779000000004
 20
-4.100430999999998
 30
0.0
 11
26.94413300000002
 21
-4.119612
 31
0.0
  0
LINE
  5
2915D
330
1F
100
AcDbEntity
  8
1
100
AcDbLine
 10
26.93438900000001
 20
-4.170727999999998
 30
0.0
 11
26.58286700000002
 21
-6.014608000000002
 31
0.0
  0
LINE
  5
2915E
330
1F
100
AcDbEntity
  8
1
100
AcDbLine
 10
26.45000000000002
 20
-6.324879000000002
 30
0.0
 11
26.57477400000002
 21
-6.040672000000001
 31
0.0
  0
ARC
  5
2915F
330
1F
100
AcDbEntity
  8
1
100
AcDbCircle
 10
26.82592600000001
 20
-4.077147
 30
0.0
 40
0.1240539999999986
100
AcDbArc
 50
341.5229599999998
 51
3.93125999999975
  0
LINE
  5
29160
330
1F
100
AcDbEntity
  8
1
100
AcDbLine
 10
26.94969400000002
 20
-4.068642000000001
 30
0.0
 11
26.70191500000001
 21
-0.3042319999999989
 31
0.0
  0
ELLIPSE
  5
29161
330
1F
100
AcDbEntity
  8
1
100
AcDbEllipse
 10
26.50521500000002
 20
-0.2898309999999995
 30
0.0
 11
0.1914857774972916
 21
-0.0594511181116104
 31
0.0
210
0.0
220
0.0
230
1.0
 40
0.7771099999999999
 41
0.2901005180715953
 42
1.621387845162406
  0
LINE
  5
29162
330
1F
100
AcDbEntity
  8
1
100
AcDbLine
 10
26.21810000000002
 20
-0.0532739999999983
 30
0.0
 11
26.541673
 21
-0.1382089999999998
 31
0.0
  0
ELLIPSE
  5
29163
330
1F
100
AcDbEntity
  8
1
100
AcDbEllipse
 10
44.94232100000002
 20
-139.764542
 30
0.0
 11
24.73842620849609
 21
-138.3890228271484
 31
0.0
210
0.0
220
0.0
230
1.0
 40
0.2172030000000003
 41
2.978760875722036
 42
3.306098255933886
  0
ELLIPSE
  5
29164
330
1F
100
AcDbEntity
  8
1
100
AcDbEllipse
 10
-4.175123999999982
 20
134.615555
 30
0.0
 11
24.99170684814453
 21
-139.6985778808594
 31
0.0
210
0.0
220
0.0
230
1.0
 40
0.2161769999999999
 41
6.121095758701572
 42
6.446881779640497
  0
LINE
  5
29165
330
1F
100
AcDbEntity
  8
1
100
AcDbLine
 10
14.31588300000001
 20
-4.544527000000002
 30
0.0
 11
14.50651400000001
 21
-5.576833999999997
 31
0.0
  0
SPLINE
  5
29166
330
1F
100
AcDbEntity
  8
1
100
AcDbSpline
210
0.0
220
0.0
230
1.0
 70
     8
 71
     5
 72
    18
 73
    12
 74
     0
 42
0.000000001
 43
0.0000000001
 40
0.0
 40
0.0
 40
0.0
 40
0.0
 40
0.0
 40
0.0
 40
0.0086457442361277
 40
0.0086457442361277
 40
0.0086457442361277
 40
0.1783570507104332
 40
0.1783570507104332
 40
0.1783570507104332
 40
0.4183891793346926
 40
0.4183891793346926
 40
0.4183891793346926
 40
0.4183891793346926
 40
0.4183891793346926
 40
0.4183891793346926
 10
26.58477049141368
 20
-2.041441319429289
 30
0.0
 10
26.58484160830574
 20
-2.04170945263546
 30
0.0
 10
26.58491272519777
 20
-2.04197758584163
 30
0.0
 10
26.58492988345547
 20
-2.042045355544717
 30
0.0
 10
26.58567711277636
 20
-2.046262134799393
 30
0.0
 10
26.58282376872233
 20
-2.051117305158693
 30
0.0
 10
26.57662215328807
 20
-2.056304119608198
 30
0.0
 10
26.55517405220545
 20
-2.068991749764081
 30
0.0
 10
26.52039593409864
 20
-2.081941821662955
 30
0.0
 10
26.49664339000773
 20
-2.089260478028944
 30
0.0
 10
26.47132294081644
 20
-2.095953133239995
 30
0.0
 10
26.44493756996076
 20
-2.10196980298252
 30
0.0
  0
LINE
  5
29167
330
1F
100
AcDbEntity
  8
1
100
AcDbLine
 10
26.80986100000001
 20
-4.212657
 30
0.0
 11
26.44493800000001
 21
-2.101970000000001
 31
0.0
  0
ELLIPSE
  5
29168
330
1F
100
AcDbEntity
  8
1
100
AcDbEllipse
 10
26.75299400000004
 20
-4.188073999999998
 30
0.0
 11
0.1968817263841629
 21
0.0351972207427025
 31
0.0
210
0.0
220
0.0
230
1.0
 40
0.177037
 41
4.973612809703511
 42
6.304900136794328
  0
LINE
  5
29169
330
1F
100
AcDbEntity
  8
1
100
AcDbLine
 10
26.02446400000002
 20
0.1749779999999994
 30
0.0
 11
26.44493800000001
 21
-2.101970000000001
 31
0.0
  0
LINE
  5
2916A
330
1F
100
AcDbEntity
  8
1
100
AcDbLine
 10
14.75429300000002
 20
-6.380763999999999
 30
0.0
 11
14.38936900000002
 21
-4.270077000000001
 31
0.0
  0
LINE
  5
2916B
330
1F
100
AcDbEntity
  8
1
100
AcDbLine
 10
14.31420200000002
 20
-3.863030999999999
 30
0.0
 11
14.38936900000002
 21
-4.270077000000001
 31
0.0
  0
LINE
  5
2916C
330
1F
100
AcDbEntity
  8
1
100
AcDbLine
 10
14.50651400000001
 20
-5.576833999999997
 30
0.0
 11
14.75429300000002
 21
-6.380763999999999
 31
0.0
  0
ARC
  5
2916D
330
1F
100
AcDbEntity
  8
1
100
AcDbCircle
 10
-5.363096999999981
 20
138.342005
 30
0.0
 40
141.652702
100
AcDbArc
 50
278.264322
 51
282.44595
  0
ARC
  5
2916E
330
1F
100
AcDbEntity
  8
1
100
AcDbCircle
 10
-3.404948999999988
 20
128.810993
 30
0.0
 40
134.27293
100
AcDbArc
 50
282.3894720000001
 51
282.844603
  0
ARC
  5
2916F
330
1F
100
AcDbEntity
  8
1
100
AcDbCircle
 10
-4.387107999999982
 20
132.318256
 30
0.0
 40
137.900425
100
AcDbArc
 50
277.892894
 51
278.340173
  0
LINE
  5
29170
330
1F
100
AcDbEntity
  8
1
100
AcDbLine
 10
14.12913100000003
 20
-1.998781
 30
0.0
 11
14.54961200000002
 21
-4.275769
 31
0.0
  0
LINE
  5
29171
330
1F
100
AcDbEntity
  8
1
100
AcDbLine
 10
14.91453500000003
 20
-6.386454999999997
 30
0.0
 11
14.54961200000002
 21
-4.275769
 31
0.0
  0
ARC
  5
29172
330
1F
100
AcDbEntity
  8
1
100
AcDbCircle
 10
-4.515329999999976
 20
133.59877
 30
0.0
 40
141.327195
100
AcDbArc
 50
277.902132
 51
282.80601
  0
ELLIPSE
  5
29173
330
1F
100
AcDbEntity
  8
1
100
AcDbEllipse
 10
14.95099300000001
 20
-6.344818000000002
 30
0.0
 11
0.1968817263841629
 21
0.0351972207427025
 31
0.0
210
0.0
220
0.0
230
1.0
 40
0.177037
 41
3.163307483204547
 42
4.494594952172414
  0
SPLINE
  5
29174
330
1F
100
AcDbEntity
  8
1
100
AcDbSpline
210
0.0
220
0.0
230
1.0
 70
     8
 71
     5
 72
    15
 73
     9
 74
     0
 42
0.000000001
 43
0.0000000001
 40
0.0
 40
0.0
 40
0.0
 40
0.0
 40
0.0
 40
0.0
 40
0.3066741724766322
 40
0.3066741724766322
 40
0.3066741724766322
 40
0.4205205985788433
 40
0.4205205985788433
 40
0.4205205985788433
 40
0.4205205985788433
 40
0.4205205985788433
 40
0.4205205985788433
 10
14.54961200499832
 20
-4.275768736303944
 30
0.0
 10
14.51512354713662
 20
-4.280549643102371
 30
0.0
 10
14.48163850026177
 20
-4.283739789650031
 30
0.0
 10
14.44989834759059
 20
-4.285095083394605
 30
0.0
 10
14.41496738561005
 20
-4.283444147914162
 30
0.0
 10
14.39623277041005
 20
-4.27714074392882
 30
0.0
 10
14.39245555506474
 20
-4.275070075210834
 30
0.0
 10
14.39018030929134
 20
-4.27270799452774
 30
0.0
 10
14.38936947952305
 20
-4.270077228987496
 30
0.0
  0
LINE
  5
29175
330
1F
100
AcDbEntity
  8
1
100
AcDbLine
 10
14.31584000000001
 20
-4.544532
 30
0.0
 11
14.50633900000003
 21
-5.576120000000002
 31
0.0
  0
LINE
  5
29176
330
1F
100
AcDbEntity
  8
1
100
AcDbLine
 10
26.94988200000004
 20
-4.152912000000001
 30
0.0
 11
26.58495800000003
 21
-2.042225000000001
 31
0.0
  0
LINE
  5
29177
330
1F
100
AcDbEntity
  8
1
100
AcDbLine
 10
26.16976900000004
 20
0.2061069999999994
 30
0.0
 11
26.58495800000003
 21
-2.042225000000001
 31
0.0
  0
ELLIPSE
  5
29178
330
1F
100
AcDbEntity
  8
1
100
AcDbEllipse
 10
26.75299400000004
 20
-4.188073999999998
 30
0.0
 11
0.1968817263841629
 21
0.0351972207427025
 31
0.0
210
0.0
220
0.0
230
1.0
 40
0.177037
 41
4.973612809703511
 42
6.304900136794328
  0
LINE
  5
29179
330
1F
100
AcDbEntity
  8
1
100
AcDbLine
 10
14.50651400000001
 20
-5.576833999999997
 30
0.0
 11
14.75429300000002
 21
-6.380763999999999
 31
0.0
  0
ELLIPSE
  5
2917A
330
1F
100
AcDbEntity
  8
1
100
AcDbEllipse
 10
14.95099300000001
 20
-6.344818000000002
 30
0.0
 11
0.1968817263841629
 21
0.0351972207427025
 31
0.0
210
0.0
220
0.0
230
1.0
 40
0.177037
 41
3.163307483204547
 42
4.494594952172414
  0
ARC
  5
2917B
330
1F
100
AcDbEntity
  8
1
100
AcDbCircle
 10
-4.515329999999976
 20
133.59877
 30
0.0
 40
141.327195
100
AcDbArc
 50
277.902132
 51
282.80601
  0
LINE
  5
2917D
330
1F
100
AcDbEntity
  8
SK4
100
AcDbLine
 10
0.0000000000000284
 20
0.0
 30
0.0
 11
-24.59596699999997
 21
0.0
 31
0.0
  0
LINE
  5
2917E
330
1F
100
AcDbEntity
  8
SK3
100
AcDbLine
 10
9.133974999999992
 20
1.316373999999999
 30
0.0
 11
9.133974999999992
 21
-1.5
 31
0.0
  0
LINE
  5
2917F
330
1F
100
AcDbEntity
  8
SK3
100
AcDbLine
 10
9.133974999999992
 20
1.5
 30
0.0
 11
9.133974999999992
 21
-1.316373999999999
 31
0.0
  0
LINE
  5
291AA
330
1F
100
AcDbEntity
  8
SK3
100
AcDbLine
 10
10.0
 20
0.0
 30
0.0
 11
9.133974999999992
 21
-1.5
 31
0.0
  0
LINE
  5
291AB
330
1F
100
AcDbEntity
  8
SK3
100
AcDbLine
 10
10.0
 20
0.0
 30
0.0
 11
9.133974999999992
 21
1.5
 31
0.0
  0
LINE
  5
291AC
330
1F
100
AcDbEntity
  8
SK3
100
AcDbLine
 10
9.133974999999992
 20
1.5
 30
0.0
 11
-20.00000000000003
 21
1.5
 31
0.0
  0
LINE
  5
291AD
330
1F
100
AcDbEntity
  8
SK3
100
AcDbLine
 10
9.133974999999992
 20
-1.5
 30
0.0
 11
-20.00000000000003
 21
-1.5
 31
0.0
  0
INSERT
  5
29207
330
1F
100
AcDbEntity
  8
SK2
100
AcDbBlockReference
  2
CERO_POINT
 10
-0.0000000000036948
 20
-0.0000000000000142
 30
0.0
  0
LINE
  5
29208
330
1F
100
AcDbEntity
  8
SK3
100
AcDbLine
 10
9.527511118449947
 20
0.8183751304235578
 30
0.0
 11
17.97066382864855
 21
6.258990437818648
 31
0.0
  0
LINE
  5
29209
330
1F
100
AcDbEntity
  8
SK3
100
AcDbLine
 10
9.133974999999992
 20
1.5
 30
0.0
 11
16.66234845666463
 21
6.351148057365065
 31
0.0
  0
POINT
  5
295EB
330
1F
100
AcDbEntity
  8
1
 62
     3
370
     5
100
AcDbPoint
 10
154.3310454185482
 20
7.945606290423428
 30
0.0
  0
DIMENSION
  5
29A73
330
1F
100
AcDbEntity
  8
2
100
AcDbDimension
  2
*D24
 10
26.95034890310157
 20
35.07422689432867
 30
0.0
 11
13.4751744515508
 21
37.47136322602229
 31
0.0
 70
    32
 71
     5
 41
0.0
 42
26.95034890310154
  3
MM_STANDARD
100
AcDbAlignedDimension
 13
0.0000000000000284
 23
9.0
 33
0.0
 14
26.95034890310157
 24
8.202341079242879
 34
0.0
100
AcDbRotatedDimension
1001
ACAD
1000
DSTYLE
1002
{
1070
   279
1070
     0
1070
   271
1070
     0
1070
    78
1070
     9
1070
    79
1070
     2
1070
    90
1070
     1
1070
   172
1070
     1
1070
   345
1005
14
1070
   346
1005
14
1070
   347
1005
14
1002
}
1001
ACAD_DSTYLE_DIMARC_LENGTH_SYMBOL
1070
   379
1070
     1
1001
ACAD_DSTYLE_DIM_LINETYPE
1070
   380
1005
14
1001
ACAD_DSTYLE_DIM_EXT1_LINETYPE
1070
   381
1005
14
1001
ACAD_DSTYLE_DIM_EXT2_LINETYPE
1070
   382
1005
14
  0
LWPOLYLINE
  5
29BED
330
1F
100
AcDbEntity
  8
CUT
100
AcDbPolyline
 90
     1537
 70
     1
 43
0.0
 10
26.81431156218955
 20
8.414042382304197
 10
26.7982967165465
 20
8.419292093250822
 10
26.78223777157088
 20
8.424547639411706
 10
26.76617483602663
 20
8.429795862101936
 10
26.75010791627316
 20
8.435036748406526
 10
26.73403702035918
 20
8.440270284946226
 10
26.7179621579554
 20
8.445496457898887
 10
26.70188334028744
 20
8.450715253020803
 10
26.68580058006855
 20
8.455926655668045
 10
26.66971389143248
 20
8.461130650817827
 10
26.65362328986625
 20
8.466327223089828
 10
26.63752879214291
 20
8.471516356767564
 10
26.62143041625447
 20
8.47669803581971
 10
26.60532818134456
 20
8.481872243921456
 10
26.58922210764131
 20
8.487038964475855
 10
26.57311221639019
 20
8.492198180635165
 10
26.5569985297867
 20
8.497349875322198
 10
26.54088107090928
 20
8.502494031251659
 10
26.52475986365207
 20
8.507630630951503
 10
26.50863493265771
 20
8.512759656784266
 10
26.49250630325014
 20
8.517881090968428
 10
26.47637400136744
 20
8.52299491559974
 10
26.4602380534946
 20
8.528101112672585
 10
26.44409848659633
 20
8.533199664101317
 10
26.42795532804986
 20
8.538290551741607
 10
26.41180860557776
 20
8.543373757411792
 10
26.39565834718074
 20
8.548449262914214
 10
26.37950458107043
 20
8.553517050056575
 10
26.36334733560222
 20
8.558577100673272
 10
26.34718663920802
 20
8.563629396646751
 10
26.33102252032913
 20
8.568673919928851
 10
26.31485500734897
 20
8.573710652562155
 10
26.29868412852591
 20
8.578739576701313
 10
26.28250991192613
 20
8.583760674634422
 10
26.26633238535632
 20
8.588773928804345
 10
26.25015157629658
 20
8.593779321830066
 10
26.23396750779036
 20
8.598776837714673
 10
26.21778018082855
 20
8.603766467034427
 10
26.20158958593727
 20
8.608748203568932
 10
26.18539570975218
 20
8.613722042369827
 10
26.16919853574211
 20
8.61868797954029
 10
26.15299804493064
 20
8.623646012015166
 10
26.13679421661772
 20
8.628596137341082
 10
26.12058702910111
 20
8.633538353456577
 10
26.10437646039805
 20
8.638472658472217
 10
26.08816248896678
 20
8.64339905045073
 10
26.07194509442808
 20
8.648317527187112
 10
26.05572425828685
 20
8.653228085988772
 10
26.03949996465371
 20
8.658130723455624
 10
26.02327220096648
 20
8.663025435260244
 10
26.00704095871182
 20
8.667912215927973
 10
25.99080623414673
 20
8.672791058617033
 10
25.97456802902014
 20
8.677661954898677
 10
25.9583263512945
 20
8.682524894537277
 10
25.94208121586727
 20
8.687379865270482
 10
25.92583264529253
 20
8.692226852589316
 10
25.90958067050256
 20
8.697065839518305
 10
25.89332533152933
 20
8.701896806395607
 10
25.87706695588038
 20
8.706719650839247
 10
25.86080561883131
 20
8.711534342741552
 10
25.84454009637556
 20
8.71634122522566
 10
25.8282718078957
 20
8.721139881718558
 10
25.81200931217964
 20
8.725927843775121
 10
25.79576543302488
 20
8.730701414823025
 10
25.7795486428248
 20
8.735458149017254
 10
25.76336274300908
 20
8.74019694642112
 10
25.74720759754388
 20
8.744917842940713
 10
25.7310798428703
 20
8.749621806972808
 10
25.71497359784276
 20
8.75431053605274
 10
25.69888117366746
 20
8.758986253502312
 10
25.68279378384078
 20
8.763651505077678
 10
25.66676279746893
 20
8.768291602353546
 10
25.6511211955527
 20
8.772811181250405
 10
25.63605014308857
 20
8.77715848999237
 10
25.62146799957997
 20
8.78135716761262
 10
25.60712428269132
 20
8.785479257601615
 10
25.59269403452946
 20
8.78961810613079
 10
25.57787218792515
 20
8.793861260276226
 10
25.56246793271451
 20
8.798263366242355
 10
25.5464990820205
 20
8.802819067585613
 10
25.53026787542354
 20
8.807441246081577
 10
25.5140287877783
 20
8.81205665520973
 10
25.49779473890331
 20
8.816661607184192
 10
25.48156707843915
 20
8.821255737696636
 10
25.46534673809946
 20
8.825838795790653
 10
25.44913426140852
 20
8.830410635739994
 10
25.43292983343868
 20
8.834971208926797
 10
25.41673331054788
 20
8.839520555719827
 10
25.40054425011717
 20
8.844058797352714
 10
25.38436194028819
 20
8.848586127802168
 10
25.36818542970066
 20
8.853102805666226
 10
25.3520135572299
 20
8.857609146042488
 10
25.33584498172434
 20
8.862105512406339
 10
25.31967821174298
 20
8.866592308489188
 10
25.30351163529293
 20
8.871069970156703
 10
25.28734354956687
 20
8.875538957287041
 10
25.27117219068059
 20
8.879999745649081
 10
25.25499576341046
 20
8.884452818780664
 10
25.23881247093095
 20
8.888898659866812
 10
25.22262054455211
 20
8.893337743617975
 10
25.2064182734571
 20
8.897770528148257
 10
25.19020403443964
 20
8.902197446853653
 10
25.17397632164156
 20
8.906618900290283
 10
25.15773377629029
 20
8.911035248052616
 10
25.14147521643631
 20
8.915446800651713
 10
25.12519966669072
 20
8.919853811393457
 10
25.1089063879627
 20
8.924256468256784
 10
25.09259490719702
 20
8.928654885771925
 10
25.07626504711153
 20
8.933049096898626
 10
25.05991695593469
 20
8.937439044904387
 10
25.043551137143
 20
8.9418245752427
 10
25.0271684791986
 20
8.946205427431277
 10
25.01077028528668
 20
8.95058122693028
 10
24.99435830305304
 20
8.954951477020568
 10
24.97793475434153
 20
8.959315550681907
 10
24.9615022923985
 20
8.963672701875765
 10
24.94506217353016
 20
8.96802256086325
 10
24.92861573790946
 20
8.972364762085206
 10
24.91216589328586
 20
8.976698538353261
 10
24.89571390989856
 20
8.98102354943159
 10
24.87945666888611
 20
8.985288372310982
 10
24.86373553252491
 20
8.989403871240329
 10
24.84806446156092
 20
8.993496949138021
 10
24.83179525834695
 20
8.997736750632764
 10
24.81503549373341
 20
9.002094877612007
 10
24.79816898937874
 20
9.006470562576108
 10
24.78109065725667
 20
9.010890749693725
 10
24.76375056108218
 20
9.015368191841627
 10
24.74619601480209
 20
9.019890470088203
 10
24.72853393282326
 20
9.024429767590746
 10
24.71081129000142
 20
9.028973903431657
 10
24.69305364530135
 20
9.033516285976007
 10
24.67527419170965
 20
9.038053521170862
 10
24.65747052302373
 20
9.042586217600867
 10
24.63963819836743
 20
9.047115499565038
 10
24.62178149950008
 20
9.051640259631039
 10
24.60390914477699
 20
9.056158263458367
 10
24.58603138378157
 20
9.06066690687156
 10
24.56817383026105
 20
9.065159806886583
 10
24.55032631999366
 20
9.069639450374806
 10
24.5324567510489
 20
9.074113769575287
 10
24.51463329328974
 20
9.078565879840713
 10
24.49709219669861
 20
9.082937263491642
 10
24.4798505103034
 20
9.087223718079037
 10
24.46257937174564
 20
9.091506913329327
 10
24.44506764810944
 20
9.09583936792324
 10
24.42747137273137
 20
9.100182293266216
 10
24.40996093762135
 20
9.104493351057802
 10
24.3926831030016
 20
9.108736723819463
 10
24.37594754806331
 20
9.112837167197817
 10
24.35972426354696
 20
9.116802329366862
 10
24.34370877260606
 20
9.120706816825883
 10
24.32755388712907
 20
9.124635599645801
 10
24.31110146406133
 20
9.128627416715588
 10
24.29453955159351
 20
9.132636405319081
 10
24.27798049640145
 20
9.136635163234132
 10
24.26141412625402
 20
9.140626187345004
 10
24.24483972721937
 20
9.144609645319855
 10
24.22826147351832
 20
9.148584502355312
 10
24.21168313647968
 20
9.15254982401224
 10
24.19510371064962
 20
9.156505853017996
 10
24.17852168542948
 20
9.160452955873026
 10
24.16193702274969
 20
9.164391136006699
 10
24.14534969725561
 20
9.16832039375209
 10
24.12875968482798
 20
9.172240729175667
 10
24.11216696256408
 20
9.176152142081882
 10
24.095571508759
 20
9.180054632017723
 10
24.07897330288689
 20
9.183948198277256
 10
24.0623723255822
 20
9.187832839906224
 10
24.04576855862091
 20
9.191708555706574
 10
24.02916198490181
 20
9.195575344241046
 10
24.01255258842771
 20
9.199433203837717
 10
23.99594035428668
 20
9.203282132594578
 10
23.97932526863332
 20
9.20712212838408
 10
23.96270731866999
 20
9.210953188857716
 10
23.94608649262806
 20
9.214775311450557
 10
23.92946277974913
 20
9.218588493385848
 10
23.91283617026632
 20
9.222392731679537
 10
23.89620665538545
 20
9.226188023144857
 10
23.87957422726636
 20
9.229974364396893
 10
23.86293887900407
 20
9.233751751857116
 10
23.8463006046101
 20
9.237520181757977
 10
23.82965939899367
 20
9.241279650147452
 10
23.81301525794294
 20
9.245030152893614
 10
23.79636817810629
 20
9.248771685689179
 10
23.77971815697353
 20
9.252504244056087
 10
23.76306519285714
 20
9.256227823350059
 10
23.74640928487357
 20
9.259942418765147
 10
23.72975043292438
 20
9.263648025338314
 10
23.71308863767762
 20
9.26734463795398
 10
23.69642390054893
 20
9.271032251348598
 10
23.6797562236829
 20
9.274710860115217
 10
23.66308560993424
 20
9.278380458708019
 10
23.64641206284908
 20
9.28204104144692
 10
23.62973558664613
 20
9.285692602522097
 10
23.61305618619804
 20
9.289335135998577
 10
23.59637386701255
 20
9.292968635820782
 10
23.57968863521376
 20
9.296593095817099
 10
23.5630004975234
 20
9.300208509704436
 10
23.54630946124202
 20
9.303814871092797
 10
23.5296155342303
 20
9.307412173489828
 10
23.51291872489024
 20
9.311000410305393
 10
23.49621904214643
 20
9.314579574856118
 10
23.47951649542728
 20
9.318149660369991
 10
23.46281109464628
 20
9.321710659990877
 10
23.44610285018322
 20
9.325262566783099
 10
23.42939177286547
 20
9.328805373736024
 10
23.41267787394919
 20
9.332339073768592
 10
23.39596116510056
 20
9.33586365973389
 10
23.3792416583771
 20
9.339379124423716
 10
23.36251936620883
 20
9.34288546057315
 10
23.34579430137954
 20
9.346382660865092
 10
23.32906647700806
 20
9.349870717934848
 10
23.31233590652947
 20
9.353349624374684
 10
23.29560260367636
 20
9.35681937273838
 10
23.27886658246008
 20
9.360279955545806
 10
23.26212785715195
 20
9.363731365287483
 10
23.24538644226457
 20
9.367173594429132
 10
23.22864235253297
 20
9.37060663541624
 10
23.21189560289595
 20
9.374030480678637
 10
23.19514620847725
 20
9.377445122635046
 10
23.17839418456684
 20
9.38085055369765
 10
23.16163954660213
 20
9.384246766276644
 10
23.14488231014925
 20
9.387633752784804
 10
23.12812249088425
 20
9.391011505642062
 10
23.1113601045744
 20
9.394380017280044
 10
23.09459516705936
 20
9.397739280146655
 10
23.0778276942325
 20
9.401089286710623
 10
23.06105770202208
 20
9.404430029466071
 10
23.04428520637255
 20
9.40776150093708
 10
23.02751022322574
 20
9.411083693682249
 10
23.01073276850214
 20
9.414396600299246
 10
22.99395285808214
 20
9.417700213429403
 10
22.97717050778727
 20
9.420994525762239
 10
22.96038573336141
 20
9.424279530040042
 10
22.94359855045209
 20
9.427555219062435
 10
22.9268089745917
 20
9.43082158569093
 10
22.91001702117875
 20
9.434078622853487
 10
22.89322270545908
 20
9.437326323549092
 10
22.87642604250716
 20
9.440564680852295
 10
22.85962704720728
 20
9.443793687917803
 10
22.84282573423482
 20
9.447013337985016
 10
22.8260221180375
 20
9.4502236243826
 10
22.8092162128166
 20
9.453424540533042
 10
22.79240803250823
 20
9.456616079957235
 10
22.77559759076455
 20
9.459798236279008
 10
22.75878490093501
 20
9.462971003229707
 10
22.74196997604764
 20
9.46613437465276
 10
22.72515282879024
 20
9.46928834450823
 10
22.70833347149165
 20
9.472432906877379
 10
22.69151191610299
 20
9.475568055967231
 10
22.6746881741789
 20
9.478693786115146
 10
22.65786225685879
 20
9.481810091793352
 10
22.64103417484808
 20
9.484916967613546
 10
22.62420393839941
 20
9.48801440833143
 10
22.60737155729398
 20
9.491102408851272
 10
22.59053704082269
 20
9.494180964230489
 10
22.57370039776741
 20
9.497250069684186
 10
22.55686163638229
 20
9.500309720589743
 10
22.54002076437489
 20
9.503359912491347
 10
22.52317778888675
 20
9.506400641102404
 10
22.50633271648498
 20
9.509431902114734
 10
22.48948555356369
 20
9.512453690964386
 10
22.47263630672341
 20
9.515466003050175
 10
22.45578498278625
 20
9.518468833763312
 10
22.43893158878719
 20
9.521462178488675
 10
22.42207613196533
 20
9.524446032606062
 10
22.4052186197552
 20
9.527420391491427
 10
22.38835905977806
 20
9.530385250518154
 10
22.37149745983315
 20
9.533340605058286
 10
22.35463382788902
 20
9.536286450483796
 10
22.33776817207481
 20
9.539222782167836
 10
22.32090050067147
 20
9.542149595485971
 10
22.30403082210316
 20
9.545066885817464
 10
22.28715914492845
 20
9.547974648546491
 10
22.27028547783165
 20
9.550872879063431
 10
22.25340982961407
 20
9.553761572766092
 10
22.23653220918533
 20
9.556640725060962
 10
22.21965262555464
 20
9.559510331364489
 10
22.20277108782208
 20
9.562370387104293
 10
22.1858876051699
 20
9.565220887720457
 10
22.16900218685378
 20
9.568061828666756
 10
22.15211484219416
 20
9.570893205411911
 10
22.1352255805675
 20
9.573715013440846
 10
22.11833441139757
 20
9.576527248255953
 10
22.10144134414674
 20
9.57932990537831
 10
22.08454638830725
 20
9.58212298034897
 10
22.06764955339254
 20
9.584906468730192
 10
22.05075084892851
 20
9.587680366106699
 10
22.03385028444478
 20
9.590444668086927
 10
22.01694786946603
 20
9.593199370304292
 10
22.00004361350326
 20
9.595944468418416
 10
21.98313752604507
 20
9.598679958116401
 10
21.96622961654897
 20
9.60140583511407
 10
21.94931989443265
 20
9.604122095157231
 10
21.93240836906527
 20
9.606828734022917
 10
21.91549504975874
 20
9.609525747520642
 10
21.89857994575904
 20
9.612213131493652
 10
21.88166306623747
 20
9.614890881820192
 10
21.86474442028194
 20
9.617558994414723
 10
21.84782401688829
 20
9.620217465229224
 10
21.83090186495154
 20
9.622866290254394
 10
21.81397797325721
 20
9.625505465520939
 10
21.79705235047256
 20
9.628134987100816
 10
21.78012500513794
 20
9.630754851108472
 10
21.76319594565804
 20
9.633365053702108
 10
21.74626518029315
 20
9.635965591084939
 10
21.72933271715052
 20
9.638556459506428
 10
21.71239856417558
 20
9.641137655263555
 10
21.69546272914328
 20
9.643709174702047
 10
21.67852521964929
 20
9.646271014217655
 10
21.66158604310144
 20
9.648823170257395
 10
21.64464520671085
 20
9.651365639320806
 10
21.62770271748331
 20
9.653898417961189
 10
21.61075858221051
 20
9.656421502786868
 10
21.5938128074614
 20
9.658934890462447
 10
21.57686539957341
 20
9.661438577710056
 10
21.55991636464376
 20
9.663932561310597
 10
21.54296570852075
 20
9.666416838105018
 10
21.52601343679507
 20
9.668891404995536
 10
21.50905955479103
 20
9.671356258946918
 10
21.4921040675579
 20
9.673811396987707
 10
21.47514697986118
 20
9.676256816211497
 10
21.45818829617387
 20
9.678692513778164
 10
21.4412280206678
 20
9.681118486915144
 10
21.42426615720487
 20
9.683534732918655
 10
21.40730270932835
 20
9.68594124915498
 10
21.3903376802542
 20
9.688338033061688
 10
21.37337107286231
 20
9.690725082148915
 10
21.35640288968783
 20
9.693102394000602
 10
21.33943313291241
 20
9.695469966275744
 10
21.32246180253412
 20
9.697827796929262
 10
21.30548888673072
 20
9.700175885363574
 10
21.28851437013846
 20
9.702514231405745
 10
21.27153823885894
 20
9.704842834698942
 10
21.25456048042876
 20
9.707161694706572
 10
21.23758108377576
 20
9.709470810718011
 10
21.22060003917523
 20
9.71177018185438
 10
21.20361733820605
 20
9.714059807074287
 10
21.1866329737069
 20
9.716339685179596
 10
21.16964693973248
 20
9.718609814821171
 10
21.15265923150962
 20
9.720870194504648
 10
21.13566984539356
 20
9.723120822596175
 10
21.11867877882406
 20
9.72536169732818
 10
21.10168603028163
 20
9.727592816805119
 10
21.08469159924371
 20
9.729814179009247
 10
21.06769548614086
 20
9.732025781806351
 10
21.05069769231294
 20
9.734227622951534
 10
21.03369821996529
 20
9.736419700094939
 10
21.01669707212495
 20
9.738602010787543
 10
20.99969425259682
 20
9.740774552486882
 10
20.98268976591984
 20
9.742937322562823
 10
20.96568361732322
 20
9.74509031830332
 10
20.94867581268258
 20
9.747233536920159
 10
20.93166635847617
 20
9.74936697555473
 10
20.91465526174104
 20
9.751490631283779
 10
20.89764253002924
 20
9.753604501125151
 10
20.88062817136399
 20
9.755708582043567
 10
20.86361219419591
 20
9.757802870956373
 10
20.84659460735913
 20
9.759887364739274
 10
20.82957542002759
 20
9.761962060232141
 10
20.8125546416711
 20
9.764026954244705
 10
20.79553228201163
 20
9.766082043562381
 10
20.77850835097946
 20
9.768127324951953
 10
20.76148285866934
 20
9.770162795167383
 10
20.74445581529674
 20
9.772188450955562
 10
20.72742723115398
 20
9.774204289062032
 10
20.71039711656643
 20
9.776210306236782
 10
20.69336548184876
 20
9.77820649923999
 10
20.67633233726101
 20
9.78019286484776
 10
20.6592976929649
 20
9.782169399857911
 10
20.64226155897993
 20
9.784136101095716
 10
20.62522394513962
 20
9.786092965419655
 10
20.60818486104767
 20
9.788039989727186
 10
20.59114431603415
 20
9.789977170960488
 10
20.57410231911169
 20
9.791904506112219
 10
20.5570588789317
 20
9.793821992231279
 10
20.54001400374051
 20
9.795729626428569
 10
20.52296770133557
 20
9.79762740588273
 10
20.50591997902166
 20
9.79951532784592
 10
20.48887084356705
 20
9.801393389649556
 10
20.47182030115972
 20
9.803261588710075
 10
20.45476835736351
 20
9.805119922534702
 10
20.43771501707436
 20
9.806968388727183
 10
20.4206602844764
 20
9.808806984993562
 10
20.40360416299828
 20
9.810635709147923
 10
20.38654665526922
 20
9.81245455911816
 10
20.3694877630753
 20
9.814263532951722
 10
20.35242748731557
 20
9.816062628821375
 10
20.33536582795831
 20
9.817851845030961
 10
20.31830278399715
 20
9.819631180021142
 10
20.30123835340733
 20
9.821400632375176
 10
20.2841725331018
 20
9.823160200824656
 10
20.26710531888748
 20
9.824909884255275
 10
20.25003670542143
 20
9.826649681712579
 10
20.23296668616701
 20
9.828379592407726
 10
20.21589525335013
 20
9.83009961572325
 10
20.19882239791535
 20
9.831809751218793
 10
20.18174810948213
 20
9.833509998636886
 10
20.16467237630102
 20
9.835200357908696
 10
20.14759518520982
 20
9.836880829159788
 10
20.13051652187226
 20
9.838551412683793
 10
20.11343638423939
 20
9.840212107415242
 10
20.0963547891327
 20
9.841862910186067
 10
20.07927175475438
 20
9.843503817713305
 10
20.06218729921632
 20
9.84513482676564
 10
20.04510144053876
 20
9.846755934163043
 10
20.0280141966488
 20
9.848367136776367
 10
20.01092558537908
 20
9.849968431526956
 10
19.99383562446635
 20
9.851559815386279
 10
19.97674433155005
 20
9.853141285375516
 10
19.95965172417092
 20
9.854712838565195
 10
19.94255781976958
 20
9.85627447207478
 10
19.92546263568516
 20
9.857826183072317
 10
19.90836618915386
 20
9.859367968774002
 10
19.89126849730757
 20
9.860899826443839
 10
19.87416957717245
 20
9.862421753393226
 10
19.85706944566756
 20
9.863933746980574
 10
19.83996811960339
 20
9.865435804610916
 10
19.82286561568052
 20
9.866927923735532
 10
19.80576195048819
 20
9.868410101851543
 10
19.78865714050291
 20
9.869882336501538
 10
19.77155120208702
 20
9.871344625273195
 10
19.75444415148734
 20
9.872796965798862
 10
19.73733600483372
 20
9.874239355755197
 10
19.72022677813766
 20
9.875671792862776
 10
19.70311648729088
 20
9.877094274885703
 10
19.68600514806398
 20
9.878506799631212
 10
19.66889277610497
 20
9.879909364949305
 10
19.65177938693788
 20
9.881301968732341
 10
19.63466499596136
 20
9.882684608914656
 10
19.61754961844731
 20
9.884057283472179
 10
19.60043326953942
 20
9.88541999042205
 10
19.58331596425182
 20
9.886772727822213
 10
19.56619771746763
 20
9.888115493771051
 10
19.54907854393758
 20
9.889448286406986
 10
19.5319584582786
 20
9.890771103908095
 10
19.51483747497244
 20
9.892083944491719
 10
19.49771560836422
 20
9.893386806414088
 10
19.48059287266107
 20
9.894679687969915
 10
19.46346928193069
 20
9.895962587492023
 10
19.44634485009997
 20
9.897235503350961
 10
19.42921959095359
 20
9.898498433954587
 10
19.4120935181326
 20
9.899751377747731
 10
19.39496664513302
 20
9.900994333211759
 10
19.37783898530443
 20
9.902227298864216
 10
19.36071055184859
 20
9.903450273258419
 10
19.34358135781803
 20
9.904663254983097
 10
19.32645141611461
 20
9.905866242661973
 10
19.30932073948817
 20
9.907059234953386
 10
19.29218934053507
 20
9.908242230549927
 10
19.27505723169685
 20
9.90941522817801
 10
19.25792442525877
 20
9.910578226597523
 10
19.24079093334844
 20
9.911731224601419
 10
19.22365676793439
 20
9.912874221015336
 10
19.2065219408247
 20
9.914007214697207
 10
19.18938646366557
 20
9.915130204536875
 10
19.17225034793992
 20
9.916243189455707
 10
19.15511360496599
 20
9.917346168406202
 10
19.13797624589593
 20
9.918439140371607
 10
19.12083828171443
 20
9.919522104365524
 10
19.10369972323725
 20
9.920595059431539
 10
19.08656058110988
 20
9.921658004642814
 10
19.06942086580612
 20
9.922710939101712
 10
19.05228058762663
 20
9.923753861939411
 10
19.03513975669759
 20
9.924786772315503
 10
19.01799838296928
 20
9.925809669417626
 10
19.00085647621463
 20
9.926822552461059
 10
18.98371404602789
 20
9.927825420688352
 10
18.96657110182316
 20
9.92881827336892
 10
18.94942765283303
 20
9.929801109798672
 10
18.93228370810717
 20
9.930773929299613
 10
18.91513927651088
 20
9.931736731219462
 10
18.89799436672377
 20
9.932689514931263
 10
18.88084898723827
 20
9.933632279833004
 10
18.86370314635829
 20
9.934565025347206
 10
18.84655685219779
 20
9.935487750920581
 10
18.82941011267936
 20
9.936400456023587
 10
18.81226293553286
 20
9.937303140150099
 10
18.79511532829397
 20
9.93819580281697
 10
18.77796729830282
 20
9.939078443563683
 10
18.76081885270258
 20
9.939951061951942
 10
18.74366999843801
 20
9.940813657565293
 10
18.72652074225414
 20
9.941666230008726
 10
18.70937109069481
 20
9.942508778908315
 10
18.69222105010127
 20
9.943341303910797
 10
18.67507062661078
 20
9.944163804683196
 10
18.65791982615523
 20
9.944976280912452
 10
18.6407686544597
 20
9.94577873230502
 10
18.62361711704108
 20
9.94657115858647
 10
18.60646521920665
 20
9.947353559501127
 10
18.5893129660527
 20
9.948125934811669
 10
18.57216036246311
 20
9.948888284298735
 10
18.55500741310793
 20
9.949640607760548
 10
18.53785412244202
 20
9.950382905012522
 10
18.5207004947036
 20
9.951115175886881
 10
18.50354653391287
 20
9.951837420232255
 10
18.48639224387062
 20
9.952549637913316
 10
18.4692376281568
 20
9.953251828810373
 10
18.4520826901291
 20
9.953943992818995
 10
18.43492743292161
 20
9.954626129849618
 10
18.41777185944335
 20
9.955298239827159
 10
18.40061597237692
 20
9.95596032269063
 10
18.38345977417704
 20
9.956612378392748
 10
18.36630326706921
 20
9.957254406899552
 10
18.34914645304824
 20
9.957886408190011
 10
18.33198933387689
 20
9.958508382255644
 10
18.31483191108448
 20
9.959120329100121
 10
18.29767418596542
 20
9.95972224873889
 10
18.28051615957788
 20
9.96031414119877
 10
18.26335783274235
 20
9.960896006517588
 10
18.24619920604021
 20
9.961467844743774
 10
18.22904027981239
 20
9.962029655935987
 10
18.21188105415792
 20
9.962581440162708
 10
18.19472152893256
 20
9.963123197501866
 10
18.17756170374732
 20
9.963654928040462
 10
18.16040157796719
 20
9.96417663187416
 10
18.14324115070958
 20
9.964688309106906
 10
18.12608042084303
 20
9.965189959850553
 10
18.10891938698578
 20
9.965681584224453
 10
18.09175804750434
 20
9.96616318235509
 10
18.07459640051212
 20
9.966634754375682
 10
18.05743444386798
 20
9.967096300425795
 10
18.04027217517487
 20
9.967547820650956
 10
18.02310959177842
 20
9.967989315202263
 10
18.00594669076552
 20
9.968420784236007
 10
17.98878346896292
 20
9.968842227913269
 10
17.97161992293584
 20
9.969253646399556
 10
17.95445604898653
 20
9.969655039864383
 10
17.93729184315294
 20
9.97004640848092
 10
17.92012730120721
 20
9.970427752425571
 10
17.90296241865439
 20
9.970799071877616
 10
17.8857971907309
 20
9.971160367018802
 10
17.86863161240326
 20
9.971511638032966
 10
17.85146567836657
 20
9.971852885105652
 10
17.83429938304323
 20
9.972184108423713
 10
17.81713272058138
 20
9.972505308174927
 10
17.79996568485364
 20
9.972816484547617
 10
17.78279826945565
 20
9.973117637730247
 10
17.76563046770462
 20
9.973408767911061
 10
17.74846227263801
 20
9.973689875277667
 10
17.73129367701209
 20
9.973960960016675
 10
17.7141246733005
 20
9.974222022313286
 10
17.69695525369291
 20
9.974473062350927
 10
17.67978541009358
 20
9.974714080310844
 10
17.66261513411994
 20
9.974945076371733
 10
17.64544441710125
 20
9.975166050709331
 10
17.62827325007711
 20
9.975377003496062
 10
17.61110162379612
 20
9.975577934900606
 10
17.59392952871447
 20
9.975768845087557
 10
17.5767569549945
 20
9.975949734216991
 10
17.55958136028362
 20
9.976120618160411
 10
17.5423672992602
 20
9.976281718832476
 10
17.52515499152987
 20
9.976432790730283
 10
17.50807725113566
 20
9.976572993631931
 10
17.4912243574568
 20
9.976701700409776
 10
17.4744337464518
 20
9.976819821658443
 10
17.45734299169473
 20
9.976929537043016
 10
17.43992361468345
 20
9.977030832800767
 10
17.42234136727766
 20
9.977122403547079
 10
17.4046933890856
 20
9.977203336556668
 10
17.38684774191535
 20
9.977273974755807
 10
17.36873374679925
 20
9.977334443963949
 10
17.35041139679702
 20
9.977384350245207
 10
17.33197422366
 20
9.977423213729107
 10
17.31347468936254
 20
9.977450803973447
 10
17.29494082626475
 20
9.97746704672188
 10
17.276389450045
 20
9.977471920572366
 10
17.25782561874153
 20
9.977465430771292
 10
17.2392431671197
 20
9.977447575084338
 10
17.22063054180398
 20
9.977418285278696
 10
17.20199395109164
 20
9.977377579462899
 10
17.18340005935216
 20
9.977325878044382
 10
17.16502162228964
 20
9.977264315460883
 10
17.14709683422034
 20
9.977194338621011
 10
17.12963609282961
 20
9.977115966434519
 10
17.11241809584655
 20
9.977027965008486
 10
17.09517698458161
 20
9.976928878382219
 10
17.07773730729065
 20
9.976817812488953
 10
17.05997370446259
 20
9.976694274769815
 10
17.04193271266627
 20
9.976558557670768
 10
17.02377831492974
 20
9.976411466265512
 10
17.00567817923441
 20
9.976253813194915
 10
16.98770732324924
 20
9.976086098321848
 10
16.96989735090667
 20
9.97590876597142
 10
16.95227197964694
 20
9.975722256017991
 10
16.93483467095552
 20
9.975526876107847
 10
16.91754770237206
 20
9.975322536102304
 10
16.90034692914728
 20
9.975108862703493
 10
16.88318550432533
 20
9.974885642200042
 10
16.86601643760597
 20
9.974652357135456
 10
16.84876934329641
 20
9.974407682627036
 10
16.83136794155268
 20
9.974150135846167
 10
16.81378931378549
 20
9.973879312842372
 10
16.79606145452103
 20
9.973595745602038
 10
16.77824507504479
 20
9.97330053847298
 10
16.76041678379719
 20
9.972995040798082
 10
16.74265747327459
 20
9.972680634018182
 10
16.72503868065633
 20
9.972358508765164
 10
16.70760658837531
 20
9.972029421278039
 10
16.69036091408402
 20
9.971693375580231
 10
16.67324151508328
 20
9.971349452771717
 10
16.6561824174504
 20
9.970996663981193
 10
16.63913862124412
 20
9.970634349522603
 10
16.62210029667357
 20
9.970262381832979
 10
16.60507544477941
 20
9.969880896612396
 10
16.58806398603017
 20
9.969489903297036
 10
16.57106513785812
 20
9.969089397219184
 10
16.5540779512671
 20
9.968679367854834
 10
16.53710132980843
 20
9.96825979926896
 10
16.52013404855684
 20
9.9678306705608
 10
16.50317477308641
 20
9.967391956309127
 10
16.48622207844651
 20
9.966943627017515
 10
16.46927446813775
 20
9.966485649559619
 10
16.45233039308788
 20
9.966017987624447
 10
16.43538827062778
 20
9.965540602161633
 10
16.41844650346733
 20
9.965053451826706
 10
16.40150349867141
 20
9.964556493426377
 10
16.38455768663581
 20
9.964049682363786
 10
16.36760754006314
 20
9.963532973083816
 10
16.35065159293881
 20
9.963006319518321
 10
16.33368845950695
 20
9.96246967553143
 10
16.3167169676608
 20
9.961922999513268
 10
16.29973497671863
 20
9.961366207175633
 10
16.28274098949369
 20
9.960799235428062
 10
16.26574483415761
 20
9.960222458240416
 10
16.24877857834517
 20
9.959637110715176
 10
16.2318775156756
 20
9.959044544680168
 10
16.21504868619396
 20
9.958445012128438
 10
16.19827809102023
 20
9.957837959775952
 10
16.18153787541552
 20
9.957222317267707
 10
16.16497296213164
 20
9.956603996652752
 10
16.14898561384321
 20
9.955999333506099
 10
16.13368210141803
 20
9.955412873098037
 10
16.11889040420774
 20
9.954838024801
 10
16.10426993226275
 20
9.954261407398117
 10
16.08942124854731
 20
9.953667194391773
 10
16.07399579115439
 20
9.953041459312135
 10
16.05780559552073
 20
9.952376521025735
 10
16.04093301664181
 20
9.951675289043999
 10
16.02379434572579
 20
9.950953811077564
 10
16.00664585260277
 20
9.950222033907119
 10
15.98949321336955
 20
9.949480171530595
 10
15.97233719938254
 20
9.948728247778966
 10
15.95517864852314
 20
9.94796628993938
 10
15.93801839831074
 20
9.947194326259054
 10
15.92085721901546
 20
9.946412383449155
 10
15.90369574677109
 20
9.945620484188683
 10
15.88653441668793
 20
9.944818644628355
 10
15.86937340322761
 20
9.944006872033078
 10
15.8522126946531
 20
9.943185166687603
 10
15.83505225939051
 20
9.942353528037047
 10
15.81789207108581
 20
9.941511955779461
 10
15.80073210835696
 20
9.940660449856263
 10
15.78357235453931
 20
9.939799010442213
 10
15.76641279743095
 20
9.938927637935359
 10
15.74925342903813
 20
9.93804633294698
 10
15.73209424532059
 20
9.937155096291556
 10
15.71493524593701
 20
9.93625392897673
 10
15.69777643399032
 20
9.935342832193235
 10
15.68061781577314
 20
9.934421807304881
 10
15.66345940051311
 20
9.93349085583848
 10
15.64630120011832
 20
9.932549979473836
 10
15.62914322892265
 20
9.931599180033666
 10
15.61198550343116
 20
9.930638459473575
 10
15.59482804206551
 20
9.929667819872003
 10
15.57767086490927
 20
9.928687263420192
 10
15.56051399345337
 20
9.927696792412119
 10
15.54335745034145
 20
9.926696409234475
 10
15.52620125911521
 20
9.925686116356603
 10
15.50904544395987
 20
9.924665916320467
 10
15.49189002944946
 20
9.923635811730596
 10
15.47473504029228
 20
9.922595805244036
 10
15.45758050107622
 20
9.921545899560326
 10
15.44042643601419
 20
9.920486097411426
 10
15.42327286868945
 20
9.919416401551696
 10
15.40611982180105
 20
9.918336814747835
 10
15.38896731690915
 20
9.91724733976884
 10
15.37181537418045
 20
9.916147979375963
 10
15.35466401213355
 20
9.915038736312681
 10
15.33751324738432
 20
9.913919613294604
 10
15.32036309439131
 20
9.912790612999495
 10
15.30321356520109
 20
9.911651738057178
 10
15.28606466919369
 20
9.910502991039503
 10
15.26891641368839
 20
9.90934437447134
 10
15.2517688109179
 20
9.908175891014376
 10
15.23462187677056
 20
9.906997543478443
 10
15.21747562779981
 20
9.90580933475525
 10
15.20033008109417
 20
9.904611267810302
 10
15.18318525417011
 20
9.903403345675348
 10
15.16604116486499
 20
9.902185571440869
 10
15.14889783122998
 20
9.90095794824851
 10
15.13175527142298
 20
9.899720479283548
 10
15.11461350360153
 20
9.898473167767342
 10
15.09747254581575
 20
9.897216016949805
 10
15.08033241590124
 20
9.895949030101855
 10
15.06319313137201
 20
9.894672210507858
 10
15.04605470931339
 20
9.893385561458108
 10
15.02891716627496
 20
9.892089086241279
 10
15.01178051816348
 20
9.890782788136867
 10
14.99464478013579
 20
9.889466670407671
 10
14.97750996649171
 20
9.888140736292235
 10
14.96037609056704
 20
9.886804988997305
 10
14.94324316462637
 20
9.885459431690296
 10
14.9261111997561
 20
9.884104067491751
 10
14.9089802057573
 20
9.882738899467783
 10
14.89185019103864
 20
9.881363930622551
 10
14.87477824880192
 20
9.879983778933446
 42
0.3579389943581261
 10
14.68446234339461
 20
9.691275277409358
 10
14.68446190310158
 20
9.691275079242879
 10
14.22095563606424
 20
5.170517474723448
 10
14.22090425025739
 20
5.169741633098373
 10
14.22089913420821
 20
5.168961325466021
 10
14.22094073843303
 20
5.168179258143483
 10
14.22102924805371
 20
5.167395513202561
 10
14.22116477045412
 20
5.166610257588954
 10
14.22134734270832
 20
5.165823731088221
 10
14.22157693900874
 20
5.165036234291724
 10
14.2218534780943
 20
5.164248116562593
 10
14.22217683067864
 20
5.163459764001671
 10
14.22254682687825
 20
5.162671587413478
 10
14.22296326364063
 20
5.161884010272153
 10
14.22342591217248
 20
5.161097456687423
 10
14.22393452536786
 20
5.160312339370545
 10
14.22448884523637
 20
5.159529047600262
 10
14.22508861033126
 20
5.158747935188768
 10
14.22573356317769
 20
5.157969308447643
 10
14.22642345770081
 20
5.157193414153832
 10
14.22715806665398
 20
5.156420427515573
 10
14.22793718904692
 20
5.155650440138372
 10
14.22876065757389
 20
5.154883447990948
 10
14.22962834606179
 20
5.154119339394721
 10
14.23054021047356
 20
5.15335795032974
 10
14.23149627219673
 20
5.152599278897851
 10
14.23249640462536
 20
5.151843426308855
 10
14.23354031821779
 20
5.151090558415668
 10
14.23462758341653
 20
5.150340894553253
 10
14.23575765356807
 20
5.149594696377556
 10
14.23692988784275
 20
5.148852256704429
 10
14.23814357415458
 20
5.148113888348568
 10
14.23939795208113
 20
5.147379912962438
 10
14.24069223578334
 20
5.146650649875214
 10
14.24202563692541
 20
5.145926404931701
 10
14.24339738759459
 20
5.145207459331277
 10
14.24480676322108
 20
5.144494058466815
 10
14.24625310549785
 20
5.143786400763617
 10
14.24773584530049
 20
5.14308462651835
 10
14.24925452560708
 20
5.142388806737971
 10
14.25080882441801
 20
5.141698931978663
 10
14.25239857767585
 20
5.141014901184767
 10
14.25402378227917
 20
5.140336534745125
 10
14.25568438639804
 20
5.139663763044627
 10
14.25738013279832
 20
5.13899662322844
 10
14.25911058973876
 20
5.138335194075355
 10
14.26087517558706
 20
5.137679588944314
 10
14.26267318324263
 20
5.137029949083606
 10
14.26450380455931
 20
5.136386436940009
 10
14.26636615476818
 20
5.135749229467985
 10
14.26825929690024
 20
5.135118511438833
 10
14.27018226620923
 20
5.13449446874987
 10
14.27213409459432
 20
5.133877281733588
 10
14.27411383502294
 20
5.13326711846684
 10
14.27612058595345
 20
5.13266412808
 10
14.27815351575795
 20
5.132068434066128
 10
14.28021188714501
 20
5.131480127590153
 10
14.28229508158244
 20
5.130899260798035
 10
14.28440262372001
 20
5.130325840125934
 10
14.28653420581223
 20
5.129759819609384
 10
14.28868971214111
 20
5.129201094192463
 10
14.29086920068175
 20
5.128649515474036
 10
14.29307261046546
 20
5.128105016656323
 10
14.29529967584225
 20
5.127567589795763
 10
14.29754997954889
 20
5.127037251303539
 10
14.29982297362855
 20
5.126514038272393
 10
14.30211800029853
 20
5.125998004837025
 10
14.30443431281799
 20
5.12548921853449
 10
14.30677109635573
 20
5.124987756664601
 10
14.30912748885786
 20
5.124493702650331
 10
14.31150260191562
 20
5.124007142398208
 10
14.31389554163305
 20
5.123528160658717
 10
14.31630542949475
 20
5.123056837386702
 10
14.31873142323366
 20
5.122593244101757
 10
14.32117273769874
 20
5.122137440248644
 10
14.32362866572272
 20
5.12168946955767
 10
14.3260985989899
 20
5.121249356405106
 10
14.32858204890379
 20
5.120817102173577
 10
14.33107866745493
 20
5.120392681612464
 10
14.33358826808859
 20
5.119976039198307
 10
14.33611084613356
 20
5.119567085817519
 10
14.33864652222958
 20
5.119165727993695
 10
14.34119528418834
 20
5.118771921803484
 10
14.34375691578135
 20
5.118385649936384
 10
14.3463310255187
 20
5.118006914590793
 10
14.34891707583406
 20
5.117635734120153
 10
14.35151441226964
 20
5.117272139679091
 10
14.35412229266114
 20
5.116916171869546
 10
14.35673991632272
 20
5.116567877386922
 10
14.359366453232
 20
5.116227305666213
 10
14.36200107321499
 20
5.115894505528148
 10
14.36464297513109
 20
5.115569521825323
 10
14.36729141605803
 20
5.115252392088343
 10
14.36994574047685
 20
5.114943143171963
 10
14.37260540945688
 20
5.114641787901216
 10
14.37527002984067
 20
5.114348321717561
 10
14.37793938342902
 20
5.114062719325013
 10
14.38061345614572
 20
5.113784931338381
 10
14.39934143913863
 20
5.111868628455825
 10
14.41807129904372
 20
5.109952647554774
 10
14.43680302229086
 20
5.108036961465162
 10
14.45553659450147
 20
5.10612154311499
 10
14.47427200054627
 20
5.104206365527662
 10
14.49300922458413
 20
5.102291401821321
 10
14.51174825010083
 20
5.100376625208125
 10
14.53048905994789
 20
5.098462008993569
 10
14.54923163638134
 20
5.096547526575785
 10
14.56797596110056
 20
5.094633151444844
 10
14.58672201528707
 20
5.092718857182058
 10
14.60546977964332
 20
5.090804617459292
 10
14.6242192344315
 20
5.088890406038258
 10
14.64297035951237
 20
5.086976196769829
 10
14.66172313438402
 20
5.085061963593337
 10
14.6804775382207
 20
5.083147680535876
 10
14.69923354991161
 20
5.081233321711615
 10
14.71799114809974
 20
5.079318861321088
 10
14.73675031122059
 20
5.077404273650511
 10
14.75551101754108
 20
5.075489533071082
 10
14.77427324519827
 20
5.07357461403828
 10
14.79303697223821
 20
5.071659491091176
 10
14.81180217665471
 20
5.069744138851736
 10
14.83056883642818
 20
5.067828532024118
 10
14.84933692956438
 20
5.06591264539399
 10
14.8681064341333
 20
5.063996453827818
 10
14.88687732830788
 20
5.062079932272181
 10
14.90564959040289
 20
5.060163055753075
 10
14.92442319891367
 20
5.058245799375209
 10
14.94319813255495
 20
5.056328138321318
 10
14.96197437029971
 20
5.054410047851463
 10
14.98075189123112
 20
5.052491503328846
 10
14.9995306706934
 20
5.050572480771815
 10
15.01831068290073
 20
5.048652956491096
 10
15.03709190640414
 20
5.046732906318691
 10
15.05587432351731
 20
5.044812305692804
 10
15.07465791946705
 20
5.042891129781819
 10
15.09344268154373
 20
5.040969353608281
 10
15.11222859825172
 20
5.039046952172872
 10
15.13101565845983
 20
5.037123900578396
 10
15.14980385055178
 20
5.035200174153762
 10
15.16859316157663
 20
5.033275748577957
 10
15.1873835763992
 20
5.03135060000403
 10
15.20617507685056
 20
5.029424705183071
 10
15.22496764087845
 20
5.027498041588197
 10
15.24376124169773
 20
5.025570587538523
 10
15.26255584694081
 20
5.023642322323153
 10
15.28135144994067
 20
5.021713221819446
 10
15.30014829921956
 20
5.019783226461088
 10
15.31894662343012
 20
5.017852280097921
 10
15.33774643857041
 20
5.015920356796646
 10
15.35654757008174
 20
5.013987457354403
 10
15.37534967714679
 20
5.012053605503012
 10
15.39415227698788
 20
5.010118844113226
 10
15.41295476916508
 20
5.008183231398978
 10
15.43175645987443
 20
5.006246837121627
 10
15.45055658624611
 20
5.004309738794218
 10
15.46935434064261
 20
5.002372017885713
 10
15.48814889495696
 20
5.000433756025254
 10
15.50693942491084
 20
4.998495031206401
 10
15.52572513435283
 20
4.996555913991389
 10
15.54450527955653
 20
4.994616463715373
 10
15.5632791935188
 20
4.992676724690674
 10
15.58204633254327
 20
4.990736718882521
 10
15.60080638020355
 20
4.98879643295448
 10
15.61955918539055
 20
4.986855834508847
 10
15.63830472666287
 20
4.984914878414778
 10
15.65704310357198
 20
4.982973507791581
 10
15.67577452798957
 20
4.981031654991663
 10
15.69449931543475
 20
4.979089242583452
 10
15.71321787640138
 20
4.977146184334348
 10
15.73193070768527
 20
4.975202386193636
 10
15.75063838371153
 20
4.97325774727544
 10
15.7693415478618
 20
4.971312160841648
 10
15.78804090380152
 20
4.969365515284846
 10
15.80673720680725
 20
4.967417695111257
 10
15.82543125509388
 20
4.96546858192367
 10
15.84412388114193
 20
4.963518055404381
 10
15.86281594302487
 20
4.96156599429812
 10
15.8815083157363
 20
4.959612277394993
 10
15.90020188251729
 20
4.957656784513414
 10
15.91889752618365
 20
4.955699397483033
 10
15.93759612045316
 20
4.953740001127681
 10
15.95629852127291
 20
4.951778484248299
 10
15.97500555814651
 20
4.949814740605869
 10
15.99371802546139
 20
4.94784866990436
 10
16.01243252901946
 20
4.945880616607668
 10
16.03087204352135
 20
4.943939836028657
 10
16.0485838387128
 20
4.942074168607446
 10
16.06555152678159
 20
4.940285387350511
 10
16.08209032506688
 20
4.938540246285165
 10
16.09867482164317
 20
4.936788658277398
 10
16.11576674090414
 20
4.934981872849704
 10
16.13364270914662
 20
4.933090653998903
 10
16.15222202015442
 20
4.931123458013978
 10
16.17087866729443
 20
4.92914640636382
 10
16.18892245181452
 20
4.927232851205934
 10
16.20671760636328
 20
4.925344305007425
 10
16.22486385419715
 20
4.923417059240791
 10
16.24313569289021
 20
4.921474743717695
 10
16.26129314090206
 20
4.919542544231063
 10
16.2794262437305
 20
4.917610753529761
 10
16.29763411899944
 20
4.915668807168994
 10
16.315857229016
 20
4.913723216067431
 10
16.33367694328837
 20
4.911819035318456
 10
16.351525508419
 20
4.909910359456048
 10
16.37003453150197
 20
4.907929504491318
 10
16.38887201902777
 20
4.90591094512717
 10
16.40744863718493
 20
4.903916514646512
 10
16.42610495350788
 20
4.901908960179955
 10
16.44534885778613
 20
4.899833644262075
 10
16.46503109648238
 20
4.897706957248091
 10
16.48490504619012
 20
4.895555969987668
 10
16.5048245375398
 20
4.893397151897972
 10
16.52458834723769
 20
4.891252922608869
 10
16.54407652273141
 20
4.889136771977893
 10
16.56336383784044
 20
4.887040927130191
 10
16.58265983036546
 20
4.884942905488742
 10
16.60219720406552
 20
4.882817646753168
 10
16.62212938459108
 20
4.880648645941659
 10
16.64243132211249
 20
4.878438726250516
 10
16.66291661285881
 20
4.87620817417548
 10
16.68340140731674
 20
4.873976941179392
 10
16.70384969982517
 20
4.871748868418813
 10
16.72427735906829
 20
4.869522105345986
 10
16.74469136988086
 20
4.867295712050744
 10
16.76508973044095
 20
4.865069697101924
 10
16.78543753111612
 20
4.862847648560522
 10
16.80572084605695
 20
4.860630756021592
 10
16.82586487865303
 20
4.858426766065703
 10
16.84546550839927
 20
4.856279483421451
 10
16.86460492774349
 20
4.854179220661865
 10
16.88380975710445
 20
4.852067579313456
 10
16.90309370437084
 20
4.849942608624054
 10
16.92215056616811
 20
4.847837404720237
 10
16.94101313741016
 20
4.845748523446803
 10
16.95986576264994
 20
4.843656732488277
 10
16.97874976658598
 20
4.841558469990323
 10
16.99763981096127
 20
4.839456811173888
 10
17.01653018401903
 20
4.837352365508036
 10
17.03542091005999
 20
4.835245110963449
 10
17.05431201261243
 20
4.833135025739158
 10
17.0732035144392
 20
4.831022088260681
 10
17.09209543754488
 20
4.828906277178148
 10
17.11098780318278
 20
4.826787571364447
 10
17.12988063186199
 20
4.824665949913351
 10
17.14877394335452
 20
4.822541392137648
 10
17.1676677567023
 20
4.820413877567292
 10
17.18656209022426
 20
4.818283385947521
 10
17.20545696152341
 20
4.816149897236994
 10
17.22435238749391
 20
4.814013391605934
 10
17.24324838432811
 20
4.811873849434256
 10
17.26214496752363
 20
4.809731251309701
 10
17.28104215189043
 20
4.807585578025968
 10
17.29993995155786
 20
4.805436810580862
 10
17.31883837998176
 20
4.803284930174404
 10
17.33773744995148
 20
4.801129918206996
 10
17.35663717359698
 20
4.798971756277524
 10
17.37553756239587
 20
4.796810426181514
 10
17.39443862718052
 20
4.794645909909264
 10
17.41334037814506
 20
4.792478189643968
 10
17.43224282485251
 20
4.790307247759858
 10
17.45114597624178
 20
4.788133066820336
 10
17.47004984063481
 20
4.785955629576111
 10
17.48895442574358
 20
4.783774918963331
 10
17.50785973867719
 20
4.781590918101717
 10
17.52676578594894
 20
4.779403610292701
 10
17.54567257348337
 20
4.777212979017557
 10
17.56458010662337
 20
4.775019007935528
 10
17.58348839013717
 20
4.772821680881981
 10
17.6023974282255
 20
4.770620981866523
 10
17.62130722452857
 20
4.768416895071136
 10
17.6402177821332
 20
4.766209404848328
 10
17.65912910357984
 20
4.763998495719244
 10
17.67804119086967
 20
4.761784152371818
 10
17.69695404547163
 20
4.759566359658904
 10
17.71586766832952
 20
4.757345102596405
 10
17.73478205986906
 20
4.755120366361405
 10
17.75369722000493
 20
4.752892136290318
 10
17.77261314814786
 20
4.750660397877008
 10
17.7915298432117
 20
4.748425136770931
 10
17.81044730362044
 20
4.746186338775261
 10
17.82936552731534
 20
4.743943989845036
 10
17.84828451176197
 20
4.741698076085286
 10
17.86720425395724
 20
4.739448583749164
 10
17.88612475043654
 20
4.737195499236087
 10
17.90504599728072
 20
4.734938809089869
 10
17.92396799012323
 20
4.73267849999685
 10
17.94289072415713
 20
4.730414558784035
 10
17.96181419414219
 20
4.72814697241723
 10
17.98073839441195
 20
4.725875727999174
 10
17.99966331888079
 20
4.723600812767672
 10
18.01858896105095
 20
4.721322214093731
 10
18.03751531401967
 20
4.719039919479691
 10
18.0564423704862
 20
4.716753916557371
 10
18.0753701227589
 20
4.714464193086183
 10
18.09429856276226
 20
4.712170736951288
 10
18.11322768204402
 20
4.709873536161717
 10
18.1321574717822
 20
4.707572578848509
 10
18.15108792279218
 20
4.705267853262844
 10
18.17001902553376
 20
4.70295934777418
 10
18.18895077011823
 20
4.700647050868386
 10
18.20788314631544
 20
4.698330951145877
 10
18.22681614356084
 20
4.696011037319745
 10
18.24574975096258
 20
4.693687298213898
 10
18.26468395730855
 20
4.691359722761195
 10
18.28361875107348
 20
4.689028300001572
 10
18.30255412042595
 20
4.686693019080186
 10
18.32149005323551
 20
4.684353869245547
 10
18.34042653707971
 20
4.682010839847646
 10
18.35936355925118
 20
4.679663920336099
 10
18.3783011067647
 20
4.677313100258273
 10
18.39723916636427
 20
4.674958369257427
 10
18.41617772453014
 20
4.672599717070841
 10
18.43511676748592
 20
4.670237133527955
 10
18.45405628120563
 20
4.667870608548498
 10
18.47299625142075
 20
4.665500132140627
 10
18.4919366636273
 20
4.663125694399063
 10
18.51087750309291
 20
4.660747285503214
 10
18.52981875486388
 20
4.658364895715328
 10
18.54876040377224
 20
4.655978515378606
 10
18.56770243444283
 20
4.653588134915358
 10
18.58664483130036
 20
4.651193744825119
 10
18.60558757857644
 20
4.648795335682793
 10
18.62453066031673
 20
4.646392898136785
 10
18.6434740603879
 20
4.643986422907139
 10
18.6624177624848
 20
4.641575900783664
 10
18.68136175013743
 20
4.639161322624078
 10
18.7003060067181
 20
4.636742679352132
 10
18.71925051544838
 20
4.634319961955759
 10
18.73819525940631
 20
4.63189316148519
 10
18.75714022153333
 20
4.629462269051103
 10
18.77608538464141
 20
4.627027275822753
 10
18.79503073143041
 20
4.624588173025724
 10
18.81397624519142
 20
4.622144951917125
 10
18.83292191007588
 20
4.619697603790632
 10
18.85186770985969
 20
4.617246120031299
 10
18.8708136278509
 20
4.614790492119103
 10
18.88975964691979
 20
4.612330711627624
 10
18.908705749529
 20
4.609866770222681
 10
18.92765191776362
 20
4.607398659661011
 10
18.94659813336133
 20
4.604926371788907
 10
18.96554437774247
 20
4.602449898540894
 10
18.98449063204017
 20
4.599969231938374
 10
19.00343687713046
 20
4.597484364088284
 10
19.0223830936624
 20
4.594995287181766
 10
19.04132926208814
 20
4.592501993492809
 10
19.06027536269307
 20
4.59000447537692
 10
19.07922137562592
 20
4.587502725269771
 10
19.09816728092886
 20
4.584996735685868
 10
19.11711305856763
 20
4.582486499217195
 10
19.13605868846162
 20
4.579972008531887
 10
19.15500415051401
 20
4.577453256372876
 10
19.17394942464184
 20
4.574930235556553
 10
19.19289449080619
 20
4.572402938971428
 10
19.21183932904221
 20
4.569871359576785
 10
19.23078391948927
 20
4.567335490401338
 10
19.24972824242107
 20
4.564795324541893
 10
19.26867227827575
 20
4.562250855162007
 10
19.28761600768597
 20
4.55970207549064
 10
19.30655941150908
 20
4.557148978820813
 10
19.32550247085716
 20
4.554591558508275
 10
19.34444516712717
 20
4.552029807970148
 10
19.36338748203107
 20
4.549463720683593
 10
19.38232939762588
 20
4.54689329018447
 10
19.40127089634387
 20
4.544318510065986
 10
19.42021196102256
 20
4.541739373977359
 10
19.43915257493493
 20
4.539155875622482
 10
19.45809272181949
 20
4.536568008758561
 10
19.47703238591038
 20
4.533975767194801
 10
19.49597155196746
 20
4.531379144791038
 10
19.51491020530653
 20
4.528778135456413
 10
19.53384833182928
 20
4.526172733148018
 10
19.55278591805351
 20
4.523562931869568
 10
19.57172295114321
 20
4.520948725670045
 10
19.59065941893866
 20
4.518330108642365
 10
19.60959530998654
 20
4.515707074922028
 10
19.62853061357007
 20
4.513079618685788
 10
19.64746531973909
 20
4.510447734150292
 10
19.66639941934015
 20
4.507811415570761
 10
19.68533290404668
 20
4.505170657239625
 10
19.70426576638904
 20
4.502525453485199
 10
19.72319799978469
 20
4.49987579867033
 10
19.74212959856821
 20
4.497221687191056
 10
19.76106055802152
 20
4.494563113475271
 10
19.77999087440389
 20
4.491900071981372
 10
19.79892054498213
 20
4.489232557196926
 10
19.81784956806064
 20
4.486560563637326
 10
19.83677794301154
 20
4.483884085844438
 10
19.85570567030481
 20
4.48120311838528
 10
19.87463275153834
 20
4.47851765585066
 10
19.89355918946809
 20
4.475827692853843
 10
19.91248498803819
 20
4.473133224029204
 10
19.931410152411
 20
4.470434244030896
 10
19.95033468899731
 20
4.467730747531498
 10
19.96925860548637
 20
4.46502272922067
 10
19.98818191087606
 20
4.462310183803825
 10
20.0071046149618
 20
4.459593106133262
 10
20.02602672592264
 20
4.456871491685887
 10
20.04494825103024
 20
4.454145336170074
 10
20.06386919716758
 20
4.451414635367203
 10
20.08278957083373
 20
4.448679385134184
 10
20.10170937814875
 20
4.445939581405975
 10
20.12062862485842
 20
4.443195220198098
 10
20.13954731633916
 20
4.440446297609176
 10
20.15846545760277
 20
4.437692809823443
 10
20.1773830533013
 20
4.434934753113271
 10
20.19630010773182
 20
4.432172123841695
 10
20.21521662484131
 20
4.429404918464936
 10
20.2341326082314
 20
4.426633133534918
 10
20.25304806116326
 20
4.423856765701795
 10
20.27196298656238
 20
4.421075811716478
 10
20.2908773870234
 20
4.418290268433151
 10
20.30979126481494
 20
4.415500132811793
 10
20.32870462188441
 20
4.412705401920708
 10
20.3476174598628
 20
4.409906072939039
 10
20.36652978006957
 20
4.4071021431593
 10
20.38544158351743
 20
4.404293609989893
 10
20.40435287091713
 20
4.401480470957629
 10
20.42326364268234
 20
4.398662723710259
 10
20.44217389893443
 20
4.395840366018988
 10
20.46108363950732
 20
4.393013395781001
 10
20.47999286395224
 20
4.390181811021988
 10
20.49890157154264
 20
4.387345609898662
 10
20.51780976127893
 20
4.384504790701289
 10
20.53671743189334
 20
4.381659351856204
 10
20.55562458185475
 20
4.378809291928337
 10
20.57453120937346
 20
4.375954609623732
 10
20.59343731240607
 20
4.373095303792077
 10
20.61234288866027
 20
4.370231373429218
 10
20.63124793559965
 20
4.367362817679693
 10
20.65015245044854
 20
4.364489635839245
 10
20.66905643019681
 20
4.361611827357343
 10
20.68795987160473
 20
4.358729391839717
 10
20.70686277120775
 20
4.35584232905087
 10
20.72576512532132
 20
4.352950638916603
 10
20.74466693004575
 20
4.350054321526546
 10
20.76356818127097
 20
4.347153377136664
 10
20.78246887468143
 20
4.344247806171797
 10
20.80136900576082
 20
4.341337609228172
 10
20.82026856979698
 20
4.338422787075931
 10
20.83916756188668
 20
4.33550334066165
 10
20.85806597694043
 20
4.332579271110865
 10
20.87696380968734
 20
4.329650579730595
 10
20.89586105467987
 20
4.326717268011861
 10
20.91475770629875
 20
4.323779337632212
 10
20.93365375875771
 20
4.320836790458247
 10
20.95254920610833
 20
4.317889628548138
 10
20.97144404224488
 20
4.314937854154153
 10
20.99033826090912
 20
4.311981469725176
 10
21.00923185569514
 20
4.309020477909234
 10
21.02812482005414
 20
4.306054881556018
 10
21.04701714729928
 20
4.303084683719404
 10
21.06590883061052
 20
4.300109887659981
 10
21.08479986303939
 20
4.297130496847566
 10
21.10369023751384
 20
4.294146514963732
 10
21.12257994684306
 20
4.291157945904331
 10
21.1414689837223
 20
4.288164793782017
 10
21.16035734073767
 20
4.285167062928762
 10
21.179245010371
 20
4.282164757898388
 10
21.19813198649644
 20
4.279157883198936
 10
21.21701828455566
 20
4.276146439622436
 10
21.23590393407489
 20
4.273130425530606
 10
21.25478896118131
 20
4.270109839997037
 10
21.27367338827033
 20
4.267084682868383
 10
21.2925572341258
 20
4.264054954743828
 10
21.31144051404017
 20
4.261020656954586
 10
21.33032323993475
 20
4.257981791543363
 10
21.34920542047982
 20
4.254938361243852
 10
21.36808706121488
 20
4.251890369460211
 10
21.38696816466882
 20
4.248837820246534
 10
21.40584873048011
 20
4.245780718286351
 10
21.42472875551703
 20
4.242719068872086
 10
21.44360823399781
 20
4.239652877884563
 10
21.46248715761084
 20
4.236582151772465
 10
21.4813655156349
 20
4.233506897531826
 10
21.50024329505929
 20
4.230427122685513
 10
21.51912048070409
 20
4.2273428352627
 10
21.53799705534028
 20
4.224254043778358
 10
21.55687299981002
 20
4.221160757212727
 10
21.57574829314675
 20
4.218062984990803
 10
21.59462291269546
 20
4.214960736961819
 10
21.61349683423282
 20
4.21185402337872
 10
21.63237003208744
 20
4.208742854877653
 10
21.65124247926001
 20
4.205627242457441
 10
21.67011414754351
 20
4.202507197459067
 10
21.68898500764339
 20
4.199382731545153
 10
21.7078550292978
 20
4.196253856679443
 10
21.72672418139776
 20
4.193120585106286
 10
21.74559243210732
 20
4.18998292933011
 10
21.76445974898382
 20
4.186840902094911
 10
21.78332609909803
 20
4.183694516363728
 10
21.80219144915437
 20
4.180543785298129
 10
21.82105576561108
 20
4.177388722237687
 10
21.83991901480045
 20
4.174229340679468
 10
21.85878116304897
 20
4.1710656542575
 10
21.87764217679754
 20
4.167897676722267
 10
21.8965020227217
 20
4.164725421920183
 10
21.91536066785175
 20
4.161548903773076
 10
21.93421807969301
 20
4.158368136257668
 10
21.95307422634596
 20
4.155183133385051
 10
21.97192907662647
 20
4.15199390918018
 10
21.990782600186
 20
4.148800477661337
 10
22.00963476763174
 20
4.145602852819632
 10
22.02848555064685
 20
4.142401048598466
 10
22.04733492211065
 20
4.139195078873026
 10
22.06618285621881
 20
4.135984957429752
 10
22.0850293286035
 20
4.132770697945836
 10
22.10387431645366
 20
4.12955231396868
 10
22.12271779863513
 20
4.126329818895403
 10
22.14155975581086
 20
4.123103225952299
 10
22.16040017056112
 20
4.119872548174332
 10
22.17923902750368
 20
4.116637798384614
 10
22.198076313414
 20
4.113398989173881
 10
22.21691201734543
 20
4.110156132879981
 10
22.23574613074941
 20
4.106909241567352
 10
22.25457864759562
 20
4.103658327006502
 10
22.27340956449225
 20
4.100403400653488
 10
22.29223888080611
 20
4.097144473629406
 10
22.31106659878289
 20
4.09388155669986
 10
22.32989272366732
 20
4.090614660254455
 10
22.34871726382334
 20
4.087343794286267
 10
22.36754023085436
 20
4.08406896837133
 10
22.38636163965729
 20
4.080790191659062
 10
22.40518149922743
 20
4.077507474393283
 10
22.42399980135044
 20
4.074220829782768
 10
22.44281653509334
 20
4.070930271604196
 10
22.4616316889379
 20
4.067635813851734
 10
22.48044525082116
 20
4.064337470733016
 10
22.49925720817588
 20
4.061035256665138
 10
22.51806754797105
 20
4.057729186270663
 10
22.53687625675242
 20
4.054419274373596
 10
22.55568332068292
 20
4.051105535995397
 10
22.57448872558322
 20
4.047787986350956
 10
22.59329245697218
 20
4.0444666408446
 10
22.61209450010736
 20
4.041141515066086
 10
22.63089484002551
 20
4.03781262478658
 10
22.64969346158307
 20
4.034479985954671
 10
22.66849034949664
 20
4.031143614692351
 10
22.68728548838351
 20
4.027803527291012
 10
22.7060788628021
 20
4.024459740207436
 10
22.72487045729252
 20
4.021112270059796
 10
22.743660256417
 20
4.017761133623646
 10
22.76244824480043
 20
4.014406347827912
 10
22.78123440717081
 20
4.011047929750888
 10
22.80001872839978
 20
4.007685896616227
 10
22.81880119354309
 20
4.004320265788945
 10
22.83758178788111
 20
4.000951054771393
 10
22.85636049695931
 20
3.997578281199274
 10
22.87513730662873
 20
3.994201962837621
 10
22.89391220308655
 20
3.990822117576794
 10
22.91268517291649
 20
3.987438763428483
 10
22.93145620312936
 20
3.984051918521684
 10
22.95022528120352
 20
3.980661601098709
 10
22.96899239512542
 20
3.977267829511168
 10
22.98775753343004
 20
3.973870622215968
 10
23.00652068524142
 20
3.97046999777131
 10
23.02528184031311
 20
3.967065974832671
 10
23.04404098906873
 20
3.963658572148811
 10
23.06279812264238
 20
3.960247808557753
 10
23.08155323291921
 20
3.956833702982791
 10
23.10030631257587
 20
3.953416274428471
 10
23.11905735512101
 20
3.949995541976591
 10
23.13780635493577
 20
3.946571524782195
 10
23.15655330731428
 20
3.943144242069561
 10
23.17529820850415
 20
3.939713713128201
 10
23.19404105574697
 20
3.93627995730885
 10
23.21278184731879
 20
3.932842994019461
 10
23.23152058257059
 20
3.929402842721198
 10
23.25025726196885
 20
3.925959522924435
 10
23.26899188713598
 20
3.922513054184736
 10
23.2877244608908
 20
3.919063456098865
 10
23.30645498728908
 20
3.915610748300768
 10
23.325183471664
 20
3.912154950457568
 10
23.34390992066669
 20
3.908696082265567
 10
23.36263434230664
 20
3.905234163446225
 10
23.38135674599225
 20
3.901769213742169
 10
23.40007714257136
 20
3.898301252913174
 10
23.4187955443716
 20
3.894830300732166
 10
23.43751196524109
 20
3.891356376981203
 10
23.45622642058875
 20
3.887879501447488
 10
23.47493892742488
 20
3.884399693919343
 10
23.49364950440164
 20
3.880916974182211
 10
23.51235817185354
 20
3.877431362014654
 10
23.53106495183793
 20
3.873942877184338
 10
23.54976986817548
 20
3.870451539444028
 10
23.56847294649072
 20
3.866957368527589
 10
23.58717418014803
 20
3.863460391219011
 10
23.60587345259688
 20
3.859960657452882
 10
23.62457079589092
 20
3.856458186692922
 10
23.64326640539656
 20
3.852952964902353
 10
23.6619605501934
 20
3.849444963152213
 10
23.68065348339031
 20
3.845934156247196
 10
23.69934535244141
 20
3.842420541351453
 10
23.71803610946224
 20
3.838904156614441
 10
23.7367610352322
 20
3.835378427495752
 10
23.75569657544384
 20
3.831810100160561
 10
23.77495197846794
 20
3.828178041887003
 10
23.79435840608207
 20
3.824513114610696
 10
23.8135683609858
 20
3.820879803235188
 10
23.83279299359505
 20
3.81723802394039
 10
23.85221628984302
 20
3.813553519817113
 10
23.8718516888504
 20
3.809824482339991
 10
23.89144479667034
 20
3.806099951770113
 10
23.9104073980182
 20
3.802492576485359
 10
23.92858485866832
 20
3.799032344617129
 10
23.94623603619632
 20
3.795670379664088
 10
23.96384407057931
 20
3.792314994200911
 10
23.98192717479619
 20
3.788867743587024
 10
24.00084942542785
 20
3.785259479675342
 10
24.0206315532575
 20
3.781486404521007
 10
24.04080557575559
 20
3.777637773269811
 10
24.06099795615185
 20
3.773784825917459
 10
24.08118490325152
 20
3.769932149196921
 10
24.10135358554966
 20
3.766082192610906
 10
24.12149358845314
 20
3.762236880398718
 10
24.1416055638867
 20
3.758395935139676
 10
24.16169279112347
 20
3.754558540531681
 10
24.18174624395256
 20
3.750726214397078
 10
24.20173745565393
 20
3.746904150184386
 10
24.22160052737784
 20
3.743104610117475
 10
24.24119256934476
 20
3.739354455798857
 10
24.26043731931607
 20
3.73566769218377
 10
24.27949759017761
 20
3.732012505387201
 10
24.29850908432306
 20
3.728362340884591
 10
24.31741568678486
 20
3.724727759100841
 10
24.33615821865947
 20
3.721120472424363
 10
24.35479403014259
 20
3.717530498742847
 10
24.37340737202895
 20
3.713942689859004
 10
24.39201911628008
 20
3.710353419932071
 10
24.41062657891107
 20
3.706763236321342
 10
24.42922675959987
 20
3.703172734142028
 10
24.44781986763805
 20
3.699581931959853
 10
24.46640506448777
 20
3.695991028138531
 10
24.48498163628695
 20
3.692400193302608
 10
24.5035489988064
 20
3.688809569920893
 10
24.52210669235581
 20
3.685219273673331
 10
24.5406543766897
 20
3.681629394817879
 10
24.55919182591339
 20
3.678039999557372
 10
24.57771892338892
 20
3.674451131406393
 10
24.59623565664106
 20
3.670862812558151
 10
24.61474211226322
 20
3.667275045251341
 10
24.63323847082344
 20
3.663687813137028
 10
24.65172500177034
 20
3.660101082645506
 10
24.67020205833908
 20
3.656514804353176
 10
24.68867007245732
 20
3.652928914349412
 10
24.70712954965114
 20
3.649343335603439
 10
24.72558106395107
 20
3.645757979331196
 10
24.744025252798
 20
3.642172746362216
 10
24.76246281194915
 20
3.638587528506484
 10
24.78089449038368
 20
3.635002209921336
 10
24.79932108061031
 20
3.631416668842621
 10
24.81774339454358
 20
3.627830781409363
 10
24.8361622573306
 20
3.624244424537417
 10
24.85457850140909
 20
3.620657477351408
 10
24.87299295851897
 20
3.617069822578323
 10
24.89140645171432
 20
3.613481347941091
 10
24.90981978737506
 20
3.609891947552172
 10
24.92823374721878
 20
3.606301523307142
 10
24.94664908031251
 20
3.602709986278274
 10
24.96506649508452
 20
3.599117258108134
 10
24.98348665133609
 20
3.595523272403153
 10
25.00191015225333
 20
3.591927976127221
 10
25.02033753641889
 20
3.588331330995273
 10
25.03876926982387
 20
3.584733314866866
 10
25.05720573787947
 20
3.581133923139776
 10
25.07564601808492
 20
3.577533408315206
 10
25.09400297475004
 20
3.573948863428933
 10
25.11208761926813
 20
3.570417272323191
 10
25.1297775285307
 20
3.566962610487334
 10
25.14702227268191
 20
3.563594785309427
 10
25.16383178650154
 20
3.56031190803166
 10
25.18026474078786
 20
3.557102565705735
 10
25.19641691374045
 20
3.553948093148276
 10
25.21240956234313
 20
3.550824844896232
 10
25.22837779374679
 20
3.547706467162268
 10
25.24445893665231
 20
3.544566169790173
 10
25.26078091269333
 20
3.541378998210259
 10
25.2774506078193
 20
3.538124105394763
 10
25.29454224367815
 20
3.534787023813251
 10
25.31208574899932
 20
3.531361937388011
 10
25.33005513097654
 20
3.527853953449457
 10
25.34835684665074
 20
3.524281374691538
 10
25.36681968709741
 20
3.520677675774308
 10
25.38529649119908
 20
3.517071645647905
 10
25.4037787086876
 20
3.513465015012684
 10
25.42227163212191
 20
3.509856811599898
 10
25.44077984391797
 20
3.506246201295853
 10
25.45930724676626
 20
3.502632482236541
 10
25.47785709404911
 20
3.499015078902273
 10
25.49643202025823
 20
3.495393536212328
 10
25.5150340714121
 20
3.49176751361958
 10
25.5336647354734
 20
3.488136779205139
 10
25.55232497276646
 20
3.484501203772988
 10
25.57101524639466
 20
3.480860754944618
 10
25.58973555265793
 20
3.477215491253668
 10
25.6084854514701
 20
3.473565556240567
 10
25.6272640967764
 20
3.469911172547156
 10
25.64607026697085
 20
3.466252636011341
 10
25.66490239531372
 20
3.462590309761723
 10
25.68375860034896
 20
3.458924618312236
 10
25.70263671632161
 20
3.455256041656786
 10
25.72153432359526
 20
3.451585109363881
 10
25.74044877906948
 20
3.447912394671278
 10
25.75937724659723
 20
3.44423850858062
 10
25.77831672740232
 20
3.440564093952062
 10
25.79726409049684
 20
3.436889819598917
 10
25.81621610309857
 20
3.433216374382298
 10
25.83516946104844
 20
3.429544461305741
 10
25.85412081922796
 20
3.425874791609853
 10
25.87306682197663
 20
3.42220807886695
 10
25.89200413350939
 20
3.418545033075683
 10
25.91092946833406
 20
3.414886354755688
 10
25.92983962166878
 20
3.411232729042221
 10
25.9487314998594
 20
3.407584819780783
 10
25.96760215079696
 20
3.403943263621773
 10
25.98644879433511
 20
3.400308664115118
 10
26.00526885270751
 20
3.396681585804909
 10
26.02405998094534
 20
3.393062548324043
 10
26.04282009729463
 20
3.389452020488852
 10
26.06154741363379
 20
3.385850414393752
 10
26.08024046589099
 20
3.382258079505866
 10
26.09889814446159
 20
3.378675296759678
 10
26.11751972462561
 20
3.375102272651653
 10
26.13610489696514
 20
3.371539133334886
 10
26.15465379778175
 20
3.367985918713736
 10
26.17316703951398
 20
3.36444257653846
 10
26.19164574115472
 20
3.360908956499856
 10
26.21009155866866
 20
3.357384804323895
 10
26.22850671540975
 20
3.353869755866361
 10
26.24689403253861
 20
3.350363331207488
 10
26.26525695943992
 20
3.346864928746598
 10
26.28359960413995
 20
3.343373819296731
 10
26.30192676372393
 20
3.339889140179298
 10
26.32024395477816
 20
3.336409889314008
 10
26.32288595483627
 20
3.335913048484501
 10
26.32552165443439
 20
3.335426820746023
 10
26.32814848357064
 20
3.334951641169245
 10
26.33076471976271
 20
3.334487819185635
 10
26.33336938517304
 20
3.334035554379692
 10
26.33596214375951
 20
3.333594952276356
 10
26.33854319842618
 20
3.333166040128443
 10
26.34111318817399
 20
3.332748782704064
 10
26.34367308525145
 20
3.332343098074042
 10
26.34622409230535
 20
3.33194887339934
 10
26.34876753953151
 20
3.331565980718479
 10
26.35130478182545
 20
3.33119429273497
 10
26.35383709593313
 20
3.33083369860472
 10
26.35636557760158
 20
3.330484119723471
 10
26.35889103872977
 20
3.330145525514216
 10
26.36141390451914
 20
3.329817949214613
 10
26.36393411062443
 20
3.329501503664426
 10
26.36645100030434
 20
3.329196397092926
 10
26.36896322157225
 20
3.328902948906335
 10
26.37146862434695
 20
3.328621605475228
 10
26.3739642214156
 20
3.328352938731086
 10
26.37644727576645
 20
3.328097377912508
 10
26.37891595320427
 20
3.327855155899703
 10
26.38136884430906
 20
3.327626476054931
 10
26.38380490101748
 20
3.3274115203934
 10
26.38622339025041
 20
3.327210452536779
 10
26.38862384754045
 20
3.327023420666709
 10
26.39100603065943
 20
3.326850560478306
 10
26.39336987324588
 20
3.326691998133667
 10
26.39571543843259
 20
3.326547853215388
 10
26.39804287247411
 20
3.326418241680061
 10
26.40035235837416
 20
3.326303278811788
 10
26.40264406951332
 20
3.326203082175691
 10
26.40491812327639
 20
3.326117774571413
 10
26.40717453467992
 20
3.326047486986636
 10
26.4094131699998
 20
3.32599236155058
 10
26.41163370039864
 20
3.325952554487513
 10
26.41383555555341
 20
3.325928239070266
 10
26.41601787728283
 20
3.325919608573733
 10
26.41817947317496
 20
3.325926879228382
 10
26.42031879308041
 20
3.325950275358598
 10
26.42243421513518
 20
3.325989905100738
 10
26.42452436577521
 20
3.326045828970476
 10
26.42658811432355
 20
3.326118124407325
 10
26.4286245449792
 20
3.326206883941498
 10
26.43063292901563
 20
3.326312212932886
 10
26.43261269697934
 20
3.326434227310004
 10
26.43456341088841
 20
3.326573051308975
 10
26.43648473643106
 20
3.326728815212478
 10
26.43837641516422
 20
3.326901653088721
 10
26.44023823671203
 20
3.327091700530396
 10
26.44207001096446
 20
3.327299092393654
 10
26.44387154027585
 20
3.327523960537059
 10
26.44564259166343
 20
3.327766431560561
 10
26.44738286900591
 20
3.328026624544447
 10
26.44909198524198
 20
3.328304648788318
 10
26.45076943456896
 20
3.328600601550048
 10
26.45241456464126
 20
3.328914565784745
 10
26.454026548769
 20
3.329246607883716
 10
26.45560440302178
 20
3.329596781639683
 10
26.45714744676091
 20
3.329965181120194
 10
26.4586551955647
 20
3.330351889174647
 10
26.46012708925205
 20
3.330756932730313
 10
26.46156250275224
 20
3.331180289542969
 10
26.46296076167225
 20
3.331621895691011
 10
26.464321157864
 20
3.332081653069526
 10
26.46564296499166
 20
3.33255943688439
 10
26.46692545409898
 20
3.333055103146366
 10
26.46816790917658
 20
3.333568496165186
 10
26.4693696427292
 20
3.33409945604365
 10
26.47053001134307
 20
3.334647826171714
 10
26.47164843125314
 20
3.335213460720577
 10
26.47272439391044
 20
3.335796232136785
 10
26.47375748154927
 20
3.33639603863631
 10
26.47474738275466
 20
3.337012811698647
 10
26.47569390802954
 20
3.337646523560911
 10
26.47659700536205
 20
3.338297194711915
 10
26.47745677348885
 20
3.338964900915355
 10
26.478273296808
 20
3.339649730457068
 10
26.47904642486318
 20
3.340351666018201
 10
26.47977594315857
 20
3.341070583254522
 10
26.48046160464887
 20
3.341806267584136
 10
26.48110314013412
 20
3.342558428611832
 10
26.48170026865459
 20
3.343326714553421
 10
26.48225270788567
 20
3.344110726660091
 10
26.48276018453261
 20
3.344910033642736
 10
26.48322244472555
 20
3.345724186096305
 10
26.48363926441424
 20
3.346552730924151
 10
26.48401045976296
 20
3.347395225762366
 10
26.48433589754539
 20
3.348251253404129
 10
26.48461550553943
 20
3.349120436224048
 10
26.4848492829221
 20
3.350002450602506
 10
26.48503731066437
 20
3.35089704135
 10
26.48517976192604
 20
3.351804036131482
 10
26.4852771022941
 20
3.352725156356981
 10
26.9503594328032
 20
8.202450879511616
 42
0.3461471464418153
  0
LWPOLYLINE
  5
29BF6
330
1F
100
AcDbEntity
  8
NOCUT
100
AcDbPolyline
 90
       11
 70
     1
 43
0.0
 10
23.64706733000788
 20
8.744232590366241
 42
0.043660942908512
 10
18.43762199999997
 20
9.200000000000006
 10
14.71330499999996
 20
9.199999999999999
 42
0.1132370114589058
 10
13.84152521129183
 20
9.0
 10
-0.0000000000000284
 20
9.0
 10
-0.0000000000000284
 20
0.0
 10
26.44999999999996
 20
0.0
 10
26.44999999999996
 20
7.746539999999998
 42
0.3639702342662023
 10
25.95418890660012
 20
8.337424651807317
 10
25.95418899999996
 20
8.337424999999999
 10
23.64706799999996
 20
8.744233000000001
  0
MTEXT
  5
29C90
330
1F
100
AcDbEntity
  8
SK6
100
AcDbMText
 10
-21.90646721085699
 20
-28.10739346325993
 30
0.0
 40
3.5
 41
49.98568165846803
 71
     1
 72
     1
  1
12L8G020027X6R00
  7
MM_STANDARD
 73
     1
 44
1.0
1001
ACAD
1000
MTEXTBEGIN
1070
    73
1070
     1
1070
    44
1040
1.0
1070
    74
1070
     0
1000
MTEXTEND
  0
ENDSEC
  0
SECTION
  2
OBJECTS
  0
DICTIONARY
  5
C
330
0
100
AcDbDictionary
281
     1
  3
ACAD_2007HEADERVARS_RT
350
29C95
  3
ACAD_CIP_PREVIOUS_PRODUCT_INFO
350
741
  3
ACAD_COLOR
350
6C
  3
ACAD_DETAILVIEWSTYLE
350
8E4
  3
ACAD_GROUP
350
D
  3
ACAD_IMAGE_VARS
350
959
  3
ACAD_LAYOUT
350
1A
  3
ACAD_MATERIAL
350
6B
  3
ACAD_MLEADERSTYLE
350
43C
  3
ACAD_MLINESTYLE
350
17
  3
ACAD_PLOTSETTINGS
350
19
  3
ACAD_PLOTSTYLENAME
350
E
  3
ACAD_SCALELIST
350
99
  3
ACAD_SECTIONVIEWSTYLE
350
8E2
  3
ACAD_TABLESTYLE
350
92
  3
ACAD_VISUALSTYLE
350
3F2
  3
ACDB_RECOMPOSE_DATA
350
29C93
  3
ACDBHEADERROUNDTRIPXREC
350
29B9E
  3
AcDbVariableDictionary
350
59
  3
ACMDICTIONARY
350
76D
  3
AEC_PROPERTY_SET_DEFS
350
5CF
  3
AMG
350
743
  3
AMGSNAPSETTINGS
350
7F6
  3
APPDATA
350
958
  3
ASE_INDEX_DICTIONARY
350
8C6
  3
DWGPROPS
350
29C94
  0
DICTIONARY
  5
29B67
330
2
100
AcDbDictionary
280
     1
281
     1
  3
ACAD_LAYERFILTERS
360
6C6
  3
ACAD_LAYERSTATES
360
17C7
  3
ACLYDICTIONARY
360
6C5
  0
DICTIONARY
  5
29B5E
330
10
100
AcDbDictionary
280
     1
281
     1
  3
ADSK_XREC_LAYER_RECONCILED
360
904
  0
DICTIONARY
  5
29B5F
330
23
100
AcDbDictionary
280
     1
281
     1
  3
ADSK_XREC_LAYER_RECONCILED
360
905
  0
DICTIONARY
  5
29B60
330
25
100
AcDbDictionary
280
     1
281
     1
  3
ADSK_XREC_LAYER_RECONCILED
360
907
  0
DICTIONARY
  5
29B61
330
173A
100
AcDbDictionary
280
     1
281
     1
  3
ADSK_XREC_LAYER_RECONCILED
360
908
  0
DICTIONARY
  5
29B62
330
2A
100
AcDbDictionary
280
     1
281
     1
  3
ADSK_XREC_LAYER_RECONCILED
360
90B
  0
DICTIONARY
  5
29B63
330
2E
100
AcDbDictionary
280
     1
281
     1
  3
ADSK_XREC_LAYER_RECONCILED
360
90E
  0
DICTIONARY
  5
29B64
330
375
100
AcDbDictionary
280
     1
281
     1
  3
ADSK_XREC_LAYER_RECONCILED
360
90F
  0
DICTIONARY
  5
29B65
330
376
100
AcDbDictionary
280
     1
281
     1
  3
ADSK_XREC_LAYER_RECONCILED
360
910
  0
DICTIONARY
  5
29B66
330
49B
100
AcDbDictionary
280
     1
281
     1
  3
ADSK_XREC_LAYER_RECONCILED
360
918
  0
DICTIONARY
  5
29B9B
330
1F
100
AcDbDictionary
280
     1
281
     1
  3
ACAD_SORTENTS
360
29B9C
  0
DICTIONARY
  5
29C95
102
{ACAD_REACTORS
330
C
102
}
330
C
100
AcDbDictionary
281
     1
  3
DIMARCSYM
350
29C96
  3
DIMLTEX1
350
29C98
  3
DIMLTEX2
350
29C99
  3
DIMLTYPE
350
29C97
  0
XRECORD
  5
741
102
{ACAD_REACTORS
330
C
102
}
330
C
100
AcDbXrecord
280
     1
300
ACDLT
300
2015
300
ACDLT_F_S
  0
DICTIONARY
  5
6C
102
{ACAD_REACTORS
330
C
102
}
330
C
100
AcDbDictionary
281
     1
  0
DICTIONARY
  5
8E4
102
{ACAD_REACTORS
330
C
102
}
330
C
100
AcDbDictionary
281
     1
  3
Metric50
350
29BDA
  0
DICTIONARY
  5
D
102
{ACAD_REACTORS
330
C
102
}
330
C
100
AcDbDictionary
281
     1
  0
RASTERVARIABLES
  5
959
102
{ACAD_REACTORS
330
C
102
}
330
C
100
AcDbRasterVariables
 90
        0
 70
     1
 71
     1
 72
     1
  0
DICTIONARY
  5
1A
102
{ACAD_REACTORS
330
C
102
}
330
C
100
AcDbDictionary
281
     1
  3
Layout1
350
74
  3
Model
350
22
  0
DICTIONARY
  5
6B
102
{ACAD_REACTORS
330
C
102
}
330
C
100
AcDbDictionary
281
     1
  3
ByBlock
350
29BAF
  3
ByLayer
350
29BA7
  3
Global
350
29BB7
  0
DICTIONARY
  5
43C
102
{ACAD_REACTORS
330
C
102
}
330
C
100
AcDbDictionary
281
     1
  3
Standard
350
29BD8
  0
DICTIONARY
  5
17
102
{ACAD_REACTORS
330
C
102
}
330
C
100
AcDbDictionary
281
     1
  3
Standard
350
18
  0
DICTIONARY
  5
19
102
{ACAD_REACTORS
330
C
102
}
330
C
100
AcDbDictionary
281
     1
  0
ACDBDICTIONARYWDFLT
  5
E
102
{ACAD_REACTORS
330
C
102
}
330
C
100
AcDbDictionary
281
     1
  3
Normal
350
F
100
AcDbDictionaryWithDefault
340
F
  0
DICTIONARY
  5
99
102
{ACAD_REACTORS
330
C
102
}
330
C
100
AcDbDictionary
281
     1
  3
A0
350
9A
  3
A1
350
9B
  3
A2
350
9C
  3
A3
350
9D
  3
A4
350
9E
  3
A5
350
9F
  3
A6
350
A0
  3
A7
350
A1
  3
A8
350
A2
  3
A9
350
A3
  3
B0
350
A4
  3
B1
350
A5
  3
B2
350
A6
  3
B3
350
A7
  3
B4
350
A8
  3
B5
350
A9
  3
B6
350
AA
  3
B7
350
AB
  3
B8
350
AC
  3
B9
350
AD
  3
C0
350
AE
  3
C1
350
AF
  3
C2
350
B0
  3
C3
350
B1
  3
C4
350
B2
  3
C5
350
B3
  3
C6
350
B4
  3
C7
350
B5
  3
C8
350
B6
  3
C9
350
B7
  3
D0
350
B8
  3
D1
350
B9
  3
D2
350
BA
  0
DICTIONARY
  5
8E2
102
{ACAD_REACTORS
330
C
102
}
330
C
100
AcDbDictionary
281
     1
  3
Metric50
350
29BD9
  0
DICTIONARY
  5
92
102
{ACAD_REACTORS
330
C
102
}
330
C
100
AcDbDictionary
281
     1
  3
Standard
350
29BD7
  0
DICTIONARY
  5
3F2
102
{ACAD_REACTORS
330
C
102
}
330
C
100
AcDbDictionary
281
     1
  3
2dWireframe
350
29BC4
  3
Basic
350
29BC3
  3
Brighten
350
29BCA
  3
ColorChange
350
29BCE
  3
Conceptual
350
29BC7
  3
Dim
350
29BC9
  3
EdgeColorOff
350
29BD6
  3
Facepattern
350
29BCD
  3
Flat
350
29BBF
  3
FlatWithEdges
350
29BC0
  3
Gouraud
350
29BC1
  3
GouraudWithEdges
350
29BC2
  3
Hidden
350
29BC6
  3
JitterOff
350
29BD4
  3
Linepattern
350
29BCC
  3
OverhangOff
350
29BD5
  3
Realistic
350
29BC8
  3
Shaded
350
29BD3
  3
Shaded with edges
350
29BD2
  3
Shades of Gray
350
29BCF
  3
Sketchy
350
29BD0
  3
Thicken
350
29BCB
  3
Wireframe
350
29BC5
  3
X-Ray
350
29BD1
  0
XRECORD
  5
29C93
102
{ACAD_REACTORS
330
C
102
}
330
C
100
AcDbXrecord
280
     1
 90
        1
330
29BD7
  0
DICTIONARY
  5
29B9E
102
{ACAD_REACTORS
330
C
102
}
330
C
100
AcDbDictionary
281
     1
  3
COLORDICT
350
29B9F
  3
MATERIALDICT
350
29BA0
  0
DICTIONARY
  5
59
102
{ACAD_REACTORS
330
C
102
}
330
C
100
AcDbDictionary
281
     1
  3
CANNOSCALE
350
29B9D
  3
CMLEADERSTYLE
350
29BFF
  3
CTABLESTYLE
350
98
  3
CVIEWDETAILSTYLE
350
8FB
  3
CVIEWSECTIONSTYLE
350
8FC
  3
DIMASSOC
350
359
  3
HALOGAP
350
AF7
  3
HIDETEXT
350
358
  3
INDEXCTL
350
9BE
  3
LAYEREVAL
350
7AE
  3
LAYERNOTIFY
350
7AF
  3
LIGHTINGUNITS
350
44A
  3
MSLTSCALE
350
448
  3
SORTENTS
350
9BD
  3
XCLIPFRAME
350
29C91
  0
DICTIONARY
  5
76D
102
{ACAD_REACTORS
330
C
102
}
330
C
100
AcDbDictionary
281
     1
  3
ACMSTDDICTIONARY
350
76F
  0
DICTIONARY
  5
5CF
102
{ACAD_REACTORS
330
C
102
}
330
C
100
AcDbDictionary
281
     1
  0
DICTIONARY
  5
743
102
{ACAD_REACTORS
330
C
102
}
330
C
100
AcDbDictionary
281
     1
  3
ACMGSETTINGS
350
744
  0
DICTIONARY
  5
7F6
102
{ACAD_REACTORS
330
C
102
}
330
C
100
AcDbDictionary
281
     1
  0
DICTIONARY
  5
958
102
{ACAD_REACTORS
330
C
102
}
330
C
100
AcDbDictionary
281
     1
  0
DICTIONARY
  5
8C6
102
{ACAD_REACTORS
330
C
102
}
330
C
100
AcDbDictionary
281
     1
  3
ASEBLOCKHIERARCHYINDEXRECORD
350
8C7
  0
XRECORD
  5
29C94
102
{ACAD_REACTORS
330
C
102
}
330
C
100
AcDbXrecord
280
     1
  1
DWGPROPS COOKIE
  2

  3

  4

  6

  7

  8
ruebsamenm
  9

300
=
301
=
302
=
303
=
304
=
305
=
306
=
307
=
308
=
309
=
 40
16384.7350621875
 41
2453353.800459155
 42
2460185.585683264
  1

 90
        0
  0
DICTIONARY
  5
6C6
102
{ACAD_REACTORS
330
29B67
102
}
330
29B67
100
AcDbDictionary
281
     1
  0
DICTIONARY
  5
17C7
102
{ACAD_REACTORS
330
29B67
102
}
330
29B67
100
AcDbDictionary
281
     1
  0
DICTIONARY
  5
6C5
102
{ACAD_REACTORS
330
29B67
102
}
330
29B67
100
AcDbDictionary
281
     1
  0
XRECORD
  5
904
102
{ACAD_REACTORS
330
29B5E
102
}
330
29B5E
100
AcDbXrecord
280
     1
290
     1
  0
XRECORD
  5
905
102
{ACAD_REACTORS
330
29B5F
102
}
330
29B5F
100
AcDbXrecord
280
     1
290
     1
  0
XRECORD
  5
907
102
{ACAD_REACTORS
330
29B60
102
}
330
29B60
100
AcDbXrecord
280
     1
290
     1
  0
XRECORD
  5
908
102
{ACAD_REACTORS
330
29B61
102
}
330
29B61
100
AcDbXrecord
280
     1
290
     1
  0
XRECORD
  5
90B
102
{ACAD_REACTORS
330
29B62
102
}
330
29B62
100
AcDbXrecord
280
     1
290
     1
  0
XRECORD
  5
90E
102
{ACAD_REACTORS
330
29B63
102
}
330
29B63
100
AcDbXrecord
280
     1
290
     1
  0
XRECORD
  5
90F
102
{ACAD_REACTORS
330
29B64
102
}
330
29B64
100
AcDbXrecord
280
     1
290
     1
  0
XRECORD
  5
910
102
{ACAD_REACTORS
330
29B65
102
}
330
29B65
100
AcDbXrecord
280
     1
290
     1
  0
XRECORD
  5
918
102
{ACAD_REACTORS
330
29B66
102
}
330
29B66
100
AcDbXrecord
280
     1
290
     1
  0
SORTENTSTABLE
  5
29B9C
102
{ACAD_REACTORS
330
29B9B
102
}
330
29B9B
100
AcDbSortentsTable
330
1F
331
E438
  5
C652
331
12C93
  5
12C2B
331
12895
  5
12C8B
331
D8A3
  5
E32B
331
1D913
  5
1D920
331
CA16
  5
DAF5
331
DCBF
  5
E537
331
12A19
  5
1289D
331
DECF
  5
E6D2
331
12C16
  5
12BA1
331
12B40
  5
12AA7
331
1C632
  5
1C1E5
331
E537
  5
C182
331
1D6D5
  5
1D6E2
331
C930
  5
D590
331
29BF6
  5
291C1
331
C2E1
  5
C36E
331
1299A
  5
12895
331
C36E
  5
C85B
331
E20E
  5
C42D
331
1C54E
  5
1C640
331
1DA40
  5
1D6D5
331
E6D2
  5
CB25
331
12AA6
  5
12A19
331
CA12
  5
DAF2
331
1C851
  5
1C632
331
1C484
  5
1C740
331
C2E4
  5
C377
331
E441
  5
C65C
331
12AAA
  5
12A1D
331
1C740
  5
1C476
331
1299D
  5
1289C
331
DCBB
  5
E533
331
1C640
  5
1C1E8
331
12C8B
  5
12C16
331
E328
  5
C533
331
12C92
  5
12C17
331
E533
  5
C178
331
12BA1
  5
12B2B
331
E32B
  5
C536
331
C79F
  5
CC4B
331
CC50
  5
E105
331
C7A3
  5
CC4F
331
1C6C7
  5
1C3A1
331
1C74E
  5
1C484
331
12B2B
  5
12AA6
331
1D920
  5
1DA40
331
CC4F
  5
E102
331
1289D
  5
12C93
331
12BB6
  5
12B41
331
1C850
  5
1C54F
331
1C393
  5
1C850
331
C377
  5
C863
331
C65C
  5
CA17
331
E217
  5
C437
331
1D6E2
  5
1D913
331
DED7
  5
E6D6
331
C935
  5
D8A3
331
C533
  5
C935
331
C652
  5
CA16
331
D590
  5
E217
331
C863
  5
D588
331
C255
  5
C2E1
331
1C1E5
  5
1C74E
331
1C6B9
  5
1C393
331
1C7C7
  5
1C54E
331
C536
  5
CA12
331
CA17
  5
DCBB
331
12A1A
  5
1299A
331
12C2B
  5
12BB6
331
CC4B
  5
DED7
331
C42D
  5
C930
331
C258
  5
C2E4
331
29BED
  5
298BB
331
12C17
  5
12BB5
331
CB29
  5
DECF
331
12A1D
  5
1299D
331
12B41
  5
12AAA
331
E102
  5
C79F
331
DAF2
  5
E438
331
C437
  5
C934
331
1289C
  5
12C92
331
12BB5
  5
12B40
331
C182
  5
C258
331
1C54F
  5
1C6B9
331
CB25
  5
DCBF
331
1C3A1
  5
1C851
331
12AA7
  5
12A1A
331
1C476
  5
1C6C7
331
C934
  5
D89C
331
1C1E8
  5
1C7C7
331
C178
  5
C255
331
DAF5
  5
E441
331
D588
  5
E20E
331
E105
  5
C7A3
331
C85B
  5
CC50
331
D89C
  5
E328
331
E6D6
  5
CB29
  0
XRECORD
  5
29C96
102
{ACAD_REACTORS
330
29C95
102
}
330
29C95
100
AcDbXrecord
280
     1
 70
     1
  0
XRECORD
  5
29C98
102
{ACAD_REACTORS
330
29C95
102
}
330
29C95
100
AcDbXrecord
280
     1
340
14
  0
XRECORD
  5
29C99
102
{ACAD_REACTORS
330
29C95
102
}
330
29C95
100
AcDbXrecord
280
     1
340
14
  0
XRECORD
  5
29C97
102
{ACAD_REACTORS
330
29C95
102
}
330
29C95
100
AcDbXrecord
280
     1
340
14
  0
ACDBDETAILVIEWSTYLE
  5
29BDA
102
{ACAD_XDICTIONARY
360
29CD1
102
}
102
{ACAD_REACTORS
330
8E4
102
}
330
8E4
100
AcDbModelDocViewStyle
 70
     0
  3
Metric50
290
     0
100
AcDbDetailViewStyle
 70
     0
 71
     0
 90
        3
 71
     1
340
11
 40
5.0
340
0
 40
5.0
300

 40
0.0
280
     1
 71
     2
340
16
 90
       25
 71
     3
340
11
 40
5.0
 90
        0
 40
15.0
 90
        1
300
%<\AcVar ViewDetailId>% (%<\AcVar ViewScale \f "%sn">%)
 71
     4
340
16
 90
       25
340
16
 90
       25
280
     0
  0
LAYOUT
  5
74
102
{ACAD_XDICTIONARY
360
29C9C
102
}
102
{ACAD_REACTORS
330
1A
102
}
330
1A
100
AcDbPlotSettings
  1

  2
\\ADSCCNDC1\hq601xrx1
  4

  6

 40
0.0
 41
0.0
 42
0.0
 43
0.0
 44
0.0
 45
0.0
 46
0.0
 47
0.0
 48
0.0
 49
0.0
140
0.0
141
0.0
142
1.0
143
1.0
 70
   688
 72
     0
 73
     0
 74
     5
  7
monochrome.ctb
 75
    16
147
1.0
148
0.0
149
0.0
100
AcDbLayout
  1
Layout1
 70
     1
 71
     1
 10
0.0
 20
0.0
 11
12.0
 21
9.0
 12
0.0
 22
0.0
 32
0.0
 14
0.0
 24
0.0
 34
0.0
 15
0.0
 25
0.0
 35
0.0
146
0.0
 13
0.0
 23
0.0
 33
0.0
 16
1.0
 26
0.0
 36
0.0
 17
0.0
 27
1.0
 37
0.0
 76
     0
330
73
  0
LAYOUT
  5
22
102
{ACAD_XDICTIONARY
360
29C9A
102
}
102
{ACAD_REACTORS
330
1A
102
}
330
1A
100
AcDbPlotSettings
  1

  2
DWG To PDF.pc3
  4
ISO_expand_A0_(841.00_x_1189.00_MM)
  6

 40
5.793749809265137
 41
5.79376220703125
 42
10.79374980926514
 43
10.793701171875
 44
841.0
 45
1189.0
 46
-0.0000000000000213
 47
277.0515806674957
 48
0.0
 49
0.0
140
0.0
141
0.0
142
1.0
143
0.0145558200469394
 70
 11956
 72
     1
 73
     0
 74
     1
  7
monochrome.ctb
 75
     0
147
68.70104169845581
148
70.55856307424345
149
1453.505808791571
100
AcDbLayout
  1
Model
 70
     1
 71
     0
 10
-170.0
 20
-170.0
 11
519.0
 21
260.0
 12
0.0
 22
0.0
 32
0.0
 14
-72.11472452489497
 24
-49.49375433501508
 34
0.0
 15
73.14495271972269
 25
54.28162022488457
 35
0.0
146
0.0
 13
0.0
 23
0.0
 33
0.0
 16
1.0
 26
0.0
 36
0.0
 17
0.0
 27
1.0
 37
0.0
 76
     0
330
1F
331
97
  0
MATERIAL
  5
29BAF
102
{ACAD_XDICTIONARY
360
29BB0
102
}
102
{ACAD_REACTORS
330
6B
102
}
330
6B
100
AcDbMaterial
  1
ByBlock
 72
     0
 43
0.0008202099737533
 43
0.0
 43
0.0
 43
0.0
 43
0.0
 43
0.0008202099737533
 43
0.0
 43
0.0
 43
0.0
 43
0.0
 43
1.0
 43
0.0
 43
0.0
 43
0.0
 43
0.0
 43
1.0
 77
     0
 47
0.0008202099737533
 47
0.0
 47
0.0
 47
0.0
 47
0.0
 47
0.0008202099737533
 47
0.0
 47
0.0
 47
0.0
 47
0.0
 47
1.0
 47
0.0
 47
0.0
 47
0.0
 47
0.0
 47
1.0
171
     0
 49
0.0008202099737533
 49
0.0
 49
0.0
 49
0.0
 49
0.0
 49
0.0008202099737533
 49
0.0
 49
0.0
 49
0.0
 49
0.0
 49
1.0
 49
0.0
 49
0.0
 49
0.0
 49
0.0
 49
1.0
175
     0
142
0.0008202099737533
142
0.0
142
0.0
142
0.0
142
0.0
142
0.0008202099737533
142
0.0
142
0.0
142
0.0
142
0.0
142
1.0
142
0.0
142
0.0
142
0.0
142
0.0
142
1.0
179
     0
144
0.0008202099737533
144
0.0
144
0.0
144
0.0
144
0.0
144
0.0008202099737533
144
0.0
144
0.0
144
0.0
144
0.0
144
1.0
144
0.0
144
0.0
144
0.0
144
0.0
144
1.0
147
0.0008202099737533
147
0.0
147
0.0
147
0.0
147
0.0
147
0.0008202099737533
147
0.0
147
0.0
147
0.0
147
0.0
147
1.0
147
0.0
147
0.0
147
0.0
147
0.0
147
1.0
  0
MATERIAL
  5
29BA7
102
{ACAD_XDICTIONARY
360
29BA8
102
}
102
{ACAD_REACTORS
330
6B
102
}
330
6B
100
AcDbMaterial
  1
ByLayer
 72
     0
 43
0.0008202099737533
 43
0.0
 43
0.0
 43
0.0
 43
0.0
 43
0.0008202099737533
 43
0.0
 43
0.0
 43
0.0
 43
0.0
 43
1.0
 43
0.0
 43
0.0
 43
0.0
 43
0.0
 43
1.0
 77
     0
 47
0.0008202099737533
 47
0.0
 47
0.0
 47
0.0
 47
0.0
 47
0.0008202099737533
 47
0.0
 47
0.0
 47
0.0
 47
0.0
 47
1.0
 47
0.0
 47
0.0
 47
0.0
 47
0.0
 47
1.0
171
     0
 49
0.0008202099737533
 49
0.0
 49
0.0
 49
0.0
 49
0.0
 49
0.0008202099737533
 49
0.0
 49
0.0
 49
0.0
 49
0.0
 49
1.0
 49
0.0
 49
0.0
 49
0.0
 49
0.0
 49
1.0
175
     0
142
0.0008202099737533
142
0.0
142
0.0
142
0.0
142
0.0
142
0.0008202099737533
142
0.0
142
0.0
142
0.0
142
0.0
142
1.0
142
0.0
142
0.0
142
0.0
142
0.0
142
1.0
179
     0
144
0.0008202099737533
144
0.0
144
0.0
144
0.0
144
0.0
144
0.0008202099737533
144
0.0
144
0.0
144
0.0
144
0.0
144
1.0
144
0.0
144
0.0
144
0.0
144
0.0
144
1.0
147
0.0008202099737533
147
0.0
147
0.0
147
0.0
147
0.0
147
0.0008202099737533
147
0.0
147
0.0
147
0.0
147
0.0
147
1.0
147
0.0
147
0.0
147
0.0
147
0.0
147
1.0
  0
MATERIAL
  5
29BB7
102
{ACAD_XDICTIONARY
360
29BB8
102
}
102
{ACAD_REACTORS
330
6B
102
}
330
6B
100
AcDbMaterial
  1
Global
 72
     0
 43
0.0008202099737533
 43
0.0
 43
0.0
 43
0.0
 43
0.0
 43
0.0008202099737533
 43
0.0
 43
0.0
 43
0.0
 43
0.0
 43
1.0
 43
0.0
 43
0.0
 43
0.0
 43
0.0
 43
1.0
 77
     0
 47
0.0008202099737533
 47
0.0
 47
0.0
 47
0.0
 47
0.0
 47
0.0008202099737533
 47
0.0
 47
0.0
 47
0.0
 47
0.0
 47
1.0
 47
0.0
 47
0.0
 47
0.0
 47
0.0
 47
1.0
171
     0
 49
0.0008202099737533
 49
0.0
 49
0.0
 49
0.0
 49
0.0
 49
0.0008202099737533
 49
0.0
 49
0.0
 49
0.0
 49
0.0
 49
1.0
 49
0.0
 49
0.0
 49
0.0
 49
0.0
 49
1.0
175
     0
142
0.0008202099737533
142
0.0
142
0.0
142
0.0
142
0.0
142
0.0008202099737533
142
0.0
142
0.0
142
0.0
142
0.0
142
1.0
142
0.0
142
0.0
142
0.0
142
0.0
142
1.0
179
     0
144
0.0008202099737533
144
0.0
144
0.0
144
0.0
144
0.0
144
0.0008202099737533
144
0.0
144
0.0
144
0.0
144
0.0
144
1.0
144
0.0
144
0.0
144
0.0
144
0.0
144
1.0
147
0.0008202099737533
147
0.0
147
0.0
147
0.0
147
0.0
147
0.0008202099737533
147
0.0
147
0.0
147
0.0
147
0.0
147
1.0
147
0.0
147
0.0
147
0.0
147
0.0
147
1.0
  0
MLEADERSTYLE
  5
29BD8
102
{ACAD_REACTORS
330
43C
102
}
330
43C
100
AcDbMLeaderStyle
170
     2
171
     1
172
     0
 90
        2
 40
0.0
 41
0.0
173
     1
 91
-1056964608
340
14
 92
       -2
290
     1
 42
2.0
291
     1
 43
0.36
  3
Standard
 44
4.0
300

342
11
174
     1
178
     6
175
     1
176
     0
 93
-1056964608
 45
4.0
292
     0
297
     0
 46
4.0
 94
-1056964608
 47
1.0
 49
1.0
140
1.0
293
     1
141
0.0
294
     1
177
     0
142
1.0
295
     0
296
     0
143
0.125
1001
ACAD_MLEADERVER
1070
     2
  0
MLINESTYLE
  5
18
102
{ACAD_REACTORS
330
17
102
}
330
17
100
AcDbMlineStyle
  2
STANDARD
 70
     0
  3

 62
     0
 51
90.0
 52
90.0
 71
     2
 49
0.5
 62
   256
  6
BYLAYER
 49
-0.5
 62
   256
  6
BYLAYER
  0
ACDBPLACEHOLDER
  5
F
102
{ACAD_REACTORS
330
E
102
}
330
E
  0
SCALE
  5
9A
102
{ACAD_REACTORS
330
99
102
}
330
99
100
AcDbScale
 70
     0
300
1:1
140
1.0
141
1.0
290
     1
  0
SCALE
  5
9B
102
{ACAD_REACTORS
330
99
102
}
330
99
100
AcDbScale
 70
     0
300
1:2
140
1.0
141
2.0
290
     0
  0
SCALE
  5
9C
102
{ACAD_REACTORS
330
99
102
}
330
99
100
AcDbScale
 70
     0
300
1:4
140
1.0
141
4.0
290
     0
  0
SCALE
  5
9D
102
{ACAD_REACTORS
330
99
102
}
330
99
100
AcDbScale
 70
     0
300
1:5
140
1.0
141
5.0
290
     0
  0
SCALE
  5
9E
102
{ACAD_REACTORS
330
99
102
}
330
99
100
AcDbScale
 70
     0
300
1:8
140
1.0
141
8.0
290
     0
  0
SCALE
  5
9F
102
{ACAD_REACTORS
330
99
102
}
330
99
100
AcDbScale
 70
     0
300
1:10
140
1.0
141
10.0
290
     0
  0
SCALE
  5
A0
102
{ACAD_REACTORS
330
99
102
}
330
99
100
AcDbScale
 70
     0
300
1:16
140
1.0
141
16.0
290
     0
  0
SCALE
  5
A1
102
{ACAD_REACTORS
330
99
102
}
330
99
100
AcDbScale
 70
     0
300
1:20
140
1.0
141
20.0
290
     0
  0
SCALE
  5
A2
102
{ACAD_REACTORS
330
99
102
}
330
99
100
AcDbScale
 70
     0
300
1:30
140
1.0
141
30.0
290
     0
  0
SCALE
  5
A3
102
{ACAD_REACTORS
330
99
102
}
330
99
100
AcDbScale
 70
     0
300
1:40
140
1.0
141
40.0
290
     0
  0
SCALE
  5
A4
102
{ACAD_REACTORS
330
99
102
}
330
99
100
AcDbScale
 70
     0
300
1:50
140
1.0
141
50.0
290
     0
  0
SCALE
  5
A5
102
{ACAD_REACTORS
330
99
102
}
330
99
100
AcDbScale
 70
     0
300
1:100
140
1.0
141
100.0
290
     0
  0
SCALE
  5
A6
102
{ACAD_REACTORS
330
99
102
}
330
99
100
AcDbScale
 70
     0
300
2:1
140
2.0
141
1.0
290
     0
  0
SCALE
  5
A7
102
{ACAD_REACTORS
330
99
102
}
330
99
100
AcDbScale
 70
     0
300
4:1
140
4.0
141
1.0
290
     0
  0
SCALE
  5
A8
102
{ACAD_REACTORS
330
99
102
}
330
99
100
AcDbScale
 70
     0
300
8:1
140
8.0
141
1.0
290
     0
  0
SCALE
  5
A9
102
{ACAD_REACTORS
330
99
102
}
330
99
100
AcDbScale
 70
     0
300
10:1
140
10.0
141
1.0
290
     0
  0
SCALE
  5
AA
102
{ACAD_REACTORS
330
99
102
}
330
99
100
AcDbScale
 70
     0
300
100:1
140
100.0
141
1.0
290
     0
  0
SCALE
  5
AB
102
{ACAD_REACTORS
330
99
102
}
330
99
100
AcDbScale
 70
     0
300
1/128" = 1'-0"
140
0.0078125
141
12.0
290
     0
  0
SCALE
  5
AC
102
{ACAD_REACTORS
330
99
102
}
330
99
100
AcDbScale
 70
     0
300
1/64" = 1'-0"
140
0.015625
141
12.0
290
     0
  0
SCALE
  5
AD
102
{ACAD_REACTORS
330
99
102
}
330
99
100
AcDbScale
 70
     0
300
1/32" = 1'-0"
140
0.03125
141
12.0
290
     0
  0
SCALE
  5
AE
102
{ACAD_REACTORS
330
99
102
}
330
99
100
AcDbScale
 70
     0
300
1/16" = 1'-0"
140
0.0625
141
12.0
290
     0
  0
SCALE
  5
AF
102
{ACAD_REACTORS
330
99
102
}
330
99
100
AcDbScale
 70
     0
300
3/32" = 1'-0"
140
0.09375
141
12.0
290
     0
  0
SCALE
  5
B0
102
{ACAD_REACTORS
330
99
102
}
330
99
100
AcDbScale
 70
     0
300
1/8" = 1'-0"
140
0.125
141
12.0
290
     0
  0
SCALE
  5
B1
102
{ACAD_REACTORS
330
99
102
}
330
99
100
AcDbScale
 70
     0
300
3/16" = 1'-0"
140
0.1875
141
12.0
290
     0
  0
SCALE
  5
B2
102
{ACAD_REACTORS
330
99
102
}
330
99
100
AcDbScale
 70
     0
300
1/4" = 1'-0"
140
0.25
141
12.0
290
     0
  0
SCALE
  5
B3
102
{ACAD_REACTORS
330
99
102
}
330
99
100
AcDbScale
 70
     0
300
3/8" = 1'-0"
140
0.375
141
12.0
290
     0
  0
SCALE
  5
B4
102
{ACAD_REACTORS
330
99
102
}
330
99
100
AcDbScale
 70
     0
300
1/2" = 1'-0"
140
0.5
141
12.0
290
     0
  0
SCALE
  5
B5
102
{ACAD_REACTORS
330
99
102
}
330
99
100
AcDbScale
 70
     0
300
3/4" = 1'-0"
140
0.75
141
12.0
290
     0
  0
SCALE
  5
B6
102
{ACAD_REACTORS
330
99
102
}
330
99
100
AcDbScale
 70
     0
300
1" = 1'-0"
140
1.0
141
12.0
290
     0
  0
SCALE
  5
B7
102
{ACAD_REACTORS
330
99
102
}
330
99
100
AcDbScale
 70
     0
300
1-1/2" = 1'-0"
140
1.5
141
12.0
290
     0
  0
SCALE
  5
B8
102
{ACAD_REACTORS
330
99
102
}
330
99
100
AcDbScale
 70
     0
300
3" = 1'-0"
140
3.0
141
12.0
290
     0
  0
SCALE
  5
B9
102
{ACAD_REACTORS
330
99
102
}
330
99
100
AcDbScale
 70
     0
300
6" = 1'-0"
140
6.0
141
12.0
290
     0
  0
SCALE
  5
BA
102
{ACAD_REACTORS
330
99
102
}
330
99
100
AcDbScale
 70
     0
300
1'-0" = 1'-0"
140
12.0
141
12.0
290
     0
  0
ACDBSECTIONVIEWSTYLE
  5
29BD9
102
{ACAD_XDICTIONARY
360
29CCF
102
}
102
{ACAD_REACTORS
330
8E2
102
}
330
8E2
100
AcDbModelDocViewStyle
 70
     0
  3
Metric50
290
     0
100
AcDbSectionViewStyle
 70
     0
 71
     0
 90
      102
 71
     1
340
11
 40
5.0
340
0
340
0
 40
5.0
300
I, O, Q, S, X, Z
 40
10.0
 90
        0
 40
2.5
 90
        0
 71
     2
340
16
 90
       25
340
16
 90
       50
 40
5.0
 40
2.5
 40
5.0
 71
     3
340
11
 40
5.0
 90
        0
 40
15.0
 90
        1
300
%<\AcVar ViewSectionStartId>%-%<\AcVar ViewSectionEndId>% (%<\AcVar ViewScale \f "%sn">%)
 71
     4
300
ANSI31
 40
1.0
 90
        0
290
     0
290
     0
 90
        6
 40
0.0
 40
1.570796326794896
 40
0.2617993877991494
 40
1.308996938995747
 40
-0.2617993877991494
 40
1.832595714594045
  0
TABLESTYLE
  5
29BD7
102
{ACAD_XDICTIONARY
360
29C46
102
}
102
{ACAD_REACTORS
330
92
102
}
330
92
100
AcDbTableStyle
  3
Standard
 70
     0
 71
     0
 40
1.5
 41
1.5
280
     0
281
     0
  7
Standard
140
4.5
170
     2
 62
     0
 63
     7
283
     0
274
    -2
284
     1
 64
     0
275
    -2
285
     1
 65
     0
276
    -2
286
     1
 66
     0
277
    -2
287
     1
 67
     0
278
    -2
288
     1
 68
     0
279
    -2
289
     1
 69
     0
  7
Standard
140
6.0
170
     5
 62
     0
 63
     7
283
     0
274
    -2
284
     1
 64
     0
275
    -2
285
     1
 65
     0
276
    -2
286
     1
 66
     0
277
    -2
287
     1
 67
     0
278
    -2
288
     1
 68
     0
279
    -2
289
     1
 69
     0
  7
Standard
140
4.5
170
     5
 62
     0
 63
     7
283
     0
274
    -2
284
     1
 64
     0
275
    -2
285
     1
 65
     0
276
    -2
286
     1
 66
     0
277
    -2
287
     1
 67
     0
278
    -2
288
     1
 68
     0
279
    -2
289
     1
 69
     0
  0
VISUALSTYLE
  5
29BC4
102
{ACAD_XDICTIONARY
360
29CA8
102
}
102
{ACAD_REACTORS
330
3F2
102
}
330
3F2
100
AcDbVisualStyle
  2

 70
     4
 71
     0
 72
     2
 73
     0
 90
        0
 40
-0.6
 41
-30.0
 62
     5
 63
     7
 74
     1
 91
        4
 64
     7
 65
   257
 75
     1
175
     1
 42
1.0
 92
        0
 66
   257
 43
1.0
 76
     1
 77
     6
 78
     2
 67
     7
 79
     5
170
     0
171
     0
290
     0
174
     0
 93
        1
 44
0.0
173
     0
291
     0
 45
0.0
1001
ACAD
1000
AcDbSavedByObjectVersion
1070
     0
  0
VISUALSTYLE
  5
29BC3
102
{ACAD_XDICTIONARY
360
29CA6
102
}
102
{ACAD_REACTORS
330
3F2
102
}
330
3F2
100
AcDbVisualStyle
  2

 70
     7
 71
     1
 72
     0
 73
     1
 90
        0
 40
-0.6
 41
-30.0
 62
     5
 63
     7
 74
     0
 91
        4
 64
     7
 65
   257
 75
     1
175
     1
 42
1.0
 92
        8
 66
     7
 43
1.0
 76
     1
 77
     6
 78
     2
 67
     7
 79
     5
170
     0
171
     0
290
     0
174
     0
 93
        1
 44
0.0
173
     0
291
     1
 45
0.0
1001
ACAD
1000
AcDbSavedByObjectVersion
1070
     0
  0
VISUALSTYLE
  5
29BCA
102
{ACAD_XDICTIONARY
360
29CB4
102
}
102
{ACAD_REACTORS
330
3F2
102
}
330
3F2
100
AcDbVisualStyle
  2

 70
    12
 71
     2
 72
     2
 73
     0
 90
        0
 40
-0.6
 41
-30.0
 62
     5
 63
     7
 74
     1
 91
        4
 64
     7
 65
   257
 75
     1
175
     1
 42
1.0
 92
        8
 66
     7
 43
1.0
 76
     1
 77
     6
 78
     2
 67
     7
 79
     5
170
     0
171
     0
290
     0
174
     0
 93
        1
 44
50.0
173
     0
291
     1
 45
0.0
1001
ACAD
1000
AcDbSavedByObjectVersion
1070
     0
  0
VISUALSTYLE
  5
29BCE
102
{ACAD_XDICTIONARY
360
29CBC
102
}
102
{ACAD_REACTORS
330
3F2
102
}
330
3F2
100
AcDbVisualStyle
  2

 70
    16
 71
     2
 72
     2
 73
     3
 90
        0
 40
-0.6
 41
-30.0
 62
     5
 63
     8
 74
     1
 91
        4
 64
     7
 65
   257
 75
     1
175
     1
 42
1.0
 92
        8
 66
     8
 43
1.0
 76
     1
 77
     6
 78
     2
 67
     7
 79
     5
170
     0
171
     0
290
     0
174
     0
 93
        1
 44
0.0
173
     0
291
     1
 45
0.0
1001
ACAD
1000
AcDbSavedByObjectVersion
1070
     0
  0
VISUALSTYLE
  5
29BC7
102
{ACAD_XDICTIONARY
360
29CAE
102
}
102
{ACAD_REACTORS
330
3F2
102
}
330
3F2
100
AcDbVisualStyle
  2

 70
     9
 71
     3
 72
     2
 73
     0
 90
        0
 40
-0.6
 41
-30.0
 62
     5
 63
     7
 74
     2
 91
        2
 64
     7
 65
   257
 75
     1
175
     1
 42
179.0
 92
        8
 66
     7
 43
1.0
 76
     1
 77
     6
 78
     2
 67
     7
 79
     3
170
     0
171
     0
290
     0
174
     0
 93
        1
 44
0.0
173
     0
291
     0
 45
0.0
1001
ACAD
1000
AcDbSavedByObjectVersion
1070
     0
  0
VISUALSTYLE
  5
29BC9
102
{ACAD_XDICTIONARY
360
29CB2
102
}
102
{ACAD_REACTORS
330
3F2
102
}
330
3F2
100
AcDbVisualStyle
  2

 70
    11
 71
     2
 72
     2
 73
     0
 90
        0
 40
-0.6
 41
-30.0
 62
     5
 63
     7
 74
     1
 91
        4
 64
     7
 65
   257
 75
     1
175
     1
 42
1.0
 92
        8
 66
     7
 43
1.0
 76
     1
 77
     6
 78
     2
 67
     7
 79
     5
170
     0
171
     0
290
     0
174
     0
 93
        1
 44
-50.0
173
     0
291
     1
 45
0.0
1001
ACAD
1000
AcDbSavedByObjectVersion
1070
     0
  0
VISUALSTYLE
  5
29BD6
102
{ACAD_XDICTIONARY
360
29CCC
102
}
102
{ACAD_REACTORS
330
3F2
102
}
330
3F2
100
AcDbVisualStyle
  2

 70
    22
 71
     2
 72
     2
 73
     0
 90
        0
 40
-0.6
 41
-30.0
 62
     5
 63
     7
 74
     1
 91
        4
 64
     7
 65
   257
 75
     1
175
     1
 42
1.0
 92
        8
 66
     7
 43
1.0
 76
     1
 77
     6
 78
     2
 67
     7
 79
     5
170
     0
171
     0
290
     0
174
     0
 93
        1
 44
0.0
173
     0
291
     1
 45
0.0
1001
ACAD
1000
AcDbSavedByObjectVersion
1070
     0
  0
VISUALSTYLE
  5
29BCD
102
{ACAD_XDICTIONARY
360
29CBA
102
}
102
{ACAD_REACTORS
330
3F2
102
}
330
3F2
100
AcDbVisualStyle
  2

 70
    15
 71
     2
 72
     2
 73
     0
 90
        0
 40
-0.6
 41
-30.0
 62
     5
 63
     7
 74
     1
 91
        4
 64
     7
 65
   257
 75
     1
175
     1
 42
1.0
 92
        8
 66
     7
 43
1.0
 76
     1
 77
     6
 78
     2
 67
     7
 79
     5
170
     0
171
     0
290
     0
174
     0
 93
        1
 44
0.0
173
     0
291
     1
 45
0.0
1001
ACAD
1000
AcDbSavedByObjectVersion
1070
     0
  0
VISUALSTYLE
  5
29BBF
102
{ACAD_XDICTIONARY
360
29C9E
102
}
102
{ACAD_REACTORS
330
3F2
102
}
330
3F2
100
AcDbVisualStyle
  2

 70
     0
 71
     2
 72
     1
 73
     1
 90
        2
 40
-0.6
 41
30.0
 62
     5
 63
     7
 74
     0
 91
        0
 64
     7
 65
   257
 75
     1
175
     1
 42
1.0
 92
        8
 66
     7
 43
1.0
 76
     1
 77
     6
 78
     2
 67
     7
 79
     5
170
     0
171
     0
290
     0
174
     0
 93
       13
 44
0.0
173
     0
291
     1
 45
0.0
1001
ACAD
1000
AcDbSavedByObjectVersion
1070
     0
  0
VISUALSTYLE
  5
29BC0
102
{ACAD_XDICTIONARY
360
29CA0
102
}
102
{ACAD_REACTORS
330
3F2
102
}
330
3F2
100
AcDbVisualStyle
  2

 70
     1
 71
     2
 72
     1
 73
     1
 90
        2
 40
-0.6
 41
30.0
 62
     5
 63
     7
 74
     1
 91
        0
 64
     7
 65
   257
 75
     1
175
     1
 42
1.0
 92
        0
 66
   257
 43
1.0
 76
     1
 77
     6
 78
     2
 67
     7
 79
     5
170
     0
171
     0
290
     0
174
     0
 93
       13
 44
0.0
173
     0
291
     1
 45
0.0
1001
ACAD
1000
AcDbSavedByObjectVersion
1070
     0
  0
VISUALSTYLE
  5
29BC1
102
{ACAD_XDICTIONARY
360
29CA2
102
}
102
{ACAD_REACTORS
330
3F2
102
}
330
3F2
100
AcDbVisualStyle
  2

 70
     2
 71
     2
 72
     2
 73
     1
 90
        2
 40
-0.6
 41
30.0
 62
     5
 63
     7
 74
     0
 91
        0
 64
     7
 65
   257
 75
     1
175
     1
 42
1.0
 92
        0
 66
     7
 43
1.0
 76
     1
 77
     6
 78
     2
 67
     7
 79
     5
170
     0
171
     0
290
     0
174
     0
 93
       13
 44
0.0
173
     0
291
     1
 45
0.0
1001
ACAD
1000
AcDbSavedByObjectVersion
1070
     0
  0
VISUALSTYLE
  5
29BC2
102
{ACAD_XDICTIONARY
360
29CA4
102
}
102
{ACAD_REACTORS
330
3F2
102
}
330
3F2
100
AcDbVisualStyle
  2

 70
     3
 71
     2
 72
     2
 73
     1
 90
        2
 40
-0.6
 41
30.0
 62
     5
 63
     7
 74
     1
 91
        0
 64
     7
 65
   257
 75
     1
175
     1
 42
1.0
 92
        0
 66
   257
 43
1.0
 76
     1
 77
     6
 78
     2
 67
     7
 79
     5
170
     0
171
     0
290
     0
174
     0
 93
       13
 44
0.0
173
     0
291
     1
 45
0.0
1001
ACAD
1000
AcDbSavedByObjectVersion
1070
     0
  0
VISUALSTYLE
  5
29BC6
102
{ACAD_XDICTIONARY
360
29CAC
102
}
102
{ACAD_REACTORS
330
3F2
102
}
330
3F2
100
AcDbVisualStyle
  2

 70
     6
 71
     1
 72
     2
 73
     2
 90
        0
 40
-0.6
 41
-30.0
 62
     5
 63
     7
 74
     2
 91
        2
 64
     7
 65
   257
 75
     2
175
     1
 42
40.0
 92
        0
 66
   257
 43
1.0
 76
     1
 77
     6
 78
     2
 67
     7
 79
     3
170
     0
171
     0
290
     0
174
     0
 93
        1
 44
0.0
173
     0
291
     0
 45
0.0
1001
ACAD
1000
AcDbSavedByObjectVersion
1070
     0
  0
VISUALSTYLE
  5
29BD4
102
{ACAD_XDICTIONARY
360
29CC8
102
}
102
{ACAD_REACTORS
330
3F2
102
}
330
3F2
100
AcDbVisualStyle
  2

 70
    20
 71
     2
 72
     2
 73
     0
 90
        0
 40
-0.6
 41
-30.0
 62
     5
 63
     7
 74
     1
 91
        4
 64
     7
 65
   257
 75
     1
175
     1
 42
1.0
 92
       10
 66
     7
 43
1.0
 76
     1
 77
     6
 78
     2
 67
     7
 79
     5
170
     0
171
     0
290
     0
174
     0
 93
        1
 44
0.0
173
     0
291
     1
 45
0.0
1001
ACAD
1000
AcDbSavedByObjectVersion
1070
     0
  0
VISUALSTYLE
  5
29BCC
102
{ACAD_XDICTIONARY
360
29CB8
102
}
102
{ACAD_REACTORS
330
3F2
102
}
330
3F2
100
AcDbVisualStyle
  2

 70
    14
 71
     2
 72
     2
 73
     0
 90
        0
 40
-0.6
 41
-30.0
 62
     5
 63
     7
 74
     1
 91
        4
 64
     7
 65
   257
 75
     7
175
     7
 42
1.0
 92
        8
 66
     7
 43
1.0
 76
     1
 77
     6
 78
     2
 67
     7
 79
     5
170
     0
171
     0
290
     0
174
     0
 93
        1
 44
0.0
173
     0
291
     1
 45
0.0
1001
ACAD
1000
AcDbSavedByObjectVersion
1070
     0
  0
VISUALSTYLE
  5
29BD5
102
{ACAD_XDICTIONARY
360
29CCA
102
}
102
{ACAD_REACTORS
330
3F2
102
}
330
3F2
100
AcDbVisualStyle
  2

 70
    21
 71
     2
 72
     2
 73
     0
 90
        0
 40
-0.6
 41
-30.0
 62
     5
 63
     7
 74
     1
 91
        4
 64
     7
 65
   257
 75
     1
175
     1
 42
1.0
 92
        9
 66
     7
 43
1.0
 76
     1
 77
     6
 78
     2
 67
     7
 79
     5
170
     0
171
     0
290
     0
174
     0
 93
        1
 44
0.0
173
     0
291
     1
 45
0.0
1001
ACAD
1000
AcDbSavedByObjectVersion
1070
     0
  0
VISUALSTYLE
  5
29BC8
102
{ACAD_XDICTIONARY
360
29CB0
102
}
102
{ACAD_REACTORS
330
3F2
102
}
330
3F2
100
AcDbVisualStyle
  2

 70
     8
 71
     2
 72
     3
 73
     0
 90
        2
 40
-0.6
 41
30.0
 62
     5
 63
     7
 74
     0
 91
        0
 64
     7
 65
   257
 75
     1
175
     1
 42
1.0
 92
        8
 66
   257
 43
1.0
 76
     1
 77
     6
 78
     2
 67
     7
 79
     3
170
     0
171
     0
290
     0
174
     0
 93
       13
 44
0.0
173
     0
291
     0
 45
0.0
1001
ACAD
1000
AcDbSavedByObjectVersion
1070
     0
  0
VISUALSTYLE
  5
29BD3
102
{ACAD_XDICTIONARY
360
29CC6
102
}
102
{ACAD_REACTORS
330
3F2
102
}
330
3F2
100
AcDbVisualStyle
  2

 70
    27
 71
     2
 72
     2
 73
     1
 90
        2
 40
-0.6
 41
30.0
 62
     5
 63
     7
 74
     0
 91
        4
 64
     7
 65
   257
 75
     1
175
     1
 42
1.0
 92
        8
 66
   257
 43
1.0
 76
     1
 77
     6
 78
     2
 67
     8
 79
     3
170
     0
171
     0
290
     0
174
     0
 93
        5
 44
0.0
173
     0
291
     0
 45
0.0
1001
ACAD
1000
AcDbSavedByObjectVersion
1070
     0
  0
VISUALSTYLE
  5
29BD2
102
{ACAD_XDICTIONARY
360
29CC4
102
}
102
{ACAD_REACTORS
330
3F2
102
}
330
3F2
100
AcDbVisualStyle
  2

 70
    26
 71
     2
 72
     2
 73
     1
 90
        2
 40
-0.6
 41
30.0
 62
     5
 63
     7
 74
     1
 91
        2
 64
     7
 65
   257
 75
     2
175
     1
 42
1.0
 92
        8
 66
   257
 43
1.0
 76
     1
 77
     6
 78
     2
 67
     7
 79
     3
170
     0
171
     0
290
     0
174
     0
 93
        5
 44
0.0
173
     0
291
     0
 45
0.0
1001
ACAD
1000
AcDbSavedByObjectVersion
1070
     0
  0
VISUALSTYLE
  5
29BCF
102
{ACAD_XDICTIONARY
360
29CBE
102
}
102
{ACAD_REACTORS
330
3F2
102
}
330
3F2
100
AcDbVisualStyle
  2

 70
    23
 71
     2
 72
     2
 73
     3
 90
        0
 40
-0.6
 41
-30.0
 62
     5
 63
     7
 74
     2
 91
        2
 64
     7
 65
     7
 75
     1
175
     1
 42
40.0
 92
        8
 66
     7
 43
1.0
 76
     1
 77
     6
 78
     2
 67
     7
 79
     3
170
     0
171
     0
290
     0
174
     0
 93
        1
 44
0.0
173
     0
291
     0
 45
0.0
1001
ACAD
1000
AcDbSavedByObjectVersion
1070
     0
  0
VISUALSTYLE
  5
29BD0
102
{ACAD_XDICTIONARY
360
29CC0
102
}
102
{ACAD_REACTORS
330
3F2
102
}
330
3F2
100
AcDbVisualStyle
  2

 70
    24
 71
     1
 72
     2
 73
     2
 90
        0
 40
-0.6
 41
-30.0
 62
     5
 63
     7
 74
     2
 91
        2
 64
     7
 65
     7
 75
     1
175
     1
 42
40.0
 92
       11
 66
     7
 43
1.0
 76
     1
 77
     6
 78
     2
 67
     7
 79
     6
170
     0
171
     0
290
     0
174
     0
 93
        1
 44
0.0
173
     0
291
     0
 45
0.0
1001
ACAD
1000
AcDbSavedByObjectVersion
1070
     0
  0
VISUALSTYLE
  5
29BCB
102
{ACAD_XDICTIONARY
360
29CB6
102
}
102
{ACAD_REACTORS
330
3F2
102
}
330
3F2
100
AcDbVisualStyle
  2

 70
    13
 71
     2
 72
     2
 73
     0
 90
        0
 40
-0.6
 41
-30.0
 62
     5
 63
     7
 74
     1
 91
        4
 64
     7
 65
   257
 75
     1
175
     1
 42
1.0
 92
       12
 66
     7
 43
1.0
 76
     1
 77
     6
 78
     2
 67
     7
 79
     5
170
     0
171
     0
290
     0
174
     0
 93
        1
 44
0.0
173
     0
291
     1
 45
0.0
1001
ACAD
1000
AcDbSavedByObjectVersion
1070
     0
  0
VISUALSTYLE
  5
29BC5
102
{ACAD_XDICTIONARY
360
29CAA
102
}
102
{ACAD_REACTORS
330
3F2
102
}
330
3F2
100
AcDbVisualStyle
  2

 70
     5
 71
     0
 72
     2
 73
     0
 90
        0
 40
-0.6
 41
-30.0
 62
     5
 63
     7
 74
     1
 91
        4
 64
     7
 65
   257
 75
     1
175
     1
 42
1.0
 92
        0
 66
   257
 43
1.0
 76
     1
 77
     6
 78
     2
 67
     7
 79
     3
170
     0
171
     0
290
     0
174
     0
 93
        1
 44
0.0
173
     0
291
     0
 45
0.0
1001
ACAD
1000
AcDbSavedByObjectVersion
1070
     0
  0
VISUALSTYLE
  5
29BD1
102
{ACAD_XDICTIONARY
360
29CC2
102
}
102
{ACAD_REACTORS
330
3F2
102
}
330
3F2
100
AcDbVisualStyle
  2

 70
    25
 71
     2
 72
     2
 73
     1
 90
        1
 40
0.5
 41
-30.0
 62
     5
 63
     7
 74
     1
 91
        0
 64
     7
 65
   257
 75
     1
175
     1
 42
1.0
 92
        8
 66
     7
 43
1.0
 76
     1
 77
     6
 78
     2
 67
     7
 79
     3
170
     0
171
     0
290
     0
174
     0
 93
       13
 44
0.0
173
     0
291
     0
 45
0.0
1001
ACAD
1000
AcDbSavedByObjectVersion
1070
     0
  0
XRECORD
  5
29B9F
102
{ACAD_REACTORS
330
29B9E
102
}
330
29B9E
100
AcDbXrecord
280
     1
340
6C
  0
XRECORD
  5
29BA0
102
{ACAD_REACTORS
330
29B9E
102
}
330
29B9E
100
AcDbXrecord
280
     1
340
6B
  0
DICTIONARYVAR
  5
29B9D
102
{ACAD_REACTORS
330
59
102
}
330
59
100
DictionaryVariables
280
     0
  1
1:1
  0
DICTIONARYVAR
  5
29BFF
102
{ACAD_REACTORS
330
59
102
}
330
59
100
DictionaryVariables
280
     0
  1
STANDARD
  0
DICTIONARYVAR
  5
98
102
{ACAD_REACTORS
330
59
102
}
330
59
100
DictionaryVariables
280
     0
  1
STANDARD
  0
DICTIONARYVAR
  5
8FB
102
{ACAD_REACTORS
330
59
102
}
330
59
100
DictionaryVariables
280
     0
  1
Metric50
  0
DICTIONARYVAR
  5
8FC
102
{ACAD_REACTORS
330
59
102
}
330
59
100
DictionaryVariables
280
     0
  1
Metric50
  0
DICTIONARYVAR
  5
359
102
{ACAD_REACTORS
330
59
102
}
330
59
100
DictionaryVariables
280
     0
  1
2
  0
DICTIONARYVAR
  5
AF7
102
{ACAD_REACTORS
330
59
102
}
330
59
100
DictionaryVariables
280
     0
  1
0
  0
DICTIONARYVAR
  5
358
102
{ACAD_REACTORS
330
59
102
}
330
59
100
DictionaryVariables
280
     0
  1
1
  0
DICTIONARYVAR
  5
9BE
102
{ACAD_REACTORS
330
59
102
}
330
59
100
DictionaryVariables
280
     0
  1
0
  0
DICTIONARYVAR
  5
7AE
102
{ACAD_REACTORS
330
59
102
}
330
59
100
DictionaryVariables
280
     0
  1
1
  0
DICTIONARYVAR
  5
7AF
102
{ACAD_REACTORS
330
59
102
}
330
59
100
DictionaryVariables
280
     0
  1
15
  0
DICTIONARYVAR
  5
44A
102
{ACAD_REACTORS
330
59
102
}
330
59
100
DictionaryVariables
280
     0
  1
0
  0
DICTIONARYVAR
  5
448
102
{ACAD_REACTORS
330
59
102
}
330
59
100
DictionaryVariables
280
     0
  1
1
  0
DICTIONARYVAR
  5
9BD
102
{ACAD_REACTORS
330
59
102
}
330
59
100
DictionaryVariables
280
     0
  1
127
  0
DICTIONARYVAR
  5
29C91
102
{ACAD_REACTORS
330
59
102
}
330
59
100
DictionaryVariables
280
     0
  1
2
  0
DICTIONARY
  5
76F
102
{ACAD_REACTORS
330
76D
102
}
330
76D
100
AcDbDictionary
281
     1
  0
DICTIONARY
  5
744
102
{ACAD_REACTORS
330
743
102
}
330
743
100
AcDbDictionary
281
     1
  0
XRECORD
  5
8C7
102
{ACAD_REACTORS
330
8C6
102
}
330
8C6
100
AcDbXrecord
280
     1
  0
DICTIONARY
  5
29CD1
330
29BDA
100
AcDbDictionary
280
     1
281
     1
  3
ACAD_XREC_ROUNDTRIP
360
29CD2
  0
DICTIONARY
  5
29C9C
330
74
100
AcDbDictionary
280
     1
281
     1
  3
ACAD_XREC_ROUNDTRIP
360
29C9D
  0
DICTIONARY
  5
29C9A
330
22
100
AcDbDictionary
280
     1
281
     1
  3
ACAD_XREC_ROUNDTRIP
360
29C9B
  0
DICTIONARY
  5
29BB0
330
29BAF
100
AcDbDictionary
280
     1
281
     1
  3
ACAD_XREC_ROUNDTRIP
360
29C54
  3
BUMPTILE
360
29BB2
  3
DIFFUSETILE
360
29BB1
  3
OPACITYTILE
360
29BB5
  3
REFLECTIONTILE
360
29BB4
  3
REFRACTIONTILE
360
29BB6
  3
SPECULARTILE
360
29BB3
  0
DICTIONARY
  5
29BA8
330
29BA7
100
AcDbDictionary
280
     1
281
     1
  3
ACAD_XREC_ROUNDTRIP
360
29C53
  3
BUMPTILE
360
29BAA
  3
DIFFUSETILE
360
29BA9
  3
OPACITYTILE
360
29BAD
  3
REFLECTIONTILE
360
29BAC
  3
REFRACTIONTILE
360
29BAE
  3
SPECULARTILE
360
29BAB
  0
DICTIONARY
  5
29BB8
330
29BB7
100
AcDbDictionary
280
     1
281
     1
  3
ACAD_XREC_ROUNDTRIP
360
29C55
  3
BUMPTILE
360
29BBA
  3
DIFFUSETILE
360
29BB9
  3
OPACITYTILE
360
29BBD
  3
REFLECTIONTILE
360
29BBC
  3
REFRACTIONTILE
360
29BBE
  3
SPECULARTILE
360
29BBB
  0
DICTIONARY
  5
29CCF
330
29BD9
100
AcDbDictionary
280
     1
281
     1
  3
ACAD_XREC_ROUNDTRIP
360
29CD0
  0
DICTIONARY
  5
29C46
330
29BD7
100
AcDbDictionary
280
     1
281
     1
  3
ACAD_ROUNDTRIP_2008_TABLESTYLE_CELLSTYLEMAP
360
29C92
  3
ACAD_XREC_ROUNDTRIP
360
29CCE
  0
DICTIONARY
  5
29CA8
330
29BC4
100
AcDbDictionary
280
     1
281
     1
  3
ACAD_XREC_ROUNDTRIP
360
29CA9
  0
DICTIONARY
  5
29CA6
330
29BC3
100
AcDbDictionary
280
     1
281
     1
  3
ACAD_XREC_ROUNDTRIP
360
29CA7
  0
DICTIONARY
  5
29CB4
330
29BCA
100
AcDbDictionary
280
     1
281
     1
  3
ACAD_XREC_ROUNDTRIP
360
29CB5
  0
DICTIONARY
  5
29CBC
330
29BCE
100
AcDbDictionary
280
     1
281
     1
  3
ACAD_XREC_ROUNDTRIP
360
29CBD
  0
DICTIONARY
  5
29CAE
330
29BC7
100
AcDbDictionary
280
     1
281
     1
  3
ACAD_XREC_ROUNDTRIP
360
29CAF
  0
DICTIONARY
  5
29CB2
330
29BC9
100
AcDbDictionary
280
     1
281
     1
  3
ACAD_XREC_ROUNDTRIP
360
29CB3
  0
DICTIONARY
  5
29CCC
330
29BD6
100
AcDbDictionary
280
     1
281
     1
  3
ACAD_XREC_ROUNDTRIP
360
29CCD
  0
DICTIONARY
  5
29CBA
330
29BCD
100
AcDbDictionary
280
     1
281
     1
  3
ACAD_XREC_ROUNDTRIP
360
29CBB
  0
DICTIONARY
  5
29C9E
330
29BBF
100
AcDbDictionary
280
     1
281
     1
  3
ACAD_XREC_ROUNDTRIP
360
29C9F
  0
DICTIONARY
  5
29CA0
330
29BC0
100
AcDbDictionary
280
     1
281
     1
  3
ACAD_XREC_ROUNDTRIP
360
29CA1
  0
DICTIONARY
  5
29CA2
330
29BC1
100
AcDbDictionary
280
     1
281
     1
  3
ACAD_XREC_ROUNDTRIP
360
29CA3
  0
DICTIONARY
  5
29CA4
330
29BC2
100
AcDbDictionary
280
     1
281
     1
  3
ACAD_XREC_ROUNDTRIP
360
29CA5
  0
DICTIONARY
  5
29CAC
330
29BC6
100
AcDbDictionary
280
     1
281
     1
  3
ACAD_XREC_ROUNDTRIP
360
29CAD
  0
DICTIONARY
  5
29CC8
330
29BD4
100
AcDbDictionary
280
     1
281
     1
  3
ACAD_XREC_ROUNDTRIP
360
29CC9
  0
DICTIONARY
  5
29CB8
330
29BCC
100
AcDbDictionary
280
     1
281
     1
  3
ACAD_XREC_ROUNDTRIP
360
29CB9
  0
DICTIONARY
  5
29CCA
330
29BD5
100
AcDbDictionary
280
     1
281
     1
  3
ACAD_XREC_ROUNDTRIP
360
29CCB
  0
DICTIONARY
  5
29CB0
330
29BC8
100
AcDbDictionary
280
     1
281
     1
  3
ACAD_XREC_ROUNDTRIP
360
29CB1
  0
DICTIONARY
  5
29CC6
330
29BD3
100
AcDbDictionary
280
     1
281
     1
  3
ACAD_XREC_ROUNDTRIP
360
29CC7
  0
DICTIONARY
  5
29CC4
330
29BD2
100
AcDbDictionary
280
     1
281
     1
  3
ACAD_XREC_ROUNDTRIP
360
29CC5
  0
DICTIONARY
  5
29CBE
330
29BCF
100
AcDbDictionary
280
     1
281
     1
  3
ACAD_XREC_ROUNDTRIP
360
29CBF
  0
DICTIONARY
  5
29CC0
330
29BD0
100
AcDbDictionary
280
     1
281
     1
  3
ACAD_XREC_ROUNDTRIP
360
29CC1
  0
DICTIONARY
  5
29CB6
330
29BCB
100
AcDbDictionary
280
     1
281
     1
  3
ACAD_XREC_ROUNDTRIP
360
29CB7
  0
DICTIONARY
  5
29CAA
330
29BC5
100
AcDbDictionary
280
     1
281
     1
  3
ACAD_XREC_ROUNDTRIP
360
29CAB
  0
DICTIONARY
  5
29CC2
330
29BD1
100
AcDbDictionary
280
     1
281
     1
  3
ACAD_XREC_ROUNDTRIP
360
29CC3
  0
XRECORD
  5
29CD2
102
{ACAD_REACTORS
330
29CD1
102
}
330
29CD1
100
AcDbXrecord
280
     1
102
DISPLAYNAME
  1
Metric50
102
FLAGS
 90
        0
  0
XRECORD
  5
29C9D
102
{ACAD_REACTORS
330
29C9C
102
}
330
29C9C
100
AcDbXrecord
280
     1
102
SHADEPLOT
 70
     0
102
SHADEPLOTRESLEVEL
 70
     2
102
SHADEPLOTCUSTOMDPI
 70
   300
  0
XRECORD
  5
29C9B
102
{ACAD_REACTORS
330
29C9A
102
}
330
29C9A
100
AcDbXrecord
280
     1
102
SHADEPLOT
 70
     0
102
SHADEPLOTRESLEVEL
 70
     4
102
SHADEPLOTCUSTOMDPI
 70
   300
  0
XRECORD
  5
29C54
102
{ACAD_REACTORS
330
29BB0
102
}
330
29BB0
100
AcDbXrecord
280
     1
102
MATERIAL
148
0.0
149
0.0
149
0.0
 93
        0
 94
      127
282
     0
 72
     0
 77
     0
171
     0
175
     0
179
     0
273
     0
  0
XRECORD
  5
29BB2
102
{ACAD_REACTORS
330
29BB0
102
}
330
29BB0
100
AcDbXrecord
280
     1
270
     1
271
     1
  0
XRECORD
  5
29BB1
102
{ACAD_REACTORS
330
29BB0
102
}
330
29BB0
100
AcDbXrecord
280
     1
270
     1
271
     1
  0
XRECORD
  5
29BB5
102
{ACAD_REACTORS
330
29BB0
102
}
330
29BB0
100
AcDbXrecord
280
     1
270
     1
271
     1
  0
XRECORD
  5
29BB4
102
{ACAD_REACTORS
330
29BB0
102
}
330
29BB0
100
AcDbXrecord
280
     1
270
     1
271
     1
  0
XRECORD
  5
29BB6
102
{ACAD_REACTORS
330
29BB0
102
}
330
29BB0
100
AcDbXrecord
280
     1
270
     1
271
     1
  0
XRECORD
  5
29BB3
102
{ACAD_REACTORS
330
29BB0
102
}
330
29BB0
100
AcDbXrecord
280
     1
270
     1
271
     1
  0
XRECORD
  5
29C53
102
{ACAD_REACTORS
330
29BA8
102
}
330
29BA8
100
AcDbXrecord
280
     1
102
MATERIAL
148
0.0
149
0.0
149
0.0
 93
        0
 94
      127
282
     0
 72
     0
 77
     0
171
     0
175
     0
179
     0
273
     0
  0
XRECORD
  5
29BAA
102
{ACAD_REACTORS
330
29BA8
102
}
330
29BA8
100
AcDbXrecord
280
     1
270
     1
271
     1
  0
XRECORD
  5
29BA9
102
{ACAD_REACTORS
330
29BA8
102
}
330
29BA8
100
AcDbXrecord
280
     1
270
     1
271
     1
  0
XRECORD
  5
29BAD
102
{ACAD_REACTORS
330
29BA8
102
}
330
29BA8
100
AcDbXrecord
280
     1
270
     1
271
     1
  0
XRECORD
  5
29BAC
102
{ACAD_REACTORS
330
29BA8
102
}
330
29BA8
100
AcDbXrecord
280
     1
270
     1
271
     1
  0
XRECORD
  5
29BAE
102
{ACAD_REACTORS
330
29BA8
102
}
330
29BA8
100
AcDbXrecord
280
     1
270
     1
271
     1
  0
XRECORD
  5
29BAB
102
{ACAD_REACTORS
330
29BA8
102
}
330
29BA8
100
AcDbXrecord
280
     1
270
     1
271
     1
  0
XRECORD
  5
29C55
102
{ACAD_REACTORS
330
29BB8
102
}
330
29BB8
100
AcDbXrecord
280
     1
102
MATERIAL
148
0.0
149
0.0
149
0.0
 93
        0
 94
      127
282
     0
 72
     0
 77
     0
171
     0
175
     0
179
     0
273
     0
  0
XRECORD
  5
29BBA
102
{ACAD_REACTORS
330
29BB8
102
}
330
29BB8
100
AcDbXrecord
280
     1
270
     1
271
     1
  0
XRECORD
  5
29BB9
102
{ACAD_REACTORS
330
29BB8
102
}
330
29BB8
100
AcDbXrecord
280
     1
270
     1
271
     1
  0
XRECORD
  5
29BBD
102
{ACAD_REACTORS
330
29BB8
102
}
330
29BB8
100
AcDbXrecord
280
     1
270
     1
271
     1
  0
XRECORD
  5
29BBC
102
{ACAD_REACTORS
330
29BB8
102
}
330
29BB8
100
AcDbXrecord
280
     1
270
     1
271
     1
  0
XRECORD
  5
29BBE
102
{ACAD_REACTORS
330
29BB8
102
}
330
29BB8
100
AcDbXrecord
280
     1
270
     1
271
     1
  0
XRECORD
  5
29BBB
102
{ACAD_REACTORS
330
29BB8
102
}
330
29BB8
100
AcDbXrecord
280
     1
270
     1
271
     1
  0
XRECORD
  5
29CD0
102
{ACAD_REACTORS
330
29CCF
102
}
330
29CCF
100
AcDbXrecord
280
     1
102
DISPLAYNAME
  1
Metric50
102
FLAGS
 90
        0
  0
CELLSTYLEMAP
  5
29C92
102
{ACAD_REACTORS
330
29C46
102
}
330
29C46
100
AcDbCellStyleMap
 90
        3
300
CELLSTYLE
  1
TABLEFORMAT_BEGIN
 90
        5
170
     1
 91
        0
 92
    32768
 62
   257
 93
        1
300
CONTENTFORMAT
  1
CONTENTFORMAT_BEGIN
 90
        0
 91
        0
 92
      512
 93
        0
300

 40
0.0
140
1.0
 94
        5
 62
     0
340
11
144
6.0
309
CONTENTFORMAT_END
171
     1
301
MARGIN
  1
CELLMARGIN_BEGIN
 40
1.5
 40
1.5
 40
1.5
 40
1.5
 40
0.18
 40
0.18
309
CELLMARGIN_END
 94
        6
 95
        1
302
GRIDFORMAT
  1
GRIDFORMAT_BEGIN
 90
        0
 91
        1
 62
     0
 92
       -2
340
0
 93
        0
 40
1.125
309
GRIDFORMAT_END
 95
        2
302
GRIDFORMAT
  1
GRIDFORMAT_BEGIN
 90
        0
 91
        1
 62
     0
 92
       -2
340
0
 93
        0
 40
1.125
309
GRIDFORMAT_END
 95
        4
302
GRIDFORMAT
  1
GRIDFORMAT_BEGIN
 90
        0
 91
        1
 62
     0
 92
       -2
340
0
 93
        0
 40
1.125
309
GRIDFORMAT_END
 95
        8
302
GRIDFORMAT
  1
GRIDFORMAT_BEGIN
 90
        0
 91
        1
 62
     0
 92
       -2
340
0
 93
        0
 40
1.125
309
GRIDFORMAT_END
 95
       16
302
GRIDFORMAT
  1
GRIDFORMAT_BEGIN
 90
        0
 91
        1
 62
     0
 92
       -2
340
0
 93
        0
 40
1.125
309
GRIDFORMAT_END
 95
       32
302
GRIDFORMAT
  1
GRIDFORMAT_BEGIN
 90
        0
 91
        1
 62
     0
 92
       -2
340
0
 93
        0
 40
1.125
309
GRIDFORMAT_END
309
TABLEFORMAT_END
  1
CELLSTYLE_BEGIN
 90
        1
 91
        1
300
_TITLE
309
CELLSTYLE_END
300
CELLSTYLE
  1
TABLEFORMAT_BEGIN
 90
        5
170
     1
 91
        0
 92
        0
 62
   257
 93
        1
300
CONTENTFORMAT
  1
CONTENTFORMAT_BEGIN
 90
        0
 91
        0
 92
      512
 93
        0
300

 40
0.0
140
1.0
 94
        5
 62
     0
340
11
144
4.5
309
CONTENTFORMAT_END
171
     1
301
MARGIN
  1
CELLMARGIN_BEGIN
 40
1.5
 40
1.5
 40
1.5
 40
1.5
 40
0.18
 40
0.18
309
CELLMARGIN_END
 94
        6
 95
        1
302
GRIDFORMAT
  1
GRIDFORMAT_BEGIN
 90
        0
 91
        1
 62
     0
 92
       -2
340
0
 93
        0
 40
1.125
309
GRIDFORMAT_END
 95
        2
302
GRIDFORMAT
  1
GRIDFORMAT_BEGIN
 90
        0
 91
        1
 62
     0
 92
       -2
340
0
 93
        0
 40
1.125
309
GRIDFORMAT_END
 95
        4
302
GRIDFORMAT
  1
GRIDFORMAT_BEGIN
 90
        0
 91
        1
 62
     0
 92
       -2
340
0
 93
        0
 40
1.125
309
GRIDFORMAT_END
 95
        8
302
GRIDFORMAT
  1
GRIDFORMAT_BEGIN
 90
        0
 91
        1
 62
     0
 92
       -2
340
0
 93
        0
 40
1.125
309
GRIDFORMAT_END
 95
       16
302
GRIDFORMAT
  1
GRIDFORMAT_BEGIN
 90
        0
 91
        1
 62
     0
 92
       -2
340
0
 93
        0
 40
1.125
309
GRIDFORMAT_END
 95
       32
302
GRIDFORMAT
  1
GRIDFORMAT_BEGIN
 90
        0
 91
        1
 62
     0
 92
       -2
340
0
 93
        0
 40
1.125
309
GRIDFORMAT_END
309
TABLEFORMAT_END
  1
CELLSTYLE_BEGIN
 90
        2
 91
        1
300
_HEADER
309
CELLSTYLE_END
300
CELLSTYLE
  1
TABLEFORMAT_BEGIN
 90
        5
170
     1
 91
        0
 92
        0
 62
   257
 93
        1
300
CONTENTFORMAT
  1
CONTENTFORMAT_BEGIN
 90
        0
 91
        0
 92
      512
 93
        0
300

 40
0.0
140
1.0
 94
        2
 62
     0
340
11
144
4.5
309
CONTENTFORMAT_END
171
     1
301
MARGIN
  1
CELLMARGIN_BEGIN
 40
1.5
 40
1.5
 40
1.5
 40
1.5
 40
0.18
 40
0.18
309
CELLMARGIN_END
 94
        6
 95
        1
302
GRIDFORMAT
  1
GRIDFORMAT_BEGIN
 90
        0
 91
        1
 62
     0
 92
       -2
340
0
 93
        0
 40
1.125
309
GRIDFORMAT_END
 95
        2
302
GRIDFORMAT
  1
GRIDFORMAT_BEGIN
 90
        0
 91
        1
 62
     0
 92
       -2
340
0
 93
        0
 40
1.125
309
GRIDFORMAT_END
 95
        4
302
GRIDFORMAT
  1
GRIDFORMAT_BEGIN
 90
        0
 91
        1
 62
     0
 92
       -2
340
0
 93
        0
 40
1.125
309
GRIDFORMAT_END
 95
        8
302
GRIDFORMAT
  1
GRIDFORMAT_BEGIN
 90
        0
 91
        1
 62
     0
 92
       -2
340
0
 93
        0
 40
1.125
309
GRIDFORMAT_END
 95
       16
302
GRIDFORMAT
  1
GRIDFORMAT_BEGIN
 90
        0
 91
        1
 62
     0
 92
       -2
340
0
 93
        0
 40
1.125
309
GRIDFORMAT_END
 95
       32
302
GRIDFORMAT
  1
GRIDFORMAT_BEGIN
 90
        0
 91
        1
 62
     0
 92
       -2
340
0
 93
        0
 40
1.125
309
GRIDFORMAT_END
309
TABLEFORMAT_END
  1
CELLSTYLE_BEGIN
 90
        3
 91
        2
300
_DATA
309
CELLSTYLE_END
  0
XRECORD
  5
29CCE
102
{ACAD_REACTORS
330
29C46
102
}
330
29C46
100
AcDbXrecord
280
     1
102
ACAD_ROUNDTRIP_PRE2007_TABLESTYLE
 90
      512
 91
        0
  1

 92
      512
 93
        0
  2

 94
      512
 95
        0
  3

  0
XRECORD
  5
29CA9
102
{ACAD_REACTORS
330
29CA8
102
}
330
29CA8
100
AcDbXrecord
280
     1
102
RTVSPost2010Prop28
280
     1
102
RTVSPost2010PropOp28
 70
     1
102
RTVSPost2010Prop29
280
     1
102
RTVSPost2010PropOp29
 70
     1
102
RTVSPost2010Prop30
280
     0
102
RTVSPost2010PropOp30
 70
     1
102
RTVSPost2010Prop31
280
     0
102
RTVSPost2010PropOp31
 70
     1
102
RTVSPost2010Prop32
280
     0
102
RTVSPost2010PropOp32
 70
     1
102
RTVSPost2010Prop33
280
     0
102
RTVSPost2010PropOp33
 70
     1
102
RTVSPost2010Prop34
280
     0
102
RTVSPost2010PropOp34
 70
     1
102
RTVSPost2010Prop35
280
     0
102
RTVSPost2010PropOp35
 70
     1
102
RTVSPost2010Prop36
280
     0
102
RTVSPost2010PropOp36
 70
     1
102
RTVSPost2010Prop37
 90
       50
102
RTVSPost2010PropOp37
 70
     1
102
RTVSPost2010Prop38
140
0.0
102
RTVSPost2010PropOp38
 70
     1
102
RTVSPost2010Prop39
140
1.0
102
RTVSPost2010PropOp39
 70
     1
102
RTVSPost2010Prop40
 90
        0
102
RTVSPost2010PropOp40
 70
     1
102
RTVSPost2010Prop41ColorIndex
 90
       18
102
RTVSPost2010Prop41ColorRGB
 90
        0
102
RTVSPost2010PropOp41
 70
     1
102
RTVSPost2010Prop42
 90
       50
102
RTVSPost2010PropOp42
 70
     1
102
RTVSPost2010Prop43
 90
        3
102
RTVSPost2010PropOp43
 70
     1
102
RTVSPost2010Prop44ColorIndex
 90
        5
102
RTVSPost2010Prop44ColorRGB
 90
      255
102
RTVSPost2010PropOp44
 70
     1
102
RTVSPost2010Prop45
280
     0
102
RTVSPost2010PropOp45
 70
     1
102
RTVSPost2010Prop46
 90
       50
102
RTVSPost2010PropOp46
 70
     1
102
RTVSPost2010Prop47
 90
       50
102
RTVSPost2010PropOp47
 70
     1
102
RTVSPost2010Prop48
 90
       50
102
RTVSPost2010PropOp48
 70
     1
102
RTVSPost2010Prop49
280
     0
102
RTVSPost2010PropOp49
 70
     1
102
RTVSPost2010Prop50
 90
       50
102
RTVSPost2010PropOp50
 70
     1
102
RTVSPost2010Prop51ColorIndex
 90
      256
102
RTVSPost2010Prop51ColorRGB
 90
-16777216
102
RTVSPost2010PropOp51
 70
     0
102
RTVSPost2010Prop52
140
1.0
102
RTVSPost2010PropOp52
 70
     0
102
RTVSPost2010Prop53
 90
        2
102
RTVSPost2010PropOp53
 70
     1
102
RTVSPost2010Prop54
  1
strokes_ogs.tif
102
RTVSPost2010PropOp54
 70
     1
102
RTVSPost2010Prop55
280
     0
102
RTVSPost2010PropOp55
 70
     1
102
RTVSPost2010Prop56
140
1.0
102
RTVSPost2010PropOp56
 70
     1
102
RTVSPost2010Prop57
140
1.0
102
RTVSPost2010PropOp57
 70
     1
102
RTVSPropertyOp0
 70
     1
102
RTVSPropertyOp1
 70
     1
102
RTVSPropertyOp2
 70
     1
102
RTVSPropertyOp3
 70
     1
102
RTVSPropertyOp4
 70
     1
102
RTVSPropertyOp5
 70
     1
102
RTVSPropertyOp6
 70
     1
102
RTVSPropertyOp7
 70
     1
102
RTVSPropertyOp8
 70
     1
102
RTVSPropertyOp9
 70
     1
102
RTVSPropertyOp10
 70
     1
102
RTVSPropertyOp11
 70
     1
102
RTVSPropertyOp12
 70
     1
102
RTVSPropertyOp13
 70
     1
102
RTVSPropertyOp14
 70
     1
102
RTVSPropertyOp15
 70
     1
102
RTVSPropertyOp16
 70
     1
102
RTVSPropertyOp17
 70
     1
102
RTVSPropertyOp18
 70
     1
102
RTVSPropertyOp19
 70
     1
102
RTVSPropertyOp20
 70
     1
102
RTVSPropertyOp21
 70
     1
102
RTVSPropertyOp22
 70
     1
102
RTVSPropertyOp23
 70
     1
102
RTVSPropertyOp24
 70
     1
102
RTVSPropertyOp25
 70
     1
102
RTVSPropertyOp26
 70
     1
102
RTVSPropertyOp27
 70
     1
102
RTVSPropertyOp28
 70
     1
102
RTVSPropertyOp29
 70
     1
102
RTVSPropertyOp30
 70
     1
102
RTVSPropertyOp31
 70
     1
102
RTVSPropertyOp32
 70
     1
102
RTVSPropertyOp33
 70
     1
102
RTVSPropertyOp34
 70
     1
102
RTVSPropertyOp35
 70
     1
102
RTVSPropertyOp36
 70
     1
102
RTVSPropertyOp37
 70
     1
102
RTVSPropertyOp38
 70
     1
102
RTVSPropertyOp39
 70
     1
102
RTVSPropertyOp40
 70
     1
102
RTVSPropertyOp41
 70
     1
102
RTVSPropertyOp42
 70
     1
102
RTVSPropertyOp43
 70
     1
102
RTVSPropertyOp44
 70
     1
102
RTVSPropertyOp45
 70
     1
102
RTVSPropertyOp46
 70
     1
102
RTVSPropertyOp47
 70
     1
102
RTVSPropertyOp48
 70
     1
102
RTVSPropertyOp49
 70
     1
102
RTVSPropertyOp50
 70
     1
102
RTVSPropertyOp51
 70
     0
102
RTVSPropertyOp52
 70
     0
102
RTVSPropertyOp53
 70
     1
102
RTVSPropertyOp54
 70
     1
102
RTVSPropertyOp55
 70
     1
102
RTVSPropertyOp56
 70
     1
102
RTVSPropertyOp57
 70
     1
102
RTVSPropertyOp58
 70
     1
102
RTVSPropertyOp59
 70
     1
102
RTVSPropertyOp60
 70
     1
102
RTVSPropertyOp61
 70
     1
102
RTVSPropertyOp62
 70
     1
  0
XRECORD
  5
29CA7
102
{ACAD_REACTORS
330
29CA6
102
}
330
29CA6
100
AcDbXrecord
280
     1
102
RTVSPost2010Prop28
280
     0
102
RTVSPost2010PropOp28
 70
     1
102
RTVSPost2010Prop29
280
     1
102
RTVSPost2010PropOp29
 70
     1
102
RTVSPost2010Prop30
280
     1
102
RTVSPost2010PropOp30
 70
     1
102
RTVSPost2010Prop31
280
     0
102
RTVSPost2010PropOp31
 70
     1
102
RTVSPost2010Prop32
280
     0
102
RTVSPost2010PropOp32
 70
     1
102
RTVSPost2010Prop33
280
     0
102
RTVSPost2010PropOp33
 70
     1
102
RTVSPost2010Prop34
280
     0
102
RTVSPost2010PropOp34
 70
     1
102
RTVSPost2010Prop35
280
     0
102
RTVSPost2010PropOp35
 70
     1
102
RTVSPost2010Prop36
280
     0
102
RTVSPost2010PropOp36
 70
     1
102
RTVSPost2010Prop37
 90
       50
102
RTVSPost2010PropOp37
 70
     1
102
RTVSPost2010Prop38
140
0.0
102
RTVSPost2010PropOp38
 70
     1
102
RTVSPost2010Prop39
140
1.0
102
RTVSPost2010PropOp39
 70
     1
102
RTVSPost2010Prop40
 90
        0
102
RTVSPost2010PropOp40
 70
     1
102
RTVSPost2010Prop41ColorIndex
 90
       18
102
RTVSPost2010Prop41ColorRGB
 90
        0
102
RTVSPost2010PropOp41
 70
     1
102
RTVSPost2010Prop42
 90
       50
102
RTVSPost2010PropOp42
 70
     1
102
RTVSPost2010Prop43
 90
        3
102
RTVSPost2010PropOp43
 70
     1
102
RTVSPost2010Prop44ColorIndex
 90
        5
102
RTVSPost2010Prop44ColorRGB
 90
      255
102
RTVSPost2010PropOp44
 70
     1
102
RTVSPost2010Prop45
280
     0
102
RTVSPost2010PropOp45
 70
     1
102
RTVSPost2010Prop46
 90
       50
102
RTVSPost2010PropOp46
 70
     1
102
RTVSPost2010Prop47
 90
       50
102
RTVSPost2010PropOp47
 70
     1
102
RTVSPost2010Prop48
 90
       50
102
RTVSPost2010PropOp48
 70
     1
102
RTVSPost2010Prop49
280
     0
102
RTVSPost2010PropOp49
 70
     1
102
RTVSPost2010Prop50
 90
       50
102
RTVSPost2010PropOp50
 70
     1
102
RTVSPost2010Prop51ColorIndex
 90
      256
102
RTVSPost2010Prop51ColorRGB
 90
-16777216
102
RTVSPost2010PropOp51
 70
     0
102
RTVSPost2010Prop52
140
1.0
102
RTVSPost2010PropOp52
 70
     0
102
RTVSPost2010Prop53
 90
        2
102
RTVSPost2010PropOp53
 70
     1
102
RTVSPost2010Prop54
  1
strokes_ogs.tif
102
RTVSPost2010PropOp54
 70
     1
102
RTVSPost2010Prop55
280
     0
102
RTVSPost2010PropOp55
 70
     1
102
RTVSPost2010Prop56
140
1.0
102
RTVSPost2010PropOp56
 70
     1
102
RTVSPost2010Prop57
140
1.0
102
RTVSPost2010PropOp57
 70
     1
102
RTVSPropertyOp0
 70
     1
102
RTVSPropertyOp1
 70
     1
102
RTVSPropertyOp2
 70
     1
102
RTVSPropertyOp3
 70
     1
102
RTVSPropertyOp4
 70
     1
102
RTVSPropertyOp5
 70
     1
102
RTVSPropertyOp6
 70
     1
102
RTVSPropertyOp7
 70
     1
102
RTVSPropertyOp8
 70
     1
102
RTVSPropertyOp9
 70
     1
102
RTVSPropertyOp10
 70
     1
102
RTVSPropertyOp11
 70
     1
102
RTVSPropertyOp12
 70
     1
102
RTVSPropertyOp13
 70
     1
102
RTVSPropertyOp14
 70
     1
102
RTVSPropertyOp15
 70
     1
102
RTVSPropertyOp16
 70
     1
102
RTVSPropertyOp17
 70
     1
102
RTVSPropertyOp18
 70
     1
102
RTVSPropertyOp19
 70
     1
102
RTVSPropertyOp20
 70
     1
102
RTVSPropertyOp21
 70
     1
102
RTVSPropertyOp22
 70
     1
102
RTVSPropertyOp23
 70
     1
102
RTVSPropertyOp24
 70
     1
102
RTVSPropertyOp25
 70
     1
102
RTVSPropertyOp26
 70
     1
102
RTVSPropertyOp27
 70
     1
102
RTVSPropertyOp28
 70
     1
102
RTVSPropertyOp29
 70
     1
102
RTVSPropertyOp30
 70
     1
102
RTVSPropertyOp31
 70
     1
102
RTVSPropertyOp32
 70
     1
102
RTVSPropertyOp33
 70
     1
102
RTVSPropertyOp34
 70
     1
102
RTVSPropertyOp35
 70
     1
102
RTVSPropertyOp36
 70
     1
102
RTVSPropertyOp37
 70
     1
102
RTVSPropertyOp38
 70
     1
102
RTVSPropertyOp39
 70
     1
102
RTVSPropertyOp40
 70
     1
102
RTVSPropertyOp41
 70
     1
102
RTVSPropertyOp42
 70
     1
102
RTVSPropertyOp43
 70
     1
102
RTVSPropertyOp44
 70
     1
102
RTVSPropertyOp45
 70
     1
102
RTVSPropertyOp46
 70
     1
102
RTVSPropertyOp47
 70
     1
102
RTVSPropertyOp48
 70
     1
102
RTVSPropertyOp49
 70
     1
102
RTVSPropertyOp50
 70
     1
102
RTVSPropertyOp51
 70
     0
102
RTVSPropertyOp52
 70
     0
102
RTVSPropertyOp53
 70
     1
102
RTVSPropertyOp54
 70
     1
102
RTVSPropertyOp55
 70
     1
102
RTVSPropertyOp56
 70
     1
102
RTVSPropertyOp57
 70
     1
102
RTVSPropertyOp58
 70
     1
102
RTVSPropertyOp59
 70
     1
102
RTVSPropertyOp60
 70
     1
102
RTVSPropertyOp61
 70
     1
102
RTVSPropertyOp62
 70
     1
  0
XRECORD
  5
29CB5
102
{ACAD_REACTORS
330
29CB4
102
}
330
29CB4
100
AcDbXrecord
280
     1
102
RTVSPost2010Prop28
280
     0
102
RTVSPost2010PropOp28
 70
     1
102
RTVSPost2010Prop29
280
     1
102
RTVSPost2010PropOp29
 70
     1
102
RTVSPost2010Prop30
280
     1
102
RTVSPost2010PropOp30
 70
     1
102
RTVSPost2010Prop31
280
     0
102
RTVSPost2010PropOp31
 70
     1
102
RTVSPost2010Prop32
280
     0
102
RTVSPost2010PropOp32
 70
     1
102
RTVSPost2010Prop33
280
     0
102
RTVSPost2010PropOp33
 70
     1
102
RTVSPost2010Prop34
280
     0
102
RTVSPost2010PropOp34
 70
     1
102
RTVSPost2010Prop35
280
     0
102
RTVSPost2010PropOp35
 70
     1
102
RTVSPost2010Prop36
280
     0
102
RTVSPost2010PropOp36
 70
     1
102
RTVSPost2010Prop37
 90
       50
102
RTVSPost2010PropOp37
 70
     1
102
RTVSPost2010Prop38
140
0.0
102
RTVSPost2010PropOp38
 70
     1
102
RTVSPost2010Prop39
140
1.0
102
RTVSPost2010PropOp39
 70
     1
102
RTVSPost2010Prop40
 90
        0
102
RTVSPost2010PropOp40
 70
     1
102
RTVSPost2010Prop41ColorIndex
 90
       18
102
RTVSPost2010Prop41ColorRGB
 90
        0
102
RTVSPost2010PropOp41
 70
     1
102
RTVSPost2010Prop42
 90
       50
102
RTVSPost2010PropOp42
 70
     1
102
RTVSPost2010Prop43
 90
        3
102
RTVSPost2010PropOp43
 70
     1
102
RTVSPost2010Prop44ColorIndex
 90
        5
102
RTVSPost2010Prop44ColorRGB
 90
      255
102
RTVSPost2010PropOp44
 70
     1
102
RTVSPost2010Prop45
280
     0
102
RTVSPost2010PropOp45
 70
     1
102
RTVSPost2010Prop46
 90
       50
102
RTVSPost2010PropOp46
 70
     1
102
RTVSPost2010Prop47
 90
       50
102
RTVSPost2010PropOp47
 70
     1
102
RTVSPost2010Prop48
 90
       50
102
RTVSPost2010PropOp48
 70
     1
102
RTVSPost2010Prop49
280
     0
102
RTVSPost2010PropOp49
 70
     1
102
RTVSPost2010Prop50
 90
       50
102
RTVSPost2010PropOp50
 70
     1
102
RTVSPost2010Prop51ColorIndex
 90
      256
102
RTVSPost2010Prop51ColorRGB
 90
-16777216
102
RTVSPost2010PropOp51
 70
     0
102
RTVSPost2010Prop52
140
1.0
102
RTVSPost2010PropOp52
 70
     0
102
RTVSPost2010Prop53
 90
        2
102
RTVSPost2010PropOp53
 70
     1
102
RTVSPost2010Prop54
  1
strokes_ogs.tif
102
RTVSPost2010PropOp54
 70
     1
102
RTVSPost2010Prop55
280
     0
102
RTVSPost2010PropOp55
 70
     1
102
RTVSPost2010Prop56
140
1.0
102
RTVSPost2010PropOp56
 70
     1
102
RTVSPost2010Prop57
140
1.0
102
RTVSPost2010PropOp57
 70
     1
102
RTVSPropertyOp0
 70
     1
102
RTVSPropertyOp1
 70
     1
102
RTVSPropertyOp2
 70
     1
102
RTVSPropertyOp3
 70
     1
102
RTVSPropertyOp4
 70
     1
102
RTVSPropertyOp5
 70
     1
102
RTVSPropertyOp6
 70
     1
102
RTVSPropertyOp7
 70
     1
102
RTVSPropertyOp8
 70
     1
102
RTVSPropertyOp9
 70
     1
102
RTVSPropertyOp10
 70
     1
102
RTVSPropertyOp11
 70
     1
102
RTVSPropertyOp12
 70
     1
102
RTVSPropertyOp13
 70
     1
102
RTVSPropertyOp14
 70
     1
102
RTVSPropertyOp15
 70
     1
102
RTVSPropertyOp16
 70
     1
102
RTVSPropertyOp17
 70
     1
102
RTVSPropertyOp18
 70
     1
102
RTVSPropertyOp19
 70
     1
102
RTVSPropertyOp20
 70
     1
102
RTVSPropertyOp21
 70
     1
102
RTVSPropertyOp22
 70
     1
102
RTVSPropertyOp23
 70
     1
102
RTVSPropertyOp24
 70
     1
102
RTVSPropertyOp25
 70
     1
102
RTVSPropertyOp26
 70
     1
102
RTVSPropertyOp27
 70
     1
102
RTVSPropertyOp28
 70
     1
102
RTVSPropertyOp29
 70
     1
102
RTVSPropertyOp30
 70
     1
102
RTVSPropertyOp31
 70
     1
102
RTVSPropertyOp32
 70
     1
102
RTVSPropertyOp33
 70
     1
102
RTVSPropertyOp34
 70
     1
102
RTVSPropertyOp35
 70
     1
102
RTVSPropertyOp36
 70
     1
102
RTVSPropertyOp37
 70
     1
102
RTVSPropertyOp38
 70
     1
102
RTVSPropertyOp39
 70
     1
102
RTVSPropertyOp40
 70
     1
102
RTVSPropertyOp41
 70
     1
102
RTVSPropertyOp42
 70
     1
102
RTVSPropertyOp43
 70
     1
102
RTVSPropertyOp44
 70
     1
102
RTVSPropertyOp45
 70
     1
102
RTVSPropertyOp46
 70
     1
102
RTVSPropertyOp47
 70
     1
102
RTVSPropertyOp48
 70
     1
102
RTVSPropertyOp49
 70
     1
102
RTVSPropertyOp50
 70
     1
102
RTVSPropertyOp51
 70
     0
102
RTVSPropertyOp52
 70
     0
102
RTVSPropertyOp53
 70
     1
102
RTVSPropertyOp54
 70
     1
102
RTVSPropertyOp55
 70
     1
102
RTVSPropertyOp56
 70
     1
102
RTVSPropertyOp57
 70
     1
102
RTVSPropertyOp58
 70
     1
102
RTVSPropertyOp59
 70
     1
102
RTVSPropertyOp60
 70
     1
102
RTVSPropertyOp61
 70
     1
102
RTVSPropertyOp62
 70
     1
  0
XRECORD
  5
29CBD
102
{ACAD_REACTORS
330
29CBC
102
}
330
29CBC
100
AcDbXrecord
280
     1
102
RTVSPost2010Prop28
280
     0
102
RTVSPost2010PropOp28
 70
     1
102
RTVSPost2010Prop29
280
     1
102
RTVSPost2010PropOp29
 70
     1
102
RTVSPost2010Prop30
280
     1
102
RTVSPost2010PropOp30
 70
     1
102
RTVSPost2010Prop31
280
     0
102
RTVSPost2010PropOp31
 70
     1
102
RTVSPost2010Prop32
280
     0
102
RTVSPost2010PropOp32
 70
     1
102
RTVSPost2010Prop33
280
     0
102
RTVSPost2010PropOp33
 70
     1
102
RTVSPost2010Prop34
280
     0
102
RTVSPost2010PropOp34
 70
     1
102
RTVSPost2010Prop35
280
     0
102
RTVSPost2010PropOp35
 70
     1
102
RTVSPost2010Prop36
280
     0
102
RTVSPost2010PropOp36
 70
     1
102
RTVSPost2010Prop37
 90
       50
102
RTVSPost2010PropOp37
 70
     1
102
RTVSPost2010Prop38
140
0.0
102
RTVSPost2010PropOp38
 70
     1
102
RTVSPost2010Prop39
140
1.0
102
RTVSPost2010PropOp39
 70
     1
102
RTVSPost2010Prop40
 90
        0
102
RTVSPost2010PropOp40
 70
     1
102
RTVSPost2010Prop41ColorIndex
 90
       18
102
RTVSPost2010Prop41ColorRGB
 90
        0
102
RTVSPost2010PropOp41
 70
     1
102
RTVSPost2010Prop42
 90
       50
102
RTVSPost2010PropOp42
 70
     1
102
RTVSPost2010Prop43
 90
        3
102
RTVSPost2010PropOp43
 70
     1
102
RTVSPost2010Prop44ColorIndex
 90
        5
102
RTVSPost2010Prop44ColorRGB
 90
      255
102
RTVSPost2010PropOp44
 70
     1
102
RTVSPost2010Prop45
280
     0
102
RTVSPost2010PropOp45
 70
     1
102
RTVSPost2010Prop46
 90
       50
102
RTVSPost2010PropOp46
 70
     1
102
RTVSPost2010Prop47
 90
       50
102
RTVSPost2010PropOp47
 70
     1
102
RTVSPost2010Prop48
 90
       50
102
RTVSPost2010PropOp48
 70
     1
102
RTVSPost2010Prop49
280
     0
102
RTVSPost2010PropOp49
 70
     1
102
RTVSPost2010Prop50
 90
       50
102
RTVSPost2010PropOp50
 70
     1
102
RTVSPost2010Prop51ColorIndex
 90
      256
102
RTVSPost2010Prop51ColorRGB
 90
-16777216
102
RTVSPost2010PropOp51
 70
     0
102
RTVSPost2010Prop52
140
1.0
102
RTVSPost2010PropOp52
 70
     0
102
RTVSPost2010Prop53
 90
        2
102
RTVSPost2010PropOp53
 70
     1
102
RTVSPost2010Prop54
  1
strokes_ogs.tif
102
RTVSPost2010PropOp54
 70
     1
102
RTVSPost2010Prop55
280
     0
102
RTVSPost2010PropOp55
 70
     1
102
RTVSPost2010Prop56
140
1.0
102
RTVSPost2010PropOp56
 70
     1
102
RTVSPost2010Prop57
140
1.0
102
RTVSPost2010PropOp57
 70
     1
102
RTVSPropertyOp0
 70
     1
102
RTVSPropertyOp1
 70
     1
102
RTVSPropertyOp2
 70
     1
102
RTVSPropertyOp3
 70
     1
102
RTVSPropertyOp4
 70
     1
102
RTVSPropertyOp5
 70
     1
102
RTVSPropertyOp6
 70
     1
102
RTVSPropertyOp7
 70
     1
102
RTVSPropertyOp8
 70
     1
102
RTVSPropertyOp9
 70
     1
102
RTVSPropertyOp10
 70
     1
102
RTVSPropertyOp11
 70
     1
102
RTVSPropertyOp12
 70
     1
102
RTVSPropertyOp13
 70
     1
102
RTVSPropertyOp14
 70
     1
102
RTVSPropertyOp15
 70
     1
102
RTVSPropertyOp16
 70
     1
102
RTVSPropertyOp17
 70
     1
102
RTVSPropertyOp18
 70
     1
102
RTVSPropertyOp19
 70
     1
102
RTVSPropertyOp20
 70
     1
102
RTVSPropertyOp21
 70
     1
102
RTVSPropertyOp22
 70
     1
102
RTVSPropertyOp23
 70
     1
102
RTVSPropertyOp24
 70
     1
102
RTVSPropertyOp25
 70
     1
102
RTVSPropertyOp26
 70
     1
102
RTVSPropertyOp27
 70
     1
102
RTVSPropertyOp28
 70
     1
102
RTVSPropertyOp29
 70
     1
102
RTVSPropertyOp30
 70
     1
102
RTVSPropertyOp31
 70
     1
102
RTVSPropertyOp32
 70
     1
102
RTVSPropertyOp33
 70
     1
102
RTVSPropertyOp34
 70
     1
102
RTVSPropertyOp35
 70
     1
102
RTVSPropertyOp36
 70
     1
102
RTVSPropertyOp37
 70
     1
102
RTVSPropertyOp38
 70
     1
102
RTVSPropertyOp39
 70
     1
102
RTVSPropertyOp40
 70
     1
102
RTVSPropertyOp41
 70
     1
102
RTVSPropertyOp42
 70
     1
102
RTVSPropertyOp43
 70
     1
102
RTVSPropertyOp44
 70
     1
102
RTVSPropertyOp45
 70
     1
102
RTVSPropertyOp46
 70
     1
102
RTVSPropertyOp47
 70
     1
102
RTVSPropertyOp48
 70
     1
102
RTVSPropertyOp49
 70
     1
102
RTVSPropertyOp50
 70
     1
102
RTVSPropertyOp51
 70
     0
102
RTVSPropertyOp52
 70
     0
102
RTVSPropertyOp53
 70
     1
102
RTVSPropertyOp54
 70
     1
102
RTVSPropertyOp55
 70
     1
102
RTVSPropertyOp56
 70
     1
102
RTVSPropertyOp57
 70
     1
102
RTVSPropertyOp58
 70
     1
102
RTVSPropertyOp59
 70
     1
102
RTVSPropertyOp60
 70
     1
102
RTVSPropertyOp61
 70
     1
102
RTVSPropertyOp62
 70
     1
  0
XRECORD
  5
29CAF
102
{ACAD_REACTORS
330
29CAE
102
}
330
29CAE
100
AcDbXrecord
280
     1
102
RTVSPost2010Prop28
280
     0
102
RTVSPost2010PropOp28
 70
     1
102
RTVSPost2010Prop29
280
     1
102
RTVSPost2010PropOp29
 70
     1
102
RTVSPost2010Prop30
280
     1
102
RTVSPost2010PropOp30
 70
     1
102
RTVSPost2010Prop31
280
     0
102
RTVSPost2010PropOp31
 70
     1
102
RTVSPost2010Prop32
280
     0
102
RTVSPost2010PropOp32
 70
     1
102
RTVSPost2010Prop33
280
     0
102
RTVSPost2010PropOp33
 70
     1
102
RTVSPost2010Prop34
280
     0
102
RTVSPost2010PropOp34
 70
     1
102
RTVSPost2010Prop35
280
     0
102
RTVSPost2010PropOp35
 70
     1
102
RTVSPost2010Prop36
280
     0
102
RTVSPost2010PropOp36
 70
     1
102
RTVSPost2010Prop37
 90
       50
102
RTVSPost2010PropOp37
 70
     1
102
RTVSPost2010Prop38
140
0.0
102
RTVSPost2010PropOp38
 70
     1
102
RTVSPost2010Prop39
140
1.0
102
RTVSPost2010PropOp39
 70
     1
102
RTVSPost2010Prop40
 90
        0
102
RTVSPost2010PropOp40
 70
     1
102
RTVSPost2010Prop41ColorIndex
 90
       18
102
RTVSPost2010Prop41ColorRGB
 90
        0
102
RTVSPost2010PropOp41
 70
     1
102
RTVSPost2010Prop42
 90
       50
102
RTVSPost2010PropOp42
 70
     1
102
RTVSPost2010Prop43
 90
        3
102
RTVSPost2010PropOp43
 70
     1
102
RTVSPost2010Prop44ColorIndex
 90
        5
102
RTVSPost2010Prop44ColorRGB
 90
      255
102
RTVSPost2010PropOp44
 70
     1
102
RTVSPost2010Prop45
280
     0
102
RTVSPost2010PropOp45
 70
     1
102
RTVSPost2010Prop46
 90
       50
102
RTVSPost2010PropOp46
 70
     1
102
RTVSPost2010Prop47
 90
       50
102
RTVSPost2010PropOp47
 70
     1
102
RTVSPost2010Prop48
 90
       50
102
RTVSPost2010PropOp48
 70
     1
102
RTVSPost2010Prop49
280
     0
102
RTVSPost2010PropOp49
 70
     1
102
RTVSPost2010Prop50
 90
       50
102
RTVSPost2010PropOp50
 70
     1
102
RTVSPost2010Prop51ColorIndex
 90
      256
102
RTVSPost2010Prop51ColorRGB
 90
-16777216
102
RTVSPost2010PropOp51
 70
     0
102
RTVSPost2010Prop52
140
1.0
102
RTVSPost2010PropOp52
 70
     0
102
RTVSPost2010Prop53
 90
        2
102
RTVSPost2010PropOp53
 70
     1
102
RTVSPost2010Prop54
  1
strokes_ogs.tif
102
RTVSPost2010PropOp54
 70
     1
102
RTVSPost2010Prop55
280
     0
102
RTVSPost2010PropOp55
 70
     1
102
RTVSPost2010Prop56
140
1.0
102
RTVSPost2010PropOp56
 70
     1
102
RTVSPost2010Prop57
140
1.0
102
RTVSPost2010PropOp57
 70
     1
102
RTVSPropertyOp0
 70
     1
102
RTVSPropertyOp1
 70
     1
102
RTVSPropertyOp2
 70
     1
102
RTVSPropertyOp3
 70
     1
102
RTVSPropertyOp4
 70
     1
102
RTVSPropertyOp5
 70
     1
102
RTVSPropertyOp6
 70
     1
102
RTVSPropertyOp7
 70
     1
102
RTVSPropertyOp8
 70
     1
102
RTVSPropertyOp9
 70
     1
102
RTVSPropertyOp10
 70
     1
102
RTVSPropertyOp11
 70
     1
102
RTVSPropertyOp12
 70
     1
102
RTVSPropertyOp13
 70
     1
102
RTVSPropertyOp14
 70
     1
102
RTVSPropertyOp15
 70
     1
102
RTVSPropertyOp16
 70
     1
102
RTVSPropertyOp17
 70
     1
102
RTVSPropertyOp18
 70
     1
102
RTVSPropertyOp19
 70
     1
102
RTVSPropertyOp20
 70
     1
102
RTVSPropertyOp21
 70
     1
102
RTVSPropertyOp22
 70
     1
102
RTVSPropertyOp23
 70
     1
102
RTVSPropertyOp24
 70
     1
102
RTVSPropertyOp25
 70
     1
102
RTVSPropertyOp26
 70
     1
102
RTVSPropertyOp27
 70
     1
102
RTVSPropertyOp28
 70
     1
102
RTVSPropertyOp29
 70
     1
102
RTVSPropertyOp30
 70
     1
102
RTVSPropertyOp31
 70
     1
102
RTVSPropertyOp32
 70
     1
102
RTVSPropertyOp33
 70
     1
102
RTVSPropertyOp34
 70
     1
102
RTVSPropertyOp35
 70
     1
102
RTVSPropertyOp36
 70
     1
102
RTVSPropertyOp37
 70
     1
102
RTVSPropertyOp38
 70
     1
102
RTVSPropertyOp39
 70
     1
102
RTVSPropertyOp40
 70
     1
102
RTVSPropertyOp41
 70
     1
102
RTVSPropertyOp42
 70
     1
102
RTVSPropertyOp43
 70
     1
102
RTVSPropertyOp44
 70
     1
102
RTVSPropertyOp45
 70
     1
102
RTVSPropertyOp46
 70
     1
102
RTVSPropertyOp47
 70
     1
102
RTVSPropertyOp48
 70
     1
102
RTVSPropertyOp49
 70
     1
102
RTVSPropertyOp50
 70
     1
102
RTVSPropertyOp51
 70
     0
102
RTVSPropertyOp52
 70
     0
102
RTVSPropertyOp53
 70
     1
102
RTVSPropertyOp54
 70
     1
102
RTVSPropertyOp55
 70
     1
102
RTVSPropertyOp56
 70
     1
102
RTVSPropertyOp57
 70
     1
102
RTVSPropertyOp58
 70
     1
102
RTVSPropertyOp59
 70
     1
102
RTVSPropertyOp60
 70
     1
102
RTVSPropertyOp61
 70
     1
102
RTVSPropertyOp62
 70
     1
  0
XRECORD
  5
29CB3
102
{ACAD_REACTORS
330
29CB2
102
}
330
29CB2
100
AcDbXrecord
280
     1
102
RTVSPost2010Prop28
280
     0
102
RTVSPost2010PropOp28
 70
     1
102
RTVSPost2010Prop29
280
     1
102
RTVSPost2010PropOp29
 70
     1
102
RTVSPost2010Prop30
280
     1
102
RTVSPost2010PropOp30
 70
     1
102
RTVSPost2010Prop31
280
     0
102
RTVSPost2010PropOp31
 70
     1
102
RTVSPost2010Prop32
280
     0
102
RTVSPost2010PropOp32
 70
     1
102
RTVSPost2010Prop33
280
     0
102
RTVSPost2010PropOp33
 70
     1
102
RTVSPost2010Prop34
280
     0
102
RTVSPost2010PropOp34
 70
     1
102
RTVSPost2010Prop35
280
     0
102
RTVSPost2010PropOp35
 70
     1
102
RTVSPost2010Prop36
280
     0
102
RTVSPost2010PropOp36
 70
     1
102
RTVSPost2010Prop37
 90
       50
102
RTVSPost2010PropOp37
 70
     1
102
RTVSPost2010Prop38
140
0.0
102
RTVSPost2010PropOp38
 70
     1
102
RTVSPost2010Prop39
140
1.0
102
RTVSPost2010PropOp39
 70
     1
102
RTVSPost2010Prop40
 90
        0
102
RTVSPost2010PropOp40
 70
     1
102
RTVSPost2010Prop41ColorIndex
 90
       18
102
RTVSPost2010Prop41ColorRGB
 90
        0
102
RTVSPost2010PropOp41
 70
     1
102
RTVSPost2010Prop42
 90
       50
102
RTVSPost2010PropOp42
 70
     1
102
RTVSPost2010Prop43
 90
        3
102
RTVSPost2010PropOp43
 70
     1
102
RTVSPost2010Prop44ColorIndex
 90
        5
102
RTVSPost2010Prop44ColorRGB
 90
      255
102
RTVSPost2010PropOp44
 70
     1
102
RTVSPost2010Prop45
280
     0
102
RTVSPost2010PropOp45
 70
     1
102
RTVSPost2010Prop46
 90
       50
102
RTVSPost2010PropOp46
 70
     1
102
RTVSPost2010Prop47
 90
       50
102
RTVSPost2010PropOp47
 70
     1
102
RTVSPost2010Prop48
 90
       50
102
RTVSPost2010PropOp48
 70
     1
102
RTVSPost2010Prop49
280
     0
102
RTVSPost2010PropOp49
 70
     1
102
RTVSPost2010Prop50
 90
       50
102
RTVSPost2010PropOp50
 70
     1
102
RTVSPost2010Prop51ColorIndex
 90
      256
102
RTVSPost2010Prop51ColorRGB
 90
-16777216
102
RTVSPost2010PropOp51
 70
     0
102
RTVSPost2010Prop52
140
1.0
102
RTVSPost2010PropOp52
 70
     0
102
RTVSPost2010Prop53
 90
        2
102
RTVSPost2010PropOp53
 70
     1
102
RTVSPost2010Prop54
  1
strokes_ogs.tif
102
RTVSPost2010PropOp54
 70
     1
102
RTVSPost2010Prop55
280
     0
102
RTVSPost2010PropOp55
 70
     1
102
RTVSPost2010Prop56
140
1.0
102
RTVSPost2010PropOp56
 70
     1
102
RTVSPost2010Prop57
140
1.0
102
RTVSPost2010PropOp57
 70
     1
102
RTVSPropertyOp0
 70
     1
102
RTVSPropertyOp1
 70
     1
102
RTVSPropertyOp2
 70
     1
102
RTVSPropertyOp3
 70
     1
102
RTVSPropertyOp4
 70
     1
102
RTVSPropertyOp5
 70
     1
102
RTVSPropertyOp6
 70
     1
102
RTVSPropertyOp7
 70
     1
102
RTVSPropertyOp8
 70
     1
102
RTVSPropertyOp9
 70
     1
102
RTVSPropertyOp10
 70
     1
102
RTVSPropertyOp11
 70
     1
102
RTVSPropertyOp12
 70
     1
102
RTVSPropertyOp13
 70
     1
102
RTVSPropertyOp14
 70
     1
102
RTVSPropertyOp15
 70
     1
102
RTVSPropertyOp16
 70
     1
102
RTVSPropertyOp17
 70
     1
102
RTVSPropertyOp18
 70
     1
102
RTVSPropertyOp19
 70
     1
102
RTVSPropertyOp20
 70
     1
102
RTVSPropertyOp21
 70
     1
102
RTVSPropertyOp22
 70
     1
102
RTVSPropertyOp23
 70
     1
102
RTVSPropertyOp24
 70
     1
102
RTVSPropertyOp25
 70
     1
102
RTVSPropertyOp26
 70
     1
102
RTVSPropertyOp27
 70
     1
102
RTVSPropertyOp28
 70
     1
102
RTVSPropertyOp29
 70
     1
102
RTVSPropertyOp30
 70
     1
102
RTVSPropertyOp31
 70
     1
102
RTVSPropertyOp32
 70
     1
102
RTVSPropertyOp33
 70
     1
102
RTVSPropertyOp34
 70
     1
102
RTVSPropertyOp35
 70
     1
102
RTVSPropertyOp36
 70
     1
102
RTVSPropertyOp37
 70
     1
102
RTVSPropertyOp38
 70
     1
102
RTVSPropertyOp39
 70
     1
102
RTVSPropertyOp40
 70
     1
102
RTVSPropertyOp41
 70
     1
102
RTVSPropertyOp42
 70
     1
102
RTVSPropertyOp43
 70
     1
102
RTVSPropertyOp44
 70
     1
102
RTVSPropertyOp45
 70
     1
102
RTVSPropertyOp46
 70
     1
102
RTVSPropertyOp47
 70
     1
102
RTVSPropertyOp48
 70
     1
102
RTVSPropertyOp49
 70
     1
102
RTVSPropertyOp50
 70
     1
102
RTVSPropertyOp51
 70
     0
102
RTVSPropertyOp52
 70
     0
102
RTVSPropertyOp53
 70
     1
102
RTVSPropertyOp54
 70
     1
102
RTVSPropertyOp55
 70
     1
102
RTVSPropertyOp56
 70
     1
102
RTVSPropertyOp57
 70
     1
102
RTVSPropertyOp58
 70
     1
102
RTVSPropertyOp59
 70
     1
102
RTVSPropertyOp60
 70
     1
102
RTVSPropertyOp61
 70
     1
102
RTVSPropertyOp62
 70
     1
  0
XRECORD
  5
29CCD
102
{ACAD_REACTORS
330
29CCC
102
}
330
29CCC
100
AcDbXrecord
280
     1
102
RTVSPost2010Prop28
280
     0
102
RTVSPost2010PropOp28
 70
     1
102
RTVSPost2010Prop29
280
     1
102
RTVSPost2010PropOp29
 70
     1
102
RTVSPost2010Prop30
280
     1
102
RTVSPost2010PropOp30
 70
     1
102
RTVSPost2010Prop31
280
     0
102
RTVSPost2010PropOp31
 70
     1
102
RTVSPost2010Prop32
280
     0
102
RTVSPost2010PropOp32
 70
     1
102
RTVSPost2010Prop33
280
     0
102
RTVSPost2010PropOp33
 70
     1
102
RTVSPost2010Prop34
280
     0
102
RTVSPost2010PropOp34
 70
     1
102
RTVSPost2010Prop35
280
     0
102
RTVSPost2010PropOp35
 70
     1
102
RTVSPost2010Prop36
280
     0
102
RTVSPost2010PropOp36
 70
     1
102
RTVSPost2010Prop37
 90
       50
102
RTVSPost2010PropOp37
 70
     0
102
RTVSPost2010Prop38
140
0.0
102
RTVSPost2010PropOp38
 70
     0
102
RTVSPost2010Prop39
140
1.0
102
RTVSPost2010PropOp39
 70
     0
102
RTVSPost2010Prop40
 90
        0
102
RTVSPost2010PropOp40
 70
     0
102
RTVSPost2010Prop41ColorIndex
 90
       18
102
RTVSPost2010Prop41ColorRGB
 90
        0
102
RTVSPost2010PropOp41
 70
     0
102
RTVSPost2010Prop42
 90
       50
102
RTVSPost2010PropOp42
 70
     0
102
RTVSPost2010Prop43
 90
        3
102
RTVSPost2010PropOp43
 70
     0
102
RTVSPost2010Prop44ColorIndex
 90
        5
102
RTVSPost2010Prop44ColorRGB
 90
      255
102
RTVSPost2010PropOp44
 70
     0
102
RTVSPost2010Prop45
280
     0
102
RTVSPost2010PropOp45
 70
     1
102
RTVSPost2010Prop46
 90
       50
102
RTVSPost2010PropOp46
 70
     0
102
RTVSPost2010Prop47
 90
       50
102
RTVSPost2010PropOp47
 70
     0
102
RTVSPost2010Prop48
 90
       50
102
RTVSPost2010PropOp48
 70
     0
102
RTVSPost2010Prop49
280
     0
102
RTVSPost2010PropOp49
 70
     1
102
RTVSPost2010Prop50
 90
       50
102
RTVSPost2010PropOp50
 70
     0
102
RTVSPost2010Prop51ColorIndex
 90
      256
102
RTVSPost2010Prop51ColorRGB
 90
-16777216
102
RTVSPost2010PropOp51
 70
     0
102
RTVSPost2010Prop52
140
1.0
102
RTVSPost2010PropOp52
 70
     0
102
RTVSPost2010Prop53
 90
        2
102
RTVSPost2010PropOp53
 70
     0
102
RTVSPost2010Prop54
  1
strokes_ogs.tif
102
RTVSPost2010PropOp54
 70
     0
102
RTVSPost2010Prop55
280
     0
102
RTVSPost2010PropOp55
 70
     1
102
RTVSPost2010Prop56
140
1.0
102
RTVSPost2010PropOp56
 70
     0
102
RTVSPost2010Prop57
140
1.0
102
RTVSPost2010PropOp57
 70
     0
102
RTVSPropertyOp0
 70
     0
102
RTVSPropertyOp1
 70
     0
102
RTVSPropertyOp2
 70
     0
102
RTVSPropertyOp3
 70
     0
102
RTVSPropertyOp4
 70
     0
102
RTVSPropertyOp5
 70
     0
102
RTVSPropertyOp6
 70
     0
102
RTVSPropertyOp7
 70
     0
102
RTVSPropertyOp8
 70
     0
102
RTVSPropertyOp9
 70
     0
102
RTVSPropertyOp10
 70
     0
102
RTVSPropertyOp11
 70
     0
102
RTVSPropertyOp12
 70
     0
102
RTVSPropertyOp13
 70
     0
102
RTVSPropertyOp14
 70
     2
102
RTVSPropertyOp15
 70
     0
102
RTVSPropertyOp16
 70
     0
102
RTVSPropertyOp17
 70
     0
102
RTVSPropertyOp18
 70
     0
102
RTVSPropertyOp19
 70
     0
102
RTVSPropertyOp20
 70
     0
102
RTVSPropertyOp21
 70
     0
102
RTVSPropertyOp22
 70
     0
102
RTVSPropertyOp23
 70
     0
102
RTVSPropertyOp24
 70
     0
102
RTVSPropertyOp25
 70
     0
102
RTVSPropertyOp26
 70
     0
102
RTVSPropertyOp27
 70
     0
102
RTVSPropertyOp28
 70
     1
102
RTVSPropertyOp29
 70
     1
102
RTVSPropertyOp30
 70
     1
102
RTVSPropertyOp31
 70
     1
102
RTVSPropertyOp32
 70
     1
102
RTVSPropertyOp33
 70
     1
102
RTVSPropertyOp34
 70
     1
102
RTVSPropertyOp35
 70
     1
102
RTVSPropertyOp36
 70
     1
102
RTVSPropertyOp37
 70
     0
102
RTVSPropertyOp38
 70
     0
102
RTVSPropertyOp39
 70
     0
102
RTVSPropertyOp40
 70
     0
102
RTVSPropertyOp41
 70
     0
102
RTVSPropertyOp42
 70
     0
102
RTVSPropertyOp43
 70
     0
102
RTVSPropertyOp44
 70
     0
102
RTVSPropertyOp45
 70
     1
102
RTVSPropertyOp46
 70
     0
102
RTVSPropertyOp47
 70
     0
102
RTVSPropertyOp48
 70
     0
102
RTVSPropertyOp49
 70
     1
102
RTVSPropertyOp50
 70
     0
102
RTVSPropertyOp51
 70
     0
102
RTVSPropertyOp52
 70
     0
102
RTVSPropertyOp53
 70
     0
102
RTVSPropertyOp54
 70
     0
102
RTVSPropertyOp55
 70
     1
102
RTVSPropertyOp56
 70
     0
102
RTVSPropertyOp57
 70
     0
102
RTVSPropertyOp58
 70
     0
102
RTVSPropertyOp59
 70
     0
102
RTVSPropertyOp60
 70
     0
102
RTVSPropertyOp61
 70
     0
102
RTVSPropertyOp62
 70
     0
  0
XRECORD
  5
29CBB
102
{ACAD_REACTORS
330
29CBA
102
}
330
29CBA
100
AcDbXrecord
280
     1
102
RTVSPost2010Prop28
280
     0
102
RTVSPost2010PropOp28
 70
     1
102
RTVSPost2010Prop29
280
     1
102
RTVSPost2010PropOp29
 70
     1
102
RTVSPost2010Prop30
280
     1
102
RTVSPost2010PropOp30
 70
     1
102
RTVSPost2010Prop31
280
     0
102
RTVSPost2010PropOp31
 70
     1
102
RTVSPost2010Prop32
280
     0
102
RTVSPost2010PropOp32
 70
     1
102
RTVSPost2010Prop33
280
     0
102
RTVSPost2010PropOp33
 70
     1
102
RTVSPost2010Prop34
280
     0
102
RTVSPost2010PropOp34
 70
     1
102
RTVSPost2010Prop35
280
     0
102
RTVSPost2010PropOp35
 70
     1
102
RTVSPost2010Prop36
280
     0
102
RTVSPost2010PropOp36
 70
     1
102
RTVSPost2010Prop37
 90
       50
102
RTVSPost2010PropOp37
 70
     1
102
RTVSPost2010Prop38
140
0.0
102
RTVSPost2010PropOp38
 70
     1
102
RTVSPost2010Prop39
140
1.0
102
RTVSPost2010PropOp39
 70
     1
102
RTVSPost2010Prop40
 90
        0
102
RTVSPost2010PropOp40
 70
     1
102
RTVSPost2010Prop41ColorIndex
 90
       18
102
RTVSPost2010Prop41ColorRGB
 90
        0
102
RTVSPost2010PropOp41
 70
     1
102
RTVSPost2010Prop42
 90
       50
102
RTVSPost2010PropOp42
 70
     1
102
RTVSPost2010Prop43
 90
        3
102
RTVSPost2010PropOp43
 70
     1
102
RTVSPost2010Prop44ColorIndex
 90
        5
102
RTVSPost2010Prop44ColorRGB
 90
      255
102
RTVSPost2010PropOp44
 70
     1
102
RTVSPost2010Prop45
280
     0
102
RTVSPost2010PropOp45
 70
     1
102
RTVSPost2010Prop46
 90
       50
102
RTVSPost2010PropOp46
 70
     1
102
RTVSPost2010Prop47
 90
       50
102
RTVSPost2010PropOp47
 70
     1
102
RTVSPost2010Prop48
 90
       50
102
RTVSPost2010PropOp48
 70
     1
102
RTVSPost2010Prop49
280
     0
102
RTVSPost2010PropOp49
 70
     1
102
RTVSPost2010Prop50
 90
       50
102
RTVSPost2010PropOp50
 70
     1
102
RTVSPost2010Prop51ColorIndex
 90
      256
102
RTVSPost2010Prop51ColorRGB
 90
-16777216
102
RTVSPost2010PropOp51
 70
     0
102
RTVSPost2010Prop52
140
1.0
102
RTVSPost2010PropOp52
 70
     0
102
RTVSPost2010Prop53
 90
        2
102
RTVSPost2010PropOp53
 70
     1
102
RTVSPost2010Prop54
  1
strokes_ogs.tif
102
RTVSPost2010PropOp54
 70
     1
102
RTVSPost2010Prop55
280
     0
102
RTVSPost2010PropOp55
 70
     1
102
RTVSPost2010Prop56
140
1.0
102
RTVSPost2010PropOp56
 70
     1
102
RTVSPost2010Prop57
140
1.0
102
RTVSPost2010PropOp57
 70
     1
102
RTVSPropertyOp0
 70
     1
102
RTVSPropertyOp1
 70
     1
102
RTVSPropertyOp2
 70
     1
102
RTVSPropertyOp3
 70
     1
102
RTVSPropertyOp4
 70
     1
102
RTVSPropertyOp5
 70
     1
102
RTVSPropertyOp6
 70
     1
102
RTVSPropertyOp7
 70
     1
102
RTVSPropertyOp8
 70
     1
102
RTVSPropertyOp9
 70
     1
102
RTVSPropertyOp10
 70
     1
102
RTVSPropertyOp11
 70
     1
102
RTVSPropertyOp12
 70
     1
102
RTVSPropertyOp13
 70
     1
102
RTVSPropertyOp14
 70
     1
102
RTVSPropertyOp15
 70
     1
102
RTVSPropertyOp16
 70
     1
102
RTVSPropertyOp17
 70
     1
102
RTVSPropertyOp18
 70
     1
102
RTVSPropertyOp19
 70
     1
102
RTVSPropertyOp20
 70
     1
102
RTVSPropertyOp21
 70
     1
102
RTVSPropertyOp22
 70
     1
102
RTVSPropertyOp23
 70
     1
102
RTVSPropertyOp24
 70
     1
102
RTVSPropertyOp25
 70
     1
102
RTVSPropertyOp26
 70
     1
102
RTVSPropertyOp27
 70
     1
102
RTVSPropertyOp28
 70
     1
102
RTVSPropertyOp29
 70
     1
102
RTVSPropertyOp30
 70
     1
102
RTVSPropertyOp31
 70
     1
102
RTVSPropertyOp32
 70
     1
102
RTVSPropertyOp33
 70
     1
102
RTVSPropertyOp34
 70
     1
102
RTVSPropertyOp35
 70
     1
102
RTVSPropertyOp36
 70
     1
102
RTVSPropertyOp37
 70
     1
102
RTVSPropertyOp38
 70
     1
102
RTVSPropertyOp39
 70
     1
102
RTVSPropertyOp40
 70
     1
102
RTVSPropertyOp41
 70
     1
102
RTVSPropertyOp42
 70
     1
102
RTVSPropertyOp43
 70
     1
102
RTVSPropertyOp44
 70
     1
102
RTVSPropertyOp45
 70
     1
102
RTVSPropertyOp46
 70
     1
102
RTVSPropertyOp47
 70
     1
102
RTVSPropertyOp48
 70
     1
102
RTVSPropertyOp49
 70
     1
102
RTVSPropertyOp50
 70
     1
102
RTVSPropertyOp51
 70
     0
102
RTVSPropertyOp52
 70
     0
102
RTVSPropertyOp53
 70
     1
102
RTVSPropertyOp54
 70
     1
102
RTVSPropertyOp55
 70
     1
102
RTVSPropertyOp56
 70
     1
102
RTVSPropertyOp57
 70
     1
102
RTVSPropertyOp58
 70
     1
102
RTVSPropertyOp59
 70
     1
102
RTVSPropertyOp60
 70
     1
102
RTVSPropertyOp61
 70
     1
102
RTVSPropertyOp62
 70
     1
  0
XRECORD
  5
29C9F
102
{ACAD_REACTORS
330
29C9E
102
}
330
29C9E
100
AcDbXrecord
280
     1
102
RTVSPost2010Prop28
280
     0
102
RTVSPost2010PropOp28
 70
     1
102
RTVSPost2010Prop29
280
     1
102
RTVSPost2010PropOp29
 70
     1
102
RTVSPost2010Prop30
280
     1
102
RTVSPost2010PropOp30
 70
     1
102
RTVSPost2010Prop31
280
     0
102
RTVSPost2010PropOp31
 70
     1
102
RTVSPost2010Prop32
280
     0
102
RTVSPost2010PropOp32
 70
     1
102
RTVSPost2010Prop33
280
     0
102
RTVSPost2010PropOp33
 70
     1
102
RTVSPost2010Prop34
280
     0
102
RTVSPost2010PropOp34
 70
     1
102
RTVSPost2010Prop35
280
     0
102
RTVSPost2010PropOp35
 70
     1
102
RTVSPost2010Prop36
280
     0
102
RTVSPost2010PropOp36
 70
     1
102
RTVSPost2010Prop37
 90
       50
102
RTVSPost2010PropOp37
 70
     1
102
RTVSPost2010Prop38
140
0.0
102
RTVSPost2010PropOp38
 70
     1
102
RTVSPost2010Prop39
140
1.0
102
RTVSPost2010PropOp39
 70
     1
102
RTVSPost2010Prop40
 90
        0
102
RTVSPost2010PropOp40
 70
     1
102
RTVSPost2010Prop41ColorIndex
 90
       18
102
RTVSPost2010Prop41ColorRGB
 90
        0
102
RTVSPost2010PropOp41
 70
     1
102
RTVSPost2010Prop42
 90
       50
102
RTVSPost2010PropOp42
 70
     1
102
RTVSPost2010Prop43
 90
        3
102
RTVSPost2010PropOp43
 70
     1
102
RTVSPost2010Prop44ColorIndex
 90
        5
102
RTVSPost2010Prop44ColorRGB
 90
      255
102
RTVSPost2010PropOp44
 70
     1
102
RTVSPost2010Prop45
280
     0
102
RTVSPost2010PropOp45
 70
     1
102
RTVSPost2010Prop46
 90
       50
102
RTVSPost2010PropOp46
 70
     1
102
RTVSPost2010Prop47
 90
       50
102
RTVSPost2010PropOp47
 70
     1
102
RTVSPost2010Prop48
 90
       50
102
RTVSPost2010PropOp48
 70
     1
102
RTVSPost2010Prop49
280
     0
102
RTVSPost2010PropOp49
 70
     1
102
RTVSPost2010Prop50
 90
       50
102
RTVSPost2010PropOp50
 70
     1
102
RTVSPost2010Prop51ColorIndex
 90
      256
102
RTVSPost2010Prop51ColorRGB
 90
-16777216
102
RTVSPost2010PropOp51
 70
     0
102
RTVSPost2010Prop52
140
1.0
102
RTVSPost2010PropOp52
 70
     0
102
RTVSPost2010Prop53
 90
        2
102
RTVSPost2010PropOp53
 70
     1
102
RTVSPost2010Prop54
  1
strokes_ogs.tif
102
RTVSPost2010PropOp54
 70
     1
102
RTVSPost2010Prop55
280
     0
102
RTVSPost2010PropOp55
 70
     1
102
RTVSPost2010Prop56
140
1.0
102
RTVSPost2010PropOp56
 70
     1
102
RTVSPost2010Prop57
140
1.0
102
RTVSPost2010PropOp57
 70
     1
102
RTVSPropertyOp0
 70
     1
102
RTVSPropertyOp1
 70
     1
102
RTVSPropertyOp2
 70
     1
102
RTVSPropertyOp3
 70
     1
102
RTVSPropertyOp4
 70
     1
102
RTVSPropertyOp5
 70
     1
102
RTVSPropertyOp6
 70
     1
102
RTVSPropertyOp7
 70
     1
102
RTVSPropertyOp8
 70
     1
102
RTVSPropertyOp9
 70
     1
102
RTVSPropertyOp10
 70
     1
102
RTVSPropertyOp11
 70
     1
102
RTVSPropertyOp12
 70
     1
102
RTVSPropertyOp13
 70
     1
102
RTVSPropertyOp14
 70
     1
102
RTVSPropertyOp15
 70
     1
102
RTVSPropertyOp16
 70
     1
102
RTVSPropertyOp17
 70
     1
102
RTVSPropertyOp18
 70
     1
102
RTVSPropertyOp19
 70
     1
102
RTVSPropertyOp20
 70
     1
102
RTVSPropertyOp21
 70
     1
102
RTVSPropertyOp22
 70
     1
102
RTVSPropertyOp23
 70
     1
102
RTVSPropertyOp24
 70
     1
102
RTVSPropertyOp25
 70
     1
102
RTVSPropertyOp26
 70
     1
102
RTVSPropertyOp27
 70
     1
102
RTVSPropertyOp28
 70
     1
102
RTVSPropertyOp29
 70
     1
102
RTVSPropertyOp30
 70
     1
102
RTVSPropertyOp31
 70
     1
102
RTVSPropertyOp32
 70
     1
102
RTVSPropertyOp33
 70
     1
102
RTVSPropertyOp34
 70
     1
102
RTVSPropertyOp35
 70
     1
102
RTVSPropertyOp36
 70
     1
102
RTVSPropertyOp37
 70
     1
102
RTVSPropertyOp38
 70
     1
102
RTVSPropertyOp39
 70
     1
102
RTVSPropertyOp40
 70
     1
102
RTVSPropertyOp41
 70
     1
102
RTVSPropertyOp42
 70
     1
102
RTVSPropertyOp43
 70
     1
102
RTVSPropertyOp44
 70
     1
102
RTVSPropertyOp45
 70
     1
102
RTVSPropertyOp46
 70
     1
102
RTVSPropertyOp47
 70
     1
102
RTVSPropertyOp48
 70
     1
102
RTVSPropertyOp49
 70
     1
102
RTVSPropertyOp50
 70
     1
102
RTVSPropertyOp51
 70
     0
102
RTVSPropertyOp52
 70
     0
102
RTVSPropertyOp53
 70
     1
102
RTVSPropertyOp54
 70
     1
102
RTVSPropertyOp55
 70
     1
102
RTVSPropertyOp56
 70
     1
102
RTVSPropertyOp57
 70
     1
102
RTVSPropertyOp58
 70
     1
102
RTVSPropertyOp59
 70
     1
102
RTVSPropertyOp60
 70
     1
102
RTVSPropertyOp61
 70
     1
102
RTVSPropertyOp62
 70
     1
  0
XRECORD
  5
29CA1
102
{ACAD_REACTORS
330
29CA0
102
}
330
29CA0
100
AcDbXrecord
280
     1
102
RTVSPost2010Prop28
280
     0
102
RTVSPost2010PropOp28
 70
     1
102
RTVSPost2010Prop29
280
     1
102
RTVSPost2010PropOp29
 70
     1
102
RTVSPost2010Prop30
280
     1
102
RTVSPost2010PropOp30
 70
     1
102
RTVSPost2010Prop31
280
     0
102
RTVSPost2010PropOp31
 70
     1
102
RTVSPost2010Prop32
280
     0
102
RTVSPost2010PropOp32
 70
     1
102
RTVSPost2010Prop33
280
     0
102
RTVSPost2010PropOp33
 70
     1
102
RTVSPost2010Prop34
280
     0
102
RTVSPost2010PropOp34
 70
     1
102
RTVSPost2010Prop35
280
     0
102
RTVSPost2010PropOp35
 70
     1
102
RTVSPost2010Prop36
280
     0
102
RTVSPost2010PropOp36
 70
     1
102
RTVSPost2010Prop37
 90
       50
102
RTVSPost2010PropOp37
 70
     1
102
RTVSPost2010Prop38
140
0.0
102
RTVSPost2010PropOp38
 70
     1
102
RTVSPost2010Prop39
140
1.0
102
RTVSPost2010PropOp39
 70
     1
102
RTVSPost2010Prop40
 90
        0
102
RTVSPost2010PropOp40
 70
     1
102
RTVSPost2010Prop41ColorIndex
 90
       18
102
RTVSPost2010Prop41ColorRGB
 90
        0
102
RTVSPost2010PropOp41
 70
     1
102
RTVSPost2010Prop42
 90
       50
102
RTVSPost2010PropOp42
 70
     1
102
RTVSPost2010Prop43
 90
        3
102
RTVSPost2010PropOp43
 70
     1
102
RTVSPost2010Prop44ColorIndex
 90
        5
102
RTVSPost2010Prop44ColorRGB
 90
      255
102
RTVSPost2010PropOp44
 70
     1
102
RTVSPost2010Prop45
280
     0
102
RTVSPost2010PropOp45
 70
     1
102
RTVSPost2010Prop46
 90
       50
102
RTVSPost2010PropOp46
 70
     1
102
RTVSPost2010Prop47
 90
       50
102
RTVSPost2010PropOp47
 70
     1
102
RTVSPost2010Prop48
 90
       50
102
RTVSPost2010PropOp48
 70
     1
102
RTVSPost2010Prop49
280
     0
102
RTVSPost2010PropOp49
 70
     1
102
RTVSPost2010Prop50
 90
       50
102
RTVSPost2010PropOp50
 70
     1
102
RTVSPost2010Prop51ColorIndex
 90
      256
102
RTVSPost2010Prop51ColorRGB
 90
-16777216
102
RTVSPost2010PropOp51
 70
     0
102
RTVSPost2010Prop52
140
1.0
102
RTVSPost2010PropOp52
 70
     0
102
RTVSPost2010Prop53
 90
        2
102
RTVSPost2010PropOp53
 70
     1
102
RTVSPost2010Prop54
  1
strokes_ogs.tif
102
RTVSPost2010PropOp54
 70
     1
102
RTVSPost2010Prop55
280
     0
102
RTVSPost2010PropOp55
 70
     1
102
RTVSPost2010Prop56
140
1.0
102
RTVSPost2010PropOp56
 70
     1
102
RTVSPost2010Prop57
140
1.0
102
RTVSPost2010PropOp57
 70
     1
102
RTVSPropertyOp0
 70
     1
102
RTVSPropertyOp1
 70
     1
102
RTVSPropertyOp2
 70
     1
102
RTVSPropertyOp3
 70
     1
102
RTVSPropertyOp4
 70
     1
102
RTVSPropertyOp5
 70
     1
102
RTVSPropertyOp6
 70
     1
102
RTVSPropertyOp7
 70
     1
102
RTVSPropertyOp8
 70
     1
102
RTVSPropertyOp9
 70
     1
102
RTVSPropertyOp10
 70
     1
102
RTVSPropertyOp11
 70
     1
102
RTVSPropertyOp12
 70
     1
102
RTVSPropertyOp13
 70
     1
102
RTVSPropertyOp14
 70
     1
102
RTVSPropertyOp15
 70
     1
102
RTVSPropertyOp16
 70
     1
102
RTVSPropertyOp17
 70
     1
102
RTVSPropertyOp18
 70
     1
102
RTVSPropertyOp19
 70
     1
102
RTVSPropertyOp20
 70
     1
102
RTVSPropertyOp21
 70
     1
102
RTVSPropertyOp22
 70
     1
102
RTVSPropertyOp23
 70
     1
102
RTVSPropertyOp24
 70
     1
102
RTVSPropertyOp25
 70
     1
102
RTVSPropertyOp26
 70
     1
102
RTVSPropertyOp27
 70
     1
102
RTVSPropertyOp28
 70
     1
102
RTVSPropertyOp29
 70
     1
102
RTVSPropertyOp30
 70
     1
102
RTVSPropertyOp31
 70
     1
102
RTVSPropertyOp32
 70
     1
102
RTVSPropertyOp33
 70
     1
102
RTVSPropertyOp34
 70
     1
102
RTVSPropertyOp35
 70
     1
102
RTVSPropertyOp36
 70
     1
102
RTVSPropertyOp37
 70
     1
102
RTVSPropertyOp38
 70
     1
102
RTVSPropertyOp39
 70
     1
102
RTVSPropertyOp40
 70
     1
102
RTVSPropertyOp41
 70
     1
102
RTVSPropertyOp42
 70
     1
102
RTVSPropertyOp43
 70
     1
102
RTVSPropertyOp44
 70
     1
102
RTVSPropertyOp45
 70
     1
102
RTVSPropertyOp46
 70
     1
102
RTVSPropertyOp47
 70
     1
102
RTVSPropertyOp48
 70
     1
102
RTVSPropertyOp49
 70
     1
102
RTVSPropertyOp50
 70
     1
102
RTVSPropertyOp51
 70
     0
102
RTVSPropertyOp52
 70
     0
102
RTVSPropertyOp53
 70
     1
102
RTVSPropertyOp54
 70
     1
102
RTVSPropertyOp55
 70
     1
102
RTVSPropertyOp56
 70
     1
102
RTVSPropertyOp57
 70
     1
102
RTVSPropertyOp58
 70
     1
102
RTVSPropertyOp59
 70
     1
102
RTVSPropertyOp60
 70
     1
102
RTVSPropertyOp61
 70
     1
102
RTVSPropertyOp62
 70
     1
  0
XRECORD
  5
29CA3
102
{ACAD_REACTORS
330
29CA2
102
}
330
29CA2
100
AcDbXrecord
280
     1
102
RTVSPost2010Prop28
280
     0
102
RTVSPost2010PropOp28
 70
     1
102
RTVSPost2010Prop29
280
     1
102
RTVSPost2010PropOp29
 70
     1
102
RTVSPost2010Prop30
280
     1
102
RTVSPost2010PropOp30
 70
     1
102
RTVSPost2010Prop31
280
     0
102
RTVSPost2010PropOp31
 70
     1
102
RTVSPost2010Prop32
280
     0
102
RTVSPost2010PropOp32
 70
     1
102
RTVSPost2010Prop33
280
     0
102
RTVSPost2010PropOp33
 70
     1
102
RTVSPost2010Prop34
280
     0
102
RTVSPost2010PropOp34
 70
     1
102
RTVSPost2010Prop35
280
     0
102
RTVSPost2010PropOp35
 70
     1
102
RTVSPost2010Prop36
280
     0
102
RTVSPost2010PropOp36
 70
     1
102
RTVSPost2010Prop37
 90
       50
102
RTVSPost2010PropOp37
 70
     1
102
RTVSPost2010Prop38
140
0.0
102
RTVSPost2010PropOp38
 70
     1
102
RTVSPost2010Prop39
140
1.0
102
RTVSPost2010PropOp39
 70
     1
102
RTVSPost2010Prop40
 90
        0
102
RTVSPost2010PropOp40
 70
     1
102
RTVSPost2010Prop41ColorIndex
 90
       18
102
RTVSPost2010Prop41ColorRGB
 90
        0
102
RTVSPost2010PropOp41
 70
     1
102
RTVSPost2010Prop42
 90
       50
102
RTVSPost2010PropOp42
 70
     1
102
RTVSPost2010Prop43
 90
        3
102
RTVSPost2010PropOp43
 70
     1
102
RTVSPost2010Prop44ColorIndex
 90
        5
102
RTVSPost2010Prop44ColorRGB
 90
      255
102
RTVSPost2010PropOp44
 70
     1
102
RTVSPost2010Prop45
280
     0
102
RTVSPost2010PropOp45
 70
     1
102
RTVSPost2010Prop46
 90
       50
102
RTVSPost2010PropOp46
 70
     1
102
RTVSPost2010Prop47
 90
       50
102
RTVSPost2010PropOp47
 70
     1
102
RTVSPost2010Prop48
 90
       50
102
RTVSPost2010PropOp48
 70
     1
102
RTVSPost2010Prop49
280
     0
102
RTVSPost2010PropOp49
 70
     1
102
RTVSPost2010Prop50
 90
       50
102
RTVSPost2010PropOp50
 70
     1
102
RTVSPost2010Prop51ColorIndex
 90
      256
102
RTVSPost2010Prop51ColorRGB
 90
-16777216
102
RTVSPost2010PropOp51
 70
     0
102
RTVSPost2010Prop52
140
1.0
102
RTVSPost2010PropOp52
 70
     0
102
RTVSPost2010Prop53
 90
        2
102
RTVSPost2010PropOp53
 70
     1
102
RTVSPost2010Prop54
  1
strokes_ogs.tif
102
RTVSPost2010PropOp54
 70
     1
102
RTVSPost2010Prop55
280
     0
102
RTVSPost2010PropOp55
 70
     1
102
RTVSPost2010Prop56
140
1.0
102
RTVSPost2010PropOp56
 70
     1
102
RTVSPost2010Prop57
140
1.0
102
RTVSPost2010PropOp57
 70
     1
102
RTVSPropertyOp0
 70
     1
102
RTVSPropertyOp1
 70
     1
102
RTVSPropertyOp2
 70
     1
102
RTVSPropertyOp3
 70
     1
102
RTVSPropertyOp4
 70
     1
102
RTVSPropertyOp5
 70
     1
102
RTVSPropertyOp6
 70
     1
102
RTVSPropertyOp7
 70
     1
102
RTVSPropertyOp8
 70
     1
102
RTVSPropertyOp9
 70
     1
102
RTVSPropertyOp10
 70
     1
102
RTVSPropertyOp11
 70
     1
102
RTVSPropertyOp12
 70
     1
102
RTVSPropertyOp13
 70
     1
102
RTVSPropertyOp14
 70
     1
102
RTVSPropertyOp15
 70
     1
102
RTVSPropertyOp16
 70
     1
102
RTVSPropertyOp17
 70
     1
102
RTVSPropertyOp18
 70
     1
102
RTVSPropertyOp19
 70
     1
102
RTVSPropertyOp20
 70
     1
102
RTVSPropertyOp21
 70
     1
102
RTVSPropertyOp22
 70
     1
102
RTVSPropertyOp23
 70
     1
102
RTVSPropertyOp24
 70
     1
102
RTVSPropertyOp25
 70
     1
102
RTVSPropertyOp26
 70
     1
102
RTVSPropertyOp27
 70
     1
102
RTVSPropertyOp28
 70
     1
102
RTVSPropertyOp29
 70
     1
102
RTVSPropertyOp30
 70
     1
102
RTVSPropertyOp31
 70
     1
102
RTVSPropertyOp32
 70
     1
102
RTVSPropertyOp33
 70
     1
102
RTVSPropertyOp34
 70
     1
102
RTVSPropertyOp35
 70
     1
102
RTVSPropertyOp36
 70
     1
102
RTVSPropertyOp37
 70
     1
102
RTVSPropertyOp38
 70
     1
102
RTVSPropertyOp39
 70
     1
102
RTVSPropertyOp40
 70
     1
102
RTVSPropertyOp41
 70
     1
102
RTVSPropertyOp42
 70
     1
102
RTVSPropertyOp43
 70
     1
102
RTVSPropertyOp44
 70
     1
102
RTVSPropertyOp45
 70
     1
102
RTVSPropertyOp46
 70
     1
102
RTVSPropertyOp47
 70
     1
102
RTVSPropertyOp48
 70
     1
102
RTVSPropertyOp49
 70
     1
102
RTVSPropertyOp50
 70
     1
102
RTVSPropertyOp51
 70
     0
102
RTVSPropertyOp52
 70
     0
102
RTVSPropertyOp53
 70
     1
102
RTVSPropertyOp54
 70
     1
102
RTVSPropertyOp55
 70
     1
102
RTVSPropertyOp56
 70
     1
102
RTVSPropertyOp57
 70
     1
102
RTVSPropertyOp58
 70
     1
102
RTVSPropertyOp59
 70
     1
102
RTVSPropertyOp60
 70
     1
102
RTVSPropertyOp61
 70
     1
102
RTVSPropertyOp62
 70
     1
  0
XRECORD
  5
29CA5
102
{ACAD_REACTORS
330
29CA4
102
}
330
29CA4
100
AcDbXrecord
280
     1
102
RTVSPost2010Prop28
280
     0
102
RTVSPost2010PropOp28
 70
     1
102
RTVSPost2010Prop29
280
     1
102
RTVSPost2010PropOp29
 70
     1
102
RTVSPost2010Prop30
280
     1
102
RTVSPost2010PropOp30
 70
     1
102
RTVSPost2010Prop31
280
     0
102
RTVSPost2010PropOp31
 70
     1
102
RTVSPost2010Prop32
280
     0
102
RTVSPost2010PropOp32
 70
     1
102
RTVSPost2010Prop33
280
     0
102
RTVSPost2010PropOp33
 70
     1
102
RTVSPost2010Prop34
280
     0
102
RTVSPost2010PropOp34
 70
     1
102
RTVSPost2010Prop35
280
     0
102
RTVSPost2010PropOp35
 70
     1
102
RTVSPost2010Prop36
280
     0
102
RTVSPost2010PropOp36
 70
     1
102
RTVSPost2010Prop37
 90
       50
102
RTVSPost2010PropOp37
 70
     1
102
RTVSPost2010Prop38
140
0.0
102
RTVSPost2010PropOp38
 70
     1
102
RTVSPost2010Prop39
140
1.0
102
RTVSPost2010PropOp39
 70
     1
102
RTVSPost2010Prop40
 90
        0
102
RTVSPost2010PropOp40
 70
     1
102
RTVSPost2010Prop41ColorIndex
 90
       18
102
RTVSPost2010Prop41ColorRGB
 90
        0
102
RTVSPost2010PropOp41
 70
     1
102
RTVSPost2010Prop42
 90
       50
102
RTVSPost2010PropOp42
 70
     1
102
RTVSPost2010Prop43
 90
        3
102
RTVSPost2010PropOp43
 70
     1
102
RTVSPost2010Prop44ColorIndex
 90
        5
102
RTVSPost2010Prop44ColorRGB
 90
      255
102
RTVSPost2010PropOp44
 70
     1
102
RTVSPost2010Prop45
280
     0
102
RTVSPost2010PropOp45
 70
     1
102
RTVSPost2010Prop46
 90
       50
102
RTVSPost2010PropOp46
 70
     1
102
RTVSPost2010Prop47
 90
       50
102
RTVSPost2010PropOp47
 70
     1
102
RTVSPost2010Prop48
 90
       50
102
RTVSPost2010PropOp48
 70
     1
102
RTVSPost2010Prop49
280
     0
102
RTVSPost2010PropOp49
 70
     1
102
RTVSPost2010Prop50
 90
       50
102
RTVSPost2010PropOp50
 70
     1
102
RTVSPost2010Prop51ColorIndex
 90
      256
102
RTVSPost2010Prop51ColorRGB
 90
-16777216
102
RTVSPost2010PropOp51
 70
     0
102
RTVSPost2010Prop52
140
1.0
102
RTVSPost2010PropOp52
 70
     0
102
RTVSPost2010Prop53
 90
        2
102
RTVSPost2010PropOp53
 70
     1
102
RTVSPost2010Prop54
  1
strokes_ogs.tif
102
RTVSPost2010PropOp54
 70
     1
102
RTVSPost2010Prop55
280
     0
102
RTVSPost2010PropOp55
 70
     1
102
RTVSPost2010Prop56
140
1.0
102
RTVSPost2010PropOp56
 70
     1
102
RTVSPost2010Prop57
140
1.0
102
RTVSPost2010PropOp57
 70
     1
102
RTVSPropertyOp0
 70
     1
102
RTVSPropertyOp1
 70
     1
102
RTVSPropertyOp2
 70
     1
102
RTVSPropertyOp3
 70
     1
102
RTVSPropertyOp4
 70
     1
102
RTVSPropertyOp5
 70
     1
102
RTVSPropertyOp6
 70
     1
102
RTVSPropertyOp7
 70
     1
102
RTVSPropertyOp8
 70
     1
102
RTVSPropertyOp9
 70
     1
102
RTVSPropertyOp10
 70
     1
102
RTVSPropertyOp11
 70
     1
102
RTVSPropertyOp12
 70
     1
102
RTVSPropertyOp13
 70
     1
102
RTVSPropertyOp14
 70
     1
102
RTVSPropertyOp15
 70
     1
102
RTVSPropertyOp16
 70
     1
102
RTVSPropertyOp17
 70
     1
102
RTVSPropertyOp18
 70
     1
102
RTVSPropertyOp19
 70
     1
102
RTVSPropertyOp20
 70
     1
102
RTVSPropertyOp21
 70
     1
102
RTVSPropertyOp22
 70
     1
102
RTVSPropertyOp23
 70
     1
102
RTVSPropertyOp24
 70
     1
102
RTVSPropertyOp25
 70
     1
102
RTVSPropertyOp26
 70
     1
102
RTVSPropertyOp27
 70
     1
102
RTVSPropertyOp28
 70
     1
102
RTVSPropertyOp29
 70
     1
102
RTVSPropertyOp30
 70
     1
102
RTVSPropertyOp31
 70
     1
102
RTVSPropertyOp32
 70
     1
102
RTVSPropertyOp33
 70
     1
102
RTVSPropertyOp34
 70
     1
102
RTVSPropertyOp35
 70
     1
102
RTVSPropertyOp36
 70
     1
102
RTVSPropertyOp37
 70
     1
102
RTVSPropertyOp38
 70
     1
102
RTVSPropertyOp39
 70
     1
102
RTVSPropertyOp40
 70
     1
102
RTVSPropertyOp41
 70
     1
102
RTVSPropertyOp42
 70
     1
102
RTVSPropertyOp43
 70
     1
102
RTVSPropertyOp44
 70
     1
102
RTVSPropertyOp45
 70
     1
102
RTVSPropertyOp46
 70
     1
102
RTVSPropertyOp47
 70
     1
102
RTVSPropertyOp48
 70
     1
102
RTVSPropertyOp49
 70
     1
102
RTVSPropertyOp50
 70
     1
102
RTVSPropertyOp51
 70
     0
102
RTVSPropertyOp52
 70
     0
102
RTVSPropertyOp53
 70
     1
102
RTVSPropertyOp54
 70
     1
102
RTVSPropertyOp55
 70
     1
102
RTVSPropertyOp56
 70
     1
102
RTVSPropertyOp57
 70
     1
102
RTVSPropertyOp58
 70
     1
102
RTVSPropertyOp59
 70
     1
102
RTVSPropertyOp60
 70
     1
102
RTVSPropertyOp61
 70
     1
102
RTVSPropertyOp62
 70
     1
  0
XRECORD
  5
29CAD
102
{ACAD_REACTORS
330
29CAC
102
}
330
29CAC
100
AcDbXrecord
280
     1
102
RTVSPost2010Prop28
280
     0
102
RTVSPost2010PropOp28
 70
     1
102
RTVSPost2010Prop29
280
     1
102
RTVSPost2010PropOp29
 70
     1
102
RTVSPost2010Prop30
280
     1
102
RTVSPost2010PropOp30
 70
     1
102
RTVSPost2010Prop31
280
     0
102
RTVSPost2010PropOp31
 70
     1
102
RTVSPost2010Prop32
280
     0
102
RTVSPost2010PropOp32
 70
     1
102
RTVSPost2010Prop33
280
     0
102
RTVSPost2010PropOp33
 70
     1
102
RTVSPost2010Prop34
280
     0
102
RTVSPost2010PropOp34
 70
     1
102
RTVSPost2010Prop35
280
     0
102
RTVSPost2010PropOp35
 70
     1
102
RTVSPost2010Prop36
280
     0
102
RTVSPost2010PropOp36
 70
     1
102
RTVSPost2010Prop37
 90
       50
102
RTVSPost2010PropOp37
 70
     1
102
RTVSPost2010Prop38
140
0.0
102
RTVSPost2010PropOp38
 70
     1
102
RTVSPost2010Prop39
140
1.0
102
RTVSPost2010PropOp39
 70
     1
102
RTVSPost2010Prop40
 90
        0
102
RTVSPost2010PropOp40
 70
     1
102
RTVSPost2010Prop41ColorIndex
 90
       18
102
RTVSPost2010Prop41ColorRGB
 90
        0
102
RTVSPost2010PropOp41
 70
     1
102
RTVSPost2010Prop42
 90
       50
102
RTVSPost2010PropOp42
 70
     1
102
RTVSPost2010Prop43
 90
        3
102
RTVSPost2010PropOp43
 70
     1
102
RTVSPost2010Prop44ColorIndex
 90
        5
102
RTVSPost2010Prop44ColorRGB
 90
      255
102
RTVSPost2010PropOp44
 70
     1
102
RTVSPost2010Prop45
280
     0
102
RTVSPost2010PropOp45
 70
     1
102
RTVSPost2010Prop46
 90
       50
102
RTVSPost2010PropOp46
 70
     1
102
RTVSPost2010Prop47
 90
       50
102
RTVSPost2010PropOp47
 70
     1
102
RTVSPost2010Prop48
 90
       50
102
RTVSPost2010PropOp48
 70
     1
102
RTVSPost2010Prop49
280
     0
102
RTVSPost2010PropOp49
 70
     1
102
RTVSPost2010Prop50
 90
       50
102
RTVSPost2010PropOp50
 70
     1
102
RTVSPost2010Prop51ColorIndex
 90
      256
102
RTVSPost2010Prop51ColorRGB
 90
-16777216
102
RTVSPost2010PropOp51
 70
     0
102
RTVSPost2010Prop52
140
1.0
102
RTVSPost2010PropOp52
 70
     0
102
RTVSPost2010Prop53
 90
        2
102
RTVSPost2010PropOp53
 70
     1
102
RTVSPost2010Prop54
  1
strokes_ogs.tif
102
RTVSPost2010PropOp54
 70
     1
102
RTVSPost2010Prop55
280
     0
102
RTVSPost2010PropOp55
 70
     1
102
RTVSPost2010Prop56
140
1.0
102
RTVSPost2010PropOp56
 70
     1
102
RTVSPost2010Prop57
140
1.0
102
RTVSPost2010PropOp57
 70
     1
102
RTVSPropertyOp0
 70
     1
102
RTVSPropertyOp1
 70
     1
102
RTVSPropertyOp2
 70
     1
102
RTVSPropertyOp3
 70
     1
102
RTVSPropertyOp4
 70
     1
102
RTVSPropertyOp5
 70
     1
102
RTVSPropertyOp6
 70
     1
102
RTVSPropertyOp7
 70
     1
102
RTVSPropertyOp8
 70
     1
102
RTVSPropertyOp9
 70
     1
102
RTVSPropertyOp10
 70
     1
102
RTVSPropertyOp11
 70
     1
102
RTVSPropertyOp12
 70
     1
102
RTVSPropertyOp13
 70
     1
102
RTVSPropertyOp14
 70
     1
102
RTVSPropertyOp15
 70
     1
102
RTVSPropertyOp16
 70
     1
102
RTVSPropertyOp17
 70
     1
102
RTVSPropertyOp18
 70
     1
102
RTVSPropertyOp19
 70
     1
102
RTVSPropertyOp20
 70
     1
102
RTVSPropertyOp21
 70
     1
102
RTVSPropertyOp22
 70
     1
102
RTVSPropertyOp23
 70
     1
102
RTVSPropertyOp24
 70
     1
102
RTVSPropertyOp25
 70
     1
102
RTVSPropertyOp26
 70
     1
102
RTVSPropertyOp27
 70
     1
102
RTVSPropertyOp28
 70
     1
102
RTVSPropertyOp29
 70
     1
102
RTVSPropertyOp30
 70
     1
102
RTVSPropertyOp31
 70
     1
102
RTVSPropertyOp32
 70
     1
102
RTVSPropertyOp33
 70
     1
102
RTVSPropertyOp34
 70
     1
102
RTVSPropertyOp35
 70
     1
102
RTVSPropertyOp36
 70
     1
102
RTVSPropertyOp37
 70
     1
102
RTVSPropertyOp38
 70
     1
102
RTVSPropertyOp39
 70
     1
102
RTVSPropertyOp40
 70
     1
102
RTVSPropertyOp41
 70
     1
102
RTVSPropertyOp42
 70
     1
102
RTVSPropertyOp43
 70
     1
102
RTVSPropertyOp44
 70
     1
102
RTVSPropertyOp45
 70
     1
102
RTVSPropertyOp46
 70
     1
102
RTVSPropertyOp47
 70
     1
102
RTVSPropertyOp48
 70
     1
102
RTVSPropertyOp49
 70
     1
102
RTVSPropertyOp50
 70
     1
102
RTVSPropertyOp51
 70
     0
102
RTVSPropertyOp52
 70
     0
102
RTVSPropertyOp53
 70
     1
102
RTVSPropertyOp54
 70
     1
102
RTVSPropertyOp55
 70
     1
102
RTVSPropertyOp56
 70
     1
102
RTVSPropertyOp57
 70
     1
102
RTVSPropertyOp58
 70
     1
102
RTVSPropertyOp59
 70
     1
102
RTVSPropertyOp60
 70
     1
102
RTVSPropertyOp61
 70
     1
102
RTVSPropertyOp62
 70
     1
  0
XRECORD
  5
29CC9
102
{ACAD_REACTORS
330
29CC8
102
}
330
29CC8
100
AcDbXrecord
280
     1
102
RTVSPost2010Prop28
280
     0
102
RTVSPost2010PropOp28
 70
     1
102
RTVSPost2010Prop29
280
     1
102
RTVSPost2010PropOp29
 70
     1
102
RTVSPost2010Prop30
280
     1
102
RTVSPost2010PropOp30
 70
     1
102
RTVSPost2010Prop31
280
     0
102
RTVSPost2010PropOp31
 70
     1
102
RTVSPost2010Prop32
280
     0
102
RTVSPost2010PropOp32
 70
     1
102
RTVSPost2010Prop33
280
     0
102
RTVSPost2010PropOp33
 70
     1
102
RTVSPost2010Prop34
280
     0
102
RTVSPost2010PropOp34
 70
     1
102
RTVSPost2010Prop35
280
     0
102
RTVSPost2010PropOp35
 70
     1
102
RTVSPost2010Prop36
280
     0
102
RTVSPost2010PropOp36
 70
     1
102
RTVSPost2010Prop37
 90
       50
102
RTVSPost2010PropOp37
 70
     0
102
RTVSPost2010Prop38
140
0.0
102
RTVSPost2010PropOp38
 70
     0
102
RTVSPost2010Prop39
140
1.0
102
RTVSPost2010PropOp39
 70
     0
102
RTVSPost2010Prop40
 90
        0
102
RTVSPost2010PropOp40
 70
     0
102
RTVSPost2010Prop41ColorIndex
 90
       18
102
RTVSPost2010Prop41ColorRGB
 90
        0
102
RTVSPost2010PropOp41
 70
     0
102
RTVSPost2010Prop42
 90
       50
102
RTVSPost2010PropOp42
 70
     0
102
RTVSPost2010Prop43
 90
        3
102
RTVSPost2010PropOp43
 70
     0
102
RTVSPost2010Prop44ColorIndex
 90
        5
102
RTVSPost2010Prop44ColorRGB
 90
      255
102
RTVSPost2010PropOp44
 70
     0
102
RTVSPost2010Prop45
280
     0
102
RTVSPost2010PropOp45
 70
     1
102
RTVSPost2010Prop46
 90
       50
102
RTVSPost2010PropOp46
 70
     0
102
RTVSPost2010Prop47
 90
       50
102
RTVSPost2010PropOp47
 70
     0
102
RTVSPost2010Prop48
 90
       50
102
RTVSPost2010PropOp48
 70
     0
102
RTVSPost2010Prop49
280
     0
102
RTVSPost2010PropOp49
 70
     1
102
RTVSPost2010Prop50
 90
       50
102
RTVSPost2010PropOp50
 70
     0
102
RTVSPost2010Prop51ColorIndex
 90
      256
102
RTVSPost2010Prop51ColorRGB
 90
-16777216
102
RTVSPost2010PropOp51
 70
     0
102
RTVSPost2010Prop52
140
1.0
102
RTVSPost2010PropOp52
 70
     0
102
RTVSPost2010Prop53
 90
        2
102
RTVSPost2010PropOp53
 70
     0
102
RTVSPost2010Prop54
  1
strokes_ogs.tif
102
RTVSPost2010PropOp54
 70
     0
102
RTVSPost2010Prop55
280
     0
102
RTVSPost2010PropOp55
 70
     1
102
RTVSPost2010Prop56
140
1.0
102
RTVSPost2010PropOp56
 70
     0
102
RTVSPost2010Prop57
140
1.0
102
RTVSPost2010PropOp57
 70
     0
102
RTVSPropertyOp0
 70
     0
102
RTVSPropertyOp1
 70
     0
102
RTVSPropertyOp2
 70
     0
102
RTVSPropertyOp3
 70
     0
102
RTVSPropertyOp4
 70
     0
102
RTVSPropertyOp5
 70
     0
102
RTVSPropertyOp6
 70
     0
102
RTVSPropertyOp7
 70
     0
102
RTVSPropertyOp8
 70
     0
102
RTVSPropertyOp9
 70
     0
102
RTVSPropertyOp10
 70
     0
102
RTVSPropertyOp11
 70
     0
102
RTVSPropertyOp12
 70
     0
102
RTVSPropertyOp13
 70
     0
102
RTVSPropertyOp14
 70
     2
102
RTVSPropertyOp15
 70
     0
102
RTVSPropertyOp16
 70
     0
102
RTVSPropertyOp17
 70
     0
102
RTVSPropertyOp18
 70
     0
102
RTVSPropertyOp19
 70
     0
102
RTVSPropertyOp20
 70
     0
102
RTVSPropertyOp21
 70
     0
102
RTVSPropertyOp22
 70
     0
102
RTVSPropertyOp23
 70
     0
102
RTVSPropertyOp24
 70
     0
102
RTVSPropertyOp25
 70
     0
102
RTVSPropertyOp26
 70
     0
102
RTVSPropertyOp27
 70
     0
102
RTVSPropertyOp28
 70
     1
102
RTVSPropertyOp29
 70
     1
102
RTVSPropertyOp30
 70
     1
102
RTVSPropertyOp31
 70
     1
102
RTVSPropertyOp32
 70
     1
102
RTVSPropertyOp33
 70
     1
102
RTVSPropertyOp34
 70
     1
102
RTVSPropertyOp35
 70
     1
102
RTVSPropertyOp36
 70
     1
102
RTVSPropertyOp37
 70
     0
102
RTVSPropertyOp38
 70
     0
102
RTVSPropertyOp39
 70
     0
102
RTVSPropertyOp40
 70
     0
102
RTVSPropertyOp41
 70
     0
102
RTVSPropertyOp42
 70
     0
102
RTVSPropertyOp43
 70
     0
102
RTVSPropertyOp44
 70
     0
102
RTVSPropertyOp45
 70
     1
102
RTVSPropertyOp46
 70
     0
102
RTVSPropertyOp47
 70
     0
102
RTVSPropertyOp48
 70
     0
102
RTVSPropertyOp49
 70
     1
102
RTVSPropertyOp50
 70
     0
102
RTVSPropertyOp51
 70
     0
102
RTVSPropertyOp52
 70
     0
102
RTVSPropertyOp53
 70
     0
102
RTVSPropertyOp54
 70
     0
102
RTVSPropertyOp55
 70
     1
102
RTVSPropertyOp56
 70
     0
102
RTVSPropertyOp57
 70
     0
102
RTVSPropertyOp58
 70
     0
102
RTVSPropertyOp59
 70
     0
102
RTVSPropertyOp60
 70
     0
102
RTVSPropertyOp61
 70
     0
102
RTVSPropertyOp62
 70
     0
  0
XRECORD
  5
29CB9
102
{ACAD_REACTORS
330
29CB8
102
}
330
29CB8
100
AcDbXrecord
280
     1
102
RTVSPost2010Prop28
280
     0
102
RTVSPost2010PropOp28
 70
     1
102
RTVSPost2010Prop29
280
     1
102
RTVSPost2010PropOp29
 70
     1
102
RTVSPost2010Prop30
280
     1
102
RTVSPost2010PropOp30
 70
     1
102
RTVSPost2010Prop31
280
     0
102
RTVSPost2010PropOp31
 70
     1
102
RTVSPost2010Prop32
280
     0
102
RTVSPost2010PropOp32
 70
     1
102
RTVSPost2010Prop33
280
     0
102
RTVSPost2010PropOp33
 70
     1
102
RTVSPost2010Prop34
280
     0
102
RTVSPost2010PropOp34
 70
     1
102
RTVSPost2010Prop35
280
     0
102
RTVSPost2010PropOp35
 70
     1
102
RTVSPost2010Prop36
280
     0
102
RTVSPost2010PropOp36
 70
     1
102
RTVSPost2010Prop37
 90
       50
102
RTVSPost2010PropOp37
 70
     1
102
RTVSPost2010Prop38
140
0.0
102
RTVSPost2010PropOp38
 70
     1
102
RTVSPost2010Prop39
140
1.0
102
RTVSPost2010PropOp39
 70
     1
102
RTVSPost2010Prop40
 90
        0
102
RTVSPost2010PropOp40
 70
     1
102
RTVSPost2010Prop41ColorIndex
 90
       18
102
RTVSPost2010Prop41ColorRGB
 90
        0
102
RTVSPost2010PropOp41
 70
     1
102
RTVSPost2010Prop42
 90
       50
102
RTVSPost2010PropOp42
 70
     1
102
RTVSPost2010Prop43
 90
        3
102
RTVSPost2010PropOp43
 70
     1
102
RTVSPost2010Prop44ColorIndex
 90
        5
102
RTVSPost2010Prop44ColorRGB
 90
      255
102
RTVSPost2010PropOp44
 70
     1
102
RTVSPost2010Prop45
280
     0
102
RTVSPost2010PropOp45
 70
     1
102
RTVSPost2010Prop46
 90
       50
102
RTVSPost2010PropOp46
 70
     1
102
RTVSPost2010Prop47
 90
       50
102
RTVSPost2010PropOp47
 70
     1
102
RTVSPost2010Prop48
 90
       50
102
RTVSPost2010PropOp48
 70
     1
102
RTVSPost2010Prop49
280
     0
102
RTVSPost2010PropOp49
 70
     1
102
RTVSPost2010Prop50
 90
       50
102
RTVSPost2010PropOp50
 70
     1
102
RTVSPost2010Prop51ColorIndex
 90
      256
102
RTVSPost2010Prop51ColorRGB
 90
-16777216
102
RTVSPost2010PropOp51
 70
     0
102
RTVSPost2010Prop52
140
1.0
102
RTVSPost2010PropOp52
 70
     0
102
RTVSPost2010Prop53
 90
        2
102
RTVSPost2010PropOp53
 70
     1
102
RTVSPost2010Prop54
  1
strokes_ogs.tif
102
RTVSPost2010PropOp54
 70
     1
102
RTVSPost2010Prop55
280
     0
102
RTVSPost2010PropOp55
 70
     1
102
RTVSPost2010Prop56
140
1.0
102
RTVSPost2010PropOp56
 70
     1
102
RTVSPost2010Prop57
140
1.0
102
RTVSPost2010PropOp57
 70
     1
102
RTVSPropertyOp0
 70
     1
102
RTVSPropertyOp1
 70
     1
102
RTVSPropertyOp2
 70
     1
102
RTVSPropertyOp3
 70
     1
102
RTVSPropertyOp4
 70
     1
102
RTVSPropertyOp5
 70
     1
102
RTVSPropertyOp6
 70
     1
102
RTVSPropertyOp7
 70
     1
102
RTVSPropertyOp8
 70
     1
102
RTVSPropertyOp9
 70
     1
102
RTVSPropertyOp10
 70
     1
102
RTVSPropertyOp11
 70
     1
102
RTVSPropertyOp12
 70
     1
102
RTVSPropertyOp13
 70
     1
102
RTVSPropertyOp14
 70
     1
102
RTVSPropertyOp15
 70
     1
102
RTVSPropertyOp16
 70
     1
102
RTVSPropertyOp17
 70
     1
102
RTVSPropertyOp18
 70
     1
102
RTVSPropertyOp19
 70
     1
102
RTVSPropertyOp20
 70
     1
102
RTVSPropertyOp21
 70
     1
102
RTVSPropertyOp22
 70
     1
102
RTVSPropertyOp23
 70
     1
102
RTVSPropertyOp24
 70
     1
102
RTVSPropertyOp25
 70
     1
102
RTVSPropertyOp26
 70
     1
102
RTVSPropertyOp27
 70
     1
102
RTVSPropertyOp28
 70
     1
102
RTVSPropertyOp29
 70
     1
102
RTVSPropertyOp30
 70
     1
102
RTVSPropertyOp31
 70
     1
102
RTVSPropertyOp32
 70
     1
102
RTVSPropertyOp33
 70
     1
102
RTVSPropertyOp34
 70
     1
102
RTVSPropertyOp35
 70
     1
102
RTVSPropertyOp36
 70
     1
102
RTVSPropertyOp37
 70
     1
102
RTVSPropertyOp38
 70
     1
102
RTVSPropertyOp39
 70
     1
102
RTVSPropertyOp40
 70
     1
102
RTVSPropertyOp41
 70
     1
102
RTVSPropertyOp42
 70
     1
102
RTVSPropertyOp43
 70
     1
102
RTVSPropertyOp44
 70
     1
102
RTVSPropertyOp45
 70
     1
102
RTVSPropertyOp46
 70
     1
102
RTVSPropertyOp47
 70
     1
102
RTVSPropertyOp48
 70
     1
102
RTVSPropertyOp49
 70
     1
102
RTVSPropertyOp50
 70
     1
102
RTVSPropertyOp51
 70
     0
102
RTVSPropertyOp52
 70
     0
102
RTVSPropertyOp53
 70
     1
102
RTVSPropertyOp54
 70
     1
102
RTVSPropertyOp55
 70
     1
102
RTVSPropertyOp56
 70
     1
102
RTVSPropertyOp57
 70
     1
102
RTVSPropertyOp58
 70
     1
102
RTVSPropertyOp59
 70
     1
102
RTVSPropertyOp60
 70
     1
102
RTVSPropertyOp61
 70
     1
102
RTVSPropertyOp62
 70
     1
  0
XRECORD
  5
29CCB
102
{ACAD_REACTORS
330
29CCA
102
}
330
29CCA
100
AcDbXrecord
280
     1
102
RTVSPost2010Prop28
280
     0
102
RTVSPost2010PropOp28
 70
     1
102
RTVSPost2010Prop29
280
     1
102
RTVSPost2010PropOp29
 70
     1
102
RTVSPost2010Prop30
280
     1
102
RTVSPost2010PropOp30
 70
     1
102
RTVSPost2010Prop31
280
     0
102
RTVSPost2010PropOp31
 70
     1
102
RTVSPost2010Prop32
280
     0
102
RTVSPost2010PropOp32
 70
     1
102
RTVSPost2010Prop33
280
     0
102
RTVSPost2010PropOp33
 70
     1
102
RTVSPost2010Prop34
280
     0
102
RTVSPost2010PropOp34
 70
     1
102
RTVSPost2010Prop35
280
     0
102
RTVSPost2010PropOp35
 70
     1
102
RTVSPost2010Prop36
280
     0
102
RTVSPost2010PropOp36
 70
     1
102
RTVSPost2010Prop37
 90
       50
102
RTVSPost2010PropOp37
 70
     0
102
RTVSPost2010Prop38
140
0.0
102
RTVSPost2010PropOp38
 70
     0
102
RTVSPost2010Prop39
140
1.0
102
RTVSPost2010PropOp39
 70
     0
102
RTVSPost2010Prop40
 90
        0
102
RTVSPost2010PropOp40
 70
     0
102
RTVSPost2010Prop41ColorIndex
 90
       18
102
RTVSPost2010Prop41ColorRGB
 90
        0
102
RTVSPost2010PropOp41
 70
     0
102
RTVSPost2010Prop42
 90
       50
102
RTVSPost2010PropOp42
 70
     0
102
RTVSPost2010Prop43
 90
        3
102
RTVSPost2010PropOp43
 70
     0
102
RTVSPost2010Prop44ColorIndex
 90
        5
102
RTVSPost2010Prop44ColorRGB
 90
      255
102
RTVSPost2010PropOp44
 70
     0
102
RTVSPost2010Prop45
280
     0
102
RTVSPost2010PropOp45
 70
     1
102
RTVSPost2010Prop46
 90
       50
102
RTVSPost2010PropOp46
 70
     0
102
RTVSPost2010Prop47
 90
       50
102
RTVSPost2010PropOp47
 70
     0
102
RTVSPost2010Prop48
 90
       50
102
RTVSPost2010PropOp48
 70
     0
102
RTVSPost2010Prop49
280
     0
102
RTVSPost2010PropOp49
 70
     1
102
RTVSPost2010Prop50
 90
       50
102
RTVSPost2010PropOp50
 70
     0
102
RTVSPost2010Prop51ColorIndex
 90
      256
102
RTVSPost2010Prop51ColorRGB
 90
-16777216
102
RTVSPost2010PropOp51
 70
     0
102
RTVSPost2010Prop52
140
1.0
102
RTVSPost2010PropOp52
 70
     0
102
RTVSPost2010Prop53
 90
        2
102
RTVSPost2010PropOp53
 70
     0
102
RTVSPost2010Prop54
  1
strokes_ogs.tif
102
RTVSPost2010PropOp54
 70
     0
102
RTVSPost2010Prop55
280
     0
102
RTVSPost2010PropOp55
 70
     1
102
RTVSPost2010Prop56
140
1.0
102
RTVSPost2010PropOp56
 70
     0
102
RTVSPost2010Prop57
140
1.0
102
RTVSPost2010PropOp57
 70
     0
102
RTVSPropertyOp0
 70
     0
102
RTVSPropertyOp1
 70
     0
102
RTVSPropertyOp2
 70
     0
102
RTVSPropertyOp3
 70
     0
102
RTVSPropertyOp4
 70
     0
102
RTVSPropertyOp5
 70
     0
102
RTVSPropertyOp6
 70
     0
102
RTVSPropertyOp7
 70
     0
102
RTVSPropertyOp8
 70
     0
102
RTVSPropertyOp9
 70
     0
102
RTVSPropertyOp10
 70
     0
102
RTVSPropertyOp11
 70
     0
102
RTVSPropertyOp12
 70
     0
102
RTVSPropertyOp13
 70
     0
102
RTVSPropertyOp14
 70
     2
102
RTVSPropertyOp15
 70
     0
102
RTVSPropertyOp16
 70
     0
102
RTVSPropertyOp17
 70
     0
102
RTVSPropertyOp18
 70
     0
102
RTVSPropertyOp19
 70
     0
102
RTVSPropertyOp20
 70
     0
102
RTVSPropertyOp21
 70
     0
102
RTVSPropertyOp22
 70
     0
102
RTVSPropertyOp23
 70
     0
102
RTVSPropertyOp24
 70
     0
102
RTVSPropertyOp25
 70
     0
102
RTVSPropertyOp26
 70
     0
102
RTVSPropertyOp27
 70
     0
102
RTVSPropertyOp28
 70
     1
102
RTVSPropertyOp29
 70
     1
102
RTVSPropertyOp30
 70
     1
102
RTVSPropertyOp31
 70
     1
102
RTVSPropertyOp32
 70
     1
102
RTVSPropertyOp33
 70
     1
102
RTVSPropertyOp34
 70
     1
102
RTVSPropertyOp35
 70
     1
102
RTVSPropertyOp36
 70
     1
102
RTVSPropertyOp37
 70
     0
102
RTVSPropertyOp38
 70
     0
102
RTVSPropertyOp39
 70
     0
102
RTVSPropertyOp40
 70
     0
102
RTVSPropertyOp41
 70
     0
102
RTVSPropertyOp42
 70
     0
102
RTVSPropertyOp43
 70
     0
102
RTVSPropertyOp44
 70
     0
102
RTVSPropertyOp45
 70
     1
102
RTVSPropertyOp46
 70
     0
102
RTVSPropertyOp47
 70
     0
102
RTVSPropertyOp48
 70
     0
102
RTVSPropertyOp49
 70
     1
102
RTVSPropertyOp50
 70
     0
102
RTVSPropertyOp51
 70
     0
102
RTVSPropertyOp52
 70
     0
102
RTVSPropertyOp53
 70
     0
102
RTVSPropertyOp54
 70
     0
102
RTVSPropertyOp55
 70
     1
102
RTVSPropertyOp56
 70
     0
102
RTVSPropertyOp57
 70
     0
102
RTVSPropertyOp58
 70
     0
102
RTVSPropertyOp59
 70
     0
102
RTVSPropertyOp60
 70
     0
102
RTVSPropertyOp61
 70
     0
102
RTVSPropertyOp62
 70
     0
  0
XRECORD
  5
29CB1
102
{ACAD_REACTORS
330
29CB0
102
}
330
29CB0
100
AcDbXrecord
280
     1
102
RTVSPost2010Prop28
280
     0
102
RTVSPost2010PropOp28
 70
     1
102
RTVSPost2010Prop29
280
     1
102
RTVSPost2010PropOp29
 70
     1
102
RTVSPost2010Prop30
280
     1
102
RTVSPost2010PropOp30
 70
     1
102
RTVSPost2010Prop31
280
     0
102
RTVSPost2010PropOp31
 70
     1
102
RTVSPost2010Prop32
280
     0
102
RTVSPost2010PropOp32
 70
     1
102
RTVSPost2010Prop33
280
     0
102
RTVSPost2010PropOp33
 70
     1
102
RTVSPost2010Prop34
280
     0
102
RTVSPost2010PropOp34
 70
     1
102
RTVSPost2010Prop35
280
     0
102
RTVSPost2010PropOp35
 70
     1
102
RTVSPost2010Prop36
280
     0
102
RTVSPost2010PropOp36
 70
     1
102
RTVSPost2010Prop37
 90
       50
102
RTVSPost2010PropOp37
 70
     1
102
RTVSPost2010Prop38
140
0.0
102
RTVSPost2010PropOp38
 70
     1
102
RTVSPost2010Prop39
140
1.0
102
RTVSPost2010PropOp39
 70
     1
102
RTVSPost2010Prop40
 90
        0
102
RTVSPost2010PropOp40
 70
     1
102
RTVSPost2010Prop41ColorIndex
 90
       18
102
RTVSPost2010Prop41ColorRGB
 90
        0
102
RTVSPost2010PropOp41
 70
     1
102
RTVSPost2010Prop42
 90
       50
102
RTVSPost2010PropOp42
 70
     1
102
RTVSPost2010Prop43
 90
        3
102
RTVSPost2010PropOp43
 70
     1
102
RTVSPost2010Prop44ColorIndex
 90
        5
102
RTVSPost2010Prop44ColorRGB
 90
      255
102
RTVSPost2010PropOp44
 70
     1
102
RTVSPost2010Prop45
280
     0
102
RTVSPost2010PropOp45
 70
     1
102
RTVSPost2010Prop46
 90
       50
102
RTVSPost2010PropOp46
 70
     1
102
RTVSPost2010Prop47
 90
       50
102
RTVSPost2010PropOp47
 70
     1
102
RTVSPost2010Prop48
 90
       50
102
RTVSPost2010PropOp48
 70
     1
102
RTVSPost2010Prop49
280
     0
102
RTVSPost2010PropOp49
 70
     1
102
RTVSPost2010Prop50
 90
       50
102
RTVSPost2010PropOp50
 70
     1
102
RTVSPost2010Prop51ColorIndex
 90
      256
102
RTVSPost2010Prop51ColorRGB
 90
-16777216
102
RTVSPost2010PropOp51
 70
     0
102
RTVSPost2010Prop52
140
1.0
102
RTVSPost2010PropOp52
 70
     0
102
RTVSPost2010Prop53
 90
        2
102
RTVSPost2010PropOp53
 70
     1
102
RTVSPost2010Prop54
  1
strokes_ogs.tif
102
RTVSPost2010PropOp54
 70
     1
102
RTVSPost2010Prop55
280
     0
102
RTVSPost2010PropOp55
 70
     1
102
RTVSPost2010Prop56
140
1.0
102
RTVSPost2010PropOp56
 70
     1
102
RTVSPost2010Prop57
140
1.0
102
RTVSPost2010PropOp57
 70
     1
102
RTVSPropertyOp0
 70
     1
102
RTVSPropertyOp1
 70
     1
102
RTVSPropertyOp2
 70
     1
102
RTVSPropertyOp3
 70
     1
102
RTVSPropertyOp4
 70
     1
102
RTVSPropertyOp5
 70
     1
102
RTVSPropertyOp6
 70
     1
102
RTVSPropertyOp7
 70
     1
102
RTVSPropertyOp8
 70
     1
102
RTVSPropertyOp9
 70
     1
102
RTVSPropertyOp10
 70
     1
102
RTVSPropertyOp11
 70
     1
102
RTVSPropertyOp12
 70
     1
102
RTVSPropertyOp13
 70
     1
102
RTVSPropertyOp14
 70
     1
102
RTVSPropertyOp15
 70
     1
102
RTVSPropertyOp16
 70
     1
102
RTVSPropertyOp17
 70
     1
102
RTVSPropertyOp18
 70
     1
102
RTVSPropertyOp19
 70
     1
102
RTVSPropertyOp20
 70
     1
102
RTVSPropertyOp21
 70
     1
102
RTVSPropertyOp22
 70
     1
102
RTVSPropertyOp23
 70
     1
102
RTVSPropertyOp24
 70
     1
102
RTVSPropertyOp25
 70
     1
102
RTVSPropertyOp26
 70
     1
102
RTVSPropertyOp27
 70
     1
102
RTVSPropertyOp28
 70
     1
102
RTVSPropertyOp29
 70
     1
102
RTVSPropertyOp30
 70
     1
102
RTVSPropertyOp31
 70
     1
102
RTVSPropertyOp32
 70
     1
102
RTVSPropertyOp33
 70
     1
102
RTVSPropertyOp34
 70
     1
102
RTVSPropertyOp35
 70
     1
102
RTVSPropertyOp36
 70
     1
102
RTVSPropertyOp37
 70
     1
102
RTVSPropertyOp38
 70
     1
102
RTVSPropertyOp39
 70
     1
102
RTVSPropertyOp40
 70
     1
102
RTVSPropertyOp41
 70
     1
102
RTVSPropertyOp42
 70
     1
102
RTVSPropertyOp43
 70
     1
102
RTVSPropertyOp44
 70
     1
102
RTVSPropertyOp45
 70
     1
102
RTVSPropertyOp46
 70
     1
102
RTVSPropertyOp47
 70
     1
102
RTVSPropertyOp48
 70
     1
102
RTVSPropertyOp49
 70
     1
102
RTVSPropertyOp50
 70
     1
102
RTVSPropertyOp51
 70
     0
102
RTVSPropertyOp52
 70
     0
102
RTVSPropertyOp53
 70
     1
102
RTVSPropertyOp54
 70
     1
102
RTVSPropertyOp55
 70
     1
102
RTVSPropertyOp56
 70
     1
102
RTVSPropertyOp57
 70
     1
102
RTVSPropertyOp58
 70
     1
102
RTVSPropertyOp59
 70
     1
102
RTVSPropertyOp60
 70
     1
102
RTVSPropertyOp61
 70
     1
102
RTVSPropertyOp62
 70
     1
  0
XRECORD
  5
29CC7
102
{ACAD_REACTORS
330
29CC6
102
}
330
29CC6
100
AcDbXrecord
280
     1
102
RTVSPost2010Prop28
280
     0
102
RTVSPost2010PropOp28
 70
     1
102
RTVSPost2010Prop29
280
     1
102
RTVSPost2010PropOp29
 70
     1
102
RTVSPost2010Prop30
280
     1
102
RTVSPost2010PropOp30
 70
     1
102
RTVSPost2010Prop31
280
     0
102
RTVSPost2010PropOp31
 70
     1
102
RTVSPost2010Prop32
280
     0
102
RTVSPost2010PropOp32
 70
     1
102
RTVSPost2010Prop33
280
     0
102
RTVSPost2010PropOp33
 70
     1
102
RTVSPost2010Prop34
280
     0
102
RTVSPost2010PropOp34
 70
     1
102
RTVSPost2010Prop35
280
     0
102
RTVSPost2010PropOp35
 70
     1
102
RTVSPost2010Prop36
280
     0
102
RTVSPost2010PropOp36
 70
     1
102
RTVSPost2010Prop37
 90
       50
102
RTVSPost2010PropOp37
 70
     1
102
RTVSPost2010Prop38
140
0.0
102
RTVSPost2010PropOp38
 70
     1
102
RTVSPost2010Prop39
140
1.0
102
RTVSPost2010PropOp39
 70
     1
102
RTVSPost2010Prop40
 90
        0
102
RTVSPost2010PropOp40
 70
     1
102
RTVSPost2010Prop41ColorIndex
 90
       18
102
RTVSPost2010Prop41ColorRGB
 90
        0
102
RTVSPost2010PropOp41
 70
     1
102
RTVSPost2010Prop42
 90
       50
102
RTVSPost2010PropOp42
 70
     1
102
RTVSPost2010Prop43
 90
        3
102
RTVSPost2010PropOp43
 70
     1
102
RTVSPost2010Prop44ColorIndex
 90
        5
102
RTVSPost2010Prop44ColorRGB
 90
      255
102
RTVSPost2010PropOp44
 70
     1
102
RTVSPost2010Prop45
280
     0
102
RTVSPost2010PropOp45
 70
     1
102
RTVSPost2010Prop46
 90
       50
102
RTVSPost2010PropOp46
 70
     1
102
RTVSPost2010Prop47
 90
       50
102
RTVSPost2010PropOp47
 70
     1
102
RTVSPost2010Prop48
 90
       50
102
RTVSPost2010PropOp48
 70
     1
102
RTVSPost2010Prop49
280
     0
102
RTVSPost2010PropOp49
 70
     1
102
RTVSPost2010Prop50
 90
       50
102
RTVSPost2010PropOp50
 70
     1
102
RTVSPost2010Prop51ColorIndex
 90
      256
102
RTVSPost2010Prop51ColorRGB
 90
-16777216
102
RTVSPost2010PropOp51
 70
     0
102
RTVSPost2010Prop52
140
1.0
102
RTVSPost2010PropOp52
 70
     0
102
RTVSPost2010Prop53
 90
        2
102
RTVSPost2010PropOp53
 70
     1
102
RTVSPost2010Prop54
  1
strokes_ogs.tif
102
RTVSPost2010PropOp54
 70
     1
102
RTVSPost2010Prop55
280
     0
102
RTVSPost2010PropOp55
 70
     1
102
RTVSPost2010Prop56
140
1.0
102
RTVSPost2010PropOp56
 70
     1
102
RTVSPost2010Prop57
140
1.0
102
RTVSPost2010PropOp57
 70
     1
102
RTVSPropertyOp0
 70
     1
102
RTVSPropertyOp1
 70
     1
102
RTVSPropertyOp2
 70
     1
102
RTVSPropertyOp3
 70
     1
102
RTVSPropertyOp4
 70
     1
102
RTVSPropertyOp5
 70
     1
102
RTVSPropertyOp6
 70
     1
102
RTVSPropertyOp7
 70
     1
102
RTVSPropertyOp8
 70
     1
102
RTVSPropertyOp9
 70
     1
102
RTVSPropertyOp10
 70
     1
102
RTVSPropertyOp11
 70
     1
102
RTVSPropertyOp12
 70
     1
102
RTVSPropertyOp13
 70
     1
102
RTVSPropertyOp14
 70
     1
102
RTVSPropertyOp15
 70
     1
102
RTVSPropertyOp16
 70
     1
102
RTVSPropertyOp17
 70
     1
102
RTVSPropertyOp18
 70
     1
102
RTVSPropertyOp19
 70
     1
102
RTVSPropertyOp20
 70
     1
102
RTVSPropertyOp21
 70
     1
102
RTVSPropertyOp22
 70
     1
102
RTVSPropertyOp23
 70
     1
102
RTVSPropertyOp24
 70
     1
102
RTVSPropertyOp25
 70
     1
102
RTVSPropertyOp26
 70
     1
102
RTVSPropertyOp27
 70
     1
102
RTVSPropertyOp28
 70
     1
102
RTVSPropertyOp29
 70
     1
102
RTVSPropertyOp30
 70
     1
102
RTVSPropertyOp31
 70
     1
102
RTVSPropertyOp32
 70
     1
102
RTVSPropertyOp33
 70
     1
102
RTVSPropertyOp34
 70
     1
102
RTVSPropertyOp35
 70
     1
102
RTVSPropertyOp36
 70
     1
102
RTVSPropertyOp37
 70
     1
102
RTVSPropertyOp38
 70
     1
102
RTVSPropertyOp39
 70
     1
102
RTVSPropertyOp40
 70
     1
102
RTVSPropertyOp41
 70
     1
102
RTVSPropertyOp42
 70
     1
102
RTVSPropertyOp43
 70
     1
102
RTVSPropertyOp44
 70
     1
102
RTVSPropertyOp45
 70
     1
102
RTVSPropertyOp46
 70
     1
102
RTVSPropertyOp47
 70
     1
102
RTVSPropertyOp48
 70
     1
102
RTVSPropertyOp49
 70
     1
102
RTVSPropertyOp50
 70
     1
102
RTVSPropertyOp51
 70
     0
102
RTVSPropertyOp52
 70
     0
102
RTVSPropertyOp53
 70
     1
102
RTVSPropertyOp54
 70
     1
102
RTVSPropertyOp55
 70
     1
102
RTVSPropertyOp56
 70
     1
102
RTVSPropertyOp57
 70
     1
102
RTVSPropertyOp58
 70
     1
102
RTVSPropertyOp59
 70
     1
102
RTVSPropertyOp60
 70
     1
102
RTVSPropertyOp61
 70
     1
102
RTVSPropertyOp62
 70
     1
  0
XRECORD
  5
29CC5
102
{ACAD_REACTORS
330
29CC4
102
}
330
29CC4
100
AcDbXrecord
280
     1
102
RTVSPost2010Prop28
280
     0
102
RTVSPost2010PropOp28
 70
     1
102
RTVSPost2010Prop29
280
     1
102
RTVSPost2010PropOp29
 70
     1
102
RTVSPost2010Prop30
280
     1
102
RTVSPost2010PropOp30
 70
     1
102
RTVSPost2010Prop31
280
     0
102
RTVSPost2010PropOp31
 70
     1
102
RTVSPost2010Prop32
280
     0
102
RTVSPost2010PropOp32
 70
     1
102
RTVSPost2010Prop33
280
     0
102
RTVSPost2010PropOp33
 70
     1
102
RTVSPost2010Prop34
280
     0
102
RTVSPost2010PropOp34
 70
     1
102
RTVSPost2010Prop35
280
     0
102
RTVSPost2010PropOp35
 70
     1
102
RTVSPost2010Prop36
280
     0
102
RTVSPost2010PropOp36
 70
     1
102
RTVSPost2010Prop37
 90
       50
102
RTVSPost2010PropOp37
 70
     1
102
RTVSPost2010Prop38
140
0.0
102
RTVSPost2010PropOp38
 70
     1
102
RTVSPost2010Prop39
140
1.0
102
RTVSPost2010PropOp39
 70
     1
102
RTVSPost2010Prop40
 90
        0
102
RTVSPost2010PropOp40
 70
     1
102
RTVSPost2010Prop41ColorIndex
 90
       18
102
RTVSPost2010Prop41ColorRGB
 90
        0
102
RTVSPost2010PropOp41
 70
     1
102
RTVSPost2010Prop42
 90
       50
102
RTVSPost2010PropOp42
 70
     1
102
RTVSPost2010Prop43
 90
        3
102
RTVSPost2010PropOp43
 70
     1
102
RTVSPost2010Prop44ColorIndex
 90
        5
102
RTVSPost2010Prop44ColorRGB
 90
      255
102
RTVSPost2010PropOp44
 70
     1
102
RTVSPost2010Prop45
280
     0
102
RTVSPost2010PropOp45
 70
     1
102
RTVSPost2010Prop46
 90
       50
102
RTVSPost2010PropOp46
 70
     1
102
RTVSPost2010Prop47
 90
       50
102
RTVSPost2010PropOp47
 70
     1
102
RTVSPost2010Prop48
 90
       50
102
RTVSPost2010PropOp48
 70
     1
102
RTVSPost2010Prop49
280
     0
102
RTVSPost2010PropOp49
 70
     1
102
RTVSPost2010Prop50
 90
       50
102
RTVSPost2010PropOp50
 70
     1
102
RTVSPost2010Prop51ColorIndex
 90
      256
102
RTVSPost2010Prop51ColorRGB
 90
-16777216
102
RTVSPost2010PropOp51
 70
     0
102
RTVSPost2010Prop52
140
1.0
102
RTVSPost2010PropOp52
 70
     0
102
RTVSPost2010Prop53
 90
        2
102
RTVSPost2010PropOp53
 70
     1
102
RTVSPost2010Prop54
  1
strokes_ogs.tif
102
RTVSPost2010PropOp54
 70
     1
102
RTVSPost2010Prop55
280
     0
102
RTVSPost2010PropOp55
 70
     1
102
RTVSPost2010Prop56
140
1.0
102
RTVSPost2010PropOp56
 70
     1
102
RTVSPost2010Prop57
140
1.0
102
RTVSPost2010PropOp57
 70
     1
102
RTVSPropertyOp0
 70
     1
102
RTVSPropertyOp1
 70
     1
102
RTVSPropertyOp2
 70
     1
102
RTVSPropertyOp3
 70
     1
102
RTVSPropertyOp4
 70
     1
102
RTVSPropertyOp5
 70
     1
102
RTVSPropertyOp6
 70
     1
102
RTVSPropertyOp7
 70
     1
102
RTVSPropertyOp8
 70
     1
102
RTVSPropertyOp9
 70
     1
102
RTVSPropertyOp10
 70
     1
102
RTVSPropertyOp11
 70
     1
102
RTVSPropertyOp12
 70
     1
102
RTVSPropertyOp13
 70
     1
102
RTVSPropertyOp14
 70
     1
102
RTVSPropertyOp15
 70
     1
102
RTVSPropertyOp16
 70
     1
102
RTVSPropertyOp17
 70
     1
102
RTVSPropertyOp18
 70
     1
102
RTVSPropertyOp19
 70
     1
102
RTVSPropertyOp20
 70
     1
102
RTVSPropertyOp21
 70
     1
102
RTVSPropertyOp22
 70
     1
102
RTVSPropertyOp23
 70
     1
102
RTVSPropertyOp24
 70
     1
102
RTVSPropertyOp25
 70
     1
102
RTVSPropertyOp26
 70
     1
102
RTVSPropertyOp27
 70
     1
102
RTVSPropertyOp28
 70
     1
102
RTVSPropertyOp29
 70
     1
102
RTVSPropertyOp30
 70
     1
102
RTVSPropertyOp31
 70
     1
102
RTVSPropertyOp32
 70
     1
102
RTVSPropertyOp33
 70
     1
102
RTVSPropertyOp34
 70
     1
102
RTVSPropertyOp35
 70
     1
102
RTVSPropertyOp36
 70
     1
102
RTVSPropertyOp37
 70
     1
102
RTVSPropertyOp38
 70
     1
102
RTVSPropertyOp39
 70
     1
102
RTVSPropertyOp40
 70
     1
102
RTVSPropertyOp41
 70
     1
102
RTVSPropertyOp42
 70
     1
102
RTVSPropertyOp43
 70
     1
102
RTVSPropertyOp44
 70
     1
102
RTVSPropertyOp45
 70
     1
102
RTVSPropertyOp46
 70
     1
102
RTVSPropertyOp47
 70
     1
102
RTVSPropertyOp48
 70
     1
102
RTVSPropertyOp49
 70
     1
102
RTVSPropertyOp50
 70
     1
102
RTVSPropertyOp51
 70
     0
102
RTVSPropertyOp52
 70
     0
102
RTVSPropertyOp53
 70
     1
102
RTVSPropertyOp54
 70
     1
102
RTVSPropertyOp55
 70
     1
102
RTVSPropertyOp56
 70
     1
102
RTVSPropertyOp57
 70
     1
102
RTVSPropertyOp58
 70
     1
102
RTVSPropertyOp59
 70
     1
102
RTVSPropertyOp60
 70
     1
102
RTVSPropertyOp61
 70
     1
102
RTVSPropertyOp62
 70
     1
  0
XRECORD
  5
29CBF
102
{ACAD_REACTORS
330
29CBE
102
}
330
29CBE
100
AcDbXrecord
280
     1
102
RTVSPost2010Prop28
280
     0
102
RTVSPost2010PropOp28
 70
     1
102
RTVSPost2010Prop29
280
     1
102
RTVSPost2010PropOp29
 70
     1
102
RTVSPost2010Prop30
280
     1
102
RTVSPost2010PropOp30
 70
     1
102
RTVSPost2010Prop31
280
     0
102
RTVSPost2010PropOp31
 70
     1
102
RTVSPost2010Prop32
280
     0
102
RTVSPost2010PropOp32
 70
     1
102
RTVSPost2010Prop33
280
     0
102
RTVSPost2010PropOp33
 70
     1
102
RTVSPost2010Prop34
280
     0
102
RTVSPost2010PropOp34
 70
     1
102
RTVSPost2010Prop35
280
     0
102
RTVSPost2010PropOp35
 70
     1
102
RTVSPost2010Prop36
280
     0
102
RTVSPost2010PropOp36
 70
     1
102
RTVSPost2010Prop37
 90
       50
102
RTVSPost2010PropOp37
 70
     1
102
RTVSPost2010Prop38
140
0.0
102
RTVSPost2010PropOp38
 70
     1
102
RTVSPost2010Prop39
140
1.0
102
RTVSPost2010PropOp39
 70
     1
102
RTVSPost2010Prop40
 90
        0
102
RTVSPost2010PropOp40
 70
     1
102
RTVSPost2010Prop41ColorIndex
 90
       18
102
RTVSPost2010Prop41ColorRGB
 90
        0
102
RTVSPost2010PropOp41
 70
     1
102
RTVSPost2010Prop42
 90
       50
102
RTVSPost2010PropOp42
 70
     1
102
RTVSPost2010Prop43
 90
        3
102
RTVSPost2010PropOp43
 70
     1
102
RTVSPost2010Prop44ColorIndex
 90
        5
102
RTVSPost2010Prop44ColorRGB
 90
      255
102
RTVSPost2010PropOp44
 70
     1
102
RTVSPost2010Prop45
280
     0
102
RTVSPost2010PropOp45
 70
     1
102
RTVSPost2010Prop46
 90
       50
102
RTVSPost2010PropOp46
 70
     1
102
RTVSPost2010Prop47
 90
       50
102
RTVSPost2010PropOp47
 70
     1
102
RTVSPost2010Prop48
 90
       50
102
RTVSPost2010PropOp48
 70
     1
102
RTVSPost2010Prop49
280
     0
102
RTVSPost2010PropOp49
 70
     1
102
RTVSPost2010Prop50
 90
       50
102
RTVSPost2010PropOp50
 70
     1
102
RTVSPost2010Prop51ColorIndex
 90
      256
102
RTVSPost2010Prop51ColorRGB
 90
-16777216
102
RTVSPost2010PropOp51
 70
     0
102
RTVSPost2010Prop52
140
1.0
102
RTVSPost2010PropOp52
 70
     0
102
RTVSPost2010Prop53
 90
        2
102
RTVSPost2010PropOp53
 70
     1
102
RTVSPost2010Prop54
  1
strokes_ogs.tif
102
RTVSPost2010PropOp54
 70
     1
102
RTVSPost2010Prop55
280
     0
102
RTVSPost2010PropOp55
 70
     1
102
RTVSPost2010Prop56
140
1.0
102
RTVSPost2010PropOp56
 70
     1
102
RTVSPost2010Prop57
140
1.0
102
RTVSPost2010PropOp57
 70
     1
102
RTVSPropertyOp0
 70
     1
102
RTVSPropertyOp1
 70
     1
102
RTVSPropertyOp2
 70
     1
102
RTVSPropertyOp3
 70
     1
102
RTVSPropertyOp4
 70
     1
102
RTVSPropertyOp5
 70
     1
102
RTVSPropertyOp6
 70
     1
102
RTVSPropertyOp7
 70
     1
102
RTVSPropertyOp8
 70
     1
102
RTVSPropertyOp9
 70
     1
102
RTVSPropertyOp10
 70
     1
102
RTVSPropertyOp11
 70
     1
102
RTVSPropertyOp12
 70
     1
102
RTVSPropertyOp13
 70
     1
102
RTVSPropertyOp14
 70
     1
102
RTVSPropertyOp15
 70
     1
102
RTVSPropertyOp16
 70
     1
102
RTVSPropertyOp17
 70
     1
102
RTVSPropertyOp18
 70
     1
102
RTVSPropertyOp19
 70
     1
102
RTVSPropertyOp20
 70
     1
102
RTVSPropertyOp21
 70
     1
102
RTVSPropertyOp22
 70
     1
102
RTVSPropertyOp23
 70
     1
102
RTVSPropertyOp24
 70
     1
102
RTVSPropertyOp25
 70
     1
102
RTVSPropertyOp26
 70
     1
102
RTVSPropertyOp27
 70
     1
102
RTVSPropertyOp28
 70
     1
102
RTVSPropertyOp29
 70
     1
102
RTVSPropertyOp30
 70
     1
102
RTVSPropertyOp31
 70
     1
102
RTVSPropertyOp32
 70
     1
102
RTVSPropertyOp33
 70
     1
102
RTVSPropertyOp34
 70
     1
102
RTVSPropertyOp35
 70
     1
102
RTVSPropertyOp36
 70
     1
102
RTVSPropertyOp37
 70
     1
102
RTVSPropertyOp38
 70
     1
102
RTVSPropertyOp39
 70
     1
102
RTVSPropertyOp40
 70
     1
102
RTVSPropertyOp41
 70
     1
102
RTVSPropertyOp42
 70
     1
102
RTVSPropertyOp43
 70
     1
102
RTVSPropertyOp44
 70
     1
102
RTVSPropertyOp45
 70
     1
102
RTVSPropertyOp46
 70
     1
102
RTVSPropertyOp47
 70
     1
102
RTVSPropertyOp48
 70
     1
102
RTVSPropertyOp49
 70
     1
102
RTVSPropertyOp50
 70
     1
102
RTVSPropertyOp51
 70
     0
102
RTVSPropertyOp52
 70
     0
102
RTVSPropertyOp53
 70
     1
102
RTVSPropertyOp54
 70
     1
102
RTVSPropertyOp55
 70
     1
102
RTVSPropertyOp56
 70
     1
102
RTVSPropertyOp57
 70
     1
102
RTVSPropertyOp58
 70
     1
102
RTVSPropertyOp59
 70
     1
102
RTVSPropertyOp60
 70
     1
102
RTVSPropertyOp61
 70
     1
102
RTVSPropertyOp62
 70
     1
  0
XRECORD
  5
29CC1
102
{ACAD_REACTORS
330
29CC0
102
}
330
29CC0
100
AcDbXrecord
280
     1
102
RTVSPost2010Prop28
280
     0
102
RTVSPost2010PropOp28
 70
     1
102
RTVSPost2010Prop29
280
     1
102
RTVSPost2010PropOp29
 70
     1
102
RTVSPost2010Prop30
280
     1
102
RTVSPost2010PropOp30
 70
     1
102
RTVSPost2010Prop31
280
     0
102
RTVSPost2010PropOp31
 70
     1
102
RTVSPost2010Prop32
280
     0
102
RTVSPost2010PropOp32
 70
     1
102
RTVSPost2010Prop33
280
     0
102
RTVSPost2010PropOp33
 70
     1
102
RTVSPost2010Prop34
280
     0
102
RTVSPost2010PropOp34
 70
     1
102
RTVSPost2010Prop35
280
     0
102
RTVSPost2010PropOp35
 70
     1
102
RTVSPost2010Prop36
280
     0
102
RTVSPost2010PropOp36
 70
     1
102
RTVSPost2010Prop37
 90
       50
102
RTVSPost2010PropOp37
 70
     1
102
RTVSPost2010Prop38
140
0.0
102
RTVSPost2010PropOp38
 70
     1
102
RTVSPost2010Prop39
140
1.0
102
RTVSPost2010PropOp39
 70
     1
102
RTVSPost2010Prop40
 90
        0
102
RTVSPost2010PropOp40
 70
     1
102
RTVSPost2010Prop41ColorIndex
 90
       18
102
RTVSPost2010Prop41ColorRGB
 90
        0
102
RTVSPost2010PropOp41
 70
     1
102
RTVSPost2010Prop42
 90
       50
102
RTVSPost2010PropOp42
 70
     1
102
RTVSPost2010Prop43
 90
        3
102
RTVSPost2010PropOp43
 70
     1
102
RTVSPost2010Prop44ColorIndex
 90
        5
102
RTVSPost2010Prop44ColorRGB
 90
      255
102
RTVSPost2010PropOp44
 70
     1
102
RTVSPost2010Prop45
280
     0
102
RTVSPost2010PropOp45
 70
     1
102
RTVSPost2010Prop46
 90
       50
102
RTVSPost2010PropOp46
 70
     1
102
RTVSPost2010Prop47
 90
       50
102
RTVSPost2010PropOp47
 70
     1
102
RTVSPost2010Prop48
 90
       50
102
RTVSPost2010PropOp48
 70
     1
102
RTVSPost2010Prop49
280
     0
102
RTVSPost2010PropOp49
 70
     1
102
RTVSPost2010Prop50
 90
       50
102
RTVSPost2010PropOp50
 70
     1
102
RTVSPost2010Prop51ColorIndex
 90
      256
102
RTVSPost2010Prop51ColorRGB
 90
-16777216
102
RTVSPost2010PropOp51
 70
     0
102
RTVSPost2010Prop52
140
1.0
102
RTVSPost2010PropOp52
 70
     0
102
RTVSPost2010Prop53
 90
        2
102
RTVSPost2010PropOp53
 70
     1
102
RTVSPost2010Prop54
  1
strokes_ogs.tif
102
RTVSPost2010PropOp54
 70
     1
102
RTVSPost2010Prop55
280
     0
102
RTVSPost2010PropOp55
 70
     1
102
RTVSPost2010Prop56
140
1.0
102
RTVSPost2010PropOp56
 70
     1
102
RTVSPost2010Prop57
140
1.0
102
RTVSPost2010PropOp57
 70
     1
102
RTVSPropertyOp0
 70
     1
102
RTVSPropertyOp1
 70
     1
102
RTVSPropertyOp2
 70
     1
102
RTVSPropertyOp3
 70
     1
102
RTVSPropertyOp4
 70
     1
102
RTVSPropertyOp5
 70
     1
102
RTVSPropertyOp6
 70
     1
102
RTVSPropertyOp7
 70
     1
102
RTVSPropertyOp8
 70
     1
102
RTVSPropertyOp9
 70
     1
102
RTVSPropertyOp10
 70
     1
102
RTVSPropertyOp11
 70
     1
102
RTVSPropertyOp12
 70
     1
102
RTVSPropertyOp13
 70
     1
102
RTVSPropertyOp14
 70
     1
102
RTVSPropertyOp15
 70
     1
102
RTVSPropertyOp16
 70
     1
102
RTVSPropertyOp17
 70
     1
102
RTVSPropertyOp18
 70
     1
102
RTVSPropertyOp19
 70
     1
102
RTVSPropertyOp20
 70
     1
102
RTVSPropertyOp21
 70
     1
102
RTVSPropertyOp22
 70
     1
102
RTVSPropertyOp23
 70
     1
102
RTVSPropertyOp24
 70
     1
102
RTVSPropertyOp25
 70
     1
102
RTVSPropertyOp26
 70
     1
102
RTVSPropertyOp27
 70
     1
102
RTVSPropertyOp28
 70
     1
102
RTVSPropertyOp29
 70
     1
102
RTVSPropertyOp30
 70
     1
102
RTVSPropertyOp31
 70
     1
102
RTVSPropertyOp32
 70
     1
102
RTVSPropertyOp33
 70
     1
102
RTVSPropertyOp34
 70
     1
102
RTVSPropertyOp35
 70
     1
102
RTVSPropertyOp36
 70
     1
102
RTVSPropertyOp37
 70
     1
102
RTVSPropertyOp38
 70
     1
102
RTVSPropertyOp39
 70
     1
102
RTVSPropertyOp40
 70
     1
102
RTVSPropertyOp41
 70
     1
102
RTVSPropertyOp42
 70
     1
102
RTVSPropertyOp43
 70
     1
102
RTVSPropertyOp44
 70
     1
102
RTVSPropertyOp45
 70
     1
102
RTVSPropertyOp46
 70
     1
102
RTVSPropertyOp47
 70
     1
102
RTVSPropertyOp48
 70
     1
102
RTVSPropertyOp49
 70
     1
102
RTVSPropertyOp50
 70
     1
102
RTVSPropertyOp51
 70
     0
102
RTVSPropertyOp52
 70
     0
102
RTVSPropertyOp53
 70
     1
102
RTVSPropertyOp54
 70
     1
102
RTVSPropertyOp55
 70
     1
102
RTVSPropertyOp56
 70
     1
102
RTVSPropertyOp57
 70
     1
102
RTVSPropertyOp58
 70
     1
102
RTVSPropertyOp59
 70
     1
102
RTVSPropertyOp60
 70
     1
102
RTVSPropertyOp61
 70
     1
102
RTVSPropertyOp62
 70
     1
  0
XRECORD
  5
29CB7
102
{ACAD_REACTORS
330
29CB6
102
}
330
29CB6
100
AcDbXrecord
280
     1
102
RTVSPost2010Prop28
280
     0
102
RTVSPost2010PropOp28
 70
     1
102
RTVSPost2010Prop29
280
     1
102
RTVSPost2010PropOp29
 70
     1
102
RTVSPost2010Prop30
280
     1
102
RTVSPost2010PropOp30
 70
     1
102
RTVSPost2010Prop31
280
     0
102
RTVSPost2010PropOp31
 70
     1
102
RTVSPost2010Prop32
280
     0
102
RTVSPost2010PropOp32
 70
     1
102
RTVSPost2010Prop33
280
     0
102
RTVSPost2010PropOp33
 70
     1
102
RTVSPost2010Prop34
280
     0
102
RTVSPost2010PropOp34
 70
     1
102
RTVSPost2010Prop35
280
     0
102
RTVSPost2010PropOp35
 70
     1
102
RTVSPost2010Prop36
280
     0
102
RTVSPost2010PropOp36
 70
     1
102
RTVSPost2010Prop37
 90
       50
102
RTVSPost2010PropOp37
 70
     1
102
RTVSPost2010Prop38
140
0.0
102
RTVSPost2010PropOp38
 70
     1
102
RTVSPost2010Prop39
140
1.0
102
RTVSPost2010PropOp39
 70
     1
102
RTVSPost2010Prop40
 90
        0
102
RTVSPost2010PropOp40
 70
     1
102
RTVSPost2010Prop41ColorIndex
 90
       18
102
RTVSPost2010Prop41ColorRGB
 90
        0
102
RTVSPost2010PropOp41
 70
     1
102
RTVSPost2010Prop42
 90
       50
102
RTVSPost2010PropOp42
 70
     1
102
RTVSPost2010Prop43
 90
        3
102
RTVSPost2010PropOp43
 70
     1
102
RTVSPost2010Prop44ColorIndex
 90
        5
102
RTVSPost2010Prop44ColorRGB
 90
      255
102
RTVSPost2010PropOp44
 70
     1
102
RTVSPost2010Prop45
280
     0
102
RTVSPost2010PropOp45
 70
     1
102
RTVSPost2010Prop46
 90
       50
102
RTVSPost2010PropOp46
 70
     1
102
RTVSPost2010Prop47
 90
       50
102
RTVSPost2010PropOp47
 70
     1
102
RTVSPost2010Prop48
 90
       50
102
RTVSPost2010PropOp48
 70
     1
102
RTVSPost2010Prop49
280
     0
102
RTVSPost2010PropOp49
 70
     1
102
RTVSPost2010Prop50
 90
       50
102
RTVSPost2010PropOp50
 70
     1
102
RTVSPost2010Prop51ColorIndex
 90
      256
102
RTVSPost2010Prop51ColorRGB
 90
-16777216
102
RTVSPost2010PropOp51
 70
     0
102
RTVSPost2010Prop52
140
1.0
102
RTVSPost2010PropOp52
 70
     0
102
RTVSPost2010Prop53
 90
        2
102
RTVSPost2010PropOp53
 70
     1
102
RTVSPost2010Prop54
  1
strokes_ogs.tif
102
RTVSPost2010PropOp54
 70
     1
102
RTVSPost2010Prop55
280
     0
102
RTVSPost2010PropOp55
 70
     1
102
RTVSPost2010Prop56
140
1.0
102
RTVSPost2010PropOp56
 70
     1
102
RTVSPost2010Prop57
140
1.0
102
RTVSPost2010PropOp57
 70
     1
102
RTVSPropertyOp0
 70
     1
102
RTVSPropertyOp1
 70
     1
102
RTVSPropertyOp2
 70
     1
102
RTVSPropertyOp3
 70
     1
102
RTVSPropertyOp4
 70
     1
102
RTVSPropertyOp5
 70
     1
102
RTVSPropertyOp6
 70
     1
102
RTVSPropertyOp7
 70
     1
102
RTVSPropertyOp8
 70
     1
102
RTVSPropertyOp9
 70
     1
102
RTVSPropertyOp10
 70
     1
102
RTVSPropertyOp11
 70
     1
102
RTVSPropertyOp12
 70
     1
102
RTVSPropertyOp13
 70
     1
102
RTVSPropertyOp14
 70
     1
102
RTVSPropertyOp15
 70
     1
102
RTVSPropertyOp16
 70
     1
102
RTVSPropertyOp17
 70
     1
102
RTVSPropertyOp18
 70
     1
102
RTVSPropertyOp19
 70
     1
102
RTVSPropertyOp20
 70
     1
102
RTVSPropertyOp21
 70
     1
102
RTVSPropertyOp22
 70
     1
102
RTVSPropertyOp23
 70
     1
102
RTVSPropertyOp24
 70
     1
102
RTVSPropertyOp25
 70
     1
102
RTVSPropertyOp26
 70
     1
102
RTVSPropertyOp27
 70
     1
102
RTVSPropertyOp28
 70
     1
102
RTVSPropertyOp29
 70
     1
102
RTVSPropertyOp30
 70
     1
102
RTVSPropertyOp31
 70
     1
102
RTVSPropertyOp32
 70
     1
102
RTVSPropertyOp33
 70
     1
102
RTVSPropertyOp34
 70
     1
102
RTVSPropertyOp35
 70
     1
102
RTVSPropertyOp36
 70
     1
102
RTVSPropertyOp37
 70
     1
102
RTVSPropertyOp38
 70
     1
102
RTVSPropertyOp39
 70
     1
102
RTVSPropertyOp40
 70
     1
102
RTVSPropertyOp41
 70
     1
102
RTVSPropertyOp42
 70
     1
102
RTVSPropertyOp43
 70
     1
102
RTVSPropertyOp44
 70
     1
102
RTVSPropertyOp45
 70
     1
102
RTVSPropertyOp46
 70
     1
102
RTVSPropertyOp47
 70
     1
102
RTVSPropertyOp48
 70
     1
102
RTVSPropertyOp49
 70
     1
102
RTVSPropertyOp50
 70
     1
102
RTVSPropertyOp51
 70
     0
102
RTVSPropertyOp52
 70
     0
102
RTVSPropertyOp53
 70
     1
102
RTVSPropertyOp54
 70
     1
102
RTVSPropertyOp55
 70
     1
102
RTVSPropertyOp56
 70
     1
102
RTVSPropertyOp57
 70
     1
102
RTVSPropertyOp58
 70
     1
102
RTVSPropertyOp59
 70
     1
102
RTVSPropertyOp60
 70
     1
102
RTVSPropertyOp61
 70
     1
102
RTVSPropertyOp62
 70
     1
  0
XRECORD
  5
29CAB
102
{ACAD_REACTORS
330
29CAA
102
}
330
29CAA
100
AcDbXrecord
280
     1
102
RTVSPost2010Prop28
280
     0
102
RTVSPost2010PropOp28
 70
     1
102
RTVSPost2010Prop29
280
     1
102
RTVSPost2010PropOp29
 70
     1
102
RTVSPost2010Prop30
280
     1
102
RTVSPost2010PropOp30
 70
     1
102
RTVSPost2010Prop31
280
     0
102
RTVSPost2010PropOp31
 70
     1
102
RTVSPost2010Prop32
280
     0
102
RTVSPost2010PropOp32
 70
     1
102
RTVSPost2010Prop33
280
     0
102
RTVSPost2010PropOp33
 70
     1
102
RTVSPost2010Prop34
280
     0
102
RTVSPost2010PropOp34
 70
     1
102
RTVSPost2010Prop35
280
     0
102
RTVSPost2010PropOp35
 70
     1
102
RTVSPost2010Prop36
280
     0
102
RTVSPost2010PropOp36
 70
     1
102
RTVSPost2010Prop37
 90
       50
102
RTVSPost2010PropOp37
 70
     1
102
RTVSPost2010Prop38
140
0.0
102
RTVSPost2010PropOp38
 70
     1
102
RTVSPost2010Prop39
140
1.0
102
RTVSPost2010PropOp39
 70
     1
102
RTVSPost2010Prop40
 90
        0
102
RTVSPost2010PropOp40
 70
     1
102
RTVSPost2010Prop41ColorIndex
 90
       18
102
RTVSPost2010Prop41ColorRGB
 90
        0
102
RTVSPost2010PropOp41
 70
     1
102
RTVSPost2010Prop42
 90
       50
102
RTVSPost2010PropOp42
 70
     1
102
RTVSPost2010Prop43
 90
        3
102
RTVSPost2010PropOp43
 70
     1
102
RTVSPost2010Prop44ColorIndex
 90
        5
102
RTVSPost2010Prop44ColorRGB
 90
      255
102
RTVSPost2010PropOp44
 70
     1
102
RTVSPost2010Prop45
280
     0
102
RTVSPost2010PropOp45
 70
     1
102
RTVSPost2010Prop46
 90
       50
102
RTVSPost2010PropOp46
 70
     1
102
RTVSPost2010Prop47
 90
       50
102
RTVSPost2010PropOp47
 70
     1
102
RTVSPost2010Prop48
 90
       50
102
RTVSPost2010PropOp48
 70
     1
102
RTVSPost2010Prop49
280
     0
102
RTVSPost2010PropOp49
 70
     1
102
RTVSPost2010Prop50
 90
       50
102
RTVSPost2010PropOp50
 70
     1
102
RTVSPost2010Prop51ColorIndex
 90
      256
102
RTVSPost2010Prop51ColorRGB
 90
-16777216
102
RTVSPost2010PropOp51
 70
     0
102
RTVSPost2010Prop52
140
1.0
102
RTVSPost2010PropOp52
 70
     0
102
RTVSPost2010Prop53
 90
        2
102
RTVSPost2010PropOp53
 70
     1
102
RTVSPost2010Prop54
  1
strokes_ogs.tif
102
RTVSPost2010PropOp54
 70
     1
102
RTVSPost2010Prop55
280
     0
102
RTVSPost2010PropOp55
 70
     1
102
RTVSPost2010Prop56
140
1.0
102
RTVSPost2010PropOp56
 70
     1
102
RTVSPost2010Prop57
140
1.0
102
RTVSPost2010PropOp57
 70
     1
102
RTVSPropertyOp0
 70
     1
102
RTVSPropertyOp1
 70
     1
102
RTVSPropertyOp2
 70
     1
102
RTVSPropertyOp3
 70
     1
102
RTVSPropertyOp4
 70
     1
102
RTVSPropertyOp5
 70
     1
102
RTVSPropertyOp6
 70
     1
102
RTVSPropertyOp7
 70
     1
102
RTVSPropertyOp8
 70
     1
102
RTVSPropertyOp9
 70
     1
102
RTVSPropertyOp10
 70
     1
102
RTVSPropertyOp11
 70
     1
102
RTVSPropertyOp12
 70
     1
102
RTVSPropertyOp13
 70
     1
102
RTVSPropertyOp14
 70
     1
102
RTVSPropertyOp15
 70
     1
102
RTVSPropertyOp16
 70
     1
102
RTVSPropertyOp17
 70
     1
102
RTVSPropertyOp18
 70
     1
102
RTVSPropertyOp19
 70
     1
102
RTVSPropertyOp20
 70
     1
102
RTVSPropertyOp21
 70
     1
102
RTVSPropertyOp22
 70
     1
102
RTVSPropertyOp23
 70
     1
102
RTVSPropertyOp24
 70
     1
102
RTVSPropertyOp25
 70
     1
102
RTVSPropertyOp26
 70
     1
102
RTVSPropertyOp27
 70
     1
102
RTVSPropertyOp28
 70
     1
102
RTVSPropertyOp29
 70
     1
102
RTVSPropertyOp30
 70
     1
102
RTVSPropertyOp31
 70
     1
102
RTVSPropertyOp32
 70
     1
102
RTVSPropertyOp33
 70
     1
102
RTVSPropertyOp34
 70
     1
102
RTVSPropertyOp35
 70
     1
102
RTVSPropertyOp36
 70
     1
102
RTVSPropertyOp37
 70
     1
102
RTVSPropertyOp38
 70
     1
102
RTVSPropertyOp39
 70
     1
102
RTVSPropertyOp40
 70
     1
102
RTVSPropertyOp41
 70
     1
102
RTVSPropertyOp42
 70
     1
102
RTVSPropertyOp43
 70
     1
102
RTVSPropertyOp44
 70
     1
102
RTVSPropertyOp45
 70
     1
102
RTVSPropertyOp46
 70
     1
102
RTVSPropertyOp47
 70
     1
102
RTVSPropertyOp48
 70
     1
102
RTVSPropertyOp49
 70
     1
102
RTVSPropertyOp50
 70
     1
102
RTVSPropertyOp51
 70
     0
102
RTVSPropertyOp52
 70
     0
102
RTVSPropertyOp53
 70
     1
102
RTVSPropertyOp54
 70
     1
102
RTVSPropertyOp55
 70
     1
102
RTVSPropertyOp56
 70
     1
102
RTVSPropertyOp57
 70
     1
102
RTVSPropertyOp58
 70
     1
102
RTVSPropertyOp59
 70
     1
102
RTVSPropertyOp60
 70
     1
102
RTVSPropertyOp61
 70
     1
102
RTVSPropertyOp62
 70
     1
  0
XRECORD
  5
29CC3
102
{ACAD_REACTORS
330
29CC2
102
}
330
29CC2
100
AcDbXrecord
280
     1
102
RTVSPost2010Prop28
280
     0
102
RTVSPost2010PropOp28
 70
     1
102
RTVSPost2010Prop29
280
     1
102
RTVSPost2010PropOp29
 70
     1
102
RTVSPost2010Prop30
280
     1
102
RTVSPost2010PropOp30
 70
     1
102
RTVSPost2010Prop31
280
     0
102
RTVSPost2010PropOp31
 70
     1
102
RTVSPost2010Prop32
280
     0
102
RTVSPost2010PropOp32
 70
     1
102
RTVSPost2010Prop33
280
     0
102
RTVSPost2010PropOp33
 70
     1
102
RTVSPost2010Prop34
280
     0
102
RTVSPost2010PropOp34
 70
     1
102
RTVSPost2010Prop35
280
     0
102
RTVSPost2010PropOp35
 70
     1
102
RTVSPost2010Prop36
280
     0
102
RTVSPost2010PropOp36
 70
     1
102
RTVSPost2010Prop37
 90
       50
102
RTVSPost2010PropOp37
 70
     1
102
RTVSPost2010Prop38
140
0.0
102
RTVSPost2010PropOp38
 70
     1
102
RTVSPost2010Prop39
140
1.0
102
RTVSPost2010PropOp39
 70
     1
102
RTVSPost2010Prop40
 90
        0
102
RTVSPost2010PropOp40
 70
     1
102
RTVSPost2010Prop41ColorIndex
 90
       18
102
RTVSPost2010Prop41ColorRGB
 90
        0
102
RTVSPost2010PropOp41
 70
     1
102
RTVSPost2010Prop42
 90
       50
102
RTVSPost2010PropOp42
 70
     1
102
RTVSPost2010Prop43
 90
        3
102
RTVSPost2010PropOp43
 70
     1
102
RTVSPost2010Prop44ColorIndex
 90
        5
102
RTVSPost2010Prop44ColorRGB
 90
      255
102
RTVSPost2010PropOp44
 70
     1
102
RTVSPost2010Prop45
280
     0
102
RTVSPost2010PropOp45
 70
     1
102
RTVSPost2010Prop46
 90
       50
102
RTVSPost2010PropOp46
 70
     1
102
RTVSPost2010Prop47
 90
       50
102
RTVSPost2010PropOp47
 70
     1
102
RTVSPost2010Prop48
 90
       50
102
RTVSPost2010PropOp48
 70
     1
102
RTVSPost2010Prop49
280
     0
102
RTVSPost2010PropOp49
 70
     1
102
RTVSPost2010Prop50
 90
       50
102
RTVSPost2010PropOp50
 70
     1
102
RTVSPost2010Prop51ColorIndex
 90
      256
102
RTVSPost2010Prop51ColorRGB
 90
-16777216
102
RTVSPost2010PropOp51
 70
     0
102
RTVSPost2010Prop52
140
1.0
102
RTVSPost2010PropOp52
 70
     0
102
RTVSPost2010Prop53
 90
        2
102
RTVSPost2010PropOp53
 70
     1
102
RTVSPost2010Prop54
  1
strokes_ogs.tif
102
RTVSPost2010PropOp54
 70
     1
102
RTVSPost2010Prop55
280
     0
102
RTVSPost2010PropOp55
 70
     1
102
RTVSPost2010Prop56
140
1.0
102
RTVSPost2010PropOp56
 70
     1
102
RTVSPost2010Prop57
140
1.0
102
RTVSPost2010PropOp57
 70
     1
102
RTVSPropertyOp0
 70
     1
102
RTVSPropertyOp1
 70
     1
102
RTVSPropertyOp2
 70
     1
102
RTVSPropertyOp3
 70
     1
102
RTVSPropertyOp4
 70
     1
102
RTVSPropertyOp5
 70
     1
102
RTVSPropertyOp6
 70
     1
102
RTVSPropertyOp7
 70
     1
102
RTVSPropertyOp8
 70
     1
102
RTVSPropertyOp9
 70
     1
102
RTVSPropertyOp10
 70
     1
102
RTVSPropertyOp11
 70
     1
102
RTVSPropertyOp12
 70
     1
102
RTVSPropertyOp13
 70
     1
102
RTVSPropertyOp14
 70
     1
102
RTVSPropertyOp15
 70
     1
102
RTVSPropertyOp16
 70
     1
102
RTVSPropertyOp17
 70
     1
102
RTVSPropertyOp18
 70
     1
102
RTVSPropertyOp19
 70
     1
102
RTVSPropertyOp20
 70
     1
102
RTVSPropertyOp21
 70
     1
102
RTVSPropertyOp22
 70
     1
102
RTVSPropertyOp23
 70
     1
102
RTVSPropertyOp24
 70
     1
102
RTVSPropertyOp25
 70
     1
102
RTVSPropertyOp26
 70
     1
102
RTVSPropertyOp27
 70
     1
102
RTVSPropertyOp28
 70
     1
102
RTVSPropertyOp29
 70
     1
102
RTVSPropertyOp30
 70
     1
102
RTVSPropertyOp31
 70
     1
102
RTVSPropertyOp32
 70
     1
102
RTVSPropertyOp33
 70
     1
102
RTVSPropertyOp34
 70
     1
102
RTVSPropertyOp35
 70
     1
102
RTVSPropertyOp36
 70
     1
102
RTVSPropertyOp37
 70
     1
102
RTVSPropertyOp38
 70
     1
102
RTVSPropertyOp39
 70
     1
102
RTVSPropertyOp40
 70
     1
102
RTVSPropertyOp41
 70
     1
102
RTVSPropertyOp42
 70
     1
102
RTVSPropertyOp43
 70
     1
102
RTVSPropertyOp44
 70
     1
102
RTVSPropertyOp45
 70
     1
102
RTVSPropertyOp46
 70
     1
102
RTVSPropertyOp47
 70
     1
102
RTVSPropertyOp48
 70
     1
102
RTVSPropertyOp49
 70
     1
102
RTVSPropertyOp50
 70
     1
102
RTVSPropertyOp51
 70
     0
102
RTVSPropertyOp52
 70
     0
102
RTVSPropertyOp53
 70
     1
102
RTVSPropertyOp54
 70
     1
102
RTVSPropertyOp55
 70
     1
102
RTVSPropertyOp56
 70
     1
102
RTVSPropertyOp57
 70
     1
102
RTVSPropertyOp58
 70
     1
102
RTVSPropertyOp59
 70
     1
102
RTVSPropertyOp60
 70
     1
102
RTVSPropertyOp61
 70
     1
102
RTVSPropertyOp62
 70
     1
  0
ENDSEC
  0
EOF
