  0
SECTION
  2
HEADER
  9
$ACADVER
  1
AC1015
  9
$ACADMAINTVER
 70
    20
  9
$DWGCODEPAGE
  3
ANSI_1252
  9
$INSBASE
 10
0.0
 20
0.0
 30
0.0
  9
$EXTMIN
 10
-72.14214916078162
 20
-49.51522713004976
 30
-0.0000000349181948
  9
$EXTMAX
 10
73.15173448360496
 20
54.28421096676515
 30
0.0000000814935747
  9
$LIMMIN
 10
-170.0
 20
-170.0
  9
$LIMMAX
 10
519.0
 20
260.0
  9
$ORTHOMODE
 70
     0
  9
$REGENMODE
 70
     1
  9
$FILLMODE
 70
     1
  9
$QTEXTMODE
 70
     0
  9
$MIRRTEXT
 70
     0
  9
$LTSCALE
 40
1.0
  9
$ATTMODE
 70
     1
  9
$TEXTSIZE
 40
3.5
  9
$TRACEWID
 40
1.0
  9
$TEXTSTYLE
  7
MM_STANDARD
  9
$CLAYER
  8
0
  9
$CELTYPE
  6
ByLayer
  9
$CECOLOR
 62
   256
  9
$CELTSCALE
 40
1.0
  9
$DISPSILH
 70
     0
  9
$DIMSCALE
 40
1.0
  9
$DIMASZ
 40
2.5
  9
$DIMEXO
 40
0.0
  9
$DIMDLI
 40
3.75
  9
$DIMRND
 40
0.0
  9
$DIMDLE
 40
0.0
  9
$DIMEXE
 40
1.25
  9
$DIMTP
 40
0.0
  9
$DIMTM
 40
0.0
  9
$DIMTXT
 40
3.5
  9
$DIMCEN
 40
0.0
  9
$DIMTSZ
 40
0.0
  9
$DIMTOL
 70
     0
  9
$DIMLIM
 70
     0
  9
$DIMTIH
 70
     0
  9
$DIMTOH
 70
     0
  9
$DIMSE1
 70
     0
  9
$DIMSE2
 70
     0
  9
$DIMTAD
 70
     1
  9
$DIMZIN
 70
     9
  9
$DIMBLK
  1

  9
$DIMASO
 70
     1
  9
$DIMSHO
 70
     1
  9
$DIMPOST
  1

  9
$DIMAPOST
  1

  9
$DIMALT
 70
     0
  9
$DIMALTD
 70
     3
  9
$DIMALTF
 40
0.039370078
  9
$DIMLFAC
 40
1.0
  9
$DIMTOFL
 70
     0
  9
$DIMTVP
 40
0.0
  9
$DIMTIX
 70
     0
  9
$DIMSOXD
 70
     0
  9
$DIMSAH
 70
     0
  9
$DIMBLK1
  1

  9
$DIMBLK2
  1

  9
$DIMSTYLE
  2
MM_STANDARD
  9
$DIMCLRD
 70
   256
  9
$DIMCLRE
 70
   256
  9
$DIMCLRT
 70
   256
  9
$DIMTFAC
 40
1.0
  9
$DIMGAP
 40
0.625
  9
$DIMJUST
 70
     0
  9
$DIMSD1
 70
     0
  9
$DIMSD2
 70
     0
  9
$DIMTOLJ
 70
     1
  9
$DIMTZIN
 70
     8
  9
$DIMALTZ
 70
     0
  9
$DIMALTTZ
 70
     0
  9
$DIMUPT
 70
     0
  9
$DIMDEC
 70
     2
  9
$DIMTDEC
 70
     2
  9
$DIMALTU
 70
     2
  9
$DIMALTTD
 70
     3
  9
$DIMTXSTY
  7
MM_STANDARD
  9
$DIMAUNIT
 70
     0
  9
$DIMADEC
 70
     2
  9
$DIMALTRND
 40
0.0
  9
$DIMAZIN
 70
     2
  9
$DIMDSEP
 70
    46
  9
$DIMATFIT
 70
     3
  9
$DIMFRAC
 70
     0
  9
$DIMLDRBLK
  1

  9
$DIMLUNIT
 70
     2
  9
$DIMLWD
 70
    -1
  9
$DIMLWE
 70
    -1
  9
$DIMTMOVE
 70
     0
  9
$LUNITS
 70
     2
  9
$LUPREC
 70
     4
  9
$SKETCHINC
 40
1.0
  9
$FILLETRAD
 40
0.8
  9
$AUNITS
 70
     0
  9
$AUPREC
 70
     0
  9
$MENU
  1
.
  9
$ELEVATION
 40
0.0
  9
$PELEVATION
 40
0.0
  9
$THICKNESS
 40
0.0
  9
$LIMCHECK
 70
     0
  9
$CHAMFERA
 40
0.0
  9
$CHAMFERB
 40
0.0
  9
$CHAMFERC
 40
0.0
  9
$CHAMFERD
 40
0.0
  9
$SKPOLY
 70
     0
  9
$TDCREATE
 40
2453353.800459155
  9
$TDUCREATE
 40
2453353.717125822
  9
$TDUPDATE
 40
2460185.638274549
  9
$TDUUPDATE
 40
2460185.554941215
  9
$TDINDWG
 40
16384.7093365972
  9
$TDUSRTIMER
 40
16384.7092885533
  9
$USRTIMER
 70
     1
  9
$ANGBASE
 50
0.0
  9
$ANGDIR
 70
     0
  9
$PDMODE
 70
     1
  9
$PDSIZE
 40
0.0
  9
$PLINEWID
 40
0.0
  9
$SPLFRAME
 70
     0
  9
$SPLINETYPE
 70
     6
  9
$SPLINESEGS
 70
     8
  9
$HANDSEED
  5
29D13
  9
$SURFTAB1
 70
     6
  9
$SURFTAB2
 70
     6
  9
$SURFTYPE
 70
     6
  9
$SURFU
 70
     6
  9
$SURFV
 70
     6
  9
$UCSBASE
  2

  9
$UCSNAME
  2

  9
$UCSORG
 10
0.0
 20
0.0
 30
0.0
  9
$UCSXDIR
 10
1.0
 20
0.0
 30
0.0
  9
$UCSYDIR
 10
0.0
 20
1.0
 30
0.0
  9
$UCSORTHOREF
  2

  9
$UCSORTHOVIEW
 70
     0
  9
$UCSORGTOP
 10
0.0
 20
0.0
 30
0.0
  9
$UCSORGBOTTOM
 10
0.0
 20
0.0
 30
0.0
  9
$UCSORGLEFT
 10
0.0
 20
0.0
 30
0.0
  9
$UCSORGRIGHT
 10
0.0
 20
0.0
 30
0.0
  9
$UCSORGFRONT
 10
0.0
 20
0.0
 30
0.0
  9
$UCSORGBACK
 10
0.0
 20
0.0
 30
0.0
  9
$PUCSBASE
  2

  9
$PUCSNAME
  2

  9
$PUCSORG
 10
0.0
 20
0.0
 30
0.0
  9
$PUCSXDIR
 10
1.0
 20
0.0
 30
0.0
  9
$PUCSYDIR
 10
0.0
 20
1.0
 30
0.0
  9
$PUCSORTHOREF
  2

  9
$PUCSORTHOVIEW
 70
     0
  9
$PUCSORGTOP
 10
0.0
 20
0.0
 30
0.0
  9
$PUCSORGBOTTOM
 10
0.0
 20
0.0
 30
0.0
  9
$PUCSORGLEFT
 10
0.0
 20
0.0
 30
0.0
  9
$PUCSORGRIGHT
 10
0.0
 20
0.0
 30
0.0
  9
$PUCSORGFRONT
 10
0.0
 20
0.0
 30
0.0
  9
$PUCSORGBACK
 10
0.0
 20
0.0
 30
0.0
  9
$USERI1
 70
     0
  9
$USERI2
 70
     0
  9
$USERI3
 70
     0
  9
$USERI4
 70
     0
  9
$USERI5
 70
     0
  9
$USERR1
 40
0.0
  9
$USERR2
 40
0.0
  9
$USERR3
 40
0.0
  9
$USERR4
 40
0.0
  9
$USERR5
 40
0.0
  9
$WORLDVIEW
 70
     1
  9
$SHADEDGE
 70
     3
  9
$SHADEDIF
 70
    70
  9
$TILEMODE
 70
     1
  9
$MAXACTVP
 70
    64
  9
$PINSBASE
 10
0.0
 20
0.0
 30
0.0
  9
$PLIMCHECK
 70
     0
  9
$PEXTMIN
 10
0.0
 20
0.0
 30
0.0
  9
$PEXTMAX
 10
0.0
 20
0.0
 30
0.0
  9
$PLIMMIN
 10
0.0
 20
0.0
  9
$PLIMMAX
 10
12.0
 20
9.0
  9
$UNITMODE
 70
     0
  9
$VISRETAIN
 70
     0
  9
$PLINEGEN
 70
     0
  9
$PSLTSCALE
 70
     1
  9
$TREEDEPTH
 70
  3020
  9
$CMLSTYLE
  2
Standard
  9
$CMLJUST
 70
     0
  9
$CMLSCALE
 40
20.0
  9
$PROXYGRAPHICS
 70
     0
  9
$MEASUREMENT
 70
     1
  9
$CELWEIGHT
370
    -1
  9
$ENDCAPS
280
     0
  9
$JOINSTYLE
280
     0
  9
$LWDISPLAY
290
     0
  9
$INSUNITS
 70
     4
  9
$HYPERLINKBASE
  1

  9
$STYLESHEET
  1

  9
$XEDIT
290
     1
  9
$CEPSNTYPE
380
     0
  9
$PSTYLEMODE
290
     1
  9
$FINGERPRINTGUID
  2
{049C219F-BC74-4B97-8A86-7E4B06A8BFF9}
  9
$VERSIONGUID
  2
{7D270162-E53A-4E63-85E9-867F00E073B9}
  9
$EXTNAMES
290
     1
  9
$PSVPSCALE
 40
0.0
  9
$OLESTARTUP
290
     0
  0
ENDSEC
  0
SECTION
  2
CLASSES
  0
CLASS
  1
ACDBDICTIONARYWDFLT
  2
AcDbDictionaryWithDefault
  3
ObjectDBX Classes
 90
        0
280
     0
281
     0
  0
CLASS
  1
ACDBPLACEHOLDER
  2
AcDbPlaceHolder
  3
ObjectDBX Classes
 90
        0
280
     0
281
     0
  0
CLASS
  1
LAYOUT
  2
AcDbLayout
  3
ObjectDBX Classes
 90
        0
280
     0
281
     0
  0
CLASS
  1
DICTIONARYVAR
  2
AcDbDictionaryVar
  3
ObjectDBX Classes
 90
        0
280
     0
281
     0
  0
CLASS
  1
TABLESTYLE
  2
AcDbTableStyle
  3
ObjectDBX Classes
 90
     4095
280
     0
281
     0
  0
CLASS
  1
SCALE
  2
AcDbScale
  3
ObjectDBX Classes
 90
     1153
280
     0
281
     0
  0
CLASS
  1
RASTERVARIABLES
  2
AcDbRasterVariables
  3
ISM
 90
        0
280
     0
281
     0
  0
CLASS
  1
SORTENTSTABLE
  2
AcDbSortentsTable
  3
ObjectDBX Classes
 90
        0
280
     0
281
     0
  0
CLASS
  1
MATERIAL
  2
AcDbMaterial
  3
ObjectDBX Classes
 90
     1153
280
     0
281
     0
  0
CLASS
  1
VISUALSTYLE
  2
AcDbVisualStyle
  3
ObjectDBX Classes
 90
     4095
280
     0
281
     0
  0
CLASS
  1
MLEADERSTYLE
  2
AcDbMLeaderStyle
  3
ACDB_MLEADERSTYLE_CLASS
 90
     4095
280
     0
281
     0
  0
CLASS
  1
ACDBSECTIONVIEWSTYLE
  2
AcDbSectionViewStyle
  3
ObjectDBX Classes
 90
     1025
280
     0
281
     0
  0
CLASS
  1
ACDBDETAILVIEWSTYLE
  2
AcDbDetailViewStyle
  3
ObjectDBX Classes
 90
     1025
280
     0
281
     0
  0
CLASS
  1
CELLSTYLEMAP
  2
AcDbCellStyleMap
  3
ObjectDBX Classes
 90
     1152
280
     0
281
     0
  0
ENDSEC
  0
SECTION
  2
TABLES
  0
TABLE
  2
VPORT
  5
8
330
0
100
AcDbSymbolTable
 70
     1
  0
VPORT
  5
97
330
8
100
AcDbSymbolTableRecord
100
AcDbViewportTableRecord
  2
*Active
 70
     0
 10
0.0
 20
0.0
 11
1.0
 21
1.0
 12
0.5047926614116634
 22
2.384491918357696
 13
0.0
 23
0.0
 14
5.0
 24
5.0
 15
5.0
 25
5.0
 16
0.0
 26
0.0
 36
1.0
 17
0.0
 27
0.0
 37
0.0
 40
104.5112056723359
 41
1.597254004576659
 42
50.0
 43
0.0
 44
0.0
 50
0.0
 51
0.0
 71
    16
 72
  2000
 73
     1
 74
     3
 75
     0
 76
     0
 77
     0
 78
     0
281
     0
 65
     1
110
0.0
120
0.0
130
0.0
111
1.0
121
0.0
131
0.0
112
0.0
122
1.0
132
0.0
 79
     0
146
0.0
1001
ACAD_NAV_VCDISPLAY
1070
     3
  0
ENDTAB
  0
TABLE
  2
LTYPE
  5
5
330
0
100
AcDbSymbolTable
 70
     5
  0
LTYPE
  5
14
330
5
100
AcDbSymbolTableRecord
100
AcDbLinetypeTableRecord
  2
ByBlock
 70
     0
  3

 72
    65
 73
     0
 40
0.0
  0
LTYPE
  5
15
330
5
100
AcDbSymbolTableRecord
100
AcDbLinetypeTableRecord
  2
ByLayer
 70
     0
  3

 72
    65
 73
     0
 40
0.0
  0
LTYPE
  5
16
330
5
100
AcDbSymbolTableRecord
100
AcDbLinetypeTableRecord
  2
Continuous
 70
     0
  3
Solid line
 72
    65
 73
     0
 40
0.0
  0
LTYPE
  5
29BBC
330
5
100
AcDbSymbolTableRecord
100
AcDbLinetypeTableRecord
  2
CENTER2
 70
     0
  3
Center (.5x) ___ _ ___ _ ___ _ ___ _ ___ _ ___
 72
    65
 73
     4
 40
28.57499999999999
 49
19.05
 74
     4
 75
     0
340
0
 46
1.0
 50
0.0
 44
0.0
 45
0.0
 49
-3.174999999999998
 74
     4
 75
     0
340
0
 46
1.0
 50
0.0
 44
0.0
 45
0.0
 49
3.174999999999998
 74
     4
 75
     0
340
0
 46
1.0
 50
0.0
 44
0.0
 45
0.0
 49
-3.174999999999998
 74
     4
 75
     0
340
0
 46
1.0
 50
0.0
 44
0.0
 45
0.0
  0
LTYPE
  5
29BBD
330
5
100
AcDbSymbolTableRecord
100
AcDbLinetypeTableRecord
  2
HIDDEN
 70
     0
  3
Hidden __ __ __ __ __ __ __ __ __ __ __ __ __ _
 72
    65
 73
     2
 40
9.524999999999996
 49
6.349999999999997
 74
     4
 75
     0
340
0
 46
1.0
 50
0.0
 44
0.0
 45
0.0
 49
-3.174999999999998
 74
     4
 75
     0
340
0
 46
1.0
 50
0.0
 44
0.0
 45
0.0
  0
ENDTAB
  0
TABLE
  2
LAYER
  5
2
102
{ACAD_XDICTIONARY
360
29BCA
102
}
330
0
100
AcDbSymbolTable
 70
    14
  0
LAYER
  5
10
102
{ACAD_XDICTIONARY
360
29BC0
102
}
330
2
100
AcDbSymbolTableRecord
100
AcDbLayerTableRecord
  2
0
 70
     0
 62
     7
  6
Continuous
370
    -3
390
F
  0
LAYER
  5
23
102
{ACAD_XDICTIONARY
360
29BC1
102
}
330
2
100
AcDbSymbolTableRecord
100
AcDbLayerTableRecord
  2
1
 70
     0
 62
     4
  6
Continuous
370
    50
390
F
  0
LAYER
  5
25
102
{ACAD_XDICTIONARY
360
29BC2
102
}
330
2
100
AcDbSymbolTableRecord
100
AcDbLayerTableRecord
  2
2
 70
     0
 62
     7
  6
Continuous
370
    25
390
F
  0
LAYER
  5
173A
102
{ACAD_XDICTIONARY
360
29BC3
102
}
330
2
100
AcDbSymbolTableRecord
100
AcDbLayerTableRecord
  2
SK2
 70
     0
 62
     7
  6
Continuous
370
    25
390
F
  0
LAYER
  5
2A
102
{ACAD_XDICTIONARY
360
29BC4
102
}
330
2
100
AcDbSymbolTableRecord
100
AcDbLayerTableRecord
  2
4
 70
     0
 62
     2
  6
CENTER2
370
    25
390
F
  0
LAYER
  5
2E
102
{ACAD_XDICTIONARY
360
29BC5
102
}
330
2
100
AcDbSymbolTableRecord
100
AcDbLayerTableRecord
  2
SK6
 70
     0
 62
     5
  6
Continuous
370
    -3
390
F
  0
LAYER
  5
2F
330
2
100
AcDbSymbolTableRecord
100
AcDbLayerTableRecord
  2
DEFPOINTS
 70
     0
 62
     7
  6
Continuous
290
     0
370
    25
390
F
  0
LAYER
  5
375
102
{ACAD_XDICTIONARY
360
29BC6
102
}
330
2
100
AcDbSymbolTableRecord
100
AcDbLayerTableRecord
  2
CUT
 70
     0
 62
     1
  6
Continuous
370
    25
390
F
  0
LAYER
  5
376
102
{ACAD_XDICTIONARY
360
29BC7
102
}
330
2
100
AcDbSymbolTableRecord
100
AcDbLayerTableRecord
  2
NOCUT
 70
     0
 62
     7
  6
Continuous
370
    -3
390
F
  0
LAYER
  5
49B
102
{ACAD_XDICTIONARY
360
29BC8
102
}
330
2
100
AcDbSymbolTableRecord
100
AcDbLayerTableRecord
  2
INFTOTAL
 70
     0
 62
     9
  6
Continuous
370
    18
390
F
1001
AcAecLayerStandard
1000

1000

  0
LAYER
  5
1D28
330
2
100
AcDbSymbolTableRecord
100
AcDbLayerTableRecord
  2
SK4
 70
     0
 62
     2
  6
CENTER2
370
    25
390
F
  0
LAYER
  5
8BCD
330
2
100
AcDbSymbolTableRecord
100
AcDbLayerTableRecord
  2
SK1
 70
     0
 62
     4
  6
Continuous
370
    50
390
F
  0
LAYER
  5
14429
330
2
100
AcDbSymbolTableRecord
100
AcDbLayerTableRecord
  2
SK3
 70
     0
 62
     1
  6
HIDDEN
370
    35
390
F
  0
ENDTAB
  0
TABLE
  2
STYLE
  5
3
330
0
100
AcDbSymbolTable
 70
     2
  0
STYLE
  5
11
330
3
100
AcDbSymbolTableRecord
100
AcDbTextStyleTableRecord
  2
Standard
 70
     0
 40
0.0
 41
1.0
 50
0.0
 71
     0
 42
5.0
  3
monos.ttf
  4

1001
ACAD
1000
Monospac821 BT
1071
       49
  0
STYLE
  5
8B9
330
3
100
AcDbSymbolTableRecord
100
AcDbTextStyleTableRecord
  2
MM_STANDARD
 70
     0
 40
3.5
 41
1.0
 50
0.0
 71
     0
 42
3.5
  3
monos.ttf
  4

1001
ACAD
1000
Monospac821 BT
1071
       49
  0
ENDTAB
  0
TABLE
  2
VIEW
  5
6
330
0
100
AcDbSymbolTable
 70
     0
  0
ENDTAB
  0
TABLE
  2
UCS
  5
7
330
0
100
AcDbSymbolTable
 70
     0
  0
ENDTAB
  0
TABLE
  2
APPID
  5
9
330
0
100
AcDbSymbolTable
 70
    25
  0
APPID
  5
12
330
9
100
AcDbSymbolTableRecord
100
AcDbRegAppTableRecord
  2
ACAD
 70
     0
  0
APPID
  5
29BA4
330
9
100
AcDbSymbolTableRecord
100
AcDbRegAppTableRecord
  2
ACAD_PSEXT
 70
     0
  0
APPID
  5
29BA5
330
9
100
AcDbSymbolTableRecord
100
AcDbRegAppTableRecord
  2
ACAD_EXEMPT_FROM_CAD_STANDARDS
 70
     0
  0
APPID
  5
29BA6
330
9
100
AcDbSymbolTableRecord
100
AcDbRegAppTableRecord
  2
ACAD_MLEADERVER
 70
     0
  0
APPID
  5
29BA7
330
9
100
AcDbSymbolTableRecord
100
AcDbRegAppTableRecord
  2
ACAD_DSTYLE_DIMJAG
 70
     0
  0
APPID
  5
29BA8
330
9
100
AcDbSymbolTableRecord
100
AcDbRegAppTableRecord
  2
ACAD_DSTYLE_DIMBREAK
 70
     0
  0
APPID
  5
29BA9
330
9
100
AcDbSymbolTableRecord
100
AcDbRegAppTableRecord
  2
ACAD_DSTYLE_DIMTALN
 70
     0
  0
APPID
  5
29BAA
330
9
100
AcDbSymbolTableRecord
100
AcDbRegAppTableRecord
  2
AcAecLayerStandard
 70
     0
  0
APPID
  5
29BAB
330
9
100
AcDbSymbolTableRecord
100
AcDbRegAppTableRecord
  2
DCO15
 70
     0
  0
APPID
  5
29BAC
330
9
100
AcDbSymbolTableRecord
100
AcDbRegAppTableRecord
  2
AcadAnnoPO
 70
     0
  0
APPID
  5
29BAD
330
9
100
AcDbSymbolTableRecord
100
AcDbRegAppTableRecord
  2
ACAD_DSTYLE_DIMRADIAL_EXTENSION
 70
     0
  0
APPID
  5
29BAE
330
9
100
AcDbSymbolTableRecord
100
AcDbRegAppTableRecord
  2
AcadAnnotative
 70
     0
  0
APPID
  5
29BAF
330
9
100
AcDbSymbolTableRecord
100
AcDbRegAppTableRecord
  2
AcDbDynamicBlockGUID
 70
     0
  0
APPID
  5
29BB0
330
9
100
AcDbSymbolTableRecord
100
AcDbRegAppTableRecord
  2
AcDbBlockRepETag
 70
     0
  0
APPID
  5
29BB1
330
9
100
AcDbSymbolTableRecord
100
AcDbRegAppTableRecord
  2
MCAD_NO_VIS
 70
     0
  0
APPID
  5
29BB2
330
9
100
AcDbSymbolTableRecord
100
AcDbRegAppTableRecord
  2
ACAD_TEMP_GRAPHIC
 70
     0
  0
APPID
  5
29BB3
330
9
100
AcDbSymbolTableRecord
100
AcDbRegAppTableRecord
  2
ACATTRIBSERVICES
 70
     0
  0
APPID
  5
29BB4
330
9
100
AcDbSymbolTableRecord
100
AcDbRegAppTableRecord
  2
DESIGNERASSEMBLIES
 70
     0
  0
APPID
  5
29BB5
330
9
100
AcDbSymbolTableRecord
100
AcDbRegAppTableRecord
  2
ACAD_NAV_VCDISPLAY
 70
     0
  0
APPID
  5
29BB6
330
9
100
AcDbSymbolTableRecord
100
AcDbRegAppTableRecord
  2
ACAD_DSTYLE_DIM_LINETYPE
 70
     0
  0
APPID
  5
29BB7
330
9
100
AcDbSymbolTableRecord
100
AcDbRegAppTableRecord
  2
ACAD_DSTYLE_DIM_EXT1_LINETYPE
 70
     0
  0
APPID
  5
29BB8
330
9
100
AcDbSymbolTableRecord
100
AcDbRegAppTableRecord
  2
ACAD_DSTYLE_DIM_EXT2_LINETYPE
 70
     0
  0
APPID
  5
29BB9
330
9
100
AcDbSymbolTableRecord
100
AcDbRegAppTableRecord
  2
ACAD_DSTYLE_DIMARC_LENGTH_SYMBOL
 70
     0
  0
APPID
  5
29BBA
330
9
100
AcDbSymbolTableRecord
100
AcDbRegAppTableRecord
  2
AcDbAttr
 70
     0
  0
APPID
  5
29BBB
330
9
100
AcDbSymbolTableRecord
100
AcDbRegAppTableRecord
  2
AcadAnnoMonitorAlertIconDisabled
 70
     0
  0
ENDTAB
  0
TABLE
  2
DIMSTYLE
  5
A
330
0
100
AcDbSymbolTable
 70
     2
100
AcDbDimStyleTable
 71
     0
  0
DIMSTYLE
105
27
330
A
100
AcDbSymbolTableRecord
100
AcDbDimStyleTableRecord
  2
Standard
 70
     0
 77
     1
276
     1
278
     0
340
11
  0
DIMSTYLE
105
3F
102
{ACAD_REACTORS
330
28EAA
330
28EB7
330
28ED1
330
28EDF
330
28EEE
330
291D0
330
29B01
102
}
330
A
100
AcDbSymbolTableRecord
100
AcDbDimStyleTableRecord
  2
MM_STANDARD
 70
     0
 41
2.5
 42
0.0
 43
3.75
 44
1.25
 73
     0
 74
     0
 77
     1
 78
     1
140
3.5
141
0.0
143
0.039370078
147
0.625
171
     3
176
   256
177
   256
178
   256
179
     2
271
     2
272
     2
274
     3
284
     8
340
8B9
371
    -1
372
    -1
1001
ACAD_DSTYLE_DIMJAG
1070
   388
1040
1.5
1001
ACAD_DSTYLE_DIMTALN
1070
   392
1070
     0
  0
ENDTAB
  0
TABLE
  2
BLOCK_RECORD
  5
1
330
0
100
AcDbSymbolTable
 70
    41
  0
BLOCK_RECORD
  5
1F
102
{ACAD_XDICTIONARY
360
29C1E
102
}
330
1
100
AcDbSymbolTableRecord
100
AcDbBlockTableRecord
  2
*Model_Space
340
22
  0
BLOCK_RECORD
  5
73
330
1
100
AcDbSymbolTableRecord
100
AcDbBlockTableRecord
  2
*Paper_Space
340
74
  0
BLOCK_RECORD
  5
962
330
1
100
AcDbSymbolTableRecord
100
AcDbBlockTableRecord
  2
CERO_POINT
340
0
102
{BLKREFS
331
29496
102
}
1001
ACAD
1000
DesignCenter Data
1002
{
1070
     1
1070
     4
1002
}
  0
BLOCK_RECORD
  5
2897E
330
1
100
AcDbSymbolTableRecord
100
AcDbBlockTableRecord
  2
_NONE
340
0
  0
BLOCK_RECORD
  5
28EB6
330
1
100
AcDbSymbolTableRecord
100
AcDbBlockTableRecord
  2
*D29
340
0
  0
BLOCK_RECORD
  5
28EC3
330
1
100
AcDbSymbolTableRecord
100
AcDbBlockTableRecord
  2
*D30
340
0
  0
BLOCK_RECORD
  5
28EDE
330
1
100
AcDbSymbolTableRecord
100
AcDbBlockTableRecord
  2
*D32
340
0
  0
BLOCK_RECORD
  5
28EED
330
1
100
AcDbSymbolTableRecord
100
AcDbBlockTableRecord
  2
*D33
340
0
  0
BLOCK_RECORD
  5
28EFA
330
1
100
AcDbSymbolTableRecord
100
AcDbBlockTableRecord
  2
*D34
340
0
  0
BLOCK_RECORD
  5
291DB
330
1
100
AcDbSymbolTableRecord
100
AcDbBlockTableRecord
  2
*D39
340
0
  0
BLOCK_RECORD
  5
29B0C
330
1
100
AcDbSymbolTableRecord
100
AcDbBlockTableRecord
  2
*D40
340
0
  0
ENDTAB
  0
ENDSEC
  0
SECTION
  2
BLOCKS
  0
BLOCK
  5
20
330
1F
100
AcDbEntity
  8
0
100
AcDbBlockBegin
  2
*Model_Space
 70
     0
 10
0.0
 20
0.0
 30
0.0
  3
*Model_Space
  1

  0
ENDBLK
  5
21
330
1F
100
AcDbEntity
  8
0
100
AcDbBlockEnd
  0
BLOCK
  5
75
330
73
100
AcDbEntity
 67
     1
  8
0
100
AcDbBlockBegin
  2
*Paper_Space
 70
     0
 10
0.0
 20
0.0
 30
0.0
  3
*Paper_Space
  1

  0
ENDBLK
  5
76
330
73
100
AcDbEntity
 67
     1
  8
0
100
AcDbBlockEnd
  0
BLOCK
  5
29BCB
330
962
100
AcDbEntity
  8
0
100
AcDbBlockBegin
  2
CERO_POINT
 70
     0
 10
0.0
 20
0.0
 30
0.0
  3
CERO_POINT
  1

  0
CIRCLE
  5
964
102
{ACAD_REACTORS
330
969
102
}
330
962
100
AcDbEntity
  8
SK2
100
AcDbCircle
 10
0.0
 20
0.0
 30
0.0
 40
2.5
  0
LINE
  5
965
330
962
100
AcDbEntity
  8
SK2
100
AcDbLine
 10
0.0900000000037835
 20
0.0
 30
0.0
 11
-0.0899999999965076
 21
0.0
 31
0.0
  0
LINE
  5
966
330
962
100
AcDbEntity
  8
SK2
100
AcDbLine
 10
0.0
 20
0.0899999999999182
 30
0.0
 11
0.0
 21
-0.0899999999999182
 31
0.0
  0
LINE
  5
967
102
{ACAD_REACTORS
330
969
102
}
330
962
100
AcDbEntity
  8
SK2
100
AcDbLine
 10
0.0
 20
-2.5
 30
0.0
 11
0.0
 21
2.5
 31
0.0
  0
LINE
  5
968
102
{ACAD_REACTORS
330
969
102
}
330
962
100
AcDbEntity
  8
SK2
100
AcDbLine
 10
2.5
 20
0.0
 30
0.0
 11
-2.5
 21
0.0
 31
0.0
  0
HATCH
  5
969
330
962
100
AcDbEntity
  8
SK2
100
AcDbHatch
 10
0.0
 20
0.0
 30
0.0
210
0.0
220
0.0
230
1.0
  2
ANSI31
 70
     0
 71
     1
 91
        2
 92
        7
 72
     1
 73
     1
 93
        3
 10
0.0
 20
-2.5
 42
0.4142135623730951
 10
2.5
 20
0.0
 42
0.0
 10
0.0
 20
0.0
 42
0.0
 97
        3
330
964
330
968
330
967
 92
        7
 72
     1
 73
     1
 93
        3
 10
0.0
 20
0.0
 42
0.0
 10
0.0
 20
2.5
 42
0.4142135623730951
 10
-2.5
 20
0.0
 42
0.0
 97
        3
330
968
330
967
330
964
 75
     0
 76
     1
 52
180.0
 41
0.1
 77
     0
 78
     1
 53
225.0
 43
5.170976743218488
 44
0.0
 45
0.2245064030267288
 46
-0.2245064030267289
 79
     0
 47
0.0243816376539857
 98
        2
 10
0.8789156907296272
 20
-1.044463114528752
 10
-0.8545028512526187
 20
0.7841600866017872
1001
ACAD
1010
0.0
1020
0.0
1030
0.0
  0
ENDBLK
  5
29BCC
330
962
100
AcDbEntity
  8
0
100
AcDbBlockEnd
  0
BLOCK
  5
29C03
330
2897E
100
AcDbEntity
  8
0
100
AcDbBlockBegin
  2
_NONE
 70
     0
 10
0.0
 20
0.0
 30
0.0
  3
_NONE
  1

  0
ENDBLK
  5
29C04
330
2897E
100
AcDbEntity
  8
0
100
AcDbBlockEnd
  0
BLOCK
  5
29C05
330
28EB6
100
AcDbEntity
  8
0
100
AcDbBlockBegin
  2
*D29
 70
     1
 10
0.0
 20
0.0
 30
0.0
  3
*D29
  1

  0
POINT
  5
2970C
330
28EB6
100
AcDbEntity
  8
DEFPOINTS
  6
ByBlock
100
AcDbPoint
 10
-22.00000000000003
 20
-6.0
 30
0.0
  0
POINT
  5
2970D
330
28EB6
100
AcDbEntity
  8
DEFPOINTS
  6
ByBlock
100
AcDbPoint
 10
-22.00000000000003
 20
6.0
 30
0.0
  0
LINE
  5
2970E
330
28EB6
100
AcDbEntity
  8
SK2
  6
ByBlock
100
AcDbLine
 10
-22.00000000000003
 20
-6.0
 30
0.0
 11
-33.10865100000001
 21
-6.0
 31
0.0
  0
LINE
  5
2970F
330
28EB6
100
AcDbEntity
  8
SK2
  6
ByBlock
100
AcDbLine
 10
-22.00000000000003
 20
6.0
 30
0.0
 11
-33.10865100000001
 21
6.0
 31
0.0
  0
LINE
  5
29710
330
28EB6
100
AcDbEntity
  8
SK2
  6
ByBlock
100
AcDbLine
 10
-31.85865100000001
 20
-6.0
 30
0.0
 11
-31.85865100000001
 21
6.0
 31
0.0
  0
SOLID
  5
29711
330
28EB6
100
AcDbEntity
  8
SK2
  6
ByBlock
100
AcDbTrace
 10
-31.85865100000001
 20
-6.0
 30
0.0
 11
-31.44198433333326
 21
-3.5
 31
0.0
 12
-32.27531766666676
 22
-3.5
 32
0.0
 13
-32.27531766666676
 23
-3.5
 33
0.0
  0
SOLID
  5
29712
330
28EB6
100
AcDbEntity
  8
SK2
  6
ByBlock
100
AcDbTrace
 10
-31.85865100000001
 20
6.0
 30
0.0
 11
-31.44198433333326
 21
3.5
 31
0.0
 12
-32.27531766666676
 22
3.5
 32
0.0
 13
-32.27531766666676
 23
3.5
 33
0.0
  0
LINE
  5
29713
330
28EB6
100
AcDbEntity
  8
SK2
  6
ByBlock
100
AcDbLine
 10
-22.00000000000003
 20
-6.0
 30
0.0
 11
-22.00000000000003
 21
-6.0
 31
0.0
  0
MTEXT
  5
29714
330
28EB6
100
AcDbEntity
  8
SK2
  6
ByBlock
100
AcDbMText
 10
-34.25578733169361
 20
0.0620380000000011
 30
0.0
 40
3.5
 41
0.0
 71
     5
 72
     1
  1
M\A1;12
  7
MM_STANDARD
 11
0.0000000000000001
 21
1.0
 31
0.0
 73
     1
 44
1.0
1001
ACAD
1000
MTEXTBEGIN
1070
    73
1070
     1
1070
    44
1040
1.0
1070
    74
1070
     0
1000
MTEXTEND
  0
ENDBLK
  5
29C06
330
28EB6
100
AcDbEntity
  8
0
100
AcDbBlockEnd
  0
BLOCK
  5
29C07
330
28EC3
100
AcDbEntity
  8
0
100
AcDbBlockBegin
  2
*D30
 70
     1
 10
0.0
 20
0.0
 30
0.0
  3
*D30
  1

  0
LINE
  5
29C68
330
28EC3
100
AcDbEntity
  8
SK2
  6
ByBlock
100
AcDbLine
 10
-0.0000000000000284
 20
10.5
 30
0.0
 11
-42.54014300000004
 21
10.49999999999999
 31
0.0
  0
LINE
  5
29C69
330
28EC3
100
AcDbEntity
  8
SK2
  6
ByBlock
100
AcDbLine
 10
-0.0000000000000284
 20
-10.5
 30
0.0
 11
-42.54014300000004
 21
-10.50000000000001
 31
0.0
  0
LINE
  5
29C6A
330
28EC3
100
AcDbEntity
  8
SK2
  6
ByBlock
100
AcDbLine
 10
-41.29014300000004
 20
7.999999999999996
 30
0.0
 11
-41.29014300000004
 21
-8.000000000000008
 31
0.0
  0
SOLID
  5
29C6B
330
28EC3
100
AcDbEntity
  8
SK2
100
AcDbTrace
 10
-41.70680966666671
 20
7.999999999999996
 30
0.0
 11
-40.87347633333338
 21
7.999999999999996
 31
0.0
 12
-41.29014300000004
 22
10.49999999999999
 32
0.0
 13
-41.29014300000004
 23
10.49999999999999
 33
0.0
  0
SOLID
  5
29C6C
330
28EC3
100
AcDbEntity
  8
SK2
100
AcDbTrace
 10
-41.70680966666671
 20
-8.000000000000008
 30
0.0
 11
-40.87347633333338
 21
-8.000000000000008
 31
0.0
 12
-41.29014300000004
 22
-10.50000000000001
 32
0.0
 13
-41.29014300000004
 23
-10.50000000000001
 33
0.0
  0
MTEXT
  5
29C6D
330
28EC3
100
AcDbEntity
  8
SK2
100
AcDbMText
 10
-44.13615494659175
 20
0.0000000000000003
 30
0.0
 40
3.5
 41
0.0
 71
     5
 72
     1
  1
\A1;%%C21
  7
MM_STANDARD
 11
0.0000000000000001
 21
1.0
 31
0.0
 73
     1
 44
1.0
1001
ACAD
1000
MTEXTBEGIN
1070
    73
1070
     1
1070
    44
1040
1.0
1070
    74
1070
     0
1000
MTEXTEND
  0
POINT
  5
29C6E
330
28EC3
100
AcDbEntity
  8
DEFPOINTS
 62
     0
100
AcDbPoint
 10
-0.0000000000000284
 20
10.5
 30
0.0
  0
POINT
  5
29C6F
330
28EC3
100
AcDbEntity
  8
DEFPOINTS
 62
     0
100
AcDbPoint
 10
-0.0000000000000284
 20
-10.5
 30
0.0
  0
POINT
  5
29C70
330
28EC3
100
AcDbEntity
  8
DEFPOINTS
 62
     0
100
AcDbPoint
 10
-41.29014300000004
 20
-10.50000000000001
 30
0.0
  0
ENDBLK
  5
29C08
330
28EC3
100
AcDbEntity
  8
0
100
AcDbBlockEnd
  0
BLOCK
  5
29C0B
330
28EDE
100
AcDbEntity
  8
0
100
AcDbBlockBegin
  2
*D32
 70
     1
 10
0.0
 20
0.0
 30
0.0
  3
*D32
  1

  0
POINT
  5
29743
330
28EDE
100
AcDbEntity
  8
DEFPOINTS
  6
ByBlock
100
AcDbPoint
 10
20.80999999999997
 20
12.475966
 30
0.0
  0
POINT
  5
29744
330
28EDE
100
AcDbEntity
  8
DEFPOINTS
  6
ByBlock
100
AcDbPoint
 10
26.95044199999998
 20
10.68158500000001
 30
0.0
  0
LINE
  5
29745
330
28EDE
100
AcDbEntity
  8
2
  6
ByBlock
100
AcDbLine
 10
20.80999999999997
 20
12.475966
 30
0.0
 11
20.81042158125315
 21
25.13572832663041
 31
0.0
  0
LINE
  5
29746
330
28EDE
100
AcDbEntity
  8
2
  6
ByBlock
100
AcDbLine
 10
26.95044199999998
 20
10.68158500000001
 30
0.0
 11
26.95092332891385
 21
25.13552384250543
 31
0.0
  0
LINE
  5
29747
330
28EDE
100
AcDbEntity
  8
2
  6
ByBlock
100
AcDbLine
 10
20.81037995515049
 20
23.88572832732351
 30
0.0
 11
26.9508817028112
 21
23.88552384319852
 31
0.0
  0
SOLID
  5
29748
330
28EDE
100
AcDbEntity
  8
2
  6
ByBlock
100
AcDbTrace
 10
20.81037995515049
 20
23.88572832732351
 30
0.0
 11
23.31036607839675
 21
23.46897840868248
 31
0.0
 12
23.31039382913186
 22
24.30231174155392
 32
0.0
 13
23.31039382913186
 23
24.30231174155392
 33
0.0
  0
LINE
  5
29749
330
28EDE
100
AcDbEntity
  8
2
  6
ByBlock
100
AcDbLine
 10
20.81037995515049
 20
23.88572832732351
 30
0.0
 11
5.217442507717666
 21
23.88624758589567
 31
0.0
  0
SOLID
  5
2974A
330
28EDE
100
AcDbEntity
  8
2
  6
ByBlock
100
AcDbTrace
 10
26.9508817028112
 20
23.88552384319852
 30
0.0
 11
24.45086782882983
 21
23.46894042896811
 31
0.0
 12
24.45089557956493
 22
24.30227376183954
 32
0.0
 13
24.45089557956493
 23
24.30227376183954
 33
0.0
  0
LINE
  5
2974B
330
28EDE
100
AcDbEntity
  8
2
  6
ByBlock
100
AcDbLine
 10
20.80999999999997
 20
12.475966
 30
0.0
 11
20.80999999999997
 21
12.475966
 31
0.0
  0
MTEXT
  5
2974C
330
28EDE
100
AcDbEntity
  8
2
  6
ByBlock
100
AcDbMText
 10
11.76399273796682
 20
26.33358755746195
 30
0.0
 40
3.5
 41
0.0
 71
     5
 72
     1
  1
\A1;6.14
  7
MM_STANDARD
 11
0.9999999994455258
 21
-0.0000333008821224
 31
0.0
 73
     1
 44
1.0
1001
ACAD
1000
MTEXTBEGIN
1070
    73
1070
     1
1070
    44
1040
1.0
1070
    74
1070
     0
1000
MTEXTEND
  0
ENDBLK
  5
29C0C
330
28EDE
100
AcDbEntity
  8
0
100
AcDbBlockEnd
  0
BLOCK
  5
29C0D
330
28EED
100
AcDbEntity
  8
0
100
AcDbBlockBegin
  2
*D33
 70
     1
 10
0.0
 20
0.0
 30
0.0
  3
*D33
  1

  0
MTEXT
  5
298A3
330
28EED
100
AcDbEntity
  8
2
  6
ByBlock
100
AcDbMText
 10
41.47909862526439
 20
19.96808582863175
 30
0.0
 40
3.5
 41
0.0
 71
     5
 72
     1
  1
\A1;69%%d~81%%d
  7
MM_STANDARD
 11
0.9902521872175812
 21
-0.1392860571299096
 31
0.0
 73
     1
 44
1.0
1001
ACAD
1000
MTEXTBEGIN
1070
    73
1070
     1
1070
    44
1040
1.0
1070
    74
1070
     0
1000
MTEXTEND
  0
POINT
  5
298A4
330
28EED
100
AcDbEntity
  8
DEFPOINTS
  6
ByBlock
100
AcDbPoint
 10
27.29035399999998
 20
10.71732500000002
 30
0.0
  0
POINT
  5
298A5
330
28EED
100
AcDbEntity
  8
DEFPOINTS
  6
ByBlock
100
AcDbPoint
 10
26.95044199999998
 20
10.84780499999999
 30
0.0
  0
POINT
  5
298A6
330
28EED
100
AcDbEntity
  8
DEFPOINTS
  6
ByBlock
100
AcDbPoint
 10
26.95044199999998
 20
10.43118899999999
 30
0.0
  0
POINT
  5
298A7
330
28EED
100
AcDbEntity
  8
DEFPOINTS
  6
ByBlock
100
AcDbPoint
 10
26.95044199999998
 20
10.84780499999999
 30
0.0
  0
SOLID
  5
298A8
330
28EED
100
AcDbEntity
  8
2
  6
ByBlock
100
AcDbTrace
 10
26.95044199999998
 20
19.82214188451777
 30
0.0
 11
24.5328473890935
 21
19.06132166368559
 31
0.0
 12
24.41677567481855
 22
19.88653181970041
 32
0.0
 13
24.41677567481855
 23
19.88653181970041
 33
0.0
  0
SOLID
  5
298A9
330
28EED
100
AcDbEntity
  8
2
  6
ByBlock
100
AcDbTrace
 10
18.57217681080855
 20
14.06391988233852
 30
0.0
 11
19.42004848319339
 21
16.45237644218602
 31
0.0
 12
20.14885214193406
 22
16.04828527493421
 32
0.0
 13
20.14885214193406
 23
16.04828527493421
 33
0.0
  0
LINE
  5
298AA
330
28EED
100
AcDbEntity
  8
2
  6
ByBlock
100
AcDbLine
 10
26.95044199999998
 20
10.84780499999999
 30
0.0
 11
26.95044199999998
 21
19.82214188451777
 31
0.0
  0
LINE
  5
298AB
330
28EED
100
AcDbEntity
  8
2
  6
ByBlock
100
AcDbLine
 10
26.95044199999998
 20
10.84780499999999
 30
0.0
 11
17.4052012870173
 21
14.51187984357628
 31
0.0
  0
ARC
  5
298AC
330
28EED
100
AcDbEntity
  8
2
  6
ByBlock
100
AcDbCircle
 10
26.95044199999998
 20
10.84780499999999
 30
0.0
 40
8.974336884517777
100
AcDbArc
 50
106.0130711347699
 51
142.9869276718557
  0
ARC
  5
298AD
330
28EED
100
AcDbEntity
  8
2
  6
ByBlock
100
AcDbCircle
 10
26.95044199999998
 20
10.84780499999999
 30
0.0
 40
8.974336884517777
100
AcDbArc
 50
67.27914709736785
 51
90.0
  0
LINE
  5
298AE
330
28EED
100
AcDbEntity
  8
2
  6
ByBlock
100
AcDbLine
 10
30.41670581818089
 20
19.12571159886822
 30
0.0
 11
51.87988266098135
 21
16.1067621691117
 31
0.0
  0
ENDBLK
  5
29C0E
330
28EED
100
AcDbEntity
  8
0
100
AcDbBlockEnd
  0
BLOCK
  5
29C0F
330
28EFA
100
AcDbEntity
  8
0
100
AcDbBlockBegin
  2
*D34
 70
     1
 10
0.0
 20
0.0
 30
0.0
  3
*D34
  1

  0
POINT
  5
2976E
330
28EFA
100
AcDbEntity
  8
DEFPOINTS
  6
ByBlock
100
AcDbPoint
 10
26.95044199999998
 20
10.68158500000001
 30
0.0
  0
POINT
  5
2976F
330
28EFA
100
AcDbEntity
  8
DEFPOINTS
  6
ByBlock
100
AcDbPoint
 10
-22.00000000000003
 20
6.0
 30
0.0
  0
LINE
  5
29770
330
28EFA
100
AcDbEntity
  8
SK2
  6
ByBlock
100
AcDbLine
 10
26.95044199999998
 20
10.68158500000001
 30
0.0
 11
26.95093239109582
 21
40.13372346878321
 31
0.0
  0
LINE
  5
29771
330
28EFA
100
AcDbEntity
  8
SK2
  6
ByBlock
100
AcDbLine
 10
-22.00000000000004
 20
6.0
 30
0.0
 11
-21.9994316448782
 21
40.13453851393474
 31
0.0
  0
LINE
  5
29772
330
28EFA
100
AcDbEntity
  8
SK2
  6
ByBlock
100
AcDbLine
 10
26.95091157804449
 20
38.88372346895648
 30
0.0
 11
-21.99945245792953
 21
38.88453851410802
 31
0.0
  0
SOLID
  5
29773
330
28EFA
100
AcDbEntity
  8
SK2
  6
ByBlock
100
AcDbTrace
 10
26.95091157804449
 20
38.88372346895648
 30
0.0
 11
24.45091851607481
 21
39.30043176166814
 31
0.0
 12
24.45090464070727
 22
38.46709842845015
 32
0.0
 13
24.45090464070727
 23
38.46709842845015
 33
0.0
  0
SOLID
  5
29774
330
28EFA
100
AcDbEntity
  8
SK2
  6
ByBlock
100
AcDbTrace
 10
-21.99945245792953
 20
38.88453851410802
 30
0.0
 11
-19.4994455205923
 21
39.30116355461436
 31
0.0
 12
-19.49945939595985
 22
38.46783022139636
 32
0.0
 13
-19.49945939595985
 23
38.46783022139636
 33
0.0
  0
LINE
  5
29775
330
28EFA
100
AcDbEntity
  8
SK2
  6
ByBlock
100
AcDbLine
 10
26.95044199999998
 20
10.68158500000001
 30
0.0
 11
26.95044199999998
 21
10.68158500000001
 31
0.0
  0
MTEXT
  5
29776
330
28EFA
100
AcDbEntity
  8
SK2
  6
ByBlock
100
AcDbMText
 10
2.475261752919803
 20
41.33168897576753
 30
0.0
 40
3.5
 41
0.0
 71
     5
 72
     1
  1
\A1;49
  7
MM_STANDARD
 11
0.9999999998613816
 21
-0.0000166504410634
 31
0.0
 73
     1
 44
1.0
1001
ACAD
1000
MTEXTBEGIN
1070
    73
1070
     1
1070
    44
1040
1.0
1070
    74
1070
     0
1000
MTEXTEND
  0
ENDBLK
  5
29C10
330
28EFA
100
AcDbEntity
  8
0
100
AcDbBlockEnd
  0
BLOCK
  5
29C19
330
291DB
100
AcDbEntity
  8
0
100
AcDbBlockBegin
  2
*D39
 70
     1
 10
0.0
 20
0.0
 30
0.0
  3
*D39
  1

  0
LINE
  5
29C61
330
291DB
100
AcDbEntity
  8
2
  6
ByBlock
100
AcDbLine
 10
20.80999999999998
 20
12.50000000000001
 30
0.0
 11
58.13448119462613
 21
12.50000000000001
 31
0.0
  0
LINE
  5
29C62
330
291DB
100
AcDbEntity
  8
2
  6
ByBlock
100
AcDbLine
 10
56.88448119462613
 20
10.00000000000001
 30
0.0
 11
56.88448119462613
 21
-5.010453267744186
 31
0.0
  0
SOLID
  5
29C63
330
291DB
100
AcDbEntity
  8
2
100
AcDbTrace
 10
56.46781452795947
 20
10.00000000000001
 30
0.0
 11
57.3011478612928
 21
10.00000000000001
 31
0.0
 12
56.88448119462613
 22
12.50000000000001
 32
0.0
 13
56.88448119462613
 23
12.50000000000001
 33
0.0
  0
MTEXT
  5
29C64
330
291DB
100
AcDbEntity
  8
2
100
AcDbMText
 10
54.03846924803441
 20
0.0000000000000003
 30
0.0
 40
3.5
 41
0.0
 71
     5
 72
     1
  1
\A1;%%C25
  7
MM_STANDARD
 11
0.0000000000000001
 21
1.0
 31
0.0
 73
     1
 44
1.0
1001
ACAD
1000
MTEXTBEGIN
1070
    73
1070
     1
1070
    44
1040
1.0
1070
    74
1070
     0
1000
MTEXTEND
  0
POINT
  5
29C65
330
291DB
100
AcDbEntity
  8
DEFPOINTS
 62
     0
100
AcDbPoint
 10
20.80999999999998
 20
12.50000000000001
 30
0.0
  0
POINT
  5
29C66
330
291DB
100
AcDbEntity
  8
DEFPOINTS
 62
     0
100
AcDbPoint
 10
20.80999999999998
 20
-12.50000000000001
 30
0.0
  0
POINT
  5
29C67
330
291DB
100
AcDbEntity
  8
DEFPOINTS
 62
     0
100
AcDbPoint
 10
56.88448119462613
 20
-12.5
 30
0.0
  0
ENDBLK
  5
29C1A
330
291DB
100
AcDbEntity
  8
0
100
AcDbBlockEnd
  0
BLOCK
  5
29C1B
330
29B0C
100
AcDbEntity
  8
0
100
AcDbBlockBegin
  2
*D40
 70
     1
 10
0.0
 20
0.0
 30
0.0
  3
*D40
  1

  0
POINT
  5
29B4C
330
29B0C
100
AcDbEntity
  8
DEFPOINTS
  6
ByBlock
100
AcDbPoint
 10
-0.0000000000000284
 20
10.5
 30
0.0
  0
POINT
  5
29B4D
330
29B0C
100
AcDbEntity
  8
DEFPOINTS
  6
ByBlock
100
AcDbPoint
 10
26.95044199999998
 20
10.68158500000001
 30
0.0
  0
LINE
  5
29B4E
330
29B0C
100
AcDbEntity
  8
2
  6
ByBlock
100
AcDbLine
 10
-0.0000000000000284
 20
10.5
 30
0.0
 11
-0.0000000000000284
 21
33.13368223974162
 31
0.0
  0
LINE
  5
29B4F
330
29B0C
100
AcDbEntity
  8
2
  6
ByBlock
100
AcDbLine
 10
26.95044199999998
 20
10.68158500000001
 30
0.0
 11
26.95044199999998
 21
33.13368223974162
 31
0.0
  0
LINE
  5
29B50
330
29B0C
100
AcDbEntity
  8
2
  6
ByBlock
100
AcDbLine
 10
-0.0000000000000284
 20
31.88368223974162
 30
0.0
 11
26.95044199999998
 21
31.88368223974162
 31
0.0
  0
SOLID
  5
29B51
330
29B0C
100
AcDbEntity
  8
2
  6
ByBlock
100
AcDbTrace
 10
-0.0000000000000284
 20
31.88368223974162
 30
0.0
 11
2.49999999999997
 21
31.46701557307487
 31
0.0
 12
2.49999999999997
 22
32.30034890640837
 32
0.0
 13
2.49999999999997
 23
32.30034890640837
 33
0.0
  0
SOLID
  5
29B52
330
29B0C
100
AcDbEntity
  8
2
  6
ByBlock
100
AcDbTrace
 10
26.95044199999998
 20
31.88368223974162
 30
0.0
 11
24.45044199999998
 21
31.46701557307487
 31
0.0
 12
24.45044199999998
 22
32.30034890640837
 32
0.0
 13
24.45044199999998
 23
32.30034890640837
 33
0.0
  0
LINE
  5
29B53
330
29B0C
100
AcDbEntity
  8
2
  6
ByBlock
100
AcDbLine
 10
-0.0000000000000284
 20
10.5
 30
0.0
 11
-0.0000000000000284
 21
10.5
 31
0.0
  0
MTEXT
  5
29B54
330
29B0C
100
AcDbEntity
  8
2
  6
ByBlock
100
AcDbMText
 10
13.47522099999998
 20
34.28081857143523
 30
0.0
 40
3.5
 41
0.0
 71
     5
 72
     1
  1
\A1;27
  7
MM_STANDARD
 73
     1
 44
1.0
1001
ACAD
1000
MTEXTBEGIN
1070
    73
1070
     1
1070
    44
1040
1.0
1070
    74
1070
     0
1000
MTEXTEND
  0
ENDBLK
  5
29C1C
330
29B0C
100
AcDbEntity
  8
0
100
AcDbBlockEnd
  0
ENDSEC
  0
SECTION
  2
ENTITIES
  0
LINE
  5
AA8
330
1F
100
AcDbEntity
  8
INFTOTAL
100
AcDbLine
 10
-72.11472452489497
 20
1.185700667213936
 30
0.0
 11
-72.11472452489497
 21
54.28162022488457
 31
0.0
  0
LINE
  5
AA9
330
1F
100
AcDbEntity
  8
INFTOTAL
100
AcDbLine
 10
-72.11472452489497
 20
54.28162022488457
 30
0.0
 11
-5.10141162117469
 21
54.28162022488457
 31
0.0
  0
LINE
  5
AAA
330
1F
100
AcDbEntity
  8
INFTOTAL
100
AcDbLine
 10
13.63153063539536
 20
-49.49375433501502
 30
0.0
 11
73.14495271972269
 21
-49.49375433501508
 31
0.0
  0
LINE
  5
AAB
330
1F
100
AcDbEntity
  8
INFTOTAL
100
AcDbLine
 10
73.14495271972269
 20
-49.49375433501508
 30
0.0
 11
73.14495271972269
 21
-7.33469173581933
 31
0.0
  0
POINT
  5
AFA
330
1F
100
AcDbEntity
  8
1
100
AcDbPoint
 10
120.6316161181774
 20
18.06659889820604
 30
0.0
  0
POINT
  5
AFB
330
1F
100
AcDbEntity
  8
1
100
AcDbPoint
 10
117.3316161181774
 20
20.61513489820602
 30
0.0
  0
POINT
  5
136D
330
1F
100
AcDbEntity
  8
CUT
100
AcDbPoint
 10
120.6316161181774
 20
18.03682647108094
 30
0.0
  0
POINT
  5
410F
330
1F
100
AcDbEntity
  8
0
 62
     7
370
     5
100
AcDbPoint
 10
694.5793644972614
 20
32.06429484497903
 30
0.0
  0
POINT
  5
4112
330
1F
100
AcDbEntity
  8
0
 62
     7
370
     5
100
AcDbPoint
 10
694.7265624972615
 20
3.587258844979031
 30
0.0
  0
POINT
  5
4BBB
330
1F
100
AcDbEntity
  8
0
 62
     7
370
     5
100
AcDbPoint
 10
928.2803214655135
 20
36.14402775200896
 30
0.0
  0
POINT
  5
4BBE
330
1F
100
AcDbEntity
  8
0
 62
     7
370
     5
100
AcDbPoint
 10
927.9725574655133
 20
-13.37717824799107
 30
0.0
  0
POINT
  5
4C3D
330
1F
100
AcDbEntity
  8
0
 62
     7
370
     5
100
AcDbPoint
 10
1260.468250897024
 20
34.18197122255629
 30
0.0
  0
POINT
  5
4C41
330
1F
100
AcDbEntity
  8
0
 62
     7
370
     5
100
AcDbPoint
 10
1192.987798897024
 20
34.42276422255628
 30
0.0
  0
POINT
  5
4CA6
330
1F
100
AcDbEntity
  8
0
 62
     7
370
     5
100
AcDbPoint
 10
1531.370477890708
 20
36.54134112174947
 30
0.0
  0
POINT
  5
4CAA
330
1F
100
AcDbEntity
  8
0
 62
     7
370
     5
100
AcDbPoint
 10
1454.809556890707
 20
33.56345212174947
 30
0.0
  0
POINT
  5
4D13
330
1F
100
AcDbEntity
  8
0
 62
     7
370
     5
100
AcDbPoint
 10
705.1278997494348
 20
-154.9600065549146
 30
0.0
  0
POINT
  5
4D16
330
1F
100
AcDbEntity
  8
0
 62
     7
370
     5
100
AcDbPoint
 10
704.8201357494348
 20
-214.4959135549147
 30
0.0
  0
POINT
  5
4D94
330
1F
100
AcDbEntity
  8
0
 62
     7
370
     5
100
AcDbPoint
 10
1787.824033288602
 20
31.89640981289145
 30
0.0
  0
POINT
  5
4D98
330
1F
100
AcDbEntity
  8
0
 62
     7
370
     5
100
AcDbPoint
 10
1715.838491288602
 20
29.33517681289146
 30
0.0
  0
POINT
  5
4DFF
330
1F
100
AcDbEntity
  8
0
 62
     3
370
     5
100
AcDbPoint
 10
1267.112797580298
 20
-159.0002427017263
 30
0.0
  0
POINT
  5
4E03
330
1F
100
AcDbEntity
  8
0
 62
     3
370
     5
100
AcDbPoint
 10
1194.506377580298
 20
-161.9343927017263
 30
0.0
  0
POINT
  5
4E6A
330
1F
100
AcDbEntity
  8
0
 62
     7
370
     5
100
AcDbPoint
 10
1544.710960196184
 20
-155.8112991948312
 30
0.0
  0
POINT
  5
4E6E
330
1F
100
AcDbEntity
  8
0
 62
     3
370
     5
100
AcDbPoint
 10
1456.283339196184
 20
-157.1011921948312
 30
0.0
  0
POINT
  5
4ED5
330
1F
100
AcDbEntity
  8
0
 62
     7
370
     5
100
AcDbPoint
 10
923.0975508391153
 20
-198.2811869580544
 30
0.0
  0
POINT
  5
4ED6
330
1F
100
AcDbEntity
  8
0
 62
     7
370
     5
100
AcDbPoint
 10
958.0975508391155
 20
-190.2811869580544
 30
0.0
  0
POINT
  5
4ED9
330
1F
100
AcDbEntity
  8
0
 62
     7
370
     5
100
AcDbPoint
 10
957.9030798391153
 20
-228.1917289580544
 30
0.0
  0
POINT
  5
4F57
330
1F
100
AcDbEntity
  8
0
 62
     7
370
     5
100
AcDbPoint
 10
450.9331152202981
 20
34.51099349283641
 30
0.0
  0
POINT
  5
4F5A
330
1F
100
AcDbEntity
  8
0
 62
     7
370
     5
100
AcDbPoint
 10
450.3789362202981
 20
-3.505724507163591
 30
0.0
  0
POINT
  5
4FD6
330
1F
100
AcDbEntity
  8
0
 62
     7
370
     5
100
AcDbPoint
 10
414.7355793530676
 20
-182.3643573412055
 30
0.0
  0
POINT
  5
4FD9
330
1F
100
AcDbEntity
  8
0
 62
     7
370
     5
100
AcDbPoint
 10
414.4028163530678
 20
-227.6410343412055
 30
0.0
  0
POINT
  5
5057
330
1F
100
AcDbEntity
  8
0
 62
     7
370
     5
100
AcDbPoint
 10
411.1596871436125
 20
-404.5108996529686
 30
0.0
  0
POINT
  5
505A
330
1F
100
AcDbEntity
  8
0
 62
     7
370
     5
100
AcDbPoint
 10
410.8519251436126
 20
-448.9004636529686
 30
0.0
  0
POINT
  5
50DA
330
1F
100
AcDbEntity
  8
0
 62
     7
370
     5
100
AcDbPoint
 10
696.3752719090887
 20
-405.5632373962983
 30
0.0
  0
POINT
  5
50DD
330
1F
100
AcDbEntity
  8
0
 62
     7
370
     5
100
AcDbPoint
 10
696.0675099090884
 20
-458.9718843962983
 30
0.0
  0
POINT
  5
515E
330
1F
100
AcDbEntity
  8
0
 62
     7
370
     5
100
AcDbPoint
 10
942.932329238496
 20
-403.2148016805113
 30
0.0
  0
POINT
  5
5161
330
1F
100
AcDbEntity
  8
0
 62
     3
370
     5
100
AcDbPoint
 10
942.624565238496
 20
-476.4638956805113
 30
0.0
  0
POINT
  5
51E0
330
1F
100
AcDbEntity
  8
0
 62
     7
370
     5
100
AcDbPoint
 10
380.0596661818993
 20
-637.2898669140809
 30
0.0
  0
POINT
  5
51E4
330
1F
100
AcDbEntity
  8
0
 62
     7
370
     5
100
AcDbPoint
 10
379.7269051818993
 20
-669.3765459140807
 30
0.0
  0
POINT
  5
5263
330
1F
100
AcDbEntity
  8
0
 62
     7
370
     5
100
AcDbPoint
 10
656.1064603234972
 20
-644.2320044768857
 30
0.0
  0
POINT
  5
5267
330
1F
100
AcDbEntity
  8
0
 62
     7
370
     5
100
AcDbPoint
 10
655.7736983234972
 20
-681.5918884768857
 30
0.0
  0
POINT
  5
52E6
330
1F
100
AcDbEntity
  8
0
 62
     7
370
     5
100
AcDbPoint
 10
921.5387707571863
 20
-642.2430056930917
 30
0.0
  0
POINT
  5
52EA
330
1F
100
AcDbEntity
  8
0
 62
     7
370
     5
100
AcDbPoint
 10
921.2310077571864
 20
-692.8111586930919
 30
0.0
  0
POINT
  5
536A
330
1F
100
AcDbEntity
  8
0
 62
     7
370
     5
100
AcDbPoint
 10
1232.563978885883
 20
-644.0998079544141
 30
0.0
  0
POINT
  5
536E
330
1F
100
AcDbEntity
  8
0
 62
     7
370
     5
100
AcDbPoint
 10
1232.256215885883
 20
-701.4147569544141
 30
0.0
  0
POINT
  5
53EE
330
1F
100
AcDbEntity
  8
0
 62
     7
370
     5
100
AcDbPoint
 10
1530.052638397992
 20
-643.475919607774
 30
0.0
  0
POINT
  5
53F2
330
1F
100
AcDbEntity
  8
0
 62
     7
370
     5
100
AcDbPoint
 10
1529.744875397992
 20
-702.095046607774
 30
0.0
  0
POINT
  5
5472
330
1F
100
AcDbEntity
  8
0
 62
     7
370
     5
100
AcDbPoint
 10
684.9908237883022
 20
27.90718926625232
 30
0.0
  0
POINT
  5
5475
330
1F
100
AcDbEntity
  8
0
 62
     7
370
     5
100
AcDbPoint
 10
685.1380217883022
 20
-0.5698467337476814
 30
0.0
  0
POINT
  5
C167
330
1F
100
AcDbEntity
  8
0
 62
     7
370
     5
100
AcDbPoint
 10
404.6381194571074
 20
31.25869005531058
 30
0.0
  0
POINT
  5
C170
330
1F
100
AcDbEntity
  8
0
 62
     7
370
     5
100
AcDbPoint
 10
404.6381194571074
 20
-40.40044294468938
 30
0.0
  0
POINT
  5
C178
330
1F
100
AcDbEntity
  8
0
 62
     7
370
     5
100
AcDbPoint
 10
693.6166312048997
 20
32.91651042690259
 30
0.0
  0
POINT
  5
C182
330
1F
100
AcDbEntity
  8
0
 62
     7
370
     5
100
AcDbPoint
 10
693.6166312048997
 20
-48.79153757309743
 30
0.0
  0
POINT
  5
C255
330
1F
100
AcDbEntity
  8
0
 62
     7
370
     5
100
AcDbPoint
 10
969.8580521302226
 20
-44.97487572475608
 30
0.0
  0
POINT
  5
C258
330
1F
100
AcDbEntity
  8
0
 62
     7
370
     5
100
AcDbPoint
 10
969.8580521302226
 20
15.7863642752439
 30
0.0
  0
POINT
  5
C2E1
330
1F
100
AcDbEntity
  8
0
 62
     7
370
     5
100
AcDbPoint
 10
1225.348704188238
 20
-52.24776141224177
 30
0.0
  0
POINT
  5
C2E4
330
1F
100
AcDbEntity
  8
0
 62
     7
370
     5
100
AcDbPoint
 10
1225.348704188238
 20
11.68361158775823
 30
0.0
  0
POINT
  5
C36E
330
1F
100
AcDbEntity
  8
0
 62
     7
370
     5
100
AcDbPoint
 10
1738.913115957113
 20
-214.1607529893734
 30
0.0
  0
POINT
  5
C377
330
1F
100
AcDbEntity
  8
0
 62
     3
370
     5
100
AcDbPoint
 10
1738.913115957113
 20
-286.8828409893735
 30
0.0
  0
POINT
  5
C42D
330
1F
100
AcDbEntity
  8
0
 62
     7
370
     5
100
AcDbPoint
 10
430.2380300204257
 20
-176.3158258460635
 30
0.0
  0
POINT
  5
C437
330
1F
100
AcDbEntity
  8
0
 62
     7
370
     5
100
AcDbPoint
 10
430.2380300204257
 20
-251.7521558460636
 30
0.0
  0
POINT
  5
C533
330
1F
100
AcDbEntity
  8
0
 62
     3
370
     5
100
AcDbPoint
 10
724.0359074233313
 20
-257.7049218719476
 30
0.0
  0
POINT
  5
C536
330
1F
100
AcDbEntity
  8
0
 62
     3
370
     5
100
AcDbPoint
 10
724.0359074233313
 20
-176.2890638719476
 30
0.0
  0
POINT
  5
C652
330
1F
100
AcDbEntity
  8
0
 62
     7
370
     5
100
AcDbPoint
 10
1006.718794540682
 20
-163.3460002642659
 30
0.0
  0
POINT
  5
C65C
330
1F
100
AcDbEntity
  8
0
 62
     7
370
     5
100
AcDbPoint
 10
1006.718794540682
 20
-271.4659132642659
 30
0.0
  0
POINT
  5
C79F
330
1F
100
AcDbEntity
  8
0
 62
     7
370
     5
100
AcDbPoint
 10
680.0273543974197
 20
-609.8288373451556
 30
0.0
  0
POINT
  5
C7A3
330
1F
100
AcDbEntity
  8
0
 62
     7
370
     5
100
AcDbPoint
 10
680.0273543974197
 20
-565.0385583451557
 30
0.0
  0
POINT
  5
C85B
330
1F
100
AcDbEntity
  8
0
 62
     7
370
     5
100
AcDbPoint
 10
981.854726218849
 20
-559.8376501395787
 30
0.0
  0
POINT
  5
C863
330
1F
100
AcDbEntity
  8
0
 62
     7
370
     5
100
AcDbPoint
 10
981.854726218849
 20
-623.6282751395788
 30
0.0
  0
POINT
  5
C930
330
1F
100
AcDbEntity
  8
0
 62
     7
370
     5
100
AcDbPoint
 10
1216.759569404171
 20
-624.5477225769705
 30
0.0
  0
POINT
  5
C934
330
1F
100
AcDbEntity
  8
0
 62
     7
370
     5
100
AcDbPoint
 10
1202.759569404171
 20
-560.1965945769704
 30
0.0
  0
POINT
  5
C935
330
1F
100
AcDbEntity
  8
0
 62
     7
370
     5
100
AcDbPoint
 10
1216.759569404171
 20
-551.6965945769704
 30
0.0
  0
POINT
  5
CA12
330
1F
100
AcDbEntity
  8
0
 62
     7
370
     5
100
AcDbPoint
 10
1458.761001673632
 20
-627.5597008720548
 30
0.0
  0
POINT
  5
CA16
330
1F
100
AcDbEntity
  8
0
 62
     7
370
     5
100
AcDbPoint
 10
1443.761001673632
 20
-571.7910898720547
 30
0.0
  0
POINT
  5
CA17
330
1F
100
AcDbEntity
  8
0
 62
     7
370
     5
100
AcDbPoint
 10
1458.761001673632
 20
-561.2910898720547
 30
0.0
  0
POINT
  5
CB25
330
1F
100
AcDbEntity
  8
0
 62
     7
370
     5
100
AcDbPoint
 10
1712.749014983699
 20
-637.6031663899041
 30
0.0
  0
POINT
  5
CB29
330
1F
100
AcDbEntity
  8
0
 62
     7
370
     5
100
AcDbPoint
 10
1712.749014983699
 20
-557.403845389904
 30
0.0
  0
POINT
  5
CC4B
330
1F
100
AcDbEntity
  8
0
 62
     7
370
     5
100
AcDbPoint
 10
1990.420039580178
 20
-639.3672597641932
 30
0.0
  0
POINT
  5
CC4F
330
1F
100
AcDbEntity
  8
0
 62
     7
370
     5
100
AcDbPoint
 10
1975.420039580178
 20
-571.8308197641934
 30
0.0
  0
POINT
  5
CC50
330
1F
100
AcDbEntity
  8
0
 62
     7
370
     5
100
AcDbPoint
 10
1990.420039580178
 20
-554.3308197641933
 30
0.0
  0
POINT
  5
D588
330
1F
100
AcDbEntity
  8
0
 62
     7
370
     5
100
AcDbPoint
 10
643.6762534904714
 20
-418.5518022854259
 30
0.0
  0
POINT
  5
D590
330
1F
100
AcDbEntity
  8
0
 62
     7
370
     5
100
AcDbPoint
 10
698.8426964904712
 20
-418.5518022854259
 30
0.0
  0
POINT
  5
D89C
330
1F
100
AcDbEntity
  8
0
 62
     7
370
     5
100
AcDbPoint
 10
918.4554480131433
 20
-418.2516555129392
 30
0.0
  0
POINT
  5
D8A3
330
1F
100
AcDbEntity
  8
0
 62
     7
370
     5
100
AcDbPoint
 10
998.0069960131432
 20
-418.2516555129392
 30
0.0
  0
POINT
  5
DAF2
330
1F
100
AcDbEntity
  8
0
 62
     7
370
     5
100
AcDbPoint
 10
1973.075374951941
 20
-60.50318164632196
 30
0.0
  0
POINT
  5
DAF5
330
1F
100
AcDbEntity
  8
0
 62
     7
370
     5
100
AcDbPoint
 10
1973.075374951941
 20
1.00896335367804
 30
0.0
  0
POINT
  5
DCBB
330
1F
100
AcDbEntity
  8
0
 62
     7
370
     5
100
AcDbPoint
 10
2228.446041001848
 20
-631.5679862622897
 30
0.0
  0
POINT
  5
DCBF
330
1F
100
AcDbEntity
  8
0
 62
     7
370
     5
100
AcDbPoint
 10
2228.446041001848
 20
-581.1017172622897
 30
0.0
  0
POINT
  5
DECF
330
1F
100
AcDbEntity
  8
0
 62
     7
370
     5
100
AcDbPoint
 10
2470.518201269178
 20
-576.6616946872675
 30
0.0
  0
POINT
  5
DED7
330
1F
100
AcDbEntity
  8
0
 62
     7
370
     5
100
AcDbPoint
 10
2470.518201269178
 20
-638.2022576872675
 30
0.0
  0
POINT
  5
E102
330
1F
100
AcDbEntity
  8
0
 62
     7
370
     5
100
AcDbPoint
 10
1449.716374392063
 20
-281.2570516923841
 30
0.0
  0
POINT
  5
E105
330
1F
100
AcDbEntity
  8
0
 62
     7
370
     5
100
AcDbPoint
 10
1449.716374392063
 20
-216.7933926923841
 30
0.0
  0
POINT
  5
E20E
330
1F
100
AcDbEntity
  8
0
 62
     7
370
     5
100
AcDbPoint
 10
1444.226360693917
 20
7.118696944552222
 30
0.0
  0
POINT
  5
E217
330
1F
100
AcDbEntity
  8
0
 62
     7
370
     5
100
AcDbPoint
 10
1444.226360693917
 20
-50.75492105544778
 30
0.0
  0
POINT
  5
E328
330
1F
100
AcDbEntity
  8
0
 62
     7
370
     5
100
AcDbPoint
 10
1674.557421043983
 20
-57.27887800498226
 30
0.0
  0
POINT
  5
E32B
330
1F
100
AcDbEntity
  8
0
 62
     7
370
     5
100
AcDbPoint
 10
1674.557421043983
 20
6.273895995017768
 30
0.0
  0
POINT
  5
E438
330
1F
100
AcDbEntity
  8
0
 62
     7
370
     5
100
AcDbPoint
 10
1221.741516539144
 20
-220.2351919986821
 30
0.0
  0
POINT
  5
E441
330
1F
100
AcDbEntity
  8
0
 62
     7
370
     5
100
AcDbPoint
 10
1221.741516539144
 20
-278.4038869986821
 30
0.0
  0
POINT
  5
E533
330
1F
100
AcDbEntity
  8
0
 62
     7
370
     5
100
AcDbPoint
 10
435.7613867553435
 20
-401.853645371286
 30
0.0
  0
POINT
  5
E537
330
1F
100
AcDbEntity
  8
0
 62
     7
370
     5
100
AcDbPoint
 10
336.0458187553437
 20
-401.853645371286
 30
0.0
  0
POINT
  5
E6D2
330
1F
100
AcDbEntity
  8
0
 62
     7
370
     5
100
AcDbPoint
 10
394.2075911881555
 20
-612.6712758301417
 30
0.0
  0
POINT
  5
E6D6
330
1F
100
AcDbEntity
  8
0
 62
     7
370
     5
100
AcDbPoint
 10
394.2075911881555
 20
-562.1020128301418
 30
0.0
  0
POINT
  5
12895
330
1F
100
AcDbEntity
  8
0
 62
     7
370
     5
100
AcDbPoint
 10
514.3576994832141
 20
-558.6978028967338
 30
0.0
  0
POINT
  5
1289C
330
1F
100
AcDbEntity
  8
0
 62
     7
370
     5
100
AcDbPoint
 10
514.3576994832141
 20
-524.0331488967338
 30
0.0
  0
POINT
  5
1289D
330
1F
100
AcDbEntity
  8
0
 62
     7
370
     5
100
AcDbPoint
 10
514.3576994832141
 20
-526.4631488967337
 30
0.0
  0
POINT
  5
1299A
330
1F
100
AcDbEntity
  8
0
 62
     7
370
     5
100
AcDbPoint
 10
273.0238152774181
 20
35.53337152575214
 30
0.0
  0
POINT
  5
1299D
330
1F
100
AcDbEntity
  8
0
 62
     7
370
     5
100
AcDbPoint
 10
273.0238152774181
 20
-16.30945047424785
 30
0.0
  0
POINT
  5
12A19
330
1F
100
AcDbEntity
  8
0
 62
     7
370
     5
100
AcDbPoint
 10
530.0071960054782
 20
34.28476473790624
 30
0.0
  0
POINT
  5
12A1A
330
1F
100
AcDbEntity
  8
0
 62
     7
370
     5
100
AcDbPoint
 10
530.0071960054782
 20
28.42976573790625
 30
0.0
  0
POINT
  5
12A1D
330
1F
100
AcDbEntity
  8
0
 62
     7
370
     5
100
AcDbPoint
 10
530.2789780054783
 20
-25.24190226209373
 30
0.0
  0
POINT
  5
12AA6
330
1F
100
AcDbEntity
  8
0
 62
     7
370
     5
100
AcDbPoint
 10
803.5390081451089
 20
38.33315219974614
 30
0.0
  0
POINT
  5
12AA7
330
1F
100
AcDbEntity
  8
0
 62
     7
370
     5
100
AcDbPoint
 10
803.5390081451089
 20
32.44315219974615
 30
0.0
  0
POINT
  5
12AAA
330
1F
100
AcDbEntity
  8
0
 62
     7
370
     5
100
AcDbPoint
 10
803.5390081451089
 20
-33.77549080025384
 30
0.0
  0
POINT
  5
12B2B
330
1F
100
AcDbEntity
  8
0
 62
     7
370
     5
100
AcDbPoint
 10
246.4739127018369
 20
-292.0641451649423
 30
0.0
  0
POINT
  5
12B40
330
1F
100
AcDbEntity
  8
0
 62
     7
370
     5
100
AcDbPoint
 10
246.1857397018369
 20
-234.4124741649423
 30
0.0
  0
POINT
  5
12B41
330
1F
100
AcDbEntity
  8
0
 62
     7
370
     5
100
AcDbPoint
 10
246.1857397018369
 20
-239.6974741649422
 30
0.0
  0
POINT
  5
12BA1
330
1F
100
AcDbEntity
  8
0
 62
     7
370
     5
100
AcDbPoint
 10
503.361992156836
 20
-293.942128217062
 30
0.0
  0
POINT
  5
12BB5
330
1F
100
AcDbEntity
  8
0
 62
     7
370
     5
100
AcDbPoint
 10
503.361992156836
 20
-232.058278217062
 30
0.0
  0
POINT
  5
12BB6
330
1F
100
AcDbEntity
  8
0
 62
     7
370
     5
100
AcDbPoint
 10
503.361992156836
 20
-237.898279217062
 30
0.0
  0
POINT
  5
12C16
330
1F
100
AcDbEntity
  8
0
 62
     7
370
     5
100
AcDbPoint
 10
773.9808530456294
 20
-320.1483272428673
 30
0.0
  0
POINT
  5
12C17
330
1F
100
AcDbEntity
  8
0
 62
     7
370
     5
100
AcDbPoint
 10
776.9808530456294
 20
-286.8983272428673
 30
0.0
  0
POINT
  5
12C2B
330
1F
100
AcDbEntity
  8
0
 62
     7
370
     5
100
AcDbPoint
 10
776.9808530456294
 20
-225.7099922428672
 30
0.0
  0
POINT
  5
12C8B
330
1F
100
AcDbEntity
  8
0
 62
     7
370
     5
100
AcDbPoint
 10
258.823540701837
 20
-572.0746798648522
 30
0.0
  0
POINT
  5
12C92
330
1F
100
AcDbEntity
  8
0
 62
     7
370
     5
100
AcDbPoint
 10
258.8235127018369
 20
-543.1961818648521
 30
0.0
  0
POINT
  5
12C93
330
1F
100
AcDbEntity
  8
0
 62
     7
370
     5
100
AcDbPoint
 10
258.8235127018369
 20
-544.8461818648523
 30
0.0
  0
POINT
  5
14051
330
1F
100
AcDbEntity
  8
0
 62
     7
370
     5
100
AcDbPoint
 10
690.9556627618442
 20
-532.2047645406313
 30
0.0
  0
POINT
  5
14058
330
1F
100
AcDbEntity
  8
0
 62
     7
370
     5
100
AcDbPoint
 10
690.9556627618442
 20
-497.5401105406314
 30
0.0
  0
POINT
  5
14059
330
1F
100
AcDbEntity
  8
0
 62
     7
370
     5
100
AcDbPoint
 10
690.9556627618442
 20
-499.9701105406314
 30
0.0
  0
POINT
  5
175ED
330
1F
100
AcDbEntity
  8
0
 62
     7
370
     5
100
AcDbPoint
 10
329.8984453452037
 20
37.75833189686949
 30
0.0
  0
POINT
  5
175F0
330
1F
100
AcDbEntity
  8
0
 62
     7
370
     5
100
AcDbPoint
 10
329.8984453452037
 20
-10.8089411031305
 30
0.0
  0
POINT
  5
17673
330
1F
100
AcDbEntity
  8
0
 62
     7
370
     5
100
AcDbPoint
 10
651.3183805762602
 20
33.1650220174441
 30
0.0
  0
POINT
  5
17677
330
1F
100
AcDbEntity
  8
0
 62
     7
370
     5
100
AcDbPoint
 10
651.3183805762602
 20
-21.99992098255592
 30
0.0
  0
POINT
  5
1770F
330
1F
100
AcDbEntity
  8
0
 62
     7
370
     5
100
AcDbPoint
 10
1014.212196760976
 20
-27.33731747488401
 30
0.0
  0
POINT
  5
17718
330
1F
100
AcDbEntity
  8
0
 62
     7
370
     5
100
AcDbPoint
 10
1014.212196760976
 20
30.00474752511599
 30
0.0
  0
POINT
  5
17790
330
1F
100
AcDbEntity
  8
0
 62
     7
370
     5
100
AcDbPoint
 10
1421.356448019548
 20
-26.9349024739204
 30
0.0
  0
POINT
  5
1779E
330
1F
100
AcDbEntity
  8
0
 62
     7
370
     5
100
AcDbPoint
 10
1421.356448019548
 20
21.9806675260796
 30
0.0
  0
POINT
  5
1779F
330
1F
100
AcDbEntity
  8
0
 62
     7
370
     5
100
AcDbPoint
 10
1413.056448019548
 20
21.9806675260796
 30
0.0
  0
POINT
  5
1781A
330
1F
100
AcDbEntity
  8
0
 62
     7
370
     5
100
AcDbPoint
 10
1720.045575829729
 20
23.92611327127983
 30
0.0
  0
POINT
  5
1781D
330
1F
100
AcDbEntity
  8
0
 62
     7
370
     5
100
AcDbPoint
 10
1720.045575829729
 20
-24.59612772872018
 30
0.0
  0
POINT
  5
178A0
330
1F
100
AcDbEntity
  8
0
 62
     7
370
     5
100
AcDbPoint
 10
359.2272976195882
 20
-230.0319820838431
 30
0.0
  0
POINT
  5
178A3
330
1F
100
AcDbEntity
  8
0
 62
     7
370
     5
100
AcDbPoint
 10
359.2273026195881
 20
-278.361407083843
 30
0.0
  0
POINT
  5
17926
330
1F
100
AcDbEntity
  8
0
 62
     7
370
     5
100
AcDbPoint
 10
669.6174077737214
 20
-230.0319820838431
 30
0.0
  0
POINT
  5
17929
330
1F
100
AcDbEntity
  8
0
 62
     7
370
     5
100
AcDbPoint
 10
669.6174087737214
 20
-278.361407083843
 30
0.0
  0
POINT
  5
179AC
330
1F
100
AcDbEntity
  8
0
 62
     7
370
     5
100
AcDbPoint
 10
1023.306532042488
 20
-235.6329118492064
 30
0.0
  0
POINT
  5
179AF
330
1F
100
AcDbEntity
  8
0
 62
     7
370
     5
100
AcDbPoint
 10
1023.306532042488
 20
-284.2001848492064
 30
0.0
  0
POINT
  5
17A32
330
1F
100
AcDbEntity
  8
0
 62
     7
370
     5
100
AcDbPoint
 10
1352.196645196622
 20
-235.6329118492064
 30
0.0
  0
POINT
  5
17A36
330
1F
100
AcDbEntity
  8
0
 62
     7
370
     5
100
AcDbPoint
 10
1352.196645196622
 20
-290.7980508492065
 30
0.0
  0
POINT
  5
17AD1
330
1F
100
AcDbEntity
  8
0
 62
     7
370
     5
100
AcDbPoint
 10
1715.365188016996
 20
-237.9716865944066
 30
0.0
  0
POINT
  5
17AD4
330
1F
100
AcDbEntity
  8
0
 62
     7
370
     5
100
AcDbPoint
 10
1715.365188016996
 20
-286.5389595944066
 30
0.0
  0
POINT
  5
17B57
330
1F
100
AcDbEntity
  8
0
 62
     7
370
     5
100
AcDbPoint
 10
331.5674947966618
 20
-480.7206417139288
 30
0.0
  0
POINT
  5
17B5A
330
1F
100
AcDbEntity
  8
0
 62
     7
370
     5
100
AcDbPoint
 10
331.5674987966619
 20
-532.8452337139288
 30
0.0
  0
POINT
  5
17BD8
330
1F
100
AcDbEntity
  8
0
 62
     7
370
     5
100
AcDbPoint
 10
667.4370134195751
 20
-483.059416459129
 30
0.0
  0
POINT
  5
17BDB
330
1F
100
AcDbEntity
  8
0
 62
     7
370
     5
100
AcDbPoint
 10
667.4370134195751
 20
-535.184008459129
 30
0.0
  0
POINT
  5
17C59
330
1F
100
AcDbEntity
  8
0
 62
     7
370
     5
100
AcDbPoint
 10
1032.757662940594
 20
-479.9258798209486
 30
0.0
  0
POINT
  5
17C5C
330
1F
100
AcDbEntity
  8
0
 62
     7
370
     5
100
AcDbPoint
 10
1032.757665940594
 20
-532.1255208209487
 30
0.0
  0
POINT
  5
17CDA
330
1F
100
AcDbEntity
  8
0
 62
     7
370
     5
100
AcDbPoint
 10
1350.446793750775
 20
-475.452849330548
 30
0.0
  0
POINT
  5
17CDE
330
1F
100
AcDbEntity
  8
0
 62
     7
370
     5
100
AcDbPoint
 10
1350.446795750775
 20
-535.7299113305479
 30
0.0
  0
POINT
  5
17D79
330
1F
100
AcDbEntity
  8
0
 62
     7
370
     5
100
AcDbPoint
 10
1724.816312373689
 20
-484.6034323315118
 30
0.0
  0
POINT
  5
17D7C
330
1F
100
AcDbEntity
  8
0
 62
     7
370
     5
100
AcDbPoint
 10
1724.816312373689
 20
-536.8030733315118
 30
0.0
  0
POINT
  5
17DFA
330
1F
100
AcDbEntity
  8
0
 62
     7
370
     5
100
AcDbPoint
 10
292.6784219762804
 20
-717.1006079596696
 30
0.0
  0
POINT
  5
17DFE
330
1F
100
AcDbEntity
  8
0
 62
     7
370
     5
100
AcDbPoint
 10
292.6784249762804
 20
-777.3013929596698
 30
0.0
  0
POINT
  5
17E99
330
1F
100
AcDbEntity
  8
0
 62
     7
370
     5
100
AcDbPoint
 10
668.1772397573285
 20
-728.8489624009062
 30
0.0
  0
POINT
  5
17E9C
330
1F
100
AcDbEntity
  8
0
 62
     7
370
     5
100
AcDbPoint
 10
668.1772397573285
 20
-780.9735614009062
 30
0.0
  0
POINT
  5
17F19
330
1F
100
AcDbEntity
  8
0
 62
     7
370
     5
100
AcDbPoint
 10
1014.680140542377
 20
-727.4779055808943
 30
0.0
  0
POINT
  5
17F1E
330
1F
100
AcDbEntity
  8
0
 62
     7
370
     5
100
AcDbPoint
 10
1014.680139542377
 20
-792.8842465808943
 30
0.0
  0
POINT
  5
17F82
330
1F
100
AcDbEntity
  8
0
 62
     7
370
     5
100
AcDbPoint
 10
1363.039112172955
 20
-778.9168242007557
 30
0.0
  0
POINT
  5
17F8B
330
1F
100
AcDbEntity
  8
0
 62
     7
370
     5
100
AcDbPoint
 10
1363.039112172955
 20
-712.5175752007558
 30
0.0
  0
POINT
  5
17FE8
330
1F
100
AcDbEntity
  8
0
 62
     7
370
     5
100
AcDbPoint
 10
1718.366870633272
 20
-723.7460446679111
 30
0.0
  0
POINT
  5
17FEB
330
1F
100
AcDbEntity
  8
0
 62
     7
370
     5
100
AcDbPoint
 10
1718.366871633272
 20
-789.389202667911
 30
0.0
  0
POINT
  5
18051
330
1F
100
AcDbEntity
  8
0
 62
     7
370
     5
100
AcDbPoint
 10
319.6383345054979
 20
-967.5893901625666
 30
0.0
  0
POINT
  5
18054
330
1F
100
AcDbEntity
  8
0
 62
     7
370
     5
100
AcDbPoint
 10
319.6383355054979
 20
-1032.973459162567
 30
0.0
  0
POINT
  5
180BA
330
1F
100
AcDbEntity
  8
0
 62
     7
370
     5
100
AcDbPoint
 10
680.5370709864296
 20
-963.1934877025301
 30
0.0
  0
POINT
  5
180BB
330
1F
100
AcDbEntity
  8
0
 62
     7
370
     5
100
AcDbPoint
 10
629.5370709864297
 20
-967.19348770253
 30
0.0
  0
POINT
  5
180BE
330
1F
100
AcDbEntity
  8
0
 62
     7
370
     5
100
AcDbPoint
 10
680.5370759864297
 20
-1028.58231170253
 30
0.0
  0
POINT
  5
18125
330
1F
100
AcDbEntity
  8
0
 62
     7
370
     5
100
AcDbPoint
 10
1025.504908559649
 20
-985.5078641637318
 30
0.0
  0
POINT
  5
18128
330
1F
100
AcDbEntity
  8
0
 62
     7
370
     5
100
AcDbPoint
 10
935.4436665596491
 20
-985.5078641637318
 30
0.0
  0
POINT
  5
181A3
330
1F
100
AcDbEntity
  8
0
 62
     7
370
     5
100
AcDbPoint
 10
1372.616021513803
 20
-994.9832624236179
 30
0.0
  0
POINT
  5
181A6
330
1F
100
AcDbEntity
  8
0
 62
     7
370
     5
100
AcDbPoint
 10
1282.554779513803
 20
-994.9832624236179
 30
0.0
  0
POINT
  5
18221
330
1F
100
AcDbEntity
  8
0
 62
     7
370
     5
100
AcDbPoint
 10
1726.183901955964
 20
-986.4057379766256
 30
0.0
  0
POINT
  5
18224
330
1F
100
AcDbEntity
  8
0
 62
     7
370
     5
100
AcDbPoint
 10
1636.122660955965
 20
-987.7852319766256
 30
0.0
  0
POINT
  5
1829F
330
1F
100
AcDbEntity
  8
0
 62
     7
370
     5
100
AcDbPoint
 10
315.0667151318947
 20
-1233.667447704089
 30
0.0
  0
POINT
  5
182A2
330
1F
100
AcDbEntity
  8
0
 62
     7
370
     5
100
AcDbPoint
 10
225.0054731318947
 20
-1234.512880704089
 30
0.0
  0
POINT
  5
1831D
330
1F
100
AcDbEntity
  8
0
 62
     7
370
     5
100
AcDbPoint
 10
666.5716365787308
 20
-1228.374582524101
 30
0.0
  0
POINT
  5
18320
330
1F
100
AcDbEntity
  8
0
 62
     7
370
     5
100
AcDbPoint
 10
576.510395578731
 20
-1229.476628524102
 30
0.0
  0
POINT
  5
1C1E5
330
1F
100
AcDbEntity
  8
0
 62
     7
370
     5
100
AcDbPoint
 10
565.1931729999843
 20
-252.0327741049043
 30
0.0
  0
POINT
  5
1C1E8
330
1F
100
AcDbEntity
  8
0
 62
     7
370
     5
100
AcDbPoint
 10
571.0793859999843
 20
-171.4824511049043
 30
0.0
  0
POINT
  5
1C393
330
1F
100
AcDbEntity
  8
0
 62
     7
370
     5
100
AcDbPoint
 10
852.7529560248229
 20
-161.0786730235244
 30
0.0
  0
POINT
  5
1C3A1
330
1F
100
AcDbEntity
  8
0
 62
     7
370
     5
100
AcDbPoint
 10
853.6840430248233
 20
-256.0650500235244
 30
0.0
  0
POINT
  5
1C476
330
1F
100
AcDbEntity
  8
0
 62
     7
370
     5
100
AcDbPoint
 10
1100.710829294269
 20
-179.9690311044011
 30
0.0
  0
POINT
  5
1C484
330
1F
100
AcDbEntity
  8
0
 62
     7
370
     5
100
AcDbPoint
 10
1097.008556294269
 20
-246.8144071044011
 30
0.0
  0
POINT
  5
1C54E
330
1F
100
AcDbEntity
  8
0
 62
     7
370
     5
100
AcDbPoint
 10
327.4559894717282
 20
-242.3690707660675
 30
0.0
  0
POINT
  5
1C54F
330
1F
100
AcDbEntity
  8
0
 62
     7
370
     5
100
AcDbPoint
 10
323.7573724717281
 20
-242.3490727660675
 30
0.0
  0
POINT
  5
1C632
330
1F
100
AcDbEntity
  8
0
 62
     7
370
     5
100
AcDbPoint
 10
301.1069300782104
 20
37.7626127561465
 30
0.0
  0
POINT
  5
1C640
330
1F
100
AcDbEntity
  8
0
 62
     7
370
     5
100
AcDbPoint
 10
301.4480630782105
 20
-36.93915824385351
 30
0.0
  0
POINT
  5
1C6B9
330
1F
100
AcDbEntity
  8
0
 62
     1
370
     5
100
AcDbPoint
 10
582.4029449258979
 20
29.4620864008466
 30
0.0
  0
POINT
  5
1C6C7
330
1F
100
AcDbEntity
  8
0
 62
     7
370
     5
100
AcDbPoint
 10
567.6899119258981
 20
-44.52450559915339
 30
0.0
  0
POINT
  5
1C740
330
1F
100
AcDbEntity
  8
0
 62
     7
370
     5
100
AcDbPoint
 10
838.8170717714807
 20
31.21800268959555
 30
0.0
  0
POINT
  5
1C74E
330
1F
100
AcDbEntity
  8
0
 62
     7
370
     5
100
AcDbPoint
 10
830.8810477714807
 20
-42.18143931040443
 30
0.0
  0
POINT
  5
1C7C7
330
1F
100
AcDbEntity
  8
0
 62
     7
370
     5
100
AcDbPoint
 10
1082.103046320498
 20
26.65705560741793
 30
0.0
  0
POINT
  5
1C850
330
1F
100
AcDbEntity
  8
0
 62
     7
370
     5
100
AcDbPoint
 10
1320.708032031059
 20
-54.79519568133104
 30
0.0
  0
POINT
  5
1C851
330
1F
100
AcDbEntity
  8
0
 62
     7
370
     5
100
AcDbPoint
 10
1317.008086031059
 20
-54.77519668133105
 30
0.0
  0
POINT
  5
1C9A2
330
1F
100
AcDbEntity
  8
0
 62
     7
370
     5
100
AcDbPoint
 10
1351.994597785224
 20
-177.9923767989125
 30
0.0
  0
POINT
  5
1C9B0
330
1F
100
AcDbEntity
  8
0
 62
     7
370
     5
100
AcDbPoint
 10
1347.069666785224
 20
-246.9150937989126
 30
0.0
  0
POINT
  5
1C9B1
330
1F
100
AcDbEntity
  8
0
 62
     7
370
     5
100
AcDbPoint
 10
1343.369666785224
 20
-246.9154057989126
 30
0.0
  0
POINT
  5
1CBC0
330
1F
100
AcDbEntity
  8
0
 62
     7
370
     5
100
AcDbPoint
 10
317.2946666194903
 20
-384.0973382926297
 30
0.0
  0
POINT
  5
1CBCE
330
1F
100
AcDbEntity
  8
0
 62
     7
370
     5
100
AcDbPoint
 10
305.7896836194903
 20
-451.8667572926297
 30
0.0
  0
POINT
  5
1CE43
330
1F
100
AcDbEntity
  8
0
 62
     7
370
     5
100
AcDbPoint
 10
610.2304875856865
 20
-368.9630837278421
 30
0.0
  0
POINT
  5
1CE51
330
1F
100
AcDbEntity
  8
0
 62
     7
370
     5
100
AcDbPoint
 10
597.1811595856864
 20
-452.2435397278421
 30
0.0
  0
POINT
  5
1CFFB
330
1F
100
AcDbEntity
  8
0
 62
     7
370
     5
100
AcDbPoint
 10
839.2202580447737
 20
-378.5041957660768
 30
0.0
  0
POINT
  5
1D009
330
1F
100
AcDbEntity
  8
0
 62
     7
370
     5
100
AcDbPoint
 10
825.6021750447738
 20
-448.0865117660767
 30
0.0
  0
POINT
  5
1D1B5
330
1F
100
AcDbEntity
  8
0
 62
     7
370
     5
100
AcDbPoint
 10
1100.187375054744
 20
-364.0090280464956
 30
0.0
  0
POINT
  5
1D1C3
330
1F
100
AcDbEntity
  8
0
 62
     7
370
     5
100
AcDbPoint
 10
1086.025427054744
 20
-454.4328780464955
 30
0.0
  0
POINT
  5
1D374
330
1F
100
AcDbEntity
  8
0
 62
     7
370
     5
100
AcDbPoint
 10
1381.669306853374
 20
-372.7791370028926
 30
0.0
  0
POINT
  5
1D382
330
1F
100
AcDbEntity
  8
0
 62
     7
370
     5
100
AcDbPoint
 10
1368.476322853373
 20
-450.1870130028925
 30
0.0
  0
POINT
  5
1D6D5
330
1F
100
AcDbEntity
  8
0
 62
     7
370
     5
100
AcDbPoint
 10
555.980533625745
 20
-586.1972507296687
 30
0.0
  0
POINT
  5
1D6E2
330
1F
100
AcDbEntity
  8
0
 62
     7
370
     5
100
AcDbPoint
 10
545.2688206257452
 20
-642.7388317296686
 30
0.0
  0
POINT
  5
1D913
330
1F
100
AcDbEntity
  8
0
 62
     7
370
     5
100
AcDbPoint
 10
811.7646110501747
 20
-579.6655508098913
 30
0.0
  0
POINT
  5
1D920
330
1F
100
AcDbEntity
  8
0
 62
     7
370
     5
100
AcDbPoint
 10
805.5538980501744
 20
-635.4594578098913
 30
0.0
  0
POINT
  5
1DA40
330
1F
100
AcDbEntity
  8
0
 62
     7
370
     5
100
AcDbPoint
 10
298.0831789389279
 20
-586.3373810040569
 30
0.0
  0
POINT
  5
1E2C1
330
1F
100
AcDbEntity
  8
0
 62
     7
370
     5
100
AcDbPoint
 10
1353.213944337289
 20
-176.2661773838116
 30
0.0
  0
POINT
  5
1E2CF
330
1F
100
AcDbEntity
  8
0
 62
     7
370
     5
100
AcDbPoint
 10
1348.289013337289
 20
-245.1888943838117
 30
0.0
  0
POINT
  5
1E2D0
330
1F
100
AcDbEntity
  8
0
 62
     7
370
     5
100
AcDbPoint
 10
1344.589013337289
 20
-245.1892063838116
 30
0.0
  0
POINT
  5
1E4A3
330
1F
100
AcDbEntity
  8
0
 62
     7
370
     5
100
AcDbPoint
 10
1326.152836266696
 20
34.20326680208106
 30
0.0
  0
POINT
  5
1E4B1
330
1F
100
AcDbEntity
  8
0
 62
     7
370
     5
100
AcDbPoint
 10
1326.493969266696
 20
-40.49850419791893
 30
0.0
  0
POINT
  5
20BCD
330
1F
100
AcDbEntity
  8
0
 62
     7
370
     5
100
AcDbPoint
 10
198.5275522941832
 20
-13.7218025139382
 30
0.0
  0
POINT
  5
20BD6
330
1F
100
AcDbEntity
  8
0
 62
     7
370
     5
100
AcDbPoint
 10
220.4558262941833
 20
15.6077834860618
 30
0.0
  0
POINT
  5
20BD7
330
1F
100
AcDbEntity
  8
0
 62
     7
370
     5
100
AcDbPoint
 10
198.4558262941832
 20
12.6077834860618
 30
0.0
  0
POINT
  5
20C58
330
1F
100
AcDbEntity
  8
0
 62
     7
370
     5
100
AcDbPoint
 10
414.326812844455
 20
11.02280615656721
 30
0.0
  0
POINT
  5
20C59
330
1F
100
AcDbEntity
  8
0
 62
     7
370
     5
100
AcDbPoint
 10
392.3268128444551
 20
7.022806156567212
 30
0.0
  0
POINT
  5
20C5C
330
1F
100
AcDbEntity
  8
0
 62
     7
370
     5
100
AcDbPoint
 10
392.3268138444551
 20
-22.29245184343279
 30
0.0
  0
POINT
  5
20CE3
330
1F
100
AcDbEntity
  8
0
 62
     7
370
     5
100
AcDbPoint
 10
595.8481562583682
 20
11.26212415656721
 30
0.0
  0
POINT
  5
20CE4
330
1F
100
AcDbEntity
  8
0
 62
     7
370
     5
100
AcDbPoint
 10
561.8481562583682
 20
3.262124156567208
 30
0.0
  0
POINT
  5
20CE6
330
1F
100
AcDbEntity
  8
0
 62
     7
370
     5
100
AcDbPoint
 10
561.8481562583682
 20
-39.26495684343278
 30
0.0
  0
POINT
  5
20D5E
330
1F
100
AcDbEntity
  8
0
 62
     7
370
     5
100
AcDbPoint
 10
796.8108405913596
 20
-1.622354670075452
 30
0.0
  0
POINT
  5
20D5F
330
1F
100
AcDbEntity
  8
0
 62
     7
370
     5
100
AcDbPoint
 10
771.8108405913596
 20
-6.622354670075452
 30
0.0
  0
POINT
  5
20D62
330
1F
100
AcDbEntity
  8
0
 62
     7
370
     5
100
AcDbPoint
 10
771.8108415913595
 20
-44.22139367007546
 30
0.0
  0
POINT
  5
20DE5
330
1F
100
AcDbEntity
  8
0
 62
     7
370
     5
100
AcDbPoint
 10
997.5956593431575
 20
6.154053161141687
 30
0.0
  0
POINT
  5
20DE6
330
1F
100
AcDbEntity
  8
0
 62
     7
370
     5
100
AcDbPoint
 10
963.5956593431576
 20
-3.84594683885831
 30
0.0
  0
POINT
  5
20DE8
330
1F
100
AcDbEntity
  8
0
 62
     7
370
     5
100
AcDbPoint
 10
963.5956593431576
 20
-48.6248158388583
 30
0.0
  0
POINT
  5
20E5D
330
1F
100
AcDbEntity
  8
0
 62
     7
370
     5
100
AcDbPoint
 10
209.7442369247441
 20
-211.8062287972217
 30
0.0
  0
POINT
  5
20E66
330
1F
100
AcDbEntity
  8
0
 62
     7
370
     5
100
AcDbPoint
 10
231.7442369247441
 20
-173.8710347972217
 30
0.0
  0
POINT
  5
20E67
330
1F
100
AcDbEntity
  8
0
 62
     7
370
     5
100
AcDbPoint
 10
209.7442369247441
 20
-179.3710347972217
 30
0.0
  0
POINT
  5
20EE1
330
1F
100
AcDbEntity
  8
0
 62
     7
370
     5
100
AcDbPoint
 10
384.6743099214819
 20
-210.4126915562921
 30
0.0
  0
POINT
  5
20EEB
330
1F
100
AcDbEntity
  8
0
 62
     7
370
     5
100
AcDbPoint
 10
409.6743099214817
 20
-168.248029556292
 30
0.0
  0
POINT
  5
20EEC
330
1F
100
AcDbEntity
  8
0
 62
     7
370
     5
100
AcDbPoint
 10
384.6743099214819
 20
-174.248029556292
 30
0.0
  0
POINT
  5
20F6B
330
1F
100
AcDbEntity
  8
0
 62
     7
370
     5
100
AcDbPoint
 10
589.027789486203
 20
-154.2267571311068
 30
0.0
  0
POINT
  5
20F6C
330
1F
100
AcDbEntity
  8
0
 62
     7
370
     5
100
AcDbPoint
 10
555.027789486203
 20
-166.2267571311068
 30
0.0
  0
POINT
  5
20F6E
330
1F
100
AcDbEntity
  8
0
 62
     7
370
     5
100
AcDbPoint
 10
555.027789486203
 20
-220.1583441311068
 30
0.0
  0
POINT
  5
20FE7
330
1F
100
AcDbEntity
  8
0
 62
     7
370
     5
100
AcDbPoint
 10
794.4609892408081
 20
-176.9240641499829
 30
0.0
  0
POINT
  5
20FE8
330
1F
100
AcDbEntity
  8
0
 62
     7
370
     5
100
AcDbPoint
 10
772.4609892408077
 20
-183.4240641499829
 30
0.0
  0
POINT
  5
20FEB
330
1F
100
AcDbEntity
  8
0
 62
     7
370
     5
100
AcDbPoint
 10
772.4609902408077
 20
-220.0080011499829
 30
0.0
  0
POINT
  5
21068
330
1F
100
AcDbEntity
  8
0
 62
     7
370
     5
100
AcDbPoint
 10
980.7257767233267
 20
-225.8659069279295
 30
0.0
  0
POINT
  5
21072
330
1F
100
AcDbEntity
  8
0
 62
     7
370
     5
100
AcDbPoint
 10
1000.725776723327
 20
-181.1593259279295
 30
0.0
  0
POINT
  5
21073
330
1F
100
AcDbEntity
  8
0
 62
     7
370
     5
100
AcDbPoint
 10
980.7257767233267
 20
-188.1593259279295
 30
0.0
  0
POINT
  5
24E51
330
1F
100
AcDbEntity
  8
0
 62
     7
370
     5
100
AcDbPoint
 10
233.2059843961101
 20
-36.0789366070161
 30
0.0
  0
POINT
  5
24E5A
330
1F
100
AcDbEntity
  8
0
 62
     7
370
     5
100
AcDbPoint
 10
314.4377803961102
 20
35.1487553929839
 30
0.0
  0
POINT
  5
24E5B
330
1F
100
AcDbEntity
  8
0
 62
     7
370
     5
100
AcDbPoint
 10
234.4377803961101
 20
19.1487553929839
 30
0.0
  0
POINT
  5
24ECD
330
1F
100
AcDbEntity
  8
0
 62
     7
370
     5
100
AcDbPoint
 10
503.7517578950278
 20
-44.34341865794009
 30
0.0
  0
POINT
  5
24ED5
330
1F
100
AcDbEntity
  8
0
 62
     7
370
     5
100
AcDbPoint
 10
589.9610418950277
 20
46.51953834205989
 30
0.0
  0
POINT
  5
24ED6
330
1F
100
AcDbEntity
  8
0
 62
     7
370
     5
100
AcDbPoint
 10
504.9610418950278
 20
26.51953834205989
 30
0.0
  0
POINT
  5
24F33
330
1F
100
AcDbEntity
  8
0
 62
     7
370
     5
100
AcDbPoint
 10
804.954816789268
 20
-53.36089903708293
 30
0.0
  0
POINT
  5
24F3B
330
1F
100
AcDbEntity
  8
0
 62
     7
370
     5
100
AcDbPoint
 10
901.222594789268
 20
37.79953596291708
 30
0.0
  0
POINT
  5
24F3C
330
1F
100
AcDbEntity
  8
0
 62
     7
370
     5
100
AcDbPoint
 10
806.2225947892681
 20
17.79953596291707
 30
0.0
  0
POINT
  5
24F9C
330
1F
100
AcDbEntity
  8
0
 62
     7
370
     5
100
AcDbPoint
 10
1210.776659634684
 20
28.2041337387349
 30
0.0
  0
POINT
  5
24F9D
330
1F
100
AcDbEntity
  8
0
 62
     7
370
     5
100
AcDbPoint
 10
1125.776659634684
 20
3.204133738734923
 30
0.0
  0
POINT
  5
24FA0
330
1F
100
AcDbEntity
  8
0
 62
     7
370
     5
100
AcDbPoint
 10
1122.825092634684
 20
-62.80906226126507
 30
0.0
  0
POINT
  5
25003
330
1F
100
AcDbEntity
  8
0
 62
     7
370
     5
100
AcDbPoint
 10
1533.294671945107
 20
39.46909335504969
 30
0.0
  0
POINT
  5
25004
330
1F
100
AcDbEntity
  8
0
 62
     7
370
     5
100
AcDbPoint
 10
1423.294671945108
 20
14.46909335504972
 30
0.0
  0
POINT
  5
25007
330
1F
100
AcDbEntity
  8
0
 62
     7
370
     5
100
AcDbPoint
 10
1423.294671945108
 20
-61.69357464495027
 30
0.0
  0
POINT
  5
25069
330
1F
100
AcDbEntity
  8
0
 62
     7
370
     5
100
AcDbPoint
 10
279.5191352462189
 20
-235.8578081995934
 30
0.0
  0
POINT
  5
2506A
330
1F
100
AcDbEntity
  8
0
 62
     7
370
     5
100
AcDbPoint
 10
224.5191352462189
 20
-255.8578081995934
 30
0.0
  0
POINT
  5
2506E
330
1F
100
AcDbEntity
  8
0
 62
     7
370
     5
100
AcDbPoint
 10
223.2724782462189
 20
-314.3072531995934
 30
0.0
  0
POINT
  5
250D0
330
1F
100
AcDbEntity
  8
0
 62
     7
370
     5
100
AcDbPoint
 10
552.5501754157779
 20
-231.1433806045495
 30
0.0
  0
POINT
  5
250D1
330
1F
100
AcDbEntity
  8
0
 62
     7
370
     5
100
AcDbPoint
 10
487.5501754157781
 20
-256.1433806045495
 30
0.0
  0
POINT
  5
250D5
330
1F
100
AcDbEntity
  8
0
 62
     7
370
     5
100
AcDbPoint
 10
487.5501754157781
 20
-323.3343576045494
 30
0.0
  0
POINT
  5
25137
330
1F
100
AcDbEntity
  8
0
 62
     7
370
     5
100
AcDbPoint
 10
855.1566106432487
 20
-229.371519220024
 30
0.0
  0
POINT
  5
25138
330
1F
100
AcDbEntity
  8
0
 62
     7
370
     5
100
AcDbPoint
 10
762.1566106432488
 20
-260.871519220024
 30
0.0
  0
POINT
  5
2513C
330
1F
100
AcDbEntity
  8
0
 62
     7
370
     5
100
AcDbPoint
 10
760.9104996432486
 20
-349.238300220024
 30
0.0
  0
POINT
  5
2519F
330
1F
100
AcDbEntity
  8
0
 62
     7
370
     5
100
AcDbPoint
 10
1192.36388959937
 20
-218.9805098816409
 30
0.0
  0
POINT
  5
251A0
330
1F
100
AcDbEntity
  8
0
 62
     7
370
     5
100
AcDbPoint
 10
1092.36388959937
 20
-258.9805098816409
 30
0.0
  0
POINT
  5
251A4
330
1F
100
AcDbEntity
  8
0
 62
     7
370
     5
100
AcDbPoint
 10
1092.54560259937
 20
-365.6111158816409
 30
0.0
  0
POINT
  5
27C4D
330
1F
100
AcDbEntity
  8
1
 62
     7
370
     5
100
AcDbPoint
 10
185.936684180983
 20
12.22790901277693
 30
0.0
  0
POINT
  5
27C4E
330
1F
100
AcDbEntity
  8
1
 62
     7
370
     5
100
AcDbPoint
 10
185.936684180983
 20
9.517281012776946
 30
0.0
  0
POINT
  5
27DA0
330
1F
100
AcDbEntity
  8
1
 62
     7
370
     5
100
AcDbPoint
 10
159.7240994851886
 20
22.81916357545765
 30
0.0
  0
POINT
  5
27DA1
330
1F
100
AcDbEntity
  8
1
 62
     7
370
     5
100
AcDbPoint
 10
159.7240994851886
 20
20.10853557545767
 30
0.0
  0
POINT
  5
28B80
330
1F
100
AcDbEntity
  8
0
 62
     7
370
     5
100
AcDbPoint
 10
-108.3844236581584
 20
-61.41399158543199
 30
0.0
  0
POINT
  5
28D5B
330
1F
100
AcDbEntity
  8
0
 62
     7
370
     5
100
AcDbPoint
 10
-94.15639370577505
 20
-48.79010226493504
 30
0.0
  0
LINE
  5
28EA8
330
1F
100
AcDbEntity
  8
4
100
AcDbLine
 10
30.91368085103237
 20
0.0
 30
0.0
 11
-0.0000000000000284
 21
0.0
 31
0.0
  0
DIMENSION
  5
28EAA
330
1F
100
AcDbEntity
  8
SK2
100
AcDbDimension
  2
*D29
 10
-31.85865100000001
 20
6.0
 30
0.0
 11
-31.85865100000001
 21
0.0620380000000011
 31
0.0
 70
   161
  1
M<>
 71
     5
 42
12.0
  3
MM_STANDARD
100
AcDbAlignedDimension
 13
-22.00000000000003
 23
-6.0
 33
0.0
 14
-22.00000000000003
 24
6.0
 34
0.0
1001
ACAD
1000
DSTYLE
1002
{
1070
    78
1070
     9
1070
    79
1070
     2
1070
    90
1070
     1
1070
   172
1070
     1
1070
   345
1005
14
1070
   346
1005
14
1070
   347
1005
14
1002
}
1001
ACAD_DSTYLE_DIMARC_LENGTH_SYMBOL
1070
   379
1070
     1
1001
ACAD_DSTYLE_DIM_LINETYPE
1070
   380
1005
14
1001
ACAD_DSTYLE_DIM_EXT1_LINETYPE
1070
   381
1005
14
1001
ACAD_DSTYLE_DIM_EXT2_LINETYPE
1070
   382
1005
14
  0
DIMENSION
  5
28EB7
330
1F
100
AcDbEntity
  8
SK2
100
AcDbDimension
  2
*D30
 10
-41.29014300000004
 20
-10.50000000000001
 30
0.0
 11
-41.29014300000004
 21
0.0
 31
0.0
 70
   161
  1
%%C<>
 71
     5
 42
21.0
  3
MM_STANDARD
100
AcDbAlignedDimension
 13
-0.0000000000000284
 23
10.5
 33
0.0
 14
-0.0000000000000284
 24
-10.5
 34
0.0
1001
ACAD
1000
DSTYLE
1002
{
1070
    78
1070
     9
1070
    79
1070
     2
1070
    90
1070
     1
1070
   172
1070
     1
1070
   345
1005
14
1070
   346
1005
14
1070
   347
1005
14
1002
}
1001
ACAD_DSTYLE_DIMARC_LENGTH_SYMBOL
1070
   379
1070
     1
1001
ACAD_DSTYLE_DIM_LINETYPE
1070
   380
1005
14
1001
ACAD_DSTYLE_DIM_EXT1_LINETYPE
1070
   381
1005
14
1001
ACAD_DSTYLE_DIM_EXT2_LINETYPE
1070
   382
1005
14
  0
DIMENSION
  5
28ED1
330
1F
100
AcDbEntity
  8
2
100
AcDbDimension
  2
*D32
 10
26.9508817028112
 20
23.88552384319852
 30
0.0
 11
11.76391123212717
 21
23.88602958271224
 31
0.0
 70
   160
 71
     5
 42
6.140501751065455
  3
MM_STANDARD
100
AcDbAlignedDimension
 13
20.80999999999997
 23
12.475966
 33
0.0
 14
26.95044199999998
 24
10.68158500000001
 34
0.0
 50
359.998092
100
AcDbRotatedDimension
1001
ACAD
1000
DSTYLE
1002
{
1070
   279
1070
     0
1070
    78
1070
     9
1070
    79
1070
     2
1070
    90
1070
     1
1070
   172
1070
     1
1070
   345
1005
14
1070
   346
1005
14
1070
   347
1005
14
1002
}
1001
ACAD_DSTYLE_DIMARC_LENGTH_SYMBOL
1070
   379
1070
     1
1001
ACAD_DSTYLE_DIM_LINETYPE
1070
   380
1005
14
1001
ACAD_DSTYLE_DIM_EXT1_LINETYPE
1070
   381
1005
14
1001
ACAD_DSTYLE_DIM_EXT2_LINETYPE
1070
   382
1005
14
  0
DIMENSION
  5
28EDF
330
1F
100
AcDbEntity
  8
2
100
AcDbDimension
  2
*D33
 10
27.29035399999998
 20
10.71732500000002
 30
0.0
 11
41.47909862526439
 21
19.96808582863175
 31
0.0
 70
   162
  1
<>~81%%d
 71
     5
 42
1.204277163047774
  3
MM_STANDARD
100
AcDb2LineAngularDimension
 13
26.95044199999998
 23
10.84780499999999
 33
0.0
 14
26.95044199999998
 24
10.43118899999999
 34
0.0
 15
26.95044199999998
 25
10.84780499999999
 35
0.0
 16
22.56982072123108
 26
18.68035756789337
 36
0.0
1001
ACAD
1000
DSTYLE
1002
{
1070
   279
1070
     0
1070
    78
1070
     9
1070
    79
1070
     2
1070
    90
1070
     1
1070
   172
1070
     1
1070
   345
1005
14
1070
   346
1005
14
1070
   347
1005
14
1002
}
1001
ACAD_DSTYLE_DIMARC_LENGTH_SYMBOL
1070
   379
1070
     1
1001
ACAD_DSTYLE_DIM_LINETYPE
1070
   380
1005
14
1001
ACAD_DSTYLE_DIM_EXT1_LINETYPE
1070
   381
1005
14
1001
ACAD_DSTYLE_DIM_EXT2_LINETYPE
1070
   382
1005
14
  0
DIMENSION
  5
28EEE
330
1F
100
AcDbEntity
  8
SK2
100
AcDbDimension
  2
*D34
 10
-21.99945245792953
 20
38.88453851410802
 30
0.0
 11
2.475220999999976
 21
38.884131
 31
0.0
 70
   160
 71
     5
 42
48.95036404275945
  3
MM_STANDARD
100
AcDbAlignedDimension
 13
26.95044199999998
 23
10.68158500000001
 33
0.0
 14
-22.00000000000003
 24
6.0
 34
0.0
 50
179.999046
100
AcDbRotatedDimension
1001
ACAD
1000
DSTYLE
1002
{
1070
    78
1070
     9
1070
   271
1070
     0
1070
    79
1070
     2
1070
    90
1070
     1
1070
   172
1070
     1
1070
   345
1005
14
1070
   346
1005
14
1070
   347
1005
14
1002
}
1001
ACAD_DSTYLE_DIMARC_LENGTH_SYMBOL
1070
   379
1070
     1
1001
ACAD_DSTYLE_DIM_LINETYPE
1070
   380
1005
14
1001
ACAD_DSTYLE_DIM_EXT1_LINETYPE
1070
   381
1005
14
1001
ACAD_DSTYLE_DIM_EXT2_LINETYPE
1070
   382
1005
14
  0
POINT
  5
28EFC
330
1F
100
AcDbEntity
  8
1
 62
     7
370
     5
100
AcDbPoint
 10
-107.7330075343079
 20
-60.81193952747475
 30
0.0
  0
DIMENSION
  5
291D0
330
1F
100
AcDbEntity
  8
2
100
AcDbDimension
  2
*D39
 10
56.88448119462613
 20
-12.5
 30
0.0
 11
56.88448119462612
 21
0.0
 31
0.0
 70
   160
  1
%%C<>
 71
     5
 41
0.0
 42
25.00000000000001
  3
MM_STANDARD
100
AcDbAlignedDimension
 13
20.80999999999997
 23
12.5
 33
0.0
 14
20.80999999999997
 24
-12.5
 34
0.0
 50
90.0
100
AcDbRotatedDimension
1001
ACAD
1000
DSTYLE
1002
{
1070
   279
1070
     0
1070
    76
1070
     1
1070
   282
1070
     1
1070
   271
1070
     0
1070
    78
1070
     9
1070
    79
1070
     2
1070
    90
1070
     1
1070
   172
1070
     1
1070
   345
1005
14
1070
   346
1005
14
1070
   347
1005
14
1070
     7
1000
_NONE
1070
   173
1070
     1
1002
}
1001
ACAD_DSTYLE_DIMARC_LENGTH_SYMBOL
1070
   379
1070
     1
1001
ACAD_DSTYLE_DIM_LINETYPE
1070
   380
1005
14
1001
ACAD_DSTYLE_DIM_EXT1_LINETYPE
1070
   381
1005
14
1001
ACAD_DSTYLE_DIM_EXT2_LINETYPE
1070
   382
1005
14
  0
LINE
  5
29226
330
1F
100
AcDbEntity
  8
SK3
100
AcDbLine
 10
14.84529899999995
 20
1.755165000000004
 30
0.0
 11
14.84529899999995
 21
-2.0
 31
0.0
  0
LINE
  5
29227
330
1F
100
AcDbEntity
  8
SK3
100
AcDbLine
 10
14.84529899999995
 20
2.0
 30
0.0
 11
14.84529899999995
 21
-1.755165000000004
 31
0.0
  0
LINE
  5
2925D
330
1F
100
AcDbEntity
  8
SK3
100
AcDbLine
 10
15.99999999999996
 20
0.0
 30
0.0
 11
14.84529899999995
 21
-2.0
 31
0.0
  0
LINE
  5
2925E
330
1F
100
AcDbEntity
  8
SK3
100
AcDbLine
 10
15.99999999999996
 20
0.0
 30
0.0
 11
14.84529899999995
 21
2.0
 31
0.0
  0
LINE
  5
2925F
330
1F
100
AcDbEntity
  8
SK3
100
AcDbLine
 10
14.84529899999995
 20
2.0
 30
0.0
 11
-22.00000000000006
 21
2.0
 31
0.0
  0
LINE
  5
29260
330
1F
100
AcDbEntity
  8
SK3
100
AcDbLine
 10
14.84529899999995
 20
-2.0
 30
0.0
 11
-22.00000000000006
 21
-2.0
 31
0.0
  0
LINE
  5
2927E
330
1F
100
AcDbEntity
  8
SK1
100
AcDbLine
 10
-22.00000000000006
 20
2.876553000000001
 30
0.0
 11
-22.00000000000006
 21
-6.0
 31
0.0
  0
LINE
  5
2927F
330
1F
100
AcDbEntity
  8
SK1
100
AcDbLine
 10
-22.00000000000006
 20
6.0
 30
0.0
 11
-22.00000000000006
 21
2.876553000000001
 31
0.0
  0
LINE
  5
29280
330
1F
100
AcDbEntity
  8
SK1
100
AcDbLine
 10
-10.26448200000004
 20
2.876553000000001
 30
0.0
 11
-10.26448200000004
 21
6.0
 31
0.0
  0
LINE
  5
29281
330
1F
100
AcDbEntity
  8
SK1
100
AcDbLine
 10
-10.26448200000004
 20
-6.0
 30
0.0
 11
-10.26448200000004
 21
2.876553000000001
 31
0.0
  0
LINE
  5
29282
330
1F
100
AcDbEntity
  8
SK1
100
AcDbLine
 10
-5.166331000000041
 20
-6.25
 30
0.0
 11
-5.166331000000041
 21
2.996409999999995
 31
0.0
  0
LINE
  5
29283
330
1F
100
AcDbEntity
  8
SK1
100
AcDbLine
 10
-5.166331000000041
 20
2.996409999999995
 30
0.0
 11
-5.166331000000041
 21
6.25
 31
0.0
  0
LINE
  5
29285
330
1F
100
AcDbEntity
  8
1
100
AcDbLine
 10
-0.0000000000000284
 20
-10.5
 30
0.0
 11
-0.0000000000000284
 21
10.5
 31
0.0
  0
LINE
  5
29286
330
1F
100
AcDbEntity
  8
1
100
AcDbLine
 10
12.23398099999996
 20
6.164413999999991
 30
0.0
 11
2.999999999999957
 21
6.164413999999991
 31
0.0
  0
LINE
  5
29287
330
1F
100
AcDbEntity
  8
1
100
AcDbLine
 10
12.23398099999996
 20
6.164413999999991
 30
0.0
 11
12.23398099999996
 21
10.5
 31
0.0
  0
LINE
  5
29288
330
1F
100
AcDbEntity
  8
1
100
AcDbLine
 10
11.70845999999996
 20
-6.164413999999991
 30
0.0
 11
11.70845999999996
 21
-9.214617000000004
 31
0.0
  0
LINE
  5
29289
330
1F
100
AcDbEntity
  8
1
100
AcDbLine
 10
2.999999999999957
 20
-6.164413999999991
 30
0.0
 11
11.70845999999996
 21
-6.164413999999991
 31
0.0
  0
LINE
  5
2928A
330
1F
100
AcDbEntity
  8
1
100
AcDbLine
 10
2.999999999999957
 20
6.164413999999991
 30
0.0
 11
2.999999999999957
 21
-6.164413999999991
 31
0.0
  0
LINE
  5
2928B
330
1F
100
AcDbEntity
  8
1
100
AcDbLine
 10
12.74801799999996
 20
-6.348735000000004
 30
0.0
 11
12.74801799999996
 21
-9.310502999999997
 31
0.0
  0
ARC
  5
2928C
330
1F
100
AcDbEntity
  8
1
100
AcDbCircle
 10
11.69467599999996
 20
-9.255087000000003
 30
0.0
 40
3.090995999999995
100
AcDbArc
 50
70.0780860000001
 51
89.74447900000011
  0
ARC
  5
2928D
330
1F
100
AcDbEntity
  8
1
100
AcDbCircle
 10
45.83319699999996
 20
-86.77799099999999
 30
0.0
 40
98.82917800000001
100
AcDbArc
 50
108.790158
 51
109.875216
  0
ARC
  5
2928E
330
1F
100
AcDbEntity
  8
1
100
AcDbCircle
 10
47.15840199999997
 20
90.596969
 30
0.0
 40
102.871508
100
AcDbArc
 50
250.457941
 51
251.1962109999999
  0
LINE
  5
2928F
330
1F
100
AcDbEntity
  8
1
100
AcDbLine
 10
13.99999999999996
 20
-6.784088999999991
 30
0.0
 11
13.99999999999996
 21
6.784088999999991
 31
0.0
  0
LINE
  5
29290
330
1F
100
AcDbEntity
  8
1
100
AcDbLine
 10
11.70845999999996
 20
-9.214617000000004
 30
0.0
 11
11.70845999999996
 21
-10.5
 31
0.0
  0
LINE
  5
29291
330
1F
100
AcDbEntity
  8
1
100
AcDbLine
 10
12.74801799999996
 20
-9.310502999999997
 30
0.0
 11
12.74801799999996
 21
-10.609262
 31
0.0
  0
LINE
  5
29292
330
1F
100
AcDbEntity
  8
1
100
AcDbLine
 10
18.34999999999997
 20
-1.674161999999995
 30
0.0
 11
18.34999999999997
 21
-8.990550999999996
 31
0.0
  0
SPLINE
  5
29293
330
1F
100
AcDbEntity
  8
1
100
AcDbSpline
210
0.0
220
0.0
230
1.0
 70
     8
 71
     5
 72
    12
 73
     6
 74
     0
 42
0.000000001
 43
0.0000000001
 40
0.0
 40
0.0
 40
0.0
 40
0.0
 40
0.0
 40
0.0
 40
5.621262984930018
 40
5.621262984930018
 40
5.621262984930018
 40
5.621262984930018
 40
5.621262984930018
 40
5.621262984930018
 10
18.34999999999997
 20
-1.674162309563966
 30
0.0
 10
17.81246931932324
 20
-1.291690452337135
 30
0.0
 10
17.29953703559259
 20
-0.8723721245976603
 30
0.0
 10
16.81356352039569
 20
-0.4225929105263049
 30
0.0
 10
16.35432383386286
 20
0.0505990970751924
 30
0.0
 10
15.92072552834753
 20
0.5406483263137716
 30
0.0
  0
SPLINE
  5
29294
330
1F
100
AcDbEntity
  8
1
100
AcDbSpline
210
0.0
220
0.0
230
1.0
 70
     8
 71
     5
 72
    21
 73
    15
 74
     0
 42
0.000000001
 43
0.0000000001
 40
0.0
 40
0.0
 40
0.0
 40
0.0
 40
0.0
 40
0.0
 40
0.8559064557798
 40
0.8559064557798
 40
0.8559064557798
 40
1.720765586229936
 40
1.720765586229936
 40
1.720765586229936
 40
2.582524946465391
 40
2.582524946465391
 40
2.582524946465391
 40
2.852013899019326
 40
2.852013899019326
 40
2.852013899019326
 40
2.852013899019326
 40
2.852013899019326
 40
2.852013899019326
 10
16.33863723720998
 20
1.784753286650243
 30
0.0
 10
16.24228131001205
 20
1.768445316596469
 30
0.0
 10
16.14751258360836
 20
1.74037504722311
 30
0.0
 10
16.05609712583625
 20
1.699392762463248
 30
0.0
 10
15.88739492359605
 20
1.588849039991842
 30
0.0
 10
15.76599809939242
 20
1.427015947074167
 30
0.0
 10
15.72189257326642
 20
1.334653041466183
 30
0.0
 10
15.67352949496112
 20
1.137368022390475
 30
0.0
 10
15.69935215181852
 20
0.9360601592138522
 30
0.0
 10
15.72941493549988
 20
0.8390706761756517
 30
0.0
 10
15.78611716866115
 20
0.7199936234458164
 30
0.0
 10
15.86136023179301
 20
0.6128867411776328
 30
0.0
 10
15.88028913349154
 20
0.5880428700300229
 30
0.0
 10
15.9000887007069
 20
0.5639718987323051
 30
0.0
 10
15.9207255283475
 20
0.540648326313857
 30
0.0
  0
LINE
  5
29295
330
1F
100
AcDbEntity
  8
1
100
AcDbLine
 10
16.33863699999996
 20
1.784752999999995
 30
0.0
 11
18.34999999999997
 21
2.123447999999995
 31
0.0
  0
LINE
  5
29296
330
1F
100
AcDbEntity
  8
1
100
AcDbLine
 10
18.34999999999997
 20
9.278643999999999
 30
0.0
 11
18.34999999999997
 21
2.123447999999995
 31
0.0
  0
SPLINE
  5
29297
330
1F
100
AcDbEntity
  8
1
100
AcDbSpline
210
0.0
220
0.0
230
1.0
 70
     8
 71
     5
 72
    12
 73
     6
 74
     0
 42
0.000000001
 43
0.0000000001
 40
0.0
 40
0.0
 40
0.0
 40
0.0
 40
0.0
 40
0.0
 40
5.216572079041387
 40
5.216572079041387
 40
5.216572079041387
 40
5.216572079041387
 40
5.216572079041387
 40
5.216572079041387
 10
18.34999999999997
 20
9.27864350640401
 30
0.0
 10
17.8240369612902
 20
9.41440862385393
 30
0.0
 10
17.31618043609967
 20
9.565828621276653
 30
0.0
 10
16.82834446841693
 20
9.725380404893444
 30
0.0
 10
16.36331029698181
 20
9.88326253135483
 30
0.0
 10
15.92072552834752
 20
10.03102102618023
 30
0.0
  0
SPLINE
  5
29298
330
1F
100
AcDbEntity
  8
1
100
AcDbSpline
210
0.0
220
0.0
230
1.0
 70
     8
 71
     5
 72
    18
 73
    12
 74
     0
 42
0.000000001
 43
0.0000000001
 40
0.0
 40
0.0
 40
0.0
 40
0.0
 40
0.0
 40
0.0
 40
1.086093266386004
 40
1.086093266386004
 40
1.086093266386004
 40
1.616627912581799
 40
1.616627912581799
 40
1.616627912581799
 40
2.042819843450251
 40
2.042819843450251
 40
2.042819843450251
 40
2.042819843450251
 40
2.042819843450251
 40
2.042819843450251
 10
16.33863723720997
 20
10.6191862589439
 30
0.0
 10
16.21699635377227
 20
10.58905320335818
 30
0.0
 10
16.09738312419221
 20
10.55244687330966
 30
0.0
 10
15.97998610289557
 20
10.508063645788
 30
0.0
 10
15.82590082435117
 20
10.42988079839795
 30
0.0
 10
15.73112013230113
 20
10.33815840847673
 30
0.0
 10
15.70822559158876
 20
10.30706564357548
 30
0.0
 10
15.68471659861868
 20
10.25077847751122
 30
0.0
 10
15.69244932182613
 20
10.19748185468286
 30
0.0
 10
15.70196311495283
 20
10.17481793106906
 30
0.0
 10
15.71672211392088
 20
10.15352802886028
 30
0.0
 10
15.7359729782639
 20
10.13371380496082
 30
0.0
  0
ARC
  5
29299
330
1F
100
AcDbEntity
  8
1
100
AcDbCircle
 10
16.04659799999996
 20
10.480619
 30
0.0
 40
0.4662500000000053
100
AcDbArc
 50
228.1581459999994
 51
254.3594969999995
  0
LINE
  5
2929A
330
1F
100
AcDbEntity
  8
1
100
AcDbLine
 10
16.33863699999996
 20
10.619186
 30
0.0
 11
18.34999999999997
 21
11.11399900000001
 31
0.0
  0
LINE
  5
2929B
330
1F
100
AcDbEntity
  8
1
100
AcDbLine
 10
18.34999999999997
 20
11.8
 30
0.0
 11
18.34999999999997
 21
11.11399900000001
 31
0.0
  0
ARC
  5
2929C
330
1F
100
AcDbEntity
  8
1
100
AcDbCircle
 10
22.37616299999996
 20
-1.376991000000004
 30
0.0
 40
10.36822599999999
100
AcDbArc
 50
231.492377
 51
236.7254119999999
  0
SPLINE
  5
2929D
330
1F
100
AcDbEntity
  8
1
100
AcDbSpline
210
0.0
220
0.0
230
1.0
 70
     8
 71
     5
 72
    12
 73
     6
 74
     0
 42
0.000000001
 43
0.0000000001
 40
0.0
 40
0.0
 40
0.0
 40
0.0
 40
0.0
 40
0.0
 40
0.9766036639403903
 40
0.9766036639403903
 40
0.9766036639403903
 40
0.9766036639403903
 40
0.9766036639403903
 40
0.9766036639403903
 10
16.33863723720998
 20
-8.83443297229367
 30
0.0
 10
16.22829974210904
 20
-8.825774319568694
 30
0.0
 10
16.11895496855718
 20
-8.827229912526533
 30
0.0
 10
16.01147708370961
 20
-8.840613491028236
 30
0.0
 10
15.91417594123516
 20
-8.869667041265202
 30
0.0
 10
15.83648260060203
 20
-8.9141777487538
 30
0.0
  0
SPLINE
  5
2929E
330
1F
100
AcDbEntity
  8
1
100
AcDbSpline
210
0.0
220
0.0
230
1.0
 70
     8
 71
     5
 72
    18
 73
    12
 74
     0
 42
0.000000001
 43
0.0000000001
 40
0.0
 40
0.0
 40
0.0
 40
0.0
 40
0.0
 40
0.0
 40
0.6622496740523247
 40
0.6622496740523247
 40
0.6622496740523247
 40
1.321031564423215
 40
1.321031564423215
 40
1.321031564423215
 40
1.660550656321825
 40
1.660550656321825
 40
1.660550656321825
 40
1.660550656321825
 40
1.660550656321825
 40
1.660550656321825
 10
15.83648260060203
 20
-8.914177748753786
 30
0.0
 10
15.78379757451607
 20
-8.944361130830429
 30
0.0
 10
15.74013037026582
 20
-8.981652142803737
 30
0.0
 10
15.70912435065416
 20
-9.025596979543992
 30
0.0
 10
15.67738984085462
 20
-9.122672068088904
 30
0.0
 10
15.7008570601464
 20
-9.226890263002317
 30
0.0
 10
15.72510490316616
 20
-9.278428390254747
 30
0.0
 10
15.77551685658273
 20
-9.353274435731293
 30
0.0
 10
15.84277067931787
 20
-9.423052998779468
 30
0.0
 10
15.86738292303485
 20
-9.446193070026183
 30
0.0
 10
15.89340606812893
 20
-9.468617169910617
 30
0.0
 10
15.9207255283475
 20
-9.49037269986641
 30
0.0
  0
LINE
  5
2929F
330
1F
100
AcDbEntity
  8
1
100
AcDbLine
 10
16.33863699999996
 20
-8.834433000000004
 30
0.0
 11
18.34999999999997
 21
-8.990550999999996
 31
0.0
  0
LINE
  5
292A0
330
1F
100
AcDbEntity
  8
1
100
AcDbLine
 10
18.34999999999997
 20
-10.952806
 30
0.0
 11
18.34999999999997
 21
-11.8
 31
0.0
  0
ARC
  5
292A1
330
1F
100
AcDbEntity
  8
1
100
AcDbCircle
 10
23.31444299999995
 20
0.1304549999999978
 30
0.0
 40
12.14384500000001
100
AcDbArc
 50
236.926476
 51
245.871314
  0
ARC
  5
292A2
330
1F
100
AcDbEntity
  8
1
100
AcDbCircle
 10
22.91237899999996
 20
6.277922000000002
 30
0.0
 40
9.167797000000003
100
AcDbArc
 50
240.155655
 51
250.376156
  0
LINE
  5
292A3
330
1F
100
AcDbEntity
  8
1
100
AcDbLine
 10
18.34999999999997
 20
-8.990550999999996
 30
0.0
 11
19.83347499999996
 21
-8.936935000000005
 31
0.0
  0
LINE
  5
292A4
330
1F
100
AcDbEntity
  8
1
100
AcDbLine
 10
19.83347499999996
 20
-2.357270999999997
 30
0.0
 11
19.83347499999996
 21
-8.936935000000005
 31
0.0
  0
LINE
  5
292A5
330
1F
100
AcDbEntity
  8
1
100
AcDbLine
 10
18.34999999999997
 20
2.123447999999995
 30
0.0
 11
19.83347499999996
 21
2.204492000000001
 31
0.0
  0
LINE
  5
292A6
330
1F
100
AcDbEntity
  8
1
100
AcDbLine
 10
19.83347499999996
 20
8.834479000000001
 30
0.0
 11
19.83347499999996
 21
2.204492000000001
 31
0.0
  0
ARC
  5
292A7
330
1F
100
AcDbEntity
  8
1
100
AcDbCircle
 10
23.23417999999997
 20
22.881587
 30
0.0
 40
14.453044
100
AcDbArc
 50
250.249163
 51
256.390937
  0
LINE
  5
292A8
330
1F
100
AcDbEntity
  8
1
100
AcDbLine
 10
18.34999999999997
 20
11.11399900000001
 30
0.0
 11
19.83347499999996
 21
11.14142699999999
 31
0.0
  0
LINE
  5
292A9
330
1F
100
AcDbEntity
  8
1
100
AcDbLine
 10
19.83347499999996
 20
11.8
 30
0.0
 11
19.83347499999996
 21
11.14142699999999
 31
0.0
  0
LINE
  5
292AA
330
1F
100
AcDbEntity
  8
1
100
AcDbLine
 10
19.83347499999996
 20
-11.19175
 30
0.0
 11
19.83347499999996
 21
-11.8
 31
0.0
  0
ARC
  5
292AB
330
1F
100
AcDbEntity
  8
1
100
AcDbCircle
 10
21.54365799999997
 20
4.189751000000001
 30
0.0
 40
15.47597
100
AcDbArc
 50
258.090506
 51
263.655661
  0
ARC
  5
292AC
330
1F
100
AcDbEntity
  8
1
100
AcDbCircle
 10
19.02516899999996
 20
12.524517
 30
0.0
 40
19.51720600000001
100
AcDbArc
 50
274.146685
 51
280.022002
  0
ARC
  5
292AD
330
1F
100
AcDbEntity
  8
1
100
AcDbCircle
 10
-2.909358000000052
 20
-7.723070000000008
 30
0.0
 40
23.35842599999999
100
AcDbArc
 50
357.0955259999998
 51
1.917050999999999
  0
ARC
  5
292AE
330
1F
100
AcDbEntity
  8
1
100
AcDbCircle
 10
19.14848499999997
 20
9.957812999999999
 30
0.0
 40
18.90716099999998
100
AcDbArc
 50
272.076229
 51
273.851793
  0
ARC
  5
292AF
330
1F
100
AcDbEntity
  8
1
100
AcDbCircle
 10
21.72728399999995
 20
2.965959999999995
 30
0.0
 40
5.650052000000002
100
AcDbArc
 50
250.416321
 51
255.934865
  0
ARC
  5
292B0
330
1F
100
AcDbEntity
  8
1
100
AcDbCircle
 10
23.80164499999997
 20
11.19310300000001
 30
0.0
 40
14.134464
100
AcDbArc
 50
255.8830920000001
 51
264.397079
  0
LINE
  5
292B1
330
1F
100
AcDbEntity
  8
1
100
AcDbLine
 10
22.42166499999996
 20
-2.873632
 30
0.0
 11
22.42166499999996
 21
-6.694812999999996
 31
0.0
  0
LINE
  5
292B2
330
1F
100
AcDbEntity
  8
1
100
AcDbLine
 10
22.42166499999996
 20
8.170089000000004
 30
0.0
 11
22.42166499999996
 21
4.806442000000004
 31
0.0
  0
ARC
  5
292B3
330
1F
100
AcDbEntity
  8
1
100
AcDbCircle
 10
-20.01161400000004
 20
3.789253000000001
 30
0.0
 40
40.46021199999999
100
AcDbArc
 50
357.787587
 51
1.393877999999979
  0
ARC
  5
292B4
330
1F
100
AcDbEntity
  8
1
100
AcDbCircle
 10
20.86143599999996
 20
-16.641848
 30
0.0
 40
18.874354
100
AcDbArc
 50
91.344446
 51
93.12206600000001
  0
ARC
  5
292B5
330
1F
100
AcDbEntity
  8
1
100
AcDbCircle
 10
25.85789699999997
 20
33.889375
 30
0.0
 40
25.768996
100
AcDbArc
 50
256.479951
 51
257.667836
  0
ARC
  5
292B6
330
1F
100
AcDbEntity
  8
1
100
AcDbCircle
 10
14.96385399999996
 20
-15.930317
 30
0.0
 40
25.22791700000001
100
AcDbArc
 50
72.80544699999999
 51
77.66274999999997
  0
ELLIPSE
  5
292B7
330
1F
100
AcDbEntity
  8
1
100
AcDbEllipse
 10
17.47004099999997
 20
0.7644769999999994
 30
0.0
 11
-2.925334215164181
 21
-11.01910209655762
 31
0.0
210
0.0
220
0.0
230
0.9999999999999998
 40
0.050922
 41
2.809766698311315
 42
3.042764719574785
  0
ARC
  5
292B8
330
1F
100
AcDbEntity
  8
1
100
AcDbCircle
 10
20.00569999999996
 20
1.723186999999995
 30
0.0
 40
9.419815000000008
100
AcDbArc
 50
87.48780599999998
 51
91.04761499999996
  0
ARC
  5
292B9
330
1F
100
AcDbEntity
  8
1
100
AcDbCircle
 10
20.55101299999995
 20
-4.930510999999995
 30
0.0
 40
6.302226000000003
100
AcDbArc
 50
263.462425
 51
268.210286
  0
ARC
  5
292BA
330
1F
100
AcDbEntity
  8
1
100
AcDbCircle
 10
20.62140899999996
 20
-2.618780999999998
 30
0.0
 40
8.615082999999998
100
AcDbArc
 50
268.222502
 51
282.0616719999999
  0
LINE
  5
292BB
330
1F
100
AcDbEntity
  8
1
100
AcDbLine
 10
22.42166499999996
 20
-11.04372100000001
 30
0.0
 11
22.42166499999996
 21
-11.45925800000001
 31
0.0
  0
LINE
  5
292BC
330
1F
100
AcDbEntity
  8
1
100
AcDbLine
 10
22.42166499999996
 20
-6.694812999999996
 30
0.0
 11
25.90529099999996
 21
-6.076625000000007
 31
0.0
  0
ARC
  5
292BD
330
1F
100
AcDbEntity
  8
1
100
AcDbCircle
 10
74.84268299999995
 20
541.4096849999999
 30
0.0
 40
546.8018549999998
100
AcDbArc
 50
264.498697
 51
264.865301
  0
LINE
  5
292BE
330
1F
100
AcDbEntity
  8
1
100
AcDbLine
 10
25.90529099999996
 20
-3.197858999999993
 30
0.0
 11
25.90529099999996
 21
-6.076625000000007
 31
0.0
  0
LINE
  5
292BF
330
1F
100
AcDbEntity
  8
1
100
AcDbLine
 10
25.90529099999996
 20
7.085826999999995
 30
0.0
 11
25.90529099999996
 21
4.449727999999993
 31
0.0
  0
ARC
  5
292C0
330
1F
100
AcDbEntity
  8
1
100
AcDbCircle
 10
-287.053903
 20
-992.3052529999999
 30
0.0
 40
1047.246873
100
AcDbArc
 50
72.612059
 51
72.81166999999998
  0
ARC
  5
292C1
330
1F
100
AcDbEntity
  8
1
100
AcDbCircle
 10
-53.31865000000004
 20
344.506787
 30
0.0
 40
363.528177
100
AcDbArc
 50
282.025549
 51
282.587522
  0
LINE
  5
292C2
330
1F
100
AcDbEntity
  8
1
100
AcDbLine
 10
25.90529099999996
 20
-10.283686
 30
0.0
 11
25.90529099999996
 21
-10.525824
 31
0.0
  0
SPLINE
  5
292C3
330
1F
100
AcDbEntity
  8
1
100
AcDbSpline
210
0.0
220
0.0
230
1.0
 70
     8
 71
     5
 72
    18
 73
    12
 74
     0
 42
0.000000001
 43
0.0000000001
 40
0.0
 40
0.0
 40
0.0
 40
0.0
 40
0.0
 40
0.0
 40
0.4457329670298446
 40
0.4457329670298446
 40
0.4457329670298446
 40
0.8921768398380326
 40
0.8921768398380326
 40
0.8921768398380326
 40
1.112255942138
 40
1.112255942138
 40
1.112255942138
 40
1.112255942138
 40
1.112255942138
 40
1.112255942138
 10
25.90529142706147
 20
-6.076625359552537
 30
0.0
 10
25.96615868417649
 20
-6.065820514965722
 30
0.0
 10
26.02490518873677
 20
-6.051091664066377
 30
0.0
 10
26.08011870865489
 20
-6.032682438044332
 30
0.0
 10
26.18091633624496
 20
-5.98934912621324
 30
0.0
 10
26.25817453774734
 20
-5.935313075504226
 30
0.0
 10
26.28991169229212
 20
-5.906162218007879
 30
0.0
 10
26.32586470203842
 20
-5.860533849696862
 30
0.0
 10
26.34399695197997
 20
-5.813361266296352
 30
0.0
 10
26.34799997945713
 20
-5.797703107175735
 30
0.0
 10
26.34999999999995
 20
-5.782050177634261
 30
0.0
 10
26.34999999999995
 20
-5.766488235070895
 30
0.0
  0
SPLINE
  5
292C4
330
1F
100
AcDbEntity
  8
1
100
AcDbSpline
210
0.0
220
0.0
230
1.0
 70
     8
 71
     5
 72
    18
 73
    12
 74
     0
 42
0.000000001
 43
0.0000000001
 40
0.0
 40
0.0
 40
0.0
 40
0.0
 40
0.0
 40
0.0
 40
0.3369826215447808
 40
0.3369826215447808
 40
0.3369826215447808
 40
0.6730649588229767
 40
0.6730649588229767
 40
0.6730649588229767
 40
1.133531964770823
 40
1.133531964770823
 40
1.133531964770823
 40
1.133531964770823
 40
1.133531964770823
 40
1.133531964770823
 10
25.90529142706146
 20
-3.197858997655786
 30
0.0
 10
25.95068192585394
 20
-3.201932401630898
 30
0.0
 10
25.9951901896696
 20
-3.202757290919706
 30
0.0
 10
26.03812266547568
 20
-3.200189683326457
 30
0.0
 10
26.11928390056129
 20
-3.18824935452308
 30
0.0
 10
26.18886507252101
 20
-3.163317655057169
 30
0.0
 10
26.22012085175179
 20
-3.147780697512742
 30
0.0
 10
26.28492979849129
 20
-3.10436429314481
 30
0.0
 10
26.32655802893528
 20
-3.047439134046441
 30
0.0
 10
26.34232811812115
 20
-3.010973835994461
 30
0.0
 10
26.34999999999997
 20
-2.972072306983491
 30
0.0
 10
26.34999999999997
 20
-2.931610801487848
 30
0.0
  0
LINE
  5
292C5
330
1F
100
AcDbEntity
  8
1
100
AcDbLine
 10
26.34999999999997
 20
-2.931611000000004
 30
0.0
 11
26.34999999999997
 21
-5.766487999999995
 31
0.0
  0
LINE
  5
292C6
330
1F
100
AcDbEntity
  8
1
100
AcDbLine
 10
26.34999999999997
 20
6.765258999999998
 30
0.0
 11
26.34999999999997
 21
4.373617999999993
 31
0.0
  0
SPLINE
  5
292C7
330
1F
100
AcDbEntity
  8
1
100
AcDbSpline
210
0.0
220
0.0
230
1.0
 70
     8
 71
     5
 72
    18
 73
    12
 74
     0
 42
0.000000001
 43
0.0000000001
 40
0.0
 40
0.0
 40
0.0
 40
0.0
 40
0.0
 40
0.0
 40
0.3369826215462081
 40
0.3369826215462081
 40
0.3369826215462081
 40
0.6730649588297011
 40
0.6730649588297011
 40
0.6730649588297011
 40
1.133531964752004
 40
1.133531964752004
 40
1.133531964752004
 40
1.133531964752004
 40
1.133531964752004
 40
1.133531964752004
 10
25.90529142706146
 20
7.085826898170836
 30
0.0
 10
25.95068192585414
 20
7.071609811822071
 30
0.0
 10
25.99519018966997
 20
7.055792473788244
 30
0.0
 10
26.03812266547531
 20
7.03854371709508
 30
0.0
 10
26.1192839005618
 20
7.001740085460412
 30
0.0
 10
26.18886507252209
 20
6.961486596031591
 30
0.0
 10
26.22012085175093
 20
6.940836422121336
 30
0.0
 10
26.28492979848892
 20
6.89138636922425
 30
0.0
 10
26.32655802893262
 20
6.842430052979422
 30
0.0
 10
26.342328118122
 20
6.815061342427667
 30
0.0
 10
26.34999999999997
 20
6.789216934253532
 30
0.0
 10
26.34999999999997
 20
6.765259477225995
 30
0.0
  0
SPLINE
  5
292C8
330
1F
100
AcDbEntity
  8
1
100
AcDbSpline
210
0.0
220
0.0
230
1.0
 70
     8
 71
     5
 72
    18
 73
    12
 74
     0
 42
0.000000001
 43
0.0000000001
 40
0.0
 40
0.0
 40
0.0
 40
0.0
 40
0.0
 40
0.0
 40
0.3369826215425065
 40
0.3369826215425065
 40
0.3369826215425065
 40
0.6730649588189037
 40
0.6730649588189037
 40
0.6730649588189037
 40
1.13353196476352
 40
1.13353196476352
 40
1.13353196476352
 40
1.13353196476352
 40
1.13353196476352
 40
1.13353196476352
 10
25.90529142706146
 20
-10.28368589582664
 30
0.0
 10
25.95068192585363
 20
-10.2735422134531
 30
0.0
 10
25.99519018966899
 20
-10.25854976470828
 30
0.0
 10
26.03812266547621
 20
-10.23873340042104
 30
0.0
 10
26.11928390056133
 20
-10.18998943998361
 30
0.0
 10
26.18886507252063
 20
-10.12480425108974
 30
0.0
 10
26.22012085175213
 20
-10.088617119633
 30
0.0
 10
26.28492979849106
 20
-9.995750662367287
 30
0.0
 10
26.32655802893503
 20
-9.889869187023592
 30
0.0
 10
26.34232811812126
 20
-9.82603517842409
 30
0.0
 10
26.34999999999997
 20
-9.761289241237903
 30
0.0
 10
26.34999999999997
 20
-9.696870278713843
 30
0.0
  0
LINE
  5
292C9
330
1F
100
AcDbEntity
  8
1
100
AcDbLine
 10
26.34999999999997
 20
-9.696870000000004
 30
0.0
 11
26.34999999999997
 21
-9.946268000000003
 31
0.0
  0
LINE
  5
292CA
330
1F
100
AcDbEntity
  8
1
100
AcDbLine
 10
26.34999999999997
 20
-2.498406999999998
 30
0.0
 11
26.34999999999997
 21
-2.931611000000004
 31
0.0
  0
LINE
  5
292CB
330
1F
100
AcDbEntity
  8
1
100
AcDbLine
 10
26.34999999999997
 20
-9.007163000000005
 30
0.0
 11
26.34999999999997
 21
-9.696870000000004
 31
0.0
  0
ARC
  5
292CC
330
1F
100
AcDbEntity
  8
1
100
AcDbCircle
 10
26.93755599999996
 20
0.2048159999999939
 30
0.0
 40
1.146527999999997
100
AcDbArc
 50
190.289671
 51
199.22103
  0
ARC
  5
292CD
330
1F
100
AcDbEntity
  8
1
100
AcDbCircle
 10
54.08922799999996
 20
-4.180436999999998
 30
0.0
 40
28.51722400000001
100
AcDbArc
 50
171.920858
 51
172.995766
  0
LINE
  5
292CE
330
1F
100
AcDbEntity
  8
1
100
AcDbLine
 10
26.34999999999997
 20
-9.007165999999998
 30
0.0
 11
26.22598199999996
 21
-8.498326000000004
 31
0.0
  0
ARC
  5
292CF
330
1F
100
AcDbEntity
  8
1
100
AcDbCircle
 10
96.55624099999997
 20
22.751846
 30
0.0
 40
74.60881999999998
100
AcDbArc
 50
198.6404469999999
 51
199.781541
  0
SPLINE
  5
292D0
330
1F
100
AcDbEntity
  8
1
100
AcDbSpline
210
0.0
220
0.0
230
1.0
 70
     8
 71
     5
 72
    15
 73
     9
 74
     0
 42
0.000000001
 43
0.0000000001
 40
0.0
 40
0.0
 40
0.0
 40
0.0
 40
0.0
 40
0.0
 40
1.488979445645428
 40
1.488979445645428
 40
1.488979445645428
 40
2.477266040710544
 40
2.477266040710544
 40
2.477266040710544
 40
2.477266040710544
 40
2.477266040710544
 40
2.477266040710544
 10
25.86126673216911
 20
-1.095212161980712
 30
0.0
 10
25.82010643708537
 20
-0.9726561215715463
 30
0.0
 10
25.78967634911542
 20
-0.8156373512711637
 30
0.0
 10
25.77240787912316
 20
-0.6455240724860545
 30
0.0
 10
25.76391662710496
 20
-0.3626211624448246
 30
0.0
 10
25.78987975241661
 20
-0.0958526414506338
 30
0.0
 10
25.80598551990015
 20
0.0063666697175933
 30
0.0
 10
25.8279406644811
 20
0.0980270833100008
 30
0.0
 10
25.8550359133787
 20
0.1726027470593294
 30
0.0
  0
LINE
  5
292D1
330
1F
100
AcDbEntity
  8
1
100
AcDbLine
 10
25.85503599999996
 20
0.1726029999999952
 30
0.0
 11
25.85160599999996
 21
0.1968679999999949
 31
0.0
  0
LINE
  5
292D2
330
1F
100
AcDbEntity
  8
1
100
AcDbLine
 10
19.81091699999996
 20
8.839952999999994
 30
0.0
 11
20.41858999999997
 21
11.133949
 31
0.0
  0
ELLIPSE
  5
292D3
330
1F
100
AcDbEntity
  8
1
100
AcDbEllipse
 10
22.60793999999996
 20
16.867615
 30
0.0
 11
-0.0000000000001563
 21
-8.857481956481931
 31
0.0
210
0.0
220
0.0
230
1.0
 40
0.9986299999999999
 41
5.495433927012753
 42
5.7099413597234
  0
ELLIPSE
  5
292D4
330
1F
100
AcDbEntity
  8
1
100
AcDbEllipse
 10
22.66412899999997
 20
-12.602611
 30
0.0
 11
-9.591689109802246
 21
-0.5804438591003418
 31
0.0
210
0.0
220
0.0
230
1.0
 40
0.4993150000000001
 41
5.288174291464021
 42
5.461403520431439
  0
LINE
  5
292D5
330
1F
100
AcDbEntity
  8
1
100
AcDbLine
 10
20.00345899999996
 20
-8.930009999999994
 30
0.0
 11
20.35418599999996
 21
-11.229669
 31
0.0
  0
ELLIPSE
  5
292D6
330
1F
100
AcDbEntity
  8
1
100
AcDbEllipse
 10
22.02332999999996
 20
-9.268797000000006
 30
0.0
 11
0.6453028321266175
 21
-0.7068009972572326
 31
0.0
210
0.0
220
0.0
230
0.9999999999999996
 40
0.5202590000000004
 41
4.819150827253681
 42
7.483607723446247
  0
ARC
  5
292D7
330
1F
100
AcDbEntity
  8
1
100
AcDbCircle
 10
22.98064299999996
 20
-8.39391499999999
 30
0.0
 40
1.794842000000004
100
AcDbArc
 50
212.1246599999999
 51
225.6734659999999
  0
LINE
  5
292D8
330
1F
100
AcDbEntity
  8
1
100
AcDbLine
 10
19.64213599999997
 20
0.6639040000000023
 30
0.0
 11
19.95978199999996
 21
0.642351000000005
 31
0.0
  0
LINE
  5
292D9
330
1F
100
AcDbEntity
  8
1
100
AcDbLine
 10
19.95978199999996
 20
0.642351000000005
 30
0.0
 11
20.69767099999996
 21
0.5865849999999995
 31
0.0
  0
LINE
  5
292DA
330
1F
100
AcDbEntity
  8
1
100
AcDbLine
 10
25.56791399999996
 20
0.1966939999999937
 30
0.0
 11
25.85503599999996
 21
0.1726029999999952
 31
0.0
  0
LINE
  5
292DB
330
1F
100
AcDbEntity
  8
1
100
AcDbLine
 10
19.71970699999996
 20
0.8764290000000015
 30
0.0
 11
20.41858999999997
 21
2.227309000000003
 31
0.0
  0
ARC
  5
292DC
330
1F
100
AcDbEntity
  8
1
100
AcDbCircle
 10
20.71597199999997
 20
0.3958410000000043
 30
0.0
 40
1.106455000000003
100
AcDbArc
 50
154.247823
 51
165.983636
  0
ELLIPSE
  5
292DD
330
1F
100
AcDbEntity
  8
1
100
AcDbEllipse
 10
22.60793999999996
 20
5.193510000000003
 30
0.0
 11
-8.841307640075681
 21
-0.5350342988967896
 31
0.0
210
0.0
220
0.0
230
0.9999999999999998
 40
0.499315
 41
0.752837959134471
 42
1.207963688617107
  0
ELLIPSE
  5
292DE
330
1F
100
AcDbEntity
  8
1
100
AcDbEllipse
 10
20.08492299999996
 20
0.146765000000002
 30
0.0
 11
-0.0845756605267525
 21
-0.7955167889595032
 31
0.0
210
0.0
220
0.0
230
1.0
 40
0.276165
 41
4.069545607471781
 42
5.607742479336966
  0
ELLIPSE
  5
292DF
330
1F
100
AcDbEntity
  8
1
100
AcDbEllipse
 10
22.66412899999997
 20
4.265005000000002
 30
0.0
 11
-9.591689109802246
 21
-0.5804438591003418
 31
0.0
210
0.0
220
0.0
230
1.0
 40
0.4993150000000001
 41
0.7613678117609873
 42
1.246393646025823
  0
LINE
  5
292E0
330
1F
100
AcDbEntity
  8
1
100
AcDbLine
 10
25.86126699999996
 20
-1.095212000000004
 30
0.0
 11
19.88155599999996
 21
-0.4594770000000068
 31
0.0
  0
LINE
  5
292E1
330
1F
100
AcDbEntity
  8
1
100
AcDbLine
 10
19.88155599999996
 20
-0.4594770000000068
 30
0.0
 11
20.35418599999996
 21
-2.514685
 31
0.0
  0
ARC
  5
292E2
330
1F
100
AcDbEntity
  8
1
100
AcDbCircle
 10
22.59032399999995
 20
-1.680223999999995
 30
0.0
 40
0.5931380000000046
100
AcDbArc
 50
258.9822369999994
 51
266.0834349999994
  0
ELLIPSE
  5
292E3
330
1F
100
AcDbEntity
  8
1
100
AcDbEllipse
 10
22.02332999999996
 20
-1.667143999999993
 30
0.0
 11
0.7147536873817445
 21
-0.5447369217872621
 31
0.0
210
0.0
220
0.0
230
0.9999999999999998
 40
0.3706239999999999
 41
2.633962275901423
 42
5.644718190083981
  0
ARC
  5
292E4
330
1F
100
AcDbEntity
  8
1
100
AcDbCircle
 10
21.45633699999996
 20
-1.654062999999994
 30
0.0
 40
0.5931380000000017
100
AcDbArc
 50
78.98223700000071
 51
86.08343500000072
  0
ELLIPSE
  5
292E5
330
1F
100
AcDbEntity
  8
1
100
AcDbEllipse
 10
22.02332999999996
 20
-1.667143999999993
 30
0.0
 11
0.7147536873817445
 21
-0.5447369217872621
 31
0.0
210
0.0
220
0.0
230
0.9999999999999998
 40
0.3706239999999999
 41
5.775554929488076
 42
8.786310843673776
  0
LINE
  5
292E6
330
1F
100
AcDbEntity
  8
SK1
100
AcDbLine
 10
-10.26448200000004
 20
6.0
 30
0.0
 11
-22.00000000000006
 21
6.0
 31
0.0
  0
LINE
  5
292E7
330
1F
100
AcDbEntity
  8
SK1
100
AcDbLine
 10
-10.26448200000004
 20
-6.0
 30
0.0
 11
-22.00000000000006
 21
-6.0
 31
0.0
  0
ARC
  5
292E8
330
1F
100
AcDbEntity
  8
SK1
100
AcDbCircle
 10
-7.792641000000032
 20
-7.700000000000001
 30
0.0
 40
3.000000000000008
100
AcDbArc
 50
28.90333399999979
 51
145.4818919999998
  0
ARC
  5
292E9
330
1F
100
AcDbEntity
  8
SK1
100
AcDbCircle
 10
-7.792641000000032
 20
7.700000000000001
 30
0.0
 40
2.999999999999993
100
AcDbArc
 50
214.518108
 51
331.0966660000001
  0
LINE
  5
292EA
330
1F
100
AcDbEntity
  8
SK1
100
AcDbLine
 10
-0.0000000000000284
 20
6.25
 30
0.0
 11
-5.166331000000041
 21
6.25
 31
0.0
  0
LINE
  5
292EB
330
1F
100
AcDbEntity
  8
SK1
100
AcDbLine
 10
-0.0000000000000284
 20
-6.25
 30
0.0
 11
-5.166331000000041
 21
-6.25
 31
0.0
  0
LINE
  5
292EC
330
1F
100
AcDbEntity
  8
1
100
AcDbLine
 10
12.23398099999996
 20
10.5
 30
0.0
 11
-0.0000000000000284
 21
10.5
 31
0.0
  0
ARC
  5
292ED
330
1F
100
AcDbEntity
  8
1
100
AcDbCircle
 10
11.70845999999996
 20
-15.5
 30
0.0
 40
4.999999999999999
100
AcDbArc
 50
78.00000000000007
 51
90.00000000000005
  0
LINE
  5
292EE
330
1F
100
AcDbEntity
  8
1
100
AcDbLine
 10
11.70845999999996
 20
-10.5
 30
0.0
 11
-0.0000000000000284
 21
-10.5
 31
0.0
  0
LINE
  5
292EF
330
1F
100
AcDbEntity
  8
1
100
AcDbLine
 10
12.23398099999996
 20
10.5
 30
0.0
 11
18.34999999999997
 21
11.8
 31
0.0
  0
LINE
  5
292F0
330
1F
100
AcDbEntity
  8
1
100
AcDbLine
 10
12.74801799999996
 20
-10.609262
 30
0.0
 11
18.34999999999997
 21
-11.8
 31
0.0
  0
LINE
  5
292F1
330
1F
100
AcDbEntity
  8
1
100
AcDbLine
 10
19.83347499999996
 20
11.8
 30
0.0
 11
18.34999999999997
 21
11.8
 31
0.0
  0
LINE
  5
292F2
330
1F
100
AcDbEntity
  8
1
100
AcDbLine
 10
19.83347499999996
 20
-11.8
 30
0.0
 11
18.34999999999997
 21
-11.8
 31
0.0
  0
ARC
  5
292F3
330
1F
100
AcDbEntity
  8
1
100
AcDbCircle
 10
19.83347499999996
 20
1.799999999999995
 30
0.0
 40
10.00000000000001
100
AcDbArc
 50
86.34421899999997
 51
90.0
  0
ARC
  5
292F4
330
1F
100
AcDbEntity
  8
1
100
AcDbCircle
 10
19.83347499999996
 20
-1.799999999999995
 30
0.0
 40
10.0
100
AcDbArc
 50
270.0
 51
285.0
  0
LINE
  5
292F5
330
1F
100
AcDbEntity
  8
1
100
AcDbLine
 10
25.90529099999996
 20
-10.525823
 30
0.0
 11
22.42166499999996
 21
-11.45925800000001
 31
0.0
  0
ARC
  5
292F6
330
1F
100
AcDbEntity
  8
1
100
AcDbCircle
 10
25.74999999999996
 20
-9.946268000000003
 30
0.0
 40
0.6000000000000071
100
AcDbArc
 50
284.9999999999999
 51
359.9999999999998
  0
ELLIPSE
  5
292F7
330
1F
100
AcDbEntity
  8
1
100
AcDbEllipse
 10
23.22567799999996
 20
9.373696999999991
 30
0.0
 11
-0.0000000000000426
 21
-1.059999942779539
 31
0.0
210
0.0
220
0.0
230
1.0
 40
0.9986299999999998
 41
0.0692608041628796
 42
3.072305723804301
  0
LINE
  5
292F8
330
1F
100
AcDbEntity
  8
1
100
AcDbLine
 10
26.15925599999996
 20
7.03725
 30
0.0
 11
26.17221999999995
 21
7.073009999999996
 31
0.0
  0
ARC
  5
292F9
330
1F
100
AcDbEntity
  8
1
100
AcDbCircle
 10
25.96697999999996
 20
7.126891000000001
 30
0.0
 40
0.2121450000000059
100
AcDbArc
 50
320.8620039999989
 51
335.0044019999989
  0
LINE
  5
292FA
330
1F
100
AcDbEntity
  8
1
100
AcDbLine
 10
26.94285299999996
 20
9.982188000000007
 30
0.0
 11
26.17221999999995
 21
7.073009999999996
 31
0.0
  0
ARC
  5
292FB
330
1F
100
AcDbEntity
  8
1
100
AcDbCircle
 10
26.74645799999996
 20
10.038963
 30
0.0
 40
0.2034810000000021
100
AcDbArc
 50
355.6620579999983
 51
63.77735099999828
  0
ARC
  5
292FC
330
1F
100
AcDbEntity
  8
1
100
AcDbCircle
 10
26.73539299999996
 20
10.037122
 30
0.0
 40
0.2146100000000026
100
AcDbArc
 50
345.1687370000017
 51
356.3755640000016
  0
ARC
  5
292FD
330
1F
100
AcDbEntity
  8
1
100
AcDbCircle
 10
19.52612699999996
 20
-5.100988
 30
0.0
 40
16.976668
100
AcDbArc
 50
64.49456199999999
 51
85.75374699999997
  0
ARC
  5
292FE
330
1F
100
AcDbEntity
  8
1
100
AcDbCircle
 10
20.77153799999996
 20
11.62485100000001
 30
0.0
 40
0.2050250000000069
100
AcDbArc
 50
86.74954299999951
 51
166.0439709999995
  0
LINE
  5
292FF
330
1F
100
AcDbEntity
  8
1
100
AcDbLine
 10
19.82075099999996
 20
8.837560999999992
 30
0.0
 11
20.57221699999997
 21
11.674385
 31
0.0
  0
ELLIPSE
  5
29300
330
1F
100
AcDbEntity
  8
1
100
AcDbEllipse
 10
23.37221899999996
 20
9.373696999999991
 30
0.0
 11
-0.0000000000000426
 21
-1.059999942779539
 31
0.0
210
0.0
220
0.0
230
1.0
 40
0.9986299999999998
 41
3.141691386636198
 42
6.283284040225992
  0
ELLIPSE
  5
29301
330
1F
100
AcDbEntity
  8
1
100
AcDbEllipse
 10
23.37221899999996
 20
9.373696999999991
 30
0.0
 11
-0.0000000000000426
 21
-1.059999942779539
 31
0.0
210
0.0
220
0.0
230
1.0
 40
0.9986299999999998
 41
0.000098733046407
 42
1.311507218559317
  0
ELLIPSE
  5
29302
330
1F
100
AcDbEntity
  8
1
100
AcDbEllipse
 10
23.37221899999996
 20
9.373696999999991
 30
0.0
 11
-0.0000000000000426
 21
-1.059999942779539
 31
0.0
210
0.0
220
0.0
230
1.0
 40
0.9986299999999998
 41
1.311507218559317
 42
3.141691386636198
  0
LINE
  5
29303
330
1F
100
AcDbEntity
  8
1
100
AcDbLine
 10
20.57221699999997
 20
11.674385
 30
0.0
 11
20.59499599999997
 21
12.036974
 31
0.0
  0
LINE
  5
29304
330
1F
100
AcDbEntity
  8
1
100
AcDbLine
 10
20.43894399999996
 20
11.702797
 30
0.0
 11
20.59499599999997
 21
12.036974
 31
0.0
  0
LINE
  5
29305
330
1F
100
AcDbEntity
  8
1
100
AcDbLine
 10
20.59499599999997
 20
12.036974
 30
0.0
 11
20.60797699999996
 21
12.07277500000001
 31
0.0
  0
ARC
  5
29306
330
1F
100
AcDbEntity
  8
1
100
AcDbCircle
 10
20.79351499999996
 20
11.989086
 30
0.0
 40
0.2032939999999967
100
AcDbArc
 50
86.49745099999838
 51
155.7216989999984
  0
LINE
  5
29307
330
1F
100
AcDbEntity
  8
1
100
AcDbLine
 10
26.85904999999995
 20
10.583896
 30
0.0
 11
26.77820199999996
 21
10.62215499999999
 31
0.0
  0
LINE
  5
29308
330
1F
100
AcDbEntity
  8
1
100
AcDbLine
 10
20.80591999999996
 20
12.191756
 30
0.0
 11
20.89503799999996
 21
12.18486
 31
0.0
  0
ARC
  5
29309
330
1F
100
AcDbEntity
  8
1
100
AcDbCircle
 10
26.76924099999997
 20
10.401555
 30
0.0
 40
0.2034770000000054
100
AcDbArc
 50
355.6829849999993
 51
63.7781549999994
  0
LINE
  5
2930A
330
1F
100
AcDbEntity
  8
1
100
AcDbLine
 10
26.83627199999996
 20
10.221307
 30
0.0
 11
26.85904999999995
 21
10.583896
 31
0.0
  0
ARC
  5
2930B
330
1F
100
AcDbEntity
  8
1
100
AcDbCircle
 10
-62.35794800000002
 20
-313.160122
 30
0.0
 40
335.827815
100
AcDbArc
 50
74.607953
 51
75.64650300000002
  0
LINE
  5
2930C
330
1F
100
AcDbEntity
  8
1
100
AcDbLine
 10
20.78314099999996
 20
11.829167
 30
0.0
 11
20.80591999999996
 21
12.191756
 31
0.0
  0
LINE
  5
2930D
330
1F
100
AcDbEntity
  8
1
100
AcDbLine
 10
26.13717499999996
 20
6.989959999999996
 30
0.0
 11
26.15925699999995
 21
7.037249000000002
 31
0.0
  0
LINE
  5
2930E
330
1F
100
AcDbEntity
  8
1
100
AcDbLine
 10
20.43863899999997
 20
11.71014599999999
 30
0.0
 11
20.60797699999996
 21
12.07277500000001
 31
0.0
  0
LINE
  5
2930F
330
1F
100
AcDbEntity
  8
1
100
AcDbLine
 10
26.94957499999995
 20
10.023555
 30
0.0
 11
26.97235799999996
 21
10.386222
 31
0.0
  0
ARC
  5
29310
330
1F
100
AcDbEntity
  8
1
100
AcDbCircle
 10
26.74481499999997
 20
10.03783199999999
 30
0.0
 40
0.2053680000000037
100
AcDbArc
 50
344.3058690000001
 51
63.50501600000016
  0
LINE
  5
29311
330
1F
100
AcDbEntity
  8
1
100
AcDbLine
 10
26.94285299999996
 20
9.982188000000007
 30
0.0
 11
26.17221999999995
 21
7.073009999999996
 31
0.0
  0
ARC
  5
29312
330
1F
100
AcDbEntity
  8
1
100
AcDbCircle
 10
25.96601599999995
 20
7.127494999999996
 30
0.0
 40
0.2132769999999991
100
AcDbArc
 50
320.8997860000007
 51
345.1991720000008
  0
LINE
  5
29313
330
1F
100
AcDbEntity
  8
1
100
AcDbLine
 10
19.82075099999996
 20
8.837560999999992
 30
0.0
 11
20.57221699999997
 21
11.674385
 31
0.0
  0
ARC
  5
29314
330
1F
100
AcDbEntity
  8
1
100
AcDbCircle
 10
20.77153799999996
 20
11.62485100000001
 30
0.0
 40
0.2050250000000069
100
AcDbArc
 50
86.74954299999951
 51
166.0439709999995
  0
ARC
  5
29315
330
1F
100
AcDbEntity
  8
1
100
AcDbCircle
 10
19.52612699999996
 20
-5.100988
 30
0.0
 40
16.976668
100
AcDbArc
 50
64.49456199999999
 51
85.75374699999997
  0
ARC
  5
29316
330
1F
100
AcDbEntity
  8
1
100
AcDbCircle
 10
26.74562999999996
 20
5.814594999999997
 30
0.0
 40
0.057920000000002
100
AcDbArc
 50
331.0339199999962
 51
352.6489939999961
  0
LINE
  5
29317
330
1F
100
AcDbEntity
  8
1
100
AcDbLine
 10
26.79631199999996
 20
5.786541
 30
0.0
 11
26.34999999999997
 21
4.964370999999998
 31
0.0
  0
LINE
  5
29318
330
1F
100
AcDbEntity
  8
1
100
AcDbLine
 10
26.94285299999996
 20
8.208089000000001
 30
0.0
 11
26.24427199999997
 21
6.921205999999997
 31
0.0
  0
ELLIPSE
  5
29319
330
1F
100
AcDbEntity
  8
1
100
AcDbEllipse
 10
26.74980299999996
 20
8.242490000000001
 30
0.0
 11
0.2001310586929321
 21
-0.0099531011655927
 31
0.0
210
0.0
220
0.0
230
1.0
 40
0.514978
 41
0.0369810849975702
 42
1.149784174443708
  0
ARC
  5
2931A
330
1F
100
AcDbEntity
  8
1
100
AcDbCircle
 10
26.89375199999996
 20
8.235579000000001
 30
0.0
 40
0.0562549999999977
100
AcDbArc
 50
330.7564669999921
 51
0.7896229999921245
  0
LINE
  5
2931B
330
1F
100
AcDbEntity
  8
1
100
AcDbLine
 10
26.52848199999995
 20
8.417917000000002
 30
0.0
 11
26.83627199999996
 21
8.332485000000005
 31
0.0
  0
LINE
  5
2931C
330
1F
100
AcDbEntity
  8
1
100
AcDbLine
 10
26.97276599999996
 20
7.202509000000006
 30
0.0
 11
26.97238599999996
 21
7.194895000000002
 31
0.0
  0
ARC
  5
2931D
330
1F
100
AcDbEntity
  8
1
100
AcDbCircle
 10
26.91501299999996
 20
7.202287999999996
 30
0.0
 40
0.0578560000000073
100
AcDbArc
 50
331.0177579999973
 51
352.6575989999972
  0
LINE
  5
2931E
330
1F
100
AcDbEntity
  8
1
100
AcDbLine
 10
26.79631199999996
 20
5.786541
 30
0.0
 11
26.96563099999996
 21
7.174250000000001
 31
0.0
  0
LINE
  5
2931F
330
1F
100
AcDbEntity
  8
1
100
AcDbLine
 10
26.94285299999996
 20
8.208089000000001
 30
0.0
 11
26.96563099999996
 21
7.174250000000001
 31
0.0
  0
LINE
  5
29320
330
1F
100
AcDbEntity
  8
1
100
AcDbLine
 10
26.80306699999996
 20
5.807185000000002
 30
0.0
 11
26.97238599999996
 21
7.194895000000002
 31
0.0
  0
LINE
  5
29321
330
1F
100
AcDbEntity
  8
1
100
AcDbLine
 10
26.94998699999996
 20
8.236354000000003
 30
0.0
 11
26.97276599999996
 21
7.202507999999995
 31
0.0
  0
ELLIPSE
  5
29322
330
1F
100
AcDbEntity
  8
1
100
AcDbEllipse
 10
26.74980299999996
 20
8.242490000000001
 30
0.0
 11
0.2001310586929321
 21
-0.0099531011655927
 31
0.0
210
0.0
220
0.0
230
1.0
 40
0.514978
 41
6.04078016937225
 42
7.432969481623294
  0
LINE
  5
29323
330
1F
100
AcDbEntity
  8
1
100
AcDbLine
 10
26.94285299999996
 20
8.208089000000001
 30
0.0
 11
26.24427199999997
 21
6.921205999999997
 31
0.0
  0
LINE
  5
29324
330
1F
100
AcDbEntity
  8
1
100
AcDbLine
 10
26.52848199999995
 20
8.417917000000002
 30
0.0
 11
26.83627199999996
 21
8.332485000000005
 31
0.0
  0
LINE
  5
29325
330
1F
100
AcDbEntity
  8
1
100
AcDbLine
 10
25.83079799999997
 20
-0.9876529999999943
 30
0.0
 11
25.96129599999996
 21
-0.1975699999999989
 31
0.0
  0
LINE
  5
29326
330
1F
100
AcDbEntity
  8
1
100
AcDbLine
 10
25.85160599999996
 20
-0.1968679999999949
 30
0.0
 11
25.96129599999996
 21
-0.1975699999999989
 31
0.0
  0
LINE
  5
29327
330
1F
100
AcDbEntity
  8
1
100
AcDbLine
 10
26.34999999999997
 20
-4.373617999999993
 30
0.0
 11
26.68973099999997
 21
-4.310368999999993
 31
0.0
  0
ARC
  5
29328
330
1F
100
AcDbEntity
  8
1
100
AcDbCircle
 10
26.74557099999996
 20
-4.223512999999996
 30
0.0
 40
0.0578450000000053
100
AcDbArc
 50
351.5055059999951
 51
28.77499199999506
  0
ELLIPSE
  5
29329
330
1F
100
AcDbEntity
  8
1
100
AcDbEllipse
 10
26.60326299999996
 20
-4.212524999999998
 30
0.0
 11
0.2000527828931808
 21
-0.0147687988355756
 31
0.0
210
0.0
220
0.0
230
1.0
 40
0.5138550000000001
 41
5.196923841776583
 42
6.236718605605587
  0
LINE
  5
2932A
330
1F
100
AcDbEntity
  8
1
100
AcDbLine
 10
26.79631199999996
 20
-4.195646999999993
 30
0.0
 11
26.34999999999997
 21
-3.332965000000001
 31
0.0
  0
ARC
  5
2932B
330
1F
100
AcDbEntity
  8
1
100
AcDbCircle
 10
25.86870299999995
 20
-1.401284000000004
 30
0.0
 40
0.1632079999999995
100
AcDbArc
 50
34.32515100000312
 51
75.00771200000314
  0
LINE
  5
2932C
330
1F
100
AcDbEntity
  8
1
100
AcDbLine
 10
26.00290099999997
 20
-1.309653999999994
 30
0.0
 11
26.00635999999996
 21
-1.521682999999995
 31
0.0
  0
ELLIPSE
  5
2932D
330
1F
100
AcDbEntity
  8
1
100
AcDbEllipse
 10
25.97917099999996
 20
-0.3014110000000016
 30
0.0
 11
0.2000527828931808
 21
-0.0147687988355756
 31
0.0
210
0.0
220
0.0
230
1.0
 40
0.5138550000000001
 41
0.3059278468479428
 42
1.698117159098946
  0
LINE
  5
2932E
330
1F
100
AcDbEntity
  8
1
100
AcDbLine
 10
26.00290099999997
 20
-1.309653999999994
 30
0.0
 11
26.17221999999995
 21
-0.2845339999999936
 31
0.0
  0
LINE
  5
2932F
330
1F
100
AcDbEntity
  8
1
100
AcDbLine
 10
26.94285299999996
 20
-1.774099000000005
 30
0.0
 11
26.17221999999995
 21
-0.2845339999999936
 31
0.0
  0
ARC
  5
29330
330
1F
100
AcDbEntity
  8
1
100
AcDbCircle
 10
26.88949399999997
 20
-1.802752999999995
 30
0.0
 40
0.0605439999999988
100
AcDbArc
 50
1.6904290000006
 51
28.2362070000006
  0
LINE
  5
29331
330
1F
100
AcDbEntity
  8
1
100
AcDbLine
 10
26.97206599999996
 20
-3.206930999999995
 30
0.0
 11
26.97277099999997
 21
-3.197395
 31
0.0
  0
ARC
  5
29332
330
1F
100
AcDbEntity
  8
1
100
AcDbCircle
 10
26.91233899999996
 20
-3.199163999999995
 30
0.0
 40
0.060478000000007
100
AcDbArc
 50
1.67707199999989
 51
28.25195499999989
  0
LINE
  5
29333
330
1F
100
AcDbEntity
  8
1
100
AcDbLine
 10
26.79631199999996
 20
-4.195646999999993
 30
0.0
 11
26.96563099999996
 21
-3.170526999999993
 31
0.0
  0
LINE
  5
29334
330
1F
100
AcDbEntity
  8
1
100
AcDbLine
 10
26.94285299999996
 20
-1.774099000000005
 30
0.0
 11
26.96563099999996
 21
-3.170526999999993
 31
0.0
  0
LINE
  5
29335
330
1F
100
AcDbEntity
  8
1
100
AcDbLine
 10
26.80274699999995
 20
-4.232052999999993
 30
0.0
 11
26.97206599999996
 21
-3.206930999999995
 31
0.0
  0
LINE
  5
29336
330
1F
100
AcDbEntity
  8
1
100
AcDbLine
 10
26.94999299999996
 20
-1.800967999999995
 30
0.0
 11
26.97277099999997
 21
-3.197396999999995
 31
0.0
  0
LINE
  5
29337
330
1F
100
AcDbEntity
  8
1
100
AcDbLine
 10
26.94285299999996
 20
-1.774099000000005
 30
0.0
 11
26.17221999999995
 21
-0.2845339999999936
 31
0.0
  0
ELLIPSE
  5
29338
330
1F
100
AcDbEntity
  8
1
100
AcDbEllipse
 10
25.97917099999996
 20
-0.3014110000000016
 30
0.0
 11
0.2000527828931808
 21
-0.0147687988355756
 31
0.0
210
0.0
220
0.0
230
1.0
 40
0.5138550000000001
 41
0.3059278468479428
 42
1.698117159098946
  0
LINE
  5
29339
330
1F
100
AcDbEntity
  8
1
100
AcDbLine
 10
25.85160599999996
 20
-0.1968679999999949
 30
0.0
 11
25.96129599999996
 21
-0.1975699999999989
 31
0.0
  0
ARC
  5
2933A
330
1F
100
AcDbEntity
  8
1
100
AcDbCircle
 10
20.62280199999996
 20
-11.630566
 30
0.0
 40
0.1991350000000002
100
AcDbArc
 50
227.9447099999984
 51
273.9743219999984
  0
ARC
  5
2933B
330
1F
100
AcDbEntity
  8
1
100
AcDbCircle
 10
19.37958599999996
 20
5.100988
 30
0.0
 40
16.97666799999999
100
AcDbArc
 50
274.246253
 51
295.5054379999999
  0
ARC
  5
2933C
330
1F
100
AcDbEntity
  8
1
100
AcDbCircle
 10
26.59825599999996
 20
-10.037851
 30
0.0
 40
0.2053770000000078
100
AcDbArc
 50
296.5017980000005
 51
15.69780700000051
  0
LINE
  5
2933D
330
1F
100
AcDbEntity
  8
1
100
AcDbLine
 10
26.79631199999996
 20
-9.982188000000007
 30
0.0
 11
26.39168799999997
 21
-8.454711000000003
 31
0.0
  0
LINE
  5
2933E
330
1F
100
AcDbEntity
  8
1
100
AcDbLine
 10
26.94285299999996
 20
-9.982188000000007
 30
0.0
 11
26.52848199999995
 21
-8.417917000000002
 31
0.0
  0
ARC
  5
2933F
330
1F
100
AcDbEntity
  8
1
100
AcDbCircle
 10
26.73539299999996
 20
-10.037122
 30
0.0
 40
0.2146100000000052
100
AcDbArc
 50
3.624435999998963
 51
14.83126299999896
  0
ARC
  5
29340
330
1F
100
AcDbEntity
  8
1
100
AcDbCircle
 10
20.79351499999996
 20
-11.989086
 30
0.0
 40
0.2032940000000032
100
AcDbArc
 50
204.2783010000008
 51
273.5025490000008
  0
LINE
  5
29341
330
1F
100
AcDbEntity
  8
1
100
AcDbLine
 10
20.63659999999996
 20
-11.829167
 30
0.0
 11
20.80591999999996
 21
-12.191756
 31
0.0
  0
LINE
  5
29342
330
1F
100
AcDbEntity
  8
1
100
AcDbLine
 10
26.68973099999997
 20
-10.221307
 30
0.0
 11
26.85904999999995
 21
-10.583896
 31
0.0
  0
LINE
  5
29343
330
1F
100
AcDbEntity
  8
1
100
AcDbLine
 10
26.85904999999995
 20
-10.583896
 30
0.0
 11
26.77820199999996
 21
-10.62215499999999
 31
0.0
  0
ARC
  5
29344
330
1F
100
AcDbEntity
  8
1
100
AcDbCircle
 10
110.030002
 20
-335.962349
 30
0.0
 40
335.822889
100
AcDbArc
 50
104.353501
 51
105.392065
  0
LINE
  5
29345
330
1F
100
AcDbEntity
  8
1
100
AcDbLine
 10
20.80591999999996
 20
-12.191756
 30
0.0
 11
20.89503799999996
 21
-12.18486
 31
0.0
  0
ARC
  5
29346
330
1F
100
AcDbEntity
  8
1
100
AcDbCircle
 10
26.76924099999997
 20
-10.401555
 30
0.0
 40
0.2034770000000045
100
AcDbArc
 50
296.2218450000007
 51
4.317015000000676
  0
ARC
  5
29347
330
1F
100
AcDbEntity
  8
1
100
AcDbCircle
 10
26.75840799999996
 20
-10.399682
 30
0.0
 40
0.2143730000000025
100
AcDbArc
 50
3.59972700000093
 51
14.83976300000093
  0
LINE
  5
29348
330
1F
100
AcDbEntity
  8
1
100
AcDbLine
 10
26.79631199999996
 20
-9.982188000000007
 30
0.0
 11
26.96563099999996
 21
-10.34477699999999
 31
0.0
  0
LINE
  5
29349
330
1F
100
AcDbEntity
  8
1
100
AcDbLine
 10
26.94285299999996
 20
-9.982188000000007
 30
0.0
 11
26.96563099999996
 21
-10.34477699999999
 31
0.0
  0
ARC
  5
2934A
330
1F
100
AcDbEntity
  8
1
100
AcDbCircle
 10
-62.35794800000002
 20
313.160122
 30
0.0
 40
335.827815
100
AcDbArc
 50
284.3534970000001
 51
285.3920470000001
  0
LINE
  5
2934B
330
1F
100
AcDbEntity
  8
1
100
AcDbLine
 10
20.47109599999996
 20
-11.779651
 30
0.0
 11
20.60797699999996
 21
-12.07277500000001
 31
0.0
  0
LINE
  5
2934C
330
1F
100
AcDbEntity
  8
1
100
AcDbLine
 10
26.94957499999995
 20
-10.023555
 30
0.0
 11
26.97235799999996
 21
-10.386222
 31
0.0
  0
ARC
  5
2934D
330
1F
100
AcDbEntity
  8
1
100
AcDbCircle
 10
26.73539399999996
 20
-10.037122
 30
0.0
 40
0.2146089999999952
100
AcDbArc
 50
3.607552999999342
 51
14.83126499999934
  0
LINE
  5
2934E
330
1F
100
AcDbEntity
  8
1
100
AcDbLine
 10
26.94285299999996
 20
-9.982188000000007
 30
0.0
 11
26.52848199999995
 21
-8.417917000000002
 31
0.0
  0
ELLIPSE
  5
2934F
330
1F
100
AcDbEntity
  8
1
100
AcDbEllipse
 10
20.61872599999997
 20
-6.887378999999996
 30
0.0
 11
0.2001310586929321
 21
0.0099531011655927
 31
0.0
210
0.0
220
0.0
230
1.0
 40
0.514978
 41
3.383997791397062
 42
4.776187103649203
  0
ELLIPSE
  5
29350
330
1F
100
AcDbEntity
  8
1
100
AcDbEllipse
 10
17.15572999999996
 20
5.537339000000002
 30
0.0
 11
21.20483016967773
 21
-0.5398090481758119
 31
0.0
210
0.0
220
0.0
230
1.0
 40
0.5958319999999999
 41
4.892437615025931
 42
5.193831755142996
  0
ARC
  5
29351
330
1F
100
AcDbEntity
  8
1
100
AcDbCircle
 10
26.74562999999996
 20
-5.814594999999997
 30
0.0
 40
0.0579199999999961
100
AcDbArc
 50
7.351006000000403
 51
28.96608000000041
  0
ELLIPSE
  5
29352
330
1F
100
AcDbEntity
  8
1
100
AcDbEllipse
 10
26.60326299999996
 20
-5.820942000000002
 30
0.0
 11
0.2001310586929321
 21
0.0099531011655927
 31
0.0
210
0.0
220
0.0
230
1.0
 40
0.514978
 41
5.133401132735907
 42
6.320165325111272
  0
LINE
  5
29353
330
1F
100
AcDbEntity
  8
1
100
AcDbLine
 10
26.79631199999996
 20
-5.786541
 30
0.0
 11
26.34999999999997
 21
-4.964370999999998
 31
0.0
  0
ELLIPSE
  5
29354
330
1F
100
AcDbEntity
  8
1
100
AcDbEllipse
 10
26.74980299999996
 20
-8.242490000000001
 30
0.0
 11
0.2001310586929321
 21
0.0099531011655927
 31
0.0
210
0.0
220
0.0
230
1.0
 40
0.514978
 41
5.133401132735865
 42
6.246204222181999
  0
ELLIPSE
  5
29355
330
1F
100
AcDbEntity
  8
1
100
AcDbEllipse
 10
17.30227099999996
 20
3.115791000000001
 30
0.0
 11
21.20483016967773
 21
-0.5398091077804566
 31
0.0
210
0.0
220
0.0
230
1.0
 40
0.5958319999999996
 41
4.89243761572737
 42
5.193831755598995
  0
ELLIPSE
  5
29356
330
1F
100
AcDbEntity
  8
1
100
AcDbEllipse
 10
20.76526699999997
 20
-9.308926999999997
 30
0.0
 11
0.2001310586929321
 21
0.0099531011655927
 31
0.0
210
0.0
220
0.0
230
1.0
 40
0.514978
 41
3.383997791397036
 42
4.776187103648643
  0
LINE
  5
29357
330
1F
100
AcDbEntity
  8
1
100
AcDbLine
 10
20.33801299999996
 20
-8.911891999999994
 30
0.0
 11
20.57221699999997
 21
-9.343327999999999
 31
0.0
  0
LINE
  5
29358
330
1F
100
AcDbEntity
  8
1
100
AcDbLine
 10
20.57221699999997
 20
-9.343327999999999
 30
0.0
 11
20.59499599999997
 21
-8.309488999999999
 31
0.0
  0
LINE
  5
29359
330
1F
100
AcDbEntity
  8
1
100
AcDbLine
 10
20.42567599999995
 20
-6.921779999999997
 30
0.0
 11
20.59499599999997
 21
-8.309488999999999
 31
0.0
  0
SPLINE
  5
2935A
330
1F
100
AcDbEntity
  8
1
100
AcDbSpline
210
0.0
220
0.0
230
1.0
 70
     8
 71
     5
 72
    15
 73
     9
 74
     0
 42
0.000000001
 43
0.0000000001
 40
0.0
 40
0.0
 40
0.0
 40
0.0
 40
0.0
 40
0.0
 40
0.2203215512169816
 40
0.2203215512169816
 40
0.2203215512169816
 40
0.4628179255029785
 40
0.4628179255029785
 40
0.4628179255029785
 40
0.4628179255029785
 40
0.4628179255029785
 40
0.4628179255029785
 10
20.59499550692533
 20
-8.309489253335343
 30
0.0
 10
20.60245428958433
 20
-8.323229414078371
 30
0.0
 10
20.61459731831448
 20
-8.335944631990827
 30
0.0
 10
20.63131386027152
 20
-8.347319296553022
 30
0.0
 10
20.6718501456478
 20
-8.366449576152049
 30
0.0
 10
20.72185409008395
 20
-8.376635500404772
 30
0.0
 10
20.74981603333428
 20
-8.379414279260258
 30
0.0
 10
20.77802766843757
 20
-8.379615508023434
 30
0.0
 10
20.80591960360405
 20
-8.377306958646883
 30
0.0
  0
LINE
  5
2935B
330
1F
100
AcDbEntity
  8
1
100
AcDbLine
 10
20.63659999999996
 20
-6.989597999999999
 30
0.0
 11
20.80591999999996
 21
-8.377307000000001
 31
0.0
  0
LINE
  5
2935C
330
1F
100
AcDbEntity
  8
1
100
AcDbLine
 10
26.68973099999997
 20
-5.910938000000002
 30
0.0
 11
26.85904999999995
 21
-7.298647000000002
 31
0.0
  0
LINE
  5
2935D
330
1F
100
AcDbEntity
  8
1
100
AcDbLine
 10
26.85904999999995
 20
-7.298647000000002
 30
0.0
 11
26.77820199999996
 21
-7.321445999999995
 31
0.0
  0
SPLINE
  5
2935E
330
1F
100
AcDbEntity
  8
1
100
AcDbSpline
210
0.0
220
0.0
230
1.0
 70
     8
 71
     5
 72
    18
 73
    12
 74
     0
 42
0.000000001
 43
0.0000000001
 40
0.502151655081422
 40
0.502151655081422
 40
0.502151655081422
 40
0.502151655081422
 40
0.502151655081422
 40
0.502151655081422
 40
4.066606102456836
 40
4.066606102456836
 40
4.066606102456836
 40
7.524212728860522
 40
7.524212728860522
 40
7.524212728860522
 40
11.51775886342234
 40
11.51775886342234
 40
11.51775886342234
 40
11.51775886342234
 40
11.51775886342234
 40
11.51775886342234
 10
20.89506313780736
 20
-8.3698247191804
 30
0.0
 10
21.23203319682867
 20
-8.095251300285822
 30
0.0
 10
21.5842754307341
 20
-7.842351313226969
 30
0.0
 10
21.95384837501685
 20
-7.614267453981142
 30
0.0
 10
22.69410282489304
 20
-7.236980865897834
 30
0.0
 10
23.4686364548419
 20
-7.000664774477428
 30
0.0
 10
23.86452429799972
 20
-6.920565267456468
 30
0.0
 10
24.69975960638362
 20
-6.836784140400837
 30
0.0
 10
25.52193391509701
 20
-6.925389901435905
 30
0.0
 10
25.95351574576988
 20
-7.019657000452142
 30
0.0
 10
26.37253078083091
 20
-7.153625361758513
 30
0.0
 10
26.77821343709367
 20
-7.321427111467995
 30
0.0
  0
LINE
  5
2935F
330
1F
100
AcDbEntity
  8
1
100
AcDbLine
 10
20.80591999999996
 20
-8.377307000000001
 30
0.0
 11
20.89503799999996
 21
-8.369815000000002
 31
0.0
  0
SPLINE
  5
29360
330
1F
100
AcDbEntity
  8
1
100
AcDbSpline
210
0.0
220
0.0
230
1.0
 70
     8
 71
     5
 72
    15
 73
     9
 74
     0
 42
0.000000001
 43
0.0000000001
 40
0.0
 40
0.0
 40
0.0
 40
0.0
 40
0.0
 40
0.0
 40
0.2554994508579893
 40
0.2554994508579893
 40
0.2554994508579893
 40
0.3556805172993038
 40
0.3556805172993038
 40
0.3556805172993038
 40
0.3556805172993038
 40
0.3556805172993038
 40
0.3556805172993038
 10
26.85905014181712
 20
-7.29864681039281
 30
0.0
 10
26.88621009708473
 20
-7.290944633362699
 30
0.0
 10
26.91136628127424
 20
-7.28057179649974
 30
0.0
 10
26.93398793773852
 20
-7.267227306292951
 30
0.0
 10
26.95754320417879
 20
-7.246063450485593
 30
0.0
 10
26.96915144995872
 20
-7.222689652636517
 30
0.0
 10
26.971423215367
 20
-7.215934342992782
 30
0.0
 10
26.97261912408887
 20
-7.209202722964263
 30
0.0
 10
26.9727656601211
 20
-7.202509435540691
 30
0.0
  0
LINE
  5
29361
330
1F
100
AcDbEntity
  8
1
100
AcDbLine
 10
26.97276599999996
 20
-7.202509000000006
 30
0.0
 11
26.97238599999996
 21
-7.194895000000002
 31
0.0
  0
LINE
  5
29362
330
1F
100
AcDbEntity
  8
1
100
AcDbLine
 10
26.83627199999996
 20
-8.332485000000005
 30
0.0
 11
26.85904999999995
 21
-7.298647000000002
 31
0.0
  0
SPLINE
  5
29363
330
1F
100
AcDbEntity
  8
1
100
AcDbSpline
210
0.0
220
0.0
230
1.0
 70
     8
 71
     5
 72
    18
 73
    12
 74
     0
 42
0.000000001
 43
0.0000000001
 40
0.5023872400998465
 40
0.5023872400998465
 40
0.5023872400998465
 40
0.5023872400998465
 40
0.5023872400998465
 40
0.5023872400998465
 40
4.764544049339538
 40
4.764544049339538
 40
4.764544049339538
 40
8.212081646334681
 40
8.212081646334681
 40
8.212081646334681
 40
11.52161577632496
 40
11.52161577632496
 40
11.52161577632496
 40
11.52161577632496
 40
11.52161577632496
 40
11.52161577632496
 10
20.89503856303966
 20
-8.369814554330586
 30
0.0
 10
21.32800858095362
 20
-8.548904760624383
 30
0.0
 10
21.77616951298094
 20
-8.689458715419164
 30
0.0
 10
22.23860093816906
 20
-8.784345232582152
 30
0.0
 10
23.09280268912603
 20
-8.857614719121626
 30
0.0
 10
23.95677423518207
 20
-8.744483433914481
 30
0.0
 10
24.3502856969031
 20
-8.652700676483547
 30
0.0
 10
25.09174135004641
 20
-8.403812408336191
 30
0.0
 10
25.79902402538751
 20
-8.027453470093218
 30
0.0
 10
26.13943364990502
 20
-7.812580339646842
 30
0.0
 10
26.46535255474022
 20
-7.576368091105222
 30
0.0
 10
26.77819772110803
 20
-7.321439917984492
 30
0.0
  0
LINE
  5
29364
330
1F
100
AcDbEntity
  8
1
100
AcDbLine
 10
20.78314099999996
 20
-9.411146000000002
 30
0.0
 11
20.80591999999996
 21
-8.377307000000001
 31
0.0
  0
LINE
  5
29365
330
1F
100
AcDbEntity
  8
1
100
AcDbLine
 10
26.80306699999996
 20
-5.807185000000002
 30
0.0
 11
26.97238599999996
 21
-7.194895000000002
 31
0.0
  0
LINE
  5
29366
330
1F
100
AcDbEntity
  8
1
100
AcDbLine
 10
26.94998699999996
 20
-8.236354000000003
 30
0.0
 11
26.97276599999996
 21
-7.202507999999995
 31
0.0
  0
ELLIPSE
  5
29367
330
1F
100
AcDbEntity
  8
1
100
AcDbEllipse
 10
26.74980299999996
 20
-8.242490000000001
 30
0.0
 11
0.2001310586929321
 21
0.0099531011655927
 31
0.0
210
0.0
220
0.0
230
1.0
 40
0.514978
 41
5.133401132735865
 42
6.182371352566947
  0
LINE
  5
29368
330
1F
100
AcDbEntity
  8
1
100
AcDbLine
 10
20.33801299999996
 20
-8.911891999999994
 30
0.0
 11
20.57221699999997
 21
-9.343327999999999
 31
0.0
  0
ELLIPSE
  5
29369
330
1F
100
AcDbEntity
  8
1
100
AcDbEllipse
 10
20.76526699999997
 20
-9.308926999999997
 30
0.0
 11
0.2001310586929321
 21
0.0099531011655927
 31
0.0
210
0.0
220
0.0
230
1.0
 40
0.514978
 41
3.383997791397036
 42
4.776187103648643
  0
ELLIPSE
  5
2936A
330
1F
100
AcDbEntity
  8
1
100
AcDbEllipse
 10
17.30227099999996
 20
3.115791000000001
 30
0.0
 11
21.20483016967773
 21
-0.5398091077804566
 31
0.0
210
0.0
220
0.0
230
1.0
 40
0.5958319999999996
 41
4.89243761572737
 42
5.193831755598995
  0
ELLIPSE
  5
2936B
330
1F
100
AcDbEntity
  8
1
100
AcDbEllipse
 10
29.44216699999996
 20
13.040476
 30
0.0
 11
21.10927963256836
 21
3.476478815078736
 31
0.0
210
0.0
220
0.0
230
1.0
 40
0.585741
 41
4.149945245060083
 42
4.451339385210419
  0
ELLIPSE
  5
2936C
330
1F
100
AcDbEntity
  8
1
100
AcDbEllipse
 10
20.61872599999997
 20
4.735727999999995
 30
0.0
 11
0.2000527828931808
 21
0.0147687988355756
 31
0.0
210
0.0
220
0.0
230
1.0
 40
0.5138550000000001
 41
1.443475494489718
 42
2.835664806741852
  0
ELLIPSE
  5
2936D
330
1F
100
AcDbEntity
  8
1
100
AcDbEllipse
 10
17.15572999999996
 20
-8.003337000000001
 30
0.0
 11
21.10927963256836
 21
3.476478815078736
 31
0.0
210
0.0
220
0.0
230
1.0
 40
0.585741
 41
1.00835259132404
 42
1.309746731433404
  0
ELLIPSE
  5
2936E
330
1F
100
AcDbEntity
  8
1
100
AcDbEllipse
 10
26.60326299999996
 20
4.212524999999998
 30
0.0
 11
0.2000527828931808
 21
0.0147687988355756
 31
0.0
210
0.0
220
0.0
230
1.0
 40
0.5138550000000001
 41
0.0464667015740001
 42
1.086261465403014
  0
ELLIPSE
  5
2936F
330
1F
100
AcDbEntity
  8
1
100
AcDbEllipse
 10
25.97917099999996
 20
0.3014110000000016
 30
0.0
 11
0.2000527828931808
 21
0.0147687988355756
 31
0.0
210
0.0
220
0.0
230
1.0
 40
0.5138550000000001
 41
4.585068148080641
 42
5.977257460331642
  0
ELLIPSE
  5
29370
330
1F
100
AcDbEntity
  8
1
100
AcDbEllipse
 10
19.99463399999996
 20
0.8246139999999968
 30
0.0
 11
0.2000527828931808
 21
0.0147687988355756
 31
0.0
210
0.0
220
0.0
230
1.0
 40
0.5138550000000001
 41
3.188059355163852
 42
4.227854118993998
  0
ARC
  5
29371
330
1F
100
AcDbEntity
  8
1
100
AcDbCircle
 10
19.85232499999996
 20
0.8136259999999991
 30
0.0
 40
0.0578450000000026
100
AcDbArc
 50
151.2250080000067
 51
188.4944940000066
  0
LINE
  5
29372
330
1F
100
AcDbEntity
  8
1
100
AcDbLine
 10
19.77739599999995
 20
0.9879379999999995
 30
0.0
 11
19.80158499999996
 21
0.8414920000000023
 31
0.0
  0
LINE
  5
29373
330
1F
100
AcDbEntity
  8
1
100
AcDbLine
 10
26.94285299999996
 20
1.774099000000005
 30
0.0
 11
26.17221999999995
 21
0.2845339999999936
 31
0.0
  0
ELLIPSE
  5
29374
330
1F
100
AcDbEntity
  8
1
100
AcDbEllipse
 10
26.74980299999996
 20
1.790976999999996
 30
0.0
 11
0.2000527828931808
 21
0.0147687988355756
 31
0.0
210
0.0
220
0.0
230
1.0
 40
0.5138550000000001
 41
6.236845617105897
 42
7.369446772582632
  0
ARC
  5
29375
330
1F
100
AcDbEntity
  8
1
100
AcDbCircle
 10
26.88949399999997
 20
1.802752999999995
 30
0.0
 40
0.0605439999999995
100
AcDbArc
 50
331.7637929999995
 51
358.3095709999993
  0
ELLIPSE
  5
29376
330
1F
100
AcDbEntity
  8
1
100
AcDbEllipse
 10
17.30227099999996
 20
-10.424885
 30
0.0
 11
21.10927963256836
 21
3.476478815078736
 31
0.0
210
0.0
220
0.0
230
1.0
 40
0.585741
 41
1.008352590849334
 42
1.309746730744428
  0
ELLIPSE
  5
29377
330
1F
100
AcDbEntity
  8
1
100
AcDbEllipse
 10
20.76526699999997
 20
2.314179999999993
 30
0.0
 11
0.2000527828931808
 21
0.0147687988355756
 31
0.0
210
0.0
220
0.0
230
1.0
 40
0.5138550000000001
 41
1.443475494490265
 42
2.835664806741871
  0
LINE
  5
29378
330
1F
100
AcDbEntity
  8
1
100
AcDbLine
 10
19.80158499999996
 20
0.8414920000000023
 30
0.0
 11
20.57221699999997
 21
2.331056999999999
 31
0.0
  0
ELLIPSE
  5
29379
330
1F
100
AcDbEntity
  8
1
100
AcDbEllipse
 10
23.37221899999996
 20
1.307795999999995
 30
0.0
 11
-1.058064460754394
 21
-0.0640290752053261
 31
0.0
210
0.0
220
0.0
230
1.0
 40
0.4993150000000008
 41
3.141608776198248
 42
6.283201429788043
  0
ELLIPSE
  5
2937A
330
1F
100
AcDbEntity
  8
1
100
AcDbEllipse
 10
23.37221899999996
 20
1.307795999999995
 30
0.0
 11
-1.058064460754394
 21
-0.0640290752053261
 31
0.0
210
0.0
220
0.0
230
1.0
 40
0.4993150000000008
 41
0.0000161226084566
 42
2.852096557860606
  0
ELLIPSE
  5
2937B
330
1F
100
AcDbEntity
  8
1
100
AcDbEllipse
 10
23.37221899999996
 20
1.307795999999995
 30
0.0
 11
-1.058064460754394
 21
-0.0640290752053261
 31
0.0
210
0.0
220
0.0
230
1.0
 40
0.4993150000000008
 41
2.852096557860606
 42
3.141608776198248
  0
LINE
  5
2937C
330
1F
100
AcDbEntity
  8
1
100
AcDbLine
 10
20.57221699999997
 20
2.331056999999999
 30
0.0
 11
20.59499599999997
 21
3.727485000000001
 31
0.0
  0
LINE
  5
2937D
330
1F
100
AcDbEntity
  8
1
100
AcDbLine
 10
20.42567599999995
 20
4.752605000000001
 30
0.0
 11
20.59499599999997
 21
3.727485000000001
 31
0.0
  0
SPLINE
  5
2937E
330
1F
100
AcDbEntity
  8
1
100
AcDbSpline
210
0.0
220
0.0
230
1.0
 70
     8
 71
     5
 72
    15
 73
     9
 74
     0
 42
0.000000001
 43
0.0000000001
 40
0.0
 40
0.0
 40
0.0
 40
0.0
 40
0.0
 40
0.0
 40
0.2220237965461365
 40
0.2220237965461365
 40
0.2220237965461365
 40
0.4656309957420441
 40
0.4656309957420441
 40
0.4656309957420441
 40
0.4656309957420441
 40
0.4656309957420441
 40
0.4656309957420441
 10
20.59499550692533
 20
3.727485043007888
 30
0.0
 10
20.60247529220125
 20
3.741942766802096
 30
0.0
 10
20.61464444497405
 20
3.755764985319486
 30
0.0
 10
20.63130369877697
 20
3.768593967562068
 30
0.0
 10
20.67169988457523
 20
3.791347928300667
 30
0.0
 10
20.72163721153005
 20
3.80609416139599
 30
0.0
 10
20.74957030516464
 20
3.811432505155281
 30
0.0
 10
20.77786840273947
 20
3.81422438948691
 30
0.0
 10
20.80591960360405
 20
3.814448947938828
 30
0.0
  0
LINE
  5
2937F
330
1F
100
AcDbEntity
  8
1
100
AcDbLine
 10
20.63659999999996
 20
4.839568999999997
 30
0.0
 11
20.80591999999996
 21
3.814448999999995
 31
0.0
  0
LINE
  5
29380
330
1F
100
AcDbEntity
  8
1
100
AcDbLine
 10
26.68973099999997
 20
4.310368999999993
 30
0.0
 11
26.85904999999995
 21
3.285248999999993
 31
0.0
  0
LINE
  5
29381
330
1F
100
AcDbEntity
  8
1
100
AcDbLine
 10
26.85904999999995
 20
3.285248999999993
 30
0.0
 11
26.77820199999996
 21
3.300708999999998
 31
0.0
  0
SPLINE
  5
29382
330
1F
100
AcDbEntity
  8
1
100
AcDbSpline
210
0.0
220
0.0
230
1.0
 70
     8
 71
     5
 72
    18
 73
    12
 74
     0
 42
0.000000001
 43
0.0000000001
 40
0.502151655081422
 40
0.502151655081422
 40
0.502151655081422
 40
0.502151655081422
 40
0.502151655081422
 40
0.502151655081422
 40
4.066606102456836
 40
4.066606102456836
 40
4.066606102456836
 40
7.524212728860522
 40
7.524212728860522
 40
7.524212728860522
 40
11.51775886342234
 40
11.51775886342234
 40
11.51775886342234
 40
11.51775886342234
 40
11.51775886342234
 40
11.51775886342234
 10
20.89506313780736
 20
3.815029330890383
 30
0.0
 10
21.23203319682867
 20
3.996683669427397
 30
0.0
 10
21.5842754307341
 20
4.152995860800343
 30
0.0
 10
21.95384837501685
 20
4.280332222988491
 30
0.0
 10
22.69410282489304
 20
4.457086932390922
 30
0.0
 10
23.4686364548419
 20
4.486104730233748
 30
0.0
 10
23.86452429799972
 20
4.460894804218313
 30
0.0
 10
24.69975960638362
 20
4.323851545386461
 30
0.0
 10
25.52193391509701
 20
4.020595150262806
 30
0.0
 10
25.95351574576988
 20
3.814411498550427
 30
0.0
 10
26.37253078083091
 20
3.572460384212432
 30
0.0
 10
26.77821343709367
 20
3.300717553304011
 30
0.0
  0
LINE
  5
29383
330
1F
100
AcDbEntity
  8
1
100
AcDbLine
 10
20.80591999999996
 20
3.814448999999995
 30
0.0
 11
20.89503799999996
 21
3.815045999999995
 31
0.0
  0
SPLINE
  5
29384
330
1F
100
AcDbEntity
  8
1
100
AcDbSpline
210
0.0
220
0.0
230
1.0
 70
     8
 71
     5
 72
    15
 73
     9
 74
     0
 42
0.000000001
 43
0.0000000001
 40
0.0
 40
0.0
 40
0.0
 40
0.0
 40
0.0
 40
0.0
 40
0.2374046856520183
 40
0.2374046856520183
 40
0.2374046856520183
 40
0.3310214283826857
 40
0.3310214283826857
 40
0.3310214283826857
 40
0.3310214283826857
 40
0.3310214283826857
 40
0.3310214283826857
 10
26.85905014181712
 20
3.285249233232959
 30
0.0
 10
26.88444217465742
 20
3.280353323241711
 30
0.0
 10
26.90813462100763
 20
3.272954065883113
 30
0.0
 10
26.92969850016007
 20
3.262746772844466
 30
0.0
 10
26.95304307978424
 20
3.24554221597262
 30
0.0
 10
26.9662274034992
 20
3.225213514523673
 30
0.0
 10
26.9691034312379
 20
3.219213291465733
 30
0.0
 10
26.97104346849609
 20
3.213114254418358
 30
0.0
 10
26.97206624562736
 20
3.206931059654821
 30
0.0
  0
LINE
  5
29385
330
1F
100
AcDbEntity
  8
1
100
AcDbLine
 10
26.97206599999996
 20
3.206930999999995
 30
0.0
 11
26.97277099999997
 21
3.197395
 31
0.0
  0
LINE
  5
29386
330
1F
100
AcDbEntity
  8
1
100
AcDbLine
 10
26.83627199999996
 20
1.888821000000005
 30
0.0
 11
26.85904999999995
 21
3.285248999999993
 31
0.0
  0
SPLINE
  5
29387
330
1F
100
AcDbEntity
  8
1
100
AcDbSpline
210
0.0
220
0.0
230
1.0
 70
     8
 71
     5
 72
    18
 73
    12
 74
     0
 42
0.000000001
 43
0.0000000001
 40
0.5023872400998465
 40
0.5023872400998465
 40
0.5023872400998465
 40
0.5023872400998465
 40
0.5023872400998465
 40
0.5023872400998465
 40
4.764544049339538
 40
4.764544049339538
 40
4.764544049339538
 40
8.212081646334681
 40
8.212081646334681
 40
8.212081646334681
 40
11.52161577632496
 40
11.52161577632496
 40
11.52161577632496
 40
11.52161577632496
 40
11.52161577632496
 40
11.52161577632496
 10
20.89503856303966
 20
3.815045792109203
 30
0.0
 10
21.32800858095362
 20
3.525023159856048
 30
0.0
 10
21.77616951298094
 20
3.268931912633632
 30
0.0
 10
22.23860093816906
 20
3.054031708391335
 30
0.0
 10
23.09280268912603
 20
2.757451184987701
 30
0.0
 10
23.95677423518207
 20
2.64173971858605
 30
0.0
 10
24.3502856969031
 20
2.628651736788099
 30
0.0
 10
25.09174135004641
 20
2.678734360808461
 30
0.0
 10
25.79902402538751
 20
2.863240846607892
 30
0.0
 10
26.13943364990502
 20
2.985240415933743
 30
0.0
 10
26.46535255474022
 20
3.132047776107257
 30
0.0
 10
26.77819772110803
 20
3.300709080461686
 30
0.0
  0
LINE
  5
29388
330
1F
100
AcDbEntity
  8
1
100
AcDbLine
 10
20.78314099999996
 20
2.418020999999995
 30
0.0
 11
20.80591999999996
 21
3.814448999999995
 31
0.0
  0
LINE
  5
29389
330
1F
100
AcDbEntity
  8
1
100
AcDbLine
 10
19.76796099999996
 20
0.9696990000000056
 30
0.0
 11
19.79514999999996
 21
0.8050860000000028
 31
0.0
  0
LINE
  5
2938A
330
1F
100
AcDbEntity
  8
1
100
AcDbLine
 10
26.80274699999995
 20
4.232052999999993
 30
0.0
 11
26.97206599999996
 21
3.206930999999995
 31
0.0
  0
LINE
  5
2938B
330
1F
100
AcDbEntity
  8
1
100
AcDbLine
 10
26.94999299999996
 20
1.800967999999995
 30
0.0
 11
26.97277099999997
 21
3.197396999999995
 31
0.0
  0
ELLIPSE
  5
2938C
330
1F
100
AcDbEntity
  8
1
100
AcDbEllipse
 10
26.74980299999996
 20
1.790976999999996
 30
0.0
 11
0.2000527828931808
 21
0.0147687988355756
 31
0.0
210
0.0
220
0.0
230
1.0
 40
0.5138550000000001
 41
5.977257460331597
 42
7.369446772582632
  0
LINE
  5
2938D
330
1F
100
AcDbEntity
  8
1
100
AcDbLine
 10
26.94285299999996
 20
1.774099000000005
 30
0.0
 11
26.17221999999995
 21
0.2845339999999936
 31
0.0
  0
ELLIPSE
  5
2938E
330
1F
100
AcDbEntity
  8
1
100
AcDbEllipse
 10
25.97917099999996
 20
0.3014110000000016
 30
0.0
 11
0.2000527828931808
 21
0.0147687988355756
 31
0.0
210
0.0
220
0.0
230
1.0
 40
0.5138550000000001
 41
4.585068148080641
 42
5.977257460331642
  0
ELLIPSE
  5
2938F
330
1F
100
AcDbEntity
  8
1
100
AcDbEllipse
 10
29.44216699999996
 20
13.040476
 30
0.0
 11
21.10927963256836
 21
3.476478815078736
 31
0.0
210
0.0
220
0.0
230
1.0
 40
0.585741
 41
4.149945245060083
 42
4.451339385210419
  0
ELLIPSE
  5
29390
330
1F
100
AcDbEntity
  8
1
100
AcDbEllipse
 10
19.99463399999996
 20
0.8246139999999968
 30
0.0
 11
0.2000527828931808
 21
0.0147687988355756
 31
0.0
210
0.0
220
0.0
230
1.0
 40
0.5138550000000001
 41
2.835664806741831
 42
4.227854118993998
  0
LINE
  5
29391
330
1F
100
AcDbEntity
  8
1
100
AcDbLine
 10
19.80158499999996
 20
0.8414920000000023
 30
0.0
 11
20.57221699999997
 21
2.331056999999999
 31
0.0
  0
ELLIPSE
  5
29392
330
1F
100
AcDbEntity
  8
1
100
AcDbEllipse
 10
20.76526699999997
 20
2.314179999999993
 30
0.0
 11
0.2000527828931808
 21
0.0147687988355756
 31
0.0
210
0.0
220
0.0
230
1.0
 40
0.5138550000000001
 41
1.443475494490265
 42
2.835664806741871
  0
ELLIPSE
  5
29393
330
1F
100
AcDbEntity
  8
1
100
AcDbEllipse
 10
17.30227099999996
 20
-10.424885
 30
0.0
 11
21.10927963256836
 21
3.476478815078736
 31
0.0
210
0.0
220
0.0
230
1.0
 40
0.585741
 41
1.008352590849334
 42
1.309746730744428
  0
LINE
  5
29395
330
1F
100
AcDbEntity
  8
SK4
100
AcDbLine
 10
-0.0000000000000284
 20
0.0
 30
0.0
 11
-26.03554900000004
 21
0.0
 31
0.0
  0
INSERT
  5
29496
330
1F
100
AcDbEntity
  8
SK2
100
AcDbBlockReference
  2
CERO_POINT
 10
-0.0000000000037232
 20
0.0
 30
0.0
  0
LINE
  5
29813
330
1F
100
AcDbEntity
  8
SK3
100
AcDbLine
 10
15.03663441609984
 20
1.668597470514205
 30
0.0
 11
20.44375586516461
 21
8.695248408880553
 31
0.0
  0
LINE
  5
29814
330
1F
100
AcDbEntity
  8
SK3
100
AcDbLine
 10
15.42150919055807
 20
1.001975073100106
 30
0.0
 11
21.20222623229665
 21
8.514120159611575
 31
0.0
  0
DIMENSION
  5
29B01
330
1F
100
AcDbEntity
  8
2
100
AcDbDimension
  2
*D40
 10
26.95044199999998
 20
31.88368223974162
 30
0.0
 11
13.47522099999998
 21
34.28081857143523
 31
0.0
 70
    32
 71
     5
 41
0.0
 42
26.95044200000001
  3
MM_STANDARD
100
AcDbAlignedDimension
 13
-0.0000000000000284
 23
10.5
 33
0.0
 14
26.95044199999998
 24
10.68158500000001
 34
0.0
100
AcDbRotatedDimension
1001
ACAD
1000
DSTYLE
1002
{
1070
   279
1070
     0
1070
   271
1070
     0
1070
    78
1070
     9
1070
    79
1070
     2
1070
    90
1070
     1
1070
   172
1070
     1
1070
   345
1005
14
1070
   346
1005
14
1070
   347
1005
14
1002
}
1001
ACAD_DSTYLE_DIMARC_LENGTH_SYMBOL
1070
   379
1070
     1
1001
ACAD_DSTYLE_DIM_LINETYPE
1070
   380
1005
14
1001
ACAD_DSTYLE_DIM_EXT1_LINETYPE
1070
   381
1005
14
1001
ACAD_DSTYLE_DIM_EXT2_LINETYPE
1070
   382
1005
14
  0
LWPOLYLINE
  5
29C72
330
1F
100
AcDbEntity
  8
CUT
100
AcDbPolyline
 90
      814
 70
     1
 43
0.0
 10
20.59543599999999
 20
12.318021
 10
19.88470462590305
 20
9.355738776658414
 10
19.88434865713213
 20
9.353853304412556
 10
19.88403895607423
 20
9.351962629000137
 10
19.88377444742003
 20
9.350059992624006
 10
19.88355529240282
 20
9.34814558213203
 10
19.88338162742597
 20
9.346219809255131
 10
19.8832535645966
 20
9.344283274828452
 10
19.88317119225922
 20
9.342336733012487
 10
19.88313457552948
 20
9.340381055514244
 10
19.88314375682779
 20
9.338417195808403
 10
19.88319875641305
 20
9.336446153358465
 10
19.88329957291628
 20
9.334468937837891
 10
19.88344618387439
 20
9.332486533351273
 10
19.88363854626377
 20
9.330499862655466
 10
19.883876597034
 20
9.328509751380762
 10
19.8841602536416
 20
9.326516892252023
 10
19.8844894145836
 20
9.324521809309841
 10
19.88486395993131
 20
9.322524822131693
 10
19.88528375186397
 20
9.320526010053081
 10
19.8857486669884
 20
9.318525179990745
 10
19.88625881492259
 20
9.316522001591394
 10
19.8868143299705
 20
9.314516352797499
 10
19.88741522039356
 20
9.312508372037919
 10
19.88806138118182
 20
9.310498424141314
 10
19.88875260812825
 20
9.308487065959598
 10
19.88948861190297
 20
9.306475011991366
 10
19.89026903212758
 20
9.304463100005335
 10
19.89109345144939
 20
9.302452256663775
 10
19.89196140961573
 20
9.300443463145947
 10
19.89287241754819
 20
9.298437720771532
 10
19.89382597141697
 20
9.296436016624088
 10
19.89482156671503
 20
9.294439289174453
 10
19.8958587123325
 20
9.292448393904207
 10
19.89693694463087
 20
9.2904640689291
 10
19.89805584151729
 20
9.288486900622483
 10
19.89921503651886
 20
9.286517289238746
 10
19.9004142328569
 20
9.284555414536759
 10
19.9016532187394
 20
9.282601201495186
 10
19.90293199581318
 20
9.280654344416088
 10
19.90425074050242
 20
9.278714600409234
 10
19.9056094551021
 20
9.276781949928286
 10
19.90700795358355
 20
9.274856576540203
 10
19.90844588517678
 20
9.272938838978078
 10
19.90992275795266
 20
9.271029243194037
 10
19.91143796240525
 20
9.269128414412103
 10
19.91299079503401
 20
9.267237069181057
 10
19.91458048192611
 20
9.265355987427319
 10
19.91620620233862
 20
9.263485984507811
 10
19.91786711228083
 20
9.261627883262828
 10
19.91956236809645
 20
9.259782486068914
 10
19.92129115004596
 20
9.257950546891725
 10
19.92305268588876
 20
9.256132743338913
 10
19.92484627446549
 20
9.254329648712966
 10
19.9266713092803
 20
9.252541704064123
 10
19.92852730208307
 20
9.250769190243195
 10
19.93041390645169
 20
9.249012199954476
 10
19.93233094375071
 20
9.247270610327332
 10
19.93427850731199
 20
9.245544129737398
 10
19.93625678148359
 20
9.24383254702697
 10
19.93826573394554
 20
9.242135817217331
 10
19.94030512061895
 20
9.240454043422419
 10
19.94237451248027
 20
9.238787456969575
 10
19.94447332237562
 20
9.237136397520252
 10
19.946600831835
 20
9.235501293190763
 10
19.94875621788655
 20
9.233882640673007
 10
19.95093857987089
 20
9.232280985355199
 10
19.9531469662553
 20
9.230696901442595
 10
19.95538040144802
 20
9.229130972078236
 10
19.95763791261257
 20
9.22758376946367
 10
19.9599185564819
 20
9.226055834979687
 10
19.9622214461728
 20
9.224547659307043
 10
19.96454577800002
 20
9.2230596625472
 10
19.96689085829066
 20
9.221592174343047
 10
19.96925613019837
 20
9.220145413999647
 10
19.97164120051763
 20
9.218719470604948
 10
19.97404586649802
 20
9.21731428315053
 10
19.97647017514543
 20
9.215929640216776
 10
19.97891438609794
 20
9.214565329549683
 10
19.98137858515791
 20
9.21322125201831
 10
19.98386262778051
 20
9.211897414568886
 10
19.98636616712044
 20
9.210593916829552
 10
19.98888868207923
 20
9.20931093771518
 10
19.99142950535272
 20
9.208048722032234
 10
19.99398785147841
 20
9.206807567083584
 10
19.9965628448828
 20
9.205587809273355
 10
19.99915354792885
 20
9.204389810711758
 10
20.00175898896328
 20
9.203213945819914
 10
20.00437819036402
 20
9.202060587934717
 10
20.00701019658751
 20
9.200930095913633
 10
20.00965410221619
 20
9.199822800739571
 10
20.0123090800058
 20
9.198738992125694
 10
20.01497440893278
 20
9.197678905120261
 10
20.01764950224167
 20
9.196642706711472
 10
20.02033393549248
 20
9.195630482432287
 10
20.02302747460805
 20
9.194642222965274
 10
20.02573010392441
 20
9.193677810746383
 10
20.0353125047587
 20
9.190307375144023
 10
20.0448959285273
 20
9.186938976213275
 10
20.05448037511786
 20
9.183572612349856
 10
20.06406584392091
 20
9.180208282117883
 10
20.07365233405341
 20
9.176845984171576
 10
20.083239844366
 20
9.173485717252962
 10
20.0928283734502
 20
9.170127480189652
 10
20.1024179196457
 20
9.166771271892573
 10
20.11200848104753
 20
9.163417091353702
 10
20.12160005551336
 20
9.160064937643843
 10
20.13119264067071
 20
9.156714809910347
 10
20.14078623392414
 20
9.153366707374862
 10
20.15038083246258
 20
9.150020629331086
 10
20.15997643326647
 20
9.146676575142503
 10
20.16957303311507
 20
9.143334544240143
 10
20.17917062859364
 20
9.139994536120317
 10
20.18876921610071
 20
9.136656550342355
 10
20.19836879185532
 20
9.133320586526373
 10
20.20796935190421
 20
9.129986644351005
 10
20.21757089212913
 20
9.126654723551141
 10
20.22717340825398
 20
9.1233248239157
 10
20.23677689585213
 20
9.119996945285343
 10
20.24638135035363
 20
9.116671087550244
 10
20.25598676705242
 20
9.113347250647819
 10
20.26559314111359
 20
9.110025434560485
 10
20.27520046758061
 20
9.106705639313394
 10
20.28480874138258
 20
9.103387864972184
 10
20.29441795734143
 20
9.100072111640725
 10
20.30402811017918
 20
9.096758379458872
 10
20.31363919452519
 20
9.093446668600195
 10
20.32325120492338
 20
9.090136979269733
 10
20.33286413583942
 20
9.086829311701736
 10
20.34247798166806
 20
9.083523666157427
 10
20.3520927367403
 20
9.080220042922727
 10
20.36170839533063
 20
9.076918442306007
 10
20.37132495166429
 20
9.073618864635838
 10
20.38094239992449
 20
9.070321310258734
 10
20.39056073425963
 20
9.067025779536898
 10
20.40017994879057
 20
9.063732272845966
 10
20.40980003761785
 20
9.06044079057276
 10
20.41942099482893
 20
9.057151333113015
 10
20.42904281450539
 20
9.053863900869153
 10
20.43866549073023
 20
9.050578494248004
 10
20.44828901759506
 20
9.047295113658568
 10
20.45791338920733
 20
9.044013759509745
 10
20.46753859969761
 20
9.040734432208092
 10
20.47716464322677
 20
9.037457132155575
 10
20.48679151399328
 20
9.034181859747301
 10
20.49641920624036
 20
9.030908615369256
 10
20.50604771426332
 20
9.027637399396088
 10
20.5156770324167
 20
9.024368212188806
 10
20.52530715512156
 20
9.021101054092564
 10
20.5349380768727
 20
9.017835925434381
 10
20.54456979224591
 20
9.014572826520891
 10
20.55420229590516
 20
9.011311757636116
 10
20.56383558260991
 20
9.008052719039168
 10
20.57346964722227
 20
9.004795710962021
 10
20.5831044847143
 20
9.00154073360726
 10
20.59274009017519
 20
8.998287787145818
 10
20.60237645881852
 20
8.995036871714711
 10
20.61201358598953
 20
8.991787987414809
 10
20.62165146717228
 20
8.988541134308562
 10
20.63129009799697
 20
8.98529631241775
 10
20.64092947424708
 20
8.982053521721232
 10
20.65056959186671
 20
8.978812762152696
 10
20.66021044696774
 20
8.975574033598388
 10
20.66985203583709
 20
8.972337335894879
 10
20.67949435494397
 20
8.969102668826797
 10
20.68913740094709
 20
8.96587003212457
 10
20.6987811707019
 20
8.962639425462187
 10
20.70842566126786
 20
8.959410848454927
 10
20.71807086991561
 20
8.956184300657119
 10
20.72771679413428
 20
8.952959781559878
 10
20.73736343163866
 20
8.949737290588851
 10
20.74701078037648
 20
8.946516827101968
 10
20.75665883853565
 20
8.943298390387186
 10
20.76630760455143
 20
8.940081979660231
 10
20.77595692812096
 20
8.936867643593616
 10
20.78560717099074
 20
8.933655260776186
 10
20.79525867780724
 20
8.930444715164506
 10
20.80490307349477
 20
8.927238787490351
 10
20.81451666031927
 20
8.924045350850633
 10
20.8240757001182
 20
8.920872281380434
 10
20.83356612557735
 20
8.917724208853684
 10
20.84298372286949
 20
8.914602471153351
 10
20.85233438272136
 20
8.911505057711384
 10
20.86163272769177
 20
8.9084270965329
 10
20.87089936495196
 20
8.905361762331475
 10
20.8801579021212
 20
8.902301257206223
 10
20.88943194524131
 20
8.89923779822562
 10
20.89874209675143
 20
8.896164605011314
 10
20.90810295346255
 20
8.893076887321944
 10
20.91752021952498
 20
8.889972794646071
 10
20.92698971622199
 20
8.886853733537341
 10
20.93649304705822
 20
8.883725774918646
 10
20.94600274342155
 20
8.880597956296982
 10
20.95549699634293
 20
8.87747743347146
 10
20.96497045398635
 20
8.87436593499842
 10
20.9744226333114
 20
8.871263578040025
 10
20.98385019011692
 20
8.868171407363682
 10
20.99324659973028
 20
8.865091501393962
 10
21.00260602395471
 20
8.86202571737763
 10
21.01192557087248
 20
8.858974957668824
 10
21.02120441386671
 20
8.855939455867243
 10
21.0304435764939
 20
8.852918846547748
 10
21.03964572981081
 20
8.849912230943113
 10
21.04881498970143
 20
8.846918242626822
 10
21.05795671412762
 20
8.843935113220535
 10
21.06705229419507
 20
8.84096884758896
 10
21.07600551159396
 20
8.838050616926047
 10
21.08474183768089
 20
8.835204551963755
 10
21.09322905530427
 20
8.832441056996987
 10
21.10147053962091
 20
8.829758991429953
 10
21.10949853891261
 20
8.827147851322498
 10
21.1173674554028
 20
8.82458995093647
 10
21.1251471260731
 20
8.822062604282047
 10
21.13291610347996
 20
8.819540306664102
 10
21.1407549365712
 20
8.816996916228541
 10
21.14873945150268
 20
8.814407835508657
 10
21.15693403245487
 20
8.811752192971466
 10
21.16538490244944
 20
8.80901502456407
 10
21.17411340416588
 20
8.806189455259994
 10
21.18310928075811
 20
8.803278880605535
 10
21.19232395667102
 20
8.800299148266118
 10
21.20166407232911
 20
8.7972806571189
 10
21.2110394098012
 20
8.794252789305827
 10
21.22044720714771
 20
8.791216513750173
 10
21.22989377666146
 20
8.788169835949759
 10
21.23938128491476
 20
8.785112093113184
 10
21.24890848238337
 20
8.782043719195257
 10
21.25847143307039
 20
8.778966009932416
 10
21.26806424413025
 20
8.775880887878164
 10
21.27767979549266
 20
8.772790667438497
 10
21.2873104694865
 20
8.769697819907342
 10
21.29694888046383
 20
8.766604738501966
 10
21.30658860442378
 20
8.763513503398424
 10
21.31622490863653
 20
8.760425646766991
 10
21.32585548126723
 20
8.757341917807567
 10
21.33548116099997
 20
8.754262047785141
 10
21.34510666664665
 20
8.751184515070027
 10
21.35473849826435
 20
8.748107219816651
 10
21.36437596496172
 20
8.745030370146015
 10
21.37401714666323
 20
8.741954568051376
 10
21.3836620433024
 20
8.738879800270835
 10
21.39331630417115
 20
8.735804252716915
 10
21.40297767832322
 20
8.732728613257853
 10
21.4126254447691
 20
8.729659440297501
 10
21.42224556701002
 20
8.726601191869686
 10
21.43185226822167
 20
8.723549379220733
 10
21.44148042525794
 20
8.72049296037496
 10
21.45116749671036
 20
8.717420071773279
 10
21.46093709711103
 20
8.714323242925246
 10
21.47078106218276
 20
8.711205096267731
 10
21.48067010553623
 20
8.708074967662707
 10
21.49057782775757
 20
8.704941274283001
 10
21.5004803478965
 20
8.701811582528263
 10
21.51026340653177
 20
8.698721886869066
 10
21.51986929573074
 20
8.695690358511143
 10
21.52935255069838
 20
8.692699803788704
 10
21.53882854653545
 20
8.689713863611858
 10
21.5484212898005
 20
8.686693466668396
 10
21.55821121007182
 20
8.683613282625607
 10
21.56818295150933
 20
8.680478175332062
 10
21.57821086769439
 20
8.677327766484468
 10
21.58824094434243
 20
8.674179065908303
 10
21.59826531586306
 20
8.671034521281816
 10
21.60827583371169
 20
8.667896664145141
 10
21.61826156739532
 20
8.664768887763388
 10
21.6282175394503
 20
8.661652724718866
 10
21.63816410878157
 20
8.658541806257684
 10
21.64813068782393
 20
8.655426932701191
 10
21.65812783709618
 20
8.652304768779218
 10
21.66812843019384
 20
8.649183728308786
 10
21.67808917702761
 20
8.646077275768325
 10
21.68797146775693
 20
8.642997429830208
 10
21.69776433961976
 20
8.639947597203521
 10
21.70749696578084
 20
8.636918672339334
 10
21.71721179876057
 20
8.633897419132802
 10
21.72692874270907
 20
8.630877647315745
 10
21.73664651217372
 20
8.627859773147894
 10
21.74636600902427
 20
8.624843520179197
 10
21.75608756395863
 20
8.621828786736291
 10
21.76581100161787
 20
8.618815626973994
 10
21.77553592443273
 20
8.615804163516662
 10
21.78526199647004
 20
8.612794500099516
 10
21.7949892272792
 20
8.609786634210001
 10
21.80471805972588
 20
8.606780429880862
 10
21.81444867760862
 20
8.603775830263948
 10
21.82418111649782
 20
8.600772824094486
 10
21.83391539336124
 20
8.597771405975535
 10
21.84365150770005
 20
8.594771576013338
 10
21.85338944268456
 20
8.591773339452679
 10
21.86312916628994
 20
8.588776706312284
 10
21.87287063243211
 20
8.585781691020175
 10
21.88261378210345
 20
8.582788312049071
 10
21.89235854450859
 20
8.579796591551762
 10
21.90210483820019
 20
8.576806554996476
 10
21.91185257221472
 20
8.573818230802277
 10
21.92160164720822
 20
8.570831649974433
 10
21.93135195659211
 20
8.567846845739801
 10
21.94110338766892
 20
8.564863853182199
 10
21.95085582276813
 20
8.561882708877796
 10
21.96060914038188
 20
8.558903450530483
 10
21.97036321630081
 20
8.555926116607261
 10
21.98011792474978
 20
8.552950745973609
 10
21.98987313952368
 20
8.54997737752887
 10
21.99962873512323
 20
8.547006049841636
 10
22.00938458789068
 20
8.544036800785116
 10
22.01914057714569
 20
8.541069667172527
 10
22.028896586321
 20
8.538104684392463
 10
22.03865250409831
 20
8.53514188604428
 10
22.04840822554398
 20
8.532181303573482
 10
22.05816365324485
 20
8.529222965907083
 10
22.06791869844398
 20
8.526266899089002
 10
22.07767328217648
 20
8.523313125915443
 10
22.08742733640524
 20
8.520361665570259
 10
22.0971808051378
 20
8.517412533265883
 10
22.10693363033179
 20
8.514465744364551
 10
22.11668573398057
 20
8.511521319863089
 10
22.12643706515095
 20
8.508579272857152
 10
22.13618760597034
 20
8.505639606813497
 10
22.1459373685658
 20
8.502702316473341
 10
22.15568639200308
 20
8.499767388755753
 10
22.16543473922575
 20
8.496834803661032
 10
22.17518249399422
 20
8.493904535174086
 10
22.18492975782476
 20
8.490976552167817
 10
22.19467664692868
 20
8.488050819306499
 10
22.20442328915128
 20
8.485127297949151
 10
22.21416982091097
 20
8.482205947052939
 10
22.22391638413833
 20
8.479286724076526
 10
22.23366312321516
 20
8.476369585883482
 10
22.24341018191354
 20
8.473454489645641
 10
22.25315769410373
 20
8.470541395642865
 10
22.26290571862555
 20
8.467630287003942
 10
22.27265426596925
 20
8.464721161415392
 10
22.28240334171475
 20
8.461814017875651
 10
22.29215294793088
 20
8.45890885629794
 10
22.30190308392014
 20
8.456005677312727
 10
22.31165374696353
 20
8.453104482070191
 10
22.32140493306524
 20
8.45020527204265
 10
22.33115663769749
 20
8.447308048827036
 10
22.34090885654524
 20
8.444412813947346
 10
22.35066158625103
 20
8.441519568657088
 10
22.3604148251597
 20
8.438628313741736
 10
22.37016857406315
 20
8.435739049321194
 10
22.37992283694519
 20
8.432851774652244
 10
22.38967762172621
 20
8.42996648793099
 10
22.39943294099797
 20
8.4270831860984
 10
22.40918881092312
 20
8.424201865187617
 10
22.41894524681949
 20
8.421322521562897
 10
22.42870226310191
 20
8.418445151851825
 10
22.43845987347398
 20
8.415569752882474
 10
22.44821809093784
 20
8.412696321680765
 10
22.45797692780401
 20
8.409824855467839
 10
22.46773639570115
 20
8.406955351657407
 10
22.47749650558592
 20
8.404087807853127
 10
22.48725726775269
 20
8.401222221845952
 10
22.49701869184345
 20
8.398358591611509
 10
22.5067807868575
 20
8.395496915307449
 10
22.51654356116133
 20
8.392637191270813
 10
22.52630702249838
 20
8.389779418015404
 10
22.53607117799885
 20
8.386923594229134
 10
22.54583603418951
 20
8.384069718771403
 10
22.55560159700348
 20
8.381217790670451
 10
22.56536787179003
 20
8.378367809120724
 10
22.57513486332443
 20
8.375519773480236
 10
22.58490257581767
 20
8.372673683267946
 10
22.59467101292631
 20
8.369829538161088
 10
22.60444017776229
 20
8.366987337992567
 10
22.61421007290266
 20
8.364147082748312
 10
22.62398070039949
 20
8.361308772564624
 10
22.63375206178956
 20
8.358472407725567
 10
22.64352415810424
 20
8.355637988660305
 10
22.65329698987923
 20
8.352805515940472
 10
22.66307055716443
 20
8.34997499027755
 10
22.67284485953366
 20
8.347146412520213
 10
22.6826198960945
 20
8.344319783651693
 10
22.69239566549812
 20
8.341495104787155
 10
22.702172165949
 20
8.338672377171047
 10
22.71194939521484
 20
8.335851602174475
 10
22.72172735063622
 20
8.333032781292546
 10
22.73150602913656
 20
8.330215916141758
 10
22.74128542723174
 20
8.327401008457336
 10
22.75106554104011
 20
8.324588060090619
 10
22.76084636629208
 20
8.321777073006401
 10
22.77062789834007
 20
8.318968049280321
 10
22.78041013216824
 20
8.31616099109619
 10
22.79019306240229
 20
8.313355900743383
 10
22.79997668331932
 20
8.3105527806142
 10
22.80976098885754
 20
8.307751633201204
 10
22.81954597262614
 20
8.30495246109462
 10
22.82933162791506
 20
8.302155266979664
 10
22.83911794770478
 20
8.299360053633932
 10
22.84890492467617
 20
8.29656682392475
 10
22.85869255122021
 20
8.293775580806535
 10
22.86848081944788
 20
8.290986327318162
 10
22.87826972119988
 20
8.28819906658034
 10
22.88805924805649
 20
8.285413801792945
 10
22.89784939134731
 20
8.282630536232407
 10
22.90764014216113
 20
8.279849273249071
 10
22.91743149135568
 20
8.277070016264554
 10
22.92722342956744
 20
8.274292768769099
 10
22.93701594722143
 20
8.271517534318958
 10
22.94680903454106
 20
8.268744316533741
 10
22.95660268155786
 20
8.265973119093786
 10
22.96639687812133
 20
8.263203945737513
 10
22.97619161390871
 20
8.260436800258801
 10
22.9859868784348
 20
8.257671686504339
 10
22.99578266106176
 20
8.254908608370987
 10
23.00557895100888
 20
8.252147569803153
 10
23.01537573736244
 20
8.249388574790147
 10
23.02517300908542
 20
8.246631627363537
 10
23.0349707550274
 20
8.243876731594527
 10
23.04476896393429
 20
8.241123891591307
 10
23.05456762445811
 20
8.238373111496432
 10
23.06436672516693
 20
8.235624395484164
 10
23.07416625455449
 20
8.232877747757845
 10
23.08396620105009
 20
8.230133172547267
 10
23.09376655302842
 20
8.227390674106025
 10
23.10356729881928
 20
8.224650256708882
 10
23.11336842671744
 20
8.221911924649141
 10
23.12316992499241
 20
8.219175682235986
 10
23.13297178189827
 20
8.216441533791872
 10
23.14277398568341
 20
8.213709483649868
 10
23.15257652460042
 20
8.210979536151031
 10
23.1623793869158
 20
8.208251695641761
 10
23.1721825609198
 20
8.205525966471173
 10
23.18198603493626
 20
8.202802352988454
 10
23.19178979733232
 20
8.200080859540221
 10
23.20159383652828
 20
8.197361490467896
 10
23.21139814100744
 20
8.194644250105062
 10
23.22120269932576
 20
8.191929142774823
 10
23.23100750012181
 20
8.189216172787178
 10
23.24081253212649
 20
8.186505344436369
 10
23.25061778417285
 20
8.183796661998256
 10
23.26042324520589
 20
8.181090129727671
 10
23.27022890429234
 20
8.178385751855797
 10
23.28003475063051
 20
8.175683532587504
 10
23.28984077356002
 20
8.172983476098737
 10
23.29964696257167
 20
8.170285586533871
 10
23.30945330731718
 20
8.167589868003068
 10
23.31925979761903
 20
8.164896324579643
 10
23.32906642348025
 20
8.162204960297431
 10
23.3388731750942
 20
8.159515779148147
 10
23.34868004285441
 20
8.156828785078754
 10
23.35848701736432
 20
8.154143981988811
 10
23.36829408944716
 20
8.151461373727851
 10
23.37810125015566
 20
8.148780964092747
 10
23.38790849078194
 20
8.146102756825053
 10
23.39771580286722
 20
8.143426755608388
 10
23.40752317821172
 20
8.140752964065796
 10
23.41733060888433
 20
8.138081385757098
 10
23.42713808723257
 20
8.135412024176265
 10
23.43694560589222
 20
8.132744882748777
 10
23.44675315779728
 20
8.130079964828992
 10
23.45656073618963
 20
8.127417273697494
 10
23.46636833462895
 20
8.124756812558471
 10
23.47617594700242
 20
8.122098584537079
 10
23.48598356753457
 20
8.119442592676785
 10
23.49579119079711
 20
8.116788839936756
 10
23.50559881171864
 20
8.114137329189201
 10
23.51540642559455
 20
8.111488063216746
 10
23.52521402809674
 20
8.108841044709802
 10
23.53502161528347
 20
8.106196276263899
 10
23.54482918360913
 20
8.10355376037709
 10
23.55463672993407
 20
8.100913499447282
 10
23.56444425153436
 20
8.098275495769613
 10
23.57425174611163
 20
8.095639751533811
 10
23.58405921180283
 20
8.093006268821563
 10
23.59386664719008
 20
8.090375049603869
 10
23.60367405131043
 20
8.08774609573841
 10
23.61348142366566
 20
8.085119408966908
 10
23.6232887642321
 20
8.082494990912501
 10
23.63309607347042
 20
8.07987284307708
 10
23.64290335233543
 20
8.077252966838678
 10
23.65271060228588
 20
8.074635363448825
 10
23.66251782529426
 20
8.072020034029902
 10
23.67232502385661
 20
8.069406979572516
 10
23.6821322010023
 20
8.066796200932856
 10
23.69193936030383
 20
8.064187698830055
 10
23.70174650588666
 20
8.061581473843562
 10
23.71155364243898
 20
8.058977526410496
 10
23.72136077522151
 20
8.056375856823008
 10
23.73116791007733
 20
8.05377646522565
 10
23.74097505344163
 20
8.05117935161274
 10
23.75078221235157
 20
8.048584515825714
 10
23.76058939445602
 20
8.045991957550496
 10
23.77039660802542
 20
8.04340167631487
 10
23.78020386196152
 20
8.040813671485818
 10
23.79001116580722
 20
8.038227942266914
 10
23.79981852975635
 20
8.035644487695657
 10
23.80962596466349
 20
8.03306330664086
 10
23.81943348205375
 20
8.030484397799993
 10
23.82924109413258
 20
8.02790775969656
 10
23.83904881379555
 20
8.025333390677452
 10
23.84885665463821
 20
8.022761288910317
 10
23.85866463096579
 20
8.020191452380919
 10
23.8684727578031
 20
8.017623878890502
 10
23.87828105090427
 20
8.015058566053152
 10
23.88808952676257
 20
8.012495511293163
 10
23.89789820262019
 20
8.009934711842397
 10
23.90770709647809
 20
8.007376164737651
 10
23.91751621347176
 20
8.004819870336357
 10
23.92732552867321
 20
8.00226583680617
 10
23.93713505466635
 20
7.999714062799539
 10
23.94694483195682
 20
7.997164539990117
 10
23.95675489870036
 20
7.994617260935971
 10
23.96656526043123
 20
7.992072226942787
 10
23.97637585979059
 20
7.989529455927094
 10
23.98618655114276
 20
7.986988988970076
 10
23.99599769093221
 20
7.98445073269417
 10
24.00581165652129
 20
7.981914057092547
 10
24.01563257769375
 20
7.979377870928223
 10
24.02546569455946
 20
7.976840794640835
 10
24.03531674486606
 20
7.974301325255528
 10
24.04519135131057
 20
7.971758001291838
 10
24.05509440885102
 20
7.969209567672554
 10
24.06503304419248
 20
7.966654228997303
 10
24.0750628709432
 20
7.964077846860907
 10
24.08525237449289
 20
7.961463009847411
 10
24.09563387189731
 20
7.958801539479094
 10
24.1062084929473
 20
7.956093217239184
 10
24.116952623188
 20
7.953344138609367
 10
24.12782434693812
 20
7.950565067107292
 10
24.13876989030915
 20
7.947769788324092
 10
24.14973006422461
 20
7.944973463961881
 10
24.16064670743927
 20
7.94219098587127
 10
24.17146912955848
 20
7.939435330088871
 10
24.18216055405729
 20
7.936715910874815
 10
24.19270456129977
 20
7.934036934750253
 10
24.20311153155822
 20
7.931395754534858
 10
24.21342508803241
 20
7.928781223384361
 10
24.22373344877736
 20
7.926170866720782
 10
24.23418027646674
 20
7.923528536332892
 10
24.24487272394552
 20
7.920827406401389
 10
24.25585407246944
 20
7.918056679623513
 10
24.26711512216834
 20
7.915218725243867
 10
24.2786057677772
 20
7.912326171720312
 10
24.29024657436738
 20
7.909398999389824
 10
24.3019403530777
 20
7.906461633134388
 10
24.31358373684564
 20
7.903540035046862
 10
24.32507875613846
 20
7.900658797096861
 10
24.33634441468429
 20
7.897838233796627
 10
24.34732826520338
 20
7.89509147486691
 10
24.35801798513918
 20
7.892421557902843
 10
24.36845295238946
 20
7.889818521039818
 10
24.37873566779249
 20
7.887256533924117
 10
24.38896360057006
 20
7.884710933513326
 10
24.39908763455974
 20
7.882193706859816
 10
24.40905912383964
 20
7.8797168108122
 10
24.41885664754334
 20
7.877285478077273
 10
24.4284815389047
 20
7.874899322560547
 10
24.43795341430253
 20
7.872553444706807
 10
24.44730570230539
 20
7.870239536840659
 10
24.45658117271632
 20
7.867946988507075
 10
24.46582746561756
 20
7.865663991811947
 10
24.47509262041533
 20
7.863378646762637
 10
24.48442060488454
 20
7.861080066608512
 10
24.49384684421357
 20
7.858759483181517
 10
24.50339375004896
 20
7.856411352236706
 10
24.51306624954023
 20
7.854034458792789
 10
24.52284731438455
 20
7.851633022472691
 10
24.53269348987151
 20
7.849217802844099
 10
24.54254270967514
 20
7.846804170036888
 10
24.5523778457245
 20
7.844396403181316
 10
24.56220246977033
 20
7.841993666729165
 10
24.57202032077736
 20
7.839595078698883
 10
24.5818348401475
 20
7.837199823789124
 10
24.59164873088075
 20
7.834807260580436
 10
24.60146351673613
 20
7.832417028736929
 10
24.6112791014588
 20
7.830029156191987
 10
24.62109401932859
 20
7.827643999609897
 10
24.63090768368222
 20
7.825261702922787
 10
24.64071988602403
 20
7.822882318456747
 10
24.65053046136326
 20
7.82050588763658
 10
24.66033928011988
 20
7.818132442909513
 10
24.67014624003035
 20
7.8157620096689
 10
24.67995125805345
 20
7.813394608177927
 10
24.68975426231855
 20
7.811030255483367
 10
24.6995551931545
 20
7.808668965208792
 10
24.70935401768499
 20
7.806310744214465
 10
24.71915072295657
 20
7.803955594281348
 10
24.72894531375895
 20
7.80160351266699
 10
24.73873781200817
 20
7.799254492293536
 10
24.74852825612981
 20
7.796908521935741
 10
24.7583167004422
 20
7.794565586408976
 10
24.76810321453954
 20
7.792225666757249
 10
24.77788788267517
 20
7.789888740441202
 10
24.78767080314469
 20
7.78755478152613
 10
24.79745208766916
 20
7.785223760869985
 10
24.80723186077835
 20
7.782895646311397
 10
24.81701025919383
 20
7.780570402857674
 10
24.82678743121222
 20
7.778247992872815
 10
24.83656353608838
 20
7.775928376265526
 10
24.84633874326802
 20
7.773611510700951
 10
24.85611322822258
 20
7.771297352499476
 10
24.8658871684997
 20
7.768985857930529
 10
24.87566074379922
 20
7.766676983482285
 10
24.88543413507656
 20
7.764370686050655
 10
24.89520752358409
 20
7.762066923134262
 10
24.90498108991236
 20
7.759765653029399
 10
24.91475501303151
 20
7.757466835024994
 10
24.92452946933249
 20
7.75517042959758
 10
24.93430463166844
 20
7.752876398606245
 10
24.94408066839597
 20
7.75058470548761
 10
24.95385774241647
 20
7.748295315450786
 10
24.96363601021744
 20
7.746008195672339
 10
24.9734156209138
 20
7.743723315491252
 10
24.98319671528917
 20
7.741440646603892
 10
24.99297942483723
 20
7.739160163258972
 10
25.002763870803
 20
7.736881842452517
 10
25.01255016322415
 20
7.734605664122824
 10
25.02233839997236
 20
7.732331611345427
 10
25.03212866579455
 20
7.730059670528065
 10
25.04192103135426
 20
7.727789831605641
 10
25.05171555227295
 20
7.725522088235186
 10
25.06151226817128
 20
7.723256437990825
 10
25.07131120171046
 20
7.720992882558744
 10
25.08111235763354
 20
7.718731427932142
 10
25.09091572180672
 20
7.716472084606211
 10
25.1007212602607
 20
7.714214867773088
 10
25.11052891823192
 20
7.711959797516818
 10
25.12033861920395
 20
7.709706899008335
 10
25.13015026394874
 20
7.707456202700398
 10
25.13996372956799
 20
7.70520774452258
 10
25.14977885705079
 20
7.702961568768762
 10
25.15959539273719
 20
7.700717741742602
 10
25.16941307022506
 20
7.698476332416873
 10
25.1792316539262
 20
7.696237402208032
 10
25.18905093753379
 20
7.694001005355302
 10
25.19887074230689
 20
7.691767189342749
 10
25.20869091535497
 20
7.689535995321369
 10
25.21851132792231
 20
7.687307458531146
 10
25.22833187367256
 20
7.685081608723137
 10
25.23815246697319
 20
7.682858470581548
 10
25.24797304117996
 20
7.680638064145798
 10
25.25779354692145
 20
7.678420405232612
 10
25.2676139503835
 20
7.67620550585808
 10
25.2774342315937
 20
7.673993374659731
 10
25.2872543827059
 20
7.671784017318624
 10
25.29707440628468
 20
7.669577436981407
 10
25.30689431358982
 20
7.6673736346824
 10
25.31671412286081
 20
7.665172609765668
 10
25.32653385760132
 20
7.66297436030709
 10
25.33635354486368
 20
7.660778883536449
 10
25.34617321353338
 20
7.658586176259491
 10
25.3559928926135
 20
7.656396235280006
 10
25.3658126095093
 20
7.654209057821903
 10
25.37563238831261
 20
7.65202464195129
 10
25.38545224808636
 20
7.649842986998536
 10
25.39527220114902
 20
7.647664093980361
 10
25.40509225135914
 20
7.645487966021898
 10
25.41491239239982
 20
7.643314608778773
 10
25.42473260606314
 20
7.641144030859186
 10
25.43455286053474
 20
7.638976244245974
 10
25.44437310868091
 20
7.636811264718033
 10
25.45419330156518
 20
7.634649108553586
 10
25.4640134293015
 20
7.632489782534237
 10
25.473833490851
 20
7.630333291281906
 10
25.48365348472579
 20
7.628179639524209
 10
25.49347340900601
 20
7.626028832090786
 10
25.50329326135676
 20
7.62388087390959
 10
25.51311303904518
 20
7.62173577000317
 10
25.52293273895737
 20
7.61959352548498
 10
25.53275235761546
 20
7.617454145555672
 10
25.54257189119458
 20
7.615317635499392
 10
25.55239133553983
 20
7.613184000680072
 10
25.56221068618337
 20
7.611053246537735
 10
25.57202993836133
 20
7.60892537858478
 10
25.58184908703085
 20
7.606800402402289
 10
25.59166812688709
 20
7.604678323636314
 10
25.60148705238019
 20
7.602559147994182
 10
25.61130585773236
 20
7.600442881240776
 10
25.62112453695473
 20
7.598329529194852
 10
25.63094308386453
 20
7.596219097725322
 10
25.64076149210194
 20
7.594111592747547
 10
25.6505797551472
 20
7.592007020219643
 10
25.66039786633754
 20
7.589905386138767
 10
25.67021581888417
 20
7.587806696537429
 10
25.6800336058894
 20
7.585710957479768
 10
25.68985122036349
 20
7.583618175057861
 10
25.69966865524174
 20
7.581528355388019
 10
25.70948590340148
 20
7.579441504607075
 10
25.71930295767903
 20
7.577357628868684
 10
25.72911981088677
 20
7.575276734339627
 10
25.73893645583008
 20
7.573198827196096
 10
25.74875288532436
 20
7.571123913619993
 10
25.75856909221204
 20
7.569051999795227
 10
25.76838506937957
 20
7.566983091904018
 10
25.77820080977445
 20
7.564917196123173
 10
25.78801630642218
 20
7.562854318620408
 10
25.79783155244329
 20
7.560794465550617
 10
25.80764654107036
 20
7.558737643052195
 10
25.81746126566498
 20
7.556683857243312
 10
25.82727571973479
 20
7.554633114218221
 10
25.83708989695042
 20
7.552585420043553
 10
25.84690379116258
 20
7.550540780754602
 10
25.85671739641901
 20
7.548499202351647
 10
25.86653070698146
 20
7.546460690796214
 10
25.87634371734272
 20
7.544425252007401
 10
25.88615642224365
 20
7.542392891858155
 10
25.8959688166901
 20
7.540363616171581
 10
25.90578089596999
 20
7.538337430717231
 10
25.91559265567028
 20
7.536314341207398
 10
25.92540409169396
 20
7.534294353293422
 10
25.93521520027706
 20
7.532277472561977
 10
25.94502597800567
 20
7.530263704531371
 10
25.95483642183289
 20
7.528253054647835
 10
25.9646465290959
 20
7.526245528281838
 10
25.97445629753293
 20
7.524241130724352
 10
25.98426572530021
 20
7.522239867183187
 10
25.99407481098906
 20
7.52024174277925
 10
26.00388355364285
 20
7.518246762542869
 10
26.01369195277396
 20
7.516254931410067
 10
26.02350000838088
 20
7.514266254218877
 10
26.03330772096509
 20
7.512280735705624
 10
26.04311509214857
 20
7.510298380379873
 10
26.04581906923917
 20
7.509765515490503
 10
26.04852505164232
 20
7.509258879187743
 10
26.05123310077463
 20
7.508778604657217
 10
26.05394304053715
 20
7.508324844694898
 10
26.05665448712206
 20
7.507897768566262
 10
26.05936687880026
 20
7.507497558869227
 10
26.06207950570895
 20
7.507124408397077
 10
26.06479153963916
 20
7.506778517001404
 10
26.06750206382338
 20
7.50646008845504
 10
26.07021010272305
 20
7.506169327314977
 10
26.07291465181619
 20
7.505906435785324
 10
26.07561470738497
 20
7.505671610580214
 10
26.07830929630322
 20
7.505465039786757
 10
26.08099750582407
 20
7.505286899727963
 10
26.08367851336746
 20
7.505137351825674
 10
26.08635161630779
 20
7.505016539463508
 10
26.08901626176133
 20
7.504924584849777
 10
26.091672076374
 20
7.504861585880432
 10
26.09431889610878
 20
7.504827613001986
 10
26.09695679596033
 20
7.504822706482002
 10
26.09958606158507
 20
7.504846948732148
 10
26.10220688336128
 20
7.504900547272044
 10
26.10481918707633
 20
7.504983689143119
 10
26.10742265720972
 20
7.505096522755903
 10
26.11001676873723
 20
7.505239161762701
 10
26.11260081893503
 20
7.505411688930277
 10
26.11517395918382
 20
7.505614160012545
 10
26.11773522677298
 20
7.505846607623238
 10
26.12028357670471
 20
7.506109045108603
 10
26.12281791349811
 20
7.506401470420076
 10
26.12533712299339
 20
7.506723869986973
 10
26.12784010415595
 20
7.507076222589156
 10
26.13032580088055
 20
7.507458503229741
 10
26.13279323379541
 20
7.507870687007757
 10
26.13524153206636
 20
7.508312752990849
 10
26.137669965201
 20
7.508784688087938
 10
26.14007797485278
 20
7.509286490921929
 10
26.14246520662519
 20
7.50981817570237
 10
26.14483154187586
 20
7.510379776098156
 10
26.14717712409915
 20
7.510971366844911
 10
26.14950221337095
 20
7.511593183806485
 10
26.15180686207815
 20
7.512245457074074
 10
26.15409087129547
 20
7.512928304124923
 10
26.15635382242571
 20
7.513641741313827
 10
26.15859510907692
 20
7.514385696475932
 10
26.16081396893962
 20
7.515160021529498
 10
26.163009515664
 20
7.515964505078695
 10
26.16518077073708
 20
7.51679888501637
 10
26.16732669535995
 20
7.517662861126837
 10
26.16944622232492
 20
7.518556107688659
 10
26.17153828789274
 20
7.519478286077424
 10
26.17360186366975
 20
7.520429057368532
 10
26.17563598848517
 20
7.521408094939973
 10
26.17763980026819
 20
7.522415097075105
 10
26.1796125679252
 20
7.523449799565442
 10
26.18155372321701
 20
7.524511988313431
 10
26.183462892636
 20
7.525601511935232
 10
26.18533992928336
 20
7.526718294363512
 10
26.1871849398957
 20
7.527862363696907
 10
26.18899815994258
 20
7.529033977226142
 10
26.1907796678824
 20
7.530233369216363
 10
26.19252934410057
 20
7.531460586913455
 10
26.19424689658553
 20
7.532715509822795
 10
26.19593188683354
 20
7.53399787164214
 10
26.19758375575363
 20
7.535307282194517
 10
26.19920184957239
 20
7.536643249361105
 10
26.2007854457389
 20
7.53800520101415
 10
26.20233377882956
 20
7.539392506949827
 10
26.20384606645298
 20
7.540804500821153
 10
26.2053215351548
 20
7.542240502070861
 10
26.20675944632262
 20
7.543699837864306
 10
26.20815912209082
 20
7.545181865022342
 10
26.20951997124546
 20
7.546685991954222
 10
26.21084151512913
 20
7.548211700590482
 10
26.21212341354579
 20
7.549758568315843
 10
26.21336549066569
 20
7.551326289902081
 10
26.2145677609302
 20
7.552914699440948
 10
26.21573042298561
 20
7.554523842610937
 10
26.21685365970995
 20
7.556154011463655
 10
26.21793753583666
 20
7.557805342559622
 10
26.21898201554922
 20
7.559477748136313
 10
26.21998697721271
 20
7.561170943942591
 10
26.22095222810525
 20
7.562884477073549
 10
26.22187751914957
 20
7.564617753805342
 10
26.22276255964437
 20
7.566370067430039
 10
26.22360703199586
 20
7.568140626090449
 10
26.2244106064492
 20
7.569928580614967
 10
26.22517295582002
 20
7.571733052352414
 10
26.2258937702258
 20
7.573553161006878
 10
26.22657277181746
 20
7.575388052472547
 10
26.22720972951072
 20
7.577236926668554
 10
26.22780447371768
 20
7.579099065373813
 10
26.22835691107818
 20
7.580973860061862
 10
26.22886703919137
 20
7.582860839735698
 10
26.22933429302432
 20
7.584756986664555
 10
26.94512999999999
 20
10.63568599999999
 10
26.94512991234092
 20
10.6356863976059
 42
0.3562723122154672
 10
26.83366581839326
 20
10.86406085336665
 42
0.0783443552336359
 10
20.81628705752571
 20
12.47641436409185
 42
0.3724886020814316
 10
20.59543765621049
 20
12.31802091388583
  0
LWPOLYLINE
  5
29C7A
330
1F
100
AcDbEntity
  8
NOCUT
100
AcDbPolyline
 90
       11
 70
     1
 43
0.0
 10
25.90447895854878
 20
10.52604058590388
 42
-0.3398450870923981
 10
26.34999999999998
 20
9.946267999999999
 10
26.34999999999999
 20
0.0
 10
0.0
 20
0.0
 10
0.0
 20
10.5
 10
11.70845999999999
 20
10.5
 42
0.0523581447972931
 10
12.74705009375639
 20
10.60905626518245
 10
18.34999999999999
 20
11.8
 10
19.83347499999999
 20
11.79999999999999
 42
-0.0655434628152384
 10
22.4216654510252
 20
11.45925826289067
 10
22.42166499999999
 20
11.45925800000001
  0
MTEXT
  5
29CD0
330
1F
100
AcDbEntity
  8
SK6
100
AcDbMText
 10
-22.1329466264466
 20
-28.74221789481712
 30
0.0
 40
3.5
 41
49.98568165846803
 71
     1
 72
     1
  1
12M8D025027X7R00
  7
MM_STANDARD
 73
     1
 44
1.0
1001
ACAD
1000
MTEXTBEGIN
1070
    73
1070
     1
1070
    44
1040
1.0
1070
    74
1070
     0
1000
MTEXTEND
  0
ENDSEC
  0
SECTION
  2
OBJECTS
  0
DICTIONARY
  5
C
330
0
100
AcDbDictionary
281
     1
  3
ACAD_2007HEADERVARS_RT
350
29CD5
  3
ACAD_CIP_PREVIOUS_PRODUCT_INFO
350
741
  3
ACAD_COLOR
350
6C
  3
ACAD_DETAILVIEWSTYLE
350
8E4
  3
ACAD_GROUP
350
D
  3
ACAD_IMAGE_VARS
350
959
  3
ACAD_LAYOUT
350
1A
  3
ACAD_MATERIAL
350
6B
  3
ACAD_MLEADERSTYLE
350
43C
  3
ACAD_MLINESTYLE
350
17
  3
ACAD_PLOTSETTINGS
350
19
  3
ACAD_PLOTSTYLENAME
350
E
  3
ACAD_SCALELIST
350
99
  3
ACAD_SECTIONVIEWSTYLE
350
8E2
  3
ACAD_TABLESTYLE
350
92
  3
ACAD_VISUALSTYLE
350
3F2
  3
ACDB_RECOMPOSE_DATA
350
29CD3
  3
ACDBHEADERROUNDTRIPXREC
350
29C21
  3
AcDbVariableDictionary
350
59
  3
ACMDICTIONARY
350
76D
  3
AEC_PROPERTY_SET_DEFS
350
5CF
  3
AMG
350
743
  3
AMGSNAPSETTINGS
350
7F6
  3
APPDATA
350
958
  3
ASE_INDEX_DICTIONARY
350
8C6
  3
DWGPROPS
350
29CD4
  0
DICTIONARY
  5
29BCA
330
2
100
AcDbDictionary
280
     1
281
     1
  3
ACAD_LAYERFILTERS
360
6C6
  3
ACAD_LAYERSTATES
360
17C7
  3
ACLYDICTIONARY
360
6C5
  0
DICTIONARY
  5
29BC0
330
10
100
AcDbDictionary
280
     1
281
     1
  3
ADSK_XREC_LAYER_RECONCILED
360
904
  0
DICTIONARY
  5
29BC1
330
23
100
AcDbDictionary
280
     1
281
     1
  3
ADSK_XREC_LAYER_RECONCILED
360
905
  0
DICTIONARY
  5
29BC2
330
25
100
AcDbDictionary
280
     1
281
     1
  3
ADSK_XREC_LAYER_RECONCILED
360
907
  0
DICTIONARY
  5
29BC3
330
173A
100
AcDbDictionary
280
     1
281
     1
  3
ADSK_XREC_LAYER_RECONCILED
360
908
  0
DICTIONARY
  5
29BC4
330
2A
100
AcDbDictionary
280
     1
281
     1
  3
ADSK_XREC_LAYER_RECONCILED
360
90B
  0
DICTIONARY
  5
29BC5
330
2E
100
AcDbDictionary
280
     1
281
     1
  3
ADSK_XREC_LAYER_RECONCILED
360
90E
  0
DICTIONARY
  5
29BC6
330
375
100
AcDbDictionary
280
     1
281
     1
  3
ADSK_XREC_LAYER_RECONCILED
360
90F
  0
DICTIONARY
  5
29BC7
330
376
100
AcDbDictionary
280
     1
281
     1
  3
ADSK_XREC_LAYER_RECONCILED
360
910
  0
DICTIONARY
  5
29BC8
330
49B
100
AcDbDictionary
280
     1
281
     1
  3
ADSK_XREC_LAYER_RECONCILED
360
918
  0
DICTIONARY
  5
29C1E
330
1F
100
AcDbDictionary
280
     1
281
     1
  3
ACAD_SORTENTS
360
29C1F
  0
DICTIONARY
  5
29CD5
102
{ACAD_REACTORS
330
C
102
}
330
C
100
AcDbDictionary
281
     1
  3
DIMARCSYM
350
29CD6
  3
DIMLTEX1
350
29CD8
  3
DIMLTEX2
350
29CD9
  3
DIMLTYPE
350
29CD7
  0
XRECORD
  5
741
102
{ACAD_REACTORS
330
C
102
}
330
C
100
AcDbXrecord
280
     1
300
ACDLT
300
2015
300
ACDLT_F_S
  0
DICTIONARY
  5
6C
102
{ACAD_REACTORS
330
C
102
}
330
C
100
AcDbDictionary
281
     1
  0
DICTIONARY
  5
8E4
102
{ACAD_REACTORS
330
C
102
}
330
C
100
AcDbDictionary
281
     1
  3
Metric50
350
29C5D
  0
DICTIONARY
  5
D
102
{ACAD_REACTORS
330
C
102
}
330
C
100
AcDbDictionary
281
     1
  0
RASTERVARIABLES
  5
959
102
{ACAD_REACTORS
330
C
102
}
330
C
100
AcDbRasterVariables
 90
        0
 70
     1
 71
     1
 72
     1
  0
DICTIONARY
  5
1A
102
{ACAD_REACTORS
330
C
102
}
330
C
100
AcDbDictionary
281
     1
  3
Layout1
350
74
  3
Model
350
22
  0
DICTIONARY
  5
6B
102
{ACAD_REACTORS
330
C
102
}
330
C
100
AcDbDictionary
281
     1
  3
ByBlock
350
29C32
  3
ByLayer
350
29C2A
  3
Global
350
29C3A
  0
DICTIONARY
  5
43C
102
{ACAD_REACTORS
330
C
102
}
330
C
100
AcDbDictionary
281
     1
  3
Standard
350
29C5B
  0
DICTIONARY
  5
17
102
{ACAD_REACTORS
330
C
102
}
330
C
100
AcDbDictionary
281
     1
  3
Standard
350
18
  0
DICTIONARY
  5
19
102
{ACAD_REACTORS
330
C
102
}
330
C
100
AcDbDictionary
281
     1
  0
ACDBDICTIONARYWDFLT
  5
E
102
{ACAD_REACTORS
330
C
102
}
330
C
100
AcDbDictionary
281
     1
  3
Normal
350
F
100
AcDbDictionaryWithDefault
340
F
  0
DICTIONARY
  5
99
102
{ACAD_REACTORS
330
C
102
}
330
C
100
AcDbDictionary
281
     1
  3
A0
350
9A
  3
A1
350
9B
  3
A2
350
9C
  3
A3
350
9D
  3
A4
350
9E
  3
A5
350
9F
  3
A6
350
A0
  3
A7
350
A1
  3
A8
350
A2
  3
A9
350
A3
  3
B0
350
A4
  3
B1
350
A5
  3
B2
350
A6
  3
B3
350
A7
  3
B4
350
A8
  3
B5
350
A9
  3
B6
350
AA
  3
B7
350
AB
  3
B8
350
AC
  3
B9
350
AD
  3
C0
350
AE
  3
C1
350
AF
  3
C2
350
B0
  3
C3
350
B1
  3
C4
350
B2
  3
C5
350
B3
  3
C6
350
B4
  3
C7
350
B5
  3
C8
350
B6
  3
C9
350
B7
  3
D0
350
B8
  3
D1
350
B9
  3
D2
350
BA
  0
DICTIONARY
  5
8E2
102
{ACAD_REACTORS
330
C
102
}
330
C
100
AcDbDictionary
281
     1
  3
Metric50
350
29C5C
  0
DICTIONARY
  5
92
102
{ACAD_REACTORS
330
C
102
}
330
C
100
AcDbDictionary
281
     1
  3
Standard
350
29C5A
  0
DICTIONARY
  5
3F2
102
{ACAD_REACTORS
330
C
102
}
330
C
100
AcDbDictionary
281
     1
  3
2dWireframe
350
29C47
  3
Basic
350
29C46
  3
Brighten
350
29C4D
  3
ColorChange
350
29C51
  3
Conceptual
350
29C4A
  3
Dim
350
29C4C
  3
EdgeColorOff
350
29C59
  3
Facepattern
350
29C50
  3
Flat
350
29C42
  3
FlatWithEdges
350
29C43
  3
Gouraud
350
29C44
  3
GouraudWithEdges
350
29C45
  3
Hidden
350
29C49
  3
JitterOff
350
29C57
  3
Linepattern
350
29C4F
  3
OverhangOff
350
29C58
  3
Realistic
350
29C4B
  3
Shaded
350
29C56
  3
Shaded with edges
350
29C55
  3
Shades of Gray
350
29C52
  3
Sketchy
350
29C53
  3
Thicken
350
29C4E
  3
Wireframe
350
29C48
  3
X-Ray
350
29C54
  0
XRECORD
  5
29CD3
102
{ACAD_REACTORS
330
C
102
}
330
C
100
AcDbXrecord
280
     1
 90
        1
330
29C5A
  0
DICTIONARY
  5
29C21
102
{ACAD_REACTORS
330
C
102
}
330
C
100
AcDbDictionary
281
     1
  3
COLORDICT
350
29C22
  3
MATERIALDICT
350
29C23
  0
DICTIONARY
  5
59
102
{ACAD_REACTORS
330
C
102
}
330
C
100
AcDbDictionary
281
     1
  3
CANNOSCALE
350
29C20
  3
CMLEADERSTYLE
350
29C84
  3
CTABLESTYLE
350
98
  3
CVIEWDETAILSTYLE
350
8FB
  3
CVIEWSECTIONSTYLE
350
8FC
  3
DIMASSOC
350
359
  3
HALOGAP
350
AF7
  3
HIDETEXT
350
358
  3
INDEXCTL
350
9BE
  3
LAYEREVAL
350
7AE
  3
LAYERNOTIFY
350
7AF
  3
LIGHTINGUNITS
350
44A
  3
MSLTSCALE
350
448
  3
SORTENTS
350
9BD
  3
XCLIPFRAME
350
29CD1
  0
DICTIONARY
  5
76D
102
{ACAD_REACTORS
330
C
102
}
330
C
100
AcDbDictionary
281
     1
  3
ACMSTDDICTIONARY
350
76F
  0
DICTIONARY
  5
5CF
102
{ACAD_REACTORS
330
C
102
}
330
C
100
AcDbDictionary
281
     1
  0
DICTIONARY
  5
743
102
{ACAD_REACTORS
330
C
102
}
330
C
100
AcDbDictionary
281
     1
  3
ACMGSETTINGS
350
744
  0
DICTIONARY
  5
7F6
102
{ACAD_REACTORS
330
C
102
}
330
C
100
AcDbDictionary
281
     1
  0
DICTIONARY
  5
958
102
{ACAD_REACTORS
330
C
102
}
330
C
100
AcDbDictionary
281
     1
  0
DICTIONARY
  5
8C6
102
{ACAD_REACTORS
330
C
102
}
330
C
100
AcDbDictionary
281
     1
  3
ASEBLOCKHIERARCHYINDEXRECORD
350
8C7
  0
XRECORD
  5
29CD4
102
{ACAD_REACTORS
330
C
102
}
330
C
100
AcDbXrecord
280
     1
  1
DWGPROPS COOKIE
  2

  3

  4

  6

  7

  8
ruebsamenm
  9

300
=
301
=
302
=
303
=
304
=
305
=
306
=
307
=
308
=
309
=
 40
16384.70933489583
 41
2453353.800459155
 42
2460185.638274549
  1

 90
        0
  0
DICTIONARY
  5
6C6
102
{ACAD_REACTORS
330
29BCA
102
}
330
29BCA
100
AcDbDictionary
281
     1
  0
DICTIONARY
  5
17C7
102
{ACAD_REACTORS
330
29BCA
102
}
330
29BCA
100
AcDbDictionary
281
     1
  0
DICTIONARY
  5
6C5
102
{ACAD_REACTORS
330
29BCA
102
}
330
29BCA
100
AcDbDictionary
281
     1
  0
XRECORD
  5
904
102
{ACAD_REACTORS
330
29BC0
102
}
330
29BC0
100
AcDbXrecord
280
     1
290
     1
  0
XRECORD
  5
905
102
{ACAD_REACTORS
330
29BC1
102
}
330
29BC1
100
AcDbXrecord
280
     1
290
     1
  0
XRECORD
  5
907
102
{ACAD_REACTORS
330
29BC2
102
}
330
29BC2
100
AcDbXrecord
280
     1
290
     1
  0
XRECORD
  5
908
102
{ACAD_REACTORS
330
29BC3
102
}
330
29BC3
100
AcDbXrecord
280
     1
290
     1
  0
XRECORD
  5
90B
102
{ACAD_REACTORS
330
29BC4
102
}
330
29BC4
100
AcDbXrecord
280
     1
290
     1
  0
XRECORD
  5
90E
102
{ACAD_REACTORS
330
29BC5
102
}
330
29BC5
100
AcDbXrecord
280
     1
290
     1
  0
XRECORD
  5
90F
102
{ACAD_REACTORS
330
29BC6
102
}
330
29BC6
100
AcDbXrecord
280
     1
290
     1
  0
XRECORD
  5
910
102
{ACAD_REACTORS
330
29BC7
102
}
330
29BC7
100
AcDbXrecord
280
     1
290
     1
  0
XRECORD
  5
918
102
{ACAD_REACTORS
330
29BC8
102
}
330
29BC8
100
AcDbXrecord
280
     1
290
     1
  0
SORTENTSTABLE
  5
29C1F
102
{ACAD_REACTORS
330
29C1E
102
}
330
29C1E
100
AcDbSortentsTable
330
1F
331
12B2B
  5
12AA6
331
E217
  5
C437
331
1D6E2
  5
1D913
331
1C6B9
  5
1C393
331
C79F
  5
CC4B
331
1C740
  5
1C476
331
D590
  5
E217
331
1C393
  5
1C850
331
12C2B
  5
12BB6
331
C863
  5
D588
331
CC4F
  5
E102
331
1289D
  5
12C93
331
CA17
  5
DCBB
331
C377
  5
C863
331
DCBB
  5
E533
331
12B41
  5
12AAA
331
C935
  5
D8A3
331
1C1E5
  5
1C74E
331
DED7
  5
E6D6
331
1C7C7
  5
1C54E
331
12BB5
  5
12B40
331
C652
  5
CA16
331
CB29
  5
DECF
331
C255
  5
C2E1
331
1C3A1
  5
1C851
331
1D913
  5
1D920
331
1C1E8
  5
1C7C7
331
E102
  5
C79F
331
12C17
  5
12BB5
331
C65C
  5
CA17
331
12A1A
  5
1299A
331
CC4B
  5
DED7
331
C533
  5
C935
331
E105
  5
C7A3
331
12C93
  5
12C2B
331
1D6D5
  5
1D6E2
331
1C54F
  5
1C6B9
331
12A1D
  5
1299D
331
1C476
  5
1C6C7
331
D8A3
  5
E32B
331
C437
  5
C934
331
12895
  5
12C8B
331
E438
  5
C652
331
C536
  5
CA12
331
1289C
  5
12C92
331
1DA40
  5
1D6D5
331
CA16
  5
DAF5
331
DAF2
  5
E438
331
CB25
  5
DCBF
331
1C632
  5
1C1E5
331
29C72
  5
2927D
331
C42D
  5
C930
331
C258
  5
C2E4
331
DECF
  5
E6D2
331
12B40
  5
12AA7
331
C934
  5
D89C
331
C178
  5
C255
331
DAF5
  5
E441
331
D588
  5
E20E
331
12AA7
  5
12A1A
331
C85B
  5
CC50
331
E537
  5
C182
331
29C7A
  5
29486
331
E6D6
  5
CB29
331
D89C
  5
E328
331
1C484
  5
1C740
331
1C851
  5
1C632
331
C182
  5
C258
331
12AAA
  5
12A1D
331
1299A
  5
12895
331
12C16
  5
12BA1
331
12A19
  5
1289D
331
12C92
  5
12C17
331
CA12
  5
DAF2
331
1299D
  5
1289C
331
1C54E
  5
1C640
331
C2E1
  5
C36E
331
C930
  5
D590
331
E533
  5
C178
331
E20E
  5
C42D
331
1C640
  5
1C1E8
331
E6D2
  5
CB25
331
1C74E
  5
1C484
331
CC50
  5
E105
331
12C8B
  5
12C16
331
C2E4
  5
C377
331
12AA6
  5
12A19
331
E441
  5
C65C
331
C7A3
  5
CC4F
331
E328
  5
C533
331
1D920
  5
1DA40
331
12BA1
  5
12B2B
331
1C850
  5
1C54F
331
12BB6
  5
12B41
331
1C6C7
  5
1C3A1
331
C36E
  5
C85B
331
DCBF
  5
E537
331
E32B
  5
C536
  0
XRECORD
  5
29CD6
102
{ACAD_REACTORS
330
29CD5
102
}
330
29CD5
100
AcDbXrecord
280
     1
 70
     1
  0
XRECORD
  5
29CD8
102
{ACAD_REACTORS
330
29CD5
102
}
330
29CD5
100
AcDbXrecord
280
     1
340
14
  0
XRECORD
  5
29CD9
102
{ACAD_REACTORS
330
29CD5
102
}
330
29CD5
100
AcDbXrecord
280
     1
340
14
  0
XRECORD
  5
29CD7
102
{ACAD_REACTORS
330
29CD5
102
}
330
29CD5
100
AcDbXrecord
280
     1
340
14
  0
ACDBDETAILVIEWSTYLE
  5
29C5D
102
{ACAD_XDICTIONARY
360
29D11
102
}
102
{ACAD_REACTORS
330
8E4
102
}
330
8E4
100
AcDbModelDocViewStyle
 70
     0
  3
Metric50
290
     0
100
AcDbDetailViewStyle
 70
     0
 71
     0
 90
        3
 71
     1
340
11
 40
5.0
340
0
 40
5.0
300

 40
0.0
280
     1
 71
     2
340
16
 90
       25
 71
     3
340
11
 40
5.0
 90
        0
 40
15.0
 90
        1
300
%<\AcVar ViewDetailId>% (%<\AcVar ViewScale \f "%sn">%)
 71
     4
340
16
 90
       25
340
16
 90
       25
280
     0
  0
LAYOUT
  5
74
102
{ACAD_XDICTIONARY
360
29CDC
102
}
102
{ACAD_REACTORS
330
1A
102
}
330
1A
100
AcDbPlotSettings
  1

  2
\\ADSCCNDC1\hq601xrx1
  4

  6

 40
0.0
 41
0.0
 42
0.0
 43
0.0
 44
0.0
 45
0.0
 46
0.0
 47
0.0
 48
0.0
 49
0.0
140
0.0
141
0.0
142
1.0
143
1.0
 70
   688
 72
     0
 73
     0
 74
     5
  7
monochrome.ctb
 75
    16
147
1.0
148
0.0
149
0.0
100
AcDbLayout
  1
Layout1
 70
     1
 71
     1
 10
0.0
 20
0.0
 11
12.0
 21
9.0
 12
0.0
 22
0.0
 32
0.0
 14
0.0
 24
0.0
 34
0.0
 15
0.0
 25
0.0
 35
0.0
146
0.0
 13
0.0
 23
0.0
 33
0.0
 16
1.0
 26
0.0
 36
0.0
 17
0.0
 27
1.0
 37
0.0
 76
     0
330
73
  0
LAYOUT
  5
22
102
{ACAD_XDICTIONARY
360
29CDA
102
}
102
{ACAD_REACTORS
330
1A
102
}
330
1A
100
AcDbPlotSettings
  1

  2
DWG To PDF.pc3
  4
ISO_expand_A0_(841.00_x_1189.00_MM)
  6

 40
5.793749809265137
 41
5.79376220703125
 42
10.79374980926514
 43
10.793701171875
 44
841.0
 45
1189.0
 46
-0.0000000000000213
 47
277.0515806674957
 48
0.0
 49
0.0
140
0.0
141
0.0
142
1.0
143
0.0145558200469394
 70
 11956
 72
     1
 73
     0
 74
     1
  7
monochrome.ctb
 75
     0
147
68.70104169845581
148
70.55856307424345
149
1453.505808791571
100
AcDbLayout
  1
Model
 70
     1
 71
     0
 10
-170.0
 20
-170.0
 11
519.0
 21
260.0
 12
0.0
 22
0.0
 32
0.0
 14
-72.11472452489497
 24
-49.49375433501508
 34
0.0
 15
73.14495271972269
 25
54.28162022488457
 35
0.0
146
0.0
 13
0.0
 23
0.0
 33
0.0
 16
1.0
 26
0.0
 36
0.0
 17
0.0
 27
1.0
 37
0.0
 76
     0
330
1F
331
97
  0
MATERIAL
  5
29C32
102
{ACAD_XDICTIONARY
360
29C33
102
}
102
{ACAD_REACTORS
330
6B
102
}
330
6B
100
AcDbMaterial
  1
ByBlock
 72
     0
 43
0.0008202099737533
 43
0.0
 43
0.0
 43
0.0
 43
0.0
 43
0.0008202099737533
 43
0.0
 43
0.0
 43
0.0
 43
0.0
 43
1.0
 43
0.0
 43
0.0
 43
0.0
 43
0.0
 43
1.0
 77
     0
 47
0.0008202099737533
 47
0.0
 47
0.0
 47
0.0
 47
0.0
 47
0.0008202099737533
 47
0.0
 47
0.0
 47
0.0
 47
0.0
 47
1.0
 47
0.0
 47
0.0
 47
0.0
 47
0.0
 47
1.0
171
     0
 49
0.0008202099737533
 49
0.0
 49
0.0
 49
0.0
 49
0.0
 49
0.0008202099737533
 49
0.0
 49
0.0
 49
0.0
 49
0.0
 49
1.0
 49
0.0
 49
0.0
 49
0.0
 49
0.0
 49
1.0
175
     0
142
0.0008202099737533
142
0.0
142
0.0
142
0.0
142
0.0
142
0.0008202099737533
142
0.0
142
0.0
142
0.0
142
0.0
142
1.0
142
0.0
142
0.0
142
0.0
142
0.0
142
1.0
179
     0
144
0.0008202099737533
144
0.0
144
0.0
144
0.0
144
0.0
144
0.0008202099737533
144
0.0
144
0.0
144
0.0
144
0.0
144
1.0
144
0.0
144
0.0
144
0.0
144
0.0
144
1.0
147
0.0008202099737533
147
0.0
147
0.0
147
0.0
147
0.0
147
0.0008202099737533
147
0.0
147
0.0
147
0.0
147
0.0
147
1.0
147
0.0
147
0.0
147
0.0
147
0.0
147
1.0
  0
MATERIAL
  5
29C2A
102
{ACAD_XDICTIONARY
360
29C2B
102
}
102
{ACAD_REACTORS
330
6B
102
}
330
6B
100
AcDbMaterial
  1
ByLayer
 72
     0
 43
0.0008202099737533
 43
0.0
 43
0.0
 43
0.0
 43
0.0
 43
0.0008202099737533
 43
0.0
 43
0.0
 43
0.0
 43
0.0
 43
1.0
 43
0.0
 43
0.0
 43
0.0
 43
0.0
 43
1.0
 77
     0
 47
0.0008202099737533
 47
0.0
 47
0.0
 47
0.0
 47
0.0
 47
0.0008202099737533
 47
0.0
 47
0.0
 47
0.0
 47
0.0
 47
1.0
 47
0.0
 47
0.0
 47
0.0
 47
0.0
 47
1.0
171
     0
 49
0.0008202099737533
 49
0.0
 49
0.0
 49
0.0
 49
0.0
 49
0.0008202099737533
 49
0.0
 49
0.0
 49
0.0
 49
0.0
 49
1.0
 49
0.0
 49
0.0
 49
0.0
 49
0.0
 49
1.0
175
     0
142
0.0008202099737533
142
0.0
142
0.0
142
0.0
142
0.0
142
0.0008202099737533
142
0.0
142
0.0
142
0.0
142
0.0
142
1.0
142
0.0
142
0.0
142
0.0
142
0.0
142
1.0
179
     0
144
0.0008202099737533
144
0.0
144
0.0
144
0.0
144
0.0
144
0.0008202099737533
144
0.0
144
0.0
144
0.0
144
0.0
144
1.0
144
0.0
144
0.0
144
0.0
144
0.0
144
1.0
147
0.0008202099737533
147
0.0
147
0.0
147
0.0
147
0.0
147
0.0008202099737533
147
0.0
147
0.0
147
0.0
147
0.0
147
1.0
147
0.0
147
0.0
147
0.0
147
0.0
147
1.0
  0
MATERIAL
  5
29C3A
102
{ACAD_XDICTIONARY
360
29C3B
102
}
102
{ACAD_REACTORS
330
6B
102
}
330
6B
100
AcDbMaterial
  1
Global
 72
     0
 43
0.0008202099737533
 43
0.0
 43
0.0
 43
0.0
 43
0.0
 43
0.0008202099737533
 43
0.0
 43
0.0
 43
0.0
 43
0.0
 43
1.0
 43
0.0
 43
0.0
 43
0.0
 43
0.0
 43
1.0
 77
     0
 47
0.0008202099737533
 47
0.0
 47
0.0
 47
0.0
 47
0.0
 47
0.0008202099737533
 47
0.0
 47
0.0
 47
0.0
 47
0.0
 47
1.0
 47
0.0
 47
0.0
 47
0.0
 47
0.0
 47
1.0
171
     0
 49
0.0008202099737533
 49
0.0
 49
0.0
 49
0.0
 49
0.0
 49
0.0008202099737533
 49
0.0
 49
0.0
 49
0.0
 49
0.0
 49
1.0
 49
0.0
 49
0.0
 49
0.0
 49
0.0
 49
1.0
175
     0
142
0.0008202099737533
142
0.0
142
0.0
142
0.0
142
0.0
142
0.0008202099737533
142
0.0
142
0.0
142
0.0
142
0.0
142
1.0
142
0.0
142
0.0
142
0.0
142
0.0
142
1.0
179
     0
144
0.0008202099737533
144
0.0
144
0.0
144
0.0
144
0.0
144
0.0008202099737533
144
0.0
144
0.0
144
0.0
144
0.0
144
1.0
144
0.0
144
0.0
144
0.0
144
0.0
144
1.0
147
0.0008202099737533
147
0.0
147
0.0
147
0.0
147
0.0
147
0.0008202099737533
147
0.0
147
0.0
147
0.0
147
0.0
147
1.0
147
0.0
147
0.0
147
0.0
147
0.0
147
1.0
  0
MLEADERSTYLE
  5
29C5B
102
{ACAD_REACTORS
330
43C
102
}
330
43C
100
AcDbMLeaderStyle
170
     2
171
     1
172
     0
 90
        2
 40
0.0
 41
0.0
173
     1
 91
-1056964608
340
14
 92
       -2
290
     1
 42
2.0
291
     1
 43
0.36
  3
Standard
 44
4.0
300

342
11
174
     1
178
     6
175
     1
176
     0
 93
-1056964608
 45
4.0
292
     0
297
     0
 46
4.0
 94
-1056964608
 47
1.0
 49
1.0
140
1.0
293
     1
141
0.0
294
     1
177
     0
142
1.0
295
     0
296
     0
143
0.125
1001
ACAD_MLEADERVER
1070
     2
  0
MLINESTYLE
  5
18
102
{ACAD_REACTORS
330
17
102
}
330
17
100
AcDbMlineStyle
  2
STANDARD
 70
     0
  3

 62
     0
 51
90.0
 52
90.0
 71
     2
 49
0.5
 62
   256
  6
BYLAYER
 49
-0.5
 62
   256
  6
BYLAYER
  0
ACDBPLACEHOLDER
  5
F
102
{ACAD_REACTORS
330
E
102
}
330
E
  0
SCALE
  5
9A
102
{ACAD_REACTORS
330
99
102
}
330
99
100
AcDbScale
 70
     0
300
1:1
140
1.0
141
1.0
290
     1
  0
SCALE
  5
9B
102
{ACAD_REACTORS
330
99
102
}
330
99
100
AcDbScale
 70
     0
300
1:2
140
1.0
141
2.0
290
     0
  0
SCALE
  5
9C
102
{ACAD_REACTORS
330
99
102
}
330
99
100
AcDbScale
 70
     0
300
1:4
140
1.0
141
4.0
290
     0
  0
SCALE
  5
9D
102
{ACAD_REACTORS
330
99
102
}
330
99
100
AcDbScale
 70
     0
300
1:5
140
1.0
141
5.0
290
     0
  0
SCALE
  5
9E
102
{ACAD_REACTORS
330
99
102
}
330
99
100
AcDbScale
 70
     0
300
1:8
140
1.0
141
8.0
290
     0
  0
SCALE
  5
9F
102
{ACAD_REACTORS
330
99
102
}
330
99
100
AcDbScale
 70
     0
300
1:10
140
1.0
141
10.0
290
     0
  0
SCALE
  5
A0
102
{ACAD_REACTORS
330
99
102
}
330
99
100
AcDbScale
 70
     0
300
1:16
140
1.0
141
16.0
290
     0
  0
SCALE
  5
A1
102
{ACAD_REACTORS
330
99
102
}
330
99
100
AcDbScale
 70
     0
300
1:20
140
1.0
141
20.0
290
     0
  0
SCALE
  5
A2
102
{ACAD_REACTORS
330
99
102
}
330
99
100
AcDbScale
 70
     0
300
1:30
140
1.0
141
30.0
290
     0
  0
SCALE
  5
A3
102
{ACAD_REACTORS
330
99
102
}
330
99
100
AcDbScale
 70
     0
300
1:40
140
1.0
141
40.0
290
     0
  0
SCALE
  5
A4
102
{ACAD_REACTORS
330
99
102
}
330
99
100
AcDbScale
 70
     0
300
1:50
140
1.0
141
50.0
290
     0
  0
SCALE
  5
A5
102
{ACAD_REACTORS
330
99
102
}
330
99
100
AcDbScale
 70
     0
300
1:100
140
1.0
141
100.0
290
     0
  0
SCALE
  5
A6
102
{ACAD_REACTORS
330
99
102
}
330
99
100
AcDbScale
 70
     0
300
2:1
140
2.0
141
1.0
290
     0
  0
SCALE
  5
A7
102
{ACAD_REACTORS
330
99
102
}
330
99
100
AcDbScale
 70
     0
300
4:1
140
4.0
141
1.0
290
     0
  0
SCALE
  5
A8
102
{ACAD_REACTORS
330
99
102
}
330
99
100
AcDbScale
 70
     0
300
8:1
140
8.0
141
1.0
290
     0
  0
SCALE
  5
A9
102
{ACAD_REACTORS
330
99
102
}
330
99
100
AcDbScale
 70
     0
300
10:1
140
10.0
141
1.0
290
     0
  0
SCALE
  5
AA
102
{ACAD_REACTORS
330
99
102
}
330
99
100
AcDbScale
 70
     0
300
100:1
140
100.0
141
1.0
290
     0
  0
SCALE
  5
AB
102
{ACAD_REACTORS
330
99
102
}
330
99
100
AcDbScale
 70
     0
300
1/128" = 1'-0"
140
0.0078125
141
12.0
290
     0
  0
SCALE
  5
AC
102
{ACAD_REACTORS
330
99
102
}
330
99
100
AcDbScale
 70
     0
300
1/64" = 1'-0"
140
0.015625
141
12.0
290
     0
  0
SCALE
  5
AD
102
{ACAD_REACTORS
330
99
102
}
330
99
100
AcDbScale
 70
     0
300
1/32" = 1'-0"
140
0.03125
141
12.0
290
     0
  0
SCALE
  5
AE
102
{ACAD_REACTORS
330
99
102
}
330
99
100
AcDbScale
 70
     0
300
1/16" = 1'-0"
140
0.0625
141
12.0
290
     0
  0
SCALE
  5
AF
102
{ACAD_REACTORS
330
99
102
}
330
99
100
AcDbScale
 70
     0
300
3/32" = 1'-0"
140
0.09375
141
12.0
290
     0
  0
SCALE
  5
B0
102
{ACAD_REACTORS
330
99
102
}
330
99
100
AcDbScale
 70
     0
300
1/8" = 1'-0"
140
0.125
141
12.0
290
     0
  0
SCALE
  5
B1
102
{ACAD_REACTORS
330
99
102
}
330
99
100
AcDbScale
 70
     0
300
3/16" = 1'-0"
140
0.1875
141
12.0
290
     0
  0
SCALE
  5
B2
102
{ACAD_REACTORS
330
99
102
}
330
99
100
AcDbScale
 70
     0
300
1/4" = 1'-0"
140
0.25
141
12.0
290
     0
  0
SCALE
  5
B3
102
{ACAD_REACTORS
330
99
102
}
330
99
100
AcDbScale
 70
     0
300
3/8" = 1'-0"
140
0.375
141
12.0
290
     0
  0
SCALE
  5
B4
102
{ACAD_REACTORS
330
99
102
}
330
99
100
AcDbScale
 70
     0
300
1/2" = 1'-0"
140
0.5
141
12.0
290
     0
  0
SCALE
  5
B5
102
{ACAD_REACTORS
330
99
102
}
330
99
100
AcDbScale
 70
     0
300
3/4" = 1'-0"
140
0.75
141
12.0
290
     0
  0
SCALE
  5
B6
102
{ACAD_REACTORS
330
99
102
}
330
99
100
AcDbScale
 70
     0
300
1" = 1'-0"
140
1.0
141
12.0
290
     0
  0
SCALE
  5
B7
102
{ACAD_REACTORS
330
99
102
}
330
99
100
AcDbScale
 70
     0
300
1-1/2" = 1'-0"
140
1.5
141
12.0
290
     0
  0
SCALE
  5
B8
102
{ACAD_REACTORS
330
99
102
}
330
99
100
AcDbScale
 70
     0
300
3" = 1'-0"
140
3.0
141
12.0
290
     0
  0
SCALE
  5
B9
102
{ACAD_REACTORS
330
99
102
}
330
99
100
AcDbScale
 70
     0
300
6" = 1'-0"
140
6.0
141
12.0
290
     0
  0
SCALE
  5
BA
102
{ACAD_REACTORS
330
99
102
}
330
99
100
AcDbScale
 70
     0
300
1'-0" = 1'-0"
140
12.0
141
12.0
290
     0
  0
ACDBSECTIONVIEWSTYLE
  5
29C5C
102
{ACAD_XDICTIONARY
360
29D0F
102
}
102
{ACAD_REACTORS
330
8E2
102
}
330
8E2
100
AcDbModelDocViewStyle
 70
     0
  3
Metric50
290
     0
100
AcDbSectionViewStyle
 70
     0
 71
     0
 90
      102
 71
     1
340
11
 40
5.0
340
0
340
0
 40
5.0
300
I, O, Q, S, X, Z
 40
10.0
 90
        0
 40
2.5
 90
        0
 71
     2
340
16
 90
       25
340
16
 90
       50
 40
5.0
 40
2.5
 40
5.0
 71
     3
340
11
 40
5.0
 90
        0
 40
15.0
 90
        1
300
%<\AcVar ViewSectionStartId>%-%<\AcVar ViewSectionEndId>% (%<\AcVar ViewScale \f "%sn">%)
 71
     4
300
ANSI31
 40
1.0
 90
        0
290
     0
290
     0
 90
        6
 40
0.0
 40
1.570796326794896
 40
0.2617993877991494
 40
1.308996938995747
 40
-0.2617993877991494
 40
1.832595714594045
  0
TABLESTYLE
  5
29C5A
102
{ACAD_XDICTIONARY
360
29C86
102
}
102
{ACAD_REACTORS
330
92
102
}
330
92
100
AcDbTableStyle
  3
Standard
 70
     0
 71
     0
 40
1.5
 41
1.5
280
     0
281
     0
  7
Standard
140
4.5
170
     2
 62
     0
 63
     7
283
     0
274
    -2
284
     1
 64
     0
275
    -2
285
     1
 65
     0
276
    -2
286
     1
 66
     0
277
    -2
287
     1
 67
     0
278
    -2
288
     1
 68
     0
279
    -2
289
     1
 69
     0
  7
Standard
140
6.0
170
     5
 62
     0
 63
     7
283
     0
274
    -2
284
     1
 64
     0
275
    -2
285
     1
 65
     0
276
    -2
286
     1
 66
     0
277
    -2
287
     1
 67
     0
278
    -2
288
     1
 68
     0
279
    -2
289
     1
 69
     0
  7
Standard
140
4.5
170
     5
 62
     0
 63
     7
283
     0
274
    -2
284
     1
 64
     0
275
    -2
285
     1
 65
     0
276
    -2
286
     1
 66
     0
277
    -2
287
     1
 67
     0
278
    -2
288
     1
 68
     0
279
    -2
289
     1
 69
     0
  0
VISUALSTYLE
  5
29C47
102
{ACAD_XDICTIONARY
360
29CE8
102
}
102
{ACAD_REACTORS
330
3F2
102
}
330
3F2
100
AcDbVisualStyle
  2

 70
     4
 71
     0
 72
     2
 73
     0
 90
        0
 40
-0.6
 41
-30.0
 62
     5
 63
     7
 74
     1
 91
        4
 64
     7
 65
   257
 75
     1
175
     1
 42
1.0
 92
        0
 66
   257
 43
1.0
 76
     1
 77
     6
 78
     2
 67
     7
 79
     5
170
     0
171
     0
290
     0
174
     0
 93
        1
 44
0.0
173
     0
291
     0
 45
0.0
1001
ACAD
1000
AcDbSavedByObjectVersion
1070
     0
  0
VISUALSTYLE
  5
29C46
102
{ACAD_XDICTIONARY
360
29CE6
102
}
102
{ACAD_REACTORS
330
3F2
102
}
330
3F2
100
AcDbVisualStyle
  2

 70
     7
 71
     1
 72
     0
 73
     1
 90
        0
 40
-0.6
 41
-30.0
 62
     5
 63
     7
 74
     0
 91
        4
 64
     7
 65
   257
 75
     1
175
     1
 42
1.0
 92
        8
 66
     7
 43
1.0
 76
     1
 77
     6
 78
     2
 67
     7
 79
     5
170
     0
171
     0
290
     0
174
     0
 93
        1
 44
0.0
173
     0
291
     1
 45
0.0
1001
ACAD
1000
AcDbSavedByObjectVersion
1070
     0
  0
VISUALSTYLE
  5
29C4D
102
{ACAD_XDICTIONARY
360
29CF4
102
}
102
{ACAD_REACTORS
330
3F2
102
}
330
3F2
100
AcDbVisualStyle
  2

 70
    12
 71
     2
 72
     2
 73
     0
 90
        0
 40
-0.6
 41
-30.0
 62
     5
 63
     7
 74
     1
 91
        4
 64
     7
 65
   257
 75
     1
175
     1
 42
1.0
 92
        8
 66
     7
 43
1.0
 76
     1
 77
     6
 78
     2
 67
     7
 79
     5
170
     0
171
     0
290
     0
174
     0
 93
        1
 44
50.0
173
     0
291
     1
 45
0.0
1001
ACAD
1000
AcDbSavedByObjectVersion
1070
     0
  0
VISUALSTYLE
  5
29C51
102
{ACAD_XDICTIONARY
360
29CFC
102
}
102
{ACAD_REACTORS
330
3F2
102
}
330
3F2
100
AcDbVisualStyle
  2

 70
    16
 71
     2
 72
     2
 73
     3
 90
        0
 40
-0.6
 41
-30.0
 62
     5
 63
     8
 74
     1
 91
        4
 64
     7
 65
   257
 75
     1
175
     1
 42
1.0
 92
        8
 66
     8
 43
1.0
 76
     1
 77
     6
 78
     2
 67
     7
 79
     5
170
     0
171
     0
290
     0
174
     0
 93
        1
 44
0.0
173
     0
291
     1
 45
0.0
1001
ACAD
1000
AcDbSavedByObjectVersion
1070
     0
  0
VISUALSTYLE
  5
29C4A
102
{ACAD_XDICTIONARY
360
29CEE
102
}
102
{ACAD_REACTORS
330
3F2
102
}
330
3F2
100
AcDbVisualStyle
  2

 70
     9
 71
     3
 72
     2
 73
     0
 90
        0
 40
-0.6
 41
-30.0
 62
     5
 63
     7
 74
     2
 91
        2
 64
     7
 65
   257
 75
     1
175
     1
 42
179.0
 92
        8
 66
     7
 43
1.0
 76
     1
 77
     6
 78
     2
 67
     7
 79
     3
170
     0
171
     0
290
     0
174
     0
 93
        1
 44
0.0
173
     0
291
     0
 45
0.0
1001
ACAD
1000
AcDbSavedByObjectVersion
1070
     0
  0
VISUALSTYLE
  5
29C4C
102
{ACAD_XDICTIONARY
360
29CF2
102
}
102
{ACAD_REACTORS
330
3F2
102
}
330
3F2
100
AcDbVisualStyle
  2

 70
    11
 71
     2
 72
     2
 73
     0
 90
        0
 40
-0.6
 41
-30.0
 62
     5
 63
     7
 74
     1
 91
        4
 64
     7
 65
   257
 75
     1
175
     1
 42
1.0
 92
        8
 66
     7
 43
1.0
 76
     1
 77
     6
 78
     2
 67
     7
 79
     5
170
     0
171
     0
290
     0
174
     0
 93
        1
 44
-50.0
173
     0
291
     1
 45
0.0
1001
ACAD
1000
AcDbSavedByObjectVersion
1070
     0
  0
VISUALSTYLE
  5
29C59
102
{ACAD_XDICTIONARY
360
29D0C
102
}
102
{ACAD_REACTORS
330
3F2
102
}
330
3F2
100
AcDbVisualStyle
  2

 70
    22
 71
     2
 72
     2
 73
     0
 90
        0
 40
-0.6
 41
-30.0
 62
     5
 63
     7
 74
     1
 91
        4
 64
     7
 65
   257
 75
     1
175
     1
 42
1.0
 92
        8
 66
     7
 43
1.0
 76
     1
 77
     6
 78
     2
 67
     7
 79
     5
170
     0
171
     0
290
     0
174
     0
 93
        1
 44
0.0
173
     0
291
     1
 45
0.0
1001
ACAD
1000
AcDbSavedByObjectVersion
1070
     0
  0
VISUALSTYLE
  5
29C50
102
{ACAD_XDICTIONARY
360
29CFA
102
}
102
{ACAD_REACTORS
330
3F2
102
}
330
3F2
100
AcDbVisualStyle
  2

 70
    15
 71
     2
 72
     2
 73
     0
 90
        0
 40
-0.6
 41
-30.0
 62
     5
 63
     7
 74
     1
 91
        4
 64
     7
 65
   257
 75
     1
175
     1
 42
1.0
 92
        8
 66
     7
 43
1.0
 76
     1
 77
     6
 78
     2
 67
     7
 79
     5
170
     0
171
     0
290
     0
174
     0
 93
        1
 44
0.0
173
     0
291
     1
 45
0.0
1001
ACAD
1000
AcDbSavedByObjectVersion
1070
     0
  0
VISUALSTYLE
  5
29C42
102
{ACAD_XDICTIONARY
360
29CDE
102
}
102
{ACAD_REACTORS
330
3F2
102
}
330
3F2
100
AcDbVisualStyle
  2

 70
     0
 71
     2
 72
     1
 73
     1
 90
        2
 40
-0.6
 41
30.0
 62
     5
 63
     7
 74
     0
 91
        0
 64
     7
 65
   257
 75
     1
175
     1
 42
1.0
 92
        8
 66
     7
 43
1.0
 76
     1
 77
     6
 78
     2
 67
     7
 79
     5
170
     0
171
     0
290
     0
174
     0
 93
       13
 44
0.0
173
     0
291
     1
 45
0.0
1001
ACAD
1000
AcDbSavedByObjectVersion
1070
     0
  0
VISUALSTYLE
  5
29C43
102
{ACAD_XDICTIONARY
360
29CE0
102
}
102
{ACAD_REACTORS
330
3F2
102
}
330
3F2
100
AcDbVisualStyle
  2

 70
     1
 71
     2
 72
     1
 73
     1
 90
        2
 40
-0.6
 41
30.0
 62
     5
 63
     7
 74
     1
 91
        0
 64
     7
 65
   257
 75
     1
175
     1
 42
1.0
 92
        0
 66
   257
 43
1.0
 76
     1
 77
     6
 78
     2
 67
     7
 79
     5
170
     0
171
     0
290
     0
174
     0
 93
       13
 44
0.0
173
     0
291
     1
 45
0.0
1001
ACAD
1000
AcDbSavedByObjectVersion
1070
     0
  0
VISUALSTYLE
  5
29C44
102
{ACAD_XDICTIONARY
360
29CE2
102
}
102
{ACAD_REACTORS
330
3F2
102
}
330
3F2
100
AcDbVisualStyle
  2

 70
     2
 71
     2
 72
     2
 73
     1
 90
        2
 40
-0.6
 41
30.0
 62
     5
 63
     7
 74
     0
 91
        0
 64
     7
 65
   257
 75
     1
175
     1
 42
1.0
 92
        0
 66
     7
 43
1.0
 76
     1
 77
     6
 78
     2
 67
     7
 79
     5
170
     0
171
     0
290
     0
174
     0
 93
       13
 44
0.0
173
     0
291
     1
 45
0.0
1001
ACAD
1000
AcDbSavedByObjectVersion
1070
     0
  0
VISUALSTYLE
  5
29C45
102
{ACAD_XDICTIONARY
360
29CE4
102
}
102
{ACAD_REACTORS
330
3F2
102
}
330
3F2
100
AcDbVisualStyle
  2

 70
     3
 71
     2
 72
     2
 73
     1
 90
        2
 40
-0.6
 41
30.0
 62
     5
 63
     7
 74
     1
 91
        0
 64
     7
 65
   257
 75
     1
175
     1
 42
1.0
 92
        0
 66
   257
 43
1.0
 76
     1
 77
     6
 78
     2
 67
     7
 79
     5
170
     0
171
     0
290
     0
174
     0
 93
       13
 44
0.0
173
     0
291
     1
 45
0.0
1001
ACAD
1000
AcDbSavedByObjectVersion
1070
     0
  0
VISUALSTYLE
  5
29C49
102
{ACAD_XDICTIONARY
360
29CEC
102
}
102
{ACAD_REACTORS
330
3F2
102
}
330
3F2
100
AcDbVisualStyle
  2

 70
     6
 71
     1
 72
     2
 73
     2
 90
        0
 40
-0.6
 41
-30.0
 62
     5
 63
     7
 74
     2
 91
        2
 64
     7
 65
   257
 75
     2
175
     1
 42
40.0
 92
        0
 66
   257
 43
1.0
 76
     1
 77
     6
 78
     2
 67
     7
 79
     3
170
     0
171
     0
290
     0
174
     0
 93
        1
 44
0.0
173
     0
291
     0
 45
0.0
1001
ACAD
1000
AcDbSavedByObjectVersion
1070
     0
  0
VISUALSTYLE
  5
29C57
102
{ACAD_XDICTIONARY
360
29D08
102
}
102
{ACAD_REACTORS
330
3F2
102
}
330
3F2
100
AcDbVisualStyle
  2

 70
    20
 71
     2
 72
     2
 73
     0
 90
        0
 40
-0.6
 41
-30.0
 62
     5
 63
     7
 74
     1
 91
        4
 64
     7
 65
   257
 75
     1
175
     1
 42
1.0
 92
       10
 66
     7
 43
1.0
 76
     1
 77
     6
 78
     2
 67
     7
 79
     5
170
     0
171
     0
290
     0
174
     0
 93
        1
 44
0.0
173
     0
291
     1
 45
0.0
1001
ACAD
1000
AcDbSavedByObjectVersion
1070
     0
  0
VISUALSTYLE
  5
29C4F
102
{ACAD_XDICTIONARY
360
29CF8
102
}
102
{ACAD_REACTORS
330
3F2
102
}
330
3F2
100
AcDbVisualStyle
  2

 70
    14
 71
     2
 72
     2
 73
     0
 90
        0
 40
-0.6
 41
-30.0
 62
     5
 63
     7
 74
     1
 91
        4
 64
     7
 65
   257
 75
     7
175
     7
 42
1.0
 92
        8
 66
     7
 43
1.0
 76
     1
 77
     6
 78
     2
 67
     7
 79
     5
170
     0
171
     0
290
     0
174
     0
 93
        1
 44
0.0
173
     0
291
     1
 45
0.0
1001
ACAD
1000
AcDbSavedByObjectVersion
1070
     0
  0
VISUALSTYLE
  5
29C58
102
{ACAD_XDICTIONARY
360
29D0A
102
}
102
{ACAD_REACTORS
330
3F2
102
}
330
3F2
100
AcDbVisualStyle
  2

 70
    21
 71
     2
 72
     2
 73
     0
 90
        0
 40
-0.6
 41
-30.0
 62
     5
 63
     7
 74
     1
 91
        4
 64
     7
 65
   257
 75
     1
175
     1
 42
1.0
 92
        9
 66
     7
 43
1.0
 76
     1
 77
     6
 78
     2
 67
     7
 79
     5
170
     0
171
     0
290
     0
174
     0
 93
        1
 44
0.0
173
     0
291
     1
 45
0.0
1001
ACAD
1000
AcDbSavedByObjectVersion
1070
     0
  0
VISUALSTYLE
  5
29C4B
102
{ACAD_XDICTIONARY
360
29CF0
102
}
102
{ACAD_REACTORS
330
3F2
102
}
330
3F2
100
AcDbVisualStyle
  2

 70
     8
 71
     2
 72
     3
 73
     0
 90
        2
 40
-0.6
 41
30.0
 62
     5
 63
     7
 74
     0
 91
        0
 64
     7
 65
   257
 75
     1
175
     1
 42
1.0
 92
        8
 66
   257
 43
1.0
 76
     1
 77
     6
 78
     2
 67
     7
 79
     3
170
     0
171
     0
290
     0
174
     0
 93
       13
 44
0.0
173
     0
291
     0
 45
0.0
1001
ACAD
1000
AcDbSavedByObjectVersion
1070
     0
  0
VISUALSTYLE
  5
29C56
102
{ACAD_XDICTIONARY
360
29D06
102
}
102
{ACAD_REACTORS
330
3F2
102
}
330
3F2
100
AcDbVisualStyle
  2

 70
    27
 71
     2
 72
     2
 73
     1
 90
        2
 40
-0.6
 41
30.0
 62
     5
 63
     7
 74
     0
 91
        4
 64
     7
 65
   257
 75
     1
175
     1
 42
1.0
 92
        8
 66
   257
 43
1.0
 76
     1
 77
     6
 78
     2
 67
     8
 79
     3
170
     0
171
     0
290
     0
174
     0
 93
        5
 44
0.0
173
     0
291
     0
 45
0.0
1001
ACAD
1000
AcDbSavedByObjectVersion
1070
     0
  0
VISUALSTYLE
  5
29C55
102
{ACAD_XDICTIONARY
360
29D04
102
}
102
{ACAD_REACTORS
330
3F2
102
}
330
3F2
100
AcDbVisualStyle
  2

 70
    26
 71
     2
 72
     2
 73
     1
 90
        2
 40
-0.6
 41
30.0
 62
     5
 63
     7
 74
     1
 91
        2
 64
     7
 65
   257
 75
     2
175
     1
 42
1.0
 92
        8
 66
   257
 43
1.0
 76
     1
 77
     6
 78
     2
 67
     7
 79
     3
170
     0
171
     0
290
     0
174
     0
 93
        5
 44
0.0
173
     0
291
     0
 45
0.0
1001
ACAD
1000
AcDbSavedByObjectVersion
1070
     0
  0
VISUALSTYLE
  5
29C52
102
{ACAD_XDICTIONARY
360
29CFE
102
}
102
{ACAD_REACTORS
330
3F2
102
}
330
3F2
100
AcDbVisualStyle
  2

 70
    23
 71
     2
 72
     2
 73
     3
 90
        0
 40
-0.6
 41
-30.0
 62
     5
 63
     7
 74
     2
 91
        2
 64
     7
 65
     7
 75
     1
175
     1
 42
40.0
 92
        8
 66
     7
 43
1.0
 76
     1
 77
     6
 78
     2
 67
     7
 79
     3
170
     0
171
     0
290
     0
174
     0
 93
        1
 44
0.0
173
     0
291
     0
 45
0.0
1001
ACAD
1000
AcDbSavedByObjectVersion
1070
     0
  0
VISUALSTYLE
  5
29C53
102
{ACAD_XDICTIONARY
360
29D00
102
}
102
{ACAD_REACTORS
330
3F2
102
}
330
3F2
100
AcDbVisualStyle
  2

 70
    24
 71
     1
 72
     2
 73
     2
 90
        0
 40
-0.6
 41
-30.0
 62
     5
 63
     7
 74
     2
 91
        2
 64
     7
 65
     7
 75
     1
175
     1
 42
40.0
 92
       11
 66
     7
 43
1.0
 76
     1
 77
     6
 78
     2
 67
     7
 79
     6
170
     0
171
     0
290
     0
174
     0
 93
        1
 44
0.0
173
     0
291
     0
 45
0.0
1001
ACAD
1000
AcDbSavedByObjectVersion
1070
     0
  0
VISUALSTYLE
  5
29C4E
102
{ACAD_XDICTIONARY
360
29CF6
102
}
102
{ACAD_REACTORS
330
3F2
102
}
330
3F2
100
AcDbVisualStyle
  2

 70
    13
 71
     2
 72
     2
 73
     0
 90
        0
 40
-0.6
 41
-30.0
 62
     5
 63
     7
 74
     1
 91
        4
 64
     7
 65
   257
 75
     1
175
     1
 42
1.0
 92
       12
 66
     7
 43
1.0
 76
     1
 77
     6
 78
     2
 67
     7
 79
     5
170
     0
171
     0
290
     0
174
     0
 93
        1
 44
0.0
173
     0
291
     1
 45
0.0
1001
ACAD
1000
AcDbSavedByObjectVersion
1070
     0
  0
VISUALSTYLE
  5
29C48
102
{ACAD_XDICTIONARY
360
29CEA
102
}
102
{ACAD_REACTORS
330
3F2
102
}
330
3F2
100
AcDbVisualStyle
  2

 70
     5
 71
     0
 72
     2
 73
     0
 90
        0
 40
-0.6
 41
-30.0
 62
     5
 63
     7
 74
     1
 91
        4
 64
     7
 65
   257
 75
     1
175
     1
 42
1.0
 92
        0
 66
   257
 43
1.0
 76
     1
 77
     6
 78
     2
 67
     7
 79
     3
170
     0
171
     0
290
     0
174
     0
 93
        1
 44
0.0
173
     0
291
     0
 45
0.0
1001
ACAD
1000
AcDbSavedByObjectVersion
1070
     0
  0
VISUALSTYLE
  5
29C54
102
{ACAD_XDICTIONARY
360
29D02
102
}
102
{ACAD_REACTORS
330
3F2
102
}
330
3F2
100
AcDbVisualStyle
  2

 70
    25
 71
     2
 72
     2
 73
     1
 90
        1
 40
0.5
 41
-30.0
 62
     5
 63
     7
 74
     1
 91
        0
 64
     7
 65
   257
 75
     1
175
     1
 42
1.0
 92
        8
 66
     7
 43
1.0
 76
     1
 77
     6
 78
     2
 67
     7
 79
     3
170
     0
171
     0
290
     0
174
     0
 93
       13
 44
0.0
173
     0
291
     0
 45
0.0
1001
ACAD
1000
AcDbSavedByObjectVersion
1070
     0
  0
XRECORD
  5
29C22
102
{ACAD_REACTORS
330
29C21
102
}
330
29C21
100
AcDbXrecord
280
     1
340
6C
  0
XRECORD
  5
29C23
102
{ACAD_REACTORS
330
29C21
102
}
330
29C21
100
AcDbXrecord
280
     1
340
6B
  0
DICTIONARYVAR
  5
29C20
102
{ACAD_REACTORS
330
59
102
}
330
59
100
DictionaryVariables
280
     0
  1
1:1
  0
DICTIONARYVAR
  5
29C84
102
{ACAD_REACTORS
330
59
102
}
330
59
100
DictionaryVariables
280
     0
  1
STANDARD
  0
DICTIONARYVAR
  5
98
102
{ACAD_REACTORS
330
59
102
}
330
59
100
DictionaryVariables
280
     0
  1
STANDARD
  0
DICTIONARYVAR
  5
8FB
102
{ACAD_REACTORS
330
59
102
}
330
59
100
DictionaryVariables
280
     0
  1
Metric50
  0
DICTIONARYVAR
  5
8FC
102
{ACAD_REACTORS
330
59
102
}
330
59
100
DictionaryVariables
280
     0
  1
Metric50
  0
DICTIONARYVAR
  5
359
102
{ACAD_REACTORS
330
59
102
}
330
59
100
DictionaryVariables
280
     0
  1
2
  0
DICTIONARYVAR
  5
AF7
102
{ACAD_REACTORS
330
59
102
}
330
59
100
DictionaryVariables
280
     0
  1
0
  0
DICTIONARYVAR
  5
358
102
{ACAD_REACTORS
330
59
102
}
330
59
100
DictionaryVariables
280
     0
  1
1
  0
DICTIONARYVAR
  5
9BE
102
{ACAD_REACTORS
330
59
102
}
330
59
100
DictionaryVariables
280
     0
  1
0
  0
DICTIONARYVAR
  5
7AE
102
{ACAD_REACTORS
330
59
102
}
330
59
100
DictionaryVariables
280
     0
  1
1
  0
DICTIONARYVAR
  5
7AF
102
{ACAD_REACTORS
330
59
102
}
330
59
100
DictionaryVariables
280
     0
  1
15
  0
DICTIONARYVAR
  5
44A
102
{ACAD_REACTORS
330
59
102
}
330
59
100
DictionaryVariables
280
     0
  1
0
  0
DICTIONARYVAR
  5
448
102
{ACAD_REACTORS
330
59
102
}
330
59
100
DictionaryVariables
280
     0
  1
1
  0
DICTIONARYVAR
  5
9BD
102
{ACAD_REACTORS
330
59
102
}
330
59
100
DictionaryVariables
280
     0
  1
127
  0
DICTIONARYVAR
  5
29CD1
102
{ACAD_REACTORS
330
59
102
}
330
59
100
DictionaryVariables
280
     0
  1
2
  0
DICTIONARY
  5
76F
102
{ACAD_REACTORS
330
76D
102
}
330
76D
100
AcDbDictionary
281
     1
  0
DICTIONARY
  5
744
102
{ACAD_REACTORS
330
743
102
}
330
743
100
AcDbDictionary
281
     1
  0
XRECORD
  5
8C7
102
{ACAD_REACTORS
330
8C6
102
}
330
8C6
100
AcDbXrecord
280
     1
  0
DICTIONARY
  5
29D11
330
29C5D
100
AcDbDictionary
280
     1
281
     1
  3
ACAD_XREC_ROUNDTRIP
360
29D12
  0
DICTIONARY
  5
29CDC
330
74
100
AcDbDictionary
280
     1
281
     1
  3
ACAD_XREC_ROUNDTRIP
360
29CDD
  0
DICTIONARY
  5
29CDA
330
22
100
AcDbDictionary
280
     1
281
     1
  3
ACAD_XREC_ROUNDTRIP
360
29CDB
  0
DICTIONARY
  5
29C33
330
29C32
100
AcDbDictionary
280
     1
281
     1
  3
ACAD_XREC_ROUNDTRIP
360
29C94
  3
BUMPTILE
360
29C35
  3
DIFFUSETILE
360
29C34
  3
OPACITYTILE
360
29C38
  3
REFLECTIONTILE
360
29C37
  3
REFRACTIONTILE
360
29C39
  3
SPECULARTILE
360
29C36
  0
DICTIONARY
  5
29C2B
330
29C2A
100
AcDbDictionary
280
     1
281
     1
  3
ACAD_XREC_ROUNDTRIP
360
29C93
  3
BUMPTILE
360
29C2D
  3
DIFFUSETILE
360
29C2C
  3
OPACITYTILE
360
29C30
  3
REFLECTIONTILE
360
29C2F
  3
REFRACTIONTILE
360
29C31
  3
SPECULARTILE
360
29C2E
  0
DICTIONARY
  5
29C3B
330
29C3A
100
AcDbDictionary
280
     1
281
     1
  3
ACAD_XREC_ROUNDTRIP
360
29C95
  3
BUMPTILE
360
29C3D
  3
DIFFUSETILE
360
29C3C
  3
OPACITYTILE
360
29C40
  3
REFLECTIONTILE
360
29C3F
  3
REFRACTIONTILE
360
29C41
  3
SPECULARTILE
360
29C3E
  0
DICTIONARY
  5
29D0F
330
29C5C
100
AcDbDictionary
280
     1
281
     1
  3
ACAD_XREC_ROUNDTRIP
360
29D10
  0
DICTIONARY
  5
29C86
330
29C5A
100
AcDbDictionary
280
     1
281
     1
  3
ACAD_ROUNDTRIP_2008_TABLESTYLE_CELLSTYLEMAP
360
29CD2
  3
ACAD_XREC_ROUNDTRIP
360
29D0E
  0
DICTIONARY
  5
29CE8
330
29C47
100
AcDbDictionary
280
     1
281
     1
  3
ACAD_XREC_ROUNDTRIP
360
29CE9
  0
DICTIONARY
  5
29CE6
330
29C46
100
AcDbDictionary
280
     1
281
     1
  3
ACAD_XREC_ROUNDTRIP
360
29CE7
  0
DICTIONARY
  5
29CF4
330
29C4D
100
AcDbDictionary
280
     1
281
     1
  3
ACAD_XREC_ROUNDTRIP
360
29CF5
  0
DICTIONARY
  5
29CFC
330
29C51
100
AcDbDictionary
280
     1
281
     1
  3
ACAD_XREC_ROUNDTRIP
360
29CFD
  0
DICTIONARY
  5
29CEE
330
29C4A
100
AcDbDictionary
280
     1
281
     1
  3
ACAD_XREC_ROUNDTRIP
360
29CEF
  0
DICTIONARY
  5
29CF2
330
29C4C
100
AcDbDictionary
280
     1
281
     1
  3
ACAD_XREC_ROUNDTRIP
360
29CF3
  0
DICTIONARY
  5
29D0C
330
29C59
100
AcDbDictionary
280
     1
281
     1
  3
ACAD_XREC_ROUNDTRIP
360
29D0D
  0
DICTIONARY
  5
29CFA
330
29C50
100
AcDbDictionary
280
     1
281
     1
  3
ACAD_XREC_ROUNDTRIP
360
29CFB
  0
DICTIONARY
  5
29CDE
330
29C42
100
AcDbDictionary
280
     1
281
     1
  3
ACAD_XREC_ROUNDTRIP
360
29CDF
  0
DICTIONARY
  5
29CE0
330
29C43
100
AcDbDictionary
280
     1
281
     1
  3
ACAD_XREC_ROUNDTRIP
360
29CE1
  0
DICTIONARY
  5
29CE2
330
29C44
100
AcDbDictionary
280
     1
281
     1
  3
ACAD_XREC_ROUNDTRIP
360
29CE3
  0
DICTIONARY
  5
29CE4
330
29C45
100
AcDbDictionary
280
     1
281
     1
  3
ACAD_XREC_ROUNDTRIP
360
29CE5
  0
DICTIONARY
  5
29CEC
330
29C49
100
AcDbDictionary
280
     1
281
     1
  3
ACAD_XREC_ROUNDTRIP
360
29CED
  0
DICTIONARY
  5
29D08
330
29C57
100
AcDbDictionary
280
     1
281
     1
  3
ACAD_XREC_ROUNDTRIP
360
29D09
  0
DICTIONARY
  5
29CF8
330
29C4F
100
AcDbDictionary
280
     1
281
     1
  3
ACAD_XREC_ROUNDTRIP
360
29CF9
  0
DICTIONARY
  5
29D0A
330
29C58
100
AcDbDictionary
280
     1
281
     1
  3
ACAD_XREC_ROUNDTRIP
360
29D0B
  0
DICTIONARY
  5
29CF0
330
29C4B
100
AcDbDictionary
280
     1
281
     1
  3
ACAD_XREC_ROUNDTRIP
360
29CF1
  0
DICTIONARY
  5
29D06
330
29C56
100
AcDbDictionary
280
     1
281
     1
  3
ACAD_XREC_ROUNDTRIP
360
29D07
  0
DICTIONARY
  5
29D04
330
29C55
100
AcDbDictionary
280
     1
281
     1
  3
ACAD_XREC_ROUNDTRIP
360
29D05
  0
DICTIONARY
  5
29CFE
330
29C52
100
AcDbDictionary
280
     1
281
     1
  3
ACAD_XREC_ROUNDTRIP
360
29CFF
  0
DICTIONARY
  5
29D00
330
29C53
100
AcDbDictionary
280
     1
281
     1
  3
ACAD_XREC_ROUNDTRIP
360
29D01
  0
DICTIONARY
  5
29CF6
330
29C4E
100
AcDbDictionary
280
     1
281
     1
  3
ACAD_XREC_ROUNDTRIP
360
29CF7
  0
DICTIONARY
  5
29CEA
330
29C48
100
AcDbDictionary
280
     1
281
     1
  3
ACAD_XREC_ROUNDTRIP
360
29CEB
  0
DICTIONARY
  5
29D02
330
29C54
100
AcDbDictionary
280
     1
281
     1
  3
ACAD_XREC_ROUNDTRIP
360
29D03
  0
XRECORD
  5
29D12
102
{ACAD_REACTORS
330
29D11
102
}
330
29D11
100
AcDbXrecord
280
     1
102
DISPLAYNAME
  1
Metric50
102
FLAGS
 90
        0
  0
XRECORD
  5
29CDD
102
{ACAD_REACTORS
330
29CDC
102
}
330
29CDC
100
AcDbXrecord
280
     1
102
SHADEPLOT
 70
     0
102
SHADEPLOTRESLEVEL
 70
     2
102
SHADEPLOTCUSTOMDPI
 70
   300
  0
XRECORD
  5
29CDB
102
{ACAD_REACTORS
330
29CDA
102
}
330
29CDA
100
AcDbXrecord
280
     1
102
SHADEPLOT
 70
     0
102
SHADEPLOTRESLEVEL
 70
     4
102
SHADEPLOTCUSTOMDPI
 70
   300
  0
XRECORD
  5
29C94
102
{ACAD_REACTORS
330
29C33
102
}
330
29C33
100
AcDbXrecord
280
     1
102
MATERIAL
148
0.0
149
0.0
149
0.0
 93
        0
 94
      127
282
     0
 72
     0
 77
     0
171
     0
175
     0
179
     0
273
     0
  0
XRECORD
  5
29C35
102
{ACAD_REACTORS
330
29C33
102
}
330
29C33
100
AcDbXrecord
280
     1
270
     1
271
     1
  0
XRECORD
  5
29C34
102
{ACAD_REACTORS
330
29C33
102
}
330
29C33
100
AcDbXrecord
280
     1
270
     1
271
     1
  0
XRECORD
  5
29C38
102
{ACAD_REACTORS
330
29C33
102
}
330
29C33
100
AcDbXrecord
280
     1
270
     1
271
     1
  0
XRECORD
  5
29C37
102
{ACAD_REACTORS
330
29C33
102
}
330
29C33
100
AcDbXrecord
280
     1
270
     1
271
     1
  0
XRECORD
  5
29C39
102
{ACAD_REACTORS
330
29C33
102
}
330
29C33
100
AcDbXrecord
280
     1
270
     1
271
     1
  0
XRECORD
  5
29C36
102
{ACAD_REACTORS
330
29C33
102
}
330
29C33
100
AcDbXrecord
280
     1
270
     1
271
     1
  0
XRECORD
  5
29C93
102
{ACAD_REACTORS
330
29C2B
102
}
330
29C2B
100
AcDbXrecord
280
     1
102
MATERIAL
148
0.0
149
0.0
149
0.0
 93
        0
 94
      127
282
     0
 72
     0
 77
     0
171
     0
175
     0
179
     0
273
     0
  0
XRECORD
  5
29C2D
102
{ACAD_REACTORS
330
29C2B
102
}
330
29C2B
100
AcDbXrecord
280
     1
270
     1
271
     1
  0
XRECORD
  5
29C2C
102
{ACAD_REACTORS
330
29C2B
102
}
330
29C2B
100
AcDbXrecord
280
     1
270
     1
271
     1
  0
XRECORD
  5
29C30
102
{ACAD_REACTORS
330
29C2B
102
}
330
29C2B
100
AcDbXrecord
280
     1
270
     1
271
     1
  0
XRECORD
  5
29C2F
102
{ACAD_REACTORS
330
29C2B
102
}
330
29C2B
100
AcDbXrecord
280
     1
270
     1
271
     1
  0
XRECORD
  5
29C31
102
{ACAD_REACTORS
330
29C2B
102
}
330
29C2B
100
AcDbXrecord
280
     1
270
     1
271
     1
  0
XRECORD
  5
29C2E
102
{ACAD_REACTORS
330
29C2B
102
}
330
29C2B
100
AcDbXrecord
280
     1
270
     1
271
     1
  0
XRECORD
  5
29C95
102
{ACAD_REACTORS
330
29C3B
102
}
330
29C3B
100
AcDbXrecord
280
     1
102
MATERIAL
148
0.0
149
0.0
149
0.0
 93
        0
 94
      127
282
     0
 72
     0
 77
     0
171
     0
175
     0
179
     0
273
     0
  0
XRECORD
  5
29C3D
102
{ACAD_REACTORS
330
29C3B
102
}
330
29C3B
100
AcDbXrecord
280
     1
270
     1
271
     1
  0
XRECORD
  5
29C3C
102
{ACAD_REACTORS
330
29C3B
102
}
330
29C3B
100
AcDbXrecord
280
     1
270
     1
271
     1
  0
XRECORD
  5
29C40
102
{ACAD_REACTORS
330
29C3B
102
}
330
29C3B
100
AcDbXrecord
280
     1
270
     1
271
     1
  0
XRECORD
  5
29C3F
102
{ACAD_REACTORS
330
29C3B
102
}
330
29C3B
100
AcDbXrecord
280
     1
270
     1
271
     1
  0
XRECORD
  5
29C41
102
{ACAD_REACTORS
330
29C3B
102
}
330
29C3B
100
AcDbXrecord
280
     1
270
     1
271
     1
  0
XRECORD
  5
29C3E
102
{ACAD_REACTORS
330
29C3B
102
}
330
29C3B
100
AcDbXrecord
280
     1
270
     1
271
     1
  0
XRECORD
  5
29D10
102
{ACAD_REACTORS
330
29D0F
102
}
330
29D0F
100
AcDbXrecord
280
     1
102
DISPLAYNAME
  1
Metric50
102
FLAGS
 90
        0
  0
CELLSTYLEMAP
  5
29CD2
102
{ACAD_REACTORS
330
29C86
102
}
330
29C86
100
AcDbCellStyleMap
 90
        3
300
CELLSTYLE
  1
TABLEFORMAT_BEGIN
 90
        5
170
     1
 91
        0
 92
    32768
 62
   257
 93
        1
300
CONTENTFORMAT
  1
CONTENTFORMAT_BEGIN
 90
        0
 91
        0
 92
      512
 93
        0
300

 40
0.0
140
1.0
 94
        5
 62
     0
340
11
144
6.0
309
CONTENTFORMAT_END
171
     1
301
MARGIN
  1
CELLMARGIN_BEGIN
 40
1.5
 40
1.5
 40
1.5
 40
1.5
 40
0.18
 40
0.18
309
CELLMARGIN_END
 94
        6
 95
        1
302
GRIDFORMAT
  1
GRIDFORMAT_BEGIN
 90
        0
 91
        1
 62
     0
 92
       -2
340
0
 93
        0
 40
1.125
309
GRIDFORMAT_END
 95
        2
302
GRIDFORMAT
  1
GRIDFORMAT_BEGIN
 90
        0
 91
        1
 62
     0
 92
       -2
340
0
 93
        0
 40
1.125
309
GRIDFORMAT_END
 95
        4
302
GRIDFORMAT
  1
GRIDFORMAT_BEGIN
 90
        0
 91
        1
 62
     0
 92
       -2
340
0
 93
        0
 40
1.125
309
GRIDFORMAT_END
 95
        8
302
GRIDFORMAT
  1
GRIDFORMAT_BEGIN
 90
        0
 91
        1
 62
     0
 92
       -2
340
0
 93
        0
 40
1.125
309
GRIDFORMAT_END
 95
       16
302
GRIDFORMAT
  1
GRIDFORMAT_BEGIN
 90
        0
 91
        1
 62
     0
 92
       -2
340
0
 93
        0
 40
1.125
309
GRIDFORMAT_END
 95
       32
302
GRIDFORMAT
  1
GRIDFORMAT_BEGIN
 90
        0
 91
        1
 62
     0
 92
       -2
340
0
 93
        0
 40
1.125
309
GRIDFORMAT_END
309
TABLEFORMAT_END
  1
CELLSTYLE_BEGIN
 90
        1
 91
        1
300
_TITLE
309
CELLSTYLE_END
300
CELLSTYLE
  1
TABLEFORMAT_BEGIN
 90
        5
170
     1
 91
        0
 92
        0
 62
   257
 93
        1
300
CONTENTFORMAT
  1
CONTENTFORMAT_BEGIN
 90
        0
 91
        0
 92
      512
 93
        0
300

 40
0.0
140
1.0
 94
        5
 62
     0
340
11
144
4.5
309
CONTENTFORMAT_END
171
     1
301
MARGIN
  1
CELLMARGIN_BEGIN
 40
1.5
 40
1.5
 40
1.5
 40
1.5
 40
0.18
 40
0.18
309
CELLMARGIN_END
 94
        6
 95
        1
302
GRIDFORMAT
  1
GRIDFORMAT_BEGIN
 90
        0
 91
        1
 62
     0
 92
       -2
340
0
 93
        0
 40
1.125
309
GRIDFORMAT_END
 95
        2
302
GRIDFORMAT
  1
GRIDFORMAT_BEGIN
 90
        0
 91
        1
 62
     0
 92
       -2
340
0
 93
        0
 40
1.125
309
GRIDFORMAT_END
 95
        4
302
GRIDFORMAT
  1
GRIDFORMAT_BEGIN
 90
        0
 91
        1
 62
     0
 92
       -2
340
0
 93
        0
 40
1.125
309
GRIDFORMAT_END
 95
        8
302
GRIDFORMAT
  1
GRIDFORMAT_BEGIN
 90
        0
 91
        1
 62
     0
 92
       -2
340
0
 93
        0
 40
1.125
309
GRIDFORMAT_END
 95
       16
302
GRIDFORMAT
  1
GRIDFORMAT_BEGIN
 90
        0
 91
        1
 62
     0
 92
       -2
340
0
 93
        0
 40
1.125
309
GRIDFORMAT_END
 95
       32
302
GRIDFORMAT
  1
GRIDFORMAT_BEGIN
 90
        0
 91
        1
 62
     0
 92
       -2
340
0
 93
        0
 40
1.125
309
GRIDFORMAT_END
309
TABLEFORMAT_END
  1
CELLSTYLE_BEGIN
 90
        2
 91
        1
300
_HEADER
309
CELLSTYLE_END
300
CELLSTYLE
  1
TABLEFORMAT_BEGIN
 90
        5
170
     1
 91
        0
 92
        0
 62
   257
 93
        1
300
CONTENTFORMAT
  1
CONTENTFORMAT_BEGIN
 90
        0
 91
        0
 92
      512
 93
        0
300

 40
0.0
140
1.0
 94
        2
 62
     0
340
11
144
4.5
309
CONTENTFORMAT_END
171
     1
301
MARGIN
  1
CELLMARGIN_BEGIN
 40
1.5
 40
1.5
 40
1.5
 40
1.5
 40
0.18
 40
0.18
309
CELLMARGIN_END
 94
        6
 95
        1
302
GRIDFORMAT
  1
GRIDFORMAT_BEGIN
 90
        0
 91
        1
 62
     0
 92
       -2
340
0
 93
        0
 40
1.125
309
GRIDFORMAT_END
 95
        2
302
GRIDFORMAT
  1
GRIDFORMAT_BEGIN
 90
        0
 91
        1
 62
     0
 92
       -2
340
0
 93
        0
 40
1.125
309
GRIDFORMAT_END
 95
        4
302
GRIDFORMAT
  1
GRIDFORMAT_BEGIN
 90
        0
 91
        1
 62
     0
 92
       -2
340
0
 93
        0
 40
1.125
309
GRIDFORMAT_END
 95
        8
302
GRIDFORMAT
  1
GRIDFORMAT_BEGIN
 90
        0
 91
        1
 62
     0
 92
       -2
340
0
 93
        0
 40
1.125
309
GRIDFORMAT_END
 95
       16
302
GRIDFORMAT
  1
GRIDFORMAT_BEGIN
 90
        0
 91
        1
 62
     0
 92
       -2
340
0
 93
        0
 40
1.125
309
GRIDFORMAT_END
 95
       32
302
GRIDFORMAT
  1
GRIDFORMAT_BEGIN
 90
        0
 91
        1
 62
     0
 92
       -2
340
0
 93
        0
 40
1.125
309
GRIDFORMAT_END
309
TABLEFORMAT_END
  1
CELLSTYLE_BEGIN
 90
        3
 91
        2
300
_DATA
309
CELLSTYLE_END
  0
XRECORD
  5
29D0E
102
{ACAD_REACTORS
330
29C86
102
}
330
29C86
100
AcDbXrecord
280
     1
102
ACAD_ROUNDTRIP_PRE2007_TABLESTYLE
 90
      512
 91
        0
  1

 92
      512
 93
        0
  2

 94
      512
 95
        0
  3

  0
XRECORD
  5
29CE9
102
{ACAD_REACTORS
330
29CE8
102
}
330
29CE8
100
AcDbXrecord
280
     1
102
RTVSPost2010Prop28
280
     1
102
RTVSPost2010PropOp28
 70
     1
102
RTVSPost2010Prop29
280
     1
102
RTVSPost2010PropOp29
 70
     1
102
RTVSPost2010Prop30
280
     0
102
RTVSPost2010PropOp30
 70
     1
102
RTVSPost2010Prop31
280
     0
102
RTVSPost2010PropOp31
 70
     1
102
RTVSPost2010Prop32
280
     0
102
RTVSPost2010PropOp32
 70
     1
102
RTVSPost2010Prop33
280
     0
102
RTVSPost2010PropOp33
 70
     1
102
RTVSPost2010Prop34
280
     0
102
RTVSPost2010PropOp34
 70
     1
102
RTVSPost2010Prop35
280
     0
102
RTVSPost2010PropOp35
 70
     1
102
RTVSPost2010Prop36
280
     0
102
RTVSPost2010PropOp36
 70
     1
102
RTVSPost2010Prop37
 90
       50
102
RTVSPost2010PropOp37
 70
     1
102
RTVSPost2010Prop38
140
0.0
102
RTVSPost2010PropOp38
 70
     1
102
RTVSPost2010Prop39
140
1.0
102
RTVSPost2010PropOp39
 70
     1
102
RTVSPost2010Prop40
 90
        0
102
RTVSPost2010PropOp40
 70
     1
102
RTVSPost2010Prop41ColorIndex
 90
       18
102
RTVSPost2010Prop41ColorRGB
 90
        0
102
RTVSPost2010PropOp41
 70
     1
102
RTVSPost2010Prop42
 90
       50
102
RTVSPost2010PropOp42
 70
     1
102
RTVSPost2010Prop43
 90
        3
102
RTVSPost2010PropOp43
 70
     1
102
RTVSPost2010Prop44ColorIndex
 90
        5
102
RTVSPost2010Prop44ColorRGB
 90
      255
102
RTVSPost2010PropOp44
 70
     1
102
RTVSPost2010Prop45
280
     0
102
RTVSPost2010PropOp45
 70
     1
102
RTVSPost2010Prop46
 90
       50
102
RTVSPost2010PropOp46
 70
     1
102
RTVSPost2010Prop47
 90
       50
102
RTVSPost2010PropOp47
 70
     1
102
RTVSPost2010Prop48
 90
       50
102
RTVSPost2010PropOp48
 70
     1
102
RTVSPost2010Prop49
280
     0
102
RTVSPost2010PropOp49
 70
     1
102
RTVSPost2010Prop50
 90
       50
102
RTVSPost2010PropOp50
 70
     1
102
RTVSPost2010Prop51ColorIndex
 90
      256
102
RTVSPost2010Prop51ColorRGB
 90
-16777216
102
RTVSPost2010PropOp51
 70
     0
102
RTVSPost2010Prop52
140
1.0
102
RTVSPost2010PropOp52
 70
     0
102
RTVSPost2010Prop53
 90
        2
102
RTVSPost2010PropOp53
 70
     1
102
RTVSPost2010Prop54
  1
strokes_ogs.tif
102
RTVSPost2010PropOp54
 70
     1
102
RTVSPost2010Prop55
280
     0
102
RTVSPost2010PropOp55
 70
     1
102
RTVSPost2010Prop56
140
1.0
102
RTVSPost2010PropOp56
 70
     1
102
RTVSPost2010Prop57
140
1.0
102
RTVSPost2010PropOp57
 70
     1
102
RTVSPropertyOp0
 70
     1
102
RTVSPropertyOp1
 70
     1
102
RTVSPropertyOp2
 70
     1
102
RTVSPropertyOp3
 70
     1
102
RTVSPropertyOp4
 70
     1
102
RTVSPropertyOp5
 70
     1
102
RTVSPropertyOp6
 70
     1
102
RTVSPropertyOp7
 70
     1
102
RTVSPropertyOp8
 70
     1
102
RTVSPropertyOp9
 70
     1
102
RTVSPropertyOp10
 70
     1
102
RTVSPropertyOp11
 70
     1
102
RTVSPropertyOp12
 70
     1
102
RTVSPropertyOp13
 70
     1
102
RTVSPropertyOp14
 70
     1
102
RTVSPropertyOp15
 70
     1
102
RTVSPropertyOp16
 70
     1
102
RTVSPropertyOp17
 70
     1
102
RTVSPropertyOp18
 70
     1
102
RTVSPropertyOp19
 70
     1
102
RTVSPropertyOp20
 70
     1
102
RTVSPropertyOp21
 70
     1
102
RTVSPropertyOp22
 70
     1
102
RTVSPropertyOp23
 70
     1
102
RTVSPropertyOp24
 70
     1
102
RTVSPropertyOp25
 70
     1
102
RTVSPropertyOp26
 70
     1
102
RTVSPropertyOp27
 70
     1
102
RTVSPropertyOp28
 70
     1
102
RTVSPropertyOp29
 70
     1
102
RTVSPropertyOp30
 70
     1
102
RTVSPropertyOp31
 70
     1
102
RTVSPropertyOp32
 70
     1
102
RTVSPropertyOp33
 70
     1
102
RTVSPropertyOp34
 70
     1
102
RTVSPropertyOp35
 70
     1
102
RTVSPropertyOp36
 70
     1
102
RTVSPropertyOp37
 70
     1
102
RTVSPropertyOp38
 70
     1
102
RTVSPropertyOp39
 70
     1
102
RTVSPropertyOp40
 70
     1
102
RTVSPropertyOp41
 70
     1
102
RTVSPropertyOp42
 70
     1
102
RTVSPropertyOp43
 70
     1
102
RTVSPropertyOp44
 70
     1
102
RTVSPropertyOp45
 70
     1
102
RTVSPropertyOp46
 70
     1
102
RTVSPropertyOp47
 70
     1
102
RTVSPropertyOp48
 70
     1
102
RTVSPropertyOp49
 70
     1
102
RTVSPropertyOp50
 70
     1
102
RTVSPropertyOp51
 70
     0
102
RTVSPropertyOp52
 70
     0
102
RTVSPropertyOp53
 70
     1
102
RTVSPropertyOp54
 70
     1
102
RTVSPropertyOp55
 70
     1
102
RTVSPropertyOp56
 70
     1
102
RTVSPropertyOp57
 70
     1
102
RTVSPropertyOp58
 70
     1
102
RTVSPropertyOp59
 70
     1
102
RTVSPropertyOp60
 70
     1
102
RTVSPropertyOp61
 70
     1
102
RTVSPropertyOp62
 70
     1
  0
XRECORD
  5
29CE7
102
{ACAD_REACTORS
330
29CE6
102
}
330
29CE6
100
AcDbXrecord
280
     1
102
RTVSPost2010Prop28
280
     0
102
RTVSPost2010PropOp28
 70
     1
102
RTVSPost2010Prop29
280
     1
102
RTVSPost2010PropOp29
 70
     1
102
RTVSPost2010Prop30
280
     1
102
RTVSPost2010PropOp30
 70
     1
102
RTVSPost2010Prop31
280
     0
102
RTVSPost2010PropOp31
 70
     1
102
RTVSPost2010Prop32
280
     0
102
RTVSPost2010PropOp32
 70
     1
102
RTVSPost2010Prop33
280
     0
102
RTVSPost2010PropOp33
 70
     1
102
RTVSPost2010Prop34
280
     0
102
RTVSPost2010PropOp34
 70
     1
102
RTVSPost2010Prop35
280
     0
102
RTVSPost2010PropOp35
 70
     1
102
RTVSPost2010Prop36
280
     0
102
RTVSPost2010PropOp36
 70
     1
102
RTVSPost2010Prop37
 90
       50
102
RTVSPost2010PropOp37
 70
     1
102
RTVSPost2010Prop38
140
0.0
102
RTVSPost2010PropOp38
 70
     1
102
RTVSPost2010Prop39
140
1.0
102
RTVSPost2010PropOp39
 70
     1
102
RTVSPost2010Prop40
 90
        0
102
RTVSPost2010PropOp40
 70
     1
102
RTVSPost2010Prop41ColorIndex
 90
       18
102
RTVSPost2010Prop41ColorRGB
 90
        0
102
RTVSPost2010PropOp41
 70
     1
102
RTVSPost2010Prop42
 90
       50
102
RTVSPost2010PropOp42
 70
     1
102
RTVSPost2010Prop43
 90
        3
102
RTVSPost2010PropOp43
 70
     1
102
RTVSPost2010Prop44ColorIndex
 90
        5
102
RTVSPost2010Prop44ColorRGB
 90
      255
102
RTVSPost2010PropOp44
 70
     1
102
RTVSPost2010Prop45
280
     0
102
RTVSPost2010PropOp45
 70
     1
102
RTVSPost2010Prop46
 90
       50
102
RTVSPost2010PropOp46
 70
     1
102
RTVSPost2010Prop47
 90
       50
102
RTVSPost2010PropOp47
 70
     1
102
RTVSPost2010Prop48
 90
       50
102
RTVSPost2010PropOp48
 70
     1
102
RTVSPost2010Prop49
280
     0
102
RTVSPost2010PropOp49
 70
     1
102
RTVSPost2010Prop50
 90
       50
102
RTVSPost2010PropOp50
 70
     1
102
RTVSPost2010Prop51ColorIndex
 90
      256
102
RTVSPost2010Prop51ColorRGB
 90
-16777216
102
RTVSPost2010PropOp51
 70
     0
102
RTVSPost2010Prop52
140
1.0
102
RTVSPost2010PropOp52
 70
     0
102
RTVSPost2010Prop53
 90
        2
102
RTVSPost2010PropOp53
 70
     1
102
RTVSPost2010Prop54
  1
strokes_ogs.tif
102
RTVSPost2010PropOp54
 70
     1
102
RTVSPost2010Prop55
280
     0
102
RTVSPost2010PropOp55
 70
     1
102
RTVSPost2010Prop56
140
1.0
102
RTVSPost2010PropOp56
 70
     1
102
RTVSPost2010Prop57
140
1.0
102
RTVSPost2010PropOp57
 70
     1
102
RTVSPropertyOp0
 70
     1
102
RTVSPropertyOp1
 70
     1
102
RTVSPropertyOp2
 70
     1
102
RTVSPropertyOp3
 70
     1
102
RTVSPropertyOp4
 70
     1
102
RTVSPropertyOp5
 70
     1
102
RTVSPropertyOp6
 70
     1
102
RTVSPropertyOp7
 70
     1
102
RTVSPropertyOp8
 70
     1
102
RTVSPropertyOp9
 70
     1
102
RTVSPropertyOp10
 70
     1
102
RTVSPropertyOp11
 70
     1
102
RTVSPropertyOp12
 70
     1
102
RTVSPropertyOp13
 70
     1
102
RTVSPropertyOp14
 70
     1
102
RTVSPropertyOp15
 70
     1
102
RTVSPropertyOp16
 70
     1
102
RTVSPropertyOp17
 70
     1
102
RTVSPropertyOp18
 70
     1
102
RTVSPropertyOp19
 70
     1
102
RTVSPropertyOp20
 70
     1
102
RTVSPropertyOp21
 70
     1
102
RTVSPropertyOp22
 70
     1
102
RTVSPropertyOp23
 70
     1
102
RTVSPropertyOp24
 70
     1
102
RTVSPropertyOp25
 70
     1
102
RTVSPropertyOp26
 70
     1
102
RTVSPropertyOp27
 70
     1
102
RTVSPropertyOp28
 70
     1
102
RTVSPropertyOp29
 70
     1
102
RTVSPropertyOp30
 70
     1
102
RTVSPropertyOp31
 70
     1
102
RTVSPropertyOp32
 70
     1
102
RTVSPropertyOp33
 70
     1
102
RTVSPropertyOp34
 70
     1
102
RTVSPropertyOp35
 70
     1
102
RTVSPropertyOp36
 70
     1
102
RTVSPropertyOp37
 70
     1
102
RTVSPropertyOp38
 70
     1
102
RTVSPropertyOp39
 70
     1
102
RTVSPropertyOp40
 70
     1
102
RTVSPropertyOp41
 70
     1
102
RTVSPropertyOp42
 70
     1
102
RTVSPropertyOp43
 70
     1
102
RTVSPropertyOp44
 70
     1
102
RTVSPropertyOp45
 70
     1
102
RTVSPropertyOp46
 70
     1
102
RTVSPropertyOp47
 70
     1
102
RTVSPropertyOp48
 70
     1
102
RTVSPropertyOp49
 70
     1
102
RTVSPropertyOp50
 70
     1
102
RTVSPropertyOp51
 70
     0
102
RTVSPropertyOp52
 70
     0
102
RTVSPropertyOp53
 70
     1
102
RTVSPropertyOp54
 70
     1
102
RTVSPropertyOp55
 70
     1
102
RTVSPropertyOp56
 70
     1
102
RTVSPropertyOp57
 70
     1
102
RTVSPropertyOp58
 70
     1
102
RTVSPropertyOp59
 70
     1
102
RTVSPropertyOp60
 70
     1
102
RTVSPropertyOp61
 70
     1
102
RTVSPropertyOp62
 70
     1
  0
XRECORD
  5
29CF5
102
{ACAD_REACTORS
330
29CF4
102
}
330
29CF4
100
AcDbXrecord
280
     1
102
RTVSPost2010Prop28
280
     0
102
RTVSPost2010PropOp28
 70
     1
102
RTVSPost2010Prop29
280
     1
102
RTVSPost2010PropOp29
 70
     1
102
RTVSPost2010Prop30
280
     1
102
RTVSPost2010PropOp30
 70
     1
102
RTVSPost2010Prop31
280
     0
102
RTVSPost2010PropOp31
 70
     1
102
RTVSPost2010Prop32
280
     0
102
RTVSPost2010PropOp32
 70
     1
102
RTVSPost2010Prop33
280
     0
102
RTVSPost2010PropOp33
 70
     1
102
RTVSPost2010Prop34
280
     0
102
RTVSPost2010PropOp34
 70
     1
102
RTVSPost2010Prop35
280
     0
102
RTVSPost2010PropOp35
 70
     1
102
RTVSPost2010Prop36
280
     0
102
RTVSPost2010PropOp36
 70
     1
102
RTVSPost2010Prop37
 90
       50
102
RTVSPost2010PropOp37
 70
     1
102
RTVSPost2010Prop38
140
0.0
102
RTVSPost2010PropOp38
 70
     1
102
RTVSPost2010Prop39
140
1.0
102
RTVSPost2010PropOp39
 70
     1
102
RTVSPost2010Prop40
 90
        0
102
RTVSPost2010PropOp40
 70
     1
102
RTVSPost2010Prop41ColorIndex
 90
       18
102
RTVSPost2010Prop41ColorRGB
 90
        0
102
RTVSPost2010PropOp41
 70
     1
102
RTVSPost2010Prop42
 90
       50
102
RTVSPost2010PropOp42
 70
     1
102
RTVSPost2010Prop43
 90
        3
102
RTVSPost2010PropOp43
 70
     1
102
RTVSPost2010Prop44ColorIndex
 90
        5
102
RTVSPost2010Prop44ColorRGB
 90
      255
102
RTVSPost2010PropOp44
 70
     1
102
RTVSPost2010Prop45
280
     0
102
RTVSPost2010PropOp45
 70
     1
102
RTVSPost2010Prop46
 90
       50
102
RTVSPost2010PropOp46
 70
     1
102
RTVSPost2010Prop47
 90
       50
102
RTVSPost2010PropOp47
 70
     1
102
RTVSPost2010Prop48
 90
       50
102
RTVSPost2010PropOp48
 70
     1
102
RTVSPost2010Prop49
280
     0
102
RTVSPost2010PropOp49
 70
     1
102
RTVSPost2010Prop50
 90
       50
102
RTVSPost2010PropOp50
 70
     1
102
RTVSPost2010Prop51ColorIndex
 90
      256
102
RTVSPost2010Prop51ColorRGB
 90
-16777216
102
RTVSPost2010PropOp51
 70
     0
102
RTVSPost2010Prop52
140
1.0
102
RTVSPost2010PropOp52
 70
     0
102
RTVSPost2010Prop53
 90
        2
102
RTVSPost2010PropOp53
 70
     1
102
RTVSPost2010Prop54
  1
strokes_ogs.tif
102
RTVSPost2010PropOp54
 70
     1
102
RTVSPost2010Prop55
280
     0
102
RTVSPost2010PropOp55
 70
     1
102
RTVSPost2010Prop56
140
1.0
102
RTVSPost2010PropOp56
 70
     1
102
RTVSPost2010Prop57
140
1.0
102
RTVSPost2010PropOp57
 70
     1
102
RTVSPropertyOp0
 70
     1
102
RTVSPropertyOp1
 70
     1
102
RTVSPropertyOp2
 70
     1
102
RTVSPropertyOp3
 70
     1
102
RTVSPropertyOp4
 70
     1
102
RTVSPropertyOp5
 70
     1
102
RTVSPropertyOp6
 70
     1
102
RTVSPropertyOp7
 70
     1
102
RTVSPropertyOp8
 70
     1
102
RTVSPropertyOp9
 70
     1
102
RTVSPropertyOp10
 70
     1
102
RTVSPropertyOp11
 70
     1
102
RTVSPropertyOp12
 70
     1
102
RTVSPropertyOp13
 70
     1
102
RTVSPropertyOp14
 70
     1
102
RTVSPropertyOp15
 70
     1
102
RTVSPropertyOp16
 70
     1
102
RTVSPropertyOp17
 70
     1
102
RTVSPropertyOp18
 70
     1
102
RTVSPropertyOp19
 70
     1
102
RTVSPropertyOp20
 70
     1
102
RTVSPropertyOp21
 70
     1
102
RTVSPropertyOp22
 70
     1
102
RTVSPropertyOp23
 70
     1
102
RTVSPropertyOp24
 70
     1
102
RTVSPropertyOp25
 70
     1
102
RTVSPropertyOp26
 70
     1
102
RTVSPropertyOp27
 70
     1
102
RTVSPropertyOp28
 70
     1
102
RTVSPropertyOp29
 70
     1
102
RTVSPropertyOp30
 70
     1
102
RTVSPropertyOp31
 70
     1
102
RTVSPropertyOp32
 70
     1
102
RTVSPropertyOp33
 70
     1
102
RTVSPropertyOp34
 70
     1
102
RTVSPropertyOp35
 70
     1
102
RTVSPropertyOp36
 70
     1
102
RTVSPropertyOp37
 70
     1
102
RTVSPropertyOp38
 70
     1
102
RTVSPropertyOp39
 70
     1
102
RTVSPropertyOp40
 70
     1
102
RTVSPropertyOp41
 70
     1
102
RTVSPropertyOp42
 70
     1
102
RTVSPropertyOp43
 70
     1
102
RTVSPropertyOp44
 70
     1
102
RTVSPropertyOp45
 70
     1
102
RTVSPropertyOp46
 70
     1
102
RTVSPropertyOp47
 70
     1
102
RTVSPropertyOp48
 70
     1
102
RTVSPropertyOp49
 70
     1
102
RTVSPropertyOp50
 70
     1
102
RTVSPropertyOp51
 70
     0
102
RTVSPropertyOp52
 70
     0
102
RTVSPropertyOp53
 70
     1
102
RTVSPropertyOp54
 70
     1
102
RTVSPropertyOp55
 70
     1
102
RTVSPropertyOp56
 70
     1
102
RTVSPropertyOp57
 70
     1
102
RTVSPropertyOp58
 70
     1
102
RTVSPropertyOp59
 70
     1
102
RTVSPropertyOp60
 70
     1
102
RTVSPropertyOp61
 70
     1
102
RTVSPropertyOp62
 70
     1
  0
XRECORD
  5
29CFD
102
{ACAD_REACTORS
330
29CFC
102
}
330
29CFC
100
AcDbXrecord
280
     1
102
RTVSPost2010Prop28
280
     0
102
RTVSPost2010PropOp28
 70
     1
102
RTVSPost2010Prop29
280
     1
102
RTVSPost2010PropOp29
 70
     1
102
RTVSPost2010Prop30
280
     1
102
RTVSPost2010PropOp30
 70
     1
102
RTVSPost2010Prop31
280
     0
102
RTVSPost2010PropOp31
 70
     1
102
RTVSPost2010Prop32
280
     0
102
RTVSPost2010PropOp32
 70
     1
102
RTVSPost2010Prop33
280
     0
102
RTVSPost2010PropOp33
 70
     1
102
RTVSPost2010Prop34
280
     0
102
RTVSPost2010PropOp34
 70
     1
102
RTVSPost2010Prop35
280
     0
102
RTVSPost2010PropOp35
 70
     1
102
RTVSPost2010Prop36
280
     0
102
RTVSPost2010PropOp36
 70
     1
102
RTVSPost2010Prop37
 90
       50
102
RTVSPost2010PropOp37
 70
     1
102
RTVSPost2010Prop38
140
0.0
102
RTVSPost2010PropOp38
 70
     1
102
RTVSPost2010Prop39
140
1.0
102
RTVSPost2010PropOp39
 70
     1
102
RTVSPost2010Prop40
 90
        0
102
RTVSPost2010PropOp40
 70
     1
102
RTVSPost2010Prop41ColorIndex
 90
       18
102
RTVSPost2010Prop41ColorRGB
 90
        0
102
RTVSPost2010PropOp41
 70
     1
102
RTVSPost2010Prop42
 90
       50
102
RTVSPost2010PropOp42
 70
     1
102
RTVSPost2010Prop43
 90
        3
102
RTVSPost2010PropOp43
 70
     1
102
RTVSPost2010Prop44ColorIndex
 90
        5
102
RTVSPost2010Prop44ColorRGB
 90
      255
102
RTVSPost2010PropOp44
 70
     1
102
RTVSPost2010Prop45
280
     0
102
RTVSPost2010PropOp45
 70
     1
102
RTVSPost2010Prop46
 90
       50
102
RTVSPost2010PropOp46
 70
     1
102
RTVSPost2010Prop47
 90
       50
102
RTVSPost2010PropOp47
 70
     1
102
RTVSPost2010Prop48
 90
       50
102
RTVSPost2010PropOp48
 70
     1
102
RTVSPost2010Prop49
280
     0
102
RTVSPost2010PropOp49
 70
     1
102
RTVSPost2010Prop50
 90
       50
102
RTVSPost2010PropOp50
 70
     1
102
RTVSPost2010Prop51ColorIndex
 90
      256
102
RTVSPost2010Prop51ColorRGB
 90
-16777216
102
RTVSPost2010PropOp51
 70
     0
102
RTVSPost2010Prop52
140
1.0
102
RTVSPost2010PropOp52
 70
     0
102
RTVSPost2010Prop53
 90
        2
102
RTVSPost2010PropOp53
 70
     1
102
RTVSPost2010Prop54
  1
strokes_ogs.tif
102
RTVSPost2010PropOp54
 70
     1
102
RTVSPost2010Prop55
280
     0
102
RTVSPost2010PropOp55
 70
     1
102
RTVSPost2010Prop56
140
1.0
102
RTVSPost2010PropOp56
 70
     1
102
RTVSPost2010Prop57
140
1.0
102
RTVSPost2010PropOp57
 70
     1
102
RTVSPropertyOp0
 70
     1
102
RTVSPropertyOp1
 70
     1
102
RTVSPropertyOp2
 70
     1
102
RTVSPropertyOp3
 70
     1
102
RTVSPropertyOp4
 70
     1
102
RTVSPropertyOp5
 70
     1
102
RTVSPropertyOp6
 70
     1
102
RTVSPropertyOp7
 70
     1
102
RTVSPropertyOp8
 70
     1
102
RTVSPropertyOp9
 70
     1
102
RTVSPropertyOp10
 70
     1
102
RTVSPropertyOp11
 70
     1
102
RTVSPropertyOp12
 70
     1
102
RTVSPropertyOp13
 70
     1
102
RTVSPropertyOp14
 70
     1
102
RTVSPropertyOp15
 70
     1
102
RTVSPropertyOp16
 70
     1
102
RTVSPropertyOp17
 70
     1
102
RTVSPropertyOp18
 70
     1
102
RTVSPropertyOp19
 70
     1
102
RTVSPropertyOp20
 70
     1
102
RTVSPropertyOp21
 70
     1
102
RTVSPropertyOp22
 70
     1
102
RTVSPropertyOp23
 70
     1
102
RTVSPropertyOp24
 70
     1
102
RTVSPropertyOp25
 70
     1
102
RTVSPropertyOp26
 70
     1
102
RTVSPropertyOp27
 70
     1
102
RTVSPropertyOp28
 70
     1
102
RTVSPropertyOp29
 70
     1
102
RTVSPropertyOp30
 70
     1
102
RTVSPropertyOp31
 70
     1
102
RTVSPropertyOp32
 70
     1
102
RTVSPropertyOp33
 70
     1
102
RTVSPropertyOp34
 70
     1
102
RTVSPropertyOp35
 70
     1
102
RTVSPropertyOp36
 70
     1
102
RTVSPropertyOp37
 70
     1
102
RTVSPropertyOp38
 70
     1
102
RTVSPropertyOp39
 70
     1
102
RTVSPropertyOp40
 70
     1
102
RTVSPropertyOp41
 70
     1
102
RTVSPropertyOp42
 70
     1
102
RTVSPropertyOp43
 70
     1
102
RTVSPropertyOp44
 70
     1
102
RTVSPropertyOp45
 70
     1
102
RTVSPropertyOp46
 70
     1
102
RTVSPropertyOp47
 70
     1
102
RTVSPropertyOp48
 70
     1
102
RTVSPropertyOp49
 70
     1
102
RTVSPropertyOp50
 70
     1
102
RTVSPropertyOp51
 70
     0
102
RTVSPropertyOp52
 70
     0
102
RTVSPropertyOp53
 70
     1
102
RTVSPropertyOp54
 70
     1
102
RTVSPropertyOp55
 70
     1
102
RTVSPropertyOp56
 70
     1
102
RTVSPropertyOp57
 70
     1
102
RTVSPropertyOp58
 70
     1
102
RTVSPropertyOp59
 70
     1
102
RTVSPropertyOp60
 70
     1
102
RTVSPropertyOp61
 70
     1
102
RTVSPropertyOp62
 70
     1
  0
XRECORD
  5
29CEF
102
{ACAD_REACTORS
330
29CEE
102
}
330
29CEE
100
AcDbXrecord
280
     1
102
RTVSPost2010Prop28
280
     0
102
RTVSPost2010PropOp28
 70
     1
102
RTVSPost2010Prop29
280
     1
102
RTVSPost2010PropOp29
 70
     1
102
RTVSPost2010Prop30
280
     1
102
RTVSPost2010PropOp30
 70
     1
102
RTVSPost2010Prop31
280
     0
102
RTVSPost2010PropOp31
 70
     1
102
RTVSPost2010Prop32
280
     0
102
RTVSPost2010PropOp32
 70
     1
102
RTVSPost2010Prop33
280
     0
102
RTVSPost2010PropOp33
 70
     1
102
RTVSPost2010Prop34
280
     0
102
RTVSPost2010PropOp34
 70
     1
102
RTVSPost2010Prop35
280
     0
102
RTVSPost2010PropOp35
 70
     1
102
RTVSPost2010Prop36
280
     0
102
RTVSPost2010PropOp36
 70
     1
102
RTVSPost2010Prop37
 90
       50
102
RTVSPost2010PropOp37
 70
     1
102
RTVSPost2010Prop38
140
0.0
102
RTVSPost2010PropOp38
 70
     1
102
RTVSPost2010Prop39
140
1.0
102
RTVSPost2010PropOp39
 70
     1
102
RTVSPost2010Prop40
 90
        0
102
RTVSPost2010PropOp40
 70
     1
102
RTVSPost2010Prop41ColorIndex
 90
       18
102
RTVSPost2010Prop41ColorRGB
 90
        0
102
RTVSPost2010PropOp41
 70
     1
102
RTVSPost2010Prop42
 90
       50
102
RTVSPost2010PropOp42
 70
     1
102
RTVSPost2010Prop43
 90
        3
102
RTVSPost2010PropOp43
 70
     1
102
RTVSPost2010Prop44ColorIndex
 90
        5
102
RTVSPost2010Prop44ColorRGB
 90
      255
102
RTVSPost2010PropOp44
 70
     1
102
RTVSPost2010Prop45
280
     0
102
RTVSPost2010PropOp45
 70
     1
102
RTVSPost2010Prop46
 90
       50
102
RTVSPost2010PropOp46
 70
     1
102
RTVSPost2010Prop47
 90
       50
102
RTVSPost2010PropOp47
 70
     1
102
RTVSPost2010Prop48
 90
       50
102
RTVSPost2010PropOp48
 70
     1
102
RTVSPost2010Prop49
280
     0
102
RTVSPost2010PropOp49
 70
     1
102
RTVSPost2010Prop50
 90
       50
102
RTVSPost2010PropOp50
 70
     1
102
RTVSPost2010Prop51ColorIndex
 90
      256
102
RTVSPost2010Prop51ColorRGB
 90
-16777216
102
RTVSPost2010PropOp51
 70
     0
102
RTVSPost2010Prop52
140
1.0
102
RTVSPost2010PropOp52
 70
     0
102
RTVSPost2010Prop53
 90
        2
102
RTVSPost2010PropOp53
 70
     1
102
RTVSPost2010Prop54
  1
strokes_ogs.tif
102
RTVSPost2010PropOp54
 70
     1
102
RTVSPost2010Prop55
280
     0
102
RTVSPost2010PropOp55
 70
     1
102
RTVSPost2010Prop56
140
1.0
102
RTVSPost2010PropOp56
 70
     1
102
RTVSPost2010Prop57
140
1.0
102
RTVSPost2010PropOp57
 70
     1
102
RTVSPropertyOp0
 70
     1
102
RTVSPropertyOp1
 70
     1
102
RTVSPropertyOp2
 70
     1
102
RTVSPropertyOp3
 70
     1
102
RTVSPropertyOp4
 70
     1
102
RTVSPropertyOp5
 70
     1
102
RTVSPropertyOp6
 70
     1
102
RTVSPropertyOp7
 70
     1
102
RTVSPropertyOp8
 70
     1
102
RTVSPropertyOp9
 70
     1
102
RTVSPropertyOp10
 70
     1
102
RTVSPropertyOp11
 70
     1
102
RTVSPropertyOp12
 70
     1
102
RTVSPropertyOp13
 70
     1
102
RTVSPropertyOp14
 70
     1
102
RTVSPropertyOp15
 70
     1
102
RTVSPropertyOp16
 70
     1
102
RTVSPropertyOp17
 70
     1
102
RTVSPropertyOp18
 70
     1
102
RTVSPropertyOp19
 70
     1
102
RTVSPropertyOp20
 70
     1
102
RTVSPropertyOp21
 70
     1
102
RTVSPropertyOp22
 70
     1
102
RTVSPropertyOp23
 70
     1
102
RTVSPropertyOp24
 70
     1
102
RTVSPropertyOp25
 70
     1
102
RTVSPropertyOp26
 70
     1
102
RTVSPropertyOp27
 70
     1
102
RTVSPropertyOp28
 70
     1
102
RTVSPropertyOp29
 70
     1
102
RTVSPropertyOp30
 70
     1
102
RTVSPropertyOp31
 70
     1
102
RTVSPropertyOp32
 70
     1
102
RTVSPropertyOp33
 70
     1
102
RTVSPropertyOp34
 70
     1
102
RTVSPropertyOp35
 70
     1
102
RTVSPropertyOp36
 70
     1
102
RTVSPropertyOp37
 70
     1
102
RTVSPropertyOp38
 70
     1
102
RTVSPropertyOp39
 70
     1
102
RTVSPropertyOp40
 70
     1
102
RTVSPropertyOp41
 70
     1
102
RTVSPropertyOp42
 70
     1
102
RTVSPropertyOp43
 70
     1
102
RTVSPropertyOp44
 70
     1
102
RTVSPropertyOp45
 70
     1
102
RTVSPropertyOp46
 70
     1
102
RTVSPropertyOp47
 70
     1
102
RTVSPropertyOp48
 70
     1
102
RTVSPropertyOp49
 70
     1
102
RTVSPropertyOp50
 70
     1
102
RTVSPropertyOp51
 70
     0
102
RTVSPropertyOp52
 70
     0
102
RTVSPropertyOp53
 70
     1
102
RTVSPropertyOp54
 70
     1
102
RTVSPropertyOp55
 70
     1
102
RTVSPropertyOp56
 70
     1
102
RTVSPropertyOp57
 70
     1
102
RTVSPropertyOp58
 70
     1
102
RTVSPropertyOp59
 70
     1
102
RTVSPropertyOp60
 70
     1
102
RTVSPropertyOp61
 70
     1
102
RTVSPropertyOp62
 70
     1
  0
XRECORD
  5
29CF3
102
{ACAD_REACTORS
330
29CF2
102
}
330
29CF2
100
AcDbXrecord
280
     1
102
RTVSPost2010Prop28
280
     0
102
RTVSPost2010PropOp28
 70
     1
102
RTVSPost2010Prop29
280
     1
102
RTVSPost2010PropOp29
 70
     1
102
RTVSPost2010Prop30
280
     1
102
RTVSPost2010PropOp30
 70
     1
102
RTVSPost2010Prop31
280
     0
102
RTVSPost2010PropOp31
 70
     1
102
RTVSPost2010Prop32
280
     0
102
RTVSPost2010PropOp32
 70
     1
102
RTVSPost2010Prop33
280
     0
102
RTVSPost2010PropOp33
 70
     1
102
RTVSPost2010Prop34
280
     0
102
RTVSPost2010PropOp34
 70
     1
102
RTVSPost2010Prop35
280
     0
102
RTVSPost2010PropOp35
 70
     1
102
RTVSPost2010Prop36
280
     0
102
RTVSPost2010PropOp36
 70
     1
102
RTVSPost2010Prop37
 90
       50
102
RTVSPost2010PropOp37
 70
     1
102
RTVSPost2010Prop38
140
0.0
102
RTVSPost2010PropOp38
 70
     1
102
RTVSPost2010Prop39
140
1.0
102
RTVSPost2010PropOp39
 70
     1
102
RTVSPost2010Prop40
 90
        0
102
RTVSPost2010PropOp40
 70
     1
102
RTVSPost2010Prop41ColorIndex
 90
       18
102
RTVSPost2010Prop41ColorRGB
 90
        0
102
RTVSPost2010PropOp41
 70
     1
102
RTVSPost2010Prop42
 90
       50
102
RTVSPost2010PropOp42
 70
     1
102
RTVSPost2010Prop43
 90
        3
102
RTVSPost2010PropOp43
 70
     1
102
RTVSPost2010Prop44ColorIndex
 90
        5
102
RTVSPost2010Prop44ColorRGB
 90
      255
102
RTVSPost2010PropOp44
 70
     1
102
RTVSPost2010Prop45
280
     0
102
RTVSPost2010PropOp45
 70
     1
102
RTVSPost2010Prop46
 90
       50
102
RTVSPost2010PropOp46
 70
     1
102
RTVSPost2010Prop47
 90
       50
102
RTVSPost2010PropOp47
 70
     1
102
RTVSPost2010Prop48
 90
       50
102
RTVSPost2010PropOp48
 70
     1
102
RTVSPost2010Prop49
280
     0
102
RTVSPost2010PropOp49
 70
     1
102
RTVSPost2010Prop50
 90
       50
102
RTVSPost2010PropOp50
 70
     1
102
RTVSPost2010Prop51ColorIndex
 90
      256
102
RTVSPost2010Prop51ColorRGB
 90
-16777216
102
RTVSPost2010PropOp51
 70
     0
102
RTVSPost2010Prop52
140
1.0
102
RTVSPost2010PropOp52
 70
     0
102
RTVSPost2010Prop53
 90
        2
102
RTVSPost2010PropOp53
 70
     1
102
RTVSPost2010Prop54
  1
strokes_ogs.tif
102
RTVSPost2010PropOp54
 70
     1
102
RTVSPost2010Prop55
280
     0
102
RTVSPost2010PropOp55
 70
     1
102
RTVSPost2010Prop56
140
1.0
102
RTVSPost2010PropOp56
 70
     1
102
RTVSPost2010Prop57
140
1.0
102
RTVSPost2010PropOp57
 70
     1
102
RTVSPropertyOp0
 70
     1
102
RTVSPropertyOp1
 70
     1
102
RTVSPropertyOp2
 70
     1
102
RTVSPropertyOp3
 70
     1
102
RTVSPropertyOp4
 70
     1
102
RTVSPropertyOp5
 70
     1
102
RTVSPropertyOp6
 70
     1
102
RTVSPropertyOp7
 70
     1
102
RTVSPropertyOp8
 70
     1
102
RTVSPropertyOp9
 70
     1
102
RTVSPropertyOp10
 70
     1
102
RTVSPropertyOp11
 70
     1
102
RTVSPropertyOp12
 70
     1
102
RTVSPropertyOp13
 70
     1
102
RTVSPropertyOp14
 70
     1
102
RTVSPropertyOp15
 70
     1
102
RTVSPropertyOp16
 70
     1
102
RTVSPropertyOp17
 70
     1
102
RTVSPropertyOp18
 70
     1
102
RTVSPropertyOp19
 70
     1
102
RTVSPropertyOp20
 70
     1
102
RTVSPropertyOp21
 70
     1
102
RTVSPropertyOp22
 70
     1
102
RTVSPropertyOp23
 70
     1
102
RTVSPropertyOp24
 70
     1
102
RTVSPropertyOp25
 70
     1
102
RTVSPropertyOp26
 70
     1
102
RTVSPropertyOp27
 70
     1
102
RTVSPropertyOp28
 70
     1
102
RTVSPropertyOp29
 70
     1
102
RTVSPropertyOp30
 70
     1
102
RTVSPropertyOp31
 70
     1
102
RTVSPropertyOp32
 70
     1
102
RTVSPropertyOp33
 70
     1
102
RTVSPropertyOp34
 70
     1
102
RTVSPropertyOp35
 70
     1
102
RTVSPropertyOp36
 70
     1
102
RTVSPropertyOp37
 70
     1
102
RTVSPropertyOp38
 70
     1
102
RTVSPropertyOp39
 70
     1
102
RTVSPropertyOp40
 70
     1
102
RTVSPropertyOp41
 70
     1
102
RTVSPropertyOp42
 70
     1
102
RTVSPropertyOp43
 70
     1
102
RTVSPropertyOp44
 70
     1
102
RTVSPropertyOp45
 70
     1
102
RTVSPropertyOp46
 70
     1
102
RTVSPropertyOp47
 70
     1
102
RTVSPropertyOp48
 70
     1
102
RTVSPropertyOp49
 70
     1
102
RTVSPropertyOp50
 70
     1
102
RTVSPropertyOp51
 70
     0
102
RTVSPropertyOp52
 70
     0
102
RTVSPropertyOp53
 70
     1
102
RTVSPropertyOp54
 70
     1
102
RTVSPropertyOp55
 70
     1
102
RTVSPropertyOp56
 70
     1
102
RTVSPropertyOp57
 70
     1
102
RTVSPropertyOp58
 70
     1
102
RTVSPropertyOp59
 70
     1
102
RTVSPropertyOp60
 70
     1
102
RTVSPropertyOp61
 70
     1
102
RTVSPropertyOp62
 70
     1
  0
XRECORD
  5
29D0D
102
{ACAD_REACTORS
330
29D0C
102
}
330
29D0C
100
AcDbXrecord
280
     1
102
RTVSPost2010Prop28
280
     0
102
RTVSPost2010PropOp28
 70
     1
102
RTVSPost2010Prop29
280
     1
102
RTVSPost2010PropOp29
 70
     1
102
RTVSPost2010Prop30
280
     1
102
RTVSPost2010PropOp30
 70
     1
102
RTVSPost2010Prop31
280
     0
102
RTVSPost2010PropOp31
 70
     1
102
RTVSPost2010Prop32
280
     0
102
RTVSPost2010PropOp32
 70
     1
102
RTVSPost2010Prop33
280
     0
102
RTVSPost2010PropOp33
 70
     1
102
RTVSPost2010Prop34
280
     0
102
RTVSPost2010PropOp34
 70
     1
102
RTVSPost2010Prop35
280
     0
102
RTVSPost2010PropOp35
 70
     1
102
RTVSPost2010Prop36
280
     0
102
RTVSPost2010PropOp36
 70
     1
102
RTVSPost2010Prop37
 90
       50
102
RTVSPost2010PropOp37
 70
     0
102
RTVSPost2010Prop38
140
0.0
102
RTVSPost2010PropOp38
 70
     0
102
RTVSPost2010Prop39
140
1.0
102
RTVSPost2010PropOp39
 70
     0
102
RTVSPost2010Prop40
 90
        0
102
RTVSPost2010PropOp40
 70
     0
102
RTVSPost2010Prop41ColorIndex
 90
       18
102
RTVSPost2010Prop41ColorRGB
 90
        0
102
RTVSPost2010PropOp41
 70
     0
102
RTVSPost2010Prop42
 90
       50
102
RTVSPost2010PropOp42
 70
     0
102
RTVSPost2010Prop43
 90
        3
102
RTVSPost2010PropOp43
 70
     0
102
RTVSPost2010Prop44ColorIndex
 90
        5
102
RTVSPost2010Prop44ColorRGB
 90
      255
102
RTVSPost2010PropOp44
 70
     0
102
RTVSPost2010Prop45
280
     0
102
RTVSPost2010PropOp45
 70
     1
102
RTVSPost2010Prop46
 90
       50
102
RTVSPost2010PropOp46
 70
     0
102
RTVSPost2010Prop47
 90
       50
102
RTVSPost2010PropOp47
 70
     0
102
RTVSPost2010Prop48
 90
       50
102
RTVSPost2010PropOp48
 70
     0
102
RTVSPost2010Prop49
280
     0
102
RTVSPost2010PropOp49
 70
     1
102
RTVSPost2010Prop50
 90
       50
102
RTVSPost2010PropOp50
 70
     0
102
RTVSPost2010Prop51ColorIndex
 90
      256
102
RTVSPost2010Prop51ColorRGB
 90
-16777216
102
RTVSPost2010PropOp51
 70
     0
102
RTVSPost2010Prop52
140
1.0
102
RTVSPost2010PropOp52
 70
     0
102
RTVSPost2010Prop53
 90
        2
102
RTVSPost2010PropOp53
 70
     0
102
RTVSPost2010Prop54
  1
strokes_ogs.tif
102
RTVSPost2010PropOp54
 70
     0
102
RTVSPost2010Prop55
280
     0
102
RTVSPost2010PropOp55
 70
     1
102
RTVSPost2010Prop56
140
1.0
102
RTVSPost2010PropOp56
 70
     0
102
RTVSPost2010Prop57
140
1.0
102
RTVSPost2010PropOp57
 70
     0
102
RTVSPropertyOp0
 70
     0
102
RTVSPropertyOp1
 70
     0
102
RTVSPropertyOp2
 70
     0
102
RTVSPropertyOp3
 70
     0
102
RTVSPropertyOp4
 70
     0
102
RTVSPropertyOp5
 70
     0
102
RTVSPropertyOp6
 70
     0
102
RTVSPropertyOp7
 70
     0
102
RTVSPropertyOp8
 70
     0
102
RTVSPropertyOp9
 70
     0
102
RTVSPropertyOp10
 70
     0
102
RTVSPropertyOp11
 70
     0
102
RTVSPropertyOp12
 70
     0
102
RTVSPropertyOp13
 70
     0
102
RTVSPropertyOp14
 70
     2
102
RTVSPropertyOp15
 70
     0
102
RTVSPropertyOp16
 70
     0
102
RTVSPropertyOp17
 70
     0
102
RTVSPropertyOp18
 70
     0
102
RTVSPropertyOp19
 70
     0
102
RTVSPropertyOp20
 70
     0
102
RTVSPropertyOp21
 70
     0
102
RTVSPropertyOp22
 70
     0
102
RTVSPropertyOp23
 70
     0
102
RTVSPropertyOp24
 70
     0
102
RTVSPropertyOp25
 70
     0
102
RTVSPropertyOp26
 70
     0
102
RTVSPropertyOp27
 70
     0
102
RTVSPropertyOp28
 70
     1
102
RTVSPropertyOp29
 70
     1
102
RTVSPropertyOp30
 70
     1
102
RTVSPropertyOp31
 70
     1
102
RTVSPropertyOp32
 70
     1
102
RTVSPropertyOp33
 70
     1
102
RTVSPropertyOp34
 70
     1
102
RTVSPropertyOp35
 70
     1
102
RTVSPropertyOp36
 70
     1
102
RTVSPropertyOp37
 70
     0
102
RTVSPropertyOp38
 70
     0
102
RTVSPropertyOp39
 70
     0
102
RTVSPropertyOp40
 70
     0
102
RTVSPropertyOp41
 70
     0
102
RTVSPropertyOp42
 70
     0
102
RTVSPropertyOp43
 70
     0
102
RTVSPropertyOp44
 70
     0
102
RTVSPropertyOp45
 70
     1
102
RTVSPropertyOp46
 70
     0
102
RTVSPropertyOp47
 70
     0
102
RTVSPropertyOp48
 70
     0
102
RTVSPropertyOp49
 70
     1
102
RTVSPropertyOp50
 70
     0
102
RTVSPropertyOp51
 70
     0
102
RTVSPropertyOp52
 70
     0
102
RTVSPropertyOp53
 70
     0
102
RTVSPropertyOp54
 70
     0
102
RTVSPropertyOp55
 70
     1
102
RTVSPropertyOp56
 70
     0
102
RTVSPropertyOp57
 70
     0
102
RTVSPropertyOp58
 70
     0
102
RTVSPropertyOp59
 70
     0
102
RTVSPropertyOp60
 70
     0
102
RTVSPropertyOp61
 70
     0
102
RTVSPropertyOp62
 70
     0
  0
XRECORD
  5
29CFB
102
{ACAD_REACTORS
330
29CFA
102
}
330
29CFA
100
AcDbXrecord
280
     1
102
RTVSPost2010Prop28
280
     0
102
RTVSPost2010PropOp28
 70
     1
102
RTVSPost2010Prop29
280
     1
102
RTVSPost2010PropOp29
 70
     1
102
RTVSPost2010Prop30
280
     1
102
RTVSPost2010PropOp30
 70
     1
102
RTVSPost2010Prop31
280
     0
102
RTVSPost2010PropOp31
 70
     1
102
RTVSPost2010Prop32
280
     0
102
RTVSPost2010PropOp32
 70
     1
102
RTVSPost2010Prop33
280
     0
102
RTVSPost2010PropOp33
 70
     1
102
RTVSPost2010Prop34
280
     0
102
RTVSPost2010PropOp34
 70
     1
102
RTVSPost2010Prop35
280
     0
102
RTVSPost2010PropOp35
 70
     1
102
RTVSPost2010Prop36
280
     0
102
RTVSPost2010PropOp36
 70
     1
102
RTVSPost2010Prop37
 90
       50
102
RTVSPost2010PropOp37
 70
     1
102
RTVSPost2010Prop38
140
0.0
102
RTVSPost2010PropOp38
 70
     1
102
RTVSPost2010Prop39
140
1.0
102
RTVSPost2010PropOp39
 70
     1
102
RTVSPost2010Prop40
 90
        0
102
RTVSPost2010PropOp40
 70
     1
102
RTVSPost2010Prop41ColorIndex
 90
       18
102
RTVSPost2010Prop41ColorRGB
 90
        0
102
RTVSPost2010PropOp41
 70
     1
102
RTVSPost2010Prop42
 90
       50
102
RTVSPost2010PropOp42
 70
     1
102
RTVSPost2010Prop43
 90
        3
102
RTVSPost2010PropOp43
 70
     1
102
RTVSPost2010Prop44ColorIndex
 90
        5
102
RTVSPost2010Prop44ColorRGB
 90
      255
102
RTVSPost2010PropOp44
 70
     1
102
RTVSPost2010Prop45
280
     0
102
RTVSPost2010PropOp45
 70
     1
102
RTVSPost2010Prop46
 90
       50
102
RTVSPost2010PropOp46
 70
     1
102
RTVSPost2010Prop47
 90
       50
102
RTVSPost2010PropOp47
 70
     1
102
RTVSPost2010Prop48
 90
       50
102
RTVSPost2010PropOp48
 70
     1
102
RTVSPost2010Prop49
280
     0
102
RTVSPost2010PropOp49
 70
     1
102
RTVSPost2010Prop50
 90
       50
102
RTVSPost2010PropOp50
 70
     1
102
RTVSPost2010Prop51ColorIndex
 90
      256
102
RTVSPost2010Prop51ColorRGB
 90
-16777216
102
RTVSPost2010PropOp51
 70
     0
102
RTVSPost2010Prop52
140
1.0
102
RTVSPost2010PropOp52
 70
     0
102
RTVSPost2010Prop53
 90
        2
102
RTVSPost2010PropOp53
 70
     1
102
RTVSPost2010Prop54
  1
strokes_ogs.tif
102
RTVSPost2010PropOp54
 70
     1
102
RTVSPost2010Prop55
280
     0
102
RTVSPost2010PropOp55
 70
     1
102
RTVSPost2010Prop56
140
1.0
102
RTVSPost2010PropOp56
 70
     1
102
RTVSPost2010Prop57
140
1.0
102
RTVSPost2010PropOp57
 70
     1
102
RTVSPropertyOp0
 70
     1
102
RTVSPropertyOp1
 70
     1
102
RTVSPropertyOp2
 70
     1
102
RTVSPropertyOp3
 70
     1
102
RTVSPropertyOp4
 70
     1
102
RTVSPropertyOp5
 70
     1
102
RTVSPropertyOp6
 70
     1
102
RTVSPropertyOp7
 70
     1
102
RTVSPropertyOp8
 70
     1
102
RTVSPropertyOp9
 70
     1
102
RTVSPropertyOp10
 70
     1
102
RTVSPropertyOp11
 70
     1
102
RTVSPropertyOp12
 70
     1
102
RTVSPropertyOp13
 70
     1
102
RTVSPropertyOp14
 70
     1
102
RTVSPropertyOp15
 70
     1
102
RTVSPropertyOp16
 70
     1
102
RTVSPropertyOp17
 70
     1
102
RTVSPropertyOp18
 70
     1
102
RTVSPropertyOp19
 70
     1
102
RTVSPropertyOp20
 70
     1
102
RTVSPropertyOp21
 70
     1
102
RTVSPropertyOp22
 70
     1
102
RTVSPropertyOp23
 70
     1
102
RTVSPropertyOp24
 70
     1
102
RTVSPropertyOp25
 70
     1
102
RTVSPropertyOp26
 70
     1
102
RTVSPropertyOp27
 70
     1
102
RTVSPropertyOp28
 70
     1
102
RTVSPropertyOp29
 70
     1
102
RTVSPropertyOp30
 70
     1
102
RTVSPropertyOp31
 70
     1
102
RTVSPropertyOp32
 70
     1
102
RTVSPropertyOp33
 70
     1
102
RTVSPropertyOp34
 70
     1
102
RTVSPropertyOp35
 70
     1
102
RTVSPropertyOp36
 70
     1
102
RTVSPropertyOp37
 70
     1
102
RTVSPropertyOp38
 70
     1
102
RTVSPropertyOp39
 70
     1
102
RTVSPropertyOp40
 70
     1
102
RTVSPropertyOp41
 70
     1
102
RTVSPropertyOp42
 70
     1
102
RTVSPropertyOp43
 70
     1
102
RTVSPropertyOp44
 70
     1
102
RTVSPropertyOp45
 70
     1
102
RTVSPropertyOp46
 70
     1
102
RTVSPropertyOp47
 70
     1
102
RTVSPropertyOp48
 70
     1
102
RTVSPropertyOp49
 70
     1
102
RTVSPropertyOp50
 70
     1
102
RTVSPropertyOp51
 70
     0
102
RTVSPropertyOp52
 70
     0
102
RTVSPropertyOp53
 70
     1
102
RTVSPropertyOp54
 70
     1
102
RTVSPropertyOp55
 70
     1
102
RTVSPropertyOp56
 70
     1
102
RTVSPropertyOp57
 70
     1
102
RTVSPropertyOp58
 70
     1
102
RTVSPropertyOp59
 70
     1
102
RTVSPropertyOp60
 70
     1
102
RTVSPropertyOp61
 70
     1
102
RTVSPropertyOp62
 70
     1
  0
XRECORD
  5
29CDF
102
{ACAD_REACTORS
330
29CDE
102
}
330
29CDE
100
AcDbXrecord
280
     1
102
RTVSPost2010Prop28
280
     0
102
RTVSPost2010PropOp28
 70
     1
102
RTVSPost2010Prop29
280
     1
102
RTVSPost2010PropOp29
 70
     1
102
RTVSPost2010Prop30
280
     1
102
RTVSPost2010PropOp30
 70
     1
102
RTVSPost2010Prop31
280
     0
102
RTVSPost2010PropOp31
 70
     1
102
RTVSPost2010Prop32
280
     0
102
RTVSPost2010PropOp32
 70
     1
102
RTVSPost2010Prop33
280
     0
102
RTVSPost2010PropOp33
 70
     1
102
RTVSPost2010Prop34
280
     0
102
RTVSPost2010PropOp34
 70
     1
102
RTVSPost2010Prop35
280
     0
102
RTVSPost2010PropOp35
 70
     1
102
RTVSPost2010Prop36
280
     0
102
RTVSPost2010PropOp36
 70
     1
102
RTVSPost2010Prop37
 90
       50
102
RTVSPost2010PropOp37
 70
     1
102
RTVSPost2010Prop38
140
0.0
102
RTVSPost2010PropOp38
 70
     1
102
RTVSPost2010Prop39
140
1.0
102
RTVSPost2010PropOp39
 70
     1
102
RTVSPost2010Prop40
 90
        0
102
RTVSPost2010PropOp40
 70
     1
102
RTVSPost2010Prop41ColorIndex
 90
       18
102
RTVSPost2010Prop41ColorRGB
 90
        0
102
RTVSPost2010PropOp41
 70
     1
102
RTVSPost2010Prop42
 90
       50
102
RTVSPost2010PropOp42
 70
     1
102
RTVSPost2010Prop43
 90
        3
102
RTVSPost2010PropOp43
 70
     1
102
RTVSPost2010Prop44ColorIndex
 90
        5
102
RTVSPost2010Prop44ColorRGB
 90
      255
102
RTVSPost2010PropOp44
 70
     1
102
RTVSPost2010Prop45
280
     0
102
RTVSPost2010PropOp45
 70
     1
102
RTVSPost2010Prop46
 90
       50
102
RTVSPost2010PropOp46
 70
     1
102
RTVSPost2010Prop47
 90
       50
102
RTVSPost2010PropOp47
 70
     1
102
RTVSPost2010Prop48
 90
       50
102
RTVSPost2010PropOp48
 70
     1
102
RTVSPost2010Prop49
280
     0
102
RTVSPost2010PropOp49
 70
     1
102
RTVSPost2010Prop50
 90
       50
102
RTVSPost2010PropOp50
 70
     1
102
RTVSPost2010Prop51ColorIndex
 90
      256
102
RTVSPost2010Prop51ColorRGB
 90
-16777216
102
RTVSPost2010PropOp51
 70
     0
102
RTVSPost2010Prop52
140
1.0
102
RTVSPost2010PropOp52
 70
     0
102
RTVSPost2010Prop53
 90
        2
102
RTVSPost2010PropOp53
 70
     1
102
RTVSPost2010Prop54
  1
strokes_ogs.tif
102
RTVSPost2010PropOp54
 70
     1
102
RTVSPost2010Prop55
280
     0
102
RTVSPost2010PropOp55
 70
     1
102
RTVSPost2010Prop56
140
1.0
102
RTVSPost2010PropOp56
 70
     1
102
RTVSPost2010Prop57
140
1.0
102
RTVSPost2010PropOp57
 70
     1
102
RTVSPropertyOp0
 70
     1
102
RTVSPropertyOp1
 70
     1
102
RTVSPropertyOp2
 70
     1
102
RTVSPropertyOp3
 70
     1
102
RTVSPropertyOp4
 70
     1
102
RTVSPropertyOp5
 70
     1
102
RTVSPropertyOp6
 70
     1
102
RTVSPropertyOp7
 70
     1
102
RTVSPropertyOp8
 70
     1
102
RTVSPropertyOp9
 70
     1
102
RTVSPropertyOp10
 70
     1
102
RTVSPropertyOp11
 70
     1
102
RTVSPropertyOp12
 70
     1
102
RTVSPropertyOp13
 70
     1
102
RTVSPropertyOp14
 70
     1
102
RTVSPropertyOp15
 70
     1
102
RTVSPropertyOp16
 70
     1
102
RTVSPropertyOp17
 70
     1
102
RTVSPropertyOp18
 70
     1
102
RTVSPropertyOp19
 70
     1
102
RTVSPropertyOp20
 70
     1
102
RTVSPropertyOp21
 70
     1
102
RTVSPropertyOp22
 70
     1
102
RTVSPropertyOp23
 70
     1
102
RTVSPropertyOp24
 70
     1
102
RTVSPropertyOp25
 70
     1
102
RTVSPropertyOp26
 70
     1
102
RTVSPropertyOp27
 70
     1
102
RTVSPropertyOp28
 70
     1
102
RTVSPropertyOp29
 70
     1
102
RTVSPropertyOp30
 70
     1
102
RTVSPropertyOp31
 70
     1
102
RTVSPropertyOp32
 70
     1
102
RTVSPropertyOp33
 70
     1
102
RTVSPropertyOp34
 70
     1
102
RTVSPropertyOp35
 70
     1
102
RTVSPropertyOp36
 70
     1
102
RTVSPropertyOp37
 70
     1
102
RTVSPropertyOp38
 70
     1
102
RTVSPropertyOp39
 70
     1
102
RTVSPropertyOp40
 70
     1
102
RTVSPropertyOp41
 70
     1
102
RTVSPropertyOp42
 70
     1
102
RTVSPropertyOp43
 70
     1
102
RTVSPropertyOp44
 70
     1
102
RTVSPropertyOp45
 70
     1
102
RTVSPropertyOp46
 70
     1
102
RTVSPropertyOp47
 70
     1
102
RTVSPropertyOp48
 70
     1
102
RTVSPropertyOp49
 70
     1
102
RTVSPropertyOp50
 70
     1
102
RTVSPropertyOp51
 70
     0
102
RTVSPropertyOp52
 70
     0
102
RTVSPropertyOp53
 70
     1
102
RTVSPropertyOp54
 70
     1
102
RTVSPropertyOp55
 70
     1
102
RTVSPropertyOp56
 70
     1
102
RTVSPropertyOp57
 70
     1
102
RTVSPropertyOp58
 70
     1
102
RTVSPropertyOp59
 70
     1
102
RTVSPropertyOp60
 70
     1
102
RTVSPropertyOp61
 70
     1
102
RTVSPropertyOp62
 70
     1
  0
XRECORD
  5
29CE1
102
{ACAD_REACTORS
330
29CE0
102
}
330
29CE0
100
AcDbXrecord
280
     1
102
RTVSPost2010Prop28
280
     0
102
RTVSPost2010PropOp28
 70
     1
102
RTVSPost2010Prop29
280
     1
102
RTVSPost2010PropOp29
 70
     1
102
RTVSPost2010Prop30
280
     1
102
RTVSPost2010PropOp30
 70
     1
102
RTVSPost2010Prop31
280
     0
102
RTVSPost2010PropOp31
 70
     1
102
RTVSPost2010Prop32
280
     0
102
RTVSPost2010PropOp32
 70
     1
102
RTVSPost2010Prop33
280
     0
102
RTVSPost2010PropOp33
 70
     1
102
RTVSPost2010Prop34
280
     0
102
RTVSPost2010PropOp34
 70
     1
102
RTVSPost2010Prop35
280
     0
102
RTVSPost2010PropOp35
 70
     1
102
RTVSPost2010Prop36
280
     0
102
RTVSPost2010PropOp36
 70
     1
102
RTVSPost2010Prop37
 90
       50
102
RTVSPost2010PropOp37
 70
     1
102
RTVSPost2010Prop38
140
0.0
102
RTVSPost2010PropOp38
 70
     1
102
RTVSPost2010Prop39
140
1.0
102
RTVSPost2010PropOp39
 70
     1
102
RTVSPost2010Prop40
 90
        0
102
RTVSPost2010PropOp40
 70
     1
102
RTVSPost2010Prop41ColorIndex
 90
       18
102
RTVSPost2010Prop41ColorRGB
 90
        0
102
RTVSPost2010PropOp41
 70
     1
102
RTVSPost2010Prop42
 90
       50
102
RTVSPost2010PropOp42
 70
     1
102
RTVSPost2010Prop43
 90
        3
102
RTVSPost2010PropOp43
 70
     1
102
RTVSPost2010Prop44ColorIndex
 90
        5
102
RTVSPost2010Prop44ColorRGB
 90
      255
102
RTVSPost2010PropOp44
 70
     1
102
RTVSPost2010Prop45
280
     0
102
RTVSPost2010PropOp45
 70
     1
102
RTVSPost2010Prop46
 90
       50
102
RTVSPost2010PropOp46
 70
     1
102
RTVSPost2010Prop47
 90
       50
102
RTVSPost2010PropOp47
 70
     1
102
RTVSPost2010Prop48
 90
       50
102
RTVSPost2010PropOp48
 70
     1
102
RTVSPost2010Prop49
280
     0
102
RTVSPost2010PropOp49
 70
     1
102
RTVSPost2010Prop50
 90
       50
102
RTVSPost2010PropOp50
 70
     1
102
RTVSPost2010Prop51ColorIndex
 90
      256
102
RTVSPost2010Prop51ColorRGB
 90
-16777216
102
RTVSPost2010PropOp51
 70
     0
102
RTVSPost2010Prop52
140
1.0
102
RTVSPost2010PropOp52
 70
     0
102
RTVSPost2010Prop53
 90
        2
102
RTVSPost2010PropOp53
 70
     1
102
RTVSPost2010Prop54
  1
strokes_ogs.tif
102
RTVSPost2010PropOp54
 70
     1
102
RTVSPost2010Prop55
280
     0
102
RTVSPost2010PropOp55
 70
     1
102
RTVSPost2010Prop56
140
1.0
102
RTVSPost2010PropOp56
 70
     1
102
RTVSPost2010Prop57
140
1.0
102
RTVSPost2010PropOp57
 70
     1
102
RTVSPropertyOp0
 70
     1
102
RTVSPropertyOp1
 70
     1
102
RTVSPropertyOp2
 70
     1
102
RTVSPropertyOp3
 70
     1
102
RTVSPropertyOp4
 70
     1
102
RTVSPropertyOp5
 70
     1
102
RTVSPropertyOp6
 70
     1
102
RTVSPropertyOp7
 70
     1
102
RTVSPropertyOp8
 70
     1
102
RTVSPropertyOp9
 70
     1
102
RTVSPropertyOp10
 70
     1
102
RTVSPropertyOp11
 70
     1
102
RTVSPropertyOp12
 70
     1
102
RTVSPropertyOp13
 70
     1
102
RTVSPropertyOp14
 70
     1
102
RTVSPropertyOp15
 70
     1
102
RTVSPropertyOp16
 70
     1
102
RTVSPropertyOp17
 70
     1
102
RTVSPropertyOp18
 70
     1
102
RTVSPropertyOp19
 70
     1
102
RTVSPropertyOp20
 70
     1
102
RTVSPropertyOp21
 70
     1
102
RTVSPropertyOp22
 70
     1
102
RTVSPropertyOp23
 70
     1
102
RTVSPropertyOp24
 70
     1
102
RTVSPropertyOp25
 70
     1
102
RTVSPropertyOp26
 70
     1
102
RTVSPropertyOp27
 70
     1
102
RTVSPropertyOp28
 70
     1
102
RTVSPropertyOp29
 70
     1
102
RTVSPropertyOp30
 70
     1
102
RTVSPropertyOp31
 70
     1
102
RTVSPropertyOp32
 70
     1
102
RTVSPropertyOp33
 70
     1
102
RTVSPropertyOp34
 70
     1
102
RTVSPropertyOp35
 70
     1
102
RTVSPropertyOp36
 70
     1
102
RTVSPropertyOp37
 70
     1
102
RTVSPropertyOp38
 70
     1
102
RTVSPropertyOp39
 70
     1
102
RTVSPropertyOp40
 70
     1
102
RTVSPropertyOp41
 70
     1
102
RTVSPropertyOp42
 70
     1
102
RTVSPropertyOp43
 70
     1
102
RTVSPropertyOp44
 70
     1
102
RTVSPropertyOp45
 70
     1
102
RTVSPropertyOp46
 70
     1
102
RTVSPropertyOp47
 70
     1
102
RTVSPropertyOp48
 70
     1
102
RTVSPropertyOp49
 70
     1
102
RTVSPropertyOp50
 70
     1
102
RTVSPropertyOp51
 70
     0
102
RTVSPropertyOp52
 70
     0
102
RTVSPropertyOp53
 70
     1
102
RTVSPropertyOp54
 70
     1
102
RTVSPropertyOp55
 70
     1
102
RTVSPropertyOp56
 70
     1
102
RTVSPropertyOp57
 70
     1
102
RTVSPropertyOp58
 70
     1
102
RTVSPropertyOp59
 70
     1
102
RTVSPropertyOp60
 70
     1
102
RTVSPropertyOp61
 70
     1
102
RTVSPropertyOp62
 70
     1
  0
XRECORD
  5
29CE3
102
{ACAD_REACTORS
330
29CE2
102
}
330
29CE2
100
AcDbXrecord
280
     1
102
RTVSPost2010Prop28
280
     0
102
RTVSPost2010PropOp28
 70
     1
102
RTVSPost2010Prop29
280
     1
102
RTVSPost2010PropOp29
 70
     1
102
RTVSPost2010Prop30
280
     1
102
RTVSPost2010PropOp30
 70
     1
102
RTVSPost2010Prop31
280
     0
102
RTVSPost2010PropOp31
 70
     1
102
RTVSPost2010Prop32
280
     0
102
RTVSPost2010PropOp32
 70
     1
102
RTVSPost2010Prop33
280
     0
102
RTVSPost2010PropOp33
 70
     1
102
RTVSPost2010Prop34
280
     0
102
RTVSPost2010PropOp34
 70
     1
102
RTVSPost2010Prop35
280
     0
102
RTVSPost2010PropOp35
 70
     1
102
RTVSPost2010Prop36
280
     0
102
RTVSPost2010PropOp36
 70
     1
102
RTVSPost2010Prop37
 90
       50
102
RTVSPost2010PropOp37
 70
     1
102
RTVSPost2010Prop38
140
0.0
102
RTVSPost2010PropOp38
 70
     1
102
RTVSPost2010Prop39
140
1.0
102
RTVSPost2010PropOp39
 70
     1
102
RTVSPost2010Prop40
 90
        0
102
RTVSPost2010PropOp40
 70
     1
102
RTVSPost2010Prop41ColorIndex
 90
       18
102
RTVSPost2010Prop41ColorRGB
 90
        0
102
RTVSPost2010PropOp41
 70
     1
102
RTVSPost2010Prop42
 90
       50
102
RTVSPost2010PropOp42
 70
     1
102
RTVSPost2010Prop43
 90
        3
102
RTVSPost2010PropOp43
 70
     1
102
RTVSPost2010Prop44ColorIndex
 90
        5
102
RTVSPost2010Prop44ColorRGB
 90
      255
102
RTVSPost2010PropOp44
 70
     1
102
RTVSPost2010Prop45
280
     0
102
RTVSPost2010PropOp45
 70
     1
102
RTVSPost2010Prop46
 90
       50
102
RTVSPost2010PropOp46
 70
     1
102
RTVSPost2010Prop47
 90
       50
102
RTVSPost2010PropOp47
 70
     1
102
RTVSPost2010Prop48
 90
       50
102
RTVSPost2010PropOp48
 70
     1
102
RTVSPost2010Prop49
280
     0
102
RTVSPost2010PropOp49
 70
     1
102
RTVSPost2010Prop50
 90
       50
102
RTVSPost2010PropOp50
 70
     1
102
RTVSPost2010Prop51ColorIndex
 90
      256
102
RTVSPost2010Prop51ColorRGB
 90
-16777216
102
RTVSPost2010PropOp51
 70
     0
102
RTVSPost2010Prop52
140
1.0
102
RTVSPost2010PropOp52
 70
     0
102
RTVSPost2010Prop53
 90
        2
102
RTVSPost2010PropOp53
 70
     1
102
RTVSPost2010Prop54
  1
strokes_ogs.tif
102
RTVSPost2010PropOp54
 70
     1
102
RTVSPost2010Prop55
280
     0
102
RTVSPost2010PropOp55
 70
     1
102
RTVSPost2010Prop56
140
1.0
102
RTVSPost2010PropOp56
 70
     1
102
RTVSPost2010Prop57
140
1.0
102
RTVSPost2010PropOp57
 70
     1
102
RTVSPropertyOp0
 70
     1
102
RTVSPropertyOp1
 70
     1
102
RTVSPropertyOp2
 70
     1
102
RTVSPropertyOp3
 70
     1
102
RTVSPropertyOp4
 70
     1
102
RTVSPropertyOp5
 70
     1
102
RTVSPropertyOp6
 70
     1
102
RTVSPropertyOp7
 70
     1
102
RTVSPropertyOp8
 70
     1
102
RTVSPropertyOp9
 70
     1
102
RTVSPropertyOp10
 70
     1
102
RTVSPropertyOp11
 70
     1
102
RTVSPropertyOp12
 70
     1
102
RTVSPropertyOp13
 70
     1
102
RTVSPropertyOp14
 70
     1
102
RTVSPropertyOp15
 70
     1
102
RTVSPropertyOp16
 70
     1
102
RTVSPropertyOp17
 70
     1
102
RTVSPropertyOp18
 70
     1
102
RTVSPropertyOp19
 70
     1
102
RTVSPropertyOp20
 70
     1
102
RTVSPropertyOp21
 70
     1
102
RTVSPropertyOp22
 70
     1
102
RTVSPropertyOp23
 70
     1
102
RTVSPropertyOp24
 70
     1
102
RTVSPropertyOp25
 70
     1
102
RTVSPropertyOp26
 70
     1
102
RTVSPropertyOp27
 70
     1
102
RTVSPropertyOp28
 70
     1
102
RTVSPropertyOp29
 70
     1
102
RTVSPropertyOp30
 70
     1
102
RTVSPropertyOp31
 70
     1
102
RTVSPropertyOp32
 70
     1
102
RTVSPropertyOp33
 70
     1
102
RTVSPropertyOp34
 70
     1
102
RTVSPropertyOp35
 70
     1
102
RTVSPropertyOp36
 70
     1
102
RTVSPropertyOp37
 70
     1
102
RTVSPropertyOp38
 70
     1
102
RTVSPropertyOp39
 70
     1
102
RTVSPropertyOp40
 70
     1
102
RTVSPropertyOp41
 70
     1
102
RTVSPropertyOp42
 70
     1
102
RTVSPropertyOp43
 70
     1
102
RTVSPropertyOp44
 70
     1
102
RTVSPropertyOp45
 70
     1
102
RTVSPropertyOp46
 70
     1
102
RTVSPropertyOp47
 70
     1
102
RTVSPropertyOp48
 70
     1
102
RTVSPropertyOp49
 70
     1
102
RTVSPropertyOp50
 70
     1
102
RTVSPropertyOp51
 70
     0
102
RTVSPropertyOp52
 70
     0
102
RTVSPropertyOp53
 70
     1
102
RTVSPropertyOp54
 70
     1
102
RTVSPropertyOp55
 70
     1
102
RTVSPropertyOp56
 70
     1
102
RTVSPropertyOp57
 70
     1
102
RTVSPropertyOp58
 70
     1
102
RTVSPropertyOp59
 70
     1
102
RTVSPropertyOp60
 70
     1
102
RTVSPropertyOp61
 70
     1
102
RTVSPropertyOp62
 70
     1
  0
XRECORD
  5
29CE5
102
{ACAD_REACTORS
330
29CE4
102
}
330
29CE4
100
AcDbXrecord
280
     1
102
RTVSPost2010Prop28
280
     0
102
RTVSPost2010PropOp28
 70
     1
102
RTVSPost2010Prop29
280
     1
102
RTVSPost2010PropOp29
 70
     1
102
RTVSPost2010Prop30
280
     1
102
RTVSPost2010PropOp30
 70
     1
102
RTVSPost2010Prop31
280
     0
102
RTVSPost2010PropOp31
 70
     1
102
RTVSPost2010Prop32
280
     0
102
RTVSPost2010PropOp32
 70
     1
102
RTVSPost2010Prop33
280
     0
102
RTVSPost2010PropOp33
 70
     1
102
RTVSPost2010Prop34
280
     0
102
RTVSPost2010PropOp34
 70
     1
102
RTVSPost2010Prop35
280
     0
102
RTVSPost2010PropOp35
 70
     1
102
RTVSPost2010Prop36
280
     0
102
RTVSPost2010PropOp36
 70
     1
102
RTVSPost2010Prop37
 90
       50
102
RTVSPost2010PropOp37
 70
     1
102
RTVSPost2010Prop38
140
0.0
102
RTVSPost2010PropOp38
 70
     1
102
RTVSPost2010Prop39
140
1.0
102
RTVSPost2010PropOp39
 70
     1
102
RTVSPost2010Prop40
 90
        0
102
RTVSPost2010PropOp40
 70
     1
102
RTVSPost2010Prop41ColorIndex
 90
       18
102
RTVSPost2010Prop41ColorRGB
 90
        0
102
RTVSPost2010PropOp41
 70
     1
102
RTVSPost2010Prop42
 90
       50
102
RTVSPost2010PropOp42
 70
     1
102
RTVSPost2010Prop43
 90
        3
102
RTVSPost2010PropOp43
 70
     1
102
RTVSPost2010Prop44ColorIndex
 90
        5
102
RTVSPost2010Prop44ColorRGB
 90
      255
102
RTVSPost2010PropOp44
 70
     1
102
RTVSPost2010Prop45
280
     0
102
RTVSPost2010PropOp45
 70
     1
102
RTVSPost2010Prop46
 90
       50
102
RTVSPost2010PropOp46
 70
     1
102
RTVSPost2010Prop47
 90
       50
102
RTVSPost2010PropOp47
 70
     1
102
RTVSPost2010Prop48
 90
       50
102
RTVSPost2010PropOp48
 70
     1
102
RTVSPost2010Prop49
280
     0
102
RTVSPost2010PropOp49
 70
     1
102
RTVSPost2010Prop50
 90
       50
102
RTVSPost2010PropOp50
 70
     1
102
RTVSPost2010Prop51ColorIndex
 90
      256
102
RTVSPost2010Prop51ColorRGB
 90
-16777216
102
RTVSPost2010PropOp51
 70
     0
102
RTVSPost2010Prop52
140
1.0
102
RTVSPost2010PropOp52
 70
     0
102
RTVSPost2010Prop53
 90
        2
102
RTVSPost2010PropOp53
 70
     1
102
RTVSPost2010Prop54
  1
strokes_ogs.tif
102
RTVSPost2010PropOp54
 70
     1
102
RTVSPost2010Prop55
280
     0
102
RTVSPost2010PropOp55
 70
     1
102
RTVSPost2010Prop56
140
1.0
102
RTVSPost2010PropOp56
 70
     1
102
RTVSPost2010Prop57
140
1.0
102
RTVSPost2010PropOp57
 70
     1
102
RTVSPropertyOp0
 70
     1
102
RTVSPropertyOp1
 70
     1
102
RTVSPropertyOp2
 70
     1
102
RTVSPropertyOp3
 70
     1
102
RTVSPropertyOp4
 70
     1
102
RTVSPropertyOp5
 70
     1
102
RTVSPropertyOp6
 70
     1
102
RTVSPropertyOp7
 70
     1
102
RTVSPropertyOp8
 70
     1
102
RTVSPropertyOp9
 70
     1
102
RTVSPropertyOp10
 70
     1
102
RTVSPropertyOp11
 70
     1
102
RTVSPropertyOp12
 70
     1
102
RTVSPropertyOp13
 70
     1
102
RTVSPropertyOp14
 70
     1
102
RTVSPropertyOp15
 70
     1
102
RTVSPropertyOp16
 70
     1
102
RTVSPropertyOp17
 70
     1
102
RTVSPropertyOp18
 70
     1
102
RTVSPropertyOp19
 70
     1
102
RTVSPropertyOp20
 70
     1
102
RTVSPropertyOp21
 70
     1
102
RTVSPropertyOp22
 70
     1
102
RTVSPropertyOp23
 70
     1
102
RTVSPropertyOp24
 70
     1
102
RTVSPropertyOp25
 70
     1
102
RTVSPropertyOp26
 70
     1
102
RTVSPropertyOp27
 70
     1
102
RTVSPropertyOp28
 70
     1
102
RTVSPropertyOp29
 70
     1
102
RTVSPropertyOp30
 70
     1
102
RTVSPropertyOp31
 70
     1
102
RTVSPropertyOp32
 70
     1
102
RTVSPropertyOp33
 70
     1
102
RTVSPropertyOp34
 70
     1
102
RTVSPropertyOp35
 70
     1
102
RTVSPropertyOp36
 70
     1
102
RTVSPropertyOp37
 70
     1
102
RTVSPropertyOp38
 70
     1
102
RTVSPropertyOp39
 70
     1
102
RTVSPropertyOp40
 70
     1
102
RTVSPropertyOp41
 70
     1
102
RTVSPropertyOp42
 70
     1
102
RTVSPropertyOp43
 70
     1
102
RTVSPropertyOp44
 70
     1
102
RTVSPropertyOp45
 70
     1
102
RTVSPropertyOp46
 70
     1
102
RTVSPropertyOp47
 70
     1
102
RTVSPropertyOp48
 70
     1
102
RTVSPropertyOp49
 70
     1
102
RTVSPropertyOp50
 70
     1
102
RTVSPropertyOp51
 70
     0
102
RTVSPropertyOp52
 70
     0
102
RTVSPropertyOp53
 70
     1
102
RTVSPropertyOp54
 70
     1
102
RTVSPropertyOp55
 70
     1
102
RTVSPropertyOp56
 70
     1
102
RTVSPropertyOp57
 70
     1
102
RTVSPropertyOp58
 70
     1
102
RTVSPropertyOp59
 70
     1
102
RTVSPropertyOp60
 70
     1
102
RTVSPropertyOp61
 70
     1
102
RTVSPropertyOp62
 70
     1
  0
XRECORD
  5
29CED
102
{ACAD_REACTORS
330
29CEC
102
}
330
29CEC
100
AcDbXrecord
280
     1
102
RTVSPost2010Prop28
280
     0
102
RTVSPost2010PropOp28
 70
     1
102
RTVSPost2010Prop29
280
     1
102
RTVSPost2010PropOp29
 70
     1
102
RTVSPost2010Prop30
280
     1
102
RTVSPost2010PropOp30
 70
     1
102
RTVSPost2010Prop31
280
     0
102
RTVSPost2010PropOp31
 70
     1
102
RTVSPost2010Prop32
280
     0
102
RTVSPost2010PropOp32
 70
     1
102
RTVSPost2010Prop33
280
     0
102
RTVSPost2010PropOp33
 70
     1
102
RTVSPost2010Prop34
280
     0
102
RTVSPost2010PropOp34
 70
     1
102
RTVSPost2010Prop35
280
     0
102
RTVSPost2010PropOp35
 70
     1
102
RTVSPost2010Prop36
280
     0
102
RTVSPost2010PropOp36
 70
     1
102
RTVSPost2010Prop37
 90
       50
102
RTVSPost2010PropOp37
 70
     1
102
RTVSPost2010Prop38
140
0.0
102
RTVSPost2010PropOp38
 70
     1
102
RTVSPost2010Prop39
140
1.0
102
RTVSPost2010PropOp39
 70
     1
102
RTVSPost2010Prop40
 90
        0
102
RTVSPost2010PropOp40
 70
     1
102
RTVSPost2010Prop41ColorIndex
 90
       18
102
RTVSPost2010Prop41ColorRGB
 90
        0
102
RTVSPost2010PropOp41
 70
     1
102
RTVSPost2010Prop42
 90
       50
102
RTVSPost2010PropOp42
 70
     1
102
RTVSPost2010Prop43
 90
        3
102
RTVSPost2010PropOp43
 70
     1
102
RTVSPost2010Prop44ColorIndex
 90
        5
102
RTVSPost2010Prop44ColorRGB
 90
      255
102
RTVSPost2010PropOp44
 70
     1
102
RTVSPost2010Prop45
280
     0
102
RTVSPost2010PropOp45
 70
     1
102
RTVSPost2010Prop46
 90
       50
102
RTVSPost2010PropOp46
 70
     1
102
RTVSPost2010Prop47
 90
       50
102
RTVSPost2010PropOp47
 70
     1
102
RTVSPost2010Prop48
 90
       50
102
RTVSPost2010PropOp48
 70
     1
102
RTVSPost2010Prop49
280
     0
102
RTVSPost2010PropOp49
 70
     1
102
RTVSPost2010Prop50
 90
       50
102
RTVSPost2010PropOp50
 70
     1
102
RTVSPost2010Prop51ColorIndex
 90
      256
102
RTVSPost2010Prop51ColorRGB
 90
-16777216
102
RTVSPost2010PropOp51
 70
     0
102
RTVSPost2010Prop52
140
1.0
102
RTVSPost2010PropOp52
 70
     0
102
RTVSPost2010Prop53
 90
        2
102
RTVSPost2010PropOp53
 70
     1
102
RTVSPost2010Prop54
  1
strokes_ogs.tif
102
RTVSPost2010PropOp54
 70
     1
102
RTVSPost2010Prop55
280
     0
102
RTVSPost2010PropOp55
 70
     1
102
RTVSPost2010Prop56
140
1.0
102
RTVSPost2010PropOp56
 70
     1
102
RTVSPost2010Prop57
140
1.0
102
RTVSPost2010PropOp57
 70
     1
102
RTVSPropertyOp0
 70
     1
102
RTVSPropertyOp1
 70
     1
102
RTVSPropertyOp2
 70
     1
102
RTVSPropertyOp3
 70
     1
102
RTVSPropertyOp4
 70
     1
102
RTVSPropertyOp5
 70
     1
102
RTVSPropertyOp6
 70
     1
102
RTVSPropertyOp7
 70
     1
102
RTVSPropertyOp8
 70
     1
102
RTVSPropertyOp9
 70
     1
102
RTVSPropertyOp10
 70
     1
102
RTVSPropertyOp11
 70
     1
102
RTVSPropertyOp12
 70
     1
102
RTVSPropertyOp13
 70
     1
102
RTVSPropertyOp14
 70
     1
102
RTVSPropertyOp15
 70
     1
102
RTVSPropertyOp16
 70
     1
102
RTVSPropertyOp17
 70
     1
102
RTVSPropertyOp18
 70
     1
102
RTVSPropertyOp19
 70
     1
102
RTVSPropertyOp20
 70
     1
102
RTVSPropertyOp21
 70
     1
102
RTVSPropertyOp22
 70
     1
102
RTVSPropertyOp23
 70
     1
102
RTVSPropertyOp24
 70
     1
102
RTVSPropertyOp25
 70
     1
102
RTVSPropertyOp26
 70
     1
102
RTVSPropertyOp27
 70
     1
102
RTVSPropertyOp28
 70
     1
102
RTVSPropertyOp29
 70
     1
102
RTVSPropertyOp30
 70
     1
102
RTVSPropertyOp31
 70
     1
102
RTVSPropertyOp32
 70
     1
102
RTVSPropertyOp33
 70
     1
102
RTVSPropertyOp34
 70
     1
102
RTVSPropertyOp35
 70
     1
102
RTVSPropertyOp36
 70
     1
102
RTVSPropertyOp37
 70
     1
102
RTVSPropertyOp38
 70
     1
102
RTVSPropertyOp39
 70
     1
102
RTVSPropertyOp40
 70
     1
102
RTVSPropertyOp41
 70
     1
102
RTVSPropertyOp42
 70
     1
102
RTVSPropertyOp43
 70
     1
102
RTVSPropertyOp44
 70
     1
102
RTVSPropertyOp45
 70
     1
102
RTVSPropertyOp46
 70
     1
102
RTVSPropertyOp47
 70
     1
102
RTVSPropertyOp48
 70
     1
102
RTVSPropertyOp49
 70
     1
102
RTVSPropertyOp50
 70
     1
102
RTVSPropertyOp51
 70
     0
102
RTVSPropertyOp52
 70
     0
102
RTVSPropertyOp53
 70
     1
102
RTVSPropertyOp54
 70
     1
102
RTVSPropertyOp55
 70
     1
102
RTVSPropertyOp56
 70
     1
102
RTVSPropertyOp57
 70
     1
102
RTVSPropertyOp58
 70
     1
102
RTVSPropertyOp59
 70
     1
102
RTVSPropertyOp60
 70
     1
102
RTVSPropertyOp61
 70
     1
102
RTVSPropertyOp62
 70
     1
  0
XRECORD
  5
29D09
102
{ACAD_REACTORS
330
29D08
102
}
330
29D08
100
AcDbXrecord
280
     1
102
RTVSPost2010Prop28
280
     0
102
RTVSPost2010PropOp28
 70
     1
102
RTVSPost2010Prop29
280
     1
102
RTVSPost2010PropOp29
 70
     1
102
RTVSPost2010Prop30
280
     1
102
RTVSPost2010PropOp30
 70
     1
102
RTVSPost2010Prop31
280
     0
102
RTVSPost2010PropOp31
 70
     1
102
RTVSPost2010Prop32
280
     0
102
RTVSPost2010PropOp32
 70
     1
102
RTVSPost2010Prop33
280
     0
102
RTVSPost2010PropOp33
 70
     1
102
RTVSPost2010Prop34
280
     0
102
RTVSPost2010PropOp34
 70
     1
102
RTVSPost2010Prop35
280
     0
102
RTVSPost2010PropOp35
 70
     1
102
RTVSPost2010Prop36
280
     0
102
RTVSPost2010PropOp36
 70
     1
102
RTVSPost2010Prop37
 90
       50
102
RTVSPost2010PropOp37
 70
     0
102
RTVSPost2010Prop38
140
0.0
102
RTVSPost2010PropOp38
 70
     0
102
RTVSPost2010Prop39
140
1.0
102
RTVSPost2010PropOp39
 70
     0
102
RTVSPost2010Prop40
 90
        0
102
RTVSPost2010PropOp40
 70
     0
102
RTVSPost2010Prop41ColorIndex
 90
       18
102
RTVSPost2010Prop41ColorRGB
 90
        0
102
RTVSPost2010PropOp41
 70
     0
102
RTVSPost2010Prop42
 90
       50
102
RTVSPost2010PropOp42
 70
     0
102
RTVSPost2010Prop43
 90
        3
102
RTVSPost2010PropOp43
 70
     0
102
RTVSPost2010Prop44ColorIndex
 90
        5
102
RTVSPost2010Prop44ColorRGB
 90
      255
102
RTVSPost2010PropOp44
 70
     0
102
RTVSPost2010Prop45
280
     0
102
RTVSPost2010PropOp45
 70
     1
102
RTVSPost2010Prop46
 90
       50
102
RTVSPost2010PropOp46
 70
     0
102
RTVSPost2010Prop47
 90
       50
102
RTVSPost2010PropOp47
 70
     0
102
RTVSPost2010Prop48
 90
       50
102
RTVSPost2010PropOp48
 70
     0
102
RTVSPost2010Prop49
280
     0
102
RTVSPost2010PropOp49
 70
     1
102
RTVSPost2010Prop50
 90
       50
102
RTVSPost2010PropOp50
 70
     0
102
RTVSPost2010Prop51ColorIndex
 90
      256
102
RTVSPost2010Prop51ColorRGB
 90
-16777216
102
RTVSPost2010PropOp51
 70
     0
102
RTVSPost2010Prop52
140
1.0
102
RTVSPost2010PropOp52
 70
     0
102
RTVSPost2010Prop53
 90
        2
102
RTVSPost2010PropOp53
 70
     0
102
RTVSPost2010Prop54
  1
strokes_ogs.tif
102
RTVSPost2010PropOp54
 70
     0
102
RTVSPost2010Prop55
280
     0
102
RTVSPost2010PropOp55
 70
     1
102
RTVSPost2010Prop56
140
1.0
102
RTVSPost2010PropOp56
 70
     0
102
RTVSPost2010Prop57
140
1.0
102
RTVSPost2010PropOp57
 70
     0
102
RTVSPropertyOp0
 70
     0
102
RTVSPropertyOp1
 70
     0
102
RTVSPropertyOp2
 70
     0
102
RTVSPropertyOp3
 70
     0
102
RTVSPropertyOp4
 70
     0
102
RTVSPropertyOp5
 70
     0
102
RTVSPropertyOp6
 70
     0
102
RTVSPropertyOp7
 70
     0
102
RTVSPropertyOp8
 70
     0
102
RTVSPropertyOp9
 70
     0
102
RTVSPropertyOp10
 70
     0
102
RTVSPropertyOp11
 70
     0
102
RTVSPropertyOp12
 70
     0
102
RTVSPropertyOp13
 70
     0
102
RTVSPropertyOp14
 70
     2
102
RTVSPropertyOp15
 70
     0
102
RTVSPropertyOp16
 70
     0
102
RTVSPropertyOp17
 70
     0
102
RTVSPropertyOp18
 70
     0
102
RTVSPropertyOp19
 70
     0
102
RTVSPropertyOp20
 70
     0
102
RTVSPropertyOp21
 70
     0
102
RTVSPropertyOp22
 70
     0
102
RTVSPropertyOp23
 70
     0
102
RTVSPropertyOp24
 70
     0
102
RTVSPropertyOp25
 70
     0
102
RTVSPropertyOp26
 70
     0
102
RTVSPropertyOp27
 70
     0
102
RTVSPropertyOp28
 70
     1
102
RTVSPropertyOp29
 70
     1
102
RTVSPropertyOp30
 70
     1
102
RTVSPropertyOp31
 70
     1
102
RTVSPropertyOp32
 70
     1
102
RTVSPropertyOp33
 70
     1
102
RTVSPropertyOp34
 70
     1
102
RTVSPropertyOp35
 70
     1
102
RTVSPropertyOp36
 70
     1
102
RTVSPropertyOp37
 70
     0
102
RTVSPropertyOp38
 70
     0
102
RTVSPropertyOp39
 70
     0
102
RTVSPropertyOp40
 70
     0
102
RTVSPropertyOp41
 70
     0
102
RTVSPropertyOp42
 70
     0
102
RTVSPropertyOp43
 70
     0
102
RTVSPropertyOp44
 70
     0
102
RTVSPropertyOp45
 70
     1
102
RTVSPropertyOp46
 70
     0
102
RTVSPropertyOp47
 70
     0
102
RTVSPropertyOp48
 70
     0
102
RTVSPropertyOp49
 70
     1
102
RTVSPropertyOp50
 70
     0
102
RTVSPropertyOp51
 70
     0
102
RTVSPropertyOp52
 70
     0
102
RTVSPropertyOp53
 70
     0
102
RTVSPropertyOp54
 70
     0
102
RTVSPropertyOp55
 70
     1
102
RTVSPropertyOp56
 70
     0
102
RTVSPropertyOp57
 70
     0
102
RTVSPropertyOp58
 70
     0
102
RTVSPropertyOp59
 70
     0
102
RTVSPropertyOp60
 70
     0
102
RTVSPropertyOp61
 70
     0
102
RTVSPropertyOp62
 70
     0
  0
XRECORD
  5
29CF9
102
{ACAD_REACTORS
330
29CF8
102
}
330
29CF8
100
AcDbXrecord
280
     1
102
RTVSPost2010Prop28
280
     0
102
RTVSPost2010PropOp28
 70
     1
102
RTVSPost2010Prop29
280
     1
102
RTVSPost2010PropOp29
 70
     1
102
RTVSPost2010Prop30
280
     1
102
RTVSPost2010PropOp30
 70
     1
102
RTVSPost2010Prop31
280
     0
102
RTVSPost2010PropOp31
 70
     1
102
RTVSPost2010Prop32
280
     0
102
RTVSPost2010PropOp32
 70
     1
102
RTVSPost2010Prop33
280
     0
102
RTVSPost2010PropOp33
 70
     1
102
RTVSPost2010Prop34
280
     0
102
RTVSPost2010PropOp34
 70
     1
102
RTVSPost2010Prop35
280
     0
102
RTVSPost2010PropOp35
 70
     1
102
RTVSPost2010Prop36
280
     0
102
RTVSPost2010PropOp36
 70
     1
102
RTVSPost2010Prop37
 90
       50
102
RTVSPost2010PropOp37
 70
     1
102
RTVSPost2010Prop38
140
0.0
102
RTVSPost2010PropOp38
 70
     1
102
RTVSPost2010Prop39
140
1.0
102
RTVSPost2010PropOp39
 70
     1
102
RTVSPost2010Prop40
 90
        0
102
RTVSPost2010PropOp40
 70
     1
102
RTVSPost2010Prop41ColorIndex
 90
       18
102
RTVSPost2010Prop41ColorRGB
 90
        0
102
RTVSPost2010PropOp41
 70
     1
102
RTVSPost2010Prop42
 90
       50
102
RTVSPost2010PropOp42
 70
     1
102
RTVSPost2010Prop43
 90
        3
102
RTVSPost2010PropOp43
 70
     1
102
RTVSPost2010Prop44ColorIndex
 90
        5
102
RTVSPost2010Prop44ColorRGB
 90
      255
102
RTVSPost2010PropOp44
 70
     1
102
RTVSPost2010Prop45
280
     0
102
RTVSPost2010PropOp45
 70
     1
102
RTVSPost2010Prop46
 90
       50
102
RTVSPost2010PropOp46
 70
     1
102
RTVSPost2010Prop47
 90
       50
102
RTVSPost2010PropOp47
 70
     1
102
RTVSPost2010Prop48
 90
       50
102
RTVSPost2010PropOp48
 70
     1
102
RTVSPost2010Prop49
280
     0
102
RTVSPost2010PropOp49
 70
     1
102
RTVSPost2010Prop50
 90
       50
102
RTVSPost2010PropOp50
 70
     1
102
RTVSPost2010Prop51ColorIndex
 90
      256
102
RTVSPost2010Prop51ColorRGB
 90
-16777216
102
RTVSPost2010PropOp51
 70
     0
102
RTVSPost2010Prop52
140
1.0
102
RTVSPost2010PropOp52
 70
     0
102
RTVSPost2010Prop53
 90
        2
102
RTVSPost2010PropOp53
 70
     1
102
RTVSPost2010Prop54
  1
strokes_ogs.tif
102
RTVSPost2010PropOp54
 70
     1
102
RTVSPost2010Prop55
280
     0
102
RTVSPost2010PropOp55
 70
     1
102
RTVSPost2010Prop56
140
1.0
102
RTVSPost2010PropOp56
 70
     1
102
RTVSPost2010Prop57
140
1.0
102
RTVSPost2010PropOp57
 70
     1
102
RTVSPropertyOp0
 70
     1
102
RTVSPropertyOp1
 70
     1
102
RTVSPropertyOp2
 70
     1
102
RTVSPropertyOp3
 70
     1
102
RTVSPropertyOp4
 70
     1
102
RTVSPropertyOp5
 70
     1
102
RTVSPropertyOp6
 70
     1
102
RTVSPropertyOp7
 70
     1
102
RTVSPropertyOp8
 70
     1
102
RTVSPropertyOp9
 70
     1
102
RTVSPropertyOp10
 70
     1
102
RTVSPropertyOp11
 70
     1
102
RTVSPropertyOp12
 70
     1
102
RTVSPropertyOp13
 70
     1
102
RTVSPropertyOp14
 70
     1
102
RTVSPropertyOp15
 70
     1
102
RTVSPropertyOp16
 70
     1
102
RTVSPropertyOp17
 70
     1
102
RTVSPropertyOp18
 70
     1
102
RTVSPropertyOp19
 70
     1
102
RTVSPropertyOp20
 70
     1
102
RTVSPropertyOp21
 70
     1
102
RTVSPropertyOp22
 70
     1
102
RTVSPropertyOp23
 70
     1
102
RTVSPropertyOp24
 70
     1
102
RTVSPropertyOp25
 70
     1
102
RTVSPropertyOp26
 70
     1
102
RTVSPropertyOp27
 70
     1
102
RTVSPropertyOp28
 70
     1
102
RTVSPropertyOp29
 70
     1
102
RTVSPropertyOp30
 70
     1
102
RTVSPropertyOp31
 70
     1
102
RTVSPropertyOp32
 70
     1
102
RTVSPropertyOp33
 70
     1
102
RTVSPropertyOp34
 70
     1
102
RTVSPropertyOp35
 70
     1
102
RTVSPropertyOp36
 70
     1
102
RTVSPropertyOp37
 70
     1
102
RTVSPropertyOp38
 70
     1
102
RTVSPropertyOp39
 70
     1
102
RTVSPropertyOp40
 70
     1
102
RTVSPropertyOp41
 70
     1
102
RTVSPropertyOp42
 70
     1
102
RTVSPropertyOp43
 70
     1
102
RTVSPropertyOp44
 70
     1
102
RTVSPropertyOp45
 70
     1
102
RTVSPropertyOp46
 70
     1
102
RTVSPropertyOp47
 70
     1
102
RTVSPropertyOp48
 70
     1
102
RTVSPropertyOp49
 70
     1
102
RTVSPropertyOp50
 70
     1
102
RTVSPropertyOp51
 70
     0
102
RTVSPropertyOp52
 70
     0
102
RTVSPropertyOp53
 70
     1
102
RTVSPropertyOp54
 70
     1
102
RTVSPropertyOp55
 70
     1
102
RTVSPropertyOp56
 70
     1
102
RTVSPropertyOp57
 70
     1
102
RTVSPropertyOp58
 70
     1
102
RTVSPropertyOp59
 70
     1
102
RTVSPropertyOp60
 70
     1
102
RTVSPropertyOp61
 70
     1
102
RTVSPropertyOp62
 70
     1
  0
XRECORD
  5
29D0B
102
{ACAD_REACTORS
330
29D0A
102
}
330
29D0A
100
AcDbXrecord
280
     1
102
RTVSPost2010Prop28
280
     0
102
RTVSPost2010PropOp28
 70
     1
102
RTVSPost2010Prop29
280
     1
102
RTVSPost2010PropOp29
 70
     1
102
RTVSPost2010Prop30
280
     1
102
RTVSPost2010PropOp30
 70
     1
102
RTVSPost2010Prop31
280
     0
102
RTVSPost2010PropOp31
 70
     1
102
RTVSPost2010Prop32
280
     0
102
RTVSPost2010PropOp32
 70
     1
102
RTVSPost2010Prop33
280
     0
102
RTVSPost2010PropOp33
 70
     1
102
RTVSPost2010Prop34
280
     0
102
RTVSPost2010PropOp34
 70
     1
102
RTVSPost2010Prop35
280
     0
102
RTVSPost2010PropOp35
 70
     1
102
RTVSPost2010Prop36
280
     0
102
RTVSPost2010PropOp36
 70
     1
102
RTVSPost2010Prop37
 90
       50
102
RTVSPost2010PropOp37
 70
     0
102
RTVSPost2010Prop38
140
0.0
102
RTVSPost2010PropOp38
 70
     0
102
RTVSPost2010Prop39
140
1.0
102
RTVSPost2010PropOp39
 70
     0
102
RTVSPost2010Prop40
 90
        0
102
RTVSPost2010PropOp40
 70
     0
102
RTVSPost2010Prop41ColorIndex
 90
       18
102
RTVSPost2010Prop41ColorRGB
 90
        0
102
RTVSPost2010PropOp41
 70
     0
102
RTVSPost2010Prop42
 90
       50
102
RTVSPost2010PropOp42
 70
     0
102
RTVSPost2010Prop43
 90
        3
102
RTVSPost2010PropOp43
 70
     0
102
RTVSPost2010Prop44ColorIndex
 90
        5
102
RTVSPost2010Prop44ColorRGB
 90
      255
102
RTVSPost2010PropOp44
 70
     0
102
RTVSPost2010Prop45
280
     0
102
RTVSPost2010PropOp45
 70
     1
102
RTVSPost2010Prop46
 90
       50
102
RTVSPost2010PropOp46
 70
     0
102
RTVSPost2010Prop47
 90
       50
102
RTVSPost2010PropOp47
 70
     0
102
RTVSPost2010Prop48
 90
       50
102
RTVSPost2010PropOp48
 70
     0
102
RTVSPost2010Prop49
280
     0
102
RTVSPost2010PropOp49
 70
     1
102
RTVSPost2010Prop50
 90
       50
102
RTVSPost2010PropOp50
 70
     0
102
RTVSPost2010Prop51ColorIndex
 90
      256
102
RTVSPost2010Prop51ColorRGB
 90
-16777216
102
RTVSPost2010PropOp51
 70
     0
102
RTVSPost2010Prop52
140
1.0
102
RTVSPost2010PropOp52
 70
     0
102
RTVSPost2010Prop53
 90
        2
102
RTVSPost2010PropOp53
 70
     0
102
RTVSPost2010Prop54
  1
strokes_ogs.tif
102
RTVSPost2010PropOp54
 70
     0
102
RTVSPost2010Prop55
280
     0
102
RTVSPost2010PropOp55
 70
     1
102
RTVSPost2010Prop56
140
1.0
102
RTVSPost2010PropOp56
 70
     0
102
RTVSPost2010Prop57
140
1.0
102
RTVSPost2010PropOp57
 70
     0
102
RTVSPropertyOp0
 70
     0
102
RTVSPropertyOp1
 70
     0
102
RTVSPropertyOp2
 70
     0
102
RTVSPropertyOp3
 70
     0
102
RTVSPropertyOp4
 70
     0
102
RTVSPropertyOp5
 70
     0
102
RTVSPropertyOp6
 70
     0
102
RTVSPropertyOp7
 70
     0
102
RTVSPropertyOp8
 70
     0
102
RTVSPropertyOp9
 70
     0
102
RTVSPropertyOp10
 70
     0
102
RTVSPropertyOp11
 70
     0
102
RTVSPropertyOp12
 70
     0
102
RTVSPropertyOp13
 70
     0
102
RTVSPropertyOp14
 70
     2
102
RTVSPropertyOp15
 70
     0
102
RTVSPropertyOp16
 70
     0
102
RTVSPropertyOp17
 70
     0
102
RTVSPropertyOp18
 70
     0
102
RTVSPropertyOp19
 70
     0
102
RTVSPropertyOp20
 70
     0
102
RTVSPropertyOp21
 70
     0
102
RTVSPropertyOp22
 70
     0
102
RTVSPropertyOp23
 70
     0
102
RTVSPropertyOp24
 70
     0
102
RTVSPropertyOp25
 70
     0
102
RTVSPropertyOp26
 70
     0
102
RTVSPropertyOp27
 70
     0
102
RTVSPropertyOp28
 70
     1
102
RTVSPropertyOp29
 70
     1
102
RTVSPropertyOp30
 70
     1
102
RTVSPropertyOp31
 70
     1
102
RTVSPropertyOp32
 70
     1
102
RTVSPropertyOp33
 70
     1
102
RTVSPropertyOp34
 70
     1
102
RTVSPropertyOp35
 70
     1
102
RTVSPropertyOp36
 70
     1
102
RTVSPropertyOp37
 70
     0
102
RTVSPropertyOp38
 70
     0
102
RTVSPropertyOp39
 70
     0
102
RTVSPropertyOp40
 70
     0
102
RTVSPropertyOp41
 70
     0
102
RTVSPropertyOp42
 70
     0
102
RTVSPropertyOp43
 70
     0
102
RTVSPropertyOp44
 70
     0
102
RTVSPropertyOp45
 70
     1
102
RTVSPropertyOp46
 70
     0
102
RTVSPropertyOp47
 70
     0
102
RTVSPropertyOp48
 70
     0
102
RTVSPropertyOp49
 70
     1
102
RTVSPropertyOp50
 70
     0
102
RTVSPropertyOp51
 70
     0
102
RTVSPropertyOp52
 70
     0
102
RTVSPropertyOp53
 70
     0
102
RTVSPropertyOp54
 70
     0
102
RTVSPropertyOp55
 70
     1
102
RTVSPropertyOp56
 70
     0
102
RTVSPropertyOp57
 70
     0
102
RTVSPropertyOp58
 70
     0
102
RTVSPropertyOp59
 70
     0
102
RTVSPropertyOp60
 70
     0
102
RTVSPropertyOp61
 70
     0
102
RTVSPropertyOp62
 70
     0
  0
XRECORD
  5
29CF1
102
{ACAD_REACTORS
330
29CF0
102
}
330
29CF0
100
AcDbXrecord
280
     1
102
RTVSPost2010Prop28
280
     0
102
RTVSPost2010PropOp28
 70
     1
102
RTVSPost2010Prop29
280
     1
102
RTVSPost2010PropOp29
 70
     1
102
RTVSPost2010Prop30
280
     1
102
RTVSPost2010PropOp30
 70
     1
102
RTVSPost2010Prop31
280
     0
102
RTVSPost2010PropOp31
 70
     1
102
RTVSPost2010Prop32
280
     0
102
RTVSPost2010PropOp32
 70
     1
102
RTVSPost2010Prop33
280
     0
102
RTVSPost2010PropOp33
 70
     1
102
RTVSPost2010Prop34
280
     0
102
RTVSPost2010PropOp34
 70
     1
102
RTVSPost2010Prop35
280
     0
102
RTVSPost2010PropOp35
 70
     1
102
RTVSPost2010Prop36
280
     0
102
RTVSPost2010PropOp36
 70
     1
102
RTVSPost2010Prop37
 90
       50
102
RTVSPost2010PropOp37
 70
     1
102
RTVSPost2010Prop38
140
0.0
102
RTVSPost2010PropOp38
 70
     1
102
RTVSPost2010Prop39
140
1.0
102
RTVSPost2010PropOp39
 70
     1
102
RTVSPost2010Prop40
 90
        0
102
RTVSPost2010PropOp40
 70
     1
102
RTVSPost2010Prop41ColorIndex
 90
       18
102
RTVSPost2010Prop41ColorRGB
 90
        0
102
RTVSPost2010PropOp41
 70
     1
102
RTVSPost2010Prop42
 90
       50
102
RTVSPost2010PropOp42
 70
     1
102
RTVSPost2010Prop43
 90
        3
102
RTVSPost2010PropOp43
 70
     1
102
RTVSPost2010Prop44ColorIndex
 90
        5
102
RTVSPost2010Prop44ColorRGB
 90
      255
102
RTVSPost2010PropOp44
 70
     1
102
RTVSPost2010Prop45
280
     0
102
RTVSPost2010PropOp45
 70
     1
102
RTVSPost2010Prop46
 90
       50
102
RTVSPost2010PropOp46
 70
     1
102
RTVSPost2010Prop47
 90
       50
102
RTVSPost2010PropOp47
 70
     1
102
RTVSPost2010Prop48
 90
       50
102
RTVSPost2010PropOp48
 70
     1
102
RTVSPost2010Prop49
280
     0
102
RTVSPost2010PropOp49
 70
     1
102
RTVSPost2010Prop50
 90
       50
102
RTVSPost2010PropOp50
 70
     1
102
RTVSPost2010Prop51ColorIndex
 90
      256
102
RTVSPost2010Prop51ColorRGB
 90
-16777216
102
RTVSPost2010PropOp51
 70
     0
102
RTVSPost2010Prop52
140
1.0
102
RTVSPost2010PropOp52
 70
     0
102
RTVSPost2010Prop53
 90
        2
102
RTVSPost2010PropOp53
 70
     1
102
RTVSPost2010Prop54
  1
strokes_ogs.tif
102
RTVSPost2010PropOp54
 70
     1
102
RTVSPost2010Prop55
280
     0
102
RTVSPost2010PropOp55
 70
     1
102
RTVSPost2010Prop56
140
1.0
102
RTVSPost2010PropOp56
 70
     1
102
RTVSPost2010Prop57
140
1.0
102
RTVSPost2010PropOp57
 70
     1
102
RTVSPropertyOp0
 70
     1
102
RTVSPropertyOp1
 70
     1
102
RTVSPropertyOp2
 70
     1
102
RTVSPropertyOp3
 70
     1
102
RTVSPropertyOp4
 70
     1
102
RTVSPropertyOp5
 70
     1
102
RTVSPropertyOp6
 70
     1
102
RTVSPropertyOp7
 70
     1
102
RTVSPropertyOp8
 70
     1
102
RTVSPropertyOp9
 70
     1
102
RTVSPropertyOp10
 70
     1
102
RTVSPropertyOp11
 70
     1
102
RTVSPropertyOp12
 70
     1
102
RTVSPropertyOp13
 70
     1
102
RTVSPropertyOp14
 70
     1
102
RTVSPropertyOp15
 70
     1
102
RTVSPropertyOp16
 70
     1
102
RTVSPropertyOp17
 70
     1
102
RTVSPropertyOp18
 70
     1
102
RTVSPropertyOp19
 70
     1
102
RTVSPropertyOp20
 70
     1
102
RTVSPropertyOp21
 70
     1
102
RTVSPropertyOp22
 70
     1
102
RTVSPropertyOp23
 70
     1
102
RTVSPropertyOp24
 70
     1
102
RTVSPropertyOp25
 70
     1
102
RTVSPropertyOp26
 70
     1
102
RTVSPropertyOp27
 70
     1
102
RTVSPropertyOp28
 70
     1
102
RTVSPropertyOp29
 70
     1
102
RTVSPropertyOp30
 70
     1
102
RTVSPropertyOp31
 70
     1
102
RTVSPropertyOp32
 70
     1
102
RTVSPropertyOp33
 70
     1
102
RTVSPropertyOp34
 70
     1
102
RTVSPropertyOp35
 70
     1
102
RTVSPropertyOp36
 70
     1
102
RTVSPropertyOp37
 70
     1
102
RTVSPropertyOp38
 70
     1
102
RTVSPropertyOp39
 70
     1
102
RTVSPropertyOp40
 70
     1
102
RTVSPropertyOp41
 70
     1
102
RTVSPropertyOp42
 70
     1
102
RTVSPropertyOp43
 70
     1
102
RTVSPropertyOp44
 70
     1
102
RTVSPropertyOp45
 70
     1
102
RTVSPropertyOp46
 70
     1
102
RTVSPropertyOp47
 70
     1
102
RTVSPropertyOp48
 70
     1
102
RTVSPropertyOp49
 70
     1
102
RTVSPropertyOp50
 70
     1
102
RTVSPropertyOp51
 70
     0
102
RTVSPropertyOp52
 70
     0
102
RTVSPropertyOp53
 70
     1
102
RTVSPropertyOp54
 70
     1
102
RTVSPropertyOp55
 70
     1
102
RTVSPropertyOp56
 70
     1
102
RTVSPropertyOp57
 70
     1
102
RTVSPropertyOp58
 70
     1
102
RTVSPropertyOp59
 70
     1
102
RTVSPropertyOp60
 70
     1
102
RTVSPropertyOp61
 70
     1
102
RTVSPropertyOp62
 70
     1
  0
XRECORD
  5
29D07
102
{ACAD_REACTORS
330
29D06
102
}
330
29D06
100
AcDbXrecord
280
     1
102
RTVSPost2010Prop28
280
     0
102
RTVSPost2010PropOp28
 70
     1
102
RTVSPost2010Prop29
280
     1
102
RTVSPost2010PropOp29
 70
     1
102
RTVSPost2010Prop30
280
     1
102
RTVSPost2010PropOp30
 70
     1
102
RTVSPost2010Prop31
280
     0
102
RTVSPost2010PropOp31
 70
     1
102
RTVSPost2010Prop32
280
     0
102
RTVSPost2010PropOp32
 70
     1
102
RTVSPost2010Prop33
280
     0
102
RTVSPost2010PropOp33
 70
     1
102
RTVSPost2010Prop34
280
     0
102
RTVSPost2010PropOp34
 70
     1
102
RTVSPost2010Prop35
280
     0
102
RTVSPost2010PropOp35
 70
     1
102
RTVSPost2010Prop36
280
     0
102
RTVSPost2010PropOp36
 70
     1
102
RTVSPost2010Prop37
 90
       50
102
RTVSPost2010PropOp37
 70
     1
102
RTVSPost2010Prop38
140
0.0
102
RTVSPost2010PropOp38
 70
     1
102
RTVSPost2010Prop39
140
1.0
102
RTVSPost2010PropOp39
 70
     1
102
RTVSPost2010Prop40
 90
        0
102
RTVSPost2010PropOp40
 70
     1
102
RTVSPost2010Prop41ColorIndex
 90
       18
102
RTVSPost2010Prop41ColorRGB
 90
        0
102
RTVSPost2010PropOp41
 70
     1
102
RTVSPost2010Prop42
 90
       50
102
RTVSPost2010PropOp42
 70
     1
102
RTVSPost2010Prop43
 90
        3
102
RTVSPost2010PropOp43
 70
     1
102
RTVSPost2010Prop44ColorIndex
 90
        5
102
RTVSPost2010Prop44ColorRGB
 90
      255
102
RTVSPost2010PropOp44
 70
     1
102
RTVSPost2010Prop45
280
     0
102
RTVSPost2010PropOp45
 70
     1
102
RTVSPost2010Prop46
 90
       50
102
RTVSPost2010PropOp46
 70
     1
102
RTVSPost2010Prop47
 90
       50
102
RTVSPost2010PropOp47
 70
     1
102
RTVSPost2010Prop48
 90
       50
102
RTVSPost2010PropOp48
 70
     1
102
RTVSPost2010Prop49
280
     0
102
RTVSPost2010PropOp49
 70
     1
102
RTVSPost2010Prop50
 90
       50
102
RTVSPost2010PropOp50
 70
     1
102
RTVSPost2010Prop51ColorIndex
 90
      256
102
RTVSPost2010Prop51ColorRGB
 90
-16777216
102
RTVSPost2010PropOp51
 70
     0
102
RTVSPost2010Prop52
140
1.0
102
RTVSPost2010PropOp52
 70
     0
102
RTVSPost2010Prop53
 90
        2
102
RTVSPost2010PropOp53
 70
     1
102
RTVSPost2010Prop54
  1
strokes_ogs.tif
102
RTVSPost2010PropOp54
 70
     1
102
RTVSPost2010Prop55
280
     0
102
RTVSPost2010PropOp55
 70
     1
102
RTVSPost2010Prop56
140
1.0
102
RTVSPost2010PropOp56
 70
     1
102
RTVSPost2010Prop57
140
1.0
102
RTVSPost2010PropOp57
 70
     1
102
RTVSPropertyOp0
 70
     1
102
RTVSPropertyOp1
 70
     1
102
RTVSPropertyOp2
 70
     1
102
RTVSPropertyOp3
 70
     1
102
RTVSPropertyOp4
 70
     1
102
RTVSPropertyOp5
 70
     1
102
RTVSPropertyOp6
 70
     1
102
RTVSPropertyOp7
 70
     1
102
RTVSPropertyOp8
 70
     1
102
RTVSPropertyOp9
 70
     1
102
RTVSPropertyOp10
 70
     1
102
RTVSPropertyOp11
 70
     1
102
RTVSPropertyOp12
 70
     1
102
RTVSPropertyOp13
 70
     1
102
RTVSPropertyOp14
 70
     1
102
RTVSPropertyOp15
 70
     1
102
RTVSPropertyOp16
 70
     1
102
RTVSPropertyOp17
 70
     1
102
RTVSPropertyOp18
 70
     1
102
RTVSPropertyOp19
 70
     1
102
RTVSPropertyOp20
 70
     1
102
RTVSPropertyOp21
 70
     1
102
RTVSPropertyOp22
 70
     1
102
RTVSPropertyOp23
 70
     1
102
RTVSPropertyOp24
 70
     1
102
RTVSPropertyOp25
 70
     1
102
RTVSPropertyOp26
 70
     1
102
RTVSPropertyOp27
 70
     1
102
RTVSPropertyOp28
 70
     1
102
RTVSPropertyOp29
 70
     1
102
RTVSPropertyOp30
 70
     1
102
RTVSPropertyOp31
 70
     1
102
RTVSPropertyOp32
 70
     1
102
RTVSPropertyOp33
 70
     1
102
RTVSPropertyOp34
 70
     1
102
RTVSPropertyOp35
 70
     1
102
RTVSPropertyOp36
 70
     1
102
RTVSPropertyOp37
 70
     1
102
RTVSPropertyOp38
 70
     1
102
RTVSPropertyOp39
 70
     1
102
RTVSPropertyOp40
 70
     1
102
RTVSPropertyOp41
 70
     1
102
RTVSPropertyOp42
 70
     1
102
RTVSPropertyOp43
 70
     1
102
RTVSPropertyOp44
 70
     1
102
RTVSPropertyOp45
 70
     1
102
RTVSPropertyOp46
 70
     1
102
RTVSPropertyOp47
 70
     1
102
RTVSPropertyOp48
 70
     1
102
RTVSPropertyOp49
 70
     1
102
RTVSPropertyOp50
 70
     1
102
RTVSPropertyOp51
 70
     0
102
RTVSPropertyOp52
 70
     0
102
RTVSPropertyOp53
 70
     1
102
RTVSPropertyOp54
 70
     1
102
RTVSPropertyOp55
 70
     1
102
RTVSPropertyOp56
 70
     1
102
RTVSPropertyOp57
 70
     1
102
RTVSPropertyOp58
 70
     1
102
RTVSPropertyOp59
 70
     1
102
RTVSPropertyOp60
 70
     1
102
RTVSPropertyOp61
 70
     1
102
RTVSPropertyOp62
 70
     1
  0
XRECORD
  5
29D05
102
{ACAD_REACTORS
330
29D04
102
}
330
29D04
100
AcDbXrecord
280
     1
102
RTVSPost2010Prop28
280
     0
102
RTVSPost2010PropOp28
 70
     1
102
RTVSPost2010Prop29
280
     1
102
RTVSPost2010PropOp29
 70
     1
102
RTVSPost2010Prop30
280
     1
102
RTVSPost2010PropOp30
 70
     1
102
RTVSPost2010Prop31
280
     0
102
RTVSPost2010PropOp31
 70
     1
102
RTVSPost2010Prop32
280
     0
102
RTVSPost2010PropOp32
 70
     1
102
RTVSPost2010Prop33
280
     0
102
RTVSPost2010PropOp33
 70
     1
102
RTVSPost2010Prop34
280
     0
102
RTVSPost2010PropOp34
 70
     1
102
RTVSPost2010Prop35
280
     0
102
RTVSPost2010PropOp35
 70
     1
102
RTVSPost2010Prop36
280
     0
102
RTVSPost2010PropOp36
 70
     1
102
RTVSPost2010Prop37
 90
       50
102
RTVSPost2010PropOp37
 70
     1
102
RTVSPost2010Prop38
140
0.0
102
RTVSPost2010PropOp38
 70
     1
102
RTVSPost2010Prop39
140
1.0
102
RTVSPost2010PropOp39
 70
     1
102
RTVSPost2010Prop40
 90
        0
102
RTVSPost2010PropOp40
 70
     1
102
RTVSPost2010Prop41ColorIndex
 90
       18
102
RTVSPost2010Prop41ColorRGB
 90
        0
102
RTVSPost2010PropOp41
 70
     1
102
RTVSPost2010Prop42
 90
       50
102
RTVSPost2010PropOp42
 70
     1
102
RTVSPost2010Prop43
 90
        3
102
RTVSPost2010PropOp43
 70
     1
102
RTVSPost2010Prop44ColorIndex
 90
        5
102
RTVSPost2010Prop44ColorRGB
 90
      255
102
RTVSPost2010PropOp44
 70
     1
102
RTVSPost2010Prop45
280
     0
102
RTVSPost2010PropOp45
 70
     1
102
RTVSPost2010Prop46
 90
       50
102
RTVSPost2010PropOp46
 70
     1
102
RTVSPost2010Prop47
 90
       50
102
RTVSPost2010PropOp47
 70
     1
102
RTVSPost2010Prop48
 90
       50
102
RTVSPost2010PropOp48
 70
     1
102
RTVSPost2010Prop49
280
     0
102
RTVSPost2010PropOp49
 70
     1
102
RTVSPost2010Prop50
 90
       50
102
RTVSPost2010PropOp50
 70
     1
102
RTVSPost2010Prop51ColorIndex
 90
      256
102
RTVSPost2010Prop51ColorRGB
 90
-16777216
102
RTVSPost2010PropOp51
 70
     0
102
RTVSPost2010Prop52
140
1.0
102
RTVSPost2010PropOp52
 70
     0
102
RTVSPost2010Prop53
 90
        2
102
RTVSPost2010PropOp53
 70
     1
102
RTVSPost2010Prop54
  1
strokes_ogs.tif
102
RTVSPost2010PropOp54
 70
     1
102
RTVSPost2010Prop55
280
     0
102
RTVSPost2010PropOp55
 70
     1
102
RTVSPost2010Prop56
140
1.0
102
RTVSPost2010PropOp56
 70
     1
102
RTVSPost2010Prop57
140
1.0
102
RTVSPost2010PropOp57
 70
     1
102
RTVSPropertyOp0
 70
     1
102
RTVSPropertyOp1
 70
     1
102
RTVSPropertyOp2
 70
     1
102
RTVSPropertyOp3
 70
     1
102
RTVSPropertyOp4
 70
     1
102
RTVSPropertyOp5
 70
     1
102
RTVSPropertyOp6
 70
     1
102
RTVSPropertyOp7
 70
     1
102
RTVSPropertyOp8
 70
     1
102
RTVSPropertyOp9
 70
     1
102
RTVSPropertyOp10
 70
     1
102
RTVSPropertyOp11
 70
     1
102
RTVSPropertyOp12
 70
     1
102
RTVSPropertyOp13
 70
     1
102
RTVSPropertyOp14
 70
     1
102
RTVSPropertyOp15
 70
     1
102
RTVSPropertyOp16
 70
     1
102
RTVSPropertyOp17
 70
     1
102
RTVSPropertyOp18
 70
     1
102
RTVSPropertyOp19
 70
     1
102
RTVSPropertyOp20
 70
     1
102
RTVSPropertyOp21
 70
     1
102
RTVSPropertyOp22
 70
     1
102
RTVSPropertyOp23
 70
     1
102
RTVSPropertyOp24
 70
     1
102
RTVSPropertyOp25
 70
     1
102
RTVSPropertyOp26
 70
     1
102
RTVSPropertyOp27
 70
     1
102
RTVSPropertyOp28
 70
     1
102
RTVSPropertyOp29
 70
     1
102
RTVSPropertyOp30
 70
     1
102
RTVSPropertyOp31
 70
     1
102
RTVSPropertyOp32
 70
     1
102
RTVSPropertyOp33
 70
     1
102
RTVSPropertyOp34
 70
     1
102
RTVSPropertyOp35
 70
     1
102
RTVSPropertyOp36
 70
     1
102
RTVSPropertyOp37
 70
     1
102
RTVSPropertyOp38
 70
     1
102
RTVSPropertyOp39
 70
     1
102
RTVSPropertyOp40
 70
     1
102
RTVSPropertyOp41
 70
     1
102
RTVSPropertyOp42
 70
     1
102
RTVSPropertyOp43
 70
     1
102
RTVSPropertyOp44
 70
     1
102
RTVSPropertyOp45
 70
     1
102
RTVSPropertyOp46
 70
     1
102
RTVSPropertyOp47
 70
     1
102
RTVSPropertyOp48
 70
     1
102
RTVSPropertyOp49
 70
     1
102
RTVSPropertyOp50
 70
     1
102
RTVSPropertyOp51
 70
     0
102
RTVSPropertyOp52
 70
     0
102
RTVSPropertyOp53
 70
     1
102
RTVSPropertyOp54
 70
     1
102
RTVSPropertyOp55
 70
     1
102
RTVSPropertyOp56
 70
     1
102
RTVSPropertyOp57
 70
     1
102
RTVSPropertyOp58
 70
     1
102
RTVSPropertyOp59
 70
     1
102
RTVSPropertyOp60
 70
     1
102
RTVSPropertyOp61
 70
     1
102
RTVSPropertyOp62
 70
     1
  0
XRECORD
  5
29CFF
102
{ACAD_REACTORS
330
29CFE
102
}
330
29CFE
100
AcDbXrecord
280
     1
102
RTVSPost2010Prop28
280
     0
102
RTVSPost2010PropOp28
 70
     1
102
RTVSPost2010Prop29
280
     1
102
RTVSPost2010PropOp29
 70
     1
102
RTVSPost2010Prop30
280
     1
102
RTVSPost2010PropOp30
 70
     1
102
RTVSPost2010Prop31
280
     0
102
RTVSPost2010PropOp31
 70
     1
102
RTVSPost2010Prop32
280
     0
102
RTVSPost2010PropOp32
 70
     1
102
RTVSPost2010Prop33
280
     0
102
RTVSPost2010PropOp33
 70
     1
102
RTVSPost2010Prop34
280
     0
102
RTVSPost2010PropOp34
 70
     1
102
RTVSPost2010Prop35
280
     0
102
RTVSPost2010PropOp35
 70
     1
102
RTVSPost2010Prop36
280
     0
102
RTVSPost2010PropOp36
 70
     1
102
RTVSPost2010Prop37
 90
       50
102
RTVSPost2010PropOp37
 70
     1
102
RTVSPost2010Prop38
140
0.0
102
RTVSPost2010PropOp38
 70
     1
102
RTVSPost2010Prop39
140
1.0
102
RTVSPost2010PropOp39
 70
     1
102
RTVSPost2010Prop40
 90
        0
102
RTVSPost2010PropOp40
 70
     1
102
RTVSPost2010Prop41ColorIndex
 90
       18
102
RTVSPost2010Prop41ColorRGB
 90
        0
102
RTVSPost2010PropOp41
 70
     1
102
RTVSPost2010Prop42
 90
       50
102
RTVSPost2010PropOp42
 70
     1
102
RTVSPost2010Prop43
 90
        3
102
RTVSPost2010PropOp43
 70
     1
102
RTVSPost2010Prop44ColorIndex
 90
        5
102
RTVSPost2010Prop44ColorRGB
 90
      255
102
RTVSPost2010PropOp44
 70
     1
102
RTVSPost2010Prop45
280
     0
102
RTVSPost2010PropOp45
 70
     1
102
RTVSPost2010Prop46
 90
       50
102
RTVSPost2010PropOp46
 70
     1
102
RTVSPost2010Prop47
 90
       50
102
RTVSPost2010PropOp47
 70
     1
102
RTVSPost2010Prop48
 90
       50
102
RTVSPost2010PropOp48
 70
     1
102
RTVSPost2010Prop49
280
     0
102
RTVSPost2010PropOp49
 70
     1
102
RTVSPost2010Prop50
 90
       50
102
RTVSPost2010PropOp50
 70
     1
102
RTVSPost2010Prop51ColorIndex
 90
      256
102
RTVSPost2010Prop51ColorRGB
 90
-16777216
102
RTVSPost2010PropOp51
 70
     0
102
RTVSPost2010Prop52
140
1.0
102
RTVSPost2010PropOp52
 70
     0
102
RTVSPost2010Prop53
 90
        2
102
RTVSPost2010PropOp53
 70
     1
102
RTVSPost2010Prop54
  1
strokes_ogs.tif
102
RTVSPost2010PropOp54
 70
     1
102
RTVSPost2010Prop55
280
     0
102
RTVSPost2010PropOp55
 70
     1
102
RTVSPost2010Prop56
140
1.0
102
RTVSPost2010PropOp56
 70
     1
102
RTVSPost2010Prop57
140
1.0
102
RTVSPost2010PropOp57
 70
     1
102
RTVSPropertyOp0
 70
     1
102
RTVSPropertyOp1
 70
     1
102
RTVSPropertyOp2
 70
     1
102
RTVSPropertyOp3
 70
     1
102
RTVSPropertyOp4
 70
     1
102
RTVSPropertyOp5
 70
     1
102
RTVSPropertyOp6
 70
     1
102
RTVSPropertyOp7
 70
     1
102
RTVSPropertyOp8
 70
     1
102
RTVSPropertyOp9
 70
     1
102
RTVSPropertyOp10
 70
     1
102
RTVSPropertyOp11
 70
     1
102
RTVSPropertyOp12
 70
     1
102
RTVSPropertyOp13
 70
     1
102
RTVSPropertyOp14
 70
     1
102
RTVSPropertyOp15
 70
     1
102
RTVSPropertyOp16
 70
     1
102
RTVSPropertyOp17
 70
     1
102
RTVSPropertyOp18
 70
     1
102
RTVSPropertyOp19
 70
     1
102
RTVSPropertyOp20
 70
     1
102
RTVSPropertyOp21
 70
     1
102
RTVSPropertyOp22
 70
     1
102
RTVSPropertyOp23
 70
     1
102
RTVSPropertyOp24
 70
     1
102
RTVSPropertyOp25
 70
     1
102
RTVSPropertyOp26
 70
     1
102
RTVSPropertyOp27
 70
     1
102
RTVSPropertyOp28
 70
     1
102
RTVSPropertyOp29
 70
     1
102
RTVSPropertyOp30
 70
     1
102
RTVSPropertyOp31
 70
     1
102
RTVSPropertyOp32
 70
     1
102
RTVSPropertyOp33
 70
     1
102
RTVSPropertyOp34
 70
     1
102
RTVSPropertyOp35
 70
     1
102
RTVSPropertyOp36
 70
     1
102
RTVSPropertyOp37
 70
     1
102
RTVSPropertyOp38
 70
     1
102
RTVSPropertyOp39
 70
     1
102
RTVSPropertyOp40
 70
     1
102
RTVSPropertyOp41
 70
     1
102
RTVSPropertyOp42
 70
     1
102
RTVSPropertyOp43
 70
     1
102
RTVSPropertyOp44
 70
     1
102
RTVSPropertyOp45
 70
     1
102
RTVSPropertyOp46
 70
     1
102
RTVSPropertyOp47
 70
     1
102
RTVSPropertyOp48
 70
     1
102
RTVSPropertyOp49
 70
     1
102
RTVSPropertyOp50
 70
     1
102
RTVSPropertyOp51
 70
     0
102
RTVSPropertyOp52
 70
     0
102
RTVSPropertyOp53
 70
     1
102
RTVSPropertyOp54
 70
     1
102
RTVSPropertyOp55
 70
     1
102
RTVSPropertyOp56
 70
     1
102
RTVSPropertyOp57
 70
     1
102
RTVSPropertyOp58
 70
     1
102
RTVSPropertyOp59
 70
     1
102
RTVSPropertyOp60
 70
     1
102
RTVSPropertyOp61
 70
     1
102
RTVSPropertyOp62
 70
     1
  0
XRECORD
  5
29D01
102
{ACAD_REACTORS
330
29D00
102
}
330
29D00
100
AcDbXrecord
280
     1
102
RTVSPost2010Prop28
280
     0
102
RTVSPost2010PropOp28
 70
     1
102
RTVSPost2010Prop29
280
     1
102
RTVSPost2010PropOp29
 70
     1
102
RTVSPost2010Prop30
280
     1
102
RTVSPost2010PropOp30
 70
     1
102
RTVSPost2010Prop31
280
     0
102
RTVSPost2010PropOp31
 70
     1
102
RTVSPost2010Prop32
280
     0
102
RTVSPost2010PropOp32
 70
     1
102
RTVSPost2010Prop33
280
     0
102
RTVSPost2010PropOp33
 70
     1
102
RTVSPost2010Prop34
280
     0
102
RTVSPost2010PropOp34
 70
     1
102
RTVSPost2010Prop35
280
     0
102
RTVSPost2010PropOp35
 70
     1
102
RTVSPost2010Prop36
280
     0
102
RTVSPost2010PropOp36
 70
     1
102
RTVSPost2010Prop37
 90
       50
102
RTVSPost2010PropOp37
 70
     1
102
RTVSPost2010Prop38
140
0.0
102
RTVSPost2010PropOp38
 70
     1
102
RTVSPost2010Prop39
140
1.0
102
RTVSPost2010PropOp39
 70
     1
102
RTVSPost2010Prop40
 90
        0
102
RTVSPost2010PropOp40
 70
     1
102
RTVSPost2010Prop41ColorIndex
 90
       18
102
RTVSPost2010Prop41ColorRGB
 90
        0
102
RTVSPost2010PropOp41
 70
     1
102
RTVSPost2010Prop42
 90
       50
102
RTVSPost2010PropOp42
 70
     1
102
RTVSPost2010Prop43
 90
        3
102
RTVSPost2010PropOp43
 70
     1
102
RTVSPost2010Prop44ColorIndex
 90
        5
102
RTVSPost2010Prop44ColorRGB
 90
      255
102
RTVSPost2010PropOp44
 70
     1
102
RTVSPost2010Prop45
280
     0
102
RTVSPost2010PropOp45
 70
     1
102
RTVSPost2010Prop46
 90
       50
102
RTVSPost2010PropOp46
 70
     1
102
RTVSPost2010Prop47
 90
       50
102
RTVSPost2010PropOp47
 70
     1
102
RTVSPost2010Prop48
 90
       50
102
RTVSPost2010PropOp48
 70
     1
102
RTVSPost2010Prop49
280
     0
102
RTVSPost2010PropOp49
 70
     1
102
RTVSPost2010Prop50
 90
       50
102
RTVSPost2010PropOp50
 70
     1
102
RTVSPost2010Prop51ColorIndex
 90
      256
102
RTVSPost2010Prop51ColorRGB
 90
-16777216
102
RTVSPost2010PropOp51
 70
     0
102
RTVSPost2010Prop52
140
1.0
102
RTVSPost2010PropOp52
 70
     0
102
RTVSPost2010Prop53
 90
        2
102
RTVSPost2010PropOp53
 70
     1
102
RTVSPost2010Prop54
  1
strokes_ogs.tif
102
RTVSPost2010PropOp54
 70
     1
102
RTVSPost2010Prop55
280
     0
102
RTVSPost2010PropOp55
 70
     1
102
RTVSPost2010Prop56
140
1.0
102
RTVSPost2010PropOp56
 70
     1
102
RTVSPost2010Prop57
140
1.0
102
RTVSPost2010PropOp57
 70
     1
102
RTVSPropertyOp0
 70
     1
102
RTVSPropertyOp1
 70
     1
102
RTVSPropertyOp2
 70
     1
102
RTVSPropertyOp3
 70
     1
102
RTVSPropertyOp4
 70
     1
102
RTVSPropertyOp5
 70
     1
102
RTVSPropertyOp6
 70
     1
102
RTVSPropertyOp7
 70
     1
102
RTVSPropertyOp8
 70
     1
102
RTVSPropertyOp9
 70
     1
102
RTVSPropertyOp10
 70
     1
102
RTVSPropertyOp11
 70
     1
102
RTVSPropertyOp12
 70
     1
102
RTVSPropertyOp13
 70
     1
102
RTVSPropertyOp14
 70
     1
102
RTVSPropertyOp15
 70
     1
102
RTVSPropertyOp16
 70
     1
102
RTVSPropertyOp17
 70
     1
102
RTVSPropertyOp18
 70
     1
102
RTVSPropertyOp19
 70
     1
102
RTVSPropertyOp20
 70
     1
102
RTVSPropertyOp21
 70
     1
102
RTVSPropertyOp22
 70
     1
102
RTVSPropertyOp23
 70
     1
102
RTVSPropertyOp24
 70
     1
102
RTVSPropertyOp25
 70
     1
102
RTVSPropertyOp26
 70
     1
102
RTVSPropertyOp27
 70
     1
102
RTVSPropertyOp28
 70
     1
102
RTVSPropertyOp29
 70
     1
102
RTVSPropertyOp30
 70
     1
102
RTVSPropertyOp31
 70
     1
102
RTVSPropertyOp32
 70
     1
102
RTVSPropertyOp33
 70
     1
102
RTVSPropertyOp34
 70
     1
102
RTVSPropertyOp35
 70
     1
102
RTVSPropertyOp36
 70
     1
102
RTVSPropertyOp37
 70
     1
102
RTVSPropertyOp38
 70
     1
102
RTVSPropertyOp39
 70
     1
102
RTVSPropertyOp40
 70
     1
102
RTVSPropertyOp41
 70
     1
102
RTVSPropertyOp42
 70
     1
102
RTVSPropertyOp43
 70
     1
102
RTVSPropertyOp44
 70
     1
102
RTVSPropertyOp45
 70
     1
102
RTVSPropertyOp46
 70
     1
102
RTVSPropertyOp47
 70
     1
102
RTVSPropertyOp48
 70
     1
102
RTVSPropertyOp49
 70
     1
102
RTVSPropertyOp50
 70
     1
102
RTVSPropertyOp51
 70
     0
102
RTVSPropertyOp52
 70
     0
102
RTVSPropertyOp53
 70
     1
102
RTVSPropertyOp54
 70
     1
102
RTVSPropertyOp55
 70
     1
102
RTVSPropertyOp56
 70
     1
102
RTVSPropertyOp57
 70
     1
102
RTVSPropertyOp58
 70
     1
102
RTVSPropertyOp59
 70
     1
102
RTVSPropertyOp60
 70
     1
102
RTVSPropertyOp61
 70
     1
102
RTVSPropertyOp62
 70
     1
  0
XRECORD
  5
29CF7
102
{ACAD_REACTORS
330
29CF6
102
}
330
29CF6
100
AcDbXrecord
280
     1
102
RTVSPost2010Prop28
280
     0
102
RTVSPost2010PropOp28
 70
     1
102
RTVSPost2010Prop29
280
     1
102
RTVSPost2010PropOp29
 70
     1
102
RTVSPost2010Prop30
280
     1
102
RTVSPost2010PropOp30
 70
     1
102
RTVSPost2010Prop31
280
     0
102
RTVSPost2010PropOp31
 70
     1
102
RTVSPost2010Prop32
280
     0
102
RTVSPost2010PropOp32
 70
     1
102
RTVSPost2010Prop33
280
     0
102
RTVSPost2010PropOp33
 70
     1
102
RTVSPost2010Prop34
280
     0
102
RTVSPost2010PropOp34
 70
     1
102
RTVSPost2010Prop35
280
     0
102
RTVSPost2010PropOp35
 70
     1
102
RTVSPost2010Prop36
280
     0
102
RTVSPost2010PropOp36
 70
     1
102
RTVSPost2010Prop37
 90
       50
102
RTVSPost2010PropOp37
 70
     1
102
RTVSPost2010Prop38
140
0.0
102
RTVSPost2010PropOp38
 70
     1
102
RTVSPost2010Prop39
140
1.0
102
RTVSPost2010PropOp39
 70
     1
102
RTVSPost2010Prop40
 90
        0
102
RTVSPost2010PropOp40
 70
     1
102
RTVSPost2010Prop41ColorIndex
 90
       18
102
RTVSPost2010Prop41ColorRGB
 90
        0
102
RTVSPost2010PropOp41
 70
     1
102
RTVSPost2010Prop42
 90
       50
102
RTVSPost2010PropOp42
 70
     1
102
RTVSPost2010Prop43
 90
        3
102
RTVSPost2010PropOp43
 70
     1
102
RTVSPost2010Prop44ColorIndex
 90
        5
102
RTVSPost2010Prop44ColorRGB
 90
      255
102
RTVSPost2010PropOp44
 70
     1
102
RTVSPost2010Prop45
280
     0
102
RTVSPost2010PropOp45
 70
     1
102
RTVSPost2010Prop46
 90
       50
102
RTVSPost2010PropOp46
 70
     1
102
RTVSPost2010Prop47
 90
       50
102
RTVSPost2010PropOp47
 70
     1
102
RTVSPost2010Prop48
 90
       50
102
RTVSPost2010PropOp48
 70
     1
102
RTVSPost2010Prop49
280
     0
102
RTVSPost2010PropOp49
 70
     1
102
RTVSPost2010Prop50
 90
       50
102
RTVSPost2010PropOp50
 70
     1
102
RTVSPost2010Prop51ColorIndex
 90
      256
102
RTVSPost2010Prop51ColorRGB
 90
-16777216
102
RTVSPost2010PropOp51
 70
     0
102
RTVSPost2010Prop52
140
1.0
102
RTVSPost2010PropOp52
 70
     0
102
RTVSPost2010Prop53
 90
        2
102
RTVSPost2010PropOp53
 70
     1
102
RTVSPost2010Prop54
  1
strokes_ogs.tif
102
RTVSPost2010PropOp54
 70
     1
102
RTVSPost2010Prop55
280
     0
102
RTVSPost2010PropOp55
 70
     1
102
RTVSPost2010Prop56
140
1.0
102
RTVSPost2010PropOp56
 70
     1
102
RTVSPost2010Prop57
140
1.0
102
RTVSPost2010PropOp57
 70
     1
102
RTVSPropertyOp0
 70
     1
102
RTVSPropertyOp1
 70
     1
102
RTVSPropertyOp2
 70
     1
102
RTVSPropertyOp3
 70
     1
102
RTVSPropertyOp4
 70
     1
102
RTVSPropertyOp5
 70
     1
102
RTVSPropertyOp6
 70
     1
102
RTVSPropertyOp7
 70
     1
102
RTVSPropertyOp8
 70
     1
102
RTVSPropertyOp9
 70
     1
102
RTVSPropertyOp10
 70
     1
102
RTVSPropertyOp11
 70
     1
102
RTVSPropertyOp12
 70
     1
102
RTVSPropertyOp13
 70
     1
102
RTVSPropertyOp14
 70
     1
102
RTVSPropertyOp15
 70
     1
102
RTVSPropertyOp16
 70
     1
102
RTVSPropertyOp17
 70
     1
102
RTVSPropertyOp18
 70
     1
102
RTVSPropertyOp19
 70
     1
102
RTVSPropertyOp20
 70
     1
102
RTVSPropertyOp21
 70
     1
102
RTVSPropertyOp22
 70
     1
102
RTVSPropertyOp23
 70
     1
102
RTVSPropertyOp24
 70
     1
102
RTVSPropertyOp25
 70
     1
102
RTVSPropertyOp26
 70
     1
102
RTVSPropertyOp27
 70
     1
102
RTVSPropertyOp28
 70
     1
102
RTVSPropertyOp29
 70
     1
102
RTVSPropertyOp30
 70
     1
102
RTVSPropertyOp31
 70
     1
102
RTVSPropertyOp32
 70
     1
102
RTVSPropertyOp33
 70
     1
102
RTVSPropertyOp34
 70
     1
102
RTVSPropertyOp35
 70
     1
102
RTVSPropertyOp36
 70
     1
102
RTVSPropertyOp37
 70
     1
102
RTVSPropertyOp38
 70
     1
102
RTVSPropertyOp39
 70
     1
102
RTVSPropertyOp40
 70
     1
102
RTVSPropertyOp41
 70
     1
102
RTVSPropertyOp42
 70
     1
102
RTVSPropertyOp43
 70
     1
102
RTVSPropertyOp44
 70
     1
102
RTVSPropertyOp45
 70
     1
102
RTVSPropertyOp46
 70
     1
102
RTVSPropertyOp47
 70
     1
102
RTVSPropertyOp48
 70
     1
102
RTVSPropertyOp49
 70
     1
102
RTVSPropertyOp50
 70
     1
102
RTVSPropertyOp51
 70
     0
102
RTVSPropertyOp52
 70
     0
102
RTVSPropertyOp53
 70
     1
102
RTVSPropertyOp54
 70
     1
102
RTVSPropertyOp55
 70
     1
102
RTVSPropertyOp56
 70
     1
102
RTVSPropertyOp57
 70
     1
102
RTVSPropertyOp58
 70
     1
102
RTVSPropertyOp59
 70
     1
102
RTVSPropertyOp60
 70
     1
102
RTVSPropertyOp61
 70
     1
102
RTVSPropertyOp62
 70
     1
  0
XRECORD
  5
29CEB
102
{ACAD_REACTORS
330
29CEA
102
}
330
29CEA
100
AcDbXrecord
280
     1
102
RTVSPost2010Prop28
280
     0
102
RTVSPost2010PropOp28
 70
     1
102
RTVSPost2010Prop29
280
     1
102
RTVSPost2010PropOp29
 70
     1
102
RTVSPost2010Prop30
280
     1
102
RTVSPost2010PropOp30
 70
     1
102
RTVSPost2010Prop31
280
     0
102
RTVSPost2010PropOp31
 70
     1
102
RTVSPost2010Prop32
280
     0
102
RTVSPost2010PropOp32
 70
     1
102
RTVSPost2010Prop33
280
     0
102
RTVSPost2010PropOp33
 70
     1
102
RTVSPost2010Prop34
280
     0
102
RTVSPost2010PropOp34
 70
     1
102
RTVSPost2010Prop35
280
     0
102
RTVSPost2010PropOp35
 70
     1
102
RTVSPost2010Prop36
280
     0
102
RTVSPost2010PropOp36
 70
     1
102
RTVSPost2010Prop37
 90
       50
102
RTVSPost2010PropOp37
 70
     1
102
RTVSPost2010Prop38
140
0.0
102
RTVSPost2010PropOp38
 70
     1
102
RTVSPost2010Prop39
140
1.0
102
RTVSPost2010PropOp39
 70
     1
102
RTVSPost2010Prop40
 90
        0
102
RTVSPost2010PropOp40
 70
     1
102
RTVSPost2010Prop41ColorIndex
 90
       18
102
RTVSPost2010Prop41ColorRGB
 90
        0
102
RTVSPost2010PropOp41
 70
     1
102
RTVSPost2010Prop42
 90
       50
102
RTVSPost2010PropOp42
 70
     1
102
RTVSPost2010Prop43
 90
        3
102
RTVSPost2010PropOp43
 70
     1
102
RTVSPost2010Prop44ColorIndex
 90
        5
102
RTVSPost2010Prop44ColorRGB
 90
      255
102
RTVSPost2010PropOp44
 70
     1
102
RTVSPost2010Prop45
280
     0
102
RTVSPost2010PropOp45
 70
     1
102
RTVSPost2010Prop46
 90
       50
102
RTVSPost2010PropOp46
 70
     1
102
RTVSPost2010Prop47
 90
       50
102
RTVSPost2010PropOp47
 70
     1
102
RTVSPost2010Prop48
 90
       50
102
RTVSPost2010PropOp48
 70
     1
102
RTVSPost2010Prop49
280
     0
102
RTVSPost2010PropOp49
 70
     1
102
RTVSPost2010Prop50
 90
       50
102
RTVSPost2010PropOp50
 70
     1
102
RTVSPost2010Prop51ColorIndex
 90
      256
102
RTVSPost2010Prop51ColorRGB
 90
-16777216
102
RTVSPost2010PropOp51
 70
     0
102
RTVSPost2010Prop52
140
1.0
102
RTVSPost2010PropOp52
 70
     0
102
RTVSPost2010Prop53
 90
        2
102
RTVSPost2010PropOp53
 70
     1
102
RTVSPost2010Prop54
  1
strokes_ogs.tif
102
RTVSPost2010PropOp54
 70
     1
102
RTVSPost2010Prop55
280
     0
102
RTVSPost2010PropOp55
 70
     1
102
RTVSPost2010Prop56
140
1.0
102
RTVSPost2010PropOp56
 70
     1
102
RTVSPost2010Prop57
140
1.0
102
RTVSPost2010PropOp57
 70
     1
102
RTVSPropertyOp0
 70
     1
102
RTVSPropertyOp1
 70
     1
102
RTVSPropertyOp2
 70
     1
102
RTVSPropertyOp3
 70
     1
102
RTVSPropertyOp4
 70
     1
102
RTVSPropertyOp5
 70
     1
102
RTVSPropertyOp6
 70
     1
102
RTVSPropertyOp7
 70
     1
102
RTVSPropertyOp8
 70
     1
102
RTVSPropertyOp9
 70
     1
102
RTVSPropertyOp10
 70
     1
102
RTVSPropertyOp11
 70
     1
102
RTVSPropertyOp12
 70
     1
102
RTVSPropertyOp13
 70
     1
102
RTVSPropertyOp14
 70
     1
102
RTVSPropertyOp15
 70
     1
102
RTVSPropertyOp16
 70
     1
102
RTVSPropertyOp17
 70
     1
102
RTVSPropertyOp18
 70
     1
102
RTVSPropertyOp19
 70
     1
102
RTVSPropertyOp20
 70
     1
102
RTVSPropertyOp21
 70
     1
102
RTVSPropertyOp22
 70
     1
102
RTVSPropertyOp23
 70
     1
102
RTVSPropertyOp24
 70
     1
102
RTVSPropertyOp25
 70
     1
102
RTVSPropertyOp26
 70
     1
102
RTVSPropertyOp27
 70
     1
102
RTVSPropertyOp28
 70
     1
102
RTVSPropertyOp29
 70
     1
102
RTVSPropertyOp30
 70
     1
102
RTVSPropertyOp31
 70
     1
102
RTVSPropertyOp32
 70
     1
102
RTVSPropertyOp33
 70
     1
102
RTVSPropertyOp34
 70
     1
102
RTVSPropertyOp35
 70
     1
102
RTVSPropertyOp36
 70
     1
102
RTVSPropertyOp37
 70
     1
102
RTVSPropertyOp38
 70
     1
102
RTVSPropertyOp39
 70
     1
102
RTVSPropertyOp40
 70
     1
102
RTVSPropertyOp41
 70
     1
102
RTVSPropertyOp42
 70
     1
102
RTVSPropertyOp43
 70
     1
102
RTVSPropertyOp44
 70
     1
102
RTVSPropertyOp45
 70
     1
102
RTVSPropertyOp46
 70
     1
102
RTVSPropertyOp47
 70
     1
102
RTVSPropertyOp48
 70
     1
102
RTVSPropertyOp49
 70
     1
102
RTVSPropertyOp50
 70
     1
102
RTVSPropertyOp51
 70
     0
102
RTVSPropertyOp52
 70
     0
102
RTVSPropertyOp53
 70
     1
102
RTVSPropertyOp54
 70
     1
102
RTVSPropertyOp55
 70
     1
102
RTVSPropertyOp56
 70
     1
102
RTVSPropertyOp57
 70
     1
102
RTVSPropertyOp58
 70
     1
102
RTVSPropertyOp59
 70
     1
102
RTVSPropertyOp60
 70
     1
102
RTVSPropertyOp61
 70
     1
102
RTVSPropertyOp62
 70
     1
  0
XRECORD
  5
29D03
102
{ACAD_REACTORS
330
29D02
102
}
330
29D02
100
AcDbXrecord
280
     1
102
RTVSPost2010Prop28
280
     0
102
RTVSPost2010PropOp28
 70
     1
102
RTVSPost2010Prop29
280
     1
102
RTVSPost2010PropOp29
 70
     1
102
RTVSPost2010Prop30
280
     1
102
RTVSPost2010PropOp30
 70
     1
102
RTVSPost2010Prop31
280
     0
102
RTVSPost2010PropOp31
 70
     1
102
RTVSPost2010Prop32
280
     0
102
RTVSPost2010PropOp32
 70
     1
102
RTVSPost2010Prop33
280
     0
102
RTVSPost2010PropOp33
 70
     1
102
RTVSPost2010Prop34
280
     0
102
RTVSPost2010PropOp34
 70
     1
102
RTVSPost2010Prop35
280
     0
102
RTVSPost2010PropOp35
 70
     1
102
RTVSPost2010Prop36
280
     0
102
RTVSPost2010PropOp36
 70
     1
102
RTVSPost2010Prop37
 90
       50
102
RTVSPost2010PropOp37
 70
     1
102
RTVSPost2010Prop38
140
0.0
102
RTVSPost2010PropOp38
 70
     1
102
RTVSPost2010Prop39
140
1.0
102
RTVSPost2010PropOp39
 70
     1
102
RTVSPost2010Prop40
 90
        0
102
RTVSPost2010PropOp40
 70
     1
102
RTVSPost2010Prop41ColorIndex
 90
       18
102
RTVSPost2010Prop41ColorRGB
 90
        0
102
RTVSPost2010PropOp41
 70
     1
102
RTVSPost2010Prop42
 90
       50
102
RTVSPost2010PropOp42
 70
     1
102
RTVSPost2010Prop43
 90
        3
102
RTVSPost2010PropOp43
 70
     1
102
RTVSPost2010Prop44ColorIndex
 90
        5
102
RTVSPost2010Prop44ColorRGB
 90
      255
102
RTVSPost2010PropOp44
 70
     1
102
RTVSPost2010Prop45
280
     0
102
RTVSPost2010PropOp45
 70
     1
102
RTVSPost2010Prop46
 90
       50
102
RTVSPost2010PropOp46
 70
     1
102
RTVSPost2010Prop47
 90
       50
102
RTVSPost2010PropOp47
 70
     1
102
RTVSPost2010Prop48
 90
       50
102
RTVSPost2010PropOp48
 70
     1
102
RTVSPost2010Prop49
280
     0
102
RTVSPost2010PropOp49
 70
     1
102
RTVSPost2010Prop50
 90
       50
102
RTVSPost2010PropOp50
 70
     1
102
RTVSPost2010Prop51ColorIndex
 90
      256
102
RTVSPost2010Prop51ColorRGB
 90
-16777216
102
RTVSPost2010PropOp51
 70
     0
102
RTVSPost2010Prop52
140
1.0
102
RTVSPost2010PropOp52
 70
     0
102
RTVSPost2010Prop53
 90
        2
102
RTVSPost2010PropOp53
 70
     1
102
RTVSPost2010Prop54
  1
strokes_ogs.tif
102
RTVSPost2010PropOp54
 70
     1
102
RTVSPost2010Prop55
280
     0
102
RTVSPost2010PropOp55
 70
     1
102
RTVSPost2010Prop56
140
1.0
102
RTVSPost2010PropOp56
 70
     1
102
RTVSPost2010Prop57
140
1.0
102
RTVSPost2010PropOp57
 70
     1
102
RTVSPropertyOp0
 70
     1
102
RTVSPropertyOp1
 70
     1
102
RTVSPropertyOp2
 70
     1
102
RTVSPropertyOp3
 70
     1
102
RTVSPropertyOp4
 70
     1
102
RTVSPropertyOp5
 70
     1
102
RTVSPropertyOp6
 70
     1
102
RTVSPropertyOp7
 70
     1
102
RTVSPropertyOp8
 70
     1
102
RTVSPropertyOp9
 70
     1
102
RTVSPropertyOp10
 70
     1
102
RTVSPropertyOp11
 70
     1
102
RTVSPropertyOp12
 70
     1
102
RTVSPropertyOp13
 70
     1
102
RTVSPropertyOp14
 70
     1
102
RTVSPropertyOp15
 70
     1
102
RTVSPropertyOp16
 70
     1
102
RTVSPropertyOp17
 70
     1
102
RTVSPropertyOp18
 70
     1
102
RTVSPropertyOp19
 70
     1
102
RTVSPropertyOp20
 70
     1
102
RTVSPropertyOp21
 70
     1
102
RTVSPropertyOp22
 70
     1
102
RTVSPropertyOp23
 70
     1
102
RTVSPropertyOp24
 70
     1
102
RTVSPropertyOp25
 70
     1
102
RTVSPropertyOp26
 70
     1
102
RTVSPropertyOp27
 70
     1
102
RTVSPropertyOp28
 70
     1
102
RTVSPropertyOp29
 70
     1
102
RTVSPropertyOp30
 70
     1
102
RTVSPropertyOp31
 70
     1
102
RTVSPropertyOp32
 70
     1
102
RTVSPropertyOp33
 70
     1
102
RTVSPropertyOp34
 70
     1
102
RTVSPropertyOp35
 70
     1
102
RTVSPropertyOp36
 70
     1
102
RTVSPropertyOp37
 70
     1
102
RTVSPropertyOp38
 70
     1
102
RTVSPropertyOp39
 70
     1
102
RTVSPropertyOp40
 70
     1
102
RTVSPropertyOp41
 70
     1
102
RTVSPropertyOp42
 70
     1
102
RTVSPropertyOp43
 70
     1
102
RTVSPropertyOp44
 70
     1
102
RTVSPropertyOp45
 70
     1
102
RTVSPropertyOp46
 70
     1
102
RTVSPropertyOp47
 70
     1
102
RTVSPropertyOp48
 70
     1
102
RTVSPropertyOp49
 70
     1
102
RTVSPropertyOp50
 70
     1
102
RTVSPropertyOp51
 70
     0
102
RTVSPropertyOp52
 70
     0
102
RTVSPropertyOp53
 70
     1
102
RTVSPropertyOp54
 70
     1
102
RTVSPropertyOp55
 70
     1
102
RTVSPropertyOp56
 70
     1
102
RTVSPropertyOp57
 70
     1
102
RTVSPropertyOp58
 70
     1
102
RTVSPropertyOp59
 70
     1
102
RTVSPropertyOp60
 70
     1
102
RTVSPropertyOp61
 70
     1
102
RTVSPropertyOp62
 70
     1
  0
ENDSEC
  0
EOF
