  0
SECTION
  2
HEADER
  9
$ACADVER
  1
AC1015
  9
$ACADMAINTVER
 70
    20
  9
$DWGCODEPAGE
  3
ANSI_1252
  9
$INSBASE
 10
0.0
 20
0.0
 30
0.0
  9
$EXTMIN
 10
-87.35727402936049
 20
-49.934527063568
 30
-0.0000000349181948
  9
$EXTMAX
 10
86.7472926962248
 20
74.46599458796038
 30
0.0000000814935747
  9
$LIMMIN
 10
0.0
 20
0.0
  9
$LIMMAX
 10
420.0
 20
297.0
  9
$ORTHOMODE
 70
     0
  9
$REGENMODE
 70
     1
  9
$FILLMODE
 70
     1
  9
$QTEXTMODE
 70
     0
  9
$MIRRTEXT
 70
     1
  9
$LTSCALE
 40
1.0
  9
$ATTMODE
 70
     1
  9
$TEXTSIZE
 40
0.2
  9
$TRACEWID
 40
1.0
  9
$TEXTSTYLE
  7
Standard
  9
$CLAYER
  8
0
  9
$CELTYPE
  6
ByLayer
  9
$CECOLOR
 62
   256
  9
$CELTSCALE
 40
1.0
  9
$DISPSILH
 70
     0
  9
$DIMSCALE
 40
1.0
  9
$DIMASZ
 40
2.5
  9
$DIMEXO
 40
0.0
  9
$DIMDLI
 40
3.75
  9
$DIMRND
 40
0.0
  9
$DIMDLE
 40
0.0
  9
$DIMEXE
 40
1.25
  9
$DIMTP
 40
0.0
  9
$DIMTM
 40
0.0
  9
$DIMTXT
 40
3.5
  9
$DIMCEN
 40
0.0
  9
$DIMTSZ
 40
0.0
  9
$DIMTOL
 70
     0
  9
$DIMLIM
 70
     0
  9
$DIMTIH
 70
     0
  9
$DIMTOH
 70
     0
  9
$DIMSE1
 70
     0
  9
$DIMSE2
 70
     0
  9
$DIMTAD
 70
     1
  9
$DIMZIN
 70
     8
  9
$DIMBLK
  1

  9
$DIMASO
 70
     1
  9
$DIMSHO
 70
     1
  9
$DIMPOST
  1

  9
$DIMAPOST
  1

  9
$DIMALT
 70
     0
  9
$DIMALTD
 70
     3
  9
$DIMALTF
 40
0.039370078
  9
$DIMLFAC
 40
1.0
  9
$DIMTOFL
 70
     0
  9
$DIMTVP
 40
0.0
  9
$DIMTIX
 70
     0
  9
$DIMSOXD
 70
     0
  9
$DIMSAH
 70
     0
  9
$DIMBLK1
  1

  9
$DIMBLK2
  1

  9
$DIMSTYLE
  2
Standard
  9
$DIMCLRD
 70
     0
  9
$DIMCLRE
 70
     0
  9
$DIMCLRT
 70
     0
  9
$DIMTFAC
 40
1.0
  9
$DIMGAP
 40
0.625
  9
$DIMJUST
 70
     0
  9
$DIMSD1
 70
     0
  9
$DIMSD2
 70
     0
  9
$DIMTOLJ
 70
     0
  9
$DIMTZIN
 70
     8
  9
$DIMALTZ
 70
     0
  9
$DIMALTTZ
 70
     0
  9
$DIMUPT
 70
     0
  9
$DIMDEC
 70
     2
  9
$DIMTDEC
 70
     2
  9
$DIMALTU
 70
     2
  9
$DIMALTTD
 70
     3
  9
$DIMTXSTY
  7
Standard
  9
$DIMAUNIT
 70
     0
  9
$DIMADEC
 70
     2
  9
$DIMALTRND
 40
0.0
  9
$DIMAZIN
 70
     2
  9
$DIMDSEP
 70
    46
  9
$DIMATFIT
 70
     3
  9
$DIMFRAC
 70
     0
  9
$DIMLDRBLK
  1

  9
$DIMLUNIT
 70
     2
  9
$DIMLWD
 70
    -2
  9
$DIMLWE
 70
    -2
  9
$DIMTMOVE
 70
     0
  9
$LUNITS
 70
     2
  9
$LUPREC
 70
     4
  9
$SKETCHINC
 40
1.0
  9
$FILLETRAD
 40
0.0
  9
$AUNITS
 70
     0
  9
$AUPREC
 70
     0
  9
$MENU
  1
.
  9
$ELEVATION
 40
0.0
  9
$PELEVATION
 40
0.0
  9
$THICKNESS
 40
0.0
  9
$LIMCHECK
 70
     0
  9
$CHAMFERA
 40
2.5
  9
$CHAMFERB
 40
2.5
  9
$CHAMFERC
 40
0.0
  9
$CHAMFERD
 40
0.0
  9
$SKPOLY
 70
     0
  9
$TDCREATE
 40
2453353.800459155
  9
$TDUCREATE
 40
2453353.717125822
  9
$TDUPDATE
 40
2460185.650287350
  9
$TDUUPDATE
 40
2460185.566954016
  9
$TDINDWG
 40
0.1183440394
  9
$TDUSRTIMER
 40
0.1182973148
  9
$USRTIMER
 70
     1
  9
$ANGBASE
 50
0.0
  9
$ANGDIR
 70
     0
  9
$PDMODE
 70
     3
  9
$PDSIZE
 40
0.0
  9
$PLINEWID
 40
0.0
  9
$SPLFRAME
 70
     0
  9
$SPLINETYPE
 70
     6
  9
$SPLINESEGS
 70
     8
  9
$HANDSEED
  5
363F
  9
$SURFTAB1
 70
     6
  9
$SURFTAB2
 70
     6
  9
$SURFTYPE
 70
     6
  9
$SURFU
 70
     6
  9
$SURFV
 70
     6
  9
$UCSBASE
  2

  9
$UCSNAME
  2

  9
$UCSORG
 10
0.0
 20
0.0
 30
0.0
  9
$UCSXDIR
 10
1.0
 20
0.0
 30
0.0
  9
$UCSYDIR
 10
0.0
 20
1.0
 30
0.0
  9
$UCSORTHOREF
  2

  9
$UCSORTHOVIEW
 70
     0
  9
$UCSORGTOP
 10
0.0
 20
0.0
 30
0.0
  9
$UCSORGBOTTOM
 10
0.0
 20
0.0
 30
0.0
  9
$UCSORGLEFT
 10
0.0
 20
0.0
 30
0.0
  9
$UCSORGRIGHT
 10
0.0
 20
0.0
 30
0.0
  9
$UCSORGFRONT
 10
0.0
 20
0.0
 30
0.0
  9
$UCSORGBACK
 10
0.0
 20
0.0
 30
0.0
  9
$PUCSBASE
  2

  9
$PUCSNAME
  2

  9
$PUCSORG
 10
0.0
 20
0.0
 30
0.0
  9
$PUCSXDIR
 10
1.0
 20
0.0
 30
0.0
  9
$PUCSYDIR
 10
0.0
 20
1.0
 30
0.0
  9
$PUCSORTHOREF
  2

  9
$PUCSORTHOVIEW
 70
     0
  9
$PUCSORGTOP
 10
0.0
 20
0.0
 30
0.0
  9
$PUCSORGBOTTOM
 10
0.0
 20
0.0
 30
0.0
  9
$PUCSORGLEFT
 10
0.0
 20
0.0
 30
0.0
  9
$PUCSORGRIGHT
 10
0.0
 20
0.0
 30
0.0
  9
$PUCSORGFRONT
 10
0.0
 20
0.0
 30
0.0
  9
$PUCSORGBACK
 10
0.0
 20
0.0
 30
0.0
  9
$USERI1
 70
     0
  9
$USERI2
 70
     0
  9
$USERI3
 70
     0
  9
$USERI4
 70
     0
  9
$USERI5
 70
     0
  9
$USERR1
 40
0.0
  9
$USERR2
 40
0.0
  9
$USERR3
 40
0.0
  9
$USERR4
 40
0.0
  9
$USERR5
 40
0.0
  9
$WORLDVIEW
 70
     1
  9
$SHADEDGE
 70
     3
  9
$SHADEDIF
 70
    70
  9
$TILEMODE
 70
     1
  9
$MAXACTVP
 70
    48
  9
$PINSBASE
 10
0.0
 20
0.0
 30
0.0
  9
$PLIMCHECK
 70
     0
  9
$PEXTMIN
 10
0.0
 20
0.0
 30
0.0
  9
$PEXTMAX
 10
281.007629
 20
92.32476
 30
2.0
  9
$PLIMMIN
 10
0.0
 20
0.0
  9
$PLIMMAX
 10
420.0
 20
297.0
  9
$UNITMODE
 70
     0
  9
$VISRETAIN
 70
     0
  9
$PLINEGEN
 70
     0
  9
$PSLTSCALE
 70
     1
  9
$TREEDEPTH
 70
  3020
  9
$CMLSTYLE
  2
Standard
  9
$CMLJUST
 70
     0
  9
$CMLSCALE
 40
20.0
  9
$PROXYGRAPHICS
 70
     0
  9
$MEASUREMENT
 70
     1
  9
$CELWEIGHT
370
    -1
  9
$ENDCAPS
280
     0
  9
$JOINSTYLE
280
     0
  9
$LWDISPLAY
290
     0
  9
$INSUNITS
 70
     0
  9
$HYPERLINKBASE
  1

  9
$STYLESHEET
  1

  9
$XEDIT
290
     1
  9
$CEPSNTYPE
380
     0
  9
$PSTYLEMODE
290
     0
  9
$FINGERPRINTGUID
  2

  9
$VERSIONGUID
  2
{5A0F3626-34A6-4EC1-952A-5C3902AFF527}
  9
$EXTNAMES
290
     0
  9
$PSVPSCALE
 40
0.0
  9
$OLESTARTUP
290
     0
  0
ENDSEC
  0
SECTION
  2
CLASSES
  0
CLASS
  1
ACDBDICTIONARYWDFLT
  2
AcDbDictionaryWithDefault
  3
ObjectDBX Classes
 90
        0
280
     0
281
     0
  0
CLASS
  1
ACDBPLACEHOLDER
  2
AcDbPlaceHolder
  3
ObjectDBX Classes
 90
        0
280
     0
281
     0
  0
CLASS
  1
LAYOUT
  2
AcDbLayout
  3
ObjectDBX Classes
 90
        0
280
     0
281
     0
  0
CLASS
  1
DICTIONARYVAR
  2
AcDbDictionaryVar
  3
ObjectDBX Classes
 90
        0
280
     0
281
     0
  0
CLASS
  1
TABLESTYLE
  2
AcDbTableStyle
  3
ObjectDBX Classes
 90
     4095
280
     0
281
     0
  0
CLASS
  1
SCALE
  2
AcDbScale
  3
ObjectDBX Classes
 90
     1153
280
     0
281
     0
  0
CLASS
  1
WIPEOUTVARIABLES
  2
AcDbWipeoutVariables
  3
"WipeOut|Product Desc:     WipeOut Dbx Application|Company:          Autodesk, Inc.|WEB Address:      www.autodesk.com"
 90
        0
280
     0
281
     0
  0
CLASS
  1
SORTENTSTABLE
  2
AcDbSortentsTable
  3
ObjectDBX Classes
 90
        0
280
     0
281
     0
  0
CLASS
  1
MATERIAL
  2
AcDbMaterial
  3
ObjectDBX Classes
 90
     1153
280
     0
281
     0
  0
CLASS
  1
VISUALSTYLE
  2
AcDbVisualStyle
  3
ObjectDBX Classes
 90
     4095
280
     0
281
     0
  0
CLASS
  1
MLEADERSTYLE
  2
AcDbMLeaderStyle
  3
ACDB_MLEADERSTYLE_CLASS
 90
     4095
280
     0
281
     0
  0
CLASS
  1
ACDBSECTIONVIEWSTYLE
  2
AcDbSectionViewStyle
  3
ObjectDBX Classes
 90
     1025
280
     0
281
     0
  0
CLASS
  1
ACDBDETAILVIEWSTYLE
  2
AcDbDetailViewStyle
  3
ObjectDBX Classes
 90
     1025
280
     0
281
     0
  0
CLASS
  1
CELLSTYLEMAP
  2
AcDbCellStyleMap
  3
ObjectDBX Classes
 90
     1152
280
     0
281
     0
  0
ENDSEC
  0
SECTION
  2
TABLES
  0
TABLE
  2
VPORT
  5
8
330
0
100
AcDbSymbolTable
 70
     1
  0
VPORT
  5
97
330
8
100
AcDbSymbolTableRecord
100
AcDbViewportTableRecord
  2
*ACTIVE
 70
     0
 10
0.0
 20
0.0
 11
1.0
 21
1.0
 12
-0.3049906665678392
 22
12.2657337621962
 13
0.0
 23
0.0
 14
1.0
 24
1.0
 15
0.5
 25
0.5
 16
0.0
 26
0.0
 36
1.0
 17
0.0
 27
0.0
 37
0.0
 40
125.253553799996
 41
1.597254004576659
 42
50.0
 43
0.0
 44
0.0
 50
0.0
 51
0.0
 71
    16
 72
   100
 73
     1
 74
     3
 75
     0
 76
     0
 77
     0
 78
     1
281
     0
 65
     1
110
0.0
120
0.0
130
0.0
111
1.0
121
0.0
131
0.0
112
0.0
122
1.0
132
0.0
 79
     0
146
0.0
1001
ACAD_NAV_VCDISPLAY
1070
     3
  0
ENDTAB
  0
TABLE
  2
LTYPE
  5
5
330
0
100
AcDbSymbolTable
 70
     5
  0
LTYPE
  5
14
330
5
100
AcDbSymbolTableRecord
100
AcDbLinetypeTableRecord
  2
ByBlock
 70
     0
  3

 72
    65
 73
     0
 40
0.0
  0
LTYPE
  5
15
330
5
100
AcDbSymbolTableRecord
100
AcDbLinetypeTableRecord
  2
ByLayer
 70
     0
  3

 72
    65
 73
     0
 40
0.0
  0
LTYPE
  5
16
330
5
100
AcDbSymbolTableRecord
100
AcDbLinetypeTableRecord
  2
Continuous
 70
     0
  3
Solid line
 72
    65
 73
     0
 40
0.0
  0
LTYPE
  5
3488
330
5
100
AcDbSymbolTableRecord
100
AcDbLinetypeTableRecord
  2
CENTER2
 70
     0
  3
Center (.5x) ___ _ ___ _ ___ _ ___ _ ___ _ ___
 72
    65
 73
     4
 40
28.57499999999999
 49
19.05
 74
     4
 75
     0
340
0
 46
1.0
 50
0.0
 44
0.0
 45
0.0
 49
-3.174999999999998
 74
     4
 75
     0
340
0
 46
1.0
 50
0.0
 44
0.0
 45
0.0
 49
3.174999999999998
 74
     4
 75
     0
340
0
 46
1.0
 50
0.0
 44
0.0
 45
0.0
 49
-3.174999999999998
 74
     4
 75
     0
340
0
 46
1.0
 50
0.0
 44
0.0
 45
0.0
  0
LTYPE
  5
3489
330
5
100
AcDbSymbolTableRecord
100
AcDbLinetypeTableRecord
  2
HIDDEN
 70
     0
  3
Hidden __ __ __ __ __ __ __ __ __ __ __ __ __ _
 72
    65
 73
     2
 40
9.524999999999996
 49
6.349999999999997
 74
     4
 75
     0
340
0
 46
1.0
 50
0.0
 44
0.0
 45
0.0
 49
-3.174999999999998
 74
     4
 75
     0
340
0
 46
1.0
 50
0.0
 44
0.0
 45
0.0
  0
ENDTAB
  0
TABLE
  2
LAYER
  5
2
102
{ACAD_XDICTIONARY
360
3498
102
}
330
0
100
AcDbSymbolTable
 70
    13
  0
LAYER
  5
10
102
{ACAD_XDICTIONARY
360
348C
102
}
330
2
100
AcDbSymbolTableRecord
100
AcDbLayerTableRecord
  2
0
 70
     0
 62
     7
  6
Continuous
370
    13
390
F
  0
LAYER
  5
5FF
102
{ACAD_XDICTIONARY
360
348D
102
}
330
2
100
AcDbSymbolTableRecord
100
AcDbLayerTableRecord
  2
1
 70
     0
 62
     4
  6
Continuous
370
    50
390
F
  0
LAYER
  5
601
102
{ACAD_XDICTIONARY
360
348E
102
}
330
2
100
AcDbSymbolTableRecord
100
AcDbLayerTableRecord
  2
2
 70
     0
 62
     7
  6
Continuous
370
    25
390
F
  0
LAYER
  5
603
102
{ACAD_XDICTIONARY
360
348F
102
}
330
2
100
AcDbSymbolTableRecord
100
AcDbLayerTableRecord
  2
SK2
 70
     0
 62
     7
  6
Continuous
370
    25
390
F
  0
LAYER
  5
607
102
{ACAD_XDICTIONARY
360
3490
102
}
330
2
100
AcDbSymbolTableRecord
100
AcDbLayerTableRecord
  2
4
 70
     0
 62
     2
  6
CENTER2
370
    25
390
F
  0
LAYER
  5
609
102
{ACAD_XDICTIONARY
360
3491
102
}
330
2
100
AcDbSymbolTableRecord
100
AcDbLayerTableRecord
  2
SK4
 70
     0
 62
     2
  6
CENTER2
370
    25
390
F
  0
LAYER
  5
60B
102
{ACAD_XDICTIONARY
360
3492
102
}
330
2
100
AcDbSymbolTableRecord
100
AcDbLayerTableRecord
  2
SK6
 70
     0
 62
     5
  6
Continuous
370
    -3
390
F
  0
LAYER
  5
60D
102
{ACAD_XDICTIONARY
360
3493
102
}
330
2
100
AcDbSymbolTableRecord
100
AcDbLayerTableRecord
  2
CUT
 70
     0
 62
     1
  6
Continuous
370
    25
390
F
  0
LAYER
  5
60F
102
{ACAD_XDICTIONARY
360
3494
102
}
330
2
100
AcDbSymbolTableRecord
100
AcDbLayerTableRecord
  2
NOCUT
 70
     0
 62
     7
  6
Continuous
370
    -3
390
F
  0
LAYER
  5
611
102
{ACAD_XDICTIONARY
360
3495
102
}
330
2
100
AcDbSymbolTableRecord
100
AcDbLayerTableRecord
  2
INFTOTAL
 70
     0
 62
     9
  6
Continuous
370
    18
390
F
1001
AcAecLayerStandard
1000

1000

  0
LAYER
  5
614
102
{ACAD_XDICTIONARY
360
3496
102
}
330
2
100
AcDbSymbolTableRecord
100
AcDbLayerTableRecord
  2
SK1
 70
     0
 62
     4
  6
Continuous
370
    50
390
F
1001
AcAecLayerStandard
1000

1000

  0
LAYER
  5
616
330
2
100
AcDbSymbolTableRecord
100
AcDbLayerTableRecord
  2
Defpoints
 70
     0
 62
     7
  6
Continuous
290
     0
370
    -3
390
F
  0
LAYER
  5
1416
330
2
100
AcDbSymbolTableRecord
100
AcDbLayerTableRecord
  2
SK3
 70
     0
 62
     1
  6
HIDDEN
370
    35
390
F
  0
ENDTAB
  0
TABLE
  2
STYLE
  5
3
330
0
100
AcDbSymbolTable
 70
     2
  0
STYLE
  5
11
330
3
100
AcDbSymbolTableRecord
100
AcDbTextStyleTableRecord
  2
Standard
 70
     0
 40
0.0
 41
1.0
 50
0.0
 71
     0
 42
0.2
  3
monos.ttf
  4

1001
ACAD
1000
Monospac821 BT
1071
       49
  0
STYLE
  5
F86
330
3
100
AcDbSymbolTableRecord
100
AcDbTextStyleTableRecord
  2
MM_STANDARD
 70
     0
 40
3.5
 41
1.0
 50
0.0
 71
     0
 42
3.5
  3
monos.ttf
  4

1001
ACAD
1000
Monospac821 BT
1071
       49
  0
ENDTAB
  0
TABLE
  2
VIEW
  5
6
330
0
100
AcDbSymbolTable
 70
     0
  0
ENDTAB
  0
TABLE
  2
UCS
  5
7
330
0
100
AcDbSymbolTable
 70
     0
  0
ENDTAB
  0
TABLE
  2
APPID
  5
9
330
0
100
AcDbSymbolTable
 70
    21
  0
APPID
  5
12
330
9
100
AcDbSymbolTableRecord
100
AcDbRegAppTableRecord
  2
ACAD
 70
     0
  0
APPID
  5
3475
330
9
100
AcDbSymbolTableRecord
100
AcDbRegAppTableRecord
  2
ACAD_PSEXT
 70
     0
  0
APPID
  5
3476
330
9
100
AcDbSymbolTableRecord
100
AcDbRegAppTableRecord
  2
ACAD_EXEMPT_FROM_CAD_STANDARDS
 70
     0
  0
APPID
  5
3477
330
9
100
AcDbSymbolTableRecord
100
AcDbRegAppTableRecord
  2
ACAD_MLEADERVER
 70
     0
  0
APPID
  5
3478
330
9
100
AcDbSymbolTableRecord
100
AcDbRegAppTableRecord
  2
ACAD_DSTYLE_DIMJAG
 70
     0
  0
APPID
  5
3479
330
9
100
AcDbSymbolTableRecord
100
AcDbRegAppTableRecord
  2
ACAD_DSTYLE_DIMBREAK
 70
     0
  0
APPID
  5
347A
330
9
100
AcDbSymbolTableRecord
100
AcDbRegAppTableRecord
  2
ACAD_DSTYLE_DIMTALN
 70
     0
  0
APPID
  5
347B
330
9
100
AcDbSymbolTableRecord
100
AcDbRegAppTableRecord
  2
AcAecLayerStandard
 70
     0
  0
APPID
  5
347C
330
9
100
AcDbSymbolTableRecord
100
AcDbRegAppTableRecord
  2
DCO15
 70
     0
  0
APPID
  5
347D
330
9
100
AcDbSymbolTableRecord
100
AcDbRegAppTableRecord
  2
AcadAnnoPO
 70
     0
  0
APPID
  5
347E
330
9
100
AcDbSymbolTableRecord
100
AcDbRegAppTableRecord
  2
ACAD_DSTYLE_DIMRADIAL_EXTENSION
 70
     0
  0
APPID
  5
347F
330
9
100
AcDbSymbolTableRecord
100
AcDbRegAppTableRecord
  2
ACAD_DSTYLE_DIMTEXT_FILL
 70
     0
  0
APPID
  5
3480
330
9
100
AcDbSymbolTableRecord
100
AcDbRegAppTableRecord
  2
ACAD_DSTYLE_DIMEXT_LENGTH
 70
     0
  0
APPID
  5
3481
330
9
100
AcDbSymbolTableRecord
100
AcDbRegAppTableRecord
  2
ACAD_DSTYLE_DIMEXT_ENABLED
 70
     0
  0
APPID
  5
3482
330
9
100
AcDbSymbolTableRecord
100
AcDbRegAppTableRecord
  2
ACAD_DSTYLE_DIM_LINETYPE
 70
     0
  0
APPID
  5
3483
330
9
100
AcDbSymbolTableRecord
100
AcDbRegAppTableRecord
  2
ACAD_DSTYLE_DIM_EXT1_LINETYPE
 70
     0
  0
APPID
  5
3484
330
9
100
AcDbSymbolTableRecord
100
AcDbRegAppTableRecord
  2
ACAD_DSTYLE_DIM_EXT2_LINETYPE
 70
     0
  0
APPID
  5
3485
330
9
100
AcDbSymbolTableRecord
100
AcDbRegAppTableRecord
  2
ACAD_DSTYLE_DIMJOGGED_JOGANGLE_SYMBOL
 70
     0
  0
APPID
  5
3486
330
9
100
AcDbSymbolTableRecord
100
AcDbRegAppTableRecord
  2
ACAD_DSTYLE_DIMARC_LENGTH_SYMBOL
 70
     0
  0
APPID
  5
3487
330
9
100
AcDbSymbolTableRecord
100
AcDbRegAppTableRecord
  2
AcLayerTools
 70
     0
  0
APPID
  5
3561
330
9
100
AcDbSymbolTableRecord
100
AcDbRegAppTableRecord
  2
ACAD_NAV_VCDISPLAY
 70
     0
  0
ENDTAB
  0
TABLE
  2
DIMSTYLE
  5
A
330
0
100
AcDbSymbolTable
 70
     1
100
AcDbDimStyleTable
 71
     0
  0
DIMSTYLE
105
27
102
{ACAD_REACTORS
330
2A15
330
2A21
330
2A2D
330
2A3A
330
2A47
330
2A54
102
}
330
A
100
AcDbSymbolTableRecord
100
AcDbDimStyleTableRecord
  2
Standard
 70
     0
 41
2.5
 42
0.0
 43
3.75
 44
1.25
 73
     0
 74
     0
 77
     1
 78
     8
 79
     2
140
3.5
141
0.0
143
0.039370078
147
0.625
171
     3
179
     2
271
     2
272
     2
274
     3
283
     0
284
     8
340
11
1001
ACAD_DSTYLE_DIMJAG
1070
   388
1040
1.5
1001
ACAD_DSTYLE_DIMTALN
1070
   392
1070
     0
  0
ENDTAB
  0
TABLE
  2
BLOCK_RECORD
  5
1
330
0
100
AcDbSymbolTable
 70
    22
  0
BLOCK_RECORD
  5
1F
102
{ACAD_XDICTIONARY
360
34C6
102
}
330
1
100
AcDbSymbolTableRecord
100
AcDbBlockTableRecord
  2
*Model_Space
340
22
  0
BLOCK_RECORD
  5
73
330
1
100
AcDbSymbolTableRecord
100
AcDbBlockTableRecord
  2
*Paper_Space
340
74
  0
BLOCK_RECORD
  5
2D0
330
1
100
AcDbSymbolTableRecord
100
AcDbBlockTableRecord
  2
CERO_POINT
340
0
102
{BLKREFS
331
63B
102
}
1001
ACAD
1000
DesignCenter Data
1002
{
1070
     1
1070
     4
1002
}
  0
BLOCK_RECORD
  5
2A20
330
1
100
AcDbSymbolTableRecord
100
AcDbBlockTableRecord
  2
*D9
340
0
  0
BLOCK_RECORD
  5
2A2C
330
1
100
AcDbSymbolTableRecord
100
AcDbBlockTableRecord
  2
*D10
340
0
  0
BLOCK_RECORD
  5
2A39
330
1
100
AcDbSymbolTableRecord
100
AcDbBlockTableRecord
  2
*D11
340
0
  0
BLOCK_RECORD
  5
2A46
330
1
100
AcDbSymbolTableRecord
100
AcDbBlockTableRecord
  2
*D12
340
0
  0
BLOCK_RECORD
  5
2A53
330
1
100
AcDbSymbolTableRecord
100
AcDbBlockTableRecord
  2
*D13
340
0
  0
BLOCK_RECORD
  5
2A60
330
1
100
AcDbSymbolTableRecord
100
AcDbBlockTableRecord
  2
*D14
340
0
  0
ENDTAB
  0
ENDSEC
  0
SECTION
  2
BLOCKS
  0
BLOCK
  5
20
330
1F
100
AcDbEntity
  8
0
100
AcDbBlockBegin
  2
*Model_Space
 70
     0
 10
0.0
 20
0.0
 30
0.0
  3
*Model_Space
  1

  0
ENDBLK
  5
21
330
1F
100
AcDbEntity
  8
0
100
AcDbBlockEnd
  0
BLOCK
  5
75
330
73
100
AcDbEntity
 67
     1
  8
0
100
AcDbBlockBegin
  2
*Paper_Space
 70
     0
 10
0.0
 20
0.0
 30
0.0
  3
*Paper_Space
  1

  0
ENDBLK
  5
76
330
73
100
AcDbEntity
 67
     1
  8
0
100
AcDbBlockEnd
  0
BLOCK
  5
3499
102
{ACAD_REACTORS
330
2A15
330
2A21
330
2A2D
330
2A3A
330
2A47
330
2A54
102
}
330
2D0
100
AcDbEntity
  8
0
100
AcDbBlockBegin
  2
CERO_POINT
 70
     0
 10
0.0
 20
0.0
 30
0.0
  3
CERO_POINT
  1

  0
CIRCLE
  5
2D2
102
{ACAD_REACTORS
330
2D7
102
}
330
2D0
100
AcDbEntity
  8
SK2
100
AcDbCircle
 10
0.0
 20
0.0
 30
0.0
 40
2.5
  0
LINE
  5
2D3
330
2D0
100
AcDbEntity
  8
SK2
100
AcDbLine
 10
0.0900000000037835
 20
0.0
 30
0.0
 11
-0.0899999999965076
 21
0.0
 31
0.0
  0
LINE
  5
2D4
330
2D0
100
AcDbEntity
  8
SK2
100
AcDbLine
 10
0.0
 20
0.0899999999999182
 30
0.0
 11
0.0
 21
-0.0899999999999182
 31
0.0
  0
LINE
  5
2D5
102
{ACAD_REACTORS
330
2D7
102
}
330
2D0
100
AcDbEntity
  8
SK2
100
AcDbLine
 10
0.0
 20
-2.5
 30
0.0
 11
0.0
 21
2.5
 31
0.0
  0
LINE
  5
2D6
102
{ACAD_REACTORS
330
2D7
102
}
330
2D0
100
AcDbEntity
  8
SK2
100
AcDbLine
 10
2.5
 20
0.0
 30
0.0
 11
-2.5
 21
0.0
 31
0.0
  0
HATCH
  5
2D7
330
2D0
100
AcDbEntity
  8
SK2
100
AcDbHatch
 10
0.0
 20
0.0
 30
0.0
210
0.0
220
0.0
230
1.0
  2
ANSI31
 70
     0
 71
     1
 91
        2
 92
        7
 72
     1
 73
     1
 93
        3
 10
0.0
 20
-2.5
 42
0.4142135623730951
 10
2.5
 20
0.0
 42
0.0
 10
0.0
 20
0.0
 42
0.0
 97
        3
330
2D2
330
2D6
330
2D5
 92
        7
 72
     1
 73
     1
 93
        3
 10
0.0
 20
0.0
 42
0.0
 10
0.0
 20
2.5
 42
0.4142135623730951
 10
-2.5
 20
0.0
 42
0.0
 97
        3
330
2D6
330
2D5
330
2D2
 75
     0
 76
     1
 52
180.0
 41
0.1
 77
     0
 78
     1
 53
225.0
 43
5.170976743218488
 44
0.0
 45
0.2245064030267288
 46
-0.2245064030267289
 79
     0
 47
0.0243816376539857
 98
        2
 10
0.8789156907296272
 20
-1.044463114528752
 10
-0.8545028512526187
 20
0.7841600866017872
1001
ACAD
1010
0.0
1020
0.0
1030
0.0
  0
ENDBLK
  5
349A
330
2D0
100
AcDbEntity
  8
0
100
AcDbBlockEnd
  0
BLOCK
  5
34AB
330
2A20
100
AcDbEntity
  8
0
100
AcDbBlockBegin
  2
*D9
 70
     1
 10
0.0
 20
0.0
 30
0.0
  3
*D9
  1

  0
POINT
  5
302A
330
2A20
100
AcDbEntity
  8
Defpoints
  6
ByBlock
 62
     0
100
AcDbPoint
 10
22.94999999999999
 20
0.0
 30
0.0
  0
POINT
  5
302B
330
2A20
100
AcDbEntity
  8
Defpoints
  6
ByBlock
 62
     0
100
AcDbPoint
 10
0.0
 20
6.5
 30
0.0
  0
LINE
  5
302C
330
2A20
100
AcDbEntity
  8
2
  6
ByBlock
 62
     0
370
    -2
100
AcDbLine
 10
22.94999999999999
 20
0.0
 30
0.0
 11
22.95053615042836
 21
32.20037392743488
 31
0.0
  0
LINE
  5
302D
330
2A20
100
AcDbEntity
  8
2
  6
ByBlock
 62
     0
370
    -2
100
AcDbLine
 10
0.0000000000000002
 20
6.5
 30
0.0
 11
0.0004279289240714
 21
32.20075605685928
 31
0.0
  0
LINE
  5
302E
330
2A20
100
AcDbEntity
  8
2
  6
ByBlock
 62
     0
370
    -2
100
AcDbLine
 10
22.95051533737703
 20
30.95037392760816
 30
0.0
 11
0.000407115872742
 21
30.95075605703256
 31
0.0
  0
SOLID
  5
302F
330
2A20
100
AcDbEntity
  8
2
  6
ByBlock
 62
     0
100
AcDbTrace
 10
22.95051533737703
 20
30.95037392760816
 30
0.0
 11
20.45052227540736
 21
31.36708222031981
 31
0.0
 12
20.4505084000398
 22
30.53374888710183
 32
0.0
 13
20.4505084000398
 23
30.53374888710183
 33
0.0
  0
SOLID
  5
3030
330
2A20
100
AcDbEntity
  8
2
  6
ByBlock
 62
     0
100
AcDbTrace
 10
0.000407115872742
 20
30.95075605703256
 30
0.0
 11
2.50041405320997
 21
31.36738109753889
 31
0.0
 12
2.500400177842418
 22
30.53404776432091
 32
0.0
 13
2.500400177842418
 23
30.53404776432091
 33
0.0
  0
MTEXT
  5
3031
330
2A20
100
AcDbEntity
  8
2
  6
ByBlock
 62
     0
100
AcDbMText
 10
11.47504075291982
 20
33.39812297576753
 30
0.0
 40
3.5
 41
0.0
 71
     5
 72
     1
  1
23
 11
0.9999999998613816
 21
-0.0000166504410634
 31
0.0
 73
     1
 44
1.0
1001
ACAD
1000
MTEXTBEGIN
1070
    73
1070
     1
1070
    44
1040
1.0
1070
    74
1070
     0
1000
MTEXTEND
  0
ENDBLK
  5
34AC
330
2A20
100
AcDbEntity
  8
0
100
AcDbBlockEnd
  0
BLOCK
  5
34AD
330
2A2C
100
AcDbEntity
  8
0
100
AcDbBlockBegin
  2
*D10
 70
     1
 10
0.0
 20
0.0
 30
0.0
  3
*D10
  1

  0
LINE
  5
354E
330
2A2C
100
AcDbEntity
  8
SK2
 62
     0
370
    -2
100
AcDbLine
 10
22.94999999999999
 20
0.0
 30
0.0
 11
22.95066345619262
 21
39.84616323395588
 31
0.0
  0
LINE
  5
354F
330
2A2C
100
AcDbEntity
  8
SK2
 62
     0
370
    -2
100
AcDbLine
 10
-17.5
 20
4.0
 30
0.0
 11
-17.49940313435737
 21
39.84683674540576
 31
0.0
  0
LINE
  5
3550
330
2A2C
100
AcDbEntity
  8
SK2
 62
     0
370
    -2
100
AcDbLine
 10
20.45064264348784
 20
38.59620486023182
 30
0.0
 11
-14.99942394775525
 21
38.59679511947637
 31
0.0
  0
SOLID
  5
3551
330
2A2C
100
AcDbEntity
  8
SK2
 62
     0
100
AcDbTrace
 10
20.45064958117161
 20
39.01287152684072
 30
0.0
 11
20.45063570580406
 21
38.17953819362291
 31
0.0
 12
22.95064264314129
 22
38.59616323412916
 32
0.0
 13
22.95064264314129
 23
38.59616323412916
 33
0.0
  0
SOLID
  5
3552
330
2A2C
100
AcDbEntity
  8
SK2
 62
     0
100
AcDbTrace
 10
-14.99941701007147
 20
39.01346178608527
 30
0.0
 11
-14.99943088543903
 21
38.18012845286746
 31
0.0
 12
-17.4994239474087
 22
38.59683674557903
 32
0.0
 13
-17.4994239474087
 23
38.59683674557903
 33
0.0
  0
MTEXT
  5
3553
330
2A2C
100
AcDbEntity
  8
SK2
 62
     0
100
AcDbMText
 10
2.72504056862998
 20
41.03298980992227
 30
0.0
 40
3.5
 41
0.0
 71
     5
 72
     1
  1
40.5
 11
0.9999999998613814
 21
-0.0000166504410634
 31
0.0
 73
     1
 44
1.0
1001
ACAD
1000
MTEXTBEGIN
1070
    73
1070
     1
1070
    44
1040
1.0
1070
    74
1070
     0
1000
MTEXTEND
  0
POINT
  5
3554
330
2A2C
100
AcDbEntity
  8
Defpoints
 62
     0
100
AcDbPoint
 10
22.94999999999999
 20
0.0
 30
0.0
  0
POINT
  5
3555
330
2A2C
100
AcDbEntity
  8
Defpoints
 62
     0
100
AcDbPoint
 10
-17.5
 20
4.0
 30
0.0
  0
POINT
  5
3556
330
2A2C
100
AcDbEntity
  8
Defpoints
 62
     0
100
AcDbPoint
 10
-17.4994239474087
 20
38.59683674557903
 30
0.0
  0
ENDBLK
  5
34AE
330
2A2C
100
AcDbEntity
  8
0
100
AcDbBlockEnd
  0
BLOCK
  5
34AF
330
2A39
100
AcDbEntity
  8
0
100
AcDbBlockBegin
  2
*D11
 70
     1
 10
0.0
 20
0.0
 30
0.0
  3
*D11
  1

  0
LINE
  5
3545
330
2A39
100
AcDbEntity
  8
SK2
 62
     0
370
    -2
100
AcDbLine
 10
-17.50000000000001
 20
-4.0
 30
0.0
 11
-30.24385900000002
 21
-4.000000000000002
 31
0.0
  0
LINE
  5
3546
330
2A39
100
AcDbEntity
  8
SK2
 62
     0
370
    -2
100
AcDbLine
 10
-17.50000000000001
 20
4.0
 30
0.0
 11
-30.24385900000002
 21
3.999999999999998
 31
0.0
  0
LINE
  5
3547
330
2A39
100
AcDbEntity
  8
SK2
 62
     0
370
    -2
100
AcDbLine
 10
-28.99385900000002
 20
-1.500000000000001
 30
0.0
 11
-28.99385900000002
 21
1.499999999999999
 31
0.0
  0
SOLID
  5
3548
330
2A39
100
AcDbEntity
  8
SK2
 62
     0
100
AcDbTrace
 10
-29.4105256666667
 20
-1.500000000000001
 30
0.0
 11
-28.57719233333335
 21
-1.500000000000001
 31
0.0
 12
-28.99385900000002
 22
-4.000000000000002
 32
0.0
 13
-28.99385900000002
 23
-4.000000000000002
 33
0.0
  0
SOLID
  5
3549
330
2A39
100
AcDbEntity
  8
SK2
 62
     0
100
AcDbTrace
 10
-29.4105256666667
 20
1.499999999999999
 30
0.0
 11
-28.57719233333335
 21
1.499999999999999
 31
0.0
 12
-28.99385900000002
 22
4.0
 32
0.0
 13
-28.99385900000002
 23
4.0
 33
0.0
  0
MTEXT
  5
354A
330
2A39
100
AcDbEntity
  8
SK2
 62
     0
100
AcDbMText
 10
-31.43034881026002
 20
-0.2832290000000054
 30
0.0
 40
3.5
 41
0.0
 71
     5
 72
     1
  1
M8
 11
0.0000000000000001
 21
1.0
 31
0.0
 73
     1
 44
1.0
1001
ACAD
1000
MTEXTBEGIN
1070
    73
1070
     1
1070
    44
1040
1.0
1070
    74
1070
     0
1000
MTEXTEND
  0
POINT
  5
354B
330
2A39
100
AcDbEntity
  8
Defpoints
 62
     0
100
AcDbPoint
 10
-17.50000000000001
 20
-4.0
 30
0.0
  0
POINT
  5
354C
330
2A39
100
AcDbEntity
  8
Defpoints
 62
     0
100
AcDbPoint
 10
-17.50000000000001
 20
4.0
 30
0.0
  0
POINT
  5
354D
330
2A39
100
AcDbEntity
  8
Defpoints
 62
     0
100
AcDbPoint
 10
-28.99385900000002
 20
4.0
 30
0.0
  0
ENDBLK
  5
34B0
330
2A39
100
AcDbEntity
  8
0
100
AcDbBlockEnd
  0
BLOCK
  5
34B1
330
2A46
100
AcDbEntity
  8
0
100
AcDbBlockBegin
  2
*D12
 70
     1
 10
0.0
 20
0.0
 30
0.0
  3
*D12
  1

  0
LINE
  5
353C
330
2A46
100
AcDbEntity
  8
SK2
 62
     0
370
    -2
100
AcDbLine
 10
0.0
 20
-6.500000000000002
 30
0.0
 11
-39.69095600000001
 21
-6.500000000000007
 31
0.0
  0
LINE
  5
353D
330
2A46
100
AcDbEntity
  8
SK2
 62
     0
370
    -2
100
AcDbLine
 10
0.0
 20
6.500000000000002
 30
0.0
 11
-39.69095600000001
 21
6.499999999999997
 31
0.0
  0
LINE
  5
353E
330
2A46
100
AcDbEntity
  8
SK2
 62
     0
370
    -2
100
AcDbLine
 10
-38.44095600000001
 20
-4.000000000000007
 30
0.0
 11
-38.44095600000001
 21
3.999999999999996
 31
0.0
  0
SOLID
  5
353F
330
2A46
100
AcDbEntity
  8
SK2
 62
     0
100
AcDbTrace
 10
-38.85762266666667
 20
-4.000000000000007
 30
0.0
 11
-38.02428933333334
 21
-4.000000000000007
 31
0.0
 12
-38.44095600000001
 22
-6.500000000000007
 32
0.0
 13
-38.44095600000001
 23
-6.500000000000007
 33
0.0
  0
SOLID
  5
3540
330
2A46
100
AcDbEntity
  8
SK2
 62
     0
100
AcDbTrace
 10
-38.85762266666667
 20
3.999999999999996
 30
0.0
 11
-38.02428933333334
 21
3.999999999999996
 31
0.0
 12
-38.44095600000001
 22
6.499999999999997
 32
0.0
 13
-38.44095600000001
 23
6.499999999999997
 33
0.0
  0
MTEXT
  5
3541
330
2A46
100
AcDbEntity
  8
SK2
 62
     0
100
AcDbMText
 10
-41.28696794659171
 20
0.0000000000000003
 30
0.0
 40
3.5
 41
0.0
 71
     5
 72
     1
  1
%%c13
 11
0.0000000000000001
 21
1.0
 31
0.0
 73
     1
 44
1.0
1001
ACAD
1000
MTEXTBEGIN
1070
    73
1070
     1
1070
    44
1040
1.0
1070
    74
1070
     0
1000
MTEXTEND
  0
POINT
  5
3542
330
2A46
100
AcDbEntity
  8
Defpoints
 62
     0
100
AcDbPoint
 10
0.0
 20
-6.500000000000002
 30
0.0
  0
POINT
  5
3543
330
2A46
100
AcDbEntity
  8
Defpoints
 62
     0
100
AcDbPoint
 10
0.0
 20
6.500000000000002
 30
0.0
  0
POINT
  5
3544
330
2A46
100
AcDbEntity
  8
Defpoints
 62
     0
100
AcDbPoint
 10
-38.44095600000001
 20
6.499999999999997
 30
0.0
  0
ENDBLK
  5
34B2
330
2A46
100
AcDbEntity
  8
0
100
AcDbBlockEnd
  0
BLOCK
  5
34B3
330
2A53
100
AcDbEntity
  8
0
100
AcDbBlockBegin
  2
*D13
 70
     1
 10
0.0
 20
0.0
 30
0.0
  3
*D13
  1

  0
LINE
  5
3516
330
2A53
100
AcDbEntity
  8
2
 62
     0
370
    -2
100
AcDbLine
 10
18.75038206533307
 20
7.999999993638446
 30
0.0
 11
18.75038206533307
 21
24.19625899363844
 31
0.0
  0
LINE
  5
3517
330
2A53
100
AcDbEntity
  8
2
 62
     0
370
    -2
100
AcDbLine
 10
22.95038206533305
 20
7.999999993638446
 30
0.0
 11
22.95038206533305
 21
24.19625899363844
 31
0.0
  0
LINE
  5
3518
330
2A53
100
AcDbEntity
  8
2
 62
     0
370
    -2
100
AcDbLine
 10
25.45038206533306
 20
22.94625899363844
 30
0.0
 11
27.95038206533306
 21
22.94625899363844
 31
0.0
  0
LINE
  5
3519
330
2A53
100
AcDbEntity
  8
2
 62
     0
370
    -2
100
AcDbLine
 10
16.25038206533307
 20
22.94625899363844
 30
0.0
 11
4.000030694988728
 21
22.94625899363844
 31
0.0
  0
LINE
  5
351A
330
2A53
100
AcDbEntity
  8
2
 62
     0
370
    -2
100
AcDbLine
 10
22.95038206533305
 20
22.94625899363844
 30
0.0
 11
18.75038206533307
 21
22.94625899363844
 31
0.0
  0
SOLID
  5
351B
330
2A53
100
AcDbEntity
  8
2
 62
     0
100
AcDbTrace
 10
25.45038206533306
 20
23.36292566030511
 30
0.0
 11
25.45038206533306
 21
22.52959232697177
 31
0.0
 12
22.95038206533305
 22
22.94625899363844
 32
0.0
 13
22.95038206533305
 23
22.94625899363844
 33
0.0
  0
SOLID
  5
351C
330
2A53
100
AcDbEntity
  8
2
 62
     0
100
AcDbTrace
 10
16.25038206533307
 20
23.36292566030511
 30
0.0
 11
16.25038206533307
 21
22.52959232697177
 31
0.0
 12
18.75038206533307
 22
22.94625899363844
 32
0.0
 13
18.75038206533307
 23
22.94625899363844
 33
0.0
  0
MTEXT
  5
351D
330
2A53
100
AcDbEntity
  8
2
 62
     0
100
AcDbMText
 10
8.8752063801609
 20
25.33232715948524
 30
0.0
 40
3.5
 41
0.0
 71
     5
 72
     1
  1
4.2
 73
     1
 44
1.0
1001
ACAD
1000
MTEXTBEGIN
1070
    73
1070
     1
1070
    44
1040
1.0
1070
    74
1070
     0
1000
MTEXTEND
  0
POINT
  5
351E
330
2A53
100
AcDbEntity
  8
Defpoints
 62
     0
100
AcDbPoint
 10
18.75038206533307
 20
7.999999993638446
 30
0.0
  0
POINT
  5
351F
330
2A53
100
AcDbEntity
  8
Defpoints
 62
     0
100
AcDbPoint
 10
22.95038206533305
 20
7.999999993638446
 30
0.0
  0
POINT
  5
3520
330
2A53
100
AcDbEntity
  8
Defpoints
 62
     0
100
AcDbPoint
 10
22.95038206533305
 20
22.94625899363844
 30
0.0
  0
ENDBLK
  5
34B4
330
2A53
100
AcDbEntity
  8
0
100
AcDbBlockEnd
  0
BLOCK
  5
34B5
330
2A60
100
AcDbEntity
  8
0
100
AcDbBlockBegin
  2
*D14
 70
     1
 10
0.0
 20
0.0
 30
0.0
  3
*D14
  1

  0
POINT
  5
346E
330
2A60
100
AcDbEntity
  8
Defpoints
  6
ByBlock
 62
     0
100
AcDbPoint
 10
22.94999999999999
 20
-8.0
 30
0.0
  0
POINT
  5
346F
330
2A60
100
AcDbEntity
  8
Defpoints
  6
ByBlock
 62
     0
100
AcDbPoint
 10
22.95013320352848
 20
7.999999997782103
 30
0.0
  0
LINE
  5
3470
330
2A60
100
AcDbEntity
  8
2
  6
ByBlock
 62
     0
370
    -2
100
AcDbLine
 10
22.95013320352848
 20
7.999999997782103
 30
0.0
 11
50.63811111884064
 21
7.999769489259878
 31
0.0
  0
LINE
  5
3471
330
2A60
100
AcDbEntity
  8
2
  6
ByBlock
 62
     0
370
    -2
100
AcDbLine
 10
49.38811111888397
 20
7.999779895785541
 30
0.0
 11
49.38800107632896
 21
-5.218194881880971
 31
0.0
  0
SOLID
  5
3472
330
2A60
100
AcDbEntity
  8
2
  6
ByBlock
 62
     0
100
AcDbTrace
 10
49.38811111888397
 20
7.999779895785542
 30
0.0
 11
49.80475697248495
 21
5.499776427030291
 31
0.0
 12
48.97142363918034
 22
5.499783364714066
 32
0.0
 13
48.97142363918034
 23
5.499783364714066
 33
0.0
  0
MTEXT
  5
3473
330
2A60
100
AcDbEntity
  8
2
  6
ByBlock
 62
     0
100
AcDbMText
 10
46.84210132178927
 20
-0.1831244946813685
 30
0.0
 40
3.5
 41
0.0
 71
     5
 72
     1
  1
%%c16
 11
0.0000083252205316
 21
0.9999999999653454
 31
0.0
 73
     1
 44
1.0
1001
ACAD
1000
MTEXTBEGIN
1070
    73
1070
     1
1070
    44
1040
1.0
1070
    74
1070
     0
1000
MTEXTEND
  0
ENDBLK
  5
34B6
330
2A60
100
AcDbEntity
  8
0
100
AcDbBlockEnd
  0
ENDSEC
  0
SECTION
  2
ENTITIES
  0
INSERT
  5
63B
330
1F
100
AcDbEntity
  8
SK2
100
AcDbBlockReference
  2
CERO_POINT
 10
0.0
 20
0.0
 30
0.0
  0
LINE
  5
63C
330
1F
100
AcDbEntity
  8
INFTOTAL
100
AcDbLine
 10
-87.32631117866217
 20
74.446036276732
 30
0.0
 11
-37.32631117866219
 21
74.44603627673199
 31
0.0
  0
LINE
  5
63D
330
1F
100
AcDbEntity
  8
INFTOTAL
100
AcDbLine
 10
86.73532450390132
 20
0.0866455548480687
 30
0.0
 11
86.73532450390132
 21
-49.91335444515192
 31
0.0
  0
LINE
  5
63E
330
1F
100
AcDbEntity
  8
INFTOTAL
100
AcDbLine
 10
86.73532450390132
 20
-49.91335444515192
 30
0.0
 11
36.73532450390132
 21
-49.91335444515192
 31
0.0
  0
LINE
  5
63F
330
1F
100
AcDbEntity
  8
INFTOTAL
100
AcDbLine
 10
-87.32631117866217
 20
24.44603627673201
 30
0.0
 11
-87.32631117866217
 21
74.446036276732
 31
0.0
  0
DIMENSION
  5
2A15
330
1F
100
AcDbEntity
  8
2
100
AcDbDimension
  2
*D9
 10
0.000407115872742
 20
30.95075605703256
 30
0.0
 11
11.47499999999999
 21
30.95056499999998
 31
0.0
 70
   160
  1
23
 71
     5
 42
22.95010822468561
  3
Standard
100
AcDbAlignedDimension
 13
22.94999999999999
 23
0.0
 33
0.0
 14
0.0
 24
6.5
 34
0.0
 50
179.999046
100
AcDbRotatedDimension
  0
DIMENSION
  5
2A21
330
1F
100
AcDbEntity
  8
SK2
100
AcDbDimension
  2
*D10
 10
-17.4994239474087
 20
38.59683674557903
 30
0.0
 11
2.724999999999993
 21
38.59650000000001
 31
0.0
 70
   160
  1
40.5
 71
     5
 42
40.45006659615713
  3
Standard
100
AcDbAlignedDimension
 13
22.94999999999999
 23
0.0
 33
0.0
 14
-17.5
 24
4.0
 34
0.0
 50
179.999046
100
AcDbRotatedDimension
  0
DIMENSION
  5
2A2D
330
1F
100
AcDbEntity
  8
SK2
100
AcDbDimension
  2
*D11
 10
-28.99385900000002
 20
4.0
 30
0.0
 11
-28.99385900000001
 21
-0.2832290000000057
 31
0.0
 70
   161
  1
M8
 71
     5
 42
8.000000000000001
  3
Standard
100
AcDbAlignedDimension
 13
-17.5
 23
-4.0
 33
0.0
 14
-17.5
 24
4.0
 34
0.0
  0
DIMENSION
  5
2A3A
330
1F
100
AcDbEntity
  8
SK2
100
AcDbDimension
  2
*D12
 10
-38.44095600000001
 20
6.499999999999997
 30
0.0
 11
-38.440956
 21
0.0
 31
0.0
 70
   161
  1
%%c<>
 71
     5
 42
13.0
  3
Standard
100
AcDbAlignedDimension
 13
0.0
 23
-6.5
 33
0.0
 14
0.0
 24
6.5
 34
0.0
  0
DIMENSION
  5
2A47
330
1F
100
AcDbEntity
  8
2
100
AcDbDimension
  2
*D13
 10
22.95038206533305
 20
22.94625899363844
 30
0.0
 11
8.8752063801609
 21
22.94625899363844
 31
0.0
 70
   161
 71
     5
 42
4.199999999999985
  3
Standard
100
AcDbAlignedDimension
 13
18.75038206533307
 23
7.999999993638446
 33
0.0
 14
22.95038206533305
 24
7.999999993638446
 34
0.0
1001
ACAD
1000
DSTYLE
1002
{
1070
   172
1070
     1
1002
}
  0
DIMENSION
  5
2A54
330
1F
100
AcDbEntity
  8
2
100
AcDbDimension
  2
*D14
 10
49.38811111888397
 20
7.999779895785542
 30
0.0
 11
49.38804299422387
 21
-0.1831456902072532
 31
0.0
 70
   161
  1
%%c<>
 71
     5
 42
15.99999999833658
  3
Standard
100
AcDbAlignedDimension
 13
22.94999999999999
 23
-8.0
 33
0.0
 14
22.95013320352848
 24
7.999999997782103
 34
0.0
1001
ACAD
1000
DSTYLE
1002
{
1070
   282
1070
     0
1070
    75
1070
     1
1070
   281
1070
     1
1002
}
  0
LINE
  5
2A62
330
1F
100
AcDbEntity
  8
4
100
AcDbLine
 10
9.133313999999984
 20
0.0
 30
0.0
 11
22.91139200000001
 21
0.0
 31
0.0
  0
LINE
  5
2A63
330
1F
100
AcDbEntity
  8
1
100
AcDbLine
 10
11.17858200000001
 20
0.0
 30
0.0
 11
0.0
 21
0.0
 31
0.0
  0
LINE
  5
2A65
330
1F
100
AcDbEntity
  8
SK3
100
AcDbLine
 10
12.13397499999999
 20
1.5
 30
0.0
 11
-17.5
 21
1.5
 31
0.0
  0
LINE
  5
2A66
330
1F
100
AcDbEntity
  8
SK3
100
AcDbLine
 10
12.13397499999999
 20
-1.5
 30
0.0
 11
-17.5
 21
-1.5
 31
0.0
  0
LINE
  5
2A67
330
1F
100
AcDbEntity
  8
SK3
100
AcDbLine
 10
13.0
 20
0.0
 30
0.0
 11
12.13397499999999
 21
-1.5
 31
0.0
  0
LINE
  5
2A68
330
1F
100
AcDbEntity
  8
SK3
100
AcDbLine
 10
13.0
 20
0.0
 30
0.0
 11
12.13397499999999
 21
1.5
 31
0.0
  0
LINE
  5
2A86
330
1F
100
AcDbEntity
  8
SK1
100
AcDbLine
 10
-17.50000000000003
 20
1.917701999999991
 30
0.0
 11
-17.50000000000003
 21
-4.0
 31
0.0
  0
LINE
  5
2A87
330
1F
100
AcDbEntity
  8
SK1
100
AcDbLine
 10
-17.50000000000003
 20
4.0
 30
0.0
 11
-17.50000000000003
 21
1.917701999999991
 31
0.0
  0
LINE
  5
2A88
330
1F
100
AcDbEntity
  8
SK1
100
AcDbLine
 10
-8.564734000000017
 20
4.0
 30
0.0
 11
-8.564734000000017
 21
1.917701999999991
 31
0.0
  0
LINE
  5
2A89
330
1F
100
AcDbEntity
  8
SK1
100
AcDbLine
 10
-8.564734000000017
 20
1.917701999999991
 30
0.0
 11
-8.564734000000017
 21
-4.0
 31
0.0
  0
LINE
  5
2A8A
330
1F
100
AcDbEntity
  8
SK1
100
AcDbLine
 10
-5.142369999999998
 20
2.037558999999987
 30
0.0
 11
-5.142369999999998
 21
-4.25
 31
0.0
  0
LINE
  5
2A8B
330
1F
100
AcDbEntity
  8
SK1
100
AcDbLine
 10
-5.142369999999998
 20
4.25
 30
0.0
 11
-5.142369999999998
 21
2.037558999999987
 31
0.0
  0
LINE
  5
2A8C
330
1F
100
AcDbEntity
  8
1
100
AcDbLine
 10
0.0
 20
-5.704286999999991
 30
0.0
 11
0.0
 21
6.5
 31
0.0
  0
LINE
  5
2A8D
330
1F
100
AcDbEntity
  8
1
100
AcDbLine
 10
0.0
 20
-6.5
 30
0.0
 11
0.0
 21
-5.704286999999991
 31
0.0
  0
LINE
  5
2A8E
330
1F
100
AcDbEntity
  8
1
100
AcDbLine
 10
2.0
 20
-4.153312
 30
0.0
 11
8.571391999999974
 21
-4.153312
 31
0.0
  0
LINE
  5
2A8F
330
1F
100
AcDbEntity
  8
1
100
AcDbLine
 10
2.0
 20
-4.153312
 30
0.0
 11
2.0
 21
4.153312
 31
0.0
  0
LINE
  5
2A90
330
1F
100
AcDbEntity
  8
1
100
AcDbLine
 10
8.571391999999974
 20
4.153312
 30
0.0
 11
2.0
 21
4.153312
 31
0.0
  0
LINE
  5
2A91
330
1F
100
AcDbEntity
  8
1
100
AcDbLine
 10
8.571391999999974
 20
6.5
 30
0.0
 11
8.571391999999974
 21
4.153312
 31
0.0
  0
LINE
  5
2A92
330
1F
100
AcDbEntity
  8
1
100
AcDbLine
 10
8.571391999999974
 20
-4.153312
 30
0.0
 11
8.571391999999974
 21
-5.704286999999991
 31
0.0
  0
ELLIPSE
  5
2A93
330
1F
100
AcDbEntity
  8
1
100
AcDbEllipse
 10
9.232093999999991
 20
27.444624
 30
0.0
 11
-0.7640739083290101
 21
-23.28960227966309
 31
0.0
210
0.0
220
0.0
230
1.0
 40
0.368907
 41
0.0120254820116638
 42
0.2106613899787605
  0
ARC
  5
2A94
330
1F
100
AcDbEntity
  8
1
100
AcDbCircle
 10
33.01723299999999
 20
-37.770546
 30
0.0
 40
48.09476800000001
100
AcDbArc
 50
117.244488
 51
118.211526
  0
ARC
  5
2A95
330
1F
100
AcDbEntity
  8
1
100
AcDbCircle
 10
33.01721899999999
 20
37.77052100000001
 30
0.0
 40
48.09474000000001
100
AcDbArc
 50
241.788473
 51
242.755512
  0
ELLIPSE
  5
2A96
330
1F
100
AcDbEntity
  8
1
100
AcDbEllipse
 10
9.232093999999991
 20
-27.444624
 30
0.0
 11
0.7640739083290101
 21
-23.28960227966309
 31
0.0
210
0.0
220
0.0
230
1.0
 40
0.368907
 41
2.930931263674386
 42
3.129567171590736
  0
LINE
  5
2A97
330
1F
100
AcDbEntity
  8
1
100
AcDbLine
 10
10.28149299999998
 20
-4.61095499999999
 30
0.0
 11
10.28149299999998
 21
-5.968909999999991
 31
0.0
  0
LINE
  5
2A98
330
1F
100
AcDbEntity
  8
1
100
AcDbLine
 10
8.571391999999974
 20
-5.704286999999991
 30
0.0
 11
8.571391999999974
 21
-6.5
 31
0.0
  0
LINE
  5
2A99
330
1F
100
AcDbEntity
  8
1
100
AcDbLine
 10
10.28149299999998
 20
-5.968909999999991
 30
0.0
 11
10.28149299999998
 21
-6.801536999999996
 31
0.0
  0
LINE
  5
2A9A
330
1F
100
AcDbEntity
  8
1
100
AcDbLine
 10
10.28149299999998
 20
6.801536999999996
 30
0.0
 11
10.28149299999998
 21
4.61095499999999
 31
0.0
  0
LINE
  5
2A9B
330
1F
100
AcDbEntity
  8
1
100
AcDbLine
 10
12.75
 20
7.699999999999986
 30
0.0
 11
12.75
 21
-6.757385999999997
 31
0.0
  0
LINE
  5
2A9C
330
1F
100
AcDbEntity
  8
1
100
AcDbLine
 10
11.0
 20
4.988657999999987
 30
0.0
 11
11.0
 21
-4.988657999999987
 31
0.0
  0
LINE
  5
2A9D
330
1F
100
AcDbEntity
  8
1
100
AcDbLine
 10
12.75
 20
-6.757385999999997
 30
0.0
 11
12.75
 21
-7.699999999999986
 31
0.0
  0
LINE
  5
2A9E
330
1F
100
AcDbEntity
  8
1
100
AcDbLine
 10
17.57886199999999
 20
-3.482944000000001
 30
0.0
 11
17.57886199999999
 21
-5.548337000000002
 31
0.0
  0
LINE
  5
2A9F
330
1F
100
AcDbEntity
  8
1
100
AcDbLine
 10
17.57886199999999
 20
-3.482944000000001
 30
0.0
 11
17.536934
 21
-3.368333000000006
 31
0.0
  0
LINE
  5
2AA0
330
1F
100
AcDbEntity
  8
1
100
AcDbLine
 10
17.57886199999999
 20
-3.358200000000011
 30
0.0
 11
17.536934
 21
-3.368333000000006
 31
0.0
  0
LINE
  5
2AA1
330
1F
100
AcDbEntity
  8
1
100
AcDbLine
 10
17.57886199999999
 20
4.413544999999999
 30
0.0
 11
17.57886199999999
 21
-3.358200000000011
 31
0.0
  0
LINE
  5
2AA2
330
1F
100
AcDbEntity
  8
1
100
AcDbLine
 10
17.32937699999999
 20
4.504000999999988
 30
0.0
 11
17.57886199999999
 21
4.413544999999999
 31
0.0
  0
SPLINE
  5
2AA3
330
1F
100
AcDbEntity
  8
1
100
AcDbSpline
210
0.0
220
0.0
230
1.0
 70
     8
 71
     5
 72
    12
 73
     6
 74
     0
 42
0.000000001
 43
0.0000000001
 40
0.0
 40
0.0
 40
0.0
 40
0.0
 40
0.0
 40
0.0
 40
7.874722895058552
 40
7.874722895058552
 40
7.874722895058552
 40
7.874722895058552
 40
7.874722895058552
 40
7.874722895058552
 10
13.3996576534503
 20
6.34203755976111
 30
0.0
 10
14.1263695432323
 20
5.969645561327922
 30
0.0
 10
14.88064208888957
 20
5.569018025340483
 30
0.0
 10
15.66157797475964
 20
5.173463365400521
 30
0.0
 10
16.48140976207691
 20
4.810065852120003
 30
0.0
 10
17.32937680951071
 20
4.504000867653815
 30
0.0
  0
SPLINE
  5
2AA4
330
1F
100
AcDbEntity
  8
1
100
AcDbSpline
210
0.0
220
0.0
230
1.0
 70
     8
 71
     5
 72
    18
 73
    12
 74
     0
 42
0.000000001
 43
0.0000000001
 40
0.0
 40
0.0
 40
0.0
 40
0.0
 40
0.0
 40
0.0
 40
0.9252168607377308
 40
0.9252168607377308
 40
0.9252168607377308
 40
1.439464911367965
 40
1.439464911367965
 40
1.439464911367965
 40
1.762411572355554
 40
1.762411572355554
 40
1.762411572355554
 40
1.762411572355554
 40
1.762411572355554
 40
1.762411572355554
 10
13.5749469580459
 20
6.999772966325707
 30
0.0
 10
13.47132375664833
 20
6.987046722075405
 30
0.0
 10
13.3710416381544
 20
6.967492372998407
 30
0.0
 10
13.27439006638764
 20
6.939370744267677
 30
0.0
 10
13.14908812194028
 20
6.879340484228237
 30
0.0
 10
13.07989004716123
 20
6.796775985564464
 30
0.0
 10
13.06395509358777
 20
6.764894929055087
 30
0.0
 10
13.052944799426
 20
6.710431883434353
 30
0.0
 10
13.06414299679963
 20
6.654588977936837
 30
0.0
 10
13.07162650662332
 20
6.632919627668571
 30
0.0
 10
13.08185202614811
 20
6.611581156013699
 30
0.0
 10
13.09457048744318
 20
6.590543568918235
 30
0.0
  0
SPLINE
  5
2AA5
330
1F
100
AcDbEntity
  8
1
100
AcDbSpline
210
0.0
220
0.0
230
1.0
 70
     8
 71
     5
 72
    12
 73
     6
 74
     0
 42
0.000000001
 43
0.0000000001
 40
0.0
 40
0.0
 40
0.0
 40
0.0
 40
0.0
 40
0.0
 40
0.8729755768861322
 40
0.8729755768861322
 40
0.8729755768861322
 40
0.8729755768861322
 40
0.8729755768861322
 40
0.8729755768861322
 10
13.09457048744318
 20
6.590543568918235
 30
0.0
 10
13.12895048707594
 20
6.533675664866222
 30
0.0
 10
13.18154471199639
 20
6.479007169931747
 30
0.0
 10
13.24661935973745
 20
6.428595778844822
 30
0.0
 10
13.31984294184599
 20
6.382937344636843
 30
0.0
 10
13.39965765345025
 20
6.342037559761167
 30
0.0
  0
ARC
  5
2AA6
330
1F
100
AcDbEntity
  8
1
100
AcDbCircle
 10
24.43273299999998
 20
-81.906338
 30
0.0
 40
89.56679500000001
100
AcDbArc
 50
94.388698
 51
96.96284900000001
  0
LINE
  5
2AA7
330
1F
100
AcDbEntity
  8
1
100
AcDbLine
 10
17.57886199999999
 20
7.699999999999986
 30
0.0
 11
17.57886199999999
 21
7.397962000000008
 31
0.0
  0
SPLINE
  5
2AA8
330
1F
100
AcDbEntity
  8
1
100
AcDbSpline
210
0.0
220
0.0
230
1.0
 70
     8
 71
     5
 72
    15
 73
     9
 74
     0
 42
0.000000001
 43
0.0000000001
 40
0.0
 40
0.0
 40
0.0
 40
0.0
 40
0.0
 40
0.0
 40
0.5923221551130719
 40
0.5923221551130719
 40
0.5923221551130719
 40
0.8492401866806071
 40
0.8492401866806071
 40
0.8492401866806071
 40
0.8492401866806071
 40
0.8492401866806071
 40
0.8492401866806071
 10
13.1040794448547
 20
-6.757385726555867
 30
0.0
 10
13.07804530528131
 20
-6.721897822641324
 30
0.0
 10
13.06015949052554
 20
-6.683929754759589
 30
0.0
 10
13.05218076793898
 20
-6.643827490544794
 30
0.0
 10
13.05786133436655
 20
-6.585049255986574
 30
0.0
 10
13.08688609211958
 20
-6.528142972788032
 30
0.0
 10
13.09782280746145
 20
-6.51114441071965
 30
0.0
 10
13.11067547003051
 20
-6.494673817797602
 30
0.0
 10
13.1253411991851
 20
-6.478735367409854
 30
0.0
  0
SPLINE
  5
2AA9
330
1F
100
AcDbEntity
  8
1
100
AcDbSpline
210
0.0
220
0.0
230
1.0
 70
     8
 71
     5
 72
    15
 73
     9
 74
     0
 42
0.000000001
 43
0.0000000001
 40
0.0
 40
0.0
 40
0.0
 40
0.0
 40
0.0
 40
0.0
 40
0.8672938063702076
 40
0.8672938063702076
 40
0.8672938063702076
 40
0.9726308958385548
 40
0.9726308958385548
 40
0.9726308958385548
 40
0.9726308958385548
 40
0.9726308958385548
 40
0.9726308958385548
 10
13.1253411991851
 20
-6.478735367409854
 30
0.0
 10
13.17484919200311
 20
-6.424930972209978
 30
0.0
 10
13.24501663138545
 20
-6.377192118643592
 30
0.0
 10
13.33044312646851
 20
-6.338838550454367
 30
0.0
 10
13.43248797135413
 20
-6.306587992309317
 30
0.0
 10
13.5397729654328
 20
-6.284736045861847
 30
0.0
 10
13.55144950337581
 20
-6.282489815823709
 30
0.0
 10
13.56317520764807
 20
-6.280363157023997
 30
0.0
 10
13.5749469580459
 20
-6.278354373011838
 30
0.0
  0
ARC
  5
2AAA
330
1F
100
AcDbEntity
  8
1
100
AcDbCircle
 10
-17.67522400000001
 20
176.4269389999999
 30
0.0
 40
185.358638
100
AcDbArc
 50
279.706028
 51
280.964097
  0
LINE
  5
2AAB
330
1F
100
AcDbEntity
  8
1
100
AcDbLine
 10
17.57886199999999
 20
-7.671017000000006
 30
0.0
 11
17.57886199999999
 21
-7.699999999999986
 31
0.0
  0
LINE
  5
2AAC
330
1F
100
AcDbEntity
  8
1
100
AcDbLine
 10
17.32937699999999
 20
-7.660603000000008
 30
0.0
 11
17.57886199999999
 21
-7.671017000000006
 31
0.0
  0
SPLINE
  5
2AAD
330
1F
100
AcDbEntity
  8
1
100
AcDbSpline
210
0.0
220
0.0
230
1.0
 70
     8
 71
     5
 72
    15
 73
     9
 74
     0
 42
0.000000001
 43
0.0000000001
 40
0.0
 40
0.0
 40
0.0
 40
0.0
 40
0.0
 40
0.0
 40
6.898943814569557
 40
6.898943814569557
 40
6.898943814569557
 40
7.692414926421712
 40
7.692414926421712
 40
7.692414926421712
 40
7.692414926421712
 40
7.692414926421712
 40
7.692414926421712
 10
13.3996576534503
 20
-6.952740569348206
 30
0.0
 10
14.04403645634247
 20
-7.202956818193173
 30
0.0
 10
14.71825870128839
 20
-7.389126532381339
 30
0.0
 10
15.41919445193071
 20
-7.51264154651241
 30
0.0
 10
16.2317789735431
 20
-7.599366901475405
 30
0.0
 10
17.06885916764614
 20
-7.647820748111316
 30
0.0
 10
17.15545884598473
 20
-7.652434953253702
 30
0.0
 10
17.24230006334002
 20
-7.656688163603547
 30
0.0
 10
17.32937680951071
 20
-7.660603038763808
 30
0.0
  0
SPLINE
  5
2AAE
330
1F
100
AcDbEntity
  8
1
100
AcDbSpline
210
0.0
220
0.0
230
1.0
 70
     8
 71
     5
 72
    12
 73
     6
 74
     0
 42
0.000000001
 43
0.0000000001
 40
0.0
 40
0.0
 40
0.0
 40
0.0
 40
0.0
 40
0.0
 40
0.8179514829798522
 40
0.8179514829798522
 40
0.8179514829798522
 40
0.8179514829798522
 40
0.8179514829798522
 40
0.8179514829798522
 10
13.1040794448547
 20
-6.757385726555867
 30
0.0
 10
13.14003059557282
 20
-6.806391801010761
 30
0.0
 10
13.19151761778821
 20
-6.85066755619789
 30
0.0
 10
13.25413282988657
 20
-6.889531128972351
 30
0.0
 10
13.32398441482334
 20
-6.923356185780306
 30
0.0
 10
13.39965765345025
 20
-6.952740569348177
 30
0.0
  0
LINE
  5
2AAF
330
1F
100
AcDbEntity
  8
1
100
AcDbLine
 10
17.57886199999999
 20
-5.548337000000002
 30
0.0
 11
17.798531
 21
-5.409930999999998
 31
0.0
  0
ELLIPSE
  5
2AB0
330
1F
100
AcDbEntity
  8
1
100
AcDbEllipse
 10
-28.333924
 20
27.57332
 30
0.0
 11
45.29384613037109
 21
-35.69588088989259
 31
0.0
210
0.0
220
0.0
230
0.9999999999999998
 40
0.245322
 41
0.1883961094342373
 42
0.2886419573788133
  0
SPLINE
  5
2AB1
330
1F
100
AcDbEntity
  8
1
100
AcDbSpline
210
0.0
220
0.0
230
1.0
 70
     8
 71
     5
 72
    15
 73
     9
 74
     0
 42
0.000000001
 43
0.0000000001
 40
0.0
 40
0.0
 40
0.0
 40
0.0
 40
0.0
 40
0.0
 40
6.283943020212129
 40
6.283943020212129
 40
6.283943020212129
 40
8.017051457232572
 40
8.017051457232572
 40
8.017051457232572
 40
8.017051457232572
 40
8.017051457232572
 40
8.017051457232572
 10
17.57886242592025
 20
4.413545327221527
 30
0.0
 10
18.23815052008152
 20
3.892623087421041
 30
0.0
 10
18.89253449225714
 20
3.370476938760162
 30
0.0
 10
19.53938497551317
 20
2.847556388227472
 30
0.0
 10
20.35204271985216
 20
2.178592294725519
 30
0.0
 10
21.12287235015546
 20
1.518410534346628
 30
0.0
 10
21.28723666256411
 20
1.376234888704289
 30
0.0
 10
21.44883374970178
 20
1.234859180107889
 30
0.0
 10
21.60711504387461
 20
1.094574141500118
 30
0.0
  0
SPLINE
  5
2AB2
330
1F
100
AcDbEntity
  8
1
100
AcDbSpline
210
0.0
220
0.0
230
1.0
 70
     8
 71
     5
 72
    15
 73
     9
 74
     0
 42
0.000000001
 43
0.0000000001
 40
0.0
 40
0.0
 40
0.0
 40
0.0
 40
0.0
 40
0.0
 40
4.873008068633786
 40
4.873008068633786
 40
4.873008068633786
 40
7.900579679692357
 40
7.900579679692357
 40
7.900579679692357
 40
7.900579679692357
 40
7.900579679692357
 40
7.900579679692357
 10
21.60711504387461
 20
-0.5826376455080437
 30
0.0
 10
21.15039829941571
 20
-0.9206793298349111
 30
0.0
 10
20.66872469130206
 20
-1.26413771366856
 30
0.0
 10
20.17363230314058
 20
-1.609162849570652
 30
0.0
 10
19.36160283270462
 20
-2.166050692534609
 30
0.0
 10
18.53578284776114
 20
-2.721467524003799
 30
0.0
 10
18.21795019223075
 20
-2.933961667981578
 30
0.0
 10
17.8988749276624
 20
-3.146222755849038
 30
0.0
 10
17.57886242592025
 20
-3.358200226913993
 30
0.0
  0
LINE
  5
2AB3
330
1F
100
AcDbEntity
  8
1
100
AcDbLine
 10
21.60711499999999
 20
1.094573999999992
 30
0.0
 11
21.60711499999999
 21
-0.5826380000000029
 31
0.0
  0
LINE
  5
2AB4
330
1F
100
AcDbEntity
  8
1
100
AcDbLine
 10
17.57886199999999
 20
7.397962000000008
 30
0.0
 11
17.798531
 21
7.223098999999991
 31
0.0
  0
ELLIPSE
  5
2AB5
330
1F
100
AcDbEntity
  8
1
100
AcDbEllipse
 10
-28.31873000000002
 20
-37.185379
 30
0.0
 11
45.9926223754883
 21
44.8032150268555
 31
0.0
210
0.0
220
0.0
230
1.0
 40
0.075673
 41
6.207017139476062
 42
6.290807723678817
  0
ARC
  5
2AB6
330
1F
100
AcDbEntity
  8
1
100
AcDbCircle
 10
-38.82373800000003
 20
62.67499699999999
 30
0.0
 40
90.16539499999998
100
AcDbArc
 50
308.722225
 51
309.943423
  0
SPLINE
  5
2AB7
330
1F
100
AcDbEntity
  8
1
100
AcDbSpline
210
0.0
220
0.0
230
1.0
 70
     8
 71
     5
 72
    15
 73
     9
 74
     0
 42
0.000000001
 43
0.0000000001
 40
2.857767909148368
 40
2.857767909148368
 40
2.857767909148368
 40
2.857767909148368
 40
2.857767909148368
 40
2.857767909148368
 40
6.283943019731369
 40
6.283943019731369
 40
6.283943019731369
 40
8.017051456677457
 40
8.017051456677457
 40
8.017051456677457
 40
8.017051456677457
 40
8.017051456677457
 40
8.017051456677457
 10
19.06517329236604
 20
-6.452834286053701
 30
0.0
 10
19.41773038331286
 20
-6.157016482088096
 30
0.0
 10
19.76743167717862
 20
-5.858746409284777
 30
0.0
 10
20.11343203816861
 20
-5.557774218410458
 30
0.0
 10
20.62681358704108
 20
-5.100245175867626
 30
0.0
 10
21.12287235014185
 20
-4.63676867547025
 30
0.0
 10
21.28723666257821
 20
-4.480423866637011
 30
0.0
 10
21.44883374970858
 20
-4.323561635591373
 30
0.0
 10
21.60711504387461
 20
-4.166340585346092
 30
0.0
  0
SPLINE
  5
2AB8
330
1F
100
AcDbEntity
  8
1
100
AcDbSpline
210
0.0
220
0.0
230
1.0
 70
     8
 71
     5
 72
    15
 73
     9
 74
     0
 42
0.000000001
 43
0.0000000001
 40
0.0
 40
0.0
 40
0.0
 40
0.0
 40
0.0
 40
0.0
 40
0.3194725559628014
 40
0.3194725559628014
 40
0.3194725559628014
 40
0.5413901405611009
 40
0.5413901405611009
 40
0.5413901405611009
 40
0.5413901405611009
 40
0.5413901405611009
 40
0.5413901405611009
 10
21.74999999999997
 20
0.868359089093701
 30
0.0
 10
21.74999999999997
 20
0.8912198547389207
 30
0.0
 10
21.74422391572219
 20
0.9163020531664187
 30
0.0
 10
21.73304656396166
 20
0.9428967868242066
 30
0.0
 10
21.70592951308686
 20
0.9894049452953195
 30
0.0
 10
21.66642105339128
 20
1.036896392023491
 30
0.0
 10
21.64831898317615
 20
1.05635186851495
 30
0.0
 10
21.62848934997737
 20
1.075630049764555
 30
0.0
 10
21.60711504387461
 20
1.094574141500175
 30
0.0
  0
LINE
  5
2AB9
330
1F
100
AcDbEntity
  8
1
100
AcDbLine
 10
21.75
 20
0.8683589999999981
 30
0.0
 11
21.75
 21
-0.3742129999999975
 31
0.0
  0
SPLINE
  5
2ABA
330
1F
100
AcDbEntity
  8
1
100
AcDbSpline
210
0.0
220
0.0
230
1.0
 70
     8
 71
     5
 72
    15
 73
     9
 74
     0
 42
0.000000001
 43
0.0000000001
 40
0.0
 40
0.0
 40
0.0
 40
0.0
 40
0.0
 40
0.0
 40
0.3300656055236925
 40
0.3300656055236925
 40
0.3300656055236925
 40
0.5501202489393506
 40
0.5501202489393506
 40
0.5501202489393506
 40
0.5501202489393506
 40
0.5501202489393506
 40
0.5501202489393506
 10
21.75
 20
-0.3742130878983687
 30
0.0
 10
21.75
 20
-0.3975522506885909
 30
0.0
 10
21.74437554298112
 20
-0.4222231782448774
 30
0.0
 10
21.73336992117578
 20
-0.4477041883702101
 30
0.0
 10
21.70655164204518
 20
-0.4907149387254039
 30
0.0
 10
21.66657327976776
 20
-0.533326514506399
 30
0.0
 10
21.64857967696264
 20
-0.5501671430536419
 30
0.0
 10
21.62870830054436
 20
-0.5666552648677339
 30
0.0
 10
21.60711504387461
 20
-0.5826376455080437
 30
0.0
  0
ARC
  5
2ABB
330
1F
100
AcDbEntity
  8
1
100
AcDbCircle
 10
21.26636199999999
 20
-3.822672000000011
 30
0.0
 40
0.483881000000002
100
AcDbArc
 50
314.755888000002
 51
359.413376000002
  0
LINE
  5
2ABC
330
1F
100
AcDbEntity
  8
1
100
AcDbLine
 10
21.75
 20
-3.491949000000003
 30
0.0
 11
21.75
 21
-3.827623999999986
 31
0.0
  0
LINE
  5
2ABD
330
1F
100
AcDbEntity
  8
1
100
AcDbLine
 10
15.88729999999998
 20
5.096944000000006
 30
0.0
 11
17.798531
 21
7.223098999999991
 31
0.0
  0
ELLIPSE
  5
2ABE
330
1F
100
AcDbEntity
  8
1
100
AcDbEllipse
 10
20.82462699999999
 20
11.703349
 30
0.0
 11
0.0
 21
-8.857481956481931
 31
0.0
210
0.0
220
0.0
230
1.0
 40
0.9659259999999997
 41
5.272202981976731
 42
5.44135205091299
  0
ELLIPSE
  5
2ABF
330
1F
100
AcDbEntity
  8
1
100
AcDbEllipse
 10
21.10249999999999
 20
-7.845944999999998
 30
0.0
 11
-9.179885864257812
 21
-2.840266466140747
 31
0.0
210
0.0
220
0.0
230
0.9999999999999998
 40
0.482963
 41
5.385935212423193
 42
5.542960375030471
  0
LINE
  5
2AC0
330
1F
100
AcDbEntity
  8
1
100
AcDbLine
 10
16.42774499999999
 20
-5.767411000000008
 30
0.0
 11
17.32937699999999
 21
-7.660603000000008
 31
0.0
  0
LINE
  5
2AC1
330
1F
100
AcDbEntity
  8
SK1
100
AcDbLine
 10
-8.564734000000017
 20
4.0
 30
0.0
 11
-17.50000000000003
 21
4.0
 31
0.0
  0
LINE
  5
2AC2
330
1F
100
AcDbEntity
  8
SK1
100
AcDbLine
 10
-8.564734000000017
 20
-4.0
 30
0.0
 11
-17.50000000000003
 21
-4.0
 31
0.0
  0
ARC
  5
2AC3
330
1F
100
AcDbEntity
  8
SK1
100
AcDbCircle
 10
-6.928426999999999
 20
-5.150000000000004
 30
0.0
 40
2.000000000000004
100
AcDbArc
 50
26.74368399999977
 51
144.9003679999998
  0
ARC
  5
2AC4
330
1F
100
AcDbEntity
  8
SK1
100
AcDbCircle
 10
-6.928426999999999
 20
5.150000000000004
 30
0.0
 40
2.000000000000003
100
AcDbArc
 50
215.099632
 51
333.2563160000002
  0
LINE
  5
2AC5
330
1F
100
AcDbEntity
  8
SK1
100
AcDbLine
 10
0.0
 20
4.25
 30
0.0
 11
-5.142369999999998
 21
4.25
 31
0.0
  0
LINE
  5
2AC6
330
1F
100
AcDbEntity
  8
SK1
100
AcDbLine
 10
0.0
 20
-4.25
 30
0.0
 11
-5.142369999999998
 21
-4.25
 31
0.0
  0
LINE
  5
2AC7
330
1F
100
AcDbEntity
  8
1
100
AcDbLine
 10
8.571391999999974
 20
6.5
 30
0.0
 11
0.0
 21
6.5
 31
0.0
  0
ARC
  5
2AC8
330
1F
100
AcDbEntity
  8
1
100
AcDbCircle
 10
8.571391999999974
 20
-11.5
 30
0.0
 40
5.000000000000011
100
AcDbArc
 50
70.00000000000003
 51
90.00000000000005
  0
LINE
  5
2AC9
330
1F
100
AcDbEntity
  8
1
100
AcDbLine
 10
8.571391999999974
 20
-6.5
 30
0.0
 11
0.0
 21
-6.5
 31
0.0
  0
ARC
  5
2ACA
330
1F
100
AcDbEntity
  8
1
100
AcDbCircle
 10
8.571391999999974
 20
11.5
 30
0.0
 40
5.0
100
AcDbArc
 50
270.0
 51
290.0
  0
LINE
  5
2ACB
330
1F
100
AcDbEntity
  8
1
100
AcDbLine
 10
10.28149299999998
 20
6.801536999999996
 30
0.0
 11
12.75
 21
7.699999999999986
 31
0.0
  0
LINE
  5
2ACC
330
1F
100
AcDbEntity
  8
1
100
AcDbLine
 10
10.28149299999998
 20
-6.801536999999996
 30
0.0
 11
12.75
 21
-7.699999999999986
 31
0.0
  0
LINE
  5
2ACD
330
1F
100
AcDbEntity
  8
1
100
AcDbLine
 10
17.57886199999999
 20
7.699999999999986
 30
0.0
 11
12.75
 21
7.699999999999986
 31
0.0
  0
LINE
  5
2ACE
330
1F
100
AcDbEntity
  8
1
100
AcDbLine
 10
17.57886199999999
 20
-7.699999999999986
 30
0.0
 11
12.75
 21
-7.699999999999986
 31
0.0
  0
LINE
  5
2ACF
330
1F
100
AcDbEntity
  8
1
100
AcDbLine
 10
17.646714
 20
7.643066000000003
 30
0.0
 11
17.57886199999999
 21
7.699999999999986
 31
0.0
  0
LINE
  5
2AD0
330
1F
100
AcDbEntity
  8
1
100
AcDbLine
 10
19.06517299999999
 20
-6.452836999999987
 30
0.0
 11
17.57886199999999
 21
-7.699999999999986
 31
0.0
  0
LINE
  5
2AD1
330
1F
100
AcDbEntity
  8
1
100
AcDbLine
 10
15.96723599999999
 20
5.060612999999988
 30
0.0
 11
16.22982199999998
 21
5.178979999999994
 31
0.0
  0
ARC
  5
2AD2
330
1F
100
AcDbEntity
  8
1
100
AcDbCircle
 10
30.21466999999998
 20
15.16392199999999
 30
0.0
 40
17.18356800000001
100
AcDbArc
 50
215.526186
 51
216.943409
  0
ELLIPSE
  5
2AD3
330
1F
100
AcDbEntity
  8
1
100
AcDbEllipse
 10
18.84663399999999
 20
4.293685000000011
 30
0.0
 11
0.0
 21
-1.059999942779539
 31
0.0
210
0.0
220
0.0
230
1.0
 40
0.9659259999999999
 41
0.3616390391081684
 42
2.779874794466699
  0
ARC
  5
2AD4
330
1F
100
AcDbEntity
  8
1
100
AcDbCircle
 10
16.40359799999999
 20
5.297874000000005
 30
0.0
 40
0.2109219999999952
100
AcDbArc
 50
137.6243730000023
 51
214.3790380000023
  0
LINE
  5
2AD5
330
1F
100
AcDbEntity
  8
1
100
AcDbLine
 10
16.16058199999998
 20
5.400958000000002
 30
0.0
 11
16.24761099999998
 21
5.440188000000006
 31
0.0
  0
LINE
  5
2AD6
330
1F
100
AcDbEntity
  8
1
100
AcDbLine
 10
22.89504299999999
 20
3.147181999999987
 30
0.0
 11
21.29566499999999
 21
1.36794900000001
 31
0.0
  0
ARC
  5
2AD7
330
1F
100
AcDbEntity
  8
1
100
AcDbCircle
 10
22.75240099999999
 20
3.294049999999998
 30
0.0
 40
0.1970089999999991
100
AcDbArc
 50
22.77654700000326
 51
35.47733200000325
  0
ARC
  5
2AD8
330
1F
100
AcDbEntity
  8
1
100
AcDbCircle
 10
22.737021
 20
3.289998999999995
 30
0.0
 40
0.212915999999999
100
AcDbArc
 50
317.893435999997
 51
22.17914899999701
  0
ARC
  5
2AD9
330
1F
100
AcDbEntity
  8
1
100
AcDbCircle
 10
9.320114999999988
 20
-6.258476000000002
 30
0.0
 40
16.67900999999999
100
AcDbArc
 50
35.41966800000004
 51
56.69371900000004
  0
ARC
  5
2ADA
330
1F
100
AcDbEntity
  8
1
100
AcDbCircle
 10
18.375506
 20
7.517518999999992
 30
0.0
 40
0.1933250000000069
100
AcDbArc
 50
57.70929500000452
 51
139.4683610000045
  0
LINE
  5
2ADB
330
1F
100
AcDbEntity
  8
1
100
AcDbLine
 10
16.24761099999998
 20
5.440188000000006
 30
0.0
 11
18.228185
 21
7.643483000000002
 31
0.0
  0
ELLIPSE
  5
2ADC
330
1F
100
AcDbEntity
  8
1
100
AcDbEllipse
 10
19.571327
 20
4.293685000000011
 30
0.0
 11
0.0
 21
-1.059999942779539
 31
0.0
210
0.0
220
0.0
230
1.0
 40
0.9659259999999999
 41
3.141472808029662
 42
6.283065461619456
  0
ELLIPSE
  5
2ADD
330
1F
100
AcDbEntity
  8
1
100
AcDbEllipse
 10
19.571327
 20
4.293685000000011
 30
0.0
 11
0.0
 21
-1.059999942779539
 31
0.0
210
0.0
220
0.0
230
1.0
 40
0.9659259999999999
 41
6.283065461619456
 42
7.104502146220861
  0
ELLIPSE
  5
2ADE
330
1F
100
AcDbEntity
  8
1
100
AcDbEllipse
 10
19.571327
 20
4.293685000000011
 30
0.0
 11
0.0
 21
-1.059999942779539
 31
0.0
210
0.0
220
0.0
230
1.0
 40
0.9659259999999999
 41
0.8213168390412747
 42
3.141472808029662
  0
LINE
  5
2ADF
330
1F
100
AcDbEntity
  8
1
100
AcDbLine
 10
18.228185
 20
7.643483000000002
 30
0.0
 11
18.11268999999998
 21
7.918093999999996
 31
0.0
  0
LINE
  5
2AE0
330
1F
100
AcDbEntity
  8
1
100
AcDbLine
 10
17.59633799999997
 20
7.685336000000008
 30
0.0
 11
18.11268999999998
 21
7.918093999999996
 31
0.0
  0
ARC
  5
2AE1
330
1F
100
AcDbEntity
  8
1
100
AcDbCircle
 10
18.26635499999998
 20
7.780543999999991
 30
0.0
 40
0.2062260000000075
100
AcDbArc
 50
114.3969899999992
 51
138.1675179999993
  0
ARC
  5
2AE2
330
1F
100
AcDbEntity
  8
1
100
AcDbCircle
 10
18.260426
 20
7.79701
 30
0.0
 40
0.1886640000000035
100
AcDbArc
 50
57.02384399999595
 51
114.822304999996
  0
LINE
  5
2AE3
330
1F
100
AcDbEntity
  8
1
100
AcDbLine
 10
22.797337
 20
3.682999999999993
 30
0.0
 11
22.74574299999998
 21
3.754869000000013
 31
0.0
  0
LINE
  5
2AE4
330
1F
100
AcDbEntity
  8
1
100
AcDbLine
 10
18.363069
 20
7.955210999999991
 30
0.0
 11
18.43598299999999
 21
7.907114000000007
 31
0.0
  0
ARC
  5
2AE5
330
1F
100
AcDbEntity
  8
1
100
AcDbCircle
 10
22.63718
 20
3.568806999999993
 30
0.0
 40
0.196699999999994
100
AcDbArc
 50
22.77998899999704
 51
35.48899499999705
  0
LINE
  5
2AE6
330
1F
100
AcDbEntity
  8
1
100
AcDbLine
 10
22.91283199999998
 20
3.408389
 30
0.0
 11
22.797337
 21
3.682999999999993
 31
0.0
  0
SPLINE
  5
2AE7
330
1F
100
AcDbEntity
  8
1
100
AcDbSpline
210
0.0
220
0.0
230
1.0
 70
     8
 71
     5
 72
    18
 73
    12
 74
     0
 42
0.000000001
 43
0.0000000001
 40
0.5023872400998465
 40
0.5023872400998465
 40
0.5023872400998465
 40
0.5023872400998465
 40
0.5023872400998465
 40
0.5023872400998465
 40
4.764544049339538
 40
4.764544049339538
 40
4.764544049339538
 40
8.212081646334681
 40
8.212081646334681
 40
8.212081646334681
 40
11.52161577632496
 40
11.52161577632496
 40
11.52161577632496
 40
11.52161577632496
 40
11.52161577632496
 40
11.52161577632496
 10
18.43598325009289
 20
7.907113336083511
 30
0.0
 10
18.81778833108822
 20
7.612357090190272
 30
0.0
 10
19.20168485844587
 20
7.305365349208046
 30
0.0
 10
19.58515859015034
 20
6.986479472933522
 30
0.0
 10
20.26778258937316
 20
6.393124353153409
 30
0.0
 10
20.91098903230545
 20
5.785071028971942
 30
0.0
 10
21.19379599038641
 20
5.506421165040534
 30
0.0
 10
21.70750566996017
 20
4.97817881553371
 30
0.0
 10
22.16249539296922
 20
4.468411647290223
 30
0.0
 10
22.3729699450821
 20
4.221639236231084
 30
0.0
 10
22.56679581815229
 20
3.984083363527616
 30
0.0
 10
22.74573633500779
 20
3.754865457558083
 30
0.0
  0
LINE
  5
2AE8
330
1F
100
AcDbEntity
  8
1
100
AcDbLine
 10
18.47856399999998
 20
7.680599999999997
 30
0.0
 11
18.363069
 21
7.955210999999991
 31
0.0
  0
LINE
  5
2AE9
330
1F
100
AcDbEntity
  8
1
100
AcDbLine
 10
17.58131299999999
 20
7.697944000000008
 30
0.0
 11
18.18117599999999
 21
7.968346999999994
 31
0.0
  0
LINE
  5
2AEA
330
1F
100
AcDbEntity
  8
1
100
AcDbLine
 10
22.93404899999999
 20
3.37032099999999
 30
0.0
 11
22.81853799999999
 21
3.644969000000001
 31
0.0
  0
ARC
  5
2AEB
330
1F
100
AcDbEntity
  8
1
100
AcDbCircle
 10
18.19062
 20
5.287495000000006
 30
0.0
 40
9.432038999999988
100
AcDbArc
 50
292.941612
 51
295.076223
  0
ELLIPSE
  5
2AEC
330
1F
100
AcDbEntity
  8
1
100
AcDbEllipse
 10
22.02893
 20
-3.156099000000011
 30
0.0
 11
0.1939340382814407
 21
-0.0644968897104263
 31
0.0
210
0.0
220
0.0
230
0.9999999999999998
 40
0.47881
 41
6.169034590117955
 42
7.071631196534457
  0
ARC
  5
2AED
330
1F
100
AcDbEntity
  8
1
100
AcDbCircle
 10
22.161531
 20
-3.192429000000004
 30
0.0
 40
0.0683910000000013
100
AcDbArc
 50
292.8667669999888
 51
325.8765179999888
  0
LINE
  5
2AEE
330
1F
100
AcDbEntity
  8
1
100
AcDbLine
 10
22.89504299999999
 20
-0.7785440000000108
 30
0.0
 11
22.36503299999998
 21
-0.3607489999999984
 31
0.0
  0
LINE
  5
2AEF
330
1F
100
AcDbEntity
  8
1
100
AcDbLine
 10
21.780587
 20
0.0999569999999892
 30
0.0
 11
21.75
 21
0.1240679999999941
 31
0.0
  0
ELLIPSE
  5
2AF0
330
1F
100
AcDbEntity
  8
1
100
AcDbEllipse
 10
22.753624
 20
-0.8138529999999946
 30
0.0
 11
0.1939340382814407
 21
-0.0644968897104263
 31
0.0
210
0.0
220
0.0
230
0.9999999999999998
 40
0.47881
 41
0.1149486378374618
 42
0.9246994640140599
  0
LINE
  5
2AF1
330
1F
100
AcDbEntity
  8
1
100
AcDbLine
 10
22.89504299999999
 20
-0.7785440000000108
 30
0.0
 11
22.842062
 21
-1.405045000000001
 31
0.0
  0
LINE
  5
2AF2
330
1F
100
AcDbEntity
  8
1
100
AcDbLine
 10
22.21808299999998
 20
-3.230751999999995
 30
0.0
 11
22.378591
 21
-2.973460999999986
 31
0.0
  0
LINE
  5
2AF3
330
1F
100
AcDbEntity
  8
1
100
AcDbLine
 10
22.94981999999999
 20
-0.8672740000000091
 30
0.0
 11
22.87668199999999
 21
-1.732111999999999
 31
0.0
  0
ARC
  5
2AF4
330
1F
100
AcDbEntity
  8
1
100
AcDbCircle
 10
17.56311399999998
 20
-2.970933000000001
 30
0.0
 40
0.3960139999999897
100
AcDbArc
 50
271.404773000001
 51
298.7978480000009
  0
ELLIPSE
  5
2AF5
330
1F
100
AcDbEntity
  8
1
100
AcDbEllipse
 10
3.246481999999986
 20
3.686274999999995
 30
0.0
 11
22.37550926208496
 21
3.767265319824218
 31
0.0
210
0.0
220
0.0
230
1.0
 40
0.5036490000000002
 41
5.330181276254365
 42
5.631575416338481
  0
ARC
  5
2AF6
330
1F
100
AcDbEntity
  8
1
100
AcDbCircle
 10
22.15162599999999
 20
-0.1049350000000118
 30
0.0
 40
0.0804539999999924
100
AcDbArc
 50
30.99349599999412
 51
76.59095399999412
  0
ELLIPSE
  5
2AF7
330
1F
100
AcDbEntity
  8
1
100
AcDbEllipse
 10
22.02893
 20
-0.127334999999988
 30
0.0
 11
0.1944773495197296
 21
0.0557735413312912
 31
0.0
210
0.0
220
0.0
230
1.0
 40
0.4886140000000002
 41
5.518561489091205
 42
6.368778200471692
  0
LINE
  5
2AF8
330
1F
100
AcDbEntity
  8
1
100
AcDbLine
 10
22.17034999999998
 20
-0.0263919999999871
 30
0.0
 11
21.75
 21
0.1098749999999882
 31
0.0
  0
ARC
  5
2AF9
330
1F
100
AcDbEntity
  8
1
100
AcDbCircle
 10
22.85634499999998
 20
-2.41937999999999
 30
0.0
 40
0.0939259999999968
100
AcDbArc
 50
306.7180849999981
 51
358.3100299999981
  0
ELLIPSE
  5
2AFA
330
1F
100
AcDbEntity
  8
1
100
AcDbEllipse
 10
3.971174999999988
 20
1.344029000000004
 30
0.0
 11
22.37551116943359
 21
3.767265319824218
 31
0.0
210
0.0
220
0.0
230
1.0
 40
0.5036490000000003
 41
5.330181276586555
 42
5.631575416577054
  0
ELLIPSE
  5
2AFB
330
1F
100
AcDbEntity
  8
1
100
AcDbEllipse
 10
18.36960499999998
 20
-5.598794999999996
 30
0.0
 11
0.1944773495197296
 21
0.0557735413312912
 31
0.0
210
0.0
220
0.0
230
1.0
 40
0.4886140000000002
 41
3.769158147752353
 42
5.161347460003936
  0
LINE
  5
2AFC
330
1F
100
AcDbEntity
  8
1
100
AcDbLine
 10
17.64079099999998
 20
-5.509318000000007
 30
0.0
 11
18.228185
 21
-5.699736999999998
 31
0.0
  0
LINE
  5
2AFD
330
1F
100
AcDbEntity
  8
1
100
AcDbLine
 10
18.228185
 20
-5.699736999999998
 30
0.0
 11
18.11268999999998
 21
-4.608638000000011
 31
0.0
  0
LINE
  5
2AFE
330
1F
100
AcDbEntity
  8
1
100
AcDbLine
 10
17.590959
 20
-3.537128999999993
 30
0.0
 11
18.11268999999998
 21
-4.608638000000011
 31
0.0
  0
SPLINE
  5
2AFF
330
1F
100
AcDbEntity
  8
1
100
AcDbSpline
210
0.0
220
0.0
230
1.0
 70
     8
 71
     5
 72
    15
 73
     9
 74
     0
 42
0.000000001
 43
0.0000000001
 40
0.0
 40
0.0
 40
0.0
 40
0.0
 40
0.0
 40
0.0
 40
0.3293725659478385
 40
0.3293725659478385
 40
0.3293725659478385
 40
0.4776735911198541
 40
0.4776735911198541
 40
0.4776735911198541
 40
0.4776735911198541
 40
0.4776735911198541
 40
0.4776735911198541
 10
18.11268968988745
 20
-4.60863753068648
 30
0.0
 10
18.14022410885116
 20
-4.617563574711198
 30
0.0
 10
18.17400504867933
 20
-4.621013939966105
 30
0.0
 10
18.21101956698604
 20
-4.619082869867837
 30
0.0
 10
18.26567357601755
 20
-4.609458875523158
 30
0.0
 10
18.31783949427097
 20
-4.590967775067753
 30
0.0
 10
18.33365951390766
 20
-4.584396397736752
 30
0.0
 10
18.34879489447971
 20
-4.577088755193785
 30
0.0
 10
18.36306922212393
 20
-4.569095250306447
 30
0.0
  0
LINE
  5
2B00
330
1F
100
AcDbEntity
  8
1
100
AcDbLine
 10
17.75387099999998
 20
-3.317948999999998
 30
0.0
 11
18.363069
 21
-4.569095000000004
 31
0.0
  0
LINE
  5
2B01
330
1F
100
AcDbEntity
  8
1
100
AcDbLine
 10
22.18813899999998
 20
-0.1528680000000122
 30
0.0
 11
22.797337
 21
-1.404013999999988
 31
0.0
  0
LINE
  5
2B02
330
1F
100
AcDbEntity
  8
1
100
AcDbLine
 10
22.797337
 20
-1.404013999999988
 30
0.0
 11
22.74574299999998
 21
-1.451920999999999
 31
0.0
  0
SPLINE
  5
2B03
330
1F
100
AcDbEntity
  8
1
100
AcDbSpline
210
0.0
220
0.0
230
1.0
 70
     8
 71
     5
 72
    18
 73
    12
 74
     0
 42
0.000000001
 43
0.0000000001
 40
0.502151655081422
 40
0.502151655081422
 40
0.502151655081422
 40
0.502151655081422
 40
0.502151655081422
 40
0.502151655081422
 40
4.066606102456836
 40
4.066606102456836
 40
4.066606102456836
 40
7.524212728860522
 40
7.524212728860522
 40
7.524212728860522
 40
11.51775886342234
 40
11.51775886342234
 40
11.51775886342234
 40
11.51775886342234
 40
11.51775886342234
 40
11.51775886342234
 10
18.43600492079636
 20
-4.528128293673518
 30
0.0
 10
18.62874772448504
 20
-4.139929967450086
 30
0.0
 10
18.83883111059552
 20
-3.767854031161392
 30
0.0
 10
19.06864823989267
 20
-3.414292352615206
 30
0.0
 10
19.54903963528139
 20
-2.784737815412852
 30
0.0
 10
20.09163845672595
 20
-2.282608172008054
 30
0.0
 10
20.37923978173092
 20
-2.066164597855703
 30
0.0
 10
21.00750635676673
 20
-1.693725468816154
 30
0.0
 10
21.66909701649718
 20
-1.496174735239605
 30
0.0
 10
22.02842887829118
 20
-1.439668696123647
 30
0.0
 10
22.38800338931429
 20
-1.42675483406748
 30
0.0
 10
22.74574532419658
 20
-1.451899788795714
 30
0.0
  0
LINE
  5
2B04
330
1F
100
AcDbEntity
  8
1
100
AcDbLine
 10
18.363069
 20
-4.569095000000004
 30
0.0
 11
18.43598299999999
 21
-4.528127000000012
 31
0.0
  0
ARC
  5
2B05
330
1F
100
AcDbEntity
  8
1
100
AcDbCircle
 10
22.74083899999999
 20
-1.328273999999991
 30
0.0
 40
0.093938000000003
100
AcDbArc
 50
306.7208380000062
 51
358.3067590000061
  0
LINE
  5
2B06
330
1F
100
AcDbEntity
  8
1
100
AcDbLine
 10
22.83422299999998
 20
-1.331035000000014
 30
0.0
 11
22.829565
 21
-1.314788999999988
 31
0.0
  0
LINE
  5
2B07
330
1F
100
AcDbEntity
  8
1
100
AcDbLine
 10
22.91283199999998
 20
-2.495114
 30
0.0
 11
22.797337
 21
-1.404013999999988
 31
0.0
  0
SPLINE
  5
2B08
330
1F
100
AcDbEntity
  8
1
100
AcDbSpline
210
0.0
220
0.0
230
1.0
 70
     8
 71
     5
 72
    18
 73
    12
 74
     0
 42
0.000000001
 43
0.0000000001
 40
0.5023872400998465
 40
0.5023872400998465
 40
0.5023872400998465
 40
0.5023872400998465
 40
0.5023872400998465
 40
0.5023872400998465
 40
4.764544049339538
 40
4.764544049339538
 40
4.764544049339538
 40
8.212081646334681
 40
8.212081646334681
 40
8.212081646334681
 40
11.52161577632496
 40
11.52161577632496
 40
11.52161577632496
 40
11.52161577632496
 40
11.52161577632496
 40
11.52161577632496
 10
18.43598325009289
 20
-4.52812677044963
 30
0.0
 10
18.81778833108822
 20
-4.554964663424186
 30
0.0
 10
19.20168485844587
 20
-4.538451692275373
 30
0.0
 10
19.58515859015034
 20
-4.471859739645138
 30
0.0
 10
20.26778258937316
 20
-4.248046632631853
 30
0.0
 10
20.91098903230545
 20
-3.8366374189128
 30
0.0
 10
21.19379599038641
 20
-3.609472108355248
 30
0.0
 10
21.70750566996017
 20
-3.106388980873218
 30
0.0
 10
22.16249539296922
 20
-2.489185158103195
 30
0.0
 10
22.3729699450821
 20
-2.15879208767012
 30
0.0
 10
22.56679581815229
 20
-1.812336014874859
 30
0.0
 10
22.74573633500779
 20
-1.451917894669719
 30
0.0
  0
LINE
  5
2B09
330
1F
100
AcDbEntity
  8
1
100
AcDbLine
 10
18.47856399999998
 20
-5.660194999999986
 30
0.0
 11
18.363069
 21
-4.569095000000004
 31
0.0
  0
LINE
  5
2B0A
330
1F
100
AcDbEntity
  8
1
100
AcDbLine
 10
22.22036599999998
 20
-0.0636419999999873
 30
0.0
 11
22.829565
 21
-1.314788999999988
 31
0.0
  0
LINE
  5
2B0B
330
1F
100
AcDbEntity
  8
1
100
AcDbLine
 10
22.94971899999999
 20
-2.422134999999995
 30
0.0
 11
22.83422299999998
 21
-1.331035000000014
 31
0.0
  0
LINE
  5
2F3E
330
1F
100
AcDbEntity
  8
SK4
100
AcDbLine
 10
0.0
 20
0.0
 30
0.0
 11
-20.10768899999999
 21
0.0
 31
0.0
  0
MTEXT
  5
3120
330
1F
100
AcDbEntity
  8
2
100
AcDbMText
 10
38.30985363816958
 20
15.02899011496766
 30
0.0
 40
3.499999999999998
 41
0.0
 71
     5
 72
     1
  1
\A1;39%%d~51%%d
  7
MM_STANDARD
 11
0.9944544591456089
 21
-0.1051680972796146
 31
0.0
 73
     1
 44
1.0
1001
ACAD
1000
MTEXTBEGIN
1070
    73
1070
     1
1070
    44
1040
1.0
1070
    74
1070
     0
1000
MTEXTEND
  0
SOLID
  5
3121
330
1F
100
AcDbEntity
  8
2
100
AcDbTrace
 10
23.78673894706741
 20
14.332731876626
 30
0.0
 11
21.34442283973657
 21
13.65545560878289
 31
0.0
 12
21.25678275867021
 22
14.48416765807106
 32
0.0
 13
21.25678275867021
 23
14.48416765807106
 33
0.0
  0
SOLID
  5
3122
330
1F
100
AcDbEntity
  8
2
100
AcDbTrace
 10
16.30680003600792
 20
11.68394461875825
 30
0.0
 11
18.17764284578208
 21
13.39378621733615
 31
0.0
 12
18.63105942857639
 22
12.69460251694557
 32
0.0
 13
18.63105942857639
 23
12.69460251694557
 33
0.0
  0
LINE
  5
3123
330
1F
100
AcDbEntity
  8
2
100
AcDbLine
 10
22.95005794706741
 20
3.480212157619997
 30
0.0
 11
15.52014909296405
 21
12.65537670274981
 31
0.0
  0
ARC
  5
3124
330
1F
100
AcDbEntity
  8
2
100
AcDbCircle
 10
23.78673894706741
 20
2.446998157619982
 30
0.0
 40
11.88573371900602
100
AcDbArc
 50
102.0737028933939
 51
116.9263238975135
  0
ARC
  5
3125
330
1F
100
AcDbEntity
  8
2
100
AcDbCircle
 10
23.78673894706741
 20
2.446998157619982
 30
0.0
 40
11.88573371900602
100
AcDbArc
 50
72.89331192187153
 51
90.0
  0
LINE
  5
3126
330
1F
100
AcDbEntity
  8
2
100
AcDbLine
 10
27.28295000803964
 20
13.80689139022794
 30
0.0
 11
48.83720880622183
 21
11.52743015876568
 31
0.0
  0
LWPOLYLINE
  5
3525
330
1F
100
AcDbEntity
  8
CUT
100
AcDbPolyline
 90
      782
 70
     0
 43
0.0
 10
22.91448875622252
 20
3.527157957970198
 42
0.0751812336639158
 10
18.50228728659583
 20
7.939830838705004
 42
0.3602222635593427
 10
18.23874581173707
 20
7.918676387251419
 10
18.23874499999997
 20
7.918676999999997
 10
16.11748748440368
 20
5.855120525629981
 10
16.11613126331454
 20
5.854125913307927
 10
16.11480506336633
 20
5.85309917754699
 10
16.11351043082056
 20
5.852041122765744
 10
16.11224766715501
 20
5.85095172839987
 10
16.11101718182663
 20
5.849831132521443
 10
16.10981947248597
 20
5.848679608872012
 10
16.1086551051918
 20
5.847497543895681
 10
16.10752469462561
 20
5.846285413772203
 10
16.10642888430616
 20
5.845043761450057
 10
16.10536832680405
 20
5.843773173679543
 10
16.10434366395621
 20
5.842474258045865
 10
16.10335550708048
 20
5.841147620002212
 10
16.10240441719013
 20
5.839793839902847
 10
16.10149088520842
 20
5.838413450036195
 10
16.10061531218311
 20
5.837006911657928
 10
16.09977798950104
 20
5.835574592024048
 10
16.09897907910263
 20
5.834116741423977
 10
16.09821859369648
 20
5.832633470213636
 10
16.09749639252884
 20
5.831124716420258
 10
16.09681241815011
 20
5.829590179313098
 10
16.09616677835713
 20
5.828029632978469
 10
16.09555962030753
 20
5.82644310568932
 10
16.09499111942024
 20
5.824830851833276
 10
16.09446147203322
 20
5.823193319873842
 10
16.09397088806119
 20
5.82153112031159
 10
16.09351958365331
 20
5.819844993645378
 10
16.09310777385095
 20
5.818135778333532
 10
16.09273566524537
 20
5.816404378755068
 10
16.09240344863547
 20
5.814651733170873
 10
16.09211129168551
 20
5.812878781684918
 10
16.09185933158279
 20
5.811086434205447
 10
16.09164766769542
 20
5.809275538406195
 10
16.09147635423003
 20
5.807446847687572
 10
16.09134539288947
 20
5.805600989137874
 10
16.09125472553054
 20
5.80373843149448
 10
16.09120422682173
 20
5.801859453105048
 10
16.09119369709273
 20
5.799964109802745
 10
16.09122296263022
 20
5.798052192349572
 10
16.09129205762073
 20
5.796123421943733
 10
16.09140099749605
 20
5.794177768119312
 10
16.09154973833348
 20
5.792215452288327
 10
16.0917381824894
 20
5.790236914217412
 10
16.09196618423277
 20
5.788242778504468
 10
16.09223355537863
 20
5.786233821055333
 10
16.09254007092166
 20
5.784210935560455
 10
16.09288547466969
 20
5.78217509997154
 10
16.09326948487724
 20
5.780127342978235
 10
16.093691799879
 20
5.778068710484776
 10
16.0941521037234
 20
5.776000232086668
 10
16.0946500718061
 20
5.773922887547344
 10
16.09518537650355
 20
5.771837573274827
 10
16.09575769280647
 20
5.769745068798399
 10
16.09636670395342
 20
5.767646003245262
 10
16.09701210706427
 20
5.765540821817213
 10
16.09769361877377
 20
5.763429752267295
 10
16.09841098344029
 20
5.761312770896692
 10
16.09916410036692
 20
5.759189603092066
 10
16.09995300152331
 20
5.757060013865369
 10
16.10077761085212
 20
5.754924003669427
 10
16.10163773841674
 20
5.752781789705466
 10
16.10253309427956
 20
5.750633777036554
 10
16.10346330238032
 20
5.748480529701043
 10
16.10442791441452
 20
5.746322741826002
 10
16.10542642371175
 20
5.744161208740652
 10
16.10645827911404
 20
5.741996798089817
 10
16.10752289885428
 20
5.739830420947349
 10
16.10861968443449
 20
5.737663002929578
 10
16.10974803450429
 20
5.735495455308742
 10
16.11090735873916
 20
5.733328646126427
 10
16.11209709171886
 20
5.731163371307012
 10
16.11331670680578
 20
5.729000325771097
 10
16.11456573002328
 20
5.72684007454895
 10
16.11584375393411
 20
5.724683023893942
 10
16.11715045151867
 20
5.722529392395991
 10
16.11848559005952
 20
5.720379182093833
 10
16.11984908565646
 20
5.718232163417469
 10
16.12124101001971
 20
5.716088061757067
 10
16.12266132746435
 20
5.713946782323723
 10
16.12410986079233
 20
5.711808412891913
 10
16.1255863085257
 20
5.709673200889932
 10
16.12709026213987
 20
5.707541530490307
 10
16.12862122329687
 20
5.705413899700229
 10
16.13017862107859
 20
5.703290897451987
 10
16.13176182921998
 20
5.70117318069338
 10
16.13337018334241
 20
5.699061451478155
 10
16.13500299818678
 20
5.696956434056428
 10
16.13665958484687
 20
5.694858851965117
 10
16.13833926800256
 20
5.692769405118357
 10
16.14004140315305
 20
5.690688746897941
 10
16.14176539385014
 20
5.688617461243735
 10
16.14351070893146
 20
5.686556039744107
 10
16.14527689975373
 20
5.68450485872636
 10
16.147063617426
 20
5.68246415634715
 10
16.14887063004288
 20
5.68043400968292
 10
16.15069783992541
 20
5.678414311811971
 10
16.15781634113659
 20
5.670611441421613
 10
16.16493726174108
 20
5.662810630465901
 10
16.17206060049614
 20
5.655011877406829
 10
16.17918635576603
 20
5.647215181109277
 10
16.18631452567256
 20
5.639420540676747
 10
16.19344510810226
 20
5.631627955444133
 10
16.20057810071363
 20
5.623837424970504
 10
16.20771350094434
 20
5.616048949031879
 10
16.2148513060185
 20
5.608262527613992
 10
16.22199151295382
 20
5.600478160905073
 10
16.22913411856889
 20
5.592695849288624
 10
16.23627911949039
 20
5.584915593336184
 10
16.24342651216025
 20
5.577137393800112
 10
16.25057629284301
 20
5.569361251606358
 10
16.25772845763288
 20
5.561587167847238
 10
16.26488300246112
 20
5.553815143774203
 10
16.27203992310314
 20
5.546045180790621
 10
16.2791992151858
 20
5.538277280444549
 10
16.28636087419458
 20
5.530511444421501
 10
16.29352489548087
 20
5.522747674537228
 10
16.30069127426912
 20
5.514985972730493
 10
16.30786000566412
 20
5.507226341055845
 10
16.31503108465819
 20
5.499468781676381
 10
16.32220450613845
 20
5.491713296856543
 10
16.32938026489395
 20
5.483959888954872
 10
16.33655835562301
 20
5.476208560416791
 10
16.34373877294036
 20
5.468459313767376
 10
16.3509215113844
 20
5.460712151604137
 10
16.35810656542442
 20
5.45296707658978
 10
16.3652939294678
 20
5.445224091444995
 10
16.37248359786728
 20
5.437483198941214
 10
16.37967556492814
 20
5.429744401893406
 10
16.38686982491544
 20
5.422007703152831
 10
16.39406637206127
 20
5.414273105599825
 10
16.4012652005719
 20
5.406540612136571
 10
16.40846630463511
 20
5.398810225679874
 10
16.41566967842731
 20
5.391081949153937
 10
16.42287531612083
 20
5.383355785483131
 10
16.43008321189114
 20
5.375631737584771
 10
16.43729335992401
 20
5.367909808361891
 10
16.44450575442283
 20
5.360190000696018
 10
16.45172038961575
 20
5.352472317439946
 10
16.45893725976298
 20
5.344756761410509
 10
16.46615635916393
 20
5.337043335381353
 10
16.4733776821645
 20
5.329332042075717
 10
16.48060122316426
 20
5.321622884159205
 10
16.48782697662373
 20
5.313915864232551
 10
16.49505493707153
 20
5.306210984824405
 10
16.50228509911167
 20
5.298508248384103
 10
16.50951745743074
 20
5.290807657274441
 10
16.51675200680512
 20
5.283109213764444
 10
16.52398874210824
 20
5.275412920022152
 10
16.53122765831779
 20
5.267718778107382
 10
16.53846875052294
 20
5.260026789964509
 10
16.54571201393155
 20
5.252336957415238
 10
16.55295744387742
 20
5.244649282151376
 10
16.5602050358275
 20
5.236963765727613
 10
16.56745478552335
 20
5.229280409412789
 10
16.57471260745431
 20
5.221592975294351
 10
16.58200129125861
 20
5.213877439655773
 10
16.58933663684291
 20
5.206117153868676
 10
16.59672343817436
 20
5.198307076808704
 10
16.60415764406561
 20
5.190451495119433
 10
16.61162851895987
 20
5.182561743476274
 10
16.6191208037159
 20
5.174653924850376
 10
16.6266168763931
 20
5.166746630772528
 10
16.63409891303657
 20
5.158858661597063
 10
16.64155104846201
 20
5.151006746765766
 10
16.64896153704094
 20
5.143203265071773
 10
16.65632491348558
 20
5.135453964923476
 10
16.66364415363402
 20
5.127755684608426
 10
16.67093283523511
 20
5.120094072557238
 10
16.67821493074491
 20
5.11244381247496
 10
16.68550109007622
 20
5.104793663297941
 10
16.69277939822372
 20
5.097156121634195
 10
16.7000284445563
 20
5.089553626492889
 10
16.70720075526771
 20
5.08203577532346
 10
16.71421279274636
 20
5.074689730828978
 10
16.72103132442738
 20
5.067550091725708
 10
16.72767376415205
 20
5.060598556814887
 10
16.73419372025733
 20
5.053779028959001
 10
16.74066654366541
 20
5.047012719058084
 10
16.74717487597328
 20
5.040213250025981
 10
16.75379419754224
 20
5.033301760766637
 10
16.76057837558749
 20
5.026222010150374
 10
16.76754521226768
 20
5.018955480990184
 10
16.77466199277442
 20
5.011536484018003
 10
16.78184383745127
 20
5.004053853715666
 10
16.78903862108071
 20
4.99656203894163
 10
16.79622832646262
 20
4.989079776416557
 10
16.8034035308875
 20
4.981616825240193
 10
16.81056092865794
 20
4.974176556322465
 10
16.81770094672707
 20
4.966758444268045
 10
16.82482536033696
 20
4.95936055926094
 10
16.83193500958962
 20
4.951981953201198
 10
16.8390298877743
 20
4.944622563368851
 10
16.84611061396081
 20
4.937281674590423
 10
16.85317808777852
 20
4.929958284687446
 10
16.86023345298035
 20
4.922651144202398
 10
16.86727808432103
 20
4.91535877166203
 10
16.87431357443537
 20
4.908079468840663
 10
16.88134164967955
 20
4.900811408794638
 10
16.88836016203778
 20
4.893556743434255
 10
16.89536188372817
 20
4.886322838591182
 10
16.90234112238549
 20
4.879115496664894
 10
16.90929414972852
 20
4.871938516916262
 10
16.91621903147473
 20
4.864793869142031
 10
16.92311545725492
 20
4.857681867349275
 10
16.92998457052792
 20
4.850601343429856
 10
16.9368287984952
 20
4.843549820834901
 10
16.94365168201563
 20
4.836523688249248
 10
16.95045770552001
 20
4.82951837326592
 10
16.95725212692586
 20
4.822528516060589
 10
16.96404080755202
 20
4.815548143066029
 10
16.9708300420333
 20
4.80857084064659
 10
16.97762638823522
 20
4.801589928772651
 10
16.98443649716859
 20
4.794598634695091
 10
16.99126694290422
 20
4.787590266619753
 10
16.99812405248756
 20
4.780558387381896
 10
17.0050137358534
 20
4.773496988120669
 10
17.01194131574052
 20
4.766400661953571
 10
17.01891135760631
 20
4.759264777650909
 10
17.0259274995415
 20
4.752085653310268
 10
17.0329922821848
 20
4.744860730030974
 10
17.04010697863752
 20
4.737588745588547
 10
17.04727142437836
 20
4.730269908109178
 10
17.0544838471779
 20
4.722906069744182
 10
17.0617406970134
 20
4.71550090034446
 10
17.0690364759834
 20
4.708060061134976
 10
17.07636356822242
 20
4.700591378389201
 10
17.08371206981561
 20
4.69310501710359
 10
17.0910565277906
 20
4.685626940269023
 10
17.09828931408839
 20
4.678266477375006
 10
17.10536663973597
 20
4.671068027464653
 10
17.11235077744681
 20
4.663968242814831
 10
17.11935642195687
 20
4.656850544787308
 10
17.12649632310392
 20
4.649600377942495
 10
17.13382691890667
 20
4.642160464153192
 10
17.14129561930664
 20
4.634584378384825
 10
17.14880336696692
 20
4.626972918626591
 10
17.1563371243314
 20
4.619339400204538
 10
17.16389307055123
 20
4.611687755387596
 10
17.17146701980387
 20
4.604022278724825
 10
17.17905514564058
 20
4.596346893272666
 10
17.18665470533375
 20
4.58866441682219
 10
17.19426476635096
 20
4.580975825994181
 10
17.20188738434375
 20
4.57327907121369
 10
17.20952623097216
 20
4.565570473835383
 10
17.21718255306508
 20
4.557848793951613
 10
17.2248550504461
 20
4.550115349330887
 10
17.23254026643075
 20
4.542373618982851
 10
17.24023297832389
 20
4.534628846723261
 10
17.24792658791702
 20
4.526887644738968
 10
17.25561123470891
 20
4.519159880582292
 10
17.26326682283342
 20
4.511465668860045
 10
17.27087579179749
 20
4.503822568407793
 10
17.27843632004646
 20
4.496232336760749
 10
17.28596434969486
 20
4.488678896503931
 10
17.2934786374157
 20
4.48114333304478
 10
17.30099189925011
 20
4.473612794740335
 10
17.3085019057424
 20
4.466089449206088
 10
17.31599741237854
 20
4.458584542903509
 10
17.32347819752668
 20
4.451098287783146
 10
17.33095031086552
 20
4.443624629104964
 10
17.33841799321284
 20
4.436159351043278
 10
17.34588465647607
 20
4.428699069280499
 10
17.35335278039775
 20
4.421241321766983
 10
17.36082384319435
 20
4.413784640099233
 10
17.36829852828728
 20
4.406328344450141
 10
17.37577693103408
 20
4.398872338499231
 10
17.3832587654595
 20
4.391416904362915
 10
17.39074357098664
 20
4.383962497524723
 10
17.39823091916802
 20
4.376509541765564
 10
17.40572062041678
 20
4.369058224093956
 10
17.41321291765035
 20
4.361608302657263
 10
17.42070816562442
 20
4.35415942476593
 10
17.42820639029496
 20
4.3467115638511
 10
17.43570757550527
 20
4.339264735054733
 10
17.44321168965949
 20
4.331818968760055
 10
17.45071868697946
 20
4.32437430933321
 10
17.45822850876158
 20
4.316930813864911
 10
17.46574108463368
 20
4.309488550912095
 10
17.47325633381188
 20
4.302047599239569
 10
17.48077416635748
 20
4.294608046561658
 10
17.48829448443377
 20
4.287169988283864
 10
17.49581718356298
 20
4.279733526244511
 10
17.50334215388305
 20
4.272298767456392
 10
17.51086928140458
 20
4.264865822848435
 10
17.51839844926763
 20
4.25743480600733
 10
17.52592953899864
 20
4.2500058319192
 10
17.53346243176723
 20
4.242579015711247
 10
17.54099700964315
 20
4.235154471393395
 10
17.54853315685306
 20
4.227732310599944
 10
17.55607076103746
 20
4.220312641331228
 10
17.56360971450753
 20
4.21289556669526
 10
17.57114991550197
 20
4.205481183649377
 10
17.57869126944392
 20
4.1980695817419
 10
17.58623369019778
 20
4.190660841853781
 10
17.5937771013261
 20
4.183255034940255
 10
17.60132143734643
 20
4.175852220772487
 10
17.60886664498821
 20
4.168452446679224
 10
17.61641268444958
 20
4.161055746288453
 10
17.62395953065433
 20
4.153662138269038
 10
17.63150720629806
 20
4.146271594261587
 10
17.6390567033619
 20
4.138883145943007
 10
17.64660989300019
 20
4.131494973509631
 10
17.65416828785882
 20
4.12410560574574
 10
17.66173300191896
 20
4.116713958860715
 10
17.66930478337614
 20
4.109319304523467
 10
17.67688404751944
 20
4.101921237896896
 10
17.68447090961062
 20
4.09451964567233
 10
17.69206521776326
 20
4.087114674103971
 10
17.6996665858219
 20
4.079706697043341
 10
17.70727442624119
 20
4.072296283973728
 10
17.71488798296505
 20
4.064884168044629
 10
17.72250636430577
 20
4.057471214106198
 10
17.73012857582321
 20
4.050058386743692
 10
17.7377535532039
 20
4.04264671831191
 10
17.74538019514019
 20
4.035237276969651
 10
17.75300739620942
 20
4.027831134714148
 10
17.76063407975305
 20
4.020429335415516
 10
17.76825923075578
 20
4.013032862851201
 10
17.77588192872473
 20
4.005642608740421
 10
17.78350138056856
 20
3.998259340778616
 10
17.79111695347663
 20
3.99088367067189
 10
17.79872820779812
 20
3.983516022171457
 10
17.80633492992122
 20
3.976156599108086
 10
17.81393716515221
 20
3.968805353426551
 10
17.82153525059465
 20
3.961461953220069
 10
17.82912984802852
 20
3.954125750764753
 10
17.83672197678935
 20
3.946795750554048
 10
17.84431304664735
 20
3.939470577333187
 10
17.85190481996934
 20
3.932148512970069
 10
17.85949822431514
 20
3.924828652254829
 10
17.86709327479159
 20
3.917510978272014
 10
17.87468995690863
 20
3.910195502941798
 10
17.88228825674535
 20
3.902882237654814
 10
17.88988816094148
 20
3.895571193280423
 10
17.89748965668882
 20
3.888262380174976
 10
17.90509273172263
 20
3.880955808190076
 10
17.9126973743131
 20
3.87365148668085
 10
17.92030357325677
 20
3.866349424514202
 10
17.92791131786793
 20
3.859049630077086
 10
17.93552059797012
 20
3.851752111284774
 10
17.94313140388749
 20
3.844456875589106
 10
17.95074372643625
 20
3.837163929986773
 10
17.95835755691616
 20
3.829873281027563
 10
17.96597288710185
 20
3.822584934822642
 10
17.97358970923434
 20
3.815298897052806
 10
17.98120801601246
 20
3.808015172976756
 10
17.98882780058423
 20
3.800733767439352
 10
17.99644905653836
 20
3.793454684879886
 10
18.00407177789561
 20
3.786177929340343
 10
18.01169595910027
 20
3.778903504473664
 10
18.01932159501158
 20
3.771631413552015
 10
18.02694868089514
 20
3.764361659475048
 10
18.03457721241442
 20
3.757094244778165
 10
18.04220718562204
 20
3.749829171640786
 10
18.04983859695134
 20
3.742566441894608
 10
18.05747144320776
 20
3.73530605703188
 10
18.06510572156026
 20
3.728048018213653
 10
18.07274142953277
 20
3.720792326278056
 10
18.0803785649956
 20
3.713538981748558
 10
18.0880171261569
 20
3.706287984842226
 10
18.09565711155405
 20
3.699039335478001
 10
18.10329852004517
 20
3.691793033284951
 10
18.11094135080043
 20
3.684549077610546
 10
18.11858560329357
 20
3.67730746752891
 10
18.12623127729333
 20
3.670068201849098
 10
18.13387837285483
 20
3.662831279123357
 10
18.14152689031105
 20
3.655596697655384
 10
18.14917683026422
 20
3.648364455508599
 10
18.15682819357728
 20
3.641134550514404
 10
18.16448098136531
 20
3.633906980280451
 10
18.17213519498695
 20
3.626681742198904
 10
18.17979083603581
 20
3.619458833454703
 10
18.18744790633195
 20
3.612238251033836
 10
18.19510640791328
 20
3.605019991731587
 10
18.20276634302698
 20
3.597804052160824
 10
18.21042771412097
 20
3.590590428760241
 10
18.21809052383531
 20
3.583379117802635
 10
18.22575477499361
 20
3.576170115403171
 10
18.23342047059453
 20
3.568963417527637
 10
18.24108761380314
 20
3.561759020000723
 10
18.24875620794241
 20
3.554556918514267
 10
18.25642625648456
 20
3.547357108635539
 10
18.26409776304259
 20
3.540159585815493
 10
18.27177073136165
 20
3.532964345397033
 10
18.27944516531047
 20
3.525771382623283
 10
18.28712106887282
 20
3.518580692645846
 10
18.29479844613891
 20
3.51139227053307
 10
18.30247730129685
 20
3.504206111278314
 10
18.31015763862405
 20
3.497022209808211
 10
18.31783946247869
 20
3.489840560990933
 10
18.32552277729111
 20
3.48266115964446
 10
18.33320758755526
 20
3.475484000544831
 10
18.34089389782013
 20
3.468309078434427
 10
18.34858171268119
 20
3.461136388030221
 10
18.35627103677181
 20
3.453965924032048
 10
18.36396187475467
 20
3.446797681130873
 10
18.37165423131324
 20
3.439631654017046
 10
18.37934811114316
 20
3.432467837388578
 10
18.38704351894373
 20
3.425306225959396
 10
18.39474045940926
 20
3.418146814467615
 10
18.40243893722058
 20
3.410989597683793
 10
18.41013895703642
 20
3.40383457041921
 10
18.41784052348485
 20
3.396681727534116
 10
18.42554364115475
 20
3.389531063946007
 10
18.43324831458717
 20
3.382382574637888
 10
18.44095454826683
 20
3.375236254666531
 10
18.44866234661351
 20
3.368092099170748
 10
18.45637171397348
 20
3.360950103379651
 10
18.46408265461095
 20
3.353810262620918
 10
18.47179517269951
 20
3.346672572329051
 10
18.47950927231351
 20
3.339537028053654
 10
18.48722495741955
 20
3.332403625467684
 10
18.49494223186789
 20
3.325272360375727
 10
18.50266109938385
 20
3.318143228722252
 10
18.51038156355928
 20
3.311016226599881
 10
18.51810362784398
 20
3.303891350257655
 10
18.52582729553714
 20
3.296768596109296
 10
18.53355256977872
 20
3.289647960741468
 10
18.54127945354096
 20
3.282529440922055
 10
18.54900794961977
 20
3.275413033608403
 10
18.55673806062612
 20
3.268298735955609
 10
18.56446978897755
 20
3.261186545324771
 10
18.57220313688956
 20
3.254076459291248
 10
18.57993810636704
 20
3.246968475652944
 10
18.58767469919569
 20
3.239862592438553
 10
18.59541291693347
 20
3.232758807915834
 10
18.60315276090205
 20
3.225657120599873
 10
18.61089423217819
 20
3.218557529261343
 10
18.61863733158521
 20
3.211460032934781
 10
18.62638205968441
 20
3.204364630926836
 10
18.63412841676648
 20
3.197271322824546
 10
18.64187640284299
 20
3.190180108503601
 10
18.64962601763773
 20
3.183090988136598
 10
18.65737726057824
 20
3.17600396220132
 10
18.66513013078715
 20
3.168919031488986
 10
18.67288462707369
 20
3.161836197112528
 10
18.68064074792506
 20
3.154755460514848
 10
18.68839849149789
 20
3.147676823477083
 10
18.69615785560967
 20
3.140600288126876
 10
18.70391883773017
 20
3.133525856946629
 10
18.71168143497289
 20
3.126453532781781
 10
18.71944564408647
 20
3.11938331884906
 10
18.72721146144612
 20
3.112315218744754
 10
18.73497888304506
 20
3.105249236452983
 10
18.74274790448613
 20
3.098185376361163
 10
18.75051852095909
 20
3.091123643346213
 10
18.75829072718785
 20
3.084064042797999
 10
18.7660645174124
 20
3.077006580599939
 10
18.77383988538404
 20
3.069951263133936
 10
18.78161682436081
 20
3.062898097285671
 10
18.78939532710291
 20
3.055847090449876
 10
18.79717538586804
 20
3.048798250535622
 10
18.80495699240681
 20
3.041751585971593
 10
18.81274013795816
 20
3.034707105711374
 10
18.82052481324473
 20
3.027664819238731
 10
18.82831100846825
 20
3.020624736572893
 10
18.83609871330491
 20
3.013586868273828
 10
18.84388791690083
 20
3.006551225447536
 10
18.85167860786736
 20
2.999517819751319
 10
18.85947077427653
 20
2.992486663399071
 10
18.86726440365643
 20
2.985457769166555
 10
18.8750594829866
 20
2.978431150396684
 10
18.8828559986934
 20
2.971406821004812
 10
18.89065393664545
 20
2.964384795483998
 10
18.89845328214898
 20
2.957365088910304
 10
18.90625401994326
 20
2.950347716948073
 10
18.91405613419595
 20
2.943332695855202
 10
18.92185960849851
 20
2.936320042488434
 10
18.92966442586162
 20
2.929309774308634
 10
18.93747056871054
 20
2.922301909386074
 10
18.9452780188805
 20
2.91529646640571
 10
18.95308675761211
 20
2.908293464672468
 10
18.96089676554676
 20
2.901292924116522
 10
18.96870808845772
 20
2.894294807222717
 10
18.9765209798335
 20
2.887298894925379
 10
18.98433515138612
 20
2.880305449810393
 10
18.99215008454654
 20
2.873314932554496
 10
18.99996582568416
 20
2.866327288946394
 10
19.00778378322932
 20
2.85934123522171
 10
19.01560752479593
 20
2.852353543397917
 10
19.02344345293812
 20
2.845358435741081
 10
19.03129569835737
 20
2.838352152256891
 10
19.03915584820166
 20
2.831342122834938
 10
19.04701067273855
 20
2.824340095967776
 10
19.05485407337193
 20
2.817351515593274
 10
19.06268729145387
 20
2.810375329256455
 10
19.07051570254323
 20
2.803406822382971
 10
19.07834798426944
 20
2.796438353230585
 10
19.08619487764597
 20
2.789460451910072
 10
19.09406794815524
 20
2.782462919609673
 10
19.1019783468335
 20
2.775435927819569
 10
19.10993557135577
 20
2.768371117556326
 10
19.11794622712071
 20
2.761262698587356
 10
19.12601278833554
 20
2.754108548655378
 10
19.13413235807968
 20
2.746911313608059
 10
19.14229438407433
 20
2.739680435750162
 10
19.15048445966273
 20
2.732428803282691
 10
19.15869658763907
 20
2.725161871107965
 10
19.16693397911489
 20
2.717876912612136
 10
19.1752020612941
 20
2.710569187130646
 10
19.18350045904525
 20
2.703239060684174
 10
19.19182518116632
 20
2.695890081811571
 10
19.20016965883338
 20
2.688528065463117
 10
19.20852560764202
 20
2.681160333042716
 10
19.21688388964868
 20
2.6737949524501
 10
19.2252353754122
 20
2.666439978123018
 10
19.23357180603509
 20
2.659102691079435
 10
19.24188665520503
 20
2.651788838959735
 10
19.25017599123628
 20
2.644501876068908
 10
19.25843921172548
 20
2.637242313545022
 10
19.26667908974292
 20
2.630007654780912
 10
19.27490977031528
 20
2.622785454694564
 10
19.28315512806575
 20
2.615554808465703
 10
19.29143706771263
 20
2.608296569967038
 10
19.29976491742912
 20
2.601002562275982
 10
19.30813575561336
 20
2.593675276337348
 10
19.31653798757251
 20
2.586324766398576
 10
19.32495426525112
 20
2.578966108495013
 10
19.33336382686475
 20
2.571617364340096
 10
19.34174390689032
 20
2.564298356235076
 10
19.35007232949246
 20
2.55702839870872
 10
19.35833029424392
 20
2.549823860865931
 10
19.36650516184615
 20
2.542695728736385
 10
19.3745932398497
 20
2.535647167623145
 10
19.38260317595753
 20
2.528670549272558
 10
19.39055824538058
 20
2.521745433582074
 10
19.39847954583953
 20
2.514853324050265
 10
19.40638033062734
 20
2.507982643997805
 10
19.41426811872341
 20
2.501126876431353
 10
19.42214686617007
 20
2.494282650024729
 10
19.43001913744923
 20
2.487447825100068
 10
19.43788814657509
 20
2.480619691764941
 10
19.44575238954246
 20
2.473799556033521
 10
19.45360197871002
 20
2.466995917680736
 10
19.46142841092663
 20
2.460216084659814
 10
19.46922532150682
 20
2.453465525034566
 10
19.47698831782117
 20
2.446748010236892
 10
19.48471481288679
 20
2.440065758324286
 10
19.49240385895772
 20
2.433419577237359
 10
19.5000559811154
 20
2.426809008057341
 10
19.50767301085909
 20
2.420232468263593
 10
19.51525791969632
 20
2.413687394991115
 10
19.52281465273334
 20
2.407170388288061
 10
19.53034796226555
 20
2.400677354373248
 10
19.53786324136794
 20
2.394203648893665
 10
19.54536635748553
 20
2.387744220181978
 10
19.5528634860238
 20
2.381293752514054
 10
19.56036094393916
 20
2.374846809366459
 10
19.56786502332938
 20
2.368397976673976
 10
19.57538182502398
 20
2.361942006087108
 10
19.58291709217476
 20
2.355473958229594
 10
19.59047604384619
 20
2.348989345955919
 10
19.59806320860582
 20
2.342484277608823
 10
19.60568225811477
 20
2.335955600276809
 10
19.61333584071817
 20
2.329401043051661
 10
19.62102541503556
 20
2.322819360285943
 10
19.62875108355138
 20
2.316210474850518
 10
19.63651142620538
 20
2.309575621392058
 10
19.64430333398305
 20
2.30291748959055
 10
19.65212184250608
 20
2.296240367416809
 10
19.65995996562282
 20
2.289550284389989
 10
19.66780853033592
 20
2.282855153682423
 10
19.67565885346963
 20
2.276162464883581
 10
19.6835095298328
 20
2.269473433832568
 10
19.69136069517623
 20
2.262787948628628
 10
19.69921248390629
 20
2.2561058991203
 10
19.70706502812403
 20
2.249427177768819
 10
19.7149184566642
 20
2.242751680511519
 10
19.72277289413434
 20
2.236079307625224
 10
19.73062845995373
 20
2.229409964589645
 10
19.73848526739256
 20
2.222743562950785
 10
19.74634342261089
 20
2.216080021184332
 10
19.75420302369774
 20
2.209419265559056
 10
19.7620641597101
 20
2.202761231000206
 10
19.76992690971204
 20
2.196105861952913
 10
19.7777913418137
 20
2.18945311324558
 10
19.78565751221037
 20
2.182802950953289
 10
19.79352546422151
 20
2.176155353261188
 10
19.80139522732984
 20
2.1695103113279
 10
19.80926681622036
 20
2.162867830148909
 10
19.81714022981938
 20
2.156227929419967
 10
19.82501545033361
 20
2.149590644400489
 10
19.8328924422892
 20
2.142956026776949
 10
19.84077115034149
 20
2.136324146607722
 10
19.84865172971913
 20
2.129694900570138
 10
19.85653547242353
 20
2.1230672359319
 10
19.86442466960818
 20
2.116439263505001
 10
19.87232184035285
 20
2.109808902262248
 10
19.88022894674889
 20
2.103174535475919
 10
19.88814660898437
 20
2.096535666856464
 10
19.89607275363625
 20
2.0898940488063
 10
19.90395985250951
 20
2.083289298956901
 10
19.91170962060368
 20
2.07680329455351
 10
19.91926199869968
 20
2.070486043873744
 10
19.92659713607593
 20
2.06435404080091
 10
19.93372810566723
 20
2.05839633959509
 10
19.94069361922373
 20
2.052580629664197
 10
19.94755074246983
 20
2.046859310335055
 10
19.95436761026309
 20
2.041175565624469
 10
19.96121614175316
 20
2.035469439010289
 10
19.96816475554068
 20
2.029683908202497
 10
19.97527108483625
 20
2.023770959914267
 10
19.98257469261929
 20
2.017697664633035
 10
19.990089786797
 20
2.011452251391579
 10
19.99779793536325
 20
2.005050182539081
 10
20.00564078155754
 20
1.99854022851221
 10
20.01352378977964
 20
1.992001335687736
 10
20.0214066648491
 20
1.985467158510097
 10
20.02928902533032
 20
1.97893803285543
 10
20.03717084627949
 20
1.972413997233909
 10
20.04505210124019
 20
1.965895091620932
 10
20.05293276226931
 20
1.959381357436979
 10
20.06081279996292
 20
1.95287283752745
 10
20.06869218348224
 20
1.946369576142513
 10
20.07657088057945
 20
1.939871618916946
 10
20.08444885762364
 20
1.933379012849986
 10
20.09232607962669
 20
1.926891806285166
 10
20.10020251026917
 20
1.920410048890171
 10
20.10807811192623
 20
1.913933791636669
 10
20.11595284569354
 20
1.907463086780166
 10
20.12382667141312
 20
1.900997987839845
 10
20.13169954769927
 20
1.894538549578417
 10
20.13957143196449
 20
1.888084827981954
 10
20.14744228044534
 20
1.881636880239747
 10
20.15531204822837
 20
1.875194764724142
 10
20.16318068927597
 20
1.868758540970386
 10
20.17104815645234
 20
1.862328269656478
 10
20.17891440154931
 20
1.855904012583
 10
20.18677937531229
 20
1.849485832652975
 10
20.19464302746616
 20
1.843073793851707
 10
20.20250530674113
 20
1.836667961226623
 10
20.21036616089869
 20
1.830268400867119
 10
20.21822553675749
 20
1.823875179884409
 10
20.22608338021919
 20
1.81748836639136
 10
20.23393963629445
 20
1.811108029482348
 10
20.24179424912874
 20
1.804734239213092
 10
20.24964716202829
 20
1.798367066580511
 10
20.25749831748596
 20
1.792006583502554
 10
20.26534765720716
 20
1.785652862798054
 10
20.27319512213574
 20
1.779305978166573
 10
20.28104065247986
 20
1.772966004168241
 10
20.28888418773793
 20
1.766633016203605
 10
20.29672566672448
 20
1.760307090493471
 10
20.30456502759607
 20
1.753988304058752
 10
20.31240220787719
 20
1.747676734700309
 10
20.32023714448614
 20
1.7413724609788
 10
20.32806977376093
 20
1.735075562194514
 10
20.33590003148522
 20
1.728786118367234
 10
20.34372785291415
 20
1.722504210216061
 10
20.35155317280027
 20
1.716229919139276
 10
20.35937592541947
 20
1.709963327194173
 10
20.36719604459682
 20
1.703704517076909
 10
20.37501346373248
 20
1.697453572102344
 10
20.38282811582767
 20
1.691210576183896
 10
20.39063993351044
 20
1.684975613813372
 10
20.39844884906167
 20
1.678748770040821
 10
20.40625479444093
 20
1.672530130454379
 10
20.41405770131238
 20
1.666319781160109
 10
20.42185750107067
 20
1.660117808761848
 10
20.42965412486682
 20
1.65392430034105
 10
20.43744750363416
 20
1.647739343436638
 10
20.44523756811419
 20
1.641563026024835
 10
20.45302424888247
 20
1.635395436499023
 10
20.46080747637456
 20
1.629236663649576
 10
20.46858718091188
 20
1.623086796643713
 10
20.47636329272764
 20
1.616945925005337
 10
20.48413574199268
 20
1.610814138594881
 10
20.49190445884145
 20
1.604691527589156
 10
20.49966937339783
 20
1.598578182461193
 10
20.50743041580108
 20
1.592474193960083
 10
20.51518751623172
 20
1.586379653090831
 10
20.5229406049374
 20
1.580294651094196
 10
20.53068961225885
 20
1.57421927942653
 10
20.53843446865574
 20
1.568153629739634
 10
20.54617510473259
 20
1.562097793860593
 10
20.55391145126466
 20
1.556051863771624
 10
20.5616434396225
 20
1.550015931278738
 10
20.56386197062897
 20
1.548288334274868
 10
20.56609373723517
 20
1.546557032039339
 10
20.56833869318684
 20
1.544821981680868
 10
20.57059662317392
 20
1.543083270158272
 10
20.57286716562241
 20
1.541341097164666
 10
20.57514983540339
 20
1.539595758076188
 10
20.57744404654198
 20
1.537847626900723
 10
20.57974913492632
 20
1.536097139226628
 10
20.58206438101659
 20
1.534344775171456
 10
20.58438903255398
 20
1.532591042330679
 10
20.58672232726967
 20
1.530836458726419
 10
20.58906351559385
 20
1.529081535756165
 10
20.59141188336468
 20
1.527326761141497
 10
20.59376677453728
 20
1.525572581876821
 10
20.59612761389274
 20
1.523819387178081
 10
20.59849392974709
 20
1.522067491431494
 10
20.60086537666029
 20
1.520317117142261
 10
20.60324175814522
 20
1.518568377883311
 10
20.6056230493767
 20
1.516821261244007
 10
20.60800941297071
 20
1.515075618172383
 10
20.61040104088174
 20
1.513331299111559
 10
20.61279793019317
 20
1.511588313603319
 10
20.6151999007337
 20
1.509846799590985
 10
20.61760661904782
 20
1.508107005929159
 10
20.62001762083858
 20
1.506369276584669
 10
20.62243233341037
 20
1.50463403483752
 10
20.62485009811165
 20
1.502901767481833
 10
20.62727019277777
 20
1.5011730090268
 10
20.62969185417368
 20
1.499448325897621
 10
20.63211430043674
 20
1.497728300636457
 10
20.63453675351948
 20
1.49601351610337
 10
20.63695846163234
 20
1.494304539677273
 10
20.63937872168646
 20
1.492601907456877
 10
20.64179690173645
 20
1.490906108461635
 10
20.64421246342317
 20
1.489217568832685
 10
20.64662498441643
 20
1.487536636033806
 10
20.64903418085785
 20
1.48586356305235
 10
20.65143992980354
 20
1.484198492600201
 10
20.65384229166696
 20
1.482541441314713
 10
20.65624149991795
 20
1.480892312858594
 10
20.65863770932139
 20
1.479251096468189
 10
20.66103085386167
 20
1.477617939922505
 10
20.66342067746916
 20
1.475993117914789
 10
20.66580675952277
 20
1.474377015343461
 10
20.66818854033606
 20
1.472770110620231
 10
20.67056534664335
 20
1.471172958978228
 10
20.67293641708587
 20
1.469586175780118
 10
20.6753009276979
 20
1.46801041982622
 10
20.67765801739291
 20
1.466446376662644
 10
20.68000681344966
 20
1.464894741889396
 10
20.68234645699837
 20
1.463356204468508
 10
20.68467612850682
 20
1.46183143003216
 10
20.68699507326652
 20
1.4603210441908
 10
20.68930262687882
 20
1.458825615841266
 10
20.69159824074104
 20
1.457345640474909
 10
20.69388150753262
 20
1.455881523485713
 10
20.69615218670123
 20
1.454433563478418
 10
20.69841022994893
 20
1.453001935576643
 10
20.70065580274367
 20
1.451586678485963
 10
20.70288913539573
 20
1.450187819940175
 10
20.70511022722526
 20
1.448805561410042
 10
20.70731884883788
 20
1.447440239112123
 10
20.70951457474673
 20
1.446092302853034
 10
20.71169681313097
 20
1.444762298715897
 10
20.71386483559443
 20
1.44345085174678
 10
20.71601780692414
 20
1.442158648641148
 10
20.71815481484891
 20
1.440886420430296
 10
20.72027489979792
 20
1.439634925167806
 10
20.72237708465927
 20
1.438404930615981
 10
20.72446040453857
 20
1.437197196932294
 10
20.72652393651753
 20
1.436012459355835
 10
20.7285668294125
 20
1.434851410893748
 10
20.73058833353306
 20
1.43371468500768
 10
20.73258783044062
 20
1.432602838300228
 10
20.73456486270693
 20
1.431516333201375
 10
20.73651916367273
 20
1.430455520654941
 10
20.73845068720628
 20
1.429420622805029
 10
20.74035962439998
 20
1.428411727483472
 10
20.74224616296366
 20
1.427428975763291
 10
20.74411021587289
 20
1.42647268128203
 10
20.74595146621768
 20
1.425543257167564
 10
20.74776940249517
 20
1.424641198334213
 10
20.74956335213313
 20
1.423767065903339
 10
20.75133251501361
 20
1.422921471623949
 10
20.75307599699645
 20
1.422105062293284
 10
20.75479284344284
 20
1.421318504177429
 10
20.75648207273893
 20
1.420562467431901
 10
20.75814270981939
 20
1.419837610522254
 10
20.75977381969092
 20
1.41914456464467
 10
20.76137454095587
 20
1.418483918146569
 10
20.76294411933582
 20
1.417856200947193
 10
20.76448194119508
 20
1.417261868958215
 10
20.76598756706431
 20
1.416701288504331
 10
20.76746076516408
 20
1.416174720743866
 10
20.76890154492841
 20
1.415682306089359
 10
20.76877516004928
 20
1.41529573514018
 42
0.224340342016521
 10
21.0811817180422
 20
1.454654808832418
 10
21.08164499999995
 20
1.453927
 10
22.89109599999998
 20
3.270990000000001
 10
22.89109580452409
 20
3.270990605194479
 42
0.3637220944422169
 10
22.91323227755116
 20
3.528968680840201
  0
LWPOLYLINE
  5
352E
330
1F
100
AcDbEntity
  8
NOCUT
100
AcDbPolyline
 90
       14
 70
     1
 43
0.0
 10
21.75000000000003
 20
1.924163999999988
 10
21.75000000000003
 20
0.0
 10
0.0
 20
0.0
 10
-0.0000000000000284
 20
3.116265999999998
 10
-0.0000000000000284
 20
6.5
 10
1.999999999999971
 20
6.5
 10
10.99999999999997
 20
6.5
 10
10.99999999999997
 20
7.063048999999997
 10
12.74999999999997
 20
7.699999999999997
 10
17.57886199999999
 20
7.699999999999997
 10
21.60711499999994
 20
4.319894999999998
 10
21.60711504922254
 20
4.31989477276007
 42
-0.2216946580651647
 10
21.74999999999993
 20
4.013477000000002
 10
21.74999999999997
 20
1.924163
  0
MTEXT
  5
35F3
330
1F
100
AcDbEntity
  8
SK6
100
AcDbMText
 10
-21.31056373127171
 20
-24.53155462515491
 30
0.0
 40
3.499999999999998
 41
49.985681658468
 71
     1
 72
     1
  1
12N8D016023X5R00
 73
     1
 44
1.0
1001
ACAD
1000
MTEXTBEGIN
1070
    73
1070
     1
1070
    44
1040
1.0
1070
    74
1070
     0
1000
MTEXTEND
  0
VIEWPORT
  5
34
102
{ACAD_XDICTIONARY
360
3606
102
}
330
73
100
AcDbEntity
 67
     1
  8
0
 62
     0
370
     0
100
AcDbViewport
 10
0.0
 20
0.0
 30
0.0
 40
1000.0
 41
1000.0
 68
     1
 69
     1
 12
0.0
 22
0.0
 13
0.0
 23
0.0
 14
1.0
 24
1.0
 15
1.0
 25
1.0
 16
0.0
 26
0.0
 36
1.0
 17
0.0
 27
0.0
 37
0.0
 42
50.0
 43
0.0
 44
0.0
 45
1000.0
 50
0.0
 51
0.0
 72
   100
 90
   557056
  1

281
     0
 71
     0
 74
     0
110
0.0
120
0.0
130
0.0
111
1.0
121
0.0
131
0.0
112
0.0
122
1.0
132
0.0
 79
     0
146
0.0
  0
ENDSEC
  0
SECTION
  2
OBJECTS
  0
DICTIONARY
  5
C
330
0
100
AcDbDictionary
281
     1
  3
ACAD_2007HEADERVARS_RT
350
3601
  3
ACAD_CIP_PREVIOUS_PRODUCT_INFO
350
350A
  3
ACAD_COLOR
350
6C
  3
ACAD_DETAILVIEWSTYLE
350
3506
  3
ACAD_GROUP
350
D
  3
ACAD_LAYOUT
350
1A
  3
ACAD_MATERIAL
350
6B
  3
ACAD_MLEADERSTYLE
350
2C9
  3
ACAD_MLINESTYLE
350
17
  3
ACAD_PLOTSETTINGS
350
19
  3
ACAD_PLOTSTYLENAME
350
E
  3
ACAD_SCALELIST
350
99
  3
ACAD_SECTIONVIEWSTYLE
350
3504
  3
ACAD_TABLESTYLE
350
92
  3
ACAD_VISUALSTYLE
350
2A0
  3
ACAD_WIPEOUT_VARS
350
3497
  3
ACDB_RECOMPOSE_DATA
350
35FF
  3
ACDBHEADERROUNDTRIPXREC
350
34C9
  3
AcDbVariableDictionary
350
35F4
  3
ASE_INDEX_DICTIONARY
350
A41
  3
DWGPROPS
350
3600
  0
DICTIONARY
  5
3498
330
2
100
AcDbDictionary
280
     1
281
     1
  3
ACAD_LAYERSTATES
360
62D
  0
DICTIONARY
  5
348C
330
10
100
AcDbDictionary
280
     1
281
     1
  3
ADSK_XREC_LAYER_RECONCILED
360
A32
  0
DICTIONARY
  5
348D
330
5FF
100
AcDbDictionary
280
     1
281
     1
  3
ADSK_XREC_LAYER_RECONCILED
360
A33
  0
DICTIONARY
  5
348E
330
601
100
AcDbDictionary
280
     1
281
     1
  3
ADSK_XREC_LAYER_RECONCILED
360
A34
  0
DICTIONARY
  5
348F
330
603
100
AcDbDictionary
280
     1
281
     1
  3
ADSK_XREC_LAYER_RECONCILED
360
A35
  0
DICTIONARY
  5
3490
330
607
100
AcDbDictionary
280
     1
281
     1
  3
ADSK_XREC_LAYER_RECONCILED
360
A36
  0
DICTIONARY
  5
3491
330
609
100
AcDbDictionary
280
     1
281
     1
  3
ADSK_XREC_LAYER_RECONCILED
360
A37
  0
DICTIONARY
  5
3492
330
60B
100
AcDbDictionary
280
     1
281
     1
  3
ADSK_XREC_LAYER_RECONCILED
360
A38
  0
DICTIONARY
  5
3493
330
60D
100
AcDbDictionary
280
     1
281
     1
  3
ADSK_XREC_LAYER_RECONCILED
360
A39
  0
DICTIONARY
  5
3494
330
60F
100
AcDbDictionary
280
     1
281
     1
  3
ADSK_XREC_LAYER_RECONCILED
360
A3A
  0
DICTIONARY
  5
3495
330
611
100
AcDbDictionary
280
     1
281
     1
  3
ADSK_XREC_LAYER_RECONCILED
360
A3B
  0
DICTIONARY
  5
3496
330
614
100
AcDbDictionary
280
     1
281
     1
  3
ADSK_XREC_LAYER_RECONCILED
360
A3D
  0
DICTIONARY
  5
34C6
330
1F
100
AcDbDictionary
280
     1
281
     1
  3
ACAD_SORTENTS
360
34C7
  0
DICTIONARY
  5
3606
330
34
100
AcDbDictionary
280
     1
281
     1
  3
ACAD_XREC_ROUNDTRIP
360
3607
  0
DICTIONARY
  5
3601
102
{ACAD_REACTORS
330
C
102
}
330
C
100
AcDbDictionary
281
     1
  3
DIMFXL
350
3602
  3
DIMJOGANG
350
3603
  0
XRECORD
  5
350A
102
{ACAD_REACTORS
330
C
102
}
330
C
100
AcDbXrecord
280
     1
300
ACDLT
300
2015
300
ACDLT_F_S
  0
DICTIONARY
  5
6C
102
{ACAD_REACTORS
330
C
102
}
330
C
100
AcDbDictionary
281
     1
  0
DICTIONARY
  5
3506
102
{ACAD_REACTORS
330
C
102
}
330
C
100
AcDbDictionary
281
     1
  3
METRIC50
350
3507
  0
DICTIONARY
  5
D
102
{ACAD_REACTORS
330
C
102
}
330
C
100
AcDbDictionary
281
     1
  0
DICTIONARY
  5
1A
102
{ACAD_REACTORS
330
C
102
}
330
C
100
AcDbDictionary
281
     1
  3
Layout1
350
74
  3
Model
350
22
  0
DICTIONARY
  5
6B
102
{ACAD_REACTORS
330
C
102
}
330
C
100
AcDbDictionary
281
     1
  3
ByBlock
350
34DA
  3
ByLayer
350
34D2
  3
Global
350
34E2
  0
DICTIONARY
  5
2C9
102
{ACAD_REACTORS
330
C
102
}
330
C
100
AcDbDictionary
281
     1
  3
Standard
350
3503
  0
DICTIONARY
  5
17
102
{ACAD_REACTORS
330
C
102
}
330
C
100
AcDbDictionary
281
     1
  3
Standard
350
18
  0
DICTIONARY
  5
19
102
{ACAD_REACTORS
330
C
102
}
330
C
100
AcDbDictionary
281
     1
  0
ACDBDICTIONARYWDFLT
  5
E
102
{ACAD_REACTORS
330
C
102
}
330
C
100
AcDbDictionary
281
     1
  3
Normal
350
F
100
AcDbDictionaryWithDefault
340
F
  0
DICTIONARY
  5
99
102
{ACAD_REACTORS
330
C
102
}
330
C
100
AcDbDictionary
281
     1
  3
A0
350
9A
  3
A1
350
9B
  3
A2
350
9C
  3
A3
350
9D
  3
A4
350
9E
  3
A5
350
9F
  3
A6
350
A0
  3
A7
350
A1
  3
A8
350
A2
  3
A9
350
A3
  3
B0
350
A4
  3
B1
350
A5
  3
B2
350
A6
  3
B3
350
A7
  3
B4
350
A8
  3
B5
350
A9
  3
B6
350
AA
  3
B7
350
AB
  3
B8
350
AC
  3
B9
350
AD
  3
C0
350
AE
  3
C1
350
AF
  3
C2
350
B0
  3
C3
350
B1
  3
C4
350
B2
  3
C5
350
B3
  3
C6
350
B4
  3
C7
350
B5
  3
C8
350
B6
  3
C9
350
B7
  3
D0
350
B8
  3
D1
350
B9
  3
D2
350
BA
  0
DICTIONARY
  5
3504
102
{ACAD_REACTORS
330
C
102
}
330
C
100
AcDbDictionary
281
     1
  3
METRIC50
350
3505
  0
DICTIONARY
  5
92
102
{ACAD_REACTORS
330
C
102
}
330
C
100
AcDbDictionary
281
     1
  3
Standard
350
3502
  0
DICTIONARY
  5
2A0
102
{ACAD_REACTORS
330
C
102
}
330
C
100
AcDbDictionary
281
     1
  3
2dWireframe
350
34EF
  3
Basic
350
34EE
  3
Brighten
350
34F5
  3
ColorChange
350
34F9
  3
Conceptual
350
34F2
  3
Dim
350
34F4
  3
EdgeColorOff
350
3501
  3
Facepattern
350
34F8
  3
Flat
350
34EA
  3
FlatWithEdges
350
34EB
  3
Gouraud
350
34EC
  3
GouraudWithEdges
350
34ED
  3
Hidden
350
34F1
  3
JitterOff
350
34FF
  3
Linepattern
350
34F7
  3
OverhangOff
350
3500
  3
Realistic
350
34F3
  3
Shaded
350
34FE
  3
Shaded with edges
350
34FD
  3
Shades of Gray
350
34FA
  3
Sketchy
350
34FB
  3
Thicken
350
34F6
  3
Wireframe
350
34F0
  3
X-Ray
350
34FC
  0
WIPEOUTVARIABLES
  5
3497
102
{ACAD_REACTORS
330
C
102
}
330
C
100
AcDbWipeoutVariables
 70
     1
  0
XRECORD
  5
35FF
102
{ACAD_REACTORS
330
C
102
}
330
C
100
AcDbXrecord
280
     1
 90
        1
330
3502
  0
DICTIONARY
  5
34C9
102
{ACAD_REACTORS
330
C
102
}
330
C
100
AcDbDictionary
281
     1
  3
COLORDICT
350
34CA
  3
MATERIALDICT
350
34CB
  0
DICTIONARY
  5
35F4
102
{ACAD_REACTORS
330
C
102
}
330
C
100
AcDbDictionary
281
     1
  3
CANNOSCALE
350
35F9
  3
CMLEADERSTYLE
350
35F6
  3
CTABLESTYLE
350
35F5
  3
CVIEWDETAILSTYLE
350
35F7
  3
CVIEWSECTIONSTYLE
350
35F8
  3
DIMASSOC
350
35FC
  3
INDEXCTL
350
35FB
  3
SORTENTS
350
35FA
  3
XCLIPFRAME
350
35FD
  0
DICTIONARY
  5
A41
102
{ACAD_REACTORS
330
C
102
}
330
C
100
AcDbDictionary
281
     1
  3
ASEBLOCKHIERARCHYINDEXRECORD
350
A42
  0
XRECORD
  5
3600
102
{ACAD_REACTORS
330
C
102
}
330
C
100
AcDbXrecord
280
     1
  1
DWGPROPS COOKIE
  2

  3

  4

  6

  7

  8
ruebsamenm
  9

300
=
301
=
302
=
303
=
304
=
305
=
306
=
307
=
308
=
309
=
 40
0.1183424421296296
 41
2453353.800459155
 42
2460185.65028735
  1

 90
        0
  0
DICTIONARY
  5
62D
102
{ACAD_REACTORS
330
3498
102
}
330
3498
100
AcDbDictionary
281
     1
  3
_LAYISO_STATE
350
B87
  0
XRECORD
  5
A32
102
{ACAD_REACTORS
330
348C
102
}
330
348C
100
AcDbXrecord
280
     1
290
     1
  0
XRECORD
  5
A33
102
{ACAD_REACTORS
330
348D
102
}
330
348D
100
AcDbXrecord
280
     1
290
     1
  0
XRECORD
  5
A34
102
{ACAD_REACTORS
330
348E
102
}
330
348E
100
AcDbXrecord
280
     1
290
     1
  0
XRECORD
  5
A35
102
{ACAD_REACTORS
330
348F
102
}
330
348F
100
AcDbXrecord
280
     1
290
     1
  0
XRECORD
  5
A36
102
{ACAD_REACTORS
330
3490
102
}
330
3490
100
AcDbXrecord
280
     1
290
     1
  0
XRECORD
  5
A37
102
{ACAD_REACTORS
330
3491
102
}
330
3491
100
AcDbXrecord
280
     1
290
     1
  0
XRECORD
  5
A38
102
{ACAD_REACTORS
330
3492
102
}
330
3492
100
AcDbXrecord
280
     1
290
     1
  0
XRECORD
  5
A39
102
{ACAD_REACTORS
330
3493
102
}
330
3493
100
AcDbXrecord
280
     1
290
     1
  0
XRECORD
  5
A3A
102
{ACAD_REACTORS
330
3494
102
}
330
3494
100
AcDbXrecord
280
     1
290
     1
  0
XRECORD
  5
A3B
102
{ACAD_REACTORS
330
3495
102
}
330
3495
100
AcDbXrecord
280
     1
290
     1
  0
XRECORD
  5
A3D
102
{ACAD_REACTORS
330
3496
102
}
330
3496
100
AcDbXrecord
280
     1
290
     1
  0
SORTENTSTABLE
  5
34C7
102
{ACAD_REACTORS
330
34C6
102
}
330
34C6
100
AcDbSortentsTable
330
1F
331
352E
  5
3019
331
3525
  5
3523
  0
XRECORD
  5
3607
102
{ACAD_REACTORS
330
3606
102
}
330
3606
100
AcDbXrecord
280
     1
102
SHADEPLOT
 70
     0
  0
XRECORD
  5
3602
102
{ACAD_REACTORS
330
3601
102
}
330
3601
100
AcDbXrecord
280
     1
 40
1.25
  0
XRECORD
  5
3603
102
{ACAD_REACTORS
330
3601
102
}
330
3601
100
AcDbXrecord
280
     1
 40
1.570796326794896
  0
ACDBDETAILVIEWSTYLE
  5
3507
102
{ACAD_XDICTIONARY
360
363D
102
}
102
{ACAD_REACTORS
330
3506
102
}
330
3506
100
AcDbModelDocViewStyle
 70
     0
  3
Metric50
290
     0
100
AcDbDetailViewStyle
 70
     0
 71
     0
 90
        3
 71
     1
340
11
 40
5.0
340
0
 40
5.0
300

 40
0.0
280
     1
 71
     2
340
16
 90
       25
 71
     3
340
11
 40
5.0
 90
        0
 40
15.0
 90
        1
300
%<\AcVar ViewDetailId>% (%<\AcVar ViewScale \f "%sn">%)
 71
     4
340
16
 90
       25
340
16
 90
       25
280
     0
  0
LAYOUT
  5
74
102
{ACAD_XDICTIONARY
360
3608
102
}
102
{ACAD_REACTORS
330
1A
102
}
330
1A
100
AcDbPlotSettings
  1

  2
none_device
  4
Letter_(8.50_x_11.00_Inches)
  6

 40
6.349999999999998
 41
6.349999999999998
 42
6.350005079999998
 43
6.350005079999998
 44
215.9
 45
279.4
 46
0.0
 47
0.0
 48
0.0
 49
0.0
140
0.0
141
0.0
142
1.0
143
1.0
 70
   544
 72
     0
 73
     0
 74
     0
  7

 75
    16
147
1.0
148
0.0
149
0.0
100
AcDbLayout
  1
Layout1
 70
     1
 71
     1
 10
0.0
 20
0.0
 11
420.0
 21
297.0
 12
0.0
 22
0.0
 32
0.0
 14
0.0
 24
0.0
 34
0.0
 15
281.007629
 25
92.32476
 35
2.0
146
0.0
 13
0.0
 23
0.0
 33
0.0
 16
1.0
 26
0.0
 36
0.0
 17
0.0
 27
1.0
 37
0.0
 76
     0
330
73
331
34
  0
LAYOUT
  5
22
102
{ACAD_XDICTIONARY
360
3604
102
}
102
{ACAD_REACTORS
330
1A
102
}
330
1A
100
AcDbPlotSettings
  1

  2
none_device
  4
Letter_(8.50_x_11.00_Inches)
  6

 40
6.349999999999998
 41
6.349999999999998
 42
6.350005079999998
 43
6.350005079999998
 44
215.9
 45
279.4
 46
0.0
 47
0.0
 48
0.0
 49
0.0
140
0.0
141
0.0
142
1.0
143
1.0
 70
 11936
 72
     0
 73
     0
 74
     0
  7

 75
     0
147
0.0342362219598424
148
0.0
149
0.0
100
AcDbLayout
  1
Model
 70
     1
 71
     0
 10
0.0
 20
0.0
 11
420.0
 21
297.0
 12
0.0
 22
0.0
 32
0.0
 14
-87.32631117866217
 24
-49.91335444515192
 34
0.0
 15
86.73532450390132
 25
74.446036276732
 35
0.0
146
0.0
 13
0.0
 23
0.0
 33
0.0
 16
1.0
 26
0.0
 36
0.0
 17
0.0
 27
1.0
 37
0.0
 76
     0
330
1F
331
97
  0
MATERIAL
  5
34DA
102
{ACAD_XDICTIONARY
360
34DB
102
}
102
{ACAD_REACTORS
330
6B
102
}
330
6B
100
AcDbMaterial
  1
ByBlock
 72
     0
 43
0.0208333333333333
 43
0.0
 43
0.0
 43
0.0
 43
0.0
 43
0.0208333333333333
 43
0.0
 43
0.0
 43
0.0
 43
0.0
 43
1.0
 43
0.0
 43
0.0
 43
0.0
 43
0.0
 43
1.0
 77
     0
 47
0.0208333333333333
 47
0.0
 47
0.0
 47
0.0
 47
0.0
 47
0.0208333333333333
 47
0.0
 47
0.0
 47
0.0
 47
0.0
 47
1.0
 47
0.0
 47
0.0
 47
0.0
 47
0.0
 47
1.0
171
     0
 49
0.0208333333333333
 49
0.0
 49
0.0
 49
0.0
 49
0.0
 49
0.0208333333333333
 49
0.0
 49
0.0
 49
0.0
 49
0.0
 49
1.0
 49
0.0
 49
0.0
 49
0.0
 49
0.0
 49
1.0
175
     0
142
0.0208333333333333
142
0.0
142
0.0
142
0.0
142
0.0
142
0.0208333333333333
142
0.0
142
0.0
142
0.0
142
0.0
142
1.0
142
0.0
142
0.0
142
0.0
142
0.0
142
1.0
179
     0
144
0.0208333333333333
144
0.0
144
0.0
144
0.0
144
0.0
144
0.0208333333333333
144
0.0
144
0.0
144
0.0
144
0.0
144
1.0
144
0.0
144
0.0
144
0.0
144
0.0
144
1.0
147
0.0208333333333333
147
0.0
147
0.0
147
0.0
147
0.0
147
0.0208333333333333
147
0.0
147
0.0
147
0.0
147
0.0
147
1.0
147
0.0
147
0.0
147
0.0
147
0.0
147
1.0
  0
MATERIAL
  5
34D2
102
{ACAD_XDICTIONARY
360
34D3
102
}
102
{ACAD_REACTORS
330
6B
102
}
330
6B
100
AcDbMaterial
  1
ByLayer
 72
     0
 43
0.0208333333333333
 43
0.0
 43
0.0
 43
0.0
 43
0.0
 43
0.0208333333333333
 43
0.0
 43
0.0
 43
0.0
 43
0.0
 43
1.0
 43
0.0
 43
0.0
 43
0.0
 43
0.0
 43
1.0
 77
     0
 47
0.0208333333333333
 47
0.0
 47
0.0
 47
0.0
 47
0.0
 47
0.0208333333333333
 47
0.0
 47
0.0
 47
0.0
 47
0.0
 47
1.0
 47
0.0
 47
0.0
 47
0.0
 47
0.0
 47
1.0
171
     0
 49
0.0208333333333333
 49
0.0
 49
0.0
 49
0.0
 49
0.0
 49
0.0208333333333333
 49
0.0
 49
0.0
 49
0.0
 49
0.0
 49
1.0
 49
0.0
 49
0.0
 49
0.0
 49
0.0
 49
1.0
175
     0
142
0.0208333333333333
142
0.0
142
0.0
142
0.0
142
0.0
142
0.0208333333333333
142
0.0
142
0.0
142
0.0
142
0.0
142
1.0
142
0.0
142
0.0
142
0.0
142
0.0
142
1.0
179
     0
144
0.0208333333333333
144
0.0
144
0.0
144
0.0
144
0.0
144
0.0208333333333333
144
0.0
144
0.0
144
0.0
144
0.0
144
1.0
144
0.0
144
0.0
144
0.0
144
0.0
144
1.0
147
0.0208333333333333
147
0.0
147
0.0
147
0.0
147
0.0
147
0.0208333333333333
147
0.0
147
0.0
147
0.0
147
0.0
147
1.0
147
0.0
147
0.0
147
0.0
147
0.0
147
1.0
  0
MATERIAL
  5
34E2
102
{ACAD_XDICTIONARY
360
34E3
102
}
102
{ACAD_REACTORS
330
6B
102
}
330
6B
100
AcDbMaterial
  1
Global
 72
     0
 43
0.0208333333333333
 43
0.0
 43
0.0
 43
0.0
 43
0.0
 43
0.0208333333333333
 43
0.0
 43
0.0
 43
0.0
 43
0.0
 43
1.0
 43
0.0
 43
0.0
 43
0.0
 43
0.0
 43
1.0
 77
     0
 47
0.0208333333333333
 47
0.0
 47
0.0
 47
0.0
 47
0.0
 47
0.0208333333333333
 47
0.0
 47
0.0
 47
0.0
 47
0.0
 47
1.0
 47
0.0
 47
0.0
 47
0.0
 47
0.0
 47
1.0
171
     0
 49
0.0208333333333333
 49
0.0
 49
0.0
 49
0.0
 49
0.0
 49
0.0208333333333333
 49
0.0
 49
0.0
 49
0.0
 49
0.0
 49
1.0
 49
0.0
 49
0.0
 49
0.0
 49
0.0
 49
1.0
175
     0
142
0.0208333333333333
142
0.0
142
0.0
142
0.0
142
0.0
142
0.0208333333333333
142
0.0
142
0.0
142
0.0
142
0.0
142
1.0
142
0.0
142
0.0
142
0.0
142
0.0
142
1.0
179
     0
144
0.0208333333333333
144
0.0
144
0.0
144
0.0
144
0.0
144
0.0208333333333333
144
0.0
144
0.0
144
0.0
144
0.0
144
1.0
144
0.0
144
0.0
144
0.0
144
0.0
144
1.0
147
0.0208333333333333
147
0.0
147
0.0
147
0.0
147
0.0
147
0.0208333333333333
147
0.0
147
0.0
147
0.0
147
0.0
147
1.0
147
0.0
147
0.0
147
0.0
147
0.0
147
1.0
  0
MLEADERSTYLE
  5
3503
102
{ACAD_REACTORS
330
2C9
102
}
330
2C9
100
AcDbMLeaderStyle
170
     2
171
     1
172
     0
 90
        2
 40
0.0
 41
0.0
173
     1
 91
-1056964608
340
14
 92
       -2
290
     1
 42
2.0
291
     1
 43
0.36
  3
Standard
 44
4.0
300

342
11
174
     1
178
     6
175
     1
176
     0
 93
-1056964608
 45
4.0
292
     0
297
     0
 46
4.0
 94
-1056964608
 47
1.0
 49
1.0
140
1.0
293
     1
141
0.0
294
     1
177
     0
142
1.0
295
     0
296
     0
143
0.125
1001
ACAD_MLEADERVER
1070
     2
  0
MLINESTYLE
  5
18
102
{ACAD_REACTORS
330
17
102
}
330
17
100
AcDbMlineStyle
  2
STANDARD
 70
     0
  3

 62
     0
 51
90.0
 52
90.0
 71
     2
 49
0.5
 62
   256
  6
BYLAYER
 49
-0.5
 62
   256
  6
BYLAYER
  0
ACDBPLACEHOLDER
  5
F
102
{ACAD_REACTORS
330
E
102
}
330
E
  0
SCALE
  5
9A
102
{ACAD_REACTORS
330
99
102
}
330
99
100
AcDbScale
 70
     0
300
1:1
140
1.0
141
1.0
290
     1
  0
SCALE
  5
9B
102
{ACAD_REACTORS
330
99
102
}
330
99
100
AcDbScale
 70
     0
300
1:2
140
1.0
141
2.0
290
     0
  0
SCALE
  5
9C
102
{ACAD_REACTORS
330
99
102
}
330
99
100
AcDbScale
 70
     0
300
1:4
140
1.0
141
4.0
290
     0
  0
SCALE
  5
9D
102
{ACAD_REACTORS
330
99
102
}
330
99
100
AcDbScale
 70
     0
300
1:5
140
1.0
141
5.0
290
     0
  0
SCALE
  5
9E
102
{ACAD_REACTORS
330
99
102
}
330
99
100
AcDbScale
 70
     0
300
1:8
140
1.0
141
8.0
290
     0
  0
SCALE
  5
9F
102
{ACAD_REACTORS
330
99
102
}
330
99
100
AcDbScale
 70
     0
300
1:10
140
1.0
141
10.0
290
     0
  0
SCALE
  5
A0
102
{ACAD_REACTORS
330
99
102
}
330
99
100
AcDbScale
 70
     0
300
1:16
140
1.0
141
16.0
290
     0
  0
SCALE
  5
A1
102
{ACAD_REACTORS
330
99
102
}
330
99
100
AcDbScale
 70
     0
300
1:20
140
1.0
141
20.0
290
     0
  0
SCALE
  5
A2
102
{ACAD_REACTORS
330
99
102
}
330
99
100
AcDbScale
 70
     0
300
1:30
140
1.0
141
30.0
290
     0
  0
SCALE
  5
A3
102
{ACAD_REACTORS
330
99
102
}
330
99
100
AcDbScale
 70
     0
300
1:40
140
1.0
141
40.0
290
     0
  0
SCALE
  5
A4
102
{ACAD_REACTORS
330
99
102
}
330
99
100
AcDbScale
 70
     0
300
1:50
140
1.0
141
50.0
290
     0
  0
SCALE
  5
A5
102
{ACAD_REACTORS
330
99
102
}
330
99
100
AcDbScale
 70
     0
300
1:100
140
1.0
141
100.0
290
     0
  0
SCALE
  5
A6
102
{ACAD_REACTORS
330
99
102
}
330
99
100
AcDbScale
 70
     0
300
2:1
140
2.0
141
1.0
290
     0
  0
SCALE
  5
A7
102
{ACAD_REACTORS
330
99
102
}
330
99
100
AcDbScale
 70
     0
300
4:1
140
4.0
141
1.0
290
     0
  0
SCALE
  5
A8
102
{ACAD_REACTORS
330
99
102
}
330
99
100
AcDbScale
 70
     0
300
8:1
140
8.0
141
1.0
290
     0
  0
SCALE
  5
A9
102
{ACAD_REACTORS
330
99
102
}
330
99
100
AcDbScale
 70
     0
300
10:1
140
10.0
141
1.0
290
     0
  0
SCALE
  5
AA
102
{ACAD_REACTORS
330
99
102
}
330
99
100
AcDbScale
 70
     0
300
100:1
140
100.0
141
1.0
290
     0
  0
SCALE
  5
AB
102
{ACAD_REACTORS
330
99
102
}
330
99
100
AcDbScale
 70
     0
300
1/128" = 1'-0"
140
0.0078125
141
12.0
290
     0
  0
SCALE
  5
AC
102
{ACAD_REACTORS
330
99
102
}
330
99
100
AcDbScale
 70
     0
300
1/64" = 1'-0"
140
0.015625
141
12.0
290
     0
  0
SCALE
  5
AD
102
{ACAD_REACTORS
330
99
102
}
330
99
100
AcDbScale
 70
     0
300
1/32" = 1'-0"
140
0.03125
141
12.0
290
     0
  0
SCALE
  5
AE
102
{ACAD_REACTORS
330
99
102
}
330
99
100
AcDbScale
 70
     0
300
1/16" = 1'-0"
140
0.0625
141
12.0
290
     0
  0
SCALE
  5
AF
102
{ACAD_REACTORS
330
99
102
}
330
99
100
AcDbScale
 70
     0
300
3/32" = 1'-0"
140
0.09375
141
12.0
290
     0
  0
SCALE
  5
B0
102
{ACAD_REACTORS
330
99
102
}
330
99
100
AcDbScale
 70
     0
300
1/8" = 1'-0"
140
0.125
141
12.0
290
     0
  0
SCALE
  5
B1
102
{ACAD_REACTORS
330
99
102
}
330
99
100
AcDbScale
 70
     0
300
3/16" = 1'-0"
140
0.1875
141
12.0
290
     0
  0
SCALE
  5
B2
102
{ACAD_REACTORS
330
99
102
}
330
99
100
AcDbScale
 70
     0
300
1/4" = 1'-0"
140
0.25
141
12.0
290
     0
  0
SCALE
  5
B3
102
{ACAD_REACTORS
330
99
102
}
330
99
100
AcDbScale
 70
     0
300
3/8" = 1'-0"
140
0.375
141
12.0
290
     0
  0
SCALE
  5
B4
102
{ACAD_REACTORS
330
99
102
}
330
99
100
AcDbScale
 70
     0
300
1/2" = 1'-0"
140
0.5
141
12.0
290
     0
  0
SCALE
  5
B5
102
{ACAD_REACTORS
330
99
102
}
330
99
100
AcDbScale
 70
     0
300
3/4" = 1'-0"
140
0.75
141
12.0
290
     0
  0
SCALE
  5
B6
102
{ACAD_REACTORS
330
99
102
}
330
99
100
AcDbScale
 70
     0
300
1" = 1'-0"
140
1.0
141
12.0
290
     0
  0
SCALE
  5
B7
102
{ACAD_REACTORS
330
99
102
}
330
99
100
AcDbScale
 70
     0
300
1-1/2" = 1'-0"
140
1.5
141
12.0
290
     0
  0
SCALE
  5
B8
102
{ACAD_REACTORS
330
99
102
}
330
99
100
AcDbScale
 70
     0
300
3" = 1'-0"
140
3.0
141
12.0
290
     0
  0
SCALE
  5
B9
102
{ACAD_REACTORS
330
99
102
}
330
99
100
AcDbScale
 70
     0
300
6" = 1'-0"
140
6.0
141
12.0
290
     0
  0
SCALE
  5
BA
102
{ACAD_REACTORS
330
99
102
}
330
99
100
AcDbScale
 70
     0
300
1'-0" = 1'-0"
140
12.0
141
12.0
290
     0
  0
ACDBSECTIONVIEWSTYLE
  5
3505
102
{ACAD_XDICTIONARY
360
363B
102
}
102
{ACAD_REACTORS
330
3504
102
}
330
3504
100
AcDbModelDocViewStyle
 70
     0
  3
Metric50
290
     0
100
AcDbSectionViewStyle
 70
     0
 71
     0
 90
      102
 71
     1
340
11
 40
5.0
340
0
340
0
 40
5.0
300
I, O, Q, S, X, Z
 40
10.0
 90
        0
 40
2.5
 90
        0
 71
     2
340
16
 90
       25
340
16
 90
       50
 40
5.0
 40
2.5
 40
5.0
 71
     3
340
11
 40
5.0
 90
        0
 40
15.0
 90
        1
300
%<\AcVar ViewSectionStartId>%-%<\AcVar ViewSectionEndId>% (%<\AcVar ViewScale \f "%sn">%)
 71
     4
300
ANSI31
 40
1.0
 90
        0
290
     0
290
     0
 90
        6
 40
0.0
 40
1.570796326794896
 40
0.2617993877991494
 40
1.308996938995747
 40
-0.2617993877991494
 40
1.832595714594045
  0
TABLESTYLE
  5
3502
102
{ACAD_XDICTIONARY
360
35A7
102
}
102
{ACAD_REACTORS
330
92
102
}
330
92
100
AcDbTableStyle
  3
Standard
 70
     0
 71
     0
 40
1.5
 41
1.5
280
     0
281
     0
  7
Standard
140
4.5
170
     2
 62
     0
 63
     7
283
     0
274
    -2
284
     1
 64
     0
275
    -2
285
     1
 65
     0
276
    -2
286
     1
 66
     0
277
    -2
287
     1
 67
     0
278
    -2
288
     1
 68
     0
279
    -2
289
     1
 69
     0
  7
Standard
140
6.0
170
     5
 62
     0
 63
     7
283
     0
274
    -2
284
     1
 64
     0
275
    -2
285
     1
 65
     0
276
    -2
286
     1
 66
     0
277
    -2
287
     1
 67
     0
278
    -2
288
     1
 68
     0
279
    -2
289
     1
 69
     0
  7
Standard
140
4.5
170
     5
 62
     0
 63
     7
283
     0
274
    -2
284
     1
 64
     0
275
    -2
285
     1
 65
     0
276
    -2
286
     1
 66
     0
277
    -2
287
     1
 67
     0
278
    -2
288
     1
 68
     0
279
    -2
289
     1
 69
     0
  0
VISUALSTYLE
  5
34EF
102
{ACAD_XDICTIONARY
360
3614
102
}
102
{ACAD_REACTORS
330
2A0
102
}
330
2A0
100
AcDbVisualStyle
  2

 70
     4
 71
     0
 72
     2
 73
     0
 90
        0
 40
-0.6
 41
-30.0
 62
     5
 63
     7
 74
     1
 91
        4
 64
     7
 65
   257
 75
     1
175
     1
 42
1.0
 92
        0
 66
   257
 43
1.0
 76
     1
 77
     6
 78
     2
 67
     7
 79
     5
170
     0
171
     0
290
     0
174
     0
 93
        1
 44
0.0
173
     0
291
     0
 45
0.0
1001
ACAD
1000
AcDbSavedByObjectVersion
1070
     0
  0
VISUALSTYLE
  5
34EE
102
{ACAD_XDICTIONARY
360
3612
102
}
102
{ACAD_REACTORS
330
2A0
102
}
330
2A0
100
AcDbVisualStyle
  2

 70
     7
 71
     1
 72
     0
 73
     1
 90
        0
 40
-0.6
 41
-30.0
 62
     5
 63
     7
 74
     0
 91
        4
 64
     7
 65
   257
 75
     1
175
     1
 42
1.0
 92
        8
 66
     7
 43
1.0
 76
     1
 77
     6
 78
     2
 67
     7
 79
     5
170
     0
171
     0
290
     0
174
     0
 93
        1
 44
0.0
173
     0
291
     1
 45
0.0
1001
ACAD
1000
AcDbSavedByObjectVersion
1070
     0
  0
VISUALSTYLE
  5
34F5
102
{ACAD_XDICTIONARY
360
3620
102
}
102
{ACAD_REACTORS
330
2A0
102
}
330
2A0
100
AcDbVisualStyle
  2

 70
    12
 71
     2
 72
     2
 73
     0
 90
        0
 40
-0.6
 41
-30.0
 62
     5
 63
     7
 74
     1
 91
        4
 64
     7
 65
   257
 75
     1
175
     1
 42
1.0
 92
        8
 66
     7
 43
1.0
 76
     1
 77
     6
 78
     2
 67
     7
 79
     5
170
     0
171
     0
290
     0
174
     0
 93
        1
 44
50.0
173
     0
291
     1
 45
0.0
1001
ACAD
1000
AcDbSavedByObjectVersion
1070
     0
  0
VISUALSTYLE
  5
34F9
102
{ACAD_XDICTIONARY
360
3628
102
}
102
{ACAD_REACTORS
330
2A0
102
}
330
2A0
100
AcDbVisualStyle
  2

 70
    16
 71
     2
 72
     2
 73
     3
 90
        0
 40
-0.6
 41
-30.0
 62
     5
 63
     8
 74
     1
 91
        4
 64
     7
 65
   257
 75
     1
175
     1
 42
1.0
 92
        8
 66
     8
 43
1.0
 76
     1
 77
     6
 78
     2
 67
     7
 79
     5
170
     0
171
     0
290
     0
174
     0
 93
        1
 44
0.0
173
     0
291
     1
 45
0.0
1001
ACAD
1000
AcDbSavedByObjectVersion
1070
     0
  0
VISUALSTYLE
  5
34F2
102
{ACAD_XDICTIONARY
360
361A
102
}
102
{ACAD_REACTORS
330
2A0
102
}
330
2A0
100
AcDbVisualStyle
  2

 70
     9
 71
     3
 72
     2
 73
     0
 90
        0
 40
-0.6
 41
-30.0
 62
     5
 63
     7
 74
     2
 91
        2
 64
     7
 65
   257
 75
     1
175
     1
 42
179.0
 92
        8
 66
     7
 43
1.0
 76
     1
 77
     6
 78
     2
 67
     7
 79
     3
170
     0
171
     0
290
     0
174
     0
 93
        1
 44
0.0
173
     0
291
     0
 45
0.0
1001
ACAD
1000
AcDbSavedByObjectVersion
1070
     0
  0
VISUALSTYLE
  5
34F4
102
{ACAD_XDICTIONARY
360
361E
102
}
102
{ACAD_REACTORS
330
2A0
102
}
330
2A0
100
AcDbVisualStyle
  2

 70
    11
 71
     2
 72
     2
 73
     0
 90
        0
 40
-0.6
 41
-30.0
 62
     5
 63
     7
 74
     1
 91
        4
 64
     7
 65
   257
 75
     1
175
     1
 42
1.0
 92
        8
 66
     7
 43
1.0
 76
     1
 77
     6
 78
     2
 67
     7
 79
     5
170
     0
171
     0
290
     0
174
     0
 93
        1
 44
-50.0
173
     0
291
     1
 45
0.0
1001
ACAD
1000
AcDbSavedByObjectVersion
1070
     0
  0
VISUALSTYLE
  5
3501
102
{ACAD_XDICTIONARY
360
3638
102
}
102
{ACAD_REACTORS
330
2A0
102
}
330
2A0
100
AcDbVisualStyle
  2

 70
    22
 71
     2
 72
     2
 73
     0
 90
        0
 40
-0.6
 41
-30.0
 62
     5
 63
     7
 74
     1
 91
        4
 64
     7
 65
   257
 75
     1
175
     1
 42
1.0
 92
        8
 66
     7
 43
1.0
 76
     1
 77
     6
 78
     2
 67
     7
 79
     5
170
     0
171
     0
290
     0
174
     0
 93
        1
 44
0.0
173
     0
291
     1
 45
0.0
1001
ACAD
1000
AcDbSavedByObjectVersion
1070
     0
  0
VISUALSTYLE
  5
34F8
102
{ACAD_XDICTIONARY
360
3626
102
}
102
{ACAD_REACTORS
330
2A0
102
}
330
2A0
100
AcDbVisualStyle
  2

 70
    15
 71
     2
 72
     2
 73
     0
 90
        0
 40
-0.6
 41
-30.0
 62
     5
 63
     7
 74
     1
 91
        4
 64
     7
 65
   257
 75
     1
175
     1
 42
1.0
 92
        8
 66
     7
 43
1.0
 76
     1
 77
     6
 78
     2
 67
     7
 79
     5
170
     0
171
     0
290
     0
174
     0
 93
        1
 44
0.0
173
     0
291
     1
 45
0.0
1001
ACAD
1000
AcDbSavedByObjectVersion
1070
     0
  0
VISUALSTYLE
  5
34EA
102
{ACAD_XDICTIONARY
360
360A
102
}
102
{ACAD_REACTORS
330
2A0
102
}
330
2A0
100
AcDbVisualStyle
  2

 70
     0
 71
     2
 72
     1
 73
     1
 90
        2
 40
-0.6
 41
30.0
 62
     5
 63
     7
 74
     0
 91
        0
 64
     7
 65
   257
 75
     1
175
     1
 42
1.0
 92
        8
 66
     7
 43
1.0
 76
     1
 77
     6
 78
     2
 67
     7
 79
     5
170
     0
171
     0
290
     0
174
     0
 93
       13
 44
0.0
173
     0
291
     1
 45
0.0
1001
ACAD
1000
AcDbSavedByObjectVersion
1070
     0
  0
VISUALSTYLE
  5
34EB
102
{ACAD_XDICTIONARY
360
360C
102
}
102
{ACAD_REACTORS
330
2A0
102
}
330
2A0
100
AcDbVisualStyle
  2

 70
     1
 71
     2
 72
     1
 73
     1
 90
        2
 40
-0.6
 41
30.0
 62
     5
 63
     7
 74
     1
 91
        0
 64
     7
 65
   257
 75
     1
175
     1
 42
1.0
 92
        0
 66
   257
 43
1.0
 76
     1
 77
     6
 78
     2
 67
     7
 79
     5
170
     0
171
     0
290
     0
174
     0
 93
       13
 44
0.0
173
     0
291
     1
 45
0.0
1001
ACAD
1000
AcDbSavedByObjectVersion
1070
     0
  0
VISUALSTYLE
  5
34EC
102
{ACAD_XDICTIONARY
360
360E
102
}
102
{ACAD_REACTORS
330
2A0
102
}
330
2A0
100
AcDbVisualStyle
  2

 70
     2
 71
     2
 72
     2
 73
     1
 90
        2
 40
-0.6
 41
30.0
 62
     5
 63
     7
 74
     0
 91
        0
 64
     7
 65
   257
 75
     1
175
     1
 42
1.0
 92
        0
 66
     7
 43
1.0
 76
     1
 77
     6
 78
     2
 67
     7
 79
     5
170
     0
171
     0
290
     0
174
     0
 93
       13
 44
0.0
173
     0
291
     1
 45
0.0
1001
ACAD
1000
AcDbSavedByObjectVersion
1070
     0
  0
VISUALSTYLE
  5
34ED
102
{ACAD_XDICTIONARY
360
3610
102
}
102
{ACAD_REACTORS
330
2A0
102
}
330
2A0
100
AcDbVisualStyle
  2

 70
     3
 71
     2
 72
     2
 73
     1
 90
        2
 40
-0.6
 41
30.0
 62
     5
 63
     7
 74
     1
 91
        0
 64
     7
 65
   257
 75
     1
175
     1
 42
1.0
 92
        0
 66
   257
 43
1.0
 76
     1
 77
     6
 78
     2
 67
     7
 79
     5
170
     0
171
     0
290
     0
174
     0
 93
       13
 44
0.0
173
     0
291
     1
 45
0.0
1001
ACAD
1000
AcDbSavedByObjectVersion
1070
     0
  0
VISUALSTYLE
  5
34F1
102
{ACAD_XDICTIONARY
360
3618
102
}
102
{ACAD_REACTORS
330
2A0
102
}
330
2A0
100
AcDbVisualStyle
  2

 70
     6
 71
     1
 72
     2
 73
     2
 90
        0
 40
-0.6
 41
-30.0
 62
     5
 63
     7
 74
     2
 91
        2
 64
     7
 65
   257
 75
     2
175
     1
 42
40.0
 92
        0
 66
   257
 43
1.0
 76
     1
 77
     6
 78
     2
 67
     7
 79
     3
170
     0
171
     0
290
     0
174
     0
 93
        1
 44
0.0
173
     0
291
     0
 45
0.0
1001
ACAD
1000
AcDbSavedByObjectVersion
1070
     0
  0
VISUALSTYLE
  5
34FF
102
{ACAD_XDICTIONARY
360
3634
102
}
102
{ACAD_REACTORS
330
2A0
102
}
330
2A0
100
AcDbVisualStyle
  2

 70
    20
 71
     2
 72
     2
 73
     0
 90
        0
 40
-0.6
 41
-30.0
 62
     5
 63
     7
 74
     1
 91
        4
 64
     7
 65
   257
 75
     1
175
     1
 42
1.0
 92
       10
 66
     7
 43
1.0
 76
     1
 77
     6
 78
     2
 67
     7
 79
     5
170
     0
171
     0
290
     0
174
     0
 93
        1
 44
0.0
173
     0
291
     1
 45
0.0
1001
ACAD
1000
AcDbSavedByObjectVersion
1070
     0
  0
VISUALSTYLE
  5
34F7
102
{ACAD_XDICTIONARY
360
3624
102
}
102
{ACAD_REACTORS
330
2A0
102
}
330
2A0
100
AcDbVisualStyle
  2

 70
    14
 71
     2
 72
     2
 73
     0
 90
        0
 40
-0.6
 41
-30.0
 62
     5
 63
     7
 74
     1
 91
        4
 64
     7
 65
   257
 75
     7
175
     7
 42
1.0
 92
        8
 66
     7
 43
1.0
 76
     1
 77
     6
 78
     2
 67
     7
 79
     5
170
     0
171
     0
290
     0
174
     0
 93
        1
 44
0.0
173
     0
291
     1
 45
0.0
1001
ACAD
1000
AcDbSavedByObjectVersion
1070
     0
  0
VISUALSTYLE
  5
3500
102
{ACAD_XDICTIONARY
360
3636
102
}
102
{ACAD_REACTORS
330
2A0
102
}
330
2A0
100
AcDbVisualStyle
  2

 70
    21
 71
     2
 72
     2
 73
     0
 90
        0
 40
-0.6
 41
-30.0
 62
     5
 63
     7
 74
     1
 91
        4
 64
     7
 65
   257
 75
     1
175
     1
 42
1.0
 92
        9
 66
     7
 43
1.0
 76
     1
 77
     6
 78
     2
 67
     7
 79
     5
170
     0
171
     0
290
     0
174
     0
 93
        1
 44
0.0
173
     0
291
     1
 45
0.0
1001
ACAD
1000
AcDbSavedByObjectVersion
1070
     0
  0
VISUALSTYLE
  5
34F3
102
{ACAD_XDICTIONARY
360
361C
102
}
102
{ACAD_REACTORS
330
2A0
102
}
330
2A0
100
AcDbVisualStyle
  2

 70
     8
 71
     2
 72
     3
 73
     0
 90
        2
 40
-0.6
 41
30.0
 62
     5
 63
     7
 74
     0
 91
        0
 64
     7
 65
   257
 75
     1
175
     1
 42
1.0
 92
        8
 66
   257
 43
1.0
 76
     1
 77
     6
 78
     2
 67
     7
 79
     3
170
     0
171
     0
290
     0
174
     0
 93
       13
 44
0.0
173
     0
291
     0
 45
0.0
1001
ACAD
1000
AcDbSavedByObjectVersion
1070
     0
  0
VISUALSTYLE
  5
34FE
102
{ACAD_XDICTIONARY
360
3632
102
}
102
{ACAD_REACTORS
330
2A0
102
}
330
2A0
100
AcDbVisualStyle
  2

 70
    27
 71
     2
 72
     2
 73
     1
 90
        2
 40
-0.6
 41
30.0
 62
     5
 63
     7
 74
     0
 91
        4
 64
     7
 65
   257
 75
     1
175
     1
 42
1.0
 92
        8
 66
   257
 43
1.0
 76
     1
 77
     6
 78
     2
 67
     8
 79
     3
170
     0
171
     0
290
     0
174
     0
 93
        5
 44
0.0
173
     0
291
     0
 45
0.0
1001
ACAD
1000
AcDbSavedByObjectVersion
1070
     0
  0
VISUALSTYLE
  5
34FD
102
{ACAD_XDICTIONARY
360
3630
102
}
102
{ACAD_REACTORS
330
2A0
102
}
330
2A0
100
AcDbVisualStyle
  2

 70
    26
 71
     2
 72
     2
 73
     1
 90
        2
 40
-0.6
 41
30.0
 62
     5
 63
     7
 74
     1
 91
        2
 64
     7
 65
   257
 75
     2
175
     1
 42
1.0
 92
        8
 66
   257
 43
1.0
 76
     1
 77
     6
 78
     2
 67
     7
 79
     3
170
     0
171
     0
290
     0
174
     0
 93
        5
 44
0.0
173
     0
291
     0
 45
0.0
1001
ACAD
1000
AcDbSavedByObjectVersion
1070
     0
  0
VISUALSTYLE
  5
34FA
102
{ACAD_XDICTIONARY
360
362A
102
}
102
{ACAD_REACTORS
330
2A0
102
}
330
2A0
100
AcDbVisualStyle
  2

 70
    23
 71
     2
 72
     2
 73
     3
 90
        0
 40
-0.6
 41
-30.0
 62
     5
 63
     7
 74
     2
 91
        2
 64
     7
 65
     7
 75
     1
175
     1
 42
40.0
 92
        8
 66
     7
 43
1.0
 76
     1
 77
     6
 78
     2
 67
     7
 79
     3
170
     0
171
     0
290
     0
174
     0
 93
        1
 44
0.0
173
     0
291
     0
 45
0.0
1001
ACAD
1000
AcDbSavedByObjectVersion
1070
     0
  0
VISUALSTYLE
  5
34FB
102
{ACAD_XDICTIONARY
360
362C
102
}
102
{ACAD_REACTORS
330
2A0
102
}
330
2A0
100
AcDbVisualStyle
  2

 70
    24
 71
     1
 72
     2
 73
     2
 90
        0
 40
-0.6
 41
-30.0
 62
     5
 63
     7
 74
     2
 91
        2
 64
     7
 65
     7
 75
     1
175
     1
 42
40.0
 92
       11
 66
     7
 43
1.0
 76
     1
 77
     6
 78
     2
 67
     7
 79
     6
170
     0
171
     0
290
     0
174
     0
 93
        1
 44
0.0
173
     0
291
     0
 45
0.0
1001
ACAD
1000
AcDbSavedByObjectVersion
1070
     0
  0
VISUALSTYLE
  5
34F6
102
{ACAD_XDICTIONARY
360
3622
102
}
102
{ACAD_REACTORS
330
2A0
102
}
330
2A0
100
AcDbVisualStyle
  2

 70
    13
 71
     2
 72
     2
 73
     0
 90
        0
 40
-0.6
 41
-30.0
 62
     5
 63
     7
 74
     1
 91
        4
 64
     7
 65
   257
 75
     1
175
     1
 42
1.0
 92
       12
 66
     7
 43
1.0
 76
     1
 77
     6
 78
     2
 67
     7
 79
     5
170
     0
171
     0
290
     0
174
     0
 93
        1
 44
0.0
173
     0
291
     1
 45
0.0
1001
ACAD
1000
AcDbSavedByObjectVersion
1070
     0
  0
VISUALSTYLE
  5
34F0
102
{ACAD_XDICTIONARY
360
3616
102
}
102
{ACAD_REACTORS
330
2A0
102
}
330
2A0
100
AcDbVisualStyle
  2

 70
     5
 71
     0
 72
     2
 73
     0
 90
        0
 40
-0.6
 41
-30.0
 62
     5
 63
     7
 74
     1
 91
        4
 64
     7
 65
   257
 75
     1
175
     1
 42
1.0
 92
        0
 66
   257
 43
1.0
 76
     1
 77
     6
 78
     2
 67
     7
 79
     3
170
     0
171
     0
290
     0
174
     0
 93
        1
 44
0.0
173
     0
291
     0
 45
0.0
1001
ACAD
1000
AcDbSavedByObjectVersion
1070
     0
  0
VISUALSTYLE
  5
34FC
102
{ACAD_XDICTIONARY
360
362E
102
}
102
{ACAD_REACTORS
330
2A0
102
}
330
2A0
100
AcDbVisualStyle
  2

 70
    25
 71
     2
 72
     2
 73
     1
 90
        1
 40
0.5
 41
-30.0
 62
     5
 63
     7
 74
     1
 91
        0
 64
     7
 65
   257
 75
     1
175
     1
 42
1.0
 92
        8
 66
     7
 43
1.0
 76
     1
 77
     6
 78
     2
 67
     7
 79
     3
170
     0
171
     0
290
     0
174
     0
 93
       13
 44
0.0
173
     0
291
     0
 45
0.0
1001
ACAD
1000
AcDbSavedByObjectVersion
1070
     0
  0
XRECORD
  5
34CA
102
{ACAD_REACTORS
330
34C9
102
}
330
34C9
100
AcDbXrecord
280
     1
340
6C
  0
XRECORD
  5
34CB
102
{ACAD_REACTORS
330
34C9
102
}
330
34C9
100
AcDbXrecord
280
     1
340
6B
  0
DICTIONARYVAR
  5
35F9
102
{ACAD_REACTORS
330
35F4
102
}
330
35F4
100
DictionaryVariables
280
     0
  1
1:1
  0
DICTIONARYVAR
  5
35F6
102
{ACAD_REACTORS
330
35F4
102
}
330
35F4
100
DictionaryVariables
280
     0
  1
STANDARD
  0
DICTIONARYVAR
  5
35F5
102
{ACAD_REACTORS
330
35F4
102
}
330
35F4
100
DictionaryVariables
280
     0
  1
STANDARD
  0
DICTIONARYVAR
  5
35F7
102
{ACAD_REACTORS
330
35F4
102
}
330
35F4
100
DictionaryVariables
280
     0
  1
METRIC50
  0
DICTIONARYVAR
  5
35F8
102
{ACAD_REACTORS
330
35F4
102
}
330
35F4
100
DictionaryVariables
280
     0
  1
METRIC50
  0
DICTIONARYVAR
  5
35FC
102
{ACAD_REACTORS
330
35F4
102
}
330
35F4
100
DictionaryVariables
280
     0
  1
1
  0
DICTIONARYVAR
  5
35FB
102
{ACAD_REACTORS
330
35F4
102
}
330
35F4
100
DictionaryVariables
280
     0
  1
0
  0
DICTIONARYVAR
  5
35FA
102
{ACAD_REACTORS
330
35F4
102
}
330
35F4
100
DictionaryVariables
280
     0
  1
127
  0
DICTIONARYVAR
  5
35FD
102
{ACAD_REACTORS
330
35F4
102
}
330
35F4
100
DictionaryVariables
280
     0
  1
2
  0
XRECORD
  5
A42
102
{ACAD_REACTORS
330
A41
102
}
330
A41
100
AcDbXrecord
280
     1
330
63B
  0
XRECORD
  5
B87
102
{ACAD_REACTORS
330
62D
102
}
330
62D
100
AcDbXrecord
280
     1
 91
      535
301

290
     0
302
0
330
616
 90
        0
 62
     7
370
    -3
331
16
390
0
330
0
 90
        8
 62
     4
370
    50
331
16
390
0
330
614
 90
        8
 62
     4
370
    50
331
16
390
0
330
611
 90
        8
 62
     9
370
    18
331
16
390
0
330
60F
 90
        8
 62
     7
370
    -3
331
16
390
0
330
60D
 90
        8
 62
     1
370
    25
331
16
390
0
330
60B
 90
        8
 62
     5
370
    -3
331
16
390
0
330
609
 90
        8
 62
     2
370
    25
331
3488
390
0
330
607
 90
        8
 62
     2
370
    25
331
3488
390
0
330
603
 90
        8
 62
     7
370
    25
331
16
390
0
330
601
 90
        8
 62
     7
370
    25
331
16
390
0
330
5FF
 90
        8
 62
     4
370
    50
331
16
390
0
330
10
 90
        8
 62
     7
370
    13
331
16
390
0
  0
DICTIONARY
  5
363D
330
3507
100
AcDbDictionary
280
     1
281
     1
  3
ACAD_XREC_ROUNDTRIP
360
363E
  0
DICTIONARY
  5
3608
330
74
100
AcDbDictionary
280
     1
281
     1
  3
ACAD_XREC_ROUNDTRIP
360
3609
  0
DICTIONARY
  5
3604
330
22
100
AcDbDictionary
280
     1
281
     1
  3
ACAD_XREC_ROUNDTRIP
360
3605
  0
DICTIONARY
  5
34DB
330
34DA
100
AcDbDictionary
280
     1
281
     1
  3
ACAD_XREC_ROUNDTRIP
360
35B5
  3
BUMPTILE
360
34DD
  3
DIFFUSETILE
360
34DC
  3
OPACITYTILE
360
34E0
  3
REFLECTIONTILE
360
34DF
  3
REFRACTIONTILE
360
34E1
  3
SPECULARTILE
360
34DE
  0
DICTIONARY
  5
34D3
330
34D2
100
AcDbDictionary
280
     1
281
     1
  3
ACAD_XREC_ROUNDTRIP
360
35B4
  3
BUMPTILE
360
34D5
  3
DIFFUSETILE
360
34D4
  3
OPACITYTILE
360
34D8
  3
REFLECTIONTILE
360
34D7
  3
REFRACTIONTILE
360
34D9
  3
SPECULARTILE
360
34D6
  0
DICTIONARY
  5
34E3
330
34E2
100
AcDbDictionary
280
     1
281
     1
  3
ACAD_XREC_ROUNDTRIP
360
35B6
  3
BUMPTILE
360
34E5
  3
DIFFUSETILE
360
34E4
  3
OPACITYTILE
360
34E8
  3
REFLECTIONTILE
360
34E7
  3
REFRACTIONTILE
360
34E9
  3
SPECULARTILE
360
34E6
  0
DICTIONARY
  5
363B
330
3505
100
AcDbDictionary
280
     1
281
     1
  3
ACAD_XREC_ROUNDTRIP
360
363C
  0
DICTIONARY
  5
35A7
330
3502
100
AcDbDictionary
280
     1
281
     1
  3
ACAD_ROUNDTRIP_2008_TABLESTYLE_CELLSTYLEMAP
360
35FE
  3
ACAD_XREC_ROUNDTRIP
360
363A
  0
DICTIONARY
  5
3614
330
34EF
100
AcDbDictionary
280
     1
281
     1
  3
ACAD_XREC_ROUNDTRIP
360
3615
  0
DICTIONARY
  5
3612
330
34EE
100
AcDbDictionary
280
     1
281
     1
  3
ACAD_XREC_ROUNDTRIP
360
3613
  0
DICTIONARY
  5
3620
330
34F5
100
AcDbDictionary
280
     1
281
     1
  3
ACAD_XREC_ROUNDTRIP
360
3621
  0
DICTIONARY
  5
3628
330
34F9
100
AcDbDictionary
280
     1
281
     1
  3
ACAD_XREC_ROUNDTRIP
360
3629
  0
DICTIONARY
  5
361A
330
34F2
100
AcDbDictionary
280
     1
281
     1
  3
ACAD_XREC_ROUNDTRIP
360
361B
  0
DICTIONARY
  5
361E
330
34F4
100
AcDbDictionary
280
     1
281
     1
  3
ACAD_XREC_ROUNDTRIP
360
361F
  0
DICTIONARY
  5
3638
330
3501
100
AcDbDictionary
280
     1
281
     1
  3
ACAD_XREC_ROUNDTRIP
360
3639
  0
DICTIONARY
  5
3626
330
34F8
100
AcDbDictionary
280
     1
281
     1
  3
ACAD_XREC_ROUNDTRIP
360
3627
  0
DICTIONARY
  5
360A
330
34EA
100
AcDbDictionary
280
     1
281
     1
  3
ACAD_XREC_ROUNDTRIP
360
360B
  0
DICTIONARY
  5
360C
330
34EB
100
AcDbDictionary
280
     1
281
     1
  3
ACAD_XREC_ROUNDTRIP
360
360D
  0
DICTIONARY
  5
360E
330
34EC
100
AcDbDictionary
280
     1
281
     1
  3
ACAD_XREC_ROUNDTRIP
360
360F
  0
DICTIONARY
  5
3610
330
34ED
100
AcDbDictionary
280
     1
281
     1
  3
ACAD_XREC_ROUNDTRIP
360
3611
  0
DICTIONARY
  5
3618
330
34F1
100
AcDbDictionary
280
     1
281
     1
  3
ACAD_XREC_ROUNDTRIP
360
3619
  0
DICTIONARY
  5
3634
330
34FF
100
AcDbDictionary
280
     1
281
     1
  3
ACAD_XREC_ROUNDTRIP
360
3635
  0
DICTIONARY
  5
3624
330
34F7
100
AcDbDictionary
280
     1
281
     1
  3
ACAD_XREC_ROUNDTRIP
360
3625
  0
DICTIONARY
  5
3636
330
3500
100
AcDbDictionary
280
     1
281
     1
  3
ACAD_XREC_ROUNDTRIP
360
3637
  0
DICTIONARY
  5
361C
330
34F3
100
AcDbDictionary
280
     1
281
     1
  3
ACAD_XREC_ROUNDTRIP
360
361D
  0
DICTIONARY
  5
3632
330
34FE
100
AcDbDictionary
280
     1
281
     1
  3
ACAD_XREC_ROUNDTRIP
360
3633
  0
DICTIONARY
  5
3630
330
34FD
100
AcDbDictionary
280
     1
281
     1
  3
ACAD_XREC_ROUNDTRIP
360
3631
  0
DICTIONARY
  5
362A
330
34FA
100
AcDbDictionary
280
     1
281
     1
  3
ACAD_XREC_ROUNDTRIP
360
362B
  0
DICTIONARY
  5
362C
330
34FB
100
AcDbDictionary
280
     1
281
     1
  3
ACAD_XREC_ROUNDTRIP
360
362D
  0
DICTIONARY
  5
3622
330
34F6
100
AcDbDictionary
280
     1
281
     1
  3
ACAD_XREC_ROUNDTRIP
360
3623
  0
DICTIONARY
  5
3616
330
34F0
100
AcDbDictionary
280
     1
281
     1
  3
ACAD_XREC_ROUNDTRIP
360
3617
  0
DICTIONARY
  5
362E
330
34FC
100
AcDbDictionary
280
     1
281
     1
  3
ACAD_XREC_ROUNDTRIP
360
362F
  0
XRECORD
  5
363E
102
{ACAD_REACTORS
330
363D
102
}
330
363D
100
AcDbXrecord
280
     1
102
DISPLAYNAME
  1
METRIC50
102
FLAGS
 90
        0
  0
XRECORD
  5
3609
102
{ACAD_REACTORS
330
3608
102
}
330
3608
100
AcDbXrecord
280
     1
102
SHADEPLOT
 70
     0
102
SHADEPLOTRESLEVEL
 70
     2
102
SHADEPLOTCUSTOMDPI
 70
   300
  0
XRECORD
  5
3605
102
{ACAD_REACTORS
330
3604
102
}
330
3604
100
AcDbXrecord
280
     1
102
SHADEPLOT
 70
     0
102
SHADEPLOTRESLEVEL
 70
     2
102
SHADEPLOTCUSTOMDPI
 70
   300
  0
XRECORD
  5
35B5
102
{ACAD_REACTORS
330
34DB
102
}
330
34DB
100
AcDbXrecord
280
     1
102
MATERIAL
148
0.0
149
0.0
149
0.0
 93
        0
 94
      127
282
     0
 72
     0
 77
     0
171
     0
175
     0
179
     0
273
     0
  0
XRECORD
  5
34DD
102
{ACAD_REACTORS
330
34DB
102
}
330
34DB
100
AcDbXrecord
280
     1
270
     1
271
     1
  0
XRECORD
  5
34DC
102
{ACAD_REACTORS
330
34DB
102
}
330
34DB
100
AcDbXrecord
280
     1
270
     1
271
     1
  0
XRECORD
  5
34E0
102
{ACAD_REACTORS
330
34DB
102
}
330
34DB
100
AcDbXrecord
280
     1
270
     1
271
     1
  0
XRECORD
  5
34DF
102
{ACAD_REACTORS
330
34DB
102
}
330
34DB
100
AcDbXrecord
280
     1
270
     1
271
     1
  0
XRECORD
  5
34E1
102
{ACAD_REACTORS
330
34DB
102
}
330
34DB
100
AcDbXrecord
280
     1
270
     1
271
     1
  0
XRECORD
  5
34DE
102
{ACAD_REACTORS
330
34DB
102
}
330
34DB
100
AcDbXrecord
280
     1
270
     1
271
     1
  0
XRECORD
  5
35B4
102
{ACAD_REACTORS
330
34D3
102
}
330
34D3
100
AcDbXrecord
280
     1
102
MATERIAL
148
0.0
149
0.0
149
0.0
 93
        0
 94
      127
282
     0
 72
     0
 77
     0
171
     0
175
     0
179
     0
273
     0
  0
XRECORD
  5
34D5
102
{ACAD_REACTORS
330
34D3
102
}
330
34D3
100
AcDbXrecord
280
     1
270
     1
271
     1
  0
XRECORD
  5
34D4
102
{ACAD_REACTORS
330
34D3
102
}
330
34D3
100
AcDbXrecord
280
     1
270
     1
271
     1
  0
XRECORD
  5
34D8
102
{ACAD_REACTORS
330
34D3
102
}
330
34D3
100
AcDbXrecord
280
     1
270
     1
271
     1
  0
XRECORD
  5
34D7
102
{ACAD_REACTORS
330
34D3
102
}
330
34D3
100
AcDbXrecord
280
     1
270
     1
271
     1
  0
XRECORD
  5
34D9
102
{ACAD_REACTORS
330
34D3
102
}
330
34D3
100
AcDbXrecord
280
     1
270
     1
271
     1
  0
XRECORD
  5
34D6
102
{ACAD_REACTORS
330
34D3
102
}
330
34D3
100
AcDbXrecord
280
     1
270
     1
271
     1
  0
XRECORD
  5
35B6
102
{ACAD_REACTORS
330
34E3
102
}
330
34E3
100
AcDbXrecord
280
     1
102
MATERIAL
148
0.0
149
0.0
149
0.0
 93
        0
 94
      127
282
     0
 72
     0
 77
     0
171
     0
175
     0
179
     0
273
     0
  0
XRECORD
  5
34E5
102
{ACAD_REACTORS
330
34E3
102
}
330
34E3
100
AcDbXrecord
280
     1
270
     1
271
     1
  0
XRECORD
  5
34E4
102
{ACAD_REACTORS
330
34E3
102
}
330
34E3
100
AcDbXrecord
280
     1
270
     1
271
     1
  0
XRECORD
  5
34E8
102
{ACAD_REACTORS
330
34E3
102
}
330
34E3
100
AcDbXrecord
280
     1
270
     1
271
     1
  0
XRECORD
  5
34E7
102
{ACAD_REACTORS
330
34E3
102
}
330
34E3
100
AcDbXrecord
280
     1
270
     1
271
     1
  0
XRECORD
  5
34E9
102
{ACAD_REACTORS
330
34E3
102
}
330
34E3
100
AcDbXrecord
280
     1
270
     1
271
     1
  0
XRECORD
  5
34E6
102
{ACAD_REACTORS
330
34E3
102
}
330
34E3
100
AcDbXrecord
280
     1
270
     1
271
     1
  0
XRECORD
  5
363C
102
{ACAD_REACTORS
330
363B
102
}
330
363B
100
AcDbXrecord
280
     1
102
DISPLAYNAME
  1
METRIC50
102
FLAGS
 90
        0
  0
CELLSTYLEMAP
  5
35FE
102
{ACAD_REACTORS
330
35A7
102
}
330
35A7
100
AcDbCellStyleMap
 90
        3
300
CELLSTYLE
  1
TABLEFORMAT_BEGIN
 90
        5
170
     1
 91
        0
 92
    32768
 62
   257
 93
        1
300
CONTENTFORMAT
  1
CONTENTFORMAT_BEGIN
 90
        0
 91
        0
 92
      512
 93
        0
300

 40
0.0
140
1.0
 94
        5
 62
     0
340
11
144
6.0
309
CONTENTFORMAT_END
171
     1
301
MARGIN
  1
CELLMARGIN_BEGIN
 40
1.5
 40
1.5
 40
1.5
 40
1.5
 40
0.18
 40
0.18
309
CELLMARGIN_END
 94
        6
 95
        1
302
GRIDFORMAT
  1
GRIDFORMAT_BEGIN
 90
        0
 91
        1
 62
     0
 92
       -2
340
0
 93
        0
 40
1.125
309
GRIDFORMAT_END
 95
        2
302
GRIDFORMAT
  1
GRIDFORMAT_BEGIN
 90
        0
 91
        1
 62
     0
 92
       -2
340
0
 93
        0
 40
1.125
309
GRIDFORMAT_END
 95
        4
302
GRIDFORMAT
  1
GRIDFORMAT_BEGIN
 90
        0
 91
        1
 62
     0
 92
       -2
340
0
 93
        0
 40
1.125
309
GRIDFORMAT_END
 95
        8
302
GRIDFORMAT
  1
GRIDFORMAT_BEGIN
 90
        0
 91
        1
 62
     0
 92
       -2
340
0
 93
        0
 40
1.125
309
GRIDFORMAT_END
 95
       16
302
GRIDFORMAT
  1
GRIDFORMAT_BEGIN
 90
        0
 91
        1
 62
     0
 92
       -2
340
0
 93
        0
 40
1.125
309
GRIDFORMAT_END
 95
       32
302
GRIDFORMAT
  1
GRIDFORMAT_BEGIN
 90
        0
 91
        1
 62
     0
 92
       -2
340
0
 93
        0
 40
1.125
309
GRIDFORMAT_END
309
TABLEFORMAT_END
  1
CELLSTYLE_BEGIN
 90
        1
 91
        1
300
_TITLE
309
CELLSTYLE_END
300
CELLSTYLE
  1
TABLEFORMAT_BEGIN
 90
        5
170
     1
 91
        0
 92
        0
 62
   257
 93
        1
300
CONTENTFORMAT
  1
CONTENTFORMAT_BEGIN
 90
        0
 91
        0
 92
      512
 93
        0
300

 40
0.0
140
1.0
 94
        5
 62
     0
340
11
144
4.5
309
CONTENTFORMAT_END
171
     1
301
MARGIN
  1
CELLMARGIN_BEGIN
 40
1.5
 40
1.5
 40
1.5
 40
1.5
 40
0.18
 40
0.18
309
CELLMARGIN_END
 94
        6
 95
        1
302
GRIDFORMAT
  1
GRIDFORMAT_BEGIN
 90
        0
 91
        1
 62
     0
 92
       -2
340
0
 93
        0
 40
1.125
309
GRIDFORMAT_END
 95
        2
302
GRIDFORMAT
  1
GRIDFORMAT_BEGIN
 90
        0
 91
        1
 62
     0
 92
       -2
340
0
 93
        0
 40
1.125
309
GRIDFORMAT_END
 95
        4
302
GRIDFORMAT
  1
GRIDFORMAT_BEGIN
 90
        0
 91
        1
 62
     0
 92
       -2
340
0
 93
        0
 40
1.125
309
GRIDFORMAT_END
 95
        8
302
GRIDFORMAT
  1
GRIDFORMAT_BEGIN
 90
        0
 91
        1
 62
     0
 92
       -2
340
0
 93
        0
 40
1.125
309
GRIDFORMAT_END
 95
       16
302
GRIDFORMAT
  1
GRIDFORMAT_BEGIN
 90
        0
 91
        1
 62
     0
 92
       -2
340
0
 93
        0
 40
1.125
309
GRIDFORMAT_END
 95
       32
302
GRIDFORMAT
  1
GRIDFORMAT_BEGIN
 90
        0
 91
        1
 62
     0
 92
       -2
340
0
 93
        0
 40
1.125
309
GRIDFORMAT_END
309
TABLEFORMAT_END
  1
CELLSTYLE_BEGIN
 90
        2
 91
        1
300
_HEADER
309
CELLSTYLE_END
300
CELLSTYLE
  1
TABLEFORMAT_BEGIN
 90
        5
170
     1
 91
        0
 92
        0
 62
   257
 93
        1
300
CONTENTFORMAT
  1
CONTENTFORMAT_BEGIN
 90
        0
 91
        0
 92
      512
 93
        0
300

 40
0.0
140
1.0
 94
        2
 62
     0
340
11
144
4.5
309
CONTENTFORMAT_END
171
     1
301
MARGIN
  1
CELLMARGIN_BEGIN
 40
1.5
 40
1.5
 40
1.5
 40
1.5
 40
0.18
 40
0.18
309
CELLMARGIN_END
 94
        6
 95
        1
302
GRIDFORMAT
  1
GRIDFORMAT_BEGIN
 90
        0
 91
        1
 62
     0
 92
       -2
340
0
 93
        0
 40
1.125
309
GRIDFORMAT_END
 95
        2
302
GRIDFORMAT
  1
GRIDFORMAT_BEGIN
 90
        0
 91
        1
 62
     0
 92
       -2
340
0
 93
        0
 40
1.125
309
GRIDFORMAT_END
 95
        4
302
GRIDFORMAT
  1
GRIDFORMAT_BEGIN
 90
        0
 91
        1
 62
     0
 92
       -2
340
0
 93
        0
 40
1.125
309
GRIDFORMAT_END
 95
        8
302
GRIDFORMAT
  1
GRIDFORMAT_BEGIN
 90
        0
 91
        1
 62
     0
 92
       -2
340
0
 93
        0
 40
1.125
309
GRIDFORMAT_END
 95
       16
302
GRIDFORMAT
  1
GRIDFORMAT_BEGIN
 90
        0
 91
        1
 62
     0
 92
       -2
340
0
 93
        0
 40
1.125
309
GRIDFORMAT_END
 95
       32
302
GRIDFORMAT
  1
GRIDFORMAT_BEGIN
 90
        0
 91
        1
 62
     0
 92
       -2
340
0
 93
        0
 40
1.125
309
GRIDFORMAT_END
309
TABLEFORMAT_END
  1
CELLSTYLE_BEGIN
 90
        3
 91
        2
300
_DATA
309
CELLSTYLE_END
  0
XRECORD
  5
363A
102
{ACAD_REACTORS
330
35A7
102
}
330
35A7
100
AcDbXrecord
280
     1
102
ACAD_ROUNDTRIP_PRE2007_TABLESTYLE
 90
      512
 91
        0
  1

 92
      512
 93
        0
  2

 94
      512
 95
        0
  3

  0
XRECORD
  5
3615
102
{ACAD_REACTORS
330
3614
102
}
330
3614
100
AcDbXrecord
280
     1
102
RTVSPost2010Prop28
280
     1
102
RTVSPost2010PropOp28
 70
     1
102
RTVSPost2010Prop29
280
     1
102
RTVSPost2010PropOp29
 70
     1
102
RTVSPost2010Prop30
280
     0
102
RTVSPost2010PropOp30
 70
     1
102
RTVSPost2010Prop31
280
     0
102
RTVSPost2010PropOp31
 70
     1
102
RTVSPost2010Prop32
280
     0
102
RTVSPost2010PropOp32
 70
     1
102
RTVSPost2010Prop33
280
     0
102
RTVSPost2010PropOp33
 70
     1
102
RTVSPost2010Prop34
280
     0
102
RTVSPost2010PropOp34
 70
     1
102
RTVSPost2010Prop35
280
     0
102
RTVSPost2010PropOp35
 70
     1
102
RTVSPost2010Prop36
280
     0
102
RTVSPost2010PropOp36
 70
     1
102
RTVSPost2010Prop37
 90
       50
102
RTVSPost2010PropOp37
 70
     1
102
RTVSPost2010Prop38
140
0.0
102
RTVSPost2010PropOp38
 70
     1
102
RTVSPost2010Prop39
140
1.0
102
RTVSPost2010PropOp39
 70
     1
102
RTVSPost2010Prop40
 90
        0
102
RTVSPost2010PropOp40
 70
     1
102
RTVSPost2010Prop41ColorIndex
 90
       18
102
RTVSPost2010Prop41ColorRGB
 90
        0
102
RTVSPost2010PropOp41
 70
     1
102
RTVSPost2010Prop42
 90
       50
102
RTVSPost2010PropOp42
 70
     1
102
RTVSPost2010Prop43
 90
        3
102
RTVSPost2010PropOp43
 70
     1
102
RTVSPost2010Prop44ColorIndex
 90
        5
102
RTVSPost2010Prop44ColorRGB
 90
      255
102
RTVSPost2010PropOp44
 70
     1
102
RTVSPost2010Prop45
280
     0
102
RTVSPost2010PropOp45
 70
     1
102
RTVSPost2010Prop46
 90
       50
102
RTVSPost2010PropOp46
 70
     1
102
RTVSPost2010Prop47
 90
       50
102
RTVSPost2010PropOp47
 70
     1
102
RTVSPost2010Prop48
 90
       50
102
RTVSPost2010PropOp48
 70
     1
102
RTVSPost2010Prop49
280
     0
102
RTVSPost2010PropOp49
 70
     1
102
RTVSPost2010Prop50
 90
       50
102
RTVSPost2010PropOp50
 70
     1
102
RTVSPost2010Prop51ColorIndex
 90
      256
102
RTVSPost2010Prop51ColorRGB
 90
-16777216
102
RTVSPost2010PropOp51
 70
     0
102
RTVSPost2010Prop52
140
1.0
102
RTVSPost2010PropOp52
 70
     0
102
RTVSPost2010Prop53
 90
        2
102
RTVSPost2010PropOp53
 70
     1
102
RTVSPost2010Prop54
  1
strokes_ogs.tif
102
RTVSPost2010PropOp54
 70
     1
102
RTVSPost2010Prop55
280
     0
102
RTVSPost2010PropOp55
 70
     1
102
RTVSPost2010Prop56
140
1.0
102
RTVSPost2010PropOp56
 70
     1
102
RTVSPost2010Prop57
140
1.0
102
RTVSPost2010PropOp57
 70
     1
102
RTVSPropertyOp0
 70
     1
102
RTVSPropertyOp1
 70
     1
102
RTVSPropertyOp2
 70
     1
102
RTVSPropertyOp3
 70
     1
102
RTVSPropertyOp4
 70
     1
102
RTVSPropertyOp5
 70
     1
102
RTVSPropertyOp6
 70
     1
102
RTVSPropertyOp7
 70
     1
102
RTVSPropertyOp8
 70
     1
102
RTVSPropertyOp9
 70
     1
102
RTVSPropertyOp10
 70
     1
102
RTVSPropertyOp11
 70
     1
102
RTVSPropertyOp12
 70
     1
102
RTVSPropertyOp13
 70
     1
102
RTVSPropertyOp14
 70
     1
102
RTVSPropertyOp15
 70
     1
102
RTVSPropertyOp16
 70
     1
102
RTVSPropertyOp17
 70
     1
102
RTVSPropertyOp18
 70
     1
102
RTVSPropertyOp19
 70
     1
102
RTVSPropertyOp20
 70
     1
102
RTVSPropertyOp21
 70
     1
102
RTVSPropertyOp22
 70
     1
102
RTVSPropertyOp23
 70
     1
102
RTVSPropertyOp24
 70
     1
102
RTVSPropertyOp25
 70
     1
102
RTVSPropertyOp26
 70
     1
102
RTVSPropertyOp27
 70
     1
102
RTVSPropertyOp28
 70
     1
102
RTVSPropertyOp29
 70
     1
102
RTVSPropertyOp30
 70
     1
102
RTVSPropertyOp31
 70
     1
102
RTVSPropertyOp32
 70
     1
102
RTVSPropertyOp33
 70
     1
102
RTVSPropertyOp34
 70
     1
102
RTVSPropertyOp35
 70
     1
102
RTVSPropertyOp36
 70
     1
102
RTVSPropertyOp37
 70
     1
102
RTVSPropertyOp38
 70
     1
102
RTVSPropertyOp39
 70
     1
102
RTVSPropertyOp40
 70
     1
102
RTVSPropertyOp41
 70
     1
102
RTVSPropertyOp42
 70
     1
102
RTVSPropertyOp43
 70
     1
102
RTVSPropertyOp44
 70
     1
102
RTVSPropertyOp45
 70
     1
102
RTVSPropertyOp46
 70
     1
102
RTVSPropertyOp47
 70
     1
102
RTVSPropertyOp48
 70
     1
102
RTVSPropertyOp49
 70
     1
102
RTVSPropertyOp50
 70
     1
102
RTVSPropertyOp51
 70
     0
102
RTVSPropertyOp52
 70
     0
102
RTVSPropertyOp53
 70
     1
102
RTVSPropertyOp54
 70
     1
102
RTVSPropertyOp55
 70
     1
102
RTVSPropertyOp56
 70
     1
102
RTVSPropertyOp57
 70
     1
102
RTVSPropertyOp58
 70
     1
102
RTVSPropertyOp59
 70
     1
102
RTVSPropertyOp60
 70
     1
102
RTVSPropertyOp61
 70
     1
102
RTVSPropertyOp62
 70
     1
  0
XRECORD
  5
3613
102
{ACAD_REACTORS
330
3612
102
}
330
3612
100
AcDbXrecord
280
     1
102
RTVSPost2010Prop28
280
     0
102
RTVSPost2010PropOp28
 70
     1
102
RTVSPost2010Prop29
280
     1
102
RTVSPost2010PropOp29
 70
     1
102
RTVSPost2010Prop30
280
     1
102
RTVSPost2010PropOp30
 70
     1
102
RTVSPost2010Prop31
280
     0
102
RTVSPost2010PropOp31
 70
     1
102
RTVSPost2010Prop32
280
     0
102
RTVSPost2010PropOp32
 70
     1
102
RTVSPost2010Prop33
280
     0
102
RTVSPost2010PropOp33
 70
     1
102
RTVSPost2010Prop34
280
     0
102
RTVSPost2010PropOp34
 70
     1
102
RTVSPost2010Prop35
280
     0
102
RTVSPost2010PropOp35
 70
     1
102
RTVSPost2010Prop36
280
     0
102
RTVSPost2010PropOp36
 70
     1
102
RTVSPost2010Prop37
 90
       50
102
RTVSPost2010PropOp37
 70
     1
102
RTVSPost2010Prop38
140
0.0
102
RTVSPost2010PropOp38
 70
     1
102
RTVSPost2010Prop39
140
1.0
102
RTVSPost2010PropOp39
 70
     1
102
RTVSPost2010Prop40
 90
        0
102
RTVSPost2010PropOp40
 70
     1
102
RTVSPost2010Prop41ColorIndex
 90
       18
102
RTVSPost2010Prop41ColorRGB
 90
        0
102
RTVSPost2010PropOp41
 70
     1
102
RTVSPost2010Prop42
 90
       50
102
RTVSPost2010PropOp42
 70
     1
102
RTVSPost2010Prop43
 90
        3
102
RTVSPost2010PropOp43
 70
     1
102
RTVSPost2010Prop44ColorIndex
 90
        5
102
RTVSPost2010Prop44ColorRGB
 90
      255
102
RTVSPost2010PropOp44
 70
     1
102
RTVSPost2010Prop45
280
     0
102
RTVSPost2010PropOp45
 70
     1
102
RTVSPost2010Prop46
 90
       50
102
RTVSPost2010PropOp46
 70
     1
102
RTVSPost2010Prop47
 90
       50
102
RTVSPost2010PropOp47
 70
     1
102
RTVSPost2010Prop48
 90
       50
102
RTVSPost2010PropOp48
 70
     1
102
RTVSPost2010Prop49
280
     0
102
RTVSPost2010PropOp49
 70
     1
102
RTVSPost2010Prop50
 90
       50
102
RTVSPost2010PropOp50
 70
     1
102
RTVSPost2010Prop51ColorIndex
 90
      256
102
RTVSPost2010Prop51ColorRGB
 90
-16777216
102
RTVSPost2010PropOp51
 70
     0
102
RTVSPost2010Prop52
140
1.0
102
RTVSPost2010PropOp52
 70
     0
102
RTVSPost2010Prop53
 90
        2
102
RTVSPost2010PropOp53
 70
     1
102
RTVSPost2010Prop54
  1
strokes_ogs.tif
102
RTVSPost2010PropOp54
 70
     1
102
RTVSPost2010Prop55
280
     0
102
RTVSPost2010PropOp55
 70
     1
102
RTVSPost2010Prop56
140
1.0
102
RTVSPost2010PropOp56
 70
     1
102
RTVSPost2010Prop57
140
1.0
102
RTVSPost2010PropOp57
 70
     1
102
RTVSPropertyOp0
 70
     1
102
RTVSPropertyOp1
 70
     1
102
RTVSPropertyOp2
 70
     1
102
RTVSPropertyOp3
 70
     1
102
RTVSPropertyOp4
 70
     1
102
RTVSPropertyOp5
 70
     1
102
RTVSPropertyOp6
 70
     1
102
RTVSPropertyOp7
 70
     1
102
RTVSPropertyOp8
 70
     1
102
RTVSPropertyOp9
 70
     1
102
RTVSPropertyOp10
 70
     1
102
RTVSPropertyOp11
 70
     1
102
RTVSPropertyOp12
 70
     1
102
RTVSPropertyOp13
 70
     1
102
RTVSPropertyOp14
 70
     1
102
RTVSPropertyOp15
 70
     1
102
RTVSPropertyOp16
 70
     1
102
RTVSPropertyOp17
 70
     1
102
RTVSPropertyOp18
 70
     1
102
RTVSPropertyOp19
 70
     1
102
RTVSPropertyOp20
 70
     1
102
RTVSPropertyOp21
 70
     1
102
RTVSPropertyOp22
 70
     1
102
RTVSPropertyOp23
 70
     1
102
RTVSPropertyOp24
 70
     1
102
RTVSPropertyOp25
 70
     1
102
RTVSPropertyOp26
 70
     1
102
RTVSPropertyOp27
 70
     1
102
RTVSPropertyOp28
 70
     1
102
RTVSPropertyOp29
 70
     1
102
RTVSPropertyOp30
 70
     1
102
RTVSPropertyOp31
 70
     1
102
RTVSPropertyOp32
 70
     1
102
RTVSPropertyOp33
 70
     1
102
RTVSPropertyOp34
 70
     1
102
RTVSPropertyOp35
 70
     1
102
RTVSPropertyOp36
 70
     1
102
RTVSPropertyOp37
 70
     1
102
RTVSPropertyOp38
 70
     1
102
RTVSPropertyOp39
 70
     1
102
RTVSPropertyOp40
 70
     1
102
RTVSPropertyOp41
 70
     1
102
RTVSPropertyOp42
 70
     1
102
RTVSPropertyOp43
 70
     1
102
RTVSPropertyOp44
 70
     1
102
RTVSPropertyOp45
 70
     1
102
RTVSPropertyOp46
 70
     1
102
RTVSPropertyOp47
 70
     1
102
RTVSPropertyOp48
 70
     1
102
RTVSPropertyOp49
 70
     1
102
RTVSPropertyOp50
 70
     1
102
RTVSPropertyOp51
 70
     0
102
RTVSPropertyOp52
 70
     0
102
RTVSPropertyOp53
 70
     1
102
RTVSPropertyOp54
 70
     1
102
RTVSPropertyOp55
 70
     1
102
RTVSPropertyOp56
 70
     1
102
RTVSPropertyOp57
 70
     1
102
RTVSPropertyOp58
 70
     1
102
RTVSPropertyOp59
 70
     1
102
RTVSPropertyOp60
 70
     1
102
RTVSPropertyOp61
 70
     1
102
RTVSPropertyOp62
 70
     1
  0
XRECORD
  5
3621
102
{ACAD_REACTORS
330
3620
102
}
330
3620
100
AcDbXrecord
280
     1
102
RTVSPost2010Prop28
280
     0
102
RTVSPost2010PropOp28
 70
     1
102
RTVSPost2010Prop29
280
     1
102
RTVSPost2010PropOp29
 70
     1
102
RTVSPost2010Prop30
280
     1
102
RTVSPost2010PropOp30
 70
     1
102
RTVSPost2010Prop31
280
     0
102
RTVSPost2010PropOp31
 70
     1
102
RTVSPost2010Prop32
280
     0
102
RTVSPost2010PropOp32
 70
     1
102
RTVSPost2010Prop33
280
     0
102
RTVSPost2010PropOp33
 70
     1
102
RTVSPost2010Prop34
280
     0
102
RTVSPost2010PropOp34
 70
     1
102
RTVSPost2010Prop35
280
     0
102
RTVSPost2010PropOp35
 70
     1
102
RTVSPost2010Prop36
280
     0
102
RTVSPost2010PropOp36
 70
     1
102
RTVSPost2010Prop37
 90
       50
102
RTVSPost2010PropOp37
 70
     1
102
RTVSPost2010Prop38
140
0.0
102
RTVSPost2010PropOp38
 70
     1
102
RTVSPost2010Prop39
140
1.0
102
RTVSPost2010PropOp39
 70
     1
102
RTVSPost2010Prop40
 90
        0
102
RTVSPost2010PropOp40
 70
     1
102
RTVSPost2010Prop41ColorIndex
 90
       18
102
RTVSPost2010Prop41ColorRGB
 90
        0
102
RTVSPost2010PropOp41
 70
     1
102
RTVSPost2010Prop42
 90
       50
102
RTVSPost2010PropOp42
 70
     1
102
RTVSPost2010Prop43
 90
        3
102
RTVSPost2010PropOp43
 70
     1
102
RTVSPost2010Prop44ColorIndex
 90
        5
102
RTVSPost2010Prop44ColorRGB
 90
      255
102
RTVSPost2010PropOp44
 70
     1
102
RTVSPost2010Prop45
280
     0
102
RTVSPost2010PropOp45
 70
     1
102
RTVSPost2010Prop46
 90
       50
102
RTVSPost2010PropOp46
 70
     1
102
RTVSPost2010Prop47
 90
       50
102
RTVSPost2010PropOp47
 70
     1
102
RTVSPost2010Prop48
 90
       50
102
RTVSPost2010PropOp48
 70
     1
102
RTVSPost2010Prop49
280
     0
102
RTVSPost2010PropOp49
 70
     1
102
RTVSPost2010Prop50
 90
       50
102
RTVSPost2010PropOp50
 70
     1
102
RTVSPost2010Prop51ColorIndex
 90
      256
102
RTVSPost2010Prop51ColorRGB
 90
-16777216
102
RTVSPost2010PropOp51
 70
     0
102
RTVSPost2010Prop52
140
1.0
102
RTVSPost2010PropOp52
 70
     0
102
RTVSPost2010Prop53
 90
        2
102
RTVSPost2010PropOp53
 70
     1
102
RTVSPost2010Prop54
  1
strokes_ogs.tif
102
RTVSPost2010PropOp54
 70
     1
102
RTVSPost2010Prop55
280
     0
102
RTVSPost2010PropOp55
 70
     1
102
RTVSPost2010Prop56
140
1.0
102
RTVSPost2010PropOp56
 70
     1
102
RTVSPost2010Prop57
140
1.0
102
RTVSPost2010PropOp57
 70
     1
102
RTVSPropertyOp0
 70
     1
102
RTVSPropertyOp1
 70
     1
102
RTVSPropertyOp2
 70
     1
102
RTVSPropertyOp3
 70
     1
102
RTVSPropertyOp4
 70
     1
102
RTVSPropertyOp5
 70
     1
102
RTVSPropertyOp6
 70
     1
102
RTVSPropertyOp7
 70
     1
102
RTVSPropertyOp8
 70
     1
102
RTVSPropertyOp9
 70
     1
102
RTVSPropertyOp10
 70
     1
102
RTVSPropertyOp11
 70
     1
102
RTVSPropertyOp12
 70
     1
102
RTVSPropertyOp13
 70
     1
102
RTVSPropertyOp14
 70
     1
102
RTVSPropertyOp15
 70
     1
102
RTVSPropertyOp16
 70
     1
102
RTVSPropertyOp17
 70
     1
102
RTVSPropertyOp18
 70
     1
102
RTVSPropertyOp19
 70
     1
102
RTVSPropertyOp20
 70
     1
102
RTVSPropertyOp21
 70
     1
102
RTVSPropertyOp22
 70
     1
102
RTVSPropertyOp23
 70
     1
102
RTVSPropertyOp24
 70
     1
102
RTVSPropertyOp25
 70
     1
102
RTVSPropertyOp26
 70
     1
102
RTVSPropertyOp27
 70
     1
102
RTVSPropertyOp28
 70
     1
102
RTVSPropertyOp29
 70
     1
102
RTVSPropertyOp30
 70
     1
102
RTVSPropertyOp31
 70
     1
102
RTVSPropertyOp32
 70
     1
102
RTVSPropertyOp33
 70
     1
102
RTVSPropertyOp34
 70
     1
102
RTVSPropertyOp35
 70
     1
102
RTVSPropertyOp36
 70
     1
102
RTVSPropertyOp37
 70
     1
102
RTVSPropertyOp38
 70
     1
102
RTVSPropertyOp39
 70
     1
102
RTVSPropertyOp40
 70
     1
102
RTVSPropertyOp41
 70
     1
102
RTVSPropertyOp42
 70
     1
102
RTVSPropertyOp43
 70
     1
102
RTVSPropertyOp44
 70
     1
102
RTVSPropertyOp45
 70
     1
102
RTVSPropertyOp46
 70
     1
102
RTVSPropertyOp47
 70
     1
102
RTVSPropertyOp48
 70
     1
102
RTVSPropertyOp49
 70
     1
102
RTVSPropertyOp50
 70
     1
102
RTVSPropertyOp51
 70
     0
102
RTVSPropertyOp52
 70
     0
102
RTVSPropertyOp53
 70
     1
102
RTVSPropertyOp54
 70
     1
102
RTVSPropertyOp55
 70
     1
102
RTVSPropertyOp56
 70
     1
102
RTVSPropertyOp57
 70
     1
102
RTVSPropertyOp58
 70
     1
102
RTVSPropertyOp59
 70
     1
102
RTVSPropertyOp60
 70
     1
102
RTVSPropertyOp61
 70
     1
102
RTVSPropertyOp62
 70
     1
  0
XRECORD
  5
3629
102
{ACAD_REACTORS
330
3628
102
}
330
3628
100
AcDbXrecord
280
     1
102
RTVSPost2010Prop28
280
     0
102
RTVSPost2010PropOp28
 70
     1
102
RTVSPost2010Prop29
280
     1
102
RTVSPost2010PropOp29
 70
     1
102
RTVSPost2010Prop30
280
     1
102
RTVSPost2010PropOp30
 70
     1
102
RTVSPost2010Prop31
280
     0
102
RTVSPost2010PropOp31
 70
     1
102
RTVSPost2010Prop32
280
     0
102
RTVSPost2010PropOp32
 70
     1
102
RTVSPost2010Prop33
280
     0
102
RTVSPost2010PropOp33
 70
     1
102
RTVSPost2010Prop34
280
     0
102
RTVSPost2010PropOp34
 70
     1
102
RTVSPost2010Prop35
280
     0
102
RTVSPost2010PropOp35
 70
     1
102
RTVSPost2010Prop36
280
     0
102
RTVSPost2010PropOp36
 70
     1
102
RTVSPost2010Prop37
 90
       50
102
RTVSPost2010PropOp37
 70
     1
102
RTVSPost2010Prop38
140
0.0
102
RTVSPost2010PropOp38
 70
     1
102
RTVSPost2010Prop39
140
1.0
102
RTVSPost2010PropOp39
 70
     1
102
RTVSPost2010Prop40
 90
        0
102
RTVSPost2010PropOp40
 70
     1
102
RTVSPost2010Prop41ColorIndex
 90
       18
102
RTVSPost2010Prop41ColorRGB
 90
        0
102
RTVSPost2010PropOp41
 70
     1
102
RTVSPost2010Prop42
 90
       50
102
RTVSPost2010PropOp42
 70
     1
102
RTVSPost2010Prop43
 90
        3
102
RTVSPost2010PropOp43
 70
     1
102
RTVSPost2010Prop44ColorIndex
 90
        5
102
RTVSPost2010Prop44ColorRGB
 90
      255
102
RTVSPost2010PropOp44
 70
     1
102
RTVSPost2010Prop45
280
     0
102
RTVSPost2010PropOp45
 70
     1
102
RTVSPost2010Prop46
 90
       50
102
RTVSPost2010PropOp46
 70
     1
102
RTVSPost2010Prop47
 90
       50
102
RTVSPost2010PropOp47
 70
     1
102
RTVSPost2010Prop48
 90
       50
102
RTVSPost2010PropOp48
 70
     1
102
RTVSPost2010Prop49
280
     0
102
RTVSPost2010PropOp49
 70
     1
102
RTVSPost2010Prop50
 90
       50
102
RTVSPost2010PropOp50
 70
     1
102
RTVSPost2010Prop51ColorIndex
 90
      256
102
RTVSPost2010Prop51ColorRGB
 90
-16777216
102
RTVSPost2010PropOp51
 70
     0
102
RTVSPost2010Prop52
140
1.0
102
RTVSPost2010PropOp52
 70
     0
102
RTVSPost2010Prop53
 90
        2
102
RTVSPost2010PropOp53
 70
     1
102
RTVSPost2010Prop54
  1
strokes_ogs.tif
102
RTVSPost2010PropOp54
 70
     1
102
RTVSPost2010Prop55
280
     0
102
RTVSPost2010PropOp55
 70
     1
102
RTVSPost2010Prop56
140
1.0
102
RTVSPost2010PropOp56
 70
     1
102
RTVSPost2010Prop57
140
1.0
102
RTVSPost2010PropOp57
 70
     1
102
RTVSPropertyOp0
 70
     1
102
RTVSPropertyOp1
 70
     1
102
RTVSPropertyOp2
 70
     1
102
RTVSPropertyOp3
 70
     1
102
RTVSPropertyOp4
 70
     1
102
RTVSPropertyOp5
 70
     1
102
RTVSPropertyOp6
 70
     1
102
RTVSPropertyOp7
 70
     1
102
RTVSPropertyOp8
 70
     1
102
RTVSPropertyOp9
 70
     1
102
RTVSPropertyOp10
 70
     1
102
RTVSPropertyOp11
 70
     1
102
RTVSPropertyOp12
 70
     1
102
RTVSPropertyOp13
 70
     1
102
RTVSPropertyOp14
 70
     1
102
RTVSPropertyOp15
 70
     1
102
RTVSPropertyOp16
 70
     1
102
RTVSPropertyOp17
 70
     1
102
RTVSPropertyOp18
 70
     1
102
RTVSPropertyOp19
 70
     1
102
RTVSPropertyOp20
 70
     1
102
RTVSPropertyOp21
 70
     1
102
RTVSPropertyOp22
 70
     1
102
RTVSPropertyOp23
 70
     1
102
RTVSPropertyOp24
 70
     1
102
RTVSPropertyOp25
 70
     1
102
RTVSPropertyOp26
 70
     1
102
RTVSPropertyOp27
 70
     1
102
RTVSPropertyOp28
 70
     1
102
RTVSPropertyOp29
 70
     1
102
RTVSPropertyOp30
 70
     1
102
RTVSPropertyOp31
 70
     1
102
RTVSPropertyOp32
 70
     1
102
RTVSPropertyOp33
 70
     1
102
RTVSPropertyOp34
 70
     1
102
RTVSPropertyOp35
 70
     1
102
RTVSPropertyOp36
 70
     1
102
RTVSPropertyOp37
 70
     1
102
RTVSPropertyOp38
 70
     1
102
RTVSPropertyOp39
 70
     1
102
RTVSPropertyOp40
 70
     1
102
RTVSPropertyOp41
 70
     1
102
RTVSPropertyOp42
 70
     1
102
RTVSPropertyOp43
 70
     1
102
RTVSPropertyOp44
 70
     1
102
RTVSPropertyOp45
 70
     1
102
RTVSPropertyOp46
 70
     1
102
RTVSPropertyOp47
 70
     1
102
RTVSPropertyOp48
 70
     1
102
RTVSPropertyOp49
 70
     1
102
RTVSPropertyOp50
 70
     1
102
RTVSPropertyOp51
 70
     0
102
RTVSPropertyOp52
 70
     0
102
RTVSPropertyOp53
 70
     1
102
RTVSPropertyOp54
 70
     1
102
RTVSPropertyOp55
 70
     1
102
RTVSPropertyOp56
 70
     1
102
RTVSPropertyOp57
 70
     1
102
RTVSPropertyOp58
 70
     1
102
RTVSPropertyOp59
 70
     1
102
RTVSPropertyOp60
 70
     1
102
RTVSPropertyOp61
 70
     1
102
RTVSPropertyOp62
 70
     1
  0
XRECORD
  5
361B
102
{ACAD_REACTORS
330
361A
102
}
330
361A
100
AcDbXrecord
280
     1
102
RTVSPost2010Prop28
280
     0
102
RTVSPost2010PropOp28
 70
     1
102
RTVSPost2010Prop29
280
     1
102
RTVSPost2010PropOp29
 70
     1
102
RTVSPost2010Prop30
280
     1
102
RTVSPost2010PropOp30
 70
     1
102
RTVSPost2010Prop31
280
     0
102
RTVSPost2010PropOp31
 70
     1
102
RTVSPost2010Prop32
280
     0
102
RTVSPost2010PropOp32
 70
     1
102
RTVSPost2010Prop33
280
     0
102
RTVSPost2010PropOp33
 70
     1
102
RTVSPost2010Prop34
280
     0
102
RTVSPost2010PropOp34
 70
     1
102
RTVSPost2010Prop35
280
     0
102
RTVSPost2010PropOp35
 70
     1
102
RTVSPost2010Prop36
280
     0
102
RTVSPost2010PropOp36
 70
     1
102
RTVSPost2010Prop37
 90
       50
102
RTVSPost2010PropOp37
 70
     1
102
RTVSPost2010Prop38
140
0.0
102
RTVSPost2010PropOp38
 70
     1
102
RTVSPost2010Prop39
140
1.0
102
RTVSPost2010PropOp39
 70
     1
102
RTVSPost2010Prop40
 90
        0
102
RTVSPost2010PropOp40
 70
     1
102
RTVSPost2010Prop41ColorIndex
 90
       18
102
RTVSPost2010Prop41ColorRGB
 90
        0
102
RTVSPost2010PropOp41
 70
     1
102
RTVSPost2010Prop42
 90
       50
102
RTVSPost2010PropOp42
 70
     1
102
RTVSPost2010Prop43
 90
        3
102
RTVSPost2010PropOp43
 70
     1
102
RTVSPost2010Prop44ColorIndex
 90
        5
102
RTVSPost2010Prop44ColorRGB
 90
      255
102
RTVSPost2010PropOp44
 70
     1
102
RTVSPost2010Prop45
280
     0
102
RTVSPost2010PropOp45
 70
     1
102
RTVSPost2010Prop46
 90
       50
102
RTVSPost2010PropOp46
 70
     1
102
RTVSPost2010Prop47
 90
       50
102
RTVSPost2010PropOp47
 70
     1
102
RTVSPost2010Prop48
 90
       50
102
RTVSPost2010PropOp48
 70
     1
102
RTVSPost2010Prop49
280
     0
102
RTVSPost2010PropOp49
 70
     1
102
RTVSPost2010Prop50
 90
       50
102
RTVSPost2010PropOp50
 70
     1
102
RTVSPost2010Prop51ColorIndex
 90
      256
102
RTVSPost2010Prop51ColorRGB
 90
-16777216
102
RTVSPost2010PropOp51
 70
     0
102
RTVSPost2010Prop52
140
1.0
102
RTVSPost2010PropOp52
 70
     0
102
RTVSPost2010Prop53
 90
        2
102
RTVSPost2010PropOp53
 70
     1
102
RTVSPost2010Prop54
  1
strokes_ogs.tif
102
RTVSPost2010PropOp54
 70
     1
102
RTVSPost2010Prop55
280
     0
102
RTVSPost2010PropOp55
 70
     1
102
RTVSPost2010Prop56
140
1.0
102
RTVSPost2010PropOp56
 70
     1
102
RTVSPost2010Prop57
140
1.0
102
RTVSPost2010PropOp57
 70
     1
102
RTVSPropertyOp0
 70
     1
102
RTVSPropertyOp1
 70
     1
102
RTVSPropertyOp2
 70
     1
102
RTVSPropertyOp3
 70
     1
102
RTVSPropertyOp4
 70
     1
102
RTVSPropertyOp5
 70
     1
102
RTVSPropertyOp6
 70
     1
102
RTVSPropertyOp7
 70
     1
102
RTVSPropertyOp8
 70
     1
102
RTVSPropertyOp9
 70
     1
102
RTVSPropertyOp10
 70
     1
102
RTVSPropertyOp11
 70
     1
102
RTVSPropertyOp12
 70
     1
102
RTVSPropertyOp13
 70
     1
102
RTVSPropertyOp14
 70
     1
102
RTVSPropertyOp15
 70
     1
102
RTVSPropertyOp16
 70
     1
102
RTVSPropertyOp17
 70
     1
102
RTVSPropertyOp18
 70
     1
102
RTVSPropertyOp19
 70
     1
102
RTVSPropertyOp20
 70
     1
102
RTVSPropertyOp21
 70
     1
102
RTVSPropertyOp22
 70
     1
102
RTVSPropertyOp23
 70
     1
102
RTVSPropertyOp24
 70
     1
102
RTVSPropertyOp25
 70
     1
102
RTVSPropertyOp26
 70
     1
102
RTVSPropertyOp27
 70
     1
102
RTVSPropertyOp28
 70
     1
102
RTVSPropertyOp29
 70
     1
102
RTVSPropertyOp30
 70
     1
102
RTVSPropertyOp31
 70
     1
102
RTVSPropertyOp32
 70
     1
102
RTVSPropertyOp33
 70
     1
102
RTVSPropertyOp34
 70
     1
102
RTVSPropertyOp35
 70
     1
102
RTVSPropertyOp36
 70
     1
102
RTVSPropertyOp37
 70
     1
102
RTVSPropertyOp38
 70
     1
102
RTVSPropertyOp39
 70
     1
102
RTVSPropertyOp40
 70
     1
102
RTVSPropertyOp41
 70
     1
102
RTVSPropertyOp42
 70
     1
102
RTVSPropertyOp43
 70
     1
102
RTVSPropertyOp44
 70
     1
102
RTVSPropertyOp45
 70
     1
102
RTVSPropertyOp46
 70
     1
102
RTVSPropertyOp47
 70
     1
102
RTVSPropertyOp48
 70
     1
102
RTVSPropertyOp49
 70
     1
102
RTVSPropertyOp50
 70
     1
102
RTVSPropertyOp51
 70
     0
102
RTVSPropertyOp52
 70
     0
102
RTVSPropertyOp53
 70
     1
102
RTVSPropertyOp54
 70
     1
102
RTVSPropertyOp55
 70
     1
102
RTVSPropertyOp56
 70
     1
102
RTVSPropertyOp57
 70
     1
102
RTVSPropertyOp58
 70
     1
102
RTVSPropertyOp59
 70
     1
102
RTVSPropertyOp60
 70
     1
102
RTVSPropertyOp61
 70
     1
102
RTVSPropertyOp62
 70
     1
  0
XRECORD
  5
361F
102
{ACAD_REACTORS
330
361E
102
}
330
361E
100
AcDbXrecord
280
     1
102
RTVSPost2010Prop28
280
     0
102
RTVSPost2010PropOp28
 70
     1
102
RTVSPost2010Prop29
280
     1
102
RTVSPost2010PropOp29
 70
     1
102
RTVSPost2010Prop30
280
     1
102
RTVSPost2010PropOp30
 70
     1
102
RTVSPost2010Prop31
280
     0
102
RTVSPost2010PropOp31
 70
     1
102
RTVSPost2010Prop32
280
     0
102
RTVSPost2010PropOp32
 70
     1
102
RTVSPost2010Prop33
280
     0
102
RTVSPost2010PropOp33
 70
     1
102
RTVSPost2010Prop34
280
     0
102
RTVSPost2010PropOp34
 70
     1
102
RTVSPost2010Prop35
280
     0
102
RTVSPost2010PropOp35
 70
     1
102
RTVSPost2010Prop36
280
     0
102
RTVSPost2010PropOp36
 70
     1
102
RTVSPost2010Prop37
 90
       50
102
RTVSPost2010PropOp37
 70
     1
102
RTVSPost2010Prop38
140
0.0
102
RTVSPost2010PropOp38
 70
     1
102
RTVSPost2010Prop39
140
1.0
102
RTVSPost2010PropOp39
 70
     1
102
RTVSPost2010Prop40
 90
        0
102
RTVSPost2010PropOp40
 70
     1
102
RTVSPost2010Prop41ColorIndex
 90
       18
102
RTVSPost2010Prop41ColorRGB
 90
        0
102
RTVSPost2010PropOp41
 70
     1
102
RTVSPost2010Prop42
 90
       50
102
RTVSPost2010PropOp42
 70
     1
102
RTVSPost2010Prop43
 90
        3
102
RTVSPost2010PropOp43
 70
     1
102
RTVSPost2010Prop44ColorIndex
 90
        5
102
RTVSPost2010Prop44ColorRGB
 90
      255
102
RTVSPost2010PropOp44
 70
     1
102
RTVSPost2010Prop45
280
     0
102
RTVSPost2010PropOp45
 70
     1
102
RTVSPost2010Prop46
 90
       50
102
RTVSPost2010PropOp46
 70
     1
102
RTVSPost2010Prop47
 90
       50
102
RTVSPost2010PropOp47
 70
     1
102
RTVSPost2010Prop48
 90
       50
102
RTVSPost2010PropOp48
 70
     1
102
RTVSPost2010Prop49
280
     0
102
RTVSPost2010PropOp49
 70
     1
102
RTVSPost2010Prop50
 90
       50
102
RTVSPost2010PropOp50
 70
     1
102
RTVSPost2010Prop51ColorIndex
 90
      256
102
RTVSPost2010Prop51ColorRGB
 90
-16777216
102
RTVSPost2010PropOp51
 70
     0
102
RTVSPost2010Prop52
140
1.0
102
RTVSPost2010PropOp52
 70
     0
102
RTVSPost2010Prop53
 90
        2
102
RTVSPost2010PropOp53
 70
     1
102
RTVSPost2010Prop54
  1
strokes_ogs.tif
102
RTVSPost2010PropOp54
 70
     1
102
RTVSPost2010Prop55
280
     0
102
RTVSPost2010PropOp55
 70
     1
102
RTVSPost2010Prop56
140
1.0
102
RTVSPost2010PropOp56
 70
     1
102
RTVSPost2010Prop57
140
1.0
102
RTVSPost2010PropOp57
 70
     1
102
RTVSPropertyOp0
 70
     1
102
RTVSPropertyOp1
 70
     1
102
RTVSPropertyOp2
 70
     1
102
RTVSPropertyOp3
 70
     1
102
RTVSPropertyOp4
 70
     1
102
RTVSPropertyOp5
 70
     1
102
RTVSPropertyOp6
 70
     1
102
RTVSPropertyOp7
 70
     1
102
RTVSPropertyOp8
 70
     1
102
RTVSPropertyOp9
 70
     1
102
RTVSPropertyOp10
 70
     1
102
RTVSPropertyOp11
 70
     1
102
RTVSPropertyOp12
 70
     1
102
RTVSPropertyOp13
 70
     1
102
RTVSPropertyOp14
 70
     1
102
RTVSPropertyOp15
 70
     1
102
RTVSPropertyOp16
 70
     1
102
RTVSPropertyOp17
 70
     1
102
RTVSPropertyOp18
 70
     1
102
RTVSPropertyOp19
 70
     1
102
RTVSPropertyOp20
 70
     1
102
RTVSPropertyOp21
 70
     1
102
RTVSPropertyOp22
 70
     1
102
RTVSPropertyOp23
 70
     1
102
RTVSPropertyOp24
 70
     1
102
RTVSPropertyOp25
 70
     1
102
RTVSPropertyOp26
 70
     1
102
RTVSPropertyOp27
 70
     1
102
RTVSPropertyOp28
 70
     1
102
RTVSPropertyOp29
 70
     1
102
RTVSPropertyOp30
 70
     1
102
RTVSPropertyOp31
 70
     1
102
RTVSPropertyOp32
 70
     1
102
RTVSPropertyOp33
 70
     1
102
RTVSPropertyOp34
 70
     1
102
RTVSPropertyOp35
 70
     1
102
RTVSPropertyOp36
 70
     1
102
RTVSPropertyOp37
 70
     1
102
RTVSPropertyOp38
 70
     1
102
RTVSPropertyOp39
 70
     1
102
RTVSPropertyOp40
 70
     1
102
RTVSPropertyOp41
 70
     1
102
RTVSPropertyOp42
 70
     1
102
RTVSPropertyOp43
 70
     1
102
RTVSPropertyOp44
 70
     1
102
RTVSPropertyOp45
 70
     1
102
RTVSPropertyOp46
 70
     1
102
RTVSPropertyOp47
 70
     1
102
RTVSPropertyOp48
 70
     1
102
RTVSPropertyOp49
 70
     1
102
RTVSPropertyOp50
 70
     1
102
RTVSPropertyOp51
 70
     0
102
RTVSPropertyOp52
 70
     0
102
RTVSPropertyOp53
 70
     1
102
RTVSPropertyOp54
 70
     1
102
RTVSPropertyOp55
 70
     1
102
RTVSPropertyOp56
 70
     1
102
RTVSPropertyOp57
 70
     1
102
RTVSPropertyOp58
 70
     1
102
RTVSPropertyOp59
 70
     1
102
RTVSPropertyOp60
 70
     1
102
RTVSPropertyOp61
 70
     1
102
RTVSPropertyOp62
 70
     1
  0
XRECORD
  5
3639
102
{ACAD_REACTORS
330
3638
102
}
330
3638
100
AcDbXrecord
280
     1
102
RTVSPost2010Prop28
280
     0
102
RTVSPost2010PropOp28
 70
     1
102
RTVSPost2010Prop29
280
     1
102
RTVSPost2010PropOp29
 70
     1
102
RTVSPost2010Prop30
280
     1
102
RTVSPost2010PropOp30
 70
     1
102
RTVSPost2010Prop31
280
     0
102
RTVSPost2010PropOp31
 70
     1
102
RTVSPost2010Prop32
280
     0
102
RTVSPost2010PropOp32
 70
     1
102
RTVSPost2010Prop33
280
     0
102
RTVSPost2010PropOp33
 70
     1
102
RTVSPost2010Prop34
280
     0
102
RTVSPost2010PropOp34
 70
     1
102
RTVSPost2010Prop35
280
     0
102
RTVSPost2010PropOp35
 70
     1
102
RTVSPost2010Prop36
280
     0
102
RTVSPost2010PropOp36
 70
     1
102
RTVSPost2010Prop37
 90
       50
102
RTVSPost2010PropOp37
 70
     0
102
RTVSPost2010Prop38
140
0.0
102
RTVSPost2010PropOp38
 70
     0
102
RTVSPost2010Prop39
140
1.0
102
RTVSPost2010PropOp39
 70
     0
102
RTVSPost2010Prop40
 90
        0
102
RTVSPost2010PropOp40
 70
     0
102
RTVSPost2010Prop41ColorIndex
 90
       18
102
RTVSPost2010Prop41ColorRGB
 90
        0
102
RTVSPost2010PropOp41
 70
     0
102
RTVSPost2010Prop42
 90
       50
102
RTVSPost2010PropOp42
 70
     0
102
RTVSPost2010Prop43
 90
        3
102
RTVSPost2010PropOp43
 70
     0
102
RTVSPost2010Prop44ColorIndex
 90
        5
102
RTVSPost2010Prop44ColorRGB
 90
      255
102
RTVSPost2010PropOp44
 70
     0
102
RTVSPost2010Prop45
280
     0
102
RTVSPost2010PropOp45
 70
     1
102
RTVSPost2010Prop46
 90
       50
102
RTVSPost2010PropOp46
 70
     0
102
RTVSPost2010Prop47
 90
       50
102
RTVSPost2010PropOp47
 70
     0
102
RTVSPost2010Prop48
 90
       50
102
RTVSPost2010PropOp48
 70
     0
102
RTVSPost2010Prop49
280
     0
102
RTVSPost2010PropOp49
 70
     1
102
RTVSPost2010Prop50
 90
       50
102
RTVSPost2010PropOp50
 70
     0
102
RTVSPost2010Prop51ColorIndex
 90
      256
102
RTVSPost2010Prop51ColorRGB
 90
-16777216
102
RTVSPost2010PropOp51
 70
     0
102
RTVSPost2010Prop52
140
1.0
102
RTVSPost2010PropOp52
 70
     0
102
RTVSPost2010Prop53
 90
        2
102
RTVSPost2010PropOp53
 70
     0
102
RTVSPost2010Prop54
  1
strokes_ogs.tif
102
RTVSPost2010PropOp54
 70
     0
102
RTVSPost2010Prop55
280
     0
102
RTVSPost2010PropOp55
 70
     1
102
RTVSPost2010Prop56
140
1.0
102
RTVSPost2010PropOp56
 70
     0
102
RTVSPost2010Prop57
140
1.0
102
RTVSPost2010PropOp57
 70
     0
102
RTVSPropertyOp0
 70
     0
102
RTVSPropertyOp1
 70
     0
102
RTVSPropertyOp2
 70
     0
102
RTVSPropertyOp3
 70
     0
102
RTVSPropertyOp4
 70
     0
102
RTVSPropertyOp5
 70
     0
102
RTVSPropertyOp6
 70
     0
102
RTVSPropertyOp7
 70
     0
102
RTVSPropertyOp8
 70
     0
102
RTVSPropertyOp9
 70
     0
102
RTVSPropertyOp10
 70
     0
102
RTVSPropertyOp11
 70
     0
102
RTVSPropertyOp12
 70
     0
102
RTVSPropertyOp13
 70
     0
102
RTVSPropertyOp14
 70
     2
102
RTVSPropertyOp15
 70
     0
102
RTVSPropertyOp16
 70
     0
102
RTVSPropertyOp17
 70
     0
102
RTVSPropertyOp18
 70
     0
102
RTVSPropertyOp19
 70
     0
102
RTVSPropertyOp20
 70
     0
102
RTVSPropertyOp21
 70
     0
102
RTVSPropertyOp22
 70
     0
102
RTVSPropertyOp23
 70
     0
102
RTVSPropertyOp24
 70
     0
102
RTVSPropertyOp25
 70
     0
102
RTVSPropertyOp26
 70
     0
102
RTVSPropertyOp27
 70
     0
102
RTVSPropertyOp28
 70
     1
102
RTVSPropertyOp29
 70
     1
102
RTVSPropertyOp30
 70
     1
102
RTVSPropertyOp31
 70
     1
102
RTVSPropertyOp32
 70
     1
102
RTVSPropertyOp33
 70
     1
102
RTVSPropertyOp34
 70
     1
102
RTVSPropertyOp35
 70
     1
102
RTVSPropertyOp36
 70
     1
102
RTVSPropertyOp37
 70
     0
102
RTVSPropertyOp38
 70
     0
102
RTVSPropertyOp39
 70
     0
102
RTVSPropertyOp40
 70
     0
102
RTVSPropertyOp41
 70
     0
102
RTVSPropertyOp42
 70
     0
102
RTVSPropertyOp43
 70
     0
102
RTVSPropertyOp44
 70
     0
102
RTVSPropertyOp45
 70
     1
102
RTVSPropertyOp46
 70
     0
102
RTVSPropertyOp47
 70
     0
102
RTVSPropertyOp48
 70
     0
102
RTVSPropertyOp49
 70
     1
102
RTVSPropertyOp50
 70
     0
102
RTVSPropertyOp51
 70
     0
102
RTVSPropertyOp52
 70
     0
102
RTVSPropertyOp53
 70
     0
102
RTVSPropertyOp54
 70
     0
102
RTVSPropertyOp55
 70
     1
102
RTVSPropertyOp56
 70
     0
102
RTVSPropertyOp57
 70
     0
102
RTVSPropertyOp58
 70
     0
102
RTVSPropertyOp59
 70
     0
102
RTVSPropertyOp60
 70
     0
102
RTVSPropertyOp61
 70
     0
102
RTVSPropertyOp62
 70
     0
  0
XRECORD
  5
3627
102
{ACAD_REACTORS
330
3626
102
}
330
3626
100
AcDbXrecord
280
     1
102
RTVSPost2010Prop28
280
     0
102
RTVSPost2010PropOp28
 70
     1
102
RTVSPost2010Prop29
280
     1
102
RTVSPost2010PropOp29
 70
     1
102
RTVSPost2010Prop30
280
     1
102
RTVSPost2010PropOp30
 70
     1
102
RTVSPost2010Prop31
280
     0
102
RTVSPost2010PropOp31
 70
     1
102
RTVSPost2010Prop32
280
     0
102
RTVSPost2010PropOp32
 70
     1
102
RTVSPost2010Prop33
280
     0
102
RTVSPost2010PropOp33
 70
     1
102
RTVSPost2010Prop34
280
     0
102
RTVSPost2010PropOp34
 70
     1
102
RTVSPost2010Prop35
280
     0
102
RTVSPost2010PropOp35
 70
     1
102
RTVSPost2010Prop36
280
     0
102
RTVSPost2010PropOp36
 70
     1
102
RTVSPost2010Prop37
 90
       50
102
RTVSPost2010PropOp37
 70
     1
102
RTVSPost2010Prop38
140
0.0
102
RTVSPost2010PropOp38
 70
     1
102
RTVSPost2010Prop39
140
1.0
102
RTVSPost2010PropOp39
 70
     1
102
RTVSPost2010Prop40
 90
        0
102
RTVSPost2010PropOp40
 70
     1
102
RTVSPost2010Prop41ColorIndex
 90
       18
102
RTVSPost2010Prop41ColorRGB
 90
        0
102
RTVSPost2010PropOp41
 70
     1
102
RTVSPost2010Prop42
 90
       50
102
RTVSPost2010PropOp42
 70
     1
102
RTVSPost2010Prop43
 90
        3
102
RTVSPost2010PropOp43
 70
     1
102
RTVSPost2010Prop44ColorIndex
 90
        5
102
RTVSPost2010Prop44ColorRGB
 90
      255
102
RTVSPost2010PropOp44
 70
     1
102
RTVSPost2010Prop45
280
     0
102
RTVSPost2010PropOp45
 70
     1
102
RTVSPost2010Prop46
 90
       50
102
RTVSPost2010PropOp46
 70
     1
102
RTVSPost2010Prop47
 90
       50
102
RTVSPost2010PropOp47
 70
     1
102
RTVSPost2010Prop48
 90
       50
102
RTVSPost2010PropOp48
 70
     1
102
RTVSPost2010Prop49
280
     0
102
RTVSPost2010PropOp49
 70
     1
102
RTVSPost2010Prop50
 90
       50
102
RTVSPost2010PropOp50
 70
     1
102
RTVSPost2010Prop51ColorIndex
 90
      256
102
RTVSPost2010Prop51ColorRGB
 90
-16777216
102
RTVSPost2010PropOp51
 70
     0
102
RTVSPost2010Prop52
140
1.0
102
RTVSPost2010PropOp52
 70
     0
102
RTVSPost2010Prop53
 90
        2
102
RTVSPost2010PropOp53
 70
     1
102
RTVSPost2010Prop54
  1
strokes_ogs.tif
102
RTVSPost2010PropOp54
 70
     1
102
RTVSPost2010Prop55
280
     0
102
RTVSPost2010PropOp55
 70
     1
102
RTVSPost2010Prop56
140
1.0
102
RTVSPost2010PropOp56
 70
     1
102
RTVSPost2010Prop57
140
1.0
102
RTVSPost2010PropOp57
 70
     1
102
RTVSPropertyOp0
 70
     1
102
RTVSPropertyOp1
 70
     1
102
RTVSPropertyOp2
 70
     1
102
RTVSPropertyOp3
 70
     1
102
RTVSPropertyOp4
 70
     1
102
RTVSPropertyOp5
 70
     1
102
RTVSPropertyOp6
 70
     1
102
RTVSPropertyOp7
 70
     1
102
RTVSPropertyOp8
 70
     1
102
RTVSPropertyOp9
 70
     1
102
RTVSPropertyOp10
 70
     1
102
RTVSPropertyOp11
 70
     1
102
RTVSPropertyOp12
 70
     1
102
RTVSPropertyOp13
 70
     1
102
RTVSPropertyOp14
 70
     1
102
RTVSPropertyOp15
 70
     1
102
RTVSPropertyOp16
 70
     1
102
RTVSPropertyOp17
 70
     1
102
RTVSPropertyOp18
 70
     1
102
RTVSPropertyOp19
 70
     1
102
RTVSPropertyOp20
 70
     1
102
RTVSPropertyOp21
 70
     1
102
RTVSPropertyOp22
 70
     1
102
RTVSPropertyOp23
 70
     1
102
RTVSPropertyOp24
 70
     1
102
RTVSPropertyOp25
 70
     1
102
RTVSPropertyOp26
 70
     1
102
RTVSPropertyOp27
 70
     1
102
RTVSPropertyOp28
 70
     1
102
RTVSPropertyOp29
 70
     1
102
RTVSPropertyOp30
 70
     1
102
RTVSPropertyOp31
 70
     1
102
RTVSPropertyOp32
 70
     1
102
RTVSPropertyOp33
 70
     1
102
RTVSPropertyOp34
 70
     1
102
RTVSPropertyOp35
 70
     1
102
RTVSPropertyOp36
 70
     1
102
RTVSPropertyOp37
 70
     1
102
RTVSPropertyOp38
 70
     1
102
RTVSPropertyOp39
 70
     1
102
RTVSPropertyOp40
 70
     1
102
RTVSPropertyOp41
 70
     1
102
RTVSPropertyOp42
 70
     1
102
RTVSPropertyOp43
 70
     1
102
RTVSPropertyOp44
 70
     1
102
RTVSPropertyOp45
 70
     1
102
RTVSPropertyOp46
 70
     1
102
RTVSPropertyOp47
 70
     1
102
RTVSPropertyOp48
 70
     1
102
RTVSPropertyOp49
 70
     1
102
RTVSPropertyOp50
 70
     1
102
RTVSPropertyOp51
 70
     0
102
RTVSPropertyOp52
 70
     0
102
RTVSPropertyOp53
 70
     1
102
RTVSPropertyOp54
 70
     1
102
RTVSPropertyOp55
 70
     1
102
RTVSPropertyOp56
 70
     1
102
RTVSPropertyOp57
 70
     1
102
RTVSPropertyOp58
 70
     1
102
RTVSPropertyOp59
 70
     1
102
RTVSPropertyOp60
 70
     1
102
RTVSPropertyOp61
 70
     1
102
RTVSPropertyOp62
 70
     1
  0
XRECORD
  5
360B
102
{ACAD_REACTORS
330
360A
102
}
330
360A
100
AcDbXrecord
280
     1
102
RTVSPost2010Prop28
280
     0
102
RTVSPost2010PropOp28
 70
     1
102
RTVSPost2010Prop29
280
     1
102
RTVSPost2010PropOp29
 70
     1
102
RTVSPost2010Prop30
280
     1
102
RTVSPost2010PropOp30
 70
     1
102
RTVSPost2010Prop31
280
     0
102
RTVSPost2010PropOp31
 70
     1
102
RTVSPost2010Prop32
280
     0
102
RTVSPost2010PropOp32
 70
     1
102
RTVSPost2010Prop33
280
     0
102
RTVSPost2010PropOp33
 70
     1
102
RTVSPost2010Prop34
280
     0
102
RTVSPost2010PropOp34
 70
     1
102
RTVSPost2010Prop35
280
     0
102
RTVSPost2010PropOp35
 70
     1
102
RTVSPost2010Prop36
280
     0
102
RTVSPost2010PropOp36
 70
     1
102
RTVSPost2010Prop37
 90
       50
102
RTVSPost2010PropOp37
 70
     1
102
RTVSPost2010Prop38
140
0.0
102
RTVSPost2010PropOp38
 70
     1
102
RTVSPost2010Prop39
140
1.0
102
RTVSPost2010PropOp39
 70
     1
102
RTVSPost2010Prop40
 90
        0
102
RTVSPost2010PropOp40
 70
     1
102
RTVSPost2010Prop41ColorIndex
 90
       18
102
RTVSPost2010Prop41ColorRGB
 90
        0
102
RTVSPost2010PropOp41
 70
     1
102
RTVSPost2010Prop42
 90
       50
102
RTVSPost2010PropOp42
 70
     1
102
RTVSPost2010Prop43
 90
        3
102
RTVSPost2010PropOp43
 70
     1
102
RTVSPost2010Prop44ColorIndex
 90
        5
102
RTVSPost2010Prop44ColorRGB
 90
      255
102
RTVSPost2010PropOp44
 70
     1
102
RTVSPost2010Prop45
280
     0
102
RTVSPost2010PropOp45
 70
     1
102
RTVSPost2010Prop46
 90
       50
102
RTVSPost2010PropOp46
 70
     1
102
RTVSPost2010Prop47
 90
       50
102
RTVSPost2010PropOp47
 70
     1
102
RTVSPost2010Prop48
 90
       50
102
RTVSPost2010PropOp48
 70
     1
102
RTVSPost2010Prop49
280
     0
102
RTVSPost2010PropOp49
 70
     1
102
RTVSPost2010Prop50
 90
       50
102
RTVSPost2010PropOp50
 70
     1
102
RTVSPost2010Prop51ColorIndex
 90
      256
102
RTVSPost2010Prop51ColorRGB
 90
-16777216
102
RTVSPost2010PropOp51
 70
     0
102
RTVSPost2010Prop52
140
1.0
102
RTVSPost2010PropOp52
 70
     0
102
RTVSPost2010Prop53
 90
        2
102
RTVSPost2010PropOp53
 70
     1
102
RTVSPost2010Prop54
  1
strokes_ogs.tif
102
RTVSPost2010PropOp54
 70
     1
102
RTVSPost2010Prop55
280
     0
102
RTVSPost2010PropOp55
 70
     1
102
RTVSPost2010Prop56
140
1.0
102
RTVSPost2010PropOp56
 70
     1
102
RTVSPost2010Prop57
140
1.0
102
RTVSPost2010PropOp57
 70
     1
102
RTVSPropertyOp0
 70
     1
102
RTVSPropertyOp1
 70
     1
102
RTVSPropertyOp2
 70
     1
102
RTVSPropertyOp3
 70
     1
102
RTVSPropertyOp4
 70
     1
102
RTVSPropertyOp5
 70
     1
102
RTVSPropertyOp6
 70
     1
102
RTVSPropertyOp7
 70
     1
102
RTVSPropertyOp8
 70
     1
102
RTVSPropertyOp9
 70
     1
102
RTVSPropertyOp10
 70
     1
102
RTVSPropertyOp11
 70
     1
102
RTVSPropertyOp12
 70
     1
102
RTVSPropertyOp13
 70
     1
102
RTVSPropertyOp14
 70
     1
102
RTVSPropertyOp15
 70
     1
102
RTVSPropertyOp16
 70
     1
102
RTVSPropertyOp17
 70
     1
102
RTVSPropertyOp18
 70
     1
102
RTVSPropertyOp19
 70
     1
102
RTVSPropertyOp20
 70
     1
102
RTVSPropertyOp21
 70
     1
102
RTVSPropertyOp22
 70
     1
102
RTVSPropertyOp23
 70
     1
102
RTVSPropertyOp24
 70
     1
102
RTVSPropertyOp25
 70
     1
102
RTVSPropertyOp26
 70
     1
102
RTVSPropertyOp27
 70
     1
102
RTVSPropertyOp28
 70
     1
102
RTVSPropertyOp29
 70
     1
102
RTVSPropertyOp30
 70
     1
102
RTVSPropertyOp31
 70
     1
102
RTVSPropertyOp32
 70
     1
102
RTVSPropertyOp33
 70
     1
102
RTVSPropertyOp34
 70
     1
102
RTVSPropertyOp35
 70
     1
102
RTVSPropertyOp36
 70
     1
102
RTVSPropertyOp37
 70
     1
102
RTVSPropertyOp38
 70
     1
102
RTVSPropertyOp39
 70
     1
102
RTVSPropertyOp40
 70
     1
102
RTVSPropertyOp41
 70
     1
102
RTVSPropertyOp42
 70
     1
102
RTVSPropertyOp43
 70
     1
102
RTVSPropertyOp44
 70
     1
102
RTVSPropertyOp45
 70
     1
102
RTVSPropertyOp46
 70
     1
102
RTVSPropertyOp47
 70
     1
102
RTVSPropertyOp48
 70
     1
102
RTVSPropertyOp49
 70
     1
102
RTVSPropertyOp50
 70
     1
102
RTVSPropertyOp51
 70
     0
102
RTVSPropertyOp52
 70
     0
102
RTVSPropertyOp53
 70
     1
102
RTVSPropertyOp54
 70
     1
102
RTVSPropertyOp55
 70
     1
102
RTVSPropertyOp56
 70
     1
102
RTVSPropertyOp57
 70
     1
102
RTVSPropertyOp58
 70
     1
102
RTVSPropertyOp59
 70
     1
102
RTVSPropertyOp60
 70
     1
102
RTVSPropertyOp61
 70
     1
102
RTVSPropertyOp62
 70
     1
  0
XRECORD
  5
360D
102
{ACAD_REACTORS
330
360C
102
}
330
360C
100
AcDbXrecord
280
     1
102
RTVSPost2010Prop28
280
     0
102
RTVSPost2010PropOp28
 70
     1
102
RTVSPost2010Prop29
280
     1
102
RTVSPost2010PropOp29
 70
     1
102
RTVSPost2010Prop30
280
     1
102
RTVSPost2010PropOp30
 70
     1
102
RTVSPost2010Prop31
280
     0
102
RTVSPost2010PropOp31
 70
     1
102
RTVSPost2010Prop32
280
     0
102
RTVSPost2010PropOp32
 70
     1
102
RTVSPost2010Prop33
280
     0
102
RTVSPost2010PropOp33
 70
     1
102
RTVSPost2010Prop34
280
     0
102
RTVSPost2010PropOp34
 70
     1
102
RTVSPost2010Prop35
280
     0
102
RTVSPost2010PropOp35
 70
     1
102
RTVSPost2010Prop36
280
     0
102
RTVSPost2010PropOp36
 70
     1
102
RTVSPost2010Prop37
 90
       50
102
RTVSPost2010PropOp37
 70
     1
102
RTVSPost2010Prop38
140
0.0
102
RTVSPost2010PropOp38
 70
     1
102
RTVSPost2010Prop39
140
1.0
102
RTVSPost2010PropOp39
 70
     1
102
RTVSPost2010Prop40
 90
        0
102
RTVSPost2010PropOp40
 70
     1
102
RTVSPost2010Prop41ColorIndex
 90
       18
102
RTVSPost2010Prop41ColorRGB
 90
        0
102
RTVSPost2010PropOp41
 70
     1
102
RTVSPost2010Prop42
 90
       50
102
RTVSPost2010PropOp42
 70
     1
102
RTVSPost2010Prop43
 90
        3
102
RTVSPost2010PropOp43
 70
     1
102
RTVSPost2010Prop44ColorIndex
 90
        5
102
RTVSPost2010Prop44ColorRGB
 90
      255
102
RTVSPost2010PropOp44
 70
     1
102
RTVSPost2010Prop45
280
     0
102
RTVSPost2010PropOp45
 70
     1
102
RTVSPost2010Prop46
 90
       50
102
RTVSPost2010PropOp46
 70
     1
102
RTVSPost2010Prop47
 90
       50
102
RTVSPost2010PropOp47
 70
     1
102
RTVSPost2010Prop48
 90
       50
102
RTVSPost2010PropOp48
 70
     1
102
RTVSPost2010Prop49
280
     0
102
RTVSPost2010PropOp49
 70
     1
102
RTVSPost2010Prop50
 90
       50
102
RTVSPost2010PropOp50
 70
     1
102
RTVSPost2010Prop51ColorIndex
 90
      256
102
RTVSPost2010Prop51ColorRGB
 90
-16777216
102
RTVSPost2010PropOp51
 70
     0
102
RTVSPost2010Prop52
140
1.0
102
RTVSPost2010PropOp52
 70
     0
102
RTVSPost2010Prop53
 90
        2
102
RTVSPost2010PropOp53
 70
     1
102
RTVSPost2010Prop54
  1
strokes_ogs.tif
102
RTVSPost2010PropOp54
 70
     1
102
RTVSPost2010Prop55
280
     0
102
RTVSPost2010PropOp55
 70
     1
102
RTVSPost2010Prop56
140
1.0
102
RTVSPost2010PropOp56
 70
     1
102
RTVSPost2010Prop57
140
1.0
102
RTVSPost2010PropOp57
 70
     1
102
RTVSPropertyOp0
 70
     1
102
RTVSPropertyOp1
 70
     1
102
RTVSPropertyOp2
 70
     1
102
RTVSPropertyOp3
 70
     1
102
RTVSPropertyOp4
 70
     1
102
RTVSPropertyOp5
 70
     1
102
RTVSPropertyOp6
 70
     1
102
RTVSPropertyOp7
 70
     1
102
RTVSPropertyOp8
 70
     1
102
RTVSPropertyOp9
 70
     1
102
RTVSPropertyOp10
 70
     1
102
RTVSPropertyOp11
 70
     1
102
RTVSPropertyOp12
 70
     1
102
RTVSPropertyOp13
 70
     1
102
RTVSPropertyOp14
 70
     1
102
RTVSPropertyOp15
 70
     1
102
RTVSPropertyOp16
 70
     1
102
RTVSPropertyOp17
 70
     1
102
RTVSPropertyOp18
 70
     1
102
RTVSPropertyOp19
 70
     1
102
RTVSPropertyOp20
 70
     1
102
RTVSPropertyOp21
 70
     1
102
RTVSPropertyOp22
 70
     1
102
RTVSPropertyOp23
 70
     1
102
RTVSPropertyOp24
 70
     1
102
RTVSPropertyOp25
 70
     1
102
RTVSPropertyOp26
 70
     1
102
RTVSPropertyOp27
 70
     1
102
RTVSPropertyOp28
 70
     1
102
RTVSPropertyOp29
 70
     1
102
RTVSPropertyOp30
 70
     1
102
RTVSPropertyOp31
 70
     1
102
RTVSPropertyOp32
 70
     1
102
RTVSPropertyOp33
 70
     1
102
RTVSPropertyOp34
 70
     1
102
RTVSPropertyOp35
 70
     1
102
RTVSPropertyOp36
 70
     1
102
RTVSPropertyOp37
 70
     1
102
RTVSPropertyOp38
 70
     1
102
RTVSPropertyOp39
 70
     1
102
RTVSPropertyOp40
 70
     1
102
RTVSPropertyOp41
 70
     1
102
RTVSPropertyOp42
 70
     1
102
RTVSPropertyOp43
 70
     1
102
RTVSPropertyOp44
 70
     1
102
RTVSPropertyOp45
 70
     1
102
RTVSPropertyOp46
 70
     1
102
RTVSPropertyOp47
 70
     1
102
RTVSPropertyOp48
 70
     1
102
RTVSPropertyOp49
 70
     1
102
RTVSPropertyOp50
 70
     1
102
RTVSPropertyOp51
 70
     0
102
RTVSPropertyOp52
 70
     0
102
RTVSPropertyOp53
 70
     1
102
RTVSPropertyOp54
 70
     1
102
RTVSPropertyOp55
 70
     1
102
RTVSPropertyOp56
 70
     1
102
RTVSPropertyOp57
 70
     1
102
RTVSPropertyOp58
 70
     1
102
RTVSPropertyOp59
 70
     1
102
RTVSPropertyOp60
 70
     1
102
RTVSPropertyOp61
 70
     1
102
RTVSPropertyOp62
 70
     1
  0
XRECORD
  5
360F
102
{ACAD_REACTORS
330
360E
102
}
330
360E
100
AcDbXrecord
280
     1
102
RTVSPost2010Prop28
280
     0
102
RTVSPost2010PropOp28
 70
     1
102
RTVSPost2010Prop29
280
     1
102
RTVSPost2010PropOp29
 70
     1
102
RTVSPost2010Prop30
280
     1
102
RTVSPost2010PropOp30
 70
     1
102
RTVSPost2010Prop31
280
     0
102
RTVSPost2010PropOp31
 70
     1
102
RTVSPost2010Prop32
280
     0
102
RTVSPost2010PropOp32
 70
     1
102
RTVSPost2010Prop33
280
     0
102
RTVSPost2010PropOp33
 70
     1
102
RTVSPost2010Prop34
280
     0
102
RTVSPost2010PropOp34
 70
     1
102
RTVSPost2010Prop35
280
     0
102
RTVSPost2010PropOp35
 70
     1
102
RTVSPost2010Prop36
280
     0
102
RTVSPost2010PropOp36
 70
     1
102
RTVSPost2010Prop37
 90
       50
102
RTVSPost2010PropOp37
 70
     1
102
RTVSPost2010Prop38
140
0.0
102
RTVSPost2010PropOp38
 70
     1
102
RTVSPost2010Prop39
140
1.0
102
RTVSPost2010PropOp39
 70
     1
102
RTVSPost2010Prop40
 90
        0
102
RTVSPost2010PropOp40
 70
     1
102
RTVSPost2010Prop41ColorIndex
 90
       18
102
RTVSPost2010Prop41ColorRGB
 90
        0
102
RTVSPost2010PropOp41
 70
     1
102
RTVSPost2010Prop42
 90
       50
102
RTVSPost2010PropOp42
 70
     1
102
RTVSPost2010Prop43
 90
        3
102
RTVSPost2010PropOp43
 70
     1
102
RTVSPost2010Prop44ColorIndex
 90
        5
102
RTVSPost2010Prop44ColorRGB
 90
      255
102
RTVSPost2010PropOp44
 70
     1
102
RTVSPost2010Prop45
280
     0
102
RTVSPost2010PropOp45
 70
     1
102
RTVSPost2010Prop46
 90
       50
102
RTVSPost2010PropOp46
 70
     1
102
RTVSPost2010Prop47
 90
       50
102
RTVSPost2010PropOp47
 70
     1
102
RTVSPost2010Prop48
 90
       50
102
RTVSPost2010PropOp48
 70
     1
102
RTVSPost2010Prop49
280
     0
102
RTVSPost2010PropOp49
 70
     1
102
RTVSPost2010Prop50
 90
       50
102
RTVSPost2010PropOp50
 70
     1
102
RTVSPost2010Prop51ColorIndex
 90
      256
102
RTVSPost2010Prop51ColorRGB
 90
-16777216
102
RTVSPost2010PropOp51
 70
     0
102
RTVSPost2010Prop52
140
1.0
102
RTVSPost2010PropOp52
 70
     0
102
RTVSPost2010Prop53
 90
        2
102
RTVSPost2010PropOp53
 70
     1
102
RTVSPost2010Prop54
  1
strokes_ogs.tif
102
RTVSPost2010PropOp54
 70
     1
102
RTVSPost2010Prop55
280
     0
102
RTVSPost2010PropOp55
 70
     1
102
RTVSPost2010Prop56
140
1.0
102
RTVSPost2010PropOp56
 70
     1
102
RTVSPost2010Prop57
140
1.0
102
RTVSPost2010PropOp57
 70
     1
102
RTVSPropertyOp0
 70
     1
102
RTVSPropertyOp1
 70
     1
102
RTVSPropertyOp2
 70
     1
102
RTVSPropertyOp3
 70
     1
102
RTVSPropertyOp4
 70
     1
102
RTVSPropertyOp5
 70
     1
102
RTVSPropertyOp6
 70
     1
102
RTVSPropertyOp7
 70
     1
102
RTVSPropertyOp8
 70
     1
102
RTVSPropertyOp9
 70
     1
102
RTVSPropertyOp10
 70
     1
102
RTVSPropertyOp11
 70
     1
102
RTVSPropertyOp12
 70
     1
102
RTVSPropertyOp13
 70
     1
102
RTVSPropertyOp14
 70
     1
102
RTVSPropertyOp15
 70
     1
102
RTVSPropertyOp16
 70
     1
102
RTVSPropertyOp17
 70
     1
102
RTVSPropertyOp18
 70
     1
102
RTVSPropertyOp19
 70
     1
102
RTVSPropertyOp20
 70
     1
102
RTVSPropertyOp21
 70
     1
102
RTVSPropertyOp22
 70
     1
102
RTVSPropertyOp23
 70
     1
102
RTVSPropertyOp24
 70
     1
102
RTVSPropertyOp25
 70
     1
102
RTVSPropertyOp26
 70
     1
102
RTVSPropertyOp27
 70
     1
102
RTVSPropertyOp28
 70
     1
102
RTVSPropertyOp29
 70
     1
102
RTVSPropertyOp30
 70
     1
102
RTVSPropertyOp31
 70
     1
102
RTVSPropertyOp32
 70
     1
102
RTVSPropertyOp33
 70
     1
102
RTVSPropertyOp34
 70
     1
102
RTVSPropertyOp35
 70
     1
102
RTVSPropertyOp36
 70
     1
102
RTVSPropertyOp37
 70
     1
102
RTVSPropertyOp38
 70
     1
102
RTVSPropertyOp39
 70
     1
102
RTVSPropertyOp40
 70
     1
102
RTVSPropertyOp41
 70
     1
102
RTVSPropertyOp42
 70
     1
102
RTVSPropertyOp43
 70
     1
102
RTVSPropertyOp44
 70
     1
102
RTVSPropertyOp45
 70
     1
102
RTVSPropertyOp46
 70
     1
102
RTVSPropertyOp47
 70
     1
102
RTVSPropertyOp48
 70
     1
102
RTVSPropertyOp49
 70
     1
102
RTVSPropertyOp50
 70
     1
102
RTVSPropertyOp51
 70
     0
102
RTVSPropertyOp52
 70
     0
102
RTVSPropertyOp53
 70
     1
102
RTVSPropertyOp54
 70
     1
102
RTVSPropertyOp55
 70
     1
102
RTVSPropertyOp56
 70
     1
102
RTVSPropertyOp57
 70
     1
102
RTVSPropertyOp58
 70
     1
102
RTVSPropertyOp59
 70
     1
102
RTVSPropertyOp60
 70
     1
102
RTVSPropertyOp61
 70
     1
102
RTVSPropertyOp62
 70
     1
  0
XRECORD
  5
3611
102
{ACAD_REACTORS
330
3610
102
}
330
3610
100
AcDbXrecord
280
     1
102
RTVSPost2010Prop28
280
     0
102
RTVSPost2010PropOp28
 70
     1
102
RTVSPost2010Prop29
280
     1
102
RTVSPost2010PropOp29
 70
     1
102
RTVSPost2010Prop30
280
     1
102
RTVSPost2010PropOp30
 70
     1
102
RTVSPost2010Prop31
280
     0
102
RTVSPost2010PropOp31
 70
     1
102
RTVSPost2010Prop32
280
     0
102
RTVSPost2010PropOp32
 70
     1
102
RTVSPost2010Prop33
280
     0
102
RTVSPost2010PropOp33
 70
     1
102
RTVSPost2010Prop34
280
     0
102
RTVSPost2010PropOp34
 70
     1
102
RTVSPost2010Prop35
280
     0
102
RTVSPost2010PropOp35
 70
     1
102
RTVSPost2010Prop36
280
     0
102
RTVSPost2010PropOp36
 70
     1
102
RTVSPost2010Prop37
 90
       50
102
RTVSPost2010PropOp37
 70
     1
102
RTVSPost2010Prop38
140
0.0
102
RTVSPost2010PropOp38
 70
     1
102
RTVSPost2010Prop39
140
1.0
102
RTVSPost2010PropOp39
 70
     1
102
RTVSPost2010Prop40
 90
        0
102
RTVSPost2010PropOp40
 70
     1
102
RTVSPost2010Prop41ColorIndex
 90
       18
102
RTVSPost2010Prop41ColorRGB
 90
        0
102
RTVSPost2010PropOp41
 70
     1
102
RTVSPost2010Prop42
 90
       50
102
RTVSPost2010PropOp42
 70
     1
102
RTVSPost2010Prop43
 90
        3
102
RTVSPost2010PropOp43
 70
     1
102
RTVSPost2010Prop44ColorIndex
 90
        5
102
RTVSPost2010Prop44ColorRGB
 90
      255
102
RTVSPost2010PropOp44
 70
     1
102
RTVSPost2010Prop45
280
     0
102
RTVSPost2010PropOp45
 70
     1
102
RTVSPost2010Prop46
 90
       50
102
RTVSPost2010PropOp46
 70
     1
102
RTVSPost2010Prop47
 90
       50
102
RTVSPost2010PropOp47
 70
     1
102
RTVSPost2010Prop48
 90
       50
102
RTVSPost2010PropOp48
 70
     1
102
RTVSPost2010Prop49
280
     0
102
RTVSPost2010PropOp49
 70
     1
102
RTVSPost2010Prop50
 90
       50
102
RTVSPost2010PropOp50
 70
     1
102
RTVSPost2010Prop51ColorIndex
 90
      256
102
RTVSPost2010Prop51ColorRGB
 90
-16777216
102
RTVSPost2010PropOp51
 70
     0
102
RTVSPost2010Prop52
140
1.0
102
RTVSPost2010PropOp52
 70
     0
102
RTVSPost2010Prop53
 90
        2
102
RTVSPost2010PropOp53
 70
     1
102
RTVSPost2010Prop54
  1
strokes_ogs.tif
102
RTVSPost2010PropOp54
 70
     1
102
RTVSPost2010Prop55
280
     0
102
RTVSPost2010PropOp55
 70
     1
102
RTVSPost2010Prop56
140
1.0
102
RTVSPost2010PropOp56
 70
     1
102
RTVSPost2010Prop57
140
1.0
102
RTVSPost2010PropOp57
 70
     1
102
RTVSPropertyOp0
 70
     1
102
RTVSPropertyOp1
 70
     1
102
RTVSPropertyOp2
 70
     1
102
RTVSPropertyOp3
 70
     1
102
RTVSPropertyOp4
 70
     1
102
RTVSPropertyOp5
 70
     1
102
RTVSPropertyOp6
 70
     1
102
RTVSPropertyOp7
 70
     1
102
RTVSPropertyOp8
 70
     1
102
RTVSPropertyOp9
 70
     1
102
RTVSPropertyOp10
 70
     1
102
RTVSPropertyOp11
 70
     1
102
RTVSPropertyOp12
 70
     1
102
RTVSPropertyOp13
 70
     1
102
RTVSPropertyOp14
 70
     1
102
RTVSPropertyOp15
 70
     1
102
RTVSPropertyOp16
 70
     1
102
RTVSPropertyOp17
 70
     1
102
RTVSPropertyOp18
 70
     1
102
RTVSPropertyOp19
 70
     1
102
RTVSPropertyOp20
 70
     1
102
RTVSPropertyOp21
 70
     1
102
RTVSPropertyOp22
 70
     1
102
RTVSPropertyOp23
 70
     1
102
RTVSPropertyOp24
 70
     1
102
RTVSPropertyOp25
 70
     1
102
RTVSPropertyOp26
 70
     1
102
RTVSPropertyOp27
 70
     1
102
RTVSPropertyOp28
 70
     1
102
RTVSPropertyOp29
 70
     1
102
RTVSPropertyOp30
 70
     1
102
RTVSPropertyOp31
 70
     1
102
RTVSPropertyOp32
 70
     1
102
RTVSPropertyOp33
 70
     1
102
RTVSPropertyOp34
 70
     1
102
RTVSPropertyOp35
 70
     1
102
RTVSPropertyOp36
 70
     1
102
RTVSPropertyOp37
 70
     1
102
RTVSPropertyOp38
 70
     1
102
RTVSPropertyOp39
 70
     1
102
RTVSPropertyOp40
 70
     1
102
RTVSPropertyOp41
 70
     1
102
RTVSPropertyOp42
 70
     1
102
RTVSPropertyOp43
 70
     1
102
RTVSPropertyOp44
 70
     1
102
RTVSPropertyOp45
 70
     1
102
RTVSPropertyOp46
 70
     1
102
RTVSPropertyOp47
 70
     1
102
RTVSPropertyOp48
 70
     1
102
RTVSPropertyOp49
 70
     1
102
RTVSPropertyOp50
 70
     1
102
RTVSPropertyOp51
 70
     0
102
RTVSPropertyOp52
 70
     0
102
RTVSPropertyOp53
 70
     1
102
RTVSPropertyOp54
 70
     1
102
RTVSPropertyOp55
 70
     1
102
RTVSPropertyOp56
 70
     1
102
RTVSPropertyOp57
 70
     1
102
RTVSPropertyOp58
 70
     1
102
RTVSPropertyOp59
 70
     1
102
RTVSPropertyOp60
 70
     1
102
RTVSPropertyOp61
 70
     1
102
RTVSPropertyOp62
 70
     1
  0
XRECORD
  5
3619
102
{ACAD_REACTORS
330
3618
102
}
330
3618
100
AcDbXrecord
280
     1
102
RTVSPost2010Prop28
280
     0
102
RTVSPost2010PropOp28
 70
     1
102
RTVSPost2010Prop29
280
     1
102
RTVSPost2010PropOp29
 70
     1
102
RTVSPost2010Prop30
280
     1
102
RTVSPost2010PropOp30
 70
     1
102
RTVSPost2010Prop31
280
     0
102
RTVSPost2010PropOp31
 70
     1
102
RTVSPost2010Prop32
280
     0
102
RTVSPost2010PropOp32
 70
     1
102
RTVSPost2010Prop33
280
     0
102
RTVSPost2010PropOp33
 70
     1
102
RTVSPost2010Prop34
280
     0
102
RTVSPost2010PropOp34
 70
     1
102
RTVSPost2010Prop35
280
     0
102
RTVSPost2010PropOp35
 70
     1
102
RTVSPost2010Prop36
280
     0
102
RTVSPost2010PropOp36
 70
     1
102
RTVSPost2010Prop37
 90
       50
102
RTVSPost2010PropOp37
 70
     1
102
RTVSPost2010Prop38
140
0.0
102
RTVSPost2010PropOp38
 70
     1
102
RTVSPost2010Prop39
140
1.0
102
RTVSPost2010PropOp39
 70
     1
102
RTVSPost2010Prop40
 90
        0
102
RTVSPost2010PropOp40
 70
     1
102
RTVSPost2010Prop41ColorIndex
 90
       18
102
RTVSPost2010Prop41ColorRGB
 90
        0
102
RTVSPost2010PropOp41
 70
     1
102
RTVSPost2010Prop42
 90
       50
102
RTVSPost2010PropOp42
 70
     1
102
RTVSPost2010Prop43
 90
        3
102
RTVSPost2010PropOp43
 70
     1
102
RTVSPost2010Prop44ColorIndex
 90
        5
102
RTVSPost2010Prop44ColorRGB
 90
      255
102
RTVSPost2010PropOp44
 70
     1
102
RTVSPost2010Prop45
280
     0
102
RTVSPost2010PropOp45
 70
     1
102
RTVSPost2010Prop46
 90
       50
102
RTVSPost2010PropOp46
 70
     1
102
RTVSPost2010Prop47
 90
       50
102
RTVSPost2010PropOp47
 70
     1
102
RTVSPost2010Prop48
 90
       50
102
RTVSPost2010PropOp48
 70
     1
102
RTVSPost2010Prop49
280
     0
102
RTVSPost2010PropOp49
 70
     1
102
RTVSPost2010Prop50
 90
       50
102
RTVSPost2010PropOp50
 70
     1
102
RTVSPost2010Prop51ColorIndex
 90
      256
102
RTVSPost2010Prop51ColorRGB
 90
-16777216
102
RTVSPost2010PropOp51
 70
     0
102
RTVSPost2010Prop52
140
1.0
102
RTVSPost2010PropOp52
 70
     0
102
RTVSPost2010Prop53
 90
        2
102
RTVSPost2010PropOp53
 70
     1
102
RTVSPost2010Prop54
  1
strokes_ogs.tif
102
RTVSPost2010PropOp54
 70
     1
102
RTVSPost2010Prop55
280
     0
102
RTVSPost2010PropOp55
 70
     1
102
RTVSPost2010Prop56
140
1.0
102
RTVSPost2010PropOp56
 70
     1
102
RTVSPost2010Prop57
140
1.0
102
RTVSPost2010PropOp57
 70
     1
102
RTVSPropertyOp0
 70
     1
102
RTVSPropertyOp1
 70
     1
102
RTVSPropertyOp2
 70
     1
102
RTVSPropertyOp3
 70
     1
102
RTVSPropertyOp4
 70
     1
102
RTVSPropertyOp5
 70
     1
102
RTVSPropertyOp6
 70
     1
102
RTVSPropertyOp7
 70
     1
102
RTVSPropertyOp8
 70
     1
102
RTVSPropertyOp9
 70
     1
102
RTVSPropertyOp10
 70
     1
102
RTVSPropertyOp11
 70
     1
102
RTVSPropertyOp12
 70
     1
102
RTVSPropertyOp13
 70
     1
102
RTVSPropertyOp14
 70
     1
102
RTVSPropertyOp15
 70
     1
102
RTVSPropertyOp16
 70
     1
102
RTVSPropertyOp17
 70
     1
102
RTVSPropertyOp18
 70
     1
102
RTVSPropertyOp19
 70
     1
102
RTVSPropertyOp20
 70
     1
102
RTVSPropertyOp21
 70
     1
102
RTVSPropertyOp22
 70
     1
102
RTVSPropertyOp23
 70
     1
102
RTVSPropertyOp24
 70
     1
102
RTVSPropertyOp25
 70
     1
102
RTVSPropertyOp26
 70
     1
102
RTVSPropertyOp27
 70
     1
102
RTVSPropertyOp28
 70
     1
102
RTVSPropertyOp29
 70
     1
102
RTVSPropertyOp30
 70
     1
102
RTVSPropertyOp31
 70
     1
102
RTVSPropertyOp32
 70
     1
102
RTVSPropertyOp33
 70
     1
102
RTVSPropertyOp34
 70
     1
102
RTVSPropertyOp35
 70
     1
102
RTVSPropertyOp36
 70
     1
102
RTVSPropertyOp37
 70
     1
102
RTVSPropertyOp38
 70
     1
102
RTVSPropertyOp39
 70
     1
102
RTVSPropertyOp40
 70
     1
102
RTVSPropertyOp41
 70
     1
102
RTVSPropertyOp42
 70
     1
102
RTVSPropertyOp43
 70
     1
102
RTVSPropertyOp44
 70
     1
102
RTVSPropertyOp45
 70
     1
102
RTVSPropertyOp46
 70
     1
102
RTVSPropertyOp47
 70
     1
102
RTVSPropertyOp48
 70
     1
102
RTVSPropertyOp49
 70
     1
102
RTVSPropertyOp50
 70
     1
102
RTVSPropertyOp51
 70
     0
102
RTVSPropertyOp52
 70
     0
102
RTVSPropertyOp53
 70
     1
102
RTVSPropertyOp54
 70
     1
102
RTVSPropertyOp55
 70
     1
102
RTVSPropertyOp56
 70
     1
102
RTVSPropertyOp57
 70
     1
102
RTVSPropertyOp58
 70
     1
102
RTVSPropertyOp59
 70
     1
102
RTVSPropertyOp60
 70
     1
102
RTVSPropertyOp61
 70
     1
102
RTVSPropertyOp62
 70
     1
  0
XRECORD
  5
3635
102
{ACAD_REACTORS
330
3634
102
}
330
3634
100
AcDbXrecord
280
     1
102
RTVSPost2010Prop28
280
     0
102
RTVSPost2010PropOp28
 70
     1
102
RTVSPost2010Prop29
280
     1
102
RTVSPost2010PropOp29
 70
     1
102
RTVSPost2010Prop30
280
     1
102
RTVSPost2010PropOp30
 70
     1
102
RTVSPost2010Prop31
280
     0
102
RTVSPost2010PropOp31
 70
     1
102
RTVSPost2010Prop32
280
     0
102
RTVSPost2010PropOp32
 70
     1
102
RTVSPost2010Prop33
280
     0
102
RTVSPost2010PropOp33
 70
     1
102
RTVSPost2010Prop34
280
     0
102
RTVSPost2010PropOp34
 70
     1
102
RTVSPost2010Prop35
280
     0
102
RTVSPost2010PropOp35
 70
     1
102
RTVSPost2010Prop36
280
     0
102
RTVSPost2010PropOp36
 70
     1
102
RTVSPost2010Prop37
 90
       50
102
RTVSPost2010PropOp37
 70
     0
102
RTVSPost2010Prop38
140
0.0
102
RTVSPost2010PropOp38
 70
     0
102
RTVSPost2010Prop39
140
1.0
102
RTVSPost2010PropOp39
 70
     0
102
RTVSPost2010Prop40
 90
        0
102
RTVSPost2010PropOp40
 70
     0
102
RTVSPost2010Prop41ColorIndex
 90
       18
102
RTVSPost2010Prop41ColorRGB
 90
        0
102
RTVSPost2010PropOp41
 70
     0
102
RTVSPost2010Prop42
 90
       50
102
RTVSPost2010PropOp42
 70
     0
102
RTVSPost2010Prop43
 90
        3
102
RTVSPost2010PropOp43
 70
     0
102
RTVSPost2010Prop44ColorIndex
 90
        5
102
RTVSPost2010Prop44ColorRGB
 90
      255
102
RTVSPost2010PropOp44
 70
     0
102
RTVSPost2010Prop45
280
     0
102
RTVSPost2010PropOp45
 70
     1
102
RTVSPost2010Prop46
 90
       50
102
RTVSPost2010PropOp46
 70
     0
102
RTVSPost2010Prop47
 90
       50
102
RTVSPost2010PropOp47
 70
     0
102
RTVSPost2010Prop48
 90
       50
102
RTVSPost2010PropOp48
 70
     0
102
RTVSPost2010Prop49
280
     0
102
RTVSPost2010PropOp49
 70
     1
102
RTVSPost2010Prop50
 90
       50
102
RTVSPost2010PropOp50
 70
     0
102
RTVSPost2010Prop51ColorIndex
 90
      256
102
RTVSPost2010Prop51ColorRGB
 90
-16777216
102
RTVSPost2010PropOp51
 70
     0
102
RTVSPost2010Prop52
140
1.0
102
RTVSPost2010PropOp52
 70
     0
102
RTVSPost2010Prop53
 90
        2
102
RTVSPost2010PropOp53
 70
     0
102
RTVSPost2010Prop54
  1
strokes_ogs.tif
102
RTVSPost2010PropOp54
 70
     0
102
RTVSPost2010Prop55
280
     0
102
RTVSPost2010PropOp55
 70
     1
102
RTVSPost2010Prop56
140
1.0
102
RTVSPost2010PropOp56
 70
     0
102
RTVSPost2010Prop57
140
1.0
102
RTVSPost2010PropOp57
 70
     0
102
RTVSPropertyOp0
 70
     0
102
RTVSPropertyOp1
 70
     0
102
RTVSPropertyOp2
 70
     0
102
RTVSPropertyOp3
 70
     0
102
RTVSPropertyOp4
 70
     0
102
RTVSPropertyOp5
 70
     0
102
RTVSPropertyOp6
 70
     0
102
RTVSPropertyOp7
 70
     0
102
RTVSPropertyOp8
 70
     0
102
RTVSPropertyOp9
 70
     0
102
RTVSPropertyOp10
 70
     0
102
RTVSPropertyOp11
 70
     0
102
RTVSPropertyOp12
 70
     0
102
RTVSPropertyOp13
 70
     0
102
RTVSPropertyOp14
 70
     2
102
RTVSPropertyOp15
 70
     0
102
RTVSPropertyOp16
 70
     0
102
RTVSPropertyOp17
 70
     0
102
RTVSPropertyOp18
 70
     0
102
RTVSPropertyOp19
 70
     0
102
RTVSPropertyOp20
 70
     0
102
RTVSPropertyOp21
 70
     0
102
RTVSPropertyOp22
 70
     0
102
RTVSPropertyOp23
 70
     0
102
RTVSPropertyOp24
 70
     0
102
RTVSPropertyOp25
 70
     0
102
RTVSPropertyOp26
 70
     0
102
RTVSPropertyOp27
 70
     0
102
RTVSPropertyOp28
 70
     1
102
RTVSPropertyOp29
 70
     1
102
RTVSPropertyOp30
 70
     1
102
RTVSPropertyOp31
 70
     1
102
RTVSPropertyOp32
 70
     1
102
RTVSPropertyOp33
 70
     1
102
RTVSPropertyOp34
 70
     1
102
RTVSPropertyOp35
 70
     1
102
RTVSPropertyOp36
 70
     1
102
RTVSPropertyOp37
 70
     0
102
RTVSPropertyOp38
 70
     0
102
RTVSPropertyOp39
 70
     0
102
RTVSPropertyOp40
 70
     0
102
RTVSPropertyOp41
 70
     0
102
RTVSPropertyOp42
 70
     0
102
RTVSPropertyOp43
 70
     0
102
RTVSPropertyOp44
 70
     0
102
RTVSPropertyOp45
 70
     1
102
RTVSPropertyOp46
 70
     0
102
RTVSPropertyOp47
 70
     0
102
RTVSPropertyOp48
 70
     0
102
RTVSPropertyOp49
 70
     1
102
RTVSPropertyOp50
 70
     0
102
RTVSPropertyOp51
 70
     0
102
RTVSPropertyOp52
 70
     0
102
RTVSPropertyOp53
 70
     0
102
RTVSPropertyOp54
 70
     0
102
RTVSPropertyOp55
 70
     1
102
RTVSPropertyOp56
 70
     0
102
RTVSPropertyOp57
 70
     0
102
RTVSPropertyOp58
 70
     0
102
RTVSPropertyOp59
 70
     0
102
RTVSPropertyOp60
 70
     0
102
RTVSPropertyOp61
 70
     0
102
RTVSPropertyOp62
 70
     0
  0
XRECORD
  5
3625
102
{ACAD_REACTORS
330
3624
102
}
330
3624
100
AcDbXrecord
280
     1
102
RTVSPost2010Prop28
280
     0
102
RTVSPost2010PropOp28
 70
     1
102
RTVSPost2010Prop29
280
     1
102
RTVSPost2010PropOp29
 70
     1
102
RTVSPost2010Prop30
280
     1
102
RTVSPost2010PropOp30
 70
     1
102
RTVSPost2010Prop31
280
     0
102
RTVSPost2010PropOp31
 70
     1
102
RTVSPost2010Prop32
280
     0
102
RTVSPost2010PropOp32
 70
     1
102
RTVSPost2010Prop33
280
     0
102
RTVSPost2010PropOp33
 70
     1
102
RTVSPost2010Prop34
280
     0
102
RTVSPost2010PropOp34
 70
     1
102
RTVSPost2010Prop35
280
     0
102
RTVSPost2010PropOp35
 70
     1
102
RTVSPost2010Prop36
280
     0
102
RTVSPost2010PropOp36
 70
     1
102
RTVSPost2010Prop37
 90
       50
102
RTVSPost2010PropOp37
 70
     1
102
RTVSPost2010Prop38
140
0.0
102
RTVSPost2010PropOp38
 70
     1
102
RTVSPost2010Prop39
140
1.0
102
RTVSPost2010PropOp39
 70
     1
102
RTVSPost2010Prop40
 90
        0
102
RTVSPost2010PropOp40
 70
     1
102
RTVSPost2010Prop41ColorIndex
 90
       18
102
RTVSPost2010Prop41ColorRGB
 90
        0
102
RTVSPost2010PropOp41
 70
     1
102
RTVSPost2010Prop42
 90
       50
102
RTVSPost2010PropOp42
 70
     1
102
RTVSPost2010Prop43
 90
        3
102
RTVSPost2010PropOp43
 70
     1
102
RTVSPost2010Prop44ColorIndex
 90
        5
102
RTVSPost2010Prop44ColorRGB
 90
      255
102
RTVSPost2010PropOp44
 70
     1
102
RTVSPost2010Prop45
280
     0
102
RTVSPost2010PropOp45
 70
     1
102
RTVSPost2010Prop46
 90
       50
102
RTVSPost2010PropOp46
 70
     1
102
RTVSPost2010Prop47
 90
       50
102
RTVSPost2010PropOp47
 70
     1
102
RTVSPost2010Prop48
 90
       50
102
RTVSPost2010PropOp48
 70
     1
102
RTVSPost2010Prop49
280
     0
102
RTVSPost2010PropOp49
 70
     1
102
RTVSPost2010Prop50
 90
       50
102
RTVSPost2010PropOp50
 70
     1
102
RTVSPost2010Prop51ColorIndex
 90
      256
102
RTVSPost2010Prop51ColorRGB
 90
-16777216
102
RTVSPost2010PropOp51
 70
     0
102
RTVSPost2010Prop52
140
1.0
102
RTVSPost2010PropOp52
 70
     0
102
RTVSPost2010Prop53
 90
        2
102
RTVSPost2010PropOp53
 70
     1
102
RTVSPost2010Prop54
  1
strokes_ogs.tif
102
RTVSPost2010PropOp54
 70
     1
102
RTVSPost2010Prop55
280
     0
102
RTVSPost2010PropOp55
 70
     1
102
RTVSPost2010Prop56
140
1.0
102
RTVSPost2010PropOp56
 70
     1
102
RTVSPost2010Prop57
140
1.0
102
RTVSPost2010PropOp57
 70
     1
102
RTVSPropertyOp0
 70
     1
102
RTVSPropertyOp1
 70
     1
102
RTVSPropertyOp2
 70
     1
102
RTVSPropertyOp3
 70
     1
102
RTVSPropertyOp4
 70
     1
102
RTVSPropertyOp5
 70
     1
102
RTVSPropertyOp6
 70
     1
102
RTVSPropertyOp7
 70
     1
102
RTVSPropertyOp8
 70
     1
102
RTVSPropertyOp9
 70
     1
102
RTVSPropertyOp10
 70
     1
102
RTVSPropertyOp11
 70
     1
102
RTVSPropertyOp12
 70
     1
102
RTVSPropertyOp13
 70
     1
102
RTVSPropertyOp14
 70
     1
102
RTVSPropertyOp15
 70
     1
102
RTVSPropertyOp16
 70
     1
102
RTVSPropertyOp17
 70
     1
102
RTVSPropertyOp18
 70
     1
102
RTVSPropertyOp19
 70
     1
102
RTVSPropertyOp20
 70
     1
102
RTVSPropertyOp21
 70
     1
102
RTVSPropertyOp22
 70
     1
102
RTVSPropertyOp23
 70
     1
102
RTVSPropertyOp24
 70
     1
102
RTVSPropertyOp25
 70
     1
102
RTVSPropertyOp26
 70
     1
102
RTVSPropertyOp27
 70
     1
102
RTVSPropertyOp28
 70
     1
102
RTVSPropertyOp29
 70
     1
102
RTVSPropertyOp30
 70
     1
102
RTVSPropertyOp31
 70
     1
102
RTVSPropertyOp32
 70
     1
102
RTVSPropertyOp33
 70
     1
102
RTVSPropertyOp34
 70
     1
102
RTVSPropertyOp35
 70
     1
102
RTVSPropertyOp36
 70
     1
102
RTVSPropertyOp37
 70
     1
102
RTVSPropertyOp38
 70
     1
102
RTVSPropertyOp39
 70
     1
102
RTVSPropertyOp40
 70
     1
102
RTVSPropertyOp41
 70
     1
102
RTVSPropertyOp42
 70
     1
102
RTVSPropertyOp43
 70
     1
102
RTVSPropertyOp44
 70
     1
102
RTVSPropertyOp45
 70
     1
102
RTVSPropertyOp46
 70
     1
102
RTVSPropertyOp47
 70
     1
102
RTVSPropertyOp48
 70
     1
102
RTVSPropertyOp49
 70
     1
102
RTVSPropertyOp50
 70
     1
102
RTVSPropertyOp51
 70
     0
102
RTVSPropertyOp52
 70
     0
102
RTVSPropertyOp53
 70
     1
102
RTVSPropertyOp54
 70
     1
102
RTVSPropertyOp55
 70
     1
102
RTVSPropertyOp56
 70
     1
102
RTVSPropertyOp57
 70
     1
102
RTVSPropertyOp58
 70
     1
102
RTVSPropertyOp59
 70
     1
102
RTVSPropertyOp60
 70
     1
102
RTVSPropertyOp61
 70
     1
102
RTVSPropertyOp62
 70
     1
  0
XRECORD
  5
3637
102
{ACAD_REACTORS
330
3636
102
}
330
3636
100
AcDbXrecord
280
     1
102
RTVSPost2010Prop28
280
     0
102
RTVSPost2010PropOp28
 70
     1
102
RTVSPost2010Prop29
280
     1
102
RTVSPost2010PropOp29
 70
     1
102
RTVSPost2010Prop30
280
     1
102
RTVSPost2010PropOp30
 70
     1
102
RTVSPost2010Prop31
280
     0
102
RTVSPost2010PropOp31
 70
     1
102
RTVSPost2010Prop32
280
     0
102
RTVSPost2010PropOp32
 70
     1
102
RTVSPost2010Prop33
280
     0
102
RTVSPost2010PropOp33
 70
     1
102
RTVSPost2010Prop34
280
     0
102
RTVSPost2010PropOp34
 70
     1
102
RTVSPost2010Prop35
280
     0
102
RTVSPost2010PropOp35
 70
     1
102
RTVSPost2010Prop36
280
     0
102
RTVSPost2010PropOp36
 70
     1
102
RTVSPost2010Prop37
 90
       50
102
RTVSPost2010PropOp37
 70
     0
102
RTVSPost2010Prop38
140
0.0
102
RTVSPost2010PropOp38
 70
     0
102
RTVSPost2010Prop39
140
1.0
102
RTVSPost2010PropOp39
 70
     0
102
RTVSPost2010Prop40
 90
        0
102
RTVSPost2010PropOp40
 70
     0
102
RTVSPost2010Prop41ColorIndex
 90
       18
102
RTVSPost2010Prop41ColorRGB
 90
        0
102
RTVSPost2010PropOp41
 70
     0
102
RTVSPost2010Prop42
 90
       50
102
RTVSPost2010PropOp42
 70
     0
102
RTVSPost2010Prop43
 90
        3
102
RTVSPost2010PropOp43
 70
     0
102
RTVSPost2010Prop44ColorIndex
 90
        5
102
RTVSPost2010Prop44ColorRGB
 90
      255
102
RTVSPost2010PropOp44
 70
     0
102
RTVSPost2010Prop45
280
     0
102
RTVSPost2010PropOp45
 70
     1
102
RTVSPost2010Prop46
 90
       50
102
RTVSPost2010PropOp46
 70
     0
102
RTVSPost2010Prop47
 90
       50
102
RTVSPost2010PropOp47
 70
     0
102
RTVSPost2010Prop48
 90
       50
102
RTVSPost2010PropOp48
 70
     0
102
RTVSPost2010Prop49
280
     0
102
RTVSPost2010PropOp49
 70
     1
102
RTVSPost2010Prop50
 90
       50
102
RTVSPost2010PropOp50
 70
     0
102
RTVSPost2010Prop51ColorIndex
 90
      256
102
RTVSPost2010Prop51ColorRGB
 90
-16777216
102
RTVSPost2010PropOp51
 70
     0
102
RTVSPost2010Prop52
140
1.0
102
RTVSPost2010PropOp52
 70
     0
102
RTVSPost2010Prop53
 90
        2
102
RTVSPost2010PropOp53
 70
     0
102
RTVSPost2010Prop54
  1
strokes_ogs.tif
102
RTVSPost2010PropOp54
 70
     0
102
RTVSPost2010Prop55
280
     0
102
RTVSPost2010PropOp55
 70
     1
102
RTVSPost2010Prop56
140
1.0
102
RTVSPost2010PropOp56
 70
     0
102
RTVSPost2010Prop57
140
1.0
102
RTVSPost2010PropOp57
 70
     0
102
RTVSPropertyOp0
 70
     0
102
RTVSPropertyOp1
 70
     0
102
RTVSPropertyOp2
 70
     0
102
RTVSPropertyOp3
 70
     0
102
RTVSPropertyOp4
 70
     0
102
RTVSPropertyOp5
 70
     0
102
RTVSPropertyOp6
 70
     0
102
RTVSPropertyOp7
 70
     0
102
RTVSPropertyOp8
 70
     0
102
RTVSPropertyOp9
 70
     0
102
RTVSPropertyOp10
 70
     0
102
RTVSPropertyOp11
 70
     0
102
RTVSPropertyOp12
 70
     0
102
RTVSPropertyOp13
 70
     0
102
RTVSPropertyOp14
 70
     2
102
RTVSPropertyOp15
 70
     0
102
RTVSPropertyOp16
 70
     0
102
RTVSPropertyOp17
 70
     0
102
RTVSPropertyOp18
 70
     0
102
RTVSPropertyOp19
 70
     0
102
RTVSPropertyOp20
 70
     0
102
RTVSPropertyOp21
 70
     0
102
RTVSPropertyOp22
 70
     0
102
RTVSPropertyOp23
 70
     0
102
RTVSPropertyOp24
 70
     0
102
RTVSPropertyOp25
 70
     0
102
RTVSPropertyOp26
 70
     0
102
RTVSPropertyOp27
 70
     0
102
RTVSPropertyOp28
 70
     1
102
RTVSPropertyOp29
 70
     1
102
RTVSPropertyOp30
 70
     1
102
RTVSPropertyOp31
 70
     1
102
RTVSPropertyOp32
 70
     1
102
RTVSPropertyOp33
 70
     1
102
RTVSPropertyOp34
 70
     1
102
RTVSPropertyOp35
 70
     1
102
RTVSPropertyOp36
 70
     1
102
RTVSPropertyOp37
 70
     0
102
RTVSPropertyOp38
 70
     0
102
RTVSPropertyOp39
 70
     0
102
RTVSPropertyOp40
 70
     0
102
RTVSPropertyOp41
 70
     0
102
RTVSPropertyOp42
 70
     0
102
RTVSPropertyOp43
 70
     0
102
RTVSPropertyOp44
 70
     0
102
RTVSPropertyOp45
 70
     1
102
RTVSPropertyOp46
 70
     0
102
RTVSPropertyOp47
 70
     0
102
RTVSPropertyOp48
 70
     0
102
RTVSPropertyOp49
 70
     1
102
RTVSPropertyOp50
 70
     0
102
RTVSPropertyOp51
 70
     0
102
RTVSPropertyOp52
 70
     0
102
RTVSPropertyOp53
 70
     0
102
RTVSPropertyOp54
 70
     0
102
RTVSPropertyOp55
 70
     1
102
RTVSPropertyOp56
 70
     0
102
RTVSPropertyOp57
 70
     0
102
RTVSPropertyOp58
 70
     0
102
RTVSPropertyOp59
 70
     0
102
RTVSPropertyOp60
 70
     0
102
RTVSPropertyOp61
 70
     0
102
RTVSPropertyOp62
 70
     0
  0
XRECORD
  5
361D
102
{ACAD_REACTORS
330
361C
102
}
330
361C
100
AcDbXrecord
280
     1
102
RTVSPost2010Prop28
280
     0
102
RTVSPost2010PropOp28
 70
     1
102
RTVSPost2010Prop29
280
     1
102
RTVSPost2010PropOp29
 70
     1
102
RTVSPost2010Prop30
280
     1
102
RTVSPost2010PropOp30
 70
     1
102
RTVSPost2010Prop31
280
     0
102
RTVSPost2010PropOp31
 70
     1
102
RTVSPost2010Prop32
280
     0
102
RTVSPost2010PropOp32
 70
     1
102
RTVSPost2010Prop33
280
     0
102
RTVSPost2010PropOp33
 70
     1
102
RTVSPost2010Prop34
280
     0
102
RTVSPost2010PropOp34
 70
     1
102
RTVSPost2010Prop35
280
     0
102
RTVSPost2010PropOp35
 70
     1
102
RTVSPost2010Prop36
280
     0
102
RTVSPost2010PropOp36
 70
     1
102
RTVSPost2010Prop37
 90
       50
102
RTVSPost2010PropOp37
 70
     1
102
RTVSPost2010Prop38
140
0.0
102
RTVSPost2010PropOp38
 70
     1
102
RTVSPost2010Prop39
140
1.0
102
RTVSPost2010PropOp39
 70
     1
102
RTVSPost2010Prop40
 90
        0
102
RTVSPost2010PropOp40
 70
     1
102
RTVSPost2010Prop41ColorIndex
 90
       18
102
RTVSPost2010Prop41ColorRGB
 90
        0
102
RTVSPost2010PropOp41
 70
     1
102
RTVSPost2010Prop42
 90
       50
102
RTVSPost2010PropOp42
 70
     1
102
RTVSPost2010Prop43
 90
        3
102
RTVSPost2010PropOp43
 70
     1
102
RTVSPost2010Prop44ColorIndex
 90
        5
102
RTVSPost2010Prop44ColorRGB
 90
      255
102
RTVSPost2010PropOp44
 70
     1
102
RTVSPost2010Prop45
280
     0
102
RTVSPost2010PropOp45
 70
     1
102
RTVSPost2010Prop46
 90
       50
102
RTVSPost2010PropOp46
 70
     1
102
RTVSPost2010Prop47
 90
       50
102
RTVSPost2010PropOp47
 70
     1
102
RTVSPost2010Prop48
 90
       50
102
RTVSPost2010PropOp48
 70
     1
102
RTVSPost2010Prop49
280
     0
102
RTVSPost2010PropOp49
 70
     1
102
RTVSPost2010Prop50
 90
       50
102
RTVSPost2010PropOp50
 70
     1
102
RTVSPost2010Prop51ColorIndex
 90
      256
102
RTVSPost2010Prop51ColorRGB
 90
-16777216
102
RTVSPost2010PropOp51
 70
     0
102
RTVSPost2010Prop52
140
1.0
102
RTVSPost2010PropOp52
 70
     0
102
RTVSPost2010Prop53
 90
        2
102
RTVSPost2010PropOp53
 70
     1
102
RTVSPost2010Prop54
  1
strokes_ogs.tif
102
RTVSPost2010PropOp54
 70
     1
102
RTVSPost2010Prop55
280
     0
102
RTVSPost2010PropOp55
 70
     1
102
RTVSPost2010Prop56
140
1.0
102
RTVSPost2010PropOp56
 70
     1
102
RTVSPost2010Prop57
140
1.0
102
RTVSPost2010PropOp57
 70
     1
102
RTVSPropertyOp0
 70
     1
102
RTVSPropertyOp1
 70
     1
102
RTVSPropertyOp2
 70
     1
102
RTVSPropertyOp3
 70
     1
102
RTVSPropertyOp4
 70
     1
102
RTVSPropertyOp5
 70
     1
102
RTVSPropertyOp6
 70
     1
102
RTVSPropertyOp7
 70
     1
102
RTVSPropertyOp8
 70
     1
102
RTVSPropertyOp9
 70
     1
102
RTVSPropertyOp10
 70
     1
102
RTVSPropertyOp11
 70
     1
102
RTVSPropertyOp12
 70
     1
102
RTVSPropertyOp13
 70
     1
102
RTVSPropertyOp14
 70
     1
102
RTVSPropertyOp15
 70
     1
102
RTVSPropertyOp16
 70
     1
102
RTVSPropertyOp17
 70
     1
102
RTVSPropertyOp18
 70
     1
102
RTVSPropertyOp19
 70
     1
102
RTVSPropertyOp20
 70
     1
102
RTVSPropertyOp21
 70
     1
102
RTVSPropertyOp22
 70
     1
102
RTVSPropertyOp23
 70
     1
102
RTVSPropertyOp24
 70
     1
102
RTVSPropertyOp25
 70
     1
102
RTVSPropertyOp26
 70
     1
102
RTVSPropertyOp27
 70
     1
102
RTVSPropertyOp28
 70
     1
102
RTVSPropertyOp29
 70
     1
102
RTVSPropertyOp30
 70
     1
102
RTVSPropertyOp31
 70
     1
102
RTVSPropertyOp32
 70
     1
102
RTVSPropertyOp33
 70
     1
102
RTVSPropertyOp34
 70
     1
102
RTVSPropertyOp35
 70
     1
102
RTVSPropertyOp36
 70
     1
102
RTVSPropertyOp37
 70
     1
102
RTVSPropertyOp38
 70
     1
102
RTVSPropertyOp39
 70
     1
102
RTVSPropertyOp40
 70
     1
102
RTVSPropertyOp41
 70
     1
102
RTVSPropertyOp42
 70
     1
102
RTVSPropertyOp43
 70
     1
102
RTVSPropertyOp44
 70
     1
102
RTVSPropertyOp45
 70
     1
102
RTVSPropertyOp46
 70
     1
102
RTVSPropertyOp47
 70
     1
102
RTVSPropertyOp48
 70
     1
102
RTVSPropertyOp49
 70
     1
102
RTVSPropertyOp50
 70
     1
102
RTVSPropertyOp51
 70
     0
102
RTVSPropertyOp52
 70
     0
102
RTVSPropertyOp53
 70
     1
102
RTVSPropertyOp54
 70
     1
102
RTVSPropertyOp55
 70
     1
102
RTVSPropertyOp56
 70
     1
102
RTVSPropertyOp57
 70
     1
102
RTVSPropertyOp58
 70
     1
102
RTVSPropertyOp59
 70
     1
102
RTVSPropertyOp60
 70
     1
102
RTVSPropertyOp61
 70
     1
102
RTVSPropertyOp62
 70
     1
  0
XRECORD
  5
3633
102
{ACAD_REACTORS
330
3632
102
}
330
3632
100
AcDbXrecord
280
     1
102
RTVSPost2010Prop28
280
     0
102
RTVSPost2010PropOp28
 70
     1
102
RTVSPost2010Prop29
280
     1
102
RTVSPost2010PropOp29
 70
     1
102
RTVSPost2010Prop30
280
     1
102
RTVSPost2010PropOp30
 70
     1
102
RTVSPost2010Prop31
280
     0
102
RTVSPost2010PropOp31
 70
     1
102
RTVSPost2010Prop32
280
     0
102
RTVSPost2010PropOp32
 70
     1
102
RTVSPost2010Prop33
280
     0
102
RTVSPost2010PropOp33
 70
     1
102
RTVSPost2010Prop34
280
     0
102
RTVSPost2010PropOp34
 70
     1
102
RTVSPost2010Prop35
280
     0
102
RTVSPost2010PropOp35
 70
     1
102
RTVSPost2010Prop36
280
     0
102
RTVSPost2010PropOp36
 70
     1
102
RTVSPost2010Prop37
 90
       50
102
RTVSPost2010PropOp37
 70
     1
102
RTVSPost2010Prop38
140
0.0
102
RTVSPost2010PropOp38
 70
     1
102
RTVSPost2010Prop39
140
1.0
102
RTVSPost2010PropOp39
 70
     1
102
RTVSPost2010Prop40
 90
        0
102
RTVSPost2010PropOp40
 70
     1
102
RTVSPost2010Prop41ColorIndex
 90
       18
102
RTVSPost2010Prop41ColorRGB
 90
        0
102
RTVSPost2010PropOp41
 70
     1
102
RTVSPost2010Prop42
 90
       50
102
RTVSPost2010PropOp42
 70
     1
102
RTVSPost2010Prop43
 90
        3
102
RTVSPost2010PropOp43
 70
     1
102
RTVSPost2010Prop44ColorIndex
 90
        5
102
RTVSPost2010Prop44ColorRGB
 90
      255
102
RTVSPost2010PropOp44
 70
     1
102
RTVSPost2010Prop45
280
     0
102
RTVSPost2010PropOp45
 70
     1
102
RTVSPost2010Prop46
 90
       50
102
RTVSPost2010PropOp46
 70
     1
102
RTVSPost2010Prop47
 90
       50
102
RTVSPost2010PropOp47
 70
     1
102
RTVSPost2010Prop48
 90
       50
102
RTVSPost2010PropOp48
 70
     1
102
RTVSPost2010Prop49
280
     0
102
RTVSPost2010PropOp49
 70
     1
102
RTVSPost2010Prop50
 90
       50
102
RTVSPost2010PropOp50
 70
     1
102
RTVSPost2010Prop51ColorIndex
 90
      256
102
RTVSPost2010Prop51ColorRGB
 90
-16777216
102
RTVSPost2010PropOp51
 70
     0
102
RTVSPost2010Prop52
140
1.0
102
RTVSPost2010PropOp52
 70
     0
102
RTVSPost2010Prop53
 90
        2
102
RTVSPost2010PropOp53
 70
     1
102
RTVSPost2010Prop54
  1
strokes_ogs.tif
102
RTVSPost2010PropOp54
 70
     1
102
RTVSPost2010Prop55
280
     0
102
RTVSPost2010PropOp55
 70
     1
102
RTVSPost2010Prop56
140
1.0
102
RTVSPost2010PropOp56
 70
     1
102
RTVSPost2010Prop57
140
1.0
102
RTVSPost2010PropOp57
 70
     1
102
RTVSPropertyOp0
 70
     1
102
RTVSPropertyOp1
 70
     1
102
RTVSPropertyOp2
 70
     1
102
RTVSPropertyOp3
 70
     1
102
RTVSPropertyOp4
 70
     1
102
RTVSPropertyOp5
 70
     1
102
RTVSPropertyOp6
 70
     1
102
RTVSPropertyOp7
 70
     1
102
RTVSPropertyOp8
 70
     1
102
RTVSPropertyOp9
 70
     1
102
RTVSPropertyOp10
 70
     1
102
RTVSPropertyOp11
 70
     1
102
RTVSPropertyOp12
 70
     1
102
RTVSPropertyOp13
 70
     1
102
RTVSPropertyOp14
 70
     1
102
RTVSPropertyOp15
 70
     1
102
RTVSPropertyOp16
 70
     1
102
RTVSPropertyOp17
 70
     1
102
RTVSPropertyOp18
 70
     1
102
RTVSPropertyOp19
 70
     1
102
RTVSPropertyOp20
 70
     1
102
RTVSPropertyOp21
 70
     1
102
RTVSPropertyOp22
 70
     1
102
RTVSPropertyOp23
 70
     1
102
RTVSPropertyOp24
 70
     1
102
RTVSPropertyOp25
 70
     1
102
RTVSPropertyOp26
 70
     1
102
RTVSPropertyOp27
 70
     1
102
RTVSPropertyOp28
 70
     1
102
RTVSPropertyOp29
 70
     1
102
RTVSPropertyOp30
 70
     1
102
RTVSPropertyOp31
 70
     1
102
RTVSPropertyOp32
 70
     1
102
RTVSPropertyOp33
 70
     1
102
RTVSPropertyOp34
 70
     1
102
RTVSPropertyOp35
 70
     1
102
RTVSPropertyOp36
 70
     1
102
RTVSPropertyOp37
 70
     1
102
RTVSPropertyOp38
 70
     1
102
RTVSPropertyOp39
 70
     1
102
RTVSPropertyOp40
 70
     1
102
RTVSPropertyOp41
 70
     1
102
RTVSPropertyOp42
 70
     1
102
RTVSPropertyOp43
 70
     1
102
RTVSPropertyOp44
 70
     1
102
RTVSPropertyOp45
 70
     1
102
RTVSPropertyOp46
 70
     1
102
RTVSPropertyOp47
 70
     1
102
RTVSPropertyOp48
 70
     1
102
RTVSPropertyOp49
 70
     1
102
RTVSPropertyOp50
 70
     1
102
RTVSPropertyOp51
 70
     0
102
RTVSPropertyOp52
 70
     0
102
RTVSPropertyOp53
 70
     1
102
RTVSPropertyOp54
 70
     1
102
RTVSPropertyOp55
 70
     1
102
RTVSPropertyOp56
 70
     1
102
RTVSPropertyOp57
 70
     1
102
RTVSPropertyOp58
 70
     1
102
RTVSPropertyOp59
 70
     1
102
RTVSPropertyOp60
 70
     1
102
RTVSPropertyOp61
 70
     1
102
RTVSPropertyOp62
 70
     1
  0
XRECORD
  5
3631
102
{ACAD_REACTORS
330
3630
102
}
330
3630
100
AcDbXrecord
280
     1
102
RTVSPost2010Prop28
280
     0
102
RTVSPost2010PropOp28
 70
     1
102
RTVSPost2010Prop29
280
     1
102
RTVSPost2010PropOp29
 70
     1
102
RTVSPost2010Prop30
280
     1
102
RTVSPost2010PropOp30
 70
     1
102
RTVSPost2010Prop31
280
     0
102
RTVSPost2010PropOp31
 70
     1
102
RTVSPost2010Prop32
280
     0
102
RTVSPost2010PropOp32
 70
     1
102
RTVSPost2010Prop33
280
     0
102
RTVSPost2010PropOp33
 70
     1
102
RTVSPost2010Prop34
280
     0
102
RTVSPost2010PropOp34
 70
     1
102
RTVSPost2010Prop35
280
     0
102
RTVSPost2010PropOp35
 70
     1
102
RTVSPost2010Prop36
280
     0
102
RTVSPost2010PropOp36
 70
     1
102
RTVSPost2010Prop37
 90
       50
102
RTVSPost2010PropOp37
 70
     1
102
RTVSPost2010Prop38
140
0.0
102
RTVSPost2010PropOp38
 70
     1
102
RTVSPost2010Prop39
140
1.0
102
RTVSPost2010PropOp39
 70
     1
102
RTVSPost2010Prop40
 90
        0
102
RTVSPost2010PropOp40
 70
     1
102
RTVSPost2010Prop41ColorIndex
 90
       18
102
RTVSPost2010Prop41ColorRGB
 90
        0
102
RTVSPost2010PropOp41
 70
     1
102
RTVSPost2010Prop42
 90
       50
102
RTVSPost2010PropOp42
 70
     1
102
RTVSPost2010Prop43
 90
        3
102
RTVSPost2010PropOp43
 70
     1
102
RTVSPost2010Prop44ColorIndex
 90
        5
102
RTVSPost2010Prop44ColorRGB
 90
      255
102
RTVSPost2010PropOp44
 70
     1
102
RTVSPost2010Prop45
280
     0
102
RTVSPost2010PropOp45
 70
     1
102
RTVSPost2010Prop46
 90
       50
102
RTVSPost2010PropOp46
 70
     1
102
RTVSPost2010Prop47
 90
       50
102
RTVSPost2010PropOp47
 70
     1
102
RTVSPost2010Prop48
 90
       50
102
RTVSPost2010PropOp48
 70
     1
102
RTVSPost2010Prop49
280
     0
102
RTVSPost2010PropOp49
 70
     1
102
RTVSPost2010Prop50
 90
       50
102
RTVSPost2010PropOp50
 70
     1
102
RTVSPost2010Prop51ColorIndex
 90
      256
102
RTVSPost2010Prop51ColorRGB
 90
-16777216
102
RTVSPost2010PropOp51
 70
     0
102
RTVSPost2010Prop52
140
1.0
102
RTVSPost2010PropOp52
 70
     0
102
RTVSPost2010Prop53
 90
        2
102
RTVSPost2010PropOp53
 70
     1
102
RTVSPost2010Prop54
  1
strokes_ogs.tif
102
RTVSPost2010PropOp54
 70
     1
102
RTVSPost2010Prop55
280
     0
102
RTVSPost2010PropOp55
 70
     1
102
RTVSPost2010Prop56
140
1.0
102
RTVSPost2010PropOp56
 70
     1
102
RTVSPost2010Prop57
140
1.0
102
RTVSPost2010PropOp57
 70
     1
102
RTVSPropertyOp0
 70
     1
102
RTVSPropertyOp1
 70
     1
102
RTVSPropertyOp2
 70
     1
102
RTVSPropertyOp3
 70
     1
102
RTVSPropertyOp4
 70
     1
102
RTVSPropertyOp5
 70
     1
102
RTVSPropertyOp6
 70
     1
102
RTVSPropertyOp7
 70
     1
102
RTVSPropertyOp8
 70
     1
102
RTVSPropertyOp9
 70
     1
102
RTVSPropertyOp10
 70
     1
102
RTVSPropertyOp11
 70
     1
102
RTVSPropertyOp12
 70
     1
102
RTVSPropertyOp13
 70
     1
102
RTVSPropertyOp14
 70
     1
102
RTVSPropertyOp15
 70
     1
102
RTVSPropertyOp16
 70
     1
102
RTVSPropertyOp17
 70
     1
102
RTVSPropertyOp18
 70
     1
102
RTVSPropertyOp19
 70
     1
102
RTVSPropertyOp20
 70
     1
102
RTVSPropertyOp21
 70
     1
102
RTVSPropertyOp22
 70
     1
102
RTVSPropertyOp23
 70
     1
102
RTVSPropertyOp24
 70
     1
102
RTVSPropertyOp25
 70
     1
102
RTVSPropertyOp26
 70
     1
102
RTVSPropertyOp27
 70
     1
102
RTVSPropertyOp28
 70
     1
102
RTVSPropertyOp29
 70
     1
102
RTVSPropertyOp30
 70
     1
102
RTVSPropertyOp31
 70
     1
102
RTVSPropertyOp32
 70
     1
102
RTVSPropertyOp33
 70
     1
102
RTVSPropertyOp34
 70
     1
102
RTVSPropertyOp35
 70
     1
102
RTVSPropertyOp36
 70
     1
102
RTVSPropertyOp37
 70
     1
102
RTVSPropertyOp38
 70
     1
102
RTVSPropertyOp39
 70
     1
102
RTVSPropertyOp40
 70
     1
102
RTVSPropertyOp41
 70
     1
102
RTVSPropertyOp42
 70
     1
102
RTVSPropertyOp43
 70
     1
102
RTVSPropertyOp44
 70
     1
102
RTVSPropertyOp45
 70
     1
102
RTVSPropertyOp46
 70
     1
102
RTVSPropertyOp47
 70
     1
102
RTVSPropertyOp48
 70
     1
102
RTVSPropertyOp49
 70
     1
102
RTVSPropertyOp50
 70
     1
102
RTVSPropertyOp51
 70
     0
102
RTVSPropertyOp52
 70
     0
102
RTVSPropertyOp53
 70
     1
102
RTVSPropertyOp54
 70
     1
102
RTVSPropertyOp55
 70
     1
102
RTVSPropertyOp56
 70
     1
102
RTVSPropertyOp57
 70
     1
102
RTVSPropertyOp58
 70
     1
102
RTVSPropertyOp59
 70
     1
102
RTVSPropertyOp60
 70
     1
102
RTVSPropertyOp61
 70
     1
102
RTVSPropertyOp62
 70
     1
  0
XRECORD
  5
362B
102
{ACAD_REACTORS
330
362A
102
}
330
362A
100
AcDbXrecord
280
     1
102
RTVSPost2010Prop28
280
     0
102
RTVSPost2010PropOp28
 70
     1
102
RTVSPost2010Prop29
280
     1
102
RTVSPost2010PropOp29
 70
     1
102
RTVSPost2010Prop30
280
     1
102
RTVSPost2010PropOp30
 70
     1
102
RTVSPost2010Prop31
280
     0
102
RTVSPost2010PropOp31
 70
     1
102
RTVSPost2010Prop32
280
     0
102
RTVSPost2010PropOp32
 70
     1
102
RTVSPost2010Prop33
280
     0
102
RTVSPost2010PropOp33
 70
     1
102
RTVSPost2010Prop34
280
     0
102
RTVSPost2010PropOp34
 70
     1
102
RTVSPost2010Prop35
280
     0
102
RTVSPost2010PropOp35
 70
     1
102
RTVSPost2010Prop36
280
     0
102
RTVSPost2010PropOp36
 70
     1
102
RTVSPost2010Prop37
 90
       50
102
RTVSPost2010PropOp37
 70
     1
102
RTVSPost2010Prop38
140
0.0
102
RTVSPost2010PropOp38
 70
     1
102
RTVSPost2010Prop39
140
1.0
102
RTVSPost2010PropOp39
 70
     1
102
RTVSPost2010Prop40
 90
        0
102
RTVSPost2010PropOp40
 70
     1
102
RTVSPost2010Prop41ColorIndex
 90
       18
102
RTVSPost2010Prop41ColorRGB
 90
        0
102
RTVSPost2010PropOp41
 70
     1
102
RTVSPost2010Prop42
 90
       50
102
RTVSPost2010PropOp42
 70
     1
102
RTVSPost2010Prop43
 90
        3
102
RTVSPost2010PropOp43
 70
     1
102
RTVSPost2010Prop44ColorIndex
 90
        5
102
RTVSPost2010Prop44ColorRGB
 90
      255
102
RTVSPost2010PropOp44
 70
     1
102
RTVSPost2010Prop45
280
     0
102
RTVSPost2010PropOp45
 70
     1
102
RTVSPost2010Prop46
 90
       50
102
RTVSPost2010PropOp46
 70
     1
102
RTVSPost2010Prop47
 90
       50
102
RTVSPost2010PropOp47
 70
     1
102
RTVSPost2010Prop48
 90
       50
102
RTVSPost2010PropOp48
 70
     1
102
RTVSPost2010Prop49
280
     0
102
RTVSPost2010PropOp49
 70
     1
102
RTVSPost2010Prop50
 90
       50
102
RTVSPost2010PropOp50
 70
     1
102
RTVSPost2010Prop51ColorIndex
 90
      256
102
RTVSPost2010Prop51ColorRGB
 90
-16777216
102
RTVSPost2010PropOp51
 70
     0
102
RTVSPost2010Prop52
140
1.0
102
RTVSPost2010PropOp52
 70
     0
102
RTVSPost2010Prop53
 90
        2
102
RTVSPost2010PropOp53
 70
     1
102
RTVSPost2010Prop54
  1
strokes_ogs.tif
102
RTVSPost2010PropOp54
 70
     1
102
RTVSPost2010Prop55
280
     0
102
RTVSPost2010PropOp55
 70
     1
102
RTVSPost2010Prop56
140
1.0
102
RTVSPost2010PropOp56
 70
     1
102
RTVSPost2010Prop57
140
1.0
102
RTVSPost2010PropOp57
 70
     1
102
RTVSPropertyOp0
 70
     1
102
RTVSPropertyOp1
 70
     1
102
RTVSPropertyOp2
 70
     1
102
RTVSPropertyOp3
 70
     1
102
RTVSPropertyOp4
 70
     1
102
RTVSPropertyOp5
 70
     1
102
RTVSPropertyOp6
 70
     1
102
RTVSPropertyOp7
 70
     1
102
RTVSPropertyOp8
 70
     1
102
RTVSPropertyOp9
 70
     1
102
RTVSPropertyOp10
 70
     1
102
RTVSPropertyOp11
 70
     1
102
RTVSPropertyOp12
 70
     1
102
RTVSPropertyOp13
 70
     1
102
RTVSPropertyOp14
 70
     1
102
RTVSPropertyOp15
 70
     1
102
RTVSPropertyOp16
 70
     1
102
RTVSPropertyOp17
 70
     1
102
RTVSPropertyOp18
 70
     1
102
RTVSPropertyOp19
 70
     1
102
RTVSPropertyOp20
 70
     1
102
RTVSPropertyOp21
 70
     1
102
RTVSPropertyOp22
 70
     1
102
RTVSPropertyOp23
 70
     1
102
RTVSPropertyOp24
 70
     1
102
RTVSPropertyOp25
 70
     1
102
RTVSPropertyOp26
 70
     1
102
RTVSPropertyOp27
 70
     1
102
RTVSPropertyOp28
 70
     1
102
RTVSPropertyOp29
 70
     1
102
RTVSPropertyOp30
 70
     1
102
RTVSPropertyOp31
 70
     1
102
RTVSPropertyOp32
 70
     1
102
RTVSPropertyOp33
 70
     1
102
RTVSPropertyOp34
 70
     1
102
RTVSPropertyOp35
 70
     1
102
RTVSPropertyOp36
 70
     1
102
RTVSPropertyOp37
 70
     1
102
RTVSPropertyOp38
 70
     1
102
RTVSPropertyOp39
 70
     1
102
RTVSPropertyOp40
 70
     1
102
RTVSPropertyOp41
 70
     1
102
RTVSPropertyOp42
 70
     1
102
RTVSPropertyOp43
 70
     1
102
RTVSPropertyOp44
 70
     1
102
RTVSPropertyOp45
 70
     1
102
RTVSPropertyOp46
 70
     1
102
RTVSPropertyOp47
 70
     1
102
RTVSPropertyOp48
 70
     1
102
RTVSPropertyOp49
 70
     1
102
RTVSPropertyOp50
 70
     1
102
RTVSPropertyOp51
 70
     0
102
RTVSPropertyOp52
 70
     0
102
RTVSPropertyOp53
 70
     1
102
RTVSPropertyOp54
 70
     1
102
RTVSPropertyOp55
 70
     1
102
RTVSPropertyOp56
 70
     1
102
RTVSPropertyOp57
 70
     1
102
RTVSPropertyOp58
 70
     1
102
RTVSPropertyOp59
 70
     1
102
RTVSPropertyOp60
 70
     1
102
RTVSPropertyOp61
 70
     1
102
RTVSPropertyOp62
 70
     1
  0
XRECORD
  5
362D
102
{ACAD_REACTORS
330
362C
102
}
330
362C
100
AcDbXrecord
280
     1
102
RTVSPost2010Prop28
280
     0
102
RTVSPost2010PropOp28
 70
     1
102
RTVSPost2010Prop29
280
     1
102
RTVSPost2010PropOp29
 70
     1
102
RTVSPost2010Prop30
280
     1
102
RTVSPost2010PropOp30
 70
     1
102
RTVSPost2010Prop31
280
     0
102
RTVSPost2010PropOp31
 70
     1
102
RTVSPost2010Prop32
280
     0
102
RTVSPost2010PropOp32
 70
     1
102
RTVSPost2010Prop33
280
     0
102
RTVSPost2010PropOp33
 70
     1
102
RTVSPost2010Prop34
280
     0
102
RTVSPost2010PropOp34
 70
     1
102
RTVSPost2010Prop35
280
     0
102
RTVSPost2010PropOp35
 70
     1
102
RTVSPost2010Prop36
280
     0
102
RTVSPost2010PropOp36
 70
     1
102
RTVSPost2010Prop37
 90
       50
102
RTVSPost2010PropOp37
 70
     1
102
RTVSPost2010Prop38
140
0.0
102
RTVSPost2010PropOp38
 70
     1
102
RTVSPost2010Prop39
140
1.0
102
RTVSPost2010PropOp39
 70
     1
102
RTVSPost2010Prop40
 90
        0
102
RTVSPost2010PropOp40
 70
     1
102
RTVSPost2010Prop41ColorIndex
 90
       18
102
RTVSPost2010Prop41ColorRGB
 90
        0
102
RTVSPost2010PropOp41
 70
     1
102
RTVSPost2010Prop42
 90
       50
102
RTVSPost2010PropOp42
 70
     1
102
RTVSPost2010Prop43
 90
        3
102
RTVSPost2010PropOp43
 70
     1
102
RTVSPost2010Prop44ColorIndex
 90
        5
102
RTVSPost2010Prop44ColorRGB
 90
      255
102
RTVSPost2010PropOp44
 70
     1
102
RTVSPost2010Prop45
280
     0
102
RTVSPost2010PropOp45
 70
     1
102
RTVSPost2010Prop46
 90
       50
102
RTVSPost2010PropOp46
 70
     1
102
RTVSPost2010Prop47
 90
       50
102
RTVSPost2010PropOp47
 70
     1
102
RTVSPost2010Prop48
 90
       50
102
RTVSPost2010PropOp48
 70
     1
102
RTVSPost2010Prop49
280
     0
102
RTVSPost2010PropOp49
 70
     1
102
RTVSPost2010Prop50
 90
       50
102
RTVSPost2010PropOp50
 70
     1
102
RTVSPost2010Prop51ColorIndex
 90
      256
102
RTVSPost2010Prop51ColorRGB
 90
-16777216
102
RTVSPost2010PropOp51
 70
     0
102
RTVSPost2010Prop52
140
1.0
102
RTVSPost2010PropOp52
 70
     0
102
RTVSPost2010Prop53
 90
        2
102
RTVSPost2010PropOp53
 70
     1
102
RTVSPost2010Prop54
  1
strokes_ogs.tif
102
RTVSPost2010PropOp54
 70
     1
102
RTVSPost2010Prop55
280
     0
102
RTVSPost2010PropOp55
 70
     1
102
RTVSPost2010Prop56
140
1.0
102
RTVSPost2010PropOp56
 70
     1
102
RTVSPost2010Prop57
140
1.0
102
RTVSPost2010PropOp57
 70
     1
102
RTVSPropertyOp0
 70
     1
102
RTVSPropertyOp1
 70
     1
102
RTVSPropertyOp2
 70
     1
102
RTVSPropertyOp3
 70
     1
102
RTVSPropertyOp4
 70
     1
102
RTVSPropertyOp5
 70
     1
102
RTVSPropertyOp6
 70
     1
102
RTVSPropertyOp7
 70
     1
102
RTVSPropertyOp8
 70
     1
102
RTVSPropertyOp9
 70
     1
102
RTVSPropertyOp10
 70
     1
102
RTVSPropertyOp11
 70
     1
102
RTVSPropertyOp12
 70
     1
102
RTVSPropertyOp13
 70
     1
102
RTVSPropertyOp14
 70
     1
102
RTVSPropertyOp15
 70
     1
102
RTVSPropertyOp16
 70
     1
102
RTVSPropertyOp17
 70
     1
102
RTVSPropertyOp18
 70
     1
102
RTVSPropertyOp19
 70
     1
102
RTVSPropertyOp20
 70
     1
102
RTVSPropertyOp21
 70
     1
102
RTVSPropertyOp22
 70
     1
102
RTVSPropertyOp23
 70
     1
102
RTVSPropertyOp24
 70
     1
102
RTVSPropertyOp25
 70
     1
102
RTVSPropertyOp26
 70
     1
102
RTVSPropertyOp27
 70
     1
102
RTVSPropertyOp28
 70
     1
102
RTVSPropertyOp29
 70
     1
102
RTVSPropertyOp30
 70
     1
102
RTVSPropertyOp31
 70
     1
102
RTVSPropertyOp32
 70
     1
102
RTVSPropertyOp33
 70
     1
102
RTVSPropertyOp34
 70
     1
102
RTVSPropertyOp35
 70
     1
102
RTVSPropertyOp36
 70
     1
102
RTVSPropertyOp37
 70
     1
102
RTVSPropertyOp38
 70
     1
102
RTVSPropertyOp39
 70
     1
102
RTVSPropertyOp40
 70
     1
102
RTVSPropertyOp41
 70
     1
102
RTVSPropertyOp42
 70
     1
102
RTVSPropertyOp43
 70
     1
102
RTVSPropertyOp44
 70
     1
102
RTVSPropertyOp45
 70
     1
102
RTVSPropertyOp46
 70
     1
102
RTVSPropertyOp47
 70
     1
102
RTVSPropertyOp48
 70
     1
102
RTVSPropertyOp49
 70
     1
102
RTVSPropertyOp50
 70
     1
102
RTVSPropertyOp51
 70
     0
102
RTVSPropertyOp52
 70
     0
102
RTVSPropertyOp53
 70
     1
102
RTVSPropertyOp54
 70
     1
102
RTVSPropertyOp55
 70
     1
102
RTVSPropertyOp56
 70
     1
102
RTVSPropertyOp57
 70
     1
102
RTVSPropertyOp58
 70
     1
102
RTVSPropertyOp59
 70
     1
102
RTVSPropertyOp60
 70
     1
102
RTVSPropertyOp61
 70
     1
102
RTVSPropertyOp62
 70
     1
  0
XRECORD
  5
3623
102
{ACAD_REACTORS
330
3622
102
}
330
3622
100
AcDbXrecord
280
     1
102
RTVSPost2010Prop28
280
     0
102
RTVSPost2010PropOp28
 70
     1
102
RTVSPost2010Prop29
280
     1
102
RTVSPost2010PropOp29
 70
     1
102
RTVSPost2010Prop30
280
     1
102
RTVSPost2010PropOp30
 70
     1
102
RTVSPost2010Prop31
280
     0
102
RTVSPost2010PropOp31
 70
     1
102
RTVSPost2010Prop32
280
     0
102
RTVSPost2010PropOp32
 70
     1
102
RTVSPost2010Prop33
280
     0
102
RTVSPost2010PropOp33
 70
     1
102
RTVSPost2010Prop34
280
     0
102
RTVSPost2010PropOp34
 70
     1
102
RTVSPost2010Prop35
280
     0
102
RTVSPost2010PropOp35
 70
     1
102
RTVSPost2010Prop36
280
     0
102
RTVSPost2010PropOp36
 70
     1
102
RTVSPost2010Prop37
 90
       50
102
RTVSPost2010PropOp37
 70
     1
102
RTVSPost2010Prop38
140
0.0
102
RTVSPost2010PropOp38
 70
     1
102
RTVSPost2010Prop39
140
1.0
102
RTVSPost2010PropOp39
 70
     1
102
RTVSPost2010Prop40
 90
        0
102
RTVSPost2010PropOp40
 70
     1
102
RTVSPost2010Prop41ColorIndex
 90
       18
102
RTVSPost2010Prop41ColorRGB
 90
        0
102
RTVSPost2010PropOp41
 70
     1
102
RTVSPost2010Prop42
 90
       50
102
RTVSPost2010PropOp42
 70
     1
102
RTVSPost2010Prop43
 90
        3
102
RTVSPost2010PropOp43
 70
     1
102
RTVSPost2010Prop44ColorIndex
 90
        5
102
RTVSPost2010Prop44ColorRGB
 90
      255
102
RTVSPost2010PropOp44
 70
     1
102
RTVSPost2010Prop45
280
     0
102
RTVSPost2010PropOp45
 70
     1
102
RTVSPost2010Prop46
 90
       50
102
RTVSPost2010PropOp46
 70
     1
102
RTVSPost2010Prop47
 90
       50
102
RTVSPost2010PropOp47
 70
     1
102
RTVSPost2010Prop48
 90
       50
102
RTVSPost2010PropOp48
 70
     1
102
RTVSPost2010Prop49
280
     0
102
RTVSPost2010PropOp49
 70
     1
102
RTVSPost2010Prop50
 90
       50
102
RTVSPost2010PropOp50
 70
     1
102
RTVSPost2010Prop51ColorIndex
 90
      256
102
RTVSPost2010Prop51ColorRGB
 90
-16777216
102
RTVSPost2010PropOp51
 70
     0
102
RTVSPost2010Prop52
140
1.0
102
RTVSPost2010PropOp52
 70
     0
102
RTVSPost2010Prop53
 90
        2
102
RTVSPost2010PropOp53
 70
     1
102
RTVSPost2010Prop54
  1
strokes_ogs.tif
102
RTVSPost2010PropOp54
 70
     1
102
RTVSPost2010Prop55
280
     0
102
RTVSPost2010PropOp55
 70
     1
102
RTVSPost2010Prop56
140
1.0
102
RTVSPost2010PropOp56
 70
     1
102
RTVSPost2010Prop57
140
1.0
102
RTVSPost2010PropOp57
 70
     1
102
RTVSPropertyOp0
 70
     1
102
RTVSPropertyOp1
 70
     1
102
RTVSPropertyOp2
 70
     1
102
RTVSPropertyOp3
 70
     1
102
RTVSPropertyOp4
 70
     1
102
RTVSPropertyOp5
 70
     1
102
RTVSPropertyOp6
 70
     1
102
RTVSPropertyOp7
 70
     1
102
RTVSPropertyOp8
 70
     1
102
RTVSPropertyOp9
 70
     1
102
RTVSPropertyOp10
 70
     1
102
RTVSPropertyOp11
 70
     1
102
RTVSPropertyOp12
 70
     1
102
RTVSPropertyOp13
 70
     1
102
RTVSPropertyOp14
 70
     1
102
RTVSPropertyOp15
 70
     1
102
RTVSPropertyOp16
 70
     1
102
RTVSPropertyOp17
 70
     1
102
RTVSPropertyOp18
 70
     1
102
RTVSPropertyOp19
 70
     1
102
RTVSPropertyOp20
 70
     1
102
RTVSPropertyOp21
 70
     1
102
RTVSPropertyOp22
 70
     1
102
RTVSPropertyOp23
 70
     1
102
RTVSPropertyOp24
 70
     1
102
RTVSPropertyOp25
 70
     1
102
RTVSPropertyOp26
 70
     1
102
RTVSPropertyOp27
 70
     1
102
RTVSPropertyOp28
 70
     1
102
RTVSPropertyOp29
 70
     1
102
RTVSPropertyOp30
 70
     1
102
RTVSPropertyOp31
 70
     1
102
RTVSPropertyOp32
 70
     1
102
RTVSPropertyOp33
 70
     1
102
RTVSPropertyOp34
 70
     1
102
RTVSPropertyOp35
 70
     1
102
RTVSPropertyOp36
 70
     1
102
RTVSPropertyOp37
 70
     1
102
RTVSPropertyOp38
 70
     1
102
RTVSPropertyOp39
 70
     1
102
RTVSPropertyOp40
 70
     1
102
RTVSPropertyOp41
 70
     1
102
RTVSPropertyOp42
 70
     1
102
RTVSPropertyOp43
 70
     1
102
RTVSPropertyOp44
 70
     1
102
RTVSPropertyOp45
 70
     1
102
RTVSPropertyOp46
 70
     1
102
RTVSPropertyOp47
 70
     1
102
RTVSPropertyOp48
 70
     1
102
RTVSPropertyOp49
 70
     1
102
RTVSPropertyOp50
 70
     1
102
RTVSPropertyOp51
 70
     0
102
RTVSPropertyOp52
 70
     0
102
RTVSPropertyOp53
 70
     1
102
RTVSPropertyOp54
 70
     1
102
RTVSPropertyOp55
 70
     1
102
RTVSPropertyOp56
 70
     1
102
RTVSPropertyOp57
 70
     1
102
RTVSPropertyOp58
 70
     1
102
RTVSPropertyOp59
 70
     1
102
RTVSPropertyOp60
 70
     1
102
RTVSPropertyOp61
 70
     1
102
RTVSPropertyOp62
 70
     1
  0
XRECORD
  5
3617
102
{ACAD_REACTORS
330
3616
102
}
330
3616
100
AcDbXrecord
280
     1
102
RTVSPost2010Prop28
280
     0
102
RTVSPost2010PropOp28
 70
     1
102
RTVSPost2010Prop29
280
     1
102
RTVSPost2010PropOp29
 70
     1
102
RTVSPost2010Prop30
280
     1
102
RTVSPost2010PropOp30
 70
     1
102
RTVSPost2010Prop31
280
     0
102
RTVSPost2010PropOp31
 70
     1
102
RTVSPost2010Prop32
280
     0
102
RTVSPost2010PropOp32
 70
     1
102
RTVSPost2010Prop33
280
     0
102
RTVSPost2010PropOp33
 70
     1
102
RTVSPost2010Prop34
280
     0
102
RTVSPost2010PropOp34
 70
     1
102
RTVSPost2010Prop35
280
     0
102
RTVSPost2010PropOp35
 70
     1
102
RTVSPost2010Prop36
280
     0
102
RTVSPost2010PropOp36
 70
     1
102
RTVSPost2010Prop37
 90
       50
102
RTVSPost2010PropOp37
 70
     1
102
RTVSPost2010Prop38
140
0.0
102
RTVSPost2010PropOp38
 70
     1
102
RTVSPost2010Prop39
140
1.0
102
RTVSPost2010PropOp39
 70
     1
102
RTVSPost2010Prop40
 90
        0
102
RTVSPost2010PropOp40
 70
     1
102
RTVSPost2010Prop41ColorIndex
 90
       18
102
RTVSPost2010Prop41ColorRGB
 90
        0
102
RTVSPost2010PropOp41
 70
     1
102
RTVSPost2010Prop42
 90
       50
102
RTVSPost2010PropOp42
 70
     1
102
RTVSPost2010Prop43
 90
        3
102
RTVSPost2010PropOp43
 70
     1
102
RTVSPost2010Prop44ColorIndex
 90
        5
102
RTVSPost2010Prop44ColorRGB
 90
      255
102
RTVSPost2010PropOp44
 70
     1
102
RTVSPost2010Prop45
280
     0
102
RTVSPost2010PropOp45
 70
     1
102
RTVSPost2010Prop46
 90
       50
102
RTVSPost2010PropOp46
 70
     1
102
RTVSPost2010Prop47
 90
       50
102
RTVSPost2010PropOp47
 70
     1
102
RTVSPost2010Prop48
 90
       50
102
RTVSPost2010PropOp48
 70
     1
102
RTVSPost2010Prop49
280
     0
102
RTVSPost2010PropOp49
 70
     1
102
RTVSPost2010Prop50
 90
       50
102
RTVSPost2010PropOp50
 70
     1
102
RTVSPost2010Prop51ColorIndex
 90
      256
102
RTVSPost2010Prop51ColorRGB
 90
-16777216
102
RTVSPost2010PropOp51
 70
     0
102
RTVSPost2010Prop52
140
1.0
102
RTVSPost2010PropOp52
 70
     0
102
RTVSPost2010Prop53
 90
        2
102
RTVSPost2010PropOp53
 70
     1
102
RTVSPost2010Prop54
  1
strokes_ogs.tif
102
RTVSPost2010PropOp54
 70
     1
102
RTVSPost2010Prop55
280
     0
102
RTVSPost2010PropOp55
 70
     1
102
RTVSPost2010Prop56
140
1.0
102
RTVSPost2010PropOp56
 70
     1
102
RTVSPost2010Prop57
140
1.0
102
RTVSPost2010PropOp57
 70
     1
102
RTVSPropertyOp0
 70
     1
102
RTVSPropertyOp1
 70
     1
102
RTVSPropertyOp2
 70
     1
102
RTVSPropertyOp3
 70
     1
102
RTVSPropertyOp4
 70
     1
102
RTVSPropertyOp5
 70
     1
102
RTVSPropertyOp6
 70
     1
102
RTVSPropertyOp7
 70
     1
102
RTVSPropertyOp8
 70
     1
102
RTVSPropertyOp9
 70
     1
102
RTVSPropertyOp10
 70
     1
102
RTVSPropertyOp11
 70
     1
102
RTVSPropertyOp12
 70
     1
102
RTVSPropertyOp13
 70
     1
102
RTVSPropertyOp14
 70
     1
102
RTVSPropertyOp15
 70
     1
102
RTVSPropertyOp16
 70
     1
102
RTVSPropertyOp17
 70
     1
102
RTVSPropertyOp18
 70
     1
102
RTVSPropertyOp19
 70
     1
102
RTVSPropertyOp20
 70
     1
102
RTVSPropertyOp21
 70
     1
102
RTVSPropertyOp22
 70
     1
102
RTVSPropertyOp23
 70
     1
102
RTVSPropertyOp24
 70
     1
102
RTVSPropertyOp25
 70
     1
102
RTVSPropertyOp26
 70
     1
102
RTVSPropertyOp27
 70
     1
102
RTVSPropertyOp28
 70
     1
102
RTVSPropertyOp29
 70
     1
102
RTVSPropertyOp30
 70
     1
102
RTVSPropertyOp31
 70
     1
102
RTVSPropertyOp32
 70
     1
102
RTVSPropertyOp33
 70
     1
102
RTVSPropertyOp34
 70
     1
102
RTVSPropertyOp35
 70
     1
102
RTVSPropertyOp36
 70
     1
102
RTVSPropertyOp37
 70
     1
102
RTVSPropertyOp38
 70
     1
102
RTVSPropertyOp39
 70
     1
102
RTVSPropertyOp40
 70
     1
102
RTVSPropertyOp41
 70
     1
102
RTVSPropertyOp42
 70
     1
102
RTVSPropertyOp43
 70
     1
102
RTVSPropertyOp44
 70
     1
102
RTVSPropertyOp45
 70
     1
102
RTVSPropertyOp46
 70
     1
102
RTVSPropertyOp47
 70
     1
102
RTVSPropertyOp48
 70
     1
102
RTVSPropertyOp49
 70
     1
102
RTVSPropertyOp50
 70
     1
102
RTVSPropertyOp51
 70
     0
102
RTVSPropertyOp52
 70
     0
102
RTVSPropertyOp53
 70
     1
102
RTVSPropertyOp54
 70
     1
102
RTVSPropertyOp55
 70
     1
102
RTVSPropertyOp56
 70
     1
102
RTVSPropertyOp57
 70
     1
102
RTVSPropertyOp58
 70
     1
102
RTVSPropertyOp59
 70
     1
102
RTVSPropertyOp60
 70
     1
102
RTVSPropertyOp61
 70
     1
102
RTVSPropertyOp62
 70
     1
  0
XRECORD
  5
362F
102
{ACAD_REACTORS
330
362E
102
}
330
362E
100
AcDbXrecord
280
     1
102
RTVSPost2010Prop28
280
     0
102
RTVSPost2010PropOp28
 70
     1
102
RTVSPost2010Prop29
280
     1
102
RTVSPost2010PropOp29
 70
     1
102
RTVSPost2010Prop30
280
     1
102
RTVSPost2010PropOp30
 70
     1
102
RTVSPost2010Prop31
280
     0
102
RTVSPost2010PropOp31
 70
     1
102
RTVSPost2010Prop32
280
     0
102
RTVSPost2010PropOp32
 70
     1
102
RTVSPost2010Prop33
280
     0
102
RTVSPost2010PropOp33
 70
     1
102
RTVSPost2010Prop34
280
     0
102
RTVSPost2010PropOp34
 70
     1
102
RTVSPost2010Prop35
280
     0
102
RTVSPost2010PropOp35
 70
     1
102
RTVSPost2010Prop36
280
     0
102
RTVSPost2010PropOp36
 70
     1
102
RTVSPost2010Prop37
 90
       50
102
RTVSPost2010PropOp37
 70
     1
102
RTVSPost2010Prop38
140
0.0
102
RTVSPost2010PropOp38
 70
     1
102
RTVSPost2010Prop39
140
1.0
102
RTVSPost2010PropOp39
 70
     1
102
RTVSPost2010Prop40
 90
        0
102
RTVSPost2010PropOp40
 70
     1
102
RTVSPost2010Prop41ColorIndex
 90
       18
102
RTVSPost2010Prop41ColorRGB
 90
        0
102
RTVSPost2010PropOp41
 70
     1
102
RTVSPost2010Prop42
 90
       50
102
RTVSPost2010PropOp42
 70
     1
102
RTVSPost2010Prop43
 90
        3
102
RTVSPost2010PropOp43
 70
     1
102
RTVSPost2010Prop44ColorIndex
 90
        5
102
RTVSPost2010Prop44ColorRGB
 90
      255
102
RTVSPost2010PropOp44
 70
     1
102
RTVSPost2010Prop45
280
     0
102
RTVSPost2010PropOp45
 70
     1
102
RTVSPost2010Prop46
 90
       50
102
RTVSPost2010PropOp46
 70
     1
102
RTVSPost2010Prop47
 90
       50
102
RTVSPost2010PropOp47
 70
     1
102
RTVSPost2010Prop48
 90
       50
102
RTVSPost2010PropOp48
 70
     1
102
RTVSPost2010Prop49
280
     0
102
RTVSPost2010PropOp49
 70
     1
102
RTVSPost2010Prop50
 90
       50
102
RTVSPost2010PropOp50
 70
     1
102
RTVSPost2010Prop51ColorIndex
 90
      256
102
RTVSPost2010Prop51ColorRGB
 90
-16777216
102
RTVSPost2010PropOp51
 70
     0
102
RTVSPost2010Prop52
140
1.0
102
RTVSPost2010PropOp52
 70
     0
102
RTVSPost2010Prop53
 90
        2
102
RTVSPost2010PropOp53
 70
     1
102
RTVSPost2010Prop54
  1
strokes_ogs.tif
102
RTVSPost2010PropOp54
 70
     1
102
RTVSPost2010Prop55
280
     0
102
RTVSPost2010PropOp55
 70
     1
102
RTVSPost2010Prop56
140
1.0
102
RTVSPost2010PropOp56
 70
     1
102
RTVSPost2010Prop57
140
1.0
102
RTVSPost2010PropOp57
 70
     1
102
RTVSPropertyOp0
 70
     1
102
RTVSPropertyOp1
 70
     1
102
RTVSPropertyOp2
 70
     1
102
RTVSPropertyOp3
 70
     1
102
RTVSPropertyOp4
 70
     1
102
RTVSPropertyOp5
 70
     1
102
RTVSPropertyOp6
 70
     1
102
RTVSPropertyOp7
 70
     1
102
RTVSPropertyOp8
 70
     1
102
RTVSPropertyOp9
 70
     1
102
RTVSPropertyOp10
 70
     1
102
RTVSPropertyOp11
 70
     1
102
RTVSPropertyOp12
 70
     1
102
RTVSPropertyOp13
 70
     1
102
RTVSPropertyOp14
 70
     1
102
RTVSPropertyOp15
 70
     1
102
RTVSPropertyOp16
 70
     1
102
RTVSPropertyOp17
 70
     1
102
RTVSPropertyOp18
 70
     1
102
RTVSPropertyOp19
 70
     1
102
RTVSPropertyOp20
 70
     1
102
RTVSPropertyOp21
 70
     1
102
RTVSPropertyOp22
 70
     1
102
RTVSPropertyOp23
 70
     1
102
RTVSPropertyOp24
 70
     1
102
RTVSPropertyOp25
 70
     1
102
RTVSPropertyOp26
 70
     1
102
RTVSPropertyOp27
 70
     1
102
RTVSPropertyOp28
 70
     1
102
RTVSPropertyOp29
 70
     1
102
RTVSPropertyOp30
 70
     1
102
RTVSPropertyOp31
 70
     1
102
RTVSPropertyOp32
 70
     1
102
RTVSPropertyOp33
 70
     1
102
RTVSPropertyOp34
 70
     1
102
RTVSPropertyOp35
 70
     1
102
RTVSPropertyOp36
 70
     1
102
RTVSPropertyOp37
 70
     1
102
RTVSPropertyOp38
 70
     1
102
RTVSPropertyOp39
 70
     1
102
RTVSPropertyOp40
 70
     1
102
RTVSPropertyOp41
 70
     1
102
RTVSPropertyOp42
 70
     1
102
RTVSPropertyOp43
 70
     1
102
RTVSPropertyOp44
 70
     1
102
RTVSPropertyOp45
 70
     1
102
RTVSPropertyOp46
 70
     1
102
RTVSPropertyOp47
 70
     1
102
RTVSPropertyOp48
 70
     1
102
RTVSPropertyOp49
 70
     1
102
RTVSPropertyOp50
 70
     1
102
RTVSPropertyOp51
 70
     0
102
RTVSPropertyOp52
 70
     0
102
RTVSPropertyOp53
 70
     1
102
RTVSPropertyOp54
 70
     1
102
RTVSPropertyOp55
 70
     1
102
RTVSPropertyOp56
 70
     1
102
RTVSPropertyOp57
 70
     1
102
RTVSPropertyOp58
 70
     1
102
RTVSPropertyOp59
 70
     1
102
RTVSPropertyOp60
 70
     1
102
RTVSPropertyOp61
 70
     1
102
RTVSPropertyOp62
 70
     1
  0
ENDSEC
  0
EOF
