  0
SECTION
  2
HEADER
  9
$ACADVER
  1
AC1015
  9
$ACADMAINTVER
 70
    20
  9
$DWGCODEPAGE
  3
ANSI_1252
  9
$INSBASE
 10
0.0
 20
0.0
 30
0.0
  9
$EXTMIN
 10
-69.3035566281801
 20
-49.05593757873385
 30
-0.0000000349181948
  9
$EXTMAX
 10
77.04165758383647
 20
59.07394485906002
 30
0.0000000814935747
  9
$LIMMIN
 10
-170.0
 20
-170.0
  9
$LIMMAX
 10
519.0
 20
260.0
  9
$ORTHOMODE
 70
     0
  9
$REGENMODE
 70
     1
  9
$FILLMODE
 70
     1
  9
$QTEXTMODE
 70
     0
  9
$MIRRTEXT
 70
     0
  9
$LTSCALE
 40
1.0
  9
$ATTMODE
 70
     1
  9
$TEXTSIZE
 40
3.5
  9
$TRACEWID
 40
1.0
  9
$TEXTSTYLE
  7
MM_STANDARD
  9
$CLAYER
  8
0
  9
$CELTYPE
  6
ByLayer
  9
$CECOLOR
 62
   256
  9
$CELTSCALE
 40
1.0
  9
$DISPSILH
 70
     0
  9
$DIMSCALE
 40
1.0
  9
$DIMASZ
 40
2.5
  9
$DIMEXO
 40
0.0
  9
$DIMDLI
 40
3.75
  9
$DIMRND
 40
0.0
  9
$DIMDLE
 40
0.0
  9
$DIMEXE
 40
1.25
  9
$DIMTP
 40
0.0
  9
$DIMTM
 40
0.0
  9
$DIMTXT
 40
3.5
  9
$DIMCEN
 40
0.0
  9
$DIMTSZ
 40
0.0
  9
$DIMTOL
 70
     0
  9
$DIMLIM
 70
     0
  9
$DIMTIH
 70
     0
  9
$DIMTOH
 70
     0
  9
$DIMSE1
 70
     0
  9
$DIMSE2
 70
     0
  9
$DIMTAD
 70
     1
  9
$DIMZIN
 70
     9
  9
$DIMBLK
  1

  9
$DIMASO
 70
     1
  9
$DIMSHO
 70
     1
  9
$DIMPOST
  1

  9
$DIMAPOST
  1

  9
$DIMALT
 70
     0
  9
$DIMALTD
 70
     3
  9
$DIMALTF
 40
0.039370078
  9
$DIMLFAC
 40
1.0
  9
$DIMTOFL
 70
     0
  9
$DIMTVP
 40
0.0
  9
$DIMTIX
 70
     0
  9
$DIMSOXD
 70
     0
  9
$DIMSAH
 70
     0
  9
$DIMBLK1
  1

  9
$DIMBLK2
  1

  9
$DIMSTYLE
  2
MM_STANDARD
  9
$DIMCLRD
 70
   256
  9
$DIMCLRE
 70
   256
  9
$DIMCLRT
 70
   256
  9
$DIMTFAC
 40
1.0
  9
$DIMGAP
 40
0.625
  9
$DIMJUST
 70
     0
  9
$DIMSD1
 70
     0
  9
$DIMSD2
 70
     0
  9
$DIMTOLJ
 70
     1
  9
$DIMTZIN
 70
     8
  9
$DIMALTZ
 70
     0
  9
$DIMALTTZ
 70
     0
  9
$DIMUPT
 70
     0
  9
$DIMDEC
 70
     2
  9
$DIMTDEC
 70
     2
  9
$DIMALTU
 70
     2
  9
$DIMALTTD
 70
     3
  9
$DIMTXSTY
  7
MM_STANDARD
  9
$DIMAUNIT
 70
     0
  9
$DIMADEC
 70
     2
  9
$DIMALTRND
 40
0.0
  9
$DIMAZIN
 70
     2
  9
$DIMDSEP
 70
    46
  9
$DIMATFIT
 70
     3
  9
$DIMFRAC
 70
     0
  9
$DIMLDRBLK
  1

  9
$DIMLUNIT
 70
     2
  9
$DIMLWD
 70
    -1
  9
$DIMLWE
 70
    -1
  9
$DIMTMOVE
 70
     0
  9
$LUNITS
 70
     2
  9
$LUPREC
 70
     4
  9
$SKETCHINC
 40
1.0
  9
$FILLETRAD
 40
0.8
  9
$AUNITS
 70
     0
  9
$AUPREC
 70
     0
  9
$MENU
  1
.
  9
$ELEVATION
 40
0.0
  9
$PELEVATION
 40
0.0
  9
$THICKNESS
 40
0.0
  9
$LIMCHECK
 70
     0
  9
$CHAMFERA
 40
0.0
  9
$CHAMFERB
 40
0.0
  9
$CHAMFERC
 40
0.0
  9
$CHAMFERD
 40
0.0
  9
$SKPOLY
 70
     0
  9
$TDCREATE
 40
2453353.800459155
  9
$TDUCREATE
 40
2453353.717125822
  9
$TDUPDATE
 40
2460185.654380810
  9
$TDUUPDATE
 40
2460185.571047477
  9
$TDINDWG
 40
4096.7015976389
  9
$TDUSRTIMER
 40
4096.7015380556
  9
$USRTIMER
 70
     1
  9
$ANGBASE
 50
0.0
  9
$ANGDIR
 70
     0
  9
$PDMODE
 70
     1
  9
$PDSIZE
 40
0.0
  9
$PLINEWID
 40
0.0
  9
$SPLFRAME
 70
     0
  9
$SPLINETYPE
 70
     6
  9
$SPLINESEGS
 70
     8
  9
$HANDSEED
  5
299CF
  9
$SURFTAB1
 70
     6
  9
$SURFTAB2
 70
     6
  9
$SURFTYPE
 70
     6
  9
$SURFU
 70
     6
  9
$SURFV
 70
     6
  9
$UCSBASE
  2

  9
$UCSNAME
  2

  9
$UCSORG
 10
0.0
 20
0.0
 30
0.0
  9
$UCSXDIR
 10
1.0
 20
0.0
 30
0.0
  9
$UCSYDIR
 10
0.0
 20
1.0
 30
0.0
  9
$UCSORTHOREF
  2

  9
$UCSORTHOVIEW
 70
     0
  9
$UCSORGTOP
 10
0.0
 20
0.0
 30
0.0
  9
$UCSORGBOTTOM
 10
0.0
 20
0.0
 30
0.0
  9
$UCSORGLEFT
 10
0.0
 20
0.0
 30
0.0
  9
$UCSORGRIGHT
 10
0.0
 20
0.0
 30
0.0
  9
$UCSORGFRONT
 10
0.0
 20
0.0
 30
0.0
  9
$UCSORGBACK
 10
0.0
 20
0.0
 30
0.0
  9
$PUCSBASE
  2

  9
$PUCSNAME
  2

  9
$PUCSORG
 10
0.0
 20
0.0
 30
0.0
  9
$PUCSXDIR
 10
1.0
 20
0.0
 30
0.0
  9
$PUCSYDIR
 10
0.0
 20
1.0
 30
0.0
  9
$PUCSORTHOREF
  2

  9
$PUCSORTHOVIEW
 70
     0
  9
$PUCSORGTOP
 10
0.0
 20
0.0
 30
0.0
  9
$PUCSORGBOTTOM
 10
0.0
 20
0.0
 30
0.0
  9
$PUCSORGLEFT
 10
0.0
 20
0.0
 30
0.0
  9
$PUCSORGRIGHT
 10
0.0
 20
0.0
 30
0.0
  9
$PUCSORGFRONT
 10
0.0
 20
0.0
 30
0.0
  9
$PUCSORGBACK
 10
0.0
 20
0.0
 30
0.0
  9
$USERI1
 70
     0
  9
$USERI2
 70
     0
  9
$USERI3
 70
     0
  9
$USERI4
 70
     0
  9
$USERI5
 70
     0
  9
$USERR1
 40
0.0
  9
$USERR2
 40
0.0
  9
$USERR3
 40
0.0
  9
$USERR4
 40
0.0
  9
$USERR5
 40
0.0
  9
$WORLDVIEW
 70
     1
  9
$SHADEDGE
 70
     3
  9
$SHADEDIF
 70
    70
  9
$TILEMODE
 70
     1
  9
$MAXACTVP
 70
    64
  9
$PINSBASE
 10
0.0
 20
0.0
 30
0.0
  9
$PLIMCHECK
 70
     0
  9
$PEXTMIN
 10
0.0
 20
0.0
 30
0.0
  9
$PEXTMAX
 10
0.0
 20
0.0
 30
0.0
  9
$PLIMMIN
 10
0.0
 20
0.0
  9
$PLIMMAX
 10
12.0
 20
9.0
  9
$UNITMODE
 70
     0
  9
$VISRETAIN
 70
     0
  9
$PLINEGEN
 70
     0
  9
$PSLTSCALE
 70
     1
  9
$TREEDEPTH
 70
  3020
  9
$CMLSTYLE
  2
Standard
  9
$CMLJUST
 70
     0
  9
$CMLSCALE
 40
20.0
  9
$PROXYGRAPHICS
 70
     0
  9
$MEASUREMENT
 70
     1
  9
$CELWEIGHT
370
    -1
  9
$ENDCAPS
280
     0
  9
$JOINSTYLE
280
     0
  9
$LWDISPLAY
290
     0
  9
$INSUNITS
 70
     4
  9
$HYPERLINKBASE
  1

  9
$STYLESHEET
  1

  9
$XEDIT
290
     1
  9
$CEPSNTYPE
380
     0
  9
$PSTYLEMODE
290
     1
  9
$FINGERPRINTGUID
  2
{049C219F-BC74-4B97-8A86-7E4B06A8BFF9}
  9
$VERSIONGUID
  2
{35957D4E-CDDE-4C54-844B-05E0E1FFA910}
  9
$EXTNAMES
290
     1
  9
$PSVPSCALE
 40
0.0
  9
$OLESTARTUP
290
     0
  0
ENDSEC
  0
SECTION
  2
CLASSES
  0
CLASS
  1
ACDBDICTIONARYWDFLT
  2
AcDbDictionaryWithDefault
  3
ObjectDBX Classes
 90
        0
280
     0
281
     0
  0
CLASS
  1
ACDBPLACEHOLDER
  2
AcDbPlaceHolder
  3
ObjectDBX Classes
 90
        0
280
     0
281
     0
  0
CLASS
  1
LAYOUT
  2
AcDbLayout
  3
ObjectDBX Classes
 90
        0
280
     0
281
     0
  0
CLASS
  1
DICTIONARYVAR
  2
AcDbDictionaryVar
  3
ObjectDBX Classes
 90
        0
280
     0
281
     0
  0
CLASS
  1
TABLESTYLE
  2
AcDbTableStyle
  3
ObjectDBX Classes
 90
     4095
280
     0
281
     0
  0
CLASS
  1
SCALE
  2
AcDbScale
  3
ObjectDBX Classes
 90
     1153
280
     0
281
     0
  0
CLASS
  1
RASTERVARIABLES
  2
AcDbRasterVariables
  3
ISM
 90
        0
280
     0
281
     0
  0
CLASS
  1
SORTENTSTABLE
  2
AcDbSortentsTable
  3
ObjectDBX Classes
 90
        0
280
     0
281
     0
  0
CLASS
  1
MATERIAL
  2
AcDbMaterial
  3
ObjectDBX Classes
 90
     1153
280
     0
281
     0
  0
CLASS
  1
VISUALSTYLE
  2
AcDbVisualStyle
  3
ObjectDBX Classes
 90
     4095
280
     0
281
     0
  0
CLASS
  1
MLEADERSTYLE
  2
AcDbMLeaderStyle
  3
ACDB_MLEADERSTYLE_CLASS
 90
     4095
280
     0
281
     0
  0
CLASS
  1
ACDBSECTIONVIEWSTYLE
  2
AcDbSectionViewStyle
  3
ObjectDBX Classes
 90
     1025
280
     0
281
     0
  0
CLASS
  1
ACDBDETAILVIEWSTYLE
  2
AcDbDetailViewStyle
  3
ObjectDBX Classes
 90
     1025
280
     0
281
     0
  0
CLASS
  1
CELLSTYLEMAP
  2
AcDbCellStyleMap
  3
ObjectDBX Classes
 90
     1152
280
     0
281
     0
  0
ENDSEC
  0
SECTION
  2
TABLES
  0
TABLE
  2
VPORT
  5
8
330
0
100
AcDbSymbolTable
 70
     1
  0
VPORT
  5
97
330
8
100
AcDbSymbolTableRecord
100
AcDbViewportTableRecord
  2
*Active
 70
     0
 10
0.0
 20
0.0
 11
1.0
 21
1.0
 12
3.86905047782819
 22
5.009003640163086
 13
0.0
 23
0.0
 14
5.0
 24
5.0
 15
5.0
 25
5.0
 16
0.0
 26
0.0
 36
1.0
 17
0.0
 27
0.0
 37
0.0
 40
108.8713444887959
 41
1.597254004576659
 42
50.0
 43
0.0
 44
0.0
 50
0.0
 51
0.0
 71
    16
 72
  2000
 73
     1
 74
     3
 75
     0
 76
     0
 77
     0
 78
     0
281
     0
 65
     1
110
0.0
120
0.0
130
0.0
111
1.0
121
0.0
131
0.0
112
0.0
122
1.0
132
0.0
 79
     0
146
0.0
1001
ACAD_NAV_VCDISPLAY
1070
     3
  0
ENDTAB
  0
TABLE
  2
LTYPE
  5
5
330
0
100
AcDbSymbolTable
 70
     5
  0
LTYPE
  5
14
330
5
100
AcDbSymbolTableRecord
100
AcDbLinetypeTableRecord
  2
ByBlock
 70
     0
  3

 72
    65
 73
     0
 40
0.0
  0
LTYPE
  5
15
330
5
100
AcDbSymbolTableRecord
100
AcDbLinetypeTableRecord
  2
ByLayer
 70
     0
  3

 72
    65
 73
     0
 40
0.0
  0
LTYPE
  5
16
330
5
100
AcDbSymbolTableRecord
100
AcDbLinetypeTableRecord
  2
Continuous
 70
     0
  3
Solid line
 72
    65
 73
     0
 40
0.0
  0
LTYPE
  5
29850
330
5
100
AcDbSymbolTableRecord
100
AcDbLinetypeTableRecord
  2
CENTER2
 70
     0
  3
Center (.5x) ___ _ ___ _ ___ _ ___ _ ___ _ ___
 72
    65
 73
     4
 40
28.57499999999999
 49
19.05
 74
     4
 75
     0
340
0
 46
1.0
 50
0.0
 44
0.0
 45
0.0
 49
-3.174999999999998
 74
     4
 75
     0
340
0
 46
1.0
 50
0.0
 44
0.0
 45
0.0
 49
3.174999999999998
 74
     4
 75
     0
340
0
 46
1.0
 50
0.0
 44
0.0
 45
0.0
 49
-3.174999999999998
 74
     4
 75
     0
340
0
 46
1.0
 50
0.0
 44
0.0
 45
0.0
  0
LTYPE
  5
29851
330
5
100
AcDbSymbolTableRecord
100
AcDbLinetypeTableRecord
  2
HIDDEN
 70
     0
  3
Hidden __ __ __ __ __ __ __ __ __ __ __ __ __ _
 72
    65
 73
     2
 40
9.524999999999996
 49
6.349999999999997
 74
     4
 75
     0
340
0
 46
1.0
 50
0.0
 44
0.0
 45
0.0
 49
-3.174999999999998
 74
     4
 75
     0
340
0
 46
1.0
 50
0.0
 44
0.0
 45
0.0
  0
ENDTAB
  0
TABLE
  2
LAYER
  5
2
102
{ACAD_XDICTIONARY
360
2985D
102
}
330
0
100
AcDbSymbolTable
 70
    13
  0
LAYER
  5
10
102
{ACAD_XDICTIONARY
360
29854
102
}
330
2
100
AcDbSymbolTableRecord
100
AcDbLayerTableRecord
  2
0
 70
     0
 62
     7
  6
Continuous
370
    -3
390
F
  0
LAYER
  5
23
102
{ACAD_XDICTIONARY
360
29855
102
}
330
2
100
AcDbSymbolTableRecord
100
AcDbLayerTableRecord
  2
1
 70
     0
 62
     4
  6
Continuous
370
    50
390
F
  0
LAYER
  5
25
102
{ACAD_XDICTIONARY
360
29856
102
}
330
2
100
AcDbSymbolTableRecord
100
AcDbLayerTableRecord
  2
2
 70
     0
 62
     7
  6
Continuous
370
    25
390
F
  0
LAYER
  5
173A
102
{ACAD_XDICTIONARY
360
29857
102
}
330
2
100
AcDbSymbolTableRecord
100
AcDbLayerTableRecord
  2
SK2
 70
     0
 62
     7
  6
Continuous
370
    25
390
F
  0
LAYER
  5
2A
102
{ACAD_XDICTIONARY
360
29858
102
}
330
2
100
AcDbSymbolTableRecord
100
AcDbLayerTableRecord
  2
4
 70
     0
 62
     2
  6
CENTER2
370
    25
390
F
  0
LAYER
  5
2E
102
{ACAD_XDICTIONARY
360
29859
102
}
330
2
100
AcDbSymbolTableRecord
100
AcDbLayerTableRecord
  2
SK6
 70
     0
 62
     5
  6
Continuous
370
    -3
390
F
  0
LAYER
  5
2F
330
2
100
AcDbSymbolTableRecord
100
AcDbLayerTableRecord
  2
DEFPOINTS
 70
     0
 62
     7
  6
Continuous
290
     0
370
    25
390
F
  0
LAYER
  5
375
102
{ACAD_XDICTIONARY
360
2985A
102
}
330
2
100
AcDbSymbolTableRecord
100
AcDbLayerTableRecord
  2
CUT
 70
     0
 62
     1
  6
Continuous
370
    25
390
F
  0
LAYER
  5
376
102
{ACAD_XDICTIONARY
360
2985B
102
}
330
2
100
AcDbSymbolTableRecord
100
AcDbLayerTableRecord
  2
NOCUT
 70
     0
 62
     7
  6
Continuous
370
    -3
390
F
  0
LAYER
  5
49B
102
{ACAD_XDICTIONARY
360
2985C
102
}
330
2
100
AcDbSymbolTableRecord
100
AcDbLayerTableRecord
  2
INFTOTAL
 70
     0
 62
     9
  6
Continuous
370
    18
390
F
1001
AcAecLayerStandard
1000

1000

  0
LAYER
  5
1D28
330
2
100
AcDbSymbolTableRecord
100
AcDbLayerTableRecord
  2
SK4
 70
     0
 62
     2
  6
CENTER2
370
    25
390
F
  0
LAYER
  5
8BCD
330
2
100
AcDbSymbolTableRecord
100
AcDbLayerTableRecord
  2
SK1
 70
     0
 62
     4
  6
Continuous
370
    50
390
F
  0
LAYER
  5
14429
330
2
100
AcDbSymbolTableRecord
100
AcDbLayerTableRecord
  2
SK3
 70
     0
 62
     1
  6
HIDDEN
370
    35
390
F
  0
ENDTAB
  0
TABLE
  2
STYLE
  5
3
330
0
100
AcDbSymbolTable
 70
     2
  0
STYLE
  5
11
330
3
100
AcDbSymbolTableRecord
100
AcDbTextStyleTableRecord
  2
Standard
 70
     0
 40
0.0
 41
1.0
 50
0.0
 71
     0
 42
5.0
  3
monos.ttf
  4

1001
ACAD
1000
Monospac821 BT
1071
       49
  0
STYLE
  5
8B9
330
3
100
AcDbSymbolTableRecord
100
AcDbTextStyleTableRecord
  2
MM_STANDARD
 70
     0
 40
3.5
 41
1.0
 50
0.0
 71
     0
 42
3.5
  3
monos.ttf
  4

1001
ACAD
1000
Monospac821 BT
1071
       49
  0
ENDTAB
  0
TABLE
  2
VIEW
  5
6
330
0
100
AcDbSymbolTable
 70
     0
  0
ENDTAB
  0
TABLE
  2
UCS
  5
7
330
0
100
AcDbSymbolTable
 70
     0
  0
ENDTAB
  0
TABLE
  2
APPID
  5
9
330
0
100
AcDbSymbolTable
 70
    25
  0
APPID
  5
12
330
9
100
AcDbSymbolTableRecord
100
AcDbRegAppTableRecord
  2
ACAD
 70
     0
  0
APPID
  5
29838
330
9
100
AcDbSymbolTableRecord
100
AcDbRegAppTableRecord
  2
ACAD_PSEXT
 70
     0
  0
APPID
  5
29839
330
9
100
AcDbSymbolTableRecord
100
AcDbRegAppTableRecord
  2
ACAD_EXEMPT_FROM_CAD_STANDARDS
 70
     0
  0
APPID
  5
2983A
330
9
100
AcDbSymbolTableRecord
100
AcDbRegAppTableRecord
  2
ACAD_MLEADERVER
 70
     0
  0
APPID
  5
2983B
330
9
100
AcDbSymbolTableRecord
100
AcDbRegAppTableRecord
  2
ACAD_DSTYLE_DIMJAG
 70
     0
  0
APPID
  5
2983C
330
9
100
AcDbSymbolTableRecord
100
AcDbRegAppTableRecord
  2
ACAD_DSTYLE_DIMBREAK
 70
     0
  0
APPID
  5
2983D
330
9
100
AcDbSymbolTableRecord
100
AcDbRegAppTableRecord
  2
ACAD_DSTYLE_DIMTALN
 70
     0
  0
APPID
  5
2983E
330
9
100
AcDbSymbolTableRecord
100
AcDbRegAppTableRecord
  2
AcAecLayerStandard
 70
     0
  0
APPID
  5
2983F
330
9
100
AcDbSymbolTableRecord
100
AcDbRegAppTableRecord
  2
DCO15
 70
     0
  0
APPID
  5
29840
330
9
100
AcDbSymbolTableRecord
100
AcDbRegAppTableRecord
  2
AcadAnnoPO
 70
     0
  0
APPID
  5
29841
330
9
100
AcDbSymbolTableRecord
100
AcDbRegAppTableRecord
  2
ACAD_DSTYLE_DIMRADIAL_EXTENSION
 70
     0
  0
APPID
  5
29842
330
9
100
AcDbSymbolTableRecord
100
AcDbRegAppTableRecord
  2
AcadAnnotative
 70
     0
  0
APPID
  5
29843
330
9
100
AcDbSymbolTableRecord
100
AcDbRegAppTableRecord
  2
AcDbDynamicBlockGUID
 70
     0
  0
APPID
  5
29844
330
9
100
AcDbSymbolTableRecord
100
AcDbRegAppTableRecord
  2
AcDbBlockRepETag
 70
     0
  0
APPID
  5
29845
330
9
100
AcDbSymbolTableRecord
100
AcDbRegAppTableRecord
  2
MCAD_NO_VIS
 70
     0
  0
APPID
  5
29846
330
9
100
AcDbSymbolTableRecord
100
AcDbRegAppTableRecord
  2
ACAD_TEMP_GRAPHIC
 70
     0
  0
APPID
  5
29847
330
9
100
AcDbSymbolTableRecord
100
AcDbRegAppTableRecord
  2
ACATTRIBSERVICES
 70
     0
  0
APPID
  5
29848
330
9
100
AcDbSymbolTableRecord
100
AcDbRegAppTableRecord
  2
DESIGNERASSEMBLIES
 70
     0
  0
APPID
  5
29849
330
9
100
AcDbSymbolTableRecord
100
AcDbRegAppTableRecord
  2
ACAD_NAV_VCDISPLAY
 70
     0
  0
APPID
  5
2984A
330
9
100
AcDbSymbolTableRecord
100
AcDbRegAppTableRecord
  2
ACAD_DSTYLE_DIM_LINETYPE
 70
     0
  0
APPID
  5
2984B
330
9
100
AcDbSymbolTableRecord
100
AcDbRegAppTableRecord
  2
ACAD_DSTYLE_DIM_EXT1_LINETYPE
 70
     0
  0
APPID
  5
2984C
330
9
100
AcDbSymbolTableRecord
100
AcDbRegAppTableRecord
  2
ACAD_DSTYLE_DIM_EXT2_LINETYPE
 70
     0
  0
APPID
  5
2984D
330
9
100
AcDbSymbolTableRecord
100
AcDbRegAppTableRecord
  2
ACAD_DSTYLE_DIMARC_LENGTH_SYMBOL
 70
     0
  0
APPID
  5
2984E
330
9
100
AcDbSymbolTableRecord
100
AcDbRegAppTableRecord
  2
AcDbAttr
 70
     0
  0
APPID
  5
2984F
330
9
100
AcDbSymbolTableRecord
100
AcDbRegAppTableRecord
  2
AcadAnnoMonitorAlertIconDisabled
 70
     0
  0
ENDTAB
  0
TABLE
  2
DIMSTYLE
  5
A
330
0
100
AcDbSymbolTable
 70
     2
100
AcDbDimStyleTable
 71
     0
  0
DIMSTYLE
105
27
330
A
100
AcDbSymbolTableRecord
100
AcDbDimStyleTableRecord
  2
Standard
 70
     0
 77
     1
276
     1
278
     0
340
11
  0
DIMSTYLE
105
3F
102
{ACAD_REACTORS
330
28EA8
330
28EC3
330
28ED0
330
28EDD
330
28EEC
330
28FE3
330
290AE
102
}
330
A
100
AcDbSymbolTableRecord
100
AcDbDimStyleTableRecord
  2
MM_STANDARD
 70
     0
 41
2.5
 42
0.0
 43
3.75
 44
1.25
 73
     0
 74
     0
 77
     1
 78
     1
140
3.5
141
0.0
143
0.039370078
147
0.625
171
     3
176
   256
177
   256
178
   256
179
     2
271
     2
272
     2
274
     3
284
     8
340
8B9
371
    -1
372
    -1
1001
ACAD_DSTYLE_DIMJAG
1070
   388
1040
1.5
1001
ACAD_DSTYLE_DIMTALN
1070
   392
1070
     0
  0
ENDTAB
  0
TABLE
  2
BLOCK_RECORD
  5
1
330
0
100
AcDbSymbolTable
 70
    25
  0
BLOCK_RECORD
  5
1F
102
{ACAD_XDICTIONARY
360
29891
102
}
330
1
100
AcDbSymbolTableRecord
100
AcDbBlockTableRecord
  2
*Model_Space
340
22
  0
BLOCK_RECORD
  5
73
330
1
100
AcDbSymbolTableRecord
100
AcDbBlockTableRecord
  2
*Paper_Space
340
74
  0
BLOCK_RECORD
  5
962
330
1
100
AcDbSymbolTableRecord
100
AcDbBlockTableRecord
  2
CERO_POINT
340
0
102
{BLKREFS
331
29254
102
}
1001
ACAD
1000
DesignCenter Data
1002
{
1070
     1
1070
     4
1002
}
  0
BLOCK_RECORD
  5
28EB4
330
1
100
AcDbSymbolTableRecord
100
AcDbBlockTableRecord
  2
*D8
340
0
  0
BLOCK_RECORD
  5
28ECF
330
1
100
AcDbSymbolTableRecord
100
AcDbBlockTableRecord
  2
*D9
340
0
  0
BLOCK_RECORD
  5
28EDC
330
1
100
AcDbSymbolTableRecord
100
AcDbBlockTableRecord
  2
*D10
340
0
  0
BLOCK_RECORD
  5
28EEB
330
1
100
AcDbSymbolTableRecord
100
AcDbBlockTableRecord
  2
*D11
340
0
  0
BLOCK_RECORD
  5
28EF8
330
1
100
AcDbSymbolTableRecord
100
AcDbBlockTableRecord
  2
*D12
340
0
  0
BLOCK_RECORD
  5
28FEE
330
1
100
AcDbSymbolTableRecord
100
AcDbBlockTableRecord
  2
*D13
340
0
  0
BLOCK_RECORD
  5
290B9
330
1
100
AcDbSymbolTableRecord
100
AcDbBlockTableRecord
  2
*D14
340
0
  0
BLOCK_RECORD
  5
295A0
330
1
100
AcDbSymbolTableRecord
100
AcDbBlockTableRecord
  2
_NONE
340
0
  0
ENDTAB
  0
ENDSEC
  0
SECTION
  2
BLOCKS
  0
BLOCK
  5
20
330
1F
100
AcDbEntity
  8
0
100
AcDbBlockBegin
  2
*Model_Space
 70
     0
 10
0.0
 20
0.0
 30
0.0
  3
*Model_Space
  1

  0
ENDBLK
  5
21
330
1F
100
AcDbEntity
  8
0
100
AcDbBlockEnd
  0
BLOCK
  5
75
330
73
100
AcDbEntity
 67
     1
  8
0
100
AcDbBlockBegin
  2
*Paper_Space
 70
     0
 10
0.0
 20
0.0
 30
0.0
  3
*Paper_Space
  1

  0
ENDBLK
  5
76
330
73
100
AcDbEntity
 67
     1
  8
0
100
AcDbBlockEnd
  0
BLOCK
  5
2985E
330
962
100
AcDbEntity
  8
0
100
AcDbBlockBegin
  2
CERO_POINT
 70
     0
 10
0.0
 20
0.0
 30
0.0
  3
CERO_POINT
  1

  0
CIRCLE
  5
964
102
{ACAD_REACTORS
330
969
102
}
330
962
100
AcDbEntity
  8
SK2
100
AcDbCircle
 10
0.0
 20
0.0
 30
0.0
 40
2.5
  0
LINE
  5
965
330
962
100
AcDbEntity
  8
SK2
100
AcDbLine
 10
0.0900000000037835
 20
0.0
 30
0.0
 11
-0.0899999999965076
 21
0.0
 31
0.0
  0
LINE
  5
966
330
962
100
AcDbEntity
  8
SK2
100
AcDbLine
 10
0.0
 20
0.0899999999999182
 30
0.0
 11
0.0
 21
-0.0899999999999182
 31
0.0
  0
LINE
  5
967
102
{ACAD_REACTORS
330
969
102
}
330
962
100
AcDbEntity
  8
SK2
100
AcDbLine
 10
0.0
 20
-2.5
 30
0.0
 11
0.0
 21
2.5
 31
0.0
  0
LINE
  5
968
102
{ACAD_REACTORS
330
969
102
}
330
962
100
AcDbEntity
  8
SK2
100
AcDbLine
 10
2.5
 20
0.0
 30
0.0
 11
-2.5
 21
0.0
 31
0.0
  0
HATCH
  5
969
330
962
100
AcDbEntity
  8
SK2
100
AcDbHatch
 10
0.0
 20
0.0
 30
0.0
210
0.0
220
0.0
230
1.0
  2
ANSI31
 70
     0
 71
     1
 91
        2
 92
        7
 72
     1
 73
     1
 93
        3
 10
0.0
 20
-2.5
 42
0.4142135623730951
 10
2.5
 20
0.0
 42
0.0
 10
0.0
 20
0.0
 42
0.0
 97
        3
330
964
330
968
330
967
 92
        7
 72
     1
 73
     1
 93
        3
 10
0.0
 20
0.0
 42
0.0
 10
0.0
 20
2.5
 42
0.4142135623730951
 10
-2.5
 20
0.0
 42
0.0
 97
        3
330
968
330
967
330
964
 75
     0
 76
     1
 52
180.0
 41
0.1
 77
     0
 78
     1
 53
225.0
 43
5.170976743218488
 44
0.0
 45
0.2245064030267288
 46
-0.2245064030267289
 79
     0
 47
0.0243816376539857
 98
        2
 10
0.8789156907296272
 20
-1.044463114528752
 10
-0.8545028512526187
 20
0.7841600866017872
1001
ACAD
1010
0.0
1020
0.0
1030
0.0
  0
ENDBLK
  5
2985F
330
962
100
AcDbEntity
  8
0
100
AcDbBlockEnd
  0
BLOCK
  5
2986E
330
28EB4
100
AcDbEntity
  8
0
100
AcDbBlockBegin
  2
*D8
 70
     1
 10
0.0
 20
0.0
 30
0.0
  3
*D8
  1

  0
POINT
  5
29364
330
28EB4
100
AcDbEntity
  8
DEFPOINTS
  6
ByBlock
100
AcDbPoint
 10
-25.0
 20
-8.0
 30
0.0
  0
POINT
  5
29365
330
28EB4
100
AcDbEntity
  8
DEFPOINTS
  6
ByBlock
100
AcDbPoint
 10
-25.0
 20
8.0
 30
0.0
  0
LINE
  5
29366
330
28EB4
100
AcDbEntity
  8
SK2
  6
ByBlock
100
AcDbLine
 10
-25.0
 20
-8.0
 30
0.0
 11
-44.46320700000001
 21
-8.0
 31
0.0
  0
LINE
  5
29367
330
28EB4
100
AcDbEntity
  8
SK2
  6
ByBlock
100
AcDbLine
 10
-25.0
 20
8.0
 30
0.0
 11
-44.46320700000001
 21
8.0
 31
0.0
  0
LINE
  5
29368
330
28EB4
100
AcDbEntity
  8
SK2
  6
ByBlock
100
AcDbLine
 10
-43.21320700000001
 20
-8.0
 30
0.0
 11
-43.21320700000001
 21
8.0
 31
0.0
  0
SOLID
  5
29369
330
28EB4
100
AcDbEntity
  8
SK2
  6
ByBlock
100
AcDbTrace
 10
-43.21320700000001
 20
-8.0
 30
0.0
 11
-42.79654033333326
 21
-5.5
 31
0.0
 12
-43.62987366666675
 22
-5.5
 32
0.0
 13
-43.62987366666675
 23
-5.5
 33
0.0
  0
SOLID
  5
2936A
330
28EB4
100
AcDbEntity
  8
SK2
  6
ByBlock
100
AcDbTrace
 10
-43.21320700000001
 20
8.0
 30
0.0
 11
-42.79654033333326
 21
5.5
 31
0.0
 12
-43.62987366666675
 22
5.5
 32
0.0
 13
-43.62987366666675
 23
5.5
 33
0.0
  0
LINE
  5
2936B
330
28EB4
100
AcDbEntity
  8
SK2
  6
ByBlock
100
AcDbLine
 10
-25.0
 20
-8.0
 30
0.0
 11
-25.0
 21
-8.0
 31
0.0
  0
MTEXT
  5
2936C
330
28EB4
100
AcDbEntity
  8
SK2
  6
ByBlock
100
AcDbMText
 10
-45.66076497610683
 20
0.7841750000000049
 30
0.0
 40
3.5
 41
0.0
 71
     5
 72
     1
  1
M\A1;16
  7
MM_STANDARD
 11
0.0000000000000001
 21
1.0
 31
0.0
 73
     1
 44
1.0
1001
ACAD
1000
MTEXTBEGIN
1070
    73
1070
     1
1070
    44
1040
1.0
1070
    74
1070
     0
1000
MTEXTEND
  0
ENDBLK
  5
2986F
330
28EB4
100
AcDbEntity
  8
0
100
AcDbBlockEnd
  0
BLOCK
  5
29870
330
28ECF
100
AcDbEntity
  8
0
100
AcDbBlockBegin
  2
*D9
 70
     1
 10
0.0
 20
0.0
 30
0.0
  3
*D9
  1

  0
POINT
  5
29376
330
28ECF
100
AcDbEntity
  8
DEFPOINTS
  6
ByBlock
100
AcDbPoint
 10
0.0
 20
14.5
 30
0.0
  0
POINT
  5
29377
330
28ECF
100
AcDbEntity
  8
DEFPOINTS
  6
ByBlock
100
AcDbPoint
 10
37.94982899999999
 20
7.318107999999995
 30
0.0
  0
LINE
  5
29378
330
28ECF
100
AcDbEntity
  8
2
  6
ByBlock
100
AcDbLine
 10
0.0
 20
14.5
 30
0.0
 11
0.0009024238303919
 21
41.59909685201634
 31
0.0
  0
LINE
  5
29379
330
28ECF
100
AcDbEntity
  8
2
  6
ByBlock
100
AcDbLine
 10
37.94982899999999
 20
7.318107999999995
 30
0.0
 11
37.95097054508474
 21
41.59783308127059
 31
0.0
  0
LINE
  5
2937A
330
28ECF
100
AcDbEntity
  8
2
  6
ByBlock
100
AcDbLine
 10
0.0008607977277389
 20
40.34909685270942
 30
0.0
 11
37.95092891898209
 21
40.34783308196367
 31
0.0
  0
SOLID
  5
2937B
330
28ECF
100
AcDbEntity
  8
2
  6
ByBlock
100
AcDbTrace
 10
0.0008607977277389
 20
40.34909685270942
 30
0.0
 11
2.500846920974002
 21
39.9323469340684
 31
0.0
 12
2.500874671709103
 22
40.76568026693984
 32
0.0
 13
2.500874671709103
 23
40.76568026693984
 33
0.0
  0
SOLID
  5
2937C
330
28ECF
100
AcDbEntity
  8
2
  6
ByBlock
100
AcDbTrace
 10
37.95092891898209
 20
40.34783308196367
 30
0.0
 11
35.45091504500073
 21
39.93124966773328
 31
0.0
 12
35.45094279573583
 22
40.76458300060471
 32
0.0
 13
35.45094279573583
 23
40.76458300060471
 33
0.0
  0
LINE
  5
2937D
330
28ECF
100
AcDbEntity
  8
2
  6
ByBlock
100
AcDbLine
 10
0.0
 20
14.5
 30
0.0
 11
0.0
 21
14.5
 31
0.0
  0
MTEXT
  5
2937E
330
28ECF
100
AcDbEntity
  8
2
  6
ByBlock
100
AcDbMText
 10
18.97499550583963
 20
42.79602297474972
 30
0.0
 40
3.5
 41
0.0
 71
     5
 72
     1
  1
\A1;38
  7
MM_STANDARD
 11
0.9999999994455258
 21
-0.0000333008821224
 31
0.0
 73
     1
 44
1.0
1001
ACAD
1000
MTEXTBEGIN
1070
    73
1070
     1
1070
    44
1040
1.0
1070
    74
1070
     0
1000
MTEXTEND
  0
ENDBLK
  5
29871
330
28ECF
100
AcDbEntity
  8
0
100
AcDbBlockEnd
  0
BLOCK
  5
29872
330
28EDC
100
AcDbEntity
  8
0
100
AcDbBlockBegin
  2
*D10
 70
     1
 10
0.0
 20
0.0
 30
0.0
  3
*D10
  1

  0
POINT
  5
29388
330
28EDC
100
AcDbEntity
  8
DEFPOINTS
  6
ByBlock
100
AcDbPoint
 10
-25.0
 20
8.0
 30
0.0
  0
POINT
  5
29389
330
28EDC
100
AcDbEntity
  8
DEFPOINTS
  6
ByBlock
100
AcDbPoint
 10
37.94982899999999
 20
7.318107999999995
 30
0.0
  0
LINE
  5
2938A
330
28EDC
100
AcDbEntity
  8
SK2
  6
ByBlock
100
AcDbLine
 10
-25.0
 20
8.0
 30
0.0
 11
-24.99854809775303
 21
51.59951309474497
 31
0.0
  0
LINE
  5
2938B
330
28EDC
100
AcDbEntity
  8
SK2
  6
ByBlock
100
AcDbLine
 10
37.94982899999999
 20
7.318107999999995
 30
0.0
 11
37.95130354004392
 21
51.59741680915481
 31
0.0
  0
LINE
  5
2938C
330
28EDC
100
AcDbEntity
  8
SK2
  6
ByBlock
100
AcDbLine
 10
-24.99858972385569
 20
50.34951309543806
 30
0.0
 11
37.95126191394128
 21
50.3474168098479
 31
0.0
  0
SOLID
  5
2938D
330
28EDC
100
AcDbEntity
  8
SK2
  6
ByBlock
100
AcDbTrace
 10
-24.99858972385569
 20
50.34951309543806
 30
0.0
 11
-22.49860360060942
 21
49.93276317679704
 31
0.0
 12
-22.49857584987432
 22
50.76609650966849
 32
0.0
 13
-22.49857584987432
 23
50.76609650966849
 33
0.0
  0
SOLID
  5
2938E
330
28EDC
100
AcDbEntity
  8
SK2
  6
ByBlock
100
AcDbTrace
 10
37.95126191394127
 20
50.3474168098479
 30
0.0
 11
35.45124803995991
 21
49.93083339561749
 31
0.0
 12
35.45127579069501
 22
50.76416672848893
 32
0.0
 13
35.45127579069501
 23
50.76416672848893
 33
0.0
  0
LINE
  5
2938F
330
28EDC
100
AcDbEntity
  8
SK2
  6
ByBlock
100
AcDbLine
 10
-25.0
 20
8.0
 30
0.0
 11
-25.0
 21
8.0
 31
0.0
  0
MTEXT
  5
29390
330
28EDC
100
AcDbEntity
  8
SK2
  6
ByBlock
100
AcDbMText
 10
6.474995505839636
 20
52.79602297474972
 30
0.0
 40
3.5
 41
0.0
 71
     5
 72
     1
  1
\A1;63
  7
MM_STANDARD
 11
0.9999999994455258
 21
-0.0000333008821224
 31
0.0
 73
     1
 44
1.0
1001
ACAD
1000
MTEXTBEGIN
1070
    73
1070
     1
1070
    44
1040
1.0
1070
    74
1070
     0
1000
MTEXTEND
  0
ENDBLK
  5
29873
330
28EDC
100
AcDbEntity
  8
0
100
AcDbBlockEnd
  0
BLOCK
  5
29874
330
28EEB
100
AcDbEntity
  8
0
100
AcDbBlockBegin
  2
*D11
 70
     1
 10
0.0
 20
0.0
 30
0.0
  3
*D11
  1

  0
MTEXT
  5
2939D
330
28EEB
100
AcDbEntity
  8
2
  6
ByBlock
100
AcDbMText
 10
52.4589662061131
 20
23.34694755796543
 30
0.0
 40
3.5
 41
0.0
 71
     5
 72
     1
  1
\A1;37%%d~53%%d
  7
MM_STANDARD
 11
0.9964449282057309
 21
-0.084246691644695
 31
0.0
 73
     1
 44
1.0
1001
ACAD
1000
MTEXTBEGIN
1070
    73
1070
     1
1070
    44
1040
1.0
1070
    74
1070
     0
1000
MTEXTEND
  0
POINT
  5
2939E
330
28EEB
100
AcDbEntity
  8
DEFPOINTS
  6
ByBlock
100
AcDbPoint
 10
36.82227599999999
 20
8.973560000000018
 30
0.0
  0
POINT
  5
2939F
330
28EEB
100
AcDbEntity
  8
DEFPOINTS
  6
ByBlock
100
AcDbPoint
 10
37.94982899999999
 20
7.477247000000004
 30
0.0
  0
POINT
  5
293A0
330
28EEB
100
AcDbEntity
  8
DEFPOINTS
  6
ByBlock
100
AcDbPoint
 10
37.94982899999999
 20
7.403426999999994
 30
0.0
  0
POINT
  5
293A1
330
28EEB
100
AcDbEntity
  8
DEFPOINTS
  6
ByBlock
100
AcDbPoint
 10
37.94982899999999
 20
7.477247000000004
 30
0.0
  0
SOLID
  5
293A2
330
28EEB
100
AcDbEntity
  8
2
  6
ByBlock
100
AcDbTrace
 10
37.94982899999999
 20
22.31462489101313
 30
0.0
 11
35.49381946767097
 21
21.68882277514892
 31
0.0
 12
35.42361389130037
 22
22.51919354865387
 32
0.0
 13
35.42361389130037
 23
22.51919354865387
 33
0.0
  0
SOLID
  5
293A3
330
28EEB
100
AcDbEntity
  8
2
  6
ByBlock
100
AcDbTrace
 10
29.02047067364137
 20
19.32690279922958
 30
0.0
 11
30.91488307406371
 21
21.01059302258934
 31
0.0
 12
31.3585440978333
 22
20.30517871848682
 32
0.0
 13
31.3585440978333
 23
20.30517871848682
 33
0.0
  0
LINE
  5
293A4
330
28EEB
100
AcDbEntity
  8
2
  6
ByBlock
100
AcDbLine
 10
37.94982899999999
 20
7.477247000000004
 30
0.0
 11
37.94982899999999
 21
22.31462489101313
 31
0.0
  0
LINE
  5
293A5
330
28EEB
100
AcDbEntity
  8
2
  6
ByBlock
100
AcDbLine
 10
36.82227599999999
 20
8.973560000000018
 30
0.0
 11
28.26820177613564
 21
20.32519709744304
 31
0.0
  0
ARC
  5
293A6
330
28EEB
100
AcDbEntity
  8
2
  6
ByBlock
100
AcDbCircle
 10
37.94982899999999
 20
7.477247000000004
 30
0.0
 40
14.83737789101313
100
AcDbArc
 50
99.6654162047657
 51
117.3345906001534
  0
ARC
  5
293A7
330
28EEB
100
AcDbEntity
  8
2
  6
ByBlock
100
AcDbCircle
 10
37.94982899999999
 20
7.477247000000004
 30
0.0
 40
14.83737789101313
100
AcDbArc
 50
76.31473094186481
 51
90.0
  0
LINE
  5
293A8
330
28EEB
100
AcDbEntity
  8
2
  6
ByBlock
100
AcDbLine
 10
41.46017974795569
 20
21.89339143278966
 30
0.0
 11
63.05758087895871
 21
20.06739027416393
 31
0.0
  0
ENDBLK
  5
29875
330
28EEB
100
AcDbEntity
  8
0
100
AcDbBlockEnd
  0
BLOCK
  5
29876
330
28EF8
100
AcDbEntity
  8
0
100
AcDbBlockBegin
  2
*D12
 70
     1
 10
0.0
 20
0.0
 30
0.0
  3
*D12
  1

  0
POINT
  5
293B3
330
28EF8
100
AcDbEntity
  8
DEFPOINTS
  6
ByBlock
100
AcDbPoint
 10
29.54999999999998
 20
15.84494800000002
 30
0.0
  0
POINT
  5
293B4
330
28EF8
100
AcDbEntity
  8
DEFPOINTS
  6
ByBlock
100
AcDbPoint
 10
37.94982899999999
 20
7.318107999999995
 30
0.0
  0
LINE
  5
293B5
330
28EF8
100
AcDbEntity
  8
2
  6
ByBlock
100
AcDbLine
 10
29.54999999999998
 20
15.84494800000002
 30
0.0
 11
29.55052877530839
 21
31.72366575192043
 31
0.0
  0
LINE
  5
293B6
330
28EF8
100
AcDbEntity
  8
2
  6
ByBlock
100
AcDbLine
 10
37.94982899999999
 20
7.318107999999994
 30
0.0
 11
37.95064171728698
 21
31.72338602074937
 31
0.0
  0
LINE
  5
293B7
330
28EF8
100
AcDbEntity
  8
2
  6
ByBlock
100
AcDbLine
 10
29.55048714920573
 20
30.47366575261351
 30
0.0
 11
37.95060009118433
 21
30.47338602144246
 31
0.0
  0
SOLID
  5
293B8
330
28EF8
100
AcDbEntity
  8
2
  6
ByBlock
100
AcDbTrace
 10
29.55048714920573
 20
30.47366575261351
 30
0.0
 11
32.050473272452
 21
30.05691583397249
 31
0.0
 12
32.0505010231871
 22
30.89024916684392
 32
0.0
 13
32.0505010231871
 23
30.89024916684392
 33
0.0
  0
LINE
  5
293B9
330
28EF8
100
AcDbEntity
  8
2
  6
ByBlock
100
AcDbLine
 10
29.55048714920573
 20
30.47366575261351
 30
0.0
 11
16.99022714211526
 21
30.47408402035166
 31
0.0
  0
SOLID
  5
293BA
330
28EF8
100
AcDbEntity
  8
2
  6
ByBlock
100
AcDbTrace
 10
37.95060009118433
 20
30.47338602144246
 30
0.0
 11
35.45058621720296
 21
30.05680260721205
 31
0.0
 12
35.45061396793806
 22
30.89013594008349
 32
0.0
 13
35.45061396793806
 23
30.89013594008349
 33
0.0
  0
LINE
  5
293BB
330
28EF8
100
AcDbEntity
  8
2
  6
ByBlock
100
AcDbLine
 10
29.54999999999998
 20
15.84494800000002
 30
0.0
 11
29.54999999999998
 21
15.84494800000002
 31
0.0
  0
MTEXT
  5
293BC
330
28EF8
100
AcDbEntity
  8
2
  6
ByBlock
100
AcDbMText
 10
22.02043865219323
 20
32.92147448733495
 30
0.0
 40
3.5
 41
0.0
 71
     5
 72
     1
  1
\A1;8.4
  7
MM_STANDARD
 11
0.9999999994455258
 21
-0.0000333008821224
 31
0.0
 73
     1
 44
1.0
1001
ACAD
1000
MTEXTBEGIN
1070
    73
1070
     1
1070
    44
1040
1.0
1070
    74
1070
     0
1000
MTEXTEND
  0
ENDBLK
  5
29877
330
28EF8
100
AcDbEntity
  8
0
100
AcDbBlockEnd
  0
BLOCK
  5
29878
330
28FEE
100
AcDbEntity
  8
0
100
AcDbBlockBegin
  2
*D13
 70
     1
 10
0.0
 20
0.0
 30
0.0
  3
*D13
  1

  0
LINE
  5
298DA
330
28FEE
100
AcDbEntity
  8
SK2
  6
ByBlock
100
AcDbLine
 10
0.0
 20
14.50000000000001
 30
0.0
 11
-56.56032888207294
 21
14.5
 31
0.0
  0
LINE
  5
298DB
330
28FEE
100
AcDbEntity
  8
SK2
  6
ByBlock
100
AcDbLine
 10
0.0
 20
-14.50000000000001
 30
0.0
 11
-56.56032888207294
 21
-14.50000000000001
 31
0.0
  0
LINE
  5
298DC
330
28FEE
100
AcDbEntity
  8
SK2
  6
ByBlock
100
AcDbLine
 10
-55.31032888207294
 20
12.0
 30
0.0
 11
-55.31032888207294
 21
-12.00000000000001
 31
0.0
  0
SOLID
  5
298DD
330
28FEE
100
AcDbEntity
  8
SK2
100
AcDbTrace
 10
-55.7269955487396
 20
12.0
 30
0.0
 11
-54.89366221540628
 21
12.0
 31
0.0
 12
-55.31032888207294
 22
14.5
 32
0.0
 13
-55.31032888207294
 23
14.5
 33
0.0
  0
SOLID
  5
298DE
330
28FEE
100
AcDbEntity
  8
SK2
100
AcDbTrace
 10
-55.7269955487396
 20
-12.00000000000001
 30
0.0
 11
-54.89366221540628
 21
-12.00000000000001
 31
0.0
 12
-55.31032888207294
 22
-14.50000000000001
 32
0.0
 13
-55.31032888207294
 23
-14.50000000000001
 33
0.0
  0
MTEXT
  5
298DF
330
28FEE
100
AcDbEntity
  8
SK2
100
AcDbMText
 10
-58.15634082866464
 20
0.0000000000000073
 30
0.0
 40
3.5
 41
0.0
 71
     5
 72
     1
  1
\A1;%%C29
  7
MM_STANDARD
 11
0.0000000000000001
 21
1.0
 31
0.0
 73
     1
 44
1.0
1001
ACAD
1000
MTEXTBEGIN
1070
    73
1070
     1
1070
    44
1040
1.0
1070
    74
1070
     0
1000
MTEXTEND
  0
POINT
  5
298E0
330
28FEE
100
AcDbEntity
  8
DEFPOINTS
 62
     0
100
AcDbPoint
 10
0.0
 20
14.50000000000001
 30
0.0
  0
POINT
  5
298E1
330
28FEE
100
AcDbEntity
  8
DEFPOINTS
 62
     0
100
AcDbPoint
 10
0.0
 20
-14.50000000000001
 30
0.0
  0
POINT
  5
298E2
330
28FEE
100
AcDbEntity
  8
DEFPOINTS
 62
     0
100
AcDbPoint
 10
-55.31032888207294
 20
-14.50000000000001
 30
0.0
  0
ENDBLK
  5
29879
330
28FEE
100
AcDbEntity
  8
0
100
AcDbBlockEnd
  0
BLOCK
  5
2987A
330
290B9
100
AcDbEntity
  8
0
100
AcDbBlockBegin
  2
*D14
 70
     1
 10
0.0
 20
0.0
 30
0.0
  3
*D14
  1

  0
LINE
  5
298E3
330
290B9
100
AcDbEntity
  8
2
  6
ByBlock
100
AcDbLine
 10
29.55
 20
16.0
 30
0.0
 11
69.57465552592593
 21
16.00000000000001
 31
0.0
  0
LINE
  5
298E4
330
290B9
100
AcDbEntity
  8
2
  6
ByBlock
100
AcDbLine
 10
68.32465552592593
 20
13.50000000000001
 30
0.0
 11
68.32465552592593
 21
-5.015251607859691
 31
0.0
  0
SOLID
  5
298E5
330
290B9
100
AcDbEntity
  8
2
100
AcDbTrace
 10
67.90798885925926
 20
13.50000000000001
 30
0.0
 11
68.7413221925926
 21
13.50000000000001
 31
0.0
 12
68.32465552592593
 22
16.00000000000001
 32
0.0
 13
68.32465552592593
 23
16.00000000000001
 33
0.0
  0
MTEXT
  5
298E6
330
290B9
100
AcDbEntity
  8
2
100
AcDbMText
 10
65.47864357933422
 20
-0.0121771173467092
 30
0.0
 40
3.5
 41
0.0
 71
     5
 72
     1
  1
\A1;%%C32
  7
MM_STANDARD
 11
0.0000000000000001
 21
1.0
 31
0.0
 73
     1
 44
1.0
1001
ACAD
1000
MTEXTBEGIN
1070
    73
1070
     1
1070
    44
1040
1.0
1070
    74
1070
     0
1000
MTEXTEND
  0
POINT
  5
298E7
330
290B9
100
AcDbEntity
  8
DEFPOINTS
 62
     0
100
AcDbPoint
 10
29.55
 20
16.0
 30
0.0
  0
POINT
  5
298E8
330
290B9
100
AcDbEntity
  8
DEFPOINTS
 62
     0
100
AcDbPoint
 10
42.76005000000002
 20
-16.0
 30
0.0
  0
POINT
  5
298E9
330
290B9
100
AcDbEntity
  8
DEFPOINTS
 62
     0
100
AcDbPoint
 10
68.32465552592593
 20
-16.0
 30
0.0
  0
ENDBLK
  5
2987B
330
290B9
100
AcDbEntity
  8
0
100
AcDbBlockEnd
  0
BLOCK
  5
2987C
330
295A0
100
AcDbEntity
  8
0
100
AcDbBlockBegin
  2
_NONE
 70
     0
 10
0.0
 20
0.0
 30
0.0
  3
_NONE
  1

  0
ENDBLK
  5
2987D
330
295A0
100
AcDbEntity
  8
0
100
AcDbBlockEnd
  0
ENDSEC
  0
SECTION
  2
ENTITIES
  0
LINE
  5
AA8
330
1F
100
AcDbEntity
  8
INFTOTAL
100
AcDbLine
 10
-69.26824269385493
 20
5.967790143361237
 30
0.0
 11
-69.26824269385493
 21
59.06370970103188
 31
0.0
  0
LINE
  5
AA9
330
1F
100
AcDbEntity
  8
INFTOTAL
100
AcDbLine
 10
-69.26824269385493
 20
59.06370970103188
 30
0.0
 11
-2.254929790134634
 21
59.06370970103188
 31
0.0
  0
LINE
  5
AAA
330
1F
100
AcDbEntity
  8
INFTOTAL
100
AcDbLine
 10
17.50274592560983
 20
-49.03831724204863
 30
0.0
 11
77.01616800993718
 21
-49.03831724204868
 31
0.0
  0
LINE
  5
AAB
330
1F
100
AcDbEntity
  8
INFTOTAL
100
AcDbLine
 10
77.01616800993718
 20
-49.03831724204868
 30
0.0
 11
77.01616800993718
 21
-6.879254642852924
 31
0.0
  0
POINT
  5
AFA
330
1F
100
AcDbEntity
  8
1
100
AcDbPoint
 10
120.6316161181774
 20
18.06659889820604
 30
0.0
  0
POINT
  5
AFB
330
1F
100
AcDbEntity
  8
1
100
AcDbPoint
 10
117.3316161181774
 20
20.61513489820602
 30
0.0
  0
POINT
  5
136D
330
1F
100
AcDbEntity
  8
CUT
100
AcDbPoint
 10
120.6316161181774
 20
18.03682647108094
 30
0.0
  0
POINT
  5
410F
330
1F
100
AcDbEntity
  8
0
 62
     7
370
     5
100
AcDbPoint
 10
694.5793644972614
 20
32.06429484497903
 30
0.0
  0
POINT
  5
4112
330
1F
100
AcDbEntity
  8
0
 62
     7
370
     5
100
AcDbPoint
 10
694.7265624972615
 20
3.587258844979031
 30
0.0
  0
POINT
  5
4BBB
330
1F
100
AcDbEntity
  8
0
 62
     7
370
     5
100
AcDbPoint
 10
928.2803214655135
 20
36.14402775200896
 30
0.0
  0
POINT
  5
4BBE
330
1F
100
AcDbEntity
  8
0
 62
     7
370
     5
100
AcDbPoint
 10
927.9725574655133
 20
-13.37717824799107
 30
0.0
  0
POINT
  5
4C3D
330
1F
100
AcDbEntity
  8
0
 62
     7
370
     5
100
AcDbPoint
 10
1260.468250897024
 20
34.18197122255629
 30
0.0
  0
POINT
  5
4C41
330
1F
100
AcDbEntity
  8
0
 62
     7
370
     5
100
AcDbPoint
 10
1192.987798897024
 20
34.42276422255628
 30
0.0
  0
POINT
  5
4CA6
330
1F
100
AcDbEntity
  8
0
 62
     7
370
     5
100
AcDbPoint
 10
1531.370477890708
 20
36.54134112174947
 30
0.0
  0
POINT
  5
4CAA
330
1F
100
AcDbEntity
  8
0
 62
     7
370
     5
100
AcDbPoint
 10
1454.809556890707
 20
33.56345212174947
 30
0.0
  0
POINT
  5
4D13
330
1F
100
AcDbEntity
  8
0
 62
     7
370
     5
100
AcDbPoint
 10
705.1278997494348
 20
-154.9600065549146
 30
0.0
  0
POINT
  5
4D16
330
1F
100
AcDbEntity
  8
0
 62
     7
370
     5
100
AcDbPoint
 10
704.8201357494348
 20
-214.4959135549147
 30
0.0
  0
POINT
  5
4D94
330
1F
100
AcDbEntity
  8
0
 62
     7
370
     5
100
AcDbPoint
 10
1787.824033288602
 20
31.89640981289145
 30
0.0
  0
POINT
  5
4D98
330
1F
100
AcDbEntity
  8
0
 62
     7
370
     5
100
AcDbPoint
 10
1715.838491288602
 20
29.33517681289146
 30
0.0
  0
POINT
  5
4DFF
330
1F
100
AcDbEntity
  8
0
 62
     3
370
     5
100
AcDbPoint
 10
1267.112797580298
 20
-159.0002427017263
 30
0.0
  0
POINT
  5
4E03
330
1F
100
AcDbEntity
  8
0
 62
     3
370
     5
100
AcDbPoint
 10
1194.506377580298
 20
-161.9343927017263
 30
0.0
  0
POINT
  5
4E6A
330
1F
100
AcDbEntity
  8
0
 62
     7
370
     5
100
AcDbPoint
 10
1544.710960196184
 20
-155.8112991948312
 30
0.0
  0
POINT
  5
4E6E
330
1F
100
AcDbEntity
  8
0
 62
     3
370
     5
100
AcDbPoint
 10
1456.283339196184
 20
-157.1011921948312
 30
0.0
  0
POINT
  5
4ED5
330
1F
100
AcDbEntity
  8
0
 62
     7
370
     5
100
AcDbPoint
 10
923.0975508391153
 20
-198.2811869580544
 30
0.0
  0
POINT
  5
4ED6
330
1F
100
AcDbEntity
  8
0
 62
     7
370
     5
100
AcDbPoint
 10
958.0975508391155
 20
-190.2811869580544
 30
0.0
  0
POINT
  5
4ED9
330
1F
100
AcDbEntity
  8
0
 62
     7
370
     5
100
AcDbPoint
 10
957.9030798391153
 20
-228.1917289580544
 30
0.0
  0
POINT
  5
4F57
330
1F
100
AcDbEntity
  8
0
 62
     7
370
     5
100
AcDbPoint
 10
450.9331152202981
 20
34.51099349283641
 30
0.0
  0
POINT
  5
4F5A
330
1F
100
AcDbEntity
  8
0
 62
     7
370
     5
100
AcDbPoint
 10
450.3789362202981
 20
-3.505724507163591
 30
0.0
  0
POINT
  5
4FD6
330
1F
100
AcDbEntity
  8
0
 62
     7
370
     5
100
AcDbPoint
 10
414.7355793530676
 20
-182.3643573412055
 30
0.0
  0
POINT
  5
4FD9
330
1F
100
AcDbEntity
  8
0
 62
     7
370
     5
100
AcDbPoint
 10
414.4028163530678
 20
-227.6410343412055
 30
0.0
  0
POINT
  5
5057
330
1F
100
AcDbEntity
  8
0
 62
     7
370
     5
100
AcDbPoint
 10
411.1596871436125
 20
-404.5108996529686
 30
0.0
  0
POINT
  5
505A
330
1F
100
AcDbEntity
  8
0
 62
     7
370
     5
100
AcDbPoint
 10
410.8519251436126
 20
-448.9004636529686
 30
0.0
  0
POINT
  5
50DA
330
1F
100
AcDbEntity
  8
0
 62
     7
370
     5
100
AcDbPoint
 10
696.3752719090887
 20
-405.5632373962983
 30
0.0
  0
POINT
  5
50DD
330
1F
100
AcDbEntity
  8
0
 62
     7
370
     5
100
AcDbPoint
 10
696.0675099090884
 20
-458.9718843962983
 30
0.0
  0
POINT
  5
515E
330
1F
100
AcDbEntity
  8
0
 62
     7
370
     5
100
AcDbPoint
 10
942.932329238496
 20
-403.2148016805113
 30
0.0
  0
POINT
  5
5161
330
1F
100
AcDbEntity
  8
0
 62
     3
370
     5
100
AcDbPoint
 10
942.624565238496
 20
-476.4638956805113
 30
0.0
  0
POINT
  5
51E0
330
1F
100
AcDbEntity
  8
0
 62
     7
370
     5
100
AcDbPoint
 10
380.0596661818993
 20
-637.2898669140809
 30
0.0
  0
POINT
  5
51E4
330
1F
100
AcDbEntity
  8
0
 62
     7
370
     5
100
AcDbPoint
 10
379.7269051818993
 20
-669.3765459140807
 30
0.0
  0
POINT
  5
5263
330
1F
100
AcDbEntity
  8
0
 62
     7
370
     5
100
AcDbPoint
 10
656.1064603234972
 20
-644.2320044768857
 30
0.0
  0
POINT
  5
5267
330
1F
100
AcDbEntity
  8
0
 62
     7
370
     5
100
AcDbPoint
 10
655.7736983234972
 20
-681.5918884768857
 30
0.0
  0
POINT
  5
52E6
330
1F
100
AcDbEntity
  8
0
 62
     7
370
     5
100
AcDbPoint
 10
921.5387707571863
 20
-642.2430056930917
 30
0.0
  0
POINT
  5
52EA
330
1F
100
AcDbEntity
  8
0
 62
     7
370
     5
100
AcDbPoint
 10
921.2310077571864
 20
-692.8111586930919
 30
0.0
  0
POINT
  5
536A
330
1F
100
AcDbEntity
  8
0
 62
     7
370
     5
100
AcDbPoint
 10
1232.563978885883
 20
-644.0998079544141
 30
0.0
  0
POINT
  5
536E
330
1F
100
AcDbEntity
  8
0
 62
     7
370
     5
100
AcDbPoint
 10
1232.256215885883
 20
-701.4147569544141
 30
0.0
  0
POINT
  5
53EE
330
1F
100
AcDbEntity
  8
0
 62
     7
370
     5
100
AcDbPoint
 10
1530.052638397992
 20
-643.475919607774
 30
0.0
  0
POINT
  5
53F2
330
1F
100
AcDbEntity
  8
0
 62
     7
370
     5
100
AcDbPoint
 10
1529.744875397992
 20
-702.095046607774
 30
0.0
  0
POINT
  5
5472
330
1F
100
AcDbEntity
  8
0
 62
     7
370
     5
100
AcDbPoint
 10
684.9908237883022
 20
27.90718926625232
 30
0.0
  0
POINT
  5
5475
330
1F
100
AcDbEntity
  8
0
 62
     7
370
     5
100
AcDbPoint
 10
685.1380217883022
 20
-0.5698467337476814
 30
0.0
  0
POINT
  5
C167
330
1F
100
AcDbEntity
  8
0
 62
     7
370
     5
100
AcDbPoint
 10
404.6381194571074
 20
31.25869005531058
 30
0.0
  0
POINT
  5
C170
330
1F
100
AcDbEntity
  8
0
 62
     7
370
     5
100
AcDbPoint
 10
404.6381194571074
 20
-40.40044294468938
 30
0.0
  0
POINT
  5
C178
330
1F
100
AcDbEntity
  8
0
 62
     7
370
     5
100
AcDbPoint
 10
693.6166312048997
 20
32.91651042690259
 30
0.0
  0
POINT
  5
C182
330
1F
100
AcDbEntity
  8
0
 62
     7
370
     5
100
AcDbPoint
 10
693.6166312048997
 20
-48.79153757309743
 30
0.0
  0
POINT
  5
C255
330
1F
100
AcDbEntity
  8
0
 62
     7
370
     5
100
AcDbPoint
 10
969.8580521302226
 20
-44.97487572475608
 30
0.0
  0
POINT
  5
C258
330
1F
100
AcDbEntity
  8
0
 62
     7
370
     5
100
AcDbPoint
 10
969.8580521302226
 20
15.7863642752439
 30
0.0
  0
POINT
  5
C2E1
330
1F
100
AcDbEntity
  8
0
 62
     7
370
     5
100
AcDbPoint
 10
1225.348704188238
 20
-52.24776141224177
 30
0.0
  0
POINT
  5
C2E4
330
1F
100
AcDbEntity
  8
0
 62
     7
370
     5
100
AcDbPoint
 10
1225.348704188238
 20
11.68361158775823
 30
0.0
  0
POINT
  5
C36E
330
1F
100
AcDbEntity
  8
0
 62
     7
370
     5
100
AcDbPoint
 10
1738.913115957113
 20
-214.1607529893734
 30
0.0
  0
POINT
  5
C377
330
1F
100
AcDbEntity
  8
0
 62
     3
370
     5
100
AcDbPoint
 10
1738.913115957113
 20
-286.8828409893735
 30
0.0
  0
POINT
  5
C42D
330
1F
100
AcDbEntity
  8
0
 62
     7
370
     5
100
AcDbPoint
 10
430.2380300204257
 20
-176.3158258460635
 30
0.0
  0
POINT
  5
C437
330
1F
100
AcDbEntity
  8
0
 62
     7
370
     5
100
AcDbPoint
 10
430.2380300204257
 20
-251.7521558460636
 30
0.0
  0
POINT
  5
C533
330
1F
100
AcDbEntity
  8
0
 62
     3
370
     5
100
AcDbPoint
 10
724.0359074233313
 20
-257.7049218719476
 30
0.0
  0
POINT
  5
C536
330
1F
100
AcDbEntity
  8
0
 62
     3
370
     5
100
AcDbPoint
 10
724.0359074233313
 20
-176.2890638719476
 30
0.0
  0
POINT
  5
C652
330
1F
100
AcDbEntity
  8
0
 62
     7
370
     5
100
AcDbPoint
 10
1006.718794540682
 20
-163.3460002642659
 30
0.0
  0
POINT
  5
C65C
330
1F
100
AcDbEntity
  8
0
 62
     7
370
     5
100
AcDbPoint
 10
1006.718794540682
 20
-271.4659132642659
 30
0.0
  0
POINT
  5
C79F
330
1F
100
AcDbEntity
  8
0
 62
     7
370
     5
100
AcDbPoint
 10
680.0273543974197
 20
-609.8288373451556
 30
0.0
  0
POINT
  5
C7A3
330
1F
100
AcDbEntity
  8
0
 62
     7
370
     5
100
AcDbPoint
 10
680.0273543974197
 20
-565.0385583451557
 30
0.0
  0
POINT
  5
C85B
330
1F
100
AcDbEntity
  8
0
 62
     7
370
     5
100
AcDbPoint
 10
981.854726218849
 20
-559.8376501395787
 30
0.0
  0
POINT
  5
C863
330
1F
100
AcDbEntity
  8
0
 62
     7
370
     5
100
AcDbPoint
 10
981.854726218849
 20
-623.6282751395788
 30
0.0
  0
POINT
  5
C930
330
1F
100
AcDbEntity
  8
0
 62
     7
370
     5
100
AcDbPoint
 10
1216.759569404171
 20
-624.5477225769705
 30
0.0
  0
POINT
  5
C934
330
1F
100
AcDbEntity
  8
0
 62
     7
370
     5
100
AcDbPoint
 10
1202.759569404171
 20
-560.1965945769704
 30
0.0
  0
POINT
  5
C935
330
1F
100
AcDbEntity
  8
0
 62
     7
370
     5
100
AcDbPoint
 10
1216.759569404171
 20
-551.6965945769704
 30
0.0
  0
POINT
  5
CA12
330
1F
100
AcDbEntity
  8
0
 62
     7
370
     5
100
AcDbPoint
 10
1458.761001673632
 20
-627.5597008720548
 30
0.0
  0
POINT
  5
CA16
330
1F
100
AcDbEntity
  8
0
 62
     7
370
     5
100
AcDbPoint
 10
1443.761001673632
 20
-571.7910898720547
 30
0.0
  0
POINT
  5
CA17
330
1F
100
AcDbEntity
  8
0
 62
     7
370
     5
100
AcDbPoint
 10
1458.761001673632
 20
-561.2910898720547
 30
0.0
  0
POINT
  5
CB25
330
1F
100
AcDbEntity
  8
0
 62
     7
370
     5
100
AcDbPoint
 10
1712.749014983699
 20
-637.6031663899041
 30
0.0
  0
POINT
  5
CB29
330
1F
100
AcDbEntity
  8
0
 62
     7
370
     5
100
AcDbPoint
 10
1712.749014983699
 20
-557.403845389904
 30
0.0
  0
POINT
  5
CC4B
330
1F
100
AcDbEntity
  8
0
 62
     7
370
     5
100
AcDbPoint
 10
1990.420039580178
 20
-639.3672597641932
 30
0.0
  0
POINT
  5
CC4F
330
1F
100
AcDbEntity
  8
0
 62
     7
370
     5
100
AcDbPoint
 10
1975.420039580178
 20
-571.8308197641934
 30
0.0
  0
POINT
  5
CC50
330
1F
100
AcDbEntity
  8
0
 62
     7
370
     5
100
AcDbPoint
 10
1990.420039580178
 20
-554.3308197641933
 30
0.0
  0
POINT
  5
D588
330
1F
100
AcDbEntity
  8
0
 62
     7
370
     5
100
AcDbPoint
 10
643.6762534904714
 20
-418.5518022854259
 30
0.0
  0
POINT
  5
D590
330
1F
100
AcDbEntity
  8
0
 62
     7
370
     5
100
AcDbPoint
 10
698.8426964904712
 20
-418.5518022854259
 30
0.0
  0
POINT
  5
D89C
330
1F
100
AcDbEntity
  8
0
 62
     7
370
     5
100
AcDbPoint
 10
918.4554480131433
 20
-418.2516555129392
 30
0.0
  0
POINT
  5
D8A3
330
1F
100
AcDbEntity
  8
0
 62
     7
370
     5
100
AcDbPoint
 10
998.0069960131432
 20
-418.2516555129392
 30
0.0
  0
POINT
  5
DAF2
330
1F
100
AcDbEntity
  8
0
 62
     7
370
     5
100
AcDbPoint
 10
1973.075374951941
 20
-60.50318164632196
 30
0.0
  0
POINT
  5
DAF5
330
1F
100
AcDbEntity
  8
0
 62
     7
370
     5
100
AcDbPoint
 10
1973.075374951941
 20
1.00896335367804
 30
0.0
  0
POINT
  5
DCBB
330
1F
100
AcDbEntity
  8
0
 62
     7
370
     5
100
AcDbPoint
 10
2228.446041001848
 20
-631.5679862622897
 30
0.0
  0
POINT
  5
DCBF
330
1F
100
AcDbEntity
  8
0
 62
     7
370
     5
100
AcDbPoint
 10
2228.446041001848
 20
-581.1017172622897
 30
0.0
  0
POINT
  5
DECF
330
1F
100
AcDbEntity
  8
0
 62
     7
370
     5
100
AcDbPoint
 10
2470.518201269178
 20
-576.6616946872675
 30
0.0
  0
POINT
  5
DED7
330
1F
100
AcDbEntity
  8
0
 62
     7
370
     5
100
AcDbPoint
 10
2470.518201269178
 20
-638.2022576872675
 30
0.0
  0
POINT
  5
E102
330
1F
100
AcDbEntity
  8
0
 62
     7
370
     5
100
AcDbPoint
 10
1449.716374392063
 20
-281.2570516923841
 30
0.0
  0
POINT
  5
E105
330
1F
100
AcDbEntity
  8
0
 62
     7
370
     5
100
AcDbPoint
 10
1449.716374392063
 20
-216.7933926923841
 30
0.0
  0
POINT
  5
E20E
330
1F
100
AcDbEntity
  8
0
 62
     7
370
     5
100
AcDbPoint
 10
1444.226360693917
 20
7.118696944552222
 30
0.0
  0
POINT
  5
E217
330
1F
100
AcDbEntity
  8
0
 62
     7
370
     5
100
AcDbPoint
 10
1444.226360693917
 20
-50.75492105544778
 30
0.0
  0
POINT
  5
E328
330
1F
100
AcDbEntity
  8
0
 62
     7
370
     5
100
AcDbPoint
 10
1674.557421043983
 20
-57.27887800498226
 30
0.0
  0
POINT
  5
E32B
330
1F
100
AcDbEntity
  8
0
 62
     7
370
     5
100
AcDbPoint
 10
1674.557421043983
 20
6.273895995017768
 30
0.0
  0
POINT
  5
E438
330
1F
100
AcDbEntity
  8
0
 62
     7
370
     5
100
AcDbPoint
 10
1221.741516539144
 20
-220.2351919986821
 30
0.0
  0
POINT
  5
E441
330
1F
100
AcDbEntity
  8
0
 62
     7
370
     5
100
AcDbPoint
 10
1221.741516539144
 20
-278.4038869986821
 30
0.0
  0
POINT
  5
E533
330
1F
100
AcDbEntity
  8
0
 62
     7
370
     5
100
AcDbPoint
 10
435.7613867553435
 20
-401.853645371286
 30
0.0
  0
POINT
  5
E537
330
1F
100
AcDbEntity
  8
0
 62
     7
370
     5
100
AcDbPoint
 10
336.0458187553437
 20
-401.853645371286
 30
0.0
  0
POINT
  5
E6D2
330
1F
100
AcDbEntity
  8
0
 62
     7
370
     5
100
AcDbPoint
 10
394.2075911881555
 20
-612.6712758301417
 30
0.0
  0
POINT
  5
E6D6
330
1F
100
AcDbEntity
  8
0
 62
     7
370
     5
100
AcDbPoint
 10
394.2075911881555
 20
-562.1020128301418
 30
0.0
  0
POINT
  5
12895
330
1F
100
AcDbEntity
  8
0
 62
     7
370
     5
100
AcDbPoint
 10
514.3576994832141
 20
-558.6978028967338
 30
0.0
  0
POINT
  5
1289C
330
1F
100
AcDbEntity
  8
0
 62
     7
370
     5
100
AcDbPoint
 10
514.3576994832141
 20
-524.0331488967338
 30
0.0
  0
POINT
  5
1289D
330
1F
100
AcDbEntity
  8
0
 62
     7
370
     5
100
AcDbPoint
 10
514.3576994832141
 20
-526.4631488967337
 30
0.0
  0
POINT
  5
1299A
330
1F
100
AcDbEntity
  8
0
 62
     7
370
     5
100
AcDbPoint
 10
273.0238152774181
 20
35.53337152575214
 30
0.0
  0
POINT
  5
1299D
330
1F
100
AcDbEntity
  8
0
 62
     7
370
     5
100
AcDbPoint
 10
273.0238152774181
 20
-16.30945047424785
 30
0.0
  0
POINT
  5
12A19
330
1F
100
AcDbEntity
  8
0
 62
     7
370
     5
100
AcDbPoint
 10
530.0071960054782
 20
34.28476473790624
 30
0.0
  0
POINT
  5
12A1A
330
1F
100
AcDbEntity
  8
0
 62
     7
370
     5
100
AcDbPoint
 10
530.0071960054782
 20
28.42976573790625
 30
0.0
  0
POINT
  5
12A1D
330
1F
100
AcDbEntity
  8
0
 62
     7
370
     5
100
AcDbPoint
 10
530.2789780054783
 20
-25.24190226209373
 30
0.0
  0
POINT
  5
12AA6
330
1F
100
AcDbEntity
  8
0
 62
     7
370
     5
100
AcDbPoint
 10
803.5390081451089
 20
38.33315219974614
 30
0.0
  0
POINT
  5
12AA7
330
1F
100
AcDbEntity
  8
0
 62
     7
370
     5
100
AcDbPoint
 10
803.5390081451089
 20
32.44315219974615
 30
0.0
  0
POINT
  5
12AAA
330
1F
100
AcDbEntity
  8
0
 62
     7
370
     5
100
AcDbPoint
 10
803.5390081451089
 20
-33.77549080025384
 30
0.0
  0
POINT
  5
12B2B
330
1F
100
AcDbEntity
  8
0
 62
     7
370
     5
100
AcDbPoint
 10
246.4739127018369
 20
-292.0641451649423
 30
0.0
  0
POINT
  5
12B40
330
1F
100
AcDbEntity
  8
0
 62
     7
370
     5
100
AcDbPoint
 10
246.1857397018369
 20
-234.4124741649423
 30
0.0
  0
POINT
  5
12B41
330
1F
100
AcDbEntity
  8
0
 62
     7
370
     5
100
AcDbPoint
 10
246.1857397018369
 20
-239.6974741649422
 30
0.0
  0
POINT
  5
12BA1
330
1F
100
AcDbEntity
  8
0
 62
     7
370
     5
100
AcDbPoint
 10
503.361992156836
 20
-293.942128217062
 30
0.0
  0
POINT
  5
12BB5
330
1F
100
AcDbEntity
  8
0
 62
     7
370
     5
100
AcDbPoint
 10
503.361992156836
 20
-232.058278217062
 30
0.0
  0
POINT
  5
12BB6
330
1F
100
AcDbEntity
  8
0
 62
     7
370
     5
100
AcDbPoint
 10
503.361992156836
 20
-237.898279217062
 30
0.0
  0
POINT
  5
12C16
330
1F
100
AcDbEntity
  8
0
 62
     7
370
     5
100
AcDbPoint
 10
773.9808530456294
 20
-320.1483272428673
 30
0.0
  0
POINT
  5
12C17
330
1F
100
AcDbEntity
  8
0
 62
     7
370
     5
100
AcDbPoint
 10
776.9808530456294
 20
-286.8983272428673
 30
0.0
  0
POINT
  5
12C2B
330
1F
100
AcDbEntity
  8
0
 62
     7
370
     5
100
AcDbPoint
 10
776.9808530456294
 20
-225.7099922428672
 30
0.0
  0
POINT
  5
12C8B
330
1F
100
AcDbEntity
  8
0
 62
     7
370
     5
100
AcDbPoint
 10
258.823540701837
 20
-572.0746798648522
 30
0.0
  0
POINT
  5
12C92
330
1F
100
AcDbEntity
  8
0
 62
     7
370
     5
100
AcDbPoint
 10
258.8235127018369
 20
-543.1961818648521
 30
0.0
  0
POINT
  5
12C93
330
1F
100
AcDbEntity
  8
0
 62
     7
370
     5
100
AcDbPoint
 10
258.8235127018369
 20
-544.8461818648523
 30
0.0
  0
POINT
  5
14051
330
1F
100
AcDbEntity
  8
0
 62
     7
370
     5
100
AcDbPoint
 10
690.9556627618442
 20
-532.2047645406313
 30
0.0
  0
POINT
  5
14058
330
1F
100
AcDbEntity
  8
0
 62
     7
370
     5
100
AcDbPoint
 10
690.9556627618442
 20
-497.5401105406314
 30
0.0
  0
POINT
  5
14059
330
1F
100
AcDbEntity
  8
0
 62
     7
370
     5
100
AcDbPoint
 10
690.9556627618442
 20
-499.9701105406314
 30
0.0
  0
POINT
  5
175ED
330
1F
100
AcDbEntity
  8
0
 62
     7
370
     5
100
AcDbPoint
 10
329.8984453452037
 20
37.75833189686949
 30
0.0
  0
POINT
  5
175F0
330
1F
100
AcDbEntity
  8
0
 62
     7
370
     5
100
AcDbPoint
 10
329.8984453452037
 20
-10.8089411031305
 30
0.0
  0
POINT
  5
17673
330
1F
100
AcDbEntity
  8
0
 62
     7
370
     5
100
AcDbPoint
 10
651.3183805762602
 20
33.1650220174441
 30
0.0
  0
POINT
  5
17677
330
1F
100
AcDbEntity
  8
0
 62
     7
370
     5
100
AcDbPoint
 10
651.3183805762602
 20
-21.99992098255592
 30
0.0
  0
POINT
  5
1770F
330
1F
100
AcDbEntity
  8
0
 62
     7
370
     5
100
AcDbPoint
 10
1014.212196760976
 20
-27.33731747488401
 30
0.0
  0
POINT
  5
17718
330
1F
100
AcDbEntity
  8
0
 62
     7
370
     5
100
AcDbPoint
 10
1014.212196760976
 20
30.00474752511599
 30
0.0
  0
POINT
  5
17790
330
1F
100
AcDbEntity
  8
0
 62
     7
370
     5
100
AcDbPoint
 10
1421.356448019548
 20
-26.9349024739204
 30
0.0
  0
POINT
  5
1779E
330
1F
100
AcDbEntity
  8
0
 62
     7
370
     5
100
AcDbPoint
 10
1421.356448019548
 20
21.9806675260796
 30
0.0
  0
POINT
  5
1779F
330
1F
100
AcDbEntity
  8
0
 62
     7
370
     5
100
AcDbPoint
 10
1413.056448019548
 20
21.9806675260796
 30
0.0
  0
POINT
  5
1781A
330
1F
100
AcDbEntity
  8
0
 62
     7
370
     5
100
AcDbPoint
 10
1720.045575829729
 20
23.92611327127983
 30
0.0
  0
POINT
  5
1781D
330
1F
100
AcDbEntity
  8
0
 62
     7
370
     5
100
AcDbPoint
 10
1720.045575829729
 20
-24.59612772872018
 30
0.0
  0
POINT
  5
178A0
330
1F
100
AcDbEntity
  8
0
 62
     7
370
     5
100
AcDbPoint
 10
359.2272976195882
 20
-230.0319820838431
 30
0.0
  0
POINT
  5
178A3
330
1F
100
AcDbEntity
  8
0
 62
     7
370
     5
100
AcDbPoint
 10
359.2273026195881
 20
-278.361407083843
 30
0.0
  0
POINT
  5
17926
330
1F
100
AcDbEntity
  8
0
 62
     7
370
     5
100
AcDbPoint
 10
669.6174077737214
 20
-230.0319820838431
 30
0.0
  0
POINT
  5
17929
330
1F
100
AcDbEntity
  8
0
 62
     7
370
     5
100
AcDbPoint
 10
669.6174087737214
 20
-278.361407083843
 30
0.0
  0
POINT
  5
179AC
330
1F
100
AcDbEntity
  8
0
 62
     7
370
     5
100
AcDbPoint
 10
1023.306532042488
 20
-235.6329118492064
 30
0.0
  0
POINT
  5
179AF
330
1F
100
AcDbEntity
  8
0
 62
     7
370
     5
100
AcDbPoint
 10
1023.306532042488
 20
-284.2001848492064
 30
0.0
  0
POINT
  5
17A32
330
1F
100
AcDbEntity
  8
0
 62
     7
370
     5
100
AcDbPoint
 10
1352.196645196622
 20
-235.6329118492064
 30
0.0
  0
POINT
  5
17A36
330
1F
100
AcDbEntity
  8
0
 62
     7
370
     5
100
AcDbPoint
 10
1352.196645196622
 20
-290.7980508492065
 30
0.0
  0
POINT
  5
17AD1
330
1F
100
AcDbEntity
  8
0
 62
     7
370
     5
100
AcDbPoint
 10
1715.365188016996
 20
-237.9716865944066
 30
0.0
  0
POINT
  5
17AD4
330
1F
100
AcDbEntity
  8
0
 62
     7
370
     5
100
AcDbPoint
 10
1715.365188016996
 20
-286.5389595944066
 30
0.0
  0
POINT
  5
17B57
330
1F
100
AcDbEntity
  8
0
 62
     7
370
     5
100
AcDbPoint
 10
331.5674947966618
 20
-480.7206417139288
 30
0.0
  0
POINT
  5
17B5A
330
1F
100
AcDbEntity
  8
0
 62
     7
370
     5
100
AcDbPoint
 10
331.5674987966619
 20
-532.8452337139288
 30
0.0
  0
POINT
  5
17BD8
330
1F
100
AcDbEntity
  8
0
 62
     7
370
     5
100
AcDbPoint
 10
667.4370134195751
 20
-483.059416459129
 30
0.0
  0
POINT
  5
17BDB
330
1F
100
AcDbEntity
  8
0
 62
     7
370
     5
100
AcDbPoint
 10
667.4370134195751
 20
-535.184008459129
 30
0.0
  0
POINT
  5
17C59
330
1F
100
AcDbEntity
  8
0
 62
     7
370
     5
100
AcDbPoint
 10
1032.757662940594
 20
-479.9258798209486
 30
0.0
  0
POINT
  5
17C5C
330
1F
100
AcDbEntity
  8
0
 62
     7
370
     5
100
AcDbPoint
 10
1032.757665940594
 20
-532.1255208209487
 30
0.0
  0
POINT
  5
17CDA
330
1F
100
AcDbEntity
  8
0
 62
     7
370
     5
100
AcDbPoint
 10
1350.446793750775
 20
-475.452849330548
 30
0.0
  0
POINT
  5
17CDE
330
1F
100
AcDbEntity
  8
0
 62
     7
370
     5
100
AcDbPoint
 10
1350.446795750775
 20
-535.7299113305479
 30
0.0
  0
POINT
  5
17D79
330
1F
100
AcDbEntity
  8
0
 62
     7
370
     5
100
AcDbPoint
 10
1724.816312373689
 20
-484.6034323315118
 30
0.0
  0
POINT
  5
17D7C
330
1F
100
AcDbEntity
  8
0
 62
     7
370
     5
100
AcDbPoint
 10
1724.816312373689
 20
-536.8030733315118
 30
0.0
  0
POINT
  5
17DFA
330
1F
100
AcDbEntity
  8
0
 62
     7
370
     5
100
AcDbPoint
 10
292.6784219762804
 20
-717.1006079596696
 30
0.0
  0
POINT
  5
17DFE
330
1F
100
AcDbEntity
  8
0
 62
     7
370
     5
100
AcDbPoint
 10
292.6784249762804
 20
-777.3013929596698
 30
0.0
  0
POINT
  5
17E99
330
1F
100
AcDbEntity
  8
0
 62
     7
370
     5
100
AcDbPoint
 10
668.1772397573285
 20
-728.8489624009062
 30
0.0
  0
POINT
  5
17E9C
330
1F
100
AcDbEntity
  8
0
 62
     7
370
     5
100
AcDbPoint
 10
668.1772397573285
 20
-780.9735614009062
 30
0.0
  0
POINT
  5
17F19
330
1F
100
AcDbEntity
  8
0
 62
     7
370
     5
100
AcDbPoint
 10
1014.680140542377
 20
-727.4779055808943
 30
0.0
  0
POINT
  5
17F1E
330
1F
100
AcDbEntity
  8
0
 62
     7
370
     5
100
AcDbPoint
 10
1014.680139542377
 20
-792.8842465808943
 30
0.0
  0
POINT
  5
17F82
330
1F
100
AcDbEntity
  8
0
 62
     7
370
     5
100
AcDbPoint
 10
1363.039112172955
 20
-778.9168242007557
 30
0.0
  0
POINT
  5
17F8B
330
1F
100
AcDbEntity
  8
0
 62
     7
370
     5
100
AcDbPoint
 10
1363.039112172955
 20
-712.5175752007558
 30
0.0
  0
POINT
  5
17FE8
330
1F
100
AcDbEntity
  8
0
 62
     7
370
     5
100
AcDbPoint
 10
1718.366870633272
 20
-723.7460446679111
 30
0.0
  0
POINT
  5
17FEB
330
1F
100
AcDbEntity
  8
0
 62
     7
370
     5
100
AcDbPoint
 10
1718.366871633272
 20
-789.389202667911
 30
0.0
  0
POINT
  5
18051
330
1F
100
AcDbEntity
  8
0
 62
     7
370
     5
100
AcDbPoint
 10
319.6383345054979
 20
-967.5893901625666
 30
0.0
  0
POINT
  5
18054
330
1F
100
AcDbEntity
  8
0
 62
     7
370
     5
100
AcDbPoint
 10
319.6383355054979
 20
-1032.973459162567
 30
0.0
  0
POINT
  5
180BA
330
1F
100
AcDbEntity
  8
0
 62
     7
370
     5
100
AcDbPoint
 10
680.5370709864296
 20
-963.1934877025301
 30
0.0
  0
POINT
  5
180BB
330
1F
100
AcDbEntity
  8
0
 62
     7
370
     5
100
AcDbPoint
 10
629.5370709864297
 20
-967.19348770253
 30
0.0
  0
POINT
  5
180BE
330
1F
100
AcDbEntity
  8
0
 62
     7
370
     5
100
AcDbPoint
 10
680.5370759864297
 20
-1028.58231170253
 30
0.0
  0
POINT
  5
18125
330
1F
100
AcDbEntity
  8
0
 62
     7
370
     5
100
AcDbPoint
 10
1025.504908559649
 20
-985.5078641637318
 30
0.0
  0
POINT
  5
18128
330
1F
100
AcDbEntity
  8
0
 62
     7
370
     5
100
AcDbPoint
 10
935.4436665596491
 20
-985.5078641637318
 30
0.0
  0
POINT
  5
181A3
330
1F
100
AcDbEntity
  8
0
 62
     7
370
     5
100
AcDbPoint
 10
1372.616021513803
 20
-994.9832624236179
 30
0.0
  0
POINT
  5
181A6
330
1F
100
AcDbEntity
  8
0
 62
     7
370
     5
100
AcDbPoint
 10
1282.554779513803
 20
-994.9832624236179
 30
0.0
  0
POINT
  5
18221
330
1F
100
AcDbEntity
  8
0
 62
     7
370
     5
100
AcDbPoint
 10
1726.183901955964
 20
-986.4057379766256
 30
0.0
  0
POINT
  5
18224
330
1F
100
AcDbEntity
  8
0
 62
     7
370
     5
100
AcDbPoint
 10
1636.122660955965
 20
-987.7852319766256
 30
0.0
  0
POINT
  5
1829F
330
1F
100
AcDbEntity
  8
0
 62
     7
370
     5
100
AcDbPoint
 10
315.0667151318947
 20
-1233.667447704089
 30
0.0
  0
POINT
  5
182A2
330
1F
100
AcDbEntity
  8
0
 62
     7
370
     5
100
AcDbPoint
 10
225.0054731318947
 20
-1234.512880704089
 30
0.0
  0
POINT
  5
1831D
330
1F
100
AcDbEntity
  8
0
 62
     7
370
     5
100
AcDbPoint
 10
666.5716365787308
 20
-1228.374582524101
 30
0.0
  0
POINT
  5
18320
330
1F
100
AcDbEntity
  8
0
 62
     7
370
     5
100
AcDbPoint
 10
576.510395578731
 20
-1229.476628524102
 30
0.0
  0
POINT
  5
1C1E5
330
1F
100
AcDbEntity
  8
0
 62
     7
370
     5
100
AcDbPoint
 10
565.1931729999843
 20
-252.0327741049043
 30
0.0
  0
POINT
  5
1C1E8
330
1F
100
AcDbEntity
  8
0
 62
     7
370
     5
100
AcDbPoint
 10
571.0793859999843
 20
-171.4824511049043
 30
0.0
  0
POINT
  5
1C393
330
1F
100
AcDbEntity
  8
0
 62
     7
370
     5
100
AcDbPoint
 10
852.7529560248229
 20
-161.0786730235244
 30
0.0
  0
POINT
  5
1C3A1
330
1F
100
AcDbEntity
  8
0
 62
     7
370
     5
100
AcDbPoint
 10
853.6840430248233
 20
-256.0650500235244
 30
0.0
  0
POINT
  5
1C476
330
1F
100
AcDbEntity
  8
0
 62
     7
370
     5
100
AcDbPoint
 10
1100.710829294269
 20
-179.9690311044011
 30
0.0
  0
POINT
  5
1C484
330
1F
100
AcDbEntity
  8
0
 62
     7
370
     5
100
AcDbPoint
 10
1097.008556294269
 20
-246.8144071044011
 30
0.0
  0
POINT
  5
1C54E
330
1F
100
AcDbEntity
  8
0
 62
     7
370
     5
100
AcDbPoint
 10
327.4559894717282
 20
-242.3690707660675
 30
0.0
  0
POINT
  5
1C54F
330
1F
100
AcDbEntity
  8
0
 62
     7
370
     5
100
AcDbPoint
 10
323.7573724717281
 20
-242.3490727660675
 30
0.0
  0
POINT
  5
1C632
330
1F
100
AcDbEntity
  8
0
 62
     7
370
     5
100
AcDbPoint
 10
301.1069300782104
 20
37.7626127561465
 30
0.0
  0
POINT
  5
1C640
330
1F
100
AcDbEntity
  8
0
 62
     7
370
     5
100
AcDbPoint
 10
301.4480630782105
 20
-36.93915824385351
 30
0.0
  0
POINT
  5
1C6B9
330
1F
100
AcDbEntity
  8
0
 62
     1
370
     5
100
AcDbPoint
 10
582.4029449258979
 20
29.4620864008466
 30
0.0
  0
POINT
  5
1C6C7
330
1F
100
AcDbEntity
  8
0
 62
     7
370
     5
100
AcDbPoint
 10
567.6899119258981
 20
-44.52450559915339
 30
0.0
  0
POINT
  5
1C740
330
1F
100
AcDbEntity
  8
0
 62
     7
370
     5
100
AcDbPoint
 10
838.8170717714807
 20
31.21800268959555
 30
0.0
  0
POINT
  5
1C74E
330
1F
100
AcDbEntity
  8
0
 62
     7
370
     5
100
AcDbPoint
 10
830.8810477714807
 20
-42.18143931040443
 30
0.0
  0
POINT
  5
1C7C7
330
1F
100
AcDbEntity
  8
0
 62
     7
370
     5
100
AcDbPoint
 10
1082.103046320498
 20
26.65705560741793
 30
0.0
  0
POINT
  5
1C850
330
1F
100
AcDbEntity
  8
0
 62
     7
370
     5
100
AcDbPoint
 10
1320.708032031059
 20
-54.79519568133104
 30
0.0
  0
POINT
  5
1C851
330
1F
100
AcDbEntity
  8
0
 62
     7
370
     5
100
AcDbPoint
 10
1317.008086031059
 20
-54.77519668133105
 30
0.0
  0
POINT
  5
1C9A2
330
1F
100
AcDbEntity
  8
0
 62
     7
370
     5
100
AcDbPoint
 10
1351.994597785224
 20
-177.9923767989125
 30
0.0
  0
POINT
  5
1C9B0
330
1F
100
AcDbEntity
  8
0
 62
     7
370
     5
100
AcDbPoint
 10
1347.069666785224
 20
-246.9150937989126
 30
0.0
  0
POINT
  5
1C9B1
330
1F
100
AcDbEntity
  8
0
 62
     7
370
     5
100
AcDbPoint
 10
1343.369666785224
 20
-246.9154057989126
 30
0.0
  0
POINT
  5
1CBC0
330
1F
100
AcDbEntity
  8
0
 62
     7
370
     5
100
AcDbPoint
 10
317.2946666194903
 20
-384.0973382926297
 30
0.0
  0
POINT
  5
1CBCE
330
1F
100
AcDbEntity
  8
0
 62
     7
370
     5
100
AcDbPoint
 10
305.7896836194903
 20
-451.8667572926297
 30
0.0
  0
POINT
  5
1CE43
330
1F
100
AcDbEntity
  8
0
 62
     7
370
     5
100
AcDbPoint
 10
610.2304875856865
 20
-368.9630837278421
 30
0.0
  0
POINT
  5
1CE51
330
1F
100
AcDbEntity
  8
0
 62
     7
370
     5
100
AcDbPoint
 10
597.1811595856864
 20
-452.2435397278421
 30
0.0
  0
POINT
  5
1CFFB
330
1F
100
AcDbEntity
  8
0
 62
     7
370
     5
100
AcDbPoint
 10
839.2202580447737
 20
-378.5041957660768
 30
0.0
  0
POINT
  5
1D009
330
1F
100
AcDbEntity
  8
0
 62
     7
370
     5
100
AcDbPoint
 10
825.6021750447738
 20
-448.0865117660767
 30
0.0
  0
POINT
  5
1D1B5
330
1F
100
AcDbEntity
  8
0
 62
     7
370
     5
100
AcDbPoint
 10
1100.187375054744
 20
-364.0090280464956
 30
0.0
  0
POINT
  5
1D1C3
330
1F
100
AcDbEntity
  8
0
 62
     7
370
     5
100
AcDbPoint
 10
1086.025427054744
 20
-454.4328780464955
 30
0.0
  0
POINT
  5
1D374
330
1F
100
AcDbEntity
  8
0
 62
     7
370
     5
100
AcDbPoint
 10
1381.669306853374
 20
-372.7791370028926
 30
0.0
  0
POINT
  5
1D382
330
1F
100
AcDbEntity
  8
0
 62
     7
370
     5
100
AcDbPoint
 10
1368.476322853373
 20
-450.1870130028925
 30
0.0
  0
POINT
  5
1D6D5
330
1F
100
AcDbEntity
  8
0
 62
     7
370
     5
100
AcDbPoint
 10
555.980533625745
 20
-586.1972507296687
 30
0.0
  0
POINT
  5
1D6E2
330
1F
100
AcDbEntity
  8
0
 62
     7
370
     5
100
AcDbPoint
 10
545.2688206257452
 20
-642.7388317296686
 30
0.0
  0
POINT
  5
1D913
330
1F
100
AcDbEntity
  8
0
 62
     7
370
     5
100
AcDbPoint
 10
811.7646110501747
 20
-579.6655508098913
 30
0.0
  0
POINT
  5
1D920
330
1F
100
AcDbEntity
  8
0
 62
     7
370
     5
100
AcDbPoint
 10
805.5538980501744
 20
-635.4594578098913
 30
0.0
  0
POINT
  5
1DA40
330
1F
100
AcDbEntity
  8
0
 62
     7
370
     5
100
AcDbPoint
 10
298.0831789389279
 20
-586.3373810040569
 30
0.0
  0
POINT
  5
1E2C1
330
1F
100
AcDbEntity
  8
0
 62
     7
370
     5
100
AcDbPoint
 10
1353.213944337289
 20
-176.2661773838116
 30
0.0
  0
POINT
  5
1E2CF
330
1F
100
AcDbEntity
  8
0
 62
     7
370
     5
100
AcDbPoint
 10
1348.289013337289
 20
-245.1888943838117
 30
0.0
  0
POINT
  5
1E2D0
330
1F
100
AcDbEntity
  8
0
 62
     7
370
     5
100
AcDbPoint
 10
1344.589013337289
 20
-245.1892063838116
 30
0.0
  0
POINT
  5
1E4A3
330
1F
100
AcDbEntity
  8
0
 62
     7
370
     5
100
AcDbPoint
 10
1326.152836266696
 20
34.20326680208106
 30
0.0
  0
POINT
  5
1E4B1
330
1F
100
AcDbEntity
  8
0
 62
     7
370
     5
100
AcDbPoint
 10
1326.493969266696
 20
-40.49850419791893
 30
0.0
  0
POINT
  5
20BCD
330
1F
100
AcDbEntity
  8
0
 62
     7
370
     5
100
AcDbPoint
 10
198.5275522941832
 20
-13.7218025139382
 30
0.0
  0
POINT
  5
20BD6
330
1F
100
AcDbEntity
  8
0
 62
     7
370
     5
100
AcDbPoint
 10
220.4558262941833
 20
15.6077834860618
 30
0.0
  0
POINT
  5
20BD7
330
1F
100
AcDbEntity
  8
0
 62
     7
370
     5
100
AcDbPoint
 10
198.4558262941832
 20
12.6077834860618
 30
0.0
  0
POINT
  5
20C58
330
1F
100
AcDbEntity
  8
0
 62
     7
370
     5
100
AcDbPoint
 10
414.326812844455
 20
11.02280615656721
 30
0.0
  0
POINT
  5
20C59
330
1F
100
AcDbEntity
  8
0
 62
     7
370
     5
100
AcDbPoint
 10
392.3268128444551
 20
7.022806156567212
 30
0.0
  0
POINT
  5
20C5C
330
1F
100
AcDbEntity
  8
0
 62
     7
370
     5
100
AcDbPoint
 10
392.3268138444551
 20
-22.29245184343279
 30
0.0
  0
POINT
  5
20CE3
330
1F
100
AcDbEntity
  8
0
 62
     7
370
     5
100
AcDbPoint
 10
595.8481562583682
 20
11.26212415656721
 30
0.0
  0
POINT
  5
20CE4
330
1F
100
AcDbEntity
  8
0
 62
     7
370
     5
100
AcDbPoint
 10
561.8481562583682
 20
3.262124156567208
 30
0.0
  0
POINT
  5
20CE6
330
1F
100
AcDbEntity
  8
0
 62
     7
370
     5
100
AcDbPoint
 10
561.8481562583682
 20
-39.26495684343278
 30
0.0
  0
POINT
  5
20D5E
330
1F
100
AcDbEntity
  8
0
 62
     7
370
     5
100
AcDbPoint
 10
796.8108405913596
 20
-1.622354670075452
 30
0.0
  0
POINT
  5
20D5F
330
1F
100
AcDbEntity
  8
0
 62
     7
370
     5
100
AcDbPoint
 10
771.8108405913596
 20
-6.622354670075452
 30
0.0
  0
POINT
  5
20D62
330
1F
100
AcDbEntity
  8
0
 62
     7
370
     5
100
AcDbPoint
 10
771.8108415913595
 20
-44.22139367007546
 30
0.0
  0
POINT
  5
20DE5
330
1F
100
AcDbEntity
  8
0
 62
     7
370
     5
100
AcDbPoint
 10
997.5956593431575
 20
6.154053161141687
 30
0.0
  0
POINT
  5
20DE6
330
1F
100
AcDbEntity
  8
0
 62
     7
370
     5
100
AcDbPoint
 10
963.5956593431576
 20
-3.84594683885831
 30
0.0
  0
POINT
  5
20DE8
330
1F
100
AcDbEntity
  8
0
 62
     7
370
     5
100
AcDbPoint
 10
963.5956593431576
 20
-48.6248158388583
 30
0.0
  0
POINT
  5
20E5D
330
1F
100
AcDbEntity
  8
0
 62
     7
370
     5
100
AcDbPoint
 10
209.7442369247441
 20
-211.8062287972217
 30
0.0
  0
POINT
  5
20E66
330
1F
100
AcDbEntity
  8
0
 62
     7
370
     5
100
AcDbPoint
 10
231.7442369247441
 20
-173.8710347972217
 30
0.0
  0
POINT
  5
20E67
330
1F
100
AcDbEntity
  8
0
 62
     7
370
     5
100
AcDbPoint
 10
209.7442369247441
 20
-179.3710347972217
 30
0.0
  0
POINT
  5
20EE1
330
1F
100
AcDbEntity
  8
0
 62
     7
370
     5
100
AcDbPoint
 10
384.6743099214819
 20
-210.4126915562921
 30
0.0
  0
POINT
  5
20EEB
330
1F
100
AcDbEntity
  8
0
 62
     7
370
     5
100
AcDbPoint
 10
409.6743099214817
 20
-168.248029556292
 30
0.0
  0
POINT
  5
20EEC
330
1F
100
AcDbEntity
  8
0
 62
     7
370
     5
100
AcDbPoint
 10
384.6743099214819
 20
-174.248029556292
 30
0.0
  0
POINT
  5
20F6B
330
1F
100
AcDbEntity
  8
0
 62
     7
370
     5
100
AcDbPoint
 10
589.027789486203
 20
-154.2267571311068
 30
0.0
  0
POINT
  5
20F6C
330
1F
100
AcDbEntity
  8
0
 62
     7
370
     5
100
AcDbPoint
 10
555.027789486203
 20
-166.2267571311068
 30
0.0
  0
POINT
  5
20F6E
330
1F
100
AcDbEntity
  8
0
 62
     7
370
     5
100
AcDbPoint
 10
555.027789486203
 20
-220.1583441311068
 30
0.0
  0
POINT
  5
20FE7
330
1F
100
AcDbEntity
  8
0
 62
     7
370
     5
100
AcDbPoint
 10
794.4609892408081
 20
-176.9240641499829
 30
0.0
  0
POINT
  5
20FE8
330
1F
100
AcDbEntity
  8
0
 62
     7
370
     5
100
AcDbPoint
 10
772.4609892408077
 20
-183.4240641499829
 30
0.0
  0
POINT
  5
20FEB
330
1F
100
AcDbEntity
  8
0
 62
     7
370
     5
100
AcDbPoint
 10
772.4609902408077
 20
-220.0080011499829
 30
0.0
  0
POINT
  5
21068
330
1F
100
AcDbEntity
  8
0
 62
     7
370
     5
100
AcDbPoint
 10
980.7257767233267
 20
-225.8659069279295
 30
0.0
  0
POINT
  5
21072
330
1F
100
AcDbEntity
  8
0
 62
     7
370
     5
100
AcDbPoint
 10
1000.725776723327
 20
-181.1593259279295
 30
0.0
  0
POINT
  5
21073
330
1F
100
AcDbEntity
  8
0
 62
     7
370
     5
100
AcDbPoint
 10
980.7257767233267
 20
-188.1593259279295
 30
0.0
  0
POINT
  5
24E51
330
1F
100
AcDbEntity
  8
0
 62
     7
370
     5
100
AcDbPoint
 10
233.2059843961101
 20
-36.0789366070161
 30
0.0
  0
POINT
  5
24E5A
330
1F
100
AcDbEntity
  8
0
 62
     7
370
     5
100
AcDbPoint
 10
314.4377803961102
 20
35.1487553929839
 30
0.0
  0
POINT
  5
24E5B
330
1F
100
AcDbEntity
  8
0
 62
     7
370
     5
100
AcDbPoint
 10
234.4377803961101
 20
19.1487553929839
 30
0.0
  0
POINT
  5
24ECD
330
1F
100
AcDbEntity
  8
0
 62
     7
370
     5
100
AcDbPoint
 10
503.7517578950278
 20
-44.34341865794009
 30
0.0
  0
POINT
  5
24ED5
330
1F
100
AcDbEntity
  8
0
 62
     7
370
     5
100
AcDbPoint
 10
589.9610418950277
 20
46.51953834205989
 30
0.0
  0
POINT
  5
24ED6
330
1F
100
AcDbEntity
  8
0
 62
     7
370
     5
100
AcDbPoint
 10
504.9610418950278
 20
26.51953834205989
 30
0.0
  0
POINT
  5
24F33
330
1F
100
AcDbEntity
  8
0
 62
     7
370
     5
100
AcDbPoint
 10
804.954816789268
 20
-53.36089903708293
 30
0.0
  0
POINT
  5
24F3B
330
1F
100
AcDbEntity
  8
0
 62
     7
370
     5
100
AcDbPoint
 10
901.222594789268
 20
37.79953596291708
 30
0.0
  0
POINT
  5
24F3C
330
1F
100
AcDbEntity
  8
0
 62
     7
370
     5
100
AcDbPoint
 10
806.2225947892681
 20
17.79953596291707
 30
0.0
  0
POINT
  5
24F9C
330
1F
100
AcDbEntity
  8
0
 62
     7
370
     5
100
AcDbPoint
 10
1210.776659634684
 20
28.2041337387349
 30
0.0
  0
POINT
  5
24F9D
330
1F
100
AcDbEntity
  8
0
 62
     7
370
     5
100
AcDbPoint
 10
1125.776659634684
 20
3.204133738734923
 30
0.0
  0
POINT
  5
24FA0
330
1F
100
AcDbEntity
  8
0
 62
     7
370
     5
100
AcDbPoint
 10
1122.825092634684
 20
-62.80906226126507
 30
0.0
  0
POINT
  5
25003
330
1F
100
AcDbEntity
  8
0
 62
     7
370
     5
100
AcDbPoint
 10
1533.294671945107
 20
39.46909335504969
 30
0.0
  0
POINT
  5
25004
330
1F
100
AcDbEntity
  8
0
 62
     7
370
     5
100
AcDbPoint
 10
1423.294671945108
 20
14.46909335504972
 30
0.0
  0
POINT
  5
25007
330
1F
100
AcDbEntity
  8
0
 62
     7
370
     5
100
AcDbPoint
 10
1423.294671945108
 20
-61.69357464495027
 30
0.0
  0
POINT
  5
25069
330
1F
100
AcDbEntity
  8
0
 62
     7
370
     5
100
AcDbPoint
 10
279.5191352462189
 20
-235.8578081995934
 30
0.0
  0
POINT
  5
2506A
330
1F
100
AcDbEntity
  8
0
 62
     7
370
     5
100
AcDbPoint
 10
224.5191352462189
 20
-255.8578081995934
 30
0.0
  0
POINT
  5
2506E
330
1F
100
AcDbEntity
  8
0
 62
     7
370
     5
100
AcDbPoint
 10
223.2724782462189
 20
-314.3072531995934
 30
0.0
  0
POINT
  5
250D0
330
1F
100
AcDbEntity
  8
0
 62
     7
370
     5
100
AcDbPoint
 10
552.5501754157779
 20
-231.1433806045495
 30
0.0
  0
POINT
  5
250D1
330
1F
100
AcDbEntity
  8
0
 62
     7
370
     5
100
AcDbPoint
 10
487.5501754157781
 20
-256.1433806045495
 30
0.0
  0
POINT
  5
250D5
330
1F
100
AcDbEntity
  8
0
 62
     7
370
     5
100
AcDbPoint
 10
487.5501754157781
 20
-323.3343576045494
 30
0.0
  0
POINT
  5
25137
330
1F
100
AcDbEntity
  8
0
 62
     7
370
     5
100
AcDbPoint
 10
855.1566106432487
 20
-229.371519220024
 30
0.0
  0
POINT
  5
25138
330
1F
100
AcDbEntity
  8
0
 62
     7
370
     5
100
AcDbPoint
 10
762.1566106432488
 20
-260.871519220024
 30
0.0
  0
POINT
  5
2513C
330
1F
100
AcDbEntity
  8
0
 62
     7
370
     5
100
AcDbPoint
 10
760.9104996432486
 20
-349.238300220024
 30
0.0
  0
POINT
  5
2519F
330
1F
100
AcDbEntity
  8
0
 62
     7
370
     5
100
AcDbPoint
 10
1192.36388959937
 20
-218.9805098816409
 30
0.0
  0
POINT
  5
251A0
330
1F
100
AcDbEntity
  8
0
 62
     7
370
     5
100
AcDbPoint
 10
1092.36388959937
 20
-258.9805098816409
 30
0.0
  0
POINT
  5
251A4
330
1F
100
AcDbEntity
  8
0
 62
     7
370
     5
100
AcDbPoint
 10
1092.54560259937
 20
-365.6111158816409
 30
0.0
  0
POINT
  5
27C4D
330
1F
100
AcDbEntity
  8
1
 62
     7
370
     5
100
AcDbPoint
 10
185.936684180983
 20
12.22790901277693
 30
0.0
  0
POINT
  5
27C4E
330
1F
100
AcDbEntity
  8
1
 62
     7
370
     5
100
AcDbPoint
 10
185.936684180983
 20
9.517281012776946
 30
0.0
  0
POINT
  5
27DA0
330
1F
100
AcDbEntity
  8
1
 62
     7
370
     5
100
AcDbPoint
 10
159.7240994851886
 20
22.81916357545765
 30
0.0
  0
POINT
  5
27DA1
330
1F
100
AcDbEntity
  8
1
 62
     7
370
     5
100
AcDbPoint
 10
159.7240994851886
 20
20.10853557545767
 30
0.0
  0
POINT
  5
28B80
330
1F
100
AcDbEntity
  8
0
 62
     7
370
     5
100
AcDbPoint
 10
-108.3844236581584
 20
-61.41399158543199
 30
0.0
  0
POINT
  5
28D5B
330
1F
100
AcDbEntity
  8
0
 62
     7
370
     5
100
AcDbPoint
 10
-94.15639370577505
 20
-48.79010226493504
 30
0.0
  0
DIMENSION
  5
28EA8
330
1F
100
AcDbEntity
  8
SK2
100
AcDbDimension
  2
*D8
 10
-43.21320700000001
 20
8.0
 30
0.0
 11
-43.21320700000001
 21
0.7841750000000049
 31
0.0
 70
   161
  1
M<>
 71
     5
 42
16.0
  3
MM_STANDARD
100
AcDbAlignedDimension
 13
-25.0
 23
-8.0
 33
0.0
 14
-25.0
 24
8.0
 34
0.0
1001
ACAD
1000
DSTYLE
1002
{
1070
    78
1070
     9
1070
    79
1070
     2
1070
    90
1070
     1
1070
   172
1070
     1
1070
   345
1005
14
1070
   346
1005
14
1070
   347
1005
14
1002
}
1001
ACAD_DSTYLE_DIMARC_LENGTH_SYMBOL
1070
   379
1070
     1
1001
ACAD_DSTYLE_DIM_LINETYPE
1070
   380
1005
14
1001
ACAD_DSTYLE_DIM_EXT1_LINETYPE
1070
   381
1005
14
1001
ACAD_DSTYLE_DIM_EXT2_LINETYPE
1070
   382
1005
14
  0
DIMENSION
  5
28EC3
330
1F
100
AcDbEntity
  8
2
100
AcDbDimension
  2
*D9
 10
37.95092891898209
 20
40.34783308196367
 30
0.0
 11
18.97491399999998
 21
40.348465
 31
0.0
 70
   160
 71
     5
 42
37.95006814229669
  3
MM_STANDARD
100
AcDbAlignedDimension
 13
0.0
 23
14.5
 33
0.0
 14
37.94982899999999
 24
7.318107999999995
 34
0.0
 50
359.998092
100
AcDbRotatedDimension
1001
ACAD
1000
DSTYLE
1002
{
1070
   279
1070
     0
1070
   271
1070
     0
1070
    78
1070
     9
1070
    79
1070
     2
1070
    90
1070
     1
1070
   172
1070
     1
1070
   345
1005
14
1070
   346
1005
14
1070
   347
1005
14
1002
}
1001
ACAD_DSTYLE_DIMARC_LENGTH_SYMBOL
1070
   379
1070
     1
1001
ACAD_DSTYLE_DIM_LINETYPE
1070
   380
1005
14
1001
ACAD_DSTYLE_DIM_EXT1_LINETYPE
1070
   381
1005
14
1001
ACAD_DSTYLE_DIM_EXT2_LINETYPE
1070
   382
1005
14
  0
DIMENSION
  5
28ED0
330
1F
100
AcDbEntity
  8
SK2
100
AcDbDimension
  2
*D10
 10
37.95126191394127
 20
50.3474168098479
 30
0.0
 11
6.474913999999982
 21
50.348465
 31
0.0
 70
   160
 71
     5
 42
62.94985167270104
  3
MM_STANDARD
100
AcDbAlignedDimension
 13
-25.0
 23
8.0
 33
0.0
 14
37.94982899999999
 24
7.318107999999995
 34
0.0
 50
359.998092
100
AcDbRotatedDimension
1001
ACAD
1000
DSTYLE
1002
{
1070
    78
1070
     9
1070
   271
1070
     0
1070
    79
1070
     2
1070
    90
1070
     1
1070
   172
1070
     1
1070
   345
1005
14
1070
   346
1005
14
1070
   347
1005
14
1002
}
1001
ACAD_DSTYLE_DIMARC_LENGTH_SYMBOL
1070
   379
1070
     1
1001
ACAD_DSTYLE_DIM_LINETYPE
1070
   380
1005
14
1001
ACAD_DSTYLE_DIM_EXT1_LINETYPE
1070
   381
1005
14
1001
ACAD_DSTYLE_DIM_EXT2_LINETYPE
1070
   382
1005
14
  0
DIMENSION
  5
28EDD
330
1F
100
AcDbEntity
  8
2
100
AcDbDimension
  2
*D11
 10
36.82227599999999
 20
8.973560000000018
 30
0.0
 11
52.4589662061131
 21
23.34694755796543
 31
0.0
 70
   162
  1
<>~53%%d
 71
     5
 42
0.6457719420061424
  3
MM_STANDARD
100
AcDb2LineAngularDimension
 13
37.94982899999999
 23
7.477247000000004
 33
0.0
 14
37.94982899999999
 24
7.403426999999994
 34
0.0
 15
37.94982899999999
 25
7.477247000000004
 35
0.0
 16
34.78058300000001
 26
21.97220000000002
 36
0.0
1001
ACAD
1000
DSTYLE
1002
{
1070
   279
1070
     0
1070
    78
1070
     9
1070
    79
1070
     2
1070
    90
1070
     1
1070
   172
1070
     1
1070
   345
1005
14
1070
   346
1005
14
1070
   347
1005
14
1002
}
1001
ACAD_DSTYLE_DIMARC_LENGTH_SYMBOL
1070
   379
1070
     1
1001
ACAD_DSTYLE_DIM_LINETYPE
1070
   380
1005
14
1001
ACAD_DSTYLE_DIM_EXT1_LINETYPE
1070
   381
1005
14
1001
ACAD_DSTYLE_DIM_EXT2_LINETYPE
1070
   382
1005
14
  0
DIMENSION
  5
28EEC
330
1F
100
AcDbEntity
  8
2
100
AcDbDimension
  2
*D12
 10
37.95060009118433
 20
30.47338602144246
 30
0.0
 11
22.02035714635359
 21
30.47391651258524
 31
0.0
 70
   160
 71
     5
 42
8.400112946636237
  3
MM_STANDARD
100
AcDbAlignedDimension
 13
29.54999999999998
 23
15.84494800000002
 33
0.0
 14
37.94982899999999
 24
7.318107999999995
 34
0.0
 50
359.998092
100
AcDbRotatedDimension
1001
ACAD
1000
DSTYLE
1002
{
1070
   279
1070
     0
1070
    78
1070
     9
1070
    79
1070
     2
1070
    90
1070
     1
1070
   172
1070
     1
1070
   345
1005
14
1070
   346
1005
14
1070
   347
1005
14
1002
}
1001
ACAD_DSTYLE_DIMARC_LENGTH_SYMBOL
1070
   379
1070
     1
1001
ACAD_DSTYLE_DIM_LINETYPE
1070
   380
1005
14
1001
ACAD_DSTYLE_DIM_EXT1_LINETYPE
1070
   381
1005
14
1001
ACAD_DSTYLE_DIM_EXT2_LINETYPE
1070
   382
1005
14
  0
POINT
  5
28EFA
330
1F
100
AcDbEntity
  8
1
 62
     7
370
     5
100
AcDbPoint
 10
-211.6095572362549
 20
-84.6481326461161
 30
0.0
  0
POINT
  5
28EFB
330
1F
100
AcDbEntity
  8
1
 62
     7
370
     5
100
AcDbPoint
 10
-211.6095572362549
 20
18.71576635388391
 30
0.0
  0
LINE
  5
28EFF
330
1F
100
AcDbEntity
  8
4
100
AcDbLine
 10
42.65086300000002
 20
0.0
 30
0.0
 11
0.0
 21
0.0
 31
0.0
  0
DIMENSION
  5
28FE3
330
1F
100
AcDbEntity
  8
SK2
100
AcDbDimension
  2
*D13
 10
-55.31032888207294
 20
-14.50000000000001
 30
0.0
 11
-58.15634082866464
 21
0.0000000000000073
 31
0.0
 70
    32
  1
%%C<>
 71
     5
 41
0.0
 42
29.00000000000001
  3
MM_STANDARD
100
AcDbAlignedDimension
 13
0.0
 23
14.5
 33
0.0
 14
0.0
 24
-14.5
 34
0.0
 50
90.0
100
AcDbRotatedDimension
1001
ACAD
1000
DSTYLE
1002
{
1070
    78
1070
     9
1070
    79
1070
     2
1070
    90
1070
     1
1070
   172
1070
     1
1070
   345
1005
14
1070
   346
1005
14
1070
   347
1005
14
1002
}
1001
ACAD_DSTYLE_DIMARC_LENGTH_SYMBOL
1070
   379
1070
     1
1001
ACAD_DSTYLE_DIM_LINETYPE
1070
   380
1005
14
1001
ACAD_DSTYLE_DIM_EXT1_LINETYPE
1070
   381
1005
14
1001
ACAD_DSTYLE_DIM_EXT2_LINETYPE
1070
   382
1005
14
  0
DIMENSION
  5
290AE
330
1F
100
AcDbEntity
  8
2
100
AcDbDimension
  2
*D14
 10
68.32465552592593
 20
-16.0
 30
0.0
 11
68.32465552592592
 21
-0.0121771173467096
 31
0.0
 70
   160
  1
%%C<>
 71
     5
 41
0.0
 42
32.00000000000001
  3
MM_STANDARD
100
AcDbAlignedDimension
 13
29.54999999999998
 23
16.0
 33
0.0
 14
42.76005
 24
-16.0
 34
0.0
 50
90.0
100
AcDbRotatedDimension
1001
ACAD_DSTYLE_DIMARC_LENGTH_SYMBOL
1070
   379
1070
     1
1001
ACAD_DSTYLE_DIM_LINETYPE
1070
   380
1005
14
1001
ACAD_DSTYLE_DIM_EXT1_LINETYPE
1070
   381
1005
14
1001
ACAD_DSTYLE_DIM_EXT2_LINETYPE
1070
   382
1005
14
1001
ACAD
1000
DSTYLE
1002
{
1070
    76
1070
     1
1070
    78
1070
     9
1070
    79
1070
     2
1070
    90
1070
     1
1070
   172
1070
     1
1070
   173
1070
     1
1070
   271
1070
     0
1070
   282
1070
     1
1070
   344
1005
295A0
1070
   345
1005
14
1070
   346
1005
14
1070
   347
1005
14
1002
}
  0
LINE
  5
290D6
330
1F
100
AcDbEntity
  8
SK3
100
AcDbLine
 10
18.84529899999998
 20
1.755164999999996
 30
0.0
 11
18.84529899999998
 21
-2.0
 31
0.0
  0
LINE
  5
290D7
330
1F
100
AcDbEntity
  8
SK3
100
AcDbLine
 10
18.84529899999998
 20
2.0
 30
0.0
 11
18.84529899999998
 21
-1.755164999999996
 31
0.0
  0
LINE
  5
290FE
330
1F
100
AcDbEntity
  8
SK3
100
AcDbLine
 10
20.0
 20
0.0
 30
0.0
 11
18.84529899999998
 21
-2.0
 31
0.0
  0
LINE
  5
290FF
330
1F
100
AcDbEntity
  8
SK3
100
AcDbLine
 10
20.0
 20
0.0
 30
0.0
 11
18.84529899999998
 21
2.0
 31
0.0
  0
LINE
  5
29100
330
1F
100
AcDbEntity
  8
SK3
100
AcDbLine
 10
18.84529899999998
 20
2.0
 30
0.0
 11
-25.0
 21
2.0
 31
0.0
  0
LINE
  5
29101
330
1F
100
AcDbEntity
  8
SK3
100
AcDbLine
 10
18.84529899999998
 20
-2.0
 30
0.0
 11
-25.0
 21
-2.0
 31
0.0
  0
LINE
  5
2911C
330
1F
100
AcDbEntity
  8
SK1
100
AcDbLine
 10
-25.0
 20
3.835403999999996
 30
0.0
 11
-25.0
 21
8.0
 31
0.0
  0
LINE
  5
2911D
330
1F
100
AcDbEntity
  8
SK1
100
AcDbLine
 10
-25.0
 20
-8.0
 30
0.0
 11
-25.0
 21
3.835403999999996
 31
0.0
  0
LINE
  5
2911E
330
1F
100
AcDbEntity
  8
SK1
100
AcDbLine
 10
-10.84071699999998
 20
3.835403999999996
 30
0.0
 11
-10.84071699999998
 21
-8.0
 31
0.0
  0
LINE
  5
2911F
330
1F
100
AcDbEntity
  8
SK1
100
AcDbLine
 10
-10.84071699999998
 20
8.0
 30
0.0
 11
-10.84071699999998
 21
3.835403999999996
 31
0.0
  0
LINE
  5
29120
330
1F
100
AcDbEntity
  8
SK1
100
AcDbLine
 10
-5.414213999999986
 20
8.5
 30
0.0
 11
-5.414213999999986
 21
4.075116999999997
 31
0.0
  0
LINE
  5
29121
330
1F
100
AcDbEntity
  8
SK1
100
AcDbLine
 10
-5.414213999999986
 20
4.075116999999997
 30
0.0
 11
-5.414213999999986
 21
-8.5
 31
0.0
  0
LINE
  5
29122
330
1F
100
AcDbEntity
  8
1
100
AcDbLine
 10
14.00000000000003
 20
7.348469000000001
 30
0.0
 11
3.0
 21
7.348469000000001
 31
0.0
  0
LINE
  5
29123
330
1F
100
AcDbEntity
  8
1
100
AcDbLine
 10
3.0
 20
-7.348469000000001
 30
0.0
 11
14.00000000000003
 21
-7.348469000000001
 31
0.0
  0
LINE
  5
29124
330
1F
100
AcDbEntity
  8
1
100
AcDbLine
 10
0.0
 20
-12.724947
 30
0.0
 11
0.0
 21
-14.5
 31
0.0
  0
LINE
  5
29125
330
1F
100
AcDbEntity
  8
1
100
AcDbLine
 10
0.0
 20
14.5
 30
0.0
 11
0.0
 21
-12.724947
 31
0.0
  0
LINE
  5
29126
330
1F
100
AcDbEntity
  8
1
100
AcDbLine
 10
19.87356600000001
 20
-12.724947
 30
0.0
 11
19.87356600000001
 21
-14.5
 31
0.0
  0
LINE
  5
29127
330
1F
100
AcDbEntity
  8
1
100
AcDbLine
 10
22.62104300000001
 20
-13.60253
 30
0.0
 11
22.62104300000001
 21
-15.5
 31
0.0
  0
LINE
  5
29128
330
1F
100
AcDbEntity
  8
1
100
AcDbLine
 10
28.27040600000001
 20
-15.5
 30
0.0
 11
28.27040600000001
 21
-13.60253
 31
0.0
  0
LINE
  5
29129
330
1F
100
AcDbEntity
  8
1
100
AcDbLine
 10
28.27040600000001
 20
-6.503619999999997
 30
0.0
 11
28.27040600000001
 21
-4.813577000000002
 31
0.0
  0
ARC
  5
2912A
330
1F
100
AcDbEntity
  8
1
100
AcDbCircle
 10
10.74751400000002
 20
-9.052644999999998
 30
0.0
 40
18.02839300000001
100
AcDbArc
 50
13.599486
 51
17.354576
  0
LINE
  5
2912B
330
1F
100
AcDbEntity
  8
1
100
AcDbLine
 10
27.95524400000002
 20
-3.675046999999998
 30
0.0
 11
28.27040600000001
 21
-3.328423000000001
 31
0.0
  0
LINE
  5
2912C
330
1F
100
AcDbEntity
  8
1
100
AcDbLine
 10
28.27040600000001
 20
-3.328423000000001
 30
0.0
 11
28.27040600000001
 21
14.328847
 31
0.0
  0
SPLINE
  5
2912D
330
1F
100
AcDbEntity
  8
1
100
AcDbSpline
210
0.0
220
0.0
230
1.0
 70
     8
 71
     5
 72
    12
 73
     6
 74
     0
 42
0.000000001
 43
0.0000000001
 40
0.0
 40
0.0
 40
0.0
 40
0.0
 40
0.0
 40
0.0
 40
10.34779471701322
 40
10.34779471701322
 40
10.34779471701322
 40
10.34779471701322
 40
10.34779471701322
 40
10.34779471701322
 10
28.27040613878108
 20
14.32884738803087
 30
0.0
 10
27.27329386102761
 20
14.62454838044187
 30
0.0
 10
26.30002647811565
 20
14.90018037084971
 30
0.0
 10
25.34787065482348
 20
15.1339988352509
 30
0.0
 10
24.4136953637915
 20
15.30671150886795
 30
0.0
 10
23.49392181351192
 20
15.40942000006313
 30
0.0
  0
SPLINE
  5
2912E
330
1F
100
AcDbEntity
  8
1
100
AcDbSpline
210
0.0
220
0.0
230
1.0
 70
     8
 71
     5
 72
    15
 73
     9
 74
     0
 42
0.000000001
 43
0.0000000001
 40
0.0
 40
0.0
 40
0.0
 40
0.0
 40
0.0
 40
0.0
 40
1.019107488728392
 40
1.019107488728392
 40
1.019107488728392
 40
1.400553436746429
 40
1.400553436746429
 40
1.400553436746429
 40
1.400553436746429
 40
1.400553436746429
 40
1.400553436746429
 10
23.70490265762948
 20
15.49617972521437
 30
0.0
 10
23.59279061996421
 20
15.49520757480892
 30
0.0
 10
23.48661128115191
 20
15.49357407383122
 30
0.0
 10
23.38806255255977
 20
15.49091508060725
 30
0.0
 10
23.28647741772613
 20
15.48446696955062
 30
0.0
 10
23.24076482739395
 20
15.47386569952018
 30
0.0
 10
23.23274238378113
 20
15.47062962201441
 30
0.0
 10
23.22944701302387
 20
15.46715056587173
 30
0.0
 10
23.2305880418179
 20
15.46344559827649
 30
0.0
  0
SPLINE
  5
2912F
330
1F
100
AcDbEntity
  8
1
100
AcDbSpline
210
0.0
220
0.0
230
1.0
 70
     8
 71
     5
 72
    15
 73
     9
 74
     0
 42
0.000000001
 43
0.0000000001
 40
0.0
 40
0.0
 40
0.0
 40
0.0
 40
0.0
 40
0.0
 40
0.6311412285863791
 40
0.6311412285863791
 40
0.6311412285863791
 40
1.004812023596896
 40
1.004812023596896
 40
1.004812023596896
 40
1.004812023596896
 40
1.004812023596896
 40
1.004812023596896
 10
23.23058804181792
 20
15.46344559827649
 30
0.0
 10
23.23247599034292
 20
15.45731535148244
 30
0.0
 10
23.24650915149283
 20
15.45056673627774
 30
0.0
 10
23.27192846266828
 20
15.44343013792809
 30
0.0
 10
23.32662818172901
 20
15.4320040468868
 30
0.0
 10
23.39988285116704
 20
15.42098529851164
 30
0.0
 10
23.42948563697726
 20
15.41696973925336
 30
0.0
 10
23.46086899046651
 20
15.41311091461889
 30
0.0
 10
23.49392181351192
 20
15.40942000006313
 30
0.0
  0
LINE
  5
29130
330
1F
100
AcDbEntity
  8
1
100
AcDbLine
 10
23.70490300000003
 20
15.49618
 30
0.0
 11
24.58978400000001
 21
15.499999
 31
0.0
  0
ARC
  5
29131
330
1F
100
AcDbEntity
  8
1
100
AcDbCircle
 10
24.55891400000002
 20
-92.68186699999999
 30
0.0
 40
108.181921
100
AcDbArc
 50
88.03391799999998
 51
89.98364999999997
  0
LINE
  5
29132
330
1F
100
AcDbEntity
  8
1
100
AcDbLine
 10
22.62104300000001
 20
15.5
 30
0.0
 11
22.62104300000001
 21
-13.60253
 31
0.0
  0
LINE
  5
29133
330
1F
100
AcDbEntity
  8
1
100
AcDbLine
 10
28.27040600000001
 20
-13.60253
 30
0.0
 11
28.27040600000001
 21
-12.283076
 31
0.0
  0
SPLINE
  5
29134
330
1F
100
AcDbEntity
  8
1
100
AcDbSpline
210
0.0
220
0.0
230
1.0
 70
     8
 71
     5
 72
    15
 73
     9
 74
     0
 42
0.000000001
 43
0.0000000001
 40
0.0
 40
0.0
 40
0.0
 40
0.0
 40
0.0
 40
0.0
 40
9.672779604910095
 40
9.672779604910095
 40
9.672779604910095
 40
10.76239251529905
 40
10.76239251529905
 40
10.76239251529905
 40
10.76239251529905
 40
10.76239251529905
 40
10.76239251529905
 10
28.27040613878108
 20
-12.28307580154245
 30
0.0
 10
27.35282049409292
 20
-11.8478236539174
 30
0.0
 10
26.46361406459098
 20
-11.35036886739316
 30
0.0
 10
25.6032428166163
 20
-10.79265745009224
 30
0.0
 10
24.6726863964943
 20
-10.11357096473875
 30
0.0
 10
23.76737082279624
 20
-9.379859180789843
 30
0.0
 10
23.6759685617366
 20
-9.305029094111286
 30
0.0
 10
23.58482399709047
 20
-9.229671249868466
 30
0.0
 10
23.49392181351192
 20
-9.15378951691148
 30
0.0
  0
ARC
  5
29135
330
1F
100
AcDbEntity
  8
1
100
AcDbCircle
 10
23.94034200000002
 20
-8.774284999999999
 30
0.0
 40
0.7651329999999929
100
AcDbArc
 50
107.9172739999991
 51
132.890249999999
  0
SPLINE
  5
29136
330
1F
100
AcDbEntity
  8
1
100
AcDbSpline
210
0.0
220
0.0
230
1.0
 70
     8
 71
     5
 72
    18
 73
    12
 74
     0
 42
0.000000001
 43
0.0000000001
 40
0.0
 40
0.0
 40
0.0
 40
0.0
 40
0.0
 40
0.0
 40
0.8351590202465562
 40
0.8351590202465562
 40
0.8351590202465562
 40
1.658804208627159
 40
1.658804208627159
 40
1.658804208627159
 40
2.068722473866936
 40
2.068722473866936
 40
2.068722473866936
 40
2.068722473866936
 40
2.068722473866936
 40
2.068722473866936
 10
23.41970809377156
 20
-8.213824377064142
 30
0.0
 10
23.35369262469817
 20
-8.276426625913401
 30
0.0
 10
23.2995923054464
 20
-8.348848079392503
 30
0.0
 10
23.26058394076375
 20
-8.428788064125882
 30
0.0
 10
23.21610129668753
 20
-8.595627901709782
 30
0.0
 10
23.23527482231415
 20
-8.764958491669112
 30
0.0
 10
23.26000142445463
 20
-8.846551784721526
 30
0.0
 10
23.31664237830779
 20
-8.961620614916185
 30
0.0
 10
23.39835845022643
 20
-9.06313578031591
 30
0.0
 10
23.42789469569641
 20
-9.095058526985184
 30
0.0
 10
23.45987031304645
 20
-9.125364601652179
 30
0.0
 10
23.49392181351189
 20
-9.15378951691146
 30
0.0
  0
ARC
  5
29137
330
1F
100
AcDbEntity
  8
1
100
AcDbCircle
 10
-191.865693
 20
637.520698
 30
0.0
 40
680.607963
100
AcDbArc
 50
288.46543
 51
288.871112
  0
ARC
  5
29138
330
1F
100
AcDbEntity
  8
1
100
AcDbCircle
 10
-26.14745899999997
 20
91.36014299999999
 30
0.0
 40
117.352132
100
AcDbArc
 50
299.028442
 51
299.915815
  0
SPLINE
  5
29139
330
1F
100
AcDbEntity
  8
1
100
AcDbSpline
210
0.0
220
0.0
230
1.0
 70
     8
 71
     5
 72
    12
 73
     6
 74
     0
 42
0.000000001
 43
0.0000000001
 40
0.0
 40
0.0
 40
0.0
 40
0.0
 40
0.0
 40
0.0
 40
5.889349609009115
 40
5.889349609009115
 40
5.889349609009115
 40
5.889349609009115
 40
5.889349609009115
 40
5.889349609009115
 10
28.27040613878106
 20
-12.28307580154244
 30
0.0
 10
28.76513495063929
 20
-12.16711439924807
 30
0.0
 10
29.2668218069735
 20
-11.999700361242
 30
0.0
 10
29.77386533059689
 20
-11.786577463347
 30
0.0
 10
30.28418810125135
 20
-11.5349734750878
 30
0.0
 10
30.79694837748768
 20
-11.25012746667719
 30
0.0
  0
LINE
  5
2913A
330
1F
100
AcDbEntity
  8
1
100
AcDbLine
 10
28.27040600000001
 20
-6.503619999999997
 30
0.0
 11
28.43368300000003
 21
-6.421413999999997
 31
0.0
  0
ARC
  5
2913B
330
1F
100
AcDbEntity
  8
1
100
AcDbCircle
 10
3.197757000000023
 20
-8.173778999999996
 30
0.0
 40
25.296753
100
AcDbArc
 50
3.972203999999998
 51
7.633218000000001
  0
SPLINE
  5
2913C
330
1F
100
AcDbEntity
  8
1
100
AcDbSpline
210
0.0
220
0.0
230
1.0
 70
     8
 71
     5
 72
    15
 73
     9
 74
     0
 42
0.000000001
 43
0.0000000001
 40
0.0
 40
0.0
 40
0.0
 40
0.0
 40
0.0
 40
0.0
 40
9.989866898781396
 40
9.989866898781396
 40
9.989866898781396
 40
11.72666356423194
 40
11.72666356423194
 40
11.72666356423194
 40
11.72666356423194
 40
11.72666356423194
 40
11.72666356423194
 10
30.79694837748768
 20
11.64613099218477
 30
0.0
 10
31.80819216158864
 20
10.65251151524075
 30
0.0
 10
32.81071809489609
 20
9.654585872448528
 30
0.0
 10
33.80257355931372
 20
8.650472476377807
 30
0.0
 10
34.94290977833404
 20
7.468747889329947
 30
0.0
 10
36.0273916936484
 20
6.295874674509478
 30
0.0
 10
36.18679818545183
 20
6.122276281200512
 30
0.0
 10
36.34458860858115
 20
5.949156439146825
 30
0.0
 10
36.50073918190768
 20
5.776466037829159
 30
0.0
  0
SPLINE
  5
2913D
330
1F
100
AcDbEntity
  8
1
100
AcDbSpline
210
0.0
220
0.0
230
1.0
 70
     8
 71
     5
 72
    12
 73
     6
 74
     0
 42
0.000000001
 43
0.0000000001
 40
0.0
 40
0.0
 40
0.0
 40
0.0
 40
0.0
 40
0.0
 40
6.384175154205032
 40
6.384175154205032
 40
6.384175154205032
 40
6.384175154205032
 40
6.384175154205032
 40
6.384175154205032
 10
28.27040613878106
 20
14.32884738803087
 30
0.0
 10
28.75667538132677
 20
13.7784273113582
 30
0.0
 10
29.25230470351624
 20
13.23079593004508
 30
0.0
 10
29.75782304742856
 20
12.69032733652381
 30
0.0
 10
30.27277384419926
 20
12.16117003003308
 30
0.0
 10
30.79694837748768
 20
11.64613099218482
 30
0.0
  0
SPLINE
  5
2913E
330
1F
100
AcDbEntity
  8
1
100
AcDbSpline
210
0.0
220
0.0
230
1.0
 70
     8
 71
     5
 72
    15
 73
     9
 74
     0
 42
0.000000001
 43
0.0000000001
 40
0.0
 40
0.0
 40
0.0
 40
0.0
 40
0.0
 40
0.0
 40
9.753540134875056
 40
9.753540134875056
 40
9.753540134875056
 40
16.57936659286439
 40
16.57936659286439
 40
16.57936659286439
 40
16.57936659286439
 40
16.57936659286439
 40
16.57936659286439
 10
28.27040613878106
 20
-3.328423105454853
 30
0.0
 10
29.26768202164803
 20
-2.782169887415959
 30
0.0
 10
30.26102402111439
 20
-2.244454781275337
 30
0.0
 10
31.24781695680102
 20
-1.7178142611737
 30
0.0
 10
32.91556388610408
 20
-0.8432713729905998
 30
0.0
 10
34.54752285614705
 20
-0.0215129081417231
 30
0.0
 10
35.21196632087049
 20
0.3062524967502398
 30
0.0
 10
35.86495472268339
 20
0.6201932178566381
 30
0.0
 10
36.50073918190768
 20
0.9160231528671971
 30
0.0
  0
LINE
  5
2913F
330
1F
100
AcDbEntity
  8
1
100
AcDbLine
 10
36.50073900000001
 20
5.776465999999999
 30
0.0
 11
36.50073900000001
 21
0.9160230000000028
 31
0.0
  0
LINE
  5
29140
330
1F
100
AcDbEntity
  8
1
100
AcDbLine
 10
28.27040600000001
 20
15.436419
 30
0.0
 11
28.43368300000003
 21
15.287945
 31
0.0
  0
LINE
  5
29141
330
1F
100
AcDbEntity
  8
1
100
AcDbLine
 10
36.50073900000001
 20
-7.7926
 30
0.0
 11
36.50073900000001
 21
-8.089375000000002
 31
0.0
  0
SPLINE
  5
29142
330
1F
100
AcDbEntity
  8
1
100
AcDbSpline
210
0.0
220
0.0
230
1.0
 70
     8
 71
     5
 72
    12
 73
     6
 74
     0
 42
0.000000001
 43
0.0000000001
 40
0.0
 40
0.0
 40
0.0
 40
0.0
 40
0.0
 40
0.0
 40
8.578819167413097
 40
8.578819167413097
 40
8.578819167413097
 40
8.578819167413097
 40
8.578819167413097
 40
8.578819167413097
 10
32.37919624908758
 20
-10.35585050919546
 30
0.0
 10
33.23581155799616
 20
-9.862442901976244
 30
0.0
 10
34.08245817285987
 20
-9.360788162274319
 30
0.0
 10
34.9181341670481
 20
-8.847632774392055
 30
0.0
 10
35.7294413333431
 20
-8.324709157514602
 30
0.0
 10
36.50073918190768
 20
-7.792600367182487
 30
0.0
  0
ARC
  5
29143
330
1F
100
AcDbEntity
  8
1
100
AcDbCircle
 10
36.37156400000001
 20
-7.604396000000001
 30
0.0
 40
0.2282909999999973
100
AcDbArc
 50
304.4639229999996
 51
0.7435139999995486
  0
LINE
  5
29144
330
1F
100
AcDbEntity
  8
1
100
AcDbLine
 10
36.60000000000002
 20
-7.601432000000002
 30
0.0
 11
36.60000000000002
 21
-7.866430999999997
 31
0.0
  0
LINE
  5
29145
330
1F
100
AcDbEntity
  8
1
100
AcDbLine
 10
36.60000000000002
 20
5.719054999999997
 30
0.0
 11
36.60000000000002
 21
5.554650999999998
 31
0.0
  0
LINE
  5
29146
330
1F
100
AcDbEntity
  8
1
100
AcDbLine
 10
36.60000000000002
 20
5.719054999999997
 30
0.0
 11
36.60000000000002
 21
5.857230000000001
 31
0.0
  0
LINE
  5
29147
330
1F
100
AcDbEntity
  8
1
100
AcDbLine
 10
36.60000000000002
 20
5.554065000000001
 30
0.0
 11
36.60000000000002
 21
0.8959109999999981
 31
0.0
  0
LINE
  5
29148
330
1F
100
AcDbEntity
  8
1
100
AcDbLine
 10
36.60000000000002
 20
0.5903410000000024
 30
0.0
 11
36.60000000000002
 21
0.8959109999999981
 31
0.0
  0
LINE
  5
29149
330
1F
100
AcDbEntity
  8
1
100
AcDbLine
 10
36.60000000000002
 20
-6.805112000000001
 30
0.0
 11
36.60000000000002
 21
-7.601432000000002
 31
0.0
  0
LINE
  5
2914A
330
1F
100
AcDbEntity
  8
1
100
AcDbLine
 10
36.60000000000002
 20
-6.355134999999997
 30
0.0
 11
36.60000000000002
 21
-6.805725000000002
 31
0.0
  0
LINE
  5
2914B
330
1F
100
AcDbEntity
  8
1
100
AcDbLine
 10
36.60000000000002
 20
-6.355139000000001
 30
0.0
 11
35.48788400000001
 21
-5.126869999999995
 31
0.0
  0
ARC
  5
2914C
330
1F
100
AcDbEntity
  8
1
100
AcDbCircle
 10
307.18217
 20
215.877143
 30
0.0
 40
350.431262
100
AcDbArc
 50
219.1198269999999
 51
219.4535129999999
  0
LINE
  5
2914D
330
1F
100
AcDbEntity
  8
1
100
AcDbLine
 10
36.60000000000002
 20
5.719056000000002
 30
0.0
 11
36.56422600000003
 21
5.685318999999998
 31
0.0
  0
LINE
  5
2914E
330
1F
100
AcDbEntity
  8
1
100
AcDbLine
 10
19.87356600000001
 20
14.5
 30
0.0
 11
19.87356600000001
 21
-12.724947
 31
0.0
  0
LINE
  5
2914F
330
1F
100
AcDbEntity
  8
1
100
AcDbLine
 10
3.0
 20
-7.348469000000001
 30
0.0
 11
3.0
 21
7.348469000000001
 31
0.0
  0
LINE
  5
29150
330
1F
100
AcDbEntity
  8
1
100
AcDbLine
 10
14.00000000000003
 20
-7.348469000000001
 30
0.0
 11
14.00000000000003
 21
7.348469000000001
 31
0.0
  0
SPLINE
  5
29151
330
1F
100
AcDbEntity
  8
1
100
AcDbSpline
210
0.0
220
0.0
230
1.0
 70
     8
 71
     5
 72
    18
 73
    12
 74
     0
 42
0.000000001
 43
0.0000000001
 40
0.0
 40
0.0
 40
0.0
 40
0.0
 40
0.0
 40
0.0
 40
0.1464585438771853
 40
0.1464585438771853
 40
0.1464585438771853
 40
0.2986728592289635
 40
0.2986728592289635
 40
0.2986728592289635
 40
0.3780385045570171
 40
0.3780385045570171
 40
0.3780385045570171
 40
0.3780385045570171
 40
0.3780385045570171
 40
0.3780385045570171
 10
36.60000000000002
 20
5.55406513712672
 30
0.0
 10
36.60000000000002
 20
5.571188535943143
 30
0.0
 10
36.59827585939155
 20
5.588789467380308
 30
0.0
 10
36.59482045228938
 20
5.606925181223394
 30
0.0
 10
36.58466429782829
 20
5.64351588162654
 30
0.0
 10
36.56847130268757
 20
5.679745395051839
 30
0.0
 10
36.55865657933904
 20
5.698152808466695
 30
0.0
 10
36.54191439450418
 20
5.725187198191433
 30
0.0
 10
36.52247002057405
 20
5.750973899165252
 30
0.0
 10
36.51548836227687
 20
5.759670955010022
 30
0.0
 10
36.50824494041089
 20
5.768165252118045
 30
0.0
 10
36.50073918190768
 20
5.776466037830834
 30
0.0
  0
SPLINE
  5
29152
330
1F
100
AcDbEntity
  8
1
100
AcDbSpline
210
0.0
220
0.0
230
1.0
 70
     8
 71
     5
 72
    21
 73
    15
 74
     0
 42
0.000000001
 43
0.0000000001
 40
0.0
 40
0.0
 40
0.0
 40
0.0
 40
0.0
 40
0.0
 40
0.1115787824899204
 40
0.1115787824899204
 40
0.1115787824899204
 40
0.2186528732415776
 40
0.2186528732415776
 40
0.2186528732415776
 40
0.327484151445936
 40
0.327484151445936
 40
0.327484151445936
 40
0.3638611506577646
 40
0.3638611506577646
 40
0.3638611506577646
 40
0.3638611506577646
 40
0.3638611506577646
 40
0.3638611506577646
 10
36.60000000000002
 20
0.8959114264695529
 30
0.0
 10
36.60000000000002
 20
0.9032192028548919
 30
0.0
 10
36.59909628360234
 20
0.9098418679825286
 30
0.0
 10
36.59717901405276
 20
0.9157656059530268
 30
0.0
 10
36.59145882146527
 20
0.9253739989912688
 30
0.0
 10
36.58182357600478
 20
0.9311770146986331
 30
0.0
 10
36.57605441153218
 20
0.9330659339572877
 30
0.0
 10
36.56287305008432
 20
0.9347570908894551
 30
0.0
 10
36.54653683788862
 20
0.9324724532180042
 30
0.0
 10
36.53744535880747
 20
0.9302968979906651
 30
0.0
 10
36.52473955147922
 20
0.9262275449730239
 30
0.0
 10
36.51119749391503
 20
0.9206987194886407
 30
0.0
 10
36.50775160303505
 20
0.9192230346564898
 30
0.0
 10
36.50426592151101
 20
0.9176641416213584
 30
0.0
 10
36.50073918190768
 20
0.9160231528672044
 30
0.0
  0
ELLIPSE
  5
29153
330
1F
100
AcDbEntity
  8
1
100
AcDbEllipse
 10
36.122882
 20
17.869556
 30
0.0
 11
9.489480018615724
 21
-10.0984935760498
 31
0.0
210
0.0
220
0.0
230
1.0
 40
0.883022
 41
4.201624680812058
 42
4.210641334597198
  0
LINE
  5
29154
330
1F
100
AcDbEntity
  8
1
100
AcDbLine
 10
27.66540800000001
 20
14.505924
 30
0.0
 11
28.43368300000003
 21
15.287945
 31
0.0
  0
ELLIPSE
  5
29155
330
1F
100
AcDbEntity
  8
1
100
AcDbEllipse
 10
36.49008000000001
 20
-5.312778000000001
 30
0.0
 11
-13.70329475402832
 21
-5.064532756805419
 31
0.0
210
0.0
220
0.0
230
0.9999999999999998
 40
0.163176
 41
5.577555255977261
 42
5.894914148580367
  0
LINE
  5
29156
330
1F
100
AcDbEntity
  8
1
100
AcDbLine
 10
28.93609600000002
 20
-8.259980999999996
 30
0.0
 11
30.79694800000001
 21
-11.250127
 31
0.0
  0
ELLIPSE
  5
29157
330
1F
100
AcDbEntity
  8
1
100
AcDbEllipse
 10
29.92652000000001
 20
-8.244201000000002
 30
0.0
 11
1.133193969726562
 21
-1.213435292243958
 31
0.0
210
0.0
220
0.0
230
1.0
 40
0.365233
 41
4.373493052721419
 42
5.396841260798359
  0
ELLIPSE
  5
29158
330
1F
100
AcDbEntity
  8
1
100
AcDbEllipse
 10
29.92649500000002
 20
-8.244286000000002
 30
0.0
 11
1.133136749267577
 21
-1.21334445476532
 31
0.0
210
0.0
220
0.0
230
1.0
 40
0.365211
 41
5.396853424044723
 42
6.434309755376821
  0
ELLIPSE
  5
29159
330
1F
100
AcDbEntity
  8
1
100
AcDbEllipse
 10
29.92647300000002
 20
-8.244275999999999
 30
0.0
 11
1.133158564567564
 21
-1.213355422019958
 31
0.0
210
0.0
220
0.0
230
1.0
 40
0.3652110000000001
 41
0.1511247470372537
 42
1.648419064333426
  0
LINE
  5
2915A
330
1F
100
AcDbEntity
  8
1
100
AcDbLine
 10
28.01633900000002
 20
-3.874896999999997
 30
0.0
 11
36.60000000000002
 21
0.5903410000000024
 31
0.0
  0
LINE
  5
2915B
330
1F
100
AcDbEntity
  8
SK1
100
AcDbLine
 10
-10.84071699999998
 20
-8.0
 30
0.0
 11
-25.0
 21
-8.0
 31
0.0
  0
LINE
  5
2915C
330
1F
100
AcDbEntity
  8
SK1
100
AcDbLine
 10
-10.84071699999998
 20
8.0
 30
0.0
 11
-25.0
 21
8.0
 31
0.0
  0
ARC
  5
2915D
330
1F
100
AcDbEntity
  8
SK1
100
AcDbCircle
 10
-8.242640999999991
 20
9.5
 30
0.0
 40
3.0
100
AcDbArc
 50
210.0
 51
340.528779
  0
ARC
  5
2915E
330
1F
100
AcDbEntity
  8
SK1
100
AcDbCircle
 10
-8.242640999999991
 20
-9.5
 30
0.0
 40
2.999999999999998
100
AcDbArc
 50
19.47122100000002
 51
150.0
  0
LINE
  5
2915F
330
1F
100
AcDbEntity
  8
SK1
100
AcDbLine
 10
0.0
 20
-8.5
 30
0.0
 11
-5.414213999999986
 21
-8.5
 31
0.0
  0
LINE
  5
29160
330
1F
100
AcDbEntity
  8
SK1
100
AcDbLine
 10
0.0
 20
8.5
 30
0.0
 11
-5.414213999999986
 21
8.5
 31
0.0
  0
LINE
  5
29161
330
1F
100
AcDbEntity
  8
1
100
AcDbLine
 10
19.87356600000001
 20
-14.5
 30
0.0
 11
0.0
 21
-14.5
 31
0.0
  0
LINE
  5
29162
330
1F
100
AcDbEntity
  8
1
100
AcDbLine
 10
19.87356600000001
 20
-14.5
 30
0.0
 11
22.62104300000001
 21
-15.5
 31
0.0
  0
LINE
  5
29163
330
1F
100
AcDbEntity
  8
1
100
AcDbLine
 10
28.27040600000001
 20
-15.5
 30
0.0
 11
22.62104300000001
 21
-15.5
 31
0.0
  0
LINE
  5
29164
330
1F
100
AcDbEntity
  8
1
100
AcDbLine
 10
24.58978400000001
 20
15.5
 30
0.0
 11
22.62104300000001
 21
15.5
 31
0.0
  0
LINE
  5
29165
330
1F
100
AcDbEntity
  8
1
100
AcDbLine
 10
36.50073900000001
 20
-8.089375000000002
 30
0.0
 11
28.27040600000001
 21
-15.5
 31
0.0
  0
ARC
  5
29166
330
1F
100
AcDbEntity
  8
1
100
AcDbCircle
 10
36.30000000000001
 20
-7.866430999999997
 30
0.0
 40
0.2999999999999996
100
AcDbArc
 50
311.9999990000005
 51
0.0000010000004874
  0
LINE
  5
29167
330
1F
100
AcDbEntity
  8
1
100
AcDbLine
 10
19.87356600000001
 20
14.5
 30
0.0
 11
22.62104300000001
 21
15.5
 31
0.0
  0
LINE
  5
29168
330
1F
100
AcDbEntity
  8
1
100
AcDbLine
 10
19.87356600000001
 20
14.5
 30
0.0
 11
0.0
 21
14.5
 31
0.0
  0
ELLIPSE
  5
29169
330
1F
100
AcDbEntity
  8
1
100
AcDbEllipse
 10
32.00536500000001
 20
10.025752
 30
0.0
 11
-1.16414487361908
 21
1.23885703086853
 31
0.0
210
0.0
220
0.0
230
1.0
 40
0.883022
 41
3.374159705257234
 42
6.121277908086343
  0
LINE
  5
2916A
330
1F
100
AcDbEntity
  8
1
100
AcDbLine
 10
37.90057100000001
 20
7.181078999999997
 30
0.0
 11
36.51013900000001
 21
5.765768999999997
 31
0.0
  0
ARC
  5
2916B
330
1F
100
AcDbEntity
  8
1
100
AcDbCircle
 10
37.76116700000004
 20
7.307574999999999
 30
0.0
 40
0.1890040000000038
100
AcDbArc
 50
317.7791889999996
 51
34.70847799999961
  0
LINE
  5
2916C
330
1F
100
AcDbEntity
  8
1
100
AcDbLine
 10
29.13300300000003
 20
15.947355
 30
0.0
 11
28.73132200000001
 21
15.599468
 31
0.0
  0
LINE
  5
2916D
330
1F
100
AcDbEntity
  8
1
100
AcDbLine
 10
28.42075600000001
 20
15.299701
 30
0.0
 11
28.73132200000001
 21
15.599468
 31
0.0
  0
LINE
  5
2916E
330
1F
100
AcDbEntity
  8
1
100
AcDbLine
 10
27.70553600000002
 20
14.494349
 30
0.0
 11
29.13300300000003
 21
15.947355
 31
0.0
  0
ARC
  5
2916F
330
1F
100
AcDbEntity
  8
1
100
AcDbCircle
 10
14.54215800000003
 20
-7.408189999999997
 30
0.0
 40
27.67852799999999
100
AcDbArc
 50
32.38180400000002
 51
57.61861600000002
  0
LINE
  5
29170
330
1F
100
AcDbEntity
  8
1
100
AcDbLine
 10
29.14284900000001
 20
15.956597
 30
0.0
 11
29.13300300000003
 21
15.947355
 31
0.0
  0
ARC
  5
29171
330
1F
100
AcDbEntity
  8
1
100
AcDbCircle
 10
29.25948400000001
 20
15.812139
 30
0.0
 40
0.1862850000000054
100
AcDbArc
 50
55.50571599999742
 51
128.9173949999974
  0
LINE
  5
29172
330
1F
100
AcDbEntity
  8
1
100
AcDbLine
 10
28.74118800000002
 20
15.608729
 30
0.0
 11
28.73132200000001
 21
15.599468
 31
0.0
  0
LINE
  5
29173
330
1F
100
AcDbEntity
  8
1
100
AcDbLine
 10
29.14284800000001
 20
15.956599
 30
0.0
 11
28.74118800000002
 21
15.608729
 31
0.0
  0
LINE
  5
29174
330
1F
100
AcDbEntity
  8
1
100
AcDbLine
 10
28.42071300000001
 20
15.299741
 30
0.0
 11
28.73447500000003
 21
15.602594
 31
0.0
  0
ARC
  5
29175
330
1F
100
AcDbEntity
  8
1
100
AcDbCircle
 10
37.76116700000004
 20
7.307574999999999
 30
0.0
 40
0.1890040000000038
100
AcDbArc
 50
317.7791889999996
 51
34.70847799999961
  0
LINE
  5
29176
330
1F
100
AcDbEntity
  8
1
100
AcDbLine
 10
37.90057100000001
 20
7.181078999999997
 30
0.0
 11
36.51013900000001
 21
5.765768999999997
 31
0.0
  0
LINE
  5
29177
330
1F
100
AcDbEntity
  8
1
100
AcDbLine
 10
27.70553600000002
 20
14.494349
 30
0.0
 11
29.13300300000003
 21
15.947355
 31
0.0
  0
ARC
  5
29178
330
1F
100
AcDbEntity
  8
1
100
AcDbCircle
 10
29.25958900000001
 20
15.813718
 30
0.0
 40
0.1847919999999953
100
AcDbArc
 50
55.25655800000148
 51
133.4479520000015
  0
ARC
  5
29179
330
1F
100
AcDbEntity
  8
1
100
AcDbCircle
 10
14.54215800000003
 20
-7.408189999999997
 30
0.0
 40
27.67852799999999
100
AcDbArc
 50
32.38180400000002
 51
57.61861600000002
  0
LINE
  5
2917A
330
1F
100
AcDbEntity
  8
1
100
AcDbLine
 10
36.58200000000004
 20
-6.335621000000002
 30
0.0
 11
36.91046000000004
 21
-6.066214000000002
 31
0.0
  0
LINE
  5
2917B
330
1F
100
AcDbEntity
  8
1
100
AcDbLine
 10
36.443555
 20
-6.182384999999996
 30
0.0
 11
37.49889000000003
 21
-5.328797999999999
 31
0.0
  0
LINE
  5
2917C
330
1F
100
AcDbEntity
  8
1
100
AcDbLine
 10
37.84745500000003
 20
-3.751395000000001
 30
0.0
 11
37.49889000000003
 21
-5.328797999999999
 31
0.0
  0
ARC
  5
2917D
330
1F
100
AcDbEntity
  8
1
100
AcDbCircle
 10
37.37621000000001
 20
-5.450060999999998
 30
0.0
 40
0.1716509999999908
100
AcDbArc
 50
352.5370729999989
 51
44.66713499999894
  0
ARC
  5
2917E
330
1F
100
AcDbEntity
  8
1
100
AcDbCircle
 10
37.44449800000001
 20
-5.450445999999997
 30
0.0
 40
0.1034090000000072
100
AcDbArc
 50
313.3803520000066
 51
347.8294010000067
  0
ARC
  5
2917F
330
1F
100
AcDbEntity
  8
1
100
AcDbCircle
 10
37.79712300000003
 20
-3.629125000000001
 30
0.0
 40
0.1525980000000023
100
AcDbArc
 50
350.416909
 51
32.47190999999995
  0
LINE
  5
29180
330
1F
100
AcDbEntity
  8
1
100
AcDbLine
 10
36.553459
 20
-6.303747000000001
 30
0.0
 11
37.51552100000001
 21
-5.525601999999999
 31
0.0
  0
ARC
  5
29181
330
1F
100
AcDbEntity
  8
1
100
AcDbCircle
 10
27.86667500000001
 20
4.663642000000002
 30
0.0
 40
14.032855
100
AcDbArc
 50
310.126394
 51
313.439625
  0
LINE
  5
29182
330
1F
100
AcDbEntity
  8
1
100
AcDbLine
 10
37.93893000000004
 20
-3.692228999999998
 30
0.0
 11
37.54559200000004
 21
-5.472248999999997
 31
0.0
  0
ARC
  5
29183
330
1F
100
AcDbEntity
  8
1
100
AcDbCircle
 10
37.79857500000004
 20
-3.628701999999995
 30
0.0
 40
0.1511189999999943
100
AcDbArc
 50
349.0228669999997
 51
32.68293899999969
  0
ELLIPSE
  5
29184
330
1F
100
AcDbEntity
  8
1
100
AcDbEllipse
 10
81.53115400000002
 20
-134.027069
 30
0.0
 11
48.29687881469734
 21
-132.2655639648438
 31
0.0
210
0.0
220
0.0
230
0.9999999999999998
 40
0.1714679999999999
 41
3.000261586456881
 42
3.327598966669536
  0
ELLIPSE
  5
29185
330
1F
100
AcDbEntity
  8
1
100
AcDbEllipse
 10
-15.22285199999999
 20
127.785202
 30
0.0
 11
48.77288436889648
 21
-133.5116119384766
 31
0.0
210
0.0
220
0.0
230
1.0
 40
0.170664
 41
6.142500314964549
 42
6.468286335903641
  0
ARC
  5
29186
330
1F
100
AcDbEntity
  8
1
100
AcDbCircle
 10
26.08773900000004
 20
-8.615957000000001
 30
0.0
 40
0.063456999999995
100
AcDbArc
 50
245.1824960000061
 51
290.3682970000062
  0
LINE
  5
29187
330
1F
100
AcDbEntity
  8
1
100
AcDbLine
 10
25.428966
 20
-7.467866999999997
 30
0.0
 11
26.11015800000001
 21
-8.676343000000002
 31
0.0
  0
LINE
  5
29188
330
1F
100
AcDbEntity
  8
1
100
AcDbLine
 10
37.54759900000003
 20
-1.507944999999999
 30
0.0
 11
37.54822200000001
 21
-1.509661
 31
0.0
  0
ARC
  5
29189
330
1F
100
AcDbEntity
  8
1
100
AcDbCircle
 10
37.49492100000001
 20
-1.485646999999999
 30
0.0
 40
0.0592550000000006
100
AcDbArc
 50
290.0269600000068
 51
335.7466510000068
  0
LINE
  5
2918A
330
1F
100
AcDbEntity
  8
1
100
AcDbLine
 10
37.917202
 20
-3.707825
 30
0.0
 11
37.51552100000001
 21
-1.542163000000002
 31
0.0
  0
ARC
  5
2918B
330
1F
100
AcDbEntity
  8
1
100
AcDbCircle
 10
37.89660700000002
 20
-3.651319000000001
 30
0.0
 40
0.059243999999997
100
AcDbArc
 50
290.0257669999899
 51
335.7518449999899
  0
LINE
  5
2918C
330
1F
100
AcDbEntity
  8
1
100
AcDbLine
 10
36.37844000000001
 20
0.4750850000000001
 30
0.0
 11
37.51552100000001
 21
-1.542163000000002
 31
0.0
  0
LINE
  5
2918D
330
1F
100
AcDbEntity
  8
1
100
AcDbLine
 10
29.13300300000003
 20
-8.230963000000002
 30
0.0
 11
28.73132200000001
 21
-6.065300999999998
 31
0.0
  0
LINE
  5
2918E
330
1F
100
AcDbEntity
  8
1
100
AcDbLine
 10
28.33849000000001
 20
-5.368395999999997
 30
0.0
 11
28.73132200000001
 21
-6.065300999999998
 31
0.0
  0
LINE
  5
2918F
330
1F
100
AcDbEntity
  8
1
100
AcDbLine
 10
26.11015800000001
 20
-8.676343000000002
 30
0.0
 11
29.13300300000003
 21
-8.230963000000002
 31
0.0
  0
ELLIPSE
  5
29190
330
1F
100
AcDbEntity
  8
1
100
AcDbEllipse
 10
8.595687000000028
 20
-5.173132000000003
 30
0.0
 11
32.2912139892578
 21
10.52074718475344
 31
0.0
210
0.0
220
0.0
230
0.9999999999999996
 40
0.1682360000000001
 41
5.323030469034653
 42
5.660501849515679
  0
ARC
  5
29191
330
1F
100
AcDbEntity
  8
1
100
AcDbCircle
 10
15.50555600000001
 20
33.625757
 30
0.0
 40
41.487611
100
AcDbArc
 50
301.060043
 51
302.040534
  0
ARC
  5
29192
330
1F
100
AcDbEntity
  8
1
100
AcDbCircle
 10
-18.83085
 20
99.61578600000001
 30
0.0
 40
115.918409
100
AcDbArc
 50
294.350144
 51
294.8445299999999
  0
LINE
  5
29193
330
1F
100
AcDbEntity
  8
1
100
AcDbLine
 10
28.24764900000002
 20
-4.720557999999996
 30
0.0
 11
28.96368400000003
 21
-5.990845999999997
 31
0.0
  0
LINE
  5
29194
330
1F
100
AcDbEntity
  8
1
100
AcDbLine
 10
29.36536500000003
 20
-8.156508000000002
 30
0.0
 11
28.96368400000003
 21
-5.990845999999997
 31
0.0
  0
ELLIPSE
  5
29195
330
1F
100
AcDbEntity
  8
1
100
AcDbEllipse
 10
10.141715
 20
-9.394858999999996
 30
0.0
 11
32.30551910400392
 21
10.52358531951904
 31
0.0
210
0.0
220
0.0
230
0.9999999999999998
 40
0.16824
 41
5.293867739556597
 42
5.689951231530996
  0
ARC
  5
29196
330
1F
100
AcDbEntity
  8
1
100
AcDbCircle
 10
28.93485500000004
 20
-7.223576999999997
 30
0.0
 40
1.027207999999997
100
AcDbArc
 50
281.1277029999999
 51
294.7713809999998
  0
ARC
  5
29197
330
1F
100
AcDbEntity
  8
1
100
AcDbCircle
 10
28.53320500000001
 20
-5.058008
 30
0.0
 40
1.027110999999996
100
AcDbArc
 50
281.1269949999999
 51
294.7719619999999
  0
LINE
  5
29198
330
1F
100
AcDbEntity
  8
1
100
AcDbLine
 10
25.38971300000004
 20
-7.481090999999997
 30
0.0
 11
26.06145100000001
 21
-8.672792999999996
 31
0.0
  0
LINE
  5
29199
330
1F
100
AcDbEntity
  8
1
100
AcDbLine
 10
37.94990300000001
 20
-3.675322000000001
 30
0.0
 11
37.54822200000001
 21
-1.509661
 31
0.0
  0
LINE
  5
2919A
330
1F
100
AcDbEntity
  8
1
100
AcDbLine
 10
36.418159
 20
0.495747999999999
 30
0.0
 11
37.54759800000002
 21
-1.507942999999995
 31
0.0
  0
ELLIPSE
  5
2919B
330
1F
100
AcDbEntity
  8
1
100
AcDbEllipse
 10
37.75915900000001
 20
-3.743619000000001
 30
0.0
 11
0.1905034184455872
 21
0.0691807940602302
 31
0.0
210
0.0
220
0.0
230
1.0
 40
0.164501
 41
5.628486705202747
 42
6.298943200228171
  0
LINE
  5
2919C
330
1F
100
AcDbEntity
  8
1
100
AcDbLine
 10
26.07634600000003
 20
-8.678497999999997
 30
0.0
 11
26.11015800000001
 21
-8.676343000000002
 31
0.0
  0
LINE
  5
2919D
330
1F
100
AcDbEntity
  8
1
100
AcDbLine
 10
26.11015800000001
 20
-8.676343000000002
 30
0.0
 11
29.13300300000003
 21
-8.230963000000002
 31
0.0
  0
ARC
  5
2919E
330
1F
100
AcDbEntity
  8
1
100
AcDbCircle
 10
28.93485500000004
 20
-7.223576999999997
 30
0.0
 40
1.027207999999997
100
AcDbArc
 50
281.1277029999999
 51
294.7713809999998
  0
ELLIPSE
  5
2919F
330
1F
100
AcDbEntity
  8
1
100
AcDbEllipse
 10
10.141715
 20
-9.394858999999996
 30
0.0
 11
32.30551910400392
 21
10.52358531951904
 31
0.0
210
0.0
220
0.0
230
0.9999999999999998
 40
0.16824
 41
5.293867739556597
 42
5.689951231530996
  0
LINE
  5
291A2
330
1F
100
AcDbEntity
  8
SK4
100
AcDbLine
 10
0.0
 20
0.0
 30
0.0
 11
-31.15062399999994
 21
0.0
 31
0.0
  0
LINE
  5
291CB
330
1F
100
AcDbEntity
  8
SK3
100
AcDbLine
 10
18.84529899999998
 20
2.0
 30
0.0
 11
30.79694837748768
 21
11.64613099218477
 31
0.0
  0
LINE
  5
291CD
330
1F
100
AcDbEntity
  8
SK3
100
AcDbLine
 10
19.48479792340547
 20
0.8923558160849083
 30
0.0
 11
31.70180904494401
 21
10.75265926786766
 31
0.0
  0
INSERT
  5
29254
330
1F
100
AcDbEntity
  8
SK2
100
AcDbBlockReference
  2
CERO_POINT
 10
-0.0000000000036948
 20
-0.0000000000000142
 30
0.0
  0
POINT
  5
29675
330
1F
100
AcDbEntity
  8
1
 62
     3
370
     5
100
AcDbPoint
 10
-123.7633719512001
 20
28.59014653955111
 30
0.0
  0
POINT
  5
29676
330
1F
100
AcDbEntity
  8
1
 62
     3
370
     5
100
AcDbPoint
 10
-123.7633719512001
 20
28.59014653955111
 30
0.0
  0
LWPOLYLINE
  5
298EB
330
1F
100
AcDbEntity
  8
CUT
100
AcDbPolyline
 90
     1664
 70
     1
 43
0.0
 10
29.40088011846857
 20
15.94397115278056
 42
0.3519684976577979
 10
29.13969350568511
 20
15.91661903476137
 10
29.13969299999999
 20
15.916619
 10
25.49518421492715
 20
12.3025492214841
 10
25.49375824627061
 20
12.30130733138444
 10
25.49236238255288
 20
12.30003528948145
 10
25.49099737248694
 20
12.2987334293524
 10
25.48966349368586
 20
12.29740176040406
 10
25.48836113358071
 20
12.29604046549417
 10
25.4870907697587
 20
12.29464987550201
 10
25.48585295030128
 20
12.29323044389893
 10
25.48464827412221
 20
12.29178272131887
 10
25.4834773713057
 20
12.29030733012889
 10
25.48234088344446
 20
12.28880493899976
 10
25.48123944397783
 20
12.28727623747646
 10
25.48017365852986
 20
12.28572191054874
 10
25.47914408524744
 20
12.28414261322163
 10
25.47815121513835
 20
12.282538945086
 10
25.47719545240939
 20
12.28091142488911
 10
25.47627709480447
 20
12.27926046510514
 10
25.4753963139427
 20
12.27758634650571
 10
25.47455313565651
 20
12.27588919273046
 10
25.47374742906637
 20
12.27416893972984
 10
25.47297910435095
 20
12.27242528224395
 10
25.47224824504465
 20
12.27065797300787
 10
25.47155498770062
 20
12.26886702759937
 10
25.47089950734674
 20
12.26705269825045
 10
25.47028200915644
 20
12.26521544070223
 10
25.46970272011958
 20
12.26335588105986
 10
25.4691618807133
 20
12.26147478264744
 10
25.46865973657299
 20
12.25957301286294
 10
25.46819653016303
 20
12.2576515100331
 10
25.46777249244778
 20
12.25571125026835
 10
25.4673878345624
 20
12.2537532143177
 10
25.46704273948373
 20
12.25177835442371
 10
25.46673735370116
 20
12.24978756117731
 10
25.46647177888754
 20
12.24778163037283
 10
25.46624606357002
 20
12.2457612298628
 10
25.46606019480093
 20
12.24372686641292
 10
25.46591408982866
 20
12.24167885255698
 10
25.46580758776853
 20
12.23961727345175
 10
25.4657405009644
 20
12.23754194676469
 10
25.465712840657
 20
12.23545255656235
 10
25.46572464487351
 20
12.23334901469463
 10
25.46577590491776
 20
12.23123149672186
 10
25.46586656932463
 20
12.22910040768965
 10
25.46599654782419
 20
12.22695634789896
 10
25.46616571530553
 20
12.22480007867618
 10
25.46637391578074
 20
12.22263248814321
 10
25.46662096634892
 20
12.22045455698751
 10
25.4669066611601
 20
12.21826732423219
 10
25.46723077537921
 20
12.21607185300613
 10
25.46759306915007
 20
12.21386919631398
 10
25.46799329155929
 20
12.21166036280629
 10
25.46843118460031
 20
12.20944628254957
 10
25.46890648713728
 20
12.20722777279636
 10
25.46941893886909
 20
12.20500550375532
 10
25.4699682842933
 20
12.2027799643613
 10
25.47055427667008
 20
12.2005514280454
 10
25.47117668205352
 20
12.1983199184894
 10
25.47183535861955
 20
12.19608518971643
 10
25.47253035031305
 20
12.1938469549841
 10
25.47326163097379
 20
12.19160515715588
 10
25.4740290668015
 20
12.18935996781898
 10
25.474832429006
 20
12.18711175755426
 10
25.47567140645702
 20
12.18486106620608
 10
25.47654561833418
 20
12.18260857315224
 10
25.47745462677708
 20
12.18035506757387
 10
25.47839794953507
 20
12.17810141872531
 10
25.47937507261735
 20
12.175848546204
 10
25.48038546294288
 20
12.17359739022041
 10
25.48142858099033
 20
12.1713488818679
 10
25.4825038934481
 20
12.16910391339261
 10
25.48361088586419
 20
12.16686330846341
 10
25.48474907529624
 20
12.16462779244173
 10
25.48591802296147
 20
12.16239796265149
 10
25.48711734688661
 20
12.16017425864901
 10
25.48834673455791
 20
12.15795693249284
 10
25.48960595557105
 20
12.15574601901376
 10
25.49089489735105
 20
12.15354131356173
 10
25.49221362956918
 20
12.15134251863613
 10
25.49356215772265
 20
12.14914950462694
 10
25.49494034555823
 20
12.14696233304105
 10
25.49634793186042
 20
12.14478123274843
 10
25.49778454742817
 20
12.14260657619381
 10
25.49924973205153
 20
12.14043885560845
 10
25.5007429514883
 20
12.13827865922181
 10
25.50226361444078
 20
12.13612664747336
 10
25.50381108953236
 20
12.13398352922421
 10
25.50538472228428
 20
12.13185003796894
 10
25.50698385209223
 20
12.12972690804725
 10
25.50860782920306
 20
12.12761485085573
 10
25.51025603169149
 20
12.12551453105955
 10
25.51192788243672
 20
12.12342654280426
 10
25.51362286609914
 20
12.12135138592742
 10
25.51534054609702
 20
12.11928944217043
 10
25.51708058158316
 20
12.11724095139018
 10
25.51884274442156
 20
12.11520598777081
 10
25.52062693615253
 20
12.11318443604861
 10
25.53146137341953
 20
12.10102695629486
 10
25.54229944236622
 20
12.08887150358862
 10
25.5531411356821
 20
12.07671807999296
 10
25.56398644573063
 20
12.06456668788406
 10
25.57483536457482
 20
12.05241732992451
 10
25.58568788399188
 20
12.04027000904882
 10
25.59654399548787
 20
12.02812472844887
 10
25.6074036903123
 20
12.01598149155951
 10
25.61826695947288
 20
12.00384030204395
 10
25.62913379375006
 20
11.99170116377937
 10
25.64000418371176
 20
11.97956408084235
 10
25.65087811972799
 20
11.96742905749441
 10
25.6617555919855
 20
11.9552960981675
 10
25.67263659050246
 20
11.94316520744953
 10
25.68352110514303
 20
11.93103639006983
 10
25.69440912563214
 20
11.91890965088468
 10
25.70530064157001
 20
11.90678499486283
 10
25.71619564244689
 20
11.89466242707097
 10
25.72709411765767
 20
11.88254195265927
 10
25.73799605651655
 20
11.87042357684683
 10
25.74890144827166
 20
11.85830730490725
 10
25.75981028211975
 20
11.84619314215411
 10
25.77072254722085
 20
11.83408109392643
 10
25.7816382327128
 20
11.82197116557425
 10
25.7925573277261
 20
11.80986336244408
 10
25.80347982139841
 20
11.7977576898644
 10
25.81440570288926
 20
11.78565415313124
 10
25.82533496139463
 20
11.77355275749357
 10
25.83626758616176
 20
11.76145350813889
 10
25.84720356650361
 20
11.74935641017872
 10
25.85814289181364
 20
11.73726146863406
 10
25.86908555158042
 20
11.72516868842094
 10
25.88003153540227
 20
11.71307807433592
 10
25.89098083300192
 20
11.70098963104158
 10
25.90193343424117
 20
11.68890336305202
 10
25.91288932913275
 20
11.67681927472156
 10
25.92384850620327
 20
11.66473737212224
 10
25.93481095086577
 20
11.65265766490718
 10
25.94577665058872
 20
11.64058016038774
 10
25.95674559536267
 20
11.62850486300083
 10
25.96771777721953
 20
11.61643177486191
 10
25.97869318975174
 20
11.60436089631792
 10
25.98967182763154
 20
11.59229222650035
 10
26.00065368613023
 20
11.58022576387814
 10
26.01163876063734
 20
11.56816150681072
 10
26.02262704617995
 20
11.55609945410093
 10
26.03361853694186
 20
11.54403960554808
 10
26.04461322578288
 20
11.53198196250087
 10
26.05561110375802
 20
11.51992652841038
 10
26.06661215963676
 20
11.5078733093831
 10
26.07761637942227
 20
11.49582231473384
 10
26.08862374587066
 20
11.48377355753876
 10
26.09963423801023
 20
11.47172705518834
 10
26.11064789089405
 20
11.4596827643899
 10
26.12167737741135
 20
11.44762688953403
 10
26.13275712626882
 20
11.43552196542808
 10
26.14391134949169
 20
11.42334165494044
 10
26.15515129678283
 20
11.41107373523164
 10
26.16647722413077
 20
11.39871795332391
 10
26.17788036241789
 20
11.38628388167066
 10
26.1893448860285
 20
11.37378877372604
 10
26.20084988145693
 20
11.36125541951442
 10
26.21237131591561
 20
11.34871000119993
 10
26.22388400594331
 20
11.33617994865597
 10
26.23536358601308
 20
11.32369179503472
 10
26.24678847714044
 20
11.31126903233666
 10
26.25814185549149
 20
11.29892996698012
 10
26.269413620991
 20
11.28668557537074
 10
26.28060236593054
 20
11.27453735947103
 10
26.2917173435765
 20
11.26247520236988
 10
26.30278043677834
 20
11.25047522385205
 10
26.31382551965732
 20
11.2385004766955
 10
26.32486915809746
 20
11.22653287481369
 10
26.33591156435726
 20
11.21457215382736
 10
26.34695270300851
 20
11.20261832080744
 10
26.3579925902179
 20
11.19067132816428
 10
26.36903129058997
 20
11.17873107709931
 10
26.38006891401002
 20
11.16679742105685
 10
26.39110561248712
 20
11.15487016917582
 10
26.40214157699696
 20
11.14294908974141
 10
26.41317703432488
 20
11.1310339136369
 10
26.42421224390874
 20
11.11912433779532
 10
26.43524749468188
 20
11.10722002865123
 10
26.44628310191611
 20
11.0953206255924
 10
26.45731940406454
 20
11.08342574441158
 10
26.46835675960466
 20
11.0715349807582
 10
26.47939554388117
 20
11.05964791359014
 10
26.49043614594898
 20
11.0477641086254
 10
26.5014789654161
 20
11.0358831217939
 10
26.51252440928664
 20
11.02400450268913
 10
26.52357288880372
 20
11.01212779801997
 10
26.53462481629239
 20
11.00025255506233
 10
26.54568060200261
 20
10.98837832511094
 10
26.55674065095218
 20
10.97650466693107
 10
26.56780535976965
 20
10.96463115021024
 10
26.5788751135373
 20
10.95275735900996
 10
26.58995028263406
 20
10.94088289521746
 10
26.60103121957846
 20
10.92900738199741
 10
26.61211825587156
 20
10.91713046724369
 10
26.62321169883989
 20
10.90525182703106
 10
26.6343118284784
 20
10.89337116906693
 10
26.64541889429342
 20
10.88148823614307
 10
26.6565330960147
 20
10.86960282690862
 10
26.66765370359311
 20
10.85771574103131
 10
26.67878113138197
 20
10.84582655265101
 10
26.68991832000707
 20
10.83393212585894
 10
26.70106604776055
 20
10.82203164765678
 10
26.71221765030113
 20
10.81013232129373
 10
26.72334151452306
 20
10.79826806046461
 10
26.73436609168654
 20
10.78651501894904
 10
26.74521721645797
 20
10.7749518647575
 10
26.75586669141603
 20
10.76360826867331
 10
26.76636213131766
 20
10.75243330881967
 10
26.77679833523216
 20
10.7413259541157
 10
26.78728646840435
 20
10.7301678460346
 10
26.79792439653204
 20
10.71885488948269
 10
26.80876483981758
 20
10.70733118409417
 10
26.81978851332244
 20
10.69561767357258
 10
26.83093519720346
 20
10.68377878137121
 10
26.84214594369458
 20
10.67187723680571
 10
26.85339642502464
 20
10.65993839875598
 10
26.86459314349118
 20
10.64806040827307
 10
26.87570074782324
 20
10.63628018786126
 10
26.88693414170769
 20
10.62436988367016
 10
26.8984804997322
 20
10.61213143377056
 10
26.91024245320225
 20
10.59966870703102
 10
26.92210177966277
 20
10.58710767944366
 10
26.93398206733324
 20
10.57452959591754
 10
26.94577897663688
 20
10.56204509464853
 10
26.95742920591854
 20
10.5497214457408
 10
26.96895992713071
 20
10.53753037497153
 10
26.98046059313822
 20
10.52537774453688
 10
26.99204247131888
 20
10.51314625739493
 10
27.00380270596837
 20
10.50073343643723
 10
27.01578553518765
 20
10.48809261967414
 10
27.02794787529
 20
10.47526941545044
 10
27.04020318574781
 20
10.46235537624395
 10
27.05247139636703
 20
10.44943518149884
 10
27.064716936806
 20
10.43654639806701
 10
27.07695150388304
 20
10.42367655404502
 10
27.08918068575599
 20
10.41081963316305
 10
27.10140609373013
 20
10.39797380377989
 10
27.11362360979614
 20
10.38514322838923
 10
27.12576314720806
 20
10.37240117958217
 10
27.13750625236002
 20
10.36008107752622
 10
27.14879458746781
 20
10.34824356050005
 10
27.15987278072991
 20
10.33663165681518
 10
27.17107110229844
 20
10.32489861788581
 10
27.18258740907503
 20
10.31283651750589
 10
27.19427632514691
 20
10.30059726272454
 10
27.20583066140249
 20
10.2885023068723
 10
27.21722851382639
 20
10.27657410833608
 10
27.22853786262487
 20
10.26474152617147
 10
27.239840942383
 20
10.25291923251311
 10
27.25116677608494
 20
10.2410775918562
 10
27.26250087715758
 20
10.22923212193278
 10
27.27383726635886
 20
10.21738909996009
 10
27.28517633805431
 20
10.2055480964951
 10
27.29651810120563
 20
10.19370909451329
 10
27.30786256453368
 20
10.18187207730266
 10
27.31920973652123
 20
10.17003702845968
 10
27.3305596254156
 20
10.15820393188547
 10
27.34191223923136
 20
10.14637277178177
 10
27.35326758575308
 20
10.13454353264706
 10
27.36462567253796
 20
10.12271619927258
 10
27.37598650691853
 20
10.11089075673844
 10
27.38735009600537
 20
10.09906719040963
 10
27.39871644668977
 20
10.08724548593214
 10
27.41008556564644
 20
10.07542562922896
 10
27.42145745933624
 20
10.06360760649619
 10
27.43283213400877
 20
10.05179140419909
 10
27.44420959570517
 20
10.03997700906811
 10
27.45558985026077
 20
10.02816440809503
 10
27.46697290330774
 20
10.01635358852892
 10
27.47835876027786
 20
10.00454453787229
 10
27.48974742640518
 20
9.992737243877112
 10
27.50113890672868
 20
9.980931694540872
 10
27.51253320609499
 20
9.969127878102668
 10
27.52393032916112
 20
9.957325783039244
 10
27.53533028039707
 20
9.945525398061061
 10
27.54673306408859
 20
9.933726712108356
 10
27.55813868433984
 20
9.921929714347216
 10
27.56954714507611
 20
9.910134394165636
 10
27.58095845004648
 20
9.89834074116956
 10
27.59237260282651
 20
9.886548745178981
 10
27.60378960682098
 20
9.874758396223962
 10
27.61520946526653
 20
9.862969684540749
 10
27.62663218123439
 20
9.851182600567772
 10
27.63805775763303
 20
9.839397134941767
 10
27.6494861972109
 20
9.827613278493792
 10
27.6609175025591
 20
9.815831022245316
 10
27.67235167611406
 20
9.804050357404276
 10
27.68378872016056
 20
9.792271275360915
 10
27.69522863686253
 20
9.780493767665037
 10
27.70667142825292
 20
9.768717826043532
 10
27.71811709614548
 20
9.756943442471165
 10
27.72956564212707
 20
9.745170609175142
 10
27.74101706755903
 20
9.733399318632574
 10
27.75247137357857
 20
9.721629563567976
 10
27.76392856110021
 20
9.709861336950735
 10
27.77538863081716
 20
9.69809463199259
 10
27.7868515832027
 20
9.68632944214513
 10
27.79831741851159
 20
9.674565761097246
 10
27.80978613678151
 20
9.662803582772646
 10
27.82125773783439
 20
9.651042901327302
 10
27.83273222127788
 20
9.63928371114696
 10
27.84420958650667
 20
9.6275260068446
 10
27.85568983270398
 20
9.615769783257935
 10
27.8671729588429
 20
9.604015035446872
 10
27.87865896368779
 20
9.592261758691007
 10
27.89014784579571
 20
9.580509948487103
 10
27.90163960351781
 20
9.568759600546568
 10
27.9131342350007
 20
9.557010710792942
 10
27.9246317381879
 20
9.545263275359372
 10
27.9361321108212
 20
9.533517290586088
 10
27.94763535044208
 20
9.521772753017902
 10
27.95914145439308
 20
9.510029659401668
 10
27.97065041981925
 20
9.498288006683782
 10
27.98216224366953
 20
9.486547792007646
 10
27.9936769226981
 20
9.474809012711157
 10
28.00519445346587
 20
9.463071666324195
 10
28.0167148323418
 20
9.451335750566082
 10
28.02823805550433
 20
9.439601263343092
 10
28.03976411894282
 20
9.427868202745909
 10
28.05129301845886
 20
9.416136567047116
 10
28.06282474966775
 20
9.404406354698682
 10
28.07435930799988
 20
9.39267756432943
 10
28.08589668870207
 20
9.38095019474253
 10
28.09743688683908
 20
9.36922424491297
 10
28.10897989729494
 20
9.357499713985047
 10
28.1205257147743
 20
9.34577660126984
 10
28.13207433380397
 20
9.334054906242693
 10
28.1436257487342
 20
9.322334628540692
 10
28.1551799537401
 20
9.310615767960165
 10
28.1667369428231
 20
9.298898324454132
 10
28.17829670981227
 20
9.287182298129815
 10
28.1898592483658
 20
9.275467689246095
 10
28.20142455197233
 20
9.263754498211016
 10
28.21299261395235
 20
9.252042725579244
 10
28.22456342745968
 20
9.240332372049564
 10
28.2361369854828
 20
9.228623438462348
 10
28.24771328084627
 20
9.216915925797051
 10
28.25929230621209
 20
9.205209835169686
 10
28.27087405408119
 20
9.193505167830293
 10
28.28245851679474
 20
9.181801925160431
 10
28.2940456865356
 20
9.170100108670666
 10
28.3056355553297
 20
9.158399719998037
 10
28.31722811504744
 20
9.146700760903543
 10
28.32882335740512
 20
9.13500323326963
 10
28.34042127396628
 20
9.12330713909766
 10
28.35202185614316
 20
9.111612480505405
 10
28.36362509519807
 20
9.09991925972451
 10
28.37523098224478
 20
9.088227479097994
 10
28.38683950824995
 20
9.076537141077727
 10
28.3984506640345
 20
9.064848248221897
 10
28.41006444027503
 20
9.053160803192499
 10
28.42168082750522
 20
9.041474808752822
 10
28.43329981611722
 20
9.029790267764919
 10
28.44492139636303
 20
9.018107183187106
 10
28.45654555835596
 20
9.00642555807142
 10
28.46817229207196
 20
8.994745395561109
 10
28.47980158735106
 20
8.983066698888119
 10
28.49143343389878
 20
8.971389471370574
 10
28.50306782128749
 20
8.959713716410249
 10
28.51470473896134
 20
8.948039437487407
 10
28.52634417652961
 20
8.936366637934897
 10
28.53798612401615
 20
8.924695320732777
 10
28.5496305714328
 20
8.913025488821251
 10
28.56127750873684
 20
8.901357145132779
 10
28.57292692583764
 20
8.889690292587312
 10
28.58457881260335
 20
8.878024934087553
 10
28.59623315886764
 20
8.866361072514189
 10
28.60788995443636
 20
8.85469871072113
 10
28.61954918909427
 20
8.84303785153075
 10
28.63121085261168
 20
8.83137849772914
 10
28.64287493475121
 20
8.819720652061336
 10
28.65454142527448
 20
8.808064317226566
 10
28.66621031394877
 20
8.796409495873492
 10
28.67788159055373
 20
8.784756190595457
 10
28.68955524488812
 20
8.773104403925708
 10
28.70123126677644
 20
8.761454138332668
 10
28.71290964607569
 20
8.749805396215142
 10
28.72459037268202
 20
8.738158179897594
 10
28.73627343653746
 20
8.726512491625356
 10
28.7479588276366
 20
8.714868333559895
 10
28.75964653603329
 20
8.70322570777404
 10
28.77133655184732
 20
8.691584616247228
 10
28.7830288652712
 20
8.679945060860752
 10
28.79472346657673
 20
8.668307043392987
 10
28.80642034612181
 20
8.656670565514646
 10
28.81811949435705
 20
8.645035628784016
 10
28.82982090183254
 20
8.633402234642201
 10
28.84152455920451
 20
8.621770384408362
 10
28.85323045724202
 20
8.610140079274959
 10
28.86493858683369
 20
8.598511320302991
 10
28.87664893899435
 20
8.586884108417244
 10
28.88836150487182
 20
8.575258444401525
 10
28.90007627575349
 20
8.563634328893906
 10
28.91179324307313
 20
8.552011762381972
 10
28.92351239841752
 20
8.540390745198047
 10
28.93523373353316
 20
8.52877127751446
 10
28.946957240333
 20
8.517153359338754
 10
28.9586829109031
 20
8.505536990508964
 10
28.97041073750932
 20
8.493922170688826
 10
28.98214071260407
 20
8.482308899363038
 10
28.99387282883296
 20
8.470697175832505
 10
29.00560707904151
 20
8.459086999209553
 10
29.01734345628186
 20
8.447478368413213
 10
29.02908195381945
 20
8.435871282164422
 10
29.04082256513973
 20
8.424265738981286
 10
29.05256528395487
 20
8.412661737174323
 10
29.0643101042104
 20
8.401059274841692
 10
29.07605702009199
 20
8.389458349864449
 10
29.0878060260321
 20
8.377858959901775
 10
29.09955711671665
 20
8.366261102386227
 10
29.1113102870918
 20
8.35466477451898
 10
29.12306553237056
 20
8.343069973265054
 10
29.13482284803956
 20
8.331476695348582
 10
29.14658222986569
 20
8.319884937248026
 10
29.15834367390284
 20
8.308294695191431
 10
29.17010717649855
 20
8.296705965151666
 10
29.18187273430079
 20
8.285118742841664
 10
29.19364034426457
 20
8.273533023709662
 10
29.20541000365865
 20
8.261948802934448
 10
29.21718171007233
 20
8.250366075420593
 10
29.22895546142201
 20
8.238784835793707
 10
29.24073125595798
 20
8.227205078395668
 10
29.25250909227113
 20
8.215626797279865
 10
29.26428896929954
 20
8.204049986206445
 10
29.27607088633532
 20
8.192474638637554
 10
29.28785484303118
 20
8.180900747732575
 10
29.29964083940722
 20
8.169328306343366
 10
29.31142887585758
 20
8.157757307009521
 10
29.32321895315715
 20
8.146187741953582
 10
29.33501107246827
 20
8.134619603076304
 10
29.34680523534741
 20
8.123052881951887
 10
29.35860144374816
 20
8.111487569827893
 10
29.37039969963189
 20
8.099923658094976
 10
29.38220000444835
 20
8.088361138818189
 10
29.39400235958581
 20
8.076800004102151
 10
29.40580676643257
 20
8.065240246011731
 10
29.41761322637428
 20
8.053681856575867
 10
29.42942174079137
 20
8.042124827791441
 10
29.44123231105639
 20
8.030569151627121
 10
29.45304493853141
 20
8.019014820027219
 10
29.46485962456542
 20
8.007461824915527
 10
29.47667637049166
 20
7.995910158199192
 10
29.48849517762504
 20
7.984359811772549
 10
29.5003160472595
 20
7.972810777520977
 10
29.51213898066542
 20
7.961263047324756
 10
29.52396397908695
 20
7.949716613062915
 10
29.53579104373942
 20
7.938171466617085
 10
29.54762017580675
 20
7.926627599875347
 10
29.55945137643875
 20
7.915085004736087
 10
29.57128464674859
 20
7.903543673111846
 10
29.58311998781011
 20
7.892003596933172
 10
29.59495740065524
 20
7.880464768152479
 10
29.60679688627136
 20
7.86892717874788
 10
29.6186384455987
 20
7.857390820727061
 10
29.63048207952768
 20
7.845855686131114
 10
29.64232778889637
 20
7.834321767038403
 10
29.65417557448776
 20
7.822789055568406
 10
29.66602543702723
 20
7.811257543885568
 10
29.67787737717989
 20
7.799727224203159
 10
29.68973139554797
 20
7.788198088787122
 10
29.70158749266819
 20
7.776670129959915
 10
29.71344566900916
 20
7.765143340104383
 10
29.72530592496874
 20
7.753617711667588
 10
29.73716826087141
 20
7.742093237164677
 10
29.74903267696571
 20
7.73056990918273
 10
29.76089917342154
 20
7.719047720384598
 10
29.77276775032759
 20
7.70752666351278
 10
29.78463841691791
 20
7.696006722488244
 10
29.79651237916046
 20
7.68448672657088
 10
29.80839293607907
 20
7.67296348574236
 10
29.82028305820347
 20
7.661434127324285
 10
29.8321851147393
 20
7.649896359197519
 10
29.84410091191673
 20
7.638348432765058
 10
29.85603173133912
 20
7.626789105914872
 10
29.86797836833174
 20
7.615217605982781
 10
29.87994117029034
 20
7.603633592715307
 10
29.89192007502987
 20
7.592037121232523
 10
29.90391464913317
 20
7.580428604990933
 10
29.91592412629952
 20
7.568808778746308
 10
29.92794744569343
 20
7.557178661516559
 10
29.93998329029324
 20
7.545539519544592
 10
29.95203012523978
 20
7.533892829261169
 10
29.96408623618501
 20
7.522240240247755
 10
29.97614976764075
 20
7.510583538199397
 10
29.98821876132729
 20
7.498924607887562
 10
30.00029119452207
 20
7.487265396123007
 10
30.01236501840832
 20
7.475607874718642
 10
30.02443819642375
 20
7.463954003452373
 10
30.03650874260919
 20
7.452305693029977
 10
30.04857475995727
 20
7.440664768047946
 10
30.06063447876107
 20
7.429032929956363
 10
30.07268629496278
 20
7.417411720021744
 10
30.08472880850237
 20
7.405802482289907
 10
30.09676086166626
 20
7.394206326548818
 10
30.10878157743593
 20
7.382624091291473
 10
30.12079039783668
 20
7.371056306678737
 10
30.13278712228617
 20
7.359503157502201
 10
30.1447719459432
 20
7.347964446147061
 10
30.15674549805627
 20
7.336439555554949
 10
30.16870888031233
 20
7.324927412186816
 10
30.18066370518537
 20
7.313426448985781
 10
30.19261213428511
 20
7.301934568339983
 10
30.2045569167057
 20
7.290449105045452
 10
30.21650135572908
 20
7.278966858517329
 10
30.22844740159591
 20
7.267485936215503
 10
30.24039510008567
 20
7.256006286515161
 10
30.25234440150175
 20
7.244527950185822
 10
30.26429526162723
 20
7.233050962807459
 10
30.2762476415389
 20
7.221575354945929
 10
30.28820150742123
 20
7.210101152328394
 10
30.30015683038043
 20
7.198628376018763
 10
30.31211358625842
 20
7.187157042593113
 10
30.32407175544687
 20
7.175687164315117
 10
30.33603132270123
 20
7.164218749311472
 10
30.34799227695469
 20
7.152751801747331
 10
30.35995461113224
 20
7.141286322001732
 10
30.37191832196466
 20
7.129822306843027
 10
30.38388340980255
 20
7.118359749604302
 10
30.39584987843033
 20
7.106898640358824
 10
30.40781773488025
 20
7.095438966095449
 10
30.41978698924641
 20
7.083980710894064
 10
30.43175765449879
 20
7.072523856101009
 10
30.44372974629722
 20
7.061068380504517
 10
30.45570328280546
 20
7.049614260510121
 10
30.46767828450513
 20
7.038161470316111
 10
30.47965477400979
 20
7.026709982088941
 10
30.49163277587892
 20
7.015259766138659
 10
30.50361231643196
 20
7.003810791094352
 10
30.51559342356228
 20
6.992363024079555
 10
30.52757612655124
 20
6.980916430887696
 10
30.53956045588217
 20
6.969470976157515
 10
30.55154644305441
 20
6.958026623548494
 10
30.56353412039729
 20
6.946583335916289
 10
30.57552352088417
 20
6.935141075488156
 10
30.58751467794647
 20
6.92369980403838
 10
30.59950762528759
 20
6.912259483063706
 10
30.61150239669709
 20
6.900820073958763
 10
30.62349902586452
 20
6.889381538191501
 10
30.63549754619355
 20
6.877943837478607
 10
30.64749790048994
 20
6.866507019434238
 10
30.65949667439722
 20
6.855074315420726
 10
30.67148682315668
 20
6.843652399309484
 10
30.68346228397731
 20
6.832247013074891
 10
30.69541821793761
 20
6.820862737432777
 10
30.70735093300768
 20
6.809503064902679
 10
30.71925780707132
 20
6.798170472870081
 10
30.73113721094808
 20
6.78686649664865
 10
30.74298843141538
 20
6.775591802542485
 10
30.75481159423059
 20
6.764346260908356
 10
30.7666075871531
 20
6.753129019217952
 10
30.77837798296642
 20
6.741938575120125
 10
30.79012496250026
 20
6.730772849503127
 10
30.80185123765263
 20
6.71962925955685
 10
30.8135599744119
 20
6.708504791835087
 10
30.82525471587891
 20
6.697396075317749
 10
30.83693930528906
 20
6.686299454473134
 10
30.84861780903434
 20
6.675211062320151
 10
30.86029443968552
 20
6.66412689349057
 10
30.87197347901412
 20
6.653042877291269
 10
30.88365920101459
 20
6.641954950766471
 10
30.89535579492634
 20
6.630859131759986
 10
30.90706728825586
 20
6.619751591977462
 10
30.91879746979875
 20
6.608628730048621
 10
30.9305498126619
 20
6.597487244589502
 10
30.9423273972855
 20
6.586324207264709
 10
30.95413283446513
 20
6.575137135849652
 10
30.96596818837388
 20
6.563924067292786
 10
30.97783489958444
 20
6.552683630777861
 10
30.98973370809114
 20
6.541415120786156
 10
31.00166457633207
 20
6.530118570158731
 10
31.01362661221116
 20
6.518794823158673
 10
31.02561799212028
 20
6.507445608533316
 10
31.03763588396128
 20
6.496073612576514
 10
31.04967637016813
 20
6.48468255219087
 10
31.061734370729
 20
6.473277247949972
 10
31.07380356620828
 20
6.461863697160646
 10
31.08587692971948
 20
6.450448568462622
 10
31.09795179832356
 20
6.439034384443839
 10
31.11002813918357
 20
6.42762116910608
 10
31.12210594392872
 20
6.416208923164223
 10
31.13418520421883
 20
6.404797647260886
 10
31.1462659117521
 20
6.39338734196104
 10
31.15834805827286
 20
6.381978007746622
 10
31.17043163557936
 20
6.370569645011151
 10
31.18251663553154
 20
6.359162254054346
 10
31.19460305005877
 20
6.347755835076728
 10
31.20669087116763
 20
6.336350388174246
 10
31.21878009094968
 20
6.324945913332888
 10
31.23087070158921
 20
6.313542410423298
 10
31.24296269537105
 20
6.302139879195379
 10
31.25505606468829
 20
6.290738319272918
 10
31.26715080205004
 20
6.279337730148204
 10
31.27924690008927
 20
6.267938111176625
 10
31.29134435157047
 20
6.256539461571302
 10
31.30344314939752
 20
6.245141780397691
 10
31.31554328662135
 20
6.233745066568199
 10
31.32764475644785
 20
6.222349318836802
 10
31.33974755224548
 20
6.210954535793654
 10
31.35185166755314
 20
6.19956071585971
 10
31.36395709608789
 20
6.188167857281327
 10
31.37606383175274
 20
6.176775958124895
 10
31.38817186864442
 20
6.165385016271431
 10
31.4002812010611
 20
6.153995029411213
 10
31.41239182351022
 20
6.142605995038383
 10
31.42450373071623
 20
6.131217910445564
 10
31.43661691762833
 20
6.119830772718474
 10
31.44873137942827
 20
6.108444578730539
 10
31.46084711153811
 20
6.09705932513751
 10
31.472964109628
 20
6.085675008372075
 10
31.48508236962389
 20
6.074291624638477
 10
31.49720188771538
 20
6.062909169907121
 10
31.50932266036341
 20
6.051527639909196
 10
31.52144468430805
 20
6.040147030131286
 10
31.53356795657634
 20
6.028767335809981
 10
31.54569247448991
 20
6.017388551926496
 10
31.5578182356729
 20
6.006010673201291
 10
31.5699452380596
 20
5.994633694088661
 10
31.58207347990229
 20
5.983257608771386
 10
31.59420295977902
 20
5.971882411155312
 10
31.60633367660129
 20
5.960508094863992
 10
31.61846562962191
 20
5.949134653233272
 10
31.63059881844271
 20
5.937762079305942
 10
31.64273324302234
 20
5.926390365826313
 10
31.65486890368401
 20
5.915019505234855
 10
31.66700580112327
 20
5.903649489662802
 10
31.67914393641576
 20
5.892280310926767
 10
31.69128331102502
 20
5.880911960523362
 10
31.70342392681019
 20
5.869544429623804
 10
31.71556578603384
 20
5.858177709068535
 10
31.72770889136971
 20
5.846811789361834
 10
31.73985324591046
 20
5.83544666066643
 10
31.75199885317546
 20
5.824082312798119
 10
31.76414571711856
 20
5.812718735220379
 10
31.77629384213583
 20
5.801355917038981
 10
31.78844323307334
 20
5.789993846996605
 10
31.80059389523496
 20
5.778632513467449
 10
31.81274583439004
 20
5.767271904451857
 10
31.82489905678129
 20
5.75591200757092
 10
31.83705356913245
 20
5.744552810061092
 10
31.84920937865611
 20
5.733194298768811
 10
31.86136649306146
 20
5.721836460145108
 10
31.87352492056204
 20
5.710479280240223
 10
31.88568466988357
 20
5.699122744698217
 10
31.89784575027161
 20
5.687766838751592
 10
31.91000817149944
 20
5.676411547215894
 10
31.92217194387574
 20
5.665056854484343
 10
31.93433707825241
 20
5.653702744522432
 10
31.94650358603229
 20
5.642349200862553
 10
31.95867147315733
 20
5.630996212367142
 10
31.97084065689768
 20
5.619643852964923
 10
31.98301107179082
 20
5.608292180118783
 10
31.99518277548782
 20
5.596941133408163
 10
32.00735590936242
 20
5.585590572301265
 10
32.01953065456232
 20
5.574240318295016
 10
32.0317071880604
 20
5.562890197055025
 10
32.04388563870605
 20
5.551540080555572
 10
32.05606604327645
 20
5.54018992921955
 10
32.06823813933248
 20
5.528849297542384
 10
32.08020661258593
 20
5.517700021771396
 10
32.09175857874396
 20
5.506940143197356
 10
32.10289746369012
 20
5.496566134800382
 10
32.11378453535937
 20
5.486427421670663
 10
32.12466920720751
 20
5.476291358182304
 10
32.13581934168067
 20
5.465908205167202
 10
32.1474515536847
 20
5.455076107088917
 10
32.15966151405466
 20
5.443706069216525
 10
32.17235425302425
 20
5.431886934798493
 10
32.18525581456511
 20
5.41987454118255
 10
32.19832569138006
 20
5.407707218618278
 10
32.21157093924932
 20
5.395378800346528
 10
32.22490544528727
 20
5.382969781251374
 10
32.23817190234421
 20
5.370626890379088
 10
32.25131958317089
 20
5.358397619855486
 10
32.26445786772761
 20
5.346180366326453
 10
32.27762688022074
 20
5.333937931143565
 10
32.29081954137214
 20
5.321677006907833
 10
32.30402384153315
 20
5.309408839790713
 10
32.31723507324704
 20
5.297137840907071
 10
32.33044692805981
 20
5.28486987355096
 10
32.34365252093343
 20
5.27261129960019
 10
32.35684566819831
 20
5.260367786856266
 10
32.37002508710308
 20
5.248140400186072
 10
32.38319868511772
 20
5.23592166104949
 10
32.39637463338555
 20
5.223703843116155
 10
32.40955094928972
 20
5.211488574872903
 10
32.42270678046453
 20
5.19929486671605
 10
32.43580955546799
 20
5.187152504784813
 10
32.44882444856986
 20
5.175093317349555
 10
32.46171984424683
 20
5.163146120860271
 10
32.47447493078939
 20
5.151329697669494
 10
32.48708845407643
 20
5.139644662877781
 10
32.49957356170295
 20
5.128078359188643
 10
32.51194791393615
 20
5.116614265453971
 10
32.52423735836442
 20
5.105228684655449
 10
32.53647942417047
 20
5.093887551215027
 10
32.54870819479047
 20
5.082560020639391
 10
32.56093752130425
 20
5.071233577506108
 10
32.57316817785176
 20
5.059907547668603
 10
32.58539741664425
 20
5.048584437756995
 10
32.59762520665184
 20
5.037264282889283
 10
32.60985132595917
 20
5.025947287912774
 10
32.62207536172535
 20
5.014633827028974
 10
32.6342969587205
 20
5.003324218533435
 10
32.64650685488275
 20
4.992027007363843
 10
32.65862138775887
 20
4.980819473756409
 10
32.67054541978367
 20
4.969789493595381
 10
32.68222048885128
 20
4.958991052148721
 10
32.69362067995853
 20
4.948448059394855
 10
32.70474800044816
 20
4.938158623979187
 10
32.71562775525188
 20
4.928099327170626
 10
32.72630392213366
 20
4.918229496818078
 10
32.73683452693281
 20
4.908495481306982
 10
32.74728701880716
 20
4.898834923515821
 10
32.75773364547625
 20
4.889181034772623
 10
32.76824682846444
 20
4.879466868811498
 10
32.77889453834415
 20
4.869629595729135
 10
32.78973566997894
 20
4.859614775941325
 10
32.80081541776677
 20
4.849380634139481
 10
32.81216065088305
 20
4.838902333247141
 10
32.82377528852385
 20
4.828176248376495
 10
32.83563567514915
 20
4.817224240784888
 10
32.84768595572587
 20
4.80609793183135
 10
32.8598335635487
 20
4.794882872873593
 10
32.87198647231803
 20
4.783664111694491
 10
32.88413037463153
 20
4.772454858606627
 10
32.89626471562853
 20
4.761255616714566
 10
32.90838931018245
 20
4.750066551987792
 10
32.92050431142295
 20
4.738887521953748
 10
32.93261017925829
 20
4.727718104390899
 10
32.94470764889748
 20
4.716557626021788
 10
32.95679769937257
 20
4.705405191206081
 10
32.96888152206091
 20
4.694259710633637
 10
32.9809604892074
 20
4.683119930017549
 10
32.99303612244672
 20
4.671984458787211
 10
33.00511006132557
 20
4.660851798781362
 10
33.01718403182495
 20
4.649720372941148
 10
33.02925981488242
 20
4.638588554003175
 10
33.04133921491429
 20
4.627454693192566
 10
33.05342402833793
 20
4.616317148916008
 10
33.06551601209399
 20
4.605174315454823
 10
33.07761680592316
 20
4.594024694212161
 10
33.08970441717824
 20
4.582888531339328
 10
33.10170670766054
 20
4.571832212000503
 10
33.11356852888478
 20
4.560906482334877
 10
33.12526026561328
 20
4.55013858848446
 10
33.13677434828742
 20
4.539535486543137
 10
33.14812176545923
 20
4.529087052505698
 10
33.15932857622291
 20
4.518769292216905
 10
33.17043242264631
 20
4.508547551320516
 10
33.18147904220252
 20
4.498379725208351
 10
33.19251878020136
 20
4.488219468969322
 10
33.20360310222091
 20
4.478019407338492
 10
33.21478110653905
 20
4.467734344646115
 10
33.22609603656496
 20
4.457324474766679
 10
33.23758179327069
 20
4.44675859106796
 10
33.24925944762265
 20
4.436017296360066
 10
33.26113375301313
 20
4.425096212844477
 10
33.27318965769187
 20
4.414009192063097
 10
33.28538881719757
 20
4.402791524847302
 10
33.29766613487092
 20
4.391503125418348
 10
33.30995319252352
 20
4.380206963748404
 10
33.32223840705778
 20
4.368913694064341
 10
33.33452202191149
 20
4.357623085948754
 10
33.3468045371659
 20
4.346334674093121
 10
33.35908664251859
 20
4.335047819722116
 10
33.37136915025631
 20
4.323761772017937
 10
33.38365292822786
 20
4.312475729544629
 10
33.39593883281697
 20
4.301188901672401
 10
33.40822764197138
 20
4.289900569950296
 10
33.42052003426757
 20
4.278610107256481
 10
33.432816479446
 20
4.267317078280121
 10
33.44511697397972
 20
4.256021482163552
 10
33.45742112883304
 20
4.244723671925706
 10
33.46972831042406
 20
4.233424225065022
 10
33.4820377815875
 20
4.222123814162341
 10
33.49434884253731
 20
4.210823077483831
 10
33.50666097182926
 20
4.199522489583872
 10
33.51897396726629
 20
4.188222231960773
 10
33.53128794825846
 20
4.176922190909905
 10
33.54360295230846
 20
4.165622327994973
 10
33.55591897228498
 20
4.15432264581735
 10
33.56823600032097
 20
4.143023147711277
 10
33.58055402785581
 20
4.131723837704517
 10
33.59287304567745
 20
4.12042472047902
 10
33.60519304396458
 20
4.109125801331575
 10
33.61751401232881
 20
4.097827086134469
 10
33.62983593985674
 20
4.086528581296152
 10
33.64215881515231
 20
4.075230293721888
 10
33.65448262637875
 20
4.063932230774416
 10
33.66680736130091
 20
4.052634400234611
 10
33.67913300732729
 20
4.04133681026214
 10
33.69145955155231
 20
4.030039469356117
 10
33.7037869807984
 20
4.01874238631577
 10
33.7161152816582
 20
4.007445570201094
 10
33.72844444053671
 20
3.996149030293511
 10
33.74077444369344
 20
3.984852776056527
 10
33.75310527728459
 20
3.973556817096391
 10
33.76543692740521
 20
3.962261163122752
 10
33.77776938013136
 20
3.950965823909326
 10
33.79010262156227
 20
3.939670809254543
 10
33.80243663786246
 20
3.928376128942209
 10
33.81477141530402
 20
3.917081792702171
 10
33.82710694030862
 20
3.905787810170966
 10
33.83944319948982
 20
3.894494190852488
 10
33.85178017969508
 20
3.883200944078638
 10
33.86411786804808
 20
3.871908078969993
 10
33.87645625199076
 20
3.860615604396451
 10
33.88879531932551
 20
3.849323528937902
 10
33.90113505825738
 20
3.838031860844883
 10
33.91347545743621
 20
3.82674060799923
 10
33.92581650599878
 20
3.815449777874745
 10
33.93815819361099
 20
3.80415937749785
 10
33.95050051051
 20
3.792869413408245
 10
33.96284344754642
 20
3.781579891619572
 10
33.97518699622646
 20
3.770290817580066
 10
33.9875311487541
 20
3.759002196133216
 10
33.99987589807323
 20
3.747714031478432
 10
34.01222123790982
 20
3.736426327131688
 10
34.0245671628141
 20
3.725139085886191
 10
34.03691366821867
 20
3.713852309758456
 10
34.03901463339103
 20
3.711944682961175
 10
34.04113057857286
 20
3.710049272657743
 10
34.04326155946647
 20
3.70816610431035
 10
34.04540746099185
 20
3.706295335547524
 10
34.04756801906425
 20
3.704437239116227
 10
34.04974284238843
 20
3.702592185818818
 10
34.05193143425309
 20
3.700760627450025
 10
34.05413321432503
 20
3.698943079733892
 10
34.05634754044353
 20
3.697140105260748
 10
34.05857373041467
 20
3.695352296424171
 10
34.06081108380554
 20
3.693580258357943
 10
34.06305890373867
 20
3.691824591873018
 10
34.06531651868621
 20
3.690085876394481
 10
34.06758330426431
 20
3.688364652898504
 10
34.06985870502742
 20
3.686661406849318
 10
34.07214225626255
 20
3.684976551136168
 10
34.07443360578359
 20
3.683310409010276
 10
34.07673253572563
 20
3.681663197021801
 10
34.07903898433926
 20
3.680035007956801
 10
34.08135306766796
 20
3.678425794108445
 10
34.08367504496109
 20
3.676835438128846
 10
34.08600507097863
 20
3.675263977963928
 10
34.08834309132021
 20
3.673711582778403
 10
34.09068886480886
 20
3.672178525718379
 10
34.09304198877633
 20
3.670665169407514
 10
34.09540192434839
 20
3.669171951443138
 10
34.09776802173008
 20
3.667699369892408
 10
34.10013954549097
 20
3.666247968788433
 10
34.10251569985053
 20
3.664818323626426
 10
34.10489565396334
 20
3.663411026859832
 10
34.10727856720438
 20
3.662026673396483
 10
34.10966361445435
 20
3.660665846094712
 10
34.11205001138495
 20
3.659329101259523
 10
34.11443703974411
 20
3.658016954138703
 10
34.11682407264134
 20
3.656729864418978
 10
34.11921059983298
 20
3.655468221722145
 10
34.12159625300747
 20
3.654232331101216
 10
34.1239808310707
 20
3.653022398536555
 10
34.1263643254312
 20
3.651838516432012
 10
34.12874694047857
 20
3.650680656773221
 10
34.13112894854903
 20
3.649548836388595
 10
34.13351040076202
 20
3.648443239321486
 10
34.13589111021563
 20
3.647364132760976
 10
34.138270683331
 20
3.646311852040615
 10
34.14064855030093
 20
3.645286789631303
 10
34.1430239955381
 20
3.64428938413416
 10
34.14539618812372
 20
3.643320109273399
 10
34.14776421225587
 20
3.642379462889206
 10
34.15012709769801
 20
3.641467955930606
 10
34.15248385022734
 20
3.640586101448341
 10
34.15483348208339
 20
3.639734403587747
 10
34.15717504241631
 20
3.638913346581623
 10
34.15950764773546
 20
3.638123383743109
 10
34.16183051235778
 20
3.637364926458557
 10
34.16414297885625
 20
3.63663833318041
 10
34.16644454850836
 20
3.63594389842007
 10
34.16873491174456
 20
3.635281841740777
 10
34.17101397859668
 20
3.634652296750477
 10
34.17328190807675
 20
3.634055301465248
 10
34.17553899462034
 20
3.633490915133279
 10
34.1777852967733
 20
3.632959372436946
 10
34.18002060701553
 20
3.632460941322017
 10
34.18224449284555
 20
3.631995900782671
 10
34.18445633083583
 20
3.631564537292049
 10
34.18665534068813
 20
3.631167141232773
 10
34.18884061928873
 20
3.630804003327471
 10
34.19101117476387
 20
3.630475411069312
 10
34.1931659605349
 20
3.630181645152537
 10
34.19530390937375
 20
3.629922975902975
 10
34.19742396745814
 20
3.629699659708588
 10
34.19952512842691
 20
3.629511935449988
 10
34.20160646743535
 20
3.62936002093097
 10
34.20366717521051
 20
3.629244109309037
 10
34.2057065921065
 20
3.629164365525938
 10
34.20772424215981
 20
3.629120922738183
 10
34.20971986714459
 20
3.629113878747584
 10
34.21169346062804
 20
3.629143292431777
 10
34.21364528497465
 20
3.629209193212827
 10
34.21557557491861
 20
3.629311741658285
 10
34.21748425733748
 20
3.629451161341153
 10
34.21937102896436
 20
3.62962760654153
 10
34.22123539319823
 20
3.629841166560438
 10
34.22307669425651
 20
3.6300918732589
 10
34.22489415132716
 20
3.630379708597021
 10
34.2266868927213
 20
3.630704612173076
 10
34.22845399002547
 20
3.631066488762571
 10
34.23019449225406
 20
3.631465215857343
 10
34.23190746000165
 20
3.631900651204623
 10
34.2335919995954
 20
3.63237264034613
 10
34.23524729724751
 20
3.632881024157136
 10
34.23687265320748
 20
3.633425646385561
 10
34.23846751591457
 20
3.634006361191037
 10
34.24003151615014
 20
3.634623040684001
 10
34.24156450119008
 20
3.635275582464768
 10
34.24306722397608
 20
3.635964217330334
 10
37.88855399999998
 20
7.173282999999997
 10
37.8885579223213
 20
7.1732798775764
 42
0.3574986004163257
 10
37.91760632831082
 20
7.427503204369697
 10
37.90864810940336
 20
7.440884720788146
 10
37.89978268959283
 20
7.454114025563124
 10
37.89090896066704
 20
7.467342129907923
 10
37.88202692833475
 20
7.480569004372212
 10
37.87313659970266
 20
7.493794617667513
 10
37.86423798320858
 20
7.507018936764492
 10
37.8553310885545
 20
7.520241926990254
 10
37.84641592663959
 20
7.533463552125662
 10
37.83749250949345
 20
7.546683774502619
 10
37.8285608502091
 20
7.559902555101378
 10
37.81962096287607
 20
7.573119853647839
 10
37.8106728625135
 20
7.586335628710857
 10
37.80171656500328
 20
7.599549837799529
 10
37.79275208702305
 20
7.612762437460512
 10
37.78377944597941
 20
7.625973383375301
 10
37.77479865994086
 20
7.639182630457553
 10
37.76580974757103
 20
7.652390132950377
 10
37.75681272806171
 20
7.66559584452363
 10
37.7478076210659
 20
7.678799718371223
 10
37.73879444663099
 20
7.692001707308421
 10
37.72977322513179
 20
7.705201763869151
 10
37.72074397720362
 20
7.718399840403286
 10
37.71170672367545
 20
7.731595889173957
 10
37.70266148550291
 20
7.744789862454853
 10
37.69360828370148
 20
7.757981712627517
 10
37.68454713927948
 20
7.771171392278657
 10
37.67547807317123
 20
7.784358854297432
 10
37.66640110617011
 20
7.797544051972759
 10
37.65731625886171
 20
7.810726939090621
 10
37.64822355155676
 20
7.823907470031357
 10
37.63912300422445
 20
7.837085599866962
 10
37.63001463642531
 20
7.850261284458402
 10
37.62089846724445
 20
7.863434480552895
 10
37.61177451522458
 20
7.876605145881232
 10
37.60264279829907
 20
7.889773239255054
 10
37.59350333372515
 20
7.902938720664177
 10
37.58435613799711
 20
7.91610155140095
 10
37.57520122284301
 20
7.929261699547276
 10
37.56603858965677
 20
7.942419147625978
 10
37.55686823620994
 20
7.95557388342913
 10
37.54769015807176
 20
7.968725898058696
 10
37.53850434897799
 20
7.981875185403501
 10
37.52931080120005
 20
7.995021741616146
 10
37.52010950591387
 20
8.008165564589972
 10
37.51090045356887
 20
8.02130665343601
 10
37.50168363425698
 20
8.034445007959902
 10
37.49245903808161
 20
8.047580628138877
 10
37.4832266555266
 20
8.060713513598672
 10
37.47398647782515
 20
8.073843663090487
 10
37.4647384973289
 20
8.086971073967937
 10
37.45548270787681
 20
8.100095741663983
 10
37.44621910516417
 20
8.113217659167888
 10
37.43694768711157
 20
8.126336816502147
 10
37.42766845423384
 20
8.139453200199469
 10
37.4183814100091
 20
8.152566792779667
 10
37.40906620373691
 20
8.165706129592953
 10
37.39959638299886
 20
8.179048546866507
 10
37.38990283084251
 20
8.192690841523509
 10
37.38002138663885
 20
8.206582503001785
 10
37.37005310259649
 20
8.220581525320177
 10
37.36012419777218
 20
8.234510643544362
 10
37.35034601208104
 20
8.24821357025266
 10
37.34077496030707
 20
8.261611232001836
 10
37.33137248611355
 20
8.274758005792941
 10
37.32200829582556
 20
8.287837143791421
 10
37.312643606266
 20
8.300903270452661
 10
37.30328183688563
 20
8.313951663509097
 10
37.29392484603755
 20
8.3269797527945
 10
37.28457314074362
 20
8.339986832477057
 10
37.27522609496514
 20
8.352973761343191
 10
37.2658821678736
 20
8.365942663081341
 10
37.25653912212135
 20
8.378896626565758
 10
37.24719424211232
 20
8.391839406140311
 10
37.23785553866957
 20
8.404760007808262
 10
37.22860595397725
 20
8.417544381955272
 10
37.21950248256989
 20
8.430114245298902
 10
37.21053097972242
 20
8.442489231322046
 10
37.20162982843981
 20
8.454754293272463
 10
37.19271413073831
 20
8.467026385816787
 10
37.18369989892675
 20
8.479421146694495
 10
37.17452824688777
 20
8.492019578371898
 10
37.16518958135914
 20
8.504834729696137
 10
37.15574721168883
 20
8.517779179567678
 10
37.14628970105553
 20
8.530730782781725
 10
37.13682888334128
 20
8.543673261166661
 10
37.12736547387976
 20
8.556605663898151
 10
37.11789999032846
 20
8.569527303718862
 10
37.1084327656688
 20
8.582437739536025
 10
37.09896396120623
 20
8.595336759019016
 10
37.08949357957023
 20
8.60822436119691
 10
37.08002147771446
 20
8.621100739056053
 10
37.07054737991678
 20
8.633966262137628
 10
37.0610708907793
 20
8.646821459135223
 10
37.05159150822857
 20
8.659667000492383
 10
37.0421086365155
 20
8.6725036810002
 10
37.03262159921554
 20
8.685332402394863
 10
37.02312965222869
 20
8.698154155955219
 10
37.01363199677962
 20
8.710970005100357
 10
37.00412779241769
 20
8.723781067987165
 10
36.99461617001708
 20
8.736588500107894
 10
36.98509624477682
 20
8.749393476887723
 10
36.97556712922083
 20
8.762197176282334
 10
36.96602794619812
 20
8.775000761375471
 10
36.95647784188273
 20
8.787805362976506
 10
36.94691599877381
 20
8.800612062218007
 10
36.93734164869582
 20
8.813421873153307
 10
36.92775408579843
 20
8.826235725354068
 10
36.91815267955671
 20
8.839054446507841
 10
36.90853688777119
 20
8.851878745015646
 10
36.89890626956785
 20
8.864709192589524
 10
36.8892604983983
 20
8.877546206850102
 10
36.87959937503978
 20
8.890390033924184
 10
36.86992284059524
 20
8.903240731042288
 10
36.86023098949346
 20
8.916098149136225
 10
36.85052408248906
 20
8.928961915436664
 10
36.84080255966261
 20
8.941831416070696
 10
36.83106705342068
 20
8.954705778659411
 10
36.82131840149594
 20
8.967583854915444
 10
36.8115576599472
 20
8.980464203240554
 10
36.80178611376648
 20
8.993345074837408
 10
36.79200496774561
 20
9.006224841622852
 10
36.78221452351282
 20
9.019103084398407
 10
36.77241473381392
 20
9.031979839005252
 10
36.76260632481805
 20
9.044854140246448
 10
36.75279270510201
 20
9.05772154694401
 10
36.7429734004677
 20
9.070582669244876
 10
36.73311446589283
 20
9.083481588260717
 10
36.72317476586697
 20
9.096471654478474
 10
36.71315315935212
 20
9.109554116773477
 10
36.70310360928727
 20
9.122658462729932
 10
36.69301683221443
 20
9.135796443607336
 10
36.68281502098829
 20
9.149069042853646
 10
36.67243650475711
 20
9.162556257822256
 10
36.66191603501921
 20
9.176212556172655
 10
36.65132887783914
 20
9.189939758530305
 10
36.64069684368714
 20
9.203709441442706
 10
36.63003544293175
 20
9.217501442922657
 10
36.61935422589114
 20
9.231303365774918
 10
36.60865400822622
 20
9.245114138967585
 10
36.59793112616178
 20
9.258938477907788
 10
36.58718613978031
 20
9.272775631152557
 10
36.57642310547495
 20
9.286620335128919
 10
36.56564713761658
 20
9.300465977759538
 10
36.55486275412108
 20
9.31430674217958
 10
36.54407444649178
 20
9.328136862862724
 10
36.53328687117828
 20
9.341950381035683
 10
36.52250490014802
 20
9.355741081725028
 10
36.51174898837207
 20
9.369482940440457
 10
36.50113833058924
 20
9.383024302158206
 10
36.49067009987926
 20
9.396368813217648
 10
36.48018782874463
 20
9.409715837403744
 10
36.46957431088834
 20
9.423214871900398
 10
36.45889841345433
 20
9.436778134505466
 10
36.44826807004625
 20
9.450268087262458
 10
36.43777357082843
 20
9.463570710088417
 10
36.42750914659932
 20
9.476567235630692
 10
36.4174402693159
 20
9.489301681193893
 10
36.4074572518628
 20
9.501913076572042
 10
36.39744654037091
 20
9.514545295196247
 10
36.38736200653609
 20
9.527256885282351
 10
36.37726299111961
 20
9.539972958493702
 10
36.36716484652242
 20
9.55267420911232
 10
36.35705866526357
 20
9.565371910893404
 10
36.34694415090326
 20
9.578066419606765
 10
36.33682193867378
 20
9.590756928369893
 10
36.32669280576517
 20
9.603442448128156
 10
36.31655685829399
 20
9.616122838750474
 10
36.30641382715039
 20
9.628798434664732
 10
36.29626368153967
 20
9.641469268478964
 10
36.28610640680816
 20
9.654135352432405
 10
36.27594198928125
 20
9.666796697593015
 10
36.26577041622979
 20
9.679453313898568
 10
36.25559167583638
 20
9.692105210197793
 10
36.24540575716181
 20
9.70475239429148
 10
36.2352126501113
 20
9.717394872973622
 10
36.22501234540096
 20
9.730032652072518
 10
36.21480483452411
 20
9.7426657364919
 10
36.20459010971757
 20
9.755294130252037
 10
36.19436816392813
 20
9.767917836530886
 10
36.1841389907788
 20
9.780536857705197
 10
36.17390258453525
 20
9.793151195391622
 10
36.16365894007208
 20
9.80576085048785
 10
36.15340805283925
 20
9.818365823213722
 10
36.14314991882837
 20
9.830966113152364
 10
36.13288453453912
 20
9.843561719291276
 10
36.12261189694554
 20
9.856152640063495
 10
36.11233200346241
 20
9.868738873388675
 10
36.10204485191164
 20
9.881320416714244
 10
36.09175044048857
 20
9.893897267056486
 10
36.08144876772835
 20
9.906469421041695
 10
36.07113983247228
 20
9.919036874947275
 10
36.06082363383418
 20
9.931599624742881
 10
36.05050017116675
 20
9.944157666131506
 10
36.0401694440279
 20
9.956710994590633
 10
36.02983145214713
 20
9.969259605413347
 10
36.01948619539185
 20
9.981803493749442
 10
36.00913367373376
 20
9.994342654646562
 10
35.99877388721522
 20
10.0068770830913
 10
35.98840683600742
 20
10.01940677390929
 10
35.97803252103336
 20
10.03193172082904
 10
35.9676509437634
 20
10.04445191686621
 10
35.95726210595432
 20
10.05696735473975
 10
35.9468660096419
 20
10.06947802688093
 10
35.93646265713518
 20
10.08198392544051
 10
35.92605205101043
 20
10.09448504229588
 10
35.91563419410521
 20
10.10698136905813
 10
35.90520908951243
 20
10.11947289707923
 10
35.89477674057446
 20
10.1319596174591
 10
35.88433715087707
 20
10.14444152105284
 10
35.87389032424364
 20
10.15691859847771
 10
35.8634362647291
 20
10.16939084012037
 10
35.85297497661406
 20
10.18185823614396
 10
35.84250646439882
 20
10.19432077649525
 10
35.83203073279746
 20
10.20677845091174
 10
35.82154778673189
 20
10.2192312489288
 10
35.81105763132588
 20
10.23167915988679
 10
35.8005602718992
 20
10.24412217293819
 10
35.79005571396158
 20
10.25656027705473
 10
35.77954396320683
 20
10.26899346103452
 10
35.76902502550689
 20
10.28142171350916
 10
35.75849890690585
 20
10.29384502295086
 10
35.74796561361408
 20
10.30626337767962
 10
35.73742515200223
 20
10.31867676587029
 10
35.72687752859529
 20
10.33108517555971
 10
35.71632275006673
 20
10.3434885946539
 10
35.70576082323239
 20
10.35588701093507
 10
35.69519175504474
 20
10.36828041206887
 10
35.68461555258679
 20
10.38066878561144
 10
35.67403222306622
 20
10.39305211901653
 10
35.66344177380943
 20
10.40543039964268
 10
35.65284421225554
 20
10.41780361476031
 10
35.64223954595056
 20
10.43017175155885
 10
35.63162778254135
 20
10.44253479715387
 10
35.62100892976972
 20
10.45489273859421
 10
35.6103829954665
 20
10.4672455628691
 10
35.59974998754555
 20
10.47959325691528
 10
35.58910991399788
 20
10.49193580762415
 10
35.57846278288567
 20
10.50427320184887
 10
35.56780860233633
 20
10.51660542641149
 10
35.55714738053659
 20
10.52893246811011
 10
35.5464791257265
 20
10.54125431372594
 10
35.53580384619356
 20
10.55357095003051
 10
35.52512155026672
 20
10.56588236379271
 10
35.5144322463105
 20
10.57818854178598
 10
35.50373594271896
 20
10.59048947079541
 10
35.49303264790982
 20
10.60278513762488
 10
35.48232237031854
 20
10.61507552910416
 10
35.47160511839233
 20
10.62736063209607
 10
35.46088090058422
 20
10.63964043350356
 10
35.45014972534711
 20
10.6519149202769
 10
35.43941160112789
 20
10.66418407942074
 10
35.42866653636142
 20
10.6764478980013
 10
35.41791453946462
 20
10.68870636315344
 10
35.40715561883054
 20
10.70095946208782
 10
35.39638978282238
 20
10.713207182098
 10
35.38561703976763
 20
10.72544951056761
 10
35.37483739795205
 20
10.73768643497743
 10
35.36405086561372
 20
10.74991794291253
 10
35.35325745093718
 20
10.76214402206944
 10
35.34245716204746
 20
10.77436466026317
 10
35.33165000700404
 20
10.78657984543446
 10
35.32083599379504
 20
10.79878956565683
 10
35.31001513033127
 20
10.81099380914372
 10
35.29918742444016
 20
10.82319256425563
 10
35.28835288385998
 20
10.83538581950724
 10
35.27751151623377
 20
10.84757356357453
 10
35.26666332910347
 20
10.85975578530191
 10
35.25580832990401
 20
10.87193247370935
 10
35.24494652595724
 20
10.8841036179995
 10
35.23407792446612
 20
10.89626920756483
 10
35.22320253250873
 20
10.90842923199474
 10
35.2123203570323
 20
10.92058368108267
 10
35.20143140469912
 20
10.93273254498234
 10
35.19053568042787
 20
10.94487581566652
 10
35.17963318817829
 20
10.95701348610896
 10
35.1687239320195
 20
10.96914554920134
 10
35.15780791614159
 20
10.98127199774131
 10
35.14688514485121
 20
10.99339282443715
 10
35.135955622567
 20
11.0055080219124
 10
35.12501935381508
 20
11.01761758271041
 10
35.11407634322442
 20
11.02972149929901
 10
35.10312659552243
 20
11.0418197640751
 10
35.0921701155303
 20
11.05391236936925
 10
35.08120690815855
 20
11.06599930745033
 10
35.07023697840246
 20
11.07808057053013
 10
35.05926033133754
 20
11.09015615076795
 10
35.04827697211491
 20
11.10222604027521
 10
35.03728690595692
 20
11.11429023112011
 10
35.02629013815249
 20
11.12634871533217
 10
35.0152866740526
 20
11.13840148490689
 10
35.00427651906576
 20
11.15044853181036
 10
34.99325967865347
 20
11.16248984798387
 10
34.98223615832568
 20
11.17452542534849
 10
34.97120596363625
 20
11.18655525580973
 10
34.96016910017843
 20
11.19857933126213
 10
34.94912557358026
 20
11.21059764359387
 10
34.93807538950012
 20
11.22261018469137
 10
34.92701855362212
 20
11.23461694644395
 10
34.91595507165161
 20
11.24661792074839
 10
34.90488494931061
 20
11.25861309951355
 10
34.89380819233327
 20
11.27060247466504
 10
34.88272480646136
 20
11.28258603814973
 10
34.87163479743968
 20
11.29456378194046
 10
34.86053817101161
 20
11.3065356980406
 10
34.84943493291448
 20
11.31850177848868
 10
34.83832508887508
 20
11.33046201536298
 10
34.8272086446051
 20
11.34241640078617
 10
34.8160856057966
 20
11.35436492692992
 10
34.8049559781175
 20
11.3663075860195
 10
34.79381976720697
 20
11.37824437033838
 10
34.78267697867096
 20
11.39017527223288
 10
34.77152761807766
 20
11.40210028411674
 10
34.7603716909529
 20
11.41401939847577
 10
34.74920920277564
 20
11.42593260787245
 10
34.73804015897349
 20
11.43783990495051
 10
34.72686456491808
 20
11.44974128243959
 10
34.7156824259206
 20
11.46163673315985
 10
34.70449374722719
 20
11.47352625002652
 10
34.69329853401446
 20
11.4854098260546
 10
34.6820967913849
 20
11.4972874543634
 10
34.67088852436241
 20
11.5091591281812
 10
34.6596737378877
 20
11.52102484084983
 10
34.64845243681376
 20
11.53288458582932
 10
34.63722462590136
 20
11.54473835670246
 10
34.62599030981444
 20
11.55658614717946
 10
34.6147494931157
 20
11.56842795110254
 10
34.60350218026186
 20
11.58026376245054
 10
34.59224837559937
 20
11.59209357534355
 10
34.58098808335963
 20
11.60391738404749
 10
34.56972130765463
 20
11.61573518297877
 10
34.55844805247231
 20
11.62754696670884
 10
34.54716832167207
 20
11.63935272996889
 10
34.53588211898023
 20
11.65115246765435
 10
34.52458944798543
 20
11.66294617482961
 10
34.51329031213421
 20
11.67473384673255
 10
34.50198471472631
 20
11.68651547877922
 10
34.49067265891031
 20
11.69829106656839
 10
34.47935414767894
 20
11.71006060588621
 10
34.46802918386466
 20
11.72182409271079
 10
34.45669777013502
 20
11.73358152321685
 10
34.4453599089882
 20
11.74533289378028
 10
34.4340156027484
 20
11.75707820098279
 10
34.42266485356139
 20
11.76881744161653
 10
34.41130766338988
 20
11.78055061268866
 10
34.39994403400906
 20
11.79227771142601
 10
34.38857396700199
 20
11.80399873527966
 10
34.37719746356144
 20
11.81571368212197
 10
34.36581452045655
 20
11.82742255424792
 10
34.35442513062349
 20
11.83912535776387
 10
34.34302928748962
 20
11.85082209828161
 10
34.33162698514138
 20
11.86251278075173
 10
34.32021821830517
 20
11.87419740948298
 10
34.30880298232839
 20
11.88587598816154
 10
34.29738127316035
 20
11.89754851987034
 10
34.28595308733321
 20
11.90921500710841
 10
34.27451842194292
 20
11.92087545181014
 10
34.26307727463025
 20
11.93252985536462
 10
34.25162964356164
 20
11.94417821863496
 10
34.24017552741023
 20
11.95582054197757
 10
34.22871492533676
 20
11.96745682526153
 10
34.21724783697055
 20
11.97908706788785
 10
34.20577426239042
 20
11.99071126880878
 10
34.19429420210569
 20
12.00232942654718
 10
34.18280765703711
 20
12.01394153921578
 10
34.17131462849778
 20
12.0255476045365
 10
34.15981511817415
 20
12.03714761985979
 10
34.14830912810691
 20
12.04874158218391
 10
34.13679666067204
 20
12.06032948817428
 10
34.12527771856165
 20
12.07191133418274
 10
34.11375230476501
 20
12.08348711626691
 10
34.10222042254948
 20
12.09505683020949
 10
34.09068207544141
 20
12.10662047153756
 10
34.0791372672072
 20
12.11817803554191
 10
34.06758600183412
 20
12.12972951729634
 10
34.05602828351141
 20
12.14127491167698
 10
34.04446411661107
 20
12.15281421338158
 10
34.03289350566894
 20
12.16434741694888
 10
34.0213164553656
 20
12.17587451677786
 10
34.00973297050731
 20
12.18739550714709
 10
33.99814305600698
 20
12.19891038223402
 10
33.98654671686512
 20
12.21041913613431
 10
33.9749439581508
 20
12.22192176288114
 10
33.96333478498256
 20
12.23341825646452
 10
33.95171920250943
 20
12.2449086108506
 10
33.94009721589182
 20
12.25639282000099
 10
33.92846883028248
 20
12.26787087789205
 10
33.9168340508075
 20
12.27934277853425
 10
33.90519288254719
 20
12.29080851599143
 10
33.89354533051712
 20
12.30226808440015
 10
33.88189139964894
 20
12.31372147798899
 10
33.8702310947715
 20
12.32516869109784
 10
33.85856442059165
 20
12.33660971819727
 10
33.84689138167529
 20
12.34804455390779
 10
33.83521198242822
 20
12.35947319301917
 10
33.82352622707726
 20
12.37089563050978
 10
33.81183411965102
 20
12.38231186156589
 10
33.80013566396094
 20
12.39372188160096
 10
33.78843086358225
 20
12.40512568627498
 10
33.7767197218349
 20
12.41652327151378
 10
33.76500224176448
 20
12.42791463352833
 10
33.75327842612325
 20
12.43929976883408
 10
33.74154827735102
 20
12.45067867427022
 10
33.72981179755611
 20
12.46205134701906
 10
33.71806898849636
 20
12.47341778462528
 10
33.70631985156002
 20
12.48477798501528
 10
33.69456438774671
 20
12.49613194651651
 10
33.68280259764839
 20
12.50747966787671
 10
33.6710344814303
 20
12.51882114828332
 10
33.65926003881194
 20
12.5301563873827
 10
33.64747926904796
 20
12.5414853852995
 10
33.63569217090918
 20
12.55280814265599
 10
33.62389874266344
 20
12.56412466059128
 10
33.61209898205673
 20
12.57543494078076
 10
33.60029288629394
 20
12.58673898545529
 10
33.58848045201997
 20
12.5980367974206
 10
33.57666167530053
 20
12.60932838007657
 10
33.56483655160326
 20
12.62061373743654
 10
33.55300507577856
 20
12.63189287414663
 10
33.54116724204057
 20
12.64316579550505
 10
33.52932304394814
 20
12.65443250748141
 10
33.5174724744888
 20
12.66569301663533
 10
33.50561553307656
 20
12.67694732327695
 10
33.49375223032747
 20
12.68819541680602
 10
33.48188257785571
 20
12.69943728569192
 10
33.47000658722938
 20
12.71067291849415
 10
33.45812426996946
 20
12.72190230386269
 10
33.44623563754899
 20
12.73312543053826
 10
33.43434070139211
 20
12.74434228735261
 10
33.4224394728732
 20
12.75555286322884
 10
33.41053196331594
 20
12.76675714718162
 10
33.39861818399239
 20
12.77795512831757
 10
33.38669814612212
 20
12.7891467958355
 10
33.37477186087127
 20
12.80033213902669
 10
33.36283933935167
 20
12.8115111472752
 10
33.35090059261991
 20
12.8226838100582
 10
33.33895563167644
 20
12.83385011694617
 10
33.32700446746463
 20
12.84501005760326
 10
33.31504711086994
 20
12.85616362178757
 10
33.30308357271895
 20
12.86731079935144
 10
33.29111386377845
 20
12.8784515802417
 10
33.27913799475455
 20
12.88958595450002
 10
33.26715597629179
 20
12.90071391226317
 10
33.25516781897221
 20
12.91183544376332
 10
33.24317353331441
 20
12.9229505393283
 10
33.23117312977271
 20
12.93405918938195
 10
33.21916661873621
 20
12.94516138444436
 10
33.20715401052785
 20
12.95625711513217
 10
33.19513531540355
 20
12.96734637215888
 10
33.18311054355132
 20
12.97842914633513
 10
33.17107970509026
 20
12.98950542856899
 10
33.15904281006971
 20
13.00057520986624
 10
33.14699986846838
 20
13.01163848133067
 10
33.13495089019337
 20
13.02269523416439
 10
33.12289588507932
 20
13.03374545966808
 10
33.11083486288744
 20
13.04478914924132
 10
33.09876783330466
 20
13.05582629438285
 10
33.08669480594272
 20
13.06685688669088
 10
33.07461579033719
 20
13.07788091786337
 10
33.06253079594667
 20
13.08889837969834
 10
33.05043983215178
 20
13.09990926409412
 10
33.03834290825431
 20
13.11091356304969
 10
33.02624003347632
 20
13.12191126866494
 10
33.01413121695919
 20
13.13290237314096
 10
33.00201646776275
 20
13.14388686878035
 10
32.98989579486433
 20
13.15486474798749
 10
32.9777692071579
 20
13.16583600326884
 10
32.96563671345314
 20
13.17680062723324
 10
32.95349832247452
 20
13.18775861259217
 10
32.94135404286038
 20
13.19870995216009
 10
32.92920388316211
 20
13.20965463885467
 10
32.91704785184312
 20
13.22059266569715
 10
32.90488595727802
 20
13.23152402581257
 10
32.89271820775166
 20
13.24244871243007
 10
32.88054461145825
 20
13.25336671888323
 10
32.86836517650045
 20
13.2642780386103
 10
32.85617991088847
 20
13.27518266515452
 10
32.8439888225391
 20
13.28608059216442
 10
32.83179191927491
 20
13.29697181339408
 10
32.81958920882324
 20
13.30785632270344
 10
32.80738069881538
 20
13.3187341140586
 10
32.79516639678556
 20
13.32960518153209
 10
32.78294631017014
 20
13.34046951930318
 10
32.77072044630665
 20
13.35132712165814
 10
32.75848881243289
 20
13.36217798299056
 10
32.74625141568602
 20
13.37302209780166
 10
32.73400826310166
 20
13.3838594607005
 10
32.72175936161299
 20
13.39469006640436
 10
32.70950471804982
 20
13.40551390973898
 10
32.69724433913768
 20
13.41633098563888
 10
32.68497823149696
 20
13.42714128914761
 10
32.67270640164193
 20
13.43794481541809
 10
32.6604288559799
 20
13.44874155971285
 10
32.64814560081023
 20
13.45953151740437
 10
32.63585664232354
 20
13.47031468397533
 10
32.62356198660068
 20
13.48109105501893
 10
32.6112616396119
 20
13.49186062623917
 10
32.59895560721592
 20
13.50262339345113
 10
32.58664389515902
 20
13.51337935258127
 10
32.57432650907409
 20
13.52412849966773
 10
32.56200345447985
 20
13.5348708308606
 10
32.54967473677978
 20
13.54560634242223
 10
32.53734036126132
 20
13.55633503072751
 10
32.52500033309493
 20
13.56705689226416
 10
32.51265465733317
 20
13.57777192363302
 10
32.5003033389098
 20
13.58848012154837
 10
32.48794638263893
 20
13.59918148283816
 10
32.47558379321395
 20
13.60987600444435
 10
32.46321557520684
 20
13.6205636834232
 10
32.4508417330671
 20
13.63124451694552
 10
32.43846227112089
 20
13.641918502297
 10
32.42607719357013
 20
13.65258563687851
 10
32.41368650449161
 20
13.66324591820632
 10
32.40129020783604
 20
13.67389934391249
 10
32.38888830742714
 20
13.68454591174508
 10
32.3764808069608
 20
13.69518561956848
 10
32.36406771000411
 20
13.70581846536368
 10
32.35164901999444
 20
13.7164444472286
 10
32.3392247402386
 20
13.72706356337832
 10
32.32679487391186
 20
13.73767581214542
 10
32.31435942405708
 20
13.74828119198024
 10
32.30191839358381
 20
13.75887970145122
 10
32.28947178526735
 20
13.76947133924512
 10
32.27701960174787
 20
13.78005610416735
 10
32.2645618455295
 20
13.79063399514226
 10
32.25209851897938
 20
13.80120501121344
 10
32.23962962432683
 20
13.81176915154398
 10
32.22715516366233
 20
13.82232641541679
 10
32.21467513893677
 20
13.83287680223487
 10
32.20218955196038
 20
13.84342031152163
 10
32.18969840440192
 20
13.85395694292111
 10
32.17720169778775
 20
13.86448669619839
 10
32.1646994335009
 20
13.87500957123976
 10
32.15219161278017
 20
13.88552556805307
 10
32.13967823671928
 20
13.89603468676804
 10
32.12715930626586
 20
13.90653692763649
 10
32.11463482222062
 20
13.91703229103269
 10
32.10210478523642
 20
13.9275207774536
 10
32.08956919581734
 20
13.9380023875192
 10
32.0770280543178
 20
13.94847712197277
 10
32.06448136094165
 20
13.95894498168117
 10
32.05192911574125
 20
13.96940596763513
 10
32.03937131861657
 20
13.97986008094957
 10
32.02680796931427
 20
13.99030732286383
 10
32.01423906742677
 20
14.00074769474205
 10
32.00166461239147
 20
14.01118119807336
 10
31.98908460348963
 20
14.02160783447226
 10
31.97649903984565
 20
14.03202760567884
 10
31.96390792042606
 20
14.04244051355911
 10
31.95131124403865
 20
14.05284656010531
 10
31.93870900933154
 20
14.06324574743614
 10
31.9261012147923
 20
14.07363807779708
 10
31.91348785874702
 20
14.08402355356072
 10
31.9008689393594
 20
14.09440217722697
 10
31.88824445462986
 20
14.10477395142343
 10
31.87561440239461
 20
14.11513887890564
 10
31.86297878032477
 20
14.12549696255736
 10
31.85033758592545
 20
14.13584820539088
 10
31.83769081653481
 20
14.14619261054734
 10
31.8250384693232
 20
14.15653018129694
 10
31.81238054129223
 20
14.16686092103932
 10
31.79971702927386
 20
14.17718483330379
 10
31.78704792992951
 20
14.18750192174963
 10
31.77437323974911
 20
14.19781219016642
 10
31.76169295505024
 20
14.20811564247428
 10
31.7490070719772
 20
14.21841228272418
 10
31.73631558650011
 20
14.22870211509826
 10
31.72361849441397
 20
14.23898514391007
 10
31.7109157913378
 20
14.24926137360488
 10
31.6982074727137
 20
14.25953080875999
 10
31.68549353380596
 20
14.269793454085
 10
31.67277396970014
 20
14.2800493144221
 10
31.66004877530217
 20
14.29029839474639
 10
31.64731794533742
 20
14.30054070016611
 10
31.63458147434981
 20
14.31077623592299
 10
31.62183935670094
 20
14.32100500739254
 10
31.6090915865691
 20
14.33122702008427
 10
31.59633815794841
 20
14.34144227964207
 10
31.58357906464793
 20
14.35165079184444
 10
31.57081184991725
 20
14.36185450633548
 10
31.55801253937327
 20
14.37207244316702
 10
31.54520585836542
 20
14.38228499389579
 10
31.53247357388578
 20
14.39242728649778
 10
31.51988737609679
 20
14.40244240238645
 10
31.50739675023224
 20
14.41237033719601
 10
31.49474363490595
 20
14.42241579371638
 10
31.48184087347559
 20
14.43264777222423
 10
31.46876615047163
 20
14.44300438296385
 10
31.45562468787219
 20
14.45340184909112
 10
31.44239210709943
 20
14.46385905867564
 10
31.42897570160658
 20
14.47444903020341
 10
31.4153752283944
 20
14.48517175052093
 10
31.40164523794605
 20
14.49598395745989
 10
31.3878417934923
 20
14.506841260862
 10
31.3739940353788
 20
14.51772062888963
 10
31.36011923522733
 20
14.52860845360154
 10
31.34622733132897
 20
14.5394969233036
 10
31.33232046908279
 20
14.5503843559102
 10
31.31839416530513
 20
14.56127425772996
 10
31.30444153745525
 20
14.57217194847752
 10
31.29046364539727
 20
14.58307657702915
 10
31.27650091338888
 20
14.59395686212103
 10
31.26266787079611
 20
14.60472425237788
 10
31.24913885133894
 20
14.61524384305322
 10
31.23595189011364
 20
14.62548613796242
 10
31.22297869504115
 20
14.63555053517232
 10
31.21003616134976
 20
14.64557892728618
 10
31.19698952054341
 20
14.65567578384855
 10
31.18373096616614
 20
14.66592485297917
 10
31.17023827769037
 20
14.67634350099983
 10
31.156592570141
 20
14.68686885495507
 10
31.14291671043396
 20
14.69740560317171
 10
31.12930519101849
 20
14.70788048017425
 10
31.11578908589403
 20
14.71826963747315
 10
31.1023889408474
 20
14.72855749368107
 10
31.08911810301842
 20
14.73873405846676
 10
31.07597433713474
 20
14.74880136526503
 10
31.06292527542517
 20
14.75878453946617
 10
31.04992892788623
 20
14.76871607433264
 10
31.03695356768688
 20
14.77862054429573
 10
31.02396682694862
 20
14.78852271426165
 10
31.01092329734565
 20
14.79845682819997
 10
30.99777125824727
 20
14.80846186007206
 10
30.98449118030095
 20
14.81855257411682
 10
30.97109688778563
 20
14.82871855169446
 10
30.95762476977999
 20
14.83893231119266
 10
30.94412338447676
 20
14.84915713794423
 10
30.93064602249182
 20
14.85935269757009
 10
30.91724322690752
 20
14.86948070004461
 10
30.90395349392499
 20
14.87951196454392
 10
30.89079330086827
 20
14.8894339981112
 10
30.87774066234248
 20
14.89926350662294
 10
30.86475080297053
 20
14.90903452641173
 10
30.85178383743931
 20
14.91877739396526
 10
30.8388167701
 20
14.92850961458116
 10
30.82585080593078
 20
14.9382302951461
 10
30.81288967476475
 20
14.94793661727773
 10
30.79993295592098
 20
14.95762891363563
 10
30.78698009826503
 20
14.96730761245593
 10
30.77403044190161
 20
14.97697322120282
 10
30.76108323003513
 20
14.98662631769442
 10
30.74813762083027
 20
14.99626754122857
 10
30.73519269927246
 20
15.00589758370862
 10
30.72224748902848
 20
15.01551718076929
 10
30.709300964307
 20
15.02512710290246
 10
30.69635206171906
 20
15.03472814658298
 10
30.68339969213866
 20
15.04432112539449
 10
30.67044275256334
 20
15.05390686115525
 10
30.6574801379746
 20
15.06348617504393
 10
30.64451075319858
 20
15.07305987872545
 10
30.63153352476648
 20
15.08262876547679
 10
30.61854741277521
 20
15.09219360131277
 10
30.60555142274785
 20
15.10175511611192
 10
30.59254463346479
 20
15.11131398315683
 10
30.57952634006874
 20
15.12087071442763
 10
30.56649450313495
 20
15.13042678374655
 10
30.55344911588623
 20
15.13998218845011
 10
30.54040016027562
 20
15.14952968560907
 10
30.52737374308181
 20
15.15905034585346
 10
30.514392693359
 20
15.16852760509073
 10
30.50146032644918
 20
15.17795903820978
 10
30.48856619249995
 20
15.18735220660596
 10
30.4756902922967
 20
15.19672161183033
 10
30.46292389947479
 20
15.20600138663692
 10
30.45056596823866
 20
15.21497566983496
 10
30.43872268963285
 20
15.22356800397344
 10
30.42730068528071
 20
15.231846201702
 10
30.41607731734824
 20
15.23997147797623
 10
30.40477099850812
 20
15.24814758226296
 10
30.39311150190361
 20
15.25656993074549
 10
30.38091027111252
 20
15.26537473852893
 10
30.36813073011111
 20
15.27458815184546
 10
30.35495847990165
 20
15.28407546236407
 10
30.34171383287216
 20
15.29360452357877
 10
30.32846055475215
 20
15.30312912832727
 10
30.31519912669164
 20
15.31264892239708
 10
30.30193010455839
 20
15.32216349864123
 10
30.28865407666327
 20
15.33167242755178
 10
30.27537162148578
 20
15.34117528783336
 10
30.26208326539949
 20
15.35067169697673
 10
30.24878944039751
 20
15.36016134183229
 10
30.2354904418179
 20
15.36964400918362
 10
30.22218639019707
 20
15.37911961319085
 10
30.20887727835139
 20
15.38858816033234
 10
30.19556308431126
 20
15.39804966763284
 10
30.18224378958733
 20
15.40750414964597
 10
30.16891937901857
 20
15.41695161856422
 10
30.15558984061195
 20
15.42639208433454
 10
30.14225516538224
 20
15.43582555477394
 10
30.12891534719171
 20
15.44525203568508
 10
30.11557038258988
 20
15.45467153097184
 10
30.10222027065324
 20
15.46408404275494
 10
30.08886501282501
 20
15.4734895714875
 10
30.07550461275485
 20
15.48288811607064
 10
30.06213907613862
 20
15.4922796739691
 10
30.04876841055811
 20
15.50166424132677
 10
30.03539262532076
 20
15.51104181308234
 10
30.02201173129943
 20
15.52041238308485
 10
30.00862574077206
 20
15.5297759442093
 10
29.99523466726154
 20
15.53913248847223
 10
29.98183852537533
 20
15.54848200714732
 10
29.96843733064521
 20
15.55782449088096
 10
29.95503109936707
 20
15.56715992980788
 10
29.94161984844062
 20
15.57648831366668
 10
29.92820359520912
 20
15.58580963191549
 10
29.91478235729909
 20
15.59512387384749
 10
29.90135615246011
 20
15.60443102870656
 10
29.8879249984045
 20
15.61373108580283
 10
29.8744889126471
 20
15.62302403462829
 10
29.86104791234497
 20
15.63230986497236
 10
29.84760201413714
 20
15.64158856703753
 10
29.83415123398433
 20
15.65086013155487
 10
29.82069558700875
 20
15.6601245498997
 10
29.80723508733375
 20
15.66938181420711
 10
29.7937697479236
 20
15.67863191748762
 10
29.78029958042324
 20
15.68787485374271
 10
29.76682459499798
 20
15.69711061808044
 10
29.75334480017327
 20
15.70633920683104
 10
29.73986020267439
 20
15.71556061766249
 10
29.72637080833689
 20
15.72477484890368
 10
29.71287662710957
 20
15.73398189585722
 10
29.69937767085977
 20
15.74318175245859
 10
29.6858739518732
 20
15.75237441238934
 10
29.67236548278904
 20
15.76155986912121
 10
29.65885227653567
 20
15.77073811595988
 10
29.64533434626635
 20
15.77990914608865
 10
29.63181170529497
 20
15.78907295261215
 10
29.61828436703174
 20
15.79822952860008
 10
29.60475234491893
 20
15.80737886713085
 10
29.59121565236653
 20
15.81652096133534
 10
29.57767430268808
 20
15.82565580444058
 10
29.56412830903623
 20
15.83478338981351
 10
29.55057768433858
 20
15.84390371100458
 10
29.53702244123336
 20
15.85301676179156
 10
29.52346259200506
 20
15.86212253622319
 10
29.50989814852032
 20
15.87122102866291
 10
29.49632912216349
 20
15.88031223383255
 10
29.4827555237724
 20
15.88939614685606
 10
29.46917736357407
 20
15.89847276330318
 10
29.45559465112045
 20
15.90754207923318
 10
29.44200739522411
 20
15.91660409123856
 10
29.42841560389394
 20
15.92565879648875
 10
29.4148192842709
 20
15.93470619277379
  0
LWPOLYLINE
  5
298F3
330
1F
100
AcDbEntity
  8
NOCUT
100
AcDbPolyline
 90
        9
 70
     1
 43
0.0
 10
36.50073899999997
 20
8.089375000000002
 10
28.27040599999998
 20
15.5
 10
22.62104299999999
 20
15.5
 10
19.87356599999998
 20
14.5
 10
0.0
 20
14.5
 10
0.0
 20
0.0
 10
36.59999999999999
 20
0.0
 10
36.59999999999999
 20
7.866430999999997
 42
0.2125565616700229
 10
36.50073918190764
 20
8.089374447643223
  0
MTEXT
  5
2998C
330
1F
100
AcDbEntity
  8
SK6
100
AcDbMText
 10
-24.26562640822772
 20
-30.63814841538694
 30
0.0
 40
3.5
 41
49.98568165846803
 71
     1
 72
     1
  1
12N8G032043X8R00
  7
MM_STANDARD
 73
     1
 44
1.0
1001
ACAD
1000
MTEXTBEGIN
1070
    73
1070
     1
1070
    44
1040
1.0
1070
    74
1070
     0
1000
MTEXTEND
  0
ENDSEC
  0
SECTION
  2
OBJECTS
  0
DICTIONARY
  5
C
330
0
100
AcDbDictionary
281
     1
  3
ACAD_2007HEADERVARS_RT
350
29991
  3
ACAD_CIP_PREVIOUS_PRODUCT_INFO
350
741
  3
ACAD_COLOR
350
6C
  3
ACAD_DETAILVIEWSTYLE
350
8E4
  3
ACAD_GROUP
350
D
  3
ACAD_IMAGE_VARS
350
959
  3
ACAD_LAYOUT
350
1A
  3
ACAD_MATERIAL
350
6B
  3
ACAD_MLEADERSTYLE
350
43C
  3
ACAD_MLINESTYLE
350
17
  3
ACAD_PLOTSETTINGS
350
19
  3
ACAD_PLOTSTYLENAME
350
E
  3
ACAD_SCALELIST
350
99
  3
ACAD_SECTIONVIEWSTYLE
350
8E2
  3
ACAD_TABLESTYLE
350
92
  3
ACAD_VISUALSTYLE
350
3F2
  3
ACDB_RECOMPOSE_DATA
350
2998F
  3
ACDBHEADERROUNDTRIPXREC
350
29894
  3
AcDbVariableDictionary
350
59
  3
ACMDICTIONARY
350
76D
  3
AEC_PROPERTY_SET_DEFS
350
5CF
  3
AMG
350
743
  3
AMGSNAPSETTINGS
350
7F6
  3
APPDATA
350
958
  3
ASE_INDEX_DICTIONARY
350
8C6
  3
DWGPROPS
350
29990
  0
DICTIONARY
  5
2985D
330
2
100
AcDbDictionary
280
     1
281
     1
  3
ACAD_LAYERFILTERS
360
6C6
  3
ACAD_LAYERSTATES
360
17C7
  3
ACLYDICTIONARY
360
6C5
  0
DICTIONARY
  5
29854
330
10
100
AcDbDictionary
280
     1
281
     1
  3
ADSK_XREC_LAYER_RECONCILED
360
904
  0
DICTIONARY
  5
29855
330
23
100
AcDbDictionary
280
     1
281
     1
  3
ADSK_XREC_LAYER_RECONCILED
360
905
  0
DICTIONARY
  5
29856
330
25
100
AcDbDictionary
280
     1
281
     1
  3
ADSK_XREC_LAYER_RECONCILED
360
907
  0
DICTIONARY
  5
29857
330
173A
100
AcDbDictionary
280
     1
281
     1
  3
ADSK_XREC_LAYER_RECONCILED
360
908
  0
DICTIONARY
  5
29858
330
2A
100
AcDbDictionary
280
     1
281
     1
  3
ADSK_XREC_LAYER_RECONCILED
360
90B
  0
DICTIONARY
  5
29859
330
2E
100
AcDbDictionary
280
     1
281
     1
  3
ADSK_XREC_LAYER_RECONCILED
360
90E
  0
DICTIONARY
  5
2985A
330
375
100
AcDbDictionary
280
     1
281
     1
  3
ADSK_XREC_LAYER_RECONCILED
360
90F
  0
DICTIONARY
  5
2985B
330
376
100
AcDbDictionary
280
     1
281
     1
  3
ADSK_XREC_LAYER_RECONCILED
360
910
  0
DICTIONARY
  5
2985C
330
49B
100
AcDbDictionary
280
     1
281
     1
  3
ADSK_XREC_LAYER_RECONCILED
360
918
  0
DICTIONARY
  5
29891
330
1F
100
AcDbDictionary
280
     1
281
     1
  3
ACAD_SORTENTS
360
29892
  0
DICTIONARY
  5
29991
102
{ACAD_REACTORS
330
C
102
}
330
C
100
AcDbDictionary
281
     1
  3
DIMARCSYM
350
29992
  3
DIMLTEX1
350
29994
  3
DIMLTEX2
350
29995
  3
DIMLTYPE
350
29993
  0
XRECORD
  5
741
102
{ACAD_REACTORS
330
C
102
}
330
C
100
AcDbXrecord
280
     1
300
ACDLT
300
2015
300
ACDLT_F_S
  0
DICTIONARY
  5
6C
102
{ACAD_REACTORS
330
C
102
}
330
C
100
AcDbDictionary
281
     1
  0
DICTIONARY
  5
8E4
102
{ACAD_REACTORS
330
C
102
}
330
C
100
AcDbDictionary
281
     1
  3
Metric50
350
298D0
  0
DICTIONARY
  5
D
102
{ACAD_REACTORS
330
C
102
}
330
C
100
AcDbDictionary
281
     1
  0
RASTERVARIABLES
  5
959
102
{ACAD_REACTORS
330
C
102
}
330
C
100
AcDbRasterVariables
 90
        0
 70
     1
 71
     1
 72
     1
  0
DICTIONARY
  5
1A
102
{ACAD_REACTORS
330
C
102
}
330
C
100
AcDbDictionary
281
     1
  3
Layout1
350
74
  3
Model
350
22
  0
DICTIONARY
  5
6B
102
{ACAD_REACTORS
330
C
102
}
330
C
100
AcDbDictionary
281
     1
  3
ByBlock
350
298A5
  3
ByLayer
350
2989D
  3
Global
350
298AD
  0
DICTIONARY
  5
43C
102
{ACAD_REACTORS
330
C
102
}
330
C
100
AcDbDictionary
281
     1
  3
Standard
350
298CE
  0
DICTIONARY
  5
17
102
{ACAD_REACTORS
330
C
102
}
330
C
100
AcDbDictionary
281
     1
  3
Standard
350
18
  0
DICTIONARY
  5
19
102
{ACAD_REACTORS
330
C
102
}
330
C
100
AcDbDictionary
281
     1
  0
ACDBDICTIONARYWDFLT
  5
E
102
{ACAD_REACTORS
330
C
102
}
330
C
100
AcDbDictionary
281
     1
  3
Normal
350
F
100
AcDbDictionaryWithDefault
340
F
  0
DICTIONARY
  5
99
102
{ACAD_REACTORS
330
C
102
}
330
C
100
AcDbDictionary
281
     1
  3
A0
350
9A
  3
A1
350
9B
  3
A2
350
9C
  3
A3
350
9D
  3
A4
350
9E
  3
A5
350
9F
  3
A6
350
A0
  3
A7
350
A1
  3
A8
350
A2
  3
A9
350
A3
  3
B0
350
A4
  3
B1
350
A5
  3
B2
350
A6
  3
B3
350
A7
  3
B4
350
A8
  3
B5
350
A9
  3
B6
350
AA
  3
B7
350
AB
  3
B8
350
AC
  3
B9
350
AD
  3
C0
350
AE
  3
C1
350
AF
  3
C2
350
B0
  3
C3
350
B1
  3
C4
350
B2
  3
C5
350
B3
  3
C6
350
B4
  3
C7
350
B5
  3
C8
350
B6
  3
C9
350
B7
  3
D0
350
B8
  3
D1
350
B9
  3
D2
350
BA
  0
DICTIONARY
  5
8E2
102
{ACAD_REACTORS
330
C
102
}
330
C
100
AcDbDictionary
281
     1
  3
Metric50
350
298CF
  0
DICTIONARY
  5
92
102
{ACAD_REACTORS
330
C
102
}
330
C
100
AcDbDictionary
281
     1
  3
Standard
350
298CD
  0
DICTIONARY
  5
3F2
102
{ACAD_REACTORS
330
C
102
}
330
C
100
AcDbDictionary
281
     1
  3
2dWireframe
350
298BA
  3
Basic
350
298B9
  3
Brighten
350
298C0
  3
ColorChange
350
298C4
  3
Conceptual
350
298BD
  3
Dim
350
298BF
  3
EdgeColorOff
350
298CC
  3
Facepattern
350
298C3
  3
Flat
350
298B5
  3
FlatWithEdges
350
298B6
  3
Gouraud
350
298B7
  3
GouraudWithEdges
350
298B8
  3
Hidden
350
298BC
  3
JitterOff
350
298CA
  3
Linepattern
350
298C2
  3
OverhangOff
350
298CB
  3
Realistic
350
298BE
  3
Shaded
350
298C9
  3
Shaded with edges
350
298C8
  3
Shades of Gray
350
298C5
  3
Sketchy
350
298C6
  3
Thicken
350
298C1
  3
Wireframe
350
298BB
  3
X-Ray
350
298C7
  0
XRECORD
  5
2998F
102
{ACAD_REACTORS
330
C
102
}
330
C
100
AcDbXrecord
280
     1
 90
        1
330
298CD
  0
DICTIONARY
  5
29894
102
{ACAD_REACTORS
330
C
102
}
330
C
100
AcDbDictionary
281
     1
  3
COLORDICT
350
29895
  3
MATERIALDICT
350
29896
  0
DICTIONARY
  5
59
102
{ACAD_REACTORS
330
C
102
}
330
C
100
AcDbDictionary
281
     1
  3
CANNOSCALE
350
29893
  3
CMLEADERSTYLE
350
298FB
  3
CTABLESTYLE
350
98
  3
CVIEWDETAILSTYLE
350
8FB
  3
CVIEWSECTIONSTYLE
350
8FC
  3
DIMASSOC
350
359
  3
HALOGAP
350
AF7
  3
HIDETEXT
350
358
  3
INDEXCTL
350
9BE
  3
LAYEREVAL
350
7AE
  3
LAYERNOTIFY
350
7AF
  3
LIGHTINGUNITS
350
44A
  3
MSLTSCALE
350
448
  3
SORTENTS
350
9BD
  3
XCLIPFRAME
350
2998D
  0
DICTIONARY
  5
76D
102
{ACAD_REACTORS
330
C
102
}
330
C
100
AcDbDictionary
281
     1
  3
ACMSTDDICTIONARY
350
76F
  0
DICTIONARY
  5
5CF
102
{ACAD_REACTORS
330
C
102
}
330
C
100
AcDbDictionary
281
     1
  0
DICTIONARY
  5
743
102
{ACAD_REACTORS
330
C
102
}
330
C
100
AcDbDictionary
281
     1
  3
ACMGSETTINGS
350
744
  0
DICTIONARY
  5
7F6
102
{ACAD_REACTORS
330
C
102
}
330
C
100
AcDbDictionary
281
     1
  0
DICTIONARY
  5
958
102
{ACAD_REACTORS
330
C
102
}
330
C
100
AcDbDictionary
281
     1
  0
DICTIONARY
  5
8C6
102
{ACAD_REACTORS
330
C
102
}
330
C
100
AcDbDictionary
281
     1
  3
ASEBLOCKHIERARCHYINDEXRECORD
350
8C7
  0
XRECORD
  5
29990
102
{ACAD_REACTORS
330
C
102
}
330
C
100
AcDbXrecord
280
     1
  1
DWGPROPS COOKIE
  2

  3

  4

  6

  7

  8
ruebsamenm
  9

300
=
301
=
302
=
303
=
304
=
305
=
306
=
307
=
308
=
309
=
 40
4096.701596006944
 41
2453353.800459155
 42
2460185.65438081
  1

 90
        0
  0
DICTIONARY
  5
6C6
102
{ACAD_REACTORS
330
2985D
102
}
330
2985D
100
AcDbDictionary
281
     1
  0
DICTIONARY
  5
17C7
102
{ACAD_REACTORS
330
2985D
102
}
330
2985D
100
AcDbDictionary
281
     1
  0
DICTIONARY
  5
6C5
102
{ACAD_REACTORS
330
2985D
102
}
330
2985D
100
AcDbDictionary
281
     1
  0
XRECORD
  5
904
102
{ACAD_REACTORS
330
29854
102
}
330
29854
100
AcDbXrecord
280
     1
290
     1
  0
XRECORD
  5
905
102
{ACAD_REACTORS
330
29855
102
}
330
29855
100
AcDbXrecord
280
     1
290
     1
  0
XRECORD
  5
907
102
{ACAD_REACTORS
330
29856
102
}
330
29856
100
AcDbXrecord
280
     1
290
     1
  0
XRECORD
  5
908
102
{ACAD_REACTORS
330
29857
102
}
330
29857
100
AcDbXrecord
280
     1
290
     1
  0
XRECORD
  5
90B
102
{ACAD_REACTORS
330
29858
102
}
330
29858
100
AcDbXrecord
280
     1
290
     1
  0
XRECORD
  5
90E
102
{ACAD_REACTORS
330
29859
102
}
330
29859
100
AcDbXrecord
280
     1
290
     1
  0
XRECORD
  5
90F
102
{ACAD_REACTORS
330
2985A
102
}
330
2985A
100
AcDbXrecord
280
     1
290
     1
  0
XRECORD
  5
910
102
{ACAD_REACTORS
330
2985B
102
}
330
2985B
100
AcDbXrecord
280
     1
290
     1
  0
XRECORD
  5
918
102
{ACAD_REACTORS
330
2985C
102
}
330
2985C
100
AcDbXrecord
280
     1
290
     1
  0
SORTENTSTABLE
  5
29892
102
{ACAD_REACTORS
330
29891
102
}
330
29891
100
AcDbSortentsTable
330
1F
331
D89C
  5
E328
331
E6D6
  5
CB29
331
D8A3
  5
E32B
331
1D6D5
  5
1D6E2
331
12895
  5
12C8B
331
E438
  5
C652
331
CA16
  5
DAF5
331
12A19
  5
1289D
331
12C16
  5
12BA1
331
DCBF
  5
E537
331
1DA40
  5
1D6D5
331
C2E1
  5
C36E
331
12B40
  5
12AA7
331
1C54F
  5
1C6B9
331
DECF
  5
E6D2
331
C36E
  5
C85B
331
1C3A1
  5
1C851
331
1C476
  5
1C6C7
331
E537
  5
C182
331
1C1E8
  5
1C7C7
331
C2E4
  5
C377
331
C930
  5
D590
331
12AAA
  5
12A1D
331
E20E
  5
C42D
331
1299A
  5
12895
331
E6D2
  5
CB25
331
298F3
  5
2910E
331
12C8B
  5
12C16
331
12AA6
  5
12A19
331
12C92
  5
12C17
331
E441
  5
C65C
331
CA12
  5
DAF2
331
DCBB
  5
E533
331
1299D
  5
1289C
331
E328
  5
C533
331
C79F
  5
CC4B
331
12BA1
  5
12B2B
331
1C632
  5
1C1E5
331
E533
  5
C178
331
1D920
  5
1DA40
331
1C54E
  5
1C640
331
E32B
  5
C536
331
CC50
  5
E105
331
C7A3
  5
CC4F
331
1C851
  5
1C632
331
12B2B
  5
12AA6
331
1C484
  5
1C740
331
1C740
  5
1C476
331
1C640
  5
1C1E8
331
1D6E2
  5
1D913
331
C377
  5
C863
331
12BB6
  5
12B41
331
C65C
  5
CA17
331
CC4F
  5
E102
331
C533
  5
C935
331
C652
  5
CA16
331
1289D
  5
12C93
331
C255
  5
C2E1
331
E217
  5
C437
331
1C6C7
  5
1C3A1
331
C935
  5
D8A3
331
DED7
  5
E6D6
331
C536
  5
CA12
331
1C74E
  5
1C484
331
D590
  5
E217
331
C42D
  5
C930
331
C258
  5
C2E4
331
12C2B
  5
12BB6
331
C863
  5
D588
331
298EB
  5
29799
331
CA17
  5
DCBB
331
12A1A
  5
1299A
331
1C850
  5
1C54F
331
12C17
  5
12BB5
331
C437
  5
C934
331
1C393
  5
1C850
331
CC4B
  5
DED7
331
12B41
  5
12AAA
331
C182
  5
C258
331
12BB5
  5
12B40
331
CB29
  5
DECF
331
12A1D
  5
1299D
331
C178
  5
C255
331
E102
  5
C79F
331
DAF2
  5
E438
331
1289C
  5
12C92
331
1C6B9
  5
1C393
331
1C1E5
  5
1C74E
331
CB25
  5
DCBF
331
1D913
  5
1D920
331
1C7C7
  5
1C54E
331
C934
  5
D89C
331
12AA7
  5
12A1A
331
E105
  5
C7A3
331
12C93
  5
12C2B
331
DAF5
  5
E441
331
D588
  5
E20E
331
C85B
  5
CC50
  0
XRECORD
  5
29992
102
{ACAD_REACTORS
330
29991
102
}
330
29991
100
AcDbXrecord
280
     1
 70
     1
  0
XRECORD
  5
29994
102
{ACAD_REACTORS
330
29991
102
}
330
29991
100
AcDbXrecord
280
     1
340
14
  0
XRECORD
  5
29995
102
{ACAD_REACTORS
330
29991
102
}
330
29991
100
AcDbXrecord
280
     1
340
14
  0
XRECORD
  5
29993
102
{ACAD_REACTORS
330
29991
102
}
330
29991
100
AcDbXrecord
280
     1
340
14
  0
ACDBDETAILVIEWSTYLE
  5
298D0
102
{ACAD_XDICTIONARY
360
299CD
102
}
102
{ACAD_REACTORS
330
8E4
102
}
330
8E4
100
AcDbModelDocViewStyle
 70
     0
  3
Metric50
290
     0
100
AcDbDetailViewStyle
 70
     0
 71
     0
 90
        3
 71
     1
340
11
 40
5.0
340
0
 40
5.0
300

 40
0.0
280
     1
 71
     2
340
16
 90
       25
 71
     3
340
11
 40
5.0
 90
        0
 40
15.0
 90
        1
300
%<\AcVar ViewDetailId>% (%<\AcVar ViewScale \f "%sn">%)
 71
     4
340
16
 90
       25
340
16
 90
       25
280
     0
  0
LAYOUT
  5
74
102
{ACAD_XDICTIONARY
360
29998
102
}
102
{ACAD_REACTORS
330
1A
102
}
330
1A
100
AcDbPlotSettings
  1

  2
\\ADSCCNDC1\hq601xrx1
  4

  6

 40
0.0
 41
0.0
 42
0.0
 43
0.0
 44
0.0
 45
0.0
 46
0.0
 47
0.0
 48
0.0
 49
0.0
140
0.0
141
0.0
142
1.0
143
1.0
 70
   688
 72
     0
 73
     0
 74
     5
  7
monochrome.ctb
 75
    16
147
1.0
148
0.0
149
0.0
100
AcDbLayout
  1
Layout1
 70
     1
 71
     1
 10
0.0
 20
0.0
 11
12.0
 21
9.0
 12
0.0
 22
0.0
 32
0.0
 14
0.0
 24
0.0
 34
0.0
 15
0.0
 25
0.0
 35
0.0
146
0.0
 13
0.0
 23
0.0
 33
0.0
 16
1.0
 26
0.0
 36
0.0
 17
0.0
 27
1.0
 37
0.0
 76
     0
330
73
  0
LAYOUT
  5
22
102
{ACAD_XDICTIONARY
360
29996
102
}
102
{ACAD_REACTORS
330
1A
102
}
330
1A
100
AcDbPlotSettings
  1

  2
DWG To PDF.pc3
  4
ISO_expand_A0_(841.00_x_1189.00_MM)
  6

 40
5.793749809265137
 41
5.79376220703125
 42
10.79374980926514
 43
10.793701171875
 44
841.0
 45
1189.0
 46
0.0
 47
277.0515806674957
 48
0.0
 49
0.0
140
0.0
141
0.0
142
1.0
143
0.0145558200469394
 70
 11956
 72
     1
 73
     0
 74
     1
  7
monochrome.ctb
 75
     0
147
68.70104169845581
148
70.55856307424345
149
1453.505808791571
100
AcDbLayout
  1
Model
 70
     1
 71
     0
 10
-170.0
 20
-170.0
 11
519.0
 21
260.0
 12
0.0
 22
0.0
 32
0.0
 14
-69.26824269385493
 24
-49.03831724204868
 34
0.0
 15
77.01616800993718
 25
59.06370970103188
 35
0.0
146
0.0
 13
0.0
 23
0.0
 33
0.0
 16
1.0
 26
0.0
 36
0.0
 17
0.0
 27
1.0
 37
0.0
 76
     0
330
1F
331
97
  0
MATERIAL
  5
298A5
102
{ACAD_XDICTIONARY
360
298A6
102
}
102
{ACAD_REACTORS
330
6B
102
}
330
6B
100
AcDbMaterial
  1
ByBlock
 72
     0
 43
0.0008202099737533
 43
0.0
 43
0.0
 43
0.0
 43
0.0
 43
0.0008202099737533
 43
0.0
 43
0.0
 43
0.0
 43
0.0
 43
1.0
 43
0.0
 43
0.0
 43
0.0
 43
0.0
 43
1.0
 77
     0
 47
0.0008202099737533
 47
0.0
 47
0.0
 47
0.0
 47
0.0
 47
0.0008202099737533
 47
0.0
 47
0.0
 47
0.0
 47
0.0
 47
1.0
 47
0.0
 47
0.0
 47
0.0
 47
0.0
 47
1.0
171
     0
 49
0.0008202099737533
 49
0.0
 49
0.0
 49
0.0
 49
0.0
 49
0.0008202099737533
 49
0.0
 49
0.0
 49
0.0
 49
0.0
 49
1.0
 49
0.0
 49
0.0
 49
0.0
 49
0.0
 49
1.0
175
     0
142
0.0008202099737533
142
0.0
142
0.0
142
0.0
142
0.0
142
0.0008202099737533
142
0.0
142
0.0
142
0.0
142
0.0
142
1.0
142
0.0
142
0.0
142
0.0
142
0.0
142
1.0
179
     0
144
0.0008202099737533
144
0.0
144
0.0
144
0.0
144
0.0
144
0.0008202099737533
144
0.0
144
0.0
144
0.0
144
0.0
144
1.0
144
0.0
144
0.0
144
0.0
144
0.0
144
1.0
147
0.0008202099737533
147
0.0
147
0.0
147
0.0
147
0.0
147
0.0008202099737533
147
0.0
147
0.0
147
0.0
147
0.0
147
1.0
147
0.0
147
0.0
147
0.0
147
0.0
147
1.0
  0
MATERIAL
  5
2989D
102
{ACAD_XDICTIONARY
360
2989E
102
}
102
{ACAD_REACTORS
330
6B
102
}
330
6B
100
AcDbMaterial
  1
ByLayer
 72
     0
 43
0.0008202099737533
 43
0.0
 43
0.0
 43
0.0
 43
0.0
 43
0.0008202099737533
 43
0.0
 43
0.0
 43
0.0
 43
0.0
 43
1.0
 43
0.0
 43
0.0
 43
0.0
 43
0.0
 43
1.0
 77
     0
 47
0.0008202099737533
 47
0.0
 47
0.0
 47
0.0
 47
0.0
 47
0.0008202099737533
 47
0.0
 47
0.0
 47
0.0
 47
0.0
 47
1.0
 47
0.0
 47
0.0
 47
0.0
 47
0.0
 47
1.0
171
     0
 49
0.0008202099737533
 49
0.0
 49
0.0
 49
0.0
 49
0.0
 49
0.0008202099737533
 49
0.0
 49
0.0
 49
0.0
 49
0.0
 49
1.0
 49
0.0
 49
0.0
 49
0.0
 49
0.0
 49
1.0
175
     0
142
0.0008202099737533
142
0.0
142
0.0
142
0.0
142
0.0
142
0.0008202099737533
142
0.0
142
0.0
142
0.0
142
0.0
142
1.0
142
0.0
142
0.0
142
0.0
142
0.0
142
1.0
179
     0
144
0.0008202099737533
144
0.0
144
0.0
144
0.0
144
0.0
144
0.0008202099737533
144
0.0
144
0.0
144
0.0
144
0.0
144
1.0
144
0.0
144
0.0
144
0.0
144
0.0
144
1.0
147
0.0008202099737533
147
0.0
147
0.0
147
0.0
147
0.0
147
0.0008202099737533
147
0.0
147
0.0
147
0.0
147
0.0
147
1.0
147
0.0
147
0.0
147
0.0
147
0.0
147
1.0
  0
MATERIAL
  5
298AD
102
{ACAD_XDICTIONARY
360
298AE
102
}
102
{ACAD_REACTORS
330
6B
102
}
330
6B
100
AcDbMaterial
  1
Global
 72
     0
 43
0.0008202099737533
 43
0.0
 43
0.0
 43
0.0
 43
0.0
 43
0.0008202099737533
 43
0.0
 43
0.0
 43
0.0
 43
0.0
 43
1.0
 43
0.0
 43
0.0
 43
0.0
 43
0.0
 43
1.0
 77
     0
 47
0.0008202099737533
 47
0.0
 47
0.0
 47
0.0
 47
0.0
 47
0.0008202099737533
 47
0.0
 47
0.0
 47
0.0
 47
0.0
 47
1.0
 47
0.0
 47
0.0
 47
0.0
 47
0.0
 47
1.0
171
     0
 49
0.0008202099737533
 49
0.0
 49
0.0
 49
0.0
 49
0.0
 49
0.0008202099737533
 49
0.0
 49
0.0
 49
0.0
 49
0.0
 49
1.0
 49
0.0
 49
0.0
 49
0.0
 49
0.0
 49
1.0
175
     0
142
0.0008202099737533
142
0.0
142
0.0
142
0.0
142
0.0
142
0.0008202099737533
142
0.0
142
0.0
142
0.0
142
0.0
142
1.0
142
0.0
142
0.0
142
0.0
142
0.0
142
1.0
179
     0
144
0.0008202099737533
144
0.0
144
0.0
144
0.0
144
0.0
144
0.0008202099737533
144
0.0
144
0.0
144
0.0
144
0.0
144
1.0
144
0.0
144
0.0
144
0.0
144
0.0
144
1.0
147
0.0008202099737533
147
0.0
147
0.0
147
0.0
147
0.0
147
0.0008202099737533
147
0.0
147
0.0
147
0.0
147
0.0
147
1.0
147
0.0
147
0.0
147
0.0
147
0.0
147
1.0
  0
MLEADERSTYLE
  5
298CE
102
{ACAD_REACTORS
330
43C
102
}
330
43C
100
AcDbMLeaderStyle
170
     2
171
     1
172
     0
 90
        2
 40
0.0
 41
0.0
173
     1
 91
-1056964608
340
14
 92
       -2
290
     1
 42
2.0
291
     1
 43
0.36
  3
Standard
 44
4.0
300

342
11
174
     1
178
     6
175
     1
176
     0
 93
-1056964608
 45
4.0
292
     0
297
     0
 46
4.0
 94
-1056964608
 47
1.0
 49
1.0
140
1.0
293
     1
141
0.0
294
     1
177
     0
142
1.0
295
     0
296
     0
143
0.125
1001
ACAD_MLEADERVER
1070
     2
  0
MLINESTYLE
  5
18
102
{ACAD_REACTORS
330
17
102
}
330
17
100
AcDbMlineStyle
  2
STANDARD
 70
     0
  3

 62
     0
 51
90.0
 52
90.0
 71
     2
 49
0.5
 62
   256
  6
BYLAYER
 49
-0.5
 62
   256
  6
BYLAYER
  0
ACDBPLACEHOLDER
  5
F
102
{ACAD_REACTORS
330
E
102
}
330
E
  0
SCALE
  5
9A
102
{ACAD_REACTORS
330
99
102
}
330
99
100
AcDbScale
 70
     0
300
1:1
140
1.0
141
1.0
290
     1
  0
SCALE
  5
9B
102
{ACAD_REACTORS
330
99
102
}
330
99
100
AcDbScale
 70
     0
300
1:2
140
1.0
141
2.0
290
     0
  0
SCALE
  5
9C
102
{ACAD_REACTORS
330
99
102
}
330
99
100
AcDbScale
 70
     0
300
1:4
140
1.0
141
4.0
290
     0
  0
SCALE
  5
9D
102
{ACAD_REACTORS
330
99
102
}
330
99
100
AcDbScale
 70
     0
300
1:5
140
1.0
141
5.0
290
     0
  0
SCALE
  5
9E
102
{ACAD_REACTORS
330
99
102
}
330
99
100
AcDbScale
 70
     0
300
1:8
140
1.0
141
8.0
290
     0
  0
SCALE
  5
9F
102
{ACAD_REACTORS
330
99
102
}
330
99
100
AcDbScale
 70
     0
300
1:10
140
1.0
141
10.0
290
     0
  0
SCALE
  5
A0
102
{ACAD_REACTORS
330
99
102
}
330
99
100
AcDbScale
 70
     0
300
1:16
140
1.0
141
16.0
290
     0
  0
SCALE
  5
A1
102
{ACAD_REACTORS
330
99
102
}
330
99
100
AcDbScale
 70
     0
300
1:20
140
1.0
141
20.0
290
     0
  0
SCALE
  5
A2
102
{ACAD_REACTORS
330
99
102
}
330
99
100
AcDbScale
 70
     0
300
1:30
140
1.0
141
30.0
290
     0
  0
SCALE
  5
A3
102
{ACAD_REACTORS
330
99
102
}
330
99
100
AcDbScale
 70
     0
300
1:40
140
1.0
141
40.0
290
     0
  0
SCALE
  5
A4
102
{ACAD_REACTORS
330
99
102
}
330
99
100
AcDbScale
 70
     0
300
1:50
140
1.0
141
50.0
290
     0
  0
SCALE
  5
A5
102
{ACAD_REACTORS
330
99
102
}
330
99
100
AcDbScale
 70
     0
300
1:100
140
1.0
141
100.0
290
     0
  0
SCALE
  5
A6
102
{ACAD_REACTORS
330
99
102
}
330
99
100
AcDbScale
 70
     0
300
2:1
140
2.0
141
1.0
290
     0
  0
SCALE
  5
A7
102
{ACAD_REACTORS
330
99
102
}
330
99
100
AcDbScale
 70
     0
300
4:1
140
4.0
141
1.0
290
     0
  0
SCALE
  5
A8
102
{ACAD_REACTORS
330
99
102
}
330
99
100
AcDbScale
 70
     0
300
8:1
140
8.0
141
1.0
290
     0
  0
SCALE
  5
A9
102
{ACAD_REACTORS
330
99
102
}
330
99
100
AcDbScale
 70
     0
300
10:1
140
10.0
141
1.0
290
     0
  0
SCALE
  5
AA
102
{ACAD_REACTORS
330
99
102
}
330
99
100
AcDbScale
 70
     0
300
100:1
140
100.0
141
1.0
290
     0
  0
SCALE
  5
AB
102
{ACAD_REACTORS
330
99
102
}
330
99
100
AcDbScale
 70
     0
300
1/128" = 1'-0"
140
0.0078125
141
12.0
290
     0
  0
SCALE
  5
AC
102
{ACAD_REACTORS
330
99
102
}
330
99
100
AcDbScale
 70
     0
300
1/64" = 1'-0"
140
0.015625
141
12.0
290
     0
  0
SCALE
  5
AD
102
{ACAD_REACTORS
330
99
102
}
330
99
100
AcDbScale
 70
     0
300
1/32" = 1'-0"
140
0.03125
141
12.0
290
     0
  0
SCALE
  5
AE
102
{ACAD_REACTORS
330
99
102
}
330
99
100
AcDbScale
 70
     0
300
1/16" = 1'-0"
140
0.0625
141
12.0
290
     0
  0
SCALE
  5
AF
102
{ACAD_REACTORS
330
99
102
}
330
99
100
AcDbScale
 70
     0
300
3/32" = 1'-0"
140
0.09375
141
12.0
290
     0
  0
SCALE
  5
B0
102
{ACAD_REACTORS
330
99
102
}
330
99
100
AcDbScale
 70
     0
300
1/8" = 1'-0"
140
0.125
141
12.0
290
     0
  0
SCALE
  5
B1
102
{ACAD_REACTORS
330
99
102
}
330
99
100
AcDbScale
 70
     0
300
3/16" = 1'-0"
140
0.1875
141
12.0
290
     0
  0
SCALE
  5
B2
102
{ACAD_REACTORS
330
99
102
}
330
99
100
AcDbScale
 70
     0
300
1/4" = 1'-0"
140
0.25
141
12.0
290
     0
  0
SCALE
  5
B3
102
{ACAD_REACTORS
330
99
102
}
330
99
100
AcDbScale
 70
     0
300
3/8" = 1'-0"
140
0.375
141
12.0
290
     0
  0
SCALE
  5
B4
102
{ACAD_REACTORS
330
99
102
}
330
99
100
AcDbScale
 70
     0
300
1/2" = 1'-0"
140
0.5
141
12.0
290
     0
  0
SCALE
  5
B5
102
{ACAD_REACTORS
330
99
102
}
330
99
100
AcDbScale
 70
     0
300
3/4" = 1'-0"
140
0.75
141
12.0
290
     0
  0
SCALE
  5
B6
102
{ACAD_REACTORS
330
99
102
}
330
99
100
AcDbScale
 70
     0
300
1" = 1'-0"
140
1.0
141
12.0
290
     0
  0
SCALE
  5
B7
102
{ACAD_REACTORS
330
99
102
}
330
99
100
AcDbScale
 70
     0
300
1-1/2" = 1'-0"
140
1.5
141
12.0
290
     0
  0
SCALE
  5
B8
102
{ACAD_REACTORS
330
99
102
}
330
99
100
AcDbScale
 70
     0
300
3" = 1'-0"
140
3.0
141
12.0
290
     0
  0
SCALE
  5
B9
102
{ACAD_REACTORS
330
99
102
}
330
99
100
AcDbScale
 70
     0
300
6" = 1'-0"
140
6.0
141
12.0
290
     0
  0
SCALE
  5
BA
102
{ACAD_REACTORS
330
99
102
}
330
99
100
AcDbScale
 70
     0
300
1'-0" = 1'-0"
140
12.0
141
12.0
290
     0
  0
ACDBSECTIONVIEWSTYLE
  5
298CF
102
{ACAD_XDICTIONARY
360
299CB
102
}
102
{ACAD_REACTORS
330
8E2
102
}
330
8E2
100
AcDbModelDocViewStyle
 70
     0
  3
Metric50
290
     0
100
AcDbSectionViewStyle
 70
     0
 71
     0
 90
      102
 71
     1
340
11
 40
5.0
340
0
340
0
 40
5.0
300
I, O, Q, S, X, Z
 40
10.0
 90
        0
 40
2.5
 90
        0
 71
     2
340
16
 90
       25
340
16
 90
       50
 40
5.0
 40
2.5
 40
5.0
 71
     3
340
11
 40
5.0
 90
        0
 40
15.0
 90
        1
300
%<\AcVar ViewSectionStartId>%-%<\AcVar ViewSectionEndId>% (%<\AcVar ViewScale \f "%sn">%)
 71
     4
300
ANSI31
 40
1.0
 90
        0
290
     0
290
     0
 90
        6
 40
0.0
 40
1.570796326794896
 40
0.2617993877991494
 40
1.308996938995747
 40
-0.2617993877991494
 40
1.832595714594045
  0
TABLESTYLE
  5
298CD
102
{ACAD_XDICTIONARY
360
29942
102
}
102
{ACAD_REACTORS
330
92
102
}
330
92
100
AcDbTableStyle
  3
Standard
 70
     0
 71
     0
 40
1.5
 41
1.5
280
     0
281
     0
  7
Standard
140
4.5
170
     2
 62
     0
 63
     7
283
     0
274
    -2
284
     1
 64
     0
275
    -2
285
     1
 65
     0
276
    -2
286
     1
 66
     0
277
    -2
287
     1
 67
     0
278
    -2
288
     1
 68
     0
279
    -2
289
     1
 69
     0
  7
Standard
140
6.0
170
     5
 62
     0
 63
     7
283
     0
274
    -2
284
     1
 64
     0
275
    -2
285
     1
 65
     0
276
    -2
286
     1
 66
     0
277
    -2
287
     1
 67
     0
278
    -2
288
     1
 68
     0
279
    -2
289
     1
 69
     0
  7
Standard
140
4.5
170
     5
 62
     0
 63
     7
283
     0
274
    -2
284
     1
 64
     0
275
    -2
285
     1
 65
     0
276
    -2
286
     1
 66
     0
277
    -2
287
     1
 67
     0
278
    -2
288
     1
 68
     0
279
    -2
289
     1
 69
     0
  0
VISUALSTYLE
  5
298BA
102
{ACAD_XDICTIONARY
360
299A4
102
}
102
{ACAD_REACTORS
330
3F2
102
}
330
3F2
100
AcDbVisualStyle
  2

 70
     4
 71
     0
 72
     2
 73
     0
 90
        0
 40
-0.6
 41
-30.0
 62
     5
 63
     7
 74
     1
 91
        4
 64
     7
 65
   257
 75
     1
175
     1
 42
1.0
 92
        0
 66
   257
 43
1.0
 76
     1
 77
     6
 78
     2
 67
     7
 79
     5
170
     0
171
     0
290
     0
174
     0
 93
        1
 44
0.0
173
     0
291
     0
 45
0.0
1001
ACAD
1000
AcDbSavedByObjectVersion
1070
     0
  0
VISUALSTYLE
  5
298B9
102
{ACAD_XDICTIONARY
360
299A2
102
}
102
{ACAD_REACTORS
330
3F2
102
}
330
3F2
100
AcDbVisualStyle
  2

 70
     7
 71
     1
 72
     0
 73
     1
 90
        0
 40
-0.6
 41
-30.0
 62
     5
 63
     7
 74
     0
 91
        4
 64
     7
 65
   257
 75
     1
175
     1
 42
1.0
 92
        8
 66
     7
 43
1.0
 76
     1
 77
     6
 78
     2
 67
     7
 79
     5
170
     0
171
     0
290
     0
174
     0
 93
        1
 44
0.0
173
     0
291
     1
 45
0.0
1001
ACAD
1000
AcDbSavedByObjectVersion
1070
     0
  0
VISUALSTYLE
  5
298C0
102
{ACAD_XDICTIONARY
360
299B0
102
}
102
{ACAD_REACTORS
330
3F2
102
}
330
3F2
100
AcDbVisualStyle
  2

 70
    12
 71
     2
 72
     2
 73
     0
 90
        0
 40
-0.6
 41
-30.0
 62
     5
 63
     7
 74
     1
 91
        4
 64
     7
 65
   257
 75
     1
175
     1
 42
1.0
 92
        8
 66
     7
 43
1.0
 76
     1
 77
     6
 78
     2
 67
     7
 79
     5
170
     0
171
     0
290
     0
174
     0
 93
        1
 44
50.0
173
     0
291
     1
 45
0.0
1001
ACAD
1000
AcDbSavedByObjectVersion
1070
     0
  0
VISUALSTYLE
  5
298C4
102
{ACAD_XDICTIONARY
360
299B8
102
}
102
{ACAD_REACTORS
330
3F2
102
}
330
3F2
100
AcDbVisualStyle
  2

 70
    16
 71
     2
 72
     2
 73
     3
 90
        0
 40
-0.6
 41
-30.0
 62
     5
 63
     8
 74
     1
 91
        4
 64
     7
 65
   257
 75
     1
175
     1
 42
1.0
 92
        8
 66
     8
 43
1.0
 76
     1
 77
     6
 78
     2
 67
     7
 79
     5
170
     0
171
     0
290
     0
174
     0
 93
        1
 44
0.0
173
     0
291
     1
 45
0.0
1001
ACAD
1000
AcDbSavedByObjectVersion
1070
     0
  0
VISUALSTYLE
  5
298BD
102
{ACAD_XDICTIONARY
360
299AA
102
}
102
{ACAD_REACTORS
330
3F2
102
}
330
3F2
100
AcDbVisualStyle
  2

 70
     9
 71
     3
 72
     2
 73
     0
 90
        0
 40
-0.6
 41
-30.0
 62
     5
 63
     7
 74
     2
 91
        2
 64
     7
 65
   257
 75
     1
175
     1
 42
179.0
 92
        8
 66
     7
 43
1.0
 76
     1
 77
     6
 78
     2
 67
     7
 79
     3
170
     0
171
     0
290
     0
174
     0
 93
        1
 44
0.0
173
     0
291
     0
 45
0.0
1001
ACAD
1000
AcDbSavedByObjectVersion
1070
     0
  0
VISUALSTYLE
  5
298BF
102
{ACAD_XDICTIONARY
360
299AE
102
}
102
{ACAD_REACTORS
330
3F2
102
}
330
3F2
100
AcDbVisualStyle
  2

 70
    11
 71
     2
 72
     2
 73
     0
 90
        0
 40
-0.6
 41
-30.0
 62
     5
 63
     7
 74
     1
 91
        4
 64
     7
 65
   257
 75
     1
175
     1
 42
1.0
 92
        8
 66
     7
 43
1.0
 76
     1
 77
     6
 78
     2
 67
     7
 79
     5
170
     0
171
     0
290
     0
174
     0
 93
        1
 44
-50.0
173
     0
291
     1
 45
0.0
1001
ACAD
1000
AcDbSavedByObjectVersion
1070
     0
  0
VISUALSTYLE
  5
298CC
102
{ACAD_XDICTIONARY
360
299C8
102
}
102
{ACAD_REACTORS
330
3F2
102
}
330
3F2
100
AcDbVisualStyle
  2

 70
    22
 71
     2
 72
     2
 73
     0
 90
        0
 40
-0.6
 41
-30.0
 62
     5
 63
     7
 74
     1
 91
        4
 64
     7
 65
   257
 75
     1
175
     1
 42
1.0
 92
        8
 66
     7
 43
1.0
 76
     1
 77
     6
 78
     2
 67
     7
 79
     5
170
     0
171
     0
290
     0
174
     0
 93
        1
 44
0.0
173
     0
291
     1
 45
0.0
1001
ACAD
1000
AcDbSavedByObjectVersion
1070
     0
  0
VISUALSTYLE
  5
298C3
102
{ACAD_XDICTIONARY
360
299B6
102
}
102
{ACAD_REACTORS
330
3F2
102
}
330
3F2
100
AcDbVisualStyle
  2

 70
    15
 71
     2
 72
     2
 73
     0
 90
        0
 40
-0.6
 41
-30.0
 62
     5
 63
     7
 74
     1
 91
        4
 64
     7
 65
   257
 75
     1
175
     1
 42
1.0
 92
        8
 66
     7
 43
1.0
 76
     1
 77
     6
 78
     2
 67
     7
 79
     5
170
     0
171
     0
290
     0
174
     0
 93
        1
 44
0.0
173
     0
291
     1
 45
0.0
1001
ACAD
1000
AcDbSavedByObjectVersion
1070
     0
  0
VISUALSTYLE
  5
298B5
102
{ACAD_XDICTIONARY
360
2999A
102
}
102
{ACAD_REACTORS
330
3F2
102
}
330
3F2
100
AcDbVisualStyle
  2

 70
     0
 71
     2
 72
     1
 73
     1
 90
        2
 40
-0.6
 41
30.0
 62
     5
 63
     7
 74
     0
 91
        0
 64
     7
 65
   257
 75
     1
175
     1
 42
1.0
 92
        8
 66
     7
 43
1.0
 76
     1
 77
     6
 78
     2
 67
     7
 79
     5
170
     0
171
     0
290
     0
174
     0
 93
       13
 44
0.0
173
     0
291
     1
 45
0.0
1001
ACAD
1000
AcDbSavedByObjectVersion
1070
     0
  0
VISUALSTYLE
  5
298B6
102
{ACAD_XDICTIONARY
360
2999C
102
}
102
{ACAD_REACTORS
330
3F2
102
}
330
3F2
100
AcDbVisualStyle
  2

 70
     1
 71
     2
 72
     1
 73
     1
 90
        2
 40
-0.6
 41
30.0
 62
     5
 63
     7
 74
     1
 91
        0
 64
     7
 65
   257
 75
     1
175
     1
 42
1.0
 92
        0
 66
   257
 43
1.0
 76
     1
 77
     6
 78
     2
 67
     7
 79
     5
170
     0
171
     0
290
     0
174
     0
 93
       13
 44
0.0
173
     0
291
     1
 45
0.0
1001
ACAD
1000
AcDbSavedByObjectVersion
1070
     0
  0
VISUALSTYLE
  5
298B7
102
{ACAD_XDICTIONARY
360
2999E
102
}
102
{ACAD_REACTORS
330
3F2
102
}
330
3F2
100
AcDbVisualStyle
  2

 70
     2
 71
     2
 72
     2
 73
     1
 90
        2
 40
-0.6
 41
30.0
 62
     5
 63
     7
 74
     0
 91
        0
 64
     7
 65
   257
 75
     1
175
     1
 42
1.0
 92
        0
 66
     7
 43
1.0
 76
     1
 77
     6
 78
     2
 67
     7
 79
     5
170
     0
171
     0
290
     0
174
     0
 93
       13
 44
0.0
173
     0
291
     1
 45
0.0
1001
ACAD
1000
AcDbSavedByObjectVersion
1070
     0
  0
VISUALSTYLE
  5
298B8
102
{ACAD_XDICTIONARY
360
299A0
102
}
102
{ACAD_REACTORS
330
3F2
102
}
330
3F2
100
AcDbVisualStyle
  2

 70
     3
 71
     2
 72
     2
 73
     1
 90
        2
 40
-0.6
 41
30.0
 62
     5
 63
     7
 74
     1
 91
        0
 64
     7
 65
   257
 75
     1
175
     1
 42
1.0
 92
        0
 66
   257
 43
1.0
 76
     1
 77
     6
 78
     2
 67
     7
 79
     5
170
     0
171
     0
290
     0
174
     0
 93
       13
 44
0.0
173
     0
291
     1
 45
0.0
1001
ACAD
1000
AcDbSavedByObjectVersion
1070
     0
  0
VISUALSTYLE
  5
298BC
102
{ACAD_XDICTIONARY
360
299A8
102
}
102
{ACAD_REACTORS
330
3F2
102
}
330
3F2
100
AcDbVisualStyle
  2

 70
     6
 71
     1
 72
     2
 73
     2
 90
        0
 40
-0.6
 41
-30.0
 62
     5
 63
     7
 74
     2
 91
        2
 64
     7
 65
   257
 75
     2
175
     1
 42
40.0
 92
        0
 66
   257
 43
1.0
 76
     1
 77
     6
 78
     2
 67
     7
 79
     3
170
     0
171
     0
290
     0
174
     0
 93
        1
 44
0.0
173
     0
291
     0
 45
0.0
1001
ACAD
1000
AcDbSavedByObjectVersion
1070
     0
  0
VISUALSTYLE
  5
298CA
102
{ACAD_XDICTIONARY
360
299C4
102
}
102
{ACAD_REACTORS
330
3F2
102
}
330
3F2
100
AcDbVisualStyle
  2

 70
    20
 71
     2
 72
     2
 73
     0
 90
        0
 40
-0.6
 41
-30.0
 62
     5
 63
     7
 74
     1
 91
        4
 64
     7
 65
   257
 75
     1
175
     1
 42
1.0
 92
       10
 66
     7
 43
1.0
 76
     1
 77
     6
 78
     2
 67
     7
 79
     5
170
     0
171
     0
290
     0
174
     0
 93
        1
 44
0.0
173
     0
291
     1
 45
0.0
1001
ACAD
1000
AcDbSavedByObjectVersion
1070
     0
  0
VISUALSTYLE
  5
298C2
102
{ACAD_XDICTIONARY
360
299B4
102
}
102
{ACAD_REACTORS
330
3F2
102
}
330
3F2
100
AcDbVisualStyle
  2

 70
    14
 71
     2
 72
     2
 73
     0
 90
        0
 40
-0.6
 41
-30.0
 62
     5
 63
     7
 74
     1
 91
        4
 64
     7
 65
   257
 75
     7
175
     7
 42
1.0
 92
        8
 66
     7
 43
1.0
 76
     1
 77
     6
 78
     2
 67
     7
 79
     5
170
     0
171
     0
290
     0
174
     0
 93
        1
 44
0.0
173
     0
291
     1
 45
0.0
1001
ACAD
1000
AcDbSavedByObjectVersion
1070
     0
  0
VISUALSTYLE
  5
298CB
102
{ACAD_XDICTIONARY
360
299C6
102
}
102
{ACAD_REACTORS
330
3F2
102
}
330
3F2
100
AcDbVisualStyle
  2

 70
    21
 71
     2
 72
     2
 73
     0
 90
        0
 40
-0.6
 41
-30.0
 62
     5
 63
     7
 74
     1
 91
        4
 64
     7
 65
   257
 75
     1
175
     1
 42
1.0
 92
        9
 66
     7
 43
1.0
 76
     1
 77
     6
 78
     2
 67
     7
 79
     5
170
     0
171
     0
290
     0
174
     0
 93
        1
 44
0.0
173
     0
291
     1
 45
0.0
1001
ACAD
1000
AcDbSavedByObjectVersion
1070
     0
  0
VISUALSTYLE
  5
298BE
102
{ACAD_XDICTIONARY
360
299AC
102
}
102
{ACAD_REACTORS
330
3F2
102
}
330
3F2
100
AcDbVisualStyle
  2

 70
     8
 71
     2
 72
     3
 73
     0
 90
        2
 40
-0.6
 41
30.0
 62
     5
 63
     7
 74
     0
 91
        0
 64
     7
 65
   257
 75
     1
175
     1
 42
1.0
 92
        8
 66
   257
 43
1.0
 76
     1
 77
     6
 78
     2
 67
     7
 79
     3
170
     0
171
     0
290
     0
174
     0
 93
       13
 44
0.0
173
     0
291
     0
 45
0.0
1001
ACAD
1000
AcDbSavedByObjectVersion
1070
     0
  0
VISUALSTYLE
  5
298C9
102
{ACAD_XDICTIONARY
360
299C2
102
}
102
{ACAD_REACTORS
330
3F2
102
}
330
3F2
100
AcDbVisualStyle
  2

 70
    27
 71
     2
 72
     2
 73
     1
 90
        2
 40
-0.6
 41
30.0
 62
     5
 63
     7
 74
     0
 91
        4
 64
     7
 65
   257
 75
     1
175
     1
 42
1.0
 92
        8
 66
   257
 43
1.0
 76
     1
 77
     6
 78
     2
 67
     8
 79
     3
170
     0
171
     0
290
     0
174
     0
 93
        5
 44
0.0
173
     0
291
     0
 45
0.0
1001
ACAD
1000
AcDbSavedByObjectVersion
1070
     0
  0
VISUALSTYLE
  5
298C8
102
{ACAD_XDICTIONARY
360
299C0
102
}
102
{ACAD_REACTORS
330
3F2
102
}
330
3F2
100
AcDbVisualStyle
  2

 70
    26
 71
     2
 72
     2
 73
     1
 90
        2
 40
-0.6
 41
30.0
 62
     5
 63
     7
 74
     1
 91
        2
 64
     7
 65
   257
 75
     2
175
     1
 42
1.0
 92
        8
 66
   257
 43
1.0
 76
     1
 77
     6
 78
     2
 67
     7
 79
     3
170
     0
171
     0
290
     0
174
     0
 93
        5
 44
0.0
173
     0
291
     0
 45
0.0
1001
ACAD
1000
AcDbSavedByObjectVersion
1070
     0
  0
VISUALSTYLE
  5
298C5
102
{ACAD_XDICTIONARY
360
299BA
102
}
102
{ACAD_REACTORS
330
3F2
102
}
330
3F2
100
AcDbVisualStyle
  2

 70
    23
 71
     2
 72
     2
 73
     3
 90
        0
 40
-0.6
 41
-30.0
 62
     5
 63
     7
 74
     2
 91
        2
 64
     7
 65
     7
 75
     1
175
     1
 42
40.0
 92
        8
 66
     7
 43
1.0
 76
     1
 77
     6
 78
     2
 67
     7
 79
     3
170
     0
171
     0
290
     0
174
     0
 93
        1
 44
0.0
173
     0
291
     0
 45
0.0
1001
ACAD
1000
AcDbSavedByObjectVersion
1070
     0
  0
VISUALSTYLE
  5
298C6
102
{ACAD_XDICTIONARY
360
299BC
102
}
102
{ACAD_REACTORS
330
3F2
102
}
330
3F2
100
AcDbVisualStyle
  2

 70
    24
 71
     1
 72
     2
 73
     2
 90
        0
 40
-0.6
 41
-30.0
 62
     5
 63
     7
 74
     2
 91
        2
 64
     7
 65
     7
 75
     1
175
     1
 42
40.0
 92
       11
 66
     7
 43
1.0
 76
     1
 77
     6
 78
     2
 67
     7
 79
     6
170
     0
171
     0
290
     0
174
     0
 93
        1
 44
0.0
173
     0
291
     0
 45
0.0
1001
ACAD
1000
AcDbSavedByObjectVersion
1070
     0
  0
VISUALSTYLE
  5
298C1
102
{ACAD_XDICTIONARY
360
299B2
102
}
102
{ACAD_REACTORS
330
3F2
102
}
330
3F2
100
AcDbVisualStyle
  2

 70
    13
 71
     2
 72
     2
 73
     0
 90
        0
 40
-0.6
 41
-30.0
 62
     5
 63
     7
 74
     1
 91
        4
 64
     7
 65
   257
 75
     1
175
     1
 42
1.0
 92
       12
 66
     7
 43
1.0
 76
     1
 77
     6
 78
     2
 67
     7
 79
     5
170
     0
171
     0
290
     0
174
     0
 93
        1
 44
0.0
173
     0
291
     1
 45
0.0
1001
ACAD
1000
AcDbSavedByObjectVersion
1070
     0
  0
VISUALSTYLE
  5
298BB
102
{ACAD_XDICTIONARY
360
299A6
102
}
102
{ACAD_REACTORS
330
3F2
102
}
330
3F2
100
AcDbVisualStyle
  2

 70
     5
 71
     0
 72
     2
 73
     0
 90
        0
 40
-0.6
 41
-30.0
 62
     5
 63
     7
 74
     1
 91
        4
 64
     7
 65
   257
 75
     1
175
     1
 42
1.0
 92
        0
 66
   257
 43
1.0
 76
     1
 77
     6
 78
     2
 67
     7
 79
     3
170
     0
171
     0
290
     0
174
     0
 93
        1
 44
0.0
173
     0
291
     0
 45
0.0
1001
ACAD
1000
AcDbSavedByObjectVersion
1070
     0
  0
VISUALSTYLE
  5
298C7
102
{ACAD_XDICTIONARY
360
299BE
102
}
102
{ACAD_REACTORS
330
3F2
102
}
330
3F2
100
AcDbVisualStyle
  2

 70
    25
 71
     2
 72
     2
 73
     1
 90
        1
 40
0.5
 41
-30.0
 62
     5
 63
     7
 74
     1
 91
        0
 64
     7
 65
   257
 75
     1
175
     1
 42
1.0
 92
        8
 66
     7
 43
1.0
 76
     1
 77
     6
 78
     2
 67
     7
 79
     3
170
     0
171
     0
290
     0
174
     0
 93
       13
 44
0.0
173
     0
291
     0
 45
0.0
1001
ACAD
1000
AcDbSavedByObjectVersion
1070
     0
  0
XRECORD
  5
29895
102
{ACAD_REACTORS
330
29894
102
}
330
29894
100
AcDbXrecord
280
     1
340
6C
  0
XRECORD
  5
29896
102
{ACAD_REACTORS
330
29894
102
}
330
29894
100
AcDbXrecord
280
     1
340
6B
  0
DICTIONARYVAR
  5
29893
102
{ACAD_REACTORS
330
59
102
}
330
59
100
DictionaryVariables
280
     0
  1
1:1
  0
DICTIONARYVAR
  5
298FB
102
{ACAD_REACTORS
330
59
102
}
330
59
100
DictionaryVariables
280
     0
  1
STANDARD
  0
DICTIONARYVAR
  5
98
102
{ACAD_REACTORS
330
59
102
}
330
59
100
DictionaryVariables
280
     0
  1
STANDARD
  0
DICTIONARYVAR
  5
8FB
102
{ACAD_REACTORS
330
59
102
}
330
59
100
DictionaryVariables
280
     0
  1
Metric50
  0
DICTIONARYVAR
  5
8FC
102
{ACAD_REACTORS
330
59
102
}
330
59
100
DictionaryVariables
280
     0
  1
Metric50
  0
DICTIONARYVAR
  5
359
102
{ACAD_REACTORS
330
59
102
}
330
59
100
DictionaryVariables
280
     0
  1
2
  0
DICTIONARYVAR
  5
AF7
102
{ACAD_REACTORS
330
59
102
}
330
59
100
DictionaryVariables
280
     0
  1
0
  0
DICTIONARYVAR
  5
358
102
{ACAD_REACTORS
330
59
102
}
330
59
100
DictionaryVariables
280
     0
  1
1
  0
DICTIONARYVAR
  5
9BE
102
{ACAD_REACTORS
330
59
102
}
330
59
100
DictionaryVariables
280
     0
  1
0
  0
DICTIONARYVAR
  5
7AE
102
{ACAD_REACTORS
330
59
102
}
330
59
100
DictionaryVariables
280
     0
  1
1
  0
DICTIONARYVAR
  5
7AF
102
{ACAD_REACTORS
330
59
102
}
330
59
100
DictionaryVariables
280
     0
  1
15
  0
DICTIONARYVAR
  5
44A
102
{ACAD_REACTORS
330
59
102
}
330
59
100
DictionaryVariables
280
     0
  1
0
  0
DICTIONARYVAR
  5
448
102
{ACAD_REACTORS
330
59
102
}
330
59
100
DictionaryVariables
280
     0
  1
1
  0
DICTIONARYVAR
  5
9BD
102
{ACAD_REACTORS
330
59
102
}
330
59
100
DictionaryVariables
280
     0
  1
127
  0
DICTIONARYVAR
  5
2998D
102
{ACAD_REACTORS
330
59
102
}
330
59
100
DictionaryVariables
280
     0
  1
2
  0
DICTIONARY
  5
76F
102
{ACAD_REACTORS
330
76D
102
}
330
76D
100
AcDbDictionary
281
     1
  0
DICTIONARY
  5
744
102
{ACAD_REACTORS
330
743
102
}
330
743
100
AcDbDictionary
281
     1
  0
XRECORD
  5
8C7
102
{ACAD_REACTORS
330
8C6
102
}
330
8C6
100
AcDbXrecord
280
     1
  0
DICTIONARY
  5
299CD
330
298D0
100
AcDbDictionary
280
     1
281
     1
  3
ACAD_XREC_ROUNDTRIP
360
299CE
  0
DICTIONARY
  5
29998
330
74
100
AcDbDictionary
280
     1
281
     1
  3
ACAD_XREC_ROUNDTRIP
360
29999
  0
DICTIONARY
  5
29996
330
22
100
AcDbDictionary
280
     1
281
     1
  3
ACAD_XREC_ROUNDTRIP
360
29997
  0
DICTIONARY
  5
298A6
330
298A5
100
AcDbDictionary
280
     1
281
     1
  3
ACAD_XREC_ROUNDTRIP
360
29950
  3
BUMPTILE
360
298A8
  3
DIFFUSETILE
360
298A7
  3
OPACITYTILE
360
298AB
  3
REFLECTIONTILE
360
298AA
  3
REFRACTIONTILE
360
298AC
  3
SPECULARTILE
360
298A9
  0
DICTIONARY
  5
2989E
330
2989D
100
AcDbDictionary
280
     1
281
     1
  3
ACAD_XREC_ROUNDTRIP
360
2994F
  3
BUMPTILE
360
298A0
  3
DIFFUSETILE
360
2989F
  3
OPACITYTILE
360
298A3
  3
REFLECTIONTILE
360
298A2
  3
REFRACTIONTILE
360
298A4
  3
SPECULARTILE
360
298A1
  0
DICTIONARY
  5
298AE
330
298AD
100
AcDbDictionary
280
     1
281
     1
  3
ACAD_XREC_ROUNDTRIP
360
29951
  3
BUMPTILE
360
298B0
  3
DIFFUSETILE
360
298AF
  3
OPACITYTILE
360
298B3
  3
REFLECTIONTILE
360
298B2
  3
REFRACTIONTILE
360
298B4
  3
SPECULARTILE
360
298B1
  0
DICTIONARY
  5
299CB
330
298CF
100
AcDbDictionary
280
     1
281
     1
  3
ACAD_XREC_ROUNDTRIP
360
299CC
  0
DICTIONARY
  5
29942
330
298CD
100
AcDbDictionary
280
     1
281
     1
  3
ACAD_ROUNDTRIP_2008_TABLESTYLE_CELLSTYLEMAP
360
2998E
  3
ACAD_XREC_ROUNDTRIP
360
299CA
  0
DICTIONARY
  5
299A4
330
298BA
100
AcDbDictionary
280
     1
281
     1
  3
ACAD_XREC_ROUNDTRIP
360
299A5
  0
DICTIONARY
  5
299A2
330
298B9
100
AcDbDictionary
280
     1
281
     1
  3
ACAD_XREC_ROUNDTRIP
360
299A3
  0
DICTIONARY
  5
299B0
330
298C0
100
AcDbDictionary
280
     1
281
     1
  3
ACAD_XREC_ROUNDTRIP
360
299B1
  0
DICTIONARY
  5
299B8
330
298C4
100
AcDbDictionary
280
     1
281
     1
  3
ACAD_XREC_ROUNDTRIP
360
299B9
  0
DICTIONARY
  5
299AA
330
298BD
100
AcDbDictionary
280
     1
281
     1
  3
ACAD_XREC_ROUNDTRIP
360
299AB
  0
DICTIONARY
  5
299AE
330
298BF
100
AcDbDictionary
280
     1
281
     1
  3
ACAD_XREC_ROUNDTRIP
360
299AF
  0
DICTIONARY
  5
299C8
330
298CC
100
AcDbDictionary
280
     1
281
     1
  3
ACAD_XREC_ROUNDTRIP
360
299C9
  0
DICTIONARY
  5
299B6
330
298C3
100
AcDbDictionary
280
     1
281
     1
  3
ACAD_XREC_ROUNDTRIP
360
299B7
  0
DICTIONARY
  5
2999A
330
298B5
100
AcDbDictionary
280
     1
281
     1
  3
ACAD_XREC_ROUNDTRIP
360
2999B
  0
DICTIONARY
  5
2999C
330
298B6
100
AcDbDictionary
280
     1
281
     1
  3
ACAD_XREC_ROUNDTRIP
360
2999D
  0
DICTIONARY
  5
2999E
330
298B7
100
AcDbDictionary
280
     1
281
     1
  3
ACAD_XREC_ROUNDTRIP
360
2999F
  0
DICTIONARY
  5
299A0
330
298B8
100
AcDbDictionary
280
     1
281
     1
  3
ACAD_XREC_ROUNDTRIP
360
299A1
  0
DICTIONARY
  5
299A8
330
298BC
100
AcDbDictionary
280
     1
281
     1
  3
ACAD_XREC_ROUNDTRIP
360
299A9
  0
DICTIONARY
  5
299C4
330
298CA
100
AcDbDictionary
280
     1
281
     1
  3
ACAD_XREC_ROUNDTRIP
360
299C5
  0
DICTIONARY
  5
299B4
330
298C2
100
AcDbDictionary
280
     1
281
     1
  3
ACAD_XREC_ROUNDTRIP
360
299B5
  0
DICTIONARY
  5
299C6
330
298CB
100
AcDbDictionary
280
     1
281
     1
  3
ACAD_XREC_ROUNDTRIP
360
299C7
  0
DICTIONARY
  5
299AC
330
298BE
100
AcDbDictionary
280
     1
281
     1
  3
ACAD_XREC_ROUNDTRIP
360
299AD
  0
DICTIONARY
  5
299C2
330
298C9
100
AcDbDictionary
280
     1
281
     1
  3
ACAD_XREC_ROUNDTRIP
360
299C3
  0
DICTIONARY
  5
299C0
330
298C8
100
AcDbDictionary
280
     1
281
     1
  3
ACAD_XREC_ROUNDTRIP
360
299C1
  0
DICTIONARY
  5
299BA
330
298C5
100
AcDbDictionary
280
     1
281
     1
  3
ACAD_XREC_ROUNDTRIP
360
299BB
  0
DICTIONARY
  5
299BC
330
298C6
100
AcDbDictionary
280
     1
281
     1
  3
ACAD_XREC_ROUNDTRIP
360
299BD
  0
DICTIONARY
  5
299B2
330
298C1
100
AcDbDictionary
280
     1
281
     1
  3
ACAD_XREC_ROUNDTRIP
360
299B3
  0
DICTIONARY
  5
299A6
330
298BB
100
AcDbDictionary
280
     1
281
     1
  3
ACAD_XREC_ROUNDTRIP
360
299A7
  0
DICTIONARY
  5
299BE
330
298C7
100
AcDbDictionary
280
     1
281
     1
  3
ACAD_XREC_ROUNDTRIP
360
299BF
  0
XRECORD
  5
299CE
102
{ACAD_REACTORS
330
299CD
102
}
330
299CD
100
AcDbXrecord
280
     1
102
DISPLAYNAME
  1
Metric50
102
FLAGS
 90
        0
  0
XRECORD
  5
29999
102
{ACAD_REACTORS
330
29998
102
}
330
29998
100
AcDbXrecord
280
     1
102
SHADEPLOT
 70
     0
102
SHADEPLOTRESLEVEL
 70
     2
102
SHADEPLOTCUSTOMDPI
 70
   300
  0
XRECORD
  5
29997
102
{ACAD_REACTORS
330
29996
102
}
330
29996
100
AcDbXrecord
280
     1
102
SHADEPLOT
 70
     0
102
SHADEPLOTRESLEVEL
 70
     4
102
SHADEPLOTCUSTOMDPI
 70
   300
  0
XRECORD
  5
29950
102
{ACAD_REACTORS
330
298A6
102
}
330
298A6
100
AcDbXrecord
280
     1
102
MATERIAL
148
0.0
149
0.0
149
0.0
 93
        0
 94
      127
282
     0
 72
     0
 77
     0
171
     0
175
     0
179
     0
273
     0
  0
XRECORD
  5
298A8
102
{ACAD_REACTORS
330
298A6
102
}
330
298A6
100
AcDbXrecord
280
     1
270
     1
271
     1
  0
XRECORD
  5
298A7
102
{ACAD_REACTORS
330
298A6
102
}
330
298A6
100
AcDbXrecord
280
     1
270
     1
271
     1
  0
XRECORD
  5
298AB
102
{ACAD_REACTORS
330
298A6
102
}
330
298A6
100
AcDbXrecord
280
     1
270
     1
271
     1
  0
XRECORD
  5
298AA
102
{ACAD_REACTORS
330
298A6
102
}
330
298A6
100
AcDbXrecord
280
     1
270
     1
271
     1
  0
XRECORD
  5
298AC
102
{ACAD_REACTORS
330
298A6
102
}
330
298A6
100
AcDbXrecord
280
     1
270
     1
271
     1
  0
XRECORD
  5
298A9
102
{ACAD_REACTORS
330
298A6
102
}
330
298A6
100
AcDbXrecord
280
     1
270
     1
271
     1
  0
XRECORD
  5
2994F
102
{ACAD_REACTORS
330
2989E
102
}
330
2989E
100
AcDbXrecord
280
     1
102
MATERIAL
148
0.0
149
0.0
149
0.0
 93
        0
 94
      127
282
     0
 72
     0
 77
     0
171
     0
175
     0
179
     0
273
     0
  0
XRECORD
  5
298A0
102
{ACAD_REACTORS
330
2989E
102
}
330
2989E
100
AcDbXrecord
280
     1
270
     1
271
     1
  0
XRECORD
  5
2989F
102
{ACAD_REACTORS
330
2989E
102
}
330
2989E
100
AcDbXrecord
280
     1
270
     1
271
     1
  0
XRECORD
  5
298A3
102
{ACAD_REACTORS
330
2989E
102
}
330
2989E
100
AcDbXrecord
280
     1
270
     1
271
     1
  0
XRECORD
  5
298A2
102
{ACAD_REACTORS
330
2989E
102
}
330
2989E
100
AcDbXrecord
280
     1
270
     1
271
     1
  0
XRECORD
  5
298A4
102
{ACAD_REACTORS
330
2989E
102
}
330
2989E
100
AcDbXrecord
280
     1
270
     1
271
     1
  0
XRECORD
  5
298A1
102
{ACAD_REACTORS
330
2989E
102
}
330
2989E
100
AcDbXrecord
280
     1
270
     1
271
     1
  0
XRECORD
  5
29951
102
{ACAD_REACTORS
330
298AE
102
}
330
298AE
100
AcDbXrecord
280
     1
102
MATERIAL
148
0.0
149
0.0
149
0.0
 93
        0
 94
      127
282
     0
 72
     0
 77
     0
171
     0
175
     0
179
     0
273
     0
  0
XRECORD
  5
298B0
102
{ACAD_REACTORS
330
298AE
102
}
330
298AE
100
AcDbXrecord
280
     1
270
     1
271
     1
  0
XRECORD
  5
298AF
102
{ACAD_REACTORS
330
298AE
102
}
330
298AE
100
AcDbXrecord
280
     1
270
     1
271
     1
  0
XRECORD
  5
298B3
102
{ACAD_REACTORS
330
298AE
102
}
330
298AE
100
AcDbXrecord
280
     1
270
     1
271
     1
  0
XRECORD
  5
298B2
102
{ACAD_REACTORS
330
298AE
102
}
330
298AE
100
AcDbXrecord
280
     1
270
     1
271
     1
  0
XRECORD
  5
298B4
102
{ACAD_REACTORS
330
298AE
102
}
330
298AE
100
AcDbXrecord
280
     1
270
     1
271
     1
  0
XRECORD
  5
298B1
102
{ACAD_REACTORS
330
298AE
102
}
330
298AE
100
AcDbXrecord
280
     1
270
     1
271
     1
  0
XRECORD
  5
299CC
102
{ACAD_REACTORS
330
299CB
102
}
330
299CB
100
AcDbXrecord
280
     1
102
DISPLAYNAME
  1
Metric50
102
FLAGS
 90
        0
  0
CELLSTYLEMAP
  5
2998E
102
{ACAD_REACTORS
330
29942
102
}
330
29942
100
AcDbCellStyleMap
 90
        3
300
CELLSTYLE
  1
TABLEFORMAT_BEGIN
 90
        5
170
     1
 91
        0
 92
    32768
 62
   257
 93
        1
300
CONTENTFORMAT
  1
CONTENTFORMAT_BEGIN
 90
        0
 91
        0
 92
      512
 93
        0
300

 40
0.0
140
1.0
 94
        5
 62
     0
340
11
144
6.0
309
CONTENTFORMAT_END
171
     1
301
MARGIN
  1
CELLMARGIN_BEGIN
 40
1.5
 40
1.5
 40
1.5
 40
1.5
 40
0.18
 40
0.18
309
CELLMARGIN_END
 94
        6
 95
        1
302
GRIDFORMAT
  1
GRIDFORMAT_BEGIN
 90
        0
 91
        1
 62
     0
 92
       -2
340
0
 93
        0
 40
1.125
309
GRIDFORMAT_END
 95
        2
302
GRIDFORMAT
  1
GRIDFORMAT_BEGIN
 90
        0
 91
        1
 62
     0
 92
       -2
340
0
 93
        0
 40
1.125
309
GRIDFORMAT_END
 95
        4
302
GRIDFORMAT
  1
GRIDFORMAT_BEGIN
 90
        0
 91
        1
 62
     0
 92
       -2
340
0
 93
        0
 40
1.125
309
GRIDFORMAT_END
 95
        8
302
GRIDFORMAT
  1
GRIDFORMAT_BEGIN
 90
        0
 91
        1
 62
     0
 92
       -2
340
0
 93
        0
 40
1.125
309
GRIDFORMAT_END
 95
       16
302
GRIDFORMAT
  1
GRIDFORMAT_BEGIN
 90
        0
 91
        1
 62
     0
 92
       -2
340
0
 93
        0
 40
1.125
309
GRIDFORMAT_END
 95
       32
302
GRIDFORMAT
  1
GRIDFORMAT_BEGIN
 90
        0
 91
        1
 62
     0
 92
       -2
340
0
 93
        0
 40
1.125
309
GRIDFORMAT_END
309
TABLEFORMAT_END
  1
CELLSTYLE_BEGIN
 90
        1
 91
        1
300
_TITLE
309
CELLSTYLE_END
300
CELLSTYLE
  1
TABLEFORMAT_BEGIN
 90
        5
170
     1
 91
        0
 92
        0
 62
   257
 93
        1
300
CONTENTFORMAT
  1
CONTENTFORMAT_BEGIN
 90
        0
 91
        0
 92
      512
 93
        0
300

 40
0.0
140
1.0
 94
        5
 62
     0
340
11
144
4.5
309
CONTENTFORMAT_END
171
     1
301
MARGIN
  1
CELLMARGIN_BEGIN
 40
1.5
 40
1.5
 40
1.5
 40
1.5
 40
0.18
 40
0.18
309
CELLMARGIN_END
 94
        6
 95
        1
302
GRIDFORMAT
  1
GRIDFORMAT_BEGIN
 90
        0
 91
        1
 62
     0
 92
       -2
340
0
 93
        0
 40
1.125
309
GRIDFORMAT_END
 95
        2
302
GRIDFORMAT
  1
GRIDFORMAT_BEGIN
 90
        0
 91
        1
 62
     0
 92
       -2
340
0
 93
        0
 40
1.125
309
GRIDFORMAT_END
 95
        4
302
GRIDFORMAT
  1
GRIDFORMAT_BEGIN
 90
        0
 91
        1
 62
     0
 92
       -2
340
0
 93
        0
 40
1.125
309
GRIDFORMAT_END
 95
        8
302
GRIDFORMAT
  1
GRIDFORMAT_BEGIN
 90
        0
 91
        1
 62
     0
 92
       -2
340
0
 93
        0
 40
1.125
309
GRIDFORMAT_END
 95
       16
302
GRIDFORMAT
  1
GRIDFORMAT_BEGIN
 90
        0
 91
        1
 62
     0
 92
       -2
340
0
 93
        0
 40
1.125
309
GRIDFORMAT_END
 95
       32
302
GRIDFORMAT
  1
GRIDFORMAT_BEGIN
 90
        0
 91
        1
 62
     0
 92
       -2
340
0
 93
        0
 40
1.125
309
GRIDFORMAT_END
309
TABLEFORMAT_END
  1
CELLSTYLE_BEGIN
 90
        2
 91
        1
300
_HEADER
309
CELLSTYLE_END
300
CELLSTYLE
  1
TABLEFORMAT_BEGIN
 90
        5
170
     1
 91
        0
 92
        0
 62
   257
 93
        1
300
CONTENTFORMAT
  1
CONTENTFORMAT_BEGIN
 90
        0
 91
        0
 92
      512
 93
        0
300

 40
0.0
140
1.0
 94
        2
 62
     0
340
11
144
4.5
309
CONTENTFORMAT_END
171
     1
301
MARGIN
  1
CELLMARGIN_BEGIN
 40
1.5
 40
1.5
 40
1.5
 40
1.5
 40
0.18
 40
0.18
309
CELLMARGIN_END
 94
        6
 95
        1
302
GRIDFORMAT
  1
GRIDFORMAT_BEGIN
 90
        0
 91
        1
 62
     0
 92
       -2
340
0
 93
        0
 40
1.125
309
GRIDFORMAT_END
 95
        2
302
GRIDFORMAT
  1
GRIDFORMAT_BEGIN
 90
        0
 91
        1
 62
     0
 92
       -2
340
0
 93
        0
 40
1.125
309
GRIDFORMAT_END
 95
        4
302
GRIDFORMAT
  1
GRIDFORMAT_BEGIN
 90
        0
 91
        1
 62
     0
 92
       -2
340
0
 93
        0
 40
1.125
309
GRIDFORMAT_END
 95
        8
302
GRIDFORMAT
  1
GRIDFORMAT_BEGIN
 90
        0
 91
        1
 62
     0
 92
       -2
340
0
 93
        0
 40
1.125
309
GRIDFORMAT_END
 95
       16
302
GRIDFORMAT
  1
GRIDFORMAT_BEGIN
 90
        0
 91
        1
 62
     0
 92
       -2
340
0
 93
        0
 40
1.125
309
GRIDFORMAT_END
 95
       32
302
GRIDFORMAT
  1
GRIDFORMAT_BEGIN
 90
        0
 91
        1
 62
     0
 92
       -2
340
0
 93
        0
 40
1.125
309
GRIDFORMAT_END
309
TABLEFORMAT_END
  1
CELLSTYLE_BEGIN
 90
        3
 91
        2
300
_DATA
309
CELLSTYLE_END
  0
XRECORD
  5
299CA
102
{ACAD_REACTORS
330
29942
102
}
330
29942
100
AcDbXrecord
280
     1
102
ACAD_ROUNDTRIP_PRE2007_TABLESTYLE
 90
      512
 91
        0
  1

 92
      512
 93
        0
  2

 94
      512
 95
        0
  3

  0
XRECORD
  5
299A5
102
{ACAD_REACTORS
330
299A4
102
}
330
299A4
100
AcDbXrecord
280
     1
102
RTVSPost2010Prop28
280
     1
102
RTVSPost2010PropOp28
 70
     1
102
RTVSPost2010Prop29
280
     1
102
RTVSPost2010PropOp29
 70
     1
102
RTVSPost2010Prop30
280
     0
102
RTVSPost2010PropOp30
 70
     1
102
RTVSPost2010Prop31
280
     0
102
RTVSPost2010PropOp31
 70
     1
102
RTVSPost2010Prop32
280
     0
102
RTVSPost2010PropOp32
 70
     1
102
RTVSPost2010Prop33
280
     0
102
RTVSPost2010PropOp33
 70
     1
102
RTVSPost2010Prop34
280
     0
102
RTVSPost2010PropOp34
 70
     1
102
RTVSPost2010Prop35
280
     0
102
RTVSPost2010PropOp35
 70
     1
102
RTVSPost2010Prop36
280
     0
102
RTVSPost2010PropOp36
 70
     1
102
RTVSPost2010Prop37
 90
       50
102
RTVSPost2010PropOp37
 70
     1
102
RTVSPost2010Prop38
140
0.0
102
RTVSPost2010PropOp38
 70
     1
102
RTVSPost2010Prop39
140
1.0
102
RTVSPost2010PropOp39
 70
     1
102
RTVSPost2010Prop40
 90
        0
102
RTVSPost2010PropOp40
 70
     1
102
RTVSPost2010Prop41ColorIndex
 90
       18
102
RTVSPost2010Prop41ColorRGB
 90
        0
102
RTVSPost2010PropOp41
 70
     1
102
RTVSPost2010Prop42
 90
       50
102
RTVSPost2010PropOp42
 70
     1
102
RTVSPost2010Prop43
 90
        3
102
RTVSPost2010PropOp43
 70
     1
102
RTVSPost2010Prop44ColorIndex
 90
        5
102
RTVSPost2010Prop44ColorRGB
 90
      255
102
RTVSPost2010PropOp44
 70
     1
102
RTVSPost2010Prop45
280
     0
102
RTVSPost2010PropOp45
 70
     1
102
RTVSPost2010Prop46
 90
       50
102
RTVSPost2010PropOp46
 70
     1
102
RTVSPost2010Prop47
 90
       50
102
RTVSPost2010PropOp47
 70
     1
102
RTVSPost2010Prop48
 90
       50
102
RTVSPost2010PropOp48
 70
     1
102
RTVSPost2010Prop49
280
     0
102
RTVSPost2010PropOp49
 70
     1
102
RTVSPost2010Prop50
 90
       50
102
RTVSPost2010PropOp50
 70
     1
102
RTVSPost2010Prop51ColorIndex
 90
      256
102
RTVSPost2010Prop51ColorRGB
 90
-16777216
102
RTVSPost2010PropOp51
 70
     0
102
RTVSPost2010Prop52
140
1.0
102
RTVSPost2010PropOp52
 70
     0
102
RTVSPost2010Prop53
 90
        2
102
RTVSPost2010PropOp53
 70
     1
102
RTVSPost2010Prop54
  1
strokes_ogs.tif
102
RTVSPost2010PropOp54
 70
     1
102
RTVSPost2010Prop55
280
     0
102
RTVSPost2010PropOp55
 70
     1
102
RTVSPost2010Prop56
140
1.0
102
RTVSPost2010PropOp56
 70
     1
102
RTVSPost2010Prop57
140
1.0
102
RTVSPost2010PropOp57
 70
     1
102
RTVSPropertyOp0
 70
     1
102
RTVSPropertyOp1
 70
     1
102
RTVSPropertyOp2
 70
     1
102
RTVSPropertyOp3
 70
     1
102
RTVSPropertyOp4
 70
     1
102
RTVSPropertyOp5
 70
     1
102
RTVSPropertyOp6
 70
     1
102
RTVSPropertyOp7
 70
     1
102
RTVSPropertyOp8
 70
     1
102
RTVSPropertyOp9
 70
     1
102
RTVSPropertyOp10
 70
     1
102
RTVSPropertyOp11
 70
     1
102
RTVSPropertyOp12
 70
     1
102
RTVSPropertyOp13
 70
     1
102
RTVSPropertyOp14
 70
     1
102
RTVSPropertyOp15
 70
     1
102
RTVSPropertyOp16
 70
     1
102
RTVSPropertyOp17
 70
     1
102
RTVSPropertyOp18
 70
     1
102
RTVSPropertyOp19
 70
     1
102
RTVSPropertyOp20
 70
     1
102
RTVSPropertyOp21
 70
     1
102
RTVSPropertyOp22
 70
     1
102
RTVSPropertyOp23
 70
     1
102
RTVSPropertyOp24
 70
     1
102
RTVSPropertyOp25
 70
     1
102
RTVSPropertyOp26
 70
     1
102
RTVSPropertyOp27
 70
     1
102
RTVSPropertyOp28
 70
     1
102
RTVSPropertyOp29
 70
     1
102
RTVSPropertyOp30
 70
     1
102
RTVSPropertyOp31
 70
     1
102
RTVSPropertyOp32
 70
     1
102
RTVSPropertyOp33
 70
     1
102
RTVSPropertyOp34
 70
     1
102
RTVSPropertyOp35
 70
     1
102
RTVSPropertyOp36
 70
     1
102
RTVSPropertyOp37
 70
     1
102
RTVSPropertyOp38
 70
     1
102
RTVSPropertyOp39
 70
     1
102
RTVSPropertyOp40
 70
     1
102
RTVSPropertyOp41
 70
     1
102
RTVSPropertyOp42
 70
     1
102
RTVSPropertyOp43
 70
     1
102
RTVSPropertyOp44
 70
     1
102
RTVSPropertyOp45
 70
     1
102
RTVSPropertyOp46
 70
     1
102
RTVSPropertyOp47
 70
     1
102
RTVSPropertyOp48
 70
     1
102
RTVSPropertyOp49
 70
     1
102
RTVSPropertyOp50
 70
     1
102
RTVSPropertyOp51
 70
     0
102
RTVSPropertyOp52
 70
     0
102
RTVSPropertyOp53
 70
     1
102
RTVSPropertyOp54
 70
     1
102
RTVSPropertyOp55
 70
     1
102
RTVSPropertyOp56
 70
     1
102
RTVSPropertyOp57
 70
     1
102
RTVSPropertyOp58
 70
     1
102
RTVSPropertyOp59
 70
     1
102
RTVSPropertyOp60
 70
     1
102
RTVSPropertyOp61
 70
     1
102
RTVSPropertyOp62
 70
     1
  0
XRECORD
  5
299A3
102
{ACAD_REACTORS
330
299A2
102
}
330
299A2
100
AcDbXrecord
280
     1
102
RTVSPost2010Prop28
280
     0
102
RTVSPost2010PropOp28
 70
     1
102
RTVSPost2010Prop29
280
     1
102
RTVSPost2010PropOp29
 70
     1
102
RTVSPost2010Prop30
280
     1
102
RTVSPost2010PropOp30
 70
     1
102
RTVSPost2010Prop31
280
     0
102
RTVSPost2010PropOp31
 70
     1
102
RTVSPost2010Prop32
280
     0
102
RTVSPost2010PropOp32
 70
     1
102
RTVSPost2010Prop33
280
     0
102
RTVSPost2010PropOp33
 70
     1
102
RTVSPost2010Prop34
280
     0
102
RTVSPost2010PropOp34
 70
     1
102
RTVSPost2010Prop35
280
     0
102
RTVSPost2010PropOp35
 70
     1
102
RTVSPost2010Prop36
280
     0
102
RTVSPost2010PropOp36
 70
     1
102
RTVSPost2010Prop37
 90
       50
102
RTVSPost2010PropOp37
 70
     1
102
RTVSPost2010Prop38
140
0.0
102
RTVSPost2010PropOp38
 70
     1
102
RTVSPost2010Prop39
140
1.0
102
RTVSPost2010PropOp39
 70
     1
102
RTVSPost2010Prop40
 90
        0
102
RTVSPost2010PropOp40
 70
     1
102
RTVSPost2010Prop41ColorIndex
 90
       18
102
RTVSPost2010Prop41ColorRGB
 90
        0
102
RTVSPost2010PropOp41
 70
     1
102
RTVSPost2010Prop42
 90
       50
102
RTVSPost2010PropOp42
 70
     1
102
RTVSPost2010Prop43
 90
        3
102
RTVSPost2010PropOp43
 70
     1
102
RTVSPost2010Prop44ColorIndex
 90
        5
102
RTVSPost2010Prop44ColorRGB
 90
      255
102
RTVSPost2010PropOp44
 70
     1
102
RTVSPost2010Prop45
280
     0
102
RTVSPost2010PropOp45
 70
     1
102
RTVSPost2010Prop46
 90
       50
102
RTVSPost2010PropOp46
 70
     1
102
RTVSPost2010Prop47
 90
       50
102
RTVSPost2010PropOp47
 70
     1
102
RTVSPost2010Prop48
 90
       50
102
RTVSPost2010PropOp48
 70
     1
102
RTVSPost2010Prop49
280
     0
102
RTVSPost2010PropOp49
 70
     1
102
RTVSPost2010Prop50
 90
       50
102
RTVSPost2010PropOp50
 70
     1
102
RTVSPost2010Prop51ColorIndex
 90
      256
102
RTVSPost2010Prop51ColorRGB
 90
-16777216
102
RTVSPost2010PropOp51
 70
     0
102
RTVSPost2010Prop52
140
1.0
102
RTVSPost2010PropOp52
 70
     0
102
RTVSPost2010Prop53
 90
        2
102
RTVSPost2010PropOp53
 70
     1
102
RTVSPost2010Prop54
  1
strokes_ogs.tif
102
RTVSPost2010PropOp54
 70
     1
102
RTVSPost2010Prop55
280
     0
102
RTVSPost2010PropOp55
 70
     1
102
RTVSPost2010Prop56
140
1.0
102
RTVSPost2010PropOp56
 70
     1
102
RTVSPost2010Prop57
140
1.0
102
RTVSPost2010PropOp57
 70
     1
102
RTVSPropertyOp0
 70
     1
102
RTVSPropertyOp1
 70
     1
102
RTVSPropertyOp2
 70
     1
102
RTVSPropertyOp3
 70
     1
102
RTVSPropertyOp4
 70
     1
102
RTVSPropertyOp5
 70
     1
102
RTVSPropertyOp6
 70
     1
102
RTVSPropertyOp7
 70
     1
102
RTVSPropertyOp8
 70
     1
102
RTVSPropertyOp9
 70
     1
102
RTVSPropertyOp10
 70
     1
102
RTVSPropertyOp11
 70
     1
102
RTVSPropertyOp12
 70
     1
102
RTVSPropertyOp13
 70
     1
102
RTVSPropertyOp14
 70
     1
102
RTVSPropertyOp15
 70
     1
102
RTVSPropertyOp16
 70
     1
102
RTVSPropertyOp17
 70
     1
102
RTVSPropertyOp18
 70
     1
102
RTVSPropertyOp19
 70
     1
102
RTVSPropertyOp20
 70
     1
102
RTVSPropertyOp21
 70
     1
102
RTVSPropertyOp22
 70
     1
102
RTVSPropertyOp23
 70
     1
102
RTVSPropertyOp24
 70
     1
102
RTVSPropertyOp25
 70
     1
102
RTVSPropertyOp26
 70
     1
102
RTVSPropertyOp27
 70
     1
102
RTVSPropertyOp28
 70
     1
102
RTVSPropertyOp29
 70
     1
102
RTVSPropertyOp30
 70
     1
102
RTVSPropertyOp31
 70
     1
102
RTVSPropertyOp32
 70
     1
102
RTVSPropertyOp33
 70
     1
102
RTVSPropertyOp34
 70
     1
102
RTVSPropertyOp35
 70
     1
102
RTVSPropertyOp36
 70
     1
102
RTVSPropertyOp37
 70
     1
102
RTVSPropertyOp38
 70
     1
102
RTVSPropertyOp39
 70
     1
102
RTVSPropertyOp40
 70
     1
102
RTVSPropertyOp41
 70
     1
102
RTVSPropertyOp42
 70
     1
102
RTVSPropertyOp43
 70
     1
102
RTVSPropertyOp44
 70
     1
102
RTVSPropertyOp45
 70
     1
102
RTVSPropertyOp46
 70
     1
102
RTVSPropertyOp47
 70
     1
102
RTVSPropertyOp48
 70
     1
102
RTVSPropertyOp49
 70
     1
102
RTVSPropertyOp50
 70
     1
102
RTVSPropertyOp51
 70
     0
102
RTVSPropertyOp52
 70
     0
102
RTVSPropertyOp53
 70
     1
102
RTVSPropertyOp54
 70
     1
102
RTVSPropertyOp55
 70
     1
102
RTVSPropertyOp56
 70
     1
102
RTVSPropertyOp57
 70
     1
102
RTVSPropertyOp58
 70
     1
102
RTVSPropertyOp59
 70
     1
102
RTVSPropertyOp60
 70
     1
102
RTVSPropertyOp61
 70
     1
102
RTVSPropertyOp62
 70
     1
  0
XRECORD
  5
299B1
102
{ACAD_REACTORS
330
299B0
102
}
330
299B0
100
AcDbXrecord
280
     1
102
RTVSPost2010Prop28
280
     0
102
RTVSPost2010PropOp28
 70
     1
102
RTVSPost2010Prop29
280
     1
102
RTVSPost2010PropOp29
 70
     1
102
RTVSPost2010Prop30
280
     1
102
RTVSPost2010PropOp30
 70
     1
102
RTVSPost2010Prop31
280
     0
102
RTVSPost2010PropOp31
 70
     1
102
RTVSPost2010Prop32
280
     0
102
RTVSPost2010PropOp32
 70
     1
102
RTVSPost2010Prop33
280
     0
102
RTVSPost2010PropOp33
 70
     1
102
RTVSPost2010Prop34
280
     0
102
RTVSPost2010PropOp34
 70
     1
102
RTVSPost2010Prop35
280
     0
102
RTVSPost2010PropOp35
 70
     1
102
RTVSPost2010Prop36
280
     0
102
RTVSPost2010PropOp36
 70
     1
102
RTVSPost2010Prop37
 90
       50
102
RTVSPost2010PropOp37
 70
     1
102
RTVSPost2010Prop38
140
0.0
102
RTVSPost2010PropOp38
 70
     1
102
RTVSPost2010Prop39
140
1.0
102
RTVSPost2010PropOp39
 70
     1
102
RTVSPost2010Prop40
 90
        0
102
RTVSPost2010PropOp40
 70
     1
102
RTVSPost2010Prop41ColorIndex
 90
       18
102
RTVSPost2010Prop41ColorRGB
 90
        0
102
RTVSPost2010PropOp41
 70
     1
102
RTVSPost2010Prop42
 90
       50
102
RTVSPost2010PropOp42
 70
     1
102
RTVSPost2010Prop43
 90
        3
102
RTVSPost2010PropOp43
 70
     1
102
RTVSPost2010Prop44ColorIndex
 90
        5
102
RTVSPost2010Prop44ColorRGB
 90
      255
102
RTVSPost2010PropOp44
 70
     1
102
RTVSPost2010Prop45
280
     0
102
RTVSPost2010PropOp45
 70
     1
102
RTVSPost2010Prop46
 90
       50
102
RTVSPost2010PropOp46
 70
     1
102
RTVSPost2010Prop47
 90
       50
102
RTVSPost2010PropOp47
 70
     1
102
RTVSPost2010Prop48
 90
       50
102
RTVSPost2010PropOp48
 70
     1
102
RTVSPost2010Prop49
280
     0
102
RTVSPost2010PropOp49
 70
     1
102
RTVSPost2010Prop50
 90
       50
102
RTVSPost2010PropOp50
 70
     1
102
RTVSPost2010Prop51ColorIndex
 90
      256
102
RTVSPost2010Prop51ColorRGB
 90
-16777216
102
RTVSPost2010PropOp51
 70
     0
102
RTVSPost2010Prop52
140
1.0
102
RTVSPost2010PropOp52
 70
     0
102
RTVSPost2010Prop53
 90
        2
102
RTVSPost2010PropOp53
 70
     1
102
RTVSPost2010Prop54
  1
strokes_ogs.tif
102
RTVSPost2010PropOp54
 70
     1
102
RTVSPost2010Prop55
280
     0
102
RTVSPost2010PropOp55
 70
     1
102
RTVSPost2010Prop56
140
1.0
102
RTVSPost2010PropOp56
 70
     1
102
RTVSPost2010Prop57
140
1.0
102
RTVSPost2010PropOp57
 70
     1
102
RTVSPropertyOp0
 70
     1
102
RTVSPropertyOp1
 70
     1
102
RTVSPropertyOp2
 70
     1
102
RTVSPropertyOp3
 70
     1
102
RTVSPropertyOp4
 70
     1
102
RTVSPropertyOp5
 70
     1
102
RTVSPropertyOp6
 70
     1
102
RTVSPropertyOp7
 70
     1
102
RTVSPropertyOp8
 70
     1
102
RTVSPropertyOp9
 70
     1
102
RTVSPropertyOp10
 70
     1
102
RTVSPropertyOp11
 70
     1
102
RTVSPropertyOp12
 70
     1
102
RTVSPropertyOp13
 70
     1
102
RTVSPropertyOp14
 70
     1
102
RTVSPropertyOp15
 70
     1
102
RTVSPropertyOp16
 70
     1
102
RTVSPropertyOp17
 70
     1
102
RTVSPropertyOp18
 70
     1
102
RTVSPropertyOp19
 70
     1
102
RTVSPropertyOp20
 70
     1
102
RTVSPropertyOp21
 70
     1
102
RTVSPropertyOp22
 70
     1
102
RTVSPropertyOp23
 70
     1
102
RTVSPropertyOp24
 70
     1
102
RTVSPropertyOp25
 70
     1
102
RTVSPropertyOp26
 70
     1
102
RTVSPropertyOp27
 70
     1
102
RTVSPropertyOp28
 70
     1
102
RTVSPropertyOp29
 70
     1
102
RTVSPropertyOp30
 70
     1
102
RTVSPropertyOp31
 70
     1
102
RTVSPropertyOp32
 70
     1
102
RTVSPropertyOp33
 70
     1
102
RTVSPropertyOp34
 70
     1
102
RTVSPropertyOp35
 70
     1
102
RTVSPropertyOp36
 70
     1
102
RTVSPropertyOp37
 70
     1
102
RTVSPropertyOp38
 70
     1
102
RTVSPropertyOp39
 70
     1
102
RTVSPropertyOp40
 70
     1
102
RTVSPropertyOp41
 70
     1
102
RTVSPropertyOp42
 70
     1
102
RTVSPropertyOp43
 70
     1
102
RTVSPropertyOp44
 70
     1
102
RTVSPropertyOp45
 70
     1
102
RTVSPropertyOp46
 70
     1
102
RTVSPropertyOp47
 70
     1
102
RTVSPropertyOp48
 70
     1
102
RTVSPropertyOp49
 70
     1
102
RTVSPropertyOp50
 70
     1
102
RTVSPropertyOp51
 70
     0
102
RTVSPropertyOp52
 70
     0
102
RTVSPropertyOp53
 70
     1
102
RTVSPropertyOp54
 70
     1
102
RTVSPropertyOp55
 70
     1
102
RTVSPropertyOp56
 70
     1
102
RTVSPropertyOp57
 70
     1
102
RTVSPropertyOp58
 70
     1
102
RTVSPropertyOp59
 70
     1
102
RTVSPropertyOp60
 70
     1
102
RTVSPropertyOp61
 70
     1
102
RTVSPropertyOp62
 70
     1
  0
XRECORD
  5
299B9
102
{ACAD_REACTORS
330
299B8
102
}
330
299B8
100
AcDbXrecord
280
     1
102
RTVSPost2010Prop28
280
     0
102
RTVSPost2010PropOp28
 70
     1
102
RTVSPost2010Prop29
280
     1
102
RTVSPost2010PropOp29
 70
     1
102
RTVSPost2010Prop30
280
     1
102
RTVSPost2010PropOp30
 70
     1
102
RTVSPost2010Prop31
280
     0
102
RTVSPost2010PropOp31
 70
     1
102
RTVSPost2010Prop32
280
     0
102
RTVSPost2010PropOp32
 70
     1
102
RTVSPost2010Prop33
280
     0
102
RTVSPost2010PropOp33
 70
     1
102
RTVSPost2010Prop34
280
     0
102
RTVSPost2010PropOp34
 70
     1
102
RTVSPost2010Prop35
280
     0
102
RTVSPost2010PropOp35
 70
     1
102
RTVSPost2010Prop36
280
     0
102
RTVSPost2010PropOp36
 70
     1
102
RTVSPost2010Prop37
 90
       50
102
RTVSPost2010PropOp37
 70
     1
102
RTVSPost2010Prop38
140
0.0
102
RTVSPost2010PropOp38
 70
     1
102
RTVSPost2010Prop39
140
1.0
102
RTVSPost2010PropOp39
 70
     1
102
RTVSPost2010Prop40
 90
        0
102
RTVSPost2010PropOp40
 70
     1
102
RTVSPost2010Prop41ColorIndex
 90
       18
102
RTVSPost2010Prop41ColorRGB
 90
        0
102
RTVSPost2010PropOp41
 70
     1
102
RTVSPost2010Prop42
 90
       50
102
RTVSPost2010PropOp42
 70
     1
102
RTVSPost2010Prop43
 90
        3
102
RTVSPost2010PropOp43
 70
     1
102
RTVSPost2010Prop44ColorIndex
 90
        5
102
RTVSPost2010Prop44ColorRGB
 90
      255
102
RTVSPost2010PropOp44
 70
     1
102
RTVSPost2010Prop45
280
     0
102
RTVSPost2010PropOp45
 70
     1
102
RTVSPost2010Prop46
 90
       50
102
RTVSPost2010PropOp46
 70
     1
102
RTVSPost2010Prop47
 90
       50
102
RTVSPost2010PropOp47
 70
     1
102
RTVSPost2010Prop48
 90
       50
102
RTVSPost2010PropOp48
 70
     1
102
RTVSPost2010Prop49
280
     0
102
RTVSPost2010PropOp49
 70
     1
102
RTVSPost2010Prop50
 90
       50
102
RTVSPost2010PropOp50
 70
     1
102
RTVSPost2010Prop51ColorIndex
 90
      256
102
RTVSPost2010Prop51ColorRGB
 90
-16777216
102
RTVSPost2010PropOp51
 70
     0
102
RTVSPost2010Prop52
140
1.0
102
RTVSPost2010PropOp52
 70
     0
102
RTVSPost2010Prop53
 90
        2
102
RTVSPost2010PropOp53
 70
     1
102
RTVSPost2010Prop54
  1
strokes_ogs.tif
102
RTVSPost2010PropOp54
 70
     1
102
RTVSPost2010Prop55
280
     0
102
RTVSPost2010PropOp55
 70
     1
102
RTVSPost2010Prop56
140
1.0
102
RTVSPost2010PropOp56
 70
     1
102
RTVSPost2010Prop57
140
1.0
102
RTVSPost2010PropOp57
 70
     1
102
RTVSPropertyOp0
 70
     1
102
RTVSPropertyOp1
 70
     1
102
RTVSPropertyOp2
 70
     1
102
RTVSPropertyOp3
 70
     1
102
RTVSPropertyOp4
 70
     1
102
RTVSPropertyOp5
 70
     1
102
RTVSPropertyOp6
 70
     1
102
RTVSPropertyOp7
 70
     1
102
RTVSPropertyOp8
 70
     1
102
RTVSPropertyOp9
 70
     1
102
RTVSPropertyOp10
 70
     1
102
RTVSPropertyOp11
 70
     1
102
RTVSPropertyOp12
 70
     1
102
RTVSPropertyOp13
 70
     1
102
RTVSPropertyOp14
 70
     1
102
RTVSPropertyOp15
 70
     1
102
RTVSPropertyOp16
 70
     1
102
RTVSPropertyOp17
 70
     1
102
RTVSPropertyOp18
 70
     1
102
RTVSPropertyOp19
 70
     1
102
RTVSPropertyOp20
 70
     1
102
RTVSPropertyOp21
 70
     1
102
RTVSPropertyOp22
 70
     1
102
RTVSPropertyOp23
 70
     1
102
RTVSPropertyOp24
 70
     1
102
RTVSPropertyOp25
 70
     1
102
RTVSPropertyOp26
 70
     1
102
RTVSPropertyOp27
 70
     1
102
RTVSPropertyOp28
 70
     1
102
RTVSPropertyOp29
 70
     1
102
RTVSPropertyOp30
 70
     1
102
RTVSPropertyOp31
 70
     1
102
RTVSPropertyOp32
 70
     1
102
RTVSPropertyOp33
 70
     1
102
RTVSPropertyOp34
 70
     1
102
RTVSPropertyOp35
 70
     1
102
RTVSPropertyOp36
 70
     1
102
RTVSPropertyOp37
 70
     1
102
RTVSPropertyOp38
 70
     1
102
RTVSPropertyOp39
 70
     1
102
RTVSPropertyOp40
 70
     1
102
RTVSPropertyOp41
 70
     1
102
RTVSPropertyOp42
 70
     1
102
RTVSPropertyOp43
 70
     1
102
RTVSPropertyOp44
 70
     1
102
RTVSPropertyOp45
 70
     1
102
RTVSPropertyOp46
 70
     1
102
RTVSPropertyOp47
 70
     1
102
RTVSPropertyOp48
 70
     1
102
RTVSPropertyOp49
 70
     1
102
RTVSPropertyOp50
 70
     1
102
RTVSPropertyOp51
 70
     0
102
RTVSPropertyOp52
 70
     0
102
RTVSPropertyOp53
 70
     1
102
RTVSPropertyOp54
 70
     1
102
RTVSPropertyOp55
 70
     1
102
RTVSPropertyOp56
 70
     1
102
RTVSPropertyOp57
 70
     1
102
RTVSPropertyOp58
 70
     1
102
RTVSPropertyOp59
 70
     1
102
RTVSPropertyOp60
 70
     1
102
RTVSPropertyOp61
 70
     1
102
RTVSPropertyOp62
 70
     1
  0
XRECORD
  5
299AB
102
{ACAD_REACTORS
330
299AA
102
}
330
299AA
100
AcDbXrecord
280
     1
102
RTVSPost2010Prop28
280
     0
102
RTVSPost2010PropOp28
 70
     1
102
RTVSPost2010Prop29
280
     1
102
RTVSPost2010PropOp29
 70
     1
102
RTVSPost2010Prop30
280
     1
102
RTVSPost2010PropOp30
 70
     1
102
RTVSPost2010Prop31
280
     0
102
RTVSPost2010PropOp31
 70
     1
102
RTVSPost2010Prop32
280
     0
102
RTVSPost2010PropOp32
 70
     1
102
RTVSPost2010Prop33
280
     0
102
RTVSPost2010PropOp33
 70
     1
102
RTVSPost2010Prop34
280
     0
102
RTVSPost2010PropOp34
 70
     1
102
RTVSPost2010Prop35
280
     0
102
RTVSPost2010PropOp35
 70
     1
102
RTVSPost2010Prop36
280
     0
102
RTVSPost2010PropOp36
 70
     1
102
RTVSPost2010Prop37
 90
       50
102
RTVSPost2010PropOp37
 70
     1
102
RTVSPost2010Prop38
140
0.0
102
RTVSPost2010PropOp38
 70
     1
102
RTVSPost2010Prop39
140
1.0
102
RTVSPost2010PropOp39
 70
     1
102
RTVSPost2010Prop40
 90
        0
102
RTVSPost2010PropOp40
 70
     1
102
RTVSPost2010Prop41ColorIndex
 90
       18
102
RTVSPost2010Prop41ColorRGB
 90
        0
102
RTVSPost2010PropOp41
 70
     1
102
RTVSPost2010Prop42
 90
       50
102
RTVSPost2010PropOp42
 70
     1
102
RTVSPost2010Prop43
 90
        3
102
RTVSPost2010PropOp43
 70
     1
102
RTVSPost2010Prop44ColorIndex
 90
        5
102
RTVSPost2010Prop44ColorRGB
 90
      255
102
RTVSPost2010PropOp44
 70
     1
102
RTVSPost2010Prop45
280
     0
102
RTVSPost2010PropOp45
 70
     1
102
RTVSPost2010Prop46
 90
       50
102
RTVSPost2010PropOp46
 70
     1
102
RTVSPost2010Prop47
 90
       50
102
RTVSPost2010PropOp47
 70
     1
102
RTVSPost2010Prop48
 90
       50
102
RTVSPost2010PropOp48
 70
     1
102
RTVSPost2010Prop49
280
     0
102
RTVSPost2010PropOp49
 70
     1
102
RTVSPost2010Prop50
 90
       50
102
RTVSPost2010PropOp50
 70
     1
102
RTVSPost2010Prop51ColorIndex
 90
      256
102
RTVSPost2010Prop51ColorRGB
 90
-16777216
102
RTVSPost2010PropOp51
 70
     0
102
RTVSPost2010Prop52
140
1.0
102
RTVSPost2010PropOp52
 70
     0
102
RTVSPost2010Prop53
 90
        2
102
RTVSPost2010PropOp53
 70
     1
102
RTVSPost2010Prop54
  1
strokes_ogs.tif
102
RTVSPost2010PropOp54
 70
     1
102
RTVSPost2010Prop55
280
     0
102
RTVSPost2010PropOp55
 70
     1
102
RTVSPost2010Prop56
140
1.0
102
RTVSPost2010PropOp56
 70
     1
102
RTVSPost2010Prop57
140
1.0
102
RTVSPost2010PropOp57
 70
     1
102
RTVSPropertyOp0
 70
     1
102
RTVSPropertyOp1
 70
     1
102
RTVSPropertyOp2
 70
     1
102
RTVSPropertyOp3
 70
     1
102
RTVSPropertyOp4
 70
     1
102
RTVSPropertyOp5
 70
     1
102
RTVSPropertyOp6
 70
     1
102
RTVSPropertyOp7
 70
     1
102
RTVSPropertyOp8
 70
     1
102
RTVSPropertyOp9
 70
     1
102
RTVSPropertyOp10
 70
     1
102
RTVSPropertyOp11
 70
     1
102
RTVSPropertyOp12
 70
     1
102
RTVSPropertyOp13
 70
     1
102
RTVSPropertyOp14
 70
     1
102
RTVSPropertyOp15
 70
     1
102
RTVSPropertyOp16
 70
     1
102
RTVSPropertyOp17
 70
     1
102
RTVSPropertyOp18
 70
     1
102
RTVSPropertyOp19
 70
     1
102
RTVSPropertyOp20
 70
     1
102
RTVSPropertyOp21
 70
     1
102
RTVSPropertyOp22
 70
     1
102
RTVSPropertyOp23
 70
     1
102
RTVSPropertyOp24
 70
     1
102
RTVSPropertyOp25
 70
     1
102
RTVSPropertyOp26
 70
     1
102
RTVSPropertyOp27
 70
     1
102
RTVSPropertyOp28
 70
     1
102
RTVSPropertyOp29
 70
     1
102
RTVSPropertyOp30
 70
     1
102
RTVSPropertyOp31
 70
     1
102
RTVSPropertyOp32
 70
     1
102
RTVSPropertyOp33
 70
     1
102
RTVSPropertyOp34
 70
     1
102
RTVSPropertyOp35
 70
     1
102
RTVSPropertyOp36
 70
     1
102
RTVSPropertyOp37
 70
     1
102
RTVSPropertyOp38
 70
     1
102
RTVSPropertyOp39
 70
     1
102
RTVSPropertyOp40
 70
     1
102
RTVSPropertyOp41
 70
     1
102
RTVSPropertyOp42
 70
     1
102
RTVSPropertyOp43
 70
     1
102
RTVSPropertyOp44
 70
     1
102
RTVSPropertyOp45
 70
     1
102
RTVSPropertyOp46
 70
     1
102
RTVSPropertyOp47
 70
     1
102
RTVSPropertyOp48
 70
     1
102
RTVSPropertyOp49
 70
     1
102
RTVSPropertyOp50
 70
     1
102
RTVSPropertyOp51
 70
     0
102
RTVSPropertyOp52
 70
     0
102
RTVSPropertyOp53
 70
     1
102
RTVSPropertyOp54
 70
     1
102
RTVSPropertyOp55
 70
     1
102
RTVSPropertyOp56
 70
     1
102
RTVSPropertyOp57
 70
     1
102
RTVSPropertyOp58
 70
     1
102
RTVSPropertyOp59
 70
     1
102
RTVSPropertyOp60
 70
     1
102
RTVSPropertyOp61
 70
     1
102
RTVSPropertyOp62
 70
     1
  0
XRECORD
  5
299AF
102
{ACAD_REACTORS
330
299AE
102
}
330
299AE
100
AcDbXrecord
280
     1
102
RTVSPost2010Prop28
280
     0
102
RTVSPost2010PropOp28
 70
     1
102
RTVSPost2010Prop29
280
     1
102
RTVSPost2010PropOp29
 70
     1
102
RTVSPost2010Prop30
280
     1
102
RTVSPost2010PropOp30
 70
     1
102
RTVSPost2010Prop31
280
     0
102
RTVSPost2010PropOp31
 70
     1
102
RTVSPost2010Prop32
280
     0
102
RTVSPost2010PropOp32
 70
     1
102
RTVSPost2010Prop33
280
     0
102
RTVSPost2010PropOp33
 70
     1
102
RTVSPost2010Prop34
280
     0
102
RTVSPost2010PropOp34
 70
     1
102
RTVSPost2010Prop35
280
     0
102
RTVSPost2010PropOp35
 70
     1
102
RTVSPost2010Prop36
280
     0
102
RTVSPost2010PropOp36
 70
     1
102
RTVSPost2010Prop37
 90
       50
102
RTVSPost2010PropOp37
 70
     1
102
RTVSPost2010Prop38
140
0.0
102
RTVSPost2010PropOp38
 70
     1
102
RTVSPost2010Prop39
140
1.0
102
RTVSPost2010PropOp39
 70
     1
102
RTVSPost2010Prop40
 90
        0
102
RTVSPost2010PropOp40
 70
     1
102
RTVSPost2010Prop41ColorIndex
 90
       18
102
RTVSPost2010Prop41ColorRGB
 90
        0
102
RTVSPost2010PropOp41
 70
     1
102
RTVSPost2010Prop42
 90
       50
102
RTVSPost2010PropOp42
 70
     1
102
RTVSPost2010Prop43
 90
        3
102
RTVSPost2010PropOp43
 70
     1
102
RTVSPost2010Prop44ColorIndex
 90
        5
102
RTVSPost2010Prop44ColorRGB
 90
      255
102
RTVSPost2010PropOp44
 70
     1
102
RTVSPost2010Prop45
280
     0
102
RTVSPost2010PropOp45
 70
     1
102
RTVSPost2010Prop46
 90
       50
102
RTVSPost2010PropOp46
 70
     1
102
RTVSPost2010Prop47
 90
       50
102
RTVSPost2010PropOp47
 70
     1
102
RTVSPost2010Prop48
 90
       50
102
RTVSPost2010PropOp48
 70
     1
102
RTVSPost2010Prop49
280
     0
102
RTVSPost2010PropOp49
 70
     1
102
RTVSPost2010Prop50
 90
       50
102
RTVSPost2010PropOp50
 70
     1
102
RTVSPost2010Prop51ColorIndex
 90
      256
102
RTVSPost2010Prop51ColorRGB
 90
-16777216
102
RTVSPost2010PropOp51
 70
     0
102
RTVSPost2010Prop52
140
1.0
102
RTVSPost2010PropOp52
 70
     0
102
RTVSPost2010Prop53
 90
        2
102
RTVSPost2010PropOp53
 70
     1
102
RTVSPost2010Prop54
  1
strokes_ogs.tif
102
RTVSPost2010PropOp54
 70
     1
102
RTVSPost2010Prop55
280
     0
102
RTVSPost2010PropOp55
 70
     1
102
RTVSPost2010Prop56
140
1.0
102
RTVSPost2010PropOp56
 70
     1
102
RTVSPost2010Prop57
140
1.0
102
RTVSPost2010PropOp57
 70
     1
102
RTVSPropertyOp0
 70
     1
102
RTVSPropertyOp1
 70
     1
102
RTVSPropertyOp2
 70
     1
102
RTVSPropertyOp3
 70
     1
102
RTVSPropertyOp4
 70
     1
102
RTVSPropertyOp5
 70
     1
102
RTVSPropertyOp6
 70
     1
102
RTVSPropertyOp7
 70
     1
102
RTVSPropertyOp8
 70
     1
102
RTVSPropertyOp9
 70
     1
102
RTVSPropertyOp10
 70
     1
102
RTVSPropertyOp11
 70
     1
102
RTVSPropertyOp12
 70
     1
102
RTVSPropertyOp13
 70
     1
102
RTVSPropertyOp14
 70
     1
102
RTVSPropertyOp15
 70
     1
102
RTVSPropertyOp16
 70
     1
102
RTVSPropertyOp17
 70
     1
102
RTVSPropertyOp18
 70
     1
102
RTVSPropertyOp19
 70
     1
102
RTVSPropertyOp20
 70
     1
102
RTVSPropertyOp21
 70
     1
102
RTVSPropertyOp22
 70
     1
102
RTVSPropertyOp23
 70
     1
102
RTVSPropertyOp24
 70
     1
102
RTVSPropertyOp25
 70
     1
102
RTVSPropertyOp26
 70
     1
102
RTVSPropertyOp27
 70
     1
102
RTVSPropertyOp28
 70
     1
102
RTVSPropertyOp29
 70
     1
102
RTVSPropertyOp30
 70
     1
102
RTVSPropertyOp31
 70
     1
102
RTVSPropertyOp32
 70
     1
102
RTVSPropertyOp33
 70
     1
102
RTVSPropertyOp34
 70
     1
102
RTVSPropertyOp35
 70
     1
102
RTVSPropertyOp36
 70
     1
102
RTVSPropertyOp37
 70
     1
102
RTVSPropertyOp38
 70
     1
102
RTVSPropertyOp39
 70
     1
102
RTVSPropertyOp40
 70
     1
102
RTVSPropertyOp41
 70
     1
102
RTVSPropertyOp42
 70
     1
102
RTVSPropertyOp43
 70
     1
102
RTVSPropertyOp44
 70
     1
102
RTVSPropertyOp45
 70
     1
102
RTVSPropertyOp46
 70
     1
102
RTVSPropertyOp47
 70
     1
102
RTVSPropertyOp48
 70
     1
102
RTVSPropertyOp49
 70
     1
102
RTVSPropertyOp50
 70
     1
102
RTVSPropertyOp51
 70
     0
102
RTVSPropertyOp52
 70
     0
102
RTVSPropertyOp53
 70
     1
102
RTVSPropertyOp54
 70
     1
102
RTVSPropertyOp55
 70
     1
102
RTVSPropertyOp56
 70
     1
102
RTVSPropertyOp57
 70
     1
102
RTVSPropertyOp58
 70
     1
102
RTVSPropertyOp59
 70
     1
102
RTVSPropertyOp60
 70
     1
102
RTVSPropertyOp61
 70
     1
102
RTVSPropertyOp62
 70
     1
  0
XRECORD
  5
299C9
102
{ACAD_REACTORS
330
299C8
102
}
330
299C8
100
AcDbXrecord
280
     1
102
RTVSPost2010Prop28
280
     0
102
RTVSPost2010PropOp28
 70
     1
102
RTVSPost2010Prop29
280
     1
102
RTVSPost2010PropOp29
 70
     1
102
RTVSPost2010Prop30
280
     1
102
RTVSPost2010PropOp30
 70
     1
102
RTVSPost2010Prop31
280
     0
102
RTVSPost2010PropOp31
 70
     1
102
RTVSPost2010Prop32
280
     0
102
RTVSPost2010PropOp32
 70
     1
102
RTVSPost2010Prop33
280
     0
102
RTVSPost2010PropOp33
 70
     1
102
RTVSPost2010Prop34
280
     0
102
RTVSPost2010PropOp34
 70
     1
102
RTVSPost2010Prop35
280
     0
102
RTVSPost2010PropOp35
 70
     1
102
RTVSPost2010Prop36
280
     0
102
RTVSPost2010PropOp36
 70
     1
102
RTVSPost2010Prop37
 90
       50
102
RTVSPost2010PropOp37
 70
     0
102
RTVSPost2010Prop38
140
0.0
102
RTVSPost2010PropOp38
 70
     0
102
RTVSPost2010Prop39
140
1.0
102
RTVSPost2010PropOp39
 70
     0
102
RTVSPost2010Prop40
 90
        0
102
RTVSPost2010PropOp40
 70
     0
102
RTVSPost2010Prop41ColorIndex
 90
       18
102
RTVSPost2010Prop41ColorRGB
 90
        0
102
RTVSPost2010PropOp41
 70
     0
102
RTVSPost2010Prop42
 90
       50
102
RTVSPost2010PropOp42
 70
     0
102
RTVSPost2010Prop43
 90
        3
102
RTVSPost2010PropOp43
 70
     0
102
RTVSPost2010Prop44ColorIndex
 90
        5
102
RTVSPost2010Prop44ColorRGB
 90
      255
102
RTVSPost2010PropOp44
 70
     0
102
RTVSPost2010Prop45
280
     0
102
RTVSPost2010PropOp45
 70
     1
102
RTVSPost2010Prop46
 90
       50
102
RTVSPost2010PropOp46
 70
     0
102
RTVSPost2010Prop47
 90
       50
102
RTVSPost2010PropOp47
 70
     0
102
RTVSPost2010Prop48
 90
       50
102
RTVSPost2010PropOp48
 70
     0
102
RTVSPost2010Prop49
280
     0
102
RTVSPost2010PropOp49
 70
     1
102
RTVSPost2010Prop50
 90
       50
102
RTVSPost2010PropOp50
 70
     0
102
RTVSPost2010Prop51ColorIndex
 90
      256
102
RTVSPost2010Prop51ColorRGB
 90
-16777216
102
RTVSPost2010PropOp51
 70
     0
102
RTVSPost2010Prop52
140
1.0
102
RTVSPost2010PropOp52
 70
     0
102
RTVSPost2010Prop53
 90
        2
102
RTVSPost2010PropOp53
 70
     0
102
RTVSPost2010Prop54
  1
strokes_ogs.tif
102
RTVSPost2010PropOp54
 70
     0
102
RTVSPost2010Prop55
280
     0
102
RTVSPost2010PropOp55
 70
     1
102
RTVSPost2010Prop56
140
1.0
102
RTVSPost2010PropOp56
 70
     0
102
RTVSPost2010Prop57
140
1.0
102
RTVSPost2010PropOp57
 70
     0
102
RTVSPropertyOp0
 70
     0
102
RTVSPropertyOp1
 70
     0
102
RTVSPropertyOp2
 70
     0
102
RTVSPropertyOp3
 70
     0
102
RTVSPropertyOp4
 70
     0
102
RTVSPropertyOp5
 70
     0
102
RTVSPropertyOp6
 70
     0
102
RTVSPropertyOp7
 70
     0
102
RTVSPropertyOp8
 70
     0
102
RTVSPropertyOp9
 70
     0
102
RTVSPropertyOp10
 70
     0
102
RTVSPropertyOp11
 70
     0
102
RTVSPropertyOp12
 70
     0
102
RTVSPropertyOp13
 70
     0
102
RTVSPropertyOp14
 70
     2
102
RTVSPropertyOp15
 70
     0
102
RTVSPropertyOp16
 70
     0
102
RTVSPropertyOp17
 70
     0
102
RTVSPropertyOp18
 70
     0
102
RTVSPropertyOp19
 70
     0
102
RTVSPropertyOp20
 70
     0
102
RTVSPropertyOp21
 70
     0
102
RTVSPropertyOp22
 70
     0
102
RTVSPropertyOp23
 70
     0
102
RTVSPropertyOp24
 70
     0
102
RTVSPropertyOp25
 70
     0
102
RTVSPropertyOp26
 70
     0
102
RTVSPropertyOp27
 70
     0
102
RTVSPropertyOp28
 70
     1
102
RTVSPropertyOp29
 70
     1
102
RTVSPropertyOp30
 70
     1
102
RTVSPropertyOp31
 70
     1
102
RTVSPropertyOp32
 70
     1
102
RTVSPropertyOp33
 70
     1
102
RTVSPropertyOp34
 70
     1
102
RTVSPropertyOp35
 70
     1
102
RTVSPropertyOp36
 70
     1
102
RTVSPropertyOp37
 70
     0
102
RTVSPropertyOp38
 70
     0
102
RTVSPropertyOp39
 70
     0
102
RTVSPropertyOp40
 70
     0
102
RTVSPropertyOp41
 70
     0
102
RTVSPropertyOp42
 70
     0
102
RTVSPropertyOp43
 70
     0
102
RTVSPropertyOp44
 70
     0
102
RTVSPropertyOp45
 70
     1
102
RTVSPropertyOp46
 70
     0
102
RTVSPropertyOp47
 70
     0
102
RTVSPropertyOp48
 70
     0
102
RTVSPropertyOp49
 70
     1
102
RTVSPropertyOp50
 70
     0
102
RTVSPropertyOp51
 70
     0
102
RTVSPropertyOp52
 70
     0
102
RTVSPropertyOp53
 70
     0
102
RTVSPropertyOp54
 70
     0
102
RTVSPropertyOp55
 70
     1
102
RTVSPropertyOp56
 70
     0
102
RTVSPropertyOp57
 70
     0
102
RTVSPropertyOp58
 70
     0
102
RTVSPropertyOp59
 70
     0
102
RTVSPropertyOp60
 70
     0
102
RTVSPropertyOp61
 70
     0
102
RTVSPropertyOp62
 70
     0
  0
XRECORD
  5
299B7
102
{ACAD_REACTORS
330
299B6
102
}
330
299B6
100
AcDbXrecord
280
     1
102
RTVSPost2010Prop28
280
     0
102
RTVSPost2010PropOp28
 70
     1
102
RTVSPost2010Prop29
280
     1
102
RTVSPost2010PropOp29
 70
     1
102
RTVSPost2010Prop30
280
     1
102
RTVSPost2010PropOp30
 70
     1
102
RTVSPost2010Prop31
280
     0
102
RTVSPost2010PropOp31
 70
     1
102
RTVSPost2010Prop32
280
     0
102
RTVSPost2010PropOp32
 70
     1
102
RTVSPost2010Prop33
280
     0
102
RTVSPost2010PropOp33
 70
     1
102
RTVSPost2010Prop34
280
     0
102
RTVSPost2010PropOp34
 70
     1
102
RTVSPost2010Prop35
280
     0
102
RTVSPost2010PropOp35
 70
     1
102
RTVSPost2010Prop36
280
     0
102
RTVSPost2010PropOp36
 70
     1
102
RTVSPost2010Prop37
 90
       50
102
RTVSPost2010PropOp37
 70
     1
102
RTVSPost2010Prop38
140
0.0
102
RTVSPost2010PropOp38
 70
     1
102
RTVSPost2010Prop39
140
1.0
102
RTVSPost2010PropOp39
 70
     1
102
RTVSPost2010Prop40
 90
        0
102
RTVSPost2010PropOp40
 70
     1
102
RTVSPost2010Prop41ColorIndex
 90
       18
102
RTVSPost2010Prop41ColorRGB
 90
        0
102
RTVSPost2010PropOp41
 70
     1
102
RTVSPost2010Prop42
 90
       50
102
RTVSPost2010PropOp42
 70
     1
102
RTVSPost2010Prop43
 90
        3
102
RTVSPost2010PropOp43
 70
     1
102
RTVSPost2010Prop44ColorIndex
 90
        5
102
RTVSPost2010Prop44ColorRGB
 90
      255
102
RTVSPost2010PropOp44
 70
     1
102
RTVSPost2010Prop45
280
     0
102
RTVSPost2010PropOp45
 70
     1
102
RTVSPost2010Prop46
 90
       50
102
RTVSPost2010PropOp46
 70
     1
102
RTVSPost2010Prop47
 90
       50
102
RTVSPost2010PropOp47
 70
     1
102
RTVSPost2010Prop48
 90
       50
102
RTVSPost2010PropOp48
 70
     1
102
RTVSPost2010Prop49
280
     0
102
RTVSPost2010PropOp49
 70
     1
102
RTVSPost2010Prop50
 90
       50
102
RTVSPost2010PropOp50
 70
     1
102
RTVSPost2010Prop51ColorIndex
 90
      256
102
RTVSPost2010Prop51ColorRGB
 90
-16777216
102
RTVSPost2010PropOp51
 70
     0
102
RTVSPost2010Prop52
140
1.0
102
RTVSPost2010PropOp52
 70
     0
102
RTVSPost2010Prop53
 90
        2
102
RTVSPost2010PropOp53
 70
     1
102
RTVSPost2010Prop54
  1
strokes_ogs.tif
102
RTVSPost2010PropOp54
 70
     1
102
RTVSPost2010Prop55
280
     0
102
RTVSPost2010PropOp55
 70
     1
102
RTVSPost2010Prop56
140
1.0
102
RTVSPost2010PropOp56
 70
     1
102
RTVSPost2010Prop57
140
1.0
102
RTVSPost2010PropOp57
 70
     1
102
RTVSPropertyOp0
 70
     1
102
RTVSPropertyOp1
 70
     1
102
RTVSPropertyOp2
 70
     1
102
RTVSPropertyOp3
 70
     1
102
RTVSPropertyOp4
 70
     1
102
RTVSPropertyOp5
 70
     1
102
RTVSPropertyOp6
 70
     1
102
RTVSPropertyOp7
 70
     1
102
RTVSPropertyOp8
 70
     1
102
RTVSPropertyOp9
 70
     1
102
RTVSPropertyOp10
 70
     1
102
RTVSPropertyOp11
 70
     1
102
RTVSPropertyOp12
 70
     1
102
RTVSPropertyOp13
 70
     1
102
RTVSPropertyOp14
 70
     1
102
RTVSPropertyOp15
 70
     1
102
RTVSPropertyOp16
 70
     1
102
RTVSPropertyOp17
 70
     1
102
RTVSPropertyOp18
 70
     1
102
RTVSPropertyOp19
 70
     1
102
RTVSPropertyOp20
 70
     1
102
RTVSPropertyOp21
 70
     1
102
RTVSPropertyOp22
 70
     1
102
RTVSPropertyOp23
 70
     1
102
RTVSPropertyOp24
 70
     1
102
RTVSPropertyOp25
 70
     1
102
RTVSPropertyOp26
 70
     1
102
RTVSPropertyOp27
 70
     1
102
RTVSPropertyOp28
 70
     1
102
RTVSPropertyOp29
 70
     1
102
RTVSPropertyOp30
 70
     1
102
RTVSPropertyOp31
 70
     1
102
RTVSPropertyOp32
 70
     1
102
RTVSPropertyOp33
 70
     1
102
RTVSPropertyOp34
 70
     1
102
RTVSPropertyOp35
 70
     1
102
RTVSPropertyOp36
 70
     1
102
RTVSPropertyOp37
 70
     1
102
RTVSPropertyOp38
 70
     1
102
RTVSPropertyOp39
 70
     1
102
RTVSPropertyOp40
 70
     1
102
RTVSPropertyOp41
 70
     1
102
RTVSPropertyOp42
 70
     1
102
RTVSPropertyOp43
 70
     1
102
RTVSPropertyOp44
 70
     1
102
RTVSPropertyOp45
 70
     1
102
RTVSPropertyOp46
 70
     1
102
RTVSPropertyOp47
 70
     1
102
RTVSPropertyOp48
 70
     1
102
RTVSPropertyOp49
 70
     1
102
RTVSPropertyOp50
 70
     1
102
RTVSPropertyOp51
 70
     0
102
RTVSPropertyOp52
 70
     0
102
RTVSPropertyOp53
 70
     1
102
RTVSPropertyOp54
 70
     1
102
RTVSPropertyOp55
 70
     1
102
RTVSPropertyOp56
 70
     1
102
RTVSPropertyOp57
 70
     1
102
RTVSPropertyOp58
 70
     1
102
RTVSPropertyOp59
 70
     1
102
RTVSPropertyOp60
 70
     1
102
RTVSPropertyOp61
 70
     1
102
RTVSPropertyOp62
 70
     1
  0
XRECORD
  5
2999B
102
{ACAD_REACTORS
330
2999A
102
}
330
2999A
100
AcDbXrecord
280
     1
102
RTVSPost2010Prop28
280
     0
102
RTVSPost2010PropOp28
 70
     1
102
RTVSPost2010Prop29
280
     1
102
RTVSPost2010PropOp29
 70
     1
102
RTVSPost2010Prop30
280
     1
102
RTVSPost2010PropOp30
 70
     1
102
RTVSPost2010Prop31
280
     0
102
RTVSPost2010PropOp31
 70
     1
102
RTVSPost2010Prop32
280
     0
102
RTVSPost2010PropOp32
 70
     1
102
RTVSPost2010Prop33
280
     0
102
RTVSPost2010PropOp33
 70
     1
102
RTVSPost2010Prop34
280
     0
102
RTVSPost2010PropOp34
 70
     1
102
RTVSPost2010Prop35
280
     0
102
RTVSPost2010PropOp35
 70
     1
102
RTVSPost2010Prop36
280
     0
102
RTVSPost2010PropOp36
 70
     1
102
RTVSPost2010Prop37
 90
       50
102
RTVSPost2010PropOp37
 70
     1
102
RTVSPost2010Prop38
140
0.0
102
RTVSPost2010PropOp38
 70
     1
102
RTVSPost2010Prop39
140
1.0
102
RTVSPost2010PropOp39
 70
     1
102
RTVSPost2010Prop40
 90
        0
102
RTVSPost2010PropOp40
 70
     1
102
RTVSPost2010Prop41ColorIndex
 90
       18
102
RTVSPost2010Prop41ColorRGB
 90
        0
102
RTVSPost2010PropOp41
 70
     1
102
RTVSPost2010Prop42
 90
       50
102
RTVSPost2010PropOp42
 70
     1
102
RTVSPost2010Prop43
 90
        3
102
RTVSPost2010PropOp43
 70
     1
102
RTVSPost2010Prop44ColorIndex
 90
        5
102
RTVSPost2010Prop44ColorRGB
 90
      255
102
RTVSPost2010PropOp44
 70
     1
102
RTVSPost2010Prop45
280
     0
102
RTVSPost2010PropOp45
 70
     1
102
RTVSPost2010Prop46
 90
       50
102
RTVSPost2010PropOp46
 70
     1
102
RTVSPost2010Prop47
 90
       50
102
RTVSPost2010PropOp47
 70
     1
102
RTVSPost2010Prop48
 90
       50
102
RTVSPost2010PropOp48
 70
     1
102
RTVSPost2010Prop49
280
     0
102
RTVSPost2010PropOp49
 70
     1
102
RTVSPost2010Prop50
 90
       50
102
RTVSPost2010PropOp50
 70
     1
102
RTVSPost2010Prop51ColorIndex
 90
      256
102
RTVSPost2010Prop51ColorRGB
 90
-16777216
102
RTVSPost2010PropOp51
 70
     0
102
RTVSPost2010Prop52
140
1.0
102
RTVSPost2010PropOp52
 70
     0
102
RTVSPost2010Prop53
 90
        2
102
RTVSPost2010PropOp53
 70
     1
102
RTVSPost2010Prop54
  1
strokes_ogs.tif
102
RTVSPost2010PropOp54
 70
     1
102
RTVSPost2010Prop55
280
     0
102
RTVSPost2010PropOp55
 70
     1
102
RTVSPost2010Prop56
140
1.0
102
RTVSPost2010PropOp56
 70
     1
102
RTVSPost2010Prop57
140
1.0
102
RTVSPost2010PropOp57
 70
     1
102
RTVSPropertyOp0
 70
     1
102
RTVSPropertyOp1
 70
     1
102
RTVSPropertyOp2
 70
     1
102
RTVSPropertyOp3
 70
     1
102
RTVSPropertyOp4
 70
     1
102
RTVSPropertyOp5
 70
     1
102
RTVSPropertyOp6
 70
     1
102
RTVSPropertyOp7
 70
     1
102
RTVSPropertyOp8
 70
     1
102
RTVSPropertyOp9
 70
     1
102
RTVSPropertyOp10
 70
     1
102
RTVSPropertyOp11
 70
     1
102
RTVSPropertyOp12
 70
     1
102
RTVSPropertyOp13
 70
     1
102
RTVSPropertyOp14
 70
     1
102
RTVSPropertyOp15
 70
     1
102
RTVSPropertyOp16
 70
     1
102
RTVSPropertyOp17
 70
     1
102
RTVSPropertyOp18
 70
     1
102
RTVSPropertyOp19
 70
     1
102
RTVSPropertyOp20
 70
     1
102
RTVSPropertyOp21
 70
     1
102
RTVSPropertyOp22
 70
     1
102
RTVSPropertyOp23
 70
     1
102
RTVSPropertyOp24
 70
     1
102
RTVSPropertyOp25
 70
     1
102
RTVSPropertyOp26
 70
     1
102
RTVSPropertyOp27
 70
     1
102
RTVSPropertyOp28
 70
     1
102
RTVSPropertyOp29
 70
     1
102
RTVSPropertyOp30
 70
     1
102
RTVSPropertyOp31
 70
     1
102
RTVSPropertyOp32
 70
     1
102
RTVSPropertyOp33
 70
     1
102
RTVSPropertyOp34
 70
     1
102
RTVSPropertyOp35
 70
     1
102
RTVSPropertyOp36
 70
     1
102
RTVSPropertyOp37
 70
     1
102
RTVSPropertyOp38
 70
     1
102
RTVSPropertyOp39
 70
     1
102
RTVSPropertyOp40
 70
     1
102
RTVSPropertyOp41
 70
     1
102
RTVSPropertyOp42
 70
     1
102
RTVSPropertyOp43
 70
     1
102
RTVSPropertyOp44
 70
     1
102
RTVSPropertyOp45
 70
     1
102
RTVSPropertyOp46
 70
     1
102
RTVSPropertyOp47
 70
     1
102
RTVSPropertyOp48
 70
     1
102
RTVSPropertyOp49
 70
     1
102
RTVSPropertyOp50
 70
     1
102
RTVSPropertyOp51
 70
     0
102
RTVSPropertyOp52
 70
     0
102
RTVSPropertyOp53
 70
     1
102
RTVSPropertyOp54
 70
     1
102
RTVSPropertyOp55
 70
     1
102
RTVSPropertyOp56
 70
     1
102
RTVSPropertyOp57
 70
     1
102
RTVSPropertyOp58
 70
     1
102
RTVSPropertyOp59
 70
     1
102
RTVSPropertyOp60
 70
     1
102
RTVSPropertyOp61
 70
     1
102
RTVSPropertyOp62
 70
     1
  0
XRECORD
  5
2999D
102
{ACAD_REACTORS
330
2999C
102
}
330
2999C
100
AcDbXrecord
280
     1
102
RTVSPost2010Prop28
280
     0
102
RTVSPost2010PropOp28
 70
     1
102
RTVSPost2010Prop29
280
     1
102
RTVSPost2010PropOp29
 70
     1
102
RTVSPost2010Prop30
280
     1
102
RTVSPost2010PropOp30
 70
     1
102
RTVSPost2010Prop31
280
     0
102
RTVSPost2010PropOp31
 70
     1
102
RTVSPost2010Prop32
280
     0
102
RTVSPost2010PropOp32
 70
     1
102
RTVSPost2010Prop33
280
     0
102
RTVSPost2010PropOp33
 70
     1
102
RTVSPost2010Prop34
280
     0
102
RTVSPost2010PropOp34
 70
     1
102
RTVSPost2010Prop35
280
     0
102
RTVSPost2010PropOp35
 70
     1
102
RTVSPost2010Prop36
280
     0
102
RTVSPost2010PropOp36
 70
     1
102
RTVSPost2010Prop37
 90
       50
102
RTVSPost2010PropOp37
 70
     1
102
RTVSPost2010Prop38
140
0.0
102
RTVSPost2010PropOp38
 70
     1
102
RTVSPost2010Prop39
140
1.0
102
RTVSPost2010PropOp39
 70
     1
102
RTVSPost2010Prop40
 90
        0
102
RTVSPost2010PropOp40
 70
     1
102
RTVSPost2010Prop41ColorIndex
 90
       18
102
RTVSPost2010Prop41ColorRGB
 90
        0
102
RTVSPost2010PropOp41
 70
     1
102
RTVSPost2010Prop42
 90
       50
102
RTVSPost2010PropOp42
 70
     1
102
RTVSPost2010Prop43
 90
        3
102
RTVSPost2010PropOp43
 70
     1
102
RTVSPost2010Prop44ColorIndex
 90
        5
102
RTVSPost2010Prop44ColorRGB
 90
      255
102
RTVSPost2010PropOp44
 70
     1
102
RTVSPost2010Prop45
280
     0
102
RTVSPost2010PropOp45
 70
     1
102
RTVSPost2010Prop46
 90
       50
102
RTVSPost2010PropOp46
 70
     1
102
RTVSPost2010Prop47
 90
       50
102
RTVSPost2010PropOp47
 70
     1
102
RTVSPost2010Prop48
 90
       50
102
RTVSPost2010PropOp48
 70
     1
102
RTVSPost2010Prop49
280
     0
102
RTVSPost2010PropOp49
 70
     1
102
RTVSPost2010Prop50
 90
       50
102
RTVSPost2010PropOp50
 70
     1
102
RTVSPost2010Prop51ColorIndex
 90
      256
102
RTVSPost2010Prop51ColorRGB
 90
-16777216
102
RTVSPost2010PropOp51
 70
     0
102
RTVSPost2010Prop52
140
1.0
102
RTVSPost2010PropOp52
 70
     0
102
RTVSPost2010Prop53
 90
        2
102
RTVSPost2010PropOp53
 70
     1
102
RTVSPost2010Prop54
  1
strokes_ogs.tif
102
RTVSPost2010PropOp54
 70
     1
102
RTVSPost2010Prop55
280
     0
102
RTVSPost2010PropOp55
 70
     1
102
RTVSPost2010Prop56
140
1.0
102
RTVSPost2010PropOp56
 70
     1
102
RTVSPost2010Prop57
140
1.0
102
RTVSPost2010PropOp57
 70
     1
102
RTVSPropertyOp0
 70
     1
102
RTVSPropertyOp1
 70
     1
102
RTVSPropertyOp2
 70
     1
102
RTVSPropertyOp3
 70
     1
102
RTVSPropertyOp4
 70
     1
102
RTVSPropertyOp5
 70
     1
102
RTVSPropertyOp6
 70
     1
102
RTVSPropertyOp7
 70
     1
102
RTVSPropertyOp8
 70
     1
102
RTVSPropertyOp9
 70
     1
102
RTVSPropertyOp10
 70
     1
102
RTVSPropertyOp11
 70
     1
102
RTVSPropertyOp12
 70
     1
102
RTVSPropertyOp13
 70
     1
102
RTVSPropertyOp14
 70
     1
102
RTVSPropertyOp15
 70
     1
102
RTVSPropertyOp16
 70
     1
102
RTVSPropertyOp17
 70
     1
102
RTVSPropertyOp18
 70
     1
102
RTVSPropertyOp19
 70
     1
102
RTVSPropertyOp20
 70
     1
102
RTVSPropertyOp21
 70
     1
102
RTVSPropertyOp22
 70
     1
102
RTVSPropertyOp23
 70
     1
102
RTVSPropertyOp24
 70
     1
102
RTVSPropertyOp25
 70
     1
102
RTVSPropertyOp26
 70
     1
102
RTVSPropertyOp27
 70
     1
102
RTVSPropertyOp28
 70
     1
102
RTVSPropertyOp29
 70
     1
102
RTVSPropertyOp30
 70
     1
102
RTVSPropertyOp31
 70
     1
102
RTVSPropertyOp32
 70
     1
102
RTVSPropertyOp33
 70
     1
102
RTVSPropertyOp34
 70
     1
102
RTVSPropertyOp35
 70
     1
102
RTVSPropertyOp36
 70
     1
102
RTVSPropertyOp37
 70
     1
102
RTVSPropertyOp38
 70
     1
102
RTVSPropertyOp39
 70
     1
102
RTVSPropertyOp40
 70
     1
102
RTVSPropertyOp41
 70
     1
102
RTVSPropertyOp42
 70
     1
102
RTVSPropertyOp43
 70
     1
102
RTVSPropertyOp44
 70
     1
102
RTVSPropertyOp45
 70
     1
102
RTVSPropertyOp46
 70
     1
102
RTVSPropertyOp47
 70
     1
102
RTVSPropertyOp48
 70
     1
102
RTVSPropertyOp49
 70
     1
102
RTVSPropertyOp50
 70
     1
102
RTVSPropertyOp51
 70
     0
102
RTVSPropertyOp52
 70
     0
102
RTVSPropertyOp53
 70
     1
102
RTVSPropertyOp54
 70
     1
102
RTVSPropertyOp55
 70
     1
102
RTVSPropertyOp56
 70
     1
102
RTVSPropertyOp57
 70
     1
102
RTVSPropertyOp58
 70
     1
102
RTVSPropertyOp59
 70
     1
102
RTVSPropertyOp60
 70
     1
102
RTVSPropertyOp61
 70
     1
102
RTVSPropertyOp62
 70
     1
  0
XRECORD
  5
2999F
102
{ACAD_REACTORS
330
2999E
102
}
330
2999E
100
AcDbXrecord
280
     1
102
RTVSPost2010Prop28
280
     0
102
RTVSPost2010PropOp28
 70
     1
102
RTVSPost2010Prop29
280
     1
102
RTVSPost2010PropOp29
 70
     1
102
RTVSPost2010Prop30
280
     1
102
RTVSPost2010PropOp30
 70
     1
102
RTVSPost2010Prop31
280
     0
102
RTVSPost2010PropOp31
 70
     1
102
RTVSPost2010Prop32
280
     0
102
RTVSPost2010PropOp32
 70
     1
102
RTVSPost2010Prop33
280
     0
102
RTVSPost2010PropOp33
 70
     1
102
RTVSPost2010Prop34
280
     0
102
RTVSPost2010PropOp34
 70
     1
102
RTVSPost2010Prop35
280
     0
102
RTVSPost2010PropOp35
 70
     1
102
RTVSPost2010Prop36
280
     0
102
RTVSPost2010PropOp36
 70
     1
102
RTVSPost2010Prop37
 90
       50
102
RTVSPost2010PropOp37
 70
     1
102
RTVSPost2010Prop38
140
0.0
102
RTVSPost2010PropOp38
 70
     1
102
RTVSPost2010Prop39
140
1.0
102
RTVSPost2010PropOp39
 70
     1
102
RTVSPost2010Prop40
 90
        0
102
RTVSPost2010PropOp40
 70
     1
102
RTVSPost2010Prop41ColorIndex
 90
       18
102
RTVSPost2010Prop41ColorRGB
 90
        0
102
RTVSPost2010PropOp41
 70
     1
102
RTVSPost2010Prop42
 90
       50
102
RTVSPost2010PropOp42
 70
     1
102
RTVSPost2010Prop43
 90
        3
102
RTVSPost2010PropOp43
 70
     1
102
RTVSPost2010Prop44ColorIndex
 90
        5
102
RTVSPost2010Prop44ColorRGB
 90
      255
102
RTVSPost2010PropOp44
 70
     1
102
RTVSPost2010Prop45
280
     0
102
RTVSPost2010PropOp45
 70
     1
102
RTVSPost2010Prop46
 90
       50
102
RTVSPost2010PropOp46
 70
     1
102
RTVSPost2010Prop47
 90
       50
102
RTVSPost2010PropOp47
 70
     1
102
RTVSPost2010Prop48
 90
       50
102
RTVSPost2010PropOp48
 70
     1
102
RTVSPost2010Prop49
280
     0
102
RTVSPost2010PropOp49
 70
     1
102
RTVSPost2010Prop50
 90
       50
102
RTVSPost2010PropOp50
 70
     1
102
RTVSPost2010Prop51ColorIndex
 90
      256
102
RTVSPost2010Prop51ColorRGB
 90
-16777216
102
RTVSPost2010PropOp51
 70
     0
102
RTVSPost2010Prop52
140
1.0
102
RTVSPost2010PropOp52
 70
     0
102
RTVSPost2010Prop53
 90
        2
102
RTVSPost2010PropOp53
 70
     1
102
RTVSPost2010Prop54
  1
strokes_ogs.tif
102
RTVSPost2010PropOp54
 70
     1
102
RTVSPost2010Prop55
280
     0
102
RTVSPost2010PropOp55
 70
     1
102
RTVSPost2010Prop56
140
1.0
102
RTVSPost2010PropOp56
 70
     1
102
RTVSPost2010Prop57
140
1.0
102
RTVSPost2010PropOp57
 70
     1
102
RTVSPropertyOp0
 70
     1
102
RTVSPropertyOp1
 70
     1
102
RTVSPropertyOp2
 70
     1
102
RTVSPropertyOp3
 70
     1
102
RTVSPropertyOp4
 70
     1
102
RTVSPropertyOp5
 70
     1
102
RTVSPropertyOp6
 70
     1
102
RTVSPropertyOp7
 70
     1
102
RTVSPropertyOp8
 70
     1
102
RTVSPropertyOp9
 70
     1
102
RTVSPropertyOp10
 70
     1
102
RTVSPropertyOp11
 70
     1
102
RTVSPropertyOp12
 70
     1
102
RTVSPropertyOp13
 70
     1
102
RTVSPropertyOp14
 70
     1
102
RTVSPropertyOp15
 70
     1
102
RTVSPropertyOp16
 70
     1
102
RTVSPropertyOp17
 70
     1
102
RTVSPropertyOp18
 70
     1
102
RTVSPropertyOp19
 70
     1
102
RTVSPropertyOp20
 70
     1
102
RTVSPropertyOp21
 70
     1
102
RTVSPropertyOp22
 70
     1
102
RTVSPropertyOp23
 70
     1
102
RTVSPropertyOp24
 70
     1
102
RTVSPropertyOp25
 70
     1
102
RTVSPropertyOp26
 70
     1
102
RTVSPropertyOp27
 70
     1
102
RTVSPropertyOp28
 70
     1
102
RTVSPropertyOp29
 70
     1
102
RTVSPropertyOp30
 70
     1
102
RTVSPropertyOp31
 70
     1
102
RTVSPropertyOp32
 70
     1
102
RTVSPropertyOp33
 70
     1
102
RTVSPropertyOp34
 70
     1
102
RTVSPropertyOp35
 70
     1
102
RTVSPropertyOp36
 70
     1
102
RTVSPropertyOp37
 70
     1
102
RTVSPropertyOp38
 70
     1
102
RTVSPropertyOp39
 70
     1
102
RTVSPropertyOp40
 70
     1
102
RTVSPropertyOp41
 70
     1
102
RTVSPropertyOp42
 70
     1
102
RTVSPropertyOp43
 70
     1
102
RTVSPropertyOp44
 70
     1
102
RTVSPropertyOp45
 70
     1
102
RTVSPropertyOp46
 70
     1
102
RTVSPropertyOp47
 70
     1
102
RTVSPropertyOp48
 70
     1
102
RTVSPropertyOp49
 70
     1
102
RTVSPropertyOp50
 70
     1
102
RTVSPropertyOp51
 70
     0
102
RTVSPropertyOp52
 70
     0
102
RTVSPropertyOp53
 70
     1
102
RTVSPropertyOp54
 70
     1
102
RTVSPropertyOp55
 70
     1
102
RTVSPropertyOp56
 70
     1
102
RTVSPropertyOp57
 70
     1
102
RTVSPropertyOp58
 70
     1
102
RTVSPropertyOp59
 70
     1
102
RTVSPropertyOp60
 70
     1
102
RTVSPropertyOp61
 70
     1
102
RTVSPropertyOp62
 70
     1
  0
XRECORD
  5
299A1
102
{ACAD_REACTORS
330
299A0
102
}
330
299A0
100
AcDbXrecord
280
     1
102
RTVSPost2010Prop28
280
     0
102
RTVSPost2010PropOp28
 70
     1
102
RTVSPost2010Prop29
280
     1
102
RTVSPost2010PropOp29
 70
     1
102
RTVSPost2010Prop30
280
     1
102
RTVSPost2010PropOp30
 70
     1
102
RTVSPost2010Prop31
280
     0
102
RTVSPost2010PropOp31
 70
     1
102
RTVSPost2010Prop32
280
     0
102
RTVSPost2010PropOp32
 70
     1
102
RTVSPost2010Prop33
280
     0
102
RTVSPost2010PropOp33
 70
     1
102
RTVSPost2010Prop34
280
     0
102
RTVSPost2010PropOp34
 70
     1
102
RTVSPost2010Prop35
280
     0
102
RTVSPost2010PropOp35
 70
     1
102
RTVSPost2010Prop36
280
     0
102
RTVSPost2010PropOp36
 70
     1
102
RTVSPost2010Prop37
 90
       50
102
RTVSPost2010PropOp37
 70
     1
102
RTVSPost2010Prop38
140
0.0
102
RTVSPost2010PropOp38
 70
     1
102
RTVSPost2010Prop39
140
1.0
102
RTVSPost2010PropOp39
 70
     1
102
RTVSPost2010Prop40
 90
        0
102
RTVSPost2010PropOp40
 70
     1
102
RTVSPost2010Prop41ColorIndex
 90
       18
102
RTVSPost2010Prop41ColorRGB
 90
        0
102
RTVSPost2010PropOp41
 70
     1
102
RTVSPost2010Prop42
 90
       50
102
RTVSPost2010PropOp42
 70
     1
102
RTVSPost2010Prop43
 90
        3
102
RTVSPost2010PropOp43
 70
     1
102
RTVSPost2010Prop44ColorIndex
 90
        5
102
RTVSPost2010Prop44ColorRGB
 90
      255
102
RTVSPost2010PropOp44
 70
     1
102
RTVSPost2010Prop45
280
     0
102
RTVSPost2010PropOp45
 70
     1
102
RTVSPost2010Prop46
 90
       50
102
RTVSPost2010PropOp46
 70
     1
102
RTVSPost2010Prop47
 90
       50
102
RTVSPost2010PropOp47
 70
     1
102
RTVSPost2010Prop48
 90
       50
102
RTVSPost2010PropOp48
 70
     1
102
RTVSPost2010Prop49
280
     0
102
RTVSPost2010PropOp49
 70
     1
102
RTVSPost2010Prop50
 90
       50
102
RTVSPost2010PropOp50
 70
     1
102
RTVSPost2010Prop51ColorIndex
 90
      256
102
RTVSPost2010Prop51ColorRGB
 90
-16777216
102
RTVSPost2010PropOp51
 70
     0
102
RTVSPost2010Prop52
140
1.0
102
RTVSPost2010PropOp52
 70
     0
102
RTVSPost2010Prop53
 90
        2
102
RTVSPost2010PropOp53
 70
     1
102
RTVSPost2010Prop54
  1
strokes_ogs.tif
102
RTVSPost2010PropOp54
 70
     1
102
RTVSPost2010Prop55
280
     0
102
RTVSPost2010PropOp55
 70
     1
102
RTVSPost2010Prop56
140
1.0
102
RTVSPost2010PropOp56
 70
     1
102
RTVSPost2010Prop57
140
1.0
102
RTVSPost2010PropOp57
 70
     1
102
RTVSPropertyOp0
 70
     1
102
RTVSPropertyOp1
 70
     1
102
RTVSPropertyOp2
 70
     1
102
RTVSPropertyOp3
 70
     1
102
RTVSPropertyOp4
 70
     1
102
RTVSPropertyOp5
 70
     1
102
RTVSPropertyOp6
 70
     1
102
RTVSPropertyOp7
 70
     1
102
RTVSPropertyOp8
 70
     1
102
RTVSPropertyOp9
 70
     1
102
RTVSPropertyOp10
 70
     1
102
RTVSPropertyOp11
 70
     1
102
RTVSPropertyOp12
 70
     1
102
RTVSPropertyOp13
 70
     1
102
RTVSPropertyOp14
 70
     1
102
RTVSPropertyOp15
 70
     1
102
RTVSPropertyOp16
 70
     1
102
RTVSPropertyOp17
 70
     1
102
RTVSPropertyOp18
 70
     1
102
RTVSPropertyOp19
 70
     1
102
RTVSPropertyOp20
 70
     1
102
RTVSPropertyOp21
 70
     1
102
RTVSPropertyOp22
 70
     1
102
RTVSPropertyOp23
 70
     1
102
RTVSPropertyOp24
 70
     1
102
RTVSPropertyOp25
 70
     1
102
RTVSPropertyOp26
 70
     1
102
RTVSPropertyOp27
 70
     1
102
RTVSPropertyOp28
 70
     1
102
RTVSPropertyOp29
 70
     1
102
RTVSPropertyOp30
 70
     1
102
RTVSPropertyOp31
 70
     1
102
RTVSPropertyOp32
 70
     1
102
RTVSPropertyOp33
 70
     1
102
RTVSPropertyOp34
 70
     1
102
RTVSPropertyOp35
 70
     1
102
RTVSPropertyOp36
 70
     1
102
RTVSPropertyOp37
 70
     1
102
RTVSPropertyOp38
 70
     1
102
RTVSPropertyOp39
 70
     1
102
RTVSPropertyOp40
 70
     1
102
RTVSPropertyOp41
 70
     1
102
RTVSPropertyOp42
 70
     1
102
RTVSPropertyOp43
 70
     1
102
RTVSPropertyOp44
 70
     1
102
RTVSPropertyOp45
 70
     1
102
RTVSPropertyOp46
 70
     1
102
RTVSPropertyOp47
 70
     1
102
RTVSPropertyOp48
 70
     1
102
RTVSPropertyOp49
 70
     1
102
RTVSPropertyOp50
 70
     1
102
RTVSPropertyOp51
 70
     0
102
RTVSPropertyOp52
 70
     0
102
RTVSPropertyOp53
 70
     1
102
RTVSPropertyOp54
 70
     1
102
RTVSPropertyOp55
 70
     1
102
RTVSPropertyOp56
 70
     1
102
RTVSPropertyOp57
 70
     1
102
RTVSPropertyOp58
 70
     1
102
RTVSPropertyOp59
 70
     1
102
RTVSPropertyOp60
 70
     1
102
RTVSPropertyOp61
 70
     1
102
RTVSPropertyOp62
 70
     1
  0
XRECORD
  5
299A9
102
{ACAD_REACTORS
330
299A8
102
}
330
299A8
100
AcDbXrecord
280
     1
102
RTVSPost2010Prop28
280
     0
102
RTVSPost2010PropOp28
 70
     1
102
RTVSPost2010Prop29
280
     1
102
RTVSPost2010PropOp29
 70
     1
102
RTVSPost2010Prop30
280
     1
102
RTVSPost2010PropOp30
 70
     1
102
RTVSPost2010Prop31
280
     0
102
RTVSPost2010PropOp31
 70
     1
102
RTVSPost2010Prop32
280
     0
102
RTVSPost2010PropOp32
 70
     1
102
RTVSPost2010Prop33
280
     0
102
RTVSPost2010PropOp33
 70
     1
102
RTVSPost2010Prop34
280
     0
102
RTVSPost2010PropOp34
 70
     1
102
RTVSPost2010Prop35
280
     0
102
RTVSPost2010PropOp35
 70
     1
102
RTVSPost2010Prop36
280
     0
102
RTVSPost2010PropOp36
 70
     1
102
RTVSPost2010Prop37
 90
       50
102
RTVSPost2010PropOp37
 70
     1
102
RTVSPost2010Prop38
140
0.0
102
RTVSPost2010PropOp38
 70
     1
102
RTVSPost2010Prop39
140
1.0
102
RTVSPost2010PropOp39
 70
     1
102
RTVSPost2010Prop40
 90
        0
102
RTVSPost2010PropOp40
 70
     1
102
RTVSPost2010Prop41ColorIndex
 90
       18
102
RTVSPost2010Prop41ColorRGB
 90
        0
102
RTVSPost2010PropOp41
 70
     1
102
RTVSPost2010Prop42
 90
       50
102
RTVSPost2010PropOp42
 70
     1
102
RTVSPost2010Prop43
 90
        3
102
RTVSPost2010PropOp43
 70
     1
102
RTVSPost2010Prop44ColorIndex
 90
        5
102
RTVSPost2010Prop44ColorRGB
 90
      255
102
RTVSPost2010PropOp44
 70
     1
102
RTVSPost2010Prop45
280
     0
102
RTVSPost2010PropOp45
 70
     1
102
RTVSPost2010Prop46
 90
       50
102
RTVSPost2010PropOp46
 70
     1
102
RTVSPost2010Prop47
 90
       50
102
RTVSPost2010PropOp47
 70
     1
102
RTVSPost2010Prop48
 90
       50
102
RTVSPost2010PropOp48
 70
     1
102
RTVSPost2010Prop49
280
     0
102
RTVSPost2010PropOp49
 70
     1
102
RTVSPost2010Prop50
 90
       50
102
RTVSPost2010PropOp50
 70
     1
102
RTVSPost2010Prop51ColorIndex
 90
      256
102
RTVSPost2010Prop51ColorRGB
 90
-16777216
102
RTVSPost2010PropOp51
 70
     0
102
RTVSPost2010Prop52
140
1.0
102
RTVSPost2010PropOp52
 70
     0
102
RTVSPost2010Prop53
 90
        2
102
RTVSPost2010PropOp53
 70
     1
102
RTVSPost2010Prop54
  1
strokes_ogs.tif
102
RTVSPost2010PropOp54
 70
     1
102
RTVSPost2010Prop55
280
     0
102
RTVSPost2010PropOp55
 70
     1
102
RTVSPost2010Prop56
140
1.0
102
RTVSPost2010PropOp56
 70
     1
102
RTVSPost2010Prop57
140
1.0
102
RTVSPost2010PropOp57
 70
     1
102
RTVSPropertyOp0
 70
     1
102
RTVSPropertyOp1
 70
     1
102
RTVSPropertyOp2
 70
     1
102
RTVSPropertyOp3
 70
     1
102
RTVSPropertyOp4
 70
     1
102
RTVSPropertyOp5
 70
     1
102
RTVSPropertyOp6
 70
     1
102
RTVSPropertyOp7
 70
     1
102
RTVSPropertyOp8
 70
     1
102
RTVSPropertyOp9
 70
     1
102
RTVSPropertyOp10
 70
     1
102
RTVSPropertyOp11
 70
     1
102
RTVSPropertyOp12
 70
     1
102
RTVSPropertyOp13
 70
     1
102
RTVSPropertyOp14
 70
     1
102
RTVSPropertyOp15
 70
     1
102
RTVSPropertyOp16
 70
     1
102
RTVSPropertyOp17
 70
     1
102
RTVSPropertyOp18
 70
     1
102
RTVSPropertyOp19
 70
     1
102
RTVSPropertyOp20
 70
     1
102
RTVSPropertyOp21
 70
     1
102
RTVSPropertyOp22
 70
     1
102
RTVSPropertyOp23
 70
     1
102
RTVSPropertyOp24
 70
     1
102
RTVSPropertyOp25
 70
     1
102
RTVSPropertyOp26
 70
     1
102
RTVSPropertyOp27
 70
     1
102
RTVSPropertyOp28
 70
     1
102
RTVSPropertyOp29
 70
     1
102
RTVSPropertyOp30
 70
     1
102
RTVSPropertyOp31
 70
     1
102
RTVSPropertyOp32
 70
     1
102
RTVSPropertyOp33
 70
     1
102
RTVSPropertyOp34
 70
     1
102
RTVSPropertyOp35
 70
     1
102
RTVSPropertyOp36
 70
     1
102
RTVSPropertyOp37
 70
     1
102
RTVSPropertyOp38
 70
     1
102
RTVSPropertyOp39
 70
     1
102
RTVSPropertyOp40
 70
     1
102
RTVSPropertyOp41
 70
     1
102
RTVSPropertyOp42
 70
     1
102
RTVSPropertyOp43
 70
     1
102
RTVSPropertyOp44
 70
     1
102
RTVSPropertyOp45
 70
     1
102
RTVSPropertyOp46
 70
     1
102
RTVSPropertyOp47
 70
     1
102
RTVSPropertyOp48
 70
     1
102
RTVSPropertyOp49
 70
     1
102
RTVSPropertyOp50
 70
     1
102
RTVSPropertyOp51
 70
     0
102
RTVSPropertyOp52
 70
     0
102
RTVSPropertyOp53
 70
     1
102
RTVSPropertyOp54
 70
     1
102
RTVSPropertyOp55
 70
     1
102
RTVSPropertyOp56
 70
     1
102
RTVSPropertyOp57
 70
     1
102
RTVSPropertyOp58
 70
     1
102
RTVSPropertyOp59
 70
     1
102
RTVSPropertyOp60
 70
     1
102
RTVSPropertyOp61
 70
     1
102
RTVSPropertyOp62
 70
     1
  0
XRECORD
  5
299C5
102
{ACAD_REACTORS
330
299C4
102
}
330
299C4
100
AcDbXrecord
280
     1
102
RTVSPost2010Prop28
280
     0
102
RTVSPost2010PropOp28
 70
     1
102
RTVSPost2010Prop29
280
     1
102
RTVSPost2010PropOp29
 70
     1
102
RTVSPost2010Prop30
280
     1
102
RTVSPost2010PropOp30
 70
     1
102
RTVSPost2010Prop31
280
     0
102
RTVSPost2010PropOp31
 70
     1
102
RTVSPost2010Prop32
280
     0
102
RTVSPost2010PropOp32
 70
     1
102
RTVSPost2010Prop33
280
     0
102
RTVSPost2010PropOp33
 70
     1
102
RTVSPost2010Prop34
280
     0
102
RTVSPost2010PropOp34
 70
     1
102
RTVSPost2010Prop35
280
     0
102
RTVSPost2010PropOp35
 70
     1
102
RTVSPost2010Prop36
280
     0
102
RTVSPost2010PropOp36
 70
     1
102
RTVSPost2010Prop37
 90
       50
102
RTVSPost2010PropOp37
 70
     0
102
RTVSPost2010Prop38
140
0.0
102
RTVSPost2010PropOp38
 70
     0
102
RTVSPost2010Prop39
140
1.0
102
RTVSPost2010PropOp39
 70
     0
102
RTVSPost2010Prop40
 90
        0
102
RTVSPost2010PropOp40
 70
     0
102
RTVSPost2010Prop41ColorIndex
 90
       18
102
RTVSPost2010Prop41ColorRGB
 90
        0
102
RTVSPost2010PropOp41
 70
     0
102
RTVSPost2010Prop42
 90
       50
102
RTVSPost2010PropOp42
 70
     0
102
RTVSPost2010Prop43
 90
        3
102
RTVSPost2010PropOp43
 70
     0
102
RTVSPost2010Prop44ColorIndex
 90
        5
102
RTVSPost2010Prop44ColorRGB
 90
      255
102
RTVSPost2010PropOp44
 70
     0
102
RTVSPost2010Prop45
280
     0
102
RTVSPost2010PropOp45
 70
     1
102
RTVSPost2010Prop46
 90
       50
102
RTVSPost2010PropOp46
 70
     0
102
RTVSPost2010Prop47
 90
       50
102
RTVSPost2010PropOp47
 70
     0
102
RTVSPost2010Prop48
 90
       50
102
RTVSPost2010PropOp48
 70
     0
102
RTVSPost2010Prop49
280
     0
102
RTVSPost2010PropOp49
 70
     1
102
RTVSPost2010Prop50
 90
       50
102
RTVSPost2010PropOp50
 70
     0
102
RTVSPost2010Prop51ColorIndex
 90
      256
102
RTVSPost2010Prop51ColorRGB
 90
-16777216
102
RTVSPost2010PropOp51
 70
     0
102
RTVSPost2010Prop52
140
1.0
102
RTVSPost2010PropOp52
 70
     0
102
RTVSPost2010Prop53
 90
        2
102
RTVSPost2010PropOp53
 70
     0
102
RTVSPost2010Prop54
  1
strokes_ogs.tif
102
RTVSPost2010PropOp54
 70
     0
102
RTVSPost2010Prop55
280
     0
102
RTVSPost2010PropOp55
 70
     1
102
RTVSPost2010Prop56
140
1.0
102
RTVSPost2010PropOp56
 70
     0
102
RTVSPost2010Prop57
140
1.0
102
RTVSPost2010PropOp57
 70
     0
102
RTVSPropertyOp0
 70
     0
102
RTVSPropertyOp1
 70
     0
102
RTVSPropertyOp2
 70
     0
102
RTVSPropertyOp3
 70
     0
102
RTVSPropertyOp4
 70
     0
102
RTVSPropertyOp5
 70
     0
102
RTVSPropertyOp6
 70
     0
102
RTVSPropertyOp7
 70
     0
102
RTVSPropertyOp8
 70
     0
102
RTVSPropertyOp9
 70
     0
102
RTVSPropertyOp10
 70
     0
102
RTVSPropertyOp11
 70
     0
102
RTVSPropertyOp12
 70
     0
102
RTVSPropertyOp13
 70
     0
102
RTVSPropertyOp14
 70
     2
102
RTVSPropertyOp15
 70
     0
102
RTVSPropertyOp16
 70
     0
102
RTVSPropertyOp17
 70
     0
102
RTVSPropertyOp18
 70
     0
102
RTVSPropertyOp19
 70
     0
102
RTVSPropertyOp20
 70
     0
102
RTVSPropertyOp21
 70
     0
102
RTVSPropertyOp22
 70
     0
102
RTVSPropertyOp23
 70
     0
102
RTVSPropertyOp24
 70
     0
102
RTVSPropertyOp25
 70
     0
102
RTVSPropertyOp26
 70
     0
102
RTVSPropertyOp27
 70
     0
102
RTVSPropertyOp28
 70
     1
102
RTVSPropertyOp29
 70
     1
102
RTVSPropertyOp30
 70
     1
102
RTVSPropertyOp31
 70
     1
102
RTVSPropertyOp32
 70
     1
102
RTVSPropertyOp33
 70
     1
102
RTVSPropertyOp34
 70
     1
102
RTVSPropertyOp35
 70
     1
102
RTVSPropertyOp36
 70
     1
102
RTVSPropertyOp37
 70
     0
102
RTVSPropertyOp38
 70
     0
102
RTVSPropertyOp39
 70
     0
102
RTVSPropertyOp40
 70
     0
102
RTVSPropertyOp41
 70
     0
102
RTVSPropertyOp42
 70
     0
102
RTVSPropertyOp43
 70
     0
102
RTVSPropertyOp44
 70
     0
102
RTVSPropertyOp45
 70
     1
102
RTVSPropertyOp46
 70
     0
102
RTVSPropertyOp47
 70
     0
102
RTVSPropertyOp48
 70
     0
102
RTVSPropertyOp49
 70
     1
102
RTVSPropertyOp50
 70
     0
102
RTVSPropertyOp51
 70
     0
102
RTVSPropertyOp52
 70
     0
102
RTVSPropertyOp53
 70
     0
102
RTVSPropertyOp54
 70
     0
102
RTVSPropertyOp55
 70
     1
102
RTVSPropertyOp56
 70
     0
102
RTVSPropertyOp57
 70
     0
102
RTVSPropertyOp58
 70
     0
102
RTVSPropertyOp59
 70
     0
102
RTVSPropertyOp60
 70
     0
102
RTVSPropertyOp61
 70
     0
102
RTVSPropertyOp62
 70
     0
  0
XRECORD
  5
299B5
102
{ACAD_REACTORS
330
299B4
102
}
330
299B4
100
AcDbXrecord
280
     1
102
RTVSPost2010Prop28
280
     0
102
RTVSPost2010PropOp28
 70
     1
102
RTVSPost2010Prop29
280
     1
102
RTVSPost2010PropOp29
 70
     1
102
RTVSPost2010Prop30
280
     1
102
RTVSPost2010PropOp30
 70
     1
102
RTVSPost2010Prop31
280
     0
102
RTVSPost2010PropOp31
 70
     1
102
RTVSPost2010Prop32
280
     0
102
RTVSPost2010PropOp32
 70
     1
102
RTVSPost2010Prop33
280
     0
102
RTVSPost2010PropOp33
 70
     1
102
RTVSPost2010Prop34
280
     0
102
RTVSPost2010PropOp34
 70
     1
102
RTVSPost2010Prop35
280
     0
102
RTVSPost2010PropOp35
 70
     1
102
RTVSPost2010Prop36
280
     0
102
RTVSPost2010PropOp36
 70
     1
102
RTVSPost2010Prop37
 90
       50
102
RTVSPost2010PropOp37
 70
     1
102
RTVSPost2010Prop38
140
0.0
102
RTVSPost2010PropOp38
 70
     1
102
RTVSPost2010Prop39
140
1.0
102
RTVSPost2010PropOp39
 70
     1
102
RTVSPost2010Prop40
 90
        0
102
RTVSPost2010PropOp40
 70
     1
102
RTVSPost2010Prop41ColorIndex
 90
       18
102
RTVSPost2010Prop41ColorRGB
 90
        0
102
RTVSPost2010PropOp41
 70
     1
102
RTVSPost2010Prop42
 90
       50
102
RTVSPost2010PropOp42
 70
     1
102
RTVSPost2010Prop43
 90
        3
102
RTVSPost2010PropOp43
 70
     1
102
RTVSPost2010Prop44ColorIndex
 90
        5
102
RTVSPost2010Prop44ColorRGB
 90
      255
102
RTVSPost2010PropOp44
 70
     1
102
RTVSPost2010Prop45
280
     0
102
RTVSPost2010PropOp45
 70
     1
102
RTVSPost2010Prop46
 90
       50
102
RTVSPost2010PropOp46
 70
     1
102
RTVSPost2010Prop47
 90
       50
102
RTVSPost2010PropOp47
 70
     1
102
RTVSPost2010Prop48
 90
       50
102
RTVSPost2010PropOp48
 70
     1
102
RTVSPost2010Prop49
280
     0
102
RTVSPost2010PropOp49
 70
     1
102
RTVSPost2010Prop50
 90
       50
102
RTVSPost2010PropOp50
 70
     1
102
RTVSPost2010Prop51ColorIndex
 90
      256
102
RTVSPost2010Prop51ColorRGB
 90
-16777216
102
RTVSPost2010PropOp51
 70
     0
102
RTVSPost2010Prop52
140
1.0
102
RTVSPost2010PropOp52
 70
     0
102
RTVSPost2010Prop53
 90
        2
102
RTVSPost2010PropOp53
 70
     1
102
RTVSPost2010Prop54
  1
strokes_ogs.tif
102
RTVSPost2010PropOp54
 70
     1
102
RTVSPost2010Prop55
280
     0
102
RTVSPost2010PropOp55
 70
     1
102
RTVSPost2010Prop56
140
1.0
102
RTVSPost2010PropOp56
 70
     1
102
RTVSPost2010Prop57
140
1.0
102
RTVSPost2010PropOp57
 70
     1
102
RTVSPropertyOp0
 70
     1
102
RTVSPropertyOp1
 70
     1
102
RTVSPropertyOp2
 70
     1
102
RTVSPropertyOp3
 70
     1
102
RTVSPropertyOp4
 70
     1
102
RTVSPropertyOp5
 70
     1
102
RTVSPropertyOp6
 70
     1
102
RTVSPropertyOp7
 70
     1
102
RTVSPropertyOp8
 70
     1
102
RTVSPropertyOp9
 70
     1
102
RTVSPropertyOp10
 70
     1
102
RTVSPropertyOp11
 70
     1
102
RTVSPropertyOp12
 70
     1
102
RTVSPropertyOp13
 70
     1
102
RTVSPropertyOp14
 70
     1
102
RTVSPropertyOp15
 70
     1
102
RTVSPropertyOp16
 70
     1
102
RTVSPropertyOp17
 70
     1
102
RTVSPropertyOp18
 70
     1
102
RTVSPropertyOp19
 70
     1
102
RTVSPropertyOp20
 70
     1
102
RTVSPropertyOp21
 70
     1
102
RTVSPropertyOp22
 70
     1
102
RTVSPropertyOp23
 70
     1
102
RTVSPropertyOp24
 70
     1
102
RTVSPropertyOp25
 70
     1
102
RTVSPropertyOp26
 70
     1
102
RTVSPropertyOp27
 70
     1
102
RTVSPropertyOp28
 70
     1
102
RTVSPropertyOp29
 70
     1
102
RTVSPropertyOp30
 70
     1
102
RTVSPropertyOp31
 70
     1
102
RTVSPropertyOp32
 70
     1
102
RTVSPropertyOp33
 70
     1
102
RTVSPropertyOp34
 70
     1
102
RTVSPropertyOp35
 70
     1
102
RTVSPropertyOp36
 70
     1
102
RTVSPropertyOp37
 70
     1
102
RTVSPropertyOp38
 70
     1
102
RTVSPropertyOp39
 70
     1
102
RTVSPropertyOp40
 70
     1
102
RTVSPropertyOp41
 70
     1
102
RTVSPropertyOp42
 70
     1
102
RTVSPropertyOp43
 70
     1
102
RTVSPropertyOp44
 70
     1
102
RTVSPropertyOp45
 70
     1
102
RTVSPropertyOp46
 70
     1
102
RTVSPropertyOp47
 70
     1
102
RTVSPropertyOp48
 70
     1
102
RTVSPropertyOp49
 70
     1
102
RTVSPropertyOp50
 70
     1
102
RTVSPropertyOp51
 70
     0
102
RTVSPropertyOp52
 70
     0
102
RTVSPropertyOp53
 70
     1
102
RTVSPropertyOp54
 70
     1
102
RTVSPropertyOp55
 70
     1
102
RTVSPropertyOp56
 70
     1
102
RTVSPropertyOp57
 70
     1
102
RTVSPropertyOp58
 70
     1
102
RTVSPropertyOp59
 70
     1
102
RTVSPropertyOp60
 70
     1
102
RTVSPropertyOp61
 70
     1
102
RTVSPropertyOp62
 70
     1
  0
XRECORD
  5
299C7
102
{ACAD_REACTORS
330
299C6
102
}
330
299C6
100
AcDbXrecord
280
     1
102
RTVSPost2010Prop28
280
     0
102
RTVSPost2010PropOp28
 70
     1
102
RTVSPost2010Prop29
280
     1
102
RTVSPost2010PropOp29
 70
     1
102
RTVSPost2010Prop30
280
     1
102
RTVSPost2010PropOp30
 70
     1
102
RTVSPost2010Prop31
280
     0
102
RTVSPost2010PropOp31
 70
     1
102
RTVSPost2010Prop32
280
     0
102
RTVSPost2010PropOp32
 70
     1
102
RTVSPost2010Prop33
280
     0
102
RTVSPost2010PropOp33
 70
     1
102
RTVSPost2010Prop34
280
     0
102
RTVSPost2010PropOp34
 70
     1
102
RTVSPost2010Prop35
280
     0
102
RTVSPost2010PropOp35
 70
     1
102
RTVSPost2010Prop36
280
     0
102
RTVSPost2010PropOp36
 70
     1
102
RTVSPost2010Prop37
 90
       50
102
RTVSPost2010PropOp37
 70
     0
102
RTVSPost2010Prop38
140
0.0
102
RTVSPost2010PropOp38
 70
     0
102
RTVSPost2010Prop39
140
1.0
102
RTVSPost2010PropOp39
 70
     0
102
RTVSPost2010Prop40
 90
        0
102
RTVSPost2010PropOp40
 70
     0
102
RTVSPost2010Prop41ColorIndex
 90
       18
102
RTVSPost2010Prop41ColorRGB
 90
        0
102
RTVSPost2010PropOp41
 70
     0
102
RTVSPost2010Prop42
 90
       50
102
RTVSPost2010PropOp42
 70
     0
102
RTVSPost2010Prop43
 90
        3
102
RTVSPost2010PropOp43
 70
     0
102
RTVSPost2010Prop44ColorIndex
 90
        5
102
RTVSPost2010Prop44ColorRGB
 90
      255
102
RTVSPost2010PropOp44
 70
     0
102
RTVSPost2010Prop45
280
     0
102
RTVSPost2010PropOp45
 70
     1
102
RTVSPost2010Prop46
 90
       50
102
RTVSPost2010PropOp46
 70
     0
102
RTVSPost2010Prop47
 90
       50
102
RTVSPost2010PropOp47
 70
     0
102
RTVSPost2010Prop48
 90
       50
102
RTVSPost2010PropOp48
 70
     0
102
RTVSPost2010Prop49
280
     0
102
RTVSPost2010PropOp49
 70
     1
102
RTVSPost2010Prop50
 90
       50
102
RTVSPost2010PropOp50
 70
     0
102
RTVSPost2010Prop51ColorIndex
 90
      256
102
RTVSPost2010Prop51ColorRGB
 90
-16777216
102
RTVSPost2010PropOp51
 70
     0
102
RTVSPost2010Prop52
140
1.0
102
RTVSPost2010PropOp52
 70
     0
102
RTVSPost2010Prop53
 90
        2
102
RTVSPost2010PropOp53
 70
     0
102
RTVSPost2010Prop54
  1
strokes_ogs.tif
102
RTVSPost2010PropOp54
 70
     0
102
RTVSPost2010Prop55
280
     0
102
RTVSPost2010PropOp55
 70
     1
102
RTVSPost2010Prop56
140
1.0
102
RTVSPost2010PropOp56
 70
     0
102
RTVSPost2010Prop57
140
1.0
102
RTVSPost2010PropOp57
 70
     0
102
RTVSPropertyOp0
 70
     0
102
RTVSPropertyOp1
 70
     0
102
RTVSPropertyOp2
 70
     0
102
RTVSPropertyOp3
 70
     0
102
RTVSPropertyOp4
 70
     0
102
RTVSPropertyOp5
 70
     0
102
RTVSPropertyOp6
 70
     0
102
RTVSPropertyOp7
 70
     0
102
RTVSPropertyOp8
 70
     0
102
RTVSPropertyOp9
 70
     0
102
RTVSPropertyOp10
 70
     0
102
RTVSPropertyOp11
 70
     0
102
RTVSPropertyOp12
 70
     0
102
RTVSPropertyOp13
 70
     0
102
RTVSPropertyOp14
 70
     2
102
RTVSPropertyOp15
 70
     0
102
RTVSPropertyOp16
 70
     0
102
RTVSPropertyOp17
 70
     0
102
RTVSPropertyOp18
 70
     0
102
RTVSPropertyOp19
 70
     0
102
RTVSPropertyOp20
 70
     0
102
RTVSPropertyOp21
 70
     0
102
RTVSPropertyOp22
 70
     0
102
RTVSPropertyOp23
 70
     0
102
RTVSPropertyOp24
 70
     0
102
RTVSPropertyOp25
 70
     0
102
RTVSPropertyOp26
 70
     0
102
RTVSPropertyOp27
 70
     0
102
RTVSPropertyOp28
 70
     1
102
RTVSPropertyOp29
 70
     1
102
RTVSPropertyOp30
 70
     1
102
RTVSPropertyOp31
 70
     1
102
RTVSPropertyOp32
 70
     1
102
RTVSPropertyOp33
 70
     1
102
RTVSPropertyOp34
 70
     1
102
RTVSPropertyOp35
 70
     1
102
RTVSPropertyOp36
 70
     1
102
RTVSPropertyOp37
 70
     0
102
RTVSPropertyOp38
 70
     0
102
RTVSPropertyOp39
 70
     0
102
RTVSPropertyOp40
 70
     0
102
RTVSPropertyOp41
 70
     0
102
RTVSPropertyOp42
 70
     0
102
RTVSPropertyOp43
 70
     0
102
RTVSPropertyOp44
 70
     0
102
RTVSPropertyOp45
 70
     1
102
RTVSPropertyOp46
 70
     0
102
RTVSPropertyOp47
 70
     0
102
RTVSPropertyOp48
 70
     0
102
RTVSPropertyOp49
 70
     1
102
RTVSPropertyOp50
 70
     0
102
RTVSPropertyOp51
 70
     0
102
RTVSPropertyOp52
 70
     0
102
RTVSPropertyOp53
 70
     0
102
RTVSPropertyOp54
 70
     0
102
RTVSPropertyOp55
 70
     1
102
RTVSPropertyOp56
 70
     0
102
RTVSPropertyOp57
 70
     0
102
RTVSPropertyOp58
 70
     0
102
RTVSPropertyOp59
 70
     0
102
RTVSPropertyOp60
 70
     0
102
RTVSPropertyOp61
 70
     0
102
RTVSPropertyOp62
 70
     0
  0
XRECORD
  5
299AD
102
{ACAD_REACTORS
330
299AC
102
}
330
299AC
100
AcDbXrecord
280
     1
102
RTVSPost2010Prop28
280
     0
102
RTVSPost2010PropOp28
 70
     1
102
RTVSPost2010Prop29
280
     1
102
RTVSPost2010PropOp29
 70
     1
102
RTVSPost2010Prop30
280
     1
102
RTVSPost2010PropOp30
 70
     1
102
RTVSPost2010Prop31
280
     0
102
RTVSPost2010PropOp31
 70
     1
102
RTVSPost2010Prop32
280
     0
102
RTVSPost2010PropOp32
 70
     1
102
RTVSPost2010Prop33
280
     0
102
RTVSPost2010PropOp33
 70
     1
102
RTVSPost2010Prop34
280
     0
102
RTVSPost2010PropOp34
 70
     1
102
RTVSPost2010Prop35
280
     0
102
RTVSPost2010PropOp35
 70
     1
102
RTVSPost2010Prop36
280
     0
102
RTVSPost2010PropOp36
 70
     1
102
RTVSPost2010Prop37
 90
       50
102
RTVSPost2010PropOp37
 70
     1
102
RTVSPost2010Prop38
140
0.0
102
RTVSPost2010PropOp38
 70
     1
102
RTVSPost2010Prop39
140
1.0
102
RTVSPost2010PropOp39
 70
     1
102
RTVSPost2010Prop40
 90
        0
102
RTVSPost2010PropOp40
 70
     1
102
RTVSPost2010Prop41ColorIndex
 90
       18
102
RTVSPost2010Prop41ColorRGB
 90
        0
102
RTVSPost2010PropOp41
 70
     1
102
RTVSPost2010Prop42
 90
       50
102
RTVSPost2010PropOp42
 70
     1
102
RTVSPost2010Prop43
 90
        3
102
RTVSPost2010PropOp43
 70
     1
102
RTVSPost2010Prop44ColorIndex
 90
        5
102
RTVSPost2010Prop44ColorRGB
 90
      255
102
RTVSPost2010PropOp44
 70
     1
102
RTVSPost2010Prop45
280
     0
102
RTVSPost2010PropOp45
 70
     1
102
RTVSPost2010Prop46
 90
       50
102
RTVSPost2010PropOp46
 70
     1
102
RTVSPost2010Prop47
 90
       50
102
RTVSPost2010PropOp47
 70
     1
102
RTVSPost2010Prop48
 90
       50
102
RTVSPost2010PropOp48
 70
     1
102
RTVSPost2010Prop49
280
     0
102
RTVSPost2010PropOp49
 70
     1
102
RTVSPost2010Prop50
 90
       50
102
RTVSPost2010PropOp50
 70
     1
102
RTVSPost2010Prop51ColorIndex
 90
      256
102
RTVSPost2010Prop51ColorRGB
 90
-16777216
102
RTVSPost2010PropOp51
 70
     0
102
RTVSPost2010Prop52
140
1.0
102
RTVSPost2010PropOp52
 70
     0
102
RTVSPost2010Prop53
 90
        2
102
RTVSPost2010PropOp53
 70
     1
102
RTVSPost2010Prop54
  1
strokes_ogs.tif
102
RTVSPost2010PropOp54
 70
     1
102
RTVSPost2010Prop55
280
     0
102
RTVSPost2010PropOp55
 70
     1
102
RTVSPost2010Prop56
140
1.0
102
RTVSPost2010PropOp56
 70
     1
102
RTVSPost2010Prop57
140
1.0
102
RTVSPost2010PropOp57
 70
     1
102
RTVSPropertyOp0
 70
     1
102
RTVSPropertyOp1
 70
     1
102
RTVSPropertyOp2
 70
     1
102
RTVSPropertyOp3
 70
     1
102
RTVSPropertyOp4
 70
     1
102
RTVSPropertyOp5
 70
     1
102
RTVSPropertyOp6
 70
     1
102
RTVSPropertyOp7
 70
     1
102
RTVSPropertyOp8
 70
     1
102
RTVSPropertyOp9
 70
     1
102
RTVSPropertyOp10
 70
     1
102
RTVSPropertyOp11
 70
     1
102
RTVSPropertyOp12
 70
     1
102
RTVSPropertyOp13
 70
     1
102
RTVSPropertyOp14
 70
     1
102
RTVSPropertyOp15
 70
     1
102
RTVSPropertyOp16
 70
     1
102
RTVSPropertyOp17
 70
     1
102
RTVSPropertyOp18
 70
     1
102
RTVSPropertyOp19
 70
     1
102
RTVSPropertyOp20
 70
     1
102
RTVSPropertyOp21
 70
     1
102
RTVSPropertyOp22
 70
     1
102
RTVSPropertyOp23
 70
     1
102
RTVSPropertyOp24
 70
     1
102
RTVSPropertyOp25
 70
     1
102
RTVSPropertyOp26
 70
     1
102
RTVSPropertyOp27
 70
     1
102
RTVSPropertyOp28
 70
     1
102
RTVSPropertyOp29
 70
     1
102
RTVSPropertyOp30
 70
     1
102
RTVSPropertyOp31
 70
     1
102
RTVSPropertyOp32
 70
     1
102
RTVSPropertyOp33
 70
     1
102
RTVSPropertyOp34
 70
     1
102
RTVSPropertyOp35
 70
     1
102
RTVSPropertyOp36
 70
     1
102
RTVSPropertyOp37
 70
     1
102
RTVSPropertyOp38
 70
     1
102
RTVSPropertyOp39
 70
     1
102
RTVSPropertyOp40
 70
     1
102
RTVSPropertyOp41
 70
     1
102
RTVSPropertyOp42
 70
     1
102
RTVSPropertyOp43
 70
     1
102
RTVSPropertyOp44
 70
     1
102
RTVSPropertyOp45
 70
     1
102
RTVSPropertyOp46
 70
     1
102
RTVSPropertyOp47
 70
     1
102
RTVSPropertyOp48
 70
     1
102
RTVSPropertyOp49
 70
     1
102
RTVSPropertyOp50
 70
     1
102
RTVSPropertyOp51
 70
     0
102
RTVSPropertyOp52
 70
     0
102
RTVSPropertyOp53
 70
     1
102
RTVSPropertyOp54
 70
     1
102
RTVSPropertyOp55
 70
     1
102
RTVSPropertyOp56
 70
     1
102
RTVSPropertyOp57
 70
     1
102
RTVSPropertyOp58
 70
     1
102
RTVSPropertyOp59
 70
     1
102
RTVSPropertyOp60
 70
     1
102
RTVSPropertyOp61
 70
     1
102
RTVSPropertyOp62
 70
     1
  0
XRECORD
  5
299C3
102
{ACAD_REACTORS
330
299C2
102
}
330
299C2
100
AcDbXrecord
280
     1
102
RTVSPost2010Prop28
280
     0
102
RTVSPost2010PropOp28
 70
     1
102
RTVSPost2010Prop29
280
     1
102
RTVSPost2010PropOp29
 70
     1
102
RTVSPost2010Prop30
280
     1
102
RTVSPost2010PropOp30
 70
     1
102
RTVSPost2010Prop31
280
     0
102
RTVSPost2010PropOp31
 70
     1
102
RTVSPost2010Prop32
280
     0
102
RTVSPost2010PropOp32
 70
     1
102
RTVSPost2010Prop33
280
     0
102
RTVSPost2010PropOp33
 70
     1
102
RTVSPost2010Prop34
280
     0
102
RTVSPost2010PropOp34
 70
     1
102
RTVSPost2010Prop35
280
     0
102
RTVSPost2010PropOp35
 70
     1
102
RTVSPost2010Prop36
280
     0
102
RTVSPost2010PropOp36
 70
     1
102
RTVSPost2010Prop37
 90
       50
102
RTVSPost2010PropOp37
 70
     1
102
RTVSPost2010Prop38
140
0.0
102
RTVSPost2010PropOp38
 70
     1
102
RTVSPost2010Prop39
140
1.0
102
RTVSPost2010PropOp39
 70
     1
102
RTVSPost2010Prop40
 90
        0
102
RTVSPost2010PropOp40
 70
     1
102
RTVSPost2010Prop41ColorIndex
 90
       18
102
RTVSPost2010Prop41ColorRGB
 90
        0
102
RTVSPost2010PropOp41
 70
     1
102
RTVSPost2010Prop42
 90
       50
102
RTVSPost2010PropOp42
 70
     1
102
RTVSPost2010Prop43
 90
        3
102
RTVSPost2010PropOp43
 70
     1
102
RTVSPost2010Prop44ColorIndex
 90
        5
102
RTVSPost2010Prop44ColorRGB
 90
      255
102
RTVSPost2010PropOp44
 70
     1
102
RTVSPost2010Prop45
280
     0
102
RTVSPost2010PropOp45
 70
     1
102
RTVSPost2010Prop46
 90
       50
102
RTVSPost2010PropOp46
 70
     1
102
RTVSPost2010Prop47
 90
       50
102
RTVSPost2010PropOp47
 70
     1
102
RTVSPost2010Prop48
 90
       50
102
RTVSPost2010PropOp48
 70
     1
102
RTVSPost2010Prop49
280
     0
102
RTVSPost2010PropOp49
 70
     1
102
RTVSPost2010Prop50
 90
       50
102
RTVSPost2010PropOp50
 70
     1
102
RTVSPost2010Prop51ColorIndex
 90
      256
102
RTVSPost2010Prop51ColorRGB
 90
-16777216
102
RTVSPost2010PropOp51
 70
     0
102
RTVSPost2010Prop52
140
1.0
102
RTVSPost2010PropOp52
 70
     0
102
RTVSPost2010Prop53
 90
        2
102
RTVSPost2010PropOp53
 70
     1
102
RTVSPost2010Prop54
  1
strokes_ogs.tif
102
RTVSPost2010PropOp54
 70
     1
102
RTVSPost2010Prop55
280
     0
102
RTVSPost2010PropOp55
 70
     1
102
RTVSPost2010Prop56
140
1.0
102
RTVSPost2010PropOp56
 70
     1
102
RTVSPost2010Prop57
140
1.0
102
RTVSPost2010PropOp57
 70
     1
102
RTVSPropertyOp0
 70
     1
102
RTVSPropertyOp1
 70
     1
102
RTVSPropertyOp2
 70
     1
102
RTVSPropertyOp3
 70
     1
102
RTVSPropertyOp4
 70
     1
102
RTVSPropertyOp5
 70
     1
102
RTVSPropertyOp6
 70
     1
102
RTVSPropertyOp7
 70
     1
102
RTVSPropertyOp8
 70
     1
102
RTVSPropertyOp9
 70
     1
102
RTVSPropertyOp10
 70
     1
102
RTVSPropertyOp11
 70
     1
102
RTVSPropertyOp12
 70
     1
102
RTVSPropertyOp13
 70
     1
102
RTVSPropertyOp14
 70
     1
102
RTVSPropertyOp15
 70
     1
102
RTVSPropertyOp16
 70
     1
102
RTVSPropertyOp17
 70
     1
102
RTVSPropertyOp18
 70
     1
102
RTVSPropertyOp19
 70
     1
102
RTVSPropertyOp20
 70
     1
102
RTVSPropertyOp21
 70
     1
102
RTVSPropertyOp22
 70
     1
102
RTVSPropertyOp23
 70
     1
102
RTVSPropertyOp24
 70
     1
102
RTVSPropertyOp25
 70
     1
102
RTVSPropertyOp26
 70
     1
102
RTVSPropertyOp27
 70
     1
102
RTVSPropertyOp28
 70
     1
102
RTVSPropertyOp29
 70
     1
102
RTVSPropertyOp30
 70
     1
102
RTVSPropertyOp31
 70
     1
102
RTVSPropertyOp32
 70
     1
102
RTVSPropertyOp33
 70
     1
102
RTVSPropertyOp34
 70
     1
102
RTVSPropertyOp35
 70
     1
102
RTVSPropertyOp36
 70
     1
102
RTVSPropertyOp37
 70
     1
102
RTVSPropertyOp38
 70
     1
102
RTVSPropertyOp39
 70
     1
102
RTVSPropertyOp40
 70
     1
102
RTVSPropertyOp41
 70
     1
102
RTVSPropertyOp42
 70
     1
102
RTVSPropertyOp43
 70
     1
102
RTVSPropertyOp44
 70
     1
102
RTVSPropertyOp45
 70
     1
102
RTVSPropertyOp46
 70
     1
102
RTVSPropertyOp47
 70
     1
102
RTVSPropertyOp48
 70
     1
102
RTVSPropertyOp49
 70
     1
102
RTVSPropertyOp50
 70
     1
102
RTVSPropertyOp51
 70
     0
102
RTVSPropertyOp52
 70
     0
102
RTVSPropertyOp53
 70
     1
102
RTVSPropertyOp54
 70
     1
102
RTVSPropertyOp55
 70
     1
102
RTVSPropertyOp56
 70
     1
102
RTVSPropertyOp57
 70
     1
102
RTVSPropertyOp58
 70
     1
102
RTVSPropertyOp59
 70
     1
102
RTVSPropertyOp60
 70
     1
102
RTVSPropertyOp61
 70
     1
102
RTVSPropertyOp62
 70
     1
  0
XRECORD
  5
299C1
102
{ACAD_REACTORS
330
299C0
102
}
330
299C0
100
AcDbXrecord
280
     1
102
RTVSPost2010Prop28
280
     0
102
RTVSPost2010PropOp28
 70
     1
102
RTVSPost2010Prop29
280
     1
102
RTVSPost2010PropOp29
 70
     1
102
RTVSPost2010Prop30
280
     1
102
RTVSPost2010PropOp30
 70
     1
102
RTVSPost2010Prop31
280
     0
102
RTVSPost2010PropOp31
 70
     1
102
RTVSPost2010Prop32
280
     0
102
RTVSPost2010PropOp32
 70
     1
102
RTVSPost2010Prop33
280
     0
102
RTVSPost2010PropOp33
 70
     1
102
RTVSPost2010Prop34
280
     0
102
RTVSPost2010PropOp34
 70
     1
102
RTVSPost2010Prop35
280
     0
102
RTVSPost2010PropOp35
 70
     1
102
RTVSPost2010Prop36
280
     0
102
RTVSPost2010PropOp36
 70
     1
102
RTVSPost2010Prop37
 90
       50
102
RTVSPost2010PropOp37
 70
     1
102
RTVSPost2010Prop38
140
0.0
102
RTVSPost2010PropOp38
 70
     1
102
RTVSPost2010Prop39
140
1.0
102
RTVSPost2010PropOp39
 70
     1
102
RTVSPost2010Prop40
 90
        0
102
RTVSPost2010PropOp40
 70
     1
102
RTVSPost2010Prop41ColorIndex
 90
       18
102
RTVSPost2010Prop41ColorRGB
 90
        0
102
RTVSPost2010PropOp41
 70
     1
102
RTVSPost2010Prop42
 90
       50
102
RTVSPost2010PropOp42
 70
     1
102
RTVSPost2010Prop43
 90
        3
102
RTVSPost2010PropOp43
 70
     1
102
RTVSPost2010Prop44ColorIndex
 90
        5
102
RTVSPost2010Prop44ColorRGB
 90
      255
102
RTVSPost2010PropOp44
 70
     1
102
RTVSPost2010Prop45
280
     0
102
RTVSPost2010PropOp45
 70
     1
102
RTVSPost2010Prop46
 90
       50
102
RTVSPost2010PropOp46
 70
     1
102
RTVSPost2010Prop47
 90
       50
102
RTVSPost2010PropOp47
 70
     1
102
RTVSPost2010Prop48
 90
       50
102
RTVSPost2010PropOp48
 70
     1
102
RTVSPost2010Prop49
280
     0
102
RTVSPost2010PropOp49
 70
     1
102
RTVSPost2010Prop50
 90
       50
102
RTVSPost2010PropOp50
 70
     1
102
RTVSPost2010Prop51ColorIndex
 90
      256
102
RTVSPost2010Prop51ColorRGB
 90
-16777216
102
RTVSPost2010PropOp51
 70
     0
102
RTVSPost2010Prop52
140
1.0
102
RTVSPost2010PropOp52
 70
     0
102
RTVSPost2010Prop53
 90
        2
102
RTVSPost2010PropOp53
 70
     1
102
RTVSPost2010Prop54
  1
strokes_ogs.tif
102
RTVSPost2010PropOp54
 70
     1
102
RTVSPost2010Prop55
280
     0
102
RTVSPost2010PropOp55
 70
     1
102
RTVSPost2010Prop56
140
1.0
102
RTVSPost2010PropOp56
 70
     1
102
RTVSPost2010Prop57
140
1.0
102
RTVSPost2010PropOp57
 70
     1
102
RTVSPropertyOp0
 70
     1
102
RTVSPropertyOp1
 70
     1
102
RTVSPropertyOp2
 70
     1
102
RTVSPropertyOp3
 70
     1
102
RTVSPropertyOp4
 70
     1
102
RTVSPropertyOp5
 70
     1
102
RTVSPropertyOp6
 70
     1
102
RTVSPropertyOp7
 70
     1
102
RTVSPropertyOp8
 70
     1
102
RTVSPropertyOp9
 70
     1
102
RTVSPropertyOp10
 70
     1
102
RTVSPropertyOp11
 70
     1
102
RTVSPropertyOp12
 70
     1
102
RTVSPropertyOp13
 70
     1
102
RTVSPropertyOp14
 70
     1
102
RTVSPropertyOp15
 70
     1
102
RTVSPropertyOp16
 70
     1
102
RTVSPropertyOp17
 70
     1
102
RTVSPropertyOp18
 70
     1
102
RTVSPropertyOp19
 70
     1
102
RTVSPropertyOp20
 70
     1
102
RTVSPropertyOp21
 70
     1
102
RTVSPropertyOp22
 70
     1
102
RTVSPropertyOp23
 70
     1
102
RTVSPropertyOp24
 70
     1
102
RTVSPropertyOp25
 70
     1
102
RTVSPropertyOp26
 70
     1
102
RTVSPropertyOp27
 70
     1
102
RTVSPropertyOp28
 70
     1
102
RTVSPropertyOp29
 70
     1
102
RTVSPropertyOp30
 70
     1
102
RTVSPropertyOp31
 70
     1
102
RTVSPropertyOp32
 70
     1
102
RTVSPropertyOp33
 70
     1
102
RTVSPropertyOp34
 70
     1
102
RTVSPropertyOp35
 70
     1
102
RTVSPropertyOp36
 70
     1
102
RTVSPropertyOp37
 70
     1
102
RTVSPropertyOp38
 70
     1
102
RTVSPropertyOp39
 70
     1
102
RTVSPropertyOp40
 70
     1
102
RTVSPropertyOp41
 70
     1
102
RTVSPropertyOp42
 70
     1
102
RTVSPropertyOp43
 70
     1
102
RTVSPropertyOp44
 70
     1
102
RTVSPropertyOp45
 70
     1
102
RTVSPropertyOp46
 70
     1
102
RTVSPropertyOp47
 70
     1
102
RTVSPropertyOp48
 70
     1
102
RTVSPropertyOp49
 70
     1
102
RTVSPropertyOp50
 70
     1
102
RTVSPropertyOp51
 70
     0
102
RTVSPropertyOp52
 70
     0
102
RTVSPropertyOp53
 70
     1
102
RTVSPropertyOp54
 70
     1
102
RTVSPropertyOp55
 70
     1
102
RTVSPropertyOp56
 70
     1
102
RTVSPropertyOp57
 70
     1
102
RTVSPropertyOp58
 70
     1
102
RTVSPropertyOp59
 70
     1
102
RTVSPropertyOp60
 70
     1
102
RTVSPropertyOp61
 70
     1
102
RTVSPropertyOp62
 70
     1
  0
XRECORD
  5
299BB
102
{ACAD_REACTORS
330
299BA
102
}
330
299BA
100
AcDbXrecord
280
     1
102
RTVSPost2010Prop28
280
     0
102
RTVSPost2010PropOp28
 70
     1
102
RTVSPost2010Prop29
280
     1
102
RTVSPost2010PropOp29
 70
     1
102
RTVSPost2010Prop30
280
     1
102
RTVSPost2010PropOp30
 70
     1
102
RTVSPost2010Prop31
280
     0
102
RTVSPost2010PropOp31
 70
     1
102
RTVSPost2010Prop32
280
     0
102
RTVSPost2010PropOp32
 70
     1
102
RTVSPost2010Prop33
280
     0
102
RTVSPost2010PropOp33
 70
     1
102
RTVSPost2010Prop34
280
     0
102
RTVSPost2010PropOp34
 70
     1
102
RTVSPost2010Prop35
280
     0
102
RTVSPost2010PropOp35
 70
     1
102
RTVSPost2010Prop36
280
     0
102
RTVSPost2010PropOp36
 70
     1
102
RTVSPost2010Prop37
 90
       50
102
RTVSPost2010PropOp37
 70
     1
102
RTVSPost2010Prop38
140
0.0
102
RTVSPost2010PropOp38
 70
     1
102
RTVSPost2010Prop39
140
1.0
102
RTVSPost2010PropOp39
 70
     1
102
RTVSPost2010Prop40
 90
        0
102
RTVSPost2010PropOp40
 70
     1
102
RTVSPost2010Prop41ColorIndex
 90
       18
102
RTVSPost2010Prop41ColorRGB
 90
        0
102
RTVSPost2010PropOp41
 70
     1
102
RTVSPost2010Prop42
 90
       50
102
RTVSPost2010PropOp42
 70
     1
102
RTVSPost2010Prop43
 90
        3
102
RTVSPost2010PropOp43
 70
     1
102
RTVSPost2010Prop44ColorIndex
 90
        5
102
RTVSPost2010Prop44ColorRGB
 90
      255
102
RTVSPost2010PropOp44
 70
     1
102
RTVSPost2010Prop45
280
     0
102
RTVSPost2010PropOp45
 70
     1
102
RTVSPost2010Prop46
 90
       50
102
RTVSPost2010PropOp46
 70
     1
102
RTVSPost2010Prop47
 90
       50
102
RTVSPost2010PropOp47
 70
     1
102
RTVSPost2010Prop48
 90
       50
102
RTVSPost2010PropOp48
 70
     1
102
RTVSPost2010Prop49
280
     0
102
RTVSPost2010PropOp49
 70
     1
102
RTVSPost2010Prop50
 90
       50
102
RTVSPost2010PropOp50
 70
     1
102
RTVSPost2010Prop51ColorIndex
 90
      256
102
RTVSPost2010Prop51ColorRGB
 90
-16777216
102
RTVSPost2010PropOp51
 70
     0
102
RTVSPost2010Prop52
140
1.0
102
RTVSPost2010PropOp52
 70
     0
102
RTVSPost2010Prop53
 90
        2
102
RTVSPost2010PropOp53
 70
     1
102
RTVSPost2010Prop54
  1
strokes_ogs.tif
102
RTVSPost2010PropOp54
 70
     1
102
RTVSPost2010Prop55
280
     0
102
RTVSPost2010PropOp55
 70
     1
102
RTVSPost2010Prop56
140
1.0
102
RTVSPost2010PropOp56
 70
     1
102
RTVSPost2010Prop57
140
1.0
102
RTVSPost2010PropOp57
 70
     1
102
RTVSPropertyOp0
 70
     1
102
RTVSPropertyOp1
 70
     1
102
RTVSPropertyOp2
 70
     1
102
RTVSPropertyOp3
 70
     1
102
RTVSPropertyOp4
 70
     1
102
RTVSPropertyOp5
 70
     1
102
RTVSPropertyOp6
 70
     1
102
RTVSPropertyOp7
 70
     1
102
RTVSPropertyOp8
 70
     1
102
RTVSPropertyOp9
 70
     1
102
RTVSPropertyOp10
 70
     1
102
RTVSPropertyOp11
 70
     1
102
RTVSPropertyOp12
 70
     1
102
RTVSPropertyOp13
 70
     1
102
RTVSPropertyOp14
 70
     1
102
RTVSPropertyOp15
 70
     1
102
RTVSPropertyOp16
 70
     1
102
RTVSPropertyOp17
 70
     1
102
RTVSPropertyOp18
 70
     1
102
RTVSPropertyOp19
 70
     1
102
RTVSPropertyOp20
 70
     1
102
RTVSPropertyOp21
 70
     1
102
RTVSPropertyOp22
 70
     1
102
RTVSPropertyOp23
 70
     1
102
RTVSPropertyOp24
 70
     1
102
RTVSPropertyOp25
 70
     1
102
RTVSPropertyOp26
 70
     1
102
RTVSPropertyOp27
 70
     1
102
RTVSPropertyOp28
 70
     1
102
RTVSPropertyOp29
 70
     1
102
RTVSPropertyOp30
 70
     1
102
RTVSPropertyOp31
 70
     1
102
RTVSPropertyOp32
 70
     1
102
RTVSPropertyOp33
 70
     1
102
RTVSPropertyOp34
 70
     1
102
RTVSPropertyOp35
 70
     1
102
RTVSPropertyOp36
 70
     1
102
RTVSPropertyOp37
 70
     1
102
RTVSPropertyOp38
 70
     1
102
RTVSPropertyOp39
 70
     1
102
RTVSPropertyOp40
 70
     1
102
RTVSPropertyOp41
 70
     1
102
RTVSPropertyOp42
 70
     1
102
RTVSPropertyOp43
 70
     1
102
RTVSPropertyOp44
 70
     1
102
RTVSPropertyOp45
 70
     1
102
RTVSPropertyOp46
 70
     1
102
RTVSPropertyOp47
 70
     1
102
RTVSPropertyOp48
 70
     1
102
RTVSPropertyOp49
 70
     1
102
RTVSPropertyOp50
 70
     1
102
RTVSPropertyOp51
 70
     0
102
RTVSPropertyOp52
 70
     0
102
RTVSPropertyOp53
 70
     1
102
RTVSPropertyOp54
 70
     1
102
RTVSPropertyOp55
 70
     1
102
RTVSPropertyOp56
 70
     1
102
RTVSPropertyOp57
 70
     1
102
RTVSPropertyOp58
 70
     1
102
RTVSPropertyOp59
 70
     1
102
RTVSPropertyOp60
 70
     1
102
RTVSPropertyOp61
 70
     1
102
RTVSPropertyOp62
 70
     1
  0
XRECORD
  5
299BD
102
{ACAD_REACTORS
330
299BC
102
}
330
299BC
100
AcDbXrecord
280
     1
102
RTVSPost2010Prop28
280
     0
102
RTVSPost2010PropOp28
 70
     1
102
RTVSPost2010Prop29
280
     1
102
RTVSPost2010PropOp29
 70
     1
102
RTVSPost2010Prop30
280
     1
102
RTVSPost2010PropOp30
 70
     1
102
RTVSPost2010Prop31
280
     0
102
RTVSPost2010PropOp31
 70
     1
102
RTVSPost2010Prop32
280
     0
102
RTVSPost2010PropOp32
 70
     1
102
RTVSPost2010Prop33
280
     0
102
RTVSPost2010PropOp33
 70
     1
102
RTVSPost2010Prop34
280
     0
102
RTVSPost2010PropOp34
 70
     1
102
RTVSPost2010Prop35
280
     0
102
RTVSPost2010PropOp35
 70
     1
102
RTVSPost2010Prop36
280
     0
102
RTVSPost2010PropOp36
 70
     1
102
RTVSPost2010Prop37
 90
       50
102
RTVSPost2010PropOp37
 70
     1
102
RTVSPost2010Prop38
140
0.0
102
RTVSPost2010PropOp38
 70
     1
102
RTVSPost2010Prop39
140
1.0
102
RTVSPost2010PropOp39
 70
     1
102
RTVSPost2010Prop40
 90
        0
102
RTVSPost2010PropOp40
 70
     1
102
RTVSPost2010Prop41ColorIndex
 90
       18
102
RTVSPost2010Prop41ColorRGB
 90
        0
102
RTVSPost2010PropOp41
 70
     1
102
RTVSPost2010Prop42
 90
       50
102
RTVSPost2010PropOp42
 70
     1
102
RTVSPost2010Prop43
 90
        3
102
RTVSPost2010PropOp43
 70
     1
102
RTVSPost2010Prop44ColorIndex
 90
        5
102
RTVSPost2010Prop44ColorRGB
 90
      255
102
RTVSPost2010PropOp44
 70
     1
102
RTVSPost2010Prop45
280
     0
102
RTVSPost2010PropOp45
 70
     1
102
RTVSPost2010Prop46
 90
       50
102
RTVSPost2010PropOp46
 70
     1
102
RTVSPost2010Prop47
 90
       50
102
RTVSPost2010PropOp47
 70
     1
102
RTVSPost2010Prop48
 90
       50
102
RTVSPost2010PropOp48
 70
     1
102
RTVSPost2010Prop49
280
     0
102
RTVSPost2010PropOp49
 70
     1
102
RTVSPost2010Prop50
 90
       50
102
RTVSPost2010PropOp50
 70
     1
102
RTVSPost2010Prop51ColorIndex
 90
      256
102
RTVSPost2010Prop51ColorRGB
 90
-16777216
102
RTVSPost2010PropOp51
 70
     0
102
RTVSPost2010Prop52
140
1.0
102
RTVSPost2010PropOp52
 70
     0
102
RTVSPost2010Prop53
 90
        2
102
RTVSPost2010PropOp53
 70
     1
102
RTVSPost2010Prop54
  1
strokes_ogs.tif
102
RTVSPost2010PropOp54
 70
     1
102
RTVSPost2010Prop55
280
     0
102
RTVSPost2010PropOp55
 70
     1
102
RTVSPost2010Prop56
140
1.0
102
RTVSPost2010PropOp56
 70
     1
102
RTVSPost2010Prop57
140
1.0
102
RTVSPost2010PropOp57
 70
     1
102
RTVSPropertyOp0
 70
     1
102
RTVSPropertyOp1
 70
     1
102
RTVSPropertyOp2
 70
     1
102
RTVSPropertyOp3
 70
     1
102
RTVSPropertyOp4
 70
     1
102
RTVSPropertyOp5
 70
     1
102
RTVSPropertyOp6
 70
     1
102
RTVSPropertyOp7
 70
     1
102
RTVSPropertyOp8
 70
     1
102
RTVSPropertyOp9
 70
     1
102
RTVSPropertyOp10
 70
     1
102
RTVSPropertyOp11
 70
     1
102
RTVSPropertyOp12
 70
     1
102
RTVSPropertyOp13
 70
     1
102
RTVSPropertyOp14
 70
     1
102
RTVSPropertyOp15
 70
     1
102
RTVSPropertyOp16
 70
     1
102
RTVSPropertyOp17
 70
     1
102
RTVSPropertyOp18
 70
     1
102
RTVSPropertyOp19
 70
     1
102
RTVSPropertyOp20
 70
     1
102
RTVSPropertyOp21
 70
     1
102
RTVSPropertyOp22
 70
     1
102
RTVSPropertyOp23
 70
     1
102
RTVSPropertyOp24
 70
     1
102
RTVSPropertyOp25
 70
     1
102
RTVSPropertyOp26
 70
     1
102
RTVSPropertyOp27
 70
     1
102
RTVSPropertyOp28
 70
     1
102
RTVSPropertyOp29
 70
     1
102
RTVSPropertyOp30
 70
     1
102
RTVSPropertyOp31
 70
     1
102
RTVSPropertyOp32
 70
     1
102
RTVSPropertyOp33
 70
     1
102
RTVSPropertyOp34
 70
     1
102
RTVSPropertyOp35
 70
     1
102
RTVSPropertyOp36
 70
     1
102
RTVSPropertyOp37
 70
     1
102
RTVSPropertyOp38
 70
     1
102
RTVSPropertyOp39
 70
     1
102
RTVSPropertyOp40
 70
     1
102
RTVSPropertyOp41
 70
     1
102
RTVSPropertyOp42
 70
     1
102
RTVSPropertyOp43
 70
     1
102
RTVSPropertyOp44
 70
     1
102
RTVSPropertyOp45
 70
     1
102
RTVSPropertyOp46
 70
     1
102
RTVSPropertyOp47
 70
     1
102
RTVSPropertyOp48
 70
     1
102
RTVSPropertyOp49
 70
     1
102
RTVSPropertyOp50
 70
     1
102
RTVSPropertyOp51
 70
     0
102
RTVSPropertyOp52
 70
     0
102
RTVSPropertyOp53
 70
     1
102
RTVSPropertyOp54
 70
     1
102
RTVSPropertyOp55
 70
     1
102
RTVSPropertyOp56
 70
     1
102
RTVSPropertyOp57
 70
     1
102
RTVSPropertyOp58
 70
     1
102
RTVSPropertyOp59
 70
     1
102
RTVSPropertyOp60
 70
     1
102
RTVSPropertyOp61
 70
     1
102
RTVSPropertyOp62
 70
     1
  0
XRECORD
  5
299B3
102
{ACAD_REACTORS
330
299B2
102
}
330
299B2
100
AcDbXrecord
280
     1
102
RTVSPost2010Prop28
280
     0
102
RTVSPost2010PropOp28
 70
     1
102
RTVSPost2010Prop29
280
     1
102
RTVSPost2010PropOp29
 70
     1
102
RTVSPost2010Prop30
280
     1
102
RTVSPost2010PropOp30
 70
     1
102
RTVSPost2010Prop31
280
     0
102
RTVSPost2010PropOp31
 70
     1
102
RTVSPost2010Prop32
280
     0
102
RTVSPost2010PropOp32
 70
     1
102
RTVSPost2010Prop33
280
     0
102
RTVSPost2010PropOp33
 70
     1
102
RTVSPost2010Prop34
280
     0
102
RTVSPost2010PropOp34
 70
     1
102
RTVSPost2010Prop35
280
     0
102
RTVSPost2010PropOp35
 70
     1
102
RTVSPost2010Prop36
280
     0
102
RTVSPost2010PropOp36
 70
     1
102
RTVSPost2010Prop37
 90
       50
102
RTVSPost2010PropOp37
 70
     1
102
RTVSPost2010Prop38
140
0.0
102
RTVSPost2010PropOp38
 70
     1
102
RTVSPost2010Prop39
140
1.0
102
RTVSPost2010PropOp39
 70
     1
102
RTVSPost2010Prop40
 90
        0
102
RTVSPost2010PropOp40
 70
     1
102
RTVSPost2010Prop41ColorIndex
 90
       18
102
RTVSPost2010Prop41ColorRGB
 90
        0
102
RTVSPost2010PropOp41
 70
     1
102
RTVSPost2010Prop42
 90
       50
102
RTVSPost2010PropOp42
 70
     1
102
RTVSPost2010Prop43
 90
        3
102
RTVSPost2010PropOp43
 70
     1
102
RTVSPost2010Prop44ColorIndex
 90
        5
102
RTVSPost2010Prop44ColorRGB
 90
      255
102
RTVSPost2010PropOp44
 70
     1
102
RTVSPost2010Prop45
280
     0
102
RTVSPost2010PropOp45
 70
     1
102
RTVSPost2010Prop46
 90
       50
102
RTVSPost2010PropOp46
 70
     1
102
RTVSPost2010Prop47
 90
       50
102
RTVSPost2010PropOp47
 70
     1
102
RTVSPost2010Prop48
 90
       50
102
RTVSPost2010PropOp48
 70
     1
102
RTVSPost2010Prop49
280
     0
102
RTVSPost2010PropOp49
 70
     1
102
RTVSPost2010Prop50
 90
       50
102
RTVSPost2010PropOp50
 70
     1
102
RTVSPost2010Prop51ColorIndex
 90
      256
102
RTVSPost2010Prop51ColorRGB
 90
-16777216
102
RTVSPost2010PropOp51
 70
     0
102
RTVSPost2010Prop52
140
1.0
102
RTVSPost2010PropOp52
 70
     0
102
RTVSPost2010Prop53
 90
        2
102
RTVSPost2010PropOp53
 70
     1
102
RTVSPost2010Prop54
  1
strokes_ogs.tif
102
RTVSPost2010PropOp54
 70
     1
102
RTVSPost2010Prop55
280
     0
102
RTVSPost2010PropOp55
 70
     1
102
RTVSPost2010Prop56
140
1.0
102
RTVSPost2010PropOp56
 70
     1
102
RTVSPost2010Prop57
140
1.0
102
RTVSPost2010PropOp57
 70
     1
102
RTVSPropertyOp0
 70
     1
102
RTVSPropertyOp1
 70
     1
102
RTVSPropertyOp2
 70
     1
102
RTVSPropertyOp3
 70
     1
102
RTVSPropertyOp4
 70
     1
102
RTVSPropertyOp5
 70
     1
102
RTVSPropertyOp6
 70
     1
102
RTVSPropertyOp7
 70
     1
102
RTVSPropertyOp8
 70
     1
102
RTVSPropertyOp9
 70
     1
102
RTVSPropertyOp10
 70
     1
102
RTVSPropertyOp11
 70
     1
102
RTVSPropertyOp12
 70
     1
102
RTVSPropertyOp13
 70
     1
102
RTVSPropertyOp14
 70
     1
102
RTVSPropertyOp15
 70
     1
102
RTVSPropertyOp16
 70
     1
102
RTVSPropertyOp17
 70
     1
102
RTVSPropertyOp18
 70
     1
102
RTVSPropertyOp19
 70
     1
102
RTVSPropertyOp20
 70
     1
102
RTVSPropertyOp21
 70
     1
102
RTVSPropertyOp22
 70
     1
102
RTVSPropertyOp23
 70
     1
102
RTVSPropertyOp24
 70
     1
102
RTVSPropertyOp25
 70
     1
102
RTVSPropertyOp26
 70
     1
102
RTVSPropertyOp27
 70
     1
102
RTVSPropertyOp28
 70
     1
102
RTVSPropertyOp29
 70
     1
102
RTVSPropertyOp30
 70
     1
102
RTVSPropertyOp31
 70
     1
102
RTVSPropertyOp32
 70
     1
102
RTVSPropertyOp33
 70
     1
102
RTVSPropertyOp34
 70
     1
102
RTVSPropertyOp35
 70
     1
102
RTVSPropertyOp36
 70
     1
102
RTVSPropertyOp37
 70
     1
102
RTVSPropertyOp38
 70
     1
102
RTVSPropertyOp39
 70
     1
102
RTVSPropertyOp40
 70
     1
102
RTVSPropertyOp41
 70
     1
102
RTVSPropertyOp42
 70
     1
102
RTVSPropertyOp43
 70
     1
102
RTVSPropertyOp44
 70
     1
102
RTVSPropertyOp45
 70
     1
102
RTVSPropertyOp46
 70
     1
102
RTVSPropertyOp47
 70
     1
102
RTVSPropertyOp48
 70
     1
102
RTVSPropertyOp49
 70
     1
102
RTVSPropertyOp50
 70
     1
102
RTVSPropertyOp51
 70
     0
102
RTVSPropertyOp52
 70
     0
102
RTVSPropertyOp53
 70
     1
102
RTVSPropertyOp54
 70
     1
102
RTVSPropertyOp55
 70
     1
102
RTVSPropertyOp56
 70
     1
102
RTVSPropertyOp57
 70
     1
102
RTVSPropertyOp58
 70
     1
102
RTVSPropertyOp59
 70
     1
102
RTVSPropertyOp60
 70
     1
102
RTVSPropertyOp61
 70
     1
102
RTVSPropertyOp62
 70
     1
  0
XRECORD
  5
299A7
102
{ACAD_REACTORS
330
299A6
102
}
330
299A6
100
AcDbXrecord
280
     1
102
RTVSPost2010Prop28
280
     0
102
RTVSPost2010PropOp28
 70
     1
102
RTVSPost2010Prop29
280
     1
102
RTVSPost2010PropOp29
 70
     1
102
RTVSPost2010Prop30
280
     1
102
RTVSPost2010PropOp30
 70
     1
102
RTVSPost2010Prop31
280
     0
102
RTVSPost2010PropOp31
 70
     1
102
RTVSPost2010Prop32
280
     0
102
RTVSPost2010PropOp32
 70
     1
102
RTVSPost2010Prop33
280
     0
102
RTVSPost2010PropOp33
 70
     1
102
RTVSPost2010Prop34
280
     0
102
RTVSPost2010PropOp34
 70
     1
102
RTVSPost2010Prop35
280
     0
102
RTVSPost2010PropOp35
 70
     1
102
RTVSPost2010Prop36
280
     0
102
RTVSPost2010PropOp36
 70
     1
102
RTVSPost2010Prop37
 90
       50
102
RTVSPost2010PropOp37
 70
     1
102
RTVSPost2010Prop38
140
0.0
102
RTVSPost2010PropOp38
 70
     1
102
RTVSPost2010Prop39
140
1.0
102
RTVSPost2010PropOp39
 70
     1
102
RTVSPost2010Prop40
 90
        0
102
RTVSPost2010PropOp40
 70
     1
102
RTVSPost2010Prop41ColorIndex
 90
       18
102
RTVSPost2010Prop41ColorRGB
 90
        0
102
RTVSPost2010PropOp41
 70
     1
102
RTVSPost2010Prop42
 90
       50
102
RTVSPost2010PropOp42
 70
     1
102
RTVSPost2010Prop43
 90
        3
102
RTVSPost2010PropOp43
 70
     1
102
RTVSPost2010Prop44ColorIndex
 90
        5
102
RTVSPost2010Prop44ColorRGB
 90
      255
102
RTVSPost2010PropOp44
 70
     1
102
RTVSPost2010Prop45
280
     0
102
RTVSPost2010PropOp45
 70
     1
102
RTVSPost2010Prop46
 90
       50
102
RTVSPost2010PropOp46
 70
     1
102
RTVSPost2010Prop47
 90
       50
102
RTVSPost2010PropOp47
 70
     1
102
RTVSPost2010Prop48
 90
       50
102
RTVSPost2010PropOp48
 70
     1
102
RTVSPost2010Prop49
280
     0
102
RTVSPost2010PropOp49
 70
     1
102
RTVSPost2010Prop50
 90
       50
102
RTVSPost2010PropOp50
 70
     1
102
RTVSPost2010Prop51ColorIndex
 90
      256
102
RTVSPost2010Prop51ColorRGB
 90
-16777216
102
RTVSPost2010PropOp51
 70
     0
102
RTVSPost2010Prop52
140
1.0
102
RTVSPost2010PropOp52
 70
     0
102
RTVSPost2010Prop53
 90
        2
102
RTVSPost2010PropOp53
 70
     1
102
RTVSPost2010Prop54
  1
strokes_ogs.tif
102
RTVSPost2010PropOp54
 70
     1
102
RTVSPost2010Prop55
280
     0
102
RTVSPost2010PropOp55
 70
     1
102
RTVSPost2010Prop56
140
1.0
102
RTVSPost2010PropOp56
 70
     1
102
RTVSPost2010Prop57
140
1.0
102
RTVSPost2010PropOp57
 70
     1
102
RTVSPropertyOp0
 70
     1
102
RTVSPropertyOp1
 70
     1
102
RTVSPropertyOp2
 70
     1
102
RTVSPropertyOp3
 70
     1
102
RTVSPropertyOp4
 70
     1
102
RTVSPropertyOp5
 70
     1
102
RTVSPropertyOp6
 70
     1
102
RTVSPropertyOp7
 70
     1
102
RTVSPropertyOp8
 70
     1
102
RTVSPropertyOp9
 70
     1
102
RTVSPropertyOp10
 70
     1
102
RTVSPropertyOp11
 70
     1
102
RTVSPropertyOp12
 70
     1
102
RTVSPropertyOp13
 70
     1
102
RTVSPropertyOp14
 70
     1
102
RTVSPropertyOp15
 70
     1
102
RTVSPropertyOp16
 70
     1
102
RTVSPropertyOp17
 70
     1
102
RTVSPropertyOp18
 70
     1
102
RTVSPropertyOp19
 70
     1
102
RTVSPropertyOp20
 70
     1
102
RTVSPropertyOp21
 70
     1
102
RTVSPropertyOp22
 70
     1
102
RTVSPropertyOp23
 70
     1
102
RTVSPropertyOp24
 70
     1
102
RTVSPropertyOp25
 70
     1
102
RTVSPropertyOp26
 70
     1
102
RTVSPropertyOp27
 70
     1
102
RTVSPropertyOp28
 70
     1
102
RTVSPropertyOp29
 70
     1
102
RTVSPropertyOp30
 70
     1
102
RTVSPropertyOp31
 70
     1
102
RTVSPropertyOp32
 70
     1
102
RTVSPropertyOp33
 70
     1
102
RTVSPropertyOp34
 70
     1
102
RTVSPropertyOp35
 70
     1
102
RTVSPropertyOp36
 70
     1
102
RTVSPropertyOp37
 70
     1
102
RTVSPropertyOp38
 70
     1
102
RTVSPropertyOp39
 70
     1
102
RTVSPropertyOp40
 70
     1
102
RTVSPropertyOp41
 70
     1
102
RTVSPropertyOp42
 70
     1
102
RTVSPropertyOp43
 70
     1
102
RTVSPropertyOp44
 70
     1
102
RTVSPropertyOp45
 70
     1
102
RTVSPropertyOp46
 70
     1
102
RTVSPropertyOp47
 70
     1
102
RTVSPropertyOp48
 70
     1
102
RTVSPropertyOp49
 70
     1
102
RTVSPropertyOp50
 70
     1
102
RTVSPropertyOp51
 70
     0
102
RTVSPropertyOp52
 70
     0
102
RTVSPropertyOp53
 70
     1
102
RTVSPropertyOp54
 70
     1
102
RTVSPropertyOp55
 70
     1
102
RTVSPropertyOp56
 70
     1
102
RTVSPropertyOp57
 70
     1
102
RTVSPropertyOp58
 70
     1
102
RTVSPropertyOp59
 70
     1
102
RTVSPropertyOp60
 70
     1
102
RTVSPropertyOp61
 70
     1
102
RTVSPropertyOp62
 70
     1
  0
XRECORD
  5
299BF
102
{ACAD_REACTORS
330
299BE
102
}
330
299BE
100
AcDbXrecord
280
     1
102
RTVSPost2010Prop28
280
     0
102
RTVSPost2010PropOp28
 70
     1
102
RTVSPost2010Prop29
280
     1
102
RTVSPost2010PropOp29
 70
     1
102
RTVSPost2010Prop30
280
     1
102
RTVSPost2010PropOp30
 70
     1
102
RTVSPost2010Prop31
280
     0
102
RTVSPost2010PropOp31
 70
     1
102
RTVSPost2010Prop32
280
     0
102
RTVSPost2010PropOp32
 70
     1
102
RTVSPost2010Prop33
280
     0
102
RTVSPost2010PropOp33
 70
     1
102
RTVSPost2010Prop34
280
     0
102
RTVSPost2010PropOp34
 70
     1
102
RTVSPost2010Prop35
280
     0
102
RTVSPost2010PropOp35
 70
     1
102
RTVSPost2010Prop36
280
     0
102
RTVSPost2010PropOp36
 70
     1
102
RTVSPost2010Prop37
 90
       50
102
RTVSPost2010PropOp37
 70
     1
102
RTVSPost2010Prop38
140
0.0
102
RTVSPost2010PropOp38
 70
     1
102
RTVSPost2010Prop39
140
1.0
102
RTVSPost2010PropOp39
 70
     1
102
RTVSPost2010Prop40
 90
        0
102
RTVSPost2010PropOp40
 70
     1
102
RTVSPost2010Prop41ColorIndex
 90
       18
102
RTVSPost2010Prop41ColorRGB
 90
        0
102
RTVSPost2010PropOp41
 70
     1
102
RTVSPost2010Prop42
 90
       50
102
RTVSPost2010PropOp42
 70
     1
102
RTVSPost2010Prop43
 90
        3
102
RTVSPost2010PropOp43
 70
     1
102
RTVSPost2010Prop44ColorIndex
 90
        5
102
RTVSPost2010Prop44ColorRGB
 90
      255
102
RTVSPost2010PropOp44
 70
     1
102
RTVSPost2010Prop45
280
     0
102
RTVSPost2010PropOp45
 70
     1
102
RTVSPost2010Prop46
 90
       50
102
RTVSPost2010PropOp46
 70
     1
102
RTVSPost2010Prop47
 90
       50
102
RTVSPost2010PropOp47
 70
     1
102
RTVSPost2010Prop48
 90
       50
102
RTVSPost2010PropOp48
 70
     1
102
RTVSPost2010Prop49
280
     0
102
RTVSPost2010PropOp49
 70
     1
102
RTVSPost2010Prop50
 90
       50
102
RTVSPost2010PropOp50
 70
     1
102
RTVSPost2010Prop51ColorIndex
 90
      256
102
RTVSPost2010Prop51ColorRGB
 90
-16777216
102
RTVSPost2010PropOp51
 70
     0
102
RTVSPost2010Prop52
140
1.0
102
RTVSPost2010PropOp52
 70
     0
102
RTVSPost2010Prop53
 90
        2
102
RTVSPost2010PropOp53
 70
     1
102
RTVSPost2010Prop54
  1
strokes_ogs.tif
102
RTVSPost2010PropOp54
 70
     1
102
RTVSPost2010Prop55
280
     0
102
RTVSPost2010PropOp55
 70
     1
102
RTVSPost2010Prop56
140
1.0
102
RTVSPost2010PropOp56
 70
     1
102
RTVSPost2010Prop57
140
1.0
102
RTVSPost2010PropOp57
 70
     1
102
RTVSPropertyOp0
 70
     1
102
RTVSPropertyOp1
 70
     1
102
RTVSPropertyOp2
 70
     1
102
RTVSPropertyOp3
 70
     1
102
RTVSPropertyOp4
 70
     1
102
RTVSPropertyOp5
 70
     1
102
RTVSPropertyOp6
 70
     1
102
RTVSPropertyOp7
 70
     1
102
RTVSPropertyOp8
 70
     1
102
RTVSPropertyOp9
 70
     1
102
RTVSPropertyOp10
 70
     1
102
RTVSPropertyOp11
 70
     1
102
RTVSPropertyOp12
 70
     1
102
RTVSPropertyOp13
 70
     1
102
RTVSPropertyOp14
 70
     1
102
RTVSPropertyOp15
 70
     1
102
RTVSPropertyOp16
 70
     1
102
RTVSPropertyOp17
 70
     1
102
RTVSPropertyOp18
 70
     1
102
RTVSPropertyOp19
 70
     1
102
RTVSPropertyOp20
 70
     1
102
RTVSPropertyOp21
 70
     1
102
RTVSPropertyOp22
 70
     1
102
RTVSPropertyOp23
 70
     1
102
RTVSPropertyOp24
 70
     1
102
RTVSPropertyOp25
 70
     1
102
RTVSPropertyOp26
 70
     1
102
RTVSPropertyOp27
 70
     1
102
RTVSPropertyOp28
 70
     1
102
RTVSPropertyOp29
 70
     1
102
RTVSPropertyOp30
 70
     1
102
RTVSPropertyOp31
 70
     1
102
RTVSPropertyOp32
 70
     1
102
RTVSPropertyOp33
 70
     1
102
RTVSPropertyOp34
 70
     1
102
RTVSPropertyOp35
 70
     1
102
RTVSPropertyOp36
 70
     1
102
RTVSPropertyOp37
 70
     1
102
RTVSPropertyOp38
 70
     1
102
RTVSPropertyOp39
 70
     1
102
RTVSPropertyOp40
 70
     1
102
RTVSPropertyOp41
 70
     1
102
RTVSPropertyOp42
 70
     1
102
RTVSPropertyOp43
 70
     1
102
RTVSPropertyOp44
 70
     1
102
RTVSPropertyOp45
 70
     1
102
RTVSPropertyOp46
 70
     1
102
RTVSPropertyOp47
 70
     1
102
RTVSPropertyOp48
 70
     1
102
RTVSPropertyOp49
 70
     1
102
RTVSPropertyOp50
 70
     1
102
RTVSPropertyOp51
 70
     0
102
RTVSPropertyOp52
 70
     0
102
RTVSPropertyOp53
 70
     1
102
RTVSPropertyOp54
 70
     1
102
RTVSPropertyOp55
 70
     1
102
RTVSPropertyOp56
 70
     1
102
RTVSPropertyOp57
 70
     1
102
RTVSPropertyOp58
 70
     1
102
RTVSPropertyOp59
 70
     1
102
RTVSPropertyOp60
 70
     1
102
RTVSPropertyOp61
 70
     1
102
RTVSPropertyOp62
 70
     1
  0
ENDSEC
  0
EOF
