  0
SECTION
  2
HEADER
  9
$ACADVER
  1
AC1015
  9
$ACADMAINTVER
 70
    20
  9
$DWGCODEPAGE
  3
ANSI_1252
  9
$INSBASE
 10
0.0
 20
0.0
 30
0.0
  9
$EXTMIN
 10
-72.14214916078162
 20
-49.51522713004976
 30
-0.0000000349181948
  9
$EXTMAX
 10
73.15173448360496
 20
54.28421096676515
 30
0.0000000814935747
  9
$LIMMIN
 10
-170.0
 20
-170.0
  9
$LIMMAX
 10
519.0
 20
260.0
  9
$ORTHOMODE
 70
     0
  9
$REGENMODE
 70
     1
  9
$FILLMODE
 70
     1
  9
$QTEXTMODE
 70
     0
  9
$MIRRTEXT
 70
     0
  9
$LTSCALE
 40
1.0
  9
$ATTMODE
 70
     1
  9
$TEXTSIZE
 40
3.5
  9
$TRACEWID
 40
1.0
  9
$TEXTSTYLE
  7
MM_STANDARD
  9
$CLAYER
  8
0
  9
$CELTYPE
  6
ByLayer
  9
$CECOLOR
 62
   256
  9
$CELTSCALE
 40
1.0
  9
$DISPSILH
 70
     0
  9
$DIMSCALE
 40
1.0
  9
$DIMASZ
 40
2.5
  9
$DIMEXO
 40
0.0
  9
$DIMDLI
 40
3.75
  9
$DIMRND
 40
0.0
  9
$DIMDLE
 40
0.0
  9
$DIMEXE
 40
1.25
  9
$DIMTP
 40
0.0
  9
$DIMTM
 40
0.0
  9
$DIMTXT
 40
3.5
  9
$DIMCEN
 40
0.0
  9
$DIMTSZ
 40
0.0
  9
$DIMTOL
 70
     0
  9
$DIMLIM
 70
     0
  9
$DIMTIH
 70
     0
  9
$DIMTOH
 70
     0
  9
$DIMSE1
 70
     0
  9
$DIMSE2
 70
     0
  9
$DIMTAD
 70
     1
  9
$DIMZIN
 70
     9
  9
$DIMBLK
  1

  9
$DIMASO
 70
     1
  9
$DIMSHO
 70
     1
  9
$DIMPOST
  1

  9
$DIMAPOST
  1

  9
$DIMALT
 70
     0
  9
$DIMALTD
 70
     3
  9
$DIMALTF
 40
0.039370078
  9
$DIMLFAC
 40
1.0
  9
$DIMTOFL
 70
     0
  9
$DIMTVP
 40
0.0
  9
$DIMTIX
 70
     0
  9
$DIMSOXD
 70
     0
  9
$DIMSAH
 70
     0
  9
$DIMBLK1
  1

  9
$DIMBLK2
  1

  9
$DIMSTYLE
  2
MM_STANDARD
  9
$DIMCLRD
 70
   256
  9
$DIMCLRE
 70
   256
  9
$DIMCLRT
 70
   256
  9
$DIMTFAC
 40
1.0
  9
$DIMGAP
 40
0.625
  9
$DIMJUST
 70
     0
  9
$DIMSD1
 70
     0
  9
$DIMSD2
 70
     0
  9
$DIMTOLJ
 70
     1
  9
$DIMTZIN
 70
     8
  9
$DIMALTZ
 70
     0
  9
$DIMALTTZ
 70
     0
  9
$DIMUPT
 70
     0
  9
$DIMDEC
 70
     2
  9
$DIMTDEC
 70
     2
  9
$DIMALTU
 70
     2
  9
$DIMALTTD
 70
     3
  9
$DIMTXSTY
  7
MM_STANDARD
  9
$DIMAUNIT
 70
     0
  9
$DIMADEC
 70
     2
  9
$DIMALTRND
 40
0.0
  9
$DIMAZIN
 70
     2
  9
$DIMDSEP
 70
    46
  9
$DIMATFIT
 70
     3
  9
$DIMFRAC
 70
     0
  9
$DIMLDRBLK
  1

  9
$DIMLUNIT
 70
     2
  9
$DIMLWD
 70
    -1
  9
$DIMLWE
 70
    -1
  9
$DIMTMOVE
 70
     0
  9
$LUNITS
 70
     2
  9
$LUPREC
 70
     4
  9
$SKETCHINC
 40
1.0
  9
$FILLETRAD
 40
0.8
  9
$AUNITS
 70
     0
  9
$AUPREC
 70
     0
  9
$MENU
  1
.
  9
$ELEVATION
 40
0.0
  9
$PELEVATION
 40
0.0
  9
$THICKNESS
 40
0.0
  9
$LIMCHECK
 70
     0
  9
$CHAMFERA
 40
0.0
  9
$CHAMFERB
 40
0.0
  9
$CHAMFERC
 40
0.0
  9
$CHAMFERD
 40
0.0
  9
$SKPOLY
 70
     0
  9
$TDCREATE
 40
2453353.800459155
  9
$TDUCREATE
 40
2453353.717125822
  9
$TDUPDATE
 40
2460185.651772824
  9
$TDUUPDATE
 40
2460185.568439491
  9
$TDINDWG
 40
32768.6997495718
  9
$TDUSRTIMER
 40
32768.6996783796
  9
$USRTIMER
 70
     1
  9
$ANGBASE
 50
0.0
  9
$ANGDIR
 70
     0
  9
$PDMODE
 70
     1
  9
$PDSIZE
 40
0.0
  9
$PLINEWID
 40
0.0
  9
$SPLFRAME
 70
     0
  9
$SPLINETYPE
 70
     6
  9
$SPLINESEGS
 70
     8
  9
$HANDSEED
  5
29A9F
  9
$SURFTAB1
 70
     6
  9
$SURFTAB2
 70
     6
  9
$SURFTYPE
 70
     6
  9
$SURFU
 70
     6
  9
$SURFV
 70
     6
  9
$UCSBASE
  2

  9
$UCSNAME
  2

  9
$UCSORG
 10
0.0
 20
0.0
 30
0.0
  9
$UCSXDIR
 10
1.0
 20
0.0
 30
0.0
  9
$UCSYDIR
 10
0.0
 20
1.0
 30
0.0
  9
$UCSORTHOREF
  2

  9
$UCSORTHOVIEW
 70
     0
  9
$UCSORGTOP
 10
0.0
 20
0.0
 30
0.0
  9
$UCSORGBOTTOM
 10
0.0
 20
0.0
 30
0.0
  9
$UCSORGLEFT
 10
0.0
 20
0.0
 30
0.0
  9
$UCSORGRIGHT
 10
0.0
 20
0.0
 30
0.0
  9
$UCSORGFRONT
 10
0.0
 20
0.0
 30
0.0
  9
$UCSORGBACK
 10
0.0
 20
0.0
 30
0.0
  9
$PUCSBASE
  2

  9
$PUCSNAME
  2

  9
$PUCSORG
 10
0.0
 20
0.0
 30
0.0
  9
$PUCSXDIR
 10
1.0
 20
0.0
 30
0.0
  9
$PUCSYDIR
 10
0.0
 20
1.0
 30
0.0
  9
$PUCSORTHOREF
  2

  9
$PUCSORTHOVIEW
 70
     0
  9
$PUCSORGTOP
 10
0.0
 20
0.0
 30
0.0
  9
$PUCSORGBOTTOM
 10
0.0
 20
0.0
 30
0.0
  9
$PUCSORGLEFT
 10
0.0
 20
0.0
 30
0.0
  9
$PUCSORGRIGHT
 10
0.0
 20
0.0
 30
0.0
  9
$PUCSORGFRONT
 10
0.0
 20
0.0
 30
0.0
  9
$PUCSORGBACK
 10
0.0
 20
0.0
 30
0.0
  9
$USERI1
 70
     0
  9
$USERI2
 70
     0
  9
$USERI3
 70
     0
  9
$USERI4
 70
     0
  9
$USERI5
 70
     0
  9
$USERR1
 40
0.0
  9
$USERR2
 40
0.0
  9
$USERR3
 40
0.0
  9
$USERR4
 40
0.0
  9
$USERR5
 40
0.0
  9
$WORLDVIEW
 70
     1
  9
$SHADEDGE
 70
     3
  9
$SHADEDIF
 70
    70
  9
$TILEMODE
 70
     1
  9
$MAXACTVP
 70
    64
  9
$PINSBASE
 10
0.0
 20
0.0
 30
0.0
  9
$PLIMCHECK
 70
     0
  9
$PEXTMIN
 10
0.0
 20
0.0
 30
0.0
  9
$PEXTMAX
 10
0.0
 20
0.0
 30
0.0
  9
$PLIMMIN
 10
0.0
 20
0.0
  9
$PLIMMAX
 10
12.0
 20
9.0
  9
$UNITMODE
 70
     0
  9
$VISRETAIN
 70
     0
  9
$PLINEGEN
 70
     0
  9
$PSLTSCALE
 70
     1
  9
$TREEDEPTH
 70
  3020
  9
$CMLSTYLE
  2
Standard
  9
$CMLJUST
 70
     0
  9
$CMLSCALE
 40
20.0
  9
$PROXYGRAPHICS
 70
     0
  9
$MEASUREMENT
 70
     1
  9
$CELWEIGHT
370
    -1
  9
$ENDCAPS
280
     0
  9
$JOINSTYLE
280
     0
  9
$LWDISPLAY
290
     0
  9
$INSUNITS
 70
     4
  9
$HYPERLINKBASE
  1

  9
$STYLESHEET
  1

  9
$XEDIT
290
     1
  9
$CEPSNTYPE
380
     0
  9
$PSTYLEMODE
290
     1
  9
$FINGERPRINTGUID
  2
{049C219F-BC74-4B97-8A86-7E4B06A8BFF9}
  9
$VERSIONGUID
  2
{3354ABC3-1EE1-4EE2-AE5A-F8803856480E}
  9
$EXTNAMES
290
     1
  9
$PSVPSCALE
 40
0.0
  9
$OLESTARTUP
290
     0
  0
ENDSEC
  0
SECTION
  2
CLASSES
  0
CLASS
  1
ACDBDICTIONARYWDFLT
  2
AcDbDictionaryWithDefault
  3
ObjectDBX Classes
 90
        0
280
     0
281
     0
  0
CLASS
  1
ACDBPLACEHOLDER
  2
AcDbPlaceHolder
  3
ObjectDBX Classes
 90
        0
280
     0
281
     0
  0
CLASS
  1
LAYOUT
  2
AcDbLayout
  3
ObjectDBX Classes
 90
        0
280
     0
281
     0
  0
CLASS
  1
DICTIONARYVAR
  2
AcDbDictionaryVar
  3
ObjectDBX Classes
 90
        0
280
     0
281
     0
  0
CLASS
  1
TABLESTYLE
  2
AcDbTableStyle
  3
ObjectDBX Classes
 90
     4095
280
     0
281
     0
  0
CLASS
  1
SCALE
  2
AcDbScale
  3
ObjectDBX Classes
 90
     1153
280
     0
281
     0
  0
CLASS
  1
RASTERVARIABLES
  2
AcDbRasterVariables
  3
ISM
 90
        0
280
     0
281
     0
  0
CLASS
  1
SORTENTSTABLE
  2
AcDbSortentsTable
  3
ObjectDBX Classes
 90
        0
280
     0
281
     0
  0
CLASS
  1
MATERIAL
  2
AcDbMaterial
  3
ObjectDBX Classes
 90
     1153
280
     0
281
     0
  0
CLASS
  1
VISUALSTYLE
  2
AcDbVisualStyle
  3
ObjectDBX Classes
 90
     4095
280
     0
281
     0
  0
CLASS
  1
MLEADERSTYLE
  2
AcDbMLeaderStyle
  3
ACDB_MLEADERSTYLE_CLASS
 90
     4095
280
     0
281
     0
  0
CLASS
  1
ACDBSECTIONVIEWSTYLE
  2
AcDbSectionViewStyle
  3
ObjectDBX Classes
 90
     1025
280
     0
281
     0
  0
CLASS
  1
ACDBDETAILVIEWSTYLE
  2
AcDbDetailViewStyle
  3
ObjectDBX Classes
 90
     1025
280
     0
281
     0
  0
CLASS
  1
CELLSTYLEMAP
  2
AcDbCellStyleMap
  3
ObjectDBX Classes
 90
     1152
280
     0
281
     0
  0
ENDSEC
  0
SECTION
  2
TABLES
  0
TABLE
  2
VPORT
  5
8
330
0
100
AcDbSymbolTable
 70
     1
  0
VPORT
  5
97
330
8
100
AcDbSymbolTableRecord
100
AcDbViewportTableRecord
  2
*Active
 70
     0
 10
0.0
 20
0.0
 11
1.0
 21
1.0
 12
0.5047926614116634
 22
2.384491918357696
 13
0.0
 23
0.0
 14
5.0
 24
5.0
 15
5.0
 25
5.0
 16
0.0
 26
0.0
 36
1.0
 17
0.0
 27
0.0
 37
0.0
 40
104.5112056723359
 41
1.597254004576659
 42
50.0
 43
0.0
 44
0.0
 50
0.0
 51
0.0
 71
    16
 72
  2000
 73
     1
 74
     3
 75
     0
 76
     0
 77
     0
 78
     0
281
     0
 65
     1
110
0.0
120
0.0
130
0.0
111
1.0
121
0.0
131
0.0
112
0.0
122
1.0
132
0.0
 79
     0
146
0.0
1001
ACAD_NAV_VCDISPLAY
1070
     3
  0
ENDTAB
  0
TABLE
  2
LTYPE
  5
5
330
0
100
AcDbSymbolTable
 70
     5
  0
LTYPE
  5
14
330
5
100
AcDbSymbolTableRecord
100
AcDbLinetypeTableRecord
  2
ByBlock
 70
     0
  3

 72
    65
 73
     0
 40
0.0
  0
LTYPE
  5
15
330
5
100
AcDbSymbolTableRecord
100
AcDbLinetypeTableRecord
  2
ByLayer
 70
     0
  3

 72
    65
 73
     0
 40
0.0
  0
LTYPE
  5
16
330
5
100
AcDbSymbolTableRecord
100
AcDbLinetypeTableRecord
  2
Continuous
 70
     0
  3
Solid line
 72
    65
 73
     0
 40
0.0
  0
LTYPE
  5
2994C
330
5
100
AcDbSymbolTableRecord
100
AcDbLinetypeTableRecord
  2
CENTER2
 70
     0
  3
Center (.5x) ___ _ ___ _ ___ _ ___ _ ___ _ ___
 72
    65
 73
     4
 40
28.57499999999999
 49
19.05
 74
     4
 75
     0
340
0
 46
1.0
 50
0.0
 44
0.0
 45
0.0
 49
-3.174999999999998
 74
     4
 75
     0
340
0
 46
1.0
 50
0.0
 44
0.0
 45
0.0
 49
3.174999999999998
 74
     4
 75
     0
340
0
 46
1.0
 50
0.0
 44
0.0
 45
0.0
 49
-3.174999999999998
 74
     4
 75
     0
340
0
 46
1.0
 50
0.0
 44
0.0
 45
0.0
  0
LTYPE
  5
2994D
330
5
100
AcDbSymbolTableRecord
100
AcDbLinetypeTableRecord
  2
HIDDEN
 70
     0
  3
Hidden __ __ __ __ __ __ __ __ __ __ __ __ __ _
 72
    65
 73
     2
 40
9.524999999999996
 49
6.349999999999997
 74
     4
 75
     0
340
0
 46
1.0
 50
0.0
 44
0.0
 45
0.0
 49
-3.174999999999998
 74
     4
 75
     0
340
0
 46
1.0
 50
0.0
 44
0.0
 45
0.0
  0
ENDTAB
  0
TABLE
  2
LAYER
  5
2
102
{ACAD_XDICTIONARY
360
2995A
102
}
330
0
100
AcDbSymbolTable
 70
    14
  0
LAYER
  5
10
102
{ACAD_XDICTIONARY
360
29950
102
}
330
2
100
AcDbSymbolTableRecord
100
AcDbLayerTableRecord
  2
0
 70
     0
 62
     7
  6
Continuous
370
    -3
390
F
  0
LAYER
  5
23
102
{ACAD_XDICTIONARY
360
29951
102
}
330
2
100
AcDbSymbolTableRecord
100
AcDbLayerTableRecord
  2
1
 70
     0
 62
     4
  6
Continuous
370
    50
390
F
  0
LAYER
  5
25
102
{ACAD_XDICTIONARY
360
29952
102
}
330
2
100
AcDbSymbolTableRecord
100
AcDbLayerTableRecord
  2
2
 70
     0
 62
     7
  6
Continuous
370
    25
390
F
  0
LAYER
  5
173A
102
{ACAD_XDICTIONARY
360
29953
102
}
330
2
100
AcDbSymbolTableRecord
100
AcDbLayerTableRecord
  2
SK2
 70
     0
 62
     7
  6
Continuous
370
    25
390
F
  0
LAYER
  5
2A
102
{ACAD_XDICTIONARY
360
29954
102
}
330
2
100
AcDbSymbolTableRecord
100
AcDbLayerTableRecord
  2
4
 70
     0
 62
     2
  6
CENTER2
370
    25
390
F
  0
LAYER
  5
2E
102
{ACAD_XDICTIONARY
360
29955
102
}
330
2
100
AcDbSymbolTableRecord
100
AcDbLayerTableRecord
  2
SK6
 70
     0
 62
     5
  6
Continuous
370
    -3
390
F
  0
LAYER
  5
2F
330
2
100
AcDbSymbolTableRecord
100
AcDbLayerTableRecord
  2
DEFPOINTS
 70
     0
 62
     7
  6
Continuous
290
     0
370
    25
390
F
  0
LAYER
  5
375
102
{ACAD_XDICTIONARY
360
29956
102
}
330
2
100
AcDbSymbolTableRecord
100
AcDbLayerTableRecord
  2
CUT
 70
     0
 62
     1
  6
Continuous
370
    25
390
F
  0
LAYER
  5
376
102
{ACAD_XDICTIONARY
360
29957
102
}
330
2
100
AcDbSymbolTableRecord
100
AcDbLayerTableRecord
  2
NOCUT
 70
     0
 62
     7
  6
Continuous
370
    -3
390
F
  0
LAYER
  5
49B
102
{ACAD_XDICTIONARY
360
29958
102
}
330
2
100
AcDbSymbolTableRecord
100
AcDbLayerTableRecord
  2
INFTOTAL
 70
     0
 62
     9
  6
Continuous
370
    18
390
F
1001
AcAecLayerStandard
1000

1000

  0
LAYER
  5
1D28
330
2
100
AcDbSymbolTableRecord
100
AcDbLayerTableRecord
  2
SK4
 70
     0
 62
     2
  6
CENTER2
370
    25
390
F
  0
LAYER
  5
8BCD
330
2
100
AcDbSymbolTableRecord
100
AcDbLayerTableRecord
  2
SK1
 70
     0
 62
     4
  6
Continuous
370
    50
390
F
  0
LAYER
  5
14429
330
2
100
AcDbSymbolTableRecord
100
AcDbLayerTableRecord
  2
SK3
 70
     0
 62
     1
  6
HIDDEN
370
    35
390
F
  0
ENDTAB
  0
TABLE
  2
STYLE
  5
3
330
0
100
AcDbSymbolTable
 70
     2
  0
STYLE
  5
11
330
3
100
AcDbSymbolTableRecord
100
AcDbTextStyleTableRecord
  2
Standard
 70
     0
 40
0.0
 41
1.0
 50
0.0
 71
     0
 42
5.0
  3
monos.ttf
  4

1001
ACAD
1000
Monospac821 BT
1071
       49
  0
STYLE
  5
8B9
330
3
100
AcDbSymbolTableRecord
100
AcDbTextStyleTableRecord
  2
MM_STANDARD
 70
     0
 40
3.5
 41
1.0
 50
0.0
 71
     0
 42
3.5
  3
monos.ttf
  4

1001
ACAD
1000
Monospac821 BT
1071
       49
  0
ENDTAB
  0
TABLE
  2
VIEW
  5
6
330
0
100
AcDbSymbolTable
 70
     0
  0
ENDTAB
  0
TABLE
  2
UCS
  5
7
330
0
100
AcDbSymbolTable
 70
     0
  0
ENDTAB
  0
TABLE
  2
APPID
  5
9
330
0
100
AcDbSymbolTable
 70
    25
  0
APPID
  5
12
330
9
100
AcDbSymbolTableRecord
100
AcDbRegAppTableRecord
  2
ACAD
 70
     0
  0
APPID
  5
29934
330
9
100
AcDbSymbolTableRecord
100
AcDbRegAppTableRecord
  2
ACAD_PSEXT
 70
     0
  0
APPID
  5
29935
330
9
100
AcDbSymbolTableRecord
100
AcDbRegAppTableRecord
  2
ACAD_EXEMPT_FROM_CAD_STANDARDS
 70
     0
  0
APPID
  5
29936
330
9
100
AcDbSymbolTableRecord
100
AcDbRegAppTableRecord
  2
ACAD_MLEADERVER
 70
     0
  0
APPID
  5
29937
330
9
100
AcDbSymbolTableRecord
100
AcDbRegAppTableRecord
  2
ACAD_DSTYLE_DIMJAG
 70
     0
  0
APPID
  5
29938
330
9
100
AcDbSymbolTableRecord
100
AcDbRegAppTableRecord
  2
ACAD_DSTYLE_DIMBREAK
 70
     0
  0
APPID
  5
29939
330
9
100
AcDbSymbolTableRecord
100
AcDbRegAppTableRecord
  2
ACAD_DSTYLE_DIMTALN
 70
     0
  0
APPID
  5
2993A
330
9
100
AcDbSymbolTableRecord
100
AcDbRegAppTableRecord
  2
AcAecLayerStandard
 70
     0
  0
APPID
  5
2993B
330
9
100
AcDbSymbolTableRecord
100
AcDbRegAppTableRecord
  2
DCO15
 70
     0
  0
APPID
  5
2993C
330
9
100
AcDbSymbolTableRecord
100
AcDbRegAppTableRecord
  2
AcadAnnoPO
 70
     0
  0
APPID
  5
2993D
330
9
100
AcDbSymbolTableRecord
100
AcDbRegAppTableRecord
  2
ACAD_DSTYLE_DIMRADIAL_EXTENSION
 70
     0
  0
APPID
  5
2993E
330
9
100
AcDbSymbolTableRecord
100
AcDbRegAppTableRecord
  2
AcadAnnotative
 70
     0
  0
APPID
  5
2993F
330
9
100
AcDbSymbolTableRecord
100
AcDbRegAppTableRecord
  2
AcDbDynamicBlockGUID
 70
     0
  0
APPID
  5
29940
330
9
100
AcDbSymbolTableRecord
100
AcDbRegAppTableRecord
  2
AcDbBlockRepETag
 70
     0
  0
APPID
  5
29941
330
9
100
AcDbSymbolTableRecord
100
AcDbRegAppTableRecord
  2
MCAD_NO_VIS
 70
     0
  0
APPID
  5
29942
330
9
100
AcDbSymbolTableRecord
100
AcDbRegAppTableRecord
  2
ACAD_TEMP_GRAPHIC
 70
     0
  0
APPID
  5
29943
330
9
100
AcDbSymbolTableRecord
100
AcDbRegAppTableRecord
  2
ACATTRIBSERVICES
 70
     0
  0
APPID
  5
29944
330
9
100
AcDbSymbolTableRecord
100
AcDbRegAppTableRecord
  2
DESIGNERASSEMBLIES
 70
     0
  0
APPID
  5
29945
330
9
100
AcDbSymbolTableRecord
100
AcDbRegAppTableRecord
  2
ACAD_NAV_VCDISPLAY
 70
     0
  0
APPID
  5
29946
330
9
100
AcDbSymbolTableRecord
100
AcDbRegAppTableRecord
  2
ACAD_DSTYLE_DIM_LINETYPE
 70
     0
  0
APPID
  5
29947
330
9
100
AcDbSymbolTableRecord
100
AcDbRegAppTableRecord
  2
ACAD_DSTYLE_DIM_EXT1_LINETYPE
 70
     0
  0
APPID
  5
29948
330
9
100
AcDbSymbolTableRecord
100
AcDbRegAppTableRecord
  2
ACAD_DSTYLE_DIM_EXT2_LINETYPE
 70
     0
  0
APPID
  5
29949
330
9
100
AcDbSymbolTableRecord
100
AcDbRegAppTableRecord
  2
ACAD_DSTYLE_DIMARC_LENGTH_SYMBOL
 70
     0
  0
APPID
  5
2994A
330
9
100
AcDbSymbolTableRecord
100
AcDbRegAppTableRecord
  2
AcDbAttr
 70
     0
  0
APPID
  5
2994B
330
9
100
AcDbSymbolTableRecord
100
AcDbRegAppTableRecord
  2
AcadAnnoMonitorAlertIconDisabled
 70
     0
  0
ENDTAB
  0
TABLE
  2
DIMSTYLE
  5
A
330
0
100
AcDbSymbolTable
 70
     2
100
AcDbDimStyleTable
 71
     0
  0
DIMSTYLE
105
27
330
A
100
AcDbSymbolTableRecord
100
AcDbDimStyleTableRecord
  2
Standard
 70
     0
 77
     1
276
     1
278
     0
340
11
  0
DIMSTYLE
105
3F
102
{ACAD_REACTORS
330
28EA9
330
28ED1
330
28EDF
330
28EEE
330
29011
330
2914E
330
29887
102
}
330
A
100
AcDbSymbolTableRecord
100
AcDbDimStyleTableRecord
  2
MM_STANDARD
 70
     0
 41
2.5
 42
0.0
 43
3.75
 44
1.25
 73
     0
 74
     0
 77
     1
 78
     1
140
3.5
141
0.0
143
0.039370078
147
0.625
171
     3
176
   256
177
   256
178
   256
179
     2
271
     2
272
     2
274
     3
284
     8
340
8B9
371
    -1
372
    -1
1001
ACAD_DSTYLE_DIMJAG
1070
   388
1040
1.5
1001
ACAD_DSTYLE_DIMTALN
1070
   392
1070
     0
  0
ENDTAB
  0
TABLE
  2
BLOCK_RECORD
  5
1
330
0
100
AcDbSymbolTable
 70
    41
  0
BLOCK_RECORD
  5
1F
102
{ACAD_XDICTIONARY
360
299AE
102
}
330
1
100
AcDbSymbolTableRecord
100
AcDbBlockTableRecord
  2
*Model_Space
340
22
  0
BLOCK_RECORD
  5
73
330
1
100
AcDbSymbolTableRecord
100
AcDbBlockTableRecord
  2
*Paper_Space
340
74
  0
BLOCK_RECORD
  5
962
330
1
100
AcDbSymbolTableRecord
100
AcDbBlockTableRecord
  2
CERO_POINT
340
0
102
{BLKREFS
331
27822
102
}
1001
ACAD
1000
DesignCenter Data
1002
{
1070
     1
1070
     4
1002
}
  0
BLOCK_RECORD
  5
2897E
330
1
100
AcDbSymbolTableRecord
100
AcDbBlockTableRecord
  2
_NONE
340
0
  0
BLOCK_RECORD
  5
28EB5
330
1
100
AcDbSymbolTableRecord
100
AcDbBlockTableRecord
  2
*D29
340
0
  0
BLOCK_RECORD
  5
28EDE
330
1
100
AcDbSymbolTableRecord
100
AcDbBlockTableRecord
  2
*D32
340
0
  0
BLOCK_RECORD
  5
28EED
330
1
100
AcDbSymbolTableRecord
100
AcDbBlockTableRecord
  2
*D33
340
0
  0
BLOCK_RECORD
  5
28EFA
330
1
100
AcDbSymbolTableRecord
100
AcDbBlockTableRecord
  2
*D34
340
0
  0
BLOCK_RECORD
  5
2901C
330
1
100
AcDbSymbolTableRecord
100
AcDbBlockTableRecord
  2
*D38
340
0
  0
BLOCK_RECORD
  5
29159
330
1
100
AcDbSymbolTableRecord
100
AcDbBlockTableRecord
  2
*D39
340
0
  0
BLOCK_RECORD
  5
29892
330
1
100
AcDbSymbolTableRecord
100
AcDbBlockTableRecord
  2
*D40
340
0
  0
ENDTAB
  0
ENDSEC
  0
SECTION
  2
BLOCKS
  0
BLOCK
  5
20
330
1F
100
AcDbEntity
  8
0
100
AcDbBlockBegin
  2
*Model_Space
 70
     0
 10
0.0
 20
0.0
 30
0.0
  3
*Model_Space
  1

  0
ENDBLK
  5
21
330
1F
100
AcDbEntity
  8
0
100
AcDbBlockEnd
  0
BLOCK
  5
75
330
73
100
AcDbEntity
 67
     1
  8
0
100
AcDbBlockBegin
  2
*Paper_Space
 70
     0
 10
0.0
 20
0.0
 30
0.0
  3
*Paper_Space
  1

  0
ENDBLK
  5
76
330
73
100
AcDbEntity
 67
     1
  8
0
100
AcDbBlockEnd
  0
BLOCK
  5
2995B
330
962
100
AcDbEntity
  8
0
100
AcDbBlockBegin
  2
CERO_POINT
 70
     0
 10
0.0
 20
0.0
 30
0.0
  3
CERO_POINT
  1

  0
CIRCLE
  5
964
102
{ACAD_REACTORS
330
969
102
}
330
962
100
AcDbEntity
  8
SK2
100
AcDbCircle
 10
0.0
 20
0.0
 30
0.0
 40
2.5
  0
LINE
  5
965
330
962
100
AcDbEntity
  8
SK2
100
AcDbLine
 10
0.0900000000037835
 20
0.0
 30
0.0
 11
-0.0899999999965076
 21
0.0
 31
0.0
  0
LINE
  5
966
330
962
100
AcDbEntity
  8
SK2
100
AcDbLine
 10
0.0
 20
0.0899999999999182
 30
0.0
 11
0.0
 21
-0.0899999999999182
 31
0.0
  0
LINE
  5
967
102
{ACAD_REACTORS
330
969
102
}
330
962
100
AcDbEntity
  8
SK2
100
AcDbLine
 10
0.0
 20
-2.5
 30
0.0
 11
0.0
 21
2.5
 31
0.0
  0
LINE
  5
968
102
{ACAD_REACTORS
330
969
102
}
330
962
100
AcDbEntity
  8
SK2
100
AcDbLine
 10
2.5
 20
0.0
 30
0.0
 11
-2.5
 21
0.0
 31
0.0
  0
HATCH
  5
969
330
962
100
AcDbEntity
  8
SK2
100
AcDbHatch
 10
0.0
 20
0.0
 30
0.0
210
0.0
220
0.0
230
1.0
  2
ANSI31
 70
     0
 71
     1
 91
        2
 92
        7
 72
     1
 73
     1
 93
        3
 10
0.0
 20
-2.5
 42
0.4142135623730951
 10
2.5
 20
0.0
 42
0.0
 10
0.0
 20
0.0
 42
0.0
 97
        3
330
964
330
968
330
967
 92
        7
 72
     1
 73
     1
 93
        3
 10
0.0
 20
0.0
 42
0.0
 10
0.0
 20
2.5
 42
0.4142135623730951
 10
-2.5
 20
0.0
 42
0.0
 97
        3
330
968
330
967
330
964
 75
     0
 76
     1
 52
180.0
 41
0.1
 77
     0
 78
     1
 53
225.0
 43
5.170976743218488
 44
0.0
 45
0.2245064030267288
 46
-0.2245064030267289
 79
     0
 47
0.0243816376539857
 98
        2
 10
0.8789156907296272
 20
-1.044463114528752
 10
-0.8545028512526187
 20
0.7841600866017872
1001
ACAD
1010
0.0
1020
0.0
1030
0.0
  0
ENDBLK
  5
2995C
330
962
100
AcDbEntity
  8
0
100
AcDbBlockEnd
  0
BLOCK
  5
29993
330
2897E
100
AcDbEntity
  8
0
100
AcDbBlockBegin
  2
_NONE
 70
     0
 10
0.0
 20
0.0
 30
0.0
  3
_NONE
  1

  0
ENDBLK
  5
29994
330
2897E
100
AcDbEntity
  8
0
100
AcDbBlockEnd
  0
BLOCK
  5
29995
330
28EB5
100
AcDbEntity
  8
0
100
AcDbBlockBegin
  2
*D29
 70
     1
 10
0.0
 20
0.0
 30
0.0
  3
*D29
  1

  0
POINT
  5
29497
330
28EB5
100
AcDbEntity
  8
DEFPOINTS
  6
ByBlock
100
AcDbPoint
 10
-19.99999999999999
 20
-5.000000000000012
 30
0.0
  0
POINT
  5
29498
330
28EB5
100
AcDbEntity
  8
DEFPOINTS
  6
ByBlock
100
AcDbPoint
 10
-19.99999999999999
 20
5.0
 30
0.0
  0
LINE
  5
29499
330
28EB5
100
AcDbEntity
  8
SK2
  6
ByBlock
100
AcDbLine
 10
-19.99999999999999
 20
-5.000000000000012
 30
0.0
 11
-29.19760599999999
 21
-5.000000000000012
 31
0.0
  0
LINE
  5
2949A
330
28EB5
100
AcDbEntity
  8
SK2
  6
ByBlock
100
AcDbLine
 10
-19.99999999999999
 20
5.0
 30
0.0
 11
-29.19760599999999
 21
5.0
 31
0.0
  0
LINE
  5
2949B
330
28EB5
100
AcDbEntity
  8
SK2
  6
ByBlock
100
AcDbLine
 10
-27.94760599999999
 20
-5.000000000000012
 30
0.0
 11
-27.94760599999999
 21
5.0
 31
0.0
  0
SOLID
  5
2949C
330
28EB5
100
AcDbEntity
  8
SK2
  6
ByBlock
100
AcDbTrace
 10
-27.94760599999999
 20
-5.000000000000012
 30
0.0
 11
-27.53093933333324
 21
-2.500000000000014
 31
0.0
 12
-28.36427266666674
 22
-2.500000000000014
 32
0.0
 13
-28.36427266666674
 23
-2.500000000000014
 33
0.0
  0
SOLID
  5
2949D
330
28EB5
100
AcDbEntity
  8
SK2
  6
ByBlock
100
AcDbTrace
 10
-27.94760599999999
 20
5.0
 30
0.0
 11
-27.53093933333324
 21
2.5
 31
0.0
 12
-28.36427266666674
 22
2.5
 32
0.0
 13
-28.36427266666674
 23
2.5
 33
0.0
  0
LINE
  5
2949E
330
28EB5
100
AcDbEntity
  8
SK2
  6
ByBlock
100
AcDbLine
 10
-19.99999999999999
 20
-5.000000000000012
 30
0.0
 11
-19.99999999999999
 21
-5.000000000000012
 31
0.0
  0
MTEXT
  5
2949F
330
28EB5
100
AcDbEntity
  8
SK2
  6
ByBlock
100
AcDbMText
 10
-30.39516397610681
 20
0.0620380000000011
 30
0.0
 40
3.5
 41
0.0
 71
     5
 72
     1
  1
M\A1;10
  7
MM_STANDARD
 11
0.0000000000000001
 21
1.0
 31
0.0
 73
     1
 44
1.0
1001
ACAD
1000
MTEXTBEGIN
1070
    73
1070
     1
1070
    44
1040
1.0
1070
    74
1070
     0
1000
MTEXTEND
  0
ENDBLK
  5
29996
330
28EB5
100
AcDbEntity
  8
0
100
AcDbBlockEnd
  0
BLOCK
  5
2999B
330
28EDE
100
AcDbEntity
  8
0
100
AcDbBlockBegin
  2
*D32
 70
     1
 10
0.0
 20
0.0
 30
0.0
  3
*D32
  1

  0
POINT
  5
294BC
330
28EDE
100
AcDbEntity
  8
DEFPOINTS
  6
ByBlock
100
AcDbPoint
 10
18.75
 20
9.765338000000012
 30
0.0
  0
POINT
  5
294BD
330
28EDE
100
AcDbEntity
  8
DEFPOINTS
  6
ByBlock
100
AcDbPoint
 10
22.94979000000001
 20
5.425596000000012
 30
0.0
  0
LINE
  5
294BE
330
28EDE
100
AcDbEntity
  8
2
  6
ByBlock
100
AcDbLine
 10
18.75
 20
9.765338000000012
 30
0.0
 11
18.75053345140545
 21
25.78447536687892
 31
0.0
  0
LINE
  5
294BF
330
28EDE
100
AcDbEntity
  8
2
  6
ByBlock
100
AcDbLine
 10
22.94979000000001
 20
5.425596000000012
 30
0.0
 11
22.95046796398481
 21
25.78433550535471
 31
0.0
  0
LINE
  5
294C0
330
28EDE
100
AcDbEntity
  8
2
  6
ByBlock
100
AcDbLine
 10
25.45042633649597
 20
24.53425225384251
 30
0.0
 11
27.95042633510979
 21
24.5341690016372
 31
0.0
  0
SOLID
  5
294C1
330
28EDE
100
AcDbEntity
  8
2
  6
ByBlock
100
AcDbTrace
 10
18.7504918253028
 20
24.53447536757201
 30
0.0
 11
16.25047795132143
 21
24.11789195334161
 31
0.0
 12
16.25050570205654
 22
24.95122528621303
 32
0.0
 13
16.25050570205654
 23
24.95122528621303
 33
0.0
  0
LINE
  5
294C2
330
28EDE
100
AcDbEntity
  8
2
  6
ByBlock
100
AcDbLine
 10
16.25049182668899
 20
24.53455861977732
 30
0.0
 11
5.470386512261074
 21
24.53491760679386
 31
0.0
  0
SOLID
  5
294C3
330
28EDE
100
AcDbEntity
  8
2
  6
ByBlock
100
AcDbTrace
 10
22.95042633788216
 20
24.53433550604781
 30
0.0
 11
25.45041246112842
 21
24.11758558740678
 31
0.0
 12
25.45044021186352
 22
24.95091892027822
 32
0.0
 13
25.45044021186352
 23
24.95091892027822
 33
0.0
  0
LINE
  5
294C4
330
28EDE
100
AcDbEntity
  8
2
  6
ByBlock
100
AcDbLine
 10
18.7504918253028
 20
24.53447536757201
 30
0.0
 11
22.95042633788216
 21
24.53433550604781
 31
0.0
  0
MTEXT
  5
294C5
330
28EDE
100
AcDbEntity
  8
2
  6
ByBlock
100
AcDbMText
 10
10.47354082675441
 20
26.93188733036445
 30
0.0
 40
3.5
 41
0.0
 71
     5
 72
     1
  1
\A1;4.2
  7
MM_STANDARD
 11
0.9999999994455258
 21
-0.0000333008821224
 31
0.0
 73
     1
 44
1.0
1001
ACAD
1000
MTEXTBEGIN
1070
    73
1070
     1
1070
    44
1040
1.0
1070
    74
1070
     0
1000
MTEXTEND
  0
ENDBLK
  5
2999C
330
28EDE
100
AcDbEntity
  8
0
100
AcDbBlockEnd
  0
BLOCK
  5
2999D
330
28EED
100
AcDbEntity
  8
0
100
AcDbBlockBegin
  2
*D33
 70
     1
 10
0.0
 20
0.0
 30
0.0
  3
*D33
  1

  0
MTEXT
  5
295A8
330
28EED
100
AcDbEntity
  8
2
  6
ByBlock
100
AcDbMText
 10
37.47290569110216
 20
18.12007695734767
 30
0.0
 40
3.5
 41
0.0
 71
     5
 72
     1
  1
\A1;39%%d~51%%d
  7
MM_STANDARD
 11
0.9944544591456091
 21
-0.1051680972796132
 31
0.0
 73
     1
 44
1.0
1001
ACAD
1000
MTEXTBEGIN
1070
    73
1070
     1
1070
    44
1040
1.0
1070
    74
1070
     0
1000
MTEXTEND
  0
POINT
  5
295A9
330
28EED
100
AcDbEntity
  8
DEFPOINTS
  6
ByBlock
100
AcDbPoint
 10
22.11311000000001
 20
6.571299000000008
 30
0.0
  0
POINT
  5
295AA
330
28EED
100
AcDbEntity
  8
DEFPOINTS
  6
ByBlock
100
AcDbPoint
 10
22.949791
 20
5.538084999999995
 30
0.0
  0
POINT
  5
295AB
330
28EED
100
AcDbEntity
  8
DEFPOINTS
  6
ByBlock
100
AcDbPoint
 10
22.949791
 20
5.174170000000004
 30
0.0
  0
POINT
  5
295AC
330
28EED
100
AcDbEntity
  8
DEFPOINTS
  6
ByBlock
100
AcDbPoint
 10
22.949791
 20
5.538084999999995
 30
0.0
  0
SOLID
  5
295AD
330
28EED
100
AcDbEntity
  8
2
  6
ByBlock
100
AcDbTrace
 10
22.949791
 20
17.42381871900601
 30
0.0
 11
20.50747489266916
 21
16.7465424511629
 31
0.0
 12
20.4198348116028
 22
17.57525450045107
 32
0.0
 13
20.4198348116028
 23
17.57525450045107
 33
0.0
  0
SOLID
  5
295AE
330
28EED
100
AcDbEntity
  8
2
  6
ByBlock
100
AcDbTrace
 10
15.46985208894051
 20
14.77503146113826
 30
0.0
 11
17.34069489871468
 21
16.48487305971617
 31
0.0
 12
17.79411148150898
 22
15.78568935932559
 32
0.0
 13
17.79411148150898
 23
15.78568935932559
 33
0.0
  0
LINE
  5
295AF
330
28EED
100
AcDbEntity
  8
2
  6
ByBlock
100
AcDbLine
 10
22.949791
 20
5.538084999999995
 30
0.0
 11
22.949791
 21
17.42381871900601
 31
0.0
  0
LINE
  5
295B0
330
28EED
100
AcDbEntity
  8
2
  6
ByBlock
100
AcDbLine
 10
22.11311000000001
 20
6.571299000000008
 30
0.0
 11
14.68320114589664
 21
15.74646354512983
 31
0.0
  0
ARC
  5
295B1
330
28EED
100
AcDbEntity
  8
2
  6
ByBlock
100
AcDbCircle
 10
22.949791
 20
5.538084999999995
 30
0.0
 40
11.88573371900602
100
AcDbArc
 50
102.0737028933939
 51
116.9263238975135
  0
ARC
  5
295B2
330
28EED
100
AcDbEntity
  8
2
  6
ByBlock
100
AcDbCircle
 10
22.949791
 20
5.538084999999995
 30
0.0
 40
11.88573371900602
100
AcDbArc
 50
72.89331192187153
 51
90.0
  0
LINE
  5
295B3
330
28EED
100
AcDbEntity
  8
2
  6
ByBlock
100
AcDbLine
 10
26.44600206097224
 20
16.89797823260795
 30
0.0
 11
48.00026085915442
 21
14.6185170011457
 31
0.0
  0
ENDBLK
  5
2999E
330
28EED
100
AcDbEntity
  8
0
100
AcDbBlockEnd
  0
BLOCK
  5
2999F
330
28EFA
100
AcDbEntity
  8
0
100
AcDbBlockBegin
  2
*D34
 70
     1
 10
0.0
 20
0.0
 30
0.0
  3
*D34
  1

  0
POINT
  5
294E7
330
28EFA
100
AcDbEntity
  8
DEFPOINTS
  6
ByBlock
100
AcDbPoint
 10
-19.99999999999999
 20
5.0
 30
0.0
  0
POINT
  5
294E8
330
28EFA
100
AcDbEntity
  8
DEFPOINTS
  6
ByBlock
100
AcDbPoint
 10
22.94979000000001
 20
5.425596000000012
 30
0.0
  0
LINE
  5
294E9
330
28EFA
100
AcDbEntity
  8
SK2
  6
ByBlock
100
AcDbLine
 10
-19.99999999999999
 20
5.0
 30
0.0
 11
-19.99882997866445
 21
40.13484509467774
 31
0.0
  0
LINE
  5
294EA
330
28EFA
100
AcDbEntity
  8
SK2
  6
ByBlock
100
AcDbLine
 10
22.94979000000001
 20
5.425596000000012
 30
0.0
 11
22.95094580098421
 21
40.13341482925652
 31
0.0
  0
LINE
  5
294EB
330
28EFA
100
AcDbEntity
  8
SK2
  6
ByBlock
100
AcDbLine
 10
-19.9988716047671
 20
38.88484509537083
 30
0.0
 11
22.95090417488156
 21
38.88341482994961
 31
0.0
  0
SOLID
  5
294EC
330
28EFA
100
AcDbEntity
  8
SK2
  6
ByBlock
100
AcDbTrace
 10
-19.9988716047671
 20
38.88484509537083
 30
0.0
 11
-17.49888548152084
 21
38.4680951767298
 31
0.0
 12
-17.49885773078574
 22
39.30142850960124
 32
0.0
 13
-17.49885773078574
 23
39.30142850960124
 33
0.0
  0
SOLID
  5
294ED
330
28EFA
100
AcDbEntity
  8
SK2
  6
ByBlock
100
AcDbTrace
 10
22.95090417488156
 20
38.88341482994961
 30
0.0
 11
20.45089030090019
 21
38.46683141571921
 31
0.0
 12
20.45091805163529
 22
39.30016474859064
 32
0.0
 13
20.45091805163529
 23
39.30016474859064
 33
0.0
  0
LINE
  5
294EE
330
28EFA
100
AcDbEntity
  8
SK2
  6
ByBlock
100
AcDbLine
 10
-19.99999999999999
 20
5.0
 30
0.0
 11
-19.99999999999999
 21
5.0
 31
0.0
  0
MTEXT
  5
294EF
330
28EFA
100
AcDbEntity
  8
SK2
  6
ByBlock
100
AcDbMText
 10
1.474976505839653
 20
41.33168797474971
 30
0.0
 40
3.5
 41
0.0
 71
     5
 72
     1
  1
\A1;43
  7
MM_STANDARD
 11
0.9999999994455258
 21
-0.0000333008821224
 31
0.0
 73
     1
 44
1.0
1001
ACAD
1000
MTEXTBEGIN
1070
    73
1070
     1
1070
    44
1040
1.0
1070
    74
1070
     0
1000
MTEXTEND
  0
ENDBLK
  5
299A0
330
28EFA
100
AcDbEntity
  8
0
100
AcDbBlockEnd
  0
BLOCK
  5
299A7
330
2901C
100
AcDbEntity
  8
0
100
AcDbBlockBegin
  2
*D38
 70
     1
 10
0.0
 20
0.0
 30
0.0
  3
*D38
  1

  0
LINE
  5
299F7
330
2901C
100
AcDbEntity
  8
SK2
  6
ByBlock
100
AcDbLine
 10
0.0
 20
9.000000000000001
 30
0.0
 11
-39.90029521731933
 21
8.999999999999996
 31
0.0
  0
LINE
  5
299F8
330
2901C
100
AcDbEntity
  8
SK2
  6
ByBlock
100
AcDbLine
 10
0.0
 20
-9.000000000000015
 30
0.0
 11
-39.90029521731933
 21
-9.000000000000023
 31
0.0
  0
LINE
  5
299F9
330
2901C
100
AcDbEntity
  8
SK2
  6
ByBlock
100
AcDbLine
 10
-38.65029521731933
 20
6.499999999999996
 30
0.0
 11
-38.65029521731933
 21
-6.500000000000023
 31
0.0
  0
SOLID
  5
299FA
330
2901C
100
AcDbEntity
  8
SK2
100
AcDbTrace
 10
-39.06696188398599
 20
6.499999999999996
 30
0.0
 11
-38.23362855065266
 21
6.499999999999996
 31
0.0
 12
-38.65029521731933
 22
8.999999999999996
 32
0.0
 13
-38.65029521731933
 23
8.999999999999996
 33
0.0
  0
SOLID
  5
299FB
330
2901C
100
AcDbEntity
  8
SK2
100
AcDbTrace
 10
-39.06696188398599
 20
-6.500000000000023
 30
0.0
 11
-38.23362855065266
 21
-6.500000000000023
 31
0.0
 12
-38.65029521731933
 22
-9.000000000000023
 32
0.0
 13
-38.65029521731933
 23
-9.000000000000023
 33
0.0
  0
MTEXT
  5
299FC
330
2901C
100
AcDbEntity
  8
SK2
100
AcDbMText
 10
-41.49630716391103
 20
-0.0000000000000017
 30
0.0
 40
3.5
 41
0.0
 71
     5
 72
     1
  1
\A1;%%C18
  7
MM_STANDARD
 11
0.0000000000000001
 21
1.0
 31
0.0
 73
     1
 44
1.0
1001
ACAD
1000
MTEXTBEGIN
1070
    73
1070
     1
1070
    44
1040
1.0
1070
    74
1070
     0
1000
MTEXTEND
  0
POINT
  5
299FD
330
2901C
100
AcDbEntity
  8
DEFPOINTS
 62
     0
100
AcDbPoint
 10
0.0
 20
9.000000000000001
 30
0.0
  0
POINT
  5
299FE
330
2901C
100
AcDbEntity
  8
DEFPOINTS
 62
     0
100
AcDbPoint
 10
0.0
 20
-9.000000000000015
 30
0.0
  0
POINT
  5
299FF
330
2901C
100
AcDbEntity
  8
DEFPOINTS
 62
     0
100
AcDbPoint
 10
-38.65029521731933
 20
-9.000000000000023
 30
0.0
  0
ENDBLK
  5
299A8
330
2901C
100
AcDbEntity
  8
0
100
AcDbBlockEnd
  0
BLOCK
  5
299A9
330
29159
100
AcDbEntity
  8
0
100
AcDbBlockBegin
  2
*D39
 70
     1
 10
0.0
 20
0.0
 30
0.0
  3
*D39
  1

  0
LINE
  5
299F0
330
29159
100
AcDbEntity
  8
2
  6
ByBlock
100
AcDbLine
 10
18.39462200000001
 20
10.0
 30
0.0
 11
50.45691792308691
 21
10.00000000000001
 31
0.0
  0
LINE
  5
299F1
330
29159
100
AcDbEntity
  8
2
  6
ByBlock
100
AcDbLine
 10
49.2069179230869
 20
7.500000000000007
 30
0.0
 11
49.2069179230869
 21
-5.020291637385792
 31
0.0
  0
SOLID
  5
299F2
330
29159
100
AcDbEntity
  8
2
100
AcDbTrace
 10
48.79025125642023
 20
7.500000000000007
 30
0.0
 11
49.62358458975356
 21
7.500000000000007
 31
0.0
 12
49.2069179230869
 22
10.00000000000001
 32
0.0
 13
49.2069179230869
 23
10.00000000000001
 33
0.0
  0
MTEXT
  5
299F3
330
29159
100
AcDbEntity
  8
2
100
AcDbMText
 10
46.36090597649516
 20
0.0000000000000003
 30
0.0
 40
3.5
 41
0.0
 71
     5
 72
     1
  1
\A1;%%C20
  7
MM_STANDARD
 11
0.0000000000000001
 21
1.0
 31
0.0
 73
     1
 44
1.0
1001
ACAD
1000
MTEXTBEGIN
1070
    73
1070
     1
1070
    44
1040
1.0
1070
    74
1070
     0
1000
MTEXTEND
  0
POINT
  5
299F4
330
29159
100
AcDbEntity
  8
DEFPOINTS
 62
     0
100
AcDbPoint
 10
18.39462200000001
 20
10.0
 30
0.0
  0
POINT
  5
299F5
330
29159
100
AcDbEntity
  8
DEFPOINTS
 62
     0
100
AcDbPoint
 10
18.39462200000001
 20
-10.00000000000001
 30
0.0
  0
POINT
  5
299F6
330
29159
100
AcDbEntity
  8
DEFPOINTS
 62
     0
100
AcDbPoint
 10
49.2069179230869
 20
-10.0
 30
0.0
  0
ENDBLK
  5
299AA
330
29159
100
AcDbEntity
  8
0
100
AcDbBlockEnd
  0
BLOCK
  5
299AB
330
29892
100
AcDbEntity
  8
0
100
AcDbBlockBegin
  2
*D40
 70
     1
 10
0.0
 20
0.0
 30
0.0
  3
*D40
  1

  0
POINT
  5
298E0
330
29892
100
AcDbEntity
  8
DEFPOINTS
  6
ByBlock
100
AcDbPoint
 10
0.0
 20
9.0
 30
0.0
  0
POINT
  5
298E1
330
29892
100
AcDbEntity
  8
DEFPOINTS
  6
ByBlock
100
AcDbPoint
 10
22.94979000000001
 20
5.425596000000012
 30
0.0
  0
LINE
  5
298E2
330
29892
100
AcDbEntity
  8
2
  6
ByBlock
100
AcDbLine
 10
0.0
 20
9.0
 30
0.0
 11
0.0
 21
33.13451209874822
 31
0.0
  0
LINE
  5
298E3
330
29892
100
AcDbEntity
  8
2
  6
ByBlock
100
AcDbLine
 10
22.94979000000001
 20
5.425596000000012
 30
0.0
 11
22.94979000000001
 21
33.13451209874822
 31
0.0
  0
LINE
  5
298E4
330
29892
100
AcDbEntity
  8
2
  6
ByBlock
100
AcDbLine
 10
0.0
 20
31.88451209874822
 30
0.0
 11
22.94979000000001
 21
31.88451209874822
 31
0.0
  0
SOLID
  5
298E5
330
29892
100
AcDbEntity
  8
2
  6
ByBlock
100
AcDbTrace
 10
0.0
 20
31.88451209874822
 30
0.0
 11
2.5
 21
31.46784543208147
 31
0.0
 12
2.5
 22
32.30117876541497
 32
0.0
 13
2.5
 23
32.30117876541497
 33
0.0
  0
SOLID
  5
298E6
330
29892
100
AcDbEntity
  8
2
  6
ByBlock
100
AcDbTrace
 10
22.94979000000001
 20
31.88451209874822
 30
0.0
 11
20.44979000000001
 21
31.46784543208147
 31
0.0
 12
20.44979000000001
 22
32.30117876541497
 32
0.0
 13
20.44979000000001
 23
32.30117876541497
 33
0.0
  0
LINE
  5
298E7
330
29892
100
AcDbEntity
  8
2
  6
ByBlock
100
AcDbLine
 10
0.0
 20
9.0
 30
0.0
 11
0.0
 21
9.0
 31
0.0
  0
MTEXT
  5
298E8
330
29892
100
AcDbEntity
  8
2
  6
ByBlock
100
AcDbMText
 10
11.47489500000001
 20
34.33207007485504
 30
0.0
 40
3.5
 41
0.0
 71
     5
 72
     1
  1
\A1;23
  7
MM_STANDARD
 73
     1
 44
1.0
1001
ACAD
1000
MTEXTBEGIN
1070
    73
1070
     1
1070
    44
1040
1.0
1070
    74
1070
     0
1000
MTEXTEND
  0
ENDBLK
  5
299AC
330
29892
100
AcDbEntity
  8
0
100
AcDbBlockEnd
  0
ENDSEC
  0
SECTION
  2
ENTITIES
  0
LINE
  5
AA8
330
1F
100
AcDbEntity
  8
INFTOTAL
100
AcDbLine
 10
-72.11472452489497
 20
1.185700667213936
 30
0.0
 11
-72.11472452489497
 21
54.28162022488457
 31
0.0
  0
LINE
  5
AA9
330
1F
100
AcDbEntity
  8
INFTOTAL
100
AcDbLine
 10
-72.11472452489497
 20
54.28162022488457
 30
0.0
 11
-5.10141162117469
 21
54.28162022488457
 31
0.0
  0
LINE
  5
AAA
330
1F
100
AcDbEntity
  8
INFTOTAL
100
AcDbLine
 10
13.63153063539536
 20
-49.49375433501502
 30
0.0
 11
73.14495271972269
 21
-49.49375433501508
 31
0.0
  0
LINE
  5
AAB
330
1F
100
AcDbEntity
  8
INFTOTAL
100
AcDbLine
 10
73.14495271972269
 20
-49.49375433501508
 30
0.0
 11
73.14495271972269
 21
-7.33469173581933
 31
0.0
  0
POINT
  5
AFA
330
1F
100
AcDbEntity
  8
1
100
AcDbPoint
 10
120.6316161181774
 20
18.06659889820604
 30
0.0
  0
POINT
  5
AFB
330
1F
100
AcDbEntity
  8
1
100
AcDbPoint
 10
117.3316161181774
 20
20.61513489820602
 30
0.0
  0
POINT
  5
136D
330
1F
100
AcDbEntity
  8
CUT
100
AcDbPoint
 10
120.6316161181774
 20
18.03682647108094
 30
0.0
  0
POINT
  5
410F
330
1F
100
AcDbEntity
  8
0
 62
     7
370
     5
100
AcDbPoint
 10
694.5793644972614
 20
32.06429484497903
 30
0.0
  0
POINT
  5
4112
330
1F
100
AcDbEntity
  8
0
 62
     7
370
     5
100
AcDbPoint
 10
694.7265624972615
 20
3.587258844979031
 30
0.0
  0
POINT
  5
4BBB
330
1F
100
AcDbEntity
  8
0
 62
     7
370
     5
100
AcDbPoint
 10
928.2803214655135
 20
36.14402775200896
 30
0.0
  0
POINT
  5
4BBE
330
1F
100
AcDbEntity
  8
0
 62
     7
370
     5
100
AcDbPoint
 10
927.9725574655133
 20
-13.37717824799107
 30
0.0
  0
POINT
  5
4C3D
330
1F
100
AcDbEntity
  8
0
 62
     7
370
     5
100
AcDbPoint
 10
1260.468250897024
 20
34.18197122255629
 30
0.0
  0
POINT
  5
4C41
330
1F
100
AcDbEntity
  8
0
 62
     7
370
     5
100
AcDbPoint
 10
1192.987798897024
 20
34.42276422255628
 30
0.0
  0
POINT
  5
4CA6
330
1F
100
AcDbEntity
  8
0
 62
     7
370
     5
100
AcDbPoint
 10
1531.370477890708
 20
36.54134112174947
 30
0.0
  0
POINT
  5
4CAA
330
1F
100
AcDbEntity
  8
0
 62
     7
370
     5
100
AcDbPoint
 10
1454.809556890707
 20
33.56345212174947
 30
0.0
  0
POINT
  5
4D13
330
1F
100
AcDbEntity
  8
0
 62
     7
370
     5
100
AcDbPoint
 10
705.1278997494348
 20
-154.9600065549146
 30
0.0
  0
POINT
  5
4D16
330
1F
100
AcDbEntity
  8
0
 62
     7
370
     5
100
AcDbPoint
 10
704.8201357494348
 20
-214.4959135549147
 30
0.0
  0
POINT
  5
4D94
330
1F
100
AcDbEntity
  8
0
 62
     7
370
     5
100
AcDbPoint
 10
1787.824033288602
 20
31.89640981289145
 30
0.0
  0
POINT
  5
4D98
330
1F
100
AcDbEntity
  8
0
 62
     7
370
     5
100
AcDbPoint
 10
1715.838491288602
 20
29.33517681289146
 30
0.0
  0
POINT
  5
4DFF
330
1F
100
AcDbEntity
  8
0
 62
     3
370
     5
100
AcDbPoint
 10
1267.112797580298
 20
-159.0002427017263
 30
0.0
  0
POINT
  5
4E03
330
1F
100
AcDbEntity
  8
0
 62
     3
370
     5
100
AcDbPoint
 10
1194.506377580298
 20
-161.9343927017263
 30
0.0
  0
POINT
  5
4E6A
330
1F
100
AcDbEntity
  8
0
 62
     7
370
     5
100
AcDbPoint
 10
1544.710960196184
 20
-155.8112991948312
 30
0.0
  0
POINT
  5
4E6E
330
1F
100
AcDbEntity
  8
0
 62
     3
370
     5
100
AcDbPoint
 10
1456.283339196184
 20
-157.1011921948312
 30
0.0
  0
POINT
  5
4ED5
330
1F
100
AcDbEntity
  8
0
 62
     7
370
     5
100
AcDbPoint
 10
923.0975508391153
 20
-198.2811869580544
 30
0.0
  0
POINT
  5
4ED6
330
1F
100
AcDbEntity
  8
0
 62
     7
370
     5
100
AcDbPoint
 10
958.0975508391155
 20
-190.2811869580544
 30
0.0
  0
POINT
  5
4ED9
330
1F
100
AcDbEntity
  8
0
 62
     7
370
     5
100
AcDbPoint
 10
957.9030798391153
 20
-228.1917289580544
 30
0.0
  0
POINT
  5
4F57
330
1F
100
AcDbEntity
  8
0
 62
     7
370
     5
100
AcDbPoint
 10
450.9331152202981
 20
34.51099349283641
 30
0.0
  0
POINT
  5
4F5A
330
1F
100
AcDbEntity
  8
0
 62
     7
370
     5
100
AcDbPoint
 10
450.3789362202981
 20
-3.505724507163591
 30
0.0
  0
POINT
  5
4FD6
330
1F
100
AcDbEntity
  8
0
 62
     7
370
     5
100
AcDbPoint
 10
414.7355793530676
 20
-182.3643573412055
 30
0.0
  0
POINT
  5
4FD9
330
1F
100
AcDbEntity
  8
0
 62
     7
370
     5
100
AcDbPoint
 10
414.4028163530678
 20
-227.6410343412055
 30
0.0
  0
POINT
  5
5057
330
1F
100
AcDbEntity
  8
0
 62
     7
370
     5
100
AcDbPoint
 10
411.1596871436125
 20
-404.5108996529686
 30
0.0
  0
POINT
  5
505A
330
1F
100
AcDbEntity
  8
0
 62
     7
370
     5
100
AcDbPoint
 10
410.8519251436126
 20
-448.9004636529686
 30
0.0
  0
POINT
  5
50DA
330
1F
100
AcDbEntity
  8
0
 62
     7
370
     5
100
AcDbPoint
 10
696.3752719090887
 20
-405.5632373962983
 30
0.0
  0
POINT
  5
50DD
330
1F
100
AcDbEntity
  8
0
 62
     7
370
     5
100
AcDbPoint
 10
696.0675099090884
 20
-458.9718843962983
 30
0.0
  0
POINT
  5
515E
330
1F
100
AcDbEntity
  8
0
 62
     7
370
     5
100
AcDbPoint
 10
942.932329238496
 20
-403.2148016805113
 30
0.0
  0
POINT
  5
5161
330
1F
100
AcDbEntity
  8
0
 62
     3
370
     5
100
AcDbPoint
 10
942.624565238496
 20
-476.4638956805113
 30
0.0
  0
POINT
  5
51E0
330
1F
100
AcDbEntity
  8
0
 62
     7
370
     5
100
AcDbPoint
 10
380.0596661818993
 20
-637.2898669140809
 30
0.0
  0
POINT
  5
51E4
330
1F
100
AcDbEntity
  8
0
 62
     7
370
     5
100
AcDbPoint
 10
379.7269051818993
 20
-669.3765459140807
 30
0.0
  0
POINT
  5
5263
330
1F
100
AcDbEntity
  8
0
 62
     7
370
     5
100
AcDbPoint
 10
656.1064603234972
 20
-644.2320044768857
 30
0.0
  0
POINT
  5
5267
330
1F
100
AcDbEntity
  8
0
 62
     7
370
     5
100
AcDbPoint
 10
655.7736983234972
 20
-681.5918884768857
 30
0.0
  0
POINT
  5
52E6
330
1F
100
AcDbEntity
  8
0
 62
     7
370
     5
100
AcDbPoint
 10
921.5387707571863
 20
-642.2430056930917
 30
0.0
  0
POINT
  5
52EA
330
1F
100
AcDbEntity
  8
0
 62
     7
370
     5
100
AcDbPoint
 10
921.2310077571864
 20
-692.8111586930919
 30
0.0
  0
POINT
  5
536A
330
1F
100
AcDbEntity
  8
0
 62
     7
370
     5
100
AcDbPoint
 10
1232.563978885883
 20
-644.0998079544141
 30
0.0
  0
POINT
  5
536E
330
1F
100
AcDbEntity
  8
0
 62
     7
370
     5
100
AcDbPoint
 10
1232.256215885883
 20
-701.4147569544141
 30
0.0
  0
POINT
  5
53EE
330
1F
100
AcDbEntity
  8
0
 62
     7
370
     5
100
AcDbPoint
 10
1530.052638397992
 20
-643.475919607774
 30
0.0
  0
POINT
  5
53F2
330
1F
100
AcDbEntity
  8
0
 62
     7
370
     5
100
AcDbPoint
 10
1529.744875397992
 20
-702.095046607774
 30
0.0
  0
POINT
  5
5472
330
1F
100
AcDbEntity
  8
0
 62
     7
370
     5
100
AcDbPoint
 10
684.9908237883022
 20
27.90718926625232
 30
0.0
  0
POINT
  5
5475
330
1F
100
AcDbEntity
  8
0
 62
     7
370
     5
100
AcDbPoint
 10
685.1380217883022
 20
-0.5698467337476814
 30
0.0
  0
POINT
  5
C167
330
1F
100
AcDbEntity
  8
0
 62
     7
370
     5
100
AcDbPoint
 10
404.6381194571074
 20
31.25869005531058
 30
0.0
  0
POINT
  5
C170
330
1F
100
AcDbEntity
  8
0
 62
     7
370
     5
100
AcDbPoint
 10
404.6381194571074
 20
-40.40044294468938
 30
0.0
  0
POINT
  5
C178
330
1F
100
AcDbEntity
  8
0
 62
     7
370
     5
100
AcDbPoint
 10
693.6166312048997
 20
32.91651042690259
 30
0.0
  0
POINT
  5
C182
330
1F
100
AcDbEntity
  8
0
 62
     7
370
     5
100
AcDbPoint
 10
693.6166312048997
 20
-48.79153757309743
 30
0.0
  0
POINT
  5
C255
330
1F
100
AcDbEntity
  8
0
 62
     7
370
     5
100
AcDbPoint
 10
969.8580521302226
 20
-44.97487572475608
 30
0.0
  0
POINT
  5
C258
330
1F
100
AcDbEntity
  8
0
 62
     7
370
     5
100
AcDbPoint
 10
969.8580521302226
 20
15.7863642752439
 30
0.0
  0
POINT
  5
C2E1
330
1F
100
AcDbEntity
  8
0
 62
     7
370
     5
100
AcDbPoint
 10
1225.348704188238
 20
-52.24776141224177
 30
0.0
  0
POINT
  5
C2E4
330
1F
100
AcDbEntity
  8
0
 62
     7
370
     5
100
AcDbPoint
 10
1225.348704188238
 20
11.68361158775823
 30
0.0
  0
POINT
  5
C36E
330
1F
100
AcDbEntity
  8
0
 62
     7
370
     5
100
AcDbPoint
 10
1738.913115957113
 20
-214.1607529893734
 30
0.0
  0
POINT
  5
C377
330
1F
100
AcDbEntity
  8
0
 62
     3
370
     5
100
AcDbPoint
 10
1738.913115957113
 20
-286.8828409893735
 30
0.0
  0
POINT
  5
C42D
330
1F
100
AcDbEntity
  8
0
 62
     7
370
     5
100
AcDbPoint
 10
430.2380300204257
 20
-176.3158258460635
 30
0.0
  0
POINT
  5
C437
330
1F
100
AcDbEntity
  8
0
 62
     7
370
     5
100
AcDbPoint
 10
430.2380300204257
 20
-251.7521558460636
 30
0.0
  0
POINT
  5
C533
330
1F
100
AcDbEntity
  8
0
 62
     3
370
     5
100
AcDbPoint
 10
724.0359074233313
 20
-257.7049218719476
 30
0.0
  0
POINT
  5
C536
330
1F
100
AcDbEntity
  8
0
 62
     3
370
     5
100
AcDbPoint
 10
724.0359074233313
 20
-176.2890638719476
 30
0.0
  0
POINT
  5
C652
330
1F
100
AcDbEntity
  8
0
 62
     7
370
     5
100
AcDbPoint
 10
1006.718794540682
 20
-163.3460002642659
 30
0.0
  0
POINT
  5
C65C
330
1F
100
AcDbEntity
  8
0
 62
     7
370
     5
100
AcDbPoint
 10
1006.718794540682
 20
-271.4659132642659
 30
0.0
  0
POINT
  5
C79F
330
1F
100
AcDbEntity
  8
0
 62
     7
370
     5
100
AcDbPoint
 10
680.0273543974197
 20
-609.8288373451556
 30
0.0
  0
POINT
  5
C7A3
330
1F
100
AcDbEntity
  8
0
 62
     7
370
     5
100
AcDbPoint
 10
680.0273543974197
 20
-565.0385583451557
 30
0.0
  0
POINT
  5
C85B
330
1F
100
AcDbEntity
  8
0
 62
     7
370
     5
100
AcDbPoint
 10
981.854726218849
 20
-559.8376501395787
 30
0.0
  0
POINT
  5
C863
330
1F
100
AcDbEntity
  8
0
 62
     7
370
     5
100
AcDbPoint
 10
981.854726218849
 20
-623.6282751395788
 30
0.0
  0
POINT
  5
C930
330
1F
100
AcDbEntity
  8
0
 62
     7
370
     5
100
AcDbPoint
 10
1216.759569404171
 20
-624.5477225769705
 30
0.0
  0
POINT
  5
C934
330
1F
100
AcDbEntity
  8
0
 62
     7
370
     5
100
AcDbPoint
 10
1202.759569404171
 20
-560.1965945769704
 30
0.0
  0
POINT
  5
C935
330
1F
100
AcDbEntity
  8
0
 62
     7
370
     5
100
AcDbPoint
 10
1216.759569404171
 20
-551.6965945769704
 30
0.0
  0
POINT
  5
CA12
330
1F
100
AcDbEntity
  8
0
 62
     7
370
     5
100
AcDbPoint
 10
1458.761001673632
 20
-627.5597008720548
 30
0.0
  0
POINT
  5
CA16
330
1F
100
AcDbEntity
  8
0
 62
     7
370
     5
100
AcDbPoint
 10
1443.761001673632
 20
-571.7910898720547
 30
0.0
  0
POINT
  5
CA17
330
1F
100
AcDbEntity
  8
0
 62
     7
370
     5
100
AcDbPoint
 10
1458.761001673632
 20
-561.2910898720547
 30
0.0
  0
POINT
  5
CB25
330
1F
100
AcDbEntity
  8
0
 62
     7
370
     5
100
AcDbPoint
 10
1712.749014983699
 20
-637.6031663899041
 30
0.0
  0
POINT
  5
CB29
330
1F
100
AcDbEntity
  8
0
 62
     7
370
     5
100
AcDbPoint
 10
1712.749014983699
 20
-557.403845389904
 30
0.0
  0
POINT
  5
CC4B
330
1F
100
AcDbEntity
  8
0
 62
     7
370
     5
100
AcDbPoint
 10
1990.420039580178
 20
-639.3672597641932
 30
0.0
  0
POINT
  5
CC4F
330
1F
100
AcDbEntity
  8
0
 62
     7
370
     5
100
AcDbPoint
 10
1975.420039580178
 20
-571.8308197641934
 30
0.0
  0
POINT
  5
CC50
330
1F
100
AcDbEntity
  8
0
 62
     7
370
     5
100
AcDbPoint
 10
1990.420039580178
 20
-554.3308197641933
 30
0.0
  0
POINT
  5
D588
330
1F
100
AcDbEntity
  8
0
 62
     7
370
     5
100
AcDbPoint
 10
643.6762534904714
 20
-418.5518022854259
 30
0.0
  0
POINT
  5
D590
330
1F
100
AcDbEntity
  8
0
 62
     7
370
     5
100
AcDbPoint
 10
698.8426964904712
 20
-418.5518022854259
 30
0.0
  0
POINT
  5
D89C
330
1F
100
AcDbEntity
  8
0
 62
     7
370
     5
100
AcDbPoint
 10
918.4554480131433
 20
-418.2516555129392
 30
0.0
  0
POINT
  5
D8A3
330
1F
100
AcDbEntity
  8
0
 62
     7
370
     5
100
AcDbPoint
 10
998.0069960131432
 20
-418.2516555129392
 30
0.0
  0
POINT
  5
DAF2
330
1F
100
AcDbEntity
  8
0
 62
     7
370
     5
100
AcDbPoint
 10
1973.075374951941
 20
-60.50318164632196
 30
0.0
  0
POINT
  5
DAF5
330
1F
100
AcDbEntity
  8
0
 62
     7
370
     5
100
AcDbPoint
 10
1973.075374951941
 20
1.00896335367804
 30
0.0
  0
POINT
  5
DCBB
330
1F
100
AcDbEntity
  8
0
 62
     7
370
     5
100
AcDbPoint
 10
2228.446041001848
 20
-631.5679862622897
 30
0.0
  0
POINT
  5
DCBF
330
1F
100
AcDbEntity
  8
0
 62
     7
370
     5
100
AcDbPoint
 10
2228.446041001848
 20
-581.1017172622897
 30
0.0
  0
POINT
  5
DECF
330
1F
100
AcDbEntity
  8
0
 62
     7
370
     5
100
AcDbPoint
 10
2470.518201269178
 20
-576.6616946872675
 30
0.0
  0
POINT
  5
DED7
330
1F
100
AcDbEntity
  8
0
 62
     7
370
     5
100
AcDbPoint
 10
2470.518201269178
 20
-638.2022576872675
 30
0.0
  0
POINT
  5
E102
330
1F
100
AcDbEntity
  8
0
 62
     7
370
     5
100
AcDbPoint
 10
1449.716374392063
 20
-281.2570516923841
 30
0.0
  0
POINT
  5
E105
330
1F
100
AcDbEntity
  8
0
 62
     7
370
     5
100
AcDbPoint
 10
1449.716374392063
 20
-216.7933926923841
 30
0.0
  0
POINT
  5
E20E
330
1F
100
AcDbEntity
  8
0
 62
     7
370
     5
100
AcDbPoint
 10
1444.226360693917
 20
7.118696944552222
 30
0.0
  0
POINT
  5
E217
330
1F
100
AcDbEntity
  8
0
 62
     7
370
     5
100
AcDbPoint
 10
1444.226360693917
 20
-50.75492105544778
 30
0.0
  0
POINT
  5
E328
330
1F
100
AcDbEntity
  8
0
 62
     7
370
     5
100
AcDbPoint
 10
1674.557421043983
 20
-57.27887800498226
 30
0.0
  0
POINT
  5
E32B
330
1F
100
AcDbEntity
  8
0
 62
     7
370
     5
100
AcDbPoint
 10
1674.557421043983
 20
6.273895995017768
 30
0.0
  0
POINT
  5
E438
330
1F
100
AcDbEntity
  8
0
 62
     7
370
     5
100
AcDbPoint
 10
1221.741516539144
 20
-220.2351919986821
 30
0.0
  0
POINT
  5
E441
330
1F
100
AcDbEntity
  8
0
 62
     7
370
     5
100
AcDbPoint
 10
1221.741516539144
 20
-278.4038869986821
 30
0.0
  0
POINT
  5
E533
330
1F
100
AcDbEntity
  8
0
 62
     7
370
     5
100
AcDbPoint
 10
435.7613867553435
 20
-401.853645371286
 30
0.0
  0
POINT
  5
E537
330
1F
100
AcDbEntity
  8
0
 62
     7
370
     5
100
AcDbPoint
 10
336.0458187553437
 20
-401.853645371286
 30
0.0
  0
POINT
  5
E6D2
330
1F
100
AcDbEntity
  8
0
 62
     7
370
     5
100
AcDbPoint
 10
394.2075911881555
 20
-612.6712758301417
 30
0.0
  0
POINT
  5
E6D6
330
1F
100
AcDbEntity
  8
0
 62
     7
370
     5
100
AcDbPoint
 10
394.2075911881555
 20
-562.1020128301418
 30
0.0
  0
POINT
  5
12895
330
1F
100
AcDbEntity
  8
0
 62
     7
370
     5
100
AcDbPoint
 10
514.3576994832141
 20
-558.6978028967338
 30
0.0
  0
POINT
  5
1289C
330
1F
100
AcDbEntity
  8
0
 62
     7
370
     5
100
AcDbPoint
 10
514.3576994832141
 20
-524.0331488967338
 30
0.0
  0
POINT
  5
1289D
330
1F
100
AcDbEntity
  8
0
 62
     7
370
     5
100
AcDbPoint
 10
514.3576994832141
 20
-526.4631488967337
 30
0.0
  0
POINT
  5
1299A
330
1F
100
AcDbEntity
  8
0
 62
     7
370
     5
100
AcDbPoint
 10
273.0238152774181
 20
35.53337152575214
 30
0.0
  0
POINT
  5
1299D
330
1F
100
AcDbEntity
  8
0
 62
     7
370
     5
100
AcDbPoint
 10
273.0238152774181
 20
-16.30945047424785
 30
0.0
  0
POINT
  5
12A19
330
1F
100
AcDbEntity
  8
0
 62
     7
370
     5
100
AcDbPoint
 10
530.0071960054782
 20
34.28476473790624
 30
0.0
  0
POINT
  5
12A1A
330
1F
100
AcDbEntity
  8
0
 62
     7
370
     5
100
AcDbPoint
 10
530.0071960054782
 20
28.42976573790625
 30
0.0
  0
POINT
  5
12A1D
330
1F
100
AcDbEntity
  8
0
 62
     7
370
     5
100
AcDbPoint
 10
530.2789780054783
 20
-25.24190226209373
 30
0.0
  0
POINT
  5
12AA6
330
1F
100
AcDbEntity
  8
0
 62
     7
370
     5
100
AcDbPoint
 10
803.5390081451089
 20
38.33315219974614
 30
0.0
  0
POINT
  5
12AA7
330
1F
100
AcDbEntity
  8
0
 62
     7
370
     5
100
AcDbPoint
 10
803.5390081451089
 20
32.44315219974615
 30
0.0
  0
POINT
  5
12AAA
330
1F
100
AcDbEntity
  8
0
 62
     7
370
     5
100
AcDbPoint
 10
803.5390081451089
 20
-33.77549080025384
 30
0.0
  0
POINT
  5
12B2B
330
1F
100
AcDbEntity
  8
0
 62
     7
370
     5
100
AcDbPoint
 10
246.4739127018369
 20
-292.0641451649423
 30
0.0
  0
POINT
  5
12B40
330
1F
100
AcDbEntity
  8
0
 62
     7
370
     5
100
AcDbPoint
 10
246.1857397018369
 20
-234.4124741649423
 30
0.0
  0
POINT
  5
12B41
330
1F
100
AcDbEntity
  8
0
 62
     7
370
     5
100
AcDbPoint
 10
246.1857397018369
 20
-239.6974741649422
 30
0.0
  0
POINT
  5
12BA1
330
1F
100
AcDbEntity
  8
0
 62
     7
370
     5
100
AcDbPoint
 10
503.361992156836
 20
-293.942128217062
 30
0.0
  0
POINT
  5
12BB5
330
1F
100
AcDbEntity
  8
0
 62
     7
370
     5
100
AcDbPoint
 10
503.361992156836
 20
-232.058278217062
 30
0.0
  0
POINT
  5
12BB6
330
1F
100
AcDbEntity
  8
0
 62
     7
370
     5
100
AcDbPoint
 10
503.361992156836
 20
-237.898279217062
 30
0.0
  0
POINT
  5
12C16
330
1F
100
AcDbEntity
  8
0
 62
     7
370
     5
100
AcDbPoint
 10
773.9808530456294
 20
-320.1483272428673
 30
0.0
  0
POINT
  5
12C17
330
1F
100
AcDbEntity
  8
0
 62
     7
370
     5
100
AcDbPoint
 10
776.9808530456294
 20
-286.8983272428673
 30
0.0
  0
POINT
  5
12C2B
330
1F
100
AcDbEntity
  8
0
 62
     7
370
     5
100
AcDbPoint
 10
776.9808530456294
 20
-225.7099922428672
 30
0.0
  0
POINT
  5
12C8B
330
1F
100
AcDbEntity
  8
0
 62
     7
370
     5
100
AcDbPoint
 10
258.823540701837
 20
-572.0746798648522
 30
0.0
  0
POINT
  5
12C92
330
1F
100
AcDbEntity
  8
0
 62
     7
370
     5
100
AcDbPoint
 10
258.8235127018369
 20
-543.1961818648521
 30
0.0
  0
POINT
  5
12C93
330
1F
100
AcDbEntity
  8
0
 62
     7
370
     5
100
AcDbPoint
 10
258.8235127018369
 20
-544.8461818648523
 30
0.0
  0
POINT
  5
14051
330
1F
100
AcDbEntity
  8
0
 62
     7
370
     5
100
AcDbPoint
 10
690.9556627618442
 20
-532.2047645406313
 30
0.0
  0
POINT
  5
14058
330
1F
100
AcDbEntity
  8
0
 62
     7
370
     5
100
AcDbPoint
 10
690.9556627618442
 20
-497.5401105406314
 30
0.0
  0
POINT
  5
14059
330
1F
100
AcDbEntity
  8
0
 62
     7
370
     5
100
AcDbPoint
 10
690.9556627618442
 20
-499.9701105406314
 30
0.0
  0
POINT
  5
175ED
330
1F
100
AcDbEntity
  8
0
 62
     7
370
     5
100
AcDbPoint
 10
329.8984453452037
 20
37.75833189686949
 30
0.0
  0
POINT
  5
175F0
330
1F
100
AcDbEntity
  8
0
 62
     7
370
     5
100
AcDbPoint
 10
329.8984453452037
 20
-10.8089411031305
 30
0.0
  0
POINT
  5
17673
330
1F
100
AcDbEntity
  8
0
 62
     7
370
     5
100
AcDbPoint
 10
651.3183805762602
 20
33.1650220174441
 30
0.0
  0
POINT
  5
17677
330
1F
100
AcDbEntity
  8
0
 62
     7
370
     5
100
AcDbPoint
 10
651.3183805762602
 20
-21.99992098255592
 30
0.0
  0
POINT
  5
1770F
330
1F
100
AcDbEntity
  8
0
 62
     7
370
     5
100
AcDbPoint
 10
1014.212196760976
 20
-27.33731747488401
 30
0.0
  0
POINT
  5
17718
330
1F
100
AcDbEntity
  8
0
 62
     7
370
     5
100
AcDbPoint
 10
1014.212196760976
 20
30.00474752511599
 30
0.0
  0
POINT
  5
17790
330
1F
100
AcDbEntity
  8
0
 62
     7
370
     5
100
AcDbPoint
 10
1421.356448019548
 20
-26.9349024739204
 30
0.0
  0
POINT
  5
1779E
330
1F
100
AcDbEntity
  8
0
 62
     7
370
     5
100
AcDbPoint
 10
1421.356448019548
 20
21.9806675260796
 30
0.0
  0
POINT
  5
1779F
330
1F
100
AcDbEntity
  8
0
 62
     7
370
     5
100
AcDbPoint
 10
1413.056448019548
 20
21.9806675260796
 30
0.0
  0
POINT
  5
1781A
330
1F
100
AcDbEntity
  8
0
 62
     7
370
     5
100
AcDbPoint
 10
1720.045575829729
 20
23.92611327127983
 30
0.0
  0
POINT
  5
1781D
330
1F
100
AcDbEntity
  8
0
 62
     7
370
     5
100
AcDbPoint
 10
1720.045575829729
 20
-24.59612772872018
 30
0.0
  0
POINT
  5
178A0
330
1F
100
AcDbEntity
  8
0
 62
     7
370
     5
100
AcDbPoint
 10
359.2272976195882
 20
-230.0319820838431
 30
0.0
  0
POINT
  5
178A3
330
1F
100
AcDbEntity
  8
0
 62
     7
370
     5
100
AcDbPoint
 10
359.2273026195881
 20
-278.361407083843
 30
0.0
  0
POINT
  5
17926
330
1F
100
AcDbEntity
  8
0
 62
     7
370
     5
100
AcDbPoint
 10
669.6174077737214
 20
-230.0319820838431
 30
0.0
  0
POINT
  5
17929
330
1F
100
AcDbEntity
  8
0
 62
     7
370
     5
100
AcDbPoint
 10
669.6174087737214
 20
-278.361407083843
 30
0.0
  0
POINT
  5
179AC
330
1F
100
AcDbEntity
  8
0
 62
     7
370
     5
100
AcDbPoint
 10
1023.306532042488
 20
-235.6329118492064
 30
0.0
  0
POINT
  5
179AF
330
1F
100
AcDbEntity
  8
0
 62
     7
370
     5
100
AcDbPoint
 10
1023.306532042488
 20
-284.2001848492064
 30
0.0
  0
POINT
  5
17A32
330
1F
100
AcDbEntity
  8
0
 62
     7
370
     5
100
AcDbPoint
 10
1352.196645196622
 20
-235.6329118492064
 30
0.0
  0
POINT
  5
17A36
330
1F
100
AcDbEntity
  8
0
 62
     7
370
     5
100
AcDbPoint
 10
1352.196645196622
 20
-290.7980508492065
 30
0.0
  0
POINT
  5
17AD1
330
1F
100
AcDbEntity
  8
0
 62
     7
370
     5
100
AcDbPoint
 10
1715.365188016996
 20
-237.9716865944066
 30
0.0
  0
POINT
  5
17AD4
330
1F
100
AcDbEntity
  8
0
 62
     7
370
     5
100
AcDbPoint
 10
1715.365188016996
 20
-286.5389595944066
 30
0.0
  0
POINT
  5
17B57
330
1F
100
AcDbEntity
  8
0
 62
     7
370
     5
100
AcDbPoint
 10
331.5674947966618
 20
-480.7206417139288
 30
0.0
  0
POINT
  5
17B5A
330
1F
100
AcDbEntity
  8
0
 62
     7
370
     5
100
AcDbPoint
 10
331.5674987966619
 20
-532.8452337139288
 30
0.0
  0
POINT
  5
17BD8
330
1F
100
AcDbEntity
  8
0
 62
     7
370
     5
100
AcDbPoint
 10
667.4370134195751
 20
-483.059416459129
 30
0.0
  0
POINT
  5
17BDB
330
1F
100
AcDbEntity
  8
0
 62
     7
370
     5
100
AcDbPoint
 10
667.4370134195751
 20
-535.184008459129
 30
0.0
  0
POINT
  5
17C59
330
1F
100
AcDbEntity
  8
0
 62
     7
370
     5
100
AcDbPoint
 10
1032.757662940594
 20
-479.9258798209486
 30
0.0
  0
POINT
  5
17C5C
330
1F
100
AcDbEntity
  8
0
 62
     7
370
     5
100
AcDbPoint
 10
1032.757665940594
 20
-532.1255208209487
 30
0.0
  0
POINT
  5
17CDA
330
1F
100
AcDbEntity
  8
0
 62
     7
370
     5
100
AcDbPoint
 10
1350.446793750775
 20
-475.452849330548
 30
0.0
  0
POINT
  5
17CDE
330
1F
100
AcDbEntity
  8
0
 62
     7
370
     5
100
AcDbPoint
 10
1350.446795750775
 20
-535.7299113305479
 30
0.0
  0
POINT
  5
17D79
330
1F
100
AcDbEntity
  8
0
 62
     7
370
     5
100
AcDbPoint
 10
1724.816312373689
 20
-484.6034323315118
 30
0.0
  0
POINT
  5
17D7C
330
1F
100
AcDbEntity
  8
0
 62
     7
370
     5
100
AcDbPoint
 10
1724.816312373689
 20
-536.8030733315118
 30
0.0
  0
POINT
  5
17DFA
330
1F
100
AcDbEntity
  8
0
 62
     7
370
     5
100
AcDbPoint
 10
292.6784219762804
 20
-717.1006079596696
 30
0.0
  0
POINT
  5
17DFE
330
1F
100
AcDbEntity
  8
0
 62
     7
370
     5
100
AcDbPoint
 10
292.6784249762804
 20
-777.3013929596698
 30
0.0
  0
POINT
  5
17E99
330
1F
100
AcDbEntity
  8
0
 62
     7
370
     5
100
AcDbPoint
 10
668.1772397573285
 20
-728.8489624009062
 30
0.0
  0
POINT
  5
17E9C
330
1F
100
AcDbEntity
  8
0
 62
     7
370
     5
100
AcDbPoint
 10
668.1772397573285
 20
-780.9735614009062
 30
0.0
  0
POINT
  5
17F19
330
1F
100
AcDbEntity
  8
0
 62
     7
370
     5
100
AcDbPoint
 10
1014.680140542377
 20
-727.4779055808943
 30
0.0
  0
POINT
  5
17F1E
330
1F
100
AcDbEntity
  8
0
 62
     7
370
     5
100
AcDbPoint
 10
1014.680139542377
 20
-792.8842465808943
 30
0.0
  0
POINT
  5
17F82
330
1F
100
AcDbEntity
  8
0
 62
     7
370
     5
100
AcDbPoint
 10
1363.039112172955
 20
-778.9168242007557
 30
0.0
  0
POINT
  5
17F8B
330
1F
100
AcDbEntity
  8
0
 62
     7
370
     5
100
AcDbPoint
 10
1363.039112172955
 20
-712.5175752007558
 30
0.0
  0
POINT
  5
17FE8
330
1F
100
AcDbEntity
  8
0
 62
     7
370
     5
100
AcDbPoint
 10
1718.366870633272
 20
-723.7460446679111
 30
0.0
  0
POINT
  5
17FEB
330
1F
100
AcDbEntity
  8
0
 62
     7
370
     5
100
AcDbPoint
 10
1718.366871633272
 20
-789.389202667911
 30
0.0
  0
POINT
  5
18051
330
1F
100
AcDbEntity
  8
0
 62
     7
370
     5
100
AcDbPoint
 10
319.6383345054979
 20
-967.5893901625666
 30
0.0
  0
POINT
  5
18054
330
1F
100
AcDbEntity
  8
0
 62
     7
370
     5
100
AcDbPoint
 10
319.6383355054979
 20
-1032.973459162567
 30
0.0
  0
POINT
  5
180BA
330
1F
100
AcDbEntity
  8
0
 62
     7
370
     5
100
AcDbPoint
 10
680.5370709864296
 20
-963.1934877025301
 30
0.0
  0
POINT
  5
180BB
330
1F
100
AcDbEntity
  8
0
 62
     7
370
     5
100
AcDbPoint
 10
629.5370709864297
 20
-967.19348770253
 30
0.0
  0
POINT
  5
180BE
330
1F
100
AcDbEntity
  8
0
 62
     7
370
     5
100
AcDbPoint
 10
680.5370759864297
 20
-1028.58231170253
 30
0.0
  0
POINT
  5
18125
330
1F
100
AcDbEntity
  8
0
 62
     7
370
     5
100
AcDbPoint
 10
1025.504908559649
 20
-985.5078641637318
 30
0.0
  0
POINT
  5
18128
330
1F
100
AcDbEntity
  8
0
 62
     7
370
     5
100
AcDbPoint
 10
935.4436665596491
 20
-985.5078641637318
 30
0.0
  0
POINT
  5
181A3
330
1F
100
AcDbEntity
  8
0
 62
     7
370
     5
100
AcDbPoint
 10
1372.616021513803
 20
-994.9832624236179
 30
0.0
  0
POINT
  5
181A6
330
1F
100
AcDbEntity
  8
0
 62
     7
370
     5
100
AcDbPoint
 10
1282.554779513803
 20
-994.9832624236179
 30
0.0
  0
POINT
  5
18221
330
1F
100
AcDbEntity
  8
0
 62
     7
370
     5
100
AcDbPoint
 10
1726.183901955964
 20
-986.4057379766256
 30
0.0
  0
POINT
  5
18224
330
1F
100
AcDbEntity
  8
0
 62
     7
370
     5
100
AcDbPoint
 10
1636.122660955965
 20
-987.7852319766256
 30
0.0
  0
POINT
  5
1829F
330
1F
100
AcDbEntity
  8
0
 62
     7
370
     5
100
AcDbPoint
 10
315.0667151318947
 20
-1233.667447704089
 30
0.0
  0
POINT
  5
182A2
330
1F
100
AcDbEntity
  8
0
 62
     7
370
     5
100
AcDbPoint
 10
225.0054731318947
 20
-1234.512880704089
 30
0.0
  0
POINT
  5
1831D
330
1F
100
AcDbEntity
  8
0
 62
     7
370
     5
100
AcDbPoint
 10
666.5716365787308
 20
-1228.374582524101
 30
0.0
  0
POINT
  5
18320
330
1F
100
AcDbEntity
  8
0
 62
     7
370
     5
100
AcDbPoint
 10
576.510395578731
 20
-1229.476628524102
 30
0.0
  0
POINT
  5
1C1E5
330
1F
100
AcDbEntity
  8
0
 62
     7
370
     5
100
AcDbPoint
 10
565.1931729999843
 20
-252.0327741049043
 30
0.0
  0
POINT
  5
1C1E8
330
1F
100
AcDbEntity
  8
0
 62
     7
370
     5
100
AcDbPoint
 10
571.0793859999843
 20
-171.4824511049043
 30
0.0
  0
POINT
  5
1C393
330
1F
100
AcDbEntity
  8
0
 62
     7
370
     5
100
AcDbPoint
 10
852.7529560248229
 20
-161.0786730235244
 30
0.0
  0
POINT
  5
1C3A1
330
1F
100
AcDbEntity
  8
0
 62
     7
370
     5
100
AcDbPoint
 10
853.6840430248233
 20
-256.0650500235244
 30
0.0
  0
POINT
  5
1C476
330
1F
100
AcDbEntity
  8
0
 62
     7
370
     5
100
AcDbPoint
 10
1100.710829294269
 20
-179.9690311044011
 30
0.0
  0
POINT
  5
1C484
330
1F
100
AcDbEntity
  8
0
 62
     7
370
     5
100
AcDbPoint
 10
1097.008556294269
 20
-246.8144071044011
 30
0.0
  0
POINT
  5
1C54E
330
1F
100
AcDbEntity
  8
0
 62
     7
370
     5
100
AcDbPoint
 10
327.4559894717282
 20
-242.3690707660675
 30
0.0
  0
POINT
  5
1C54F
330
1F
100
AcDbEntity
  8
0
 62
     7
370
     5
100
AcDbPoint
 10
323.7573724717281
 20
-242.3490727660675
 30
0.0
  0
POINT
  5
1C632
330
1F
100
AcDbEntity
  8
0
 62
     7
370
     5
100
AcDbPoint
 10
301.1069300782104
 20
37.7626127561465
 30
0.0
  0
POINT
  5
1C640
330
1F
100
AcDbEntity
  8
0
 62
     7
370
     5
100
AcDbPoint
 10
301.4480630782105
 20
-36.93915824385351
 30
0.0
  0
POINT
  5
1C6B9
330
1F
100
AcDbEntity
  8
0
 62
     1
370
     5
100
AcDbPoint
 10
582.4029449258979
 20
29.4620864008466
 30
0.0
  0
POINT
  5
1C6C7
330
1F
100
AcDbEntity
  8
0
 62
     7
370
     5
100
AcDbPoint
 10
567.6899119258981
 20
-44.52450559915339
 30
0.0
  0
POINT
  5
1C740
330
1F
100
AcDbEntity
  8
0
 62
     7
370
     5
100
AcDbPoint
 10
838.8170717714807
 20
31.21800268959555
 30
0.0
  0
POINT
  5
1C74E
330
1F
100
AcDbEntity
  8
0
 62
     7
370
     5
100
AcDbPoint
 10
830.8810477714807
 20
-42.18143931040443
 30
0.0
  0
POINT
  5
1C7C7
330
1F
100
AcDbEntity
  8
0
 62
     7
370
     5
100
AcDbPoint
 10
1082.103046320498
 20
26.65705560741793
 30
0.0
  0
POINT
  5
1C850
330
1F
100
AcDbEntity
  8
0
 62
     7
370
     5
100
AcDbPoint
 10
1320.708032031059
 20
-54.79519568133104
 30
0.0
  0
POINT
  5
1C851
330
1F
100
AcDbEntity
  8
0
 62
     7
370
     5
100
AcDbPoint
 10
1317.008086031059
 20
-54.77519668133105
 30
0.0
  0
POINT
  5
1C9A2
330
1F
100
AcDbEntity
  8
0
 62
     7
370
     5
100
AcDbPoint
 10
1351.994597785224
 20
-177.9923767989125
 30
0.0
  0
POINT
  5
1C9B0
330
1F
100
AcDbEntity
  8
0
 62
     7
370
     5
100
AcDbPoint
 10
1347.069666785224
 20
-246.9150937989126
 30
0.0
  0
POINT
  5
1C9B1
330
1F
100
AcDbEntity
  8
0
 62
     7
370
     5
100
AcDbPoint
 10
1343.369666785224
 20
-246.9154057989126
 30
0.0
  0
POINT
  5
1CBC0
330
1F
100
AcDbEntity
  8
0
 62
     7
370
     5
100
AcDbPoint
 10
317.2946666194903
 20
-384.0973382926297
 30
0.0
  0
POINT
  5
1CBCE
330
1F
100
AcDbEntity
  8
0
 62
     7
370
     5
100
AcDbPoint
 10
305.7896836194903
 20
-451.8667572926297
 30
0.0
  0
POINT
  5
1CE43
330
1F
100
AcDbEntity
  8
0
 62
     7
370
     5
100
AcDbPoint
 10
610.2304875856865
 20
-368.9630837278421
 30
0.0
  0
POINT
  5
1CE51
330
1F
100
AcDbEntity
  8
0
 62
     7
370
     5
100
AcDbPoint
 10
597.1811595856864
 20
-452.2435397278421
 30
0.0
  0
POINT
  5
1CFFB
330
1F
100
AcDbEntity
  8
0
 62
     7
370
     5
100
AcDbPoint
 10
839.2202580447737
 20
-378.5041957660768
 30
0.0
  0
POINT
  5
1D009
330
1F
100
AcDbEntity
  8
0
 62
     7
370
     5
100
AcDbPoint
 10
825.6021750447738
 20
-448.0865117660767
 30
0.0
  0
POINT
  5
1D1B5
330
1F
100
AcDbEntity
  8
0
 62
     7
370
     5
100
AcDbPoint
 10
1100.187375054744
 20
-364.0090280464956
 30
0.0
  0
POINT
  5
1D1C3
330
1F
100
AcDbEntity
  8
0
 62
     7
370
     5
100
AcDbPoint
 10
1086.025427054744
 20
-454.4328780464955
 30
0.0
  0
POINT
  5
1D374
330
1F
100
AcDbEntity
  8
0
 62
     7
370
     5
100
AcDbPoint
 10
1381.669306853374
 20
-372.7791370028926
 30
0.0
  0
POINT
  5
1D382
330
1F
100
AcDbEntity
  8
0
 62
     7
370
     5
100
AcDbPoint
 10
1368.476322853373
 20
-450.1870130028925
 30
0.0
  0
POINT
  5
1D6D5
330
1F
100
AcDbEntity
  8
0
 62
     7
370
     5
100
AcDbPoint
 10
555.980533625745
 20
-586.1972507296687
 30
0.0
  0
POINT
  5
1D6E2
330
1F
100
AcDbEntity
  8
0
 62
     7
370
     5
100
AcDbPoint
 10
545.2688206257452
 20
-642.7388317296686
 30
0.0
  0
POINT
  5
1D913
330
1F
100
AcDbEntity
  8
0
 62
     7
370
     5
100
AcDbPoint
 10
811.7646110501747
 20
-579.6655508098913
 30
0.0
  0
POINT
  5
1D920
330
1F
100
AcDbEntity
  8
0
 62
     7
370
     5
100
AcDbPoint
 10
805.5538980501744
 20
-635.4594578098913
 30
0.0
  0
POINT
  5
1DA40
330
1F
100
AcDbEntity
  8
0
 62
     7
370
     5
100
AcDbPoint
 10
298.0831789389279
 20
-586.3373810040569
 30
0.0
  0
POINT
  5
1E2C1
330
1F
100
AcDbEntity
  8
0
 62
     7
370
     5
100
AcDbPoint
 10
1353.213944337289
 20
-176.2661773838116
 30
0.0
  0
POINT
  5
1E2CF
330
1F
100
AcDbEntity
  8
0
 62
     7
370
     5
100
AcDbPoint
 10
1348.289013337289
 20
-245.1888943838117
 30
0.0
  0
POINT
  5
1E2D0
330
1F
100
AcDbEntity
  8
0
 62
     7
370
     5
100
AcDbPoint
 10
1344.589013337289
 20
-245.1892063838116
 30
0.0
  0
POINT
  5
1E4A3
330
1F
100
AcDbEntity
  8
0
 62
     7
370
     5
100
AcDbPoint
 10
1326.152836266696
 20
34.20326680208106
 30
0.0
  0
POINT
  5
1E4B1
330
1F
100
AcDbEntity
  8
0
 62
     7
370
     5
100
AcDbPoint
 10
1326.493969266696
 20
-40.49850419791893
 30
0.0
  0
POINT
  5
20BCD
330
1F
100
AcDbEntity
  8
0
 62
     7
370
     5
100
AcDbPoint
 10
198.5275522941832
 20
-13.7218025139382
 30
0.0
  0
POINT
  5
20BD6
330
1F
100
AcDbEntity
  8
0
 62
     7
370
     5
100
AcDbPoint
 10
220.4558262941833
 20
15.6077834860618
 30
0.0
  0
POINT
  5
20BD7
330
1F
100
AcDbEntity
  8
0
 62
     7
370
     5
100
AcDbPoint
 10
198.4558262941832
 20
12.6077834860618
 30
0.0
  0
POINT
  5
20C58
330
1F
100
AcDbEntity
  8
0
 62
     7
370
     5
100
AcDbPoint
 10
414.326812844455
 20
11.02280615656721
 30
0.0
  0
POINT
  5
20C59
330
1F
100
AcDbEntity
  8
0
 62
     7
370
     5
100
AcDbPoint
 10
392.3268128444551
 20
7.022806156567212
 30
0.0
  0
POINT
  5
20C5C
330
1F
100
AcDbEntity
  8
0
 62
     7
370
     5
100
AcDbPoint
 10
392.3268138444551
 20
-22.29245184343279
 30
0.0
  0
POINT
  5
20CE3
330
1F
100
AcDbEntity
  8
0
 62
     7
370
     5
100
AcDbPoint
 10
595.8481562583682
 20
11.26212415656721
 30
0.0
  0
POINT
  5
20CE4
330
1F
100
AcDbEntity
  8
0
 62
     7
370
     5
100
AcDbPoint
 10
561.8481562583682
 20
3.262124156567208
 30
0.0
  0
POINT
  5
20CE6
330
1F
100
AcDbEntity
  8
0
 62
     7
370
     5
100
AcDbPoint
 10
561.8481562583682
 20
-39.26495684343278
 30
0.0
  0
POINT
  5
20D5E
330
1F
100
AcDbEntity
  8
0
 62
     7
370
     5
100
AcDbPoint
 10
796.8108405913596
 20
-1.622354670075452
 30
0.0
  0
POINT
  5
20D5F
330
1F
100
AcDbEntity
  8
0
 62
     7
370
     5
100
AcDbPoint
 10
771.8108405913596
 20
-6.622354670075452
 30
0.0
  0
POINT
  5
20D62
330
1F
100
AcDbEntity
  8
0
 62
     7
370
     5
100
AcDbPoint
 10
771.8108415913595
 20
-44.22139367007546
 30
0.0
  0
POINT
  5
20DE5
330
1F
100
AcDbEntity
  8
0
 62
     7
370
     5
100
AcDbPoint
 10
997.5956593431575
 20
6.154053161141687
 30
0.0
  0
POINT
  5
20DE6
330
1F
100
AcDbEntity
  8
0
 62
     7
370
     5
100
AcDbPoint
 10
963.5956593431576
 20
-3.84594683885831
 30
0.0
  0
POINT
  5
20DE8
330
1F
100
AcDbEntity
  8
0
 62
     7
370
     5
100
AcDbPoint
 10
963.5956593431576
 20
-48.6248158388583
 30
0.0
  0
POINT
  5
20E5D
330
1F
100
AcDbEntity
  8
0
 62
     7
370
     5
100
AcDbPoint
 10
209.7442369247441
 20
-211.8062287972217
 30
0.0
  0
POINT
  5
20E66
330
1F
100
AcDbEntity
  8
0
 62
     7
370
     5
100
AcDbPoint
 10
231.7442369247441
 20
-173.8710347972217
 30
0.0
  0
POINT
  5
20E67
330
1F
100
AcDbEntity
  8
0
 62
     7
370
     5
100
AcDbPoint
 10
209.7442369247441
 20
-179.3710347972217
 30
0.0
  0
POINT
  5
20EE1
330
1F
100
AcDbEntity
  8
0
 62
     7
370
     5
100
AcDbPoint
 10
384.6743099214819
 20
-210.4126915562921
 30
0.0
  0
POINT
  5
20EEB
330
1F
100
AcDbEntity
  8
0
 62
     7
370
     5
100
AcDbPoint
 10
409.6743099214817
 20
-168.248029556292
 30
0.0
  0
POINT
  5
20EEC
330
1F
100
AcDbEntity
  8
0
 62
     7
370
     5
100
AcDbPoint
 10
384.6743099214819
 20
-174.248029556292
 30
0.0
  0
POINT
  5
20F6B
330
1F
100
AcDbEntity
  8
0
 62
     7
370
     5
100
AcDbPoint
 10
589.027789486203
 20
-154.2267571311068
 30
0.0
  0
POINT
  5
20F6C
330
1F
100
AcDbEntity
  8
0
 62
     7
370
     5
100
AcDbPoint
 10
555.027789486203
 20
-166.2267571311068
 30
0.0
  0
POINT
  5
20F6E
330
1F
100
AcDbEntity
  8
0
 62
     7
370
     5
100
AcDbPoint
 10
555.027789486203
 20
-220.1583441311068
 30
0.0
  0
POINT
  5
20FE7
330
1F
100
AcDbEntity
  8
0
 62
     7
370
     5
100
AcDbPoint
 10
794.4609892408081
 20
-176.9240641499829
 30
0.0
  0
POINT
  5
20FE8
330
1F
100
AcDbEntity
  8
0
 62
     7
370
     5
100
AcDbPoint
 10
772.4609892408077
 20
-183.4240641499829
 30
0.0
  0
POINT
  5
20FEB
330
1F
100
AcDbEntity
  8
0
 62
     7
370
     5
100
AcDbPoint
 10
772.4609902408077
 20
-220.0080011499829
 30
0.0
  0
POINT
  5
21068
330
1F
100
AcDbEntity
  8
0
 62
     7
370
     5
100
AcDbPoint
 10
980.7257767233267
 20
-225.8659069279295
 30
0.0
  0
POINT
  5
21072
330
1F
100
AcDbEntity
  8
0
 62
     7
370
     5
100
AcDbPoint
 10
1000.725776723327
 20
-181.1593259279295
 30
0.0
  0
POINT
  5
21073
330
1F
100
AcDbEntity
  8
0
 62
     7
370
     5
100
AcDbPoint
 10
980.7257767233267
 20
-188.1593259279295
 30
0.0
  0
POINT
  5
24E51
330
1F
100
AcDbEntity
  8
0
 62
     7
370
     5
100
AcDbPoint
 10
233.2059843961101
 20
-36.0789366070161
 30
0.0
  0
POINT
  5
24E5A
330
1F
100
AcDbEntity
  8
0
 62
     7
370
     5
100
AcDbPoint
 10
314.4377803961102
 20
35.1487553929839
 30
0.0
  0
POINT
  5
24E5B
330
1F
100
AcDbEntity
  8
0
 62
     7
370
     5
100
AcDbPoint
 10
234.4377803961101
 20
19.1487553929839
 30
0.0
  0
POINT
  5
24ECD
330
1F
100
AcDbEntity
  8
0
 62
     7
370
     5
100
AcDbPoint
 10
503.7517578950278
 20
-44.34341865794009
 30
0.0
  0
POINT
  5
24ED5
330
1F
100
AcDbEntity
  8
0
 62
     7
370
     5
100
AcDbPoint
 10
589.9610418950277
 20
46.51953834205989
 30
0.0
  0
POINT
  5
24ED6
330
1F
100
AcDbEntity
  8
0
 62
     7
370
     5
100
AcDbPoint
 10
504.9610418950278
 20
26.51953834205989
 30
0.0
  0
POINT
  5
24F33
330
1F
100
AcDbEntity
  8
0
 62
     7
370
     5
100
AcDbPoint
 10
804.954816789268
 20
-53.36089903708293
 30
0.0
  0
POINT
  5
24F3B
330
1F
100
AcDbEntity
  8
0
 62
     7
370
     5
100
AcDbPoint
 10
901.222594789268
 20
37.79953596291708
 30
0.0
  0
POINT
  5
24F3C
330
1F
100
AcDbEntity
  8
0
 62
     7
370
     5
100
AcDbPoint
 10
806.2225947892681
 20
17.79953596291707
 30
0.0
  0
POINT
  5
24F9C
330
1F
100
AcDbEntity
  8
0
 62
     7
370
     5
100
AcDbPoint
 10
1210.776659634684
 20
28.2041337387349
 30
0.0
  0
POINT
  5
24F9D
330
1F
100
AcDbEntity
  8
0
 62
     7
370
     5
100
AcDbPoint
 10
1125.776659634684
 20
3.204133738734923
 30
0.0
  0
POINT
  5
24FA0
330
1F
100
AcDbEntity
  8
0
 62
     7
370
     5
100
AcDbPoint
 10
1122.825092634684
 20
-62.80906226126507
 30
0.0
  0
POINT
  5
25003
330
1F
100
AcDbEntity
  8
0
 62
     7
370
     5
100
AcDbPoint
 10
1533.294671945107
 20
39.46909335504969
 30
0.0
  0
POINT
  5
25004
330
1F
100
AcDbEntity
  8
0
 62
     7
370
     5
100
AcDbPoint
 10
1423.294671945108
 20
14.46909335504972
 30
0.0
  0
POINT
  5
25007
330
1F
100
AcDbEntity
  8
0
 62
     7
370
     5
100
AcDbPoint
 10
1423.294671945108
 20
-61.69357464495027
 30
0.0
  0
POINT
  5
25069
330
1F
100
AcDbEntity
  8
0
 62
     7
370
     5
100
AcDbPoint
 10
279.5191352462189
 20
-235.8578081995934
 30
0.0
  0
POINT
  5
2506A
330
1F
100
AcDbEntity
  8
0
 62
     7
370
     5
100
AcDbPoint
 10
224.5191352462189
 20
-255.8578081995934
 30
0.0
  0
POINT
  5
2506E
330
1F
100
AcDbEntity
  8
0
 62
     7
370
     5
100
AcDbPoint
 10
223.2724782462189
 20
-314.3072531995934
 30
0.0
  0
POINT
  5
250D0
330
1F
100
AcDbEntity
  8
0
 62
     7
370
     5
100
AcDbPoint
 10
552.5501754157779
 20
-231.1433806045495
 30
0.0
  0
POINT
  5
250D1
330
1F
100
AcDbEntity
  8
0
 62
     7
370
     5
100
AcDbPoint
 10
487.5501754157781
 20
-256.1433806045495
 30
0.0
  0
POINT
  5
250D5
330
1F
100
AcDbEntity
  8
0
 62
     7
370
     5
100
AcDbPoint
 10
487.5501754157781
 20
-323.3343576045494
 30
0.0
  0
POINT
  5
25137
330
1F
100
AcDbEntity
  8
0
 62
     7
370
     5
100
AcDbPoint
 10
855.1566106432487
 20
-229.371519220024
 30
0.0
  0
POINT
  5
25138
330
1F
100
AcDbEntity
  8
0
 62
     7
370
     5
100
AcDbPoint
 10
762.1566106432488
 20
-260.871519220024
 30
0.0
  0
POINT
  5
2513C
330
1F
100
AcDbEntity
  8
0
 62
     7
370
     5
100
AcDbPoint
 10
760.9104996432486
 20
-349.238300220024
 30
0.0
  0
POINT
  5
2519F
330
1F
100
AcDbEntity
  8
0
 62
     7
370
     5
100
AcDbPoint
 10
1192.36388959937
 20
-218.9805098816409
 30
0.0
  0
POINT
  5
251A0
330
1F
100
AcDbEntity
  8
0
 62
     7
370
     5
100
AcDbPoint
 10
1092.36388959937
 20
-258.9805098816409
 30
0.0
  0
POINT
  5
251A4
330
1F
100
AcDbEntity
  8
0
 62
     7
370
     5
100
AcDbPoint
 10
1092.54560259937
 20
-365.6111158816409
 30
0.0
  0
INSERT
  5
27822
330
1F
100
AcDbEntity
  8
SK2
100
AcDbBlockReference
  2
CERO_POINT
 10
-0.0000000000036948
 20
-0.0000000000000142
 30
0.0
  0
POINT
  5
27C4D
330
1F
100
AcDbEntity
  8
1
 62
     7
370
     5
100
AcDbPoint
 10
185.936684180983
 20
12.22790901277693
 30
0.0
  0
POINT
  5
27C4E
330
1F
100
AcDbEntity
  8
1
 62
     7
370
     5
100
AcDbPoint
 10
185.936684180983
 20
9.517281012776946
 30
0.0
  0
POINT
  5
27DA0
330
1F
100
AcDbEntity
  8
1
 62
     7
370
     5
100
AcDbPoint
 10
159.7240994851886
 20
22.81916357545765
 30
0.0
  0
POINT
  5
27DA1
330
1F
100
AcDbEntity
  8
1
 62
     7
370
     5
100
AcDbPoint
 10
159.7240994851886
 20
20.10853557545767
 30
0.0
  0
POINT
  5
28B80
330
1F
100
AcDbEntity
  8
0
 62
     7
370
     5
100
AcDbPoint
 10
-108.3844236581584
 20
-61.41399158543199
 30
0.0
  0
POINT
  5
28D5B
330
1F
100
AcDbEntity
  8
0
 62
     7
370
     5
100
AcDbPoint
 10
-94.15639370577505
 20
-48.79010226493504
 30
0.0
  0
LINE
  5
28EA8
330
1F
100
AcDbEntity
  8
4
100
AcDbLine
 10
26.25506800000004
 20
0.0
 30
0.0
 11
0.0
 21
0.0
 31
0.0
  0
DIMENSION
  5
28EA9
330
1F
100
AcDbEntity
  8
SK2
100
AcDbDimension
  2
*D29
 10
-27.94760599999999
 20
5.0
 30
0.0
 11
-27.94760599999999
 21
0.0620380000000011
 31
0.0
 70
   161
  1
M<>
 71
     5
 42
10.00000000000001
  3
MM_STANDARD
100
AcDbAlignedDimension
 13
-19.99999999999999
 23
-5.000000000000012
 33
0.0
 14
-19.99999999999999
 24
5.0
 34
0.0
1001
ACAD
1000
DSTYLE
1002
{
1070
    78
1070
     9
1070
    79
1070
     2
1070
    90
1070
     1
1070
   172
1070
     1
1070
   345
1005
14
1070
   346
1005
14
1070
   347
1005
14
1002
}
1001
ACAD_DSTYLE_DIMARC_LENGTH_SYMBOL
1070
   379
1070
     1
1001
ACAD_DSTYLE_DIM_LINETYPE
1070
   380
1005
14
1001
ACAD_DSTYLE_DIM_EXT1_LINETYPE
1070
   381
1005
14
1001
ACAD_DSTYLE_DIM_EXT2_LINETYPE
1070
   382
1005
14
  0
DIMENSION
  5
28ED1
330
1F
100
AcDbEntity
  8
2
100
AcDbDimension
  2
*D32
 10
22.95042633788216
 20
24.53433550604781
 30
0.0
 11
10.473461
 21
24.534751
 31
0.0
 70
   160
 71
     5
 42
4.199934514908118
  3
MM_STANDARD
100
AcDbAlignedDimension
 13
18.75
 23
9.765338000000012
 33
0.0
 14
22.94979000000001
 24
5.425596000000012
 34
0.0
 50
359.998092
100
AcDbRotatedDimension
1001
ACAD
1000
DSTYLE
1002
{
1070
   279
1070
     0
1070
    78
1070
     9
1070
    79
1070
     2
1070
    90
1070
     1
1070
   172
1070
     1
1070
   345
1005
14
1070
   346
1005
14
1070
   347
1005
14
1002
}
1001
ACAD_DSTYLE_DIMARC_LENGTH_SYMBOL
1070
   379
1070
     1
1001
ACAD_DSTYLE_DIM_LINETYPE
1070
   380
1005
14
1001
ACAD_DSTYLE_DIM_EXT1_LINETYPE
1070
   381
1005
14
1001
ACAD_DSTYLE_DIM_EXT2_LINETYPE
1070
   382
1005
14
  0
DIMENSION
  5
28EDF
330
1F
100
AcDbEntity
  8
2
100
AcDbDimension
  2
*D33
 10
22.11311000000001
 20
6.571299000000008
 30
0.0
 11
37.47290569110216
 21
18.12007695734767
 31
0.0
 70
   162
  1
<>~51%%d
 71
     5
 42
0.6806788758673318
  3
MM_STANDARD
100
AcDb2LineAngularDimension
 13
22.949791
 23
5.538084999999995
 33
0.0
 14
22.949791
 24
5.174170000000004
 34
0.0
 15
22.949791
 25
5.538084999999995
 35
0.0
 16
20.3018730045041
 26
17.12511207031642
 36
0.0
1001
ACAD
1000
DSTYLE
1002
{
1070
   279
1070
     0
1070
    78
1070
     9
1070
    79
1070
     2
1070
    90
1070
     1
1070
   172
1070
     1
1070
   345
1005
14
1070
   346
1005
14
1070
   347
1005
14
1002
}
1001
ACAD_DSTYLE_DIMARC_LENGTH_SYMBOL
1070
   379
1070
     1
1001
ACAD_DSTYLE_DIM_LINETYPE
1070
   380
1005
14
1001
ACAD_DSTYLE_DIM_EXT1_LINETYPE
1070
   381
1005
14
1001
ACAD_DSTYLE_DIM_EXT2_LINETYPE
1070
   382
1005
14
  0
DIMENSION
  5
28EEE
330
1F
100
AcDbEntity
  8
SK2
100
AcDbDimension
  2
*D34
 10
22.95090417488156
 20
38.88341482994961
 30
0.0
 11
1.474895000000004
 21
38.88413
 31
0.0
 70
   160
 71
     5
 42
42.94977580346323
  3
MM_STANDARD
100
AcDbAlignedDimension
 13
-19.99999999999999
 23
5.0
 33
0.0
 14
22.94979000000001
 24
5.425596000000012
 34
0.0
 50
359.998092
100
AcDbRotatedDimension
1001
ACAD
1000
DSTYLE
1002
{
1070
    78
1070
     9
1070
   271
1070
     0
1070
    79
1070
     2
1070
    90
1070
     1
1070
   172
1070
     1
1070
   345
1005
14
1070
   346
1005
14
1070
   347
1005
14
1002
}
1001
ACAD_DSTYLE_DIMARC_LENGTH_SYMBOL
1070
   379
1070
     1
1001
ACAD_DSTYLE_DIM_LINETYPE
1070
   380
1005
14
1001
ACAD_DSTYLE_DIM_EXT1_LINETYPE
1070
   381
1005
14
1001
ACAD_DSTYLE_DIM_EXT2_LINETYPE
1070
   382
1005
14
  0
POINT
  5
28EFC
330
1F
100
AcDbEntity
  8
1
 62
     7
370
     5
100
AcDbPoint
 10
-106.7295281183438
 20
-48.60914728134378
 30
0.0
  0
POINT
  5
28EFD
330
1F
100
AcDbEntity
  8
1
 62
     7
370
     5
100
AcDbPoint
 10
-106.7295281183438
 20
-51.31977528134378
 30
0.0
  0
DIMENSION
  5
29011
330
1F
100
AcDbEntity
  8
SK2
100
AcDbDimension
  2
*D38
 10
-38.65029521731933
 20
-9.000000000000023
 30
0.0
 11
-41.49630716391103
 21
-0.0000000000000017
 31
0.0
 70
    32
  1
%%C<>
 71
     5
 41
0.0
 42
18.00000000000001
  3
MM_STANDARD
100
AcDbAlignedDimension
 13
0.0
 23
9.0
 33
0.0
 14
0.0
 24
-9.000000000000012
 34
0.0
 50
90.0
100
AcDbRotatedDimension
1001
ACAD
1000
DSTYLE
1002
{
1070
    78
1070
     9
1070
    79
1070
     2
1070
    90
1070
     1
1070
   172
1070
     1
1070
   345
1005
14
1070
   346
1005
14
1070
   347
1005
14
1002
}
1001
ACAD_DSTYLE_DIMARC_LENGTH_SYMBOL
1070
   379
1070
     1
1001
ACAD_DSTYLE_DIM_LINETYPE
1070
   380
1005
14
1001
ACAD_DSTYLE_DIM_EXT1_LINETYPE
1070
   381
1005
14
1001
ACAD_DSTYLE_DIM_EXT2_LINETYPE
1070
   382
1005
14
  0
ARC
  5
2901D
330
1F
100
AcDbEntity
  8
1
100
AcDbCircle
 10
83.40060100000002
 20
45.111296
 30
0.0
 40
79.017157
100
AcDbArc
 50
217.449801
 51
218.358624
  0
SPLINE
  5
2901E
330
1F
100
AcDbEntity
  8
1
100
AcDbSpline
210
0.0
220
0.0
230
1.0
 70
     8
 71
     5
 72
    15
 73
     9
 74
     0
 42
0.000000001
 43
0.0000000001
 40
0.0
 40
0.0
 40
0.0
 40
0.0
 40
0.0
 40
0.0
 40
1.614507620795424
 40
1.614507620795424
 40
1.614507620795424
 40
1.771943326341415
 40
1.771943326341415
 40
1.771943326341415
 40
1.771943326341415
 40
1.771943326341415
 40
1.771943326341415
 10
20.67000293436681
 20
-2.93632173074522
 30
0.0
 10
20.5576807287253
 20
-2.789379950599823
 30
0.0
 10
20.4604963385141
 20
-2.627465101150021
 30
0.0
 10
20.3897458454724
 20
-2.46749231537872
 30
0.0
 10
20.3471447285103
 20
-2.298085301385726
 30
0.0
 10
20.3514907345518
 20
-2.150679183335014
 30
0.0
 10
20.35225434293831
 20
-2.137760378937513
 30
0.0
 10
20.3534006455221
 20
-2.125050254796021
 30
0.0
 10
20.35493558738052
 20
-2.11255637504442
 30
0.0
  0
LINE
  5
2901F
330
1F
100
AcDbEntity
  8
1
100
AcDbLine
 10
22.05
 20
-2.24314200000002
 30
0.0
 11
22.05
 21
-1.662118000000019
 31
0.0
  0
ARC
  5
29020
330
1F
100
AcDbEntity
  8
1
100
AcDbCircle
 10
27.54059800000004
 20
33.75679
 30
0.0
 40
36.415981
100
AcDbArc
 50
259.2187009999999
 51
261.328252
  0
ARC
  5
29021
330
1F
100
AcDbEntity
  8
1
100
AcDbCircle
 10
20.68382700000001
 20
-2.284737000000019
 30
0.0
 40
0.3305960000000016
100
AcDbArc
 50
146.4710550000006
 51
173.7187670000007
  0
LINE
  5
29022
330
1F
100
AcDbEntity
  8
1
100
AcDbLine
 10
22.05
 20
-4.691302000000021
 30
0.0
 11
21.43989400000001
 21
-3.925343000000026
 31
0.0
  0
LINE
  5
29023
330
1F
100
AcDbEntity
  8
1
100
AcDbLine
 10
22.05
 20
2.525773
 30
0.0
 11
22.05
 21
1.236654999999998
 31
0.0
  0
LINE
  5
29024
330
1F
100
AcDbEntity
  8
1
100
AcDbLine
 10
22.05
 20
-2.24314200000002
 30
0.0
 11
22.05
 21
-2.525774000000025
 31
0.0
  0
LINE
  5
29025
330
1F
100
AcDbEntity
  8
1
100
AcDbLine
 10
22.05
 20
-5.109840000000018
 30
0.0
 11
22.05
 21
-5.564230000000024
 31
0.0
  0
LINE
  5
29026
330
1F
100
AcDbEntity
  8
1
100
AcDbLine
 10
22.05
 20
-4.691302000000021
 30
0.0
 11
22.05
 21
-5.109840000000018
 31
0.0
  0
ARC
  5
29027
330
1F
100
AcDbEntity
  8
1
100
AcDbCircle
 10
-29.14290699999999
 20
47.570945
 30
0.0
 40
71.626799
100
AcDbArc
 50
314.75596
 51
315.620049
  0
LINE
  5
29028
330
1F
100
AcDbEntity
  8
1
100
AcDbLine
 10
17.618701
 20
-9.689959000000015
 30
0.0
 11
17.611897
 21
-9.695969000000019
 31
0.0
  0
SPLINE
  5
29029
330
1F
100
AcDbEntity
  8
1
100
AcDbSpline
210
0.0
220
0.0
230
1.0
 70
     8
 71
     5
 72
    15
 73
     9
 74
     0
 42
0.000000001
 43
0.0000000001
 40
0.0
 40
0.0
 40
0.0
 40
0.0
 40
0.0
 40
0.0
 40
7.136479315439187
 40
7.136479315439187
 40
7.136479315439187
 40
8.770358509778217
 40
8.770358509778217
 40
8.770358509778217
 40
8.770358509778217
 40
8.770358509778217
 40
8.770358509778217
 10
17.61189739404401
 20
-9.695969339898011
 30
0.0
 10
18.349718700921
 20
-9.030656215457112
 30
0.0
 10
19.08471216580101
 20
-8.362686956494512
 30
0.0
 10
19.81170477145101
 20
-7.694999343774924
 30
0.0
 10
20.70288898522161
 20
-6.864937461156812
 30
0.0
 10
21.57095845435781
 20
-6.03094019357482
 30
0.0
 10
21.73189363958581
 20
-5.87531986255442
 30
0.0
 10
21.8915973763437
 20
-5.719772305176918
 30
0.0
 10
22.0500000000002
 20
-5.564232681239318
 30
0.0
  0
LINE
  5
2902A
330
1F
100
AcDbEntity
  8
1
100
AcDbLine
 10
21.695099
 20
-5.282656000000017
 30
0.0
 11
22.05
 21
-5.109840000000018
 31
0.0
  0
LINE
  5
2902B
330
1F
100
AcDbEntity
  8
1
100
AcDbLine
 10
17.496489
 20
-8.600309000000024
 30
0.0
 11
17.496489
 21
-9.800000000000023
 31
0.0
  0
LINE
  5
2902C
330
1F
100
AcDbEntity
  8
1
100
AcDbLine
 10
17.496489
 20
-6.960232000000019
 30
0.0
 11
17.496489
 21
-8.600309000000024
 31
0.0
  0
SPLINE
  5
2902D
330
1F
100
AcDbEntity
  8
1
100
AcDbSpline
210
0.0
220
0.0
230
1.0
 70
     8
 71
     5
 72
    12
 73
     6
 74
     0
 42
0.000000001
 43
0.0000000001
 40
0.0
 40
0.0
 40
0.0
 40
0.0
 40
0.0
 40
0.0
 40
8.564167123596167
 40
8.564167123596167
 40
8.564167123596167
 40
8.564167123596167
 40
8.564167123596167
 40
8.564167123596167
 10
17.49648868920031
 20
-6.960232351801423
 30
0.0
 10
18.3648808381346
 20
-6.654441066626417
 30
0.0
 10
19.2255199914442
 20
-6.337862011999519
 30
0.0
 10
20.0772625544987
 20
-6.006431167043713
 30
0.0
 10
20.9093612841917
 20
-5.656467533549815
 30
0.0
 10
21.6950990103843
 20
-5.282655872095018
 30
0.0
  0
LINE
  5
2902E
330
1F
100
AcDbEntity
  8
1
100
AcDbLine
 10
17.496489
 20
6.898925000000004
 30
0.0
 11
17.496489
 21
-2.675173000000015
 31
0.0
  0
LINE
  5
2902F
330
1F
100
AcDbEntity
  8
1
100
AcDbLine
 10
17.496489
 20
-2.675173000000015
 30
0.0
 11
17.805161
 21
-2.592465000000018
 31
0.0
  0
ARC
  5
29030
330
1F
100
AcDbEntity
  8
1
100
AcDbCircle
 10
-0.1561939999999993
 20
-2.58397100000002
 30
0.0
 40
17.96162000000001
100
AcDbArc
 50
359.972904
 51
8.424221999999936
  0
LINE
  5
29031
330
1F
100
AcDbEntity
  8
1
100
AcDbLine
 10
17.611897
 20
0.0474690000000066
 30
0.0
 11
21.794436
 21
1.168176000000001
 31
0.0
  0
SPLINE
  5
29032
330
1F
100
AcDbEntity
  8
1
100
AcDbSpline
210
0.0
220
0.0
230
1.0
 70
     8
 71
     5
 72
    15
 73
     9
 74
     0
 42
0.000000001
 43
0.0000000001
 40
0.0
 40
0.0
 40
0.0
 40
0.0
 40
0.0
 40
0.0
 40
8.306180869081183
 40
8.306180869081183
 40
8.306180869081183
 40
9.348797706535425
 40
9.348797706535425
 40
9.348797706535425
 40
9.348797706535425
 40
9.348797706535425
 40
9.348797706535425
 10
17.49648868920031
 20
6.898924960378706
 30
0.0
 10
18.3387214656328
 20
6.120895810981707
 30
0.0
 10
19.1736613121643
 20
5.341016959195171
 30
0.0
 10
19.99958680618221
 20
4.558131233231577
 30
0.0
 10
20.9094619368349
 20
3.677365689579004
 30
0.0
 10
21.76735499509939
 20
2.813323709136853
 30
0.0
 10
21.8623882148746
 20
2.717144403149263
 30
0.0
 10
21.9566062796729
 20
2.621299169642981
 30
0.0
 10
22.0500000000002
 20
2.525773960143582
 30
0.0
  0
LINE
  5
29033
330
1F
100
AcDbEntity
  8
1
100
AcDbLine
 10
17.496489
 20
9.799999999999997
 30
0.0
 11
17.496489
 21
9.427801999999999
 31
0.0
  0
LINE
  5
29034
330
1F
100
AcDbEntity
  8
1
100
AcDbLine
 10
17.496489
 20
9.427801999999999
 30
0.0
 11
17.805161
 21
9.162366000000004
 31
0.0
  0
ELLIPSE
  5
29035
330
1F
100
AcDbEntity
  8
1
100
AcDbEllipse
 10
-76.30563000000002
 20
-81.48812099999998
 30
0.0
 11
93.94789886474608
 21
91.15538787841797
 31
0.0
210
0.0
220
0.0
230
1.0
 40
0.060728
 41
6.22329657311186
 42
6.287298621731138
  0
LINE
  5
29036
330
1F
100
AcDbEntity
  8
1
100
AcDbLine
 10
17.622968
 20
9.685986999999997
 30
0.0
 11
17.650593
 21
9.66107099999999
 31
0.0
  0
LINE
  5
29037
330
1F
100
AcDbEntity
  8
1
100
AcDbLine
 10
17.488873
 20
6.902053999999991
 30
0.0
 11
17.496489
 21
6.898925000000004
 31
0.0
  0
SPLINE
  5
29038
330
1F
100
AcDbEntity
  8
1
100
AcDbSpline
210
0.0
220
0.0
230
1.0
 70
     8
 71
     5
 72
    12
 73
     6
 74
     0
 42
0.000000001
 43
0.0000000001
 40
0.0
 40
0.0
 40
0.0
 40
0.0
 40
0.0
 40
0.0
 40
7.399078287210272
 40
7.399078287210272
 40
7.399078287210272
 40
7.399078287210272
 40
7.399078287210272
 40
7.399078287210272
 10
17.48887276268171
 20
6.902054009152932
 30
0.0
 10
16.7278717033971
 20
7.214659436136912
 30
0.0
 10
15.9932582086099
 20
7.559089449401453
 30
0.0
 10
15.28609293670121
 20
7.916184238863905
 30
0.0
 10
14.60486427970271
 20
8.262025276523019
 30
0.0
 10
13.94488438752821
 20
8.578368210200721
 30
0.0
  0
SPLINE
  5
29039
330
1F
100
AcDbEntity
  8
1
100
AcDbSpline
210
0.0
220
0.0
230
1.0
 70
     8
 71
     5
 72
    18
 73
    12
 74
     0
 42
0.000000001
 43
0.0000000001
 40
0.0
 40
0.0
 40
0.0
 40
0.0
 40
0.0
 40
0.0
 40
1.07714317224629
 40
1.07714317224629
 40
1.07714317224629
 40
1.573013970450668
 40
1.573013970450668
 40
1.573013970450668
 40
1.721214620294783
 40
1.721214620294783
 40
1.721214620294783
 40
1.721214620294783
 40
1.721214620294783
 40
1.721214620294783
 10
14.19894043385921
 20
9.131008105998192
 30
0.0
 10
14.0780639272642
 20
9.118384805440641
 30
0.0
 10
13.9615816727508
 20
9.097624744816499
 30
0.0
 10
13.84907197345851
 20
9.066422933032283
 30
0.0
 10
13.7224038572825
 20
9.002177283552313
 30
0.0
 10
13.6681589498705
 20
8.917731869429616
 30
0.0
 10
13.65932065059171
 20
8.889615967230836
 30
0.0
 10
13.6585101374106
 20
8.852089695337681
 30
0.0
 10
13.6702014683423
 20
8.814455115037903
 30
0.0
 10
13.6735382710134
 20
8.80579333803243
 30
0.0
 10
13.6774864974314
 20
8.797171123523668
 30
0.0
 10
13.6820244581577
 20
8.788588754843914
 30
0.0
  0
SPLINE
  5
2903A
330
1F
100
AcDbEntity
  8
1
100
AcDbSpline
210
0.0
220
0.0
230
1.0
 70
     8
 71
     5
 72
    12
 73
     6
 74
     0
 42
0.000000001
 43
0.0000000001
 40
0.0
 40
0.0
 40
0.0
 40
0.0
 40
0.0
 40
0.0
 40
0.819117091331466
 40
0.819117091331466
 40
0.819117091331466
 40
0.819117091331466
 40
0.819117091331466
 40
0.819117091331466
 10
13.6820244581577
 20
8.788588754843914
 30
0.0
 10
13.7071061375874
 20
8.741153302454975
 30
0.0
 10
13.750201902231
 20
8.694935927792343
 30
0.0
 10
13.8068842871381
 20
8.651998601631461
 30
0.0
 10
13.8723572903677
 20
8.613132049158494
 30
0.0
 10
13.94488438752821
 20
8.57836821020075
 30
0.0
  0
ARC
  5
2903B
330
1F
100
AcDbEntity
  8
1
100
AcDbCircle
 10
26.38810700000004
 20
-107.860226
 30
0.0
 40
117.624545
100
AcDbArc
 50
94.335307
 51
95.94811300000001
  0
LINE
  5
2903C
330
1F
100
AcDbEntity
  8
1
100
AcDbLine
 10
12.68331500000001
 20
-8.600309000000024
 30
0.0
 11
12.68331500000001
 21
9.799999999999997
 31
0.0
  0
LINE
  5
2903D
330
1F
100
AcDbEntity
  8
1
100
AcDbLine
 10
17.488873
 20
-6.957129000000022
 30
0.0
 11
17.496489
 21
-6.960232000000019
 31
0.0
  0
SPLINE
  5
2903E
330
1F
100
AcDbEntity
  8
1
100
AcDbSpline
210
0.0
220
0.0
230
1.0
 70
     8
 71
     5
 72
    12
 73
     6
 74
     0
 42
0.000000001
 43
0.0000000001
 40
0.0
 40
0.0
 40
0.0
 40
0.0
 40
0.0
 40
0.0
 40
7.555370524931372
 40
7.555370524931372
 40
7.555370524931372
 40
7.555370524931372
 40
7.555370524931372
 40
7.555370524931372
 10
17.48887276268171
 20
-6.957129469453321
 30
0.0
 10
16.7115233482088
 20
-6.640336309695513
 30
0.0
 10
15.9655711280696
 20
-6.255821647054816
 30
0.0
 10
15.2588825249188
 20
-5.804941106382117
 30
0.0
 10
14.58625289680569
 20
-5.294877097761613
 30
0.0
 10
13.94488438752821
 20
-4.738311814372025
 30
0.0
  0
SPLINE
  5
2903F
330
1F
100
AcDbEntity
  8
1
100
AcDbSpline
210
0.0
220
0.0
230
1.0
 70
     8
 71
     5
 72
    21
 73
    15
 74
     0
 42
0.000000001
 43
0.0000000001
 40
0.0
 40
0.0
 40
0.0
 40
0.0
 40
0.0
 40
0.0
 40
0.845706884003736
 40
0.845706884003736
 40
0.845706884003736
 40
1.680854462658017
 40
1.680854462658017
 40
1.680854462658017
 40
2.508738873100333
 40
2.508738873100333
 40
2.508738873100333
 40
2.767342585779884
 40
2.767342585779884
 40
2.767342585779884
 40
2.767342585779884
 40
2.767342585779884
 40
2.767342585779884
 10
14.19894043385921
 20
-3.558748511512917
 30
0.0
 10
14.1049324037707
 20
-3.583937887256722
 30
0.0
 10
14.0144474888055
 20
-3.621266094216123
 30
0.0
 10
13.92996046299831
 20
-3.671443658669816
 30
0.0
 10
13.7831316612089
 20
-3.796613847522919
 30
0.0
 10
13.6924327363495
 20
-3.961750172797323
 30
0.0
 10
13.66504159626101
 20
-4.050646277969021
 30
0.0
 10
13.647336621527
 20
-4.232333545165218
 30
0.0
 10
13.69569043008281
 20
-4.408100211469815
 30
0.0
 10
13.7343705387316
 20
-4.490792479309718
 30
0.0
 10
13.79990201260121
 20
-4.59092297699652
 30
0.0
 10
13.88164468247631
 20
-4.679341184111323
 30
0.0
 10
13.90199993848211
 20
-4.699749506649921
 30
0.0
 10
13.9230778155416
 20
-4.719388557707715
 30
0.0
 10
13.94488438752821
 20
-4.738311814372025
 30
0.0
  0
LINE
  5
29040
330
1F
100
AcDbEntity
  8
1
100
AcDbLine
 10
14.198941
 20
-3.558748000000023
 30
0.0
 11
17.496489
 21
-2.675173000000015
 31
0.0
  0
LINE
  5
29041
330
1F
100
AcDbEntity
  8
1
100
AcDbLine
 10
12.68331500000001
 20
-9.800000000000023
 30
0.0
 11
12.68331500000001
 21
-8.600309000000024
 31
0.0
  0
LINE
  5
29042
330
1F
100
AcDbEntity
  8
1
100
AcDbLine
 10
9.970382999999998
 20
-7.898243000000022
 30
0.0
 11
9.970382999999998
 21
-9.000000000000012
 31
0.0
  0
LINE
  5
29043
330
1F
100
AcDbEntity
  8
1
100
AcDbLine
 10
0.0
 20
-9.000000000000012
 30
0.0
 11
0.0
 21
-7.898243000000022
 31
0.0
  0
LINE
  5
29044
330
1F
100
AcDbEntity
  8
1
100
AcDbLine
 10
9.970382999999998
 20
-4.974937000000025
 30
0.0
 11
9.970382999999998
 21
-7.898243000000022
 31
0.0
  0
LINE
  5
29045
330
1F
100
AcDbEntity
  8
1
100
AcDbLine
 10
2.0
 20
-4.974937000000025
 30
0.0
 11
9.970382999999998
 21
-4.974937000000025
 31
0.0
  0
LINE
  5
29046
330
1F
100
AcDbEntity
  8
1
100
AcDbLine
 10
2.0
 20
-4.974937000000025
 30
0.0
 11
2.0
 21
4.974936999999997
 31
0.0
  0
LINE
  5
29047
330
1F
100
AcDbEntity
  8
1
100
AcDbLine
 10
9.970382999999998
 20
4.974936999999997
 30
0.0
 11
2.0
 21
4.974936999999997
 31
0.0
  0
LINE
  5
29048
330
1F
100
AcDbEntity
  8
1
100
AcDbLine
 10
9.970382999999998
 20
9.0
 30
0.0
 11
9.970382999999998
 21
4.974936999999997
 31
0.0
  0
LINE
  5
29049
330
1F
100
AcDbEntity
  8
1
100
AcDbLine
 10
0.0
 20
-7.898243000000022
 30
0.0
 11
0.0
 21
9.0
 31
0.0
  0
ARC
  5
2904A
330
1F
100
AcDbEntity
  8
1
100
AcDbCircle
 10
9.953755999999998
 20
7.919093000000002
 30
0.0
 40
2.944539999999996
100
AcDbArc
 50
270.32358
 51
290.809913
  0
ARC
  5
2904B
330
1F
100
AcDbEntity
  8
1
100
AcDbCircle
 10
9.953755999999998
 20
-7.919094000000012
 30
0.0
 40
2.944540000000004
100
AcDbArc
 50
69.19008900000003
 51
89.67641800000004
  0
LINE
  5
2904C
330
1F
100
AcDbEntity
  8
1
100
AcDbLine
 10
11.0
 20
-5.166271000000023
 30
0.0
 11
11.0
 21
5.166270999999995
 31
0.0
  0
LINE
  5
2904D
330
1F
100
AcDbEntity
  8
SK1
100
AcDbLine
 10
-9.456765000000004
 20
5.0
 30
0.0
 11
-9.456765000000004
 21
2.397127999999995
 31
0.0
  0
LINE
  5
2904E
330
1F
100
AcDbEntity
  8
SK1
100
AcDbLine
 10
-5.165736999999993
 20
5.25
 30
0.0
 11
-5.165736999999993
 21
2.516983999999994
 31
0.0
  0
LINE
  5
2904F
330
1F
100
AcDbEntity
  8
SK1
100
AcDbLine
 10
-9.456765000000004
 20
2.397127999999995
 30
0.0
 11
-9.456765000000004
 21
-5.000000000000012
 31
0.0
  0
LINE
  5
29050
330
1F
100
AcDbEntity
  8
SK1
100
AcDbLine
 10
-5.165736999999993
 20
2.516983999999994
 30
0.0
 11
-5.165736999999993
 21
-5.250000000000012
 31
0.0
  0
LINE
  5
29051
330
1F
100
AcDbEntity
  8
SK1
100
AcDbLine
 10
-19.99999999999999
 20
2.397127999999995
 30
0.0
 11
-19.99999999999999
 21
-5.000000000000012
 31
0.0
  0
LINE
  5
29052
330
1F
100
AcDbEntity
  8
SK1
100
AcDbLine
 10
-19.99999999999999
 20
5.0
 30
0.0
 11
-19.99999999999999
 21
2.397127999999995
 31
0.0
  0
LINE
  5
29053
330
1F
100
AcDbEntity
  8
1
100
AcDbLine
 10
16.26185700000001
 20
7.445521999999997
 30
0.0
 11
17.805161
 21
9.162366000000004
 31
0.0
  0
ELLIPSE
  5
29054
330
1F
100
AcDbEntity
  8
1
100
AcDbEllipse
 10
21.687163
 20
13.41535400000001
 30
0.0
 11
-0.0000000000000142
 21
-8.857481956481931
 31
0.0
210
0.0
220
0.0
230
1.0
 40
0.9659259999999997
 41
5.217263839330728
 42
5.347711996807372
  0
LINE
  5
29055
330
1F
100
AcDbEntity
  8
1
100
AcDbLine
 10
20.624589
 20
-2.044056000000026
 30
0.0
 11
20.35155900000001
 21
-2.28075200000002
 31
0.0
  0
LINE
  5
29056
330
1F
100
AcDbEntity
  8
1
100
AcDbLine
 10
16.106111
 20
-3.048905000000017
 30
0.0
 11
15.804439
 21
-3.129333000000017
 31
0.0
  0
LINE
  5
29057
330
1F
100
AcDbEntity
  8
1
100
AcDbLine
 10
15.804439
 20
-3.129333000000017
 30
0.0
 11
15.827034
 21
-3.122502000000026
 31
0.0
  0
ELLIPSE
  5
29058
330
1F
100
AcDbEntity
  8
1
100
AcDbEllipse
 10
16.401357
 20
-3.796834000000017
 30
0.0
 11
0.2070552408695221
 21
-0.772740662097931
 31
0.0
210
0.0
220
0.0
230
0.9999999999999998
 40
0.6420140000000001
 41
3.315287399457606
 42
5.061454830783548
  0
LINE
  5
29059
330
1F
100
AcDbEntity
  8
1
100
AcDbLine
 10
13.944884
 20
-4.738312000000021
 30
0.0
 11
16.00598299999999
 21
-4.186042000000013
 31
0.0
  0
SPLINE
  5
2905A
330
1F
100
AcDbEntity
  8
1
100
AcDbSpline
210
0.0
220
0.0
230
1.0
 70
     8
 71
     5
 72
    21
 73
    15
 74
     0
 42
0.000000001
 43
0.0000000001
 40
0.0
 40
0.0
 40
0.0
 40
0.0
 40
0.0
 40
0.0
 40
0.5276163085880281
 40
0.5276163085880281
 40
0.5276163085880281
 40
0.6635852485086137
 40
0.6635852485086137
 40
0.6635852485086137
 40
1.076470264593768
 40
1.076470264593768
 40
1.076470264593768
 40
1.349835062870784
 40
1.349835062870784
 40
1.349835062870784
 40
1.349835062870784
 40
1.349835062870784
 40
1.349835062870784
 10
17.4415544591624
 20
-3.202655826433116
 30
0.0
 10
17.3938804274263
 20
-3.223349793822221
 30
0.0
 10
17.3479669275717
 20
-3.253638438486121
 30
0.0
 10
17.3055961350144
 20
-3.29296174696222
 30
0.0
 10
17.2616172229656
 20
-3.35280277629542
 30
0.0
 10
17.23338775239951
 20
-3.42177722463272
 30
0.0
 10
17.2282850316688
 20
-3.436329262372622
 30
0.0
 10
17.2107297858671
 20
-3.496122943851018
 30
0.0
 10
17.2056878586326
 20
-3.559253965552826
 30
0.0
 10
17.2094796767619
 20
-3.607092365116016
 30
0.0
 10
17.22653522395841
 20
-3.684509151528017
 30
0.0
 10
17.2582672303037
 20
-3.756876761117326
 30
0.0
 10
17.2729800002372
 20
-3.784864836379526
 30
0.0
 10
17.2892874831837
 20
-3.811669036725419
 30
0.0
 10
17.3070228240595
 20
-3.837429535466112
 30
0.0
  0
ARC
  5
2905B
330
1F
100
AcDbEntity
  8
1
100
AcDbCircle
 10
17.563816
 20
-3.46287700000002
 30
0.0
 40
0.2870869999999989
100
AcDbArc
 50
63.2410850000009
 51
115.1657690000009
  0
SPLINE
  5
2905C
330
1F
100
AcDbEntity
  8
1
100
AcDbSpline
210
0.0
220
0.0
230
1.0
 70
     8
 71
     5
 72
    15
 73
     9
 74
     0
 42
0.000000001
 43
0.0000000001
 40
0.0
 40
0.0
 40
0.0
 40
0.0
 40
0.0
 40
0.0
 40
0.9275488375467912
 40
0.9275488375467912
 40
0.9275488375467912
 40
1.039031846016509
 40
1.039031846016509
 40
1.039031846016509
 40
1.039031846016509
 40
1.039031846016509
 40
1.039031846016509
 10
17.69298545238921
 20
-3.206708320479521
 30
0.0
 10
17.7702274813637
 20
-3.245803503152715
 30
0.0
 10
17.839515323182
 20
-3.313866681569123
 30
0.0
 10
17.9033206154066
 20
-3.406273581103122
 30
0.0
 10
17.9698220245653
 20
-3.506950849547521
 30
0.0
 10
18.0401879312506
 20
-3.603960605872216
 30
0.0
 10
18.0477899211733
 20
-3.614315698975516
 30
0.0
 10
18.0554503825347
 20
-3.624605056018723
 30
0.0
 10
18.063176420159
 20
-3.634818790037513
 30
0.0
  0
LINE
  5
2905D
330
1F
100
AcDbEntity
  8
1
100
AcDbLine
 10
20.67000300000001
 20
-2.936322000000017
 30
0.0
 11
18.063176
 21
-3.634819000000022
 31
0.0
  0
LINE
  5
2905E
330
1F
100
AcDbEntity
  8
1
100
AcDbLine
 10
17.307023
 20
-3.837430000000026
 30
0.0
 11
16.00598299999999
 21
-4.186042000000013
 31
0.0
  0
LINE
  5
2905F
330
1F
100
AcDbEntity
  8
1
100
AcDbLine
 10
16.00598299999999
 20
-4.186042000000013
 30
0.0
 11
17.488873
 21
-6.957129000000022
 31
0.0
  0
ELLIPSE
  5
29060
330
1F
100
AcDbEntity
  8
1
100
AcDbEllipse
 10
17.71582000000001
 20
-3.778662000000026
 30
0.0
 11
0.6013395190238953
 21
-0.7235659360885622
 31
0.0
210
0.0
220
0.0
230
1.0
 40
0.384369
 41
5.557504634717988
 42
7.735307165379499
  0
ELLIPSE
  5
29061
330
1F
100
AcDbEntity
  8
1
100
AcDbEllipse
 10
17.71582100000001
 20
-3.778659000000017
 30
0.0
 11
0.6013407111167908
 21
-0.7235687375068665
 31
0.0
210
0.0
220
0.0
230
1.0
 40
0.38437
 41
4.480642306306793
 42
5.557504571086472
  0
LINE
  5
29062
330
1F
100
AcDbEntity
  8
1
100
AcDbLine
 10
17.618701
 20
-9.689959000000015
 30
0.0
 11
17.496489
 21
-9.800000000000023
 31
0.0
  0
LINE
  5
29063
330
1F
100
AcDbEntity
  8
1
100
AcDbLine
 10
17.618701
 20
9.689958999999999
 30
0.0
 11
17.496489
 21
9.799999999999997
 31
0.0
  0
LINE
  5
29064
330
1F
100
AcDbEntity
  8
1
100
AcDbLine
 10
17.496489
 20
9.799999999999997
 30
0.0
 11
12.68331500000001
 21
9.799999999999997
 31
0.0
  0
LINE
  5
29065
330
1F
100
AcDbEntity
  8
1
100
AcDbLine
 10
17.496489
 20
-9.800000000000023
 30
0.0
 11
12.68331500000001
 21
-9.800000000000023
 31
0.0
  0
ARC
  5
29066
330
1F
100
AcDbEntity
  8
1
100
AcDbCircle
 10
9.970382999999998
 20
-14.00000000000001
 30
0.0
 40
4.999999999999997
100
AcDbArc
 50
57.14011999999993
 51
89.99999999999994
  0
LINE
  5
29067
330
1F
100
AcDbEntity
  8
1
100
AcDbLine
 10
9.970382999999998
 20
-9.000000000000012
 30
0.0
 11
0.0
 21
-9.000000000000012
 31
0.0
  0
LINE
  5
29068
330
1F
100
AcDbEntity
  8
1
100
AcDbLine
 10
9.970382999999998
 20
9.0
 30
0.0
 11
0.0
 21
9.0
 31
0.0
  0
ARC
  5
29069
330
1F
100
AcDbEntity
  8
1
100
AcDbCircle
 10
9.970382999999998
 20
14.0
 30
0.0
 40
5.0
100
AcDbArc
 50
270.0
 51
302.85988
  0
ARC
  5
2906A
330
1F
100
AcDbEntity
  8
SK1
100
AcDbCircle
 10
-7.385533999999991
 20
6.400000000000004
 30
0.0
 40
2.499999999999996
100
AcDbArc
 50
214.0557980000002
 51
332.6128930000002
  0
ARC
  5
2906B
330
1F
100
AcDbEntity
  8
SK1
100
AcDbCircle
 10
-7.385533999999991
 20
-6.400000000000019
 30
0.0
 40
2.500000000000003
100
AcDbArc
 50
27.38710699999989
 51
145.9442019999999
  0
LINE
  5
2906C
330
1F
100
AcDbEntity
  8
SK1
100
AcDbLine
 10
0.0
 20
-5.250000000000012
 30
0.0
 11
-5.165736999999993
 21
-5.250000000000012
 31
0.0
  0
LINE
  5
2906D
330
1F
100
AcDbEntity
  8
SK1
100
AcDbLine
 10
0.0
 20
5.25
 30
0.0
 11
-5.165736999999993
 21
5.25
 31
0.0
  0
LINE
  5
2906E
330
1F
100
AcDbEntity
  8
SK1
100
AcDbLine
 10
-9.456765000000004
 20
-5.000000000000012
 30
0.0
 11
-19.99999999999999
 21
-5.000000000000012
 31
0.0
  0
LINE
  5
2906F
330
1F
100
AcDbEntity
  8
SK1
100
AcDbLine
 10
-9.456765000000004
 20
5.0
 30
0.0
 11
-19.99999999999999
 21
5.0
 31
0.0
  0
ELLIPSE
  5
29070
330
1F
100
AcDbEntity
  8
1
100
AcDbEllipse
 10
18.846636
 20
6.225583999999997
 30
0.0
 11
0.0
 21
-1.059999942779539
 31
0.0
210
0.0
220
0.0
230
1.0
 40
0.9659259999999999
 41
0.4128037412980979
 42
2.779874787492017
  0
LINE
  5
29071
330
1F
100
AcDbEntity
  8
1
100
AcDbLine
 10
22.895043
 20
5.079071999999995
 30
0.0
 11
21.28872700000001
 21
3.29213
 31
0.0
  0
ARC
  5
29072
330
1F
100
AcDbEntity
  8
1
100
AcDbCircle
 10
22.75240100000001
 20
5.225941000000005
 30
0.0
 40
0.1970090000000005
100
AcDbArc
 50
22.77647199999945
 51
35.47717999999945
  0
ARC
  5
29073
330
1F
100
AcDbEntity
  8
1
100
AcDbCircle
 10
22.737021
 20
5.221889000000004
 30
0.0
 40
0.2129160000000027
100
AcDbArc
 50
317.8932840000005
 51
22.1790740000005
  0
ARC
  5
29074
330
1F
100
AcDbEntity
  8
1
100
AcDbCircle
 10
9.320086000000003
 20
-4.326553000000018
 30
0.0
 40
16.679015
100
AcDbArc
 50
35.41951499999998
 51
56.69356299999998
  0
ARC
  5
29075
330
1F
100
AcDbEntity
  8
1
100
AcDbCircle
 10
18.375517
 20
9.449420999999999
 30
0.0
 40
0.1933250000000077
100
AcDbArc
 50
57.70913299999933
 51
139.4682029999993
  0
LINE
  5
29076
330
1F
100
AcDbEntity
  8
1
100
AcDbLine
 10
16.29825
 20
7.428422999999995
 30
0.0
 11
18.228196
 21
9.575385999999996
 31
0.0
  0
ELLIPSE
  5
29077
330
1F
100
AcDbEntity
  8
1
100
AcDbEllipse
 10
19.57133
 20
6.225583999999997
 30
0.0
 11
0.0
 21
-1.059999942779539
 31
0.0
210
0.0
220
0.0
230
1.0
 40
0.9659259999999999
 41
3.141472809802754
 42
5.059347319455963
  0
ELLIPSE
  5
29078
330
1F
100
AcDbEntity
  8
1
100
AcDbEllipse
 10
19.57133
 20
6.225583999999997
 30
0.0
 11
0.0
 21
-1.059999942779539
 31
0.0
210
0.0
220
0.0
230
1.0
 40
0.9659259999999999
 41
6.031726560941749
 42
6.283065463392547
  0
ELLIPSE
  5
29079
330
1F
100
AcDbEntity
  8
1
100
AcDbEllipse
 10
19.57133
 20
6.225583999999997
 30
0.0
 11
0.0
 21
-1.059999942779539
 31
0.0
210
0.0
220
0.0
230
1.0
 40
0.9659259999999999
 41
6.283065463392547
 42
7.104499454438308
  0
ELLIPSE
  5
2907A
330
1F
100
AcDbEntity
  8
1
100
AcDbEllipse
 10
19.57133
 20
6.225583999999997
 30
0.0
 11
0.0
 21
-1.059999942779539
 31
0.0
210
0.0
220
0.0
230
1.0
 40
0.9659259999999999
 41
0.8213141472587221
 42
3.141472809802754
  0
LINE
  5
2907B
330
1F
100
AcDbEntity
  8
1
100
AcDbLine
 10
18.228196
 20
9.575385999999996
 30
0.0
 11
18.112702
 21
9.849996000000004
 31
0.0
  0
LINE
  5
2907C
330
1F
100
AcDbEntity
  8
1
100
AcDbLine
 10
17.66134000000001
 20
9.646535
 30
0.0
 11
18.112702
 21
9.849996000000004
 31
0.0
  0
ARC
  5
2907D
330
1F
100
AcDbEntity
  8
1
100
AcDbCircle
 10
18.266367
 20
9.712445999999999
 30
0.0
 40
0.2062260000000034
100
AcDbArc
 50
114.3969090000014
 51
138.1673630000014
  0
ARC
  5
2907E
330
1F
100
AcDbEntity
  8
1
100
AcDbCircle
 10
18.26043800000001
 20
9.728911999999994
 30
0.0
 40
0.1886640000000019
100
AcDbArc
 50
57.02368600000205
 51
114.8222250000021
  0
LINE
  5
2907F
330
1F
100
AcDbEntity
  8
1
100
AcDbLine
 10
22.797338
 20
5.614889000000005
 30
0.0
 11
22.745745
 21
5.686757999999997
 31
0.0
  0
LINE
  5
29080
330
1F
100
AcDbEntity
  8
1
100
AcDbLine
 10
18.36308100000001
 20
9.887112
 30
0.0
 11
18.43599500000001
 21
9.839015000000003
 31
0.0
  0
ARC
  5
29081
330
1F
100
AcDbEntity
  8
1
100
AcDbCircle
 10
22.63718
 20
5.500697000000002
 30
0.0
 40
0.1966999999999988
100
AcDbArc
 50
22.77991300000222
 51
35.48884300000221
  0
LINE
  5
29082
330
1F
100
AcDbEntity
  8
1
100
AcDbLine
 10
22.91283200000001
 20
5.340278999999995
 30
0.0
 11
22.797338
 21
5.614889000000005
 31
0.0
  0
SPLINE
  5
29083
330
1F
100
AcDbEntity
  8
1
100
AcDbSpline
210
0.0
220
0.0
230
1.0
 70
     8
 71
     5
 72
    18
 73
    12
 74
     0
 42
0.000000001
 43
0.0000000001
 40
0.5023872400998465
 40
0.5023872400998465
 40
0.5023872400998465
 40
0.5023872400998465
 40
0.5023872400998465
 40
0.5023872400998465
 40
4.764544049339538
 40
4.764544049339538
 40
4.764544049339538
 40
8.212081646334681
 40
8.212081646334681
 40
8.212081646334681
 40
11.52161577632496
 40
11.52161577632496
 40
11.52161577632496
 40
11.52161577632496
 40
11.52161577632496
 40
11.52161577632496
 10
18.4359952444336
 20
9.839014426613983
 30
0.0
 10
18.81779955904311
 20
9.544257328154998
 30
0.0
 10
19.201695288202
 20
9.237264699216552
 30
0.0
 10
19.5851681907821
 20
8.918377900582681
 30
0.0
 10
20.26779064724241
 20
8.32502106455648
 30
0.0
 10
20.9109955091959
 20
7.71696598161523
 30
0.0
 10
21.1938017427688
 20
7.438315311704882
 30
0.0
 10
21.70751004887761
 20
6.910071434286963
 30
0.0
 10
22.1624984464583
 20
6.400302791570822
 30
0.0
 10
22.3729723569467
 20
6.153529666736459
 30
0.0
 10
22.5667976123559
 20
5.915973106916069
 30
0.0
 10
22.7457375332297
 20
5.68675453794674
 30
0.0
  0
LINE
  5
29084
330
1F
100
AcDbEntity
  8
1
100
AcDbLine
 10
18.478576
 20
9.612502000000006
 30
0.0
 11
18.36308100000001
 21
9.887112
 31
0.0
  0
LINE
  5
29085
330
1F
100
AcDbEntity
  8
1
100
AcDbLine
 10
17.64890700000001
 20
9.660311000000008
 30
0.0
 11
18.18118800000001
 21
9.900248000000003
 31
0.0
  0
LINE
  5
29086
330
1F
100
AcDbEntity
  8
1
100
AcDbLine
 10
22.934049
 20
5.302210999999998
 30
0.0
 11
22.818539
 21
5.576858000000001
 31
0.0
  0
ARC
  5
29087
330
1F
100
AcDbEntity
  8
1
100
AcDbCircle
 10
22.739093
 20
5.221362999999995
 30
0.0
 40
0.2108859999999923
100
AcDbArc
 50
317.6221409999997
 51
34.38969999999973
  0
LINE
  5
29088
330
1F
100
AcDbEntity
  8
1
100
AcDbLine
 10
22.895043
 20
5.079071999999995
 30
0.0
 11
21.28872700000001
 21
3.29213
 31
0.0
  0
LINE
  5
29089
330
1F
100
AcDbEntity
  8
1
100
AcDbLine
 10
16.29825
 20
7.428422999999995
 30
0.0
 11
18.228196
 21
9.575385999999996
 31
0.0
  0
ARC
  5
2908A
330
1F
100
AcDbEntity
  8
1
100
AcDbCircle
 10
18.375517
 20
9.449420999999999
 30
0.0
 40
0.1933250000000077
100
AcDbArc
 50
57.70913299999933
 51
139.4682029999993
  0
ARC
  5
2908B
330
1F
100
AcDbEntity
  8
1
100
AcDbCircle
 10
9.320086000000003
 20
-4.326553000000018
 30
0.0
 40
16.679015
100
AcDbArc
 50
35.41951499999998
 51
56.69356299999998
  0
LINE
  5
2908C
330
1F
100
AcDbEntity
  8
1
100
AcDbLine
 10
22.895043
 20
1.435689999999994
 30
0.0
 11
22.05
 21
1.662119000000004
 31
0.0
  0
LINE
  5
2908D
330
1F
100
AcDbEntity
  8
1
100
AcDbLine
 10
22.95
 20
1.420963999999996
 30
0.0
 11
22.895043
 21
1.435689999999994
 31
0.0
  0
LINE
  5
2908E
330
1F
100
AcDbEntity
  8
1
100
AcDbLine
 10
22.834506
 20
0.002523999999994
 30
0.0
 11
22.83159000000001
 21
0.0033070000000066
 31
0.0
  0
LINE
  5
2908F
330
1F
100
AcDbEntity
  8
1
100
AcDbLine
 10
22.895043
 20
1.435689999999994
 30
0.0
 11
22.786237
 21
0.0993930000000063
 31
0.0
  0
LINE
  5
29090
330
1F
100
AcDbEntity
  8
1
100
AcDbLine
 10
22.950001
 20
1.420963999999996
 30
0.0
 11
22.834506
 21
0.002523999999994
 31
0.0
  0
LINE
  5
29091
330
1F
100
AcDbEntity
  8
1
100
AcDbLine
 10
22.94990300000001
 20
1.420990000000003
 30
0.0
 11
22.895043
 21
1.435689999999994
 31
0.0
  0
LINE
  5
29092
330
1F
100
AcDbEntity
  8
1
100
AcDbLine
 10
22.895043
 20
1.435689999999994
 30
0.0
 11
22.05
 21
1.662119000000004
 31
0.0
  0
LINE
  5
29093
330
1F
100
AcDbEntity
  8
1
100
AcDbLine
 10
22.04996800000001
 20
1.662126999999996
 30
0.0
 11
22.91283200000001
 21
1.430923000000005
 31
0.0
  0
ARC
  5
29094
330
1F
100
AcDbEntity
  8
1
100
AcDbCircle
 10
17.652064
 20
-9.457301000000015
 30
0.0
 40
0.1856179999999986
100
AcDbArc
 50
276.2913279999987
 51
303.2665239999986
  0
ARC
  5
29095
330
1F
100
AcDbEntity
  8
1
100
AcDbCircle
 10
8.611260000000001
 20
4.308544999999995
 30
0.0
 40
16.655124
100
AcDbArc
 50
303.294834
 51
323.26772
  0
LINE
  5
29096
330
1F
100
AcDbEntity
  8
1
100
AcDbLine
 10
22.05
 20
-5.530980000000011
 30
0.0
 11
22.18813900000001
 21
-5.340279000000021
 31
0.0
  0
ARC
  5
29097
330
1F
100
AcDbEntity
  8
1
100
AcDbCircle
 10
22.014363
 20
-5.221386000000021
 30
0.0
 40
0.2109219999999951
100
AcDbArc
 50
325.62111
 51
42.375776
  0
LINE
  5
29098
330
1F
100
AcDbEntity
  8
1
100
AcDbLine
 10
22.17035
 20
-5.079072000000025
 30
0.0
 11
22.05000100000001
 21
-4.945190000000025
 31
0.0
  0
ARC
  5
29099
330
1F
100
AcDbEntity
  8
1
100
AcDbCircle
 10
20.760807
 20
-3.013323000000013
 30
0.0
 40
0.2062130000000021
100
AcDbArc
 50
41.83264000000188
 51
65.60431400000187
  0
LINE
  5
2909A
330
1F
100
AcDbEntity
  8
1
100
AcDbLine
 10
20.510974
 20
-2.693899000000016
 30
0.0
 11
20.914463
 21
-2.875781000000017
 31
0.0
  0
LINE
  5
2909B
330
1F
100
AcDbEntity
  8
1
100
AcDbLine
 10
22.895043
 20
-5.079072000000025
 30
0.0
 11
20.914463
 21
-2.875781000000017
 31
0.0
  0
ARC
  5
2909C
330
1F
100
AcDbEntity
  8
1
100
AcDbCircle
 10
22.737021
 20
-5.221889000000018
 30
0.0
 40
0.2129159999999975
100
AcDbArc
 50
337.8209260000016
 51
42.1067160000016
  0
ARC
  5
2909D
330
1F
100
AcDbEntity
  8
1
100
AcDbCircle
 10
18.26043800000001
 20
-9.728912000000024
 30
0.0
 40
0.1886639999999991
100
AcDbArc
 50
245.1777749999986
 51
302.9763139999986
  0
LINE
  5
2909E
330
1F
100
AcDbEntity
  8
1
100
AcDbLine
 10
17.753882
 20
-9.612502000000018
 30
0.0
 11
18.36308100000001
 21
-9.887112000000016
 31
0.0
  0
LINE
  5
2909F
330
1F
100
AcDbEntity
  8
1
100
AcDbLine
 10
22.18813900000001
 20
-5.340279000000021
 30
0.0
 11
22.797338
 21
-5.614889000000019
 31
0.0
  0
LINE
  5
290A0
330
1F
100
AcDbEntity
  8
1
100
AcDbLine
 10
22.797338
 20
-5.614889000000019
 30
0.0
 11
22.745745
 21
-5.686758000000025
 31
0.0
  0
SPLINE
  5
290A1
330
1F
100
AcDbEntity
  8
1
100
AcDbSpline
210
0.0
220
0.0
230
1.0
 70
     8
 71
     5
 72
    18
 73
    12
 74
     0
 42
0.000000001
 43
0.0000000001
 40
0.502151655081422
 40
0.502151655081422
 40
0.502151655081422
 40
0.502151655081422
 40
0.502151655081422
 40
0.502151655081422
 40
4.066606102456836
 40
4.066606102456836
 40
4.066606102456836
 40
7.524212728860522
 40
7.524212728860522
 40
7.524212728860522
 40
11.51775886342234
 40
11.51775886342234
 40
11.51775886342234
 40
11.51775886342234
 40
11.51775886342234
 40
11.51775886342234
 10
18.4360169150935
 20
-9.838997696614312
 30
0.0
 10
18.6287590768431
 20
-9.592103623210419
 30
0.0
 10
18.838841795669
 20
-9.335461454279922
 30
0.0
 10
19.0686582289438
 20
-9.067766597226919
 30
0.0
 10
19.54904823894171
 20
-8.534935964548223
 30
0.0
 10
20.0916456282491
 20
-7.984126379325418
 30
0.0
 10
20.37924622571531
 20
-7.704310061835415
 30
0.0
 10
21.0075112751678
 20
-7.117560473603718
 30
0.0
 10
21.6691004519669
 20
-6.547215080548625
 30
0.0
 10
22.02843154057621
 20
-6.249843071805827
 30
0.0
 10
22.3880053055917
 20
-5.962923510713026
 30
0.0
 10
22.7457465223885
 20
-5.686743022997718
 30
0.0
  0
LINE
  5
290A2
330
1F
100
AcDbEntity
  8
1
100
AcDbLine
 10
18.36308100000001
 20
-9.887112000000016
 30
0.0
 11
18.43599500000001
 21
-9.839015000000015
 31
0.0
  0
ARC
  5
290A3
330
1F
100
AcDbEntity
  8
1
100
AcDbCircle
 10
22.63718
 20
-5.500697000000016
 30
0.0
 40
0.1967000000000062
100
AcDbArc
 50
324.5111569999999
 51
337.2200869999999
  0
ARC
  5
290A4
330
1F
100
AcDbEntity
  8
1
100
AcDbCircle
 10
22.621534
 20
-5.496497000000019
 30
0.0
 40
0.2129099999999968
100
AcDbArc
 50
337.8087860000006
 51
42.10758100000066
  0
LINE
  5
290A5
330
1F
100
AcDbEntity
  8
1
100
AcDbLine
 10
22.17035
 20
-5.079072000000025
 30
0.0
 11
22.779549
 21
-5.353682000000018
 31
0.0
  0
LINE
  5
290A6
330
1F
100
AcDbEntity
  8
1
100
AcDbLine
 10
22.895043
 20
-5.079072000000025
 30
0.0
 11
22.779549
 21
-5.353682000000018
 31
0.0
  0
SPLINE
  5
290A7
330
1F
100
AcDbEntity
  8
1
100
AcDbSpline
210
0.0
220
0.0
230
1.0
 70
     8
 71
     5
 72
    18
 73
    12
 74
     0
 42
0.000000001
 43
0.0000000001
 40
0.5023872400998465
 40
0.5023872400998465
 40
0.5023872400998465
 40
0.5023872400998465
 40
0.5023872400998465
 40
0.5023872400998465
 40
4.764544049339538
 40
4.764544049339538
 40
4.764544049339538
 40
8.212081646334681
 40
8.212081646334681
 40
8.212081646334681
 40
11.52161577632496
 40
11.52161577632496
 40
11.52161577632496
 40
11.52161577632496
 40
11.52161577632496
 40
11.52161577632496
 10
18.4359952444336
 20
-9.839014426614014
 30
0.0
 10
18.81779955904311
 20
-9.544257328155028
 30
0.0
 10
19.201695288202
 20
-9.237264699216522
 30
0.0
 10
19.5851681907821
 20
-8.918377900582726
 30
0.0
 10
20.26779064724241
 20
-8.325021064556523
 30
0.0
 10
20.9109955091959
 20
-7.716965981615217
 30
0.0
 10
21.1938017427688
 20
-7.438315311704925
 30
0.0
 10
21.70751004887761
 20
-6.910071434286918
 30
0.0
 10
22.1624984464583
 20
-6.400302791570822
 30
0.0
 10
22.3729723569467
 20
-6.153529666736417
 30
0.0
 10
22.5667976123559
 20
-5.915973106916027
 30
0.0
 10
22.7457375332297
 20
-5.686754537946725
 30
0.0
  0
LINE
  5
290A8
330
1F
100
AcDbEntity
  8
1
100
AcDbLine
 10
20.497028
 20
-2.668232000000017
 30
0.0
 11
20.845977
 21
-2.825529000000017
 31
0.0
  0
LINE
  5
290A9
330
1F
100
AcDbEntity
  8
1
100
AcDbLine
 10
17.650593
 20
-9.661071000000019
 30
0.0
 11
18.18118800000001
 21
-9.900248000000019
 31
0.0
  0
LINE
  5
290AA
330
1F
100
AcDbEntity
  8
1
100
AcDbLine
 10
22.934049
 20
-5.302211000000012
 30
0.0
 11
22.818539
 21
-5.576858000000016
 31
0.0
  0
ARC
  5
290AB
330
1F
100
AcDbEntity
  8
1
100
AcDbCircle
 10
22.737072
 20
-5.221873000000016
 30
0.0
 40
0.2128650000000022
100
AcDbArc
 50
337.4822259999988
 51
42.1127989999987
  0
LINE
  5
290AC
330
1F
100
AcDbEntity
  8
1
100
AcDbLine
 10
22.895043
 20
-5.079072000000025
 30
0.0
 11
20.914463
 21
-2.875781000000017
 31
0.0
  0
ARC
  5
290AD
330
1F
100
AcDbEntity
  8
1
100
AcDbCircle
 10
20.76089900000001
 20
-3.013210000000015
 30
0.0
 40
0.2060679999999993
100
AcDbArc
 50
41.82632500000113
 51
66.17230000000112
  0
LINE
  5
290AE
330
1F
100
AcDbEntity
  8
1
100
AcDbLine
 10
17.753882
 20
0.0855130000000059
 30
0.0
 11
17.611898
 21
0.0474690000000066
 31
0.0
  0
LINE
  5
290AF
330
1F
100
AcDbEntity
  8
1
100
AcDbLine
 10
17.753882
 20
0.0855130000000059
 30
0.0
 11
22.18813900000001
 21
1.273668999999998
 31
0.0
  0
LINE
  5
290B0
330
1F
100
AcDbEntity
  8
1
100
AcDbLine
 10
22.18813900000001
 20
1.273668999999998
 30
0.0
 11
22.225307
 21
1.283627999999992
 31
0.0
  0
LINE
  5
290B1
330
1F
100
AcDbEntity
  8
1
100
AcDbLine
 10
16.19265900000001
 20
-3.231588000000015
 30
0.0
 11
16.24761600000001
 21
-3.216863000000017
 31
0.0
  0
LINE
  5
290B2
330
1F
100
AcDbEntity
  8
1
100
AcDbLine
 10
16.160588
 20
-3.033128000000017
 30
0.0
 11
16.24761600000001
 21
-3.216863000000017
 31
0.0
  0
LINE
  5
290B3
330
1F
100
AcDbEntity
  8
1
100
AcDbLine
 10
22.91283200000001
 20
-1.430923000000019
 30
0.0
 11
22.95
 21
-1.420964000000024
 31
0.0
  0
LINE
  5
290B4
330
1F
100
AcDbEntity
  8
1
100
AcDbLine
 10
18.478576
 20
-2.619079000000013
 30
0.0
 11
22.91283200000001
 21
-1.430923000000019
 31
0.0
  0
LINE
  5
290B5
330
1F
100
AcDbEntity
  8
1
100
AcDbLine
 10
18.478576
 20
-2.619079000000013
 30
0.0
 11
18.228196
 21
-2.686168000000023
 31
0.0
  0
LINE
  5
290B6
330
1F
100
AcDbEntity
  8
1
100
AcDbLine
 10
16.24761600000001
 20
-3.216863000000017
 30
0.0
 11
18.228196
 21
-2.686168000000023
 31
0.0
  0
LINE
  5
290B7
330
1F
100
AcDbEntity
  8
1
100
AcDbLine
 10
18.228196
 20
-2.686168000000023
 30
0.0
 11
18.112702
 21
-1.267728000000019
 31
0.0
  0
LINE
  5
290B8
330
1F
100
AcDbEntity
  8
1
100
AcDbLine
 10
17.661269
 20
-0.3146540000000044
 30
0.0
 11
18.112702
 21
-1.267728000000019
 31
0.0
  0
LINE
  5
290B9
330
1F
100
AcDbEntity
  8
1
100
AcDbLine
 10
18.112702
 20
-1.267728000000019
 30
0.0
 11
18.36308100000001
 21
-1.200639000000024
 31
0.0
  0
LINE
  5
290BA
330
1F
100
AcDbEntity
  8
1
100
AcDbLine
 10
17.753882
 20
0.0855130000000059
 30
0.0
 11
18.36308100000001
 21
-1.200639000000024
 31
0.0
  0
LINE
  5
290BB
330
1F
100
AcDbEntity
  8
1
100
AcDbLine
 10
22.18813900000001
 20
1.273668999999998
 30
0.0
 11
22.797338
 21
-0.0124830000000031
 31
0.0
  0
LINE
  5
290BC
330
1F
100
AcDbEntity
  8
1
100
AcDbLine
 10
22.797338
 20
-0.0124830000000031
 30
0.0
 11
22.745745
 21
-0.0263080000000002
 31
0.0
  0
SPLINE
  5
290BD
330
1F
100
AcDbEntity
  8
1
100
AcDbSpline
210
0.0
220
0.0
230
1.0
 70
     8
 71
     5
 72
    18
 73
    12
 74
     0
 42
0.000000001
 43
0.0000000001
 40
0.502151655081422
 40
0.502151655081422
 40
0.502151655081422
 40
0.502151655081422
 40
0.502151655081422
 40
0.502151655081422
 40
4.066606102456836
 40
4.066606102456836
 40
4.066606102456836
 40
7.524212728860522
 40
7.524212728860522
 40
7.524212728860522
 40
11.51775886342234
 40
11.51775886342234
 40
11.51775886342234
 40
11.51775886342234
 40
11.51775886342234
 40
11.51775886342234
 10
18.4360169150935
 20
-1.181113301795419
 30
0.0
 10
18.6287590768431
 20
-0.8754046049550224
 30
0.0
 10
18.838841795669
 20
-0.5939404965412223
 30
0.0
 10
19.0686582289438
 20
-0.3402360732159479
 30
0.0
 10
19.54904823894171
 20
0.079081499206282
 30
0.0
 10
20.0916456282491
 20
0.3408813425647992
 30
0.0
 10
20.37924622571531
 20
0.4292571002760753
 30
0.0
 10
21.0075112751678
 20
0.5205533014416801
 30
0.0
 10
21.6691004519669
 20
0.4193767287452346
 30
0.0
 10
22.02843154057621
 20
0.3129367626586372
 30
0.0
 10
22.3880053055917
 20
0.1621955995433808
 30
0.0
 10
22.7457465223885
 20
-0.0262919033494882
 30
0.0
  0
LINE
  5
290BE
330
1F
100
AcDbEntity
  8
1
100
AcDbLine
 10
18.36308100000001
 20
-1.200639000000024
 30
0.0
 11
18.43599500000001
 21
-1.181102000000024
 31
0.0
  0
LINE
  5
290BF
330
1F
100
AcDbEntity
  8
1
100
AcDbLine
 10
22.797338
 20
-0.0124830000000031
 30
0.0
 11
22.834506
 21
-0.002523999999994
 31
0.0
  0
LINE
  5
290C0
330
1F
100
AcDbEntity
  8
1
100
AcDbLine
 10
22.91283200000001
 20
-1.430923000000019
 30
0.0
 11
22.797338
 21
-0.0124830000000031
 31
0.0
  0
SPLINE
  5
290C1
330
1F
100
AcDbEntity
  8
1
100
AcDbSpline
210
0.0
220
0.0
230
1.0
 70
     8
 71
     5
 72
    18
 73
    12
 74
     0
 42
0.000000001
 43
0.0000000001
 40
0.5023872400998465
 40
0.5023872400998465
 40
0.5023872400998465
 40
0.5023872400998465
 40
0.5023872400998465
 40
0.5023872400998465
 40
4.764544049339538
 40
4.764544049339538
 40
4.764544049339538
 40
8.212081646334681
 40
8.212081646334681
 40
8.212081646334681
 40
11.52161577632496
 40
11.52161577632496
 40
11.52161577632496
 40
11.52161577632496
 40
11.52161577632496
 40
11.52161577632496
 10
18.4359952444335
 20
-1.181101883874418
 30
0.0
 10
18.81779955904311
 20
-1.382269416605225
 30
0.0
 10
19.201695288202
 20
-1.540443858101325
 30
0.0
 10
19.5851681907821
 20
-1.64765916321852
 30
0.0
 10
20.26779064724241
 20
-1.73179619956602
 30
0.0
 10
20.9109955091959
 20
-1.607801933010222
 30
0.0
 10
21.1938017427688
 20
-1.50637279469012
 30
0.0
 10
21.70751004887761
 20
-1.230443667241119
 30
0.0
 10
22.1624984464583
 20
-0.812072647755613
 30
0.0
 10
22.3729723569467
 20
-0.5730418813261479
 30
0.0
 10
22.5667976123559
 20
-0.3101419800994023
 30
0.0
 10
22.7457375332297
 20
-0.0263061620642873
 30
0.0
  0
LINE
  5
290C2
330
1F
100
AcDbEntity
  8
1
100
AcDbLine
 10
18.478576
 20
-2.619079000000013
 30
0.0
 11
18.36308100000001
 21
-1.200639000000024
 31
0.0
  0
LINE
  5
290C3
330
1F
100
AcDbEntity
  8
1
100
AcDbLine
 10
16.105631
 20
-3.047854000000013
 30
0.0
 11
16.19265800000001
 21
-3.231589000000012
 31
0.0
  0
LINE
  5
290C4
330
1F
100
AcDbEntity
  8
1
100
AcDbLine
 10
22.225308
 20
1.283627999999992
 30
0.0
 11
22.834506
 21
-0.002523999999994
 31
0.0
  0
LINE
  5
290C5
330
1F
100
AcDbEntity
  8
1
100
AcDbLine
 10
22.950001
 20
-1.420964000000024
 30
0.0
 11
22.834506
 21
-0.002523999999994
 31
0.0
  0
LINE
  5
290C6
330
1F
100
AcDbEntity
  8
1
100
AcDbLine
 10
22.91283200000001
 20
-1.430923000000019
 30
0.0
 11
22.95
 21
-1.420964000000024
 31
0.0
  0
LINE
  5
290C7
330
1F
100
AcDbEntity
  8
1
100
AcDbLine
 10
16.19265900000001
 20
-3.231588000000015
 30
0.0
 11
16.24761600000001
 21
-3.216863000000017
 31
0.0
  0
LINE
  5
290C8
330
1F
100
AcDbEntity
  8
1
100
AcDbLine
 10
16.24761600000001
 20
-3.216863000000017
 30
0.0
 11
18.228196
 21
-2.686168000000023
 31
0.0
  0
LINE
  5
290C9
330
1F
100
AcDbEntity
  8
1
100
AcDbLine
 10
18.478576
 20
-2.619079000000013
 30
0.0
 11
18.228196
 21
-2.686168000000023
 31
0.0
  0
LINE
  5
290CA
330
1F
100
AcDbEntity
  8
1
100
AcDbLine
 10
18.478576
 20
-2.619079000000013
 30
0.0
 11
22.91283200000001
 21
-1.430923000000019
 31
0.0
  0
DIMENSION
  5
2914E
330
1F
100
AcDbEntity
  8
2
100
AcDbDimension
  2
*D39
 10
49.2069179230869
 20
-10.0
 30
0.0
 11
49.20691792308688
 21
0.0
 31
0.0
 70
   160
  1
%%C<>
 71
     5
 41
0.0
 42
20.00000000000001
  3
MM_STANDARD
100
AcDbAlignedDimension
 13
18.394622
 23
10.0
 33
0.0
 14
18.394622
 24
-10.00000000000001
 34
0.0
 50
90.0
100
AcDbRotatedDimension
1001
ACAD
1000
DSTYLE
1002
{
1070
   279
1070
     0
1070
    76
1070
     1
1070
   282
1070
     1
1070
   271
1070
     0
1070
    78
1070
     9
1070
    79
1070
     2
1070
    90
1070
     1
1070
   172
1070
     1
1070
   345
1005
14
1070
   346
1005
14
1070
   347
1005
14
1070
     7
1000
_NONE
1070
   173
1070
     1
1002
}
1001
ACAD_DSTYLE_DIMARC_LENGTH_SYMBOL
1070
   379
1070
     1
1001
ACAD_DSTYLE_DIM_LINETYPE
1070
   380
1005
14
1001
ACAD_DSTYLE_DIM_EXT1_LINETYPE
1070
   381
1005
14
1001
ACAD_DSTYLE_DIM_EXT2_LINETYPE
1070
   382
1005
14
  0
LINE
  5
29181
330
1F
100
AcDbEntity
  8
SK4
100
AcDbLine
 10
0.0
 20
0.0
 30
0.0
 11
-24.205552
 21
0.0
 31
0.0
  0
LINE
  5
291A8
330
1F
100
AcDbEntity
  8
SK3
100
AcDbLine
 10
12.13397500000001
 20
1.316373999999995
 30
0.0
 11
12.13397500000001
 21
-1.500000000000014
 31
0.0
  0
LINE
  5
291A9
330
1F
100
AcDbEntity
  8
SK3
100
AcDbLine
 10
12.13397500000001
 20
1.5
 30
0.0
 11
12.13397500000001
 21
-1.316374000000024
 31
0.0
  0
LINE
  5
291BA
330
1F
100
AcDbEntity
  8
SK3
100
AcDbLine
 10
13.0
 20
0.0
 30
0.0
 11
12.13397500000001
 21
-1.500000000000014
 31
0.0
  0
LINE
  5
291BB
330
1F
100
AcDbEntity
  8
SK3
100
AcDbLine
 10
13.0
 20
0.0
 30
0.0
 11
12.13397500000001
 21
1.5
 31
0.0
  0
LINE
  5
291BC
330
1F
100
AcDbEntity
  8
SK3
100
AcDbLine
 10
12.13397500000001
 20
-1.500000000000014
 30
0.0
 11
-19.99999999999999
 21
-1.500000000000014
 31
0.0
  0
LINE
  5
291BD
330
1F
100
AcDbEntity
  8
SK3
100
AcDbLine
 10
12.13397500000001
 20
1.5
 30
0.0
 11
-19.99999999999999
 21
1.5
 31
0.0
  0
LINE
  5
2921C
330
1F
100
AcDbEntity
  8
SK3
100
AcDbLine
 10
11.55723489736251
 20
1.5
 30
0.0
 11
16.0650791521421
 21
7.538810228100886
 31
0.0
  0
LINE
  5
2921D
330
1F
100
AcDbEntity
  8
SK3
100
AcDbLine
 10
12.4495235717287
 20
0.9534535866828406
 30
0.0
 11
17.0339168816013
 21
7.09481066217262
 31
0.0
  0
DIMENSION
  5
29887
330
1F
100
AcDbEntity
  8
2
100
AcDbDimension
  2
*D40
 10
22.94979000000001
 20
31.88451209874822
 30
0.0
 11
11.47489500000001
 21
34.33207007485504
 31
0.0
 70
    32
 71
     5
 41
0.0
 42
22.94979000000001
  3
MM_STANDARD
100
AcDbAlignedDimension
 13
0.0
 23
9.0
 33
0.0
 14
22.94979000000001
 24
5.425596000000012
 34
0.0
100
AcDbRotatedDimension
1001
ACAD
1000
DSTYLE
1002
{
1070
   279
1070
     0
1070
   271
1070
     0
1070
    78
1070
     9
1070
    79
1070
     2
1070
    90
1070
     1
1070
   172
1070
     1
1070
   345
1005
14
1070
   346
1005
14
1070
   347
1005
14
1002
}
1001
ACAD_DSTYLE_DIMARC_LENGTH_SYMBOL
1070
   379
1070
     1
1001
ACAD_DSTYLE_DIM_LINETYPE
1070
   380
1005
14
1001
ACAD_DSTYLE_DIM_EXT1_LINETYPE
1070
   381
1005
14
1001
ACAD_DSTYLE_DIM_EXT2_LINETYPE
1070
   382
1005
14
  0
LWPOLYLINE
  5
29A00
330
1F
100
AcDbEntity
  8
CUT
100
AcDbPolyline
 90
      796
 70
     1
 43
0.0
 10
18.246763
 20
9.915502999999999
 10
16.11931398155036
 20
7.756006875827026
 10
16.11805918733226
 20
7.754702418535408
 10
16.1168288850319
 20
7.753360632991276
 10
16.11562997834997
 20
7.751988486657967
 10
16.11446285494678
 20
7.75058626025641
 10
16.1133279499331
 20
7.749154360283942
 10
16.11222573383939
 20
7.747693295761165
 10
16.11115670058509
 20
7.746203654978808
 10
16.11012135544785
 20
7.744686082244568
 10
16.10912020303277
 20
7.743141254629978
 10
16.10815373524164
 20
7.741569858717239
 10
16.10722241924223
 20
7.739972567346106
 10
16.10632668543749
 20
7.738350016360713
 10
16.10546691543481
 20
7.736702781356437
 10
16.10464343001528
 20
7.735031354426761
 10
16.10385647710294
 20
7.733336120910112
 10
16.10310621973399
 20
7.731617336136727
 10
16.10239272402609
 20
7.7298751021755
 10
16.10171594714756
 20
7.728109344580841
 10
16.10107574599696
 20
7.726319808529763
 10
16.10047211950172
 20
7.724506339377835
 10
16.09990520790583
 20
7.722669076984906
 10
16.09937515927344
 20
7.720808371036372
 10
16.09888212398677
 20
7.718924748802456
 10
16.09842625181223
 20
7.717018884730965
 10
16.09800768896655
 20
7.715091570040037
 10
16.09762657518293
 20
7.713143682310918
 10
16.09728304077718
 20
7.711176155080707
 10
16.09697720371386
 20
7.709189947435111
 10
16.09670916667243
 20
7.707186013601223
 10
16.09647901411338
 20
7.705165272540253
 10
16.09628680934436
 20
7.703128577540304
 10
16.09613259158639
 20
7.70107668580913
 10
16.09601637303986
 20
7.699010228066883
 10
16.09593813595083
 20
7.696929678138888
 10
16.09589782967707
 20
7.694835322548371
 10
16.09589536775423
 20
7.69272723010926
 10
16.09593062510445
 20
7.690605221752884
 10
16.09600349570924
 20
7.688468978561432
 10
16.09611397776667
 20
7.6863184663569
 10
16.09626203589034
 20
7.684153916062922
 10
16.09644758176039
 20
7.681975766081555
 10
16.09667048041964
 20
7.67978463106282
 10
16.0969305565696
 20
7.677581270674236
 10
16.09722760086656
 20
7.675366558370352
 10
16.09756137621761
 20
7.673141450162267
 10
16.09793162407674
 20
7.670906953387183
 10
16.09833807074087
 20
7.668664095477929
 10
16.09878043364591
 20
7.666413892732482
 10
16.09925842766282
 20
7.664157319083514
 10
16.09977177139366
 20
7.66189527486792
 10
16.1003201934677
 20
7.659628555596354
 10
16.10090343883738
 20
7.657357820722749
 10
16.10152127507445
 20
7.655083562413866
 10
16.10217349866599
 20
7.652806074318813
 10
16.10285994131048
 20
7.650525420338587
 10
16.10358047673421
 20
7.648241404640208
 10
16.10433505700855
 20
7.645953698898981
 10
16.10512366023298
 20
7.643662210426595
 10
16.10594616971289
 20
7.641367076889964
 10
16.1068023751517
 20
7.639068627975249
 10
16.10769198474424
 20
7.636767358110724
 10
16.10861463726998
 20
7.634463899189672
 10
16.10956991418633
 20
7.632158993293243
 10
16.11055735172197
 20
7.629853465413351
 10
16.11157645297011
 20
7.627548196175537
 10
16.1126266999818
 20
7.625244094561855
 10
16.11370756585922
 20
7.622942070633748
 10
16.11481852684897
 20
7.620643008254928
 10
16.11595907443537
 20
7.618347737814249
 10
16.11712872743376
 20
7.616057008948589
 10
16.11832704408377
 20
7.613771463265727
 10
16.11955363414264
 20
7.611491607067222
 10
16.12080817097849
 20
7.609217784071287
 10
16.12209040366366
 20
7.606950148135673
 10
16.12340016906794
 20
7.604688635980544
 10
16.12473742606844
 20
7.602432972492468
 10
16.12610225595336
 20
7.600182912517677
 10
16.12749464196324
 20
7.597938405002237
 10
16.12891443284009
 20
7.595699575978226
 10
16.13036135923708
 20
7.59346670600445
 10
16.13183505012966
 20
7.591240207607797
 10
16.1333350492266
 20
7.589020602724581
 10
16.13486083138115
 20
7.586808500141892
 10
16.13641181900214
 20
7.584604572938932
 10
16.13798739846503
 20
7.582409535928367
 10
16.13958693652306
 20
7.580224123097681
 10
16.14120979671836
 20
7.578049065050509
 10
16.14285535579301
 20
7.575885066447987
 10
16.14452302010015
 20
7.573732783450103
 10
16.14621224201511
 20
7.571592801157041
 10
16.1479225363465
 20
7.569465611050519
 10
16.14965349674729
 20
7.56735158843515
 10
16.15140481212595
 20
7.565250969879775
 10
16.15317628305752
 20
7.563163830658812
 10
16.15496783819298
 20
7.561090062195613
 10
16.16178417145073
 20
7.553271033253424
 10
16.16860273589932
 20
7.545453535105951
 10
16.17542353049174
 20
7.537637565985694
 10
16.18224655384365
 20
7.529823124490721
 10
16.18907180439042
 20
7.522010209405006
 10
16.195899280392
 20
7.514198819693277
 10
16.20272897993791
 20
7.506388954495822
 10
16.20956090095209
 20
7.498580613123333
 10
16.21639504119785
 20
7.490773795051738
 10
16.22323139828278
 20
7.482968499917022
 10
16.23006996966367
 20
7.475164727510062
 10
16.23691075265144
 20
7.467362477771463
 10
16.24375374441601
 20
7.459561750786368
 10
16.25059894199127
 20
7.451762546779322
 10
16.25744634227998
 20
7.44396486610907
 10
16.26429594205867
 20
7.436168709263398
 10
16.27114773798259
 20
7.428374076853973
 10
16.27800172659058
 20
7.42058096961116
 10
16.28485790431003
 20
7.412789388378857
 10
16.29171626746181
 20
7.404999334109326
 10
16.2985768122651
 20
7.397210807858026
 10
16.3054395348424
 20
7.389423810778432
 10
16.31230443122442
 20
7.381638344116878
 10
16.31917149735498
 20
7.373854409207383
 10
16.32604072909593
 20
7.366072007466477
 10
16.3329121222321
 20
7.358291140388034
 10
16.33978567247615
 20
7.350511809538105
 10
16.34666137547357
 20
7.342734016549742
 10
16.35353922680753
 20
7.334957763117835
 10
16.36041922200383
 20
7.327183050993938
 10
16.36730135653582
 20
7.319409881981099
 10
16.37418562582929
 20
7.311638257928692
 10
16.38107202526741
 20
7.303868180727246
 10
16.38796055019565
 20
7.296099652303277
 10
16.39485119592668
 20
7.288332674614112
 10
16.40174395774528
 20
7.280567249642727
 10
16.40863883091332
 20
7.272803379392576
 10
16.41553581067457
 20
7.265041065882414
 10
16.42243489225972
 20
7.257280311141138
 10
16.42933607089123
 20
7.249521117202604
 10
16.43623934178829
 20
7.241763486100474
 10
16.44314470017169
 20
7.234007419863028
 10
16.45005214126881
 20
7.226252920508009
 10
16.45696166031844
 20
7.218499990037442
 10
16.46387325257578
 20
7.210748630432473
 10
16.47078691331732
 20
7.202998843648193
 10
16.47770263784577
 20
7.195250631608472
 10
16.48462042149495
 20
7.18750399620079
 10
16.49154025963475
 20
7.179758939271057
 10
16.49846214767602
 20
7.172015462618457
 10
16.50538608107547
 20
7.164273567990272
 10
16.51231205534064
 20
7.156533257076707
 10
16.51924006603477
 20
7.148794531505735
 10
16.52617010878173
 20
7.141057392837911
 10
16.53310217927095
 20
7.133321842561207
 10
16.54003627326232
 20
7.125587882085849
 10
16.54697238659111
 20
7.117855512739139
 10
16.5539105151729
 20
7.110124735760289
 10
16.5608506550085
 20
7.102395552295248
 10
16.56779280218881
 20
7.09466796339154
 10
16.57473695289985
 20
7.086941969993082
 10
16.58168310342754
 20
7.079217572935027
 10
16.58863125016274
 20
7.07149477293858
 10
16.59558138960609
 20
7.063773570605849
 10
16.60253351837296
 20
7.056053966414647
 10
16.60948763319834
 20
7.048335960713349
 10
16.61644373094179
 20
7.040619553715705
 10
16.62340180859235
 20
7.032904745495677
 10
16.63036186327344
 20
7.025191535982268
 10
16.63732389224777
 20
7.017479924954355
 10
16.6442878929223
 20
7.009769912035507
 10
16.65125386285312
 20
7.002061496688837
 10
16.65822179975037
 20
6.994354678211808
 10
16.66519170148318
 20
6.986649455731082
 10
16.672167271861
 20
6.97894174258127
 10
16.67922138844983
 20
6.971151194592655
 10
16.68641409579153
 20
6.963211643961662
 10
16.69370107783281
 20
6.955171997749142
 10
16.70097940642887
 20
6.947145772956512
 10
16.70813881739447
 20
6.939254537148921
 10
16.71511298655494
 20
6.931571349078438
 10
16.72193041882948
 20
6.924064626392945
 10
16.72868626583149
 20
6.916629281767047
 10
16.73540731864809
 20
6.909235745339731
 10
16.74211051627049
 20
6.901865380348297
 10
16.74881454734129
 20
6.894497658984267
 10
16.75553735469499
 20
6.887112896701139
 10
16.76229363989843
 20
6.879694986522142
 10
16.76909236779135
 20
6.872234133347985
 10
16.77593465086103
 20
6.864729170238462
 10
16.78281261464726
 20
6.857188774691694
 10
16.78970712414168
 20
6.849633930899091
 10
16.79659732287709
 20
6.842087475103806
 10
16.80347343504767
 20
6.834560072296434
 10
16.81033533326292
 20
6.827051799578951
 10
16.81718090144187
 20
6.819564887549398
 10
16.82400531416783
 20
6.812104511751106
 10
16.83080316454217
 20
6.804676480413345
 10
16.83757141922052
 20
6.79728402669341
 10
16.8443089650156
 20
6.789928300952089
 10
16.851016318242
 20
6.782608686171778
 10
16.85769544178348
 20
6.775322996455162
 10
16.86434956216009
 20
6.768067675523884
 10
16.87098298659551
 20
6.760837995217232
 10
16.8775891800709
 20
6.753640996439369
 10
16.88409977961941
 20
6.746550824160503
 10
16.890452687846
 20
6.739634811865641
 10
16.89662039507934
 20
6.732922743309776
 10
16.90260443670955
 20
6.726412872969888
 10
16.90842978382339
 20
6.720078018897253
 10
16.91413923383944
 20
6.713871655569731
 10
16.91978780114336
 20
6.707734006744085
 10
16.92543710772301
 20
6.701598138308272
 10
16.93114977380374
 20
6.695396051133742
 10
16.93698380848353
 20
6.689064773927754
 10
16.94298700036821
 20
6.682552456085661
 10
16.94919130820668
 20
6.675824460543224
 10
16.95560725152609
 20
6.668869456628911
 10
16.96221830126705
 20
6.661705512916191
 10
16.96897527041885
 20
6.654386190075852
 10
16.97579599555403
 20
6.647000885600286
 10
16.98264026853689
 20
6.639593417945588
 10
16.98951437471841
 20
6.632157069921277
 10
16.99642196499308
 20
6.624687956244486
 10
17.00336332182846
 20
6.617185824894558
 10
17.01033603309119
 20
6.609653329131075
 10
17.01733566587323
 20
6.602095299511911
 10
17.02435644031791
 20
6.594518015911258
 10
17.03139190344608
 20
6.586928479537681
 10
17.03843560298223
 20
6.579333684952151
 10
17.0454817611806
 20
6.571739892086089
 10
17.05252594865137
 20
6.564151898259409
 10
17.05956575818667
 20
6.556572310198554
 10
17.0666014785868
 20
6.549000816054544
 10
17.07363676848634
 20
6.541433457421008
 10
17.08067749135128
 20
6.53386388661611
 10
17.08772377785457
 20
6.526291937689046
 10
17.09477424784324
 20
6.518719074099143
 10
17.10182919358867
 20
6.511144958732103
 10
17.1088930683712
 20
6.503564785812363
 10
17.11596193737652
 20
6.495982725186553
 10
17.12301896287916
 20
6.488416781765137
 10
17.1300578340393
 20
6.480873726651315
 10
17.13709619343276
 20
6.473334714066552
 10
17.14416291155179
 20
6.465768875106788
 10
17.15128423511273
 20
6.458148146899779
 10
17.15846967237197
 20
6.450462390261316
 10
17.16570240689593
 20
6.442729668369484
 10
17.17295986219545
 20
6.434974216703919
 10
17.18022808255777
 20
6.427211026020851
 10
17.18745582685913
 20
6.419494725851713
 10
17.19453735267159
 20
6.411937985842884
 10
17.20147328578723
 20
6.404540107766625
 10
17.20834783482301
 20
6.397211318014291
 10
17.215277653355
 20
6.389827276764147
 10
17.22236070205247
 20
6.382283587149177
 10
17.22962511081212
 20
6.374550304424889
 10
17.23698516156392
 20
6.366718851983952
 10
17.24435299558727
 20
6.358882889556022
 10
17.25171884322526
 20
6.351052782661549
 10
17.25907624494298
 20
6.343235356953445
 10
17.26641733362689
 20
6.335438919230971
 10
17.27373596662605
 20
6.327669940124668
 10
17.28104929907682
 20
6.319910214248919
 10
17.28838301104252
 20
6.312132495663994
 10
17.29574429269102
 20
6.304329097598106
 10
17.30310892079719
 20
6.296525600740699
 10
17.31043981452735
 20
6.288761223543502
 10
17.31770608905346
 20
6.281068645030599
 10
17.32490461217285
 20
6.273451162012531
 10
17.33206356695086
 20
6.265878910603338
 10
17.33921548918854
 20
6.258317436390384
 10
17.34637129054672
 20
6.250755207795054
 10
17.35352937469326
 20
6.243193931524553
 10
17.36069028513302
 20
6.235633034176854
 10
17.36785410872309
 20
6.228072422093535
 10
17.37502064097478
 20
6.220512308016419
 10
17.38218959378602
 20
6.212952992736425
 10
17.38936080317374
 20
6.20539464674241
 10
17.39653442915856
 20
6.197837100102804
 10
17.40371076922664
 20
6.190280037913855
 10
17.41088987932256
 20
6.1827233985108
 10
17.41807177756165
 20
6.175167160144428
 10
17.42525646759602
 20
6.167611316455108
 10
17.43244393955866
 20
6.160055875455416
 10
17.4396341710074
 20
6.152500858512769
 10
17.44682712786895
 20
6.144946299332034
 10
17.45402276538294
 20
6.137392242938165
 10
17.4612210290459
 20
6.129838744658826
 10
17.46842185555534
 20
6.122285869107005
 10
17.47562517375367
 20
6.114733689163657
 10
17.48283090557238
 20
6.107182284960313
 10
17.49003896697586
 20
6.099631742861713
 10
17.4972492689056
 20
6.092082154448426
 10
17.5044617182241
 20
6.084533615499482
 10
17.51167621865896
 20
6.076986224974994
 10
17.51889267174683
 20
6.069440083998771
 10
17.52611097777748
 20
6.061895294840967
 10
17.53333103673783
 20
6.054351959900676
 10
17.54055274925591
 20
6.04681018068859
 10
17.54777601754496
 20
6.039270056809591
 10
17.55500074634738
 20
6.031731684945402
 10
17.5622268438788
 20
6.024195157837195
 10
17.56945422277207
 20
6.016660563268223
 10
17.57668280102129
 20
6.009127983046449
 10
17.58391250292585
 20
6.001597491987157
 10
17.5911432600344
 20
5.994069156895589
 10
17.59837501208895
 20
5.986543035549572
 10
17.60560770796878
 20
5.979019175682127
 10
17.61284130504673
 20
5.971497615600442
 10
17.62007574522266
 20
5.963978409000182
 10
17.62731097159569
 20
5.956461608386454
 10
17.63454695705263
 20
5.948947235851882
 10
17.64178370222295
 20
5.941435285183841
 10
17.64902123240476
 20
5.93392572502791
 10
17.65625959449083
 20
5.926418502051329
 10
17.66349885389464
 20
5.918913544106437
 10
17.67073909147636
 20
5.911410763394124
 10
17.67798040046888
 20
5.903910059627285
 10
17.68522288340388
 20
5.896411323194262
 10
17.69246664903778
 20
5.888914438322298
 10
17.69971180927779
 20
5.881419286240983
 10
17.70695847610795
 20
5.8739257483457
 10
17.71420675851512
 20
5.866433709361084
 10
17.72145675610518
 20
5.858943063953184
 10
17.7287085147876
 20
5.851453762780538
 10
17.73596204189107
 20
5.843965796439623
 10
17.74321734076402
 20
5.836479159355261
 10
17.75047441219075
 20
5.828993848358051
 10
17.7577332550245
 20
5.821509862078832
 10
17.7649938668207
 20
5.814027200343145
 10
17.77225624447001
 20
5.806545863565684
 10
17.77952038483151
 20
5.799065852144764
 10
17.78678628536585
 20
5.791587165856779
 10
17.79405394476835
 20
5.784109803250659
 10
17.80132336360218
 20
5.776633761042329
 10
17.80859454493148
 20
5.769159033509179
 10
17.81586749495451
 20
5.761685611884509
 10
17.82314222363678
 20
5.754213483752
 10
17.83041874491887
 20
5.746742632859548
 10
17.83769707205998
 20
5.739273043704377
 10
17.84497721609543
 20
5.731804702991627
 10
17.85225918745957
 20
5.724337598014483
 10
17.85954299602316
 20
5.716871716617273
 10
17.86682865110153
 20
5.709407047187495
 10
17.87411616146277
 20
5.701943578647845
 10
17.88140553533589
 20
5.694481300448247
 10
17.88869678041895
 20
5.687020202557891
 10
17.89598990388731
 20
5.679560275457247
 10
17.90328491240172
 20
5.672101510130111
 10
17.91058181211654
 20
5.664643898055628
 10
17.91788060868788
 20
5.657187431200316
 10
17.92518130728177
 20
5.649732102010111
 10
17.93248391258235
 20
5.642277903402383
 10
17.9397884288
 20
5.634824828757964
 10
17.94709485967957
 20
5.627372871913201
 10
17.95440320850846
 20
5.619922027151957
 10
17.96171347812491
 20
5.612472289197661
 10
17.96902567092601
 20
5.605023653205326
 10
17.97633978887602
 20
5.597576114753588
 10
17.98365583351445
 20
5.590129669836725
 10
17.99097380596426
 20
5.582684314856705
 10
17.99829370694001
 20
5.575240046615192
 10
18.00561553675604
 20
5.567796862305599
 10
18.01293929533466
 20
5.560354759505101
 10
18.02026498221427
 20
5.552913736166676
 10
18.02759259655756
 20
5.545473790611124
 10
18.03492213715967
 20
5.538034921519111
 10
18.04225360245638
 20
5.530597127923186
 10
18.04958699053223
 20
5.523160409199822
 10
18.05692229912873
 20
5.515724765061432
 10
18.06425952565255
 20
5.508290195548415
 10
18.0715986671836
 20
5.500856701021175
 10
18.07893972048328
 20
5.493424282152153
 10
18.0862826820026
 20
5.48599293991786
 10
18.09362754789043
 20
5.478562675590905
 10
18.10097431400152
 20
5.471133490732023
 10
18.10832297590483
 20
5.463705387182113
 10
18.11567352889158
 20
5.456278367054251
 10
18.12302596798348
 20
5.448852432725742
 10
18.13038028794089
 20
5.441427586830132
 10
18.13773648327095
 20
5.434003832249251
 10
18.14509454823583
 20
5.426581172105229
 10
18.15245447686078
 20
5.419159609752536
 10
18.15981626294243
 20
5.411739148770016
 10
18.16717990005684
 20
5.404319792952902
 10
18.17454538156776
 20
5.396901546304859
 10
18.18191270063473
 20
5.389484413030011
 10
18.1892818502213
 20
5.382068397524967
 10
18.19665282310318
 20
5.374653504370851
 10
18.20402561187638
 20
5.367239738325339
 10
18.21140020896542
 20
5.359827104314685
 10
18.21877660663149
 20
5.352415607425744
 10
18.22615479698059
 20
5.345005252898014
 10
18.23353477197174
 20
5.337596046115661
 10
18.2409165234251
 20
5.33018799259954
 10
18.2483000430302
 20
5.322781097999245
 10
18.25568532235405
 20
5.315375368085114
 10
18.26307235284932
 20
5.307970808740284
 10
18.27046112586257
 20
5.300567425952703
 10
18.27785163264232
 20
5.293165225807165
 10
18.28524386434729
 20
5.285764214477343
 10
18.29263781205452
 20
5.27836439821782
 10
18.30003346676761
 20
5.270965783356108
 10
18.3074308194248
 20
5.263568376284691
 10
18.31482986090721
 20
5.256172183453051
 10
18.32223058204695
 20
5.248777211359693
 10
18.32963297363536
 20
5.24138346654418
 10
18.33703702643109
 20
5.233990955579161
 10
18.34444273116833
 20
5.226599685062406
 10
18.35185007856498
 20
5.219209661608823
 10
18.35925905933079
 20
5.211820891842505
 10
18.36666966417554
 20
5.204433382388744
 10
18.37408188381719
 20
5.197047139866077
 10
18.38149570899009
 20
5.189662170878297
 10
18.38891113045311
 20
5.182278482006502
 10
18.39632813899784
 20
5.174896079801112
 10
18.40374672545672
 20
5.167514970773905
 10
18.41116688071125
 20
5.160135161390043
 10
18.41858859570012
 20
5.152756658060103
 10
18.42601186142741
 20
5.145379467132116
 10
18.43343666897074
 20
5.138003594883578
 10
18.44086300948944
 20
5.130629047513497
 10
18.44829087423272
 20
5.12325583113442
 10
18.45572025454785
 20
5.115883951764453
 10
18.46315114188832
 20
5.108513415319301
 10
18.47058352782198
 20
5.101144227604295
 10
18.47801740403926
 20
5.09377639430642
 10
18.48545276236132
 20
5.086409920986349
 10
18.49288959474819
 20
5.079044813070472
 10
18.50032789330697
 20
5.071681075842921
 10
18.50776765029999
 20
5.064318714437603
 10
18.51520885815298
 20
5.056957733830233
 10
18.52265150946322
 20
5.049598138830362
 10
18.53009559700774
 20
5.042239934073403
 10
18.53754111375147
 20
5.034883124012671
 10
18.5449880528554
 20
5.027527712911396
 10
18.55243640768476
 20
5.020173704834775
 10
18.55988617181721
 20
5.01282110364198
 10
18.56733733905096
 20
5.005469912978204
 10
18.57478990341297
 20
4.998120136266686
 10
18.58224385916711
 20
4.990771776700735
 10
18.58969920082235
 20
4.983424837235768
 10
18.59715592314088
 20
4.976079320581338
 10
18.60461402114633
 20
4.968735229193162
 10
18.61207349013191
 20
4.961392565265152
 10
18.61953432566858
 20
4.954051330721444
 10
18.62699652361321
 20
4.946711527208431
 10
18.6344600801168
 20
4.939373156086785
 10
18.64192499163257
 20
4.932036218423503
 10
18.64939125492418
 20
4.924700714983917
 10
18.6568588670739
 20
4.917366646223737
 10
18.66432782549075
 20
4.910034012281079
 10
18.67179812791868
 20
4.902702812968493
 10
18.67926977244475
 20
4.895373047764993
 10
18.68674275750728
 20
4.888044715808089
 10
18.69421708190406
 20
4.880717815885811
 10
18.70169274480043
 20
4.873392346428746
 10
18.70916974573755
 20
4.86606830550207
 10
18.71664808464051
 20
4.858745690797565
 10
18.7241277618265
 20
4.851424499625662
 10
18.73160877801302
 20
4.844104728907465
 10
18.73909113432598
 20
4.836786375166786
 10
18.74657483230794
 20
4.829469434522163
 10
18.75405987392621
 20
4.822153902678905
 10
18.7615462615811
 20
4.814839774921113
 10
18.76903399811398
 20
4.807527046103711
 10
18.77652308681559
 20
4.800215710644478
 10
18.78401353143405
 20
4.792905762516075
 10
18.79150533618314
 20
4.78559719523808
 10
18.79899850575046
 20
4.778290001869013
 10
18.80649304530553
 20
4.770984174998369
 10
18.81398896050803
 20
4.763679706738643
 10
18.82148625751592
 20
4.756376588717366
 10
18.82898494299365
 20
4.749074812069136
 10
18.8364850241203
 20
4.741774367427641
 10
18.84398650859775
 20
4.734475244917691
 10
18.85148940465885
 20
4.727177434147251
 10
18.85899372107562
 20
4.719880924199471
 10
18.86649946716734
 20
4.712585703624715
 10
18.87400665280882
 20
4.705291760432587
 10
18.88151528843849
 20
4.697999082083962
 10
18.8890253850666
 20
4.690707655483031
 10
18.8965369542834
 20
4.6834174669693
 10
18.90405000826725
 20
4.676128502309655
 10
18.91156455979288
 20
4.668840746690362
 10
18.91908062223949
 20
4.661554184709118
 10
18.92659820959893
 20
4.654268800367072
 10
18.93411733595308
 20
4.646984577571316
 10
18.94163798906603
 20
4.639701525520201
 10
18.94916014699512
 20
4.632419662717348
 10
18.95668383015813
 20
4.625138967058222
 10
18.96420907841955
 20
4.617859398111455
 10
18.97173592215701
 20
4.610580925192064
 10
18.97926435332784
 20
4.603303555434695
 10
18.98679429653548
 20
4.596027361866836
 10
18.994325696354
 20
4.588752397009144
 10
19.00185963812629
 20
4.58147759274719
 10
19.00939890515609
 20
4.574200220641791
 10
19.01694744797537
 20
4.566916416904716
 10
19.02450984493112
 20
4.559621714150464
 10
19.03209076309799
 20
4.552311572825023
 10
19.03969441919104
 20
4.544981912634648
 10
19.04732480824212
 20
4.537628906108384
 10
19.05501500651075
 20
4.530220823336115
 10
19.06282126845377
 20
4.522703679282183
 10
19.07077276953612
 20
4.515049516033493
 10
19.07887307160633
 20
4.507254992163186
 10
19.08710542218145
 20
4.499336288047627
 10
19.09543805373193
 20
4.491324011183396
 10
19.10382948296654
 20
4.483258101504283
 10
19.11223381011719
 20
4.475182736698278
 10
19.12060601822387
 20
4.467141237524563
 10
19.12890727241952
 20
4.459170973130505
 10
19.13711021921493
 20
4.451298266368646
 10
19.1452042857836
 20
4.443533299113699
 10
19.15320097924668
 20
4.435865017579533
 10
19.1611391859578
 20
4.428256037636169
 10
19.16907396367274
 20
4.420653425855673
 10
19.17701781322205
 20
4.413045179001686
 10
19.18496942042593
 20
4.405432574902102
 10
19.19292738801999
 20
4.397816965116246
 10
19.20089025979559
 20
4.390199752124806
 10
19.20885654473923
 20
4.382582366520792
 10
19.21682474117186
 20
4.374966244200508
 10
19.22479336088821
 20
4.367352803554511
 10
19.23276095329617
 20
4.359743422658596
 10
19.24072612955603
 20
4.352139416464742
 10
19.2486875867199
 20
4.3445420139921
 10
19.256644131871
 20
4.336952335517944
 10
19.26459470626303
 20
4.329371369768646
 10
19.27253840945947
 20
4.321799951110649
 10
19.28047452347289
 20
4.314238736741421
 10
19.28839491748064
 20
4.306695416592446
 10
19.29624156578717
 20
4.299225035385203
 10
19.30395738471513
 20
4.291881727118458
 10
19.3115138632951
 20
4.284692487883074
 10
19.31890664209653
 20
4.277661376557057
 10
19.32615093262384
 20
4.270773866850723
 10
19.33327693671253
 20
4.264001199351848
 10
19.34032526592529
 20
4.257304733570808
 10
19.34734236094813
 20
4.250640299985745
 10
19.3543759109864
 20
4.243962552087714
 10
19.361470273161
 20
4.237229318425833
 10
19.36866189190443
 20
4.230405954652433
 10
19.37597471835686
 20
4.223469695568216
 10
19.38341562976235
 20
4.216414007167403
 10
19.3909698488648
 20
4.209252938682886
 10
19.39859636330422
 20
4.202025474631375
 10
19.40623364684518
 20
4.19479010255424
 10
19.41386121040744
 20
4.187566348972633
 10
19.42148111634364
 20
4.180352320699161
 10
19.42909626547264
 20
4.173145321140339
 10
19.43670971646804
 20
4.165942493734893
 10
19.44432406210688
 20
4.158741411392044
 10
19.45194080551832
 20
4.151540665929801
 10
19.45955974354258
 20
4.144340450813923
 10
19.46717951138578
 20
4.137142049964336
 10
19.47479965863599
 20
4.129945884686781
 10
19.48241998652497
 20
4.122752139348512
 10
19.49004036271909
 20
4.115560935658441
 10
19.49766070093173
 20
4.108372351585553
 10
19.50528094053568
 20
4.101186440277312
 10
19.51290102617568
 20
4.094003248978069
 10
19.52052089026849
 20
4.086822835275706
 10
19.52814047934475
 20
4.079645242799306
 10
19.53575977022028
 20
4.072470486361078
 10
19.54337875543657
 20
4.065298565506396
 10
19.55099744230693
 20
4.058129465462781
 10
19.55861585236235
 20
4.050963157718919
 10
19.56623402079733
 20
4.043799600603674
 10
19.57385199591571
 20
4.036638739865107
 10
19.58146983857659
 20
4.02948050924949
 10
19.58908762164012
 20
4.022324831080323
 10
19.59670542941338
 20
4.015171616837342
 10
19.60432335709621
 20
4.008020767735553
 10
19.61194151022709
 20
4.000872175304228
 10
19.61956000412898
 20
3.993725721965935
 10
19.62717896335517
 20
3.986581281615545
 10
19.63479852113692
 20
3.979438720186801
 10
19.64241881826964
 20
3.972297896513025
 10
19.6500399995681
 20
3.965158666063206
 10
19.65766221163943
 20
3.958020883608276
 10
19.66528560205617
 20
3.950884403986518
 10
19.67291031857031
 20
3.943749082800215
 10
19.68053650832755
 20
3.93661477711227
 10
19.68816431708146
 20
3.929481346142844
 10
19.69579388840764
 20
3.922348651965986
 10
19.70342536291796
 20
3.915216560206271
 10
19.71105887747465
 20
3.908084940735421
 10
19.71869456440458
 20
3.900953668368945
 10
19.72633255071337
 20
3.893822623562771
 10
19.73397295729961
 20
3.886691693109878
 10
19.74161589816903
 20
3.879560770836923
 10
19.74926147964866
 20
3.872429758300883
 10
19.75690979960107
 20
3.865298565485673
 10
19.76456094663848
 20
3.858167111498792
 10
19.77221499933701
 20
3.851035325267948
 10
19.77987202545079
 20
3.843903146237696
 10
19.78753208112622
 20
3.836770525066058
 10
19.79519521011608
 20
3.829637424321168
 10
19.80286144299373
 20
3.822503819177898
 10
19.81053079636739
 20
3.815369698114496
 10
19.81820327209412
 20
3.808235063609203
 10
19.82587885649419
 20
3.801099932836906
 10
19.83355751956518
 20
3.793964338365753
 10
19.84123921419617
 20
3.786828328853799
 10
19.84892387538191
 20
3.779691969745625
 10
19.85661141943702
 20
3.772555343968977
 10
19.86430174005411
 20
3.765418555597863
 10
19.87199466180733
 20
3.758281773461213
 10
19.87968997455311
 20
3.751145198584458
 10
19.88738748924483
 20
3.744009011671346
 10
19.8950870384524
 20
3.736873372645473
 10
19.90278847515823
 20
3.729738421813288
 10
19.91049167155312
 20
3.722604281027069
 10
19.91819651783224
 20
3.715471054847926
 10
19.92590292099103
 20
3.708338831708787
 10
19.93361080362116
 20
3.701207685077381
 10
19.94132010270641
 20
3.694077674619246
 10
19.94903076841868
 20
3.6869488473607
 10
19.95674276291387
 20
3.679821238851846
 10
19.96445605912785
 20
3.672694874329556
 10
19.97217063957231
 20
3.665569769880463
 10
19.97988649513081
 20
3.65844593360395
 10
19.98760362385464
 20
3.651323366775143
 10
19.99532202975879
 20
3.644202065007901
 10
20.00304172161784
 20
3.637082019417806
 10
20.01076271176192
 20
3.629963217785153
 10
20.01848501487264
 20
3.622845645717942
 10
20.02620864677906
 20
3.615729287814863
 10
20.03393362325355
 20
3.608614128828301
 10
20.04165995880777
 20
3.601500154827306
 10
20.04938766548861
 20
3.594387354360601
 10
20.05711675167409
 20
3.587275719619564
 10
20.06484722086932
 20
3.580165247601223
 10
20.07257907050242
 20
3.573055941271236
 10
20.08031229072049
 20
3.565947810726902
 10
20.08804686318546
 20
3.558840874360126
 10
20.09578276199726
 20
3.551735157960346
 10
20.10351997588478
 20
3.544630673204396
 10
20.11125850539036
 20
3.537527420333261
 10
20.11899835065277
 20
3.530425399970456
 10
20.12673951123081
 20
3.523324613294131
 10
20.13448198612456
 20
3.516225062017928
 10
20.14222577379662
 20
3.509126748371846
 10
20.1499708721933
 20
3.502029675083087
 10
20.15771727876587
 20
3.494933845356919
 10
20.16546499049178
 20
3.487839262857533
 10
20.17321400389588
 20
3.480745931688901
 10
20.18096431507163
 20
3.473653856375628
 10
20.18871591970236
 20
3.466563041843814
 10
20.19646881308247
 20
3.459473493401906
 10
20.20422299013866
 20
3.45238521672156
 10
20.21197844545114
 20
3.445298217818498
 10
20.2197351732749
 20
3.438212503033359
 10
20.22749316756089
 20
3.43112807901256
 10
20.23525242197724
 20
3.424044952689154
 10
20.24301292993055
 20
3.416963131263688
 10
20.25077468458701
 20
3.409882622185053
 10
20.25853767889373
 20
3.402803433131347
 10
20.26630190559991
 20
3.395725571990733
 10
20.27406735727806
 20
3.38864904684229
 10
20.28183402634525
 20
3.381573865936876
 10
20.2896019050843
 20
3.37450003767798
 10
20.29737098566505
 20
3.367427570602583
 10
20.30514126016557
 20
3.360356473362011
 10
20.31291272059336
 20
3.3532867547028
 10
20.32068535890659
 20
3.34621842344754
 10
20.32845916703533
 20
3.339151488475743
 10
20.33623413690278
 20
3.332085958704696
 10
20.34401026044648
 20
3.325021843070317
 10
20.35178752963953
 20
3.317959150508011
 10
20.35956593651185
 20
3.310897889933533
 10
20.36734547317136
 20
3.303838070223841
 10
20.37512613182522
 20
3.296779700197947
 10
20.3829079048011
 20
3.289722788597786
 10
20.39069078456831
 20
3.282667344069063
 10
20.39847476375912
 20
3.275613375142115
 10
20.40625983518992
 20
3.268560890212768
 10
20.41404599188248
 20
3.261509897523191
 10
20.42183322708517
 20
3.254460405142753
 10
20.42962153429417
 20
3.247412420948883
 10
20.43741090727469
 20
3.240365952607928
 10
20.44520134008224
 20
3.233321007556003
 10
20.4529928270838
 20
3.226277592979856
 10
20.46078536297907
 20
3.219235715797718
 10
20.46857894282168
 20
3.212195382640167
 10
20.47637356204047
 20
3.205156599830976
 10
20.48416921646063
 20
3.19811937336798
 10
20.49196590232497
 20
3.191083708903926
 10
20.49976361631517
 20
3.184049611727331
 10
20.50756235557295
 20
3.177017086743343
 10
20.51536211772132
 20
3.169986138454595
 10
20.52316290088583
 20
3.162956770942056
 10
20.53096470371574
 20
3.155928987845901
 10
20.5387675254053
 20
3.148902792346357
 10
20.54657136571493
 20
3.141878187144563
 10
20.55437622546356
 20
3.134855174019544
 10
20.55652508333481
 20
3.132936998620662
 10
20.55868963559015
 20
3.131034954053232
 10
20.5608699611035
 20
3.129149090181087
 10
20.56306594658796
 20
3.12727959829015
 10
20.5652773109616
 20
3.125426792839336
 10
20.56750362970381
 20
3.123591093219917
 10
20.56974435921168
 20
3.121773005514862
 10
20.57199886115627
 20
3.119973104258194
 10
20.57426642683903
 20
3.11819201419434
 10
20.57654630154811
 20
3.116430392037482
 10
20.57883770891468
 20
3.114688908230908
 10
20.58113987526934
 20
3.112968228706366
 10
20.58345205399839
 20
3.11126899664341
 10
20.58577354990025
 20
3.109591814228758
 10
20.58810374354174
 20
3.107937224415636
 10
20.59044211561445
 20
3.106305692683134
 10
20.59278827129112
 20
3.10469758879556
 10
20.5951419645819
 20
3.10311316856178
 10
20.59750312269079
 20
3.101552555594586
 10
20.59987187032225
 20
3.100015723233881
 10
20.60224849964968
 20
3.098502567399441
 10
20.60463319703021
 20
3.097013163026678
 10
20.60702591052811
 20
3.095547723258128
 10
20.60942637425124
 20
3.094106564346501
 10
20.61183413723005
 20
3.092690091044007
 10
20.61424859229652
 20
3.091298781991638
 10
20.61666900496314
 20
3.089933175108491
 10
20.61909454230182
 20
3.088593852981051
 10
20.62152430182292
 20
3.087281428252516
 10
20.62395734035415
 20
3.085996529012084
 10
20.62639270291959
 20
3.08473978418426
 10
20.62882945161859
 20
3.083511808918169
 10
20.63126669450479
 20
3.082313189976848
 10
20.63370361446501
 20
3.081144471126551
 10
20.63613949809831
 20
3.080006138526058
 10
20.63857376459484
 20
3.078898606115977
 10
20.64100599461488
 20
3.077822201008042
 10
20.64343595916778
 20
3.076777148874424
 10
20.64586364849089
 20
3.075763559337028
 10
20.64828929559276
 20
3.074781419468398
 10
20.65071320561553
 20
3.073830783137473
 10
20.6531354249017
 20
3.072911889732302
 10
20.65555573283723
 20
3.072025042563228
 10
20.65797367806682
 20
3.071170593795212
 10
20.66038861287577
 20
3.070348935648436
 10
20.66279972757184
 20
3.069560491598911
 10
20.66520608486707
 20
3.068805707579092
 10
20.66760665425969
 20
3.068085043178482
 10
20.67000034641593
 20
3.067398962844243
 10
20.67238604755191
 20
3.066747927081805
 10
20.67476265381547
 20
3.066132383655471
 10
20.67712910566802
 20
3.065552758789038
 10
20.67948442226643
 20
3.065009448366388
 10
20.68182773584485
 20
3.064502809132118
 10
20.68415832609661
 20
3.064033149892128
 10
20.68647565455601
 20
3.063600722714247
 10
20.68877939898023
 20
3.063205714128832
 10
20.69106948773117
 20
3.062848236329382
 10
20.69334613196621
 20
3.062528320755009
 10
20.69560966104605
 20
3.06224606194366
 10
20.69786010666506
 20
3.062001733411343
 10
20.70009721916899
 20
3.061795595948971
 10
20.70232051444524
 20
3.061627879892187
 10
20.70452931033919
 20
3.061498787089768
 10
20.7067227630704
 20
3.061408492872058
 10
20.70889990364889
 20
3.061357148019371
 10
20.71105967429139
 20
3.061344880730406
 10
20.71320096483757
 20
3.061371798590671
 10
20.71532264916629
 20
3.061437990540891
 10
20.71742362161189
 20
3.061543528845426
 10
20.71950283338038
 20
3.061688471060684
 10
20.72155932896576
 20
3.061872862003542
 10
20.7235922825662
 20
3.062096735719749
 10
20.72560103450033
 20
3.062360117452359
 10
20.72758512762352
 20
3.062663025610131
 10
20.72954434374401
 20
3.063005473735951
 10
20.73147874003935
 20
3.063387472475244
 10
20.73338865573032
 20
3.063809048980076
 10
20.73527433073698
 20
3.064270389258226
 10
20.73713567502382
 20
3.064771678957986
 10
20.7389723793413
 20
3.065312977298392
 10
20.74078395062405
 20
3.065894230658451
 10
20.74256974541607
 20
3.066515287989076
 10
20.74432900329592
 20
3.067175916225024
 10
20.74606088030201
 20
3.067875815696833
 10
20.7477644823578
 20
3.068614635542751
 10
20.74943889869697
 20
3.06939198912068
 10
20.75108323528874
 20
3.070207469420109
 10
20.75269664826302
 20
3.071060664474054
 10
20.75427837733567
 20
3.071951172770983
 10
20.75582777923372
 20
3.072878618666766
 10
20.75734436112059
 20
3.073842667796602
 10
20.7588278140213
 20
3.074843042486957
 10
20.76027804624772
 20
3.0758795371675
 10
20.76169453431243
 20
3.076951517267146
 10
22.89393100000001
 20
5.287233000000001
 10
22.89393115194974
 20
5.287233491017332
 42
0.3594540925959361
 10
22.91352063204632
 20
5.540230336596566
 42
0.0784660049884499
 10
18.51413329172276
 20
9.939536115000196
 42
0.3668542002329579
 10
18.24676384008095
 20
9.9155034100826
  0
LWPOLYLINE
  5
29A09
330
1F
100
AcDbEntity
  8
NOCUT
100
AcDbPolyline
 90
        7
 70
     1
 43
0.0
 10
12.6833149932501
 20
9.799999999999997
 42
-0.1443689143701032
 10
9.970382999999998
 20
9.0
 10
0.0
 20
9.0
 10
0.0
 20
0.0
 10
22.05
 20
0.0
 10
22.05
 20
5.700000000000001
 10
17.496489
 20
9.799999999999997
  0
MTEXT
  5
29A5C
330
1F
100
AcDbEntity
  8
SK6
100
AcDbMText
 10
-24.6346807340687
 20
-26.71254718098519
 30
0.0
 40
3.5
 41
49.98568165846803
 71
     1
 72
     1
  1
12N8D020023X6R00
  7
MM_STANDARD
 73
     1
 44
1.0
1001
ACAD
1000
MTEXTBEGIN
1070
    73
1070
     1
1070
    44
1040
1.0
1070
    74
1070
     0
1000
MTEXTEND
  0
ENDSEC
  0
SECTION
  2
OBJECTS
  0
DICTIONARY
  5
C
330
0
100
AcDbDictionary
281
     1
  3
ACAD_2007HEADERVARS_RT
350
29A61
  3
ACAD_CIP_PREVIOUS_PRODUCT_INFO
350
741
  3
ACAD_COLOR
350
6C
  3
ACAD_DETAILVIEWSTYLE
350
8E4
  3
ACAD_GROUP
350
D
  3
ACAD_IMAGE_VARS
350
959
  3
ACAD_LAYOUT
350
1A
  3
ACAD_MATERIAL
350
6B
  3
ACAD_MLEADERSTYLE
350
43C
  3
ACAD_MLINESTYLE
350
17
  3
ACAD_PLOTSETTINGS
350
19
  3
ACAD_PLOTSTYLENAME
350
E
  3
ACAD_SCALELIST
350
99
  3
ACAD_SECTIONVIEWSTYLE
350
8E2
  3
ACAD_TABLESTYLE
350
92
  3
ACAD_VISUALSTYLE
350
3F2
  3
ACDB_RECOMPOSE_DATA
350
29A5F
  3
ACDBHEADERROUNDTRIPXREC
350
299B1
  3
AcDbVariableDictionary
350
59
  3
ACMDICTIONARY
350
76D
  3
AEC_PROPERTY_SET_DEFS
350
5CF
  3
AMG
350
743
  3
AMGSNAPSETTINGS
350
7F6
  3
APPDATA
350
958
  3
ASE_INDEX_DICTIONARY
350
8C6
  3
DWGPROPS
350
29A60
  0
DICTIONARY
  5
2995A
330
2
100
AcDbDictionary
280
     1
281
     1
  3
ACAD_LAYERFILTERS
360
6C6
  3
ACAD_LAYERSTATES
360
17C7
  3
ACLYDICTIONARY
360
6C5
  0
DICTIONARY
  5
29950
330
10
100
AcDbDictionary
280
     1
281
     1
  3
ADSK_XREC_LAYER_RECONCILED
360
904
  0
DICTIONARY
  5
29951
330
23
100
AcDbDictionary
280
     1
281
     1
  3
ADSK_XREC_LAYER_RECONCILED
360
905
  0
DICTIONARY
  5
29952
330
25
100
AcDbDictionary
280
     1
281
     1
  3
ADSK_XREC_LAYER_RECONCILED
360
907
  0
DICTIONARY
  5
29953
330
173A
100
AcDbDictionary
280
     1
281
     1
  3
ADSK_XREC_LAYER_RECONCILED
360
908
  0
DICTIONARY
  5
29954
330
2A
100
AcDbDictionary
280
     1
281
     1
  3
ADSK_XREC_LAYER_RECONCILED
360
90B
  0
DICTIONARY
  5
29955
330
2E
100
AcDbDictionary
280
     1
281
     1
  3
ADSK_XREC_LAYER_RECONCILED
360
90E
  0
DICTIONARY
  5
29956
330
375
100
AcDbDictionary
280
     1
281
     1
  3
ADSK_XREC_LAYER_RECONCILED
360
90F
  0
DICTIONARY
  5
29957
330
376
100
AcDbDictionary
280
     1
281
     1
  3
ADSK_XREC_LAYER_RECONCILED
360
910
  0
DICTIONARY
  5
29958
330
49B
100
AcDbDictionary
280
     1
281
     1
  3
ADSK_XREC_LAYER_RECONCILED
360
918
  0
DICTIONARY
  5
299AE
330
1F
100
AcDbDictionary
280
     1
281
     1
  3
ACAD_SORTENTS
360
299AF
  0
DICTIONARY
  5
29A61
102
{ACAD_REACTORS
330
C
102
}
330
C
100
AcDbDictionary
281
     1
  3
DIMARCSYM
350
29A62
  3
DIMLTEX1
350
29A64
  3
DIMLTEX2
350
29A65
  3
DIMLTYPE
350
29A63
  0
XRECORD
  5
741
102
{ACAD_REACTORS
330
C
102
}
330
C
100
AcDbXrecord
280
     1
300
ACDLT
300
2015
300
ACDLT_F_S
  0
DICTIONARY
  5
6C
102
{ACAD_REACTORS
330
C
102
}
330
C
100
AcDbDictionary
281
     1
  0
DICTIONARY
  5
8E4
102
{ACAD_REACTORS
330
C
102
}
330
C
100
AcDbDictionary
281
     1
  3
Metric50
350
299ED
  0
DICTIONARY
  5
D
102
{ACAD_REACTORS
330
C
102
}
330
C
100
AcDbDictionary
281
     1
  0
RASTERVARIABLES
  5
959
102
{ACAD_REACTORS
330
C
102
}
330
C
100
AcDbRasterVariables
 90
        0
 70
     1
 71
     1
 72
     1
  0
DICTIONARY
  5
1A
102
{ACAD_REACTORS
330
C
102
}
330
C
100
AcDbDictionary
281
     1
  3
Layout1
350
74
  3
Model
350
22
  0
DICTIONARY
  5
6B
102
{ACAD_REACTORS
330
C
102
}
330
C
100
AcDbDictionary
281
     1
  3
ByBlock
350
299C2
  3
ByLayer
350
299BA
  3
Global
350
299CA
  0
DICTIONARY
  5
43C
102
{ACAD_REACTORS
330
C
102
}
330
C
100
AcDbDictionary
281
     1
  3
Standard
350
299EB
  0
DICTIONARY
  5
17
102
{ACAD_REACTORS
330
C
102
}
330
C
100
AcDbDictionary
281
     1
  3
Standard
350
18
  0
DICTIONARY
  5
19
102
{ACAD_REACTORS
330
C
102
}
330
C
100
AcDbDictionary
281
     1
  0
ACDBDICTIONARYWDFLT
  5
E
102
{ACAD_REACTORS
330
C
102
}
330
C
100
AcDbDictionary
281
     1
  3
Normal
350
F
100
AcDbDictionaryWithDefault
340
F
  0
DICTIONARY
  5
99
102
{ACAD_REACTORS
330
C
102
}
330
C
100
AcDbDictionary
281
     1
  3
A0
350
9A
  3
A1
350
9B
  3
A2
350
9C
  3
A3
350
9D
  3
A4
350
9E
  3
A5
350
9F
  3
A6
350
A0
  3
A7
350
A1
  3
A8
350
A2
  3
A9
350
A3
  3
B0
350
A4
  3
B1
350
A5
  3
B2
350
A6
  3
B3
350
A7
  3
B4
350
A8
  3
B5
350
A9
  3
B6
350
AA
  3
B7
350
AB
  3
B8
350
AC
  3
B9
350
AD
  3
C0
350
AE
  3
C1
350
AF
  3
C2
350
B0
  3
C3
350
B1
  3
C4
350
B2
  3
C5
350
B3
  3
C6
350
B4
  3
C7
350
B5
  3
C8
350
B6
  3
C9
350
B7
  3
D0
350
B8
  3
D1
350
B9
  3
D2
350
BA
  0
DICTIONARY
  5
8E2
102
{ACAD_REACTORS
330
C
102
}
330
C
100
AcDbDictionary
281
     1
  3
Metric50
350
299EC
  0
DICTIONARY
  5
92
102
{ACAD_REACTORS
330
C
102
}
330
C
100
AcDbDictionary
281
     1
  3
Standard
350
299EA
  0
DICTIONARY
  5
3F2
102
{ACAD_REACTORS
330
C
102
}
330
C
100
AcDbDictionary
281
     1
  3
2dWireframe
350
299D7
  3
Basic
350
299D6
  3
Brighten
350
299DD
  3
ColorChange
350
299E1
  3
Conceptual
350
299DA
  3
Dim
350
299DC
  3
EdgeColorOff
350
299E9
  3
Facepattern
350
299E0
  3
Flat
350
299D2
  3
FlatWithEdges
350
299D3
  3
Gouraud
350
299D4
  3
GouraudWithEdges
350
299D5
  3
Hidden
350
299D9
  3
JitterOff
350
299E7
  3
Linepattern
350
299DF
  3
OverhangOff
350
299E8
  3
Realistic
350
299DB
  3
Shaded
350
299E6
  3
Shaded with edges
350
299E5
  3
Shades of Gray
350
299E2
  3
Sketchy
350
299E3
  3
Thicken
350
299DE
  3
Wireframe
350
299D8
  3
X-Ray
350
299E4
  0
XRECORD
  5
29A5F
102
{ACAD_REACTORS
330
C
102
}
330
C
100
AcDbXrecord
280
     1
 90
        1
330
299EA
  0
DICTIONARY
  5
299B1
102
{ACAD_REACTORS
330
C
102
}
330
C
100
AcDbDictionary
281
     1
  3
COLORDICT
350
299B2
  3
MATERIALDICT
350
299B3
  0
DICTIONARY
  5
59
102
{ACAD_REACTORS
330
C
102
}
330
C
100
AcDbDictionary
281
     1
  3
CANNOSCALE
350
299B0
  3
CMLEADERSTYLE
350
29A10
  3
CTABLESTYLE
350
98
  3
CVIEWDETAILSTYLE
350
8FB
  3
CVIEWSECTIONSTYLE
350
8FC
  3
DIMASSOC
350
359
  3
HALOGAP
350
AF7
  3
HIDETEXT
350
358
  3
INDEXCTL
350
9BE
  3
LAYEREVAL
350
7AE
  3
LAYERNOTIFY
350
7AF
  3
LIGHTINGUNITS
350
44A
  3
MSLTSCALE
350
448
  3
SORTENTS
350
9BD
  3
XCLIPFRAME
350
29A5D
  0
DICTIONARY
  5
76D
102
{ACAD_REACTORS
330
C
102
}
330
C
100
AcDbDictionary
281
     1
  3
ACMSTDDICTIONARY
350
76F
  0
DICTIONARY
  5
5CF
102
{ACAD_REACTORS
330
C
102
}
330
C
100
AcDbDictionary
281
     1
  0
DICTIONARY
  5
743
102
{ACAD_REACTORS
330
C
102
}
330
C
100
AcDbDictionary
281
     1
  3
ACMGSETTINGS
350
744
  0
DICTIONARY
  5
7F6
102
{ACAD_REACTORS
330
C
102
}
330
C
100
AcDbDictionary
281
     1
  0
DICTIONARY
  5
958
102
{ACAD_REACTORS
330
C
102
}
330
C
100
AcDbDictionary
281
     1
  0
DICTIONARY
  5
8C6
102
{ACAD_REACTORS
330
C
102
}
330
C
100
AcDbDictionary
281
     1
  3
ASEBLOCKHIERARCHYINDEXRECORD
350
8C7
  0
XRECORD
  5
29A60
102
{ACAD_REACTORS
330
C
102
}
330
C
100
AcDbXrecord
280
     1
  1
DWGPROPS COOKIE
  2

  3

  4

  6

  7

  8
ruebsamenm
  9

300
=
301
=
302
=
303
=
304
=
305
=
306
=
307
=
308
=
309
=
 40
32768.69974796297
 41
2453353.800459155
 42
2460185.651772824
  1

 90
        0
  0
DICTIONARY
  5
6C6
102
{ACAD_REACTORS
330
2995A
102
}
330
2995A
100
AcDbDictionary
281
     1
  0
DICTIONARY
  5
17C7
102
{ACAD_REACTORS
330
2995A
102
}
330
2995A
100
AcDbDictionary
281
     1
  0
DICTIONARY
  5
6C5
102
{ACAD_REACTORS
330
2995A
102
}
330
2995A
100
AcDbDictionary
281
     1
  0
XRECORD
  5
904
102
{ACAD_REACTORS
330
29950
102
}
330
29950
100
AcDbXrecord
280
     1
290
     1
  0
XRECORD
  5
905
102
{ACAD_REACTORS
330
29951
102
}
330
29951
100
AcDbXrecord
280
     1
290
     1
  0
XRECORD
  5
907
102
{ACAD_REACTORS
330
29952
102
}
330
29952
100
AcDbXrecord
280
     1
290
     1
  0
XRECORD
  5
908
102
{ACAD_REACTORS
330
29953
102
}
330
29953
100
AcDbXrecord
280
     1
290
     1
  0
XRECORD
  5
90B
102
{ACAD_REACTORS
330
29954
102
}
330
29954
100
AcDbXrecord
280
     1
290
     1
  0
XRECORD
  5
90E
102
{ACAD_REACTORS
330
29955
102
}
330
29955
100
AcDbXrecord
280
     1
290
     1
  0
XRECORD
  5
90F
102
{ACAD_REACTORS
330
29956
102
}
330
29956
100
AcDbXrecord
280
     1
290
     1
  0
XRECORD
  5
910
102
{ACAD_REACTORS
330
29957
102
}
330
29957
100
AcDbXrecord
280
     1
290
     1
  0
XRECORD
  5
918
102
{ACAD_REACTORS
330
29958
102
}
330
29958
100
AcDbXrecord
280
     1
290
     1
  0
SORTENTSTABLE
  5
299AF
102
{ACAD_REACTORS
330
299AE
102
}
330
299AE
100
AcDbSortentsTable
330
1F
331
C533
  5
C935
331
1C6B9
  5
1C393
331
12C8B
  5
12C16
331
12AA6
  5
12A19
331
29A00
  5
291C7
331
C437
  5
C934
331
C79F
  5
CC4B
331
1C393
  5
1C850
331
1289D
  5
12C93
331
D590
  5
E217
331
C536
  5
CA12
331
DCBB
  5
E533
331
C863
  5
D588
331
C258
  5
C2E4
331
12BA1
  5
12B2B
331
CC4F
  5
E102
331
C42D
  5
C930
331
12BB6
  5
12B41
331
C178
  5
C255
331
CA17
  5
DCBB
331
DED7
  5
E6D6
331
1C1E5
  5
1C74E
331
1D920
  5
1DA40
331
C935
  5
D8A3
331
E102
  5
C79F
331
12B2B
  5
12AA6
331
C182
  5
C258
331
CB29
  5
DECF
331
1C3A1
  5
1C851
331
12A1A
  5
1299A
331
1C1E8
  5
1C7C7
331
1C851
  5
1C632
331
29A09
  5
2921F
331
E105
  5
C7A3
331
12C2B
  5
12BB6
331
1D6E2
  5
1D913
331
12A1D
  5
1299D
331
CC4B
  5
DED7
331
C2E1
  5
C36E
331
12895
  5
12C8B
331
E438
  5
C652
331
1C54F
  5
1C6B9
331
1289C
  5
12C92
331
12B41
  5
12AAA
331
D8A3
  5
E32B
331
1C476
  5
1C6C7
331
DECF
  5
E6D2
331
12BB5
  5
12B40
331
C2E4
  5
C377
331
CA16
  5
DAF5
331
DAF2
  5
E438
331
CB25
  5
DCBF
331
1C632
  5
1C1E5
331
E537
  5
C182
331
E6D6
  5
CB29
331
C934
  5
D89C
331
1C74E
  5
1C484
331
DAF5
  5
E441
331
D588
  5
E20E
331
C85B
  5
CC50
331
12C17
  5
12BB5
331
C36E
  5
C85B
331
1299A
  5
12895
331
1D913
  5
1D920
331
D89C
  5
E328
331
12A19
  5
1289D
331
12C93
  5
12C2B
331
1C484
  5
1C740
331
1C850
  5
1C54F
331
1299D
  5
1289C
331
CA12
  5
DAF2
331
1C54E
  5
1C640
331
1D6D5
  5
1D6E2
331
12B40
  5
12AA7
331
E533
  5
C178
331
E20E
  5
C42D
331
E6D2
  5
CB25
331
C930
  5
D590
331
12AA7
  5
12A1A
331
1DA40
  5
1D6D5
331
E441
  5
C65C
331
1C740
  5
1C476
331
C377
  5
C863
331
1C640
  5
1C1E8
331
CC50
  5
E105
331
E328
  5
C533
331
12AAA
  5
12A1D
331
C7A3
  5
CC4F
331
12C16
  5
12BA1
331
C652
  5
CA16
331
C255
  5
C2E1
331
DCBF
  5
E537
331
E32B
  5
C536
331
12C92
  5
12C17
331
1C7C7
  5
1C54E
331
1C6C7
  5
1C3A1
331
C65C
  5
CA17
331
E217
  5
C437
  0
XRECORD
  5
29A62
102
{ACAD_REACTORS
330
29A61
102
}
330
29A61
100
AcDbXrecord
280
     1
 70
     1
  0
XRECORD
  5
29A64
102
{ACAD_REACTORS
330
29A61
102
}
330
29A61
100
AcDbXrecord
280
     1
340
14
  0
XRECORD
  5
29A65
102
{ACAD_REACTORS
330
29A61
102
}
330
29A61
100
AcDbXrecord
280
     1
340
14
  0
XRECORD
  5
29A63
102
{ACAD_REACTORS
330
29A61
102
}
330
29A61
100
AcDbXrecord
280
     1
340
14
  0
ACDBDETAILVIEWSTYLE
  5
299ED
102
{ACAD_XDICTIONARY
360
29A9D
102
}
102
{ACAD_REACTORS
330
8E4
102
}
330
8E4
100
AcDbModelDocViewStyle
 70
     0
  3
Metric50
290
     0
100
AcDbDetailViewStyle
 70
     0
 71
     0
 90
        3
 71
     1
340
11
 40
5.0
340
0
 40
5.0
300

 40
0.0
280
     1
 71
     2
340
16
 90
       25
 71
     3
340
11
 40
5.0
 90
        0
 40
15.0
 90
        1
300
%<\AcVar ViewDetailId>% (%<\AcVar ViewScale \f "%sn">%)
 71
     4
340
16
 90
       25
340
16
 90
       25
280
     0
  0
LAYOUT
  5
74
102
{ACAD_XDICTIONARY
360
29A68
102
}
102
{ACAD_REACTORS
330
1A
102
}
330
1A
100
AcDbPlotSettings
  1

  2
\\ADSCCNDC1\hq601xrx1
  4

  6

 40
0.0
 41
0.0
 42
0.0
 43
0.0
 44
0.0
 45
0.0
 46
0.0
 47
0.0
 48
0.0
 49
0.0
140
0.0
141
0.0
142
1.0
143
1.0
 70
   688
 72
     0
 73
     0
 74
     5
  7
monochrome.ctb
 75
    16
147
1.0
148
0.0
149
0.0
100
AcDbLayout
  1
Layout1
 70
     1
 71
     1
 10
0.0
 20
0.0
 11
12.0
 21
9.0
 12
0.0
 22
0.0
 32
0.0
 14
0.0
 24
0.0
 34
0.0
 15
0.0
 25
0.0
 35
0.0
146
0.0
 13
0.0
 23
0.0
 33
0.0
 16
1.0
 26
0.0
 36
0.0
 17
0.0
 27
1.0
 37
0.0
 76
     0
330
73
  0
LAYOUT
  5
22
102
{ACAD_XDICTIONARY
360
29A66
102
}
102
{ACAD_REACTORS
330
1A
102
}
330
1A
100
AcDbPlotSettings
  1

  2
DWG To PDF.pc3
  4
ISO_expand_A0_(841.00_x_1189.00_MM)
  6

 40
5.793749809265137
 41
5.79376220703125
 42
10.79374980926514
 43
10.793701171875
 44
841.0
 45
1189.0
 46
-0.0000000000000213
 47
277.0515806674957
 48
0.0
 49
0.0
140
0.0
141
0.0
142
1.0
143
0.0145558200469394
 70
 11956
 72
     1
 73
     0
 74
     1
  7
monochrome.ctb
 75
     0
147
68.70104169845581
148
70.55856307424345
149
1453.505808791571
100
AcDbLayout
  1
Model
 70
     1
 71
     0
 10
-170.0
 20
-170.0
 11
519.0
 21
260.0
 12
0.0
 22
0.0
 32
0.0
 14
-72.11472452489497
 24
-49.49375433501508
 34
0.0
 15
73.14495271972269
 25
54.28162022488457
 35
0.0
146
0.0
 13
0.0
 23
0.0
 33
0.0
 16
1.0
 26
0.0
 36
0.0
 17
0.0
 27
1.0
 37
0.0
 76
     0
330
1F
331
97
  0
MATERIAL
  5
299C2
102
{ACAD_XDICTIONARY
360
299C3
102
}
102
{ACAD_REACTORS
330
6B
102
}
330
6B
100
AcDbMaterial
  1
ByBlock
 72
     0
 43
0.0008202099737533
 43
0.0
 43
0.0
 43
0.0
 43
0.0
 43
0.0008202099737533
 43
0.0
 43
0.0
 43
0.0
 43
0.0
 43
1.0
 43
0.0
 43
0.0
 43
0.0
 43
0.0
 43
1.0
 77
     0
 47
0.0008202099737533
 47
0.0
 47
0.0
 47
0.0
 47
0.0
 47
0.0008202099737533
 47
0.0
 47
0.0
 47
0.0
 47
0.0
 47
1.0
 47
0.0
 47
0.0
 47
0.0
 47
0.0
 47
1.0
171
     0
 49
0.0008202099737533
 49
0.0
 49
0.0
 49
0.0
 49
0.0
 49
0.0008202099737533
 49
0.0
 49
0.0
 49
0.0
 49
0.0
 49
1.0
 49
0.0
 49
0.0
 49
0.0
 49
0.0
 49
1.0
175
     0
142
0.0008202099737533
142
0.0
142
0.0
142
0.0
142
0.0
142
0.0008202099737533
142
0.0
142
0.0
142
0.0
142
0.0
142
1.0
142
0.0
142
0.0
142
0.0
142
0.0
142
1.0
179
     0
144
0.0008202099737533
144
0.0
144
0.0
144
0.0
144
0.0
144
0.0008202099737533
144
0.0
144
0.0
144
0.0
144
0.0
144
1.0
144
0.0
144
0.0
144
0.0
144
0.0
144
1.0
147
0.0008202099737533
147
0.0
147
0.0
147
0.0
147
0.0
147
0.0008202099737533
147
0.0
147
0.0
147
0.0
147
0.0
147
1.0
147
0.0
147
0.0
147
0.0
147
0.0
147
1.0
  0
MATERIAL
  5
299BA
102
{ACAD_XDICTIONARY
360
299BB
102
}
102
{ACAD_REACTORS
330
6B
102
}
330
6B
100
AcDbMaterial
  1
ByLayer
 72
     0
 43
0.0008202099737533
 43
0.0
 43
0.0
 43
0.0
 43
0.0
 43
0.0008202099737533
 43
0.0
 43
0.0
 43
0.0
 43
0.0
 43
1.0
 43
0.0
 43
0.0
 43
0.0
 43
0.0
 43
1.0
 77
     0
 47
0.0008202099737533
 47
0.0
 47
0.0
 47
0.0
 47
0.0
 47
0.0008202099737533
 47
0.0
 47
0.0
 47
0.0
 47
0.0
 47
1.0
 47
0.0
 47
0.0
 47
0.0
 47
0.0
 47
1.0
171
     0
 49
0.0008202099737533
 49
0.0
 49
0.0
 49
0.0
 49
0.0
 49
0.0008202099737533
 49
0.0
 49
0.0
 49
0.0
 49
0.0
 49
1.0
 49
0.0
 49
0.0
 49
0.0
 49
0.0
 49
1.0
175
     0
142
0.0008202099737533
142
0.0
142
0.0
142
0.0
142
0.0
142
0.0008202099737533
142
0.0
142
0.0
142
0.0
142
0.0
142
1.0
142
0.0
142
0.0
142
0.0
142
0.0
142
1.0
179
     0
144
0.0008202099737533
144
0.0
144
0.0
144
0.0
144
0.0
144
0.0008202099737533
144
0.0
144
0.0
144
0.0
144
0.0
144
1.0
144
0.0
144
0.0
144
0.0
144
0.0
144
1.0
147
0.0008202099737533
147
0.0
147
0.0
147
0.0
147
0.0
147
0.0008202099737533
147
0.0
147
0.0
147
0.0
147
0.0
147
1.0
147
0.0
147
0.0
147
0.0
147
0.0
147
1.0
  0
MATERIAL
  5
299CA
102
{ACAD_XDICTIONARY
360
299CB
102
}
102
{ACAD_REACTORS
330
6B
102
}
330
6B
100
AcDbMaterial
  1
Global
 72
     0
 43
0.0008202099737533
 43
0.0
 43
0.0
 43
0.0
 43
0.0
 43
0.0008202099737533
 43
0.0
 43
0.0
 43
0.0
 43
0.0
 43
1.0
 43
0.0
 43
0.0
 43
0.0
 43
0.0
 43
1.0
 77
     0
 47
0.0008202099737533
 47
0.0
 47
0.0
 47
0.0
 47
0.0
 47
0.0008202099737533
 47
0.0
 47
0.0
 47
0.0
 47
0.0
 47
1.0
 47
0.0
 47
0.0
 47
0.0
 47
0.0
 47
1.0
171
     0
 49
0.0008202099737533
 49
0.0
 49
0.0
 49
0.0
 49
0.0
 49
0.0008202099737533
 49
0.0
 49
0.0
 49
0.0
 49
0.0
 49
1.0
 49
0.0
 49
0.0
 49
0.0
 49
0.0
 49
1.0
175
     0
142
0.0008202099737533
142
0.0
142
0.0
142
0.0
142
0.0
142
0.0008202099737533
142
0.0
142
0.0
142
0.0
142
0.0
142
1.0
142
0.0
142
0.0
142
0.0
142
0.0
142
1.0
179
     0
144
0.0008202099737533
144
0.0
144
0.0
144
0.0
144
0.0
144
0.0008202099737533
144
0.0
144
0.0
144
0.0
144
0.0
144
1.0
144
0.0
144
0.0
144
0.0
144
0.0
144
1.0
147
0.0008202099737533
147
0.0
147
0.0
147
0.0
147
0.0
147
0.0008202099737533
147
0.0
147
0.0
147
0.0
147
0.0
147
1.0
147
0.0
147
0.0
147
0.0
147
0.0
147
1.0
  0
MLEADERSTYLE
  5
299EB
102
{ACAD_REACTORS
330
43C
102
}
330
43C
100
AcDbMLeaderStyle
170
     2
171
     1
172
     0
 90
        2
 40
0.0
 41
0.0
173
     1
 91
-1056964608
340
14
 92
       -2
290
     1
 42
2.0
291
     1
 43
0.36
  3
Standard
 44
4.0
300

342
11
174
     1
178
     6
175
     1
176
     0
 93
-1056964608
 45
4.0
292
     0
297
     0
 46
4.0
 94
-1056964608
 47
1.0
 49
1.0
140
1.0
293
     1
141
0.0
294
     1
177
     0
142
1.0
295
     0
296
     0
143
0.125
1001
ACAD_MLEADERVER
1070
     2
  0
MLINESTYLE
  5
18
102
{ACAD_REACTORS
330
17
102
}
330
17
100
AcDbMlineStyle
  2
STANDARD
 70
     0
  3

 62
     0
 51
90.0
 52
90.0
 71
     2
 49
0.5
 62
   256
  6
BYLAYER
 49
-0.5
 62
   256
  6
BYLAYER
  0
ACDBPLACEHOLDER
  5
F
102
{ACAD_REACTORS
330
E
102
}
330
E
  0
SCALE
  5
9A
102
{ACAD_REACTORS
330
99
102
}
330
99
100
AcDbScale
 70
     0
300
1:1
140
1.0
141
1.0
290
     1
  0
SCALE
  5
9B
102
{ACAD_REACTORS
330
99
102
}
330
99
100
AcDbScale
 70
     0
300
1:2
140
1.0
141
2.0
290
     0
  0
SCALE
  5
9C
102
{ACAD_REACTORS
330
99
102
}
330
99
100
AcDbScale
 70
     0
300
1:4
140
1.0
141
4.0
290
     0
  0
SCALE
  5
9D
102
{ACAD_REACTORS
330
99
102
}
330
99
100
AcDbScale
 70
     0
300
1:5
140
1.0
141
5.0
290
     0
  0
SCALE
  5
9E
102
{ACAD_REACTORS
330
99
102
}
330
99
100
AcDbScale
 70
     0
300
1:8
140
1.0
141
8.0
290
     0
  0
SCALE
  5
9F
102
{ACAD_REACTORS
330
99
102
}
330
99
100
AcDbScale
 70
     0
300
1:10
140
1.0
141
10.0
290
     0
  0
SCALE
  5
A0
102
{ACAD_REACTORS
330
99
102
}
330
99
100
AcDbScale
 70
     0
300
1:16
140
1.0
141
16.0
290
     0
  0
SCALE
  5
A1
102
{ACAD_REACTORS
330
99
102
}
330
99
100
AcDbScale
 70
     0
300
1:20
140
1.0
141
20.0
290
     0
  0
SCALE
  5
A2
102
{ACAD_REACTORS
330
99
102
}
330
99
100
AcDbScale
 70
     0
300
1:30
140
1.0
141
30.0
290
     0
  0
SCALE
  5
A3
102
{ACAD_REACTORS
330
99
102
}
330
99
100
AcDbScale
 70
     0
300
1:40
140
1.0
141
40.0
290
     0
  0
SCALE
  5
A4
102
{ACAD_REACTORS
330
99
102
}
330
99
100
AcDbScale
 70
     0
300
1:50
140
1.0
141
50.0
290
     0
  0
SCALE
  5
A5
102
{ACAD_REACTORS
330
99
102
}
330
99
100
AcDbScale
 70
     0
300
1:100
140
1.0
141
100.0
290
     0
  0
SCALE
  5
A6
102
{ACAD_REACTORS
330
99
102
}
330
99
100
AcDbScale
 70
     0
300
2:1
140
2.0
141
1.0
290
     0
  0
SCALE
  5
A7
102
{ACAD_REACTORS
330
99
102
}
330
99
100
AcDbScale
 70
     0
300
4:1
140
4.0
141
1.0
290
     0
  0
SCALE
  5
A8
102
{ACAD_REACTORS
330
99
102
}
330
99
100
AcDbScale
 70
     0
300
8:1
140
8.0
141
1.0
290
     0
  0
SCALE
  5
A9
102
{ACAD_REACTORS
330
99
102
}
330
99
100
AcDbScale
 70
     0
300
10:1
140
10.0
141
1.0
290
     0
  0
SCALE
  5
AA
102
{ACAD_REACTORS
330
99
102
}
330
99
100
AcDbScale
 70
     0
300
100:1
140
100.0
141
1.0
290
     0
  0
SCALE
  5
AB
102
{ACAD_REACTORS
330
99
102
}
330
99
100
AcDbScale
 70
     0
300
1/128" = 1'-0"
140
0.0078125
141
12.0
290
     0
  0
SCALE
  5
AC
102
{ACAD_REACTORS
330
99
102
}
330
99
100
AcDbScale
 70
     0
300
1/64" = 1'-0"
140
0.015625
141
12.0
290
     0
  0
SCALE
  5
AD
102
{ACAD_REACTORS
330
99
102
}
330
99
100
AcDbScale
 70
     0
300
1/32" = 1'-0"
140
0.03125
141
12.0
290
     0
  0
SCALE
  5
AE
102
{ACAD_REACTORS
330
99
102
}
330
99
100
AcDbScale
 70
     0
300
1/16" = 1'-0"
140
0.0625
141
12.0
290
     0
  0
SCALE
  5
AF
102
{ACAD_REACTORS
330
99
102
}
330
99
100
AcDbScale
 70
     0
300
3/32" = 1'-0"
140
0.09375
141
12.0
290
     0
  0
SCALE
  5
B0
102
{ACAD_REACTORS
330
99
102
}
330
99
100
AcDbScale
 70
     0
300
1/8" = 1'-0"
140
0.125
141
12.0
290
     0
  0
SCALE
  5
B1
102
{ACAD_REACTORS
330
99
102
}
330
99
100
AcDbScale
 70
     0
300
3/16" = 1'-0"
140
0.1875
141
12.0
290
     0
  0
SCALE
  5
B2
102
{ACAD_REACTORS
330
99
102
}
330
99
100
AcDbScale
 70
     0
300
1/4" = 1'-0"
140
0.25
141
12.0
290
     0
  0
SCALE
  5
B3
102
{ACAD_REACTORS
330
99
102
}
330
99
100
AcDbScale
 70
     0
300
3/8" = 1'-0"
140
0.375
141
12.0
290
     0
  0
SCALE
  5
B4
102
{ACAD_REACTORS
330
99
102
}
330
99
100
AcDbScale
 70
     0
300
1/2" = 1'-0"
140
0.5
141
12.0
290
     0
  0
SCALE
  5
B5
102
{ACAD_REACTORS
330
99
102
}
330
99
100
AcDbScale
 70
     0
300
3/4" = 1'-0"
140
0.75
141
12.0
290
     0
  0
SCALE
  5
B6
102
{ACAD_REACTORS
330
99
102
}
330
99
100
AcDbScale
 70
     0
300
1" = 1'-0"
140
1.0
141
12.0
290
     0
  0
SCALE
  5
B7
102
{ACAD_REACTORS
330
99
102
}
330
99
100
AcDbScale
 70
     0
300
1-1/2" = 1'-0"
140
1.5
141
12.0
290
     0
  0
SCALE
  5
B8
102
{ACAD_REACTORS
330
99
102
}
330
99
100
AcDbScale
 70
     0
300
3" = 1'-0"
140
3.0
141
12.0
290
     0
  0
SCALE
  5
B9
102
{ACAD_REACTORS
330
99
102
}
330
99
100
AcDbScale
 70
     0
300
6" = 1'-0"
140
6.0
141
12.0
290
     0
  0
SCALE
  5
BA
102
{ACAD_REACTORS
330
99
102
}
330
99
100
AcDbScale
 70
     0
300
1'-0" = 1'-0"
140
12.0
141
12.0
290
     0
  0
ACDBSECTIONVIEWSTYLE
  5
299EC
102
{ACAD_XDICTIONARY
360
29A9B
102
}
102
{ACAD_REACTORS
330
8E2
102
}
330
8E2
100
AcDbModelDocViewStyle
 70
     0
  3
Metric50
290
     0
100
AcDbSectionViewStyle
 70
     0
 71
     0
 90
      102
 71
     1
340
11
 40
5.0
340
0
340
0
 40
5.0
300
I, O, Q, S, X, Z
 40
10.0
 90
        0
 40
2.5
 90
        0
 71
     2
340
16
 90
       25
340
16
 90
       50
 40
5.0
 40
2.5
 40
5.0
 71
     3
340
11
 40
5.0
 90
        0
 40
15.0
 90
        1
300
%<\AcVar ViewSectionStartId>%-%<\AcVar ViewSectionEndId>% (%<\AcVar ViewScale \f "%sn">%)
 71
     4
300
ANSI31
 40
1.0
 90
        0
290
     0
290
     0
 90
        6
 40
0.0
 40
1.570796326794896
 40
0.2617993877991494
 40
1.308996938995747
 40
-0.2617993877991494
 40
1.832595714594045
  0
TABLESTYLE
  5
299EA
102
{ACAD_XDICTIONARY
360
29A12
102
}
102
{ACAD_REACTORS
330
92
102
}
330
92
100
AcDbTableStyle
  3
Standard
 70
     0
 71
     0
 40
1.5
 41
1.5
280
     0
281
     0
  7
Standard
140
4.5
170
     2
 62
     0
 63
     7
283
     0
274
    -2
284
     1
 64
     0
275
    -2
285
     1
 65
     0
276
    -2
286
     1
 66
     0
277
    -2
287
     1
 67
     0
278
    -2
288
     1
 68
     0
279
    -2
289
     1
 69
     0
  7
Standard
140
6.0
170
     5
 62
     0
 63
     7
283
     0
274
    -2
284
     1
 64
     0
275
    -2
285
     1
 65
     0
276
    -2
286
     1
 66
     0
277
    -2
287
     1
 67
     0
278
    -2
288
     1
 68
     0
279
    -2
289
     1
 69
     0
  7
Standard
140
4.5
170
     5
 62
     0
 63
     7
283
     0
274
    -2
284
     1
 64
     0
275
    -2
285
     1
 65
     0
276
    -2
286
     1
 66
     0
277
    -2
287
     1
 67
     0
278
    -2
288
     1
 68
     0
279
    -2
289
     1
 69
     0
  0
VISUALSTYLE
  5
299D7
102
{ACAD_XDICTIONARY
360
29A74
102
}
102
{ACAD_REACTORS
330
3F2
102
}
330
3F2
100
AcDbVisualStyle
  2

 70
     4
 71
     0
 72
     2
 73
     0
 90
        0
 40
-0.6
 41
-30.0
 62
     5
 63
     7
 74
     1
 91
        4
 64
     7
 65
   257
 75
     1
175
     1
 42
1.0
 92
        0
 66
   257
 43
1.0
 76
     1
 77
     6
 78
     2
 67
     7
 79
     5
170
     0
171
     0
290
     0
174
     0
 93
        1
 44
0.0
173
     0
291
     0
 45
0.0
1001
ACAD
1000
AcDbSavedByObjectVersion
1070
     0
  0
VISUALSTYLE
  5
299D6
102
{ACAD_XDICTIONARY
360
29A72
102
}
102
{ACAD_REACTORS
330
3F2
102
}
330
3F2
100
AcDbVisualStyle
  2

 70
     7
 71
     1
 72
     0
 73
     1
 90
        0
 40
-0.6
 41
-30.0
 62
     5
 63
     7
 74
     0
 91
        4
 64
     7
 65
   257
 75
     1
175
     1
 42
1.0
 92
        8
 66
     7
 43
1.0
 76
     1
 77
     6
 78
     2
 67
     7
 79
     5
170
     0
171
     0
290
     0
174
     0
 93
        1
 44
0.0
173
     0
291
     1
 45
0.0
1001
ACAD
1000
AcDbSavedByObjectVersion
1070
     0
  0
VISUALSTYLE
  5
299DD
102
{ACAD_XDICTIONARY
360
29A80
102
}
102
{ACAD_REACTORS
330
3F2
102
}
330
3F2
100
AcDbVisualStyle
  2

 70
    12
 71
     2
 72
     2
 73
     0
 90
        0
 40
-0.6
 41
-30.0
 62
     5
 63
     7
 74
     1
 91
        4
 64
     7
 65
   257
 75
     1
175
     1
 42
1.0
 92
        8
 66
     7
 43
1.0
 76
     1
 77
     6
 78
     2
 67
     7
 79
     5
170
     0
171
     0
290
     0
174
     0
 93
        1
 44
50.0
173
     0
291
     1
 45
0.0
1001
ACAD
1000
AcDbSavedByObjectVersion
1070
     0
  0
VISUALSTYLE
  5
299E1
102
{ACAD_XDICTIONARY
360
29A88
102
}
102
{ACAD_REACTORS
330
3F2
102
}
330
3F2
100
AcDbVisualStyle
  2

 70
    16
 71
     2
 72
     2
 73
     3
 90
        0
 40
-0.6
 41
-30.0
 62
     5
 63
     8
 74
     1
 91
        4
 64
     7
 65
   257
 75
     1
175
     1
 42
1.0
 92
        8
 66
     8
 43
1.0
 76
     1
 77
     6
 78
     2
 67
     7
 79
     5
170
     0
171
     0
290
     0
174
     0
 93
        1
 44
0.0
173
     0
291
     1
 45
0.0
1001
ACAD
1000
AcDbSavedByObjectVersion
1070
     0
  0
VISUALSTYLE
  5
299DA
102
{ACAD_XDICTIONARY
360
29A7A
102
}
102
{ACAD_REACTORS
330
3F2
102
}
330
3F2
100
AcDbVisualStyle
  2

 70
     9
 71
     3
 72
     2
 73
     0
 90
        0
 40
-0.6
 41
-30.0
 62
     5
 63
     7
 74
     2
 91
        2
 64
     7
 65
   257
 75
     1
175
     1
 42
179.0
 92
        8
 66
     7
 43
1.0
 76
     1
 77
     6
 78
     2
 67
     7
 79
     3
170
     0
171
     0
290
     0
174
     0
 93
        1
 44
0.0
173
     0
291
     0
 45
0.0
1001
ACAD
1000
AcDbSavedByObjectVersion
1070
     0
  0
VISUALSTYLE
  5
299DC
102
{ACAD_XDICTIONARY
360
29A7E
102
}
102
{ACAD_REACTORS
330
3F2
102
}
330
3F2
100
AcDbVisualStyle
  2

 70
    11
 71
     2
 72
     2
 73
     0
 90
        0
 40
-0.6
 41
-30.0
 62
     5
 63
     7
 74
     1
 91
        4
 64
     7
 65
   257
 75
     1
175
     1
 42
1.0
 92
        8
 66
     7
 43
1.0
 76
     1
 77
     6
 78
     2
 67
     7
 79
     5
170
     0
171
     0
290
     0
174
     0
 93
        1
 44
-50.0
173
     0
291
     1
 45
0.0
1001
ACAD
1000
AcDbSavedByObjectVersion
1070
     0
  0
VISUALSTYLE
  5
299E9
102
{ACAD_XDICTIONARY
360
29A98
102
}
102
{ACAD_REACTORS
330
3F2
102
}
330
3F2
100
AcDbVisualStyle
  2

 70
    22
 71
     2
 72
     2
 73
     0
 90
        0
 40
-0.6
 41
-30.0
 62
     5
 63
     7
 74
     1
 91
        4
 64
     7
 65
   257
 75
     1
175
     1
 42
1.0
 92
        8
 66
     7
 43
1.0
 76
     1
 77
     6
 78
     2
 67
     7
 79
     5
170
     0
171
     0
290
     0
174
     0
 93
        1
 44
0.0
173
     0
291
     1
 45
0.0
1001
ACAD
1000
AcDbSavedByObjectVersion
1070
     0
  0
VISUALSTYLE
  5
299E0
102
{ACAD_XDICTIONARY
360
29A86
102
}
102
{ACAD_REACTORS
330
3F2
102
}
330
3F2
100
AcDbVisualStyle
  2

 70
    15
 71
     2
 72
     2
 73
     0
 90
        0
 40
-0.6
 41
-30.0
 62
     5
 63
     7
 74
     1
 91
        4
 64
     7
 65
   257
 75
     1
175
     1
 42
1.0
 92
        8
 66
     7
 43
1.0
 76
     1
 77
     6
 78
     2
 67
     7
 79
     5
170
     0
171
     0
290
     0
174
     0
 93
        1
 44
0.0
173
     0
291
     1
 45
0.0
1001
ACAD
1000
AcDbSavedByObjectVersion
1070
     0
  0
VISUALSTYLE
  5
299D2
102
{ACAD_XDICTIONARY
360
29A6A
102
}
102
{ACAD_REACTORS
330
3F2
102
}
330
3F2
100
AcDbVisualStyle
  2

 70
     0
 71
     2
 72
     1
 73
     1
 90
        2
 40
-0.6
 41
30.0
 62
     5
 63
     7
 74
     0
 91
        0
 64
     7
 65
   257
 75
     1
175
     1
 42
1.0
 92
        8
 66
     7
 43
1.0
 76
     1
 77
     6
 78
     2
 67
     7
 79
     5
170
     0
171
     0
290
     0
174
     0
 93
       13
 44
0.0
173
     0
291
     1
 45
0.0
1001
ACAD
1000
AcDbSavedByObjectVersion
1070
     0
  0
VISUALSTYLE
  5
299D3
102
{ACAD_XDICTIONARY
360
29A6C
102
}
102
{ACAD_REACTORS
330
3F2
102
}
330
3F2
100
AcDbVisualStyle
  2

 70
     1
 71
     2
 72
     1
 73
     1
 90
        2
 40
-0.6
 41
30.0
 62
     5
 63
     7
 74
     1
 91
        0
 64
     7
 65
   257
 75
     1
175
     1
 42
1.0
 92
        0
 66
   257
 43
1.0
 76
     1
 77
     6
 78
     2
 67
     7
 79
     5
170
     0
171
     0
290
     0
174
     0
 93
       13
 44
0.0
173
     0
291
     1
 45
0.0
1001
ACAD
1000
AcDbSavedByObjectVersion
1070
     0
  0
VISUALSTYLE
  5
299D4
102
{ACAD_XDICTIONARY
360
29A6E
102
}
102
{ACAD_REACTORS
330
3F2
102
}
330
3F2
100
AcDbVisualStyle
  2

 70
     2
 71
     2
 72
     2
 73
     1
 90
        2
 40
-0.6
 41
30.0
 62
     5
 63
     7
 74
     0
 91
        0
 64
     7
 65
   257
 75
     1
175
     1
 42
1.0
 92
        0
 66
     7
 43
1.0
 76
     1
 77
     6
 78
     2
 67
     7
 79
     5
170
     0
171
     0
290
     0
174
     0
 93
       13
 44
0.0
173
     0
291
     1
 45
0.0
1001
ACAD
1000
AcDbSavedByObjectVersion
1070
     0
  0
VISUALSTYLE
  5
299D5
102
{ACAD_XDICTIONARY
360
29A70
102
}
102
{ACAD_REACTORS
330
3F2
102
}
330
3F2
100
AcDbVisualStyle
  2

 70
     3
 71
     2
 72
     2
 73
     1
 90
        2
 40
-0.6
 41
30.0
 62
     5
 63
     7
 74
     1
 91
        0
 64
     7
 65
   257
 75
     1
175
     1
 42
1.0
 92
        0
 66
   257
 43
1.0
 76
     1
 77
     6
 78
     2
 67
     7
 79
     5
170
     0
171
     0
290
     0
174
     0
 93
       13
 44
0.0
173
     0
291
     1
 45
0.0
1001
ACAD
1000
AcDbSavedByObjectVersion
1070
     0
  0
VISUALSTYLE
  5
299D9
102
{ACAD_XDICTIONARY
360
29A78
102
}
102
{ACAD_REACTORS
330
3F2
102
}
330
3F2
100
AcDbVisualStyle
  2

 70
     6
 71
     1
 72
     2
 73
     2
 90
        0
 40
-0.6
 41
-30.0
 62
     5
 63
     7
 74
     2
 91
        2
 64
     7
 65
   257
 75
     2
175
     1
 42
40.0
 92
        0
 66
   257
 43
1.0
 76
     1
 77
     6
 78
     2
 67
     7
 79
     3
170
     0
171
     0
290
     0
174
     0
 93
        1
 44
0.0
173
     0
291
     0
 45
0.0
1001
ACAD
1000
AcDbSavedByObjectVersion
1070
     0
  0
VISUALSTYLE
  5
299E7
102
{ACAD_XDICTIONARY
360
29A94
102
}
102
{ACAD_REACTORS
330
3F2
102
}
330
3F2
100
AcDbVisualStyle
  2

 70
    20
 71
     2
 72
     2
 73
     0
 90
        0
 40
-0.6
 41
-30.0
 62
     5
 63
     7
 74
     1
 91
        4
 64
     7
 65
   257
 75
     1
175
     1
 42
1.0
 92
       10
 66
     7
 43
1.0
 76
     1
 77
     6
 78
     2
 67
     7
 79
     5
170
     0
171
     0
290
     0
174
     0
 93
        1
 44
0.0
173
     0
291
     1
 45
0.0
1001
ACAD
1000
AcDbSavedByObjectVersion
1070
     0
  0
VISUALSTYLE
  5
299DF
102
{ACAD_XDICTIONARY
360
29A84
102
}
102
{ACAD_REACTORS
330
3F2
102
}
330
3F2
100
AcDbVisualStyle
  2

 70
    14
 71
     2
 72
     2
 73
     0
 90
        0
 40
-0.6
 41
-30.0
 62
     5
 63
     7
 74
     1
 91
        4
 64
     7
 65
   257
 75
     7
175
     7
 42
1.0
 92
        8
 66
     7
 43
1.0
 76
     1
 77
     6
 78
     2
 67
     7
 79
     5
170
     0
171
     0
290
     0
174
     0
 93
        1
 44
0.0
173
     0
291
     1
 45
0.0
1001
ACAD
1000
AcDbSavedByObjectVersion
1070
     0
  0
VISUALSTYLE
  5
299E8
102
{ACAD_XDICTIONARY
360
29A96
102
}
102
{ACAD_REACTORS
330
3F2
102
}
330
3F2
100
AcDbVisualStyle
  2

 70
    21
 71
     2
 72
     2
 73
     0
 90
        0
 40
-0.6
 41
-30.0
 62
     5
 63
     7
 74
     1
 91
        4
 64
     7
 65
   257
 75
     1
175
     1
 42
1.0
 92
        9
 66
     7
 43
1.0
 76
     1
 77
     6
 78
     2
 67
     7
 79
     5
170
     0
171
     0
290
     0
174
     0
 93
        1
 44
0.0
173
     0
291
     1
 45
0.0
1001
ACAD
1000
AcDbSavedByObjectVersion
1070
     0
  0
VISUALSTYLE
  5
299DB
102
{ACAD_XDICTIONARY
360
29A7C
102
}
102
{ACAD_REACTORS
330
3F2
102
}
330
3F2
100
AcDbVisualStyle
  2

 70
     8
 71
     2
 72
     3
 73
     0
 90
        2
 40
-0.6
 41
30.0
 62
     5
 63
     7
 74
     0
 91
        0
 64
     7
 65
   257
 75
     1
175
     1
 42
1.0
 92
        8
 66
   257
 43
1.0
 76
     1
 77
     6
 78
     2
 67
     7
 79
     3
170
     0
171
     0
290
     0
174
     0
 93
       13
 44
0.0
173
     0
291
     0
 45
0.0
1001
ACAD
1000
AcDbSavedByObjectVersion
1070
     0
  0
VISUALSTYLE
  5
299E6
102
{ACAD_XDICTIONARY
360
29A92
102
}
102
{ACAD_REACTORS
330
3F2
102
}
330
3F2
100
AcDbVisualStyle
  2

 70
    27
 71
     2
 72
     2
 73
     1
 90
        2
 40
-0.6
 41
30.0
 62
     5
 63
     7
 74
     0
 91
        4
 64
     7
 65
   257
 75
     1
175
     1
 42
1.0
 92
        8
 66
   257
 43
1.0
 76
     1
 77
     6
 78
     2
 67
     8
 79
     3
170
     0
171
     0
290
     0
174
     0
 93
        5
 44
0.0
173
     0
291
     0
 45
0.0
1001
ACAD
1000
AcDbSavedByObjectVersion
1070
     0
  0
VISUALSTYLE
  5
299E5
102
{ACAD_XDICTIONARY
360
29A90
102
}
102
{ACAD_REACTORS
330
3F2
102
}
330
3F2
100
AcDbVisualStyle
  2

 70
    26
 71
     2
 72
     2
 73
     1
 90
        2
 40
-0.6
 41
30.0
 62
     5
 63
     7
 74
     1
 91
        2
 64
     7
 65
   257
 75
     2
175
     1
 42
1.0
 92
        8
 66
   257
 43
1.0
 76
     1
 77
     6
 78
     2
 67
     7
 79
     3
170
     0
171
     0
290
     0
174
     0
 93
        5
 44
0.0
173
     0
291
     0
 45
0.0
1001
ACAD
1000
AcDbSavedByObjectVersion
1070
     0
  0
VISUALSTYLE
  5
299E2
102
{ACAD_XDICTIONARY
360
29A8A
102
}
102
{ACAD_REACTORS
330
3F2
102
}
330
3F2
100
AcDbVisualStyle
  2

 70
    23
 71
     2
 72
     2
 73
     3
 90
        0
 40
-0.6
 41
-30.0
 62
     5
 63
     7
 74
     2
 91
        2
 64
     7
 65
     7
 75
     1
175
     1
 42
40.0
 92
        8
 66
     7
 43
1.0
 76
     1
 77
     6
 78
     2
 67
     7
 79
     3
170
     0
171
     0
290
     0
174
     0
 93
        1
 44
0.0
173
     0
291
     0
 45
0.0
1001
ACAD
1000
AcDbSavedByObjectVersion
1070
     0
  0
VISUALSTYLE
  5
299E3
102
{ACAD_XDICTIONARY
360
29A8C
102
}
102
{ACAD_REACTORS
330
3F2
102
}
330
3F2
100
AcDbVisualStyle
  2

 70
    24
 71
     1
 72
     2
 73
     2
 90
        0
 40
-0.6
 41
-30.0
 62
     5
 63
     7
 74
     2
 91
        2
 64
     7
 65
     7
 75
     1
175
     1
 42
40.0
 92
       11
 66
     7
 43
1.0
 76
     1
 77
     6
 78
     2
 67
     7
 79
     6
170
     0
171
     0
290
     0
174
     0
 93
        1
 44
0.0
173
     0
291
     0
 45
0.0
1001
ACAD
1000
AcDbSavedByObjectVersion
1070
     0
  0
VISUALSTYLE
  5
299DE
102
{ACAD_XDICTIONARY
360
29A82
102
}
102
{ACAD_REACTORS
330
3F2
102
}
330
3F2
100
AcDbVisualStyle
  2

 70
    13
 71
     2
 72
     2
 73
     0
 90
        0
 40
-0.6
 41
-30.0
 62
     5
 63
     7
 74
     1
 91
        4
 64
     7
 65
   257
 75
     1
175
     1
 42
1.0
 92
       12
 66
     7
 43
1.0
 76
     1
 77
     6
 78
     2
 67
     7
 79
     5
170
     0
171
     0
290
     0
174
     0
 93
        1
 44
0.0
173
     0
291
     1
 45
0.0
1001
ACAD
1000
AcDbSavedByObjectVersion
1070
     0
  0
VISUALSTYLE
  5
299D8
102
{ACAD_XDICTIONARY
360
29A76
102
}
102
{ACAD_REACTORS
330
3F2
102
}
330
3F2
100
AcDbVisualStyle
  2

 70
     5
 71
     0
 72
     2
 73
     0
 90
        0
 40
-0.6
 41
-30.0
 62
     5
 63
     7
 74
     1
 91
        4
 64
     7
 65
   257
 75
     1
175
     1
 42
1.0
 92
        0
 66
   257
 43
1.0
 76
     1
 77
     6
 78
     2
 67
     7
 79
     3
170
     0
171
     0
290
     0
174
     0
 93
        1
 44
0.0
173
     0
291
     0
 45
0.0
1001
ACAD
1000
AcDbSavedByObjectVersion
1070
     0
  0
VISUALSTYLE
  5
299E4
102
{ACAD_XDICTIONARY
360
29A8E
102
}
102
{ACAD_REACTORS
330
3F2
102
}
330
3F2
100
AcDbVisualStyle
  2

 70
    25
 71
     2
 72
     2
 73
     1
 90
        1
 40
0.5
 41
-30.0
 62
     5
 63
     7
 74
     1
 91
        0
 64
     7
 65
   257
 75
     1
175
     1
 42
1.0
 92
        8
 66
     7
 43
1.0
 76
     1
 77
     6
 78
     2
 67
     7
 79
     3
170
     0
171
     0
290
     0
174
     0
 93
       13
 44
0.0
173
     0
291
     0
 45
0.0
1001
ACAD
1000
AcDbSavedByObjectVersion
1070
     0
  0
XRECORD
  5
299B2
102
{ACAD_REACTORS
330
299B1
102
}
330
299B1
100
AcDbXrecord
280
     1
340
6C
  0
XRECORD
  5
299B3
102
{ACAD_REACTORS
330
299B1
102
}
330
299B1
100
AcDbXrecord
280
     1
340
6B
  0
DICTIONARYVAR
  5
299B0
102
{ACAD_REACTORS
330
59
102
}
330
59
100
DictionaryVariables
280
     0
  1
1:1
  0
DICTIONARYVAR
  5
29A10
102
{ACAD_REACTORS
330
59
102
}
330
59
100
DictionaryVariables
280
     0
  1
STANDARD
  0
DICTIONARYVAR
  5
98
102
{ACAD_REACTORS
330
59
102
}
330
59
100
DictionaryVariables
280
     0
  1
STANDARD
  0
DICTIONARYVAR
  5
8FB
102
{ACAD_REACTORS
330
59
102
}
330
59
100
DictionaryVariables
280
     0
  1
Metric50
  0
DICTIONARYVAR
  5
8FC
102
{ACAD_REACTORS
330
59
102
}
330
59
100
DictionaryVariables
280
     0
  1
Metric50
  0
DICTIONARYVAR
  5
359
102
{ACAD_REACTORS
330
59
102
}
330
59
100
DictionaryVariables
280
     0
  1
2
  0
DICTIONARYVAR
  5
AF7
102
{ACAD_REACTORS
330
59
102
}
330
59
100
DictionaryVariables
280
     0
  1
0
  0
DICTIONARYVAR
  5
358
102
{ACAD_REACTORS
330
59
102
}
330
59
100
DictionaryVariables
280
     0
  1
1
  0
DICTIONARYVAR
  5
9BE
102
{ACAD_REACTORS
330
59
102
}
330
59
100
DictionaryVariables
280
     0
  1
0
  0
DICTIONARYVAR
  5
7AE
102
{ACAD_REACTORS
330
59
102
}
330
59
100
DictionaryVariables
280
     0
  1
1
  0
DICTIONARYVAR
  5
7AF
102
{ACAD_REACTORS
330
59
102
}
330
59
100
DictionaryVariables
280
     0
  1
15
  0
DICTIONARYVAR
  5
44A
102
{ACAD_REACTORS
330
59
102
}
330
59
100
DictionaryVariables
280
     0
  1
0
  0
DICTIONARYVAR
  5
448
102
{ACAD_REACTORS
330
59
102
}
330
59
100
DictionaryVariables
280
     0
  1
1
  0
DICTIONARYVAR
  5
9BD
102
{ACAD_REACTORS
330
59
102
}
330
59
100
DictionaryVariables
280
     0
  1
127
  0
DICTIONARYVAR
  5
29A5D
102
{ACAD_REACTORS
330
59
102
}
330
59
100
DictionaryVariables
280
     0
  1
2
  0
DICTIONARY
  5
76F
102
{ACAD_REACTORS
330
76D
102
}
330
76D
100
AcDbDictionary
281
     1
  0
DICTIONARY
  5
744
102
{ACAD_REACTORS
330
743
102
}
330
743
100
AcDbDictionary
281
     1
  0
XRECORD
  5
8C7
102
{ACAD_REACTORS
330
8C6
102
}
330
8C6
100
AcDbXrecord
280
     1
  0
DICTIONARY
  5
29A9D
330
299ED
100
AcDbDictionary
280
     1
281
     1
  3
ACAD_XREC_ROUNDTRIP
360
29A9E
  0
DICTIONARY
  5
29A68
330
74
100
AcDbDictionary
280
     1
281
     1
  3
ACAD_XREC_ROUNDTRIP
360
29A69
  0
DICTIONARY
  5
29A66
330
22
100
AcDbDictionary
280
     1
281
     1
  3
ACAD_XREC_ROUNDTRIP
360
29A67
  0
DICTIONARY
  5
299C3
330
299C2
100
AcDbDictionary
280
     1
281
     1
  3
ACAD_XREC_ROUNDTRIP
360
29A20
  3
BUMPTILE
360
299C5
  3
DIFFUSETILE
360
299C4
  3
OPACITYTILE
360
299C8
  3
REFLECTIONTILE
360
299C7
  3
REFRACTIONTILE
360
299C9
  3
SPECULARTILE
360
299C6
  0
DICTIONARY
  5
299BB
330
299BA
100
AcDbDictionary
280
     1
281
     1
  3
ACAD_XREC_ROUNDTRIP
360
29A1F
  3
BUMPTILE
360
299BD
  3
DIFFUSETILE
360
299BC
  3
OPACITYTILE
360
299C0
  3
REFLECTIONTILE
360
299BF
  3
REFRACTIONTILE
360
299C1
  3
SPECULARTILE
360
299BE
  0
DICTIONARY
  5
299CB
330
299CA
100
AcDbDictionary
280
     1
281
     1
  3
ACAD_XREC_ROUNDTRIP
360
29A21
  3
BUMPTILE
360
299CD
  3
DIFFUSETILE
360
299CC
  3
OPACITYTILE
360
299D0
  3
REFLECTIONTILE
360
299CF
  3
REFRACTIONTILE
360
299D1
  3
SPECULARTILE
360
299CE
  0
DICTIONARY
  5
29A9B
330
299EC
100
AcDbDictionary
280
     1
281
     1
  3
ACAD_XREC_ROUNDTRIP
360
29A9C
  0
DICTIONARY
  5
29A12
330
299EA
100
AcDbDictionary
280
     1
281
     1
  3
ACAD_ROUNDTRIP_2008_TABLESTYLE_CELLSTYLEMAP
360
29A5E
  3
ACAD_XREC_ROUNDTRIP
360
29A9A
  0
DICTIONARY
  5
29A74
330
299D7
100
AcDbDictionary
280
     1
281
     1
  3
ACAD_XREC_ROUNDTRIP
360
29A75
  0
DICTIONARY
  5
29A72
330
299D6
100
AcDbDictionary
280
     1
281
     1
  3
ACAD_XREC_ROUNDTRIP
360
29A73
  0
DICTIONARY
  5
29A80
330
299DD
100
AcDbDictionary
280
     1
281
     1
  3
ACAD_XREC_ROUNDTRIP
360
29A81
  0
DICTIONARY
  5
29A88
330
299E1
100
AcDbDictionary
280
     1
281
     1
  3
ACAD_XREC_ROUNDTRIP
360
29A89
  0
DICTIONARY
  5
29A7A
330
299DA
100
AcDbDictionary
280
     1
281
     1
  3
ACAD_XREC_ROUNDTRIP
360
29A7B
  0
DICTIONARY
  5
29A7E
330
299DC
100
AcDbDictionary
280
     1
281
     1
  3
ACAD_XREC_ROUNDTRIP
360
29A7F
  0
DICTIONARY
  5
29A98
330
299E9
100
AcDbDictionary
280
     1
281
     1
  3
ACAD_XREC_ROUNDTRIP
360
29A99
  0
DICTIONARY
  5
29A86
330
299E0
100
AcDbDictionary
280
     1
281
     1
  3
ACAD_XREC_ROUNDTRIP
360
29A87
  0
DICTIONARY
  5
29A6A
330
299D2
100
AcDbDictionary
280
     1
281
     1
  3
ACAD_XREC_ROUNDTRIP
360
29A6B
  0
DICTIONARY
  5
29A6C
330
299D3
100
AcDbDictionary
280
     1
281
     1
  3
ACAD_XREC_ROUNDTRIP
360
29A6D
  0
DICTIONARY
  5
29A6E
330
299D4
100
AcDbDictionary
280
     1
281
     1
  3
ACAD_XREC_ROUNDTRIP
360
29A6F
  0
DICTIONARY
  5
29A70
330
299D5
100
AcDbDictionary
280
     1
281
     1
  3
ACAD_XREC_ROUNDTRIP
360
29A71
  0
DICTIONARY
  5
29A78
330
299D9
100
AcDbDictionary
280
     1
281
     1
  3
ACAD_XREC_ROUNDTRIP
360
29A79
  0
DICTIONARY
  5
29A94
330
299E7
100
AcDbDictionary
280
     1
281
     1
  3
ACAD_XREC_ROUNDTRIP
360
29A95
  0
DICTIONARY
  5
29A84
330
299DF
100
AcDbDictionary
280
     1
281
     1
  3
ACAD_XREC_ROUNDTRIP
360
29A85
  0
DICTIONARY
  5
29A96
330
299E8
100
AcDbDictionary
280
     1
281
     1
  3
ACAD_XREC_ROUNDTRIP
360
29A97
  0
DICTIONARY
  5
29A7C
330
299DB
100
AcDbDictionary
280
     1
281
     1
  3
ACAD_XREC_ROUNDTRIP
360
29A7D
  0
DICTIONARY
  5
29A92
330
299E6
100
AcDbDictionary
280
     1
281
     1
  3
ACAD_XREC_ROUNDTRIP
360
29A93
  0
DICTIONARY
  5
29A90
330
299E5
100
AcDbDictionary
280
     1
281
     1
  3
ACAD_XREC_ROUNDTRIP
360
29A91
  0
DICTIONARY
  5
29A8A
330
299E2
100
AcDbDictionary
280
     1
281
     1
  3
ACAD_XREC_ROUNDTRIP
360
29A8B
  0
DICTIONARY
  5
29A8C
330
299E3
100
AcDbDictionary
280
     1
281
     1
  3
ACAD_XREC_ROUNDTRIP
360
29A8D
  0
DICTIONARY
  5
29A82
330
299DE
100
AcDbDictionary
280
     1
281
     1
  3
ACAD_XREC_ROUNDTRIP
360
29A83
  0
DICTIONARY
  5
29A76
330
299D8
100
AcDbDictionary
280
     1
281
     1
  3
ACAD_XREC_ROUNDTRIP
360
29A77
  0
DICTIONARY
  5
29A8E
330
299E4
100
AcDbDictionary
280
     1
281
     1
  3
ACAD_XREC_ROUNDTRIP
360
29A8F
  0
XRECORD
  5
29A9E
102
{ACAD_REACTORS
330
29A9D
102
}
330
29A9D
100
AcDbXrecord
280
     1
102
DISPLAYNAME
  1
Metric50
102
FLAGS
 90
        0
  0
XRECORD
  5
29A69
102
{ACAD_REACTORS
330
29A68
102
}
330
29A68
100
AcDbXrecord
280
     1
102
SHADEPLOT
 70
     0
102
SHADEPLOTRESLEVEL
 70
     2
102
SHADEPLOTCUSTOMDPI
 70
   300
  0
XRECORD
  5
29A67
102
{ACAD_REACTORS
330
29A66
102
}
330
29A66
100
AcDbXrecord
280
     1
102
SHADEPLOT
 70
     0
102
SHADEPLOTRESLEVEL
 70
     4
102
SHADEPLOTCUSTOMDPI
 70
   300
  0
XRECORD
  5
29A20
102
{ACAD_REACTORS
330
299C3
102
}
330
299C3
100
AcDbXrecord
280
     1
102
MATERIAL
148
0.0
149
0.0
149
0.0
 93
        0
 94
      127
282
     0
 72
     0
 77
     0
171
     0
175
     0
179
     0
273
     0
  0
XRECORD
  5
299C5
102
{ACAD_REACTORS
330
299C3
102
}
330
299C3
100
AcDbXrecord
280
     1
270
     1
271
     1
  0
XRECORD
  5
299C4
102
{ACAD_REACTORS
330
299C3
102
}
330
299C3
100
AcDbXrecord
280
     1
270
     1
271
     1
  0
XRECORD
  5
299C8
102
{ACAD_REACTORS
330
299C3
102
}
330
299C3
100
AcDbXrecord
280
     1
270
     1
271
     1
  0
XRECORD
  5
299C7
102
{ACAD_REACTORS
330
299C3
102
}
330
299C3
100
AcDbXrecord
280
     1
270
     1
271
     1
  0
XRECORD
  5
299C9
102
{ACAD_REACTORS
330
299C3
102
}
330
299C3
100
AcDbXrecord
280
     1
270
     1
271
     1
  0
XRECORD
  5
299C6
102
{ACAD_REACTORS
330
299C3
102
}
330
299C3
100
AcDbXrecord
280
     1
270
     1
271
     1
  0
XRECORD
  5
29A1F
102
{ACAD_REACTORS
330
299BB
102
}
330
299BB
100
AcDbXrecord
280
     1
102
MATERIAL
148
0.0
149
0.0
149
0.0
 93
        0
 94
      127
282
     0
 72
     0
 77
     0
171
     0
175
     0
179
     0
273
     0
  0
XRECORD
  5
299BD
102
{ACAD_REACTORS
330
299BB
102
}
330
299BB
100
AcDbXrecord
280
     1
270
     1
271
     1
  0
XRECORD
  5
299BC
102
{ACAD_REACTORS
330
299BB
102
}
330
299BB
100
AcDbXrecord
280
     1
270
     1
271
     1
  0
XRECORD
  5
299C0
102
{ACAD_REACTORS
330
299BB
102
}
330
299BB
100
AcDbXrecord
280
     1
270
     1
271
     1
  0
XRECORD
  5
299BF
102
{ACAD_REACTORS
330
299BB
102
}
330
299BB
100
AcDbXrecord
280
     1
270
     1
271
     1
  0
XRECORD
  5
299C1
102
{ACAD_REACTORS
330
299BB
102
}
330
299BB
100
AcDbXrecord
280
     1
270
     1
271
     1
  0
XRECORD
  5
299BE
102
{ACAD_REACTORS
330
299BB
102
}
330
299BB
100
AcDbXrecord
280
     1
270
     1
271
     1
  0
XRECORD
  5
29A21
102
{ACAD_REACTORS
330
299CB
102
}
330
299CB
100
AcDbXrecord
280
     1
102
MATERIAL
148
0.0
149
0.0
149
0.0
 93
        0
 94
      127
282
     0
 72
     0
 77
     0
171
     0
175
     0
179
     0
273
     0
  0
XRECORD
  5
299CD
102
{ACAD_REACTORS
330
299CB
102
}
330
299CB
100
AcDbXrecord
280
     1
270
     1
271
     1
  0
XRECORD
  5
299CC
102
{ACAD_REACTORS
330
299CB
102
}
330
299CB
100
AcDbXrecord
280
     1
270
     1
271
     1
  0
XRECORD
  5
299D0
102
{ACAD_REACTORS
330
299CB
102
}
330
299CB
100
AcDbXrecord
280
     1
270
     1
271
     1
  0
XRECORD
  5
299CF
102
{ACAD_REACTORS
330
299CB
102
}
330
299CB
100
AcDbXrecord
280
     1
270
     1
271
     1
  0
XRECORD
  5
299D1
102
{ACAD_REACTORS
330
299CB
102
}
330
299CB
100
AcDbXrecord
280
     1
270
     1
271
     1
  0
XRECORD
  5
299CE
102
{ACAD_REACTORS
330
299CB
102
}
330
299CB
100
AcDbXrecord
280
     1
270
     1
271
     1
  0
XRECORD
  5
29A9C
102
{ACAD_REACTORS
330
29A9B
102
}
330
29A9B
100
AcDbXrecord
280
     1
102
DISPLAYNAME
  1
Metric50
102
FLAGS
 90
        0
  0
CELLSTYLEMAP
  5
29A5E
102
{ACAD_REACTORS
330
29A12
102
}
330
29A12
100
AcDbCellStyleMap
 90
        3
300
CELLSTYLE
  1
TABLEFORMAT_BEGIN
 90
        5
170
     1
 91
        0
 92
    32768
 62
   257
 93
        1
300
CONTENTFORMAT
  1
CONTENTFORMAT_BEGIN
 90
        0
 91
        0
 92
      512
 93
        0
300

 40
0.0
140
1.0
 94
        5
 62
     0
340
11
144
6.0
309
CONTENTFORMAT_END
171
     1
301
MARGIN
  1
CELLMARGIN_BEGIN
 40
1.5
 40
1.5
 40
1.5
 40
1.5
 40
0.18
 40
0.18
309
CELLMARGIN_END
 94
        6
 95
        1
302
GRIDFORMAT
  1
GRIDFORMAT_BEGIN
 90
        0
 91
        1
 62
     0
 92
       -2
340
0
 93
        0
 40
1.125
309
GRIDFORMAT_END
 95
        2
302
GRIDFORMAT
  1
GRIDFORMAT_BEGIN
 90
        0
 91
        1
 62
     0
 92
       -2
340
0
 93
        0
 40
1.125
309
GRIDFORMAT_END
 95
        4
302
GRIDFORMAT
  1
GRIDFORMAT_BEGIN
 90
        0
 91
        1
 62
     0
 92
       -2
340
0
 93
        0
 40
1.125
309
GRIDFORMAT_END
 95
        8
302
GRIDFORMAT
  1
GRIDFORMAT_BEGIN
 90
        0
 91
        1
 62
     0
 92
       -2
340
0
 93
        0
 40
1.125
309
GRIDFORMAT_END
 95
       16
302
GRIDFORMAT
  1
GRIDFORMAT_BEGIN
 90
        0
 91
        1
 62
     0
 92
       -2
340
0
 93
        0
 40
1.125
309
GRIDFORMAT_END
 95
       32
302
GRIDFORMAT
  1
GRIDFORMAT_BEGIN
 90
        0
 91
        1
 62
     0
 92
       -2
340
0
 93
        0
 40
1.125
309
GRIDFORMAT_END
309
TABLEFORMAT_END
  1
CELLSTYLE_BEGIN
 90
        1
 91
        1
300
_TITLE
309
CELLSTYLE_END
300
CELLSTYLE
  1
TABLEFORMAT_BEGIN
 90
        5
170
     1
 91
        0
 92
        0
 62
   257
 93
        1
300
CONTENTFORMAT
  1
CONTENTFORMAT_BEGIN
 90
        0
 91
        0
 92
      512
 93
        0
300

 40
0.0
140
1.0
 94
        5
 62
     0
340
11
144
4.5
309
CONTENTFORMAT_END
171
     1
301
MARGIN
  1
CELLMARGIN_BEGIN
 40
1.5
 40
1.5
 40
1.5
 40
1.5
 40
0.18
 40
0.18
309
CELLMARGIN_END
 94
        6
 95
        1
302
GRIDFORMAT
  1
GRIDFORMAT_BEGIN
 90
        0
 91
        1
 62
     0
 92
       -2
340
0
 93
        0
 40
1.125
309
GRIDFORMAT_END
 95
        2
302
GRIDFORMAT
  1
GRIDFORMAT_BEGIN
 90
        0
 91
        1
 62
     0
 92
       -2
340
0
 93
        0
 40
1.125
309
GRIDFORMAT_END
 95
        4
302
GRIDFORMAT
  1
GRIDFORMAT_BEGIN
 90
        0
 91
        1
 62
     0
 92
       -2
340
0
 93
        0
 40
1.125
309
GRIDFORMAT_END
 95
        8
302
GRIDFORMAT
  1
GRIDFORMAT_BEGIN
 90
        0
 91
        1
 62
     0
 92
       -2
340
0
 93
        0
 40
1.125
309
GRIDFORMAT_END
 95
       16
302
GRIDFORMAT
  1
GRIDFORMAT_BEGIN
 90
        0
 91
        1
 62
     0
 92
       -2
340
0
 93
        0
 40
1.125
309
GRIDFORMAT_END
 95
       32
302
GRIDFORMAT
  1
GRIDFORMAT_BEGIN
 90
        0
 91
        1
 62
     0
 92
       -2
340
0
 93
        0
 40
1.125
309
GRIDFORMAT_END
309
TABLEFORMAT_END
  1
CELLSTYLE_BEGIN
 90
        2
 91
        1
300
_HEADER
309
CELLSTYLE_END
300
CELLSTYLE
  1
TABLEFORMAT_BEGIN
 90
        5
170
     1
 91
        0
 92
        0
 62
   257
 93
        1
300
CONTENTFORMAT
  1
CONTENTFORMAT_BEGIN
 90
        0
 91
        0
 92
      512
 93
        0
300

 40
0.0
140
1.0
 94
        2
 62
     0
340
11
144
4.5
309
CONTENTFORMAT_END
171
     1
301
MARGIN
  1
CELLMARGIN_BEGIN
 40
1.5
 40
1.5
 40
1.5
 40
1.5
 40
0.18
 40
0.18
309
CELLMARGIN_END
 94
        6
 95
        1
302
GRIDFORMAT
  1
GRIDFORMAT_BEGIN
 90
        0
 91
        1
 62
     0
 92
       -2
340
0
 93
        0
 40
1.125
309
GRIDFORMAT_END
 95
        2
302
GRIDFORMAT
  1
GRIDFORMAT_BEGIN
 90
        0
 91
        1
 62
     0
 92
       -2
340
0
 93
        0
 40
1.125
309
GRIDFORMAT_END
 95
        4
302
GRIDFORMAT
  1
GRIDFORMAT_BEGIN
 90
        0
 91
        1
 62
     0
 92
       -2
340
0
 93
        0
 40
1.125
309
GRIDFORMAT_END
 95
        8
302
GRIDFORMAT
  1
GRIDFORMAT_BEGIN
 90
        0
 91
        1
 62
     0
 92
       -2
340
0
 93
        0
 40
1.125
309
GRIDFORMAT_END
 95
       16
302
GRIDFORMAT
  1
GRIDFORMAT_BEGIN
 90
        0
 91
        1
 62
     0
 92
       -2
340
0
 93
        0
 40
1.125
309
GRIDFORMAT_END
 95
       32
302
GRIDFORMAT
  1
GRIDFORMAT_BEGIN
 90
        0
 91
        1
 62
     0
 92
       -2
340
0
 93
        0
 40
1.125
309
GRIDFORMAT_END
309
TABLEFORMAT_END
  1
CELLSTYLE_BEGIN
 90
        3
 91
        2
300
_DATA
309
CELLSTYLE_END
  0
XRECORD
  5
29A9A
102
{ACAD_REACTORS
330
29A12
102
}
330
29A12
100
AcDbXrecord
280
     1
102
ACAD_ROUNDTRIP_PRE2007_TABLESTYLE
 90
      512
 91
        0
  1

 92
      512
 93
        0
  2

 94
      512
 95
        0
  3

  0
XRECORD
  5
29A75
102
{ACAD_REACTORS
330
29A74
102
}
330
29A74
100
AcDbXrecord
280
     1
102
RTVSPost2010Prop28
280
     1
102
RTVSPost2010PropOp28
 70
     1
102
RTVSPost2010Prop29
280
     1
102
RTVSPost2010PropOp29
 70
     1
102
RTVSPost2010Prop30
280
     0
102
RTVSPost2010PropOp30
 70
     1
102
RTVSPost2010Prop31
280
     0
102
RTVSPost2010PropOp31
 70
     1
102
RTVSPost2010Prop32
280
     0
102
RTVSPost2010PropOp32
 70
     1
102
RTVSPost2010Prop33
280
     0
102
RTVSPost2010PropOp33
 70
     1
102
RTVSPost2010Prop34
280
     0
102
RTVSPost2010PropOp34
 70
     1
102
RTVSPost2010Prop35
280
     0
102
RTVSPost2010PropOp35
 70
     1
102
RTVSPost2010Prop36
280
     0
102
RTVSPost2010PropOp36
 70
     1
102
RTVSPost2010Prop37
 90
       50
102
RTVSPost2010PropOp37
 70
     1
102
RTVSPost2010Prop38
140
0.0
102
RTVSPost2010PropOp38
 70
     1
102
RTVSPost2010Prop39
140
1.0
102
RTVSPost2010PropOp39
 70
     1
102
RTVSPost2010Prop40
 90
        0
102
RTVSPost2010PropOp40
 70
     1
102
RTVSPost2010Prop41ColorIndex
 90
       18
102
RTVSPost2010Prop41ColorRGB
 90
        0
102
RTVSPost2010PropOp41
 70
     1
102
RTVSPost2010Prop42
 90
       50
102
RTVSPost2010PropOp42
 70
     1
102
RTVSPost2010Prop43
 90
        3
102
RTVSPost2010PropOp43
 70
     1
102
RTVSPost2010Prop44ColorIndex
 90
        5
102
RTVSPost2010Prop44ColorRGB
 90
      255
102
RTVSPost2010PropOp44
 70
     1
102
RTVSPost2010Prop45
280
     0
102
RTVSPost2010PropOp45
 70
     1
102
RTVSPost2010Prop46
 90
       50
102
RTVSPost2010PropOp46
 70
     1
102
RTVSPost2010Prop47
 90
       50
102
RTVSPost2010PropOp47
 70
     1
102
RTVSPost2010Prop48
 90
       50
102
RTVSPost2010PropOp48
 70
     1
102
RTVSPost2010Prop49
280
     0
102
RTVSPost2010PropOp49
 70
     1
102
RTVSPost2010Prop50
 90
       50
102
RTVSPost2010PropOp50
 70
     1
102
RTVSPost2010Prop51ColorIndex
 90
      256
102
RTVSPost2010Prop51ColorRGB
 90
-16777216
102
RTVSPost2010PropOp51
 70
     0
102
RTVSPost2010Prop52
140
1.0
102
RTVSPost2010PropOp52
 70
     0
102
RTVSPost2010Prop53
 90
        2
102
RTVSPost2010PropOp53
 70
     1
102
RTVSPost2010Prop54
  1
strokes_ogs.tif
102
RTVSPost2010PropOp54
 70
     1
102
RTVSPost2010Prop55
280
     0
102
RTVSPost2010PropOp55
 70
     1
102
RTVSPost2010Prop56
140
1.0
102
RTVSPost2010PropOp56
 70
     1
102
RTVSPost2010Prop57
140
1.0
102
RTVSPost2010PropOp57
 70
     1
102
RTVSPropertyOp0
 70
     1
102
RTVSPropertyOp1
 70
     1
102
RTVSPropertyOp2
 70
     1
102
RTVSPropertyOp3
 70
     1
102
RTVSPropertyOp4
 70
     1
102
RTVSPropertyOp5
 70
     1
102
RTVSPropertyOp6
 70
     1
102
RTVSPropertyOp7
 70
     1
102
RTVSPropertyOp8
 70
     1
102
RTVSPropertyOp9
 70
     1
102
RTVSPropertyOp10
 70
     1
102
RTVSPropertyOp11
 70
     1
102
RTVSPropertyOp12
 70
     1
102
RTVSPropertyOp13
 70
     1
102
RTVSPropertyOp14
 70
     1
102
RTVSPropertyOp15
 70
     1
102
RTVSPropertyOp16
 70
     1
102
RTVSPropertyOp17
 70
     1
102
RTVSPropertyOp18
 70
     1
102
RTVSPropertyOp19
 70
     1
102
RTVSPropertyOp20
 70
     1
102
RTVSPropertyOp21
 70
     1
102
RTVSPropertyOp22
 70
     1
102
RTVSPropertyOp23
 70
     1
102
RTVSPropertyOp24
 70
     1
102
RTVSPropertyOp25
 70
     1
102
RTVSPropertyOp26
 70
     1
102
RTVSPropertyOp27
 70
     1
102
RTVSPropertyOp28
 70
     1
102
RTVSPropertyOp29
 70
     1
102
RTVSPropertyOp30
 70
     1
102
RTVSPropertyOp31
 70
     1
102
RTVSPropertyOp32
 70
     1
102
RTVSPropertyOp33
 70
     1
102
RTVSPropertyOp34
 70
     1
102
RTVSPropertyOp35
 70
     1
102
RTVSPropertyOp36
 70
     1
102
RTVSPropertyOp37
 70
     1
102
RTVSPropertyOp38
 70
     1
102
RTVSPropertyOp39
 70
     1
102
RTVSPropertyOp40
 70
     1
102
RTVSPropertyOp41
 70
     1
102
RTVSPropertyOp42
 70
     1
102
RTVSPropertyOp43
 70
     1
102
RTVSPropertyOp44
 70
     1
102
RTVSPropertyOp45
 70
     1
102
RTVSPropertyOp46
 70
     1
102
RTVSPropertyOp47
 70
     1
102
RTVSPropertyOp48
 70
     1
102
RTVSPropertyOp49
 70
     1
102
RTVSPropertyOp50
 70
     1
102
RTVSPropertyOp51
 70
     0
102
RTVSPropertyOp52
 70
     0
102
RTVSPropertyOp53
 70
     1
102
RTVSPropertyOp54
 70
     1
102
RTVSPropertyOp55
 70
     1
102
RTVSPropertyOp56
 70
     1
102
RTVSPropertyOp57
 70
     1
102
RTVSPropertyOp58
 70
     1
102
RTVSPropertyOp59
 70
     1
102
RTVSPropertyOp60
 70
     1
102
RTVSPropertyOp61
 70
     1
102
RTVSPropertyOp62
 70
     1
  0
XRECORD
  5
29A73
102
{ACAD_REACTORS
330
29A72
102
}
330
29A72
100
AcDbXrecord
280
     1
102
RTVSPost2010Prop28
280
     0
102
RTVSPost2010PropOp28
 70
     1
102
RTVSPost2010Prop29
280
     1
102
RTVSPost2010PropOp29
 70
     1
102
RTVSPost2010Prop30
280
     1
102
RTVSPost2010PropOp30
 70
     1
102
RTVSPost2010Prop31
280
     0
102
RTVSPost2010PropOp31
 70
     1
102
RTVSPost2010Prop32
280
     0
102
RTVSPost2010PropOp32
 70
     1
102
RTVSPost2010Prop33
280
     0
102
RTVSPost2010PropOp33
 70
     1
102
RTVSPost2010Prop34
280
     0
102
RTVSPost2010PropOp34
 70
     1
102
RTVSPost2010Prop35
280
     0
102
RTVSPost2010PropOp35
 70
     1
102
RTVSPost2010Prop36
280
     0
102
RTVSPost2010PropOp36
 70
     1
102
RTVSPost2010Prop37
 90
       50
102
RTVSPost2010PropOp37
 70
     1
102
RTVSPost2010Prop38
140
0.0
102
RTVSPost2010PropOp38
 70
     1
102
RTVSPost2010Prop39
140
1.0
102
RTVSPost2010PropOp39
 70
     1
102
RTVSPost2010Prop40
 90
        0
102
RTVSPost2010PropOp40
 70
     1
102
RTVSPost2010Prop41ColorIndex
 90
       18
102
RTVSPost2010Prop41ColorRGB
 90
        0
102
RTVSPost2010PropOp41
 70
     1
102
RTVSPost2010Prop42
 90
       50
102
RTVSPost2010PropOp42
 70
     1
102
RTVSPost2010Prop43
 90
        3
102
RTVSPost2010PropOp43
 70
     1
102
RTVSPost2010Prop44ColorIndex
 90
        5
102
RTVSPost2010Prop44ColorRGB
 90
      255
102
RTVSPost2010PropOp44
 70
     1
102
RTVSPost2010Prop45
280
     0
102
RTVSPost2010PropOp45
 70
     1
102
RTVSPost2010Prop46
 90
       50
102
RTVSPost2010PropOp46
 70
     1
102
RTVSPost2010Prop47
 90
       50
102
RTVSPost2010PropOp47
 70
     1
102
RTVSPost2010Prop48
 90
       50
102
RTVSPost2010PropOp48
 70
     1
102
RTVSPost2010Prop49
280
     0
102
RTVSPost2010PropOp49
 70
     1
102
RTVSPost2010Prop50
 90
       50
102
RTVSPost2010PropOp50
 70
     1
102
RTVSPost2010Prop51ColorIndex
 90
      256
102
RTVSPost2010Prop51ColorRGB
 90
-16777216
102
RTVSPost2010PropOp51
 70
     0
102
RTVSPost2010Prop52
140
1.0
102
RTVSPost2010PropOp52
 70
     0
102
RTVSPost2010Prop53
 90
        2
102
RTVSPost2010PropOp53
 70
     1
102
RTVSPost2010Prop54
  1
strokes_ogs.tif
102
RTVSPost2010PropOp54
 70
     1
102
RTVSPost2010Prop55
280
     0
102
RTVSPost2010PropOp55
 70
     1
102
RTVSPost2010Prop56
140
1.0
102
RTVSPost2010PropOp56
 70
     1
102
RTVSPost2010Prop57
140
1.0
102
RTVSPost2010PropOp57
 70
     1
102
RTVSPropertyOp0
 70
     1
102
RTVSPropertyOp1
 70
     1
102
RTVSPropertyOp2
 70
     1
102
RTVSPropertyOp3
 70
     1
102
RTVSPropertyOp4
 70
     1
102
RTVSPropertyOp5
 70
     1
102
RTVSPropertyOp6
 70
     1
102
RTVSPropertyOp7
 70
     1
102
RTVSPropertyOp8
 70
     1
102
RTVSPropertyOp9
 70
     1
102
RTVSPropertyOp10
 70
     1
102
RTVSPropertyOp11
 70
     1
102
RTVSPropertyOp12
 70
     1
102
RTVSPropertyOp13
 70
     1
102
RTVSPropertyOp14
 70
     1
102
RTVSPropertyOp15
 70
     1
102
RTVSPropertyOp16
 70
     1
102
RTVSPropertyOp17
 70
     1
102
RTVSPropertyOp18
 70
     1
102
RTVSPropertyOp19
 70
     1
102
RTVSPropertyOp20
 70
     1
102
RTVSPropertyOp21
 70
     1
102
RTVSPropertyOp22
 70
     1
102
RTVSPropertyOp23
 70
     1
102
RTVSPropertyOp24
 70
     1
102
RTVSPropertyOp25
 70
     1
102
RTVSPropertyOp26
 70
     1
102
RTVSPropertyOp27
 70
     1
102
RTVSPropertyOp28
 70
     1
102
RTVSPropertyOp29
 70
     1
102
RTVSPropertyOp30
 70
     1
102
RTVSPropertyOp31
 70
     1
102
RTVSPropertyOp32
 70
     1
102
RTVSPropertyOp33
 70
     1
102
RTVSPropertyOp34
 70
     1
102
RTVSPropertyOp35
 70
     1
102
RTVSPropertyOp36
 70
     1
102
RTVSPropertyOp37
 70
     1
102
RTVSPropertyOp38
 70
     1
102
RTVSPropertyOp39
 70
     1
102
RTVSPropertyOp40
 70
     1
102
RTVSPropertyOp41
 70
     1
102
RTVSPropertyOp42
 70
     1
102
RTVSPropertyOp43
 70
     1
102
RTVSPropertyOp44
 70
     1
102
RTVSPropertyOp45
 70
     1
102
RTVSPropertyOp46
 70
     1
102
RTVSPropertyOp47
 70
     1
102
RTVSPropertyOp48
 70
     1
102
RTVSPropertyOp49
 70
     1
102
RTVSPropertyOp50
 70
     1
102
RTVSPropertyOp51
 70
     0
102
RTVSPropertyOp52
 70
     0
102
RTVSPropertyOp53
 70
     1
102
RTVSPropertyOp54
 70
     1
102
RTVSPropertyOp55
 70
     1
102
RTVSPropertyOp56
 70
     1
102
RTVSPropertyOp57
 70
     1
102
RTVSPropertyOp58
 70
     1
102
RTVSPropertyOp59
 70
     1
102
RTVSPropertyOp60
 70
     1
102
RTVSPropertyOp61
 70
     1
102
RTVSPropertyOp62
 70
     1
  0
XRECORD
  5
29A81
102
{ACAD_REACTORS
330
29A80
102
}
330
29A80
100
AcDbXrecord
280
     1
102
RTVSPost2010Prop28
280
     0
102
RTVSPost2010PropOp28
 70
     1
102
RTVSPost2010Prop29
280
     1
102
RTVSPost2010PropOp29
 70
     1
102
RTVSPost2010Prop30
280
     1
102
RTVSPost2010PropOp30
 70
     1
102
RTVSPost2010Prop31
280
     0
102
RTVSPost2010PropOp31
 70
     1
102
RTVSPost2010Prop32
280
     0
102
RTVSPost2010PropOp32
 70
     1
102
RTVSPost2010Prop33
280
     0
102
RTVSPost2010PropOp33
 70
     1
102
RTVSPost2010Prop34
280
     0
102
RTVSPost2010PropOp34
 70
     1
102
RTVSPost2010Prop35
280
     0
102
RTVSPost2010PropOp35
 70
     1
102
RTVSPost2010Prop36
280
     0
102
RTVSPost2010PropOp36
 70
     1
102
RTVSPost2010Prop37
 90
       50
102
RTVSPost2010PropOp37
 70
     1
102
RTVSPost2010Prop38
140
0.0
102
RTVSPost2010PropOp38
 70
     1
102
RTVSPost2010Prop39
140
1.0
102
RTVSPost2010PropOp39
 70
     1
102
RTVSPost2010Prop40
 90
        0
102
RTVSPost2010PropOp40
 70
     1
102
RTVSPost2010Prop41ColorIndex
 90
       18
102
RTVSPost2010Prop41ColorRGB
 90
        0
102
RTVSPost2010PropOp41
 70
     1
102
RTVSPost2010Prop42
 90
       50
102
RTVSPost2010PropOp42
 70
     1
102
RTVSPost2010Prop43
 90
        3
102
RTVSPost2010PropOp43
 70
     1
102
RTVSPost2010Prop44ColorIndex
 90
        5
102
RTVSPost2010Prop44ColorRGB
 90
      255
102
RTVSPost2010PropOp44
 70
     1
102
RTVSPost2010Prop45
280
     0
102
RTVSPost2010PropOp45
 70
     1
102
RTVSPost2010Prop46
 90
       50
102
RTVSPost2010PropOp46
 70
     1
102
RTVSPost2010Prop47
 90
       50
102
RTVSPost2010PropOp47
 70
     1
102
RTVSPost2010Prop48
 90
       50
102
RTVSPost2010PropOp48
 70
     1
102
RTVSPost2010Prop49
280
     0
102
RTVSPost2010PropOp49
 70
     1
102
RTVSPost2010Prop50
 90
       50
102
RTVSPost2010PropOp50
 70
     1
102
RTVSPost2010Prop51ColorIndex
 90
      256
102
RTVSPost2010Prop51ColorRGB
 90
-16777216
102
RTVSPost2010PropOp51
 70
     0
102
RTVSPost2010Prop52
140
1.0
102
RTVSPost2010PropOp52
 70
     0
102
RTVSPost2010Prop53
 90
        2
102
RTVSPost2010PropOp53
 70
     1
102
RTVSPost2010Prop54
  1
strokes_ogs.tif
102
RTVSPost2010PropOp54
 70
     1
102
RTVSPost2010Prop55
280
     0
102
RTVSPost2010PropOp55
 70
     1
102
RTVSPost2010Prop56
140
1.0
102
RTVSPost2010PropOp56
 70
     1
102
RTVSPost2010Prop57
140
1.0
102
RTVSPost2010PropOp57
 70
     1
102
RTVSPropertyOp0
 70
     1
102
RTVSPropertyOp1
 70
     1
102
RTVSPropertyOp2
 70
     1
102
RTVSPropertyOp3
 70
     1
102
RTVSPropertyOp4
 70
     1
102
RTVSPropertyOp5
 70
     1
102
RTVSPropertyOp6
 70
     1
102
RTVSPropertyOp7
 70
     1
102
RTVSPropertyOp8
 70
     1
102
RTVSPropertyOp9
 70
     1
102
RTVSPropertyOp10
 70
     1
102
RTVSPropertyOp11
 70
     1
102
RTVSPropertyOp12
 70
     1
102
RTVSPropertyOp13
 70
     1
102
RTVSPropertyOp14
 70
     1
102
RTVSPropertyOp15
 70
     1
102
RTVSPropertyOp16
 70
     1
102
RTVSPropertyOp17
 70
     1
102
RTVSPropertyOp18
 70
     1
102
RTVSPropertyOp19
 70
     1
102
RTVSPropertyOp20
 70
     1
102
RTVSPropertyOp21
 70
     1
102
RTVSPropertyOp22
 70
     1
102
RTVSPropertyOp23
 70
     1
102
RTVSPropertyOp24
 70
     1
102
RTVSPropertyOp25
 70
     1
102
RTVSPropertyOp26
 70
     1
102
RTVSPropertyOp27
 70
     1
102
RTVSPropertyOp28
 70
     1
102
RTVSPropertyOp29
 70
     1
102
RTVSPropertyOp30
 70
     1
102
RTVSPropertyOp31
 70
     1
102
RTVSPropertyOp32
 70
     1
102
RTVSPropertyOp33
 70
     1
102
RTVSPropertyOp34
 70
     1
102
RTVSPropertyOp35
 70
     1
102
RTVSPropertyOp36
 70
     1
102
RTVSPropertyOp37
 70
     1
102
RTVSPropertyOp38
 70
     1
102
RTVSPropertyOp39
 70
     1
102
RTVSPropertyOp40
 70
     1
102
RTVSPropertyOp41
 70
     1
102
RTVSPropertyOp42
 70
     1
102
RTVSPropertyOp43
 70
     1
102
RTVSPropertyOp44
 70
     1
102
RTVSPropertyOp45
 70
     1
102
RTVSPropertyOp46
 70
     1
102
RTVSPropertyOp47
 70
     1
102
RTVSPropertyOp48
 70
     1
102
RTVSPropertyOp49
 70
     1
102
RTVSPropertyOp50
 70
     1
102
RTVSPropertyOp51
 70
     0
102
RTVSPropertyOp52
 70
     0
102
RTVSPropertyOp53
 70
     1
102
RTVSPropertyOp54
 70
     1
102
RTVSPropertyOp55
 70
     1
102
RTVSPropertyOp56
 70
     1
102
RTVSPropertyOp57
 70
     1
102
RTVSPropertyOp58
 70
     1
102
RTVSPropertyOp59
 70
     1
102
RTVSPropertyOp60
 70
     1
102
RTVSPropertyOp61
 70
     1
102
RTVSPropertyOp62
 70
     1
  0
XRECORD
  5
29A89
102
{ACAD_REACTORS
330
29A88
102
}
330
29A88
100
AcDbXrecord
280
     1
102
RTVSPost2010Prop28
280
     0
102
RTVSPost2010PropOp28
 70
     1
102
RTVSPost2010Prop29
280
     1
102
RTVSPost2010PropOp29
 70
     1
102
RTVSPost2010Prop30
280
     1
102
RTVSPost2010PropOp30
 70
     1
102
RTVSPost2010Prop31
280
     0
102
RTVSPost2010PropOp31
 70
     1
102
RTVSPost2010Prop32
280
     0
102
RTVSPost2010PropOp32
 70
     1
102
RTVSPost2010Prop33
280
     0
102
RTVSPost2010PropOp33
 70
     1
102
RTVSPost2010Prop34
280
     0
102
RTVSPost2010PropOp34
 70
     1
102
RTVSPost2010Prop35
280
     0
102
RTVSPost2010PropOp35
 70
     1
102
RTVSPost2010Prop36
280
     0
102
RTVSPost2010PropOp36
 70
     1
102
RTVSPost2010Prop37
 90
       50
102
RTVSPost2010PropOp37
 70
     1
102
RTVSPost2010Prop38
140
0.0
102
RTVSPost2010PropOp38
 70
     1
102
RTVSPost2010Prop39
140
1.0
102
RTVSPost2010PropOp39
 70
     1
102
RTVSPost2010Prop40
 90
        0
102
RTVSPost2010PropOp40
 70
     1
102
RTVSPost2010Prop41ColorIndex
 90
       18
102
RTVSPost2010Prop41ColorRGB
 90
        0
102
RTVSPost2010PropOp41
 70
     1
102
RTVSPost2010Prop42
 90
       50
102
RTVSPost2010PropOp42
 70
     1
102
RTVSPost2010Prop43
 90
        3
102
RTVSPost2010PropOp43
 70
     1
102
RTVSPost2010Prop44ColorIndex
 90
        5
102
RTVSPost2010Prop44ColorRGB
 90
      255
102
RTVSPost2010PropOp44
 70
     1
102
RTVSPost2010Prop45
280
     0
102
RTVSPost2010PropOp45
 70
     1
102
RTVSPost2010Prop46
 90
       50
102
RTVSPost2010PropOp46
 70
     1
102
RTVSPost2010Prop47
 90
       50
102
RTVSPost2010PropOp47
 70
     1
102
RTVSPost2010Prop48
 90
       50
102
RTVSPost2010PropOp48
 70
     1
102
RTVSPost2010Prop49
280
     0
102
RTVSPost2010PropOp49
 70
     1
102
RTVSPost2010Prop50
 90
       50
102
RTVSPost2010PropOp50
 70
     1
102
RTVSPost2010Prop51ColorIndex
 90
      256
102
RTVSPost2010Prop51ColorRGB
 90
-16777216
102
RTVSPost2010PropOp51
 70
     0
102
RTVSPost2010Prop52
140
1.0
102
RTVSPost2010PropOp52
 70
     0
102
RTVSPost2010Prop53
 90
        2
102
RTVSPost2010PropOp53
 70
     1
102
RTVSPost2010Prop54
  1
strokes_ogs.tif
102
RTVSPost2010PropOp54
 70
     1
102
RTVSPost2010Prop55
280
     0
102
RTVSPost2010PropOp55
 70
     1
102
RTVSPost2010Prop56
140
1.0
102
RTVSPost2010PropOp56
 70
     1
102
RTVSPost2010Prop57
140
1.0
102
RTVSPost2010PropOp57
 70
     1
102
RTVSPropertyOp0
 70
     1
102
RTVSPropertyOp1
 70
     1
102
RTVSPropertyOp2
 70
     1
102
RTVSPropertyOp3
 70
     1
102
RTVSPropertyOp4
 70
     1
102
RTVSPropertyOp5
 70
     1
102
RTVSPropertyOp6
 70
     1
102
RTVSPropertyOp7
 70
     1
102
RTVSPropertyOp8
 70
     1
102
RTVSPropertyOp9
 70
     1
102
RTVSPropertyOp10
 70
     1
102
RTVSPropertyOp11
 70
     1
102
RTVSPropertyOp12
 70
     1
102
RTVSPropertyOp13
 70
     1
102
RTVSPropertyOp14
 70
     1
102
RTVSPropertyOp15
 70
     1
102
RTVSPropertyOp16
 70
     1
102
RTVSPropertyOp17
 70
     1
102
RTVSPropertyOp18
 70
     1
102
RTVSPropertyOp19
 70
     1
102
RTVSPropertyOp20
 70
     1
102
RTVSPropertyOp21
 70
     1
102
RTVSPropertyOp22
 70
     1
102
RTVSPropertyOp23
 70
     1
102
RTVSPropertyOp24
 70
     1
102
RTVSPropertyOp25
 70
     1
102
RTVSPropertyOp26
 70
     1
102
RTVSPropertyOp27
 70
     1
102
RTVSPropertyOp28
 70
     1
102
RTVSPropertyOp29
 70
     1
102
RTVSPropertyOp30
 70
     1
102
RTVSPropertyOp31
 70
     1
102
RTVSPropertyOp32
 70
     1
102
RTVSPropertyOp33
 70
     1
102
RTVSPropertyOp34
 70
     1
102
RTVSPropertyOp35
 70
     1
102
RTVSPropertyOp36
 70
     1
102
RTVSPropertyOp37
 70
     1
102
RTVSPropertyOp38
 70
     1
102
RTVSPropertyOp39
 70
     1
102
RTVSPropertyOp40
 70
     1
102
RTVSPropertyOp41
 70
     1
102
RTVSPropertyOp42
 70
     1
102
RTVSPropertyOp43
 70
     1
102
RTVSPropertyOp44
 70
     1
102
RTVSPropertyOp45
 70
     1
102
RTVSPropertyOp46
 70
     1
102
RTVSPropertyOp47
 70
     1
102
RTVSPropertyOp48
 70
     1
102
RTVSPropertyOp49
 70
     1
102
RTVSPropertyOp50
 70
     1
102
RTVSPropertyOp51
 70
     0
102
RTVSPropertyOp52
 70
     0
102
RTVSPropertyOp53
 70
     1
102
RTVSPropertyOp54
 70
     1
102
RTVSPropertyOp55
 70
     1
102
RTVSPropertyOp56
 70
     1
102
RTVSPropertyOp57
 70
     1
102
RTVSPropertyOp58
 70
     1
102
RTVSPropertyOp59
 70
     1
102
RTVSPropertyOp60
 70
     1
102
RTVSPropertyOp61
 70
     1
102
RTVSPropertyOp62
 70
     1
  0
XRECORD
  5
29A7B
102
{ACAD_REACTORS
330
29A7A
102
}
330
29A7A
100
AcDbXrecord
280
     1
102
RTVSPost2010Prop28
280
     0
102
RTVSPost2010PropOp28
 70
     1
102
RTVSPost2010Prop29
280
     1
102
RTVSPost2010PropOp29
 70
     1
102
RTVSPost2010Prop30
280
     1
102
RTVSPost2010PropOp30
 70
     1
102
RTVSPost2010Prop31
280
     0
102
RTVSPost2010PropOp31
 70
     1
102
RTVSPost2010Prop32
280
     0
102
RTVSPost2010PropOp32
 70
     1
102
RTVSPost2010Prop33
280
     0
102
RTVSPost2010PropOp33
 70
     1
102
RTVSPost2010Prop34
280
     0
102
RTVSPost2010PropOp34
 70
     1
102
RTVSPost2010Prop35
280
     0
102
RTVSPost2010PropOp35
 70
     1
102
RTVSPost2010Prop36
280
     0
102
RTVSPost2010PropOp36
 70
     1
102
RTVSPost2010Prop37
 90
       50
102
RTVSPost2010PropOp37
 70
     1
102
RTVSPost2010Prop38
140
0.0
102
RTVSPost2010PropOp38
 70
     1
102
RTVSPost2010Prop39
140
1.0
102
RTVSPost2010PropOp39
 70
     1
102
RTVSPost2010Prop40
 90
        0
102
RTVSPost2010PropOp40
 70
     1
102
RTVSPost2010Prop41ColorIndex
 90
       18
102
RTVSPost2010Prop41ColorRGB
 90
        0
102
RTVSPost2010PropOp41
 70
     1
102
RTVSPost2010Prop42
 90
       50
102
RTVSPost2010PropOp42
 70
     1
102
RTVSPost2010Prop43
 90
        3
102
RTVSPost2010PropOp43
 70
     1
102
RTVSPost2010Prop44ColorIndex
 90
        5
102
RTVSPost2010Prop44ColorRGB
 90
      255
102
RTVSPost2010PropOp44
 70
     1
102
RTVSPost2010Prop45
280
     0
102
RTVSPost2010PropOp45
 70
     1
102
RTVSPost2010Prop46
 90
       50
102
RTVSPost2010PropOp46
 70
     1
102
RTVSPost2010Prop47
 90
       50
102
RTVSPost2010PropOp47
 70
     1
102
RTVSPost2010Prop48
 90
       50
102
RTVSPost2010PropOp48
 70
     1
102
RTVSPost2010Prop49
280
     0
102
RTVSPost2010PropOp49
 70
     1
102
RTVSPost2010Prop50
 90
       50
102
RTVSPost2010PropOp50
 70
     1
102
RTVSPost2010Prop51ColorIndex
 90
      256
102
RTVSPost2010Prop51ColorRGB
 90
-16777216
102
RTVSPost2010PropOp51
 70
     0
102
RTVSPost2010Prop52
140
1.0
102
RTVSPost2010PropOp52
 70
     0
102
RTVSPost2010Prop53
 90
        2
102
RTVSPost2010PropOp53
 70
     1
102
RTVSPost2010Prop54
  1
strokes_ogs.tif
102
RTVSPost2010PropOp54
 70
     1
102
RTVSPost2010Prop55
280
     0
102
RTVSPost2010PropOp55
 70
     1
102
RTVSPost2010Prop56
140
1.0
102
RTVSPost2010PropOp56
 70
     1
102
RTVSPost2010Prop57
140
1.0
102
RTVSPost2010PropOp57
 70
     1
102
RTVSPropertyOp0
 70
     1
102
RTVSPropertyOp1
 70
     1
102
RTVSPropertyOp2
 70
     1
102
RTVSPropertyOp3
 70
     1
102
RTVSPropertyOp4
 70
     1
102
RTVSPropertyOp5
 70
     1
102
RTVSPropertyOp6
 70
     1
102
RTVSPropertyOp7
 70
     1
102
RTVSPropertyOp8
 70
     1
102
RTVSPropertyOp9
 70
     1
102
RTVSPropertyOp10
 70
     1
102
RTVSPropertyOp11
 70
     1
102
RTVSPropertyOp12
 70
     1
102
RTVSPropertyOp13
 70
     1
102
RTVSPropertyOp14
 70
     1
102
RTVSPropertyOp15
 70
     1
102
RTVSPropertyOp16
 70
     1
102
RTVSPropertyOp17
 70
     1
102
RTVSPropertyOp18
 70
     1
102
RTVSPropertyOp19
 70
     1
102
RTVSPropertyOp20
 70
     1
102
RTVSPropertyOp21
 70
     1
102
RTVSPropertyOp22
 70
     1
102
RTVSPropertyOp23
 70
     1
102
RTVSPropertyOp24
 70
     1
102
RTVSPropertyOp25
 70
     1
102
RTVSPropertyOp26
 70
     1
102
RTVSPropertyOp27
 70
     1
102
RTVSPropertyOp28
 70
     1
102
RTVSPropertyOp29
 70
     1
102
RTVSPropertyOp30
 70
     1
102
RTVSPropertyOp31
 70
     1
102
RTVSPropertyOp32
 70
     1
102
RTVSPropertyOp33
 70
     1
102
RTVSPropertyOp34
 70
     1
102
RTVSPropertyOp35
 70
     1
102
RTVSPropertyOp36
 70
     1
102
RTVSPropertyOp37
 70
     1
102
RTVSPropertyOp38
 70
     1
102
RTVSPropertyOp39
 70
     1
102
RTVSPropertyOp40
 70
     1
102
RTVSPropertyOp41
 70
     1
102
RTVSPropertyOp42
 70
     1
102
RTVSPropertyOp43
 70
     1
102
RTVSPropertyOp44
 70
     1
102
RTVSPropertyOp45
 70
     1
102
RTVSPropertyOp46
 70
     1
102
RTVSPropertyOp47
 70
     1
102
RTVSPropertyOp48
 70
     1
102
RTVSPropertyOp49
 70
     1
102
RTVSPropertyOp50
 70
     1
102
RTVSPropertyOp51
 70
     0
102
RTVSPropertyOp52
 70
     0
102
RTVSPropertyOp53
 70
     1
102
RTVSPropertyOp54
 70
     1
102
RTVSPropertyOp55
 70
     1
102
RTVSPropertyOp56
 70
     1
102
RTVSPropertyOp57
 70
     1
102
RTVSPropertyOp58
 70
     1
102
RTVSPropertyOp59
 70
     1
102
RTVSPropertyOp60
 70
     1
102
RTVSPropertyOp61
 70
     1
102
RTVSPropertyOp62
 70
     1
  0
XRECORD
  5
29A7F
102
{ACAD_REACTORS
330
29A7E
102
}
330
29A7E
100
AcDbXrecord
280
     1
102
RTVSPost2010Prop28
280
     0
102
RTVSPost2010PropOp28
 70
     1
102
RTVSPost2010Prop29
280
     1
102
RTVSPost2010PropOp29
 70
     1
102
RTVSPost2010Prop30
280
     1
102
RTVSPost2010PropOp30
 70
     1
102
RTVSPost2010Prop31
280
     0
102
RTVSPost2010PropOp31
 70
     1
102
RTVSPost2010Prop32
280
     0
102
RTVSPost2010PropOp32
 70
     1
102
RTVSPost2010Prop33
280
     0
102
RTVSPost2010PropOp33
 70
     1
102
RTVSPost2010Prop34
280
     0
102
RTVSPost2010PropOp34
 70
     1
102
RTVSPost2010Prop35
280
     0
102
RTVSPost2010PropOp35
 70
     1
102
RTVSPost2010Prop36
280
     0
102
RTVSPost2010PropOp36
 70
     1
102
RTVSPost2010Prop37
 90
       50
102
RTVSPost2010PropOp37
 70
     1
102
RTVSPost2010Prop38
140
0.0
102
RTVSPost2010PropOp38
 70
     1
102
RTVSPost2010Prop39
140
1.0
102
RTVSPost2010PropOp39
 70
     1
102
RTVSPost2010Prop40
 90
        0
102
RTVSPost2010PropOp40
 70
     1
102
RTVSPost2010Prop41ColorIndex
 90
       18
102
RTVSPost2010Prop41ColorRGB
 90
        0
102
RTVSPost2010PropOp41
 70
     1
102
RTVSPost2010Prop42
 90
       50
102
RTVSPost2010PropOp42
 70
     1
102
RTVSPost2010Prop43
 90
        3
102
RTVSPost2010PropOp43
 70
     1
102
RTVSPost2010Prop44ColorIndex
 90
        5
102
RTVSPost2010Prop44ColorRGB
 90
      255
102
RTVSPost2010PropOp44
 70
     1
102
RTVSPost2010Prop45
280
     0
102
RTVSPost2010PropOp45
 70
     1
102
RTVSPost2010Prop46
 90
       50
102
RTVSPost2010PropOp46
 70
     1
102
RTVSPost2010Prop47
 90
       50
102
RTVSPost2010PropOp47
 70
     1
102
RTVSPost2010Prop48
 90
       50
102
RTVSPost2010PropOp48
 70
     1
102
RTVSPost2010Prop49
280
     0
102
RTVSPost2010PropOp49
 70
     1
102
RTVSPost2010Prop50
 90
       50
102
RTVSPost2010PropOp50
 70
     1
102
RTVSPost2010Prop51ColorIndex
 90
      256
102
RTVSPost2010Prop51ColorRGB
 90
-16777216
102
RTVSPost2010PropOp51
 70
     0
102
RTVSPost2010Prop52
140
1.0
102
RTVSPost2010PropOp52
 70
     0
102
RTVSPost2010Prop53
 90
        2
102
RTVSPost2010PropOp53
 70
     1
102
RTVSPost2010Prop54
  1
strokes_ogs.tif
102
RTVSPost2010PropOp54
 70
     1
102
RTVSPost2010Prop55
280
     0
102
RTVSPost2010PropOp55
 70
     1
102
RTVSPost2010Prop56
140
1.0
102
RTVSPost2010PropOp56
 70
     1
102
RTVSPost2010Prop57
140
1.0
102
RTVSPost2010PropOp57
 70
     1
102
RTVSPropertyOp0
 70
     1
102
RTVSPropertyOp1
 70
     1
102
RTVSPropertyOp2
 70
     1
102
RTVSPropertyOp3
 70
     1
102
RTVSPropertyOp4
 70
     1
102
RTVSPropertyOp5
 70
     1
102
RTVSPropertyOp6
 70
     1
102
RTVSPropertyOp7
 70
     1
102
RTVSPropertyOp8
 70
     1
102
RTVSPropertyOp9
 70
     1
102
RTVSPropertyOp10
 70
     1
102
RTVSPropertyOp11
 70
     1
102
RTVSPropertyOp12
 70
     1
102
RTVSPropertyOp13
 70
     1
102
RTVSPropertyOp14
 70
     1
102
RTVSPropertyOp15
 70
     1
102
RTVSPropertyOp16
 70
     1
102
RTVSPropertyOp17
 70
     1
102
RTVSPropertyOp18
 70
     1
102
RTVSPropertyOp19
 70
     1
102
RTVSPropertyOp20
 70
     1
102
RTVSPropertyOp21
 70
     1
102
RTVSPropertyOp22
 70
     1
102
RTVSPropertyOp23
 70
     1
102
RTVSPropertyOp24
 70
     1
102
RTVSPropertyOp25
 70
     1
102
RTVSPropertyOp26
 70
     1
102
RTVSPropertyOp27
 70
     1
102
RTVSPropertyOp28
 70
     1
102
RTVSPropertyOp29
 70
     1
102
RTVSPropertyOp30
 70
     1
102
RTVSPropertyOp31
 70
     1
102
RTVSPropertyOp32
 70
     1
102
RTVSPropertyOp33
 70
     1
102
RTVSPropertyOp34
 70
     1
102
RTVSPropertyOp35
 70
     1
102
RTVSPropertyOp36
 70
     1
102
RTVSPropertyOp37
 70
     1
102
RTVSPropertyOp38
 70
     1
102
RTVSPropertyOp39
 70
     1
102
RTVSPropertyOp40
 70
     1
102
RTVSPropertyOp41
 70
     1
102
RTVSPropertyOp42
 70
     1
102
RTVSPropertyOp43
 70
     1
102
RTVSPropertyOp44
 70
     1
102
RTVSPropertyOp45
 70
     1
102
RTVSPropertyOp46
 70
     1
102
RTVSPropertyOp47
 70
     1
102
RTVSPropertyOp48
 70
     1
102
RTVSPropertyOp49
 70
     1
102
RTVSPropertyOp50
 70
     1
102
RTVSPropertyOp51
 70
     0
102
RTVSPropertyOp52
 70
     0
102
RTVSPropertyOp53
 70
     1
102
RTVSPropertyOp54
 70
     1
102
RTVSPropertyOp55
 70
     1
102
RTVSPropertyOp56
 70
     1
102
RTVSPropertyOp57
 70
     1
102
RTVSPropertyOp58
 70
     1
102
RTVSPropertyOp59
 70
     1
102
RTVSPropertyOp60
 70
     1
102
RTVSPropertyOp61
 70
     1
102
RTVSPropertyOp62
 70
     1
  0
XRECORD
  5
29A99
102
{ACAD_REACTORS
330
29A98
102
}
330
29A98
100
AcDbXrecord
280
     1
102
RTVSPost2010Prop28
280
     0
102
RTVSPost2010PropOp28
 70
     1
102
RTVSPost2010Prop29
280
     1
102
RTVSPost2010PropOp29
 70
     1
102
RTVSPost2010Prop30
280
     1
102
RTVSPost2010PropOp30
 70
     1
102
RTVSPost2010Prop31
280
     0
102
RTVSPost2010PropOp31
 70
     1
102
RTVSPost2010Prop32
280
     0
102
RTVSPost2010PropOp32
 70
     1
102
RTVSPost2010Prop33
280
     0
102
RTVSPost2010PropOp33
 70
     1
102
RTVSPost2010Prop34
280
     0
102
RTVSPost2010PropOp34
 70
     1
102
RTVSPost2010Prop35
280
     0
102
RTVSPost2010PropOp35
 70
     1
102
RTVSPost2010Prop36
280
     0
102
RTVSPost2010PropOp36
 70
     1
102
RTVSPost2010Prop37
 90
       50
102
RTVSPost2010PropOp37
 70
     0
102
RTVSPost2010Prop38
140
0.0
102
RTVSPost2010PropOp38
 70
     0
102
RTVSPost2010Prop39
140
1.0
102
RTVSPost2010PropOp39
 70
     0
102
RTVSPost2010Prop40
 90
        0
102
RTVSPost2010PropOp40
 70
     0
102
RTVSPost2010Prop41ColorIndex
 90
       18
102
RTVSPost2010Prop41ColorRGB
 90
        0
102
RTVSPost2010PropOp41
 70
     0
102
RTVSPost2010Prop42
 90
       50
102
RTVSPost2010PropOp42
 70
     0
102
RTVSPost2010Prop43
 90
        3
102
RTVSPost2010PropOp43
 70
     0
102
RTVSPost2010Prop44ColorIndex
 90
        5
102
RTVSPost2010Prop44ColorRGB
 90
      255
102
RTVSPost2010PropOp44
 70
     0
102
RTVSPost2010Prop45
280
     0
102
RTVSPost2010PropOp45
 70
     1
102
RTVSPost2010Prop46
 90
       50
102
RTVSPost2010PropOp46
 70
     0
102
RTVSPost2010Prop47
 90
       50
102
RTVSPost2010PropOp47
 70
     0
102
RTVSPost2010Prop48
 90
       50
102
RTVSPost2010PropOp48
 70
     0
102
RTVSPost2010Prop49
280
     0
102
RTVSPost2010PropOp49
 70
     1
102
RTVSPost2010Prop50
 90
       50
102
RTVSPost2010PropOp50
 70
     0
102
RTVSPost2010Prop51ColorIndex
 90
      256
102
RTVSPost2010Prop51ColorRGB
 90
-16777216
102
RTVSPost2010PropOp51
 70
     0
102
RTVSPost2010Prop52
140
1.0
102
RTVSPost2010PropOp52
 70
     0
102
RTVSPost2010Prop53
 90
        2
102
RTVSPost2010PropOp53
 70
     0
102
RTVSPost2010Prop54
  1
strokes_ogs.tif
102
RTVSPost2010PropOp54
 70
     0
102
RTVSPost2010Prop55
280
     0
102
RTVSPost2010PropOp55
 70
     1
102
RTVSPost2010Prop56
140
1.0
102
RTVSPost2010PropOp56
 70
     0
102
RTVSPost2010Prop57
140
1.0
102
RTVSPost2010PropOp57
 70
     0
102
RTVSPropertyOp0
 70
     0
102
RTVSPropertyOp1
 70
     0
102
RTVSPropertyOp2
 70
     0
102
RTVSPropertyOp3
 70
     0
102
RTVSPropertyOp4
 70
     0
102
RTVSPropertyOp5
 70
     0
102
RTVSPropertyOp6
 70
     0
102
RTVSPropertyOp7
 70
     0
102
RTVSPropertyOp8
 70
     0
102
RTVSPropertyOp9
 70
     0
102
RTVSPropertyOp10
 70
     0
102
RTVSPropertyOp11
 70
     0
102
RTVSPropertyOp12
 70
     0
102
RTVSPropertyOp13
 70
     0
102
RTVSPropertyOp14
 70
     2
102
RTVSPropertyOp15
 70
     0
102
RTVSPropertyOp16
 70
     0
102
RTVSPropertyOp17
 70
     0
102
RTVSPropertyOp18
 70
     0
102
RTVSPropertyOp19
 70
     0
102
RTVSPropertyOp20
 70
     0
102
RTVSPropertyOp21
 70
     0
102
RTVSPropertyOp22
 70
     0
102
RTVSPropertyOp23
 70
     0
102
RTVSPropertyOp24
 70
     0
102
RTVSPropertyOp25
 70
     0
102
RTVSPropertyOp26
 70
     0
102
RTVSPropertyOp27
 70
     0
102
RTVSPropertyOp28
 70
     1
102
RTVSPropertyOp29
 70
     1
102
RTVSPropertyOp30
 70
     1
102
RTVSPropertyOp31
 70
     1
102
RTVSPropertyOp32
 70
     1
102
RTVSPropertyOp33
 70
     1
102
RTVSPropertyOp34
 70
     1
102
RTVSPropertyOp35
 70
     1
102
RTVSPropertyOp36
 70
     1
102
RTVSPropertyOp37
 70
     0
102
RTVSPropertyOp38
 70
     0
102
RTVSPropertyOp39
 70
     0
102
RTVSPropertyOp40
 70
     0
102
RTVSPropertyOp41
 70
     0
102
RTVSPropertyOp42
 70
     0
102
RTVSPropertyOp43
 70
     0
102
RTVSPropertyOp44
 70
     0
102
RTVSPropertyOp45
 70
     1
102
RTVSPropertyOp46
 70
     0
102
RTVSPropertyOp47
 70
     0
102
RTVSPropertyOp48
 70
     0
102
RTVSPropertyOp49
 70
     1
102
RTVSPropertyOp50
 70
     0
102
RTVSPropertyOp51
 70
     0
102
RTVSPropertyOp52
 70
     0
102
RTVSPropertyOp53
 70
     0
102
RTVSPropertyOp54
 70
     0
102
RTVSPropertyOp55
 70
     1
102
RTVSPropertyOp56
 70
     0
102
RTVSPropertyOp57
 70
     0
102
RTVSPropertyOp58
 70
     0
102
RTVSPropertyOp59
 70
     0
102
RTVSPropertyOp60
 70
     0
102
RTVSPropertyOp61
 70
     0
102
RTVSPropertyOp62
 70
     0
  0
XRECORD
  5
29A87
102
{ACAD_REACTORS
330
29A86
102
}
330
29A86
100
AcDbXrecord
280
     1
102
RTVSPost2010Prop28
280
     0
102
RTVSPost2010PropOp28
 70
     1
102
RTVSPost2010Prop29
280
     1
102
RTVSPost2010PropOp29
 70
     1
102
RTVSPost2010Prop30
280
     1
102
RTVSPost2010PropOp30
 70
     1
102
RTVSPost2010Prop31
280
     0
102
RTVSPost2010PropOp31
 70
     1
102
RTVSPost2010Prop32
280
     0
102
RTVSPost2010PropOp32
 70
     1
102
RTVSPost2010Prop33
280
     0
102
RTVSPost2010PropOp33
 70
     1
102
RTVSPost2010Prop34
280
     0
102
RTVSPost2010PropOp34
 70
     1
102
RTVSPost2010Prop35
280
     0
102
RTVSPost2010PropOp35
 70
     1
102
RTVSPost2010Prop36
280
     0
102
RTVSPost2010PropOp36
 70
     1
102
RTVSPost2010Prop37
 90
       50
102
RTVSPost2010PropOp37
 70
     1
102
RTVSPost2010Prop38
140
0.0
102
RTVSPost2010PropOp38
 70
     1
102
RTVSPost2010Prop39
140
1.0
102
RTVSPost2010PropOp39
 70
     1
102
RTVSPost2010Prop40
 90
        0
102
RTVSPost2010PropOp40
 70
     1
102
RTVSPost2010Prop41ColorIndex
 90
       18
102
RTVSPost2010Prop41ColorRGB
 90
        0
102
RTVSPost2010PropOp41
 70
     1
102
RTVSPost2010Prop42
 90
       50
102
RTVSPost2010PropOp42
 70
     1
102
RTVSPost2010Prop43
 90
        3
102
RTVSPost2010PropOp43
 70
     1
102
RTVSPost2010Prop44ColorIndex
 90
        5
102
RTVSPost2010Prop44ColorRGB
 90
      255
102
RTVSPost2010PropOp44
 70
     1
102
RTVSPost2010Prop45
280
     0
102
RTVSPost2010PropOp45
 70
     1
102
RTVSPost2010Prop46
 90
       50
102
RTVSPost2010PropOp46
 70
     1
102
RTVSPost2010Prop47
 90
       50
102
RTVSPost2010PropOp47
 70
     1
102
RTVSPost2010Prop48
 90
       50
102
RTVSPost2010PropOp48
 70
     1
102
RTVSPost2010Prop49
280
     0
102
RTVSPost2010PropOp49
 70
     1
102
RTVSPost2010Prop50
 90
       50
102
RTVSPost2010PropOp50
 70
     1
102
RTVSPost2010Prop51ColorIndex
 90
      256
102
RTVSPost2010Prop51ColorRGB
 90
-16777216
102
RTVSPost2010PropOp51
 70
     0
102
RTVSPost2010Prop52
140
1.0
102
RTVSPost2010PropOp52
 70
     0
102
RTVSPost2010Prop53
 90
        2
102
RTVSPost2010PropOp53
 70
     1
102
RTVSPost2010Prop54
  1
strokes_ogs.tif
102
RTVSPost2010PropOp54
 70
     1
102
RTVSPost2010Prop55
280
     0
102
RTVSPost2010PropOp55
 70
     1
102
RTVSPost2010Prop56
140
1.0
102
RTVSPost2010PropOp56
 70
     1
102
RTVSPost2010Prop57
140
1.0
102
RTVSPost2010PropOp57
 70
     1
102
RTVSPropertyOp0
 70
     1
102
RTVSPropertyOp1
 70
     1
102
RTVSPropertyOp2
 70
     1
102
RTVSPropertyOp3
 70
     1
102
RTVSPropertyOp4
 70
     1
102
RTVSPropertyOp5
 70
     1
102
RTVSPropertyOp6
 70
     1
102
RTVSPropertyOp7
 70
     1
102
RTVSPropertyOp8
 70
     1
102
RTVSPropertyOp9
 70
     1
102
RTVSPropertyOp10
 70
     1
102
RTVSPropertyOp11
 70
     1
102
RTVSPropertyOp12
 70
     1
102
RTVSPropertyOp13
 70
     1
102
RTVSPropertyOp14
 70
     1
102
RTVSPropertyOp15
 70
     1
102
RTVSPropertyOp16
 70
     1
102
RTVSPropertyOp17
 70
     1
102
RTVSPropertyOp18
 70
     1
102
RTVSPropertyOp19
 70
     1
102
RTVSPropertyOp20
 70
     1
102
RTVSPropertyOp21
 70
     1
102
RTVSPropertyOp22
 70
     1
102
RTVSPropertyOp23
 70
     1
102
RTVSPropertyOp24
 70
     1
102
RTVSPropertyOp25
 70
     1
102
RTVSPropertyOp26
 70
     1
102
RTVSPropertyOp27
 70
     1
102
RTVSPropertyOp28
 70
     1
102
RTVSPropertyOp29
 70
     1
102
RTVSPropertyOp30
 70
     1
102
RTVSPropertyOp31
 70
     1
102
RTVSPropertyOp32
 70
     1
102
RTVSPropertyOp33
 70
     1
102
RTVSPropertyOp34
 70
     1
102
RTVSPropertyOp35
 70
     1
102
RTVSPropertyOp36
 70
     1
102
RTVSPropertyOp37
 70
     1
102
RTVSPropertyOp38
 70
     1
102
RTVSPropertyOp39
 70
     1
102
RTVSPropertyOp40
 70
     1
102
RTVSPropertyOp41
 70
     1
102
RTVSPropertyOp42
 70
     1
102
RTVSPropertyOp43
 70
     1
102
RTVSPropertyOp44
 70
     1
102
RTVSPropertyOp45
 70
     1
102
RTVSPropertyOp46
 70
     1
102
RTVSPropertyOp47
 70
     1
102
RTVSPropertyOp48
 70
     1
102
RTVSPropertyOp49
 70
     1
102
RTVSPropertyOp50
 70
     1
102
RTVSPropertyOp51
 70
     0
102
RTVSPropertyOp52
 70
     0
102
RTVSPropertyOp53
 70
     1
102
RTVSPropertyOp54
 70
     1
102
RTVSPropertyOp55
 70
     1
102
RTVSPropertyOp56
 70
     1
102
RTVSPropertyOp57
 70
     1
102
RTVSPropertyOp58
 70
     1
102
RTVSPropertyOp59
 70
     1
102
RTVSPropertyOp60
 70
     1
102
RTVSPropertyOp61
 70
     1
102
RTVSPropertyOp62
 70
     1
  0
XRECORD
  5
29A6B
102
{ACAD_REACTORS
330
29A6A
102
}
330
29A6A
100
AcDbXrecord
280
     1
102
RTVSPost2010Prop28
280
     0
102
RTVSPost2010PropOp28
 70
     1
102
RTVSPost2010Prop29
280
     1
102
RTVSPost2010PropOp29
 70
     1
102
RTVSPost2010Prop30
280
     1
102
RTVSPost2010PropOp30
 70
     1
102
RTVSPost2010Prop31
280
     0
102
RTVSPost2010PropOp31
 70
     1
102
RTVSPost2010Prop32
280
     0
102
RTVSPost2010PropOp32
 70
     1
102
RTVSPost2010Prop33
280
     0
102
RTVSPost2010PropOp33
 70
     1
102
RTVSPost2010Prop34
280
     0
102
RTVSPost2010PropOp34
 70
     1
102
RTVSPost2010Prop35
280
     0
102
RTVSPost2010PropOp35
 70
     1
102
RTVSPost2010Prop36
280
     0
102
RTVSPost2010PropOp36
 70
     1
102
RTVSPost2010Prop37
 90
       50
102
RTVSPost2010PropOp37
 70
     1
102
RTVSPost2010Prop38
140
0.0
102
RTVSPost2010PropOp38
 70
     1
102
RTVSPost2010Prop39
140
1.0
102
RTVSPost2010PropOp39
 70
     1
102
RTVSPost2010Prop40
 90
        0
102
RTVSPost2010PropOp40
 70
     1
102
RTVSPost2010Prop41ColorIndex
 90
       18
102
RTVSPost2010Prop41ColorRGB
 90
        0
102
RTVSPost2010PropOp41
 70
     1
102
RTVSPost2010Prop42
 90
       50
102
RTVSPost2010PropOp42
 70
     1
102
RTVSPost2010Prop43
 90
        3
102
RTVSPost2010PropOp43
 70
     1
102
RTVSPost2010Prop44ColorIndex
 90
        5
102
RTVSPost2010Prop44ColorRGB
 90
      255
102
RTVSPost2010PropOp44
 70
     1
102
RTVSPost2010Prop45
280
     0
102
RTVSPost2010PropOp45
 70
     1
102
RTVSPost2010Prop46
 90
       50
102
RTVSPost2010PropOp46
 70
     1
102
RTVSPost2010Prop47
 90
       50
102
RTVSPost2010PropOp47
 70
     1
102
RTVSPost2010Prop48
 90
       50
102
RTVSPost2010PropOp48
 70
     1
102
RTVSPost2010Prop49
280
     0
102
RTVSPost2010PropOp49
 70
     1
102
RTVSPost2010Prop50
 90
       50
102
RTVSPost2010PropOp50
 70
     1
102
RTVSPost2010Prop51ColorIndex
 90
      256
102
RTVSPost2010Prop51ColorRGB
 90
-16777216
102
RTVSPost2010PropOp51
 70
     0
102
RTVSPost2010Prop52
140
1.0
102
RTVSPost2010PropOp52
 70
     0
102
RTVSPost2010Prop53
 90
        2
102
RTVSPost2010PropOp53
 70
     1
102
RTVSPost2010Prop54
  1
strokes_ogs.tif
102
RTVSPost2010PropOp54
 70
     1
102
RTVSPost2010Prop55
280
     0
102
RTVSPost2010PropOp55
 70
     1
102
RTVSPost2010Prop56
140
1.0
102
RTVSPost2010PropOp56
 70
     1
102
RTVSPost2010Prop57
140
1.0
102
RTVSPost2010PropOp57
 70
     1
102
RTVSPropertyOp0
 70
     1
102
RTVSPropertyOp1
 70
     1
102
RTVSPropertyOp2
 70
     1
102
RTVSPropertyOp3
 70
     1
102
RTVSPropertyOp4
 70
     1
102
RTVSPropertyOp5
 70
     1
102
RTVSPropertyOp6
 70
     1
102
RTVSPropertyOp7
 70
     1
102
RTVSPropertyOp8
 70
     1
102
RTVSPropertyOp9
 70
     1
102
RTVSPropertyOp10
 70
     1
102
RTVSPropertyOp11
 70
     1
102
RTVSPropertyOp12
 70
     1
102
RTVSPropertyOp13
 70
     1
102
RTVSPropertyOp14
 70
     1
102
RTVSPropertyOp15
 70
     1
102
RTVSPropertyOp16
 70
     1
102
RTVSPropertyOp17
 70
     1
102
RTVSPropertyOp18
 70
     1
102
RTVSPropertyOp19
 70
     1
102
RTVSPropertyOp20
 70
     1
102
RTVSPropertyOp21
 70
     1
102
RTVSPropertyOp22
 70
     1
102
RTVSPropertyOp23
 70
     1
102
RTVSPropertyOp24
 70
     1
102
RTVSPropertyOp25
 70
     1
102
RTVSPropertyOp26
 70
     1
102
RTVSPropertyOp27
 70
     1
102
RTVSPropertyOp28
 70
     1
102
RTVSPropertyOp29
 70
     1
102
RTVSPropertyOp30
 70
     1
102
RTVSPropertyOp31
 70
     1
102
RTVSPropertyOp32
 70
     1
102
RTVSPropertyOp33
 70
     1
102
RTVSPropertyOp34
 70
     1
102
RTVSPropertyOp35
 70
     1
102
RTVSPropertyOp36
 70
     1
102
RTVSPropertyOp37
 70
     1
102
RTVSPropertyOp38
 70
     1
102
RTVSPropertyOp39
 70
     1
102
RTVSPropertyOp40
 70
     1
102
RTVSPropertyOp41
 70
     1
102
RTVSPropertyOp42
 70
     1
102
RTVSPropertyOp43
 70
     1
102
RTVSPropertyOp44
 70
     1
102
RTVSPropertyOp45
 70
     1
102
RTVSPropertyOp46
 70
     1
102
RTVSPropertyOp47
 70
     1
102
RTVSPropertyOp48
 70
     1
102
RTVSPropertyOp49
 70
     1
102
RTVSPropertyOp50
 70
     1
102
RTVSPropertyOp51
 70
     0
102
RTVSPropertyOp52
 70
     0
102
RTVSPropertyOp53
 70
     1
102
RTVSPropertyOp54
 70
     1
102
RTVSPropertyOp55
 70
     1
102
RTVSPropertyOp56
 70
     1
102
RTVSPropertyOp57
 70
     1
102
RTVSPropertyOp58
 70
     1
102
RTVSPropertyOp59
 70
     1
102
RTVSPropertyOp60
 70
     1
102
RTVSPropertyOp61
 70
     1
102
RTVSPropertyOp62
 70
     1
  0
XRECORD
  5
29A6D
102
{ACAD_REACTORS
330
29A6C
102
}
330
29A6C
100
AcDbXrecord
280
     1
102
RTVSPost2010Prop28
280
     0
102
RTVSPost2010PropOp28
 70
     1
102
RTVSPost2010Prop29
280
     1
102
RTVSPost2010PropOp29
 70
     1
102
RTVSPost2010Prop30
280
     1
102
RTVSPost2010PropOp30
 70
     1
102
RTVSPost2010Prop31
280
     0
102
RTVSPost2010PropOp31
 70
     1
102
RTVSPost2010Prop32
280
     0
102
RTVSPost2010PropOp32
 70
     1
102
RTVSPost2010Prop33
280
     0
102
RTVSPost2010PropOp33
 70
     1
102
RTVSPost2010Prop34
280
     0
102
RTVSPost2010PropOp34
 70
     1
102
RTVSPost2010Prop35
280
     0
102
RTVSPost2010PropOp35
 70
     1
102
RTVSPost2010Prop36
280
     0
102
RTVSPost2010PropOp36
 70
     1
102
RTVSPost2010Prop37
 90
       50
102
RTVSPost2010PropOp37
 70
     1
102
RTVSPost2010Prop38
140
0.0
102
RTVSPost2010PropOp38
 70
     1
102
RTVSPost2010Prop39
140
1.0
102
RTVSPost2010PropOp39
 70
     1
102
RTVSPost2010Prop40
 90
        0
102
RTVSPost2010PropOp40
 70
     1
102
RTVSPost2010Prop41ColorIndex
 90
       18
102
RTVSPost2010Prop41ColorRGB
 90
        0
102
RTVSPost2010PropOp41
 70
     1
102
RTVSPost2010Prop42
 90
       50
102
RTVSPost2010PropOp42
 70
     1
102
RTVSPost2010Prop43
 90
        3
102
RTVSPost2010PropOp43
 70
     1
102
RTVSPost2010Prop44ColorIndex
 90
        5
102
RTVSPost2010Prop44ColorRGB
 90
      255
102
RTVSPost2010PropOp44
 70
     1
102
RTVSPost2010Prop45
280
     0
102
RTVSPost2010PropOp45
 70
     1
102
RTVSPost2010Prop46
 90
       50
102
RTVSPost2010PropOp46
 70
     1
102
RTVSPost2010Prop47
 90
       50
102
RTVSPost2010PropOp47
 70
     1
102
RTVSPost2010Prop48
 90
       50
102
RTVSPost2010PropOp48
 70
     1
102
RTVSPost2010Prop49
280
     0
102
RTVSPost2010PropOp49
 70
     1
102
RTVSPost2010Prop50
 90
       50
102
RTVSPost2010PropOp50
 70
     1
102
RTVSPost2010Prop51ColorIndex
 90
      256
102
RTVSPost2010Prop51ColorRGB
 90
-16777216
102
RTVSPost2010PropOp51
 70
     0
102
RTVSPost2010Prop52
140
1.0
102
RTVSPost2010PropOp52
 70
     0
102
RTVSPost2010Prop53
 90
        2
102
RTVSPost2010PropOp53
 70
     1
102
RTVSPost2010Prop54
  1
strokes_ogs.tif
102
RTVSPost2010PropOp54
 70
     1
102
RTVSPost2010Prop55
280
     0
102
RTVSPost2010PropOp55
 70
     1
102
RTVSPost2010Prop56
140
1.0
102
RTVSPost2010PropOp56
 70
     1
102
RTVSPost2010Prop57
140
1.0
102
RTVSPost2010PropOp57
 70
     1
102
RTVSPropertyOp0
 70
     1
102
RTVSPropertyOp1
 70
     1
102
RTVSPropertyOp2
 70
     1
102
RTVSPropertyOp3
 70
     1
102
RTVSPropertyOp4
 70
     1
102
RTVSPropertyOp5
 70
     1
102
RTVSPropertyOp6
 70
     1
102
RTVSPropertyOp7
 70
     1
102
RTVSPropertyOp8
 70
     1
102
RTVSPropertyOp9
 70
     1
102
RTVSPropertyOp10
 70
     1
102
RTVSPropertyOp11
 70
     1
102
RTVSPropertyOp12
 70
     1
102
RTVSPropertyOp13
 70
     1
102
RTVSPropertyOp14
 70
     1
102
RTVSPropertyOp15
 70
     1
102
RTVSPropertyOp16
 70
     1
102
RTVSPropertyOp17
 70
     1
102
RTVSPropertyOp18
 70
     1
102
RTVSPropertyOp19
 70
     1
102
RTVSPropertyOp20
 70
     1
102
RTVSPropertyOp21
 70
     1
102
RTVSPropertyOp22
 70
     1
102
RTVSPropertyOp23
 70
     1
102
RTVSPropertyOp24
 70
     1
102
RTVSPropertyOp25
 70
     1
102
RTVSPropertyOp26
 70
     1
102
RTVSPropertyOp27
 70
     1
102
RTVSPropertyOp28
 70
     1
102
RTVSPropertyOp29
 70
     1
102
RTVSPropertyOp30
 70
     1
102
RTVSPropertyOp31
 70
     1
102
RTVSPropertyOp32
 70
     1
102
RTVSPropertyOp33
 70
     1
102
RTVSPropertyOp34
 70
     1
102
RTVSPropertyOp35
 70
     1
102
RTVSPropertyOp36
 70
     1
102
RTVSPropertyOp37
 70
     1
102
RTVSPropertyOp38
 70
     1
102
RTVSPropertyOp39
 70
     1
102
RTVSPropertyOp40
 70
     1
102
RTVSPropertyOp41
 70
     1
102
RTVSPropertyOp42
 70
     1
102
RTVSPropertyOp43
 70
     1
102
RTVSPropertyOp44
 70
     1
102
RTVSPropertyOp45
 70
     1
102
RTVSPropertyOp46
 70
     1
102
RTVSPropertyOp47
 70
     1
102
RTVSPropertyOp48
 70
     1
102
RTVSPropertyOp49
 70
     1
102
RTVSPropertyOp50
 70
     1
102
RTVSPropertyOp51
 70
     0
102
RTVSPropertyOp52
 70
     0
102
RTVSPropertyOp53
 70
     1
102
RTVSPropertyOp54
 70
     1
102
RTVSPropertyOp55
 70
     1
102
RTVSPropertyOp56
 70
     1
102
RTVSPropertyOp57
 70
     1
102
RTVSPropertyOp58
 70
     1
102
RTVSPropertyOp59
 70
     1
102
RTVSPropertyOp60
 70
     1
102
RTVSPropertyOp61
 70
     1
102
RTVSPropertyOp62
 70
     1
  0
XRECORD
  5
29A6F
102
{ACAD_REACTORS
330
29A6E
102
}
330
29A6E
100
AcDbXrecord
280
     1
102
RTVSPost2010Prop28
280
     0
102
RTVSPost2010PropOp28
 70
     1
102
RTVSPost2010Prop29
280
     1
102
RTVSPost2010PropOp29
 70
     1
102
RTVSPost2010Prop30
280
     1
102
RTVSPost2010PropOp30
 70
     1
102
RTVSPost2010Prop31
280
     0
102
RTVSPost2010PropOp31
 70
     1
102
RTVSPost2010Prop32
280
     0
102
RTVSPost2010PropOp32
 70
     1
102
RTVSPost2010Prop33
280
     0
102
RTVSPost2010PropOp33
 70
     1
102
RTVSPost2010Prop34
280
     0
102
RTVSPost2010PropOp34
 70
     1
102
RTVSPost2010Prop35
280
     0
102
RTVSPost2010PropOp35
 70
     1
102
RTVSPost2010Prop36
280
     0
102
RTVSPost2010PropOp36
 70
     1
102
RTVSPost2010Prop37
 90
       50
102
RTVSPost2010PropOp37
 70
     1
102
RTVSPost2010Prop38
140
0.0
102
RTVSPost2010PropOp38
 70
     1
102
RTVSPost2010Prop39
140
1.0
102
RTVSPost2010PropOp39
 70
     1
102
RTVSPost2010Prop40
 90
        0
102
RTVSPost2010PropOp40
 70
     1
102
RTVSPost2010Prop41ColorIndex
 90
       18
102
RTVSPost2010Prop41ColorRGB
 90
        0
102
RTVSPost2010PropOp41
 70
     1
102
RTVSPost2010Prop42
 90
       50
102
RTVSPost2010PropOp42
 70
     1
102
RTVSPost2010Prop43
 90
        3
102
RTVSPost2010PropOp43
 70
     1
102
RTVSPost2010Prop44ColorIndex
 90
        5
102
RTVSPost2010Prop44ColorRGB
 90
      255
102
RTVSPost2010PropOp44
 70
     1
102
RTVSPost2010Prop45
280
     0
102
RTVSPost2010PropOp45
 70
     1
102
RTVSPost2010Prop46
 90
       50
102
RTVSPost2010PropOp46
 70
     1
102
RTVSPost2010Prop47
 90
       50
102
RTVSPost2010PropOp47
 70
     1
102
RTVSPost2010Prop48
 90
       50
102
RTVSPost2010PropOp48
 70
     1
102
RTVSPost2010Prop49
280
     0
102
RTVSPost2010PropOp49
 70
     1
102
RTVSPost2010Prop50
 90
       50
102
RTVSPost2010PropOp50
 70
     1
102
RTVSPost2010Prop51ColorIndex
 90
      256
102
RTVSPost2010Prop51ColorRGB
 90
-16777216
102
RTVSPost2010PropOp51
 70
     0
102
RTVSPost2010Prop52
140
1.0
102
RTVSPost2010PropOp52
 70
     0
102
RTVSPost2010Prop53
 90
        2
102
RTVSPost2010PropOp53
 70
     1
102
RTVSPost2010Prop54
  1
strokes_ogs.tif
102
RTVSPost2010PropOp54
 70
     1
102
RTVSPost2010Prop55
280
     0
102
RTVSPost2010PropOp55
 70
     1
102
RTVSPost2010Prop56
140
1.0
102
RTVSPost2010PropOp56
 70
     1
102
RTVSPost2010Prop57
140
1.0
102
RTVSPost2010PropOp57
 70
     1
102
RTVSPropertyOp0
 70
     1
102
RTVSPropertyOp1
 70
     1
102
RTVSPropertyOp2
 70
     1
102
RTVSPropertyOp3
 70
     1
102
RTVSPropertyOp4
 70
     1
102
RTVSPropertyOp5
 70
     1
102
RTVSPropertyOp6
 70
     1
102
RTVSPropertyOp7
 70
     1
102
RTVSPropertyOp8
 70
     1
102
RTVSPropertyOp9
 70
     1
102
RTVSPropertyOp10
 70
     1
102
RTVSPropertyOp11
 70
     1
102
RTVSPropertyOp12
 70
     1
102
RTVSPropertyOp13
 70
     1
102
RTVSPropertyOp14
 70
     1
102
RTVSPropertyOp15
 70
     1
102
RTVSPropertyOp16
 70
     1
102
RTVSPropertyOp17
 70
     1
102
RTVSPropertyOp18
 70
     1
102
RTVSPropertyOp19
 70
     1
102
RTVSPropertyOp20
 70
     1
102
RTVSPropertyOp21
 70
     1
102
RTVSPropertyOp22
 70
     1
102
RTVSPropertyOp23
 70
     1
102
RTVSPropertyOp24
 70
     1
102
RTVSPropertyOp25
 70
     1
102
RTVSPropertyOp26
 70
     1
102
RTVSPropertyOp27
 70
     1
102
RTVSPropertyOp28
 70
     1
102
RTVSPropertyOp29
 70
     1
102
RTVSPropertyOp30
 70
     1
102
RTVSPropertyOp31
 70
     1
102
RTVSPropertyOp32
 70
     1
102
RTVSPropertyOp33
 70
     1
102
RTVSPropertyOp34
 70
     1
102
RTVSPropertyOp35
 70
     1
102
RTVSPropertyOp36
 70
     1
102
RTVSPropertyOp37
 70
     1
102
RTVSPropertyOp38
 70
     1
102
RTVSPropertyOp39
 70
     1
102
RTVSPropertyOp40
 70
     1
102
RTVSPropertyOp41
 70
     1
102
RTVSPropertyOp42
 70
     1
102
RTVSPropertyOp43
 70
     1
102
RTVSPropertyOp44
 70
     1
102
RTVSPropertyOp45
 70
     1
102
RTVSPropertyOp46
 70
     1
102
RTVSPropertyOp47
 70
     1
102
RTVSPropertyOp48
 70
     1
102
RTVSPropertyOp49
 70
     1
102
RTVSPropertyOp50
 70
     1
102
RTVSPropertyOp51
 70
     0
102
RTVSPropertyOp52
 70
     0
102
RTVSPropertyOp53
 70
     1
102
RTVSPropertyOp54
 70
     1
102
RTVSPropertyOp55
 70
     1
102
RTVSPropertyOp56
 70
     1
102
RTVSPropertyOp57
 70
     1
102
RTVSPropertyOp58
 70
     1
102
RTVSPropertyOp59
 70
     1
102
RTVSPropertyOp60
 70
     1
102
RTVSPropertyOp61
 70
     1
102
RTVSPropertyOp62
 70
     1
  0
XRECORD
  5
29A71
102
{ACAD_REACTORS
330
29A70
102
}
330
29A70
100
AcDbXrecord
280
     1
102
RTVSPost2010Prop28
280
     0
102
RTVSPost2010PropOp28
 70
     1
102
RTVSPost2010Prop29
280
     1
102
RTVSPost2010PropOp29
 70
     1
102
RTVSPost2010Prop30
280
     1
102
RTVSPost2010PropOp30
 70
     1
102
RTVSPost2010Prop31
280
     0
102
RTVSPost2010PropOp31
 70
     1
102
RTVSPost2010Prop32
280
     0
102
RTVSPost2010PropOp32
 70
     1
102
RTVSPost2010Prop33
280
     0
102
RTVSPost2010PropOp33
 70
     1
102
RTVSPost2010Prop34
280
     0
102
RTVSPost2010PropOp34
 70
     1
102
RTVSPost2010Prop35
280
     0
102
RTVSPost2010PropOp35
 70
     1
102
RTVSPost2010Prop36
280
     0
102
RTVSPost2010PropOp36
 70
     1
102
RTVSPost2010Prop37
 90
       50
102
RTVSPost2010PropOp37
 70
     1
102
RTVSPost2010Prop38
140
0.0
102
RTVSPost2010PropOp38
 70
     1
102
RTVSPost2010Prop39
140
1.0
102
RTVSPost2010PropOp39
 70
     1
102
RTVSPost2010Prop40
 90
        0
102
RTVSPost2010PropOp40
 70
     1
102
RTVSPost2010Prop41ColorIndex
 90
       18
102
RTVSPost2010Prop41ColorRGB
 90
        0
102
RTVSPost2010PropOp41
 70
     1
102
RTVSPost2010Prop42
 90
       50
102
RTVSPost2010PropOp42
 70
     1
102
RTVSPost2010Prop43
 90
        3
102
RTVSPost2010PropOp43
 70
     1
102
RTVSPost2010Prop44ColorIndex
 90
        5
102
RTVSPost2010Prop44ColorRGB
 90
      255
102
RTVSPost2010PropOp44
 70
     1
102
RTVSPost2010Prop45
280
     0
102
RTVSPost2010PropOp45
 70
     1
102
RTVSPost2010Prop46
 90
       50
102
RTVSPost2010PropOp46
 70
     1
102
RTVSPost2010Prop47
 90
       50
102
RTVSPost2010PropOp47
 70
     1
102
RTVSPost2010Prop48
 90
       50
102
RTVSPost2010PropOp48
 70
     1
102
RTVSPost2010Prop49
280
     0
102
RTVSPost2010PropOp49
 70
     1
102
RTVSPost2010Prop50
 90
       50
102
RTVSPost2010PropOp50
 70
     1
102
RTVSPost2010Prop51ColorIndex
 90
      256
102
RTVSPost2010Prop51ColorRGB
 90
-16777216
102
RTVSPost2010PropOp51
 70
     0
102
RTVSPost2010Prop52
140
1.0
102
RTVSPost2010PropOp52
 70
     0
102
RTVSPost2010Prop53
 90
        2
102
RTVSPost2010PropOp53
 70
     1
102
RTVSPost2010Prop54
  1
strokes_ogs.tif
102
RTVSPost2010PropOp54
 70
     1
102
RTVSPost2010Prop55
280
     0
102
RTVSPost2010PropOp55
 70
     1
102
RTVSPost2010Prop56
140
1.0
102
RTVSPost2010PropOp56
 70
     1
102
RTVSPost2010Prop57
140
1.0
102
RTVSPost2010PropOp57
 70
     1
102
RTVSPropertyOp0
 70
     1
102
RTVSPropertyOp1
 70
     1
102
RTVSPropertyOp2
 70
     1
102
RTVSPropertyOp3
 70
     1
102
RTVSPropertyOp4
 70
     1
102
RTVSPropertyOp5
 70
     1
102
RTVSPropertyOp6
 70
     1
102
RTVSPropertyOp7
 70
     1
102
RTVSPropertyOp8
 70
     1
102
RTVSPropertyOp9
 70
     1
102
RTVSPropertyOp10
 70
     1
102
RTVSPropertyOp11
 70
     1
102
RTVSPropertyOp12
 70
     1
102
RTVSPropertyOp13
 70
     1
102
RTVSPropertyOp14
 70
     1
102
RTVSPropertyOp15
 70
     1
102
RTVSPropertyOp16
 70
     1
102
RTVSPropertyOp17
 70
     1
102
RTVSPropertyOp18
 70
     1
102
RTVSPropertyOp19
 70
     1
102
RTVSPropertyOp20
 70
     1
102
RTVSPropertyOp21
 70
     1
102
RTVSPropertyOp22
 70
     1
102
RTVSPropertyOp23
 70
     1
102
RTVSPropertyOp24
 70
     1
102
RTVSPropertyOp25
 70
     1
102
RTVSPropertyOp26
 70
     1
102
RTVSPropertyOp27
 70
     1
102
RTVSPropertyOp28
 70
     1
102
RTVSPropertyOp29
 70
     1
102
RTVSPropertyOp30
 70
     1
102
RTVSPropertyOp31
 70
     1
102
RTVSPropertyOp32
 70
     1
102
RTVSPropertyOp33
 70
     1
102
RTVSPropertyOp34
 70
     1
102
RTVSPropertyOp35
 70
     1
102
RTVSPropertyOp36
 70
     1
102
RTVSPropertyOp37
 70
     1
102
RTVSPropertyOp38
 70
     1
102
RTVSPropertyOp39
 70
     1
102
RTVSPropertyOp40
 70
     1
102
RTVSPropertyOp41
 70
     1
102
RTVSPropertyOp42
 70
     1
102
RTVSPropertyOp43
 70
     1
102
RTVSPropertyOp44
 70
     1
102
RTVSPropertyOp45
 70
     1
102
RTVSPropertyOp46
 70
     1
102
RTVSPropertyOp47
 70
     1
102
RTVSPropertyOp48
 70
     1
102
RTVSPropertyOp49
 70
     1
102
RTVSPropertyOp50
 70
     1
102
RTVSPropertyOp51
 70
     0
102
RTVSPropertyOp52
 70
     0
102
RTVSPropertyOp53
 70
     1
102
RTVSPropertyOp54
 70
     1
102
RTVSPropertyOp55
 70
     1
102
RTVSPropertyOp56
 70
     1
102
RTVSPropertyOp57
 70
     1
102
RTVSPropertyOp58
 70
     1
102
RTVSPropertyOp59
 70
     1
102
RTVSPropertyOp60
 70
     1
102
RTVSPropertyOp61
 70
     1
102
RTVSPropertyOp62
 70
     1
  0
XRECORD
  5
29A79
102
{ACAD_REACTORS
330
29A78
102
}
330
29A78
100
AcDbXrecord
280
     1
102
RTVSPost2010Prop28
280
     0
102
RTVSPost2010PropOp28
 70
     1
102
RTVSPost2010Prop29
280
     1
102
RTVSPost2010PropOp29
 70
     1
102
RTVSPost2010Prop30
280
     1
102
RTVSPost2010PropOp30
 70
     1
102
RTVSPost2010Prop31
280
     0
102
RTVSPost2010PropOp31
 70
     1
102
RTVSPost2010Prop32
280
     0
102
RTVSPost2010PropOp32
 70
     1
102
RTVSPost2010Prop33
280
     0
102
RTVSPost2010PropOp33
 70
     1
102
RTVSPost2010Prop34
280
     0
102
RTVSPost2010PropOp34
 70
     1
102
RTVSPost2010Prop35
280
     0
102
RTVSPost2010PropOp35
 70
     1
102
RTVSPost2010Prop36
280
     0
102
RTVSPost2010PropOp36
 70
     1
102
RTVSPost2010Prop37
 90
       50
102
RTVSPost2010PropOp37
 70
     1
102
RTVSPost2010Prop38
140
0.0
102
RTVSPost2010PropOp38
 70
     1
102
RTVSPost2010Prop39
140
1.0
102
RTVSPost2010PropOp39
 70
     1
102
RTVSPost2010Prop40
 90
        0
102
RTVSPost2010PropOp40
 70
     1
102
RTVSPost2010Prop41ColorIndex
 90
       18
102
RTVSPost2010Prop41ColorRGB
 90
        0
102
RTVSPost2010PropOp41
 70
     1
102
RTVSPost2010Prop42
 90
       50
102
RTVSPost2010PropOp42
 70
     1
102
RTVSPost2010Prop43
 90
        3
102
RTVSPost2010PropOp43
 70
     1
102
RTVSPost2010Prop44ColorIndex
 90
        5
102
RTVSPost2010Prop44ColorRGB
 90
      255
102
RTVSPost2010PropOp44
 70
     1
102
RTVSPost2010Prop45
280
     0
102
RTVSPost2010PropOp45
 70
     1
102
RTVSPost2010Prop46
 90
       50
102
RTVSPost2010PropOp46
 70
     1
102
RTVSPost2010Prop47
 90
       50
102
RTVSPost2010PropOp47
 70
     1
102
RTVSPost2010Prop48
 90
       50
102
RTVSPost2010PropOp48
 70
     1
102
RTVSPost2010Prop49
280
     0
102
RTVSPost2010PropOp49
 70
     1
102
RTVSPost2010Prop50
 90
       50
102
RTVSPost2010PropOp50
 70
     1
102
RTVSPost2010Prop51ColorIndex
 90
      256
102
RTVSPost2010Prop51ColorRGB
 90
-16777216
102
RTVSPost2010PropOp51
 70
     0
102
RTVSPost2010Prop52
140
1.0
102
RTVSPost2010PropOp52
 70
     0
102
RTVSPost2010Prop53
 90
        2
102
RTVSPost2010PropOp53
 70
     1
102
RTVSPost2010Prop54
  1
strokes_ogs.tif
102
RTVSPost2010PropOp54
 70
     1
102
RTVSPost2010Prop55
280
     0
102
RTVSPost2010PropOp55
 70
     1
102
RTVSPost2010Prop56
140
1.0
102
RTVSPost2010PropOp56
 70
     1
102
RTVSPost2010Prop57
140
1.0
102
RTVSPost2010PropOp57
 70
     1
102
RTVSPropertyOp0
 70
     1
102
RTVSPropertyOp1
 70
     1
102
RTVSPropertyOp2
 70
     1
102
RTVSPropertyOp3
 70
     1
102
RTVSPropertyOp4
 70
     1
102
RTVSPropertyOp5
 70
     1
102
RTVSPropertyOp6
 70
     1
102
RTVSPropertyOp7
 70
     1
102
RTVSPropertyOp8
 70
     1
102
RTVSPropertyOp9
 70
     1
102
RTVSPropertyOp10
 70
     1
102
RTVSPropertyOp11
 70
     1
102
RTVSPropertyOp12
 70
     1
102
RTVSPropertyOp13
 70
     1
102
RTVSPropertyOp14
 70
     1
102
RTVSPropertyOp15
 70
     1
102
RTVSPropertyOp16
 70
     1
102
RTVSPropertyOp17
 70
     1
102
RTVSPropertyOp18
 70
     1
102
RTVSPropertyOp19
 70
     1
102
RTVSPropertyOp20
 70
     1
102
RTVSPropertyOp21
 70
     1
102
RTVSPropertyOp22
 70
     1
102
RTVSPropertyOp23
 70
     1
102
RTVSPropertyOp24
 70
     1
102
RTVSPropertyOp25
 70
     1
102
RTVSPropertyOp26
 70
     1
102
RTVSPropertyOp27
 70
     1
102
RTVSPropertyOp28
 70
     1
102
RTVSPropertyOp29
 70
     1
102
RTVSPropertyOp30
 70
     1
102
RTVSPropertyOp31
 70
     1
102
RTVSPropertyOp32
 70
     1
102
RTVSPropertyOp33
 70
     1
102
RTVSPropertyOp34
 70
     1
102
RTVSPropertyOp35
 70
     1
102
RTVSPropertyOp36
 70
     1
102
RTVSPropertyOp37
 70
     1
102
RTVSPropertyOp38
 70
     1
102
RTVSPropertyOp39
 70
     1
102
RTVSPropertyOp40
 70
     1
102
RTVSPropertyOp41
 70
     1
102
RTVSPropertyOp42
 70
     1
102
RTVSPropertyOp43
 70
     1
102
RTVSPropertyOp44
 70
     1
102
RTVSPropertyOp45
 70
     1
102
RTVSPropertyOp46
 70
     1
102
RTVSPropertyOp47
 70
     1
102
RTVSPropertyOp48
 70
     1
102
RTVSPropertyOp49
 70
     1
102
RTVSPropertyOp50
 70
     1
102
RTVSPropertyOp51
 70
     0
102
RTVSPropertyOp52
 70
     0
102
RTVSPropertyOp53
 70
     1
102
RTVSPropertyOp54
 70
     1
102
RTVSPropertyOp55
 70
     1
102
RTVSPropertyOp56
 70
     1
102
RTVSPropertyOp57
 70
     1
102
RTVSPropertyOp58
 70
     1
102
RTVSPropertyOp59
 70
     1
102
RTVSPropertyOp60
 70
     1
102
RTVSPropertyOp61
 70
     1
102
RTVSPropertyOp62
 70
     1
  0
XRECORD
  5
29A95
102
{ACAD_REACTORS
330
29A94
102
}
330
29A94
100
AcDbXrecord
280
     1
102
RTVSPost2010Prop28
280
     0
102
RTVSPost2010PropOp28
 70
     1
102
RTVSPost2010Prop29
280
     1
102
RTVSPost2010PropOp29
 70
     1
102
RTVSPost2010Prop30
280
     1
102
RTVSPost2010PropOp30
 70
     1
102
RTVSPost2010Prop31
280
     0
102
RTVSPost2010PropOp31
 70
     1
102
RTVSPost2010Prop32
280
     0
102
RTVSPost2010PropOp32
 70
     1
102
RTVSPost2010Prop33
280
     0
102
RTVSPost2010PropOp33
 70
     1
102
RTVSPost2010Prop34
280
     0
102
RTVSPost2010PropOp34
 70
     1
102
RTVSPost2010Prop35
280
     0
102
RTVSPost2010PropOp35
 70
     1
102
RTVSPost2010Prop36
280
     0
102
RTVSPost2010PropOp36
 70
     1
102
RTVSPost2010Prop37
 90
       50
102
RTVSPost2010PropOp37
 70
     0
102
RTVSPost2010Prop38
140
0.0
102
RTVSPost2010PropOp38
 70
     0
102
RTVSPost2010Prop39
140
1.0
102
RTVSPost2010PropOp39
 70
     0
102
RTVSPost2010Prop40
 90
        0
102
RTVSPost2010PropOp40
 70
     0
102
RTVSPost2010Prop41ColorIndex
 90
       18
102
RTVSPost2010Prop41ColorRGB
 90
        0
102
RTVSPost2010PropOp41
 70
     0
102
RTVSPost2010Prop42
 90
       50
102
RTVSPost2010PropOp42
 70
     0
102
RTVSPost2010Prop43
 90
        3
102
RTVSPost2010PropOp43
 70
     0
102
RTVSPost2010Prop44ColorIndex
 90
        5
102
RTVSPost2010Prop44ColorRGB
 90
      255
102
RTVSPost2010PropOp44
 70
     0
102
RTVSPost2010Prop45
280
     0
102
RTVSPost2010PropOp45
 70
     1
102
RTVSPost2010Prop46
 90
       50
102
RTVSPost2010PropOp46
 70
     0
102
RTVSPost2010Prop47
 90
       50
102
RTVSPost2010PropOp47
 70
     0
102
RTVSPost2010Prop48
 90
       50
102
RTVSPost2010PropOp48
 70
     0
102
RTVSPost2010Prop49
280
     0
102
RTVSPost2010PropOp49
 70
     1
102
RTVSPost2010Prop50
 90
       50
102
RTVSPost2010PropOp50
 70
     0
102
RTVSPost2010Prop51ColorIndex
 90
      256
102
RTVSPost2010Prop51ColorRGB
 90
-16777216
102
RTVSPost2010PropOp51
 70
     0
102
RTVSPost2010Prop52
140
1.0
102
RTVSPost2010PropOp52
 70
     0
102
RTVSPost2010Prop53
 90
        2
102
RTVSPost2010PropOp53
 70
     0
102
RTVSPost2010Prop54
  1
strokes_ogs.tif
102
RTVSPost2010PropOp54
 70
     0
102
RTVSPost2010Prop55
280
     0
102
RTVSPost2010PropOp55
 70
     1
102
RTVSPost2010Prop56
140
1.0
102
RTVSPost2010PropOp56
 70
     0
102
RTVSPost2010Prop57
140
1.0
102
RTVSPost2010PropOp57
 70
     0
102
RTVSPropertyOp0
 70
     0
102
RTVSPropertyOp1
 70
     0
102
RTVSPropertyOp2
 70
     0
102
RTVSPropertyOp3
 70
     0
102
RTVSPropertyOp4
 70
     0
102
RTVSPropertyOp5
 70
     0
102
RTVSPropertyOp6
 70
     0
102
RTVSPropertyOp7
 70
     0
102
RTVSPropertyOp8
 70
     0
102
RTVSPropertyOp9
 70
     0
102
RTVSPropertyOp10
 70
     0
102
RTVSPropertyOp11
 70
     0
102
RTVSPropertyOp12
 70
     0
102
RTVSPropertyOp13
 70
     0
102
RTVSPropertyOp14
 70
     2
102
RTVSPropertyOp15
 70
     0
102
RTVSPropertyOp16
 70
     0
102
RTVSPropertyOp17
 70
     0
102
RTVSPropertyOp18
 70
     0
102
RTVSPropertyOp19
 70
     0
102
RTVSPropertyOp20
 70
     0
102
RTVSPropertyOp21
 70
     0
102
RTVSPropertyOp22
 70
     0
102
RTVSPropertyOp23
 70
     0
102
RTVSPropertyOp24
 70
     0
102
RTVSPropertyOp25
 70
     0
102
RTVSPropertyOp26
 70
     0
102
RTVSPropertyOp27
 70
     0
102
RTVSPropertyOp28
 70
     1
102
RTVSPropertyOp29
 70
     1
102
RTVSPropertyOp30
 70
     1
102
RTVSPropertyOp31
 70
     1
102
RTVSPropertyOp32
 70
     1
102
RTVSPropertyOp33
 70
     1
102
RTVSPropertyOp34
 70
     1
102
RTVSPropertyOp35
 70
     1
102
RTVSPropertyOp36
 70
     1
102
RTVSPropertyOp37
 70
     0
102
RTVSPropertyOp38
 70
     0
102
RTVSPropertyOp39
 70
     0
102
RTVSPropertyOp40
 70
     0
102
RTVSPropertyOp41
 70
     0
102
RTVSPropertyOp42
 70
     0
102
RTVSPropertyOp43
 70
     0
102
RTVSPropertyOp44
 70
     0
102
RTVSPropertyOp45
 70
     1
102
RTVSPropertyOp46
 70
     0
102
RTVSPropertyOp47
 70
     0
102
RTVSPropertyOp48
 70
     0
102
RTVSPropertyOp49
 70
     1
102
RTVSPropertyOp50
 70
     0
102
RTVSPropertyOp51
 70
     0
102
RTVSPropertyOp52
 70
     0
102
RTVSPropertyOp53
 70
     0
102
RTVSPropertyOp54
 70
     0
102
RTVSPropertyOp55
 70
     1
102
RTVSPropertyOp56
 70
     0
102
RTVSPropertyOp57
 70
     0
102
RTVSPropertyOp58
 70
     0
102
RTVSPropertyOp59
 70
     0
102
RTVSPropertyOp60
 70
     0
102
RTVSPropertyOp61
 70
     0
102
RTVSPropertyOp62
 70
     0
  0
XRECORD
  5
29A85
102
{ACAD_REACTORS
330
29A84
102
}
330
29A84
100
AcDbXrecord
280
     1
102
RTVSPost2010Prop28
280
     0
102
RTVSPost2010PropOp28
 70
     1
102
RTVSPost2010Prop29
280
     1
102
RTVSPost2010PropOp29
 70
     1
102
RTVSPost2010Prop30
280
     1
102
RTVSPost2010PropOp30
 70
     1
102
RTVSPost2010Prop31
280
     0
102
RTVSPost2010PropOp31
 70
     1
102
RTVSPost2010Prop32
280
     0
102
RTVSPost2010PropOp32
 70
     1
102
RTVSPost2010Prop33
280
     0
102
RTVSPost2010PropOp33
 70
     1
102
RTVSPost2010Prop34
280
     0
102
RTVSPost2010PropOp34
 70
     1
102
RTVSPost2010Prop35
280
     0
102
RTVSPost2010PropOp35
 70
     1
102
RTVSPost2010Prop36
280
     0
102
RTVSPost2010PropOp36
 70
     1
102
RTVSPost2010Prop37
 90
       50
102
RTVSPost2010PropOp37
 70
     1
102
RTVSPost2010Prop38
140
0.0
102
RTVSPost2010PropOp38
 70
     1
102
RTVSPost2010Prop39
140
1.0
102
RTVSPost2010PropOp39
 70
     1
102
RTVSPost2010Prop40
 90
        0
102
RTVSPost2010PropOp40
 70
     1
102
RTVSPost2010Prop41ColorIndex
 90
       18
102
RTVSPost2010Prop41ColorRGB
 90
        0
102
RTVSPost2010PropOp41
 70
     1
102
RTVSPost2010Prop42
 90
       50
102
RTVSPost2010PropOp42
 70
     1
102
RTVSPost2010Prop43
 90
        3
102
RTVSPost2010PropOp43
 70
     1
102
RTVSPost2010Prop44ColorIndex
 90
        5
102
RTVSPost2010Prop44ColorRGB
 90
      255
102
RTVSPost2010PropOp44
 70
     1
102
RTVSPost2010Prop45
280
     0
102
RTVSPost2010PropOp45
 70
     1
102
RTVSPost2010Prop46
 90
       50
102
RTVSPost2010PropOp46
 70
     1
102
RTVSPost2010Prop47
 90
       50
102
RTVSPost2010PropOp47
 70
     1
102
RTVSPost2010Prop48
 90
       50
102
RTVSPost2010PropOp48
 70
     1
102
RTVSPost2010Prop49
280
     0
102
RTVSPost2010PropOp49
 70
     1
102
RTVSPost2010Prop50
 90
       50
102
RTVSPost2010PropOp50
 70
     1
102
RTVSPost2010Prop51ColorIndex
 90
      256
102
RTVSPost2010Prop51ColorRGB
 90
-16777216
102
RTVSPost2010PropOp51
 70
     0
102
RTVSPost2010Prop52
140
1.0
102
RTVSPost2010PropOp52
 70
     0
102
RTVSPost2010Prop53
 90
        2
102
RTVSPost2010PropOp53
 70
     1
102
RTVSPost2010Prop54
  1
strokes_ogs.tif
102
RTVSPost2010PropOp54
 70
     1
102
RTVSPost2010Prop55
280
     0
102
RTVSPost2010PropOp55
 70
     1
102
RTVSPost2010Prop56
140
1.0
102
RTVSPost2010PropOp56
 70
     1
102
RTVSPost2010Prop57
140
1.0
102
RTVSPost2010PropOp57
 70
     1
102
RTVSPropertyOp0
 70
     1
102
RTVSPropertyOp1
 70
     1
102
RTVSPropertyOp2
 70
     1
102
RTVSPropertyOp3
 70
     1
102
RTVSPropertyOp4
 70
     1
102
RTVSPropertyOp5
 70
     1
102
RTVSPropertyOp6
 70
     1
102
RTVSPropertyOp7
 70
     1
102
RTVSPropertyOp8
 70
     1
102
RTVSPropertyOp9
 70
     1
102
RTVSPropertyOp10
 70
     1
102
RTVSPropertyOp11
 70
     1
102
RTVSPropertyOp12
 70
     1
102
RTVSPropertyOp13
 70
     1
102
RTVSPropertyOp14
 70
     1
102
RTVSPropertyOp15
 70
     1
102
RTVSPropertyOp16
 70
     1
102
RTVSPropertyOp17
 70
     1
102
RTVSPropertyOp18
 70
     1
102
RTVSPropertyOp19
 70
     1
102
RTVSPropertyOp20
 70
     1
102
RTVSPropertyOp21
 70
     1
102
RTVSPropertyOp22
 70
     1
102
RTVSPropertyOp23
 70
     1
102
RTVSPropertyOp24
 70
     1
102
RTVSPropertyOp25
 70
     1
102
RTVSPropertyOp26
 70
     1
102
RTVSPropertyOp27
 70
     1
102
RTVSPropertyOp28
 70
     1
102
RTVSPropertyOp29
 70
     1
102
RTVSPropertyOp30
 70
     1
102
RTVSPropertyOp31
 70
     1
102
RTVSPropertyOp32
 70
     1
102
RTVSPropertyOp33
 70
     1
102
RTVSPropertyOp34
 70
     1
102
RTVSPropertyOp35
 70
     1
102
RTVSPropertyOp36
 70
     1
102
RTVSPropertyOp37
 70
     1
102
RTVSPropertyOp38
 70
     1
102
RTVSPropertyOp39
 70
     1
102
RTVSPropertyOp40
 70
     1
102
RTVSPropertyOp41
 70
     1
102
RTVSPropertyOp42
 70
     1
102
RTVSPropertyOp43
 70
     1
102
RTVSPropertyOp44
 70
     1
102
RTVSPropertyOp45
 70
     1
102
RTVSPropertyOp46
 70
     1
102
RTVSPropertyOp47
 70
     1
102
RTVSPropertyOp48
 70
     1
102
RTVSPropertyOp49
 70
     1
102
RTVSPropertyOp50
 70
     1
102
RTVSPropertyOp51
 70
     0
102
RTVSPropertyOp52
 70
     0
102
RTVSPropertyOp53
 70
     1
102
RTVSPropertyOp54
 70
     1
102
RTVSPropertyOp55
 70
     1
102
RTVSPropertyOp56
 70
     1
102
RTVSPropertyOp57
 70
     1
102
RTVSPropertyOp58
 70
     1
102
RTVSPropertyOp59
 70
     1
102
RTVSPropertyOp60
 70
     1
102
RTVSPropertyOp61
 70
     1
102
RTVSPropertyOp62
 70
     1
  0
XRECORD
  5
29A97
102
{ACAD_REACTORS
330
29A96
102
}
330
29A96
100
AcDbXrecord
280
     1
102
RTVSPost2010Prop28
280
     0
102
RTVSPost2010PropOp28
 70
     1
102
RTVSPost2010Prop29
280
     1
102
RTVSPost2010PropOp29
 70
     1
102
RTVSPost2010Prop30
280
     1
102
RTVSPost2010PropOp30
 70
     1
102
RTVSPost2010Prop31
280
     0
102
RTVSPost2010PropOp31
 70
     1
102
RTVSPost2010Prop32
280
     0
102
RTVSPost2010PropOp32
 70
     1
102
RTVSPost2010Prop33
280
     0
102
RTVSPost2010PropOp33
 70
     1
102
RTVSPost2010Prop34
280
     0
102
RTVSPost2010PropOp34
 70
     1
102
RTVSPost2010Prop35
280
     0
102
RTVSPost2010PropOp35
 70
     1
102
RTVSPost2010Prop36
280
     0
102
RTVSPost2010PropOp36
 70
     1
102
RTVSPost2010Prop37
 90
       50
102
RTVSPost2010PropOp37
 70
     0
102
RTVSPost2010Prop38
140
0.0
102
RTVSPost2010PropOp38
 70
     0
102
RTVSPost2010Prop39
140
1.0
102
RTVSPost2010PropOp39
 70
     0
102
RTVSPost2010Prop40
 90
        0
102
RTVSPost2010PropOp40
 70
     0
102
RTVSPost2010Prop41ColorIndex
 90
       18
102
RTVSPost2010Prop41ColorRGB
 90
        0
102
RTVSPost2010PropOp41
 70
     0
102
RTVSPost2010Prop42
 90
       50
102
RTVSPost2010PropOp42
 70
     0
102
RTVSPost2010Prop43
 90
        3
102
RTVSPost2010PropOp43
 70
     0
102
RTVSPost2010Prop44ColorIndex
 90
        5
102
RTVSPost2010Prop44ColorRGB
 90
      255
102
RTVSPost2010PropOp44
 70
     0
102
RTVSPost2010Prop45
280
     0
102
RTVSPost2010PropOp45
 70
     1
102
RTVSPost2010Prop46
 90
       50
102
RTVSPost2010PropOp46
 70
     0
102
RTVSPost2010Prop47
 90
       50
102
RTVSPost2010PropOp47
 70
     0
102
RTVSPost2010Prop48
 90
       50
102
RTVSPost2010PropOp48
 70
     0
102
RTVSPost2010Prop49
280
     0
102
RTVSPost2010PropOp49
 70
     1
102
RTVSPost2010Prop50
 90
       50
102
RTVSPost2010PropOp50
 70
     0
102
RTVSPost2010Prop51ColorIndex
 90
      256
102
RTVSPost2010Prop51ColorRGB
 90
-16777216
102
RTVSPost2010PropOp51
 70
     0
102
RTVSPost2010Prop52
140
1.0
102
RTVSPost2010PropOp52
 70
     0
102
RTVSPost2010Prop53
 90
        2
102
RTVSPost2010PropOp53
 70
     0
102
RTVSPost2010Prop54
  1
strokes_ogs.tif
102
RTVSPost2010PropOp54
 70
     0
102
RTVSPost2010Prop55
280
     0
102
RTVSPost2010PropOp55
 70
     1
102
RTVSPost2010Prop56
140
1.0
102
RTVSPost2010PropOp56
 70
     0
102
RTVSPost2010Prop57
140
1.0
102
RTVSPost2010PropOp57
 70
     0
102
RTVSPropertyOp0
 70
     0
102
RTVSPropertyOp1
 70
     0
102
RTVSPropertyOp2
 70
     0
102
RTVSPropertyOp3
 70
     0
102
RTVSPropertyOp4
 70
     0
102
RTVSPropertyOp5
 70
     0
102
RTVSPropertyOp6
 70
     0
102
RTVSPropertyOp7
 70
     0
102
RTVSPropertyOp8
 70
     0
102
RTVSPropertyOp9
 70
     0
102
RTVSPropertyOp10
 70
     0
102
RTVSPropertyOp11
 70
     0
102
RTVSPropertyOp12
 70
     0
102
RTVSPropertyOp13
 70
     0
102
RTVSPropertyOp14
 70
     2
102
RTVSPropertyOp15
 70
     0
102
RTVSPropertyOp16
 70
     0
102
RTVSPropertyOp17
 70
     0
102
RTVSPropertyOp18
 70
     0
102
RTVSPropertyOp19
 70
     0
102
RTVSPropertyOp20
 70
     0
102
RTVSPropertyOp21
 70
     0
102
RTVSPropertyOp22
 70
     0
102
RTVSPropertyOp23
 70
     0
102
RTVSPropertyOp24
 70
     0
102
RTVSPropertyOp25
 70
     0
102
RTVSPropertyOp26
 70
     0
102
RTVSPropertyOp27
 70
     0
102
RTVSPropertyOp28
 70
     1
102
RTVSPropertyOp29
 70
     1
102
RTVSPropertyOp30
 70
     1
102
RTVSPropertyOp31
 70
     1
102
RTVSPropertyOp32
 70
     1
102
RTVSPropertyOp33
 70
     1
102
RTVSPropertyOp34
 70
     1
102
RTVSPropertyOp35
 70
     1
102
RTVSPropertyOp36
 70
     1
102
RTVSPropertyOp37
 70
     0
102
RTVSPropertyOp38
 70
     0
102
RTVSPropertyOp39
 70
     0
102
RTVSPropertyOp40
 70
     0
102
RTVSPropertyOp41
 70
     0
102
RTVSPropertyOp42
 70
     0
102
RTVSPropertyOp43
 70
     0
102
RTVSPropertyOp44
 70
     0
102
RTVSPropertyOp45
 70
     1
102
RTVSPropertyOp46
 70
     0
102
RTVSPropertyOp47
 70
     0
102
RTVSPropertyOp48
 70
     0
102
RTVSPropertyOp49
 70
     1
102
RTVSPropertyOp50
 70
     0
102
RTVSPropertyOp51
 70
     0
102
RTVSPropertyOp52
 70
     0
102
RTVSPropertyOp53
 70
     0
102
RTVSPropertyOp54
 70
     0
102
RTVSPropertyOp55
 70
     1
102
RTVSPropertyOp56
 70
     0
102
RTVSPropertyOp57
 70
     0
102
RTVSPropertyOp58
 70
     0
102
RTVSPropertyOp59
 70
     0
102
RTVSPropertyOp60
 70
     0
102
RTVSPropertyOp61
 70
     0
102
RTVSPropertyOp62
 70
     0
  0
XRECORD
  5
29A7D
102
{ACAD_REACTORS
330
29A7C
102
}
330
29A7C
100
AcDbXrecord
280
     1
102
RTVSPost2010Prop28
280
     0
102
RTVSPost2010PropOp28
 70
     1
102
RTVSPost2010Prop29
280
     1
102
RTVSPost2010PropOp29
 70
     1
102
RTVSPost2010Prop30
280
     1
102
RTVSPost2010PropOp30
 70
     1
102
RTVSPost2010Prop31
280
     0
102
RTVSPost2010PropOp31
 70
     1
102
RTVSPost2010Prop32
280
     0
102
RTVSPost2010PropOp32
 70
     1
102
RTVSPost2010Prop33
280
     0
102
RTVSPost2010PropOp33
 70
     1
102
RTVSPost2010Prop34
280
     0
102
RTVSPost2010PropOp34
 70
     1
102
RTVSPost2010Prop35
280
     0
102
RTVSPost2010PropOp35
 70
     1
102
RTVSPost2010Prop36
280
     0
102
RTVSPost2010PropOp36
 70
     1
102
RTVSPost2010Prop37
 90
       50
102
RTVSPost2010PropOp37
 70
     1
102
RTVSPost2010Prop38
140
0.0
102
RTVSPost2010PropOp38
 70
     1
102
RTVSPost2010Prop39
140
1.0
102
RTVSPost2010PropOp39
 70
     1
102
RTVSPost2010Prop40
 90
        0
102
RTVSPost2010PropOp40
 70
     1
102
RTVSPost2010Prop41ColorIndex
 90
       18
102
RTVSPost2010Prop41ColorRGB
 90
        0
102
RTVSPost2010PropOp41
 70
     1
102
RTVSPost2010Prop42
 90
       50
102
RTVSPost2010PropOp42
 70
     1
102
RTVSPost2010Prop43
 90
        3
102
RTVSPost2010PropOp43
 70
     1
102
RTVSPost2010Prop44ColorIndex
 90
        5
102
RTVSPost2010Prop44ColorRGB
 90
      255
102
RTVSPost2010PropOp44
 70
     1
102
RTVSPost2010Prop45
280
     0
102
RTVSPost2010PropOp45
 70
     1
102
RTVSPost2010Prop46
 90
       50
102
RTVSPost2010PropOp46
 70
     1
102
RTVSPost2010Prop47
 90
       50
102
RTVSPost2010PropOp47
 70
     1
102
RTVSPost2010Prop48
 90
       50
102
RTVSPost2010PropOp48
 70
     1
102
RTVSPost2010Prop49
280
     0
102
RTVSPost2010PropOp49
 70
     1
102
RTVSPost2010Prop50
 90
       50
102
RTVSPost2010PropOp50
 70
     1
102
RTVSPost2010Prop51ColorIndex
 90
      256
102
RTVSPost2010Prop51ColorRGB
 90
-16777216
102
RTVSPost2010PropOp51
 70
     0
102
RTVSPost2010Prop52
140
1.0
102
RTVSPost2010PropOp52
 70
     0
102
RTVSPost2010Prop53
 90
        2
102
RTVSPost2010PropOp53
 70
     1
102
RTVSPost2010Prop54
  1
strokes_ogs.tif
102
RTVSPost2010PropOp54
 70
     1
102
RTVSPost2010Prop55
280
     0
102
RTVSPost2010PropOp55
 70
     1
102
RTVSPost2010Prop56
140
1.0
102
RTVSPost2010PropOp56
 70
     1
102
RTVSPost2010Prop57
140
1.0
102
RTVSPost2010PropOp57
 70
     1
102
RTVSPropertyOp0
 70
     1
102
RTVSPropertyOp1
 70
     1
102
RTVSPropertyOp2
 70
     1
102
RTVSPropertyOp3
 70
     1
102
RTVSPropertyOp4
 70
     1
102
RTVSPropertyOp5
 70
     1
102
RTVSPropertyOp6
 70
     1
102
RTVSPropertyOp7
 70
     1
102
RTVSPropertyOp8
 70
     1
102
RTVSPropertyOp9
 70
     1
102
RTVSPropertyOp10
 70
     1
102
RTVSPropertyOp11
 70
     1
102
RTVSPropertyOp12
 70
     1
102
RTVSPropertyOp13
 70
     1
102
RTVSPropertyOp14
 70
     1
102
RTVSPropertyOp15
 70
     1
102
RTVSPropertyOp16
 70
     1
102
RTVSPropertyOp17
 70
     1
102
RTVSPropertyOp18
 70
     1
102
RTVSPropertyOp19
 70
     1
102
RTVSPropertyOp20
 70
     1
102
RTVSPropertyOp21
 70
     1
102
RTVSPropertyOp22
 70
     1
102
RTVSPropertyOp23
 70
     1
102
RTVSPropertyOp24
 70
     1
102
RTVSPropertyOp25
 70
     1
102
RTVSPropertyOp26
 70
     1
102
RTVSPropertyOp27
 70
     1
102
RTVSPropertyOp28
 70
     1
102
RTVSPropertyOp29
 70
     1
102
RTVSPropertyOp30
 70
     1
102
RTVSPropertyOp31
 70
     1
102
RTVSPropertyOp32
 70
     1
102
RTVSPropertyOp33
 70
     1
102
RTVSPropertyOp34
 70
     1
102
RTVSPropertyOp35
 70
     1
102
RTVSPropertyOp36
 70
     1
102
RTVSPropertyOp37
 70
     1
102
RTVSPropertyOp38
 70
     1
102
RTVSPropertyOp39
 70
     1
102
RTVSPropertyOp40
 70
     1
102
RTVSPropertyOp41
 70
     1
102
RTVSPropertyOp42
 70
     1
102
RTVSPropertyOp43
 70
     1
102
RTVSPropertyOp44
 70
     1
102
RTVSPropertyOp45
 70
     1
102
RTVSPropertyOp46
 70
     1
102
RTVSPropertyOp47
 70
     1
102
RTVSPropertyOp48
 70
     1
102
RTVSPropertyOp49
 70
     1
102
RTVSPropertyOp50
 70
     1
102
RTVSPropertyOp51
 70
     0
102
RTVSPropertyOp52
 70
     0
102
RTVSPropertyOp53
 70
     1
102
RTVSPropertyOp54
 70
     1
102
RTVSPropertyOp55
 70
     1
102
RTVSPropertyOp56
 70
     1
102
RTVSPropertyOp57
 70
     1
102
RTVSPropertyOp58
 70
     1
102
RTVSPropertyOp59
 70
     1
102
RTVSPropertyOp60
 70
     1
102
RTVSPropertyOp61
 70
     1
102
RTVSPropertyOp62
 70
     1
  0
XRECORD
  5
29A93
102
{ACAD_REACTORS
330
29A92
102
}
330
29A92
100
AcDbXrecord
280
     1
102
RTVSPost2010Prop28
280
     0
102
RTVSPost2010PropOp28
 70
     1
102
RTVSPost2010Prop29
280
     1
102
RTVSPost2010PropOp29
 70
     1
102
RTVSPost2010Prop30
280
     1
102
RTVSPost2010PropOp30
 70
     1
102
RTVSPost2010Prop31
280
     0
102
RTVSPost2010PropOp31
 70
     1
102
RTVSPost2010Prop32
280
     0
102
RTVSPost2010PropOp32
 70
     1
102
RTVSPost2010Prop33
280
     0
102
RTVSPost2010PropOp33
 70
     1
102
RTVSPost2010Prop34
280
     0
102
RTVSPost2010PropOp34
 70
     1
102
RTVSPost2010Prop35
280
     0
102
RTVSPost2010PropOp35
 70
     1
102
RTVSPost2010Prop36
280
     0
102
RTVSPost2010PropOp36
 70
     1
102
RTVSPost2010Prop37
 90
       50
102
RTVSPost2010PropOp37
 70
     1
102
RTVSPost2010Prop38
140
0.0
102
RTVSPost2010PropOp38
 70
     1
102
RTVSPost2010Prop39
140
1.0
102
RTVSPost2010PropOp39
 70
     1
102
RTVSPost2010Prop40
 90
        0
102
RTVSPost2010PropOp40
 70
     1
102
RTVSPost2010Prop41ColorIndex
 90
       18
102
RTVSPost2010Prop41ColorRGB
 90
        0
102
RTVSPost2010PropOp41
 70
     1
102
RTVSPost2010Prop42
 90
       50
102
RTVSPost2010PropOp42
 70
     1
102
RTVSPost2010Prop43
 90
        3
102
RTVSPost2010PropOp43
 70
     1
102
RTVSPost2010Prop44ColorIndex
 90
        5
102
RTVSPost2010Prop44ColorRGB
 90
      255
102
RTVSPost2010PropOp44
 70
     1
102
RTVSPost2010Prop45
280
     0
102
RTVSPost2010PropOp45
 70
     1
102
RTVSPost2010Prop46
 90
       50
102
RTVSPost2010PropOp46
 70
     1
102
RTVSPost2010Prop47
 90
       50
102
RTVSPost2010PropOp47
 70
     1
102
RTVSPost2010Prop48
 90
       50
102
RTVSPost2010PropOp48
 70
     1
102
RTVSPost2010Prop49
280
     0
102
RTVSPost2010PropOp49
 70
     1
102
RTVSPost2010Prop50
 90
       50
102
RTVSPost2010PropOp50
 70
     1
102
RTVSPost2010Prop51ColorIndex
 90
      256
102
RTVSPost2010Prop51ColorRGB
 90
-16777216
102
RTVSPost2010PropOp51
 70
     0
102
RTVSPost2010Prop52
140
1.0
102
RTVSPost2010PropOp52
 70
     0
102
RTVSPost2010Prop53
 90
        2
102
RTVSPost2010PropOp53
 70
     1
102
RTVSPost2010Prop54
  1
strokes_ogs.tif
102
RTVSPost2010PropOp54
 70
     1
102
RTVSPost2010Prop55
280
     0
102
RTVSPost2010PropOp55
 70
     1
102
RTVSPost2010Prop56
140
1.0
102
RTVSPost2010PropOp56
 70
     1
102
RTVSPost2010Prop57
140
1.0
102
RTVSPost2010PropOp57
 70
     1
102
RTVSPropertyOp0
 70
     1
102
RTVSPropertyOp1
 70
     1
102
RTVSPropertyOp2
 70
     1
102
RTVSPropertyOp3
 70
     1
102
RTVSPropertyOp4
 70
     1
102
RTVSPropertyOp5
 70
     1
102
RTVSPropertyOp6
 70
     1
102
RTVSPropertyOp7
 70
     1
102
RTVSPropertyOp8
 70
     1
102
RTVSPropertyOp9
 70
     1
102
RTVSPropertyOp10
 70
     1
102
RTVSPropertyOp11
 70
     1
102
RTVSPropertyOp12
 70
     1
102
RTVSPropertyOp13
 70
     1
102
RTVSPropertyOp14
 70
     1
102
RTVSPropertyOp15
 70
     1
102
RTVSPropertyOp16
 70
     1
102
RTVSPropertyOp17
 70
     1
102
RTVSPropertyOp18
 70
     1
102
RTVSPropertyOp19
 70
     1
102
RTVSPropertyOp20
 70
     1
102
RTVSPropertyOp21
 70
     1
102
RTVSPropertyOp22
 70
     1
102
RTVSPropertyOp23
 70
     1
102
RTVSPropertyOp24
 70
     1
102
RTVSPropertyOp25
 70
     1
102
RTVSPropertyOp26
 70
     1
102
RTVSPropertyOp27
 70
     1
102
RTVSPropertyOp28
 70
     1
102
RTVSPropertyOp29
 70
     1
102
RTVSPropertyOp30
 70
     1
102
RTVSPropertyOp31
 70
     1
102
RTVSPropertyOp32
 70
     1
102
RTVSPropertyOp33
 70
     1
102
RTVSPropertyOp34
 70
     1
102
RTVSPropertyOp35
 70
     1
102
RTVSPropertyOp36
 70
     1
102
RTVSPropertyOp37
 70
     1
102
RTVSPropertyOp38
 70
     1
102
RTVSPropertyOp39
 70
     1
102
RTVSPropertyOp40
 70
     1
102
RTVSPropertyOp41
 70
     1
102
RTVSPropertyOp42
 70
     1
102
RTVSPropertyOp43
 70
     1
102
RTVSPropertyOp44
 70
     1
102
RTVSPropertyOp45
 70
     1
102
RTVSPropertyOp46
 70
     1
102
RTVSPropertyOp47
 70
     1
102
RTVSPropertyOp48
 70
     1
102
RTVSPropertyOp49
 70
     1
102
RTVSPropertyOp50
 70
     1
102
RTVSPropertyOp51
 70
     0
102
RTVSPropertyOp52
 70
     0
102
RTVSPropertyOp53
 70
     1
102
RTVSPropertyOp54
 70
     1
102
RTVSPropertyOp55
 70
     1
102
RTVSPropertyOp56
 70
     1
102
RTVSPropertyOp57
 70
     1
102
RTVSPropertyOp58
 70
     1
102
RTVSPropertyOp59
 70
     1
102
RTVSPropertyOp60
 70
     1
102
RTVSPropertyOp61
 70
     1
102
RTVSPropertyOp62
 70
     1
  0
XRECORD
  5
29A91
102
{ACAD_REACTORS
330
29A90
102
}
330
29A90
100
AcDbXrecord
280
     1
102
RTVSPost2010Prop28
280
     0
102
RTVSPost2010PropOp28
 70
     1
102
RTVSPost2010Prop29
280
     1
102
RTVSPost2010PropOp29
 70
     1
102
RTVSPost2010Prop30
280
     1
102
RTVSPost2010PropOp30
 70
     1
102
RTVSPost2010Prop31
280
     0
102
RTVSPost2010PropOp31
 70
     1
102
RTVSPost2010Prop32
280
     0
102
RTVSPost2010PropOp32
 70
     1
102
RTVSPost2010Prop33
280
     0
102
RTVSPost2010PropOp33
 70
     1
102
RTVSPost2010Prop34
280
     0
102
RTVSPost2010PropOp34
 70
     1
102
RTVSPost2010Prop35
280
     0
102
RTVSPost2010PropOp35
 70
     1
102
RTVSPost2010Prop36
280
     0
102
RTVSPost2010PropOp36
 70
     1
102
RTVSPost2010Prop37
 90
       50
102
RTVSPost2010PropOp37
 70
     1
102
RTVSPost2010Prop38
140
0.0
102
RTVSPost2010PropOp38
 70
     1
102
RTVSPost2010Prop39
140
1.0
102
RTVSPost2010PropOp39
 70
     1
102
RTVSPost2010Prop40
 90
        0
102
RTVSPost2010PropOp40
 70
     1
102
RTVSPost2010Prop41ColorIndex
 90
       18
102
RTVSPost2010Prop41ColorRGB
 90
        0
102
RTVSPost2010PropOp41
 70
     1
102
RTVSPost2010Prop42
 90
       50
102
RTVSPost2010PropOp42
 70
     1
102
RTVSPost2010Prop43
 90
        3
102
RTVSPost2010PropOp43
 70
     1
102
RTVSPost2010Prop44ColorIndex
 90
        5
102
RTVSPost2010Prop44ColorRGB
 90
      255
102
RTVSPost2010PropOp44
 70
     1
102
RTVSPost2010Prop45
280
     0
102
RTVSPost2010PropOp45
 70
     1
102
RTVSPost2010Prop46
 90
       50
102
RTVSPost2010PropOp46
 70
     1
102
RTVSPost2010Prop47
 90
       50
102
RTVSPost2010PropOp47
 70
     1
102
RTVSPost2010Prop48
 90
       50
102
RTVSPost2010PropOp48
 70
     1
102
RTVSPost2010Prop49
280
     0
102
RTVSPost2010PropOp49
 70
     1
102
RTVSPost2010Prop50
 90
       50
102
RTVSPost2010PropOp50
 70
     1
102
RTVSPost2010Prop51ColorIndex
 90
      256
102
RTVSPost2010Prop51ColorRGB
 90
-16777216
102
RTVSPost2010PropOp51
 70
     0
102
RTVSPost2010Prop52
140
1.0
102
RTVSPost2010PropOp52
 70
     0
102
RTVSPost2010Prop53
 90
        2
102
RTVSPost2010PropOp53
 70
     1
102
RTVSPost2010Prop54
  1
strokes_ogs.tif
102
RTVSPost2010PropOp54
 70
     1
102
RTVSPost2010Prop55
280
     0
102
RTVSPost2010PropOp55
 70
     1
102
RTVSPost2010Prop56
140
1.0
102
RTVSPost2010PropOp56
 70
     1
102
RTVSPost2010Prop57
140
1.0
102
RTVSPost2010PropOp57
 70
     1
102
RTVSPropertyOp0
 70
     1
102
RTVSPropertyOp1
 70
     1
102
RTVSPropertyOp2
 70
     1
102
RTVSPropertyOp3
 70
     1
102
RTVSPropertyOp4
 70
     1
102
RTVSPropertyOp5
 70
     1
102
RTVSPropertyOp6
 70
     1
102
RTVSPropertyOp7
 70
     1
102
RTVSPropertyOp8
 70
     1
102
RTVSPropertyOp9
 70
     1
102
RTVSPropertyOp10
 70
     1
102
RTVSPropertyOp11
 70
     1
102
RTVSPropertyOp12
 70
     1
102
RTVSPropertyOp13
 70
     1
102
RTVSPropertyOp14
 70
     1
102
RTVSPropertyOp15
 70
     1
102
RTVSPropertyOp16
 70
     1
102
RTVSPropertyOp17
 70
     1
102
RTVSPropertyOp18
 70
     1
102
RTVSPropertyOp19
 70
     1
102
RTVSPropertyOp20
 70
     1
102
RTVSPropertyOp21
 70
     1
102
RTVSPropertyOp22
 70
     1
102
RTVSPropertyOp23
 70
     1
102
RTVSPropertyOp24
 70
     1
102
RTVSPropertyOp25
 70
     1
102
RTVSPropertyOp26
 70
     1
102
RTVSPropertyOp27
 70
     1
102
RTVSPropertyOp28
 70
     1
102
RTVSPropertyOp29
 70
     1
102
RTVSPropertyOp30
 70
     1
102
RTVSPropertyOp31
 70
     1
102
RTVSPropertyOp32
 70
     1
102
RTVSPropertyOp33
 70
     1
102
RTVSPropertyOp34
 70
     1
102
RTVSPropertyOp35
 70
     1
102
RTVSPropertyOp36
 70
     1
102
RTVSPropertyOp37
 70
     1
102
RTVSPropertyOp38
 70
     1
102
RTVSPropertyOp39
 70
     1
102
RTVSPropertyOp40
 70
     1
102
RTVSPropertyOp41
 70
     1
102
RTVSPropertyOp42
 70
     1
102
RTVSPropertyOp43
 70
     1
102
RTVSPropertyOp44
 70
     1
102
RTVSPropertyOp45
 70
     1
102
RTVSPropertyOp46
 70
     1
102
RTVSPropertyOp47
 70
     1
102
RTVSPropertyOp48
 70
     1
102
RTVSPropertyOp49
 70
     1
102
RTVSPropertyOp50
 70
     1
102
RTVSPropertyOp51
 70
     0
102
RTVSPropertyOp52
 70
     0
102
RTVSPropertyOp53
 70
     1
102
RTVSPropertyOp54
 70
     1
102
RTVSPropertyOp55
 70
     1
102
RTVSPropertyOp56
 70
     1
102
RTVSPropertyOp57
 70
     1
102
RTVSPropertyOp58
 70
     1
102
RTVSPropertyOp59
 70
     1
102
RTVSPropertyOp60
 70
     1
102
RTVSPropertyOp61
 70
     1
102
RTVSPropertyOp62
 70
     1
  0
XRECORD
  5
29A8B
102
{ACAD_REACTORS
330
29A8A
102
}
330
29A8A
100
AcDbXrecord
280
     1
102
RTVSPost2010Prop28
280
     0
102
RTVSPost2010PropOp28
 70
     1
102
RTVSPost2010Prop29
280
     1
102
RTVSPost2010PropOp29
 70
     1
102
RTVSPost2010Prop30
280
     1
102
RTVSPost2010PropOp30
 70
     1
102
RTVSPost2010Prop31
280
     0
102
RTVSPost2010PropOp31
 70
     1
102
RTVSPost2010Prop32
280
     0
102
RTVSPost2010PropOp32
 70
     1
102
RTVSPost2010Prop33
280
     0
102
RTVSPost2010PropOp33
 70
     1
102
RTVSPost2010Prop34
280
     0
102
RTVSPost2010PropOp34
 70
     1
102
RTVSPost2010Prop35
280
     0
102
RTVSPost2010PropOp35
 70
     1
102
RTVSPost2010Prop36
280
     0
102
RTVSPost2010PropOp36
 70
     1
102
RTVSPost2010Prop37
 90
       50
102
RTVSPost2010PropOp37
 70
     1
102
RTVSPost2010Prop38
140
0.0
102
RTVSPost2010PropOp38
 70
     1
102
RTVSPost2010Prop39
140
1.0
102
RTVSPost2010PropOp39
 70
     1
102
RTVSPost2010Prop40
 90
        0
102
RTVSPost2010PropOp40
 70
     1
102
RTVSPost2010Prop41ColorIndex
 90
       18
102
RTVSPost2010Prop41ColorRGB
 90
        0
102
RTVSPost2010PropOp41
 70
     1
102
RTVSPost2010Prop42
 90
       50
102
RTVSPost2010PropOp42
 70
     1
102
RTVSPost2010Prop43
 90
        3
102
RTVSPost2010PropOp43
 70
     1
102
RTVSPost2010Prop44ColorIndex
 90
        5
102
RTVSPost2010Prop44ColorRGB
 90
      255
102
RTVSPost2010PropOp44
 70
     1
102
RTVSPost2010Prop45
280
     0
102
RTVSPost2010PropOp45
 70
     1
102
RTVSPost2010Prop46
 90
       50
102
RTVSPost2010PropOp46
 70
     1
102
RTVSPost2010Prop47
 90
       50
102
RTVSPost2010PropOp47
 70
     1
102
RTVSPost2010Prop48
 90
       50
102
RTVSPost2010PropOp48
 70
     1
102
RTVSPost2010Prop49
280
     0
102
RTVSPost2010PropOp49
 70
     1
102
RTVSPost2010Prop50
 90
       50
102
RTVSPost2010PropOp50
 70
     1
102
RTVSPost2010Prop51ColorIndex
 90
      256
102
RTVSPost2010Prop51ColorRGB
 90
-16777216
102
RTVSPost2010PropOp51
 70
     0
102
RTVSPost2010Prop52
140
1.0
102
RTVSPost2010PropOp52
 70
     0
102
RTVSPost2010Prop53
 90
        2
102
RTVSPost2010PropOp53
 70
     1
102
RTVSPost2010Prop54
  1
strokes_ogs.tif
102
RTVSPost2010PropOp54
 70
     1
102
RTVSPost2010Prop55
280
     0
102
RTVSPost2010PropOp55
 70
     1
102
RTVSPost2010Prop56
140
1.0
102
RTVSPost2010PropOp56
 70
     1
102
RTVSPost2010Prop57
140
1.0
102
RTVSPost2010PropOp57
 70
     1
102
RTVSPropertyOp0
 70
     1
102
RTVSPropertyOp1
 70
     1
102
RTVSPropertyOp2
 70
     1
102
RTVSPropertyOp3
 70
     1
102
RTVSPropertyOp4
 70
     1
102
RTVSPropertyOp5
 70
     1
102
RTVSPropertyOp6
 70
     1
102
RTVSPropertyOp7
 70
     1
102
RTVSPropertyOp8
 70
     1
102
RTVSPropertyOp9
 70
     1
102
RTVSPropertyOp10
 70
     1
102
RTVSPropertyOp11
 70
     1
102
RTVSPropertyOp12
 70
     1
102
RTVSPropertyOp13
 70
     1
102
RTVSPropertyOp14
 70
     1
102
RTVSPropertyOp15
 70
     1
102
RTVSPropertyOp16
 70
     1
102
RTVSPropertyOp17
 70
     1
102
RTVSPropertyOp18
 70
     1
102
RTVSPropertyOp19
 70
     1
102
RTVSPropertyOp20
 70
     1
102
RTVSPropertyOp21
 70
     1
102
RTVSPropertyOp22
 70
     1
102
RTVSPropertyOp23
 70
     1
102
RTVSPropertyOp24
 70
     1
102
RTVSPropertyOp25
 70
     1
102
RTVSPropertyOp26
 70
     1
102
RTVSPropertyOp27
 70
     1
102
RTVSPropertyOp28
 70
     1
102
RTVSPropertyOp29
 70
     1
102
RTVSPropertyOp30
 70
     1
102
RTVSPropertyOp31
 70
     1
102
RTVSPropertyOp32
 70
     1
102
RTVSPropertyOp33
 70
     1
102
RTVSPropertyOp34
 70
     1
102
RTVSPropertyOp35
 70
     1
102
RTVSPropertyOp36
 70
     1
102
RTVSPropertyOp37
 70
     1
102
RTVSPropertyOp38
 70
     1
102
RTVSPropertyOp39
 70
     1
102
RTVSPropertyOp40
 70
     1
102
RTVSPropertyOp41
 70
     1
102
RTVSPropertyOp42
 70
     1
102
RTVSPropertyOp43
 70
     1
102
RTVSPropertyOp44
 70
     1
102
RTVSPropertyOp45
 70
     1
102
RTVSPropertyOp46
 70
     1
102
RTVSPropertyOp47
 70
     1
102
RTVSPropertyOp48
 70
     1
102
RTVSPropertyOp49
 70
     1
102
RTVSPropertyOp50
 70
     1
102
RTVSPropertyOp51
 70
     0
102
RTVSPropertyOp52
 70
     0
102
RTVSPropertyOp53
 70
     1
102
RTVSPropertyOp54
 70
     1
102
RTVSPropertyOp55
 70
     1
102
RTVSPropertyOp56
 70
     1
102
RTVSPropertyOp57
 70
     1
102
RTVSPropertyOp58
 70
     1
102
RTVSPropertyOp59
 70
     1
102
RTVSPropertyOp60
 70
     1
102
RTVSPropertyOp61
 70
     1
102
RTVSPropertyOp62
 70
     1
  0
XRECORD
  5
29A8D
102
{ACAD_REACTORS
330
29A8C
102
}
330
29A8C
100
AcDbXrecord
280
     1
102
RTVSPost2010Prop28
280
     0
102
RTVSPost2010PropOp28
 70
     1
102
RTVSPost2010Prop29
280
     1
102
RTVSPost2010PropOp29
 70
     1
102
RTVSPost2010Prop30
280
     1
102
RTVSPost2010PropOp30
 70
     1
102
RTVSPost2010Prop31
280
     0
102
RTVSPost2010PropOp31
 70
     1
102
RTVSPost2010Prop32
280
     0
102
RTVSPost2010PropOp32
 70
     1
102
RTVSPost2010Prop33
280
     0
102
RTVSPost2010PropOp33
 70
     1
102
RTVSPost2010Prop34
280
     0
102
RTVSPost2010PropOp34
 70
     1
102
RTVSPost2010Prop35
280
     0
102
RTVSPost2010PropOp35
 70
     1
102
RTVSPost2010Prop36
280
     0
102
RTVSPost2010PropOp36
 70
     1
102
RTVSPost2010Prop37
 90
       50
102
RTVSPost2010PropOp37
 70
     1
102
RTVSPost2010Prop38
140
0.0
102
RTVSPost2010PropOp38
 70
     1
102
RTVSPost2010Prop39
140
1.0
102
RTVSPost2010PropOp39
 70
     1
102
RTVSPost2010Prop40
 90
        0
102
RTVSPost2010PropOp40
 70
     1
102
RTVSPost2010Prop41ColorIndex
 90
       18
102
RTVSPost2010Prop41ColorRGB
 90
        0
102
RTVSPost2010PropOp41
 70
     1
102
RTVSPost2010Prop42
 90
       50
102
RTVSPost2010PropOp42
 70
     1
102
RTVSPost2010Prop43
 90
        3
102
RTVSPost2010PropOp43
 70
     1
102
RTVSPost2010Prop44ColorIndex
 90
        5
102
RTVSPost2010Prop44ColorRGB
 90
      255
102
RTVSPost2010PropOp44
 70
     1
102
RTVSPost2010Prop45
280
     0
102
RTVSPost2010PropOp45
 70
     1
102
RTVSPost2010Prop46
 90
       50
102
RTVSPost2010PropOp46
 70
     1
102
RTVSPost2010Prop47
 90
       50
102
RTVSPost2010PropOp47
 70
     1
102
RTVSPost2010Prop48
 90
       50
102
RTVSPost2010PropOp48
 70
     1
102
RTVSPost2010Prop49
280
     0
102
RTVSPost2010PropOp49
 70
     1
102
RTVSPost2010Prop50
 90
       50
102
RTVSPost2010PropOp50
 70
     1
102
RTVSPost2010Prop51ColorIndex
 90
      256
102
RTVSPost2010Prop51ColorRGB
 90
-16777216
102
RTVSPost2010PropOp51
 70
     0
102
RTVSPost2010Prop52
140
1.0
102
RTVSPost2010PropOp52
 70
     0
102
RTVSPost2010Prop53
 90
        2
102
RTVSPost2010PropOp53
 70
     1
102
RTVSPost2010Prop54
  1
strokes_ogs.tif
102
RTVSPost2010PropOp54
 70
     1
102
RTVSPost2010Prop55
280
     0
102
RTVSPost2010PropOp55
 70
     1
102
RTVSPost2010Prop56
140
1.0
102
RTVSPost2010PropOp56
 70
     1
102
RTVSPost2010Prop57
140
1.0
102
RTVSPost2010PropOp57
 70
     1
102
RTVSPropertyOp0
 70
     1
102
RTVSPropertyOp1
 70
     1
102
RTVSPropertyOp2
 70
     1
102
RTVSPropertyOp3
 70
     1
102
RTVSPropertyOp4
 70
     1
102
RTVSPropertyOp5
 70
     1
102
RTVSPropertyOp6
 70
     1
102
RTVSPropertyOp7
 70
     1
102
RTVSPropertyOp8
 70
     1
102
RTVSPropertyOp9
 70
     1
102
RTVSPropertyOp10
 70
     1
102
RTVSPropertyOp11
 70
     1
102
RTVSPropertyOp12
 70
     1
102
RTVSPropertyOp13
 70
     1
102
RTVSPropertyOp14
 70
     1
102
RTVSPropertyOp15
 70
     1
102
RTVSPropertyOp16
 70
     1
102
RTVSPropertyOp17
 70
     1
102
RTVSPropertyOp18
 70
     1
102
RTVSPropertyOp19
 70
     1
102
RTVSPropertyOp20
 70
     1
102
RTVSPropertyOp21
 70
     1
102
RTVSPropertyOp22
 70
     1
102
RTVSPropertyOp23
 70
     1
102
RTVSPropertyOp24
 70
     1
102
RTVSPropertyOp25
 70
     1
102
RTVSPropertyOp26
 70
     1
102
RTVSPropertyOp27
 70
     1
102
RTVSPropertyOp28
 70
     1
102
RTVSPropertyOp29
 70
     1
102
RTVSPropertyOp30
 70
     1
102
RTVSPropertyOp31
 70
     1
102
RTVSPropertyOp32
 70
     1
102
RTVSPropertyOp33
 70
     1
102
RTVSPropertyOp34
 70
     1
102
RTVSPropertyOp35
 70
     1
102
RTVSPropertyOp36
 70
     1
102
RTVSPropertyOp37
 70
     1
102
RTVSPropertyOp38
 70
     1
102
RTVSPropertyOp39
 70
     1
102
RTVSPropertyOp40
 70
     1
102
RTVSPropertyOp41
 70
     1
102
RTVSPropertyOp42
 70
     1
102
RTVSPropertyOp43
 70
     1
102
RTVSPropertyOp44
 70
     1
102
RTVSPropertyOp45
 70
     1
102
RTVSPropertyOp46
 70
     1
102
RTVSPropertyOp47
 70
     1
102
RTVSPropertyOp48
 70
     1
102
RTVSPropertyOp49
 70
     1
102
RTVSPropertyOp50
 70
     1
102
RTVSPropertyOp51
 70
     0
102
RTVSPropertyOp52
 70
     0
102
RTVSPropertyOp53
 70
     1
102
RTVSPropertyOp54
 70
     1
102
RTVSPropertyOp55
 70
     1
102
RTVSPropertyOp56
 70
     1
102
RTVSPropertyOp57
 70
     1
102
RTVSPropertyOp58
 70
     1
102
RTVSPropertyOp59
 70
     1
102
RTVSPropertyOp60
 70
     1
102
RTVSPropertyOp61
 70
     1
102
RTVSPropertyOp62
 70
     1
  0
XRECORD
  5
29A83
102
{ACAD_REACTORS
330
29A82
102
}
330
29A82
100
AcDbXrecord
280
     1
102
RTVSPost2010Prop28
280
     0
102
RTVSPost2010PropOp28
 70
     1
102
RTVSPost2010Prop29
280
     1
102
RTVSPost2010PropOp29
 70
     1
102
RTVSPost2010Prop30
280
     1
102
RTVSPost2010PropOp30
 70
     1
102
RTVSPost2010Prop31
280
     0
102
RTVSPost2010PropOp31
 70
     1
102
RTVSPost2010Prop32
280
     0
102
RTVSPost2010PropOp32
 70
     1
102
RTVSPost2010Prop33
280
     0
102
RTVSPost2010PropOp33
 70
     1
102
RTVSPost2010Prop34
280
     0
102
RTVSPost2010PropOp34
 70
     1
102
RTVSPost2010Prop35
280
     0
102
RTVSPost2010PropOp35
 70
     1
102
RTVSPost2010Prop36
280
     0
102
RTVSPost2010PropOp36
 70
     1
102
RTVSPost2010Prop37
 90
       50
102
RTVSPost2010PropOp37
 70
     1
102
RTVSPost2010Prop38
140
0.0
102
RTVSPost2010PropOp38
 70
     1
102
RTVSPost2010Prop39
140
1.0
102
RTVSPost2010PropOp39
 70
     1
102
RTVSPost2010Prop40
 90
        0
102
RTVSPost2010PropOp40
 70
     1
102
RTVSPost2010Prop41ColorIndex
 90
       18
102
RTVSPost2010Prop41ColorRGB
 90
        0
102
RTVSPost2010PropOp41
 70
     1
102
RTVSPost2010Prop42
 90
       50
102
RTVSPost2010PropOp42
 70
     1
102
RTVSPost2010Prop43
 90
        3
102
RTVSPost2010PropOp43
 70
     1
102
RTVSPost2010Prop44ColorIndex
 90
        5
102
RTVSPost2010Prop44ColorRGB
 90
      255
102
RTVSPost2010PropOp44
 70
     1
102
RTVSPost2010Prop45
280
     0
102
RTVSPost2010PropOp45
 70
     1
102
RTVSPost2010Prop46
 90
       50
102
RTVSPost2010PropOp46
 70
     1
102
RTVSPost2010Prop47
 90
       50
102
RTVSPost2010PropOp47
 70
     1
102
RTVSPost2010Prop48
 90
       50
102
RTVSPost2010PropOp48
 70
     1
102
RTVSPost2010Prop49
280
     0
102
RTVSPost2010PropOp49
 70
     1
102
RTVSPost2010Prop50
 90
       50
102
RTVSPost2010PropOp50
 70
     1
102
RTVSPost2010Prop51ColorIndex
 90
      256
102
RTVSPost2010Prop51ColorRGB
 90
-16777216
102
RTVSPost2010PropOp51
 70
     0
102
RTVSPost2010Prop52
140
1.0
102
RTVSPost2010PropOp52
 70
     0
102
RTVSPost2010Prop53
 90
        2
102
RTVSPost2010PropOp53
 70
     1
102
RTVSPost2010Prop54
  1
strokes_ogs.tif
102
RTVSPost2010PropOp54
 70
     1
102
RTVSPost2010Prop55
280
     0
102
RTVSPost2010PropOp55
 70
     1
102
RTVSPost2010Prop56
140
1.0
102
RTVSPost2010PropOp56
 70
     1
102
RTVSPost2010Prop57
140
1.0
102
RTVSPost2010PropOp57
 70
     1
102
RTVSPropertyOp0
 70
     1
102
RTVSPropertyOp1
 70
     1
102
RTVSPropertyOp2
 70
     1
102
RTVSPropertyOp3
 70
     1
102
RTVSPropertyOp4
 70
     1
102
RTVSPropertyOp5
 70
     1
102
RTVSPropertyOp6
 70
     1
102
RTVSPropertyOp7
 70
     1
102
RTVSPropertyOp8
 70
     1
102
RTVSPropertyOp9
 70
     1
102
RTVSPropertyOp10
 70
     1
102
RTVSPropertyOp11
 70
     1
102
RTVSPropertyOp12
 70
     1
102
RTVSPropertyOp13
 70
     1
102
RTVSPropertyOp14
 70
     1
102
RTVSPropertyOp15
 70
     1
102
RTVSPropertyOp16
 70
     1
102
RTVSPropertyOp17
 70
     1
102
RTVSPropertyOp18
 70
     1
102
RTVSPropertyOp19
 70
     1
102
RTVSPropertyOp20
 70
     1
102
RTVSPropertyOp21
 70
     1
102
RTVSPropertyOp22
 70
     1
102
RTVSPropertyOp23
 70
     1
102
RTVSPropertyOp24
 70
     1
102
RTVSPropertyOp25
 70
     1
102
RTVSPropertyOp26
 70
     1
102
RTVSPropertyOp27
 70
     1
102
RTVSPropertyOp28
 70
     1
102
RTVSPropertyOp29
 70
     1
102
RTVSPropertyOp30
 70
     1
102
RTVSPropertyOp31
 70
     1
102
RTVSPropertyOp32
 70
     1
102
RTVSPropertyOp33
 70
     1
102
RTVSPropertyOp34
 70
     1
102
RTVSPropertyOp35
 70
     1
102
RTVSPropertyOp36
 70
     1
102
RTVSPropertyOp37
 70
     1
102
RTVSPropertyOp38
 70
     1
102
RTVSPropertyOp39
 70
     1
102
RTVSPropertyOp40
 70
     1
102
RTVSPropertyOp41
 70
     1
102
RTVSPropertyOp42
 70
     1
102
RTVSPropertyOp43
 70
     1
102
RTVSPropertyOp44
 70
     1
102
RTVSPropertyOp45
 70
     1
102
RTVSPropertyOp46
 70
     1
102
RTVSPropertyOp47
 70
     1
102
RTVSPropertyOp48
 70
     1
102
RTVSPropertyOp49
 70
     1
102
RTVSPropertyOp50
 70
     1
102
RTVSPropertyOp51
 70
     0
102
RTVSPropertyOp52
 70
     0
102
RTVSPropertyOp53
 70
     1
102
RTVSPropertyOp54
 70
     1
102
RTVSPropertyOp55
 70
     1
102
RTVSPropertyOp56
 70
     1
102
RTVSPropertyOp57
 70
     1
102
RTVSPropertyOp58
 70
     1
102
RTVSPropertyOp59
 70
     1
102
RTVSPropertyOp60
 70
     1
102
RTVSPropertyOp61
 70
     1
102
RTVSPropertyOp62
 70
     1
  0
XRECORD
  5
29A77
102
{ACAD_REACTORS
330
29A76
102
}
330
29A76
100
AcDbXrecord
280
     1
102
RTVSPost2010Prop28
280
     0
102
RTVSPost2010PropOp28
 70
     1
102
RTVSPost2010Prop29
280
     1
102
RTVSPost2010PropOp29
 70
     1
102
RTVSPost2010Prop30
280
     1
102
RTVSPost2010PropOp30
 70
     1
102
RTVSPost2010Prop31
280
     0
102
RTVSPost2010PropOp31
 70
     1
102
RTVSPost2010Prop32
280
     0
102
RTVSPost2010PropOp32
 70
     1
102
RTVSPost2010Prop33
280
     0
102
RTVSPost2010PropOp33
 70
     1
102
RTVSPost2010Prop34
280
     0
102
RTVSPost2010PropOp34
 70
     1
102
RTVSPost2010Prop35
280
     0
102
RTVSPost2010PropOp35
 70
     1
102
RTVSPost2010Prop36
280
     0
102
RTVSPost2010PropOp36
 70
     1
102
RTVSPost2010Prop37
 90
       50
102
RTVSPost2010PropOp37
 70
     1
102
RTVSPost2010Prop38
140
0.0
102
RTVSPost2010PropOp38
 70
     1
102
RTVSPost2010Prop39
140
1.0
102
RTVSPost2010PropOp39
 70
     1
102
RTVSPost2010Prop40
 90
        0
102
RTVSPost2010PropOp40
 70
     1
102
RTVSPost2010Prop41ColorIndex
 90
       18
102
RTVSPost2010Prop41ColorRGB
 90
        0
102
RTVSPost2010PropOp41
 70
     1
102
RTVSPost2010Prop42
 90
       50
102
RTVSPost2010PropOp42
 70
     1
102
RTVSPost2010Prop43
 90
        3
102
RTVSPost2010PropOp43
 70
     1
102
RTVSPost2010Prop44ColorIndex
 90
        5
102
RTVSPost2010Prop44ColorRGB
 90
      255
102
RTVSPost2010PropOp44
 70
     1
102
RTVSPost2010Prop45
280
     0
102
RTVSPost2010PropOp45
 70
     1
102
RTVSPost2010Prop46
 90
       50
102
RTVSPost2010PropOp46
 70
     1
102
RTVSPost2010Prop47
 90
       50
102
RTVSPost2010PropOp47
 70
     1
102
RTVSPost2010Prop48
 90
       50
102
RTVSPost2010PropOp48
 70
     1
102
RTVSPost2010Prop49
280
     0
102
RTVSPost2010PropOp49
 70
     1
102
RTVSPost2010Prop50
 90
       50
102
RTVSPost2010PropOp50
 70
     1
102
RTVSPost2010Prop51ColorIndex
 90
      256
102
RTVSPost2010Prop51ColorRGB
 90
-16777216
102
RTVSPost2010PropOp51
 70
     0
102
RTVSPost2010Prop52
140
1.0
102
RTVSPost2010PropOp52
 70
     0
102
RTVSPost2010Prop53
 90
        2
102
RTVSPost2010PropOp53
 70
     1
102
RTVSPost2010Prop54
  1
strokes_ogs.tif
102
RTVSPost2010PropOp54
 70
     1
102
RTVSPost2010Prop55
280
     0
102
RTVSPost2010PropOp55
 70
     1
102
RTVSPost2010Prop56
140
1.0
102
RTVSPost2010PropOp56
 70
     1
102
RTVSPost2010Prop57
140
1.0
102
RTVSPost2010PropOp57
 70
     1
102
RTVSPropertyOp0
 70
     1
102
RTVSPropertyOp1
 70
     1
102
RTVSPropertyOp2
 70
     1
102
RTVSPropertyOp3
 70
     1
102
RTVSPropertyOp4
 70
     1
102
RTVSPropertyOp5
 70
     1
102
RTVSPropertyOp6
 70
     1
102
RTVSPropertyOp7
 70
     1
102
RTVSPropertyOp8
 70
     1
102
RTVSPropertyOp9
 70
     1
102
RTVSPropertyOp10
 70
     1
102
RTVSPropertyOp11
 70
     1
102
RTVSPropertyOp12
 70
     1
102
RTVSPropertyOp13
 70
     1
102
RTVSPropertyOp14
 70
     1
102
RTVSPropertyOp15
 70
     1
102
RTVSPropertyOp16
 70
     1
102
RTVSPropertyOp17
 70
     1
102
RTVSPropertyOp18
 70
     1
102
RTVSPropertyOp19
 70
     1
102
RTVSPropertyOp20
 70
     1
102
RTVSPropertyOp21
 70
     1
102
RTVSPropertyOp22
 70
     1
102
RTVSPropertyOp23
 70
     1
102
RTVSPropertyOp24
 70
     1
102
RTVSPropertyOp25
 70
     1
102
RTVSPropertyOp26
 70
     1
102
RTVSPropertyOp27
 70
     1
102
RTVSPropertyOp28
 70
     1
102
RTVSPropertyOp29
 70
     1
102
RTVSPropertyOp30
 70
     1
102
RTVSPropertyOp31
 70
     1
102
RTVSPropertyOp32
 70
     1
102
RTVSPropertyOp33
 70
     1
102
RTVSPropertyOp34
 70
     1
102
RTVSPropertyOp35
 70
     1
102
RTVSPropertyOp36
 70
     1
102
RTVSPropertyOp37
 70
     1
102
RTVSPropertyOp38
 70
     1
102
RTVSPropertyOp39
 70
     1
102
RTVSPropertyOp40
 70
     1
102
RTVSPropertyOp41
 70
     1
102
RTVSPropertyOp42
 70
     1
102
RTVSPropertyOp43
 70
     1
102
RTVSPropertyOp44
 70
     1
102
RTVSPropertyOp45
 70
     1
102
RTVSPropertyOp46
 70
     1
102
RTVSPropertyOp47
 70
     1
102
RTVSPropertyOp48
 70
     1
102
RTVSPropertyOp49
 70
     1
102
RTVSPropertyOp50
 70
     1
102
RTVSPropertyOp51
 70
     0
102
RTVSPropertyOp52
 70
     0
102
RTVSPropertyOp53
 70
     1
102
RTVSPropertyOp54
 70
     1
102
RTVSPropertyOp55
 70
     1
102
RTVSPropertyOp56
 70
     1
102
RTVSPropertyOp57
 70
     1
102
RTVSPropertyOp58
 70
     1
102
RTVSPropertyOp59
 70
     1
102
RTVSPropertyOp60
 70
     1
102
RTVSPropertyOp61
 70
     1
102
RTVSPropertyOp62
 70
     1
  0
XRECORD
  5
29A8F
102
{ACAD_REACTORS
330
29A8E
102
}
330
29A8E
100
AcDbXrecord
280
     1
102
RTVSPost2010Prop28
280
     0
102
RTVSPost2010PropOp28
 70
     1
102
RTVSPost2010Prop29
280
     1
102
RTVSPost2010PropOp29
 70
     1
102
RTVSPost2010Prop30
280
     1
102
RTVSPost2010PropOp30
 70
     1
102
RTVSPost2010Prop31
280
     0
102
RTVSPost2010PropOp31
 70
     1
102
RTVSPost2010Prop32
280
     0
102
RTVSPost2010PropOp32
 70
     1
102
RTVSPost2010Prop33
280
     0
102
RTVSPost2010PropOp33
 70
     1
102
RTVSPost2010Prop34
280
     0
102
RTVSPost2010PropOp34
 70
     1
102
RTVSPost2010Prop35
280
     0
102
RTVSPost2010PropOp35
 70
     1
102
RTVSPost2010Prop36
280
     0
102
RTVSPost2010PropOp36
 70
     1
102
RTVSPost2010Prop37
 90
       50
102
RTVSPost2010PropOp37
 70
     1
102
RTVSPost2010Prop38
140
0.0
102
RTVSPost2010PropOp38
 70
     1
102
RTVSPost2010Prop39
140
1.0
102
RTVSPost2010PropOp39
 70
     1
102
RTVSPost2010Prop40
 90
        0
102
RTVSPost2010PropOp40
 70
     1
102
RTVSPost2010Prop41ColorIndex
 90
       18
102
RTVSPost2010Prop41ColorRGB
 90
        0
102
RTVSPost2010PropOp41
 70
     1
102
RTVSPost2010Prop42
 90
       50
102
RTVSPost2010PropOp42
 70
     1
102
RTVSPost2010Prop43
 90
        3
102
RTVSPost2010PropOp43
 70
     1
102
RTVSPost2010Prop44ColorIndex
 90
        5
102
RTVSPost2010Prop44ColorRGB
 90
      255
102
RTVSPost2010PropOp44
 70
     1
102
RTVSPost2010Prop45
280
     0
102
RTVSPost2010PropOp45
 70
     1
102
RTVSPost2010Prop46
 90
       50
102
RTVSPost2010PropOp46
 70
     1
102
RTVSPost2010Prop47
 90
       50
102
RTVSPost2010PropOp47
 70
     1
102
RTVSPost2010Prop48
 90
       50
102
RTVSPost2010PropOp48
 70
     1
102
RTVSPost2010Prop49
280
     0
102
RTVSPost2010PropOp49
 70
     1
102
RTVSPost2010Prop50
 90
       50
102
RTVSPost2010PropOp50
 70
     1
102
RTVSPost2010Prop51ColorIndex
 90
      256
102
RTVSPost2010Prop51ColorRGB
 90
-16777216
102
RTVSPost2010PropOp51
 70
     0
102
RTVSPost2010Prop52
140
1.0
102
RTVSPost2010PropOp52
 70
     0
102
RTVSPost2010Prop53
 90
        2
102
RTVSPost2010PropOp53
 70
     1
102
RTVSPost2010Prop54
  1
strokes_ogs.tif
102
RTVSPost2010PropOp54
 70
     1
102
RTVSPost2010Prop55
280
     0
102
RTVSPost2010PropOp55
 70
     1
102
RTVSPost2010Prop56
140
1.0
102
RTVSPost2010PropOp56
 70
     1
102
RTVSPost2010Prop57
140
1.0
102
RTVSPost2010PropOp57
 70
     1
102
RTVSPropertyOp0
 70
     1
102
RTVSPropertyOp1
 70
     1
102
RTVSPropertyOp2
 70
     1
102
RTVSPropertyOp3
 70
     1
102
RTVSPropertyOp4
 70
     1
102
RTVSPropertyOp5
 70
     1
102
RTVSPropertyOp6
 70
     1
102
RTVSPropertyOp7
 70
     1
102
RTVSPropertyOp8
 70
     1
102
RTVSPropertyOp9
 70
     1
102
RTVSPropertyOp10
 70
     1
102
RTVSPropertyOp11
 70
     1
102
RTVSPropertyOp12
 70
     1
102
RTVSPropertyOp13
 70
     1
102
RTVSPropertyOp14
 70
     1
102
RTVSPropertyOp15
 70
     1
102
RTVSPropertyOp16
 70
     1
102
RTVSPropertyOp17
 70
     1
102
RTVSPropertyOp18
 70
     1
102
RTVSPropertyOp19
 70
     1
102
RTVSPropertyOp20
 70
     1
102
RTVSPropertyOp21
 70
     1
102
RTVSPropertyOp22
 70
     1
102
RTVSPropertyOp23
 70
     1
102
RTVSPropertyOp24
 70
     1
102
RTVSPropertyOp25
 70
     1
102
RTVSPropertyOp26
 70
     1
102
RTVSPropertyOp27
 70
     1
102
RTVSPropertyOp28
 70
     1
102
RTVSPropertyOp29
 70
     1
102
RTVSPropertyOp30
 70
     1
102
RTVSPropertyOp31
 70
     1
102
RTVSPropertyOp32
 70
     1
102
RTVSPropertyOp33
 70
     1
102
RTVSPropertyOp34
 70
     1
102
RTVSPropertyOp35
 70
     1
102
RTVSPropertyOp36
 70
     1
102
RTVSPropertyOp37
 70
     1
102
RTVSPropertyOp38
 70
     1
102
RTVSPropertyOp39
 70
     1
102
RTVSPropertyOp40
 70
     1
102
RTVSPropertyOp41
 70
     1
102
RTVSPropertyOp42
 70
     1
102
RTVSPropertyOp43
 70
     1
102
RTVSPropertyOp44
 70
     1
102
RTVSPropertyOp45
 70
     1
102
RTVSPropertyOp46
 70
     1
102
RTVSPropertyOp47
 70
     1
102
RTVSPropertyOp48
 70
     1
102
RTVSPropertyOp49
 70
     1
102
RTVSPropertyOp50
 70
     1
102
RTVSPropertyOp51
 70
     0
102
RTVSPropertyOp52
 70
     0
102
RTVSPropertyOp53
 70
     1
102
RTVSPropertyOp54
 70
     1
102
RTVSPropertyOp55
 70
     1
102
RTVSPropertyOp56
 70
     1
102
RTVSPropertyOp57
 70
     1
102
RTVSPropertyOp58
 70
     1
102
RTVSPropertyOp59
 70
     1
102
RTVSPropertyOp60
 70
     1
102
RTVSPropertyOp61
 70
     1
102
RTVSPropertyOp62
 70
     1
  0
ENDSEC
  0
EOF
