  0
SECTION
  2
HEADER
  9
$ACADVER
  1
AC1015
  9
$ACADMAINTVER
 70
    20
  9
$DWGCODEPAGE
  3
ANSI_1252
  9
$INSBASE
 10
0.0
 20
0.0
 30
0.0
  9
$EXTMIN
 10
-87.35727402936049
 20
-49.934527063568
 30
-0.0000000349181948
  9
$EXTMAX
 10
86.7472926962248
 20
74.46599458796038
 30
0.0000000814935747
  9
$LIMMIN
 10
0.0
 20
0.0
  9
$LIMMAX
 10
420.0
 20
297.0
  9
$ORTHOMODE
 70
     0
  9
$REGENMODE
 70
     1
  9
$FILLMODE
 70
     1
  9
$QTEXTMODE
 70
     0
  9
$MIRRTEXT
 70
     1
  9
$LTSCALE
 40
1.0
  9
$ATTMODE
 70
     1
  9
$TEXTSIZE
 40
0.2
  9
$TRACEWID
 40
1.0
  9
$TEXTSTYLE
  7
Standard
  9
$CLAYER
  8
0
  9
$CELTYPE
  6
ByLayer
  9
$CECOLOR
 62
   256
  9
$CELTSCALE
 40
1.0
  9
$DISPSILH
 70
     0
  9
$DIMSCALE
 40
1.0
  9
$DIMASZ
 40
2.5
  9
$DIMEXO
 40
0.0
  9
$DIMDLI
 40
3.75
  9
$DIMRND
 40
0.0
  9
$DIMDLE
 40
0.0
  9
$DIMEXE
 40
1.25
  9
$DIMTP
 40
0.0
  9
$DIMTM
 40
0.0
  9
$DIMTXT
 40
3.5
  9
$DIMCEN
 40
0.0
  9
$DIMTSZ
 40
0.0
  9
$DIMTOL
 70
     0
  9
$DIMLIM
 70
     0
  9
$DIMTIH
 70
     0
  9
$DIMTOH
 70
     0
  9
$DIMSE1
 70
     0
  9
$DIMSE2
 70
     0
  9
$DIMTAD
 70
     1
  9
$DIMZIN
 70
     8
  9
$DIMBLK
  1

  9
$DIMASO
 70
     1
  9
$DIMSHO
 70
     1
  9
$DIMPOST
  1

  9
$DIMAPOST
  1

  9
$DIMALT
 70
     0
  9
$DIMALTD
 70
     3
  9
$DIMALTF
 40
0.039370078
  9
$DIMLFAC
 40
1.0
  9
$DIMTOFL
 70
     0
  9
$DIMTVP
 40
0.0
  9
$DIMTIX
 70
     0
  9
$DIMSOXD
 70
     0
  9
$DIMSAH
 70
     0
  9
$DIMBLK1
  1

  9
$DIMBLK2
  1

  9
$DIMSTYLE
  2
Standard
  9
$DIMCLRD
 70
     0
  9
$DIMCLRE
 70
     0
  9
$DIMCLRT
 70
     0
  9
$DIMTFAC
 40
1.0
  9
$DIMGAP
 40
0.625
  9
$DIMJUST
 70
     0
  9
$DIMSD1
 70
     0
  9
$DIMSD2
 70
     0
  9
$DIMTOLJ
 70
     0
  9
$DIMTZIN
 70
     8
  9
$DIMALTZ
 70
     0
  9
$DIMALTTZ
 70
     0
  9
$DIMUPT
 70
     0
  9
$DIMDEC
 70
     2
  9
$DIMTDEC
 70
     2
  9
$DIMALTU
 70
     2
  9
$DIMALTTD
 70
     3
  9
$DIMTXSTY
  7
Standard
  9
$DIMAUNIT
 70
     0
  9
$DIMADEC
 70
     2
  9
$DIMALTRND
 40
0.0
  9
$DIMAZIN
 70
     2
  9
$DIMDSEP
 70
    46
  9
$DIMATFIT
 70
     3
  9
$DIMFRAC
 70
     0
  9
$DIMLDRBLK
  1

  9
$DIMLUNIT
 70
     2
  9
$DIMLWD
 70
    -2
  9
$DIMLWE
 70
    -2
  9
$DIMTMOVE
 70
     0
  9
$LUNITS
 70
     2
  9
$LUPREC
 70
     4
  9
$SKETCHINC
 40
1.0
  9
$FILLETRAD
 40
0.0
  9
$AUNITS
 70
     0
  9
$AUPREC
 70
     0
  9
$MENU
  1
.
  9
$ELEVATION
 40
0.0
  9
$PELEVATION
 40
0.0
  9
$THICKNESS
 40
0.0
  9
$LIMCHECK
 70
     0
  9
$CHAMFERA
 40
2.5
  9
$CHAMFERB
 40
2.5
  9
$CHAMFERC
 40
0.0
  9
$CHAMFERD
 40
0.0
  9
$SKPOLY
 70
     0
  9
$TDCREATE
 40
2453353.800459155
  9
$TDUCREATE
 40
2453353.717125822
  9
$TDUPDATE
 40
2460185.576836215
  9
$TDUUPDATE
 40
2460185.493502882
  9
$TDINDWG
 40
0.1165499421
  9
$TDUSRTIMER
 40
0.1165263310
  9
$USRTIMER
 70
     1
  9
$ANGBASE
 50
0.0
  9
$ANGDIR
 70
     0
  9
$PDMODE
 70
     3
  9
$PDSIZE
 40
0.0
  9
$PLINEWID
 40
0.0
  9
$SPLFRAME
 70
     0
  9
$SPLINETYPE
 70
     6
  9
$SPLINESEGS
 70
     8
  9
$HANDSEED
  5
2F35
  9
$SURFTAB1
 70
     6
  9
$SURFTAB2
 70
     6
  9
$SURFTYPE
 70
     6
  9
$SURFU
 70
     6
  9
$SURFV
 70
     6
  9
$UCSBASE
  2

  9
$UCSNAME
  2

  9
$UCSORG
 10
0.0
 20
0.0
 30
0.0
  9
$UCSXDIR
 10
1.0
 20
0.0
 30
0.0
  9
$UCSYDIR
 10
0.0
 20
1.0
 30
0.0
  9
$UCSORTHOREF
  2

  9
$UCSORTHOVIEW
 70
     0
  9
$UCSORGTOP
 10
0.0
 20
0.0
 30
0.0
  9
$UCSORGBOTTOM
 10
0.0
 20
0.0
 30
0.0
  9
$UCSORGLEFT
 10
0.0
 20
0.0
 30
0.0
  9
$UCSORGRIGHT
 10
0.0
 20
0.0
 30
0.0
  9
$UCSORGFRONT
 10
0.0
 20
0.0
 30
0.0
  9
$UCSORGBACK
 10
0.0
 20
0.0
 30
0.0
  9
$PUCSBASE
  2

  9
$PUCSNAME
  2

  9
$PUCSORG
 10
0.0
 20
0.0
 30
0.0
  9
$PUCSXDIR
 10
1.0
 20
0.0
 30
0.0
  9
$PUCSYDIR
 10
0.0
 20
1.0
 30
0.0
  9
$PUCSORTHOREF
  2

  9
$PUCSORTHOVIEW
 70
     0
  9
$PUCSORGTOP
 10
0.0
 20
0.0
 30
0.0
  9
$PUCSORGBOTTOM
 10
0.0
 20
0.0
 30
0.0
  9
$PUCSORGLEFT
 10
0.0
 20
0.0
 30
0.0
  9
$PUCSORGRIGHT
 10
0.0
 20
0.0
 30
0.0
  9
$PUCSORGFRONT
 10
0.0
 20
0.0
 30
0.0
  9
$PUCSORGBACK
 10
0.0
 20
0.0
 30
0.0
  9
$USERI1
 70
     0
  9
$USERI2
 70
     0
  9
$USERI3
 70
     0
  9
$USERI4
 70
     0
  9
$USERI5
 70
     0
  9
$USERR1
 40
0.0
  9
$USERR2
 40
0.0
  9
$USERR3
 40
0.0
  9
$USERR4
 40
0.0
  9
$USERR5
 40
0.0
  9
$WORLDVIEW
 70
     1
  9
$SHADEDGE
 70
     3
  9
$SHADEDIF
 70
    70
  9
$TILEMODE
 70
     1
  9
$MAXACTVP
 70
    48
  9
$PINSBASE
 10
0.0
 20
0.0
 30
0.0
  9
$PLIMCHECK
 70
     0
  9
$PEXTMIN
 10
0.0
 20
0.0
 30
0.0
  9
$PEXTMAX
 10
281.007629
 20
92.32476
 30
2.0
  9
$PLIMMIN
 10
0.0
 20
0.0
  9
$PLIMMAX
 10
420.0
 20
297.0
  9
$UNITMODE
 70
     0
  9
$VISRETAIN
 70
     0
  9
$PLINEGEN
 70
     0
  9
$PSLTSCALE
 70
     1
  9
$TREEDEPTH
 70
  3020
  9
$CMLSTYLE
  2
Standard
  9
$CMLJUST
 70
     0
  9
$CMLSCALE
 40
20.0
  9
$PROXYGRAPHICS
 70
     0
  9
$MEASUREMENT
 70
     1
  9
$CELWEIGHT
370
    -1
  9
$ENDCAPS
280
     0
  9
$JOINSTYLE
280
     0
  9
$LWDISPLAY
290
     0
  9
$INSUNITS
 70
     0
  9
$HYPERLINKBASE
  1

  9
$STYLESHEET
  1

  9
$XEDIT
290
     1
  9
$CEPSNTYPE
380
     0
  9
$PSTYLEMODE
290
     0
  9
$FINGERPRINTGUID
  2

  9
$VERSIONGUID
  2
{E2870A2E-49B3-495C-947E-899180CCB27A}
  9
$EXTNAMES
290
     0
  9
$PSVPSCALE
 40
0.0
  9
$OLESTARTUP
290
     0
  0
ENDSEC
  0
SECTION
  2
CLASSES
  0
CLASS
  1
ACDBDICTIONARYWDFLT
  2
AcDbDictionaryWithDefault
  3
ObjectDBX Classes
 90
        0
280
     0
281
     0
  0
CLASS
  1
ACDBPLACEHOLDER
  2
AcDbPlaceHolder
  3
ObjectDBX Classes
 90
        0
280
     0
281
     0
  0
CLASS
  1
LAYOUT
  2
AcDbLayout
  3
ObjectDBX Classes
 90
        0
280
     0
281
     0
  0
CLASS
  1
DICTIONARYVAR
  2
AcDbDictionaryVar
  3
ObjectDBX Classes
 90
        0
280
     0
281
     0
  0
CLASS
  1
TABLESTYLE
  2
AcDbTableStyle
  3
ObjectDBX Classes
 90
     4095
280
     0
281
     0
  0
CLASS
  1
SCALE
  2
AcDbScale
  3
ObjectDBX Classes
 90
     1153
280
     0
281
     0
  0
CLASS
  1
WIPEOUTVARIABLES
  2
AcDbWipeoutVariables
  3
"WipeOut|Product Desc:     WipeOut Dbx Application|Company:          Autodesk, Inc.|WEB Address:      www.autodesk.com"
 90
        0
280
     0
281
     0
  0
CLASS
  1
SORTENTSTABLE
  2
AcDbSortentsTable
  3
ObjectDBX Classes
 90
        0
280
     0
281
     0
  0
CLASS
  1
MATERIAL
  2
AcDbMaterial
  3
ObjectDBX Classes
 90
     1153
280
     0
281
     0
  0
CLASS
  1
VISUALSTYLE
  2
AcDbVisualStyle
  3
ObjectDBX Classes
 90
     4095
280
     0
281
     0
  0
CLASS
  1
MLEADERSTYLE
  2
AcDbMLeaderStyle
  3
ACDB_MLEADERSTYLE_CLASS
 90
     4095
280
     0
281
     0
  0
CLASS
  1
ACDBSECTIONVIEWSTYLE
  2
AcDbSectionViewStyle
  3
ObjectDBX Classes
 90
     1025
280
     0
281
     0
  0
CLASS
  1
ACDBDETAILVIEWSTYLE
  2
AcDbDetailViewStyle
  3
ObjectDBX Classes
 90
     1025
280
     0
281
     0
  0
CLASS
  1
CELLSTYLEMAP
  2
AcDbCellStyleMap
  3
ObjectDBX Classes
 90
     1152
280
     0
281
     0
  0
ENDSEC
  0
SECTION
  2
TABLES
  0
TABLE
  2
VPORT
  5
8
330
0
100
AcDbSymbolTable
 70
     1
  0
VPORT
  5
97
330
8
100
AcDbSymbolTableRecord
100
AcDbViewportTableRecord
  2
*ACTIVE
 70
     0
 10
0.0
 20
0.0
 11
1.0
 21
1.0
 12
-0.3049906665678392
 22
12.2657337621962
 13
0.0
 23
0.0
 14
1.0
 24
1.0
 15
0.5
 25
0.5
 16
0.0
 26
0.0
 36
1.0
 17
0.0
 27
0.0
 37
0.0
 40
125.253553799996
 41
1.597254004576659
 42
50.0
 43
0.0
 44
0.0
 50
0.0
 51
0.0
 71
    16
 72
   100
 73
     1
 74
     3
 75
     0
 76
     0
 77
     0
 78
     1
281
     0
 65
     1
110
0.0
120
0.0
130
0.0
111
1.0
121
0.0
131
0.0
112
0.0
122
1.0
132
0.0
 79
     0
146
0.0
1001
ACAD_NAV_VCDISPLAY
1070
     3
  0
ENDTAB
  0
TABLE
  2
LTYPE
  5
5
330
0
100
AcDbSymbolTable
 70
     5
  0
LTYPE
  5
14
330
5
100
AcDbSymbolTableRecord
100
AcDbLinetypeTableRecord
  2
ByBlock
 70
     0
  3

 72
    65
 73
     0
 40
0.0
  0
LTYPE
  5
15
330
5
100
AcDbSymbolTableRecord
100
AcDbLinetypeTableRecord
  2
ByLayer
 70
     0
  3

 72
    65
 73
     0
 40
0.0
  0
LTYPE
  5
16
330
5
100
AcDbSymbolTableRecord
100
AcDbLinetypeTableRecord
  2
Continuous
 70
     0
  3
Solid line
 72
    65
 73
     0
 40
0.0
  0
LTYPE
  5
2D9E
330
5
100
AcDbSymbolTableRecord
100
AcDbLinetypeTableRecord
  2
CENTER2
 70
     0
  3
Center (.5x) ___ _ ___ _ ___ _ ___ _ ___ _ ___
 72
    65
 73
     4
 40
28.57499999999999
 49
19.05
 74
     4
 75
     0
340
0
 46
1.0
 50
0.0
 44
0.0
 45
0.0
 49
-3.174999999999998
 74
     4
 75
     0
340
0
 46
1.0
 50
0.0
 44
0.0
 45
0.0
 49
3.174999999999998
 74
     4
 75
     0
340
0
 46
1.0
 50
0.0
 44
0.0
 45
0.0
 49
-3.174999999999998
 74
     4
 75
     0
340
0
 46
1.0
 50
0.0
 44
0.0
 45
0.0
  0
LTYPE
  5
2DA0
330
5
100
AcDbSymbolTableRecord
100
AcDbLinetypeTableRecord
  2
HIDDEN
 70
     0
  3
Hidden __ __ __ __ __ __ __ __ __ __ __ __ __ _
 72
    65
 73
     2
 40
9.524999999999996
 49
6.349999999999997
 74
     4
 75
     0
340
0
 46
1.0
 50
0.0
 44
0.0
 45
0.0
 49
-3.174999999999998
 74
     4
 75
     0
340
0
 46
1.0
 50
0.0
 44
0.0
 45
0.0
  0
ENDTAB
  0
TABLE
  2
LAYER
  5
2
102
{ACAD_XDICTIONARY
360
2DAC
102
}
330
0
100
AcDbSymbolTable
 70
    13
  0
LAYER
  5
10
102
{ACAD_XDICTIONARY
360
2DA1
102
}
330
2
100
AcDbSymbolTableRecord
100
AcDbLayerTableRecord
  2
0
 70
     0
 62
     7
  6
Continuous
370
    13
390
F
  0
LAYER
  5
5FF
330
2
100
AcDbSymbolTableRecord
100
AcDbLayerTableRecord
  2
1
 70
     0
 62
     4
  6
Continuous
370
    50
390
F
  0
LAYER
  5
601
102
{ACAD_XDICTIONARY
360
2DA2
102
}
330
2
100
AcDbSymbolTableRecord
100
AcDbLayerTableRecord
  2
2
 70
     0
 62
     7
  6
Continuous
370
    25
390
F
  0
LAYER
  5
603
102
{ACAD_XDICTIONARY
360
2DA3
102
}
330
2
100
AcDbSymbolTableRecord
100
AcDbLayerTableRecord
  2
SK2
 70
     0
 62
     7
  6
Continuous
370
    25
390
F
  0
LAYER
  5
607
102
{ACAD_XDICTIONARY
360
2DA4
102
}
330
2
100
AcDbSymbolTableRecord
100
AcDbLayerTableRecord
  2
4
 70
     0
 62
     2
  6
CENTER2
370
    25
390
F
  0
LAYER
  5
609
102
{ACAD_XDICTIONARY
360
2DA5
102
}
330
2
100
AcDbSymbolTableRecord
100
AcDbLayerTableRecord
  2
SK4
 70
     0
 62
     2
  6
CENTER2
370
    25
390
F
  0
LAYER
  5
60B
102
{ACAD_XDICTIONARY
360
2DA6
102
}
330
2
100
AcDbSymbolTableRecord
100
AcDbLayerTableRecord
  2
SK6
 70
     0
 62
     5
  6
Continuous
370
    -3
390
F
  0
LAYER
  5
60D
102
{ACAD_XDICTIONARY
360
2DA7
102
}
330
2
100
AcDbSymbolTableRecord
100
AcDbLayerTableRecord
  2
CUT
 70
     0
 62
     1
  6
Continuous
370
    25
390
F
  0
LAYER
  5
60F
102
{ACAD_XDICTIONARY
360
2DA8
102
}
330
2
100
AcDbSymbolTableRecord
100
AcDbLayerTableRecord
  2
NOCUT
 70
     0
 62
     7
  6
Continuous
370
    -3
390
F
  0
LAYER
  5
611
102
{ACAD_XDICTIONARY
360
2DA9
102
}
330
2
100
AcDbSymbolTableRecord
100
AcDbLayerTableRecord
  2
INFTOTAL
 70
     0
 62
     9
  6
Continuous
370
    18
390
F
1001
AcAecLayerStandard
1000

1000

  0
LAYER
  5
614
102
{ACAD_XDICTIONARY
360
2DAA
102
}
330
2
100
AcDbSymbolTableRecord
100
AcDbLayerTableRecord
  2
SK1
 70
     0
 62
     4
  6
Continuous
370
    50
390
F
1001
AcAecLayerStandard
1000

1000

  0
LAYER
  5
616
330
2
100
AcDbSymbolTableRecord
100
AcDbLayerTableRecord
  2
Defpoints
 70
     0
 62
     7
  6
Continuous
290
     0
370
    -3
390
F
  0
LAYER
  5
1416
330
2
100
AcDbSymbolTableRecord
100
AcDbLayerTableRecord
  2
SK3
 70
     0
 62
     1
  6
HIDDEN
370
    35
390
F
  0
ENDTAB
  0
TABLE
  2
STYLE
  5
3
330
0
100
AcDbSymbolTable
 70
     2
  0
STYLE
  5
11
330
3
100
AcDbSymbolTableRecord
100
AcDbTextStyleTableRecord
  2
Standard
 70
     0
 40
0.0
 41
1.0
 50
0.0
 71
     0
 42
0.2
  3
monos.ttf
  4

1001
ACAD
1000
Monospac821 BT
1071
       49
  0
ENDTAB
  0
TABLE
  2
VIEW
  5
6
330
0
100
AcDbSymbolTable
 70
     0
  0
ENDTAB
  0
TABLE
  2
UCS
  5
7
330
0
100
AcDbSymbolTable
 70
     0
  0
ENDTAB
  0
TABLE
  2
APPID
  5
9
330
0
100
AcDbSymbolTable
 70
    21
  0
APPID
  5
12
330
9
100
AcDbSymbolTableRecord
100
AcDbRegAppTableRecord
  2
ACAD
 70
     0
  0
APPID
  5
2D8B
330
9
100
AcDbSymbolTableRecord
100
AcDbRegAppTableRecord
  2
ACAD_PSEXT
 70
     0
  0
APPID
  5
2D8C
330
9
100
AcDbSymbolTableRecord
100
AcDbRegAppTableRecord
  2
ACAD_EXEMPT_FROM_CAD_STANDARDS
 70
     0
  0
APPID
  5
2D8D
330
9
100
AcDbSymbolTableRecord
100
AcDbRegAppTableRecord
  2
ACAD_MLEADERVER
 70
     0
  0
APPID
  5
2D8E
330
9
100
AcDbSymbolTableRecord
100
AcDbRegAppTableRecord
  2
ACAD_DSTYLE_DIMJAG
 70
     0
  0
APPID
  5
2D8F
330
9
100
AcDbSymbolTableRecord
100
AcDbRegAppTableRecord
  2
ACAD_DSTYLE_DIMBREAK
 70
     0
  0
APPID
  5
2D90
330
9
100
AcDbSymbolTableRecord
100
AcDbRegAppTableRecord
  2
ACAD_DSTYLE_DIMTALN
 70
     0
  0
APPID
  5
2D91
330
9
100
AcDbSymbolTableRecord
100
AcDbRegAppTableRecord
  2
AcAecLayerStandard
 70
     0
  0
APPID
  5
2D92
330
9
100
AcDbSymbolTableRecord
100
AcDbRegAppTableRecord
  2
DCO15
 70
     0
  0
APPID
  5
2D93
330
9
100
AcDbSymbolTableRecord
100
AcDbRegAppTableRecord
  2
AcadAnnoPO
 70
     0
  0
APPID
  5
2D94
330
9
100
AcDbSymbolTableRecord
100
AcDbRegAppTableRecord
  2
ACAD_DSTYLE_DIMRADIAL_EXTENSION
 70
     0
  0
APPID
  5
2D95
330
9
100
AcDbSymbolTableRecord
100
AcDbRegAppTableRecord
  2
ACAD_DSTYLE_DIMTEXT_FILL
 70
     0
  0
APPID
  5
2D96
330
9
100
AcDbSymbolTableRecord
100
AcDbRegAppTableRecord
  2
ACAD_DSTYLE_DIMEXT_LENGTH
 70
     0
  0
APPID
  5
2D97
330
9
100
AcDbSymbolTableRecord
100
AcDbRegAppTableRecord
  2
ACAD_DSTYLE_DIMEXT_ENABLED
 70
     0
  0
APPID
  5
2D98
330
9
100
AcDbSymbolTableRecord
100
AcDbRegAppTableRecord
  2
ACAD_DSTYLE_DIM_LINETYPE
 70
     0
  0
APPID
  5
2D99
330
9
100
AcDbSymbolTableRecord
100
AcDbRegAppTableRecord
  2
ACAD_DSTYLE_DIM_EXT1_LINETYPE
 70
     0
  0
APPID
  5
2D9A
330
9
100
AcDbSymbolTableRecord
100
AcDbRegAppTableRecord
  2
ACAD_DSTYLE_DIM_EXT2_LINETYPE
 70
     0
  0
APPID
  5
2D9B
330
9
100
AcDbSymbolTableRecord
100
AcDbRegAppTableRecord
  2
ACAD_DSTYLE_DIMJOGGED_JOGANGLE_SYMBOL
 70
     0
  0
APPID
  5
2D9C
330
9
100
AcDbSymbolTableRecord
100
AcDbRegAppTableRecord
  2
ACAD_DSTYLE_DIMARC_LENGTH_SYMBOL
 70
     0
  0
APPID
  5
2D9D
330
9
100
AcDbSymbolTableRecord
100
AcDbRegAppTableRecord
  2
AcLayerTools
 70
     0
  0
APPID
  5
2E51
330
9
100
AcDbSymbolTableRecord
100
AcDbRegAppTableRecord
  2
ACAD_NAV_VCDISPLAY
 70
     0
  0
ENDTAB
  0
TABLE
  2
DIMSTYLE
  5
A
330
0
100
AcDbSymbolTable
 70
     2
100
AcDbDimStyleTable
 71
     0
  0
DIMSTYLE
105
27
102
{ACAD_REACTORS
330
209D
330
20A9
330
20CE
330
20DE
330
23FC
330
2930
330
2A34
102
}
330
A
100
AcDbSymbolTableRecord
100
AcDbDimStyleTableRecord
  2
Standard
 70
     0
 41
2.5
 42
0.0
 43
3.75
 44
1.25
 73
     0
 74
     0
 77
     1
 78
     8
 79
     2
140
3.5
141
0.0
143
0.039370078
147
0.625
171
     3
179
     2
271
     2
272
     2
274
     3
283
     0
284
     8
340
11
1001
ACAD_DSTYLE_DIMJAG
1070
   388
1040
1.5
1001
ACAD_DSTYLE_DIMTALN
1070
   392
1070
     0
  0
ENDTAB
  0
TABLE
  2
BLOCK_RECORD
  5
1
330
0
100
AcDbSymbolTable
 70
    16
  0
BLOCK_RECORD
  5
1F
102
{ACAD_XDICTIONARY
360
2DCC
102
}
330
1
100
AcDbSymbolTableRecord
100
AcDbBlockTableRecord
  2
*Model_Space
340
22
  0
BLOCK_RECORD
  5
73
330
1
100
AcDbSymbolTableRecord
100
AcDbBlockTableRecord
  2
*Paper_Space
340
74
  0
BLOCK_RECORD
  5
2D0
330
1
100
AcDbSymbolTableRecord
100
AcDbBlockTableRecord
  2
CERO_POINT
340
0
102
{BLKREFS
331
63B
102
}
1001
ACAD
1000
DesignCenter Data
1002
{
1070
     1
1070
     4
1002
}
  0
BLOCK_RECORD
  5
20A8
330
1
100
AcDbSymbolTableRecord
100
AcDbBlockTableRecord
  2
*D2
340
0
  0
BLOCK_RECORD
  5
20B5
330
1
100
AcDbSymbolTableRecord
100
AcDbBlockTableRecord
  2
*D3
340
0
  0
BLOCK_RECORD
  5
20DD
330
1
100
AcDbSymbolTableRecord
100
AcDbBlockTableRecord
  2
*D4
340
0
  0
BLOCK_RECORD
  5
20EA
330
1
100
AcDbSymbolTableRecord
100
AcDbBlockTableRecord
  2
*D5
340
0
  0
BLOCK_RECORD
  5
2407
330
1
100
AcDbSymbolTableRecord
100
AcDbBlockTableRecord
  2
*D6
340
0
  0
BLOCK_RECORD
  5
293B
330
1
100
AcDbSymbolTableRecord
100
AcDbBlockTableRecord
  2
*D12
340
0
  0
BLOCK_RECORD
  5
2A3F
330
1
100
AcDbSymbolTableRecord
100
AcDbBlockTableRecord
  2
*D13
340
0
  0
ENDTAB
  0
ENDSEC
  0
SECTION
  2
BLOCKS
  0
BLOCK
  5
20
330
1F
100
AcDbEntity
  8
0
100
AcDbBlockBegin
  2
*Model_Space
 70
     0
 10
0.0
 20
0.0
 30
0.0
  3
*Model_Space
  1

  0
ENDBLK
  5
21
330
1F
100
AcDbEntity
  8
0
100
AcDbBlockEnd
  0
BLOCK
  5
75
330
73
100
AcDbEntity
 67
     1
  8
0
100
AcDbBlockBegin
  2
*Paper_Space
 70
     0
 10
0.0
 20
0.0
 30
0.0
  3
*Paper_Space
  1

  0
ENDBLK
  5
76
330
73
100
AcDbEntity
 67
     1
  8
0
100
AcDbBlockEnd
  0
BLOCK
  5
2DAD
102
{ACAD_REACTORS
330
209D
330
20A9
330
20CE
330
20DE
330
23FC
330
2930
330
2A34
102
}
330
2D0
100
AcDbEntity
  8
0
100
AcDbBlockBegin
  2
CERO_POINT
 70
     0
 10
0.0
 20
0.0
 30
0.0
  3
CERO_POINT
  1

  0
CIRCLE
  5
2D2
102
{ACAD_REACTORS
330
2D7
102
}
330
2D0
100
AcDbEntity
  8
SK2
100
AcDbCircle
 10
0.0
 20
0.0
 30
0.0
 40
2.5
  0
LINE
  5
2D3
330
2D0
100
AcDbEntity
  8
SK2
100
AcDbLine
 10
0.0900000000037835
 20
0.0
 30
0.0
 11
-0.0899999999965076
 21
0.0
 31
0.0
  0
LINE
  5
2D4
330
2D0
100
AcDbEntity
  8
SK2
100
AcDbLine
 10
0.0
 20
0.0899999999999182
 30
0.0
 11
0.0
 21
-0.0899999999999182
 31
0.0
  0
LINE
  5
2D5
102
{ACAD_REACTORS
330
2D7
102
}
330
2D0
100
AcDbEntity
  8
SK2
100
AcDbLine
 10
0.0
 20
-2.5
 30
0.0
 11
0.0
 21
2.5
 31
0.0
  0
LINE
  5
2D6
102
{ACAD_REACTORS
330
2D7
102
}
330
2D0
100
AcDbEntity
  8
SK2
100
AcDbLine
 10
2.5
 20
0.0
 30
0.0
 11
-2.5
 21
0.0
 31
0.0
  0
HATCH
  5
2D7
330
2D0
100
AcDbEntity
  8
SK2
100
AcDbHatch
 10
0.0
 20
0.0
 30
0.0
210
0.0
220
0.0
230
1.0
  2
ANSI31
 70
     0
 71
     1
 91
        2
 92
        7
 72
     1
 73
     1
 93
        3
 10
0.0
 20
-2.5
 42
0.4142135623730951
 10
2.5
 20
0.0
 42
0.0
 10
0.0
 20
0.0
 42
0.0
 97
        3
330
2D2
330
2D6
330
2D5
 92
        7
 72
     1
 73
     1
 93
        3
 10
0.0
 20
0.0
 42
0.0
 10
0.0
 20
2.5
 42
0.4142135623730951
 10
-2.5
 20
0.0
 42
0.0
 97
        3
330
2D6
330
2D5
330
2D2
 75
     0
 76
     1
 52
180.0
 41
0.1
 77
     0
 78
     1
 53
225.0
 43
5.170976743218488
 44
0.0
 45
0.2245064030267288
 46
-0.2245064030267289
 79
     0
 47
0.0243816376539857
 98
        2
 10
0.8789156907296272
 20
-1.044463114528752
 10
-0.8545028512526187
 20
0.7841600866017872
1001
ACAD
1010
0.0
1020
0.0
1030
0.0
  0
ENDBLK
  5
2DAE
330
2D0
100
AcDbEntity
  8
0
100
AcDbBlockEnd
  0
BLOCK
  5
2DB1
330
20A8
100
AcDbEntity
  8
0
100
AcDbBlockBegin
  2
*D2
 70
     1
 10
0.0
 20
0.0
 30
0.0
  3
*D2
  1

  0
LINE
  5
2E3E
330
20A8
100
AcDbEntity
  8
SK2
 62
     0
370
    -2
100
AcDbLine
 10
-17.50000000000003
 20
-4.0
 30
0.0
 11
-38.57977400000001
 21
-4.000000000000004
 31
0.0
  0
LINE
  5
2E3F
330
20A8
100
AcDbEntity
  8
SK2
 62
     0
370
    -2
100
AcDbLine
 10
-17.50000000000003
 20
4.0
 30
0.0
 11
-38.57977400000001
 21
3.999999999999996
 31
0.0
  0
LINE
  5
2E40
330
20A8
100
AcDbEntity
  8
SK2
 62
     0
370
    -2
100
AcDbLine
 10
-37.32977400000001
 20
-1.500000000000003
 30
0.0
 11
-37.32977400000001
 21
1.499999999999996
 31
0.0
  0
SOLID
  5
2E41
330
20A8
100
AcDbEntity
  8
SK2
 62
     0
100
AcDbTrace
 10
-37.74644066666668
 20
-1.500000000000004
 30
0.0
 11
-36.91310733333335
 21
-1.500000000000003
 31
0.0
 12
-37.32977400000001
 22
-4.000000000000004
 32
0.0
 13
-37.32977400000001
 23
-4.000000000000004
 33
0.0
  0
SOLID
  5
2E42
330
20A8
100
AcDbEntity
  8
SK2
 62
     0
100
AcDbTrace
 10
-37.74644066666668
 20
1.499999999999996
 30
0.0
 11
-36.91310733333335
 21
1.499999999999996
 31
0.0
 12
-37.32977400000001
 22
3.999999999999996
 32
0.0
 13
-37.32977400000001
 23
3.999999999999996
 33
0.0
  0
MTEXT
  5
2E43
330
20A8
100
AcDbEntity
  8
SK2
 62
     0
100
AcDbMText
 10
-39.76626381026002
 20
0.0958439999999999
 30
0.0
 40
3.5
 41
0.0
 71
     5
 72
     1
  1
M8
 11
0.0000000000000001
 21
1.0
 31
0.0
 73
     1
 44
1.0
1001
ACAD
1000
MTEXTBEGIN
1070
    73
1070
     1
1070
    44
1040
1.0
1070
    74
1070
     0
1000
MTEXTEND
  0
POINT
  5
2E44
330
20A8
100
AcDbEntity
  8
Defpoints
 62
     0
100
AcDbPoint
 10
-17.50000000000003
 20
-4.0
 30
0.0
  0
POINT
  5
2E45
330
20A8
100
AcDbEntity
  8
Defpoints
 62
     0
100
AcDbPoint
 10
-17.50000000000003
 20
4.0
 30
0.0
  0
POINT
  5
2E46
330
20A8
100
AcDbEntity
  8
Defpoints
 62
     0
100
AcDbPoint
 10
-37.32977400000001
 20
3.999999999999996
 30
0.0
  0
ENDBLK
  5
2DB2
330
20A8
100
AcDbEntity
  8
0
100
AcDbBlockEnd
  0
BLOCK
  5
2DB3
330
20B5
100
AcDbEntity
  8
0
100
AcDbBlockBegin
  2
*D3
 70
     1
 10
0.0
 20
0.0
 30
0.0
  3
*D3
  1

  0
LINE
  5
2E35
330
20B5
100
AcDbEntity
  8
SK2
 62
     0
370
    -2
100
AcDbLine
 10
-0.0000000000000284
 20
-6.500000000000002
 30
0.0
 11
-49.42088100000005
 21
-6.500000000000011
 31
0.0
  0
LINE
  5
2E36
330
20B5
100
AcDbEntity
  8
SK2
 62
     0
370
    -2
100
AcDbLine
 10
-0.0000000000000284
 20
6.500000000000002
 30
0.0
 11
-49.42088100000005
 21
6.499999999999995
 31
0.0
  0
LINE
  5
2E37
330
20B5
100
AcDbEntity
  8
SK2
 62
     0
370
    -2
100
AcDbLine
 10
-48.17088100000005
 20
-4.000000000000009
 30
0.0
 11
-48.17088100000005
 21
3.999999999999993
 31
0.0
  0
SOLID
  5
2E38
330
20B5
100
AcDbEntity
  8
SK2
 62
     0
100
AcDbTrace
 10
-48.5875476666667
 20
-4.000000000000009
 30
0.0
 11
-47.75421433333336
 21
-4.000000000000009
 31
0.0
 12
-48.17088100000005
 22
-6.500000000000011
 32
0.0
 13
-48.17088100000005
 23
-6.500000000000011
 33
0.0
  0
SOLID
  5
2E39
330
20B5
100
AcDbEntity
  8
SK2
 62
     0
100
AcDbTrace
 10
-48.5875476666667
 20
3.999999999999993
 30
0.0
 11
-47.75421433333336
 21
3.999999999999993
 31
0.0
 12
-48.17088100000005
 22
6.499999999999995
 32
0.0
 13
-48.17088100000005
 23
6.499999999999995
 33
0.0
  0
MTEXT
  5
2E3A
330
20B5
100
AcDbEntity
  8
SK2
 62
     0
100
AcDbMText
 10
-51.01689294659173
 20
0.0000000000000003
 30
0.0
 40
3.5
 41
0.0
 71
     5
 72
     1
  1
%%c13
 11
0.0000000000000001
 21
1.0
 31
0.0
 73
     1
 44
1.0
1001
ACAD
1000
MTEXTBEGIN
1070
    73
1070
     1
1070
    44
1040
1.0
1070
    74
1070
     0
1000
MTEXTEND
  0
POINT
  5
2E3B
330
20B5
100
AcDbEntity
  8
Defpoints
 62
     0
100
AcDbPoint
 10
-0.0000000000000284
 20
-6.500000000000002
 30
0.0
  0
POINT
  5
2E3C
330
20B5
100
AcDbEntity
  8
Defpoints
 62
     0
100
AcDbPoint
 10
-0.0000000000000284
 20
6.500000000000002
 30
0.0
  0
POINT
  5
2E3D
330
20B5
100
AcDbEntity
  8
Defpoints
 62
     0
100
AcDbPoint
 10
-48.17088100000005
 20
6.499999999999995
 30
0.0
  0
ENDBLK
  5
2DB4
330
20B5
100
AcDbEntity
  8
0
100
AcDbBlockEnd
  0
BLOCK
  5
2DB5
330
20DD
100
AcDbEntity
  8
0
100
AcDbBlockBegin
  2
*D4
 70
     1
 10
0.0
 20
0.0
 30
0.0
  3
*D4
  1

  0
MTEXT
  5
28F8
330
20DD
100
AcDbEntity
  8
2
  6
ByBlock
 62
     0
100
AcDbMText
 10
37.45403754583451
 20
24.49213189450973
 30
0.0
 40
3.5
 41
0.0
 71
     5
 72
     1
  1
\A1;80%%d~90%%d
 11
0.9969108011051607
 21
-0.0785420565039295
 31
0.0
 73
     1
 44
1.0
1001
ACAD
1000
MTEXTBEGIN
1070
    73
1070
     1
1070
    44
1040
1.0
1070
    74
1070
     0
1000
MTEXTEND
  0
POINT
  5
28F9
330
20DD
100
AcDbEntity
  8
Defpoints
  6
ByBlock
 62
     0
100
AcDbPoint
 10
11.58354825113743
 20
9.463214708665828
 30
0.0
  0
POINT
  5
28FA
330
20DD
100
AcDbEntity
  8
Defpoints
  6
ByBlock
 62
     0
100
AcDbPoint
 10
22.95056325113741
 20
7.459244708665847
 30
0.0
  0
POINT
  5
28FB
330
20DD
100
AcDbEntity
  8
Defpoints
  6
ByBlock
 62
     0
100
AcDbPoint
 10
22.95034125113743
 20
15.07661270866585
 30
0.0
  0
POINT
  5
28FC
330
20DD
100
AcDbEntity
  8
Defpoints
  6
ByBlock
 62
     0
100
AcDbPoint
 10
22.95056325113741
 20
7.459244708665847
 30
0.0
  0
SOLID
  5
28FD
330
20DD
100
AcDbEntity
  8
2
  6
ByBlock
 62
     0
100
AcDbTrace
 10
22.95009959591115
 20
23.36840004169998
 30
0.0
 11
20.49058411089976
 21
22.75652203907174
 31
0.0
 12
20.42508397410204
 22
23.58727722354199
 32
0.0
 13
20.42508397410204
 23
23.58727722354199
 33
0.0
  0
SOLID
  5
28FE
330
20DD
100
AcDbEntity
  8
2
  6
ByBlock
 62
     0
100
AcDbTrace
 10
7.283023256090035
 20
10.22138412027697
 30
0.0
 11
7.505788545020111
 21
12.74605969095117
 31
0.0
 12
8.312560876648108
 22
12.53734253936977
 32
0.0
 13
8.312560876648108
 23
12.53734253936977
 33
0.0
  0
LINE
  5
28FF
330
20DD
100
AcDbEntity
  8
2
  6
ByBlock
 62
     0
370
    -2
100
AcDbLine
 10
22.95034125113743
 20
15.07661270866585
 30
0.0
 11
22.9500631660052
 21
24.61840004116912
 31
0.0
  0
LINE
  5
2900
330
20DD
100
AcDbEntity
  8
2
  6
ByBlock
 62
     0
370
    -2
100
AcDbLine
 10
11.58354825113743
 20
9.463214708665828
 30
0.0
 11
6.052007242007472
 21
10.4384084808273
 31
0.0
  0
ARC
  5
2901
330
20DD
100
AcDbEntity
  8
2
  6
ByBlock
 62
     0
370
    -2
100
AcDbCircle
 10
22.95056325113741
 20
7.459244708665847
 30
0.0
 40
15.9091553397905
100
AcDbArc
 50
99.01454550387924
 51
160.9887934451537
  0
ARC
  5
2902
330
20DD
100
AcDbEntity
  8
2
  6
ByBlock
 62
     0
370
    -2
100
AcDbCircle
 10
22.95056325113741
 20
7.459244708665847
 30
0.0
 40
15.9091553397905
100
AcDbArc
 50
77.24232765304643
 51
90.00166982388753
  0
LINE
  5
2903
330
20DD
100
AcDbEntity
  8
2
  6
ByBlock
 62
     0
370
    -2
100
AcDbLine
 10
26.46375082545163
 20
22.97564689130047
 30
0.0
 11
48.07124949782422
 21
21.27329059246943
 31
0.0
  0
ENDBLK
  5
2DB6
330
20DD
100
AcDbEntity
  8
0
100
AcDbBlockEnd
  0
BLOCK
  5
2DB7
330
20EA
100
AcDbEntity
  8
0
100
AcDbBlockBegin
  2
*D5
 70
     1
 10
0.0
 20
0.0
 30
0.0
  3
*D5
  1

  0
POINT
  5
2BC9
330
20EA
100
AcDbEntity
  8
Defpoints
  6
ByBlock
 62
     0
100
AcDbPoint
 10
22.94982499999998
 20
7.882357579838072
 30
0.0
  0
POINT
  5
2BCA
330
20EA
100
AcDbEntity
  8
Defpoints
  6
ByBlock
 62
     0
100
AcDbPoint
 10
16.64982499999996
 20
7.882357579838072
 30
0.0
  0
LINE
  5
2BCB
330
20EA
100
AcDbEntity
  8
2
  6
ByBlock
 62
     0
370
    -2
100
AcDbLine
 10
22.94982499999998
 20
7.882357579838072
 30
0.0
 11
22.94982499999998
 21
34.94125557983806
 31
0.0
  0
LINE
  5
2BCC
330
20EA
100
AcDbEntity
  8
2
  6
ByBlock
 62
     0
370
    -2
100
AcDbLine
 10
16.64982499999996
 20
7.882357579838072
 30
0.0
 11
16.64982499999996
 21
34.94125557983806
 31
0.0
  0
LINE
  5
2BCD
330
20EA
100
AcDbEntity
  8
2
  6
ByBlock
 62
     0
370
    -2
100
AcDbLine
 10
22.94982499999998
 20
33.69125557983806
 30
0.0
 11
16.64982499999996
 21
33.69125557983806
 31
0.0
  0
SOLID
  5
2BCE
330
20EA
100
AcDbEntity
  8
2
  6
ByBlock
 62
     0
100
AcDbTrace
 10
22.94982499999998
 20
33.69125557983806
 30
0.0
 11
20.44982499999998
 21
34.10792224650481
 31
0.0
 12
20.44982499999998
 22
33.27458891317131
 32
0.0
 13
20.44982499999998
 23
33.27458891317131
 33
0.0
  0
LINE
  5
2BCF
330
20EA
100
AcDbEntity
  8
2
  6
ByBlock
 62
     0
370
    -2
100
AcDbLine
 10
19.14982499999996
 20
33.69125557983806
 30
0.0
 11
3.297546509486948
 21
33.69125557983806
 31
0.0
  0
SOLID
  5
2BD0
330
20EA
100
AcDbEntity
  8
2
  6
ByBlock
 62
     0
100
AcDbTrace
 10
16.64982499999996
 20
33.69125557983806
 30
0.0
 11
19.14982499999996
 21
34.10792224650481
 31
0.0
 12
19.14982499999996
 22
33.27458891317131
 32
0.0
 13
19.14982499999996
 23
33.27458891317131
 33
0.0
  0
MTEXT
  5
2BD1
330
20EA
100
AcDbEntity
  8
2
  6
ByBlock
 62
     0
100
AcDbMText
 10
8.300620999999948
 20
36.13881355594488
 30
0.0
 40
3.5
 41
0.0
 71
     5
 72
     1
  1
6.3
 73
     1
 44
1.0
1001
ACAD
1000
MTEXTBEGIN
1070
    73
1070
     1
1070
    44
1040
1.0
1070
    74
1070
     0
1000
MTEXTEND
  0
ENDBLK
  5
2DB8
330
20EA
100
AcDbEntity
  8
0
100
AcDbBlockEnd
  0
BLOCK
  5
2DB9
330
2407
100
AcDbEntity
  8
0
100
AcDbBlockBegin
  2
*D6
 70
     1
 10
0.0
 20
0.0
 30
0.0
  3
*D6
  1

  0
POINT
  5
2D84
330
2407
100
AcDbEntity
  8
Defpoints
  6
ByBlock
 62
     0
100
AcDbPoint
 10
22.94984370611968
 20
8.000050912524752
 30
0.0
  0
POINT
  5
2D85
330
2407
100
AcDbEntity
  8
Defpoints
  6
ByBlock
 62
     0
100
AcDbPoint
 10
22.94986205065152
 20
-7.99994908746473
 30
0.0
  0
LINE
  5
2D86
330
2407
100
AcDbEntity
  8
2
  6
ByBlock
 62
     0
370
    -2
100
AcDbLine
 10
22.94984370611968
 20
8.000050912524752
 30
0.0
 11
49.36864373746563
 21
8.000050912524752
 31
0.0
  0
LINE
  5
2D87
330
2407
100
AcDbEntity
  8
2
  6
ByBlock
 62
     0
370
    -2
100
AcDbLine
 10
48.11864373746563
 20
8.000050912524752
 30
0.0
 11
48.11864373746563
 21
-5.122395081324921
 31
0.0
  0
SOLID
  5
2D88
330
2407
100
AcDbEntity
  8
2
  6
ByBlock
 62
     0
100
AcDbTrace
 10
48.11864373746563
 20
8.000050912524752
 30
0.0
 11
47.70197707079888
 21
5.500050912524751
 31
0.0
 12
48.53531040413238
 22
5.500050912524751
 32
0.0
 13
48.53531040413238
 23
5.500050912524751
 33
0.0
  0
MTEXT
  5
2D89
330
2407
100
AcDbEntity
  8
2
  6
ByBlock
 62
     0
100
AcDbMText
 10
45.57270206494279
 20
-0.0873458894767154
 30
0.0
 40
3.5
 41
0.0
 71
     5
 72
     1
  1
%%c16
 11
0.0000000000000001
 21
1.0
 31
0.0
 73
     1
 44
1.0
1001
ACAD
1000
MTEXTBEGIN
1070
    73
1070
     1
1070
    44
1040
1.0
1070
    74
1070
     0
1000
MTEXTEND
  0
ENDBLK
  5
2DBA
330
2407
100
AcDbEntity
  8
0
100
AcDbBlockEnd
  0
BLOCK
  5
2DC5
330
293B
100
AcDbEntity
  8
0
100
AcDbBlockBegin
  2
*D12
 70
     1
 10
0.0
 20
0.0
 30
0.0
  3
*D12
  1

  0
POINT
  5
2D2C
330
293B
100
AcDbEntity
  8
Defpoints
  6
ByBlock
 62
     0
100
AcDbPoint
 10
0.0
 20
0.0
 30
0.0
  0
POINT
  5
2D2D
330
293B
100
AcDbEntity
  8
Defpoints
  6
ByBlock
 62
     0
100
AcDbPoint
 10
22.94982499999998
 20
6.809212000000002
 30
0.0
  0
LINE
  5
2D2E
330
293B
100
AcDbEntity
  8
2
  6
ByBlock
 62
     0
370
    -2
100
AcDbLine
 10
0.0
 20
0.0
 30
0.0
 11
0.0
 21
45.68117033281576
 31
0.0
  0
LINE
  5
2D2F
330
293B
100
AcDbEntity
  8
2
  6
ByBlock
 62
     0
370
    -2
100
AcDbLine
 10
22.94982499999998
 20
6.809212000000002
 30
0.0
 11
22.94982499999998
 21
45.68117033281576
 31
0.0
  0
LINE
  5
2D30
330
293B
100
AcDbEntity
  8
2
  6
ByBlock
 62
     0
370
    -2
100
AcDbLine
 10
0.0
 20
44.43117033281576
 30
0.0
 11
22.94982499999998
 21
44.43117033281576
 31
0.0
  0
SOLID
  5
2D31
330
293B
100
AcDbEntity
  8
2
  6
ByBlock
 62
     0
100
AcDbTrace
 10
0.0
 20
44.43117033281576
 30
0.0
 11
2.5
 21
44.01450366614902
 31
0.0
 12
2.5
 22
44.84783699948252
 32
0.0
 13
2.5
 23
44.84783699948252
 33
0.0
  0
SOLID
  5
2D32
330
293B
100
AcDbEntity
  8
2
  6
ByBlock
 62
     0
100
AcDbTrace
 10
22.94982499999998
 20
44.43117033281576
 30
0.0
 11
20.44982499999998
 21
44.01450366614902
 31
0.0
 12
20.44982499999998
 22
44.84783699948252
 32
0.0
 13
20.44982499999998
 23
44.84783699948252
 33
0.0
  0
MTEXT
  5
2D33
330
293B
100
AcDbEntity
  8
2
  6
ByBlock
 62
     0
100
AcDbMText
 10
11.47491249999999
 20
46.87872830892256
 30
0.0
 40
3.5
 41
0.0
 71
     5
 72
     1
  1
23
 73
     1
 44
1.0
1001
ACAD
1000
MTEXTBEGIN
1070
    73
1070
     1
1070
    44
1040
1.0
1070
    74
1070
     0
1000
MTEXTEND
  0
ENDBLK
  5
2DC6
330
293B
100
AcDbEntity
  8
0
100
AcDbBlockEnd
  0
BLOCK
  5
2DC7
330
2A3F
100
AcDbEntity
  8
0
100
AcDbBlockBegin
  2
*D13
 70
     1
 10
0.0
 20
0.0
 30
0.0
  3
*D13
  1

  0
LINE
  5
2E2C
330
2A3F
100
AcDbEntity
  8
SK2
 62
     0
370
    -2
100
AcDbLine
 10
-17.50000000000003
 20
4.0
 30
0.0
 11
-17.50000000000001
 21
53.74976880376485
 31
0.0
  0
LINE
  5
2E2D
330
2A3F
100
AcDbEntity
  8
SK2
 62
     0
370
    -2
100
AcDbLine
 10
22.94982499999998
 20
6.809212000000002
 30
0.0
 11
22.94982499999998
 21
53.74976880376485
 31
0.0
  0
LINE
  5
2E2E
330
2A3F
100
AcDbEntity
  8
SK2
 62
     0
370
    -2
100
AcDbLine
 10
-15.00000000000002
 20
52.49976880376485
 30
0.0
 11
20.44982499999998
 21
52.49976880376485
 31
0.0
  0
SOLID
  5
2E2F
330
2A3F
100
AcDbEntity
  8
SK2
 62
     0
100
AcDbTrace
 10
-15.00000000000002
 20
52.9164354704315
 30
0.0
 11
-15.00000000000002
 21
52.08310213709818
 31
0.0
 12
-17.50000000000001
 22
52.49976880376485
 32
0.0
 13
-17.50000000000001
 23
52.49976880376485
 33
0.0
  0
SOLID
  5
2E30
330
2A3F
100
AcDbEntity
  8
SK2
 62
     0
100
AcDbTrace
 10
20.44982499999998
 20
52.9164354704315
 30
0.0
 11
20.44982499999998
 21
52.08310213709818
 31
0.0
 12
22.94982499999998
 22
52.49976880376485
 32
0.0
 13
22.94982499999998
 23
52.49976880376485
 33
0.0
  0
MTEXT
  5
2E31
330
2A3F
100
AcDbEntity
  8
SK2
 62
     0
100
AcDbMText
 10
2.724912499999978
 20
54.93625861402485
 30
0.0
 40
3.5
 41
0.0
 71
     5
 72
     1
  1
40.5
 73
     1
 44
1.0
1001
ACAD
1000
MTEXTBEGIN
1070
    73
1070
     1
1070
    44
1040
1.0
1070
    74
1070
     0
1000
MTEXTEND
  0
POINT
  5
2E32
330
2A3F
100
AcDbEntity
  8
Defpoints
 62
     0
100
AcDbPoint
 10
-17.50000000000003
 20
4.0
 30
0.0
  0
POINT
  5
2E33
330
2A3F
100
AcDbEntity
  8
Defpoints
 62
     0
100
AcDbPoint
 10
22.94982499999998
 20
6.809212000000002
 30
0.0
  0
POINT
  5
2E34
330
2A3F
100
AcDbEntity
  8
Defpoints
 62
     0
100
AcDbPoint
 10
22.94982499999998
 20
52.49976880376485
 30
0.0
  0
ENDBLK
  5
2DC8
330
2A3F
100
AcDbEntity
  8
0
100
AcDbBlockEnd
  0
ENDSEC
  0
SECTION
  2
ENTITIES
  0
INSERT
  5
63B
330
1F
100
AcDbEntity
  8
SK2
100
AcDbBlockReference
  2
CERO_POINT
 10
0.0
 20
0.0
 30
0.0
  0
LINE
  5
63C
330
1F
100
AcDbEntity
  8
INFTOTAL
100
AcDbLine
 10
-87.32631117866217
 20
74.446036276732
 30
0.0
 11
-37.32631117866219
 21
74.44603627673199
 31
0.0
  0
LINE
  5
63D
330
1F
100
AcDbEntity
  8
INFTOTAL
100
AcDbLine
 10
86.73532450390132
 20
0.0866455548480687
 30
0.0
 11
86.73532450390132
 21
-49.91335444515192
 31
0.0
  0
LINE
  5
63E
330
1F
100
AcDbEntity
  8
INFTOTAL
100
AcDbLine
 10
86.73532450390132
 20
-49.91335444515192
 30
0.0
 11
36.73532450390132
 21
-49.91335444515192
 31
0.0
  0
LINE
  5
63F
330
1F
100
AcDbEntity
  8
INFTOTAL
100
AcDbLine
 10
-87.32631117866217
 20
24.44603627673201
 30
0.0
 11
-87.32631117866217
 21
74.446036276732
 31
0.0
  0
DIMENSION
  5
209D
330
1F
100
AcDbEntity
  8
SK2
100
AcDbDimension
  2
*D2
 10
-37.32977400000001
 20
3.999999999999996
 30
0.0
 11
-37.32977400000001
 21
0.0958439999999996
 31
0.0
 70
   161
  1
M<>
 71
     5
 42
8.000000000000001
  3
Standard
100
AcDbAlignedDimension
 13
-17.50000000000003
 23
-4.0
 33
0.0
 14
-17.50000000000003
 24
4.0
 34
0.0
  0
DIMENSION
  5
20A9
330
1F
100
AcDbEntity
  8
SK2
100
AcDbDimension
  2
*D3
 10
-48.17088100000005
 20
6.499999999999995
 30
0.0
 11
-48.17088100000002
 21
0.0
 31
0.0
 70
   161
  1
%%c<>
 71
     5
 42
13.0
  3
Standard
100
AcDbAlignedDimension
 13
-0.0000000000000284
 23
-6.5
 33
0.0
 14
-0.0000000000000284
 24
6.5
 34
0.0
  0
DIMENSION
  5
20CE
330
1F
100
AcDbEntity
  8
2
100
AcDbDimension
  2
*D4
 10
11.58354825113743
 20
9.463214708665828
 30
0.0
 11
37.45403754583451
 21
24.49213189450973
 31
0.0
 70
   162
  1
<>~90%%d
 71
     5
 42
1.39626338940011
  3
Standard
100
AcDb2LineAngularDimension
 13
22.95056325113741
 23
7.459244708665847
 33
0.0
 14
22.95034125113743
 24
15.07661270866585
 34
0.0
 15
22.95056325113741
 25
7.459244708665847
 35
0.0
 16
15.81013225113741
 26
21.67597670866583
 36
0.0
  0
DIMENSION
  5
20DE
330
1F
100
AcDbEntity
  8
2
100
AcDbDimension
  2
*D5
 10
16.64982499999996
 20
33.69125557983806
 30
0.0
 11
8.300620999999948
 21
33.69125557983806
 31
0.0
 70
   161
 71
     5
 42
6.300000000000017
  3
Standard
100
AcDbAlignedDimension
 13
22.94982499999998
 23
7.882357579838072
 33
0.0
 14
16.64982499999996
 24
7.882357579838072
 34
0.0
  0
LINE
  5
20F8
330
1F
100
AcDbEntity
  8
4
100
AcDbLine
 10
26.00757199999998
 20
0.0
 30
0.0
 11
0.0
 21
0.0
 31
0.0
  0
LINE
  5
20F9
330
1F
100
AcDbEntity
  8
SK3
100
AcDbLine
 10
12.99999999999997
 20
0.0
 30
0.0
 11
12.13397399999997
 21
1.5
 31
0.0
  0
LINE
  5
20FD
330
1F
100
AcDbEntity
  8
2
100
AcDbLine
 10
11.58354825113743
 20
9.463214708665828
 30
0.0
 11
24.78149325113741
 21
7.136456708665844
 31
0.0
  0
LINE
  5
20FE
330
1F
100
AcDbEntity
  8
2
100
AcDbLine
 10
22.94999999999999
 20
17.08547200000001
 30
0.0
 11
22.95021699999998
 21
9.61713499999999
 31
0.0
  0
LINE
  5
20FF
330
1F
100
AcDbEntity
  8
SK3
100
AcDbLine
 10
12.13397399999997
 20
1.5
 30
0.0
 11
-17.50000000000003
 21
1.5
 31
0.0
  0
LINE
  5
2100
330
1F
100
AcDbEntity
  8
SK3
100
AcDbLine
 10
12.13397399999997
 20
-1.5
 30
0.0
 11
-17.50000000000003
 21
-1.5
 31
0.0
  0
LINE
  5
2101
330
1F
100
AcDbEntity
  8
SK3
100
AcDbLine
 10
12.99999999999997
 20
0.0
 30
0.0
 11
12.13397399999997
 21
-1.5
 31
0.0
  0
LINE
  5
2150
330
1F
100
AcDbEntity
  8
1
100
AcDbLine
 10
22.59999999999999
 20
-2.915716000000001
 30
0.0
 11
22.59999999999999
 21
-2.571867999999995
 31
0.0
  0
LINE
  5
2151
330
1F
100
AcDbEntity
  8
1
100
AcDbLine
 10
22.59999999999999
 20
-2.915717000000001
 30
0.0
 11
22.50074499999999
 21
-2.580556
 31
0.0
  0
LINE
  5
2152
330
1F
100
AcDbEntity
  8
1
100
AcDbLine
 10
22.44240199999999
 20
-2.68732299999999
 30
0.0
 11
22.44775099999998
 21
-2.585217999999998
 31
0.0
  0
LINE
  5
2153
330
1F
100
AcDbEntity
  8
1
100
AcDbLine
 10
22.59999999999999
 20
-4.425900000000011
 30
0.0
 11
22.49527699999999
 21
-3.457987999999998
 31
0.0
  0
SPLINE
  5
2154
330
1F
100
AcDbEntity
  8
1
100
AcDbSpline
210
0.0
220
0.0
230
1.0
 70
     8
 71
     5
 72
    12
 73
     6
 74
     0
 42
0.000000001
 43
0.0000000001
 40
0.0
 40
0.0
 40
0.0
 40
0.0
 40
0.0
 40
0.0
 40
1.565365311197511
 40
1.565365311197511
 40
1.565365311197511
 40
1.565365311197511
 40
1.565365311197511
 40
1.565365311197511
 10
22.44224936717967
 20
-2.585678233561423
 30
0.0
 10
22.44016676327809
 20
-2.724633072884841
 30
0.0
 10
22.44681282837018
 20
-2.904431953779408
 30
0.0
 10
22.46018372965847
 20
-3.096921568645087
 30
0.0
 10
22.47668943931427
 20
-3.284791844740026
 30
0.0
 10
22.49527731583663
 20
-3.457987551264408
 30
0.0
  0
LINE
  5
2155
330
1F
100
AcDbEntity
  8
1
100
AcDbLine
 10
22.59999999999999
 20
3.299853000000013
 30
0.0
 11
22.59999999999999
 21
0.2388229999999965
 31
0.0
  0
LINE
  5
2156
330
1F
100
AcDbEntity
  8
1
100
AcDbLine
 10
22.59999999999999
 20
-2.915716000000001
 30
0.0
 11
22.59999999999999
 21
-3.261191999999993
 31
0.0
  0
LINE
  5
2157
330
1F
100
AcDbEntity
  8
1
100
AcDbLine
 10
22.59999999999999
 20
-5.601389000000011
 30
0.0
 11
22.59999999999999
 21
-6.378278999999992
 31
0.0
  0
LINE
  5
2158
330
1F
100
AcDbEntity
  8
1
100
AcDbLine
 10
22.59999999999999
 20
-5.463557000000008
 30
0.0
 11
22.59999999999999
 21
-5.601389000000011
 31
0.0
  0
LINE
  5
2159
330
1F
100
AcDbEntity
  8
1
100
AcDbLine
 10
22.59999999999999
 20
-4.425900000000011
 30
0.0
 11
22.59999999999999
 21
-5.463557000000008
 31
0.0
  0
ARC
  5
215A
330
1F
100
AcDbEntity
  8
1
100
AcDbCircle
 10
21.99782199999999
 20
-6.378205000000008
 30
0.0
 40
0.6021670000000112
100
AcDbArc
 50
275.1904510000007
 51
359.9929700000007
  0
LINE
  5
215B
330
1F
100
AcDbEntity
  8
1
100
AcDbLine
 10
22.05229299999999
 20
-6.125934999999997
 30
0.0
 11
22.05229299999999
 21
-6.977855000000003
 31
0.0
  0
SPLINE
  5
215C
330
1F
100
AcDbEntity
  8
1
100
AcDbSpline
210
0.0
220
0.0
230
1.0
 70
     8
 71
     5
 72
    18
 73
    12
 74
     0
 42
0.000000001
 43
0.0000000001
 40
0.0
 40
0.0
 40
0.0
 40
0.0
 40
0.0
 40
0.0
 40
0.3792144379504289
 40
0.3792144379504289
 40
0.3792144379504289
 40
0.7599175556784683
 40
0.7599175556784683
 40
0.7599175556784683
 40
1.267153697129705
 40
1.267153697129705
 40
1.267153697129705
 40
1.267153697129705
 40
1.267153697129705
 40
1.267153697129705
 10
22.05229344564859
 20
-6.021936696716295
 30
0.0
 10
22.10570221341362
 20
-6.018602241611093
 30
0.0
 10
22.15861404853734
 20
-6.009573161786506
 30
0.0
 10
22.21011385079683
 20
-5.994895649107661
 30
0.0
 10
22.30867808539631
 20
-5.954692221983608
 30
0.0
 10
22.39484097065636
 20
-5.894656133787607
 30
0.0
 10
22.43411118503238
 20
-5.860050139040595
 30
0.0
 10
22.51510063299997
 20
-5.770241262476674
 30
0.0
 10
22.5688878596097
 20
-5.663122428039542
 30
0.0
 10
22.58965718657018
 20
-5.597971303123755
 30
0.0
 10
22.59999999999999
 20
-5.530829267046016
 30
0.0
 10
22.59999999999999
 20
-5.463556940554268
 30
0.0
  0
LINE
  5
215D
330
1F
100
AcDbEntity
  8
1
100
AcDbLine
 10
22.05229299999999
 20
-6.021937000000008
 30
0.0
 11
22.05229299999999
 21
-6.125934999999997
 31
0.0
  0
SPLINE
  5
215E
330
1F
100
AcDbEntity
  8
1
100
AcDbSpline
210
0.0
220
0.0
230
1.0
 70
     8
 71
     5
 72
    18
 73
    12
 74
     0
 42
0.000000001
 43
0.0000000001
 40
0.0
 40
0.0
 40
0.0
 40
0.0
 40
0.0
 40
0.0
 40
0.3792144379480645
 40
0.3792144379480645
 40
0.3792144379480645
 40
0.7599175556840871
 40
0.7599175556840871
 40
0.7599175556840871
 40
1.267153697133799
 40
1.267153697133799
 40
1.267153697133799
 40
1.267153697133799
 40
1.267153697133799
 40
1.267153697133799
 10
22.05229344564859
 20
3.530322959084401
 30
0.0
 10
22.10570221341331
 20
3.526771590690231
 30
0.0
 10
22.15861404853666
 20
3.521133656889076
 30
0.0
 10
22.2101138507974
 20
3.513465956392167
 30
0.0
 10
22.30867808539762
 20
3.494306942532717
 30
0.0
 10
22.39484097065815
 20
3.468343963915826
 30
0.0
 10
22.43411118503087
 20
3.453829374859423
 30
0.0
 10
22.51510063299938
 20
3.41706908330903
 30
0.0
 10
22.56888785960945
 20
3.375080808404931
 30
0.0
 10
22.58965718657024
 20
3.350061157978502
 30
0.0
 10
22.59999999999999
 20
3.32475680261129
 30
0.0
 10
22.59999999999999
 20
3.299852904276519
 30
0.0
  0
LINE
  5
215F
330
1F
100
AcDbEntity
  8
1
100
AcDbLine
 10
22.59999999999999
 20
0.2388229999999965
 30
0.0
 11
22.05229299999999
 21
0.1909049999999866
 31
0.0
  0
LINE
  5
2160
330
1F
100
AcDbEntity
  8
1
100
AcDbLine
 10
22.05229299999999
 20
3.530323000000008
 30
0.0
 11
22.05229299999999
 21
0.1909049999999866
 31
0.0
  0
LINE
  5
2161
330
1F
100
AcDbEntity
  8
1
100
AcDbLine
 10
18.39999999999998
 20
-6.249379000000003
 30
0.0
 11
18.39999999999998
 21
-6.406352999999996
 31
0.0
  0
LINE
  5
2162
330
1F
100
AcDbEntity
  8
1
100
AcDbLine
 10
18.39999999999998
 20
-6.249379000000003
 30
0.0
 11
22.05229299999999
 21
-6.021937000000008
 31
0.0
  0
LINE
  5
2163
330
1F
100
AcDbEntity
  8
1
100
AcDbLine
 10
18.39999999999998
 20
3.772964000000001
 30
0.0
 11
22.05229299999999
 21
3.530323000000008
 31
0.0
  0
LINE
  5
2164
330
1F
100
AcDbEntity
  8
1
100
AcDbLine
 10
18.39999999999998
 20
3.772964000000001
 30
0.0
 11
18.39999999999998
 21
-0.1286289999999894
 31
0.0
  0
LINE
  5
2165
330
1F
100
AcDbEntity
  8
1
100
AcDbLine
 10
18.39999999999998
 20
-0.1286289999999894
 30
0.0
 11
22.05229299999999
 21
0.1909049999999866
 31
0.0
  0
LINE
  5
2166
330
1F
100
AcDbEntity
  8
1
100
AcDbLine
 10
18.39999999999998
 20
-6.406352999999996
 30
0.0
 11
18.39999999999998
 21
-7.300000000000013
 31
0.0
  0
LINE
  5
2167
330
1F
100
AcDbEntity
  8
1
100
AcDbLine
 10
19.86920799999999
 20
-7.171460999999991
 30
0.0
 11
22.05229299999999
 21
-6.977855000000003
 31
0.0
  0
LINE
  5
2168
330
1F
100
AcDbEntity
  8
1
100
AcDbLine
 10
14.59999999999999
 20
-6.406352999999996
 30
0.0
 11
14.59999999999999
 21
-7.300000000000013
 31
0.0
  0
LINE
  5
2169
330
1F
100
AcDbEntity
  8
1
100
AcDbLine
 10
14.59999999999999
 20
-6.012482000000004
 30
0.0
 11
14.59999999999999
 21
-6.406352999999996
 31
0.0
  0
LINE
  5
216A
330
1F
100
AcDbEntity
  8
1
100
AcDbLine
 10
16.863517
 20
-6.216223000000012
 30
0.0
 11
18.39999999999998
 21
-6.249379000000003
 31
0.0
  0
ARC
  5
216B
330
1F
100
AcDbEntity
  8
1
100
AcDbCircle
 10
17.16942599999999
 20
9.923529000000002
 30
0.0
 40
16.142252
100
AcDbArc
 50
260.840801
 51
268.91416
  0
LINE
  5
216C
330
1F
100
AcDbEntity
  8
1
100
AcDbLine
 10
16.863517
 20
3.827345000000008
 30
0.0
 11
18.39999999999998
 21
3.772964000000001
 31
0.0
  0
ARC
  5
216D
330
1F
100
AcDbEntity
  8
1
100
AcDbCircle
 10
17.28786699999998
 20
15.22805199999999
 30
0.0
 40
11.408852
100
AcDbArc
 50
256.37365
 51
267.8683579999999
  0
LINE
  5
216E
330
1F
100
AcDbEntity
  8
1
100
AcDbLine
 10
14.59999999999999
 20
4.140055999999987
 30
0.0
 11
14.59999999999999
 21
-3.071018000000008
 31
0.0
  0
LINE
  5
216F
330
1F
100
AcDbEntity
  8
1
100
AcDbLine
 10
14.59999999999999
 20
-3.071018000000008
 30
0.0
 11
16.34738199999998
 21
-2.918141999999988
 31
0.0
  0
ARC
  5
2170
330
1F
100
AcDbEntity
  8
1
100
AcDbCircle
 10
-149.504336
 20
-14.570019
 30
0.0
 40
166.260582
100
AcDbArc
 50
4.018699999999999
 51
4.914744999999999
  0
LINE
  5
2171
330
1F
100
AcDbEntity
  8
1
100
AcDbLine
 10
16.14501199999998
 20
-0.3259150000000091
 30
0.0
 11
18.39999999999998
 21
-0.1286289999999894
 31
0.0
  0
LINE
  5
2172
330
1F
100
AcDbEntity
  8
1
100
AcDbLine
 10
14.59999999999999
 20
7.300000000000013
 30
0.0
 11
14.59999999999999
 21
6.622601000000002
 31
0.0
  0
LINE
  5
2173
330
1F
100
AcDbEntity
  8
1
100
AcDbLine
 10
14.59999999999999
 20
6.622601000000002
 30
0.0
 11
16.34738199999998
 21
6.691371000000001
 31
0.0
  0
ELLIPSE
  5
2174
330
1F
100
AcDbEntity
  8
1
100
AcDbEllipse
 10
15.82083499999999
 20
0.0079010000000039
 30
0.0
 11
-0.2982399463653564
 21
-7.292051315307617
 31
0.0
210
0.0
220
0.0
230
1.0
 40
0.087388
 41
2.733701909387453
 42
3.100483627198773
  0
LINE
  5
2175
330
1F
100
AcDbEntity
  8
1
100
AcDbLine
 10
16.14501199999998
 20
7.292721
 30
0.0
 11
16.20471999999998
 21
7.292953000000013
 31
0.0
  0
LINE
  5
2176
330
1F
100
AcDbEntity
  8
1
100
AcDbLine
 10
11.35033299999998
 20
6.609262000000001
 30
0.0
 11
11.35033299999998
 21
5.672350999999991
 31
0.0
  0
ARC
  5
2177
330
1F
100
AcDbEntity
  8
1
100
AcDbCircle
 10
12.03781099999998
 20
4.253843999999986
 30
0.0
 40
1.576457000000003
100
AcDbArc
 50
106.0095049999996
 51
115.8570949999996
  0
ARC
  5
2178
330
1F
100
AcDbEntity
  8
1
100
AcDbCircle
 10
56.85104699999997
 20
-147.504033
 30
0.0
 40
159.812809
100
AcDbArc
 50
105.330006
 51
106.447209
  0
SPLINE
  5
2179
330
1F
100
AcDbEntity
  8
1
100
AcDbSpline
210
0.0
220
0.0
230
1.0
 70
     8
 71
     5
 72
    15
 73
     9
 74
     0
 42
0.000000001
 43
0.0000000001
 40
0.0
 40
0.0
 40
0.0
 40
0.0
 40
0.0
 40
0.0
 40
4.059505694908553
 40
4.059505694908553
 40
4.059505694908553
 40
5.846436086853611
 40
5.846436086853611
 40
5.846436086853611
 40
5.846436086853611
 40
5.846436086853611
 40
5.846436086853611
 10
11.50772776965746
 20
4.959406565244278
 30
0.0
 10
11.90479820155841
 20
4.820492511910429
 30
0.0
 10
12.31544122122997
 20
4.683061837601171
 30
0.0
 10
12.73871114182489
 20
4.552804309376398
 30
0.0
 10
13.36274964285252
 20
4.382801184790196
 30
0.0
 10
14.00472247272219
 20
4.245114799648233
 30
0.0
 10
14.20067276136032
 20
4.206687156435351
 30
0.0
 10
14.39974422408119
 20
4.171475057506484
 30
0.0
 10
14.60000000000002
 20
4.140055751883578
 30
0.0
  0
ARC
  5
217A
330
1F
100
AcDbEntity
  8
1
100
AcDbCircle
 10
11.92786199999998
 20
6.175660999999991
 30
0.0
 40
1.286735000000009
100
AcDbArc
 50
243.3303119999997
 51
250.9434199999997
  0
LINE
  5
217B
330
1F
100
AcDbEntity
  8
1
100
AcDbLine
 10
11.35033299999998
 20
5.025857999999998
 30
0.0
 11
11.35033299999998
 21
-3.392164000000008
 31
0.0
  0
ARC
  5
217C
330
1F
100
AcDbEntity
  8
1
100
AcDbCircle
 10
11.66602699999999
 20
-4.180084999999991
 30
0.0
 40
0.8490059999999973
100
AcDbArc
 50
94.25693600000043
 51
111.8343180000004
  0
LINE
  5
217D
330
1F
100
AcDbEntity
  8
1
100
AcDbLine
 10
11.602991
 20
-3.333222000000006
 30
0.0
 11
14.59999999999999
 21
-3.071018000000008
 31
0.0
  0
LINE
  5
217E
330
1F
100
AcDbEntity
  8
1
100
AcDbLine
 10
11.35033299999998
 20
-4.292213000000002
 30
0.0
 11
11.35033299999998
 21
-5.800173
 31
0.0
  0
SPLINE
  5
217F
330
1F
100
AcDbEntity
  8
1
100
AcDbSpline
210
0.0
220
0.0
230
1.0
 70
     8
 71
     5
 72
    15
 73
     9
 74
     0
 42
0.000000001
 43
0.0000000001
 40
0.0
 40
0.0
 40
0.0
 40
0.0
 40
0.0
 40
0.0
 40
4.191875561664208
 40
4.191875561664208
 40
4.191875561664208
 40
6.003469116591806
 40
6.003469116591806
 40
6.003469116591806
 40
6.003469116591806
 40
6.003469116591806
 40
6.003469116591806
 10
11.50772776965746
 20
-4.4192735764845
 30
0.0
 10
11.90009140748322
 20
-4.698677841004125
 30
0.0
 10
12.3091583052996
 20
-4.957704773325815
 30
0.0
 10
12.7343638352402
 20
-5.196546246485893
 30
0.0
 10
13.35968636316082
 20
-5.509254484321787
 30
0.0
 10
14.00596070535585
 20
-5.783879242866048
 30
0.0
 10
14.20211702042755
 20
-5.863151267429401
 30
0.0
 10
14.40038029636409
 20
-5.939399415668447
 30
0.0
 10
14.60000000000002
 20
-6.012481881161532
 30
0.0
  0
ARC
  5
2180
330
1F
100
AcDbEntity
  8
1
100
AcDbCircle
 10
12.43764999999999
 20
-3.105490000000003
 30
0.0
 40
1.609557999999999
100
AcDbArc
 50
227.5029950000003
 51
234.7083710000004
  0
LINE
  5
2181
330
1F
100
AcDbEntity
  8
1
100
AcDbLine
 10
11.35033299999998
 20
-5.800173
 30
0.0
 11
11.35033299999998
 21
-6.609262000000001
 31
0.0
  0
LINE
  5
2182
330
1F
100
AcDbEntity
  8
1
100
AcDbLine
 10
10.31077499999998
 20
-5.704286999999991
 30
0.0
 11
10.31077499999998
 21
-6.5
 31
0.0
  0
LINE
  5
2183
330
1F
100
AcDbEntity
  8
1
100
AcDbLine
 10
10.31077499999998
 20
-4.153312
 30
0.0
 11
10.31077499999998
 21
-5.704286999999991
 31
0.0
  0
ARC
  5
2184
330
1F
100
AcDbEntity
  8
1
100
AcDbCircle
 10
10.31068599999998
 20
-7.353784999999986
 30
0.0
 40
3.200473000000009
100
AcDbArc
 50
86.60886000000003
 51
89.99840300000004
  0
ARC
  5
2185
330
1F
100
AcDbEntity
  8
1
100
AcDbCircle
 10
10.30615899999998
 20
-7.413803999999997
 30
0.0
 40
3.260662000000008
100
AcDbArc
 50
80.69427300000006
 51
86.59184600000006
  0
ARC
  5
2186
330
1F
100
AcDbEntity
  8
1
100
AcDbCircle
 10
10.28834799999998
 20
-7.526976999999987
 30
0.0
 40
3.375231999999998
100
AcDbArc
 50
77.82811299999981
 51
80.7065629999998
  0
SPLINE
  5
2187
330
1F
100
AcDbEntity
  8
1
100
AcDbSpline
210
0.0
220
0.0
230
1.0
 70
     8
 71
     5
 72
    18
 73
    12
 74
     0
 42
0.000000001
 43
0.0000000001
 40
0.0
 40
0.0
 40
0.0
 40
0.0
 40
0.0
 40
0.0
 40
0.8222587329268346
 40
0.8222587329268346
 40
0.8222587329268346
 40
1.874652859047935
 40
1.874652859047935
 40
1.874652859047935
 40
2.673839938506161
 40
2.673839938506161
 40
2.673839938506161
 40
2.673839938506161
 40
2.673839938506161
 40
2.673839938506161
 10
11.35033319017765
 20
-3.392163538478654
 30
0.0
 10
11.27505509471234
 20
-3.423621991717653
 30
0.0
 10
11.20847677572797
 20
-3.464559016298636
 30
0.0
 10
11.15411282015322
 20
-3.513767616534435
 30
0.0
 10
11.0627907191631
 20
-3.639400053655548
 30
0.0
 10
11.04447365243573
 20
-3.782198878770345
 30
0.0
 10
11.05633288191706
 20
-3.863072079763811
 30
0.0
 10
11.10594505242284
 20
-4.001376333470033
 30
0.0
 10
11.19737019393978
 20
-4.132493222493736
 30
0.0
 10
11.24263810762929
 20
-4.186797577846448
 30
0.0
 10
11.29401437341906
 20
-4.240282159740417
 30
0.0
 10
11.35033319017771
 20
-4.292212881631598
 30
0.0
  0
LINE
  5
2188
330
1F
100
AcDbEntity
  8
1
100
AcDbLine
 10
11.0
 20
-3.552854999999993
 30
0.0
 11
11.0
 21
-4.227620999999999
 31
0.0
  0
LINE
  5
2189
330
1F
100
AcDbEntity
  8
1
100
AcDbLine
 10
11.0
 20
3.552854999999993
 30
0.0
 11
11.0
 21
-3.552854999999993
 31
0.0
  0
LINE
  5
218A
330
1F
100
AcDbEntity
  8
1
100
AcDbLine
 10
11.0
 20
4.227620999999999
 30
0.0
 11
11.0
 21
3.552854999999993
 31
0.0
  0
ARC
  5
218B
330
1F
100
AcDbEntity
  8
1
100
AcDbCircle
 10
10.28834999999998
 20
7.526967000000013
 30
0.0
 40
3.375221999999998
100
AcDbArc
 50
279.293433
 51
282.171891
  0
SPLINE
  5
218C
330
1F
100
AcDbEntity
  8
1
100
AcDbSpline
210
0.0
220
0.0
230
1.0
 70
     8
 71
     5
 72
    18
 73
    12
 74
     0
 42
0.000000001
 43
0.0000000001
 40
0.0
 40
0.0
 40
0.0
 40
0.0
 40
0.0
 40
0.0
 40
0.8870447523797151
 40
0.8870447523797151
 40
0.8870447523797151
 40
1.92699932884231
 40
1.92699932884231
 40
1.92699932884231
 40
2.123751355929035
 40
2.123751355929035
 40
2.123751355929035
 40
2.123751355929035
 40
2.123751355929035
 40
2.123751355929035
 10
11.35033319017765
 20
5.672351422854601
 30
0.0
 10
11.26973749268652
 20
5.632249089094754
 30
0.0
 10
11.19843842762344
 20
5.589264516250523
 30
0.0
 10
11.14077263491725
 20
5.543595001691984
 30
0.0
 10
11.05327613313466
 20
5.43916422348431
 30
0.0
 10
11.04627078979095
 20
5.331502779002079
 30
0.0
 10
11.06502966044221
 20
5.274330780616423
 30
0.0
 10
11.10638427217444
 20
5.210137239926353
 30
0.0
 10
11.16653946613127
 20
5.151132465343494
 30
0.0
 10
11.17656946968268
 20
5.141878392196672
 30
0.0
 10
11.1870303094239
 20
5.132772419463237
 30
0.0
 10
11.19791019175383
 20
5.123815570035902
 30
0.0
  0
ARC
  5
218D
330
1F
100
AcDbEntity
  8
1
100
AcDbCircle
 10
11.723455
 20
5.775404000000007
 30
0.0
 40
0.8372000000000085
100
AcDbArc
 50
231.111738
 51
243.535973
  0
LINE
  5
218E
330
1F
100
AcDbEntity
  8
1
100
AcDbLine
 10
2.5
 20
-4.153312
 30
0.0
 11
10.31077499999998
 21
-4.153312
 31
0.0
  0
LINE
  5
218F
330
1F
100
AcDbEntity
  8
1
100
AcDbLine
 10
2.0
 20
-4.153312
 30
0.0
 11
2.5
 21
-4.153312
 31
0.0
  0
LINE
  5
2190
330
1F
100
AcDbEntity
  8
1
100
AcDbLine
 10
2.5
 20
4.153312
 30
0.0
 11
2.0
 21
4.153312
 31
0.0
  0
LINE
  5
2191
330
1F
100
AcDbEntity
  8
1
100
AcDbLine
 10
10.31077499999998
 20
4.153312
 30
0.0
 11
2.5
 21
4.153312
 31
0.0
  0
ARC
  5
2192
330
1F
100
AcDbEntity
  8
1
100
AcDbCircle
 10
10.31068599999998
 20
7.353782999999991
 30
0.0
 40
3.200470999999998
100
AcDbArc
 50
270.0015959999999
 51
273.391141
  0
ARC
  5
2193
330
1F
100
AcDbEntity
  8
1
100
AcDbCircle
 10
10.30615999999998
 20
7.413799000000013
 30
0.0
 40
3.260655999999996
100
AcDbArc
 50
273.4081489999999
 51
279.3057319999999
  0
LINE
  5
2194
330
1F
100
AcDbEntity
  8
1
100
AcDbLine
 10
10.31077499999998
 20
6.5
 30
0.0
 11
10.31077499999998
 21
4.153312
 31
0.0
  0
LINE
  5
2195
330
1F
100
AcDbEntity
  8
1
100
AcDbLine
 10
2.0
 20
-3.464101999999996
 30
0.0
 11
2.0
 21
-4.153312
 31
0.0
  0
LINE
  5
2196
330
1F
100
AcDbEntity
  8
1
100
AcDbLine
 10
2.0
 20
3.464101999999996
 30
0.0
 11
2.0
 21
-3.464101999999996
 31
0.0
  0
LINE
  5
2197
330
1F
100
AcDbEntity
  8
1
100
AcDbLine
 10
2.0
 20
4.153312
 30
0.0
 11
2.0
 21
3.464101999999996
 31
0.0
  0
LINE
  5
2198
330
1F
100
AcDbEntity
  8
1
100
AcDbLine
 10
0.0
 20
-5.704286999999991
 30
0.0
 11
0.0
 21
6.5
 31
0.0
  0
LINE
  5
2199
330
1F
100
AcDbEntity
  8
SK1
100
AcDbLine
 10
-5.142369999999998
 20
2.037558999999987
 30
0.0
 11
-5.142369999999998
 21
-4.25
 31
0.0
  0
LINE
  5
219A
330
1F
100
AcDbEntity
  8
SK1
100
AcDbLine
 10
-5.142369999999998
 20
4.25
 30
0.0
 11
-5.142369999999998
 21
2.037558999999987
 31
0.0
  0
LINE
  5
219B
330
1F
100
AcDbEntity
  8
1
100
AcDbLine
 10
0.0
 20
-6.5
 30
0.0
 11
0.0
 21
-5.704286999999991
 31
0.0
  0
LINE
  5
219C
330
1F
100
AcDbEntity
  8
SK1
100
AcDbLine
 10
-17.50000000000003
 20
1.917701999999991
 30
0.0
 11
-17.50000000000003
 21
-4.0
 31
0.0
  0
LINE
  5
219D
330
1F
100
AcDbEntity
  8
SK1
100
AcDbLine
 10
-8.564734000000017
 20
1.917701999999991
 30
0.0
 11
-8.564734000000017
 21
-4.0
 31
0.0
  0
LINE
  5
219E
330
1F
100
AcDbEntity
  8
SK1
100
AcDbLine
 10
-8.564734000000017
 20
4.0
 30
0.0
 11
-8.564734000000017
 21
1.917701999999991
 31
0.0
  0
LINE
  5
219F
330
1F
100
AcDbEntity
  8
SK1
100
AcDbLine
 10
-17.50000000000003
 20
4.0
 30
0.0
 11
-17.50000000000003
 21
1.917701999999991
 31
0.0
  0
SPLINE
  5
21A0
330
1F
100
AcDbEntity
  8
1
100
AcDbSpline
210
0.0
220
0.0
230
1.0
 70
     8
 71
     5
 72
    27
 73
    21
 74
     0
 42
0.000000001
 43
0.0000000001
 40
0.0
 40
0.0
 40
0.0
 40
0.0
 40
0.0
 40
0.0
 40
0.8625772645453173
 40
0.8625772645453173
 40
0.8625772645453173
 40
1.463823715954609
 40
1.463823715954609
 40
1.463823715954609
 40
1.8642477199646
 40
1.8642477199646
 40
1.8642477199646
 40
2.170131928181379
 40
2.170131928181379
 40
2.170131928181379
 40
2.778616122554379
 40
2.778616122554379
 40
2.778616122554379
 40
2.966824662000077
 40
2.966824662000077
 40
2.966824662000077
 40
2.966824662000077
 40
2.966824662000077
 40
2.966824662000077
 10
14.71848770760326
 20
-3.315376024998812
 30
0.0
 10
14.72080434900872
 20
-3.393998157044621
 30
0.0
 10
14.70784235035632
 20
-3.485217076529466
 30
0.0
 10
14.68321789333712
 20
-3.58213719223366
 30
0.0
 10
14.62892184335286
 20
-3.743816264536263
 30
0.0
 10
14.55132261116842
 20
-3.895547070090686
 30
0.0
 10
14.5150448779041
 20
-3.955386329280826
 30
0.0
 10
14.44648994630575
 20
-4.047917787133485
 30
0.0
 10
14.35444712324207
 20
-4.113144901786768
 30
0.0
 10
14.3134543501553
 20
-4.132677982935603
 30
0.0
 10
14.23321884496127
 20
-4.149707221122696
 30
0.0
 10
14.15137151088871
 20
-4.141722677664346
 30
0.0
 10
14.11606225375294
 20
-4.13432716660688
 30
0.0
 10
14.01392280231164
 20
-4.104226336629551
 30
0.0
 10
13.91923484833387
 20
-4.053812230877014
 30
0.0
 10
13.86027474418265
 20
-4.015393042841536
 30
0.0
 10
13.78786062942515
 20
-3.958482897878751
 30
0.0
 10
13.7242221314026
 20
-3.894100574139145
 30
0.0
 10
13.70969633937776
 20
-3.878468181244043
 30
0.0
 10
13.69575639167402
 20
-3.862461534665185
 30
0.0
 10
13.68243488188375
 20
-3.846070878294283
 30
0.0
  0
ARC
  5
21A1
330
1F
100
AcDbEntity
  8
1
100
AcDbCircle
 10
14.09950699999999
 20
-3.484844000000009
 30
0.0
 40
0.5512200000000065
100
AcDbArc
 50
191.990414
 51
220.895921
  0
ARC
  5
21A2
330
1F
100
AcDbEntity
  8
1
100
AcDbCircle
 10
14.466015
 20
-3.304796000000008
 30
0.0
 40
0.2519659999999879
100
AcDbArc
 50
357.600397
 51
34.57844100000001
  0
SPLINE
  5
21A3
330
1F
100
AcDbEntity
  8
1
100
AcDbSpline
210
0.0
220
0.0
230
1.0
 70
     8
 71
     5
 72
    24
 73
    18
 74
     0
 42
0.000000001
 43
0.0000000001
 40
0.0
 40
0.0
 40
0.0
 40
0.0
 40
0.0
 40
0.0
 40
0.5927245669119829
 40
0.5927245669119829
 40
0.5927245669119829
 40
1.145904440669362
 40
1.145904440669362
 40
1.145904440669362
 40
2.007903470715206
 40
2.007903470715206
 40
2.007903470715206
 40
2.474119947617759
 40
2.474119947617759
 40
2.474119947617759
 40
2.746673708565483
 40
2.746673708565483
 40
2.746673708565483
 40
2.746673708565483
 40
2.746673708565483
 40
2.746673708565483
 10
14.67294023726674
 20
-3.162163075606116
 30
0.0
 10
14.64806300948473
 20
-3.131553137060108
 30
0.0
 10
14.61440665976173
 20
-3.11065897142899
 30
0.0
 10
14.57196916552556
 20
-3.099786104708669
 30
0.0
 10
14.47363866178847
 20
-3.091741747422589
 30
0.0
 10
14.3517962076979
 20
-3.099604278858408
 30
0.0
 10
14.28774898522013
 20
-3.105189591485923
 30
0.0
 10
14.1252683083504
 20
-3.122586538579839
 30
0.0
 10
13.96278033366025
 20
-3.153001693282731
 30
0.0
 10
13.86586732644764
 20
-3.179042924382968
 30
0.0
 10
13.72759748156005
 20
-3.238029499593921
 30
0.0
 10
13.62672153679819
 20
-3.333819027118266
 30
0.0
 10
13.59754972944512
 20
-3.372333616243026
 30
0.0
 10
13.56484072164594
 20
-3.440399499106973
 30
0.0
 10
13.55445463241395
 20
-3.514877691729934
 30
0.0
 10
13.55373588230145
 20
-3.543139144663143
 30
0.0
 10
13.55594833322684
 20
-3.571258338516628
 30
0.0
 10
13.56081261841669
 20
-3.599252452487093
 30
0.0
  0
LINE
  5
21A4
330
1F
100
AcDbEntity
  8
1
100
AcDbLine
 10
16.23358999999999
 20
3.867753999999991
 30
0.0
 11
16.34738199999998
 21
6.691371000000001
 31
0.0
  0
ELLIPSE
  5
21A5
330
1F
100
AcDbEntity
  8
1
100
AcDbEllipse
 10
17.23215999999999
 20
12.59020899999999
 30
0.0
 11
0.0
 21
-8.857481956481931
 31
0.0
210
0.0
220
0.0
230
1.0
 40
0.9961949999999999
 41
5.591346039588151
 42
5.977178886789125
  0
LINE
  5
21A6
330
1F
100
AcDbEntity
  8
1
100
AcDbLine
 10
16.22337099999999
 20
-2.994029000000011
 30
0.0
 11
16.24563499999999
 21
-2.991411999999995
 31
0.0
  0
ELLIPSE
  5
21A7
330
1F
100
AcDbEntity
  8
1
100
AcDbEllipse
 10
16.30014699999998
 20
-3.724835000000012
 30
0.0
 11
0.0696905478835106
 21
-0.7964633703231812
 31
0.0
210
0.0
220
0.0
230
0.9999999999999998
 40
0.040541
 41
3.141591410803513
 42
3.54694806243084
  0
ELLIPSE
  5
21A8
330
1F
100
AcDbEntity
  8
1
100
AcDbEllipse
 10
16.637743
 20
-3.695794000000006
 30
0.0
 11
0.0697245970368386
 21
-0.7969557642936716
 31
0.0
210
0.0
220
0.0
230
0.9999999999999998
 40
0.075267
 41
3.864329063507658
 42
5.06145483078355
  0
LINE
  5
21A9
330
1F
100
AcDbEntity
  8
1
100
AcDbLine
 10
11.50772799999999
 20
-4.419274000000001
 30
0.0
 11
16.605223
 21
-3.97330099999999
 31
0.0
  0
LINE
  5
21AA
330
1F
100
AcDbEntity
  8
1
100
AcDbLine
 10
22.49527699999999
 20
-3.457987999999998
 30
0.0
 11
16.605223
 21
-3.97330099999999
 31
0.0
  0
LINE
  5
21AB
330
1F
100
AcDbEntity
  8
1
100
AcDbLine
 10
16.605223
 20
-3.97330099999999
 30
0.0
 11
16.863517
 21
-6.216223000000012
 31
0.0
  0
LINE
  5
21AC
330
1F
100
AcDbEntity
  8
1
100
AcDbLine
 10
19.86920799999999
 20
-7.171460999999991
 30
0.0
 11
18.39999999999998
 21
-7.300000000000013
 31
0.0
  0
LINE
  5
21AD
330
1F
100
AcDbEntity
  8
1
100
AcDbLine
 10
18.39999999999998
 20
-7.300000000000013
 30
0.0
 11
14.59999999999999
 21
-7.300000000000013
 31
0.0
  0
LINE
  5
21AE
330
1F
100
AcDbEntity
  8
1
100
AcDbLine
 10
16.20729799999998
 20
7.300000000000013
 30
0.0
 11
14.59999999999999
 21
7.300000000000013
 31
0.0
  0
LINE
  5
21AF
330
1F
100
AcDbEntity
  8
1
100
AcDbLine
 10
11.35033299999998
 20
6.609262000000001
 30
0.0
 11
14.59999999999999
 21
7.300000000000013
 31
0.0
  0
LINE
  5
21B0
330
1F
100
AcDbEntity
  8
1
100
AcDbLine
 10
11.35033299999998
 20
-6.609262000000001
 30
0.0
 11
14.59999999999999
 21
-7.300000000000013
 31
0.0
  0
ARC
  5
21B1
330
1F
100
AcDbEntity
  8
1
100
AcDbCircle
 10
10.31051299999999
 20
-11.50153900000001
 30
0.0
 40
5.001560000000011
100
AcDbArc
 50
78.00073700000007
 51
82.07629700000007
  0
LINE
  5
21B2
330
1F
100
AcDbEntity
  8
1
100
AcDbLine
 10
10.833417
 20
-6.527390999999994
 30
0.0
 11
11.0
 21
-6.547730999999997
 31
0.0
  0
ARC
  5
21B3
330
1F
100
AcDbEntity
  8
1
100
AcDbCircle
 10
10.31077499999998
 20
-11.49999800000001
 30
0.0
 40
4.99999799999999
100
AcDbArc
 50
83.99999900000009
 51
90.00000100000011
  0
ARC
  5
21B4
330
1F
100
AcDbEntity
  8
1
100
AcDbCircle
 10
10.31077499999998
 20
11.49999800000001
 30
0.0
 40
4.999998000000007
100
AcDbArc
 50
275.9999990000002
 51
282.0000010000001
  0
ARC
  5
21B5
330
1F
100
AcDbEntity
  8
1
100
AcDbCircle
 10
10.31077499999998
 20
11.49999800000001
 30
0.0
 40
4.999998000000005
100
AcDbArc
 50
269.9999990000001
 51
276.0000010000001
  0
LINE
  5
21B6
330
1F
100
AcDbEntity
  8
1
100
AcDbLine
 10
10.31077499999998
 20
-6.5
 30
0.0
 11
2.0
 21
-6.5
 31
0.0
  0
LINE
  5
21B7
330
1F
100
AcDbEntity
  8
1
100
AcDbLine
 10
10.31077499999998
 20
6.5
 30
0.0
 11
0.0
 21
6.5
 31
0.0
  0
ARC
  5
21B8
330
1F
100
AcDbEntity
  8
SK1
100
AcDbCircle
 10
-6.928438999999997
 20
-5.150006999999988
 30
0.0
 40
2.000013999999999
100
AcDbArc
 50
26.74371299999966
 51
35.09960299999965
  0
ARC
  5
21B9
330
1F
100
AcDbEntity
  8
SK1
100
AcDbCircle
 10
-6.928438999999997
 20
5.150006999999988
 30
0.0
 40
2.000014000000001
100
AcDbArc
 50
324.9003970000003
 51
333.2562870000002
  0
LINE
  5
21BA
330
1F
100
AcDbEntity
  8
1
100
AcDbLine
 10
2.0
 20
-6.5
 30
0.0
 11
0.0
 21
-6.5
 31
0.0
  0
LINE
  5
21BB
330
1F
100
AcDbEntity
  8
SK1
100
AcDbLine
 10
0.0
 20
-4.25
 30
0.0
 11
-5.142369999999998
 21
-4.25
 31
0.0
  0
LINE
  5
21BC
330
1F
100
AcDbEntity
  8
SK1
100
AcDbLine
 10
0.0
 20
4.25
 30
0.0
 11
-5.142369999999998
 21
4.25
 31
0.0
  0
LINE
  5
21BD
330
1F
100
AcDbEntity
  8
SK1
100
AcDbLine
 10
-8.564734000000017
 20
-4.0
 30
0.0
 11
-17.50000000000003
 21
-4.0
 31
0.0
  0
LINE
  5
21BE
330
1F
100
AcDbEntity
  8
SK1
100
AcDbLine
 10
-8.564734000000017
 20
4.0
 30
0.0
 11
-17.50000000000003
 21
4.0
 31
0.0
  0
ARC
  5
21BF
330
1F
100
AcDbEntity
  8
SK1
100
AcDbCircle
 10
-6.928426999999999
 20
5.150000000000004
 30
0.0
 40
2.000000000000003
100
AcDbArc
 50
215.099632
 51
324.9003680000001
  0
ARC
  5
21C0
330
1F
100
AcDbEntity
  8
SK1
100
AcDbCircle
 10
-6.928426999999999
 20
-5.150000000000004
 30
0.0
 40
2.000000000000003
100
AcDbArc
 50
35.09963200000005
 51
144.900368
  0
LINE
  5
21C1
330
1F
100
AcDbEntity
  8
1
100
AcDbLine
 10
22.569796
 20
3.367342000000008
 30
0.0
 11
22.65671599999999
 21
3.604937000000006
 31
0.0
  0
LINE
  5
21C2
330
1F
100
AcDbEntity
  8
1
100
AcDbLine
 10
16.41248999999999
 20
3.852594000000011
 30
0.0
 11
16.41462199999998
 21
3.858419999999995
 31
0.0
  0
LINE
  5
21C3
330
1F
100
AcDbEntity
  8
1
100
AcDbLine
 10
16.41462199999998
 20
3.858419999999995
 30
0.0
 11
16.45092099999999
 21
3.850113999999991
 31
0.0
  0
ARC
  5
21C4
330
1F
100
AcDbEntity
  8
1
100
AcDbCircle
 10
20.18978199999998
 20
20.51084800000001
 30
0.0
 40
17.08495100000001
100
AcDbArc
 50
276.311049
 51
278.302088
  0
ELLIPSE
  5
21C5
330
1F
100
AcDbEntity
  8
1
100
AcDbEllipse
 10
19.36043599999999
 20
5.438937000000008
 30
0.0
 11
0.0
 21
-1.059999942779539
 31
0.0
210
0.0
220
0.0
230
1.0
 40
0.9961949999999999
 41
0.1158019612685217
 42
3.025779249096292
  0
ARC
  5
21C6
330
1F
100
AcDbEntity
  8
1
100
AcDbCircle
 10
22.48443899999998
 20
3.432265000000001
 30
0.0
 40
0.2064869999999938
100
AcDbArc
 50
304.0379999999988
 51
340.1233899999988
  0
ARC
  5
21C7
330
1F
100
AcDbEntity
  8
1
100
AcDbCircle
 10
22.61425399999999
 20
3.810484999999999
 30
0.0
 40
0.2145469999999993
100
AcDbArc
 50
339.9336169999962
 51
357.7025749999961
  0
ARC
  5
21C8
330
1F
100
AcDbEntity
  8
1
100
AcDbCircle
 10
22.62537699999999
 20
3.804019000000011
 30
0.0
 40
0.2017090000000113
100
AcDbArc
 50
278.9460619999971
 51
340.5742229999972
  0
ARC
  5
21C9
330
1F
100
AcDbEntity
  8
1
100
AcDbCircle
 10
16.46434699999998
 20
4.057060000000006
 30
0.0
 40
0.2051770000000098
100
AcDbArc
 50
176.7643730000019
 51
255.946233000002
  0
LINE
  5
21CA
330
1F
100
AcDbEntity
  8
1
100
AcDbLine
 10
16.23952899999998
 20
4.015116000000006
 30
0.0
 11
16.259118
 21
4.068661999999988
 31
0.0
  0
LINE
  5
21CB
330
1F
100
AcDbEntity
  8
1
100
AcDbLine
 10
22.94982499999998
 20
6.809212000000002
 30
0.0
 11
22.82862999999998
 21
3.801884000000001
 31
0.0
  0
ARC
  5
21CC
330
1F
100
AcDbEntity
  8
1
100
AcDbCircle
 10
22.74696299999999
 20
6.823462000000006
 30
0.0
 40
0.201795999999997
100
AcDbArc
 50
15.25159899999834
 51
76.41571499999834
  0
ARC
  5
21CD
330
1F
100
AcDbEntity
  8
1
100
AcDbCircle
 10
22.73544299999998
 20
6.817892999999997
 30
0.0
 40
0.214556999999988
100
AcDbArc
 50
357.6811999999967
 51
15.87705199999662
  0
ARC
  5
21CE
330
1F
100
AcDbEntity
  8
1
100
AcDbCircle
 10
18.99973299999999
 20
-9.439373999999988
 30
0.0
 40
16.89048299999999
100
AcDbArc
 50
77.01729199999997
 51
98.33169999999995
  0
ARC
  5
21CF
330
1F
100
AcDbEntity
  8
1
100
AcDbCircle
 10
16.58565399999998
 20
7.071076000000005
 30
0.0
 40
0.2050180000000094
100
AcDbArc
 50
99.40257600000295
 51
178.628983000003
  0
LINE
  5
21D0
330
1F
100
AcDbEntity
  8
1
100
AcDbLine
 10
16.259118
 20
4.068661999999988
 30
0.0
 11
16.380314
 21
7.07598999999999
 31
0.0
  0
ELLIPSE
  5
21D1
330
1F
100
AcDbEntity
  8
1
100
AcDbEllipse
 10
19.60447199999999
 20
5.438937000000008
 30
0.0
 11
0.0
 21
-1.059999942779539
 31
0.0
210
0.0
220
0.0
230
1.0
 40
0.9961949999999999
 41
3.141714231701036
 42
6.283306885290826
  0
ELLIPSE
  5
21D2
330
1F
100
AcDbEntity
  8
1
100
AcDbEllipse
 10
19.60447199999999
 20
5.438937000000008
 30
0.0
 11
0.0
 21
-1.059999942779539
 31
0.0
210
0.0
220
0.0
230
1.0
 40
0.9961949999999999
 41
0.0001215781112411
 42
1.530364403018715
  0
ELLIPSE
  5
21D3
330
1F
100
AcDbEntity
  8
1
100
AcDbEllipse
 10
19.60447199999999
 20
5.438937000000008
 30
0.0
 11
0.0
 21
-1.059999942779539
 31
0.0
210
0.0
220
0.0
230
1.0
 40
0.9961949999999999
 41
1.530364403018715
 42
3.141714231701036
  0
LINE
  5
21D4
330
1F
100
AcDbEntity
  8
1
100
AcDbLine
 10
16.380314
 20
7.07598999999999
 30
0.0
 11
16.27340099999998
 21
7.450813000000011
 31
0.0
  0
LINE
  5
21D5
330
1F
100
AcDbEntity
  8
1
100
AcDbLine
 10
16.19661699999997
 20
7.240927999999997
 30
0.0
 11
16.27340099999998
 21
7.450813000000011
 31
0.0
  0
ARC
  5
21D6
330
1F
100
AcDbEntity
  8
1
100
AcDbCircle
 10
16.48765799999998
 20
7.442235000000011
 30
0.0
 40
0.2144280000000073
100
AcDbArc
 50
159.928382999999
 51
177.707342999999
  0
ARC
  5
21D7
330
1F
100
AcDbEntity
  8
1
100
AcDbCircle
 10
16.476652
 20
7.448678999999997
 30
0.0
 40
0.2017080000000126
100
AcDbArc
 50
98.94575900000166
 51
160.5743440000016
  0
LINE
  5
21D8
330
1F
100
AcDbEntity
  8
1
100
AcDbLine
 10
22.687409
 20
7.394277999999986
 30
0.0
 11
22.60040699999999
 21
7.414046000000013
 31
0.0
  0
LINE
  5
21D9
330
1F
100
AcDbEntity
  8
1
100
AcDbLine
 10
16.445314
 20
7.647760000000003
 30
0.0
 11
16.53358599999999
 21
7.660403999999998
 31
0.0
  0
ARC
  5
21DA
330
1F
100
AcDbEntity
  8
1
100
AcDbCircle
 10
22.640051
 20
7.198284000000001
 30
0.0
 40
0.2017959999999845
100
AcDbArc
 50
15.25113299999873
 51
76.41586399999872
  0
LINE
  5
21DB
330
1F
100
AcDbEntity
  8
1
100
AcDbLine
 10
22.79432199999999
 20
7.019454999999994
 30
0.0
 11
22.687409
 21
7.394277999999986
 31
0.0
  0
ARC
  5
21DC
330
1F
100
AcDbEntity
  8
1
100
AcDbCircle
 10
-31.90142500000002
 20
-1260.612291
 30
0.0
 40
1269.197151
100
AcDbArc
 50
87.538849
 51
87.812952
  0
LINE
  5
21DD
330
1F
100
AcDbEntity
  8
1
100
AcDbLine
 10
16.55222699999999
 20
7.272937000000013
 30
0.0
 11
16.445314
 21
7.647760000000003
 31
0.0
  0
LINE
  5
21DE
330
1F
100
AcDbEntity
  8
1
100
AcDbLine
 10
22.678653
 20
3.362050000000011
 30
0.0
 11
22.815776
 21
3.736873000000001
 31
0.0
  0
LINE
  5
21DF
330
1F
100
AcDbEntity
  8
1
100
AcDbLine
 10
16.18913799999999
 20
7.250359000000002
 30
0.0
 11
16.28625499999998
 21
7.515825000000008
 31
0.0
  0
LINE
  5
21E0
330
1F
100
AcDbEntity
  8
1
100
AcDbLine
 10
22.941813
 20
6.876589999999991
 30
0.0
 11
22.834901
 21
7.25141099999999
 31
0.0
  0
LINE
  5
21E1
330
1F
100
AcDbEntity
  8
1
100
AcDbLine
 10
22.59999999999999
 20
1.990598000000004
 30
0.0
 11
22.65671599999999
 21
2.566910000000005
 31
0.0
  0
LINE
  5
21E2
330
1F
100
AcDbEntity
  8
1
100
AcDbLine
 10
22.59999999999999
 20
2.571872000000013
 30
0.0
 11
22.65671599999999
 21
2.566910000000005
 31
0.0
  0
LINE
  5
21E3
330
1F
100
AcDbEntity
  8
1
100
AcDbLine
 10
22.69150599999998
 20
1.158519000000011
 30
0.0
 11
22.59999999999999
 21
1.166523000000011
 31
0.0
  0
LINE
  5
21E4
330
1F
100
AcDbEntity
  8
1
100
AcDbLine
 10
22.69150599999998
 20
1.158519000000011
 30
0.0
 11
22.62121299999998
 21
0.2406709999999919
 31
0.0
  0
LINE
  5
21E5
330
1F
100
AcDbEntity
  8
1
100
AcDbLine
 10
22.65671599999999
 20
2.566910000000005
 30
0.0
 11
22.82862999999998
 21
2.551870000000008
 31
0.0
  0
LINE
  5
21E6
330
1F
100
AcDbEntity
  8
1
100
AcDbLine
 10
22.69150599999998
 20
1.158519000000011
 30
0.0
 11
22.82862999999998
 21
2.551870000000008
 31
0.0
  0
LINE
  5
21E7
330
1F
100
AcDbEntity
  8
1
100
AcDbLine
 10
22.94982499999998
 20
2.541267000000003
 30
0.0
 11
22.82862999999998
 21
2.551870000000008
 31
0.0
  0
LINE
  5
21E8
330
1F
100
AcDbEntity
  8
1
100
AcDbLine
 10
22.73029599999998
 20
0.0009400000000142
 30
0.0
 11
22.84291299999998
 21
1.145272000000004
 31
0.0
  0
LINE
  5
21E9
330
1F
100
AcDbEntity
  8
1
100
AcDbLine
 10
22.94982499999998
 20
2.541267000000003
 30
0.0
 11
22.84291299999998
 21
1.145272000000004
 31
0.0
  0
LINE
  5
21EA
330
1F
100
AcDbEntity
  8
1
100
AcDbLine
 10
22.73038399999999
 20
0.0000459999999975
 30
0.0
 11
22.843087
 21
1.145256999999987
 31
0.0
  0
LINE
  5
21EB
330
1F
100
AcDbEntity
  8
1
100
AcDbLine
 10
22.94999999999999
 20
2.541250999999988
 30
0.0
 11
22.843087
 21
1.145256999999987
 31
0.0
  0
LINE
  5
21EC
330
1F
100
AcDbEntity
  8
1
100
AcDbLine
 10
22.51959299999999
 20
-3.230115000000012
 30
0.0
 11
22.47264699999999
 21
-3.223331999999998
 31
0.0
  0
LINE
  5
21ED
330
1F
100
AcDbEntity
  8
1
100
AcDbLine
 10
22.51959299999999
 20
-3.230115000000012
 30
0.0
 11
22.484533
 21
-3.353032000000013
 31
0.0
  0
ARC
  5
21EE
330
1F
100
AcDbEntity
  8
1
100
AcDbCircle
 10
22.37373799999997
 20
-3.809554999999988
 30
0.0
 40
0.2109469999999871
100
AcDbArc
 50
2.083506000002238
 51
47.44083400000222
  0
ARC
  5
21EF
330
1F
100
AcDbEntity
  8
1
100
AcDbCircle
 10
18.75591499999998
 20
9.436702999999994
 30
0.0
 40
16.88781600000001
100
AcDbArc
 50
262.328064
 51
282.984022
  0
ARC
  5
21F0
330
1F
100
AcDbEntity
  8
1
100
AcDbCircle
 10
22.50056099999998
 20
-6.820814000000012
 30
0.0
 40
0.2051770000000092
100
AcDbArc
 50
284.0537669999974
 51
3.235626999997392
  0
LINE
  5
21F1
330
1F
100
AcDbEntity
  8
1
100
AcDbLine
 10
22.70578899999998
 20
-6.809212000000002
 30
0.0
 11
22.58459399999998
 21
-3.801884000000001
 31
0.0
  0
ARC
  5
21F2
330
1F
100
AcDbEntity
  8
1
100
AcDbCircle
 10
22.47724599999998
 20
-3.435640000000006
 30
0.0
 40
0.2144310000000064
100
AcDbArc
 50
2.292659000001799
 51
20.0713270000018
  0
ARC
  5
21F3
330
1F
100
AcDbEntity
  8
1
100
AcDbCircle
 10
22.48825399999998
 20
-3.42919599999999
 30
0.0
 40
0.2017090000000043
100
AcDbArc
 50
19.42588899999932
 51
81.05409899999932
  0
LINE
  5
21F4
330
1F
100
AcDbEntity
  8
1
100
AcDbLine
 10
22.69150599999998
 20
-3.427062000000006
 30
0.0
 11
22.58459399999998
 21
-3.801884000000001
 31
0.0
  0
ARC
  5
21F5
330
1F
100
AcDbEntity
  8
1
100
AcDbCircle
 10
22.61425399999999
 20
-3.810484999999999
 30
0.0
 40
0.2145470000000123
100
AcDbArc
 50
2.297424999997013
 51
20.06638299999702
  0
LINE
  5
21F6
330
1F
100
AcDbEntity
  8
1
100
AcDbLine
 10
22.69150599999998
 20
-3.427062000000006
 30
0.0
 11
22.82862999999998
 21
-3.801884000000001
 31
0.0
  0
LINE
  5
21F7
330
1F
100
AcDbEntity
  8
1
100
AcDbLine
 10
22.94982499999998
 20
-6.809212000000002
 30
0.0
 11
22.82862999999998
 21
-3.801884000000001
 31
0.0
  0
ARC
  5
21F8
330
1F
100
AcDbEntity
  8
1
100
AcDbCircle
 10
22.73544299999998
 20
-6.817892999999997
 30
0.0
 40
0.2145570000000056
100
AcDbArc
 50
344.122948000003
 51
2.318800000002998
  0
ARC
  5
21F9
330
1F
100
AcDbEntity
  8
1
100
AcDbCircle
 10
16.476652
 20
-7.448678999999997
 30
0.0
 40
0.201707999999988
100
AcDbArc
 50
199.4256560000007
 51
261.0542410000008
  0
LINE
  5
21FA
330
1F
100
AcDbEntity
  8
1
100
AcDbLine
 10
16.31809099999998
 20
-7.300000000000013
 30
0.0
 11
16.445314
 21
-7.647760000000003
 31
0.0
  0
LINE
  5
21FB
330
1F
100
AcDbEntity
  8
1
100
AcDbLine
 10
22.550286
 20
-7.019454999999994
 30
0.0
 11
22.687409
 21
-7.394277999999986
 31
0.0
  0
LINE
  5
21FC
330
1F
100
AcDbEntity
  8
1
100
AcDbLine
 10
22.687409
 20
-7.394277999999986
 30
0.0
 11
22.60040699999999
 21
-7.414046000000013
 31
0.0
  0
ARC
  5
21FD
330
1F
100
AcDbEntity
  8
1
100
AcDbCircle
 10
71.03456099999997
 20
-1275.66356
 30
0.0
 40
1269.173961
100
AcDbArc
 50
92.187049
 51
92.46115600000001
  0
LINE
  5
21FE
330
1F
100
AcDbEntity
  8
1
100
AcDbLine
 10
16.445314
 20
-7.647760000000003
 30
0.0
 11
16.53358599999999
 21
-7.660403999999998
 31
0.0
  0
ARC
  5
21FF
330
1F
100
AcDbEntity
  8
1
100
AcDbCircle
 10
22.640051
 20
-7.198284000000001
 30
0.0
 40
0.2017960000000027
100
AcDbArc
 50
283.5841359999957
 51
344.7488669999958
  0
ARC
  5
2200
330
1F
100
AcDbEntity
  8
1
100
AcDbCircle
 10
22.62862899999999
 20
-7.192727999999986
 30
0.0
 40
0.21445800000001
100
AcDbArc
 50
344.1192989999989
 51
2.323049999998938
  0
LINE
  5
2201
330
1F
100
AcDbEntity
  8
1
100
AcDbLine
 10
22.70578899999998
 20
-6.809212000000002
 30
0.0
 11
22.84291299999998
 21
-7.184034999999994
 31
0.0
  0
LINE
  5
2202
330
1F
100
AcDbEntity
  8
1
100
AcDbLine
 10
22.94982499999998
 20
-6.809212000000002
 30
0.0
 11
22.84291299999998
 21
-7.184034999999994
 31
0.0
  0
ARC
  5
2203
330
1F
100
AcDbEntity
  8
1
100
AcDbCircle
 10
-31.90142500000002
 20
1260.612291
 30
0.0
 40
1269.197151
100
AcDbArc
 50
272.187048
 51
272.461151
  0
LINE
  5
2204
330
1F
100
AcDbEntity
  8
1
100
AcDbLine
 10
22.678653
 20
-3.362050000000011
 30
0.0
 11
22.815776
 21
-3.736873000000001
 31
0.0
  0
LINE
  5
2205
330
1F
100
AcDbEntity
  8
1
100
AcDbLine
 10
16.20729799999998
 20
-7.300000000000013
 30
0.0
 11
16.28625499999998
 21
-7.515825000000008
 31
0.0
  0
LINE
  5
2206
330
1F
100
AcDbEntity
  8
1
100
AcDbLine
 10
22.941813
 20
-6.876589999999991
 30
0.0
 11
22.834901
 21
-7.25141099999999
 31
0.0
  0
LINE
  5
2207
330
1F
100
AcDbEntity
  8
1
100
AcDbLine
 10
16.30819099999999
 20
-0.3116390000000138
 30
0.0
 11
22.550286
 21
0.2344740000000058
 31
0.0
  0
LINE
  5
2208
330
1F
100
AcDbEntity
  8
1
100
AcDbLine
 10
22.550286
 20
0.2344740000000058
 30
0.0
 11
22.705871
 21
0.2480860000000007
 31
0.0
  0
LINE
  5
2209
330
1F
100
AcDbEntity
  8
1
100
AcDbLine
 10
16.23952899999998
 20
-2.927579000000008
 30
0.0
 11
16.259118
 21
-3.126628000000011
 31
0.0
  0
LINE
  5
220A
330
1F
100
AcDbEntity
  8
1
100
AcDbLine
 10
22.79432199999999
 20
-2.55487099999999
 30
0.0
 11
22.94982499999998
 21
-2.541267000000003
 31
0.0
  0
LINE
  5
220B
330
1F
100
AcDbEntity
  8
1
100
AcDbLine
 10
16.55222699999999
 20
-3.100984000000011
 30
0.0
 11
22.79432199999999
 21
-2.55487099999999
 31
0.0
  0
LINE
  5
220C
330
1F
100
AcDbEntity
  8
1
100
AcDbLine
 10
16.55222699999999
 20
-3.100984000000011
 30
0.0
 11
16.380314
 21
-3.116024000000008
 31
0.0
  0
LINE
  5
220D
330
1F
100
AcDbEntity
  8
1
100
AcDbLine
 10
16.259118
 20
-3.126628000000011
 30
0.0
 11
16.380314
 21
-3.116024000000008
 31
0.0
  0
LINE
  5
220E
330
1F
100
AcDbEntity
  8
1
100
AcDbLine
 10
16.380314
 20
-3.116024000000008
 30
0.0
 11
16.27340099999998
 21
-1.720030000000006
 31
0.0
  0
LINE
  5
220F
330
1F
100
AcDbEntity
  8
1
100
AcDbLine
 10
16.19621099999998
 20
-0.935686000000004
 30
0.0
 11
16.27340099999998
 21
-1.720030000000006
 31
0.0
  0
LINE
  5
2210
330
1F
100
AcDbEntity
  8
1
100
AcDbLine
 10
16.27340099999998
 20
-1.720030000000006
 30
0.0
 11
16.445314
 21
-1.704990000000007
 31
0.0
  0
LINE
  5
2211
330
1F
100
AcDbEntity
  8
1
100
AcDbLine
 10
16.30819099999999
 20
-0.3116390000000138
 30
0.0
 11
16.445314
 21
-1.704990000000007
 31
0.0
  0
LINE
  5
2212
330
1F
100
AcDbEntity
  8
1
100
AcDbLine
 10
22.550286
 20
0.2344740000000058
 30
0.0
 11
22.687409
 21
-1.158876999999989
 31
0.0
  0
LINE
  5
2213
330
1F
100
AcDbEntity
  8
1
100
AcDbLine
 10
22.687409
 20
-1.158876999999989
 30
0.0
 11
22.60040699999999
 21
-1.166489000000011
 31
0.0
  0
SPLINE
  5
2214
330
1F
100
AcDbEntity
  8
1
100
AcDbSpline
210
0.0
220
0.0
230
1.0
 70
     8
 71
     5
 72
    18
 73
    12
 74
     0
 42
0.000000001
 43
0.0000000001
 40
0.502151655081422
 40
0.502151655081422
 40
0.502151655081422
 40
0.502151655081422
 40
0.502151655081422
 40
0.502151655081422
 40
4.066606102456836
 40
4.066606102456836
 40
4.066606102456836
 40
7.524212728860522
 40
7.524212728860522
 40
7.524212728860522
 40
11.51775886342234
 40
11.51775886342234
 40
11.51775886342234
 40
11.51775886342234
 40
11.51775886342234
 40
11.51775886342234
 10
16.53361261821112
 20
-1.697281567838388
 30
0.0
 10
16.87295801196979
 20
-1.421248696240098
 30
0.0
 10
17.22897844713853
 20
-1.171770086538771
 30
0.0
 10
17.6039299540767
 20
-0.9526784145752174
 30
0.0
 10
18.35797820572824
 20
-0.6049399403001985
 30
0.0
 10
19.15295932247543
 20
-0.4225138925694126
 30
0.0
 10
19.5608431770363
 20
-0.3758590216168614
 30
0.0
 10
20.42462227424997
 20
-0.3749940228705668
 30
0.0
 10
21.28138861832809
 20
-0.5700250111553375
 30
0.0
 10
21.7329417025278
 20
-0.727082057612421
 30
0.0
 10
22.17295785409738
 20
-0.9281666316578307
 30
0.0
 10
22.60041964848739
 20
-1.166472895855549
 30
0.0
  0
LINE
  5
2215
330
1F
100
AcDbEntity
  8
1
100
AcDbLine
 10
16.445314
 20
-1.704990000000007
 30
0.0
 11
16.53358599999999
 21
-1.69726700000001
 31
0.0
  0
LINE
  5
2216
330
1F
100
AcDbEntity
  8
1
100
AcDbLine
 10
22.687409
 20
-1.158876999999989
 30
0.0
 11
22.84291299999998
 21
-1.145272000000004
 31
0.0
  0
LINE
  5
2217
330
1F
100
AcDbEntity
  8
1
100
AcDbLine
 10
22.79432199999999
 20
-2.55487099999999
 30
0.0
 11
22.687409
 21
-1.158876999999989
 31
0.0
  0
SPLINE
  5
2218
330
1F
100
AcDbEntity
  8
1
100
AcDbSpline
210
0.0
220
0.0
230
1.0
 70
     8
 71
     5
 72
    18
 73
    12
 74
     0
 42
0.000000001
 43
0.0000000001
 40
0.5023872400998465
 40
0.5023872400998465
 40
0.5023872400998465
 40
0.5023872400998465
 40
0.5023872400998465
 40
0.5023872400998465
 40
4.764544049339538
 40
4.764544049339538
 40
4.764544049339538
 40
8.212081646334681
 40
8.212081646334681
 40
8.212081646334681
 40
11.52161577632496
 40
11.52161577632496
 40
11.52161577632496
 40
11.52161577632496
 40
11.52161577632496
 40
11.52161577632496
 10
16.53358672414177
 20
-1.697267132078508
 30
0.0
 10
16.98980086868494
 20
-1.95160442303637
 30
0.0
 10
17.46031996250258
 20
-2.163546790773835
 30
0.0
 10
17.94391790292323
 20
-2.32482428529755
 30
0.0
 10
18.83334596143121
 20
-2.505940553018943
 30
0.0
 10
19.7258385499654
 20
-2.474740376274468
 30
0.0
 10
20.13081222989001
 20
-2.414437739750268
 30
0.0
 10
20.89098170495396
 20
-2.213851737058063
 30
0.0
 10
21.61084104598891
 20
-1.863422662994764
 30
0.0
 10
21.95602305543397
 20
-1.656137953638051
 30
0.0
 10
22.28535385192112
 20
-1.422770713855668
 30
0.0
 10
22.6004038217431
 20
-1.16648577053462
 30
0.0
  0
LINE
  5
2219
330
1F
100
AcDbEntity
  8
1
100
AcDbLine
 10
16.55222699999999
 20
-3.100984000000011
 30
0.0
 11
16.445314
 21
-1.704990000000007
 31
0.0
  0
LINE
  5
221A
330
1F
100
AcDbEntity
  8
1
100
AcDbLine
 10
16.23935499999999
 20
-2.927594999999995
 30
0.0
 11
16.25894399999999
 21
-3.126643000000001
 31
0.0
  0
LINE
  5
221B
330
1F
100
AcDbEntity
  8
1
100
AcDbLine
 10
22.70596399999999
 20
0.2480940000000089
 30
0.0
 11
22.843087
 21
-1.145256999999987
 31
0.0
  0
LINE
  5
221C
330
1F
100
AcDbEntity
  8
1
100
AcDbLine
 10
22.94999999999999
 20
-2.541250999999988
 30
0.0
 11
22.843087
 21
-1.145256999999987
 31
0.0
  0
DIMENSION
  5
23FC
330
1F
100
AcDbEntity
  8
2
100
AcDbDimension
  2
*D6
 10
48.11864373746563
 20
-7.99994908746473
 30
0.0
 11
48.11864373746563
 21
-0.0873458894767163
 31
0.0
 70
   160
  1
%%c<>
 71
     5
 41
0.0
 42
15.99999999998948
  3
Standard
100
AcDbAlignedDimension
 13
22.94984370611968
 23
8.000050912524752
 33
0.0
 14
22.94986205065152
 24
-7.99994908746473
 34
0.0
 50
90.0
100
AcDbRotatedDimension
1001
ACAD
1000
DSTYLE
1002
{
1070
   282
1070
     1
1070
    76
1070
     1
1002
}
  0
LINE
  5
247D
330
1F
100
AcDbEntity
  8
SK4
100
AcDbLine
 10
0.0
 20
0.0
 30
0.0
 11
-21.45578100000003
 21
0.0
 31
0.0
  0
LINE
  5
27DA
330
1F
100
AcDbEntity
  8
SK3
100
AcDbLine
 10
12.20279335499562
 20
1.380801462665685
 30
0.0
 11
16.52245412025687
 21
4.203732237586355
 31
0.0
  0
LINE
  5
27DB
330
1F
100
AcDbEntity
  8
SK3
100
AcDbLine
 10
12.76436933038628
 20
0.4081240106192312
 30
0.0
 11
17.08403009564753
 21
3.231054785539897
 31
0.0
  0
DIMENSION
  5
2930
330
1F
100
AcDbEntity
  8
2
100
AcDbDimension
  2
*D12
 10
22.94982499999998
 20
44.43117033281576
 30
0.0
 11
11.47491249999999
 21
46.87872830892256
 31
0.0
 70
    32
  1
23
 71
     5
 41
0.0
 42
22.94982499999998
  3
Standard
100
AcDbAlignedDimension
 13
0.0
 23
0.0
 33
0.0
 14
22.94982499999998
 24
6.809212000000002
 34
0.0
100
AcDbRotatedDimension
  0
DIMENSION
  5
2A34
330
1F
100
AcDbEntity
  8
SK2
100
AcDbDimension
  2
*D13
 10
22.94982499999998
 20
52.49976880376485
 30
0.0
 11
2.724912499999978
 21
54.93625861402485
 31
0.0
 70
    32
  1
40.5
 71
     5
 41
0.0
 42
40.44982499999999
  3
Standard
100
AcDbAlignedDimension
 13
-17.50000000000003
 23
4.0
 33
0.0
 14
22.94982499999998
 24
6.809212000000002
 34
0.0
100
AcDbRotatedDimension
  0
LWPOLYLINE
  5
2E14
330
1F
100
AcDbEntity
  8
CUT
100
AcDbPolyline
 90
      796
 70
     1
 43
0.0
 10
16.5864965990916
 20
7.901576192132901
 42
-0.0785156572531743
 10
22.79632327697727
 20
7.46734616562357
 42
-0.3535069408394609
 10
22.95013775942837
 20
7.265101700308639
 10
22.95013799999998
 20
7.265101000000001
 10
22.86101612312352
 20
4.233336188439627
 10
22.86107970631986
 20
4.231695525188881
 10
22.86109764440315
 20
4.230064109869923
 10
22.86106982269714
 20
4.228437911447281
 10
22.86099603541901
 20
4.226817157176725
 10
22.86087613659642
 20
4.225202260333031
 10
22.86071003437057
 20
4.223593789113373
 10
22.86049768529931
 20
4.221992435540703
 10
22.86023908866016
 20
4.220398984367148
 10
22.85993428075336
 20
4.218814281977389
 10
22.85958332920501
 20
4.21723920529204
 10
22.85918632727003
 20
4.215674630671053
 10
22.85874338813532
 20
4.214121402817093
 10
22.85825463922275
 20
4.212580303678926
 10
22.85772021649227
 20
4.211052021354803
 10
22.85714025874496
 20
4.209537118995853
 10
22.85651490192607
 20
4.208036003709467
 10
22.85584427342813
 20
4.20654889546268
 10
22.855128485108
 20
4.205075795879174
 10
22.85436747757843
 20
4.203616483893026
 10
22.85356096938057
 20
4.202170747423463
 10
22.85270882257931
 20
4.200738566225291
 10
22.85181106733407
 20
4.199320099011863
 10
22.85086788220475
 20
4.197915658026738
 10
22.84987957445759
 20
4.196525683615373
 10
22.84884656037107
 20
4.195150718796799
 10
22.84776934554185
 20
4.193791383835296
 10
22.84664850519059
 20
4.192448350812073
 10
22.84548466446793
 20
4.191122318196941
 10
22.84427847876033
 20
4.189813985420001
 10
22.84303061399598
 20
4.188524027443314
 10
22.84174172695072
 20
4.187253069332581
 10
22.84041244555389
 20
4.186001660828826
 10
22.8390433491943
 20
4.184770250920061
 10
22.83763494902605
 20
4.183559162412985
 10
22.83618766827447
 20
4.182368566504639
 10
22.834701822542
 20
4.1811984573541
 10
22.83317757419895
 20
4.180048634847928
 10
22.8316147408503
 20
4.17891883839418
 10
22.83001315819092
 20
4.177808929507717
 10
22.82837291046138
 20
4.17671889093267
 10
22.82669430446681
 20
4.175648810308072
 10
22.82497784029439
 20
4.174598864159488
 10
22.82322418203077
 20
4.173569301890606
 10
22.82143412847954
 20
4.172560429774856
 10
22.81960858387864
 20
4.171572594947019
 10
22.81774852861786
 20
4.170606169394832
 10
22.81585498995622
 20
4.169661533950608
 10
22.81392901273947
 20
4.168739062282834
 10
22.81197163011748
 20
4.167839104887785
 10
22.80998383426174
 20
4.166961973081136
 10
22.80796654708278
 20
4.166107922989568
 10
22.8059205909476
 20
4.165277139542384
 10
22.80384665939713
 20
4.16446972046311
 10
22.80174528786368
 20
4.163685660261109
 10
22.79961682438838
 20
4.162924834223193
 10
22.79746138710534
 20
4.162186991654106
 10
22.79527878213793
 20
4.161471891142113
 10
22.79306887436551
 20
4.160779390115347
 10
22.79083178624166
 20
4.160109401182098
 10
22.78856787080855
 20
4.159461883808074
 10
22.78627768122784
 20
4.15883683721737
 10
22.78396194031139
 20
4.158234293293461
 10
22.78162151005209
 20
4.157654309480158
 10
22.77925736115467
 20
4.157096961682601
 10
22.7768705425664
 20
4.156562337168223
 10
22.77446215100802
 20
4.156050527467736
 10
22.77203330050443
 20
4.155561621276106
 10
22.76958509191549
 20
4.155095697353525
 10
22.76711858246684
 20
4.154652817426388
 10
22.76463475528066
 20
4.154233019088273
 10
22.76213448890652
 20
4.153836308700921
 10
22.75961852685208
 20
4.1534626542952
 10
22.75708744711396
 20
4.153111978472091
 10
22.7545416317085
 20
4.152784151303666
 10
22.75198123620117
 20
4.152478983235205
 10
22.74940614648309
 20
4.152196254827964
 10
22.74681611677822
 20
4.151935836045259
 10
22.74421110653646
 20
4.151697628053919
 10
22.74159130545124
 20
4.151481538245247
 10
22.73895710483552
 20
4.151287479184295
 10
22.73630906899769
 20
4.151115367559133
 10
22.73364790661757
 20
4.150965123130091
 10
22.73097444212235
 20
4.150836667679038
 10
22.7282895870626
 20
4.150729923958635
 10
22.72559431148815
 20
4.150644814641602
 10
22.72288961532415
 20
4.150581261269977
 10
22.72017649974693
 20
4.150539183204378
 10
22.71745593856004
 20
4.150518496573265
 10
22.71472884957018
 20
4.1505191132222
 10
22.71199606596316
 20
4.150540939663113
 10
22.70925830767987
 20
4.150583876023564
 10
22.70651615279223
 20
4.150647814995996
 10
22.70377000887917
 20
4.150732640787009
 10
22.70102008440257
 20
4.150838228066615
 10
22.69826636005971
 20
4.150964440918578
 10
22.68807248803657
 20
4.151470862820526
 10
22.67787765105929
 20
4.151980452906646
 10
22.66768184755737
 20
4.152493200421154
 10
22.65748507711418
 20
4.153009094557631
 10
22.6472873398451
 20
4.153528124490287
 10
22.63708863637928
 20
4.154050279375287
 10
22.62688896784114
 20
4.154575548352025
 10
22.61668833583212
 20
4.155103920544448
 10
22.60648674241223
 20
4.155635385062341
 10
22.59628419008171
 20
4.156169931002642
 10
22.58608068176264
 20
4.156707547450731
 10
22.57587622078063
 20
4.15724822348174
 10
22.56567081084637
 20
4.157791948161854
 10
22.5554644560373
 20
4.158338710549606
 10
22.54525716077924
 20
4.158888499697185
 10
22.53504892982803
 20
4.159441304651731
 10
22.52483976825113
 20
4.159997114456649
 10
22.51462968140927
 20
4.160555918152891
 10
22.50441867493808
 20
4.16111770478028
 10
22.49420675472971
 20
4.161682463378788
 10
22.48399392691448
 20
4.162250182989859
 10
22.47378019784248
 20
4.162820852657693
 10
22.46356557406523
 20
4.16339446143056
 10
22.45335006231729
 20
4.163970998362096
 10
22.4431336694979
 20
4.1645504525126
 10
22.4329164026526
 20
4.16513281295035
 10
22.42269826895488
 20
4.165718068752883
 10
22.41247927568779
 20
4.166306209008316
 10
22.40225943022557
 20
4.166897222816641
 10
22.3920387400153
 20
4.167491099291018
 10
22.3818172125585
 20
4.168087827559086
 10
22.3715948553928
 20
4.168687396764267
 10
22.36137167607353
 20
4.169289796067055
 10
22.35114768215537
 20
4.169895014646332
 10
22.34092288117398
 20
4.170503041700654
 10
22.33069728062764
 20
4.171113866449569
 10
22.32047088795884
 20
4.171727478134904
 10
22.31024371053595
 20
4.172343866022075
 10
22.30001575563485
 20
4.172963019401387
 10
22.28978703042054
 20
4.173584927589331
 10
22.27955754192875
 20
4.174209579929891
 10
22.26932729704765
 20
4.174836965795845
 10
22.25909630249939
 20
4.175467074590057
 10
22.24886456482178
 20
4.176099895746801
 10
22.2386320903499
 20
4.176735418733032
 10
22.22839888519775
 20
4.177373633049708
 10
22.21816495523985
 20
4.178014528233092
 10
22.20793030609292
 20
4.178658093856044
 10
22.19769494309743
 20
4.179304319529319
 10
22.18745887129933
 20
4.17995319490289
 10
22.17722209543159
 20
4.180604709667223
 10
22.16698461989588
 20
4.181258853554596
 10
22.1567464487442
 20
4.181915616340396
 10
22.14650758566048
 20
4.182574987844413
 10
22.13626803394224
 20
4.183236957932158
 10
22.12602779648221
 20
4.183901516516145
 10
22.11578687574993
 20
4.184568653557207
 10
22.10554527377346
 20
4.185238359065787
 10
22.09530299212091
 20
4.185910623103254
 10
22.08506003363711
 20
4.186585435623277
 10
22.07481642900427
 20
4.187262784060377
 10
22.0645722226325
 20
4.187942654649602
 10
22.0543274446781
 20
4.188625034988564
 10
22.04408211191358
 20
4.189309913957591
 10
22.03383622951534
 20
4.189997281556051
 10
22.02358979285109
 20
4.190687128738715
 10
22.01334278926754
 20
4.191379447252087
 10
22.00309519987792
 20
4.192074229470756
 10
21.99284700134953
 20
4.19277146823373
 10
21.98259816769132
 20
4.193471156680783
 10
21.97234867204149
 20
4.194173288088803
 10
21.962098488455
 20
4.194877855708127
 10
21.95184759369118
 20
4.195584852598885
 10
21.94159596900125
 20
4.196294271467351
 10
21.93134360191598
 20
4.197006104502275
 10
21.92109048803312
 20
4.197720343211233
 10
21.91083663280511
 20
4.198436978256973
 10
21.90058205332654
 20
4.199155999293743
 10
21.89032678012176
 20
4.199877394803653
 10
21.88007085893245
 20
4.200601151933004
 10
21.86981435250518
 20
4.201327256328642
 10
21.85955734237897
 20
4.202055691974288
 10
21.84929993067286
 20
4.202786441026891
 10
21.83904224187349
 20
4.20351948365297
 10
21.82878442462266
 20
4.204254797864953
 10
21.81852665350487
 20
4.204992359357522
 10
21.80826913083494
 20
4.205732141343956
 10
21.79801208844553
 20
4.206474114392475
 10
21.78775578947472
 20
4.207218246262582
 10
21.77750052446072
 20
4.20796450217217
 10
21.76724652356317
 20
4.208712851504321
 10
21.75699393836961
 20
4.2094632695046
 10
21.74674289178902
 20
4.210215733643143
 10
21.73649348060379
 20
4.210970223451506
 10
21.72624577656861
 20
4.211726720468051
 10
21.71599982750954
 20
4.212485208183365
 10
21.70575565842304
 20
4.213245671985657
 10
21.69551327257488
 20
4.214008099106155
 10
21.68527265259929
 20
4.214772478564531
 10
21.67503376159785
 20
4.215538801114282
 10
21.66479654423858
 20
4.216307059188149
 10
21.65456092785487
 20
4.217077246843513
 10
21.64432682354456
 20
4.217849359707805
 10
21.63409412726895
 20
4.218623394923909
 10
21.6238627209517
 20
4.219399351095559
 10
21.61363247357804
 20
4.220177228232754
 10
21.60340324229357
 20
4.220957027697155
 10
21.59317487350339
 20
4.221738752147491
 10
21.58294720397109
 20
4.222522405484959
 10
21.57272006191774
 20
4.223307992798638
 10
21.56249326812091
 20
4.224095520310884
 10
21.55226663701367
 20
4.22488499532274
 10
21.54203997778363
 20
4.22567642615933
 10
21.53181309547191
 20
4.226469822115283
 10
21.52158579207219
 20
4.227265193400111
 10
21.51135786762965
 20
4.228062551083634
 10
21.50112912134007
 20
4.228861907041376
 10
21.49089935264877
 20
4.229663273899969
 10
21.48066836234967
 20
4.23046666498256
 10
21.47043595352798
 20
4.231272094233831
 10
21.46020193206204
 20
4.232079575707328
 10
21.44996611220269
 20
4.232889122838773
 10
21.43972831993057
 20
4.233700748282214
 10
21.42948839372994
 20
4.234514463808644
 10
21.41924618532488
 20
4.235330280203453
 10
21.4090015604154
 20
4.236148207163896
 10
21.39875439941372
 20
4.236968253196552
 10
21.38850459818036
 20
4.23779042551479
 10
21.37825206876038
 20
4.238614729936228
 10
21.36799674011955
 20
4.239441170780192
 10
21.35773855888052
 20
4.240269750765183
 10
21.34747749005905
 20
4.241100470906343
 10
21.3372135178001
 20
4.241933330412903
 10
21.32694664611413
 20
4.242768326585657
 10
21.31667689983112
 20
4.243605454698258
 10
21.30640433238254
 20
4.244444707357446
 10
21.29612901894502
 20
4.245286074892808
 10
21.28585104477753
 20
4.246129546157138
 10
21.27557051367398
 20
4.246975107880709
 10
21.26528755767737
 20
4.247822743933427
 10
21.25500234679405
 20
4.248672434587022
 10
21.2447150987079
 20
4.249524155777207
 10
21.23442627043174
 20
4.250377863902153
 10
21.2241374330739
 20
4.251233426136238
 10
21.21384905090021
 20
4.252090796037904
 10
21.20355967101183
 20
4.252950076590601
 10
21.1932664376166
 20
4.253811477932681
 10
21.18296561610622
 20
4.254675274307946
 10
21.17265311713334
 20
4.255541761016186
 10
21.16232504220992
 20
4.256411209530098
 10
21.15200018861358
 20
4.257281953148359
 10
21.14174751530914
 20
4.25814806100845
 10
21.13161473076746
 20
4.259005432388939
 10
21.12161938888167
 20
4.259852554017011
 10
21.11175416036559
 20
4.260690048780672
 10
21.10199210415207
 20
4.261520224440984
 10
21.09229193879132
 20
4.262346622344283
 10
21.08260331384925
 20
4.263173566134399
 10
21.07287208130583
 20
4.264005710464879
 10
21.06304556695343
 20
4.264847589711216
 10
21.05307784179516
 20
4.265703166683058
 10
21.04293499344325
 20
4.266575381336444
 10
21.03260039751733
 20
4.267465699486018
 10
21.02207998904284
 20
4.268373661517252
 10
21.01140753384934
 20
4.269296431098673
 10
21.00064958788055
 20
4.270228370474494
 10
20.98987044132849
 20
4.271164024683161
 10
20.97907816073216
 20
4.272102720895155
 10
20.9682736546448
 20
4.273044392672693
 10
20.95745809646332
 20
4.273988947894618
 10
20.94663288963691
 20
4.274936271677335
 10
20.93579963287578
 20
4.275886229295783
 10
20.92496008535975
 20
4.276838669104392
 10
20.91411613194698
 20
4.277793425458019
 10
20.90326974838262
 20
4.278750321632926
 10
20.89242296650749
 20
4.279709172747717
 10
20.88157783946674
 20
4.280669788684305
 10
20.87073640691853
 20
4.281631977008862
 10
20.85990066024271
 20
4.28259554589277
 10
20.84907250774947
 20
4.283560307033589
 10
20.83825373988802
 20
4.284526078575997
 10
20.82742747533293
 20
4.285494370691611
 10
20.81651450927068
 20
4.286472354164551
 10
20.80545728522507
 20
4.287465234718054
 10
20.79423792081478
 20
4.288474614730128
 10
20.78287060183366
 20
4.289499183098089
 10
20.77139397617611
 20
4.290535405117188
 10
20.75986354776257
 20
4.29157821235921
 10
20.7483440704649
 20
4.292621692551102
 10
20.73690194203184
 20
4.293659779453577
 10
20.72559759801442
 20
4.29468694273973
 10
20.71447790569138
 20
4.295698877873653
 10
20.70356855799465
 20
4.296693195989051
 10
20.69286646743472
 20
4.297670113767848
 10
20.68233216002609
 20
4.298633143318808
 10
20.67188599574544
 20
4.299589435754658
 10
20.66147523249286
 20
4.300543718795584
 10
20.65109381646331
 20
4.301496524998856
 10
20.64073612180721
 20
4.302448378144131
 10
20.63039582204171
 20
4.303399885609553
 10
20.62006661300528
 20
4.30435166303664
 10
20.60974293581216
 20
4.305304258995162
 10
20.59942069981428
 20
4.306258079647267
 10
20.5890980453568
 20
4.307213308643798
 10
20.5787749505637
 20
4.308169942540131
 10
20.56845152949223
 20
4.309127963536996
 10
20.55812780639907
 20
4.310087362898066
 10
20.54780375137502
 20
4.311048137480332
 10
20.53747931597974
 20
4.312010286264455
 10
20.52715446887646
 20
4.312973806885139
 10
20.51682922724618
 20
4.313938692565609
 10
20.50650359034059
 20
4.314904938406126
 10
20.49617749912509
 20
4.315872545139738
 10
20.48585089421592
 20
4.316841513548899
 10
20.4755237187493
 20
4.317811844190256
 10
20.46519591834703
 20
4.318783537398021
 10
20.45486744108221
 20
4.319756593287379
 10
20.44453823744489
 20
4.320731011757873
 10
20.43420826030776
 20
4.321706792496796
 10
20.42387746489179
 20
4.322683934982578
 10
20.41354580873196
 20
4.323662438488176
 10
20.40321325164287
 20
4.324642302084477
 10
20.39287975568445
 20
4.325623524643671
 10
20.3825452851276
 20
4.326606104842658
 10
20.37220980641993
 20
4.327590041166424
 10
20.36187328815135
 20
4.32857533191145
 10
20.35153570101978
 20
4.329561975189082
 10
20.34119701779683
 20
4.330549968928936
 10
20.33085721329348
 20
4.331539310882288
 10
20.3205162643257
 20
4.332529998625457
 10
20.31017414968021
 20
4.333522029563201
 10
20.29983085008004
 20
4.334515400932113
 10
20.28948634815031
 20
4.335510109803998
 10
20.27914062838384
 20
4.336506153089279
 10
20.26879367710684
 20
4.337503527540374
 10
20.25844548244458
 20
4.338502229755103
 10
20.24809603428708
 20
4.339502256180059
 10
20.23774532425473
 20
4.340503603114018
 10
20.22739334566402
 20
4.341506266711316
 10
20.21704009349321
 20
4.342510242985246
 10
20.20668556434795
 20
4.343515527811447
 10
20.196329756427
 20
4.344522116931299
 10
20.18597266948789
 20
4.34553000595531
 10
20.1756143048126
 20
4.346539190366501
 10
20.16525466517319
 20
4.347549665523808
 10
20.15489375479754
 20
4.348561426665471
 10
20.14453157933499
 20
4.349574468912415
 10
20.13416814582197
 20
4.350588787271651
 10
20.12380346264776
 20
4.351604376639663
 10
20.11343753952008
 20
4.352621231805801
 10
20.10307038743083
 20
4.353639347455666
 10
20.09270201862169
 20
4.354658718174507
 10
20.08233244654988
 20
4.355679338450609
 10
20.07196168585374
 20
4.356701202678685
 10
20.06158975231849
 20
4.357724305163268
 10
20.05121666284181
 20
4.358748640122096
 10
20.04084243539962
 20
4.359774201689511
 10
20.03046708901165
 20
4.360800983919843
 10
20.02009064370717
 20
4.361828980790806
 10
20.00971312049067
 20
4.362858186206882
 10
19.99933454130748
 20
4.36388859400272
 10
19.9889549290095
 20
4.364920197946523
 10
19.97857430732084
 20
4.365952991743438
 10
19.96819270080348
 20
4.366986969038946
 10
19.95781013482299
 20
4.368022123422258
 10
19.94742663551418
 20
4.369058448429698
 10
19.93704222974672
 20
4.370095937548103
 10
19.9266569450909
 20
4.371134584218203
 10
19.91627080978327
 20
4.372174381838026
 10
19.90588385269227
 20
4.373215323766271
 10
19.89549610328395
 20
4.374257403325715
 10
19.88510759158765
 20
4.375300613806595
 10
19.87471834816161
 20
4.376344948470003
 10
19.86432840405871
 20
4.377390400551271
 10
19.85393779079215
 20
4.37843696326337
 10
19.84354654030102
 20
4.379484629800292
 10
19.83315468491608
 20
4.380533393340449
 10
19.82276225732539
 20
4.381583247050061
 10
19.81236929053998
 20
4.382634184086541
 10
19.80197581785954
 20
4.383686197601894
 10
19.79158187283807
 20
4.384739280746106
 10
19.78118748924959
 20
4.385793426670533
 10
19.77079270105373
 20
4.386848628531287
 10
19.76039754236152
 20
4.387904879492638
 10
19.75000204740096
 20
4.388962172730398
 10
19.73960625048275
 20
4.390020501435309
 10
19.72921018596595
 20
4.391079858816445
 10
19.71881388822362
 20
4.392140238104587
 10
19.70841739160857
 20
4.393201632555626
 10
19.69802073041894
 20
4.394264035453951
 10
19.68762393886393
 20
4.395327440115837
 10
19.67722705102946
 20
4.39639183989284
 10
19.66683010084385
 20
4.397457228175181
 10
19.65643312204346
 20
4.398523598395146
 10
19.64603614813841
 20
4.399590944030469
 10
19.6356392123782
 20
4.400659258607728
 10
19.62524234771743
 20
4.401728535705736
 10
19.61484558678146
 20
4.402798768958921
 10
19.60444896183205
 20
4.403869952060733
 10
19.59405250473308
 20
4.404942078767025
 10
19.58365624691619
 20
4.406015142899447
 10
19.57326021934646
 20
4.407089138348835
 10
19.5628644524881
 20
4.408164059078603
 10
19.55246897627008
 20
4.409239899128132
 10
19.54207382005186
 20
4.410316652616163
 10
19.53167901258901
 20
4.411394313744191
 10
19.52128458199892
 20
4.412472876799844
 10
19.51089055572644
 20
4.413552336160289
 10
19.50049696050959
 20
4.414632686295615
 10
19.4901038223452
 20
4.415713921772218
 10
19.47971116645459
 20
4.416796037256207
 10
19.46931901724926
 20
4.41787902751678
 10
19.45892739829654
 20
4.418962887429621
 10
19.44853633228528
 20
4.420047611980296
 10
19.4381458409915
 20
4.421133196267632
 10
19.42775594524409
 20
4.422219635507119
 10
19.41736666489047
 20
4.423306925034294
 10
19.40697801876225
 20
4.424395060308134
 10
19.39659002464092
 20
4.42548403691445
 10
19.38620269922352
 20
4.426573850569268
 10
19.3758160580883
 20
4.427664497122233
 10
19.36543011566041
 20
4.42875597255999
 10
19.35504488517757
 20
4.429848273009579
 10
19.34466037865572
 20
4.430941394741823
 10
19.33427660685471
 20
4.432035334174726
 10
19.32389357924398
 20
4.433130087876853
 10
19.31351130396824
 20
4.434225652570731
 10
19.30312978781308
 20
4.435322025136228
 10
19.29274903617073
 20
4.43641920261396
 10
19.28236905300567
 20
4.437517182208666
 10
19.27198984082033
 20
4.43861596129261
 10
19.26161140062076
 20
4.439715537408964
 10
19.25123373188229
 20
4.440815908275207
 10
19.24085683251522
 20
4.441917071786505
 10
19.23048069883047
 20
4.443019026019115
 10
19.22010532550529
 20
4.444121769233761
 10
19.20973070554886
 20
4.445225299879038
 10
19.19935683026807
 20
4.446329616594797
 10
19.18898368923309
 20
4.447434718215537
 10
19.17861127024311
 20
4.448540603773788
 10
19.16823955929197
 20
4.449647272503518
 10
19.15786854053386
 20
4.450754723843512
 10
19.14749819624898
 20
4.451862957440761
 10
19.13712850680922
 20
4.452971973153863
 10
19.12675945064382
 20
4.454081771056408
 10
19.11639100420505
 20
4.455192351440363
 10
19.10602314193391
 20
4.456303714819474
 10
19.09565583622571
 20
4.457415861932653
 10
19.08528905739588
 20
4.458528793747362
 10
19.07492277364553
 20
4.459642511463012
 10
19.06455695102717
 20
4.460757016514355
 10
19.05419155341036
 20
4.461872310574863
 10
19.04382654244744
 20
4.462988395560135
 10
19.03346187753912
 20
4.464105273631273
 10
19.0230975158002
 20
4.465222947198282
 10
19.01273341202523
 20
4.466341418923457
 10
19.00236951865421
 20
4.467460691724781
 10
18.99200578573824
 20
4.468580768779299
 10
18.98164216090514
 20
4.469701653526531
 10
18.97127858932524
 20
4.470823349671842
 10
18.96091430055363
 20
4.471945939426849
 10
18.95051065632091
 20
4.473073659827504
 10
18.93998355260872
 20
4.474215738121951
 10
18.92926553777389
 20
4.475379577543083
 10
18.91830936103026
 20
4.476570367667988
 10
18.90708614150607
 20
4.477791284914276
 10
18.89558353730137
 20
4.479043693036446
 10
18.88380391454534
 20
4.480327343622222
 10
18.87176251645368
 20
4.481640576588916
 10
18.85948563238602
 20
4.482980520679766
 10
18.84700876690325
 20
4.484343293960288
 10
18.83437480882494
 20
4.48572420431463
 10
18.8216322002867
 20
4.487117949941915
 10
18.80883310579754
 20
4.488518819852599
 10
18.79603158129727
 20
4.489920894364812
 10
18.78328174321385
 20
4.491318245600703
 10
18.77063593752082
 20
4.492705137982809
 10
18.75814290879459
 20
4.494076228730386
 10
18.74584596927193
 20
4.495426768355763
 10
18.73378116790721
 20
4.496752801160693
 10
18.72197545942993
 20
4.498051365732706
 10
18.71044487340195
 20
4.499320695441451
 10
18.69919268327496
 20
4.500560418935046
 10
18.68820757544784
 20
4.501771760636436
 10
18.67746181832401
 20
4.502957741239733
 10
18.66690943136884
 20
4.504123378206571
 10
18.656484354167
 20
4.505275886262449
 10
18.64610250316614
 20
4.506424452986323
 10
18.63572057132217
 20
4.507573811983445
 10
18.62533740030599
 20
4.508724090745771
 10
18.61495306287532
 20
4.509875281957672
 10
18.60456764466241
 20
4.511027376647231
 10
18.59418124283519
 20
4.512180364349634
 10
18.58379396475857
 20
4.513334233270588
 10
18.57340592665569
 20
4.514488970449699
 10
18.56301725226905
 20
4.515644561923898
 10
18.55262807152188
 20
4.516800992890827
 10
18.54223851917928
 20
4.517958247872245
 10
18.53184873350951
 20
4.519116310877429
 10
18.5214588549452
 20
4.520275165566584
 10
18.5110690247446
 20
4.521434795414224
 10
18.50067938365281
 20
4.522595183872598
 10
18.49029007056302
 20
4.523756314535077
 10
18.47990122117773
 20
4.524918171299556
 10
18.46951296667002
 20
4.526080738531859
 10
18.45912543234474
 20
4.527244001229148
 10
18.44873873629981
 20
4.528407945183307
 10
18.4383529880874
 20
4.529572557144356
 10
18.42796828737518
 20
4.530737824983853
 10
18.41758472260758
 20
4.531903737858295
 10
18.40720236966699
 20
4.533070286372506
 10
18.39682129053502
 20
4.534237462743065
 10
18.38644153195376
 20
4.535405260961679
 10
18.37606312408696
 20
4.536573676958608
 10
18.36568607918129
 20
4.537742708766051
 10
18.35531039022761
 20
4.538912356681558
 10
18.34493602962215
 20
4.540082623431423
 10
18.3345629303557
 20
4.541253516211254
 10
18.32419067887563
 20
4.542425079632994
 10
18.3138189690895
 20
4.543597346704205
 10
18.30344803134591
 20
4.544770292787434
 10
18.29307832408518
 20
4.545943868946306
 10
18.28271019555424
 20
4.547118038511464
 10
18.27234354552171
 20
4.548292813646549
 10
18.26197748710362
 20
4.549468291901483
 10
18.25161295781154
 20
4.55064435468904
 10
18.2412389950506
 20
4.551822221593809
 10
18.23081039397953
 20
4.553007006655461
 10
18.22028524903691
 20
4.554203460964761
 10
18.20966494978704
 20
4.555411428242084
 10
18.19899011305977
 20
4.556626302257823
 10
18.18831184615699
 20
4.557842295026127
 10
18.17766669017239
 20
4.559055283530756
 10
18.16704844264785
 20
4.560266008075603
 10
18.15642346452674
 20
4.561478324144174
 10
18.14576628937783
 20
4.562695153804492
 10
18.13508024986319
 20
4.563916142757901
 10
18.12437800578672
 20
4.565139873758829
 10
18.11366870321808
 20
4.566365325808712
 10
18.10296120569478
 20
4.567591506772188
 10
18.09231893557327
 20
4.568811147466163
 10
18.08187861690409
 20
4.570008540892652
 10
18.07164893213314
 20
4.571182686157857
 10
18.06153322996507
 20
4.57234468289812
 10
18.0513910144068
 20
4.573510668021563
 10
18.04109943381089
 20
4.574694752449778
 10
18.03061476991906
 20
4.575901957859471
 10
18.02002796778843
 20
4.577121837891544
 10
18.00944574934829
 20
4.578342127248544
 10
17.99888962287606
 20
4.579560321310549
 10
17.98839175915524
 20
4.580772670861509
 10
17.97798029959282
 20
4.581975892641711
 10
17.96765127496344
 20
4.583170421759891
 10
17.95737109387223
 20
4.584360121886334
 10
17.94709771456608
 20
4.585549835851204
 10
17.93679978274527
 20
4.586743172529794
 10
17.92647635516326
 20
4.587940232148356
 10
17.91614956450645
 20
4.589138465012216
 10
17.90583433042535
 20
4.590336170894832
 10
17.8955245905986
 20
4.591534081797815
 10
17.88521796490288
 20
4.592732497535038
 10
17.87491578578833
 20
4.593931282639116
 10
17.86462041476484
 20
4.595130177970418
 10
17.85432758420753
 20
4.596329696443888
 10
17.84403053392286
 20
4.597530637905669
 10
17.83372695015698
 20
4.598733276453306
 10
17.82341834287581
 20
4.599937433690162
 10
17.81310920435193
 20
4.601142577599739
 10
17.8028061677515
 20
4.602347921420001
 10
17.79251716572121
 20
4.603552522517676
 10
17.78225058897514
 20
4.604755381262585
 10
17.77201444488176
 20
4.605955539901952
 10
17.76181551605078
 20
4.607152181434716
 10
17.75165851892009
 20
4.608344728485858
 10
17.74154526234271
 20
4.609532942180708
 10
17.73147380617367
 20
4.610717021019264
 10
17.72143761985694
 20
4.611897699750509
 10
17.71143819399058
 20
4.613074758614049
 10
17.70157319214882
 20
4.614236609222078
 10
17.69194810253963
 20
4.615370740913728
 10
17.68261693367925
 20
4.616470730255502
 10
17.67358967571388
 20
4.617535359606061
 10
17.66484025115284
 20
4.618567677844191
 10
17.65631446560172
 20
4.619574061096773
 10
17.64793795849557
 20
4.620563273466744
 10
17.63962415383204
 20
4.621545527761063
 10
17.63128221090453
 20
4.622531546218684
 10
17.62282497503543
 20
4.623531621238513
 10
17.61417692830916
 20
4.624554676107377
 10
17.60528214030545
 20
4.625607325727986
 10
17.59611221883244
 20
4.626692937346911
 10
17.58667426065986
 20
4.627810691282533
 10
17.57701880225221
 20
4.628954641653025
 10
17.56724641915206
 20
4.630112936629894
 10
17.55743992618615
 20
4.631275821726549
 10
17.54760011907565
 20
4.632443226424872
 10
17.53772156986573
 20
4.633615817233875
 10
17.52780037988585
 20
4.634794082388559
 10
17.51783441747431
 20
4.635978303687481
 10
17.50782355570288
 20
4.637168528330321
 10
17.49776991010138
 20
4.63836454075548
 10
17.48767838541519
 20
4.63956579805262
 10
17.4775567528955
 20
4.640771420646053
 10
17.46741018123923
 20
4.641980836098259
 10
17.45724014144498
 20
4.643193906732643
 10
17.44704864630444
 20
4.644410423981154
 10
17.43685458268753
 20
4.645628158307563
 10
17.42668864569445
 20
4.646843459997097
 10
17.41657572584695
 20
4.648053362357275
 10
17.4065240266652
 20
4.649256882520012
 10
17.39652961284807
 20
4.65045448407317
 10
17.38657784734544
 20
4.651647909999962
 10
17.37664649967918
 20
4.652839812286578
 10
17.36670929944059
 20
4.654033328155414
 10
17.35673948978785
 20
4.655231656298268
 10
17.34671338094348
 20
4.65643763310957
 10
17.33661389165004
 20
4.657653310738172
 10
17.32643384314624
 20
4.658879563632824
 10
17.31617764164565
 20
4.660115874789241
 10
17.30586102712056
 20
4.661360355447656
 10
17.29551086157916
 20
4.662609765381739
 10
17.28515325783384
 20
4.663860954192633
 10
17.27479660760487
 20
4.665112911554709
 10
17.26444013559678
 20
4.666365733386554
 10
17.25408364183228
 20
4.66761944584883
 10
17.24372726316507
 20
4.668874034536377
 10
17.2333710014071
 20
4.670129501396774
 10
17.22301485864308
 20
4.67138584837205
 10
17.21265883722231
 20
4.672643077399403
 10
17.20230293975037
 20
4.673901190411912
 10
17.19194716908093
 20
4.675160189339244
 10
17.18159152830749
 20
4.676420076108369
 10
17.17123602075514
 20
4.677680852644269
 10
17.16088064997232
 20
4.67894252087065
 10
17.15052541972259
 20
4.680205082710653
 10
17.14017033397638
 20
4.681468540087568
 10
17.12981539690276
 20
4.682732894925538
 10
17.11946061286118
 20
4.68399814915028
 10
17.10910598639326
 20
4.685264304689788
 10
17.0987515222145
 20
4.686531363475046
 10
17.08839722520612
 20
4.687799327440745
 10
17.07804310040673
 20
4.689068198525985
 10
17.06768915300417
 20
4.690337978674998
 10
17.05733538832719
 20
4.691608669837843
 10
17.0469818118373
 20
4.692880273971135
 10
17.03662842912045
 20
4.694152793038742
 10
17.02627524587883
 20
4.695426229012502
 10
17.01592226792264
 20
4.69670058387294
 10
17.0055695011618
 20
4.697975859609968
 10
16.99521695159779
 20
4.699252058223605
 10
16.98486462531532
 20
4.700529181724679
 10
16.97451252847414
 20
4.701807232135553
 10
16.96416066730082
 20
4.703086211490818
 10
16.95380904808046
 20
4.704366121838021
 10
16.94345767714849
 20
4.705646965238367
 10
16.93310656088237
 20
4.706928743767426
 10
16.92275570569346
 20
4.708211459515862
 10
16.91240511801866
 20
4.70949511459012
 10
16.90205480431225
 20
4.710779711113158
 10
16.89170477103761
 20
4.712065251225146
 10
16.881355024659
 20
4.713351737084183
 10
16.87100557163331
 20
4.714639170867006
 10
16.86065641840182
 20
4.715927554769702
 10
16.85030757138198
 20
4.717216891008418
 10
16.83995903695914
 20
4.718507181820074
 10
16.82961082147831
 20
4.719798429463071
 10
16.81926293123597
 20
4.721090636218005
 10
16.80891537247175
 20
4.722383804388383
 10
16.79856815136027
 20
4.723677936301323
 10
16.78822127400285
 20
4.724973034308271
 10
16.77787474641926
 20
4.726269100785718
 10
16.76752857453955
 20
4.727566138135902
 10
16.75718276419572
 20
4.728864148787518
 10
16.74683732111356
 20
4.730163135196447
 10
16.73649225090434
 20
4.731463099846443
 10
16.72614755905662
 20
4.732764045249858
 10
16.715803250928
 20
4.734065973948353
 10
16.70545933173686
 20
4.735368888513606
 10
16.69511580655414
 20
4.736672791548025
 10
16.68477268029509
 20
4.737977685685458
 10
16.67442995771105
 20
4.739283573591903
 10
16.66408764338115
 20
4.740590457966224
 10
16.65374574170417
 20
4.741898341540857
 10
16.64340425689022
 20
4.743207227082526
 10
16.63306319295249
 20
4.744517117392947
 10
16.6227225536991
 20
4.745828015309546
 10
16.61238234272477
 20
4.747139923706172
 10
16.60204256340261
 20
4.748452845493799
 10
16.59170321887592
 20
4.749766783621246
 10
16.58136431204986
 20
4.751081741075881
 10
16.57102584558331
 20
4.75239772088434
 10
16.56068782188056
 20
4.753714726113233
 10
16.5503502430831
 20
4.755032759869855
 10
16.54001311106136
 20
4.756351825302901
 10
16.52967642740652
 20
4.757671925603171
 10
16.51934019342219
 20
4.758993064004291
 10
16.50900441011625
 20
4.760315243783414
 10
16.49866907819254
 20
4.761638468261936
 10
16.48833419781463
 20
4.762962740835429
 10
16.48552564439021
 20
4.763330779999941
 10
16.48271991147329
 20
4.763714540137353
 10
16.47991699769224
 20
4.764114098716413
 10
16.47711710802935
 20
4.764529490825618
 10
16.47432062801987
 20
4.764960714410398
 10
16.47152809795388
 20
4.765407735509941
 10
16.46874018707807
 20
4.765870493494025
 10
16.4659576677975
 20
4.766348906299837
 10
16.46318138987744
 20
4.766842875668813
 10
16.46041225464514
 20
4.767352292383454
 10
16.45765118919166
 20
4.767877041504156
 10
16.45489912057363
 20
4.768417007606043
 10
16.4521569500151
 20
4.768972080015789
 10
16.44942552710925
 20
4.76954215804845
 10
16.44670562402031
 20
4.770127156244283
 10
16.44399790968522
 20
4.770727009605587
 10
16.44130292401557
 20
4.771341678833517
 10
16.43862105209928
 20
4.771971155564915
 10
16.43595249840245
 20
4.772615467609148
 10
16.43329726097119
 20
4.773274684184922
 10
16.43065512149642
 20
4.773948922041398
 10
16.428025914649
 20
4.774638336782285
 10
16.42540976174669
 20
4.775343038993568
 10
16.42280699591662
 20
4.776063065041508
 10
16.42021813215869
 20
4.776798385937471
 10
16.41764383982292
 20
4.777548916728336
 10
16.41508491508676
 20
4.778314525886916
 10
16.41254225343239
 20
4.779095044702381
 10
16.41001682212405
 20
4.779890276670672
 10
16.40750963268534
 20
4.780700006884921
 10
16.40502171337657
 20
4.781524011425871
 10
16.40255408167203
 20
4.782362066752289
 10
16.40010771673735
 20
4.783213959091392
 10
16.39768353190679
 20
4.784079493829266
 10
16.39528234716056
 20
4.784958504901271
 10
16.39290486160215
 20
4.785850864182474
 10
16.39055162593562
 20
4.786756490878066
 10
16.38822301494293
 20
4.78767536091377
 10
16.38591919996128
 20
4.788607516326277
 10
16.38364012151368
 20
4.789553074680245
 10
16.38138557905897
 20
4.790512238240035
 10
16.3791556164454
 20
4.791485206355787
 10
16.37695052423155
 20
4.79247205967336
 10
16.37477078827907
 20
4.793472763031829
 10
16.37261706070539
 20
4.794487181217431
 10
16.37049013083646
 20
4.795515094717516
 10
16.36839089615956
 20
4.796556215474487
 10
16.36632033327603
 20
4.797610202639764
 10
16.36427946885399
 20
4.798676678327703
 10
16.36226935058114
 20
4.799755243369577
 10
16.3602910181175
 20
4.800845493067494
 10
16.35834547404818
 20
4.801947032948365
 10
16.35643365483608
 20
4.803059494517841
 10
16.35455640177473
 20
4.804182551014263
 10
16.35271443194096
 20
4.805315933162613
 10
16.35090830914771
 20
4.806459444928455
 10
16.34913841489678
 20
4.807612979271883
 10
16.34740491933155
 20
4.808776533901478
 10
16.34570775380239
 20
4.809950227241674
 10
16.34404677496872
 20
4.811134303049152
 10
16.34242212787483
 20
4.812328966425811
 10
16.34083414369887
 20
4.813534247640223
 10
16.33928329464861
 20
4.81475001565025
 10
16.33777017019213
 20
4.815976001184323
 10
16.33629545328845
 20
4.817211819822731
 10
16.33485989661821
 20
4.818456995078919
 10
16.33346429881438
 20
4.819710981480764
 10
16.33210948069284
 20
4.820973187651879
 10
16.33079626148312
 20
4.822242999392888
 10
16.32952543505899
 20
4.823519802762731
 10
16.3282977461692
 20
4.824803007159931
 10
16.32711386666811
 20
4.826092068403913
 10
16.32597437174632
 20
4.827386511816266
 10
16.32487971616141
 20
4.828685955302047
 10
16.32383021046854
 20
4.829990132431068
 10
16.32282599725113
 20
4.831298915519183
 10
16.32186702735154
 20
4.83261233870958
 10
16.32095312435696
 20
4.833930611734764
 10
16.32008435611293
 20
4.835253966105335
 10
16.31926092444417
 20
4.836582441133633
 10
16.31848307888801
 20
4.837915881246908
 10
16.31775110608328
 20
4.839253963670441
 10
16.31706531916076
 20
4.84059622611087
 10
16.31642604713363
 20
4.841942094439477
 10
16.31583362428789
 20
4.843290910375503
 10
16.31528837957281
 20
4.844641959169464
 10
16.31479062599138
 20
4.845994497286433
 10
16.31434064999072
 20
4.847347780089371
 10
16.31393870085256
 20
4.848701089522419
 10
16.31358498008365
 20
4.850053761794206
 10
16.31327963080621
 20
4.851405215061157
 10
16.31302272714836
 20
4.852754977110797
 10
16.31281426363458
 20
4.854102713045065
 10
16.31265414457613
 20
4.855448252963608
 10
16.31254203837829
 20
4.856793240299768
 10
16.40057199999998
 20
7.701720999999999
 10
16.40057226081124
 20
7.701721448011522
 42
-0.3754682197870206
  0
LWPOLYLINE
  5
2E1C
330
1F
100
AcDbEntity
  8
NOCUT
100
AcDbPolyline
 90
       14
 70
     1
 43
0.0
 10
22.05229344564859
 20
6.980465818855041
 42
-0.3888787318529896
 10
22.59999999999999
 20
6.382748999999998
 10
22.59999999999999
 20
3.060052999999999
 10
22.59999999999999
 20
0.0
 10
0.0
 20
0.0
 10
0.0
 20
3.116265999999998
 10
0.0
 20
6.5
 10
2.0
 20
6.5
 10
11.0
 20
6.5
 10
10.99999985431316
 20
6.547731501083547
 42
0.0177733788050508
 10
11.35011805497527
 20
6.609216312027516
 10
14.59999999999999
 20
7.300000000000001
 10
18.39999999999998
 20
7.300000000000001
 10
22.05229299999999
 20
6.980466
  0
MTEXT
  5
2EE3
330
1F
100
AcDbEntity
  8
SK6
100
AcDbMText
 10
-20.0894327669173
 20
-27.78651210627243
 30
0.0
 40
3.5
 41
49.98568165846803
 71
     1
 72
     1
  1
12L8D016023X5R00
 73
     1
 44
1.0
1001
ACAD
1000
MTEXTBEGIN
1070
    73
1070
     1
1070
    44
1040
1.0
1070
    74
1070
     0
1000
MTEXTEND
  0
VIEWPORT
  5
34
102
{ACAD_XDICTIONARY
360
2EFC
102
}
330
73
100
AcDbEntity
 67
     1
  8
0
 62
     0
370
     0
100
AcDbViewport
 10
0.0
 20
0.0
 30
0.0
 40
1000.0
 41
1000.0
 68
     1
 69
     1
 12
0.0
 22
0.0
 13
0.0
 23
0.0
 14
1.0
 24
1.0
 15
1.0
 25
1.0
 16
0.0
 26
0.0
 36
1.0
 17
0.0
 27
0.0
 37
0.0
 42
50.0
 43
0.0
 44
0.0
 45
1000.0
 50
0.0
 51
0.0
 72
   100
 90
   557056
  1

281
     0
 71
     0
 74
     0
110
0.0
120
0.0
130
0.0
111
1.0
121
0.0
131
0.0
112
0.0
122
1.0
132
0.0
 79
     0
146
0.0
  0
ENDSEC
  0
SECTION
  2
OBJECTS
  0
DICTIONARY
  5
C
330
0
100
AcDbDictionary
281
     1
  3
ACAD_2007HEADERVARS_RT
350
2EF7
  3
ACAD_CIP_PREVIOUS_PRODUCT_INFO
350
2E10
  3
ACAD_COLOR
350
6C
  3
ACAD_DETAILVIEWSTYLE
350
2E0C
  3
ACAD_GROUP
350
D
  3
ACAD_LAYOUT
350
1A
  3
ACAD_MATERIAL
350
6B
  3
ACAD_MLEADERSTYLE
350
2C9
  3
ACAD_MLINESTYLE
350
17
  3
ACAD_PLOTSETTINGS
350
19
  3
ACAD_PLOTSTYLENAME
350
E
  3
ACAD_SCALELIST
350
99
  3
ACAD_SECTIONVIEWSTYLE
350
2E0A
  3
ACAD_TABLESTYLE
350
92
  3
ACAD_VISUALSTYLE
350
2A0
  3
ACAD_WIPEOUT_VARS
350
2DAB
  3
ACDB_RECOMPOSE_DATA
350
2EF5
  3
ACDBHEADERROUNDTRIPXREC
350
2DCF
  3
AcDbVariableDictionary
350
2EEA
  3
ASE_INDEX_DICTIONARY
350
A41
  3
DWGPROPS
350
2EF6
  0
DICTIONARY
  5
2DAC
330
2
100
AcDbDictionary
280
     1
281
     1
  3
ACAD_LAYERSTATES
360
62D
  0
DICTIONARY
  5
2DA1
330
10
100
AcDbDictionary
280
     1
281
     1
  3
ADSK_XREC_LAYER_RECONCILED
360
A32
  0
DICTIONARY
  5
2DA2
330
601
100
AcDbDictionary
280
     1
281
     1
  3
ADSK_XREC_LAYER_RECONCILED
360
A34
  0
DICTIONARY
  5
2DA3
330
603
100
AcDbDictionary
280
     1
281
     1
  3
ADSK_XREC_LAYER_RECONCILED
360
A35
  0
DICTIONARY
  5
2DA4
330
607
100
AcDbDictionary
280
     1
281
     1
  3
ADSK_XREC_LAYER_RECONCILED
360
A36
  0
DICTIONARY
  5
2DA5
330
609
100
AcDbDictionary
280
     1
281
     1
  3
ADSK_XREC_LAYER_RECONCILED
360
A37
  0
DICTIONARY
  5
2DA6
330
60B
100
AcDbDictionary
280
     1
281
     1
  3
ADSK_XREC_LAYER_RECONCILED
360
A38
  0
DICTIONARY
  5
2DA7
330
60D
100
AcDbDictionary
280
     1
281
     1
  3
ADSK_XREC_LAYER_RECONCILED
360
A39
  0
DICTIONARY
  5
2DA8
330
60F
100
AcDbDictionary
280
     1
281
     1
  3
ADSK_XREC_LAYER_RECONCILED
360
A3A
  0
DICTIONARY
  5
2DA9
330
611
100
AcDbDictionary
280
     1
281
     1
  3
ADSK_XREC_LAYER_RECONCILED
360
A3B
  0
DICTIONARY
  5
2DAA
330
614
100
AcDbDictionary
280
     1
281
     1
  3
ADSK_XREC_LAYER_RECONCILED
360
A3D
  0
DICTIONARY
  5
2DCC
330
1F
100
AcDbDictionary
280
     1
281
     1
  3
ACAD_SORTENTS
360
2DCD
  0
DICTIONARY
  5
2EFC
330
34
100
AcDbDictionary
280
     1
281
     1
  3
ACAD_XREC_ROUNDTRIP
360
2EFD
  0
DICTIONARY
  5
2EF7
102
{ACAD_REACTORS
330
C
102
}
330
C
100
AcDbDictionary
281
     1
  3
DIMFXL
350
2EF8
  3
DIMJOGANG
350
2EF9
  0
XRECORD
  5
2E10
102
{ACAD_REACTORS
330
C
102
}
330
C
100
AcDbXrecord
280
     1
300
ACDLT
300
2015
300
ACDLT_F_S
  0
DICTIONARY
  5
6C
102
{ACAD_REACTORS
330
C
102
}
330
C
100
AcDbDictionary
281
     1
  0
DICTIONARY
  5
2E0C
102
{ACAD_REACTORS
330
C
102
}
330
C
100
AcDbDictionary
281
     1
  3
METRIC50
350
2E0D
  0
DICTIONARY
  5
D
102
{ACAD_REACTORS
330
C
102
}
330
C
100
AcDbDictionary
281
     1
  0
DICTIONARY
  5
1A
102
{ACAD_REACTORS
330
C
102
}
330
C
100
AcDbDictionary
281
     1
  3
Layout1
350
74
  3
Model
350
22
  0
DICTIONARY
  5
6B
102
{ACAD_REACTORS
330
C
102
}
330
C
100
AcDbDictionary
281
     1
  3
ByBlock
350
2DE0
  3
ByLayer
350
2DD8
  3
Global
350
2DE8
  0
DICTIONARY
  5
2C9
102
{ACAD_REACTORS
330
C
102
}
330
C
100
AcDbDictionary
281
     1
  3
Standard
350
2E09
  0
DICTIONARY
  5
17
102
{ACAD_REACTORS
330
C
102
}
330
C
100
AcDbDictionary
281
     1
  3
Standard
350
18
  0
DICTIONARY
  5
19
102
{ACAD_REACTORS
330
C
102
}
330
C
100
AcDbDictionary
281
     1
  0
ACDBDICTIONARYWDFLT
  5
E
102
{ACAD_REACTORS
330
C
102
}
330
C
100
AcDbDictionary
281
     1
  3
Normal
350
F
100
AcDbDictionaryWithDefault
340
F
  0
DICTIONARY
  5
99
102
{ACAD_REACTORS
330
C
102
}
330
C
100
AcDbDictionary
281
     1
  3
A0
350
9A
  3
A1
350
9B
  3
A2
350
9C
  3
A3
350
9D
  3
A4
350
9E
  3
A5
350
9F
  3
A6
350
A0
  3
A7
350
A1
  3
A8
350
A2
  3
A9
350
A3
  3
B0
350
A4
  3
B1
350
A5
  3
B2
350
A6
  3
B3
350
A7
  3
B4
350
A8
  3
B5
350
A9
  3
B6
350
AA
  3
B7
350
AB
  3
B8
350
AC
  3
B9
350
AD
  3
C0
350
AE
  3
C1
350
AF
  3
C2
350
B0
  3
C3
350
B1
  3
C4
350
B2
  3
C5
350
B3
  3
C6
350
B4
  3
C7
350
B5
  3
C8
350
B6
  3
C9
350
B7
  3
D0
350
B8
  3
D1
350
B9
  3
D2
350
BA
  0
DICTIONARY
  5
2E0A
102
{ACAD_REACTORS
330
C
102
}
330
C
100
AcDbDictionary
281
     1
  3
METRIC50
350
2E0B
  0
DICTIONARY
  5
92
102
{ACAD_REACTORS
330
C
102
}
330
C
100
AcDbDictionary
281
     1
  3
Standard
350
2E08
  0
DICTIONARY
  5
2A0
102
{ACAD_REACTORS
330
C
102
}
330
C
100
AcDbDictionary
281
     1
  3
2dWireframe
350
2DF5
  3
Basic
350
2DF4
  3
Brighten
350
2DFB
  3
ColorChange
350
2DFF
  3
Conceptual
350
2DF8
  3
Dim
350
2DFA
  3
EdgeColorOff
350
2E07
  3
Facepattern
350
2DFE
  3
Flat
350
2DF0
  3
FlatWithEdges
350
2DF1
  3
Gouraud
350
2DF2
  3
GouraudWithEdges
350
2DF3
  3
Hidden
350
2DF7
  3
JitterOff
350
2E05
  3
Linepattern
350
2DFD
  3
OverhangOff
350
2E06
  3
Realistic
350
2DF9
  3
Shaded
350
2E04
  3
Shaded with edges
350
2E03
  3
Shades of Gray
350
2E00
  3
Sketchy
350
2E01
  3
Thicken
350
2DFC
  3
Wireframe
350
2DF6
  3
X-Ray
350
2E02
  0
WIPEOUTVARIABLES
  5
2DAB
102
{ACAD_REACTORS
330
C
102
}
330
C
100
AcDbWipeoutVariables
 70
     1
  0
XRECORD
  5
2EF5
102
{ACAD_REACTORS
330
C
102
}
330
C
100
AcDbXrecord
280
     1
 90
        1
330
2E08
  0
DICTIONARY
  5
2DCF
102
{ACAD_REACTORS
330
C
102
}
330
C
100
AcDbDictionary
281
     1
  3
COLORDICT
350
2DD0
  3
MATERIALDICT
350
2DD1
  0
DICTIONARY
  5
2EEA
102
{ACAD_REACTORS
330
C
102
}
330
C
100
AcDbDictionary
281
     1
  3
CANNOSCALE
350
2EEF
  3
CMLEADERSTYLE
350
2EEC
  3
CTABLESTYLE
350
2EEB
  3
CVIEWDETAILSTYLE
350
2EED
  3
CVIEWSECTIONSTYLE
350
2EEE
  3
DIMASSOC
350
2EF2
  3
INDEXCTL
350
2EF1
  3
SORTENTS
350
2EF0
  3
XCLIPFRAME
350
2EF3
  0
DICTIONARY
  5
A41
102
{ACAD_REACTORS
330
C
102
}
330
C
100
AcDbDictionary
281
     1
  3
ASEBLOCKHIERARCHYINDEXRECORD
350
A42
  0
XRECORD
  5
2EF6
102
{ACAD_REACTORS
330
C
102
}
330
C
100
AcDbXrecord
280
     1
  1
DWGPROPS COOKIE
  2

  3

  4

  6

  7

  8
ruebsamenm
  9

300
=
301
=
302
=
303
=
304
=
305
=
306
=
307
=
308
=
309
=
 40
0.116548275462963
 41
2453353.800459155
 42
2460185.576836215
  1

 90
        0
  0
DICTIONARY
  5
62D
102
{ACAD_REACTORS
330
2DAC
102
}
330
2DAC
100
AcDbDictionary
281
     1
  3
_LAYISO_STATE
350
B87
  0
XRECORD
  5
A32
102
{ACAD_REACTORS
330
2DA1
102
}
330
2DA1
100
AcDbXrecord
280
     1
290
     1
  0
XRECORD
  5
A34
102
{ACAD_REACTORS
330
2DA2
102
}
330
2DA2
100
AcDbXrecord
280
     1
290
     1
  0
XRECORD
  5
A35
102
{ACAD_REACTORS
330
2DA3
102
}
330
2DA3
100
AcDbXrecord
280
     1
290
     1
  0
XRECORD
  5
A36
102
{ACAD_REACTORS
330
2DA4
102
}
330
2DA4
100
AcDbXrecord
280
     1
290
     1
  0
XRECORD
  5
A37
102
{ACAD_REACTORS
330
2DA5
102
}
330
2DA5
100
AcDbXrecord
280
     1
290
     1
  0
XRECORD
  5
A38
102
{ACAD_REACTORS
330
2DA6
102
}
330
2DA6
100
AcDbXrecord
280
     1
290
     1
  0
XRECORD
  5
A39
102
{ACAD_REACTORS
330
2DA7
102
}
330
2DA7
100
AcDbXrecord
280
     1
290
     1
  0
XRECORD
  5
A3A
102
{ACAD_REACTORS
330
2DA8
102
}
330
2DA8
100
AcDbXrecord
280
     1
290
     1
  0
XRECORD
  5
A3B
102
{ACAD_REACTORS
330
2DA9
102
}
330
2DA9
100
AcDbXrecord
280
     1
290
     1
  0
XRECORD
  5
A3D
102
{ACAD_REACTORS
330
2DAA
102
}
330
2DAA
100
AcDbXrecord
280
     1
290
     1
  0
SORTENTSTABLE
  5
2DCD
102
{ACAD_REACTORS
330
2DCC
102
}
330
2DCC
100
AcDbSortentsTable
330
1F
331
2E1C
  5
2480
331
2E14
  5
2422
  0
XRECORD
  5
2EFD
102
{ACAD_REACTORS
330
2EFC
102
}
330
2EFC
100
AcDbXrecord
280
     1
102
SHADEPLOT
 70
     0
  0
XRECORD
  5
2EF8
102
{ACAD_REACTORS
330
2EF7
102
}
330
2EF7
100
AcDbXrecord
280
     1
 40
1.25
  0
XRECORD
  5
2EF9
102
{ACAD_REACTORS
330
2EF7
102
}
330
2EF7
100
AcDbXrecord
280
     1
 40
1.570796326794896
  0
ACDBDETAILVIEWSTYLE
  5
2E0D
102
{ACAD_XDICTIONARY
360
2F33
102
}
102
{ACAD_REACTORS
330
2E0C
102
}
330
2E0C
100
AcDbModelDocViewStyle
 70
     0
  3
Metric50
290
     0
100
AcDbDetailViewStyle
 70
     0
 71
     0
 90
        3
 71
     1
340
11
 40
5.0
340
0
 40
5.0
300

 40
0.0
280
     1
 71
     2
340
16
 90
       25
 71
     3
340
11
 40
5.0
 90
        0
 40
15.0
 90
        1
300
%<\AcVar ViewDetailId>% (%<\AcVar ViewScale \f "%sn">%)
 71
     4
340
16
 90
       25
340
16
 90
       25
280
     0
  0
LAYOUT
  5
74
102
{ACAD_XDICTIONARY
360
2EFE
102
}
102
{ACAD_REACTORS
330
1A
102
}
330
1A
100
AcDbPlotSettings
  1

  2
none_device
  4
Letter_(8.50_x_11.00_Inches)
  6

 40
6.349999999999998
 41
6.349999999999998
 42
6.350005079999998
 43
6.350005079999998
 44
215.9
 45
279.4
 46
0.0
 47
0.0
 48
0.0
 49
0.0
140
0.0
141
0.0
142
1.0
143
1.0
 70
   544
 72
     0
 73
     0
 74
     0
  7

 75
    16
147
1.0
148
0.0
149
0.0
100
AcDbLayout
  1
Layout1
 70
     1
 71
     1
 10
0.0
 20
0.0
 11
420.0
 21
297.0
 12
0.0
 22
0.0
 32
0.0
 14
0.0
 24
0.0
 34
0.0
 15
281.007629
 25
92.32476
 35
2.0
146
0.0
 13
0.0
 23
0.0
 33
0.0
 16
1.0
 26
0.0
 36
0.0
 17
0.0
 27
1.0
 37
0.0
 76
     0
330
73
331
34
  0
LAYOUT
  5
22
102
{ACAD_XDICTIONARY
360
2EFA
102
}
102
{ACAD_REACTORS
330
1A
102
}
330
1A
100
AcDbPlotSettings
  1

  2
none_device
  4
Letter_(8.50_x_11.00_Inches)
  6

 40
6.349999999999998
 41
6.349999999999998
 42
6.350005079999998
 43
6.350005079999998
 44
215.9
 45
279.4
 46
0.0
 47
0.0
 48
0.0
 49
0.0
140
0.0
141
0.0
142
1.0
143
1.0
 70
 11936
 72
     0
 73
     0
 74
     0
  7

 75
     0
147
0.0342362219598424
148
0.0
149
0.0
100
AcDbLayout
  1
Model
 70
     1
 71
     0
 10
0.0
 20
0.0
 11
420.0
 21
297.0
 12
0.0
 22
0.0
 32
0.0
 14
-87.32631117866217
 24
-49.91335444515192
 34
0.0
 15
86.73532450390132
 25
74.446036276732
 35
0.0
146
0.0
 13
0.0
 23
0.0
 33
0.0
 16
1.0
 26
0.0
 36
0.0
 17
0.0
 27
1.0
 37
0.0
 76
     0
330
1F
331
97
  0
MATERIAL
  5
2DE0
102
{ACAD_XDICTIONARY
360
2DE1
102
}
102
{ACAD_REACTORS
330
6B
102
}
330
6B
100
AcDbMaterial
  1
ByBlock
 72
     0
 43
0.0208333333333333
 43
0.0
 43
0.0
 43
0.0
 43
0.0
 43
0.0208333333333333
 43
0.0
 43
0.0
 43
0.0
 43
0.0
 43
1.0
 43
0.0
 43
0.0
 43
0.0
 43
0.0
 43
1.0
 77
     0
 47
0.0208333333333333
 47
0.0
 47
0.0
 47
0.0
 47
0.0
 47
0.0208333333333333
 47
0.0
 47
0.0
 47
0.0
 47
0.0
 47
1.0
 47
0.0
 47
0.0
 47
0.0
 47
0.0
 47
1.0
171
     0
 49
0.0208333333333333
 49
0.0
 49
0.0
 49
0.0
 49
0.0
 49
0.0208333333333333
 49
0.0
 49
0.0
 49
0.0
 49
0.0
 49
1.0
 49
0.0
 49
0.0
 49
0.0
 49
0.0
 49
1.0
175
     0
142
0.0208333333333333
142
0.0
142
0.0
142
0.0
142
0.0
142
0.0208333333333333
142
0.0
142
0.0
142
0.0
142
0.0
142
1.0
142
0.0
142
0.0
142
0.0
142
0.0
142
1.0
179
     0
144
0.0208333333333333
144
0.0
144
0.0
144
0.0
144
0.0
144
0.0208333333333333
144
0.0
144
0.0
144
0.0
144
0.0
144
1.0
144
0.0
144
0.0
144
0.0
144
0.0
144
1.0
147
0.0208333333333333
147
0.0
147
0.0
147
0.0
147
0.0
147
0.0208333333333333
147
0.0
147
0.0
147
0.0
147
0.0
147
1.0
147
0.0
147
0.0
147
0.0
147
0.0
147
1.0
  0
MATERIAL
  5
2DD8
102
{ACAD_XDICTIONARY
360
2DD9
102
}
102
{ACAD_REACTORS
330
6B
102
}
330
6B
100
AcDbMaterial
  1
ByLayer
 72
     0
 43
0.0208333333333333
 43
0.0
 43
0.0
 43
0.0
 43
0.0
 43
0.0208333333333333
 43
0.0
 43
0.0
 43
0.0
 43
0.0
 43
1.0
 43
0.0
 43
0.0
 43
0.0
 43
0.0
 43
1.0
 77
     0
 47
0.0208333333333333
 47
0.0
 47
0.0
 47
0.0
 47
0.0
 47
0.0208333333333333
 47
0.0
 47
0.0
 47
0.0
 47
0.0
 47
1.0
 47
0.0
 47
0.0
 47
0.0
 47
0.0
 47
1.0
171
     0
 49
0.0208333333333333
 49
0.0
 49
0.0
 49
0.0
 49
0.0
 49
0.0208333333333333
 49
0.0
 49
0.0
 49
0.0
 49
0.0
 49
1.0
 49
0.0
 49
0.0
 49
0.0
 49
0.0
 49
1.0
175
     0
142
0.0208333333333333
142
0.0
142
0.0
142
0.0
142
0.0
142
0.0208333333333333
142
0.0
142
0.0
142
0.0
142
0.0
142
1.0
142
0.0
142
0.0
142
0.0
142
0.0
142
1.0
179
     0
144
0.0208333333333333
144
0.0
144
0.0
144
0.0
144
0.0
144
0.0208333333333333
144
0.0
144
0.0
144
0.0
144
0.0
144
1.0
144
0.0
144
0.0
144
0.0
144
0.0
144
1.0
147
0.0208333333333333
147
0.0
147
0.0
147
0.0
147
0.0
147
0.0208333333333333
147
0.0
147
0.0
147
0.0
147
0.0
147
1.0
147
0.0
147
0.0
147
0.0
147
0.0
147
1.0
  0
MATERIAL
  5
2DE8
102
{ACAD_XDICTIONARY
360
2DE9
102
}
102
{ACAD_REACTORS
330
6B
102
}
330
6B
100
AcDbMaterial
  1
Global
 72
     0
 43
0.0208333333333333
 43
0.0
 43
0.0
 43
0.0
 43
0.0
 43
0.0208333333333333
 43
0.0
 43
0.0
 43
0.0
 43
0.0
 43
1.0
 43
0.0
 43
0.0
 43
0.0
 43
0.0
 43
1.0
 77
     0
 47
0.0208333333333333
 47
0.0
 47
0.0
 47
0.0
 47
0.0
 47
0.0208333333333333
 47
0.0
 47
0.0
 47
0.0
 47
0.0
 47
1.0
 47
0.0
 47
0.0
 47
0.0
 47
0.0
 47
1.0
171
     0
 49
0.0208333333333333
 49
0.0
 49
0.0
 49
0.0
 49
0.0
 49
0.0208333333333333
 49
0.0
 49
0.0
 49
0.0
 49
0.0
 49
1.0
 49
0.0
 49
0.0
 49
0.0
 49
0.0
 49
1.0
175
     0
142
0.0208333333333333
142
0.0
142
0.0
142
0.0
142
0.0
142
0.0208333333333333
142
0.0
142
0.0
142
0.0
142
0.0
142
1.0
142
0.0
142
0.0
142
0.0
142
0.0
142
1.0
179
     0
144
0.0208333333333333
144
0.0
144
0.0
144
0.0
144
0.0
144
0.0208333333333333
144
0.0
144
0.0
144
0.0
144
0.0
144
1.0
144
0.0
144
0.0
144
0.0
144
0.0
144
1.0
147
0.0208333333333333
147
0.0
147
0.0
147
0.0
147
0.0
147
0.0208333333333333
147
0.0
147
0.0
147
0.0
147
0.0
147
1.0
147
0.0
147
0.0
147
0.0
147
0.0
147
1.0
  0
MLEADERSTYLE
  5
2E09
102
{ACAD_REACTORS
330
2C9
102
}
330
2C9
100
AcDbMLeaderStyle
170
     2
171
     1
172
     0
 90
        2
 40
0.0
 41
0.0
173
     1
 91
-1056964608
340
14
 92
       -2
290
     1
 42
2.0
291
     1
 43
0.36
  3
Standard
 44
4.0
300

342
11
174
     1
178
     6
175
     1
176
     0
 93
-1056964608
 45
4.0
292
     0
297
     0
 46
4.0
 94
-1056964608
 47
1.0
 49
1.0
140
1.0
293
     1
141
0.0
294
     1
177
     0
142
1.0
295
     0
296
     0
143
0.125
1001
ACAD_MLEADERVER
1070
     2
  0
MLINESTYLE
  5
18
102
{ACAD_REACTORS
330
17
102
}
330
17
100
AcDbMlineStyle
  2
STANDARD
 70
     0
  3

 62
     0
 51
90.0
 52
90.0
 71
     2
 49
0.5
 62
   256
  6
BYLAYER
 49
-0.5
 62
   256
  6
BYLAYER
  0
ACDBPLACEHOLDER
  5
F
102
{ACAD_REACTORS
330
E
102
}
330
E
  0
SCALE
  5
9A
102
{ACAD_REACTORS
330
99
102
}
330
99
100
AcDbScale
 70
     0
300
1:1
140
1.0
141
1.0
290
     1
  0
SCALE
  5
9B
102
{ACAD_REACTORS
330
99
102
}
330
99
100
AcDbScale
 70
     0
300
1:2
140
1.0
141
2.0
290
     0
  0
SCALE
  5
9C
102
{ACAD_REACTORS
330
99
102
}
330
99
100
AcDbScale
 70
     0
300
1:4
140
1.0
141
4.0
290
     0
  0
SCALE
  5
9D
102
{ACAD_REACTORS
330
99
102
}
330
99
100
AcDbScale
 70
     0
300
1:5
140
1.0
141
5.0
290
     0
  0
SCALE
  5
9E
102
{ACAD_REACTORS
330
99
102
}
330
99
100
AcDbScale
 70
     0
300
1:8
140
1.0
141
8.0
290
     0
  0
SCALE
  5
9F
102
{ACAD_REACTORS
330
99
102
}
330
99
100
AcDbScale
 70
     0
300
1:10
140
1.0
141
10.0
290
     0
  0
SCALE
  5
A0
102
{ACAD_REACTORS
330
99
102
}
330
99
100
AcDbScale
 70
     0
300
1:16
140
1.0
141
16.0
290
     0
  0
SCALE
  5
A1
102
{ACAD_REACTORS
330
99
102
}
330
99
100
AcDbScale
 70
     0
300
1:20
140
1.0
141
20.0
290
     0
  0
SCALE
  5
A2
102
{ACAD_REACTORS
330
99
102
}
330
99
100
AcDbScale
 70
     0
300
1:30
140
1.0
141
30.0
290
     0
  0
SCALE
  5
A3
102
{ACAD_REACTORS
330
99
102
}
330
99
100
AcDbScale
 70
     0
300
1:40
140
1.0
141
40.0
290
     0
  0
SCALE
  5
A4
102
{ACAD_REACTORS
330
99
102
}
330
99
100
AcDbScale
 70
     0
300
1:50
140
1.0
141
50.0
290
     0
  0
SCALE
  5
A5
102
{ACAD_REACTORS
330
99
102
}
330
99
100
AcDbScale
 70
     0
300
1:100
140
1.0
141
100.0
290
     0
  0
SCALE
  5
A6
102
{ACAD_REACTORS
330
99
102
}
330
99
100
AcDbScale
 70
     0
300
2:1
140
2.0
141
1.0
290
     0
  0
SCALE
  5
A7
102
{ACAD_REACTORS
330
99
102
}
330
99
100
AcDbScale
 70
     0
300
4:1
140
4.0
141
1.0
290
     0
  0
SCALE
  5
A8
102
{ACAD_REACTORS
330
99
102
}
330
99
100
AcDbScale
 70
     0
300
8:1
140
8.0
141
1.0
290
     0
  0
SCALE
  5
A9
102
{ACAD_REACTORS
330
99
102
}
330
99
100
AcDbScale
 70
     0
300
10:1
140
10.0
141
1.0
290
     0
  0
SCALE
  5
AA
102
{ACAD_REACTORS
330
99
102
}
330
99
100
AcDbScale
 70
     0
300
100:1
140
100.0
141
1.0
290
     0
  0
SCALE
  5
AB
102
{ACAD_REACTORS
330
99
102
}
330
99
100
AcDbScale
 70
     0
300
1/128" = 1'-0"
140
0.0078125
141
12.0
290
     0
  0
SCALE
  5
AC
102
{ACAD_REACTORS
330
99
102
}
330
99
100
AcDbScale
 70
     0
300
1/64" = 1'-0"
140
0.015625
141
12.0
290
     0
  0
SCALE
  5
AD
102
{ACAD_REACTORS
330
99
102
}
330
99
100
AcDbScale
 70
     0
300
1/32" = 1'-0"
140
0.03125
141
12.0
290
     0
  0
SCALE
  5
AE
102
{ACAD_REACTORS
330
99
102
}
330
99
100
AcDbScale
 70
     0
300
1/16" = 1'-0"
140
0.0625
141
12.0
290
     0
  0
SCALE
  5
AF
102
{ACAD_REACTORS
330
99
102
}
330
99
100
AcDbScale
 70
     0
300
3/32" = 1'-0"
140
0.09375
141
12.0
290
     0
  0
SCALE
  5
B0
102
{ACAD_REACTORS
330
99
102
}
330
99
100
AcDbScale
 70
     0
300
1/8" = 1'-0"
140
0.125
141
12.0
290
     0
  0
SCALE
  5
B1
102
{ACAD_REACTORS
330
99
102
}
330
99
100
AcDbScale
 70
     0
300
3/16" = 1'-0"
140
0.1875
141
12.0
290
     0
  0
SCALE
  5
B2
102
{ACAD_REACTORS
330
99
102
}
330
99
100
AcDbScale
 70
     0
300
1/4" = 1'-0"
140
0.25
141
12.0
290
     0
  0
SCALE
  5
B3
102
{ACAD_REACTORS
330
99
102
}
330
99
100
AcDbScale
 70
     0
300
3/8" = 1'-0"
140
0.375
141
12.0
290
     0
  0
SCALE
  5
B4
102
{ACAD_REACTORS
330
99
102
}
330
99
100
AcDbScale
 70
     0
300
1/2" = 1'-0"
140
0.5
141
12.0
290
     0
  0
SCALE
  5
B5
102
{ACAD_REACTORS
330
99
102
}
330
99
100
AcDbScale
 70
     0
300
3/4" = 1'-0"
140
0.75
141
12.0
290
     0
  0
SCALE
  5
B6
102
{ACAD_REACTORS
330
99
102
}
330
99
100
AcDbScale
 70
     0
300
1" = 1'-0"
140
1.0
141
12.0
290
     0
  0
SCALE
  5
B7
102
{ACAD_REACTORS
330
99
102
}
330
99
100
AcDbScale
 70
     0
300
1-1/2" = 1'-0"
140
1.5
141
12.0
290
     0
  0
SCALE
  5
B8
102
{ACAD_REACTORS
330
99
102
}
330
99
100
AcDbScale
 70
     0
300
3" = 1'-0"
140
3.0
141
12.0
290
     0
  0
SCALE
  5
B9
102
{ACAD_REACTORS
330
99
102
}
330
99
100
AcDbScale
 70
     0
300
6" = 1'-0"
140
6.0
141
12.0
290
     0
  0
SCALE
  5
BA
102
{ACAD_REACTORS
330
99
102
}
330
99
100
AcDbScale
 70
     0
300
1'-0" = 1'-0"
140
12.0
141
12.0
290
     0
  0
ACDBSECTIONVIEWSTYLE
  5
2E0B
102
{ACAD_XDICTIONARY
360
2F31
102
}
102
{ACAD_REACTORS
330
2E0A
102
}
330
2E0A
100
AcDbModelDocViewStyle
 70
     0
  3
Metric50
290
     0
100
AcDbSectionViewStyle
 70
     0
 71
     0
 90
      102
 71
     1
340
11
 40
5.0
340
0
340
0
 40
5.0
300
I, O, Q, S, X, Z
 40
10.0
 90
        0
 40
2.5
 90
        0
 71
     2
340
16
 90
       25
340
16
 90
       50
 40
5.0
 40
2.5
 40
5.0
 71
     3
340
11
 40
5.0
 90
        0
 40
15.0
 90
        1
300
%<\AcVar ViewSectionStartId>%-%<\AcVar ViewSectionEndId>% (%<\AcVar ViewScale \f "%sn">%)
 71
     4
300
ANSI31
 40
1.0
 90
        0
290
     0
290
     0
 90
        6
 40
0.0
 40
1.570796326794896
 40
0.2617993877991494
 40
1.308996938995747
 40
-0.2617993877991494
 40
1.832595714594045
  0
TABLESTYLE
  5
2E08
102
{ACAD_XDICTIONARY
360
2E97
102
}
102
{ACAD_REACTORS
330
92
102
}
330
92
100
AcDbTableStyle
  3
Standard
 70
     0
 71
     0
 40
1.5
 41
1.5
280
     0
281
     0
  7
Standard
140
4.5
170
     2
 62
     0
 63
     7
283
     0
274
    -2
284
     1
 64
     0
275
    -2
285
     1
 65
     0
276
    -2
286
     1
 66
     0
277
    -2
287
     1
 67
     0
278
    -2
288
     1
 68
     0
279
    -2
289
     1
 69
     0
  7
Standard
140
6.0
170
     5
 62
     0
 63
     7
283
     0
274
    -2
284
     1
 64
     0
275
    -2
285
     1
 65
     0
276
    -2
286
     1
 66
     0
277
    -2
287
     1
 67
     0
278
    -2
288
     1
 68
     0
279
    -2
289
     1
 69
     0
  7
Standard
140
4.5
170
     5
 62
     0
 63
     7
283
     0
274
    -2
284
     1
 64
     0
275
    -2
285
     1
 65
     0
276
    -2
286
     1
 66
     0
277
    -2
287
     1
 67
     0
278
    -2
288
     1
 68
     0
279
    -2
289
     1
 69
     0
  0
VISUALSTYLE
  5
2DF5
102
{ACAD_XDICTIONARY
360
2F0A
102
}
102
{ACAD_REACTORS
330
2A0
102
}
330
2A0
100
AcDbVisualStyle
  2

 70
     4
 71
     0
 72
     2
 73
     0
 90
        0
 40
-0.6
 41
-30.0
 62
     5
 63
     7
 74
     1
 91
        4
 64
     7
 65
   257
 75
     1
175
     1
 42
1.0
 92
        0
 66
   257
 43
1.0
 76
     1
 77
     6
 78
     2
 67
     7
 79
     5
170
     0
171
     0
290
     0
174
     0
 93
        1
 44
0.0
173
     0
291
     0
 45
0.0
1001
ACAD
1000
AcDbSavedByObjectVersion
1070
     0
  0
VISUALSTYLE
  5
2DF4
102
{ACAD_XDICTIONARY
360
2F08
102
}
102
{ACAD_REACTORS
330
2A0
102
}
330
2A0
100
AcDbVisualStyle
  2

 70
     7
 71
     1
 72
     0
 73
     1
 90
        0
 40
-0.6
 41
-30.0
 62
     5
 63
     7
 74
     0
 91
        4
 64
     7
 65
   257
 75
     1
175
     1
 42
1.0
 92
        8
 66
     7
 43
1.0
 76
     1
 77
     6
 78
     2
 67
     7
 79
     5
170
     0
171
     0
290
     0
174
     0
 93
        1
 44
0.0
173
     0
291
     1
 45
0.0
1001
ACAD
1000
AcDbSavedByObjectVersion
1070
     0
  0
VISUALSTYLE
  5
2DFB
102
{ACAD_XDICTIONARY
360
2F16
102
}
102
{ACAD_REACTORS
330
2A0
102
}
330
2A0
100
AcDbVisualStyle
  2

 70
    12
 71
     2
 72
     2
 73
     0
 90
        0
 40
-0.6
 41
-30.0
 62
     5
 63
     7
 74
     1
 91
        4
 64
     7
 65
   257
 75
     1
175
     1
 42
1.0
 92
        8
 66
     7
 43
1.0
 76
     1
 77
     6
 78
     2
 67
     7
 79
     5
170
     0
171
     0
290
     0
174
     0
 93
        1
 44
50.0
173
     0
291
     1
 45
0.0
1001
ACAD
1000
AcDbSavedByObjectVersion
1070
     0
  0
VISUALSTYLE
  5
2DFF
102
{ACAD_XDICTIONARY
360
2F1E
102
}
102
{ACAD_REACTORS
330
2A0
102
}
330
2A0
100
AcDbVisualStyle
  2

 70
    16
 71
     2
 72
     2
 73
     3
 90
        0
 40
-0.6
 41
-30.0
 62
     5
 63
     8
 74
     1
 91
        4
 64
     7
 65
   257
 75
     1
175
     1
 42
1.0
 92
        8
 66
     8
 43
1.0
 76
     1
 77
     6
 78
     2
 67
     7
 79
     5
170
     0
171
     0
290
     0
174
     0
 93
        1
 44
0.0
173
     0
291
     1
 45
0.0
1001
ACAD
1000
AcDbSavedByObjectVersion
1070
     0
  0
VISUALSTYLE
  5
2DF8
102
{ACAD_XDICTIONARY
360
2F10
102
}
102
{ACAD_REACTORS
330
2A0
102
}
330
2A0
100
AcDbVisualStyle
  2

 70
     9
 71
     3
 72
     2
 73
     0
 90
        0
 40
-0.6
 41
-30.0
 62
     5
 63
     7
 74
     2
 91
        2
 64
     7
 65
   257
 75
     1
175
     1
 42
179.0
 92
        8
 66
     7
 43
1.0
 76
     1
 77
     6
 78
     2
 67
     7
 79
     3
170
     0
171
     0
290
     0
174
     0
 93
        1
 44
0.0
173
     0
291
     0
 45
0.0
1001
ACAD
1000
AcDbSavedByObjectVersion
1070
     0
  0
VISUALSTYLE
  5
2DFA
102
{ACAD_XDICTIONARY
360
2F14
102
}
102
{ACAD_REACTORS
330
2A0
102
}
330
2A0
100
AcDbVisualStyle
  2

 70
    11
 71
     2
 72
     2
 73
     0
 90
        0
 40
-0.6
 41
-30.0
 62
     5
 63
     7
 74
     1
 91
        4
 64
     7
 65
   257
 75
     1
175
     1
 42
1.0
 92
        8
 66
     7
 43
1.0
 76
     1
 77
     6
 78
     2
 67
     7
 79
     5
170
     0
171
     0
290
     0
174
     0
 93
        1
 44
-50.0
173
     0
291
     1
 45
0.0
1001
ACAD
1000
AcDbSavedByObjectVersion
1070
     0
  0
VISUALSTYLE
  5
2E07
102
{ACAD_XDICTIONARY
360
2F2E
102
}
102
{ACAD_REACTORS
330
2A0
102
}
330
2A0
100
AcDbVisualStyle
  2

 70
    22
 71
     2
 72
     2
 73
     0
 90
        0
 40
-0.6
 41
-30.0
 62
     5
 63
     7
 74
     1
 91
        4
 64
     7
 65
   257
 75
     1
175
     1
 42
1.0
 92
        8
 66
     7
 43
1.0
 76
     1
 77
     6
 78
     2
 67
     7
 79
     5
170
     0
171
     0
290
     0
174
     0
 93
        1
 44
0.0
173
     0
291
     1
 45
0.0
1001
ACAD
1000
AcDbSavedByObjectVersion
1070
     0
  0
VISUALSTYLE
  5
2DFE
102
{ACAD_XDICTIONARY
360
2F1C
102
}
102
{ACAD_REACTORS
330
2A0
102
}
330
2A0
100
AcDbVisualStyle
  2

 70
    15
 71
     2
 72
     2
 73
     0
 90
        0
 40
-0.6
 41
-30.0
 62
     5
 63
     7
 74
     1
 91
        4
 64
     7
 65
   257
 75
     1
175
     1
 42
1.0
 92
        8
 66
     7
 43
1.0
 76
     1
 77
     6
 78
     2
 67
     7
 79
     5
170
     0
171
     0
290
     0
174
     0
 93
        1
 44
0.0
173
     0
291
     1
 45
0.0
1001
ACAD
1000
AcDbSavedByObjectVersion
1070
     0
  0
VISUALSTYLE
  5
2DF0
102
{ACAD_XDICTIONARY
360
2F00
102
}
102
{ACAD_REACTORS
330
2A0
102
}
330
2A0
100
AcDbVisualStyle
  2

 70
     0
 71
     2
 72
     1
 73
     1
 90
        2
 40
-0.6
 41
30.0
 62
     5
 63
     7
 74
     0
 91
        0
 64
     7
 65
   257
 75
     1
175
     1
 42
1.0
 92
        8
 66
     7
 43
1.0
 76
     1
 77
     6
 78
     2
 67
     7
 79
     5
170
     0
171
     0
290
     0
174
     0
 93
       13
 44
0.0
173
     0
291
     1
 45
0.0
1001
ACAD
1000
AcDbSavedByObjectVersion
1070
     0
  0
VISUALSTYLE
  5
2DF1
102
{ACAD_XDICTIONARY
360
2F02
102
}
102
{ACAD_REACTORS
330
2A0
102
}
330
2A0
100
AcDbVisualStyle
  2

 70
     1
 71
     2
 72
     1
 73
     1
 90
        2
 40
-0.6
 41
30.0
 62
     5
 63
     7
 74
     1
 91
        0
 64
     7
 65
   257
 75
     1
175
     1
 42
1.0
 92
        0
 66
   257
 43
1.0
 76
     1
 77
     6
 78
     2
 67
     7
 79
     5
170
     0
171
     0
290
     0
174
     0
 93
       13
 44
0.0
173
     0
291
     1
 45
0.0
1001
ACAD
1000
AcDbSavedByObjectVersion
1070
     0
  0
VISUALSTYLE
  5
2DF2
102
{ACAD_XDICTIONARY
360
2F04
102
}
102
{ACAD_REACTORS
330
2A0
102
}
330
2A0
100
AcDbVisualStyle
  2

 70
     2
 71
     2
 72
     2
 73
     1
 90
        2
 40
-0.6
 41
30.0
 62
     5
 63
     7
 74
     0
 91
        0
 64
     7
 65
   257
 75
     1
175
     1
 42
1.0
 92
        0
 66
     7
 43
1.0
 76
     1
 77
     6
 78
     2
 67
     7
 79
     5
170
     0
171
     0
290
     0
174
     0
 93
       13
 44
0.0
173
     0
291
     1
 45
0.0
1001
ACAD
1000
AcDbSavedByObjectVersion
1070
     0
  0
VISUALSTYLE
  5
2DF3
102
{ACAD_XDICTIONARY
360
2F06
102
}
102
{ACAD_REACTORS
330
2A0
102
}
330
2A0
100
AcDbVisualStyle
  2

 70
     3
 71
     2
 72
     2
 73
     1
 90
        2
 40
-0.6
 41
30.0
 62
     5
 63
     7
 74
     1
 91
        0
 64
     7
 65
   257
 75
     1
175
     1
 42
1.0
 92
        0
 66
   257
 43
1.0
 76
     1
 77
     6
 78
     2
 67
     7
 79
     5
170
     0
171
     0
290
     0
174
     0
 93
       13
 44
0.0
173
     0
291
     1
 45
0.0
1001
ACAD
1000
AcDbSavedByObjectVersion
1070
     0
  0
VISUALSTYLE
  5
2DF7
102
{ACAD_XDICTIONARY
360
2F0E
102
}
102
{ACAD_REACTORS
330
2A0
102
}
330
2A0
100
AcDbVisualStyle
  2

 70
     6
 71
     1
 72
     2
 73
     2
 90
        0
 40
-0.6
 41
-30.0
 62
     5
 63
     7
 74
     2
 91
        2
 64
     7
 65
   257
 75
     2
175
     1
 42
40.0
 92
        0
 66
   257
 43
1.0
 76
     1
 77
     6
 78
     2
 67
     7
 79
     3
170
     0
171
     0
290
     0
174
     0
 93
        1
 44
0.0
173
     0
291
     0
 45
0.0
1001
ACAD
1000
AcDbSavedByObjectVersion
1070
     0
  0
VISUALSTYLE
  5
2E05
102
{ACAD_XDICTIONARY
360
2F2A
102
}
102
{ACAD_REACTORS
330
2A0
102
}
330
2A0
100
AcDbVisualStyle
  2

 70
    20
 71
     2
 72
     2
 73
     0
 90
        0
 40
-0.6
 41
-30.0
 62
     5
 63
     7
 74
     1
 91
        4
 64
     7
 65
   257
 75
     1
175
     1
 42
1.0
 92
       10
 66
     7
 43
1.0
 76
     1
 77
     6
 78
     2
 67
     7
 79
     5
170
     0
171
     0
290
     0
174
     0
 93
        1
 44
0.0
173
     0
291
     1
 45
0.0
1001
ACAD
1000
AcDbSavedByObjectVersion
1070
     0
  0
VISUALSTYLE
  5
2DFD
102
{ACAD_XDICTIONARY
360
2F1A
102
}
102
{ACAD_REACTORS
330
2A0
102
}
330
2A0
100
AcDbVisualStyle
  2

 70
    14
 71
     2
 72
     2
 73
     0
 90
        0
 40
-0.6
 41
-30.0
 62
     5
 63
     7
 74
     1
 91
        4
 64
     7
 65
   257
 75
     7
175
     7
 42
1.0
 92
        8
 66
     7
 43
1.0
 76
     1
 77
     6
 78
     2
 67
     7
 79
     5
170
     0
171
     0
290
     0
174
     0
 93
        1
 44
0.0
173
     0
291
     1
 45
0.0
1001
ACAD
1000
AcDbSavedByObjectVersion
1070
     0
  0
VISUALSTYLE
  5
2E06
102
{ACAD_XDICTIONARY
360
2F2C
102
}
102
{ACAD_REACTORS
330
2A0
102
}
330
2A0
100
AcDbVisualStyle
  2

 70
    21
 71
     2
 72
     2
 73
     0
 90
        0
 40
-0.6
 41
-30.0
 62
     5
 63
     7
 74
     1
 91
        4
 64
     7
 65
   257
 75
     1
175
     1
 42
1.0
 92
        9
 66
     7
 43
1.0
 76
     1
 77
     6
 78
     2
 67
     7
 79
     5
170
     0
171
     0
290
     0
174
     0
 93
        1
 44
0.0
173
     0
291
     1
 45
0.0
1001
ACAD
1000
AcDbSavedByObjectVersion
1070
     0
  0
VISUALSTYLE
  5
2DF9
102
{ACAD_XDICTIONARY
360
2F12
102
}
102
{ACAD_REACTORS
330
2A0
102
}
330
2A0
100
AcDbVisualStyle
  2

 70
     8
 71
     2
 72
     3
 73
     0
 90
        2
 40
-0.6
 41
30.0
 62
     5
 63
     7
 74
     0
 91
        0
 64
     7
 65
   257
 75
     1
175
     1
 42
1.0
 92
        8
 66
   257
 43
1.0
 76
     1
 77
     6
 78
     2
 67
     7
 79
     3
170
     0
171
     0
290
     0
174
     0
 93
       13
 44
0.0
173
     0
291
     0
 45
0.0
1001
ACAD
1000
AcDbSavedByObjectVersion
1070
     0
  0
VISUALSTYLE
  5
2E04
102
{ACAD_XDICTIONARY
360
2F28
102
}
102
{ACAD_REACTORS
330
2A0
102
}
330
2A0
100
AcDbVisualStyle
  2

 70
    27
 71
     2
 72
     2
 73
     1
 90
        2
 40
-0.6
 41
30.0
 62
     5
 63
     7
 74
     0
 91
        4
 64
     7
 65
   257
 75
     1
175
     1
 42
1.0
 92
        8
 66
   257
 43
1.0
 76
     1
 77
     6
 78
     2
 67
     8
 79
     3
170
     0
171
     0
290
     0
174
     0
 93
        5
 44
0.0
173
     0
291
     0
 45
0.0
1001
ACAD
1000
AcDbSavedByObjectVersion
1070
     0
  0
VISUALSTYLE
  5
2E03
102
{ACAD_XDICTIONARY
360
2F26
102
}
102
{ACAD_REACTORS
330
2A0
102
}
330
2A0
100
AcDbVisualStyle
  2

 70
    26
 71
     2
 72
     2
 73
     1
 90
        2
 40
-0.6
 41
30.0
 62
     5
 63
     7
 74
     1
 91
        2
 64
     7
 65
   257
 75
     2
175
     1
 42
1.0
 92
        8
 66
   257
 43
1.0
 76
     1
 77
     6
 78
     2
 67
     7
 79
     3
170
     0
171
     0
290
     0
174
     0
 93
        5
 44
0.0
173
     0
291
     0
 45
0.0
1001
ACAD
1000
AcDbSavedByObjectVersion
1070
     0
  0
VISUALSTYLE
  5
2E00
102
{ACAD_XDICTIONARY
360
2F20
102
}
102
{ACAD_REACTORS
330
2A0
102
}
330
2A0
100
AcDbVisualStyle
  2

 70
    23
 71
     2
 72
     2
 73
     3
 90
        0
 40
-0.6
 41
-30.0
 62
     5
 63
     7
 74
     2
 91
        2
 64
     7
 65
     7
 75
     1
175
     1
 42
40.0
 92
        8
 66
     7
 43
1.0
 76
     1
 77
     6
 78
     2
 67
     7
 79
     3
170
     0
171
     0
290
     0
174
     0
 93
        1
 44
0.0
173
     0
291
     0
 45
0.0
1001
ACAD
1000
AcDbSavedByObjectVersion
1070
     0
  0
VISUALSTYLE
  5
2E01
102
{ACAD_XDICTIONARY
360
2F22
102
}
102
{ACAD_REACTORS
330
2A0
102
}
330
2A0
100
AcDbVisualStyle
  2

 70
    24
 71
     1
 72
     2
 73
     2
 90
        0
 40
-0.6
 41
-30.0
 62
     5
 63
     7
 74
     2
 91
        2
 64
     7
 65
     7
 75
     1
175
     1
 42
40.0
 92
       11
 66
     7
 43
1.0
 76
     1
 77
     6
 78
     2
 67
     7
 79
     6
170
     0
171
     0
290
     0
174
     0
 93
        1
 44
0.0
173
     0
291
     0
 45
0.0
1001
ACAD
1000
AcDbSavedByObjectVersion
1070
     0
  0
VISUALSTYLE
  5
2DFC
102
{ACAD_XDICTIONARY
360
2F18
102
}
102
{ACAD_REACTORS
330
2A0
102
}
330
2A0
100
AcDbVisualStyle
  2

 70
    13
 71
     2
 72
     2
 73
     0
 90
        0
 40
-0.6
 41
-30.0
 62
     5
 63
     7
 74
     1
 91
        4
 64
     7
 65
   257
 75
     1
175
     1
 42
1.0
 92
       12
 66
     7
 43
1.0
 76
     1
 77
     6
 78
     2
 67
     7
 79
     5
170
     0
171
     0
290
     0
174
     0
 93
        1
 44
0.0
173
     0
291
     1
 45
0.0
1001
ACAD
1000
AcDbSavedByObjectVersion
1070
     0
  0
VISUALSTYLE
  5
2DF6
102
{ACAD_XDICTIONARY
360
2F0C
102
}
102
{ACAD_REACTORS
330
2A0
102
}
330
2A0
100
AcDbVisualStyle
  2

 70
     5
 71
     0
 72
     2
 73
     0
 90
        0
 40
-0.6
 41
-30.0
 62
     5
 63
     7
 74
     1
 91
        4
 64
     7
 65
   257
 75
     1
175
     1
 42
1.0
 92
        0
 66
   257
 43
1.0
 76
     1
 77
     6
 78
     2
 67
     7
 79
     3
170
     0
171
     0
290
     0
174
     0
 93
        1
 44
0.0
173
     0
291
     0
 45
0.0
1001
ACAD
1000
AcDbSavedByObjectVersion
1070
     0
  0
VISUALSTYLE
  5
2E02
102
{ACAD_XDICTIONARY
360
2F24
102
}
102
{ACAD_REACTORS
330
2A0
102
}
330
2A0
100
AcDbVisualStyle
  2

 70
    25
 71
     2
 72
     2
 73
     1
 90
        1
 40
0.5
 41
-30.0
 62
     5
 63
     7
 74
     1
 91
        0
 64
     7
 65
   257
 75
     1
175
     1
 42
1.0
 92
        8
 66
     7
 43
1.0
 76
     1
 77
     6
 78
     2
 67
     7
 79
     3
170
     0
171
     0
290
     0
174
     0
 93
       13
 44
0.0
173
     0
291
     0
 45
0.0
1001
ACAD
1000
AcDbSavedByObjectVersion
1070
     0
  0
XRECORD
  5
2DD0
102
{ACAD_REACTORS
330
2DCF
102
}
330
2DCF
100
AcDbXrecord
280
     1
340
6C
  0
XRECORD
  5
2DD1
102
{ACAD_REACTORS
330
2DCF
102
}
330
2DCF
100
AcDbXrecord
280
     1
340
6B
  0
DICTIONARYVAR
  5
2EEF
102
{ACAD_REACTORS
330
2EEA
102
}
330
2EEA
100
DictionaryVariables
280
     0
  1
1:1
  0
DICTIONARYVAR
  5
2EEC
102
{ACAD_REACTORS
330
2EEA
102
}
330
2EEA
100
DictionaryVariables
280
     0
  1
STANDARD
  0
DICTIONARYVAR
  5
2EEB
102
{ACAD_REACTORS
330
2EEA
102
}
330
2EEA
100
DictionaryVariables
280
     0
  1
STANDARD
  0
DICTIONARYVAR
  5
2EED
102
{ACAD_REACTORS
330
2EEA
102
}
330
2EEA
100
DictionaryVariables
280
     0
  1
METRIC50
  0
DICTIONARYVAR
  5
2EEE
102
{ACAD_REACTORS
330
2EEA
102
}
330
2EEA
100
DictionaryVariables
280
     0
  1
METRIC50
  0
DICTIONARYVAR
  5
2EF2
102
{ACAD_REACTORS
330
2EEA
102
}
330
2EEA
100
DictionaryVariables
280
     0
  1
1
  0
DICTIONARYVAR
  5
2EF1
102
{ACAD_REACTORS
330
2EEA
102
}
330
2EEA
100
DictionaryVariables
280
     0
  1
0
  0
DICTIONARYVAR
  5
2EF0
102
{ACAD_REACTORS
330
2EEA
102
}
330
2EEA
100
DictionaryVariables
280
     0
  1
127
  0
DICTIONARYVAR
  5
2EF3
102
{ACAD_REACTORS
330
2EEA
102
}
330
2EEA
100
DictionaryVariables
280
     0
  1
2
  0
XRECORD
  5
A42
102
{ACAD_REACTORS
330
A41
102
}
330
A41
100
AcDbXrecord
280
     1
330
63B
  0
XRECORD
  5
B87
102
{ACAD_REACTORS
330
62D
102
}
330
62D
100
AcDbXrecord
280
     1
 91
      535
301

290
     0
302
0
330
616
 90
        0
 62
     7
370
    -3
331
16
390
0
330
0
 90
        8
 62
     4
370
    50
331
16
390
0
330
614
 90
        8
 62
     4
370
    50
331
16
390
0
330
611
 90
        8
 62
     9
370
    18
331
16
390
0
330
60F
 90
        8
 62
     7
370
    -3
331
16
390
0
330
60D
 90
        8
 62
     1
370
    25
331
16
390
0
330
60B
 90
        8
 62
     5
370
    -3
331
16
390
0
330
609
 90
        8
 62
     2
370
    25
331
2D9E
390
0
330
607
 90
        8
 62
     2
370
    25
331
2D9E
390
0
330
603
 90
        8
 62
     7
370
    25
331
16
390
0
330
601
 90
        8
 62
     7
370
    25
331
16
390
0
330
5FF
 90
        8
 62
     4
370
    50
331
16
390
0
330
10
 90
        8
 62
     7
370
    13
331
16
390
0
  0
DICTIONARY
  5
2F33
330
2E0D
100
AcDbDictionary
280
     1
281
     1
  3
ACAD_XREC_ROUNDTRIP
360
2F34
  0
DICTIONARY
  5
2EFE
330
74
100
AcDbDictionary
280
     1
281
     1
  3
ACAD_XREC_ROUNDTRIP
360
2EFF
  0
DICTIONARY
  5
2EFA
330
22
100
AcDbDictionary
280
     1
281
     1
  3
ACAD_XREC_ROUNDTRIP
360
2EFB
  0
DICTIONARY
  5
2DE1
330
2DE0
100
AcDbDictionary
280
     1
281
     1
  3
ACAD_XREC_ROUNDTRIP
360
2EA5
  3
BUMPTILE
360
2DE3
  3
DIFFUSETILE
360
2DE2
  3
OPACITYTILE
360
2DE6
  3
REFLECTIONTILE
360
2DE5
  3
REFRACTIONTILE
360
2DE7
  3
SPECULARTILE
360
2DE4
  0
DICTIONARY
  5
2DD9
330
2DD8
100
AcDbDictionary
280
     1
281
     1
  3
ACAD_XREC_ROUNDTRIP
360
2EA4
  3
BUMPTILE
360
2DDB
  3
DIFFUSETILE
360
2DDA
  3
OPACITYTILE
360
2DDE
  3
REFLECTIONTILE
360
2DDD
  3
REFRACTIONTILE
360
2DDF
  3
SPECULARTILE
360
2DDC
  0
DICTIONARY
  5
2DE9
330
2DE8
100
AcDbDictionary
280
     1
281
     1
  3
ACAD_XREC_ROUNDTRIP
360
2EA6
  3
BUMPTILE
360
2DEB
  3
DIFFUSETILE
360
2DEA
  3
OPACITYTILE
360
2DEE
  3
REFLECTIONTILE
360
2DED
  3
REFRACTIONTILE
360
2DEF
  3
SPECULARTILE
360
2DEC
  0
DICTIONARY
  5
2F31
330
2E0B
100
AcDbDictionary
280
     1
281
     1
  3
ACAD_XREC_ROUNDTRIP
360
2F32
  0
DICTIONARY
  5
2E97
330
2E08
100
AcDbDictionary
280
     1
281
     1
  3
ACAD_ROUNDTRIP_2008_TABLESTYLE_CELLSTYLEMAP
360
2EF4
  3
ACAD_XREC_ROUNDTRIP
360
2F30
  0
DICTIONARY
  5
2F0A
330
2DF5
100
AcDbDictionary
280
     1
281
     1
  3
ACAD_XREC_ROUNDTRIP
360
2F0B
  0
DICTIONARY
  5
2F08
330
2DF4
100
AcDbDictionary
280
     1
281
     1
  3
ACAD_XREC_ROUNDTRIP
360
2F09
  0
DICTIONARY
  5
2F16
330
2DFB
100
AcDbDictionary
280
     1
281
     1
  3
ACAD_XREC_ROUNDTRIP
360
2F17
  0
DICTIONARY
  5
2F1E
330
2DFF
100
AcDbDictionary
280
     1
281
     1
  3
ACAD_XREC_ROUNDTRIP
360
2F1F
  0
DICTIONARY
  5
2F10
330
2DF8
100
AcDbDictionary
280
     1
281
     1
  3
ACAD_XREC_ROUNDTRIP
360
2F11
  0
DICTIONARY
  5
2F14
330
2DFA
100
AcDbDictionary
280
     1
281
     1
  3
ACAD_XREC_ROUNDTRIP
360
2F15
  0
DICTIONARY
  5
2F2E
330
2E07
100
AcDbDictionary
280
     1
281
     1
  3
ACAD_XREC_ROUNDTRIP
360
2F2F
  0
DICTIONARY
  5
2F1C
330
2DFE
100
AcDbDictionary
280
     1
281
     1
  3
ACAD_XREC_ROUNDTRIP
360
2F1D
  0
DICTIONARY
  5
2F00
330
2DF0
100
AcDbDictionary
280
     1
281
     1
  3
ACAD_XREC_ROUNDTRIP
360
2F01
  0
DICTIONARY
  5
2F02
330
2DF1
100
AcDbDictionary
280
     1
281
     1
  3
ACAD_XREC_ROUNDTRIP
360
2F03
  0
DICTIONARY
  5
2F04
330
2DF2
100
AcDbDictionary
280
     1
281
     1
  3
ACAD_XREC_ROUNDTRIP
360
2F05
  0
DICTIONARY
  5
2F06
330
2DF3
100
AcDbDictionary
280
     1
281
     1
  3
ACAD_XREC_ROUNDTRIP
360
2F07
  0
DICTIONARY
  5
2F0E
330
2DF7
100
AcDbDictionary
280
     1
281
     1
  3
ACAD_XREC_ROUNDTRIP
360
2F0F
  0
DICTIONARY
  5
2F2A
330
2E05
100
AcDbDictionary
280
     1
281
     1
  3
ACAD_XREC_ROUNDTRIP
360
2F2B
  0
DICTIONARY
  5
2F1A
330
2DFD
100
AcDbDictionary
280
     1
281
     1
  3
ACAD_XREC_ROUNDTRIP
360
2F1B
  0
DICTIONARY
  5
2F2C
330
2E06
100
AcDbDictionary
280
     1
281
     1
  3
ACAD_XREC_ROUNDTRIP
360
2F2D
  0
DICTIONARY
  5
2F12
330
2DF9
100
AcDbDictionary
280
     1
281
     1
  3
ACAD_XREC_ROUNDTRIP
360
2F13
  0
DICTIONARY
  5
2F28
330
2E04
100
AcDbDictionary
280
     1
281
     1
  3
ACAD_XREC_ROUNDTRIP
360
2F29
  0
DICTIONARY
  5
2F26
330
2E03
100
AcDbDictionary
280
     1
281
     1
  3
ACAD_XREC_ROUNDTRIP
360
2F27
  0
DICTIONARY
  5
2F20
330
2E00
100
AcDbDictionary
280
     1
281
     1
  3
ACAD_XREC_ROUNDTRIP
360
2F21
  0
DICTIONARY
  5
2F22
330
2E01
100
AcDbDictionary
280
     1
281
     1
  3
ACAD_XREC_ROUNDTRIP
360
2F23
  0
DICTIONARY
  5
2F18
330
2DFC
100
AcDbDictionary
280
     1
281
     1
  3
ACAD_XREC_ROUNDTRIP
360
2F19
  0
DICTIONARY
  5
2F0C
330
2DF6
100
AcDbDictionary
280
     1
281
     1
  3
ACAD_XREC_ROUNDTRIP
360
2F0D
  0
DICTIONARY
  5
2F24
330
2E02
100
AcDbDictionary
280
     1
281
     1
  3
ACAD_XREC_ROUNDTRIP
360
2F25
  0
XRECORD
  5
2F34
102
{ACAD_REACTORS
330
2F33
102
}
330
2F33
100
AcDbXrecord
280
     1
102
DISPLAYNAME
  1
METRIC50
102
FLAGS
 90
        0
  0
XRECORD
  5
2EFF
102
{ACAD_REACTORS
330
2EFE
102
}
330
2EFE
100
AcDbXrecord
280
     1
102
SHADEPLOT
 70
     0
102
SHADEPLOTRESLEVEL
 70
     2
102
SHADEPLOTCUSTOMDPI
 70
   300
  0
XRECORD
  5
2EFB
102
{ACAD_REACTORS
330
2EFA
102
}
330
2EFA
100
AcDbXrecord
280
     1
102
SHADEPLOT
 70
     0
102
SHADEPLOTRESLEVEL
 70
     2
102
SHADEPLOTCUSTOMDPI
 70
   300
  0
XRECORD
  5
2EA5
102
{ACAD_REACTORS
330
2DE1
102
}
330
2DE1
100
AcDbXrecord
280
     1
102
MATERIAL
148
0.0
149
0.0
149
0.0
 93
        0
 94
      127
282
     0
 72
     0
 77
     0
171
     0
175
     0
179
     0
273
     0
  0
XRECORD
  5
2DE3
102
{ACAD_REACTORS
330
2DE1
102
}
330
2DE1
100
AcDbXrecord
280
     1
270
     1
271
     1
  0
XRECORD
  5
2DE2
102
{ACAD_REACTORS
330
2DE1
102
}
330
2DE1
100
AcDbXrecord
280
     1
270
     1
271
     1
  0
XRECORD
  5
2DE6
102
{ACAD_REACTORS
330
2DE1
102
}
330
2DE1
100
AcDbXrecord
280
     1
270
     1
271
     1
  0
XRECORD
  5
2DE5
102
{ACAD_REACTORS
330
2DE1
102
}
330
2DE1
100
AcDbXrecord
280
     1
270
     1
271
     1
  0
XRECORD
  5
2DE7
102
{ACAD_REACTORS
330
2DE1
102
}
330
2DE1
100
AcDbXrecord
280
     1
270
     1
271
     1
  0
XRECORD
  5
2DE4
102
{ACAD_REACTORS
330
2DE1
102
}
330
2DE1
100
AcDbXrecord
280
     1
270
     1
271
     1
  0
XRECORD
  5
2EA4
102
{ACAD_REACTORS
330
2DD9
102
}
330
2DD9
100
AcDbXrecord
280
     1
102
MATERIAL
148
0.0
149
0.0
149
0.0
 93
        0
 94
      127
282
     0
 72
     0
 77
     0
171
     0
175
     0
179
     0
273
     0
  0
XRECORD
  5
2DDB
102
{ACAD_REACTORS
330
2DD9
102
}
330
2DD9
100
AcDbXrecord
280
     1
270
     1
271
     1
  0
XRECORD
  5
2DDA
102
{ACAD_REACTORS
330
2DD9
102
}
330
2DD9
100
AcDbXrecord
280
     1
270
     1
271
     1
  0
XRECORD
  5
2DDE
102
{ACAD_REACTORS
330
2DD9
102
}
330
2DD9
100
AcDbXrecord
280
     1
270
     1
271
     1
  0
XRECORD
  5
2DDD
102
{ACAD_REACTORS
330
2DD9
102
}
330
2DD9
100
AcDbXrecord
280
     1
270
     1
271
     1
  0
XRECORD
  5
2DDF
102
{ACAD_REACTORS
330
2DD9
102
}
330
2DD9
100
AcDbXrecord
280
     1
270
     1
271
     1
  0
XRECORD
  5
2DDC
102
{ACAD_REACTORS
330
2DD9
102
}
330
2DD9
100
AcDbXrecord
280
     1
270
     1
271
     1
  0
XRECORD
  5
2EA6
102
{ACAD_REACTORS
330
2DE9
102
}
330
2DE9
100
AcDbXrecord
280
     1
102
MATERIAL
148
0.0
149
0.0
149
0.0
 93
        0
 94
      127
282
     0
 72
     0
 77
     0
171
     0
175
     0
179
     0
273
     0
  0
XRECORD
  5
2DEB
102
{ACAD_REACTORS
330
2DE9
102
}
330
2DE9
100
AcDbXrecord
280
     1
270
     1
271
     1
  0
XRECORD
  5
2DEA
102
{ACAD_REACTORS
330
2DE9
102
}
330
2DE9
100
AcDbXrecord
280
     1
270
     1
271
     1
  0
XRECORD
  5
2DEE
102
{ACAD_REACTORS
330
2DE9
102
}
330
2DE9
100
AcDbXrecord
280
     1
270
     1
271
     1
  0
XRECORD
  5
2DED
102
{ACAD_REACTORS
330
2DE9
102
}
330
2DE9
100
AcDbXrecord
280
     1
270
     1
271
     1
  0
XRECORD
  5
2DEF
102
{ACAD_REACTORS
330
2DE9
102
}
330
2DE9
100
AcDbXrecord
280
     1
270
     1
271
     1
  0
XRECORD
  5
2DEC
102
{ACAD_REACTORS
330
2DE9
102
}
330
2DE9
100
AcDbXrecord
280
     1
270
     1
271
     1
  0
XRECORD
  5
2F32
102
{ACAD_REACTORS
330
2F31
102
}
330
2F31
100
AcDbXrecord
280
     1
102
DISPLAYNAME
  1
METRIC50
102
FLAGS
 90
        0
  0
CELLSTYLEMAP
  5
2EF4
102
{ACAD_REACTORS
330
2E97
102
}
330
2E97
100
AcDbCellStyleMap
 90
        3
300
CELLSTYLE
  1
TABLEFORMAT_BEGIN
 90
        5
170
     1
 91
        0
 92
    32768
 62
   257
 93
        1
300
CONTENTFORMAT
  1
CONTENTFORMAT_BEGIN
 90
        0
 91
        0
 92
      512
 93
        0
300

 40
0.0
140
1.0
 94
        5
 62
     0
340
11
144
6.0
309
CONTENTFORMAT_END
171
     1
301
MARGIN
  1
CELLMARGIN_BEGIN
 40
1.5
 40
1.5
 40
1.5
 40
1.5
 40
0.18
 40
0.18
309
CELLMARGIN_END
 94
        6
 95
        1
302
GRIDFORMAT
  1
GRIDFORMAT_BEGIN
 90
        0
 91
        1
 62
     0
 92
       -2
340
0
 93
        0
 40
1.125
309
GRIDFORMAT_END
 95
        2
302
GRIDFORMAT
  1
GRIDFORMAT_BEGIN
 90
        0
 91
        1
 62
     0
 92
       -2
340
0
 93
        0
 40
1.125
309
GRIDFORMAT_END
 95
        4
302
GRIDFORMAT
  1
GRIDFORMAT_BEGIN
 90
        0
 91
        1
 62
     0
 92
       -2
340
0
 93
        0
 40
1.125
309
GRIDFORMAT_END
 95
        8
302
GRIDFORMAT
  1
GRIDFORMAT_BEGIN
 90
        0
 91
        1
 62
     0
 92
       -2
340
0
 93
        0
 40
1.125
309
GRIDFORMAT_END
 95
       16
302
GRIDFORMAT
  1
GRIDFORMAT_BEGIN
 90
        0
 91
        1
 62
     0
 92
       -2
340
0
 93
        0
 40
1.125
309
GRIDFORMAT_END
 95
       32
302
GRIDFORMAT
  1
GRIDFORMAT_BEGIN
 90
        0
 91
        1
 62
     0
 92
       -2
340
0
 93
        0
 40
1.125
309
GRIDFORMAT_END
309
TABLEFORMAT_END
  1
CELLSTYLE_BEGIN
 90
        1
 91
        1
300
_TITLE
309
CELLSTYLE_END
300
CELLSTYLE
  1
TABLEFORMAT_BEGIN
 90
        5
170
     1
 91
        0
 92
        0
 62
   257
 93
        1
300
CONTENTFORMAT
  1
CONTENTFORMAT_BEGIN
 90
        0
 91
        0
 92
      512
 93
        0
300

 40
0.0
140
1.0
 94
        5
 62
     0
340
11
144
4.5
309
CONTENTFORMAT_END
171
     1
301
MARGIN
  1
CELLMARGIN_BEGIN
 40
1.5
 40
1.5
 40
1.5
 40
1.5
 40
0.18
 40
0.18
309
CELLMARGIN_END
 94
        6
 95
        1
302
GRIDFORMAT
  1
GRIDFORMAT_BEGIN
 90
        0
 91
        1
 62
     0
 92
       -2
340
0
 93
        0
 40
1.125
309
GRIDFORMAT_END
 95
        2
302
GRIDFORMAT
  1
GRIDFORMAT_BEGIN
 90
        0
 91
        1
 62
     0
 92
       -2
340
0
 93
        0
 40
1.125
309
GRIDFORMAT_END
 95
        4
302
GRIDFORMAT
  1
GRIDFORMAT_BEGIN
 90
        0
 91
        1
 62
     0
 92
       -2
340
0
 93
        0
 40
1.125
309
GRIDFORMAT_END
 95
        8
302
GRIDFORMAT
  1
GRIDFORMAT_BEGIN
 90
        0
 91
        1
 62
     0
 92
       -2
340
0
 93
        0
 40
1.125
309
GRIDFORMAT_END
 95
       16
302
GRIDFORMAT
  1
GRIDFORMAT_BEGIN
 90
        0
 91
        1
 62
     0
 92
       -2
340
0
 93
        0
 40
1.125
309
GRIDFORMAT_END
 95
       32
302
GRIDFORMAT
  1
GRIDFORMAT_BEGIN
 90
        0
 91
        1
 62
     0
 92
       -2
340
0
 93
        0
 40
1.125
309
GRIDFORMAT_END
309
TABLEFORMAT_END
  1
CELLSTYLE_BEGIN
 90
        2
 91
        1
300
_HEADER
309
CELLSTYLE_END
300
CELLSTYLE
  1
TABLEFORMAT_BEGIN
 90
        5
170
     1
 91
        0
 92
        0
 62
   257
 93
        1
300
CONTENTFORMAT
  1
CONTENTFORMAT_BEGIN
 90
        0
 91
        0
 92
      512
 93
        0
300

 40
0.0
140
1.0
 94
        2
 62
     0
340
11
144
4.5
309
CONTENTFORMAT_END
171
     1
301
MARGIN
  1
CELLMARGIN_BEGIN
 40
1.5
 40
1.5
 40
1.5
 40
1.5
 40
0.18
 40
0.18
309
CELLMARGIN_END
 94
        6
 95
        1
302
GRIDFORMAT
  1
GRIDFORMAT_BEGIN
 90
        0
 91
        1
 62
     0
 92
       -2
340
0
 93
        0
 40
1.125
309
GRIDFORMAT_END
 95
        2
302
GRIDFORMAT
  1
GRIDFORMAT_BEGIN
 90
        0
 91
        1
 62
     0
 92
       -2
340
0
 93
        0
 40
1.125
309
GRIDFORMAT_END
 95
        4
302
GRIDFORMAT
  1
GRIDFORMAT_BEGIN
 90
        0
 91
        1
 62
     0
 92
       -2
340
0
 93
        0
 40
1.125
309
GRIDFORMAT_END
 95
        8
302
GRIDFORMAT
  1
GRIDFORMAT_BEGIN
 90
        0
 91
        1
 62
     0
 92
       -2
340
0
 93
        0
 40
1.125
309
GRIDFORMAT_END
 95
       16
302
GRIDFORMAT
  1
GRIDFORMAT_BEGIN
 90
        0
 91
        1
 62
     0
 92
       -2
340
0
 93
        0
 40
1.125
309
GRIDFORMAT_END
 95
       32
302
GRIDFORMAT
  1
GRIDFORMAT_BEGIN
 90
        0
 91
        1
 62
     0
 92
       -2
340
0
 93
        0
 40
1.125
309
GRIDFORMAT_END
309
TABLEFORMAT_END
  1
CELLSTYLE_BEGIN
 90
        3
 91
        2
300
_DATA
309
CELLSTYLE_END
  0
XRECORD
  5
2F30
102
{ACAD_REACTORS
330
2E97
102
}
330
2E97
100
AcDbXrecord
280
     1
102
ACAD_ROUNDTRIP_PRE2007_TABLESTYLE
 90
      512
 91
        0
  1

 92
      512
 93
        0
  2

 94
      512
 95
        0
  3

  0
XRECORD
  5
2F0B
102
{ACAD_REACTORS
330
2F0A
102
}
330
2F0A
100
AcDbXrecord
280
     1
102
RTVSPost2010Prop28
280
     1
102
RTVSPost2010PropOp28
 70
     1
102
RTVSPost2010Prop29
280
     1
102
RTVSPost2010PropOp29
 70
     1
102
RTVSPost2010Prop30
280
     0
102
RTVSPost2010PropOp30
 70
     1
102
RTVSPost2010Prop31
280
     0
102
RTVSPost2010PropOp31
 70
     1
102
RTVSPost2010Prop32
280
     0
102
RTVSPost2010PropOp32
 70
     1
102
RTVSPost2010Prop33
280
     0
102
RTVSPost2010PropOp33
 70
     1
102
RTVSPost2010Prop34
280
     0
102
RTVSPost2010PropOp34
 70
     1
102
RTVSPost2010Prop35
280
     0
102
RTVSPost2010PropOp35
 70
     1
102
RTVSPost2010Prop36
280
     0
102
RTVSPost2010PropOp36
 70
     1
102
RTVSPost2010Prop37
 90
       50
102
RTVSPost2010PropOp37
 70
     1
102
RTVSPost2010Prop38
140
0.0
102
RTVSPost2010PropOp38
 70
     1
102
RTVSPost2010Prop39
140
1.0
102
RTVSPost2010PropOp39
 70
     1
102
RTVSPost2010Prop40
 90
        0
102
RTVSPost2010PropOp40
 70
     1
102
RTVSPost2010Prop41ColorIndex
 90
       18
102
RTVSPost2010Prop41ColorRGB
 90
        0
102
RTVSPost2010PropOp41
 70
     1
102
RTVSPost2010Prop42
 90
       50
102
RTVSPost2010PropOp42
 70
     1
102
RTVSPost2010Prop43
 90
        3
102
RTVSPost2010PropOp43
 70
     1
102
RTVSPost2010Prop44ColorIndex
 90
        5
102
RTVSPost2010Prop44ColorRGB
 90
      255
102
RTVSPost2010PropOp44
 70
     1
102
RTVSPost2010Prop45
280
     0
102
RTVSPost2010PropOp45
 70
     1
102
RTVSPost2010Prop46
 90
       50
102
RTVSPost2010PropOp46
 70
     1
102
RTVSPost2010Prop47
 90
       50
102
RTVSPost2010PropOp47
 70
     1
102
RTVSPost2010Prop48
 90
       50
102
RTVSPost2010PropOp48
 70
     1
102
RTVSPost2010Prop49
280
     0
102
RTVSPost2010PropOp49
 70
     1
102
RTVSPost2010Prop50
 90
       50
102
RTVSPost2010PropOp50
 70
     1
102
RTVSPost2010Prop51ColorIndex
 90
      256
102
RTVSPost2010Prop51ColorRGB
 90
-16777216
102
RTVSPost2010PropOp51
 70
     0
102
RTVSPost2010Prop52
140
1.0
102
RTVSPost2010PropOp52
 70
     0
102
RTVSPost2010Prop53
 90
        2
102
RTVSPost2010PropOp53
 70
     1
102
RTVSPost2010Prop54
  1
strokes_ogs.tif
102
RTVSPost2010PropOp54
 70
     1
102
RTVSPost2010Prop55
280
     0
102
RTVSPost2010PropOp55
 70
     1
102
RTVSPost2010Prop56
140
1.0
102
RTVSPost2010PropOp56
 70
     1
102
RTVSPost2010Prop57
140
1.0
102
RTVSPost2010PropOp57
 70
     1
102
RTVSPropertyOp0
 70
     1
102
RTVSPropertyOp1
 70
     1
102
RTVSPropertyOp2
 70
     1
102
RTVSPropertyOp3
 70
     1
102
RTVSPropertyOp4
 70
     1
102
RTVSPropertyOp5
 70
     1
102
RTVSPropertyOp6
 70
     1
102
RTVSPropertyOp7
 70
     1
102
RTVSPropertyOp8
 70
     1
102
RTVSPropertyOp9
 70
     1
102
RTVSPropertyOp10
 70
     1
102
RTVSPropertyOp11
 70
     1
102
RTVSPropertyOp12
 70
     1
102
RTVSPropertyOp13
 70
     1
102
RTVSPropertyOp14
 70
     1
102
RTVSPropertyOp15
 70
     1
102
RTVSPropertyOp16
 70
     1
102
RTVSPropertyOp17
 70
     1
102
RTVSPropertyOp18
 70
     1
102
RTVSPropertyOp19
 70
     1
102
RTVSPropertyOp20
 70
     1
102
RTVSPropertyOp21
 70
     1
102
RTVSPropertyOp22
 70
     1
102
RTVSPropertyOp23
 70
     1
102
RTVSPropertyOp24
 70
     1
102
RTVSPropertyOp25
 70
     1
102
RTVSPropertyOp26
 70
     1
102
RTVSPropertyOp27
 70
     1
102
RTVSPropertyOp28
 70
     1
102
RTVSPropertyOp29
 70
     1
102
RTVSPropertyOp30
 70
     1
102
RTVSPropertyOp31
 70
     1
102
RTVSPropertyOp32
 70
     1
102
RTVSPropertyOp33
 70
     1
102
RTVSPropertyOp34
 70
     1
102
RTVSPropertyOp35
 70
     1
102
RTVSPropertyOp36
 70
     1
102
RTVSPropertyOp37
 70
     1
102
RTVSPropertyOp38
 70
     1
102
RTVSPropertyOp39
 70
     1
102
RTVSPropertyOp40
 70
     1
102
RTVSPropertyOp41
 70
     1
102
RTVSPropertyOp42
 70
     1
102
RTVSPropertyOp43
 70
     1
102
RTVSPropertyOp44
 70
     1
102
RTVSPropertyOp45
 70
     1
102
RTVSPropertyOp46
 70
     1
102
RTVSPropertyOp47
 70
     1
102
RTVSPropertyOp48
 70
     1
102
RTVSPropertyOp49
 70
     1
102
RTVSPropertyOp50
 70
     1
102
RTVSPropertyOp51
 70
     0
102
RTVSPropertyOp52
 70
     0
102
RTVSPropertyOp53
 70
     1
102
RTVSPropertyOp54
 70
     1
102
RTVSPropertyOp55
 70
     1
102
RTVSPropertyOp56
 70
     1
102
RTVSPropertyOp57
 70
     1
102
RTVSPropertyOp58
 70
     1
102
RTVSPropertyOp59
 70
     1
102
RTVSPropertyOp60
 70
     1
102
RTVSPropertyOp61
 70
     1
102
RTVSPropertyOp62
 70
     1
  0
XRECORD
  5
2F09
102
{ACAD_REACTORS
330
2F08
102
}
330
2F08
100
AcDbXrecord
280
     1
102
RTVSPost2010Prop28
280
     0
102
RTVSPost2010PropOp28
 70
     1
102
RTVSPost2010Prop29
280
     1
102
RTVSPost2010PropOp29
 70
     1
102
RTVSPost2010Prop30
280
     1
102
RTVSPost2010PropOp30
 70
     1
102
RTVSPost2010Prop31
280
     0
102
RTVSPost2010PropOp31
 70
     1
102
RTVSPost2010Prop32
280
     0
102
RTVSPost2010PropOp32
 70
     1
102
RTVSPost2010Prop33
280
     0
102
RTVSPost2010PropOp33
 70
     1
102
RTVSPost2010Prop34
280
     0
102
RTVSPost2010PropOp34
 70
     1
102
RTVSPost2010Prop35
280
     0
102
RTVSPost2010PropOp35
 70
     1
102
RTVSPost2010Prop36
280
     0
102
RTVSPost2010PropOp36
 70
     1
102
RTVSPost2010Prop37
 90
       50
102
RTVSPost2010PropOp37
 70
     1
102
RTVSPost2010Prop38
140
0.0
102
RTVSPost2010PropOp38
 70
     1
102
RTVSPost2010Prop39
140
1.0
102
RTVSPost2010PropOp39
 70
     1
102
RTVSPost2010Prop40
 90
        0
102
RTVSPost2010PropOp40
 70
     1
102
RTVSPost2010Prop41ColorIndex
 90
       18
102
RTVSPost2010Prop41ColorRGB
 90
        0
102
RTVSPost2010PropOp41
 70
     1
102
RTVSPost2010Prop42
 90
       50
102
RTVSPost2010PropOp42
 70
     1
102
RTVSPost2010Prop43
 90
        3
102
RTVSPost2010PropOp43
 70
     1
102
RTVSPost2010Prop44ColorIndex
 90
        5
102
RTVSPost2010Prop44ColorRGB
 90
      255
102
RTVSPost2010PropOp44
 70
     1
102
RTVSPost2010Prop45
280
     0
102
RTVSPost2010PropOp45
 70
     1
102
RTVSPost2010Prop46
 90
       50
102
RTVSPost2010PropOp46
 70
     1
102
RTVSPost2010Prop47
 90
       50
102
RTVSPost2010PropOp47
 70
     1
102
RTVSPost2010Prop48
 90
       50
102
RTVSPost2010PropOp48
 70
     1
102
RTVSPost2010Prop49
280
     0
102
RTVSPost2010PropOp49
 70
     1
102
RTVSPost2010Prop50
 90
       50
102
RTVSPost2010PropOp50
 70
     1
102
RTVSPost2010Prop51ColorIndex
 90
      256
102
RTVSPost2010Prop51ColorRGB
 90
-16777216
102
RTVSPost2010PropOp51
 70
     0
102
RTVSPost2010Prop52
140
1.0
102
RTVSPost2010PropOp52
 70
     0
102
RTVSPost2010Prop53
 90
        2
102
RTVSPost2010PropOp53
 70
     1
102
RTVSPost2010Prop54
  1
strokes_ogs.tif
102
RTVSPost2010PropOp54
 70
     1
102
RTVSPost2010Prop55
280
     0
102
RTVSPost2010PropOp55
 70
     1
102
RTVSPost2010Prop56
140
1.0
102
RTVSPost2010PropOp56
 70
     1
102
RTVSPost2010Prop57
140
1.0
102
RTVSPost2010PropOp57
 70
     1
102
RTVSPropertyOp0
 70
     1
102
RTVSPropertyOp1
 70
     1
102
RTVSPropertyOp2
 70
     1
102
RTVSPropertyOp3
 70
     1
102
RTVSPropertyOp4
 70
     1
102
RTVSPropertyOp5
 70
     1
102
RTVSPropertyOp6
 70
     1
102
RTVSPropertyOp7
 70
     1
102
RTVSPropertyOp8
 70
     1
102
RTVSPropertyOp9
 70
     1
102
RTVSPropertyOp10
 70
     1
102
RTVSPropertyOp11
 70
     1
102
RTVSPropertyOp12
 70
     1
102
RTVSPropertyOp13
 70
     1
102
RTVSPropertyOp14
 70
     1
102
RTVSPropertyOp15
 70
     1
102
RTVSPropertyOp16
 70
     1
102
RTVSPropertyOp17
 70
     1
102
RTVSPropertyOp18
 70
     1
102
RTVSPropertyOp19
 70
     1
102
RTVSPropertyOp20
 70
     1
102
RTVSPropertyOp21
 70
     1
102
RTVSPropertyOp22
 70
     1
102
RTVSPropertyOp23
 70
     1
102
RTVSPropertyOp24
 70
     1
102
RTVSPropertyOp25
 70
     1
102
RTVSPropertyOp26
 70
     1
102
RTVSPropertyOp27
 70
     1
102
RTVSPropertyOp28
 70
     1
102
RTVSPropertyOp29
 70
     1
102
RTVSPropertyOp30
 70
     1
102
RTVSPropertyOp31
 70
     1
102
RTVSPropertyOp32
 70
     1
102
RTVSPropertyOp33
 70
     1
102
RTVSPropertyOp34
 70
     1
102
RTVSPropertyOp35
 70
     1
102
RTVSPropertyOp36
 70
     1
102
RTVSPropertyOp37
 70
     1
102
RTVSPropertyOp38
 70
     1
102
RTVSPropertyOp39
 70
     1
102
RTVSPropertyOp40
 70
     1
102
RTVSPropertyOp41
 70
     1
102
RTVSPropertyOp42
 70
     1
102
RTVSPropertyOp43
 70
     1
102
RTVSPropertyOp44
 70
     1
102
RTVSPropertyOp45
 70
     1
102
RTVSPropertyOp46
 70
     1
102
RTVSPropertyOp47
 70
     1
102
RTVSPropertyOp48
 70
     1
102
RTVSPropertyOp49
 70
     1
102
RTVSPropertyOp50
 70
     1
102
RTVSPropertyOp51
 70
     0
102
RTVSPropertyOp52
 70
     0
102
RTVSPropertyOp53
 70
     1
102
RTVSPropertyOp54
 70
     1
102
RTVSPropertyOp55
 70
     1
102
RTVSPropertyOp56
 70
     1
102
RTVSPropertyOp57
 70
     1
102
RTVSPropertyOp58
 70
     1
102
RTVSPropertyOp59
 70
     1
102
RTVSPropertyOp60
 70
     1
102
RTVSPropertyOp61
 70
     1
102
RTVSPropertyOp62
 70
     1
  0
XRECORD
  5
2F17
102
{ACAD_REACTORS
330
2F16
102
}
330
2F16
100
AcDbXrecord
280
     1
102
RTVSPost2010Prop28
280
     0
102
RTVSPost2010PropOp28
 70
     1
102
RTVSPost2010Prop29
280
     1
102
RTVSPost2010PropOp29
 70
     1
102
RTVSPost2010Prop30
280
     1
102
RTVSPost2010PropOp30
 70
     1
102
RTVSPost2010Prop31
280
     0
102
RTVSPost2010PropOp31
 70
     1
102
RTVSPost2010Prop32
280
     0
102
RTVSPost2010PropOp32
 70
     1
102
RTVSPost2010Prop33
280
     0
102
RTVSPost2010PropOp33
 70
     1
102
RTVSPost2010Prop34
280
     0
102
RTVSPost2010PropOp34
 70
     1
102
RTVSPost2010Prop35
280
     0
102
RTVSPost2010PropOp35
 70
     1
102
RTVSPost2010Prop36
280
     0
102
RTVSPost2010PropOp36
 70
     1
102
RTVSPost2010Prop37
 90
       50
102
RTVSPost2010PropOp37
 70
     1
102
RTVSPost2010Prop38
140
0.0
102
RTVSPost2010PropOp38
 70
     1
102
RTVSPost2010Prop39
140
1.0
102
RTVSPost2010PropOp39
 70
     1
102
RTVSPost2010Prop40
 90
        0
102
RTVSPost2010PropOp40
 70
     1
102
RTVSPost2010Prop41ColorIndex
 90
       18
102
RTVSPost2010Prop41ColorRGB
 90
        0
102
RTVSPost2010PropOp41
 70
     1
102
RTVSPost2010Prop42
 90
       50
102
RTVSPost2010PropOp42
 70
     1
102
RTVSPost2010Prop43
 90
        3
102
RTVSPost2010PropOp43
 70
     1
102
RTVSPost2010Prop44ColorIndex
 90
        5
102
RTVSPost2010Prop44ColorRGB
 90
      255
102
RTVSPost2010PropOp44
 70
     1
102
RTVSPost2010Prop45
280
     0
102
RTVSPost2010PropOp45
 70
     1
102
RTVSPost2010Prop46
 90
       50
102
RTVSPost2010PropOp46
 70
     1
102
RTVSPost2010Prop47
 90
       50
102
RTVSPost2010PropOp47
 70
     1
102
RTVSPost2010Prop48
 90
       50
102
RTVSPost2010PropOp48
 70
     1
102
RTVSPost2010Prop49
280
     0
102
RTVSPost2010PropOp49
 70
     1
102
RTVSPost2010Prop50
 90
       50
102
RTVSPost2010PropOp50
 70
     1
102
RTVSPost2010Prop51ColorIndex
 90
      256
102
RTVSPost2010Prop51ColorRGB
 90
-16777216
102
RTVSPost2010PropOp51
 70
     0
102
RTVSPost2010Prop52
140
1.0
102
RTVSPost2010PropOp52
 70
     0
102
RTVSPost2010Prop53
 90
        2
102
RTVSPost2010PropOp53
 70
     1
102
RTVSPost2010Prop54
  1
strokes_ogs.tif
102
RTVSPost2010PropOp54
 70
     1
102
RTVSPost2010Prop55
280
     0
102
RTVSPost2010PropOp55
 70
     1
102
RTVSPost2010Prop56
140
1.0
102
RTVSPost2010PropOp56
 70
     1
102
RTVSPost2010Prop57
140
1.0
102
RTVSPost2010PropOp57
 70
     1
102
RTVSPropertyOp0
 70
     1
102
RTVSPropertyOp1
 70
     1
102
RTVSPropertyOp2
 70
     1
102
RTVSPropertyOp3
 70
     1
102
RTVSPropertyOp4
 70
     1
102
RTVSPropertyOp5
 70
     1
102
RTVSPropertyOp6
 70
     1
102
RTVSPropertyOp7
 70
     1
102
RTVSPropertyOp8
 70
     1
102
RTVSPropertyOp9
 70
     1
102
RTVSPropertyOp10
 70
     1
102
RTVSPropertyOp11
 70
     1
102
RTVSPropertyOp12
 70
     1
102
RTVSPropertyOp13
 70
     1
102
RTVSPropertyOp14
 70
     1
102
RTVSPropertyOp15
 70
     1
102
RTVSPropertyOp16
 70
     1
102
RTVSPropertyOp17
 70
     1
102
RTVSPropertyOp18
 70
     1
102
RTVSPropertyOp19
 70
     1
102
RTVSPropertyOp20
 70
     1
102
RTVSPropertyOp21
 70
     1
102
RTVSPropertyOp22
 70
     1
102
RTVSPropertyOp23
 70
     1
102
RTVSPropertyOp24
 70
     1
102
RTVSPropertyOp25
 70
     1
102
RTVSPropertyOp26
 70
     1
102
RTVSPropertyOp27
 70
     1
102
RTVSPropertyOp28
 70
     1
102
RTVSPropertyOp29
 70
     1
102
RTVSPropertyOp30
 70
     1
102
RTVSPropertyOp31
 70
     1
102
RTVSPropertyOp32
 70
     1
102
RTVSPropertyOp33
 70
     1
102
RTVSPropertyOp34
 70
     1
102
RTVSPropertyOp35
 70
     1
102
RTVSPropertyOp36
 70
     1
102
RTVSPropertyOp37
 70
     1
102
RTVSPropertyOp38
 70
     1
102
RTVSPropertyOp39
 70
     1
102
RTVSPropertyOp40
 70
     1
102
RTVSPropertyOp41
 70
     1
102
RTVSPropertyOp42
 70
     1
102
RTVSPropertyOp43
 70
     1
102
RTVSPropertyOp44
 70
     1
102
RTVSPropertyOp45
 70
     1
102
RTVSPropertyOp46
 70
     1
102
RTVSPropertyOp47
 70
     1
102
RTVSPropertyOp48
 70
     1
102
RTVSPropertyOp49
 70
     1
102
RTVSPropertyOp50
 70
     1
102
RTVSPropertyOp51
 70
     0
102
RTVSPropertyOp52
 70
     0
102
RTVSPropertyOp53
 70
     1
102
RTVSPropertyOp54
 70
     1
102
RTVSPropertyOp55
 70
     1
102
RTVSPropertyOp56
 70
     1
102
RTVSPropertyOp57
 70
     1
102
RTVSPropertyOp58
 70
     1
102
RTVSPropertyOp59
 70
     1
102
RTVSPropertyOp60
 70
     1
102
RTVSPropertyOp61
 70
     1
102
RTVSPropertyOp62
 70
     1
  0
XRECORD
  5
2F1F
102
{ACAD_REACTORS
330
2F1E
102
}
330
2F1E
100
AcDbXrecord
280
     1
102
RTVSPost2010Prop28
280
     0
102
RTVSPost2010PropOp28
 70
     1
102
RTVSPost2010Prop29
280
     1
102
RTVSPost2010PropOp29
 70
     1
102
RTVSPost2010Prop30
280
     1
102
RTVSPost2010PropOp30
 70
     1
102
RTVSPost2010Prop31
280
     0
102
RTVSPost2010PropOp31
 70
     1
102
RTVSPost2010Prop32
280
     0
102
RTVSPost2010PropOp32
 70
     1
102
RTVSPost2010Prop33
280
     0
102
RTVSPost2010PropOp33
 70
     1
102
RTVSPost2010Prop34
280
     0
102
RTVSPost2010PropOp34
 70
     1
102
RTVSPost2010Prop35
280
     0
102
RTVSPost2010PropOp35
 70
     1
102
RTVSPost2010Prop36
280
     0
102
RTVSPost2010PropOp36
 70
     1
102
RTVSPost2010Prop37
 90
       50
102
RTVSPost2010PropOp37
 70
     1
102
RTVSPost2010Prop38
140
0.0
102
RTVSPost2010PropOp38
 70
     1
102
RTVSPost2010Prop39
140
1.0
102
RTVSPost2010PropOp39
 70
     1
102
RTVSPost2010Prop40
 90
        0
102
RTVSPost2010PropOp40
 70
     1
102
RTVSPost2010Prop41ColorIndex
 90
       18
102
RTVSPost2010Prop41ColorRGB
 90
        0
102
RTVSPost2010PropOp41
 70
     1
102
RTVSPost2010Prop42
 90
       50
102
RTVSPost2010PropOp42
 70
     1
102
RTVSPost2010Prop43
 90
        3
102
RTVSPost2010PropOp43
 70
     1
102
RTVSPost2010Prop44ColorIndex
 90
        5
102
RTVSPost2010Prop44ColorRGB
 90
      255
102
RTVSPost2010PropOp44
 70
     1
102
RTVSPost2010Prop45
280
     0
102
RTVSPost2010PropOp45
 70
     1
102
RTVSPost2010Prop46
 90
       50
102
RTVSPost2010PropOp46
 70
     1
102
RTVSPost2010Prop47
 90
       50
102
RTVSPost2010PropOp47
 70
     1
102
RTVSPost2010Prop48
 90
       50
102
RTVSPost2010PropOp48
 70
     1
102
RTVSPost2010Prop49
280
     0
102
RTVSPost2010PropOp49
 70
     1
102
RTVSPost2010Prop50
 90
       50
102
RTVSPost2010PropOp50
 70
     1
102
RTVSPost2010Prop51ColorIndex
 90
      256
102
RTVSPost2010Prop51ColorRGB
 90
-16777216
102
RTVSPost2010PropOp51
 70
     0
102
RTVSPost2010Prop52
140
1.0
102
RTVSPost2010PropOp52
 70
     0
102
RTVSPost2010Prop53
 90
        2
102
RTVSPost2010PropOp53
 70
     1
102
RTVSPost2010Prop54
  1
strokes_ogs.tif
102
RTVSPost2010PropOp54
 70
     1
102
RTVSPost2010Prop55
280
     0
102
RTVSPost2010PropOp55
 70
     1
102
RTVSPost2010Prop56
140
1.0
102
RTVSPost2010PropOp56
 70
     1
102
RTVSPost2010Prop57
140
1.0
102
RTVSPost2010PropOp57
 70
     1
102
RTVSPropertyOp0
 70
     1
102
RTVSPropertyOp1
 70
     1
102
RTVSPropertyOp2
 70
     1
102
RTVSPropertyOp3
 70
     1
102
RTVSPropertyOp4
 70
     1
102
RTVSPropertyOp5
 70
     1
102
RTVSPropertyOp6
 70
     1
102
RTVSPropertyOp7
 70
     1
102
RTVSPropertyOp8
 70
     1
102
RTVSPropertyOp9
 70
     1
102
RTVSPropertyOp10
 70
     1
102
RTVSPropertyOp11
 70
     1
102
RTVSPropertyOp12
 70
     1
102
RTVSPropertyOp13
 70
     1
102
RTVSPropertyOp14
 70
     1
102
RTVSPropertyOp15
 70
     1
102
RTVSPropertyOp16
 70
     1
102
RTVSPropertyOp17
 70
     1
102
RTVSPropertyOp18
 70
     1
102
RTVSPropertyOp19
 70
     1
102
RTVSPropertyOp20
 70
     1
102
RTVSPropertyOp21
 70
     1
102
RTVSPropertyOp22
 70
     1
102
RTVSPropertyOp23
 70
     1
102
RTVSPropertyOp24
 70
     1
102
RTVSPropertyOp25
 70
     1
102
RTVSPropertyOp26
 70
     1
102
RTVSPropertyOp27
 70
     1
102
RTVSPropertyOp28
 70
     1
102
RTVSPropertyOp29
 70
     1
102
RTVSPropertyOp30
 70
     1
102
RTVSPropertyOp31
 70
     1
102
RTVSPropertyOp32
 70
     1
102
RTVSPropertyOp33
 70
     1
102
RTVSPropertyOp34
 70
     1
102
RTVSPropertyOp35
 70
     1
102
RTVSPropertyOp36
 70
     1
102
RTVSPropertyOp37
 70
     1
102
RTVSPropertyOp38
 70
     1
102
RTVSPropertyOp39
 70
     1
102
RTVSPropertyOp40
 70
     1
102
RTVSPropertyOp41
 70
     1
102
RTVSPropertyOp42
 70
     1
102
RTVSPropertyOp43
 70
     1
102
RTVSPropertyOp44
 70
     1
102
RTVSPropertyOp45
 70
     1
102
RTVSPropertyOp46
 70
     1
102
RTVSPropertyOp47
 70
     1
102
RTVSPropertyOp48
 70
     1
102
RTVSPropertyOp49
 70
     1
102
RTVSPropertyOp50
 70
     1
102
RTVSPropertyOp51
 70
     0
102
RTVSPropertyOp52
 70
     0
102
RTVSPropertyOp53
 70
     1
102
RTVSPropertyOp54
 70
     1
102
RTVSPropertyOp55
 70
     1
102
RTVSPropertyOp56
 70
     1
102
RTVSPropertyOp57
 70
     1
102
RTVSPropertyOp58
 70
     1
102
RTVSPropertyOp59
 70
     1
102
RTVSPropertyOp60
 70
     1
102
RTVSPropertyOp61
 70
     1
102
RTVSPropertyOp62
 70
     1
  0
XRECORD
  5
2F11
102
{ACAD_REACTORS
330
2F10
102
}
330
2F10
100
AcDbXrecord
280
     1
102
RTVSPost2010Prop28
280
     0
102
RTVSPost2010PropOp28
 70
     1
102
RTVSPost2010Prop29
280
     1
102
RTVSPost2010PropOp29
 70
     1
102
RTVSPost2010Prop30
280
     1
102
RTVSPost2010PropOp30
 70
     1
102
RTVSPost2010Prop31
280
     0
102
RTVSPost2010PropOp31
 70
     1
102
RTVSPost2010Prop32
280
     0
102
RTVSPost2010PropOp32
 70
     1
102
RTVSPost2010Prop33
280
     0
102
RTVSPost2010PropOp33
 70
     1
102
RTVSPost2010Prop34
280
     0
102
RTVSPost2010PropOp34
 70
     1
102
RTVSPost2010Prop35
280
     0
102
RTVSPost2010PropOp35
 70
     1
102
RTVSPost2010Prop36
280
     0
102
RTVSPost2010PropOp36
 70
     1
102
RTVSPost2010Prop37
 90
       50
102
RTVSPost2010PropOp37
 70
     1
102
RTVSPost2010Prop38
140
0.0
102
RTVSPost2010PropOp38
 70
     1
102
RTVSPost2010Prop39
140
1.0
102
RTVSPost2010PropOp39
 70
     1
102
RTVSPost2010Prop40
 90
        0
102
RTVSPost2010PropOp40
 70
     1
102
RTVSPost2010Prop41ColorIndex
 90
       18
102
RTVSPost2010Prop41ColorRGB
 90
        0
102
RTVSPost2010PropOp41
 70
     1
102
RTVSPost2010Prop42
 90
       50
102
RTVSPost2010PropOp42
 70
     1
102
RTVSPost2010Prop43
 90
        3
102
RTVSPost2010PropOp43
 70
     1
102
RTVSPost2010Prop44ColorIndex
 90
        5
102
RTVSPost2010Prop44ColorRGB
 90
      255
102
RTVSPost2010PropOp44
 70
     1
102
RTVSPost2010Prop45
280
     0
102
RTVSPost2010PropOp45
 70
     1
102
RTVSPost2010Prop46
 90
       50
102
RTVSPost2010PropOp46
 70
     1
102
RTVSPost2010Prop47
 90
       50
102
RTVSPost2010PropOp47
 70
     1
102
RTVSPost2010Prop48
 90
       50
102
RTVSPost2010PropOp48
 70
     1
102
RTVSPost2010Prop49
280
     0
102
RTVSPost2010PropOp49
 70
     1
102
RTVSPost2010Prop50
 90
       50
102
RTVSPost2010PropOp50
 70
     1
102
RTVSPost2010Prop51ColorIndex
 90
      256
102
RTVSPost2010Prop51ColorRGB
 90
-16777216
102
RTVSPost2010PropOp51
 70
     0
102
RTVSPost2010Prop52
140
1.0
102
RTVSPost2010PropOp52
 70
     0
102
RTVSPost2010Prop53
 90
        2
102
RTVSPost2010PropOp53
 70
     1
102
RTVSPost2010Prop54
  1
strokes_ogs.tif
102
RTVSPost2010PropOp54
 70
     1
102
RTVSPost2010Prop55
280
     0
102
RTVSPost2010PropOp55
 70
     1
102
RTVSPost2010Prop56
140
1.0
102
RTVSPost2010PropOp56
 70
     1
102
RTVSPost2010Prop57
140
1.0
102
RTVSPost2010PropOp57
 70
     1
102
RTVSPropertyOp0
 70
     1
102
RTVSPropertyOp1
 70
     1
102
RTVSPropertyOp2
 70
     1
102
RTVSPropertyOp3
 70
     1
102
RTVSPropertyOp4
 70
     1
102
RTVSPropertyOp5
 70
     1
102
RTVSPropertyOp6
 70
     1
102
RTVSPropertyOp7
 70
     1
102
RTVSPropertyOp8
 70
     1
102
RTVSPropertyOp9
 70
     1
102
RTVSPropertyOp10
 70
     1
102
RTVSPropertyOp11
 70
     1
102
RTVSPropertyOp12
 70
     1
102
RTVSPropertyOp13
 70
     1
102
RTVSPropertyOp14
 70
     1
102
RTVSPropertyOp15
 70
     1
102
RTVSPropertyOp16
 70
     1
102
RTVSPropertyOp17
 70
     1
102
RTVSPropertyOp18
 70
     1
102
RTVSPropertyOp19
 70
     1
102
RTVSPropertyOp20
 70
     1
102
RTVSPropertyOp21
 70
     1
102
RTVSPropertyOp22
 70
     1
102
RTVSPropertyOp23
 70
     1
102
RTVSPropertyOp24
 70
     1
102
RTVSPropertyOp25
 70
     1
102
RTVSPropertyOp26
 70
     1
102
RTVSPropertyOp27
 70
     1
102
RTVSPropertyOp28
 70
     1
102
RTVSPropertyOp29
 70
     1
102
RTVSPropertyOp30
 70
     1
102
RTVSPropertyOp31
 70
     1
102
RTVSPropertyOp32
 70
     1
102
RTVSPropertyOp33
 70
     1
102
RTVSPropertyOp34
 70
     1
102
RTVSPropertyOp35
 70
     1
102
RTVSPropertyOp36
 70
     1
102
RTVSPropertyOp37
 70
     1
102
RTVSPropertyOp38
 70
     1
102
RTVSPropertyOp39
 70
     1
102
RTVSPropertyOp40
 70
     1
102
RTVSPropertyOp41
 70
     1
102
RTVSPropertyOp42
 70
     1
102
RTVSPropertyOp43
 70
     1
102
RTVSPropertyOp44
 70
     1
102
RTVSPropertyOp45
 70
     1
102
RTVSPropertyOp46
 70
     1
102
RTVSPropertyOp47
 70
     1
102
RTVSPropertyOp48
 70
     1
102
RTVSPropertyOp49
 70
     1
102
RTVSPropertyOp50
 70
     1
102
RTVSPropertyOp51
 70
     0
102
RTVSPropertyOp52
 70
     0
102
RTVSPropertyOp53
 70
     1
102
RTVSPropertyOp54
 70
     1
102
RTVSPropertyOp55
 70
     1
102
RTVSPropertyOp56
 70
     1
102
RTVSPropertyOp57
 70
     1
102
RTVSPropertyOp58
 70
     1
102
RTVSPropertyOp59
 70
     1
102
RTVSPropertyOp60
 70
     1
102
RTVSPropertyOp61
 70
     1
102
RTVSPropertyOp62
 70
     1
  0
XRECORD
  5
2F15
102
{ACAD_REACTORS
330
2F14
102
}
330
2F14
100
AcDbXrecord
280
     1
102
RTVSPost2010Prop28
280
     0
102
RTVSPost2010PropOp28
 70
     1
102
RTVSPost2010Prop29
280
     1
102
RTVSPost2010PropOp29
 70
     1
102
RTVSPost2010Prop30
280
     1
102
RTVSPost2010PropOp30
 70
     1
102
RTVSPost2010Prop31
280
     0
102
RTVSPost2010PropOp31
 70
     1
102
RTVSPost2010Prop32
280
     0
102
RTVSPost2010PropOp32
 70
     1
102
RTVSPost2010Prop33
280
     0
102
RTVSPost2010PropOp33
 70
     1
102
RTVSPost2010Prop34
280
     0
102
RTVSPost2010PropOp34
 70
     1
102
RTVSPost2010Prop35
280
     0
102
RTVSPost2010PropOp35
 70
     1
102
RTVSPost2010Prop36
280
     0
102
RTVSPost2010PropOp36
 70
     1
102
RTVSPost2010Prop37
 90
       50
102
RTVSPost2010PropOp37
 70
     1
102
RTVSPost2010Prop38
140
0.0
102
RTVSPost2010PropOp38
 70
     1
102
RTVSPost2010Prop39
140
1.0
102
RTVSPost2010PropOp39
 70
     1
102
RTVSPost2010Prop40
 90
        0
102
RTVSPost2010PropOp40
 70
     1
102
RTVSPost2010Prop41ColorIndex
 90
       18
102
RTVSPost2010Prop41ColorRGB
 90
        0
102
RTVSPost2010PropOp41
 70
     1
102
RTVSPost2010Prop42
 90
       50
102
RTVSPost2010PropOp42
 70
     1
102
RTVSPost2010Prop43
 90
        3
102
RTVSPost2010PropOp43
 70
     1
102
RTVSPost2010Prop44ColorIndex
 90
        5
102
RTVSPost2010Prop44ColorRGB
 90
      255
102
RTVSPost2010PropOp44
 70
     1
102
RTVSPost2010Prop45
280
     0
102
RTVSPost2010PropOp45
 70
     1
102
RTVSPost2010Prop46
 90
       50
102
RTVSPost2010PropOp46
 70
     1
102
RTVSPost2010Prop47
 90
       50
102
RTVSPost2010PropOp47
 70
     1
102
RTVSPost2010Prop48
 90
       50
102
RTVSPost2010PropOp48
 70
     1
102
RTVSPost2010Prop49
280
     0
102
RTVSPost2010PropOp49
 70
     1
102
RTVSPost2010Prop50
 90
       50
102
RTVSPost2010PropOp50
 70
     1
102
RTVSPost2010Prop51ColorIndex
 90
      256
102
RTVSPost2010Prop51ColorRGB
 90
-16777216
102
RTVSPost2010PropOp51
 70
     0
102
RTVSPost2010Prop52
140
1.0
102
RTVSPost2010PropOp52
 70
     0
102
RTVSPost2010Prop53
 90
        2
102
RTVSPost2010PropOp53
 70
     1
102
RTVSPost2010Prop54
  1
strokes_ogs.tif
102
RTVSPost2010PropOp54
 70
     1
102
RTVSPost2010Prop55
280
     0
102
RTVSPost2010PropOp55
 70
     1
102
RTVSPost2010Prop56
140
1.0
102
RTVSPost2010PropOp56
 70
     1
102
RTVSPost2010Prop57
140
1.0
102
RTVSPost2010PropOp57
 70
     1
102
RTVSPropertyOp0
 70
     1
102
RTVSPropertyOp1
 70
     1
102
RTVSPropertyOp2
 70
     1
102
RTVSPropertyOp3
 70
     1
102
RTVSPropertyOp4
 70
     1
102
RTVSPropertyOp5
 70
     1
102
RTVSPropertyOp6
 70
     1
102
RTVSPropertyOp7
 70
     1
102
RTVSPropertyOp8
 70
     1
102
RTVSPropertyOp9
 70
     1
102
RTVSPropertyOp10
 70
     1
102
RTVSPropertyOp11
 70
     1
102
RTVSPropertyOp12
 70
     1
102
RTVSPropertyOp13
 70
     1
102
RTVSPropertyOp14
 70
     1
102
RTVSPropertyOp15
 70
     1
102
RTVSPropertyOp16
 70
     1
102
RTVSPropertyOp17
 70
     1
102
RTVSPropertyOp18
 70
     1
102
RTVSPropertyOp19
 70
     1
102
RTVSPropertyOp20
 70
     1
102
RTVSPropertyOp21
 70
     1
102
RTVSPropertyOp22
 70
     1
102
RTVSPropertyOp23
 70
     1
102
RTVSPropertyOp24
 70
     1
102
RTVSPropertyOp25
 70
     1
102
RTVSPropertyOp26
 70
     1
102
RTVSPropertyOp27
 70
     1
102
RTVSPropertyOp28
 70
     1
102
RTVSPropertyOp29
 70
     1
102
RTVSPropertyOp30
 70
     1
102
RTVSPropertyOp31
 70
     1
102
RTVSPropertyOp32
 70
     1
102
RTVSPropertyOp33
 70
     1
102
RTVSPropertyOp34
 70
     1
102
RTVSPropertyOp35
 70
     1
102
RTVSPropertyOp36
 70
     1
102
RTVSPropertyOp37
 70
     1
102
RTVSPropertyOp38
 70
     1
102
RTVSPropertyOp39
 70
     1
102
RTVSPropertyOp40
 70
     1
102
RTVSPropertyOp41
 70
     1
102
RTVSPropertyOp42
 70
     1
102
RTVSPropertyOp43
 70
     1
102
RTVSPropertyOp44
 70
     1
102
RTVSPropertyOp45
 70
     1
102
RTVSPropertyOp46
 70
     1
102
RTVSPropertyOp47
 70
     1
102
RTVSPropertyOp48
 70
     1
102
RTVSPropertyOp49
 70
     1
102
RTVSPropertyOp50
 70
     1
102
RTVSPropertyOp51
 70
     0
102
RTVSPropertyOp52
 70
     0
102
RTVSPropertyOp53
 70
     1
102
RTVSPropertyOp54
 70
     1
102
RTVSPropertyOp55
 70
     1
102
RTVSPropertyOp56
 70
     1
102
RTVSPropertyOp57
 70
     1
102
RTVSPropertyOp58
 70
     1
102
RTVSPropertyOp59
 70
     1
102
RTVSPropertyOp60
 70
     1
102
RTVSPropertyOp61
 70
     1
102
RTVSPropertyOp62
 70
     1
  0
XRECORD
  5
2F2F
102
{ACAD_REACTORS
330
2F2E
102
}
330
2F2E
100
AcDbXrecord
280
     1
102
RTVSPost2010Prop28
280
     0
102
RTVSPost2010PropOp28
 70
     1
102
RTVSPost2010Prop29
280
     1
102
RTVSPost2010PropOp29
 70
     1
102
RTVSPost2010Prop30
280
     1
102
RTVSPost2010PropOp30
 70
     1
102
RTVSPost2010Prop31
280
     0
102
RTVSPost2010PropOp31
 70
     1
102
RTVSPost2010Prop32
280
     0
102
RTVSPost2010PropOp32
 70
     1
102
RTVSPost2010Prop33
280
     0
102
RTVSPost2010PropOp33
 70
     1
102
RTVSPost2010Prop34
280
     0
102
RTVSPost2010PropOp34
 70
     1
102
RTVSPost2010Prop35
280
     0
102
RTVSPost2010PropOp35
 70
     1
102
RTVSPost2010Prop36
280
     0
102
RTVSPost2010PropOp36
 70
     1
102
RTVSPost2010Prop37
 90
       50
102
RTVSPost2010PropOp37
 70
     0
102
RTVSPost2010Prop38
140
0.0
102
RTVSPost2010PropOp38
 70
     0
102
RTVSPost2010Prop39
140
1.0
102
RTVSPost2010PropOp39
 70
     0
102
RTVSPost2010Prop40
 90
        0
102
RTVSPost2010PropOp40
 70
     0
102
RTVSPost2010Prop41ColorIndex
 90
       18
102
RTVSPost2010Prop41ColorRGB
 90
        0
102
RTVSPost2010PropOp41
 70
     0
102
RTVSPost2010Prop42
 90
       50
102
RTVSPost2010PropOp42
 70
     0
102
RTVSPost2010Prop43
 90
        3
102
RTVSPost2010PropOp43
 70
     0
102
RTVSPost2010Prop44ColorIndex
 90
        5
102
RTVSPost2010Prop44ColorRGB
 90
      255
102
RTVSPost2010PropOp44
 70
     0
102
RTVSPost2010Prop45
280
     0
102
RTVSPost2010PropOp45
 70
     1
102
RTVSPost2010Prop46
 90
       50
102
RTVSPost2010PropOp46
 70
     0
102
RTVSPost2010Prop47
 90
       50
102
RTVSPost2010PropOp47
 70
     0
102
RTVSPost2010Prop48
 90
       50
102
RTVSPost2010PropOp48
 70
     0
102
RTVSPost2010Prop49
280
     0
102
RTVSPost2010PropOp49
 70
     1
102
RTVSPost2010Prop50
 90
       50
102
RTVSPost2010PropOp50
 70
     0
102
RTVSPost2010Prop51ColorIndex
 90
      256
102
RTVSPost2010Prop51ColorRGB
 90
-16777216
102
RTVSPost2010PropOp51
 70
     0
102
RTVSPost2010Prop52
140
1.0
102
RTVSPost2010PropOp52
 70
     0
102
RTVSPost2010Prop53
 90
        2
102
RTVSPost2010PropOp53
 70
     0
102
RTVSPost2010Prop54
  1
strokes_ogs.tif
102
RTVSPost2010PropOp54
 70
     0
102
RTVSPost2010Prop55
280
     0
102
RTVSPost2010PropOp55
 70
     1
102
RTVSPost2010Prop56
140
1.0
102
RTVSPost2010PropOp56
 70
     0
102
RTVSPost2010Prop57
140
1.0
102
RTVSPost2010PropOp57
 70
     0
102
RTVSPropertyOp0
 70
     0
102
RTVSPropertyOp1
 70
     0
102
RTVSPropertyOp2
 70
     0
102
RTVSPropertyOp3
 70
     0
102
RTVSPropertyOp4
 70
     0
102
RTVSPropertyOp5
 70
     0
102
RTVSPropertyOp6
 70
     0
102
RTVSPropertyOp7
 70
     0
102
RTVSPropertyOp8
 70
     0
102
RTVSPropertyOp9
 70
     0
102
RTVSPropertyOp10
 70
     0
102
RTVSPropertyOp11
 70
     0
102
RTVSPropertyOp12
 70
     0
102
RTVSPropertyOp13
 70
     0
102
RTVSPropertyOp14
 70
     2
102
RTVSPropertyOp15
 70
     0
102
RTVSPropertyOp16
 70
     0
102
RTVSPropertyOp17
 70
     0
102
RTVSPropertyOp18
 70
     0
102
RTVSPropertyOp19
 70
     0
102
RTVSPropertyOp20
 70
     0
102
RTVSPropertyOp21
 70
     0
102
RTVSPropertyOp22
 70
     0
102
RTVSPropertyOp23
 70
     0
102
RTVSPropertyOp24
 70
     0
102
RTVSPropertyOp25
 70
     0
102
RTVSPropertyOp26
 70
     0
102
RTVSPropertyOp27
 70
     0
102
RTVSPropertyOp28
 70
     1
102
RTVSPropertyOp29
 70
     1
102
RTVSPropertyOp30
 70
     1
102
RTVSPropertyOp31
 70
     1
102
RTVSPropertyOp32
 70
     1
102
RTVSPropertyOp33
 70
     1
102
RTVSPropertyOp34
 70
     1
102
RTVSPropertyOp35
 70
     1
102
RTVSPropertyOp36
 70
     1
102
RTVSPropertyOp37
 70
     0
102
RTVSPropertyOp38
 70
     0
102
RTVSPropertyOp39
 70
     0
102
RTVSPropertyOp40
 70
     0
102
RTVSPropertyOp41
 70
     0
102
RTVSPropertyOp42
 70
     0
102
RTVSPropertyOp43
 70
     0
102
RTVSPropertyOp44
 70
     0
102
RTVSPropertyOp45
 70
     1
102
RTVSPropertyOp46
 70
     0
102
RTVSPropertyOp47
 70
     0
102
RTVSPropertyOp48
 70
     0
102
RTVSPropertyOp49
 70
     1
102
RTVSPropertyOp50
 70
     0
102
RTVSPropertyOp51
 70
     0
102
RTVSPropertyOp52
 70
     0
102
RTVSPropertyOp53
 70
     0
102
RTVSPropertyOp54
 70
     0
102
RTVSPropertyOp55
 70
     1
102
RTVSPropertyOp56
 70
     0
102
RTVSPropertyOp57
 70
     0
102
RTVSPropertyOp58
 70
     0
102
RTVSPropertyOp59
 70
     0
102
RTVSPropertyOp60
 70
     0
102
RTVSPropertyOp61
 70
     0
102
RTVSPropertyOp62
 70
     0
  0
XRECORD
  5
2F1D
102
{ACAD_REACTORS
330
2F1C
102
}
330
2F1C
100
AcDbXrecord
280
     1
102
RTVSPost2010Prop28
280
     0
102
RTVSPost2010PropOp28
 70
     1
102
RTVSPost2010Prop29
280
     1
102
RTVSPost2010PropOp29
 70
     1
102
RTVSPost2010Prop30
280
     1
102
RTVSPost2010PropOp30
 70
     1
102
RTVSPost2010Prop31
280
     0
102
RTVSPost2010PropOp31
 70
     1
102
RTVSPost2010Prop32
280
     0
102
RTVSPost2010PropOp32
 70
     1
102
RTVSPost2010Prop33
280
     0
102
RTVSPost2010PropOp33
 70
     1
102
RTVSPost2010Prop34
280
     0
102
RTVSPost2010PropOp34
 70
     1
102
RTVSPost2010Prop35
280
     0
102
RTVSPost2010PropOp35
 70
     1
102
RTVSPost2010Prop36
280
     0
102
RTVSPost2010PropOp36
 70
     1
102
RTVSPost2010Prop37
 90
       50
102
RTVSPost2010PropOp37
 70
     1
102
RTVSPost2010Prop38
140
0.0
102
RTVSPost2010PropOp38
 70
     1
102
RTVSPost2010Prop39
140
1.0
102
RTVSPost2010PropOp39
 70
     1
102
RTVSPost2010Prop40
 90
        0
102
RTVSPost2010PropOp40
 70
     1
102
RTVSPost2010Prop41ColorIndex
 90
       18
102
RTVSPost2010Prop41ColorRGB
 90
        0
102
RTVSPost2010PropOp41
 70
     1
102
RTVSPost2010Prop42
 90
       50
102
RTVSPost2010PropOp42
 70
     1
102
RTVSPost2010Prop43
 90
        3
102
RTVSPost2010PropOp43
 70
     1
102
RTVSPost2010Prop44ColorIndex
 90
        5
102
RTVSPost2010Prop44ColorRGB
 90
      255
102
RTVSPost2010PropOp44
 70
     1
102
RTVSPost2010Prop45
280
     0
102
RTVSPost2010PropOp45
 70
     1
102
RTVSPost2010Prop46
 90
       50
102
RTVSPost2010PropOp46
 70
     1
102
RTVSPost2010Prop47
 90
       50
102
RTVSPost2010PropOp47
 70
     1
102
RTVSPost2010Prop48
 90
       50
102
RTVSPost2010PropOp48
 70
     1
102
RTVSPost2010Prop49
280
     0
102
RTVSPost2010PropOp49
 70
     1
102
RTVSPost2010Prop50
 90
       50
102
RTVSPost2010PropOp50
 70
     1
102
RTVSPost2010Prop51ColorIndex
 90
      256
102
RTVSPost2010Prop51ColorRGB
 90
-16777216
102
RTVSPost2010PropOp51
 70
     0
102
RTVSPost2010Prop52
140
1.0
102
RTVSPost2010PropOp52
 70
     0
102
RTVSPost2010Prop53
 90
        2
102
RTVSPost2010PropOp53
 70
     1
102
RTVSPost2010Prop54
  1
strokes_ogs.tif
102
RTVSPost2010PropOp54
 70
     1
102
RTVSPost2010Prop55
280
     0
102
RTVSPost2010PropOp55
 70
     1
102
RTVSPost2010Prop56
140
1.0
102
RTVSPost2010PropOp56
 70
     1
102
RTVSPost2010Prop57
140
1.0
102
RTVSPost2010PropOp57
 70
     1
102
RTVSPropertyOp0
 70
     1
102
RTVSPropertyOp1
 70
     1
102
RTVSPropertyOp2
 70
     1
102
RTVSPropertyOp3
 70
     1
102
RTVSPropertyOp4
 70
     1
102
RTVSPropertyOp5
 70
     1
102
RTVSPropertyOp6
 70
     1
102
RTVSPropertyOp7
 70
     1
102
RTVSPropertyOp8
 70
     1
102
RTVSPropertyOp9
 70
     1
102
RTVSPropertyOp10
 70
     1
102
RTVSPropertyOp11
 70
     1
102
RTVSPropertyOp12
 70
     1
102
RTVSPropertyOp13
 70
     1
102
RTVSPropertyOp14
 70
     1
102
RTVSPropertyOp15
 70
     1
102
RTVSPropertyOp16
 70
     1
102
RTVSPropertyOp17
 70
     1
102
RTVSPropertyOp18
 70
     1
102
RTVSPropertyOp19
 70
     1
102
RTVSPropertyOp20
 70
     1
102
RTVSPropertyOp21
 70
     1
102
RTVSPropertyOp22
 70
     1
102
RTVSPropertyOp23
 70
     1
102
RTVSPropertyOp24
 70
     1
102
RTVSPropertyOp25
 70
     1
102
RTVSPropertyOp26
 70
     1
102
RTVSPropertyOp27
 70
     1
102
RTVSPropertyOp28
 70
     1
102
RTVSPropertyOp29
 70
     1
102
RTVSPropertyOp30
 70
     1
102
RTVSPropertyOp31
 70
     1
102
RTVSPropertyOp32
 70
     1
102
RTVSPropertyOp33
 70
     1
102
RTVSPropertyOp34
 70
     1
102
RTVSPropertyOp35
 70
     1
102
RTVSPropertyOp36
 70
     1
102
RTVSPropertyOp37
 70
     1
102
RTVSPropertyOp38
 70
     1
102
RTVSPropertyOp39
 70
     1
102
RTVSPropertyOp40
 70
     1
102
RTVSPropertyOp41
 70
     1
102
RTVSPropertyOp42
 70
     1
102
RTVSPropertyOp43
 70
     1
102
RTVSPropertyOp44
 70
     1
102
RTVSPropertyOp45
 70
     1
102
RTVSPropertyOp46
 70
     1
102
RTVSPropertyOp47
 70
     1
102
RTVSPropertyOp48
 70
     1
102
RTVSPropertyOp49
 70
     1
102
RTVSPropertyOp50
 70
     1
102
RTVSPropertyOp51
 70
     0
102
RTVSPropertyOp52
 70
     0
102
RTVSPropertyOp53
 70
     1
102
RTVSPropertyOp54
 70
     1
102
RTVSPropertyOp55
 70
     1
102
RTVSPropertyOp56
 70
     1
102
RTVSPropertyOp57
 70
     1
102
RTVSPropertyOp58
 70
     1
102
RTVSPropertyOp59
 70
     1
102
RTVSPropertyOp60
 70
     1
102
RTVSPropertyOp61
 70
     1
102
RTVSPropertyOp62
 70
     1
  0
XRECORD
  5
2F01
102
{ACAD_REACTORS
330
2F00
102
}
330
2F00
100
AcDbXrecord
280
     1
102
RTVSPost2010Prop28
280
     0
102
RTVSPost2010PropOp28
 70
     1
102
RTVSPost2010Prop29
280
     1
102
RTVSPost2010PropOp29
 70
     1
102
RTVSPost2010Prop30
280
     1
102
RTVSPost2010PropOp30
 70
     1
102
RTVSPost2010Prop31
280
     0
102
RTVSPost2010PropOp31
 70
     1
102
RTVSPost2010Prop32
280
     0
102
RTVSPost2010PropOp32
 70
     1
102
RTVSPost2010Prop33
280
     0
102
RTVSPost2010PropOp33
 70
     1
102
RTVSPost2010Prop34
280
     0
102
RTVSPost2010PropOp34
 70
     1
102
RTVSPost2010Prop35
280
     0
102
RTVSPost2010PropOp35
 70
     1
102
RTVSPost2010Prop36
280
     0
102
RTVSPost2010PropOp36
 70
     1
102
RTVSPost2010Prop37
 90
       50
102
RTVSPost2010PropOp37
 70
     1
102
RTVSPost2010Prop38
140
0.0
102
RTVSPost2010PropOp38
 70
     1
102
RTVSPost2010Prop39
140
1.0
102
RTVSPost2010PropOp39
 70
     1
102
RTVSPost2010Prop40
 90
        0
102
RTVSPost2010PropOp40
 70
     1
102
RTVSPost2010Prop41ColorIndex
 90
       18
102
RTVSPost2010Prop41ColorRGB
 90
        0
102
RTVSPost2010PropOp41
 70
     1
102
RTVSPost2010Prop42
 90
       50
102
RTVSPost2010PropOp42
 70
     1
102
RTVSPost2010Prop43
 90
        3
102
RTVSPost2010PropOp43
 70
     1
102
RTVSPost2010Prop44ColorIndex
 90
        5
102
RTVSPost2010Prop44ColorRGB
 90
      255
102
RTVSPost2010PropOp44
 70
     1
102
RTVSPost2010Prop45
280
     0
102
RTVSPost2010PropOp45
 70
     1
102
RTVSPost2010Prop46
 90
       50
102
RTVSPost2010PropOp46
 70
     1
102
RTVSPost2010Prop47
 90
       50
102
RTVSPost2010PropOp47
 70
     1
102
RTVSPost2010Prop48
 90
       50
102
RTVSPost2010PropOp48
 70
     1
102
RTVSPost2010Prop49
280
     0
102
RTVSPost2010PropOp49
 70
     1
102
RTVSPost2010Prop50
 90
       50
102
RTVSPost2010PropOp50
 70
     1
102
RTVSPost2010Prop51ColorIndex
 90
      256
102
RTVSPost2010Prop51ColorRGB
 90
-16777216
102
RTVSPost2010PropOp51
 70
     0
102
RTVSPost2010Prop52
140
1.0
102
RTVSPost2010PropOp52
 70
     0
102
RTVSPost2010Prop53
 90
        2
102
RTVSPost2010PropOp53
 70
     1
102
RTVSPost2010Prop54
  1
strokes_ogs.tif
102
RTVSPost2010PropOp54
 70
     1
102
RTVSPost2010Prop55
280
     0
102
RTVSPost2010PropOp55
 70
     1
102
RTVSPost2010Prop56
140
1.0
102
RTVSPost2010PropOp56
 70
     1
102
RTVSPost2010Prop57
140
1.0
102
RTVSPost2010PropOp57
 70
     1
102
RTVSPropertyOp0
 70
     1
102
RTVSPropertyOp1
 70
     1
102
RTVSPropertyOp2
 70
     1
102
RTVSPropertyOp3
 70
     1
102
RTVSPropertyOp4
 70
     1
102
RTVSPropertyOp5
 70
     1
102
RTVSPropertyOp6
 70
     1
102
RTVSPropertyOp7
 70
     1
102
RTVSPropertyOp8
 70
     1
102
RTVSPropertyOp9
 70
     1
102
RTVSPropertyOp10
 70
     1
102
RTVSPropertyOp11
 70
     1
102
RTVSPropertyOp12
 70
     1
102
RTVSPropertyOp13
 70
     1
102
RTVSPropertyOp14
 70
     1
102
RTVSPropertyOp15
 70
     1
102
RTVSPropertyOp16
 70
     1
102
RTVSPropertyOp17
 70
     1
102
RTVSPropertyOp18
 70
     1
102
RTVSPropertyOp19
 70
     1
102
RTVSPropertyOp20
 70
     1
102
RTVSPropertyOp21
 70
     1
102
RTVSPropertyOp22
 70
     1
102
RTVSPropertyOp23
 70
     1
102
RTVSPropertyOp24
 70
     1
102
RTVSPropertyOp25
 70
     1
102
RTVSPropertyOp26
 70
     1
102
RTVSPropertyOp27
 70
     1
102
RTVSPropertyOp28
 70
     1
102
RTVSPropertyOp29
 70
     1
102
RTVSPropertyOp30
 70
     1
102
RTVSPropertyOp31
 70
     1
102
RTVSPropertyOp32
 70
     1
102
RTVSPropertyOp33
 70
     1
102
RTVSPropertyOp34
 70
     1
102
RTVSPropertyOp35
 70
     1
102
RTVSPropertyOp36
 70
     1
102
RTVSPropertyOp37
 70
     1
102
RTVSPropertyOp38
 70
     1
102
RTVSPropertyOp39
 70
     1
102
RTVSPropertyOp40
 70
     1
102
RTVSPropertyOp41
 70
     1
102
RTVSPropertyOp42
 70
     1
102
RTVSPropertyOp43
 70
     1
102
RTVSPropertyOp44
 70
     1
102
RTVSPropertyOp45
 70
     1
102
RTVSPropertyOp46
 70
     1
102
RTVSPropertyOp47
 70
     1
102
RTVSPropertyOp48
 70
     1
102
RTVSPropertyOp49
 70
     1
102
RTVSPropertyOp50
 70
     1
102
RTVSPropertyOp51
 70
     0
102
RTVSPropertyOp52
 70
     0
102
RTVSPropertyOp53
 70
     1
102
RTVSPropertyOp54
 70
     1
102
RTVSPropertyOp55
 70
     1
102
RTVSPropertyOp56
 70
     1
102
RTVSPropertyOp57
 70
     1
102
RTVSPropertyOp58
 70
     1
102
RTVSPropertyOp59
 70
     1
102
RTVSPropertyOp60
 70
     1
102
RTVSPropertyOp61
 70
     1
102
RTVSPropertyOp62
 70
     1
  0
XRECORD
  5
2F03
102
{ACAD_REACTORS
330
2F02
102
}
330
2F02
100
AcDbXrecord
280
     1
102
RTVSPost2010Prop28
280
     0
102
RTVSPost2010PropOp28
 70
     1
102
RTVSPost2010Prop29
280
     1
102
RTVSPost2010PropOp29
 70
     1
102
RTVSPost2010Prop30
280
     1
102
RTVSPost2010PropOp30
 70
     1
102
RTVSPost2010Prop31
280
     0
102
RTVSPost2010PropOp31
 70
     1
102
RTVSPost2010Prop32
280
     0
102
RTVSPost2010PropOp32
 70
     1
102
RTVSPost2010Prop33
280
     0
102
RTVSPost2010PropOp33
 70
     1
102
RTVSPost2010Prop34
280
     0
102
RTVSPost2010PropOp34
 70
     1
102
RTVSPost2010Prop35
280
     0
102
RTVSPost2010PropOp35
 70
     1
102
RTVSPost2010Prop36
280
     0
102
RTVSPost2010PropOp36
 70
     1
102
RTVSPost2010Prop37
 90
       50
102
RTVSPost2010PropOp37
 70
     1
102
RTVSPost2010Prop38
140
0.0
102
RTVSPost2010PropOp38
 70
     1
102
RTVSPost2010Prop39
140
1.0
102
RTVSPost2010PropOp39
 70
     1
102
RTVSPost2010Prop40
 90
        0
102
RTVSPost2010PropOp40
 70
     1
102
RTVSPost2010Prop41ColorIndex
 90
       18
102
RTVSPost2010Prop41ColorRGB
 90
        0
102
RTVSPost2010PropOp41
 70
     1
102
RTVSPost2010Prop42
 90
       50
102
RTVSPost2010PropOp42
 70
     1
102
RTVSPost2010Prop43
 90
        3
102
RTVSPost2010PropOp43
 70
     1
102
RTVSPost2010Prop44ColorIndex
 90
        5
102
RTVSPost2010Prop44ColorRGB
 90
      255
102
RTVSPost2010PropOp44
 70
     1
102
RTVSPost2010Prop45
280
     0
102
RTVSPost2010PropOp45
 70
     1
102
RTVSPost2010Prop46
 90
       50
102
RTVSPost2010PropOp46
 70
     1
102
RTVSPost2010Prop47
 90
       50
102
RTVSPost2010PropOp47
 70
     1
102
RTVSPost2010Prop48
 90
       50
102
RTVSPost2010PropOp48
 70
     1
102
RTVSPost2010Prop49
280
     0
102
RTVSPost2010PropOp49
 70
     1
102
RTVSPost2010Prop50
 90
       50
102
RTVSPost2010PropOp50
 70
     1
102
RTVSPost2010Prop51ColorIndex
 90
      256
102
RTVSPost2010Prop51ColorRGB
 90
-16777216
102
RTVSPost2010PropOp51
 70
     0
102
RTVSPost2010Prop52
140
1.0
102
RTVSPost2010PropOp52
 70
     0
102
RTVSPost2010Prop53
 90
        2
102
RTVSPost2010PropOp53
 70
     1
102
RTVSPost2010Prop54
  1
strokes_ogs.tif
102
RTVSPost2010PropOp54
 70
     1
102
RTVSPost2010Prop55
280
     0
102
RTVSPost2010PropOp55
 70
     1
102
RTVSPost2010Prop56
140
1.0
102
RTVSPost2010PropOp56
 70
     1
102
RTVSPost2010Prop57
140
1.0
102
RTVSPost2010PropOp57
 70
     1
102
RTVSPropertyOp0
 70
     1
102
RTVSPropertyOp1
 70
     1
102
RTVSPropertyOp2
 70
     1
102
RTVSPropertyOp3
 70
     1
102
RTVSPropertyOp4
 70
     1
102
RTVSPropertyOp5
 70
     1
102
RTVSPropertyOp6
 70
     1
102
RTVSPropertyOp7
 70
     1
102
RTVSPropertyOp8
 70
     1
102
RTVSPropertyOp9
 70
     1
102
RTVSPropertyOp10
 70
     1
102
RTVSPropertyOp11
 70
     1
102
RTVSPropertyOp12
 70
     1
102
RTVSPropertyOp13
 70
     1
102
RTVSPropertyOp14
 70
     1
102
RTVSPropertyOp15
 70
     1
102
RTVSPropertyOp16
 70
     1
102
RTVSPropertyOp17
 70
     1
102
RTVSPropertyOp18
 70
     1
102
RTVSPropertyOp19
 70
     1
102
RTVSPropertyOp20
 70
     1
102
RTVSPropertyOp21
 70
     1
102
RTVSPropertyOp22
 70
     1
102
RTVSPropertyOp23
 70
     1
102
RTVSPropertyOp24
 70
     1
102
RTVSPropertyOp25
 70
     1
102
RTVSPropertyOp26
 70
     1
102
RTVSPropertyOp27
 70
     1
102
RTVSPropertyOp28
 70
     1
102
RTVSPropertyOp29
 70
     1
102
RTVSPropertyOp30
 70
     1
102
RTVSPropertyOp31
 70
     1
102
RTVSPropertyOp32
 70
     1
102
RTVSPropertyOp33
 70
     1
102
RTVSPropertyOp34
 70
     1
102
RTVSPropertyOp35
 70
     1
102
RTVSPropertyOp36
 70
     1
102
RTVSPropertyOp37
 70
     1
102
RTVSPropertyOp38
 70
     1
102
RTVSPropertyOp39
 70
     1
102
RTVSPropertyOp40
 70
     1
102
RTVSPropertyOp41
 70
     1
102
RTVSPropertyOp42
 70
     1
102
RTVSPropertyOp43
 70
     1
102
RTVSPropertyOp44
 70
     1
102
RTVSPropertyOp45
 70
     1
102
RTVSPropertyOp46
 70
     1
102
RTVSPropertyOp47
 70
     1
102
RTVSPropertyOp48
 70
     1
102
RTVSPropertyOp49
 70
     1
102
RTVSPropertyOp50
 70
     1
102
RTVSPropertyOp51
 70
     0
102
RTVSPropertyOp52
 70
     0
102
RTVSPropertyOp53
 70
     1
102
RTVSPropertyOp54
 70
     1
102
RTVSPropertyOp55
 70
     1
102
RTVSPropertyOp56
 70
     1
102
RTVSPropertyOp57
 70
     1
102
RTVSPropertyOp58
 70
     1
102
RTVSPropertyOp59
 70
     1
102
RTVSPropertyOp60
 70
     1
102
RTVSPropertyOp61
 70
     1
102
RTVSPropertyOp62
 70
     1
  0
XRECORD
  5
2F05
102
{ACAD_REACTORS
330
2F04
102
}
330
2F04
100
AcDbXrecord
280
     1
102
RTVSPost2010Prop28
280
     0
102
RTVSPost2010PropOp28
 70
     1
102
RTVSPost2010Prop29
280
     1
102
RTVSPost2010PropOp29
 70
     1
102
RTVSPost2010Prop30
280
     1
102
RTVSPost2010PropOp30
 70
     1
102
RTVSPost2010Prop31
280
     0
102
RTVSPost2010PropOp31
 70
     1
102
RTVSPost2010Prop32
280
     0
102
RTVSPost2010PropOp32
 70
     1
102
RTVSPost2010Prop33
280
     0
102
RTVSPost2010PropOp33
 70
     1
102
RTVSPost2010Prop34
280
     0
102
RTVSPost2010PropOp34
 70
     1
102
RTVSPost2010Prop35
280
     0
102
RTVSPost2010PropOp35
 70
     1
102
RTVSPost2010Prop36
280
     0
102
RTVSPost2010PropOp36
 70
     1
102
RTVSPost2010Prop37
 90
       50
102
RTVSPost2010PropOp37
 70
     1
102
RTVSPost2010Prop38
140
0.0
102
RTVSPost2010PropOp38
 70
     1
102
RTVSPost2010Prop39
140
1.0
102
RTVSPost2010PropOp39
 70
     1
102
RTVSPost2010Prop40
 90
        0
102
RTVSPost2010PropOp40
 70
     1
102
RTVSPost2010Prop41ColorIndex
 90
       18
102
RTVSPost2010Prop41ColorRGB
 90
        0
102
RTVSPost2010PropOp41
 70
     1
102
RTVSPost2010Prop42
 90
       50
102
RTVSPost2010PropOp42
 70
     1
102
RTVSPost2010Prop43
 90
        3
102
RTVSPost2010PropOp43
 70
     1
102
RTVSPost2010Prop44ColorIndex
 90
        5
102
RTVSPost2010Prop44ColorRGB
 90
      255
102
RTVSPost2010PropOp44
 70
     1
102
RTVSPost2010Prop45
280
     0
102
RTVSPost2010PropOp45
 70
     1
102
RTVSPost2010Prop46
 90
       50
102
RTVSPost2010PropOp46
 70
     1
102
RTVSPost2010Prop47
 90
       50
102
RTVSPost2010PropOp47
 70
     1
102
RTVSPost2010Prop48
 90
       50
102
RTVSPost2010PropOp48
 70
     1
102
RTVSPost2010Prop49
280
     0
102
RTVSPost2010PropOp49
 70
     1
102
RTVSPost2010Prop50
 90
       50
102
RTVSPost2010PropOp50
 70
     1
102
RTVSPost2010Prop51ColorIndex
 90
      256
102
RTVSPost2010Prop51ColorRGB
 90
-16777216
102
RTVSPost2010PropOp51
 70
     0
102
RTVSPost2010Prop52
140
1.0
102
RTVSPost2010PropOp52
 70
     0
102
RTVSPost2010Prop53
 90
        2
102
RTVSPost2010PropOp53
 70
     1
102
RTVSPost2010Prop54
  1
strokes_ogs.tif
102
RTVSPost2010PropOp54
 70
     1
102
RTVSPost2010Prop55
280
     0
102
RTVSPost2010PropOp55
 70
     1
102
RTVSPost2010Prop56
140
1.0
102
RTVSPost2010PropOp56
 70
     1
102
RTVSPost2010Prop57
140
1.0
102
RTVSPost2010PropOp57
 70
     1
102
RTVSPropertyOp0
 70
     1
102
RTVSPropertyOp1
 70
     1
102
RTVSPropertyOp2
 70
     1
102
RTVSPropertyOp3
 70
     1
102
RTVSPropertyOp4
 70
     1
102
RTVSPropertyOp5
 70
     1
102
RTVSPropertyOp6
 70
     1
102
RTVSPropertyOp7
 70
     1
102
RTVSPropertyOp8
 70
     1
102
RTVSPropertyOp9
 70
     1
102
RTVSPropertyOp10
 70
     1
102
RTVSPropertyOp11
 70
     1
102
RTVSPropertyOp12
 70
     1
102
RTVSPropertyOp13
 70
     1
102
RTVSPropertyOp14
 70
     1
102
RTVSPropertyOp15
 70
     1
102
RTVSPropertyOp16
 70
     1
102
RTVSPropertyOp17
 70
     1
102
RTVSPropertyOp18
 70
     1
102
RTVSPropertyOp19
 70
     1
102
RTVSPropertyOp20
 70
     1
102
RTVSPropertyOp21
 70
     1
102
RTVSPropertyOp22
 70
     1
102
RTVSPropertyOp23
 70
     1
102
RTVSPropertyOp24
 70
     1
102
RTVSPropertyOp25
 70
     1
102
RTVSPropertyOp26
 70
     1
102
RTVSPropertyOp27
 70
     1
102
RTVSPropertyOp28
 70
     1
102
RTVSPropertyOp29
 70
     1
102
RTVSPropertyOp30
 70
     1
102
RTVSPropertyOp31
 70
     1
102
RTVSPropertyOp32
 70
     1
102
RTVSPropertyOp33
 70
     1
102
RTVSPropertyOp34
 70
     1
102
RTVSPropertyOp35
 70
     1
102
RTVSPropertyOp36
 70
     1
102
RTVSPropertyOp37
 70
     1
102
RTVSPropertyOp38
 70
     1
102
RTVSPropertyOp39
 70
     1
102
RTVSPropertyOp40
 70
     1
102
RTVSPropertyOp41
 70
     1
102
RTVSPropertyOp42
 70
     1
102
RTVSPropertyOp43
 70
     1
102
RTVSPropertyOp44
 70
     1
102
RTVSPropertyOp45
 70
     1
102
RTVSPropertyOp46
 70
     1
102
RTVSPropertyOp47
 70
     1
102
RTVSPropertyOp48
 70
     1
102
RTVSPropertyOp49
 70
     1
102
RTVSPropertyOp50
 70
     1
102
RTVSPropertyOp51
 70
     0
102
RTVSPropertyOp52
 70
     0
102
RTVSPropertyOp53
 70
     1
102
RTVSPropertyOp54
 70
     1
102
RTVSPropertyOp55
 70
     1
102
RTVSPropertyOp56
 70
     1
102
RTVSPropertyOp57
 70
     1
102
RTVSPropertyOp58
 70
     1
102
RTVSPropertyOp59
 70
     1
102
RTVSPropertyOp60
 70
     1
102
RTVSPropertyOp61
 70
     1
102
RTVSPropertyOp62
 70
     1
  0
XRECORD
  5
2F07
102
{ACAD_REACTORS
330
2F06
102
}
330
2F06
100
AcDbXrecord
280
     1
102
RTVSPost2010Prop28
280
     0
102
RTVSPost2010PropOp28
 70
     1
102
RTVSPost2010Prop29
280
     1
102
RTVSPost2010PropOp29
 70
     1
102
RTVSPost2010Prop30
280
     1
102
RTVSPost2010PropOp30
 70
     1
102
RTVSPost2010Prop31
280
     0
102
RTVSPost2010PropOp31
 70
     1
102
RTVSPost2010Prop32
280
     0
102
RTVSPost2010PropOp32
 70
     1
102
RTVSPost2010Prop33
280
     0
102
RTVSPost2010PropOp33
 70
     1
102
RTVSPost2010Prop34
280
     0
102
RTVSPost2010PropOp34
 70
     1
102
RTVSPost2010Prop35
280
     0
102
RTVSPost2010PropOp35
 70
     1
102
RTVSPost2010Prop36
280
     0
102
RTVSPost2010PropOp36
 70
     1
102
RTVSPost2010Prop37
 90
       50
102
RTVSPost2010PropOp37
 70
     1
102
RTVSPost2010Prop38
140
0.0
102
RTVSPost2010PropOp38
 70
     1
102
RTVSPost2010Prop39
140
1.0
102
RTVSPost2010PropOp39
 70
     1
102
RTVSPost2010Prop40
 90
        0
102
RTVSPost2010PropOp40
 70
     1
102
RTVSPost2010Prop41ColorIndex
 90
       18
102
RTVSPost2010Prop41ColorRGB
 90
        0
102
RTVSPost2010PropOp41
 70
     1
102
RTVSPost2010Prop42
 90
       50
102
RTVSPost2010PropOp42
 70
     1
102
RTVSPost2010Prop43
 90
        3
102
RTVSPost2010PropOp43
 70
     1
102
RTVSPost2010Prop44ColorIndex
 90
        5
102
RTVSPost2010Prop44ColorRGB
 90
      255
102
RTVSPost2010PropOp44
 70
     1
102
RTVSPost2010Prop45
280
     0
102
RTVSPost2010PropOp45
 70
     1
102
RTVSPost2010Prop46
 90
       50
102
RTVSPost2010PropOp46
 70
     1
102
RTVSPost2010Prop47
 90
       50
102
RTVSPost2010PropOp47
 70
     1
102
RTVSPost2010Prop48
 90
       50
102
RTVSPost2010PropOp48
 70
     1
102
RTVSPost2010Prop49
280
     0
102
RTVSPost2010PropOp49
 70
     1
102
RTVSPost2010Prop50
 90
       50
102
RTVSPost2010PropOp50
 70
     1
102
RTVSPost2010Prop51ColorIndex
 90
      256
102
RTVSPost2010Prop51ColorRGB
 90
-16777216
102
RTVSPost2010PropOp51
 70
     0
102
RTVSPost2010Prop52
140
1.0
102
RTVSPost2010PropOp52
 70
     0
102
RTVSPost2010Prop53
 90
        2
102
RTVSPost2010PropOp53
 70
     1
102
RTVSPost2010Prop54
  1
strokes_ogs.tif
102
RTVSPost2010PropOp54
 70
     1
102
RTVSPost2010Prop55
280
     0
102
RTVSPost2010PropOp55
 70
     1
102
RTVSPost2010Prop56
140
1.0
102
RTVSPost2010PropOp56
 70
     1
102
RTVSPost2010Prop57
140
1.0
102
RTVSPost2010PropOp57
 70
     1
102
RTVSPropertyOp0
 70
     1
102
RTVSPropertyOp1
 70
     1
102
RTVSPropertyOp2
 70
     1
102
RTVSPropertyOp3
 70
     1
102
RTVSPropertyOp4
 70
     1
102
RTVSPropertyOp5
 70
     1
102
RTVSPropertyOp6
 70
     1
102
RTVSPropertyOp7
 70
     1
102
RTVSPropertyOp8
 70
     1
102
RTVSPropertyOp9
 70
     1
102
RTVSPropertyOp10
 70
     1
102
RTVSPropertyOp11
 70
     1
102
RTVSPropertyOp12
 70
     1
102
RTVSPropertyOp13
 70
     1
102
RTVSPropertyOp14
 70
     1
102
RTVSPropertyOp15
 70
     1
102
RTVSPropertyOp16
 70
     1
102
RTVSPropertyOp17
 70
     1
102
RTVSPropertyOp18
 70
     1
102
RTVSPropertyOp19
 70
     1
102
RTVSPropertyOp20
 70
     1
102
RTVSPropertyOp21
 70
     1
102
RTVSPropertyOp22
 70
     1
102
RTVSPropertyOp23
 70
     1
102
RTVSPropertyOp24
 70
     1
102
RTVSPropertyOp25
 70
     1
102
RTVSPropertyOp26
 70
     1
102
RTVSPropertyOp27
 70
     1
102
RTVSPropertyOp28
 70
     1
102
RTVSPropertyOp29
 70
     1
102
RTVSPropertyOp30
 70
     1
102
RTVSPropertyOp31
 70
     1
102
RTVSPropertyOp32
 70
     1
102
RTVSPropertyOp33
 70
     1
102
RTVSPropertyOp34
 70
     1
102
RTVSPropertyOp35
 70
     1
102
RTVSPropertyOp36
 70
     1
102
RTVSPropertyOp37
 70
     1
102
RTVSPropertyOp38
 70
     1
102
RTVSPropertyOp39
 70
     1
102
RTVSPropertyOp40
 70
     1
102
RTVSPropertyOp41
 70
     1
102
RTVSPropertyOp42
 70
     1
102
RTVSPropertyOp43
 70
     1
102
RTVSPropertyOp44
 70
     1
102
RTVSPropertyOp45
 70
     1
102
RTVSPropertyOp46
 70
     1
102
RTVSPropertyOp47
 70
     1
102
RTVSPropertyOp48
 70
     1
102
RTVSPropertyOp49
 70
     1
102
RTVSPropertyOp50
 70
     1
102
RTVSPropertyOp51
 70
     0
102
RTVSPropertyOp52
 70
     0
102
RTVSPropertyOp53
 70
     1
102
RTVSPropertyOp54
 70
     1
102
RTVSPropertyOp55
 70
     1
102
RTVSPropertyOp56
 70
     1
102
RTVSPropertyOp57
 70
     1
102
RTVSPropertyOp58
 70
     1
102
RTVSPropertyOp59
 70
     1
102
RTVSPropertyOp60
 70
     1
102
RTVSPropertyOp61
 70
     1
102
RTVSPropertyOp62
 70
     1
  0
XRECORD
  5
2F0F
102
{ACAD_REACTORS
330
2F0E
102
}
330
2F0E
100
AcDbXrecord
280
     1
102
RTVSPost2010Prop28
280
     0
102
RTVSPost2010PropOp28
 70
     1
102
RTVSPost2010Prop29
280
     1
102
RTVSPost2010PropOp29
 70
     1
102
RTVSPost2010Prop30
280
     1
102
RTVSPost2010PropOp30
 70
     1
102
RTVSPost2010Prop31
280
     0
102
RTVSPost2010PropOp31
 70
     1
102
RTVSPost2010Prop32
280
     0
102
RTVSPost2010PropOp32
 70
     1
102
RTVSPost2010Prop33
280
     0
102
RTVSPost2010PropOp33
 70
     1
102
RTVSPost2010Prop34
280
     0
102
RTVSPost2010PropOp34
 70
     1
102
RTVSPost2010Prop35
280
     0
102
RTVSPost2010PropOp35
 70
     1
102
RTVSPost2010Prop36
280
     0
102
RTVSPost2010PropOp36
 70
     1
102
RTVSPost2010Prop37
 90
       50
102
RTVSPost2010PropOp37
 70
     1
102
RTVSPost2010Prop38
140
0.0
102
RTVSPost2010PropOp38
 70
     1
102
RTVSPost2010Prop39
140
1.0
102
RTVSPost2010PropOp39
 70
     1
102
RTVSPost2010Prop40
 90
        0
102
RTVSPost2010PropOp40
 70
     1
102
RTVSPost2010Prop41ColorIndex
 90
       18
102
RTVSPost2010Prop41ColorRGB
 90
        0
102
RTVSPost2010PropOp41
 70
     1
102
RTVSPost2010Prop42
 90
       50
102
RTVSPost2010PropOp42
 70
     1
102
RTVSPost2010Prop43
 90
        3
102
RTVSPost2010PropOp43
 70
     1
102
RTVSPost2010Prop44ColorIndex
 90
        5
102
RTVSPost2010Prop44ColorRGB
 90
      255
102
RTVSPost2010PropOp44
 70
     1
102
RTVSPost2010Prop45
280
     0
102
RTVSPost2010PropOp45
 70
     1
102
RTVSPost2010Prop46
 90
       50
102
RTVSPost2010PropOp46
 70
     1
102
RTVSPost2010Prop47
 90
       50
102
RTVSPost2010PropOp47
 70
     1
102
RTVSPost2010Prop48
 90
       50
102
RTVSPost2010PropOp48
 70
     1
102
RTVSPost2010Prop49
280
     0
102
RTVSPost2010PropOp49
 70
     1
102
RTVSPost2010Prop50
 90
       50
102
RTVSPost2010PropOp50
 70
     1
102
RTVSPost2010Prop51ColorIndex
 90
      256
102
RTVSPost2010Prop51ColorRGB
 90
-16777216
102
RTVSPost2010PropOp51
 70
     0
102
RTVSPost2010Prop52
140
1.0
102
RTVSPost2010PropOp52
 70
     0
102
RTVSPost2010Prop53
 90
        2
102
RTVSPost2010PropOp53
 70
     1
102
RTVSPost2010Prop54
  1
strokes_ogs.tif
102
RTVSPost2010PropOp54
 70
     1
102
RTVSPost2010Prop55
280
     0
102
RTVSPost2010PropOp55
 70
     1
102
RTVSPost2010Prop56
140
1.0
102
RTVSPost2010PropOp56
 70
     1
102
RTVSPost2010Prop57
140
1.0
102
RTVSPost2010PropOp57
 70
     1
102
RTVSPropertyOp0
 70
     1
102
RTVSPropertyOp1
 70
     1
102
RTVSPropertyOp2
 70
     1
102
RTVSPropertyOp3
 70
     1
102
RTVSPropertyOp4
 70
     1
102
RTVSPropertyOp5
 70
     1
102
RTVSPropertyOp6
 70
     1
102
RTVSPropertyOp7
 70
     1
102
RTVSPropertyOp8
 70
     1
102
RTVSPropertyOp9
 70
     1
102
RTVSPropertyOp10
 70
     1
102
RTVSPropertyOp11
 70
     1
102
RTVSPropertyOp12
 70
     1
102
RTVSPropertyOp13
 70
     1
102
RTVSPropertyOp14
 70
     1
102
RTVSPropertyOp15
 70
     1
102
RTVSPropertyOp16
 70
     1
102
RTVSPropertyOp17
 70
     1
102
RTVSPropertyOp18
 70
     1
102
RTVSPropertyOp19
 70
     1
102
RTVSPropertyOp20
 70
     1
102
RTVSPropertyOp21
 70
     1
102
RTVSPropertyOp22
 70
     1
102
RTVSPropertyOp23
 70
     1
102
RTVSPropertyOp24
 70
     1
102
RTVSPropertyOp25
 70
     1
102
RTVSPropertyOp26
 70
     1
102
RTVSPropertyOp27
 70
     1
102
RTVSPropertyOp28
 70
     1
102
RTVSPropertyOp29
 70
     1
102
RTVSPropertyOp30
 70
     1
102
RTVSPropertyOp31
 70
     1
102
RTVSPropertyOp32
 70
     1
102
RTVSPropertyOp33
 70
     1
102
RTVSPropertyOp34
 70
     1
102
RTVSPropertyOp35
 70
     1
102
RTVSPropertyOp36
 70
     1
102
RTVSPropertyOp37
 70
     1
102
RTVSPropertyOp38
 70
     1
102
RTVSPropertyOp39
 70
     1
102
RTVSPropertyOp40
 70
     1
102
RTVSPropertyOp41
 70
     1
102
RTVSPropertyOp42
 70
     1
102
RTVSPropertyOp43
 70
     1
102
RTVSPropertyOp44
 70
     1
102
RTVSPropertyOp45
 70
     1
102
RTVSPropertyOp46
 70
     1
102
RTVSPropertyOp47
 70
     1
102
RTVSPropertyOp48
 70
     1
102
RTVSPropertyOp49
 70
     1
102
RTVSPropertyOp50
 70
     1
102
RTVSPropertyOp51
 70
     0
102
RTVSPropertyOp52
 70
     0
102
RTVSPropertyOp53
 70
     1
102
RTVSPropertyOp54
 70
     1
102
RTVSPropertyOp55
 70
     1
102
RTVSPropertyOp56
 70
     1
102
RTVSPropertyOp57
 70
     1
102
RTVSPropertyOp58
 70
     1
102
RTVSPropertyOp59
 70
     1
102
RTVSPropertyOp60
 70
     1
102
RTVSPropertyOp61
 70
     1
102
RTVSPropertyOp62
 70
     1
  0
XRECORD
  5
2F2B
102
{ACAD_REACTORS
330
2F2A
102
}
330
2F2A
100
AcDbXrecord
280
     1
102
RTVSPost2010Prop28
280
     0
102
RTVSPost2010PropOp28
 70
     1
102
RTVSPost2010Prop29
280
     1
102
RTVSPost2010PropOp29
 70
     1
102
RTVSPost2010Prop30
280
     1
102
RTVSPost2010PropOp30
 70
     1
102
RTVSPost2010Prop31
280
     0
102
RTVSPost2010PropOp31
 70
     1
102
RTVSPost2010Prop32
280
     0
102
RTVSPost2010PropOp32
 70
     1
102
RTVSPost2010Prop33
280
     0
102
RTVSPost2010PropOp33
 70
     1
102
RTVSPost2010Prop34
280
     0
102
RTVSPost2010PropOp34
 70
     1
102
RTVSPost2010Prop35
280
     0
102
RTVSPost2010PropOp35
 70
     1
102
RTVSPost2010Prop36
280
     0
102
RTVSPost2010PropOp36
 70
     1
102
RTVSPost2010Prop37
 90
       50
102
RTVSPost2010PropOp37
 70
     0
102
RTVSPost2010Prop38
140
0.0
102
RTVSPost2010PropOp38
 70
     0
102
RTVSPost2010Prop39
140
1.0
102
RTVSPost2010PropOp39
 70
     0
102
RTVSPost2010Prop40
 90
        0
102
RTVSPost2010PropOp40
 70
     0
102
RTVSPost2010Prop41ColorIndex
 90
       18
102
RTVSPost2010Prop41ColorRGB
 90
        0
102
RTVSPost2010PropOp41
 70
     0
102
RTVSPost2010Prop42
 90
       50
102
RTVSPost2010PropOp42
 70
     0
102
RTVSPost2010Prop43
 90
        3
102
RTVSPost2010PropOp43
 70
     0
102
RTVSPost2010Prop44ColorIndex
 90
        5
102
RTVSPost2010Prop44ColorRGB
 90
      255
102
RTVSPost2010PropOp44
 70
     0
102
RTVSPost2010Prop45
280
     0
102
RTVSPost2010PropOp45
 70
     1
102
RTVSPost2010Prop46
 90
       50
102
RTVSPost2010PropOp46
 70
     0
102
RTVSPost2010Prop47
 90
       50
102
RTVSPost2010PropOp47
 70
     0
102
RTVSPost2010Prop48
 90
       50
102
RTVSPost2010PropOp48
 70
     0
102
RTVSPost2010Prop49
280
     0
102
RTVSPost2010PropOp49
 70
     1
102
RTVSPost2010Prop50
 90
       50
102
RTVSPost2010PropOp50
 70
     0
102
RTVSPost2010Prop51ColorIndex
 90
      256
102
RTVSPost2010Prop51ColorRGB
 90
-16777216
102
RTVSPost2010PropOp51
 70
     0
102
RTVSPost2010Prop52
140
1.0
102
RTVSPost2010PropOp52
 70
     0
102
RTVSPost2010Prop53
 90
        2
102
RTVSPost2010PropOp53
 70
     0
102
RTVSPost2010Prop54
  1
strokes_ogs.tif
102
RTVSPost2010PropOp54
 70
     0
102
RTVSPost2010Prop55
280
     0
102
RTVSPost2010PropOp55
 70
     1
102
RTVSPost2010Prop56
140
1.0
102
RTVSPost2010PropOp56
 70
     0
102
RTVSPost2010Prop57
140
1.0
102
RTVSPost2010PropOp57
 70
     0
102
RTVSPropertyOp0
 70
     0
102
RTVSPropertyOp1
 70
     0
102
RTVSPropertyOp2
 70
     0
102
RTVSPropertyOp3
 70
     0
102
RTVSPropertyOp4
 70
     0
102
RTVSPropertyOp5
 70
     0
102
RTVSPropertyOp6
 70
     0
102
RTVSPropertyOp7
 70
     0
102
RTVSPropertyOp8
 70
     0
102
RTVSPropertyOp9
 70
     0
102
RTVSPropertyOp10
 70
     0
102
RTVSPropertyOp11
 70
     0
102
RTVSPropertyOp12
 70
     0
102
RTVSPropertyOp13
 70
     0
102
RTVSPropertyOp14
 70
     2
102
RTVSPropertyOp15
 70
     0
102
RTVSPropertyOp16
 70
     0
102
RTVSPropertyOp17
 70
     0
102
RTVSPropertyOp18
 70
     0
102
RTVSPropertyOp19
 70
     0
102
RTVSPropertyOp20
 70
     0
102
RTVSPropertyOp21
 70
     0
102
RTVSPropertyOp22
 70
     0
102
RTVSPropertyOp23
 70
     0
102
RTVSPropertyOp24
 70
     0
102
RTVSPropertyOp25
 70
     0
102
RTVSPropertyOp26
 70
     0
102
RTVSPropertyOp27
 70
     0
102
RTVSPropertyOp28
 70
     1
102
RTVSPropertyOp29
 70
     1
102
RTVSPropertyOp30
 70
     1
102
RTVSPropertyOp31
 70
     1
102
RTVSPropertyOp32
 70
     1
102
RTVSPropertyOp33
 70
     1
102
RTVSPropertyOp34
 70
     1
102
RTVSPropertyOp35
 70
     1
102
RTVSPropertyOp36
 70
     1
102
RTVSPropertyOp37
 70
     0
102
RTVSPropertyOp38
 70
     0
102
RTVSPropertyOp39
 70
     0
102
RTVSPropertyOp40
 70
     0
102
RTVSPropertyOp41
 70
     0
102
RTVSPropertyOp42
 70
     0
102
RTVSPropertyOp43
 70
     0
102
RTVSPropertyOp44
 70
     0
102
RTVSPropertyOp45
 70
     1
102
RTVSPropertyOp46
 70
     0
102
RTVSPropertyOp47
 70
     0
102
RTVSPropertyOp48
 70
     0
102
RTVSPropertyOp49
 70
     1
102
RTVSPropertyOp50
 70
     0
102
RTVSPropertyOp51
 70
     0
102
RTVSPropertyOp52
 70
     0
102
RTVSPropertyOp53
 70
     0
102
RTVSPropertyOp54
 70
     0
102
RTVSPropertyOp55
 70
     1
102
RTVSPropertyOp56
 70
     0
102
RTVSPropertyOp57
 70
     0
102
RTVSPropertyOp58
 70
     0
102
RTVSPropertyOp59
 70
     0
102
RTVSPropertyOp60
 70
     0
102
RTVSPropertyOp61
 70
     0
102
RTVSPropertyOp62
 70
     0
  0
XRECORD
  5
2F1B
102
{ACAD_REACTORS
330
2F1A
102
}
330
2F1A
100
AcDbXrecord
280
     1
102
RTVSPost2010Prop28
280
     0
102
RTVSPost2010PropOp28
 70
     1
102
RTVSPost2010Prop29
280
     1
102
RTVSPost2010PropOp29
 70
     1
102
RTVSPost2010Prop30
280
     1
102
RTVSPost2010PropOp30
 70
     1
102
RTVSPost2010Prop31
280
     0
102
RTVSPost2010PropOp31
 70
     1
102
RTVSPost2010Prop32
280
     0
102
RTVSPost2010PropOp32
 70
     1
102
RTVSPost2010Prop33
280
     0
102
RTVSPost2010PropOp33
 70
     1
102
RTVSPost2010Prop34
280
     0
102
RTVSPost2010PropOp34
 70
     1
102
RTVSPost2010Prop35
280
     0
102
RTVSPost2010PropOp35
 70
     1
102
RTVSPost2010Prop36
280
     0
102
RTVSPost2010PropOp36
 70
     1
102
RTVSPost2010Prop37
 90
       50
102
RTVSPost2010PropOp37
 70
     1
102
RTVSPost2010Prop38
140
0.0
102
RTVSPost2010PropOp38
 70
     1
102
RTVSPost2010Prop39
140
1.0
102
RTVSPost2010PropOp39
 70
     1
102
RTVSPost2010Prop40
 90
        0
102
RTVSPost2010PropOp40
 70
     1
102
RTVSPost2010Prop41ColorIndex
 90
       18
102
RTVSPost2010Prop41ColorRGB
 90
        0
102
RTVSPost2010PropOp41
 70
     1
102
RTVSPost2010Prop42
 90
       50
102
RTVSPost2010PropOp42
 70
     1
102
RTVSPost2010Prop43
 90
        3
102
RTVSPost2010PropOp43
 70
     1
102
RTVSPost2010Prop44ColorIndex
 90
        5
102
RTVSPost2010Prop44ColorRGB
 90
      255
102
RTVSPost2010PropOp44
 70
     1
102
RTVSPost2010Prop45
280
     0
102
RTVSPost2010PropOp45
 70
     1
102
RTVSPost2010Prop46
 90
       50
102
RTVSPost2010PropOp46
 70
     1
102
RTVSPost2010Prop47
 90
       50
102
RTVSPost2010PropOp47
 70
     1
102
RTVSPost2010Prop48
 90
       50
102
RTVSPost2010PropOp48
 70
     1
102
RTVSPost2010Prop49
280
     0
102
RTVSPost2010PropOp49
 70
     1
102
RTVSPost2010Prop50
 90
       50
102
RTVSPost2010PropOp50
 70
     1
102
RTVSPost2010Prop51ColorIndex
 90
      256
102
RTVSPost2010Prop51ColorRGB
 90
-16777216
102
RTVSPost2010PropOp51
 70
     0
102
RTVSPost2010Prop52
140
1.0
102
RTVSPost2010PropOp52
 70
     0
102
RTVSPost2010Prop53
 90
        2
102
RTVSPost2010PropOp53
 70
     1
102
RTVSPost2010Prop54
  1
strokes_ogs.tif
102
RTVSPost2010PropOp54
 70
     1
102
RTVSPost2010Prop55
280
     0
102
RTVSPost2010PropOp55
 70
     1
102
RTVSPost2010Prop56
140
1.0
102
RTVSPost2010PropOp56
 70
     1
102
RTVSPost2010Prop57
140
1.0
102
RTVSPost2010PropOp57
 70
     1
102
RTVSPropertyOp0
 70
     1
102
RTVSPropertyOp1
 70
     1
102
RTVSPropertyOp2
 70
     1
102
RTVSPropertyOp3
 70
     1
102
RTVSPropertyOp4
 70
     1
102
RTVSPropertyOp5
 70
     1
102
RTVSPropertyOp6
 70
     1
102
RTVSPropertyOp7
 70
     1
102
RTVSPropertyOp8
 70
     1
102
RTVSPropertyOp9
 70
     1
102
RTVSPropertyOp10
 70
     1
102
RTVSPropertyOp11
 70
     1
102
RTVSPropertyOp12
 70
     1
102
RTVSPropertyOp13
 70
     1
102
RTVSPropertyOp14
 70
     1
102
RTVSPropertyOp15
 70
     1
102
RTVSPropertyOp16
 70
     1
102
RTVSPropertyOp17
 70
     1
102
RTVSPropertyOp18
 70
     1
102
RTVSPropertyOp19
 70
     1
102
RTVSPropertyOp20
 70
     1
102
RTVSPropertyOp21
 70
     1
102
RTVSPropertyOp22
 70
     1
102
RTVSPropertyOp23
 70
     1
102
RTVSPropertyOp24
 70
     1
102
RTVSPropertyOp25
 70
     1
102
RTVSPropertyOp26
 70
     1
102
RTVSPropertyOp27
 70
     1
102
RTVSPropertyOp28
 70
     1
102
RTVSPropertyOp29
 70
     1
102
RTVSPropertyOp30
 70
     1
102
RTVSPropertyOp31
 70
     1
102
RTVSPropertyOp32
 70
     1
102
RTVSPropertyOp33
 70
     1
102
RTVSPropertyOp34
 70
     1
102
RTVSPropertyOp35
 70
     1
102
RTVSPropertyOp36
 70
     1
102
RTVSPropertyOp37
 70
     1
102
RTVSPropertyOp38
 70
     1
102
RTVSPropertyOp39
 70
     1
102
RTVSPropertyOp40
 70
     1
102
RTVSPropertyOp41
 70
     1
102
RTVSPropertyOp42
 70
     1
102
RTVSPropertyOp43
 70
     1
102
RTVSPropertyOp44
 70
     1
102
RTVSPropertyOp45
 70
     1
102
RTVSPropertyOp46
 70
     1
102
RTVSPropertyOp47
 70
     1
102
RTVSPropertyOp48
 70
     1
102
RTVSPropertyOp49
 70
     1
102
RTVSPropertyOp50
 70
     1
102
RTVSPropertyOp51
 70
     0
102
RTVSPropertyOp52
 70
     0
102
RTVSPropertyOp53
 70
     1
102
RTVSPropertyOp54
 70
     1
102
RTVSPropertyOp55
 70
     1
102
RTVSPropertyOp56
 70
     1
102
RTVSPropertyOp57
 70
     1
102
RTVSPropertyOp58
 70
     1
102
RTVSPropertyOp59
 70
     1
102
RTVSPropertyOp60
 70
     1
102
RTVSPropertyOp61
 70
     1
102
RTVSPropertyOp62
 70
     1
  0
XRECORD
  5
2F2D
102
{ACAD_REACTORS
330
2F2C
102
}
330
2F2C
100
AcDbXrecord
280
     1
102
RTVSPost2010Prop28
280
     0
102
RTVSPost2010PropOp28
 70
     1
102
RTVSPost2010Prop29
280
     1
102
RTVSPost2010PropOp29
 70
     1
102
RTVSPost2010Prop30
280
     1
102
RTVSPost2010PropOp30
 70
     1
102
RTVSPost2010Prop31
280
     0
102
RTVSPost2010PropOp31
 70
     1
102
RTVSPost2010Prop32
280
     0
102
RTVSPost2010PropOp32
 70
     1
102
RTVSPost2010Prop33
280
     0
102
RTVSPost2010PropOp33
 70
     1
102
RTVSPost2010Prop34
280
     0
102
RTVSPost2010PropOp34
 70
     1
102
RTVSPost2010Prop35
280
     0
102
RTVSPost2010PropOp35
 70
     1
102
RTVSPost2010Prop36
280
     0
102
RTVSPost2010PropOp36
 70
     1
102
RTVSPost2010Prop37
 90
       50
102
RTVSPost2010PropOp37
 70
     0
102
RTVSPost2010Prop38
140
0.0
102
RTVSPost2010PropOp38
 70
     0
102
RTVSPost2010Prop39
140
1.0
102
RTVSPost2010PropOp39
 70
     0
102
RTVSPost2010Prop40
 90
        0
102
RTVSPost2010PropOp40
 70
     0
102
RTVSPost2010Prop41ColorIndex
 90
       18
102
RTVSPost2010Prop41ColorRGB
 90
        0
102
RTVSPost2010PropOp41
 70
     0
102
RTVSPost2010Prop42
 90
       50
102
RTVSPost2010PropOp42
 70
     0
102
RTVSPost2010Prop43
 90
        3
102
RTVSPost2010PropOp43
 70
     0
102
RTVSPost2010Prop44ColorIndex
 90
        5
102
RTVSPost2010Prop44ColorRGB
 90
      255
102
RTVSPost2010PropOp44
 70
     0
102
RTVSPost2010Prop45
280
     0
102
RTVSPost2010PropOp45
 70
     1
102
RTVSPost2010Prop46
 90
       50
102
RTVSPost2010PropOp46
 70
     0
102
RTVSPost2010Prop47
 90
       50
102
RTVSPost2010PropOp47
 70
     0
102
RTVSPost2010Prop48
 90
       50
102
RTVSPost2010PropOp48
 70
     0
102
RTVSPost2010Prop49
280
     0
102
RTVSPost2010PropOp49
 70
     1
102
RTVSPost2010Prop50
 90
       50
102
RTVSPost2010PropOp50
 70
     0
102
RTVSPost2010Prop51ColorIndex
 90
      256
102
RTVSPost2010Prop51ColorRGB
 90
-16777216
102
RTVSPost2010PropOp51
 70
     0
102
RTVSPost2010Prop52
140
1.0
102
RTVSPost2010PropOp52
 70
     0
102
RTVSPost2010Prop53
 90
        2
102
RTVSPost2010PropOp53
 70
     0
102
RTVSPost2010Prop54
  1
strokes_ogs.tif
102
RTVSPost2010PropOp54
 70
     0
102
RTVSPost2010Prop55
280
     0
102
RTVSPost2010PropOp55
 70
     1
102
RTVSPost2010Prop56
140
1.0
102
RTVSPost2010PropOp56
 70
     0
102
RTVSPost2010Prop57
140
1.0
102
RTVSPost2010PropOp57
 70
     0
102
RTVSPropertyOp0
 70
     0
102
RTVSPropertyOp1
 70
     0
102
RTVSPropertyOp2
 70
     0
102
RTVSPropertyOp3
 70
     0
102
RTVSPropertyOp4
 70
     0
102
RTVSPropertyOp5
 70
     0
102
RTVSPropertyOp6
 70
     0
102
RTVSPropertyOp7
 70
     0
102
RTVSPropertyOp8
 70
     0
102
RTVSPropertyOp9
 70
     0
102
RTVSPropertyOp10
 70
     0
102
RTVSPropertyOp11
 70
     0
102
RTVSPropertyOp12
 70
     0
102
RTVSPropertyOp13
 70
     0
102
RTVSPropertyOp14
 70
     2
102
RTVSPropertyOp15
 70
     0
102
RTVSPropertyOp16
 70
     0
102
RTVSPropertyOp17
 70
     0
102
RTVSPropertyOp18
 70
     0
102
RTVSPropertyOp19
 70
     0
102
RTVSPropertyOp20
 70
     0
102
RTVSPropertyOp21
 70
     0
102
RTVSPropertyOp22
 70
     0
102
RTVSPropertyOp23
 70
     0
102
RTVSPropertyOp24
 70
     0
102
RTVSPropertyOp25
 70
     0
102
RTVSPropertyOp26
 70
     0
102
RTVSPropertyOp27
 70
     0
102
RTVSPropertyOp28
 70
     1
102
RTVSPropertyOp29
 70
     1
102
RTVSPropertyOp30
 70
     1
102
RTVSPropertyOp31
 70
     1
102
RTVSPropertyOp32
 70
     1
102
RTVSPropertyOp33
 70
     1
102
RTVSPropertyOp34
 70
     1
102
RTVSPropertyOp35
 70
     1
102
RTVSPropertyOp36
 70
     1
102
RTVSPropertyOp37
 70
     0
102
RTVSPropertyOp38
 70
     0
102
RTVSPropertyOp39
 70
     0
102
RTVSPropertyOp40
 70
     0
102
RTVSPropertyOp41
 70
     0
102
RTVSPropertyOp42
 70
     0
102
RTVSPropertyOp43
 70
     0
102
RTVSPropertyOp44
 70
     0
102
RTVSPropertyOp45
 70
     1
102
RTVSPropertyOp46
 70
     0
102
RTVSPropertyOp47
 70
     0
102
RTVSPropertyOp48
 70
     0
102
RTVSPropertyOp49
 70
     1
102
RTVSPropertyOp50
 70
     0
102
RTVSPropertyOp51
 70
     0
102
RTVSPropertyOp52
 70
     0
102
RTVSPropertyOp53
 70
     0
102
RTVSPropertyOp54
 70
     0
102
RTVSPropertyOp55
 70
     1
102
RTVSPropertyOp56
 70
     0
102
RTVSPropertyOp57
 70
     0
102
RTVSPropertyOp58
 70
     0
102
RTVSPropertyOp59
 70
     0
102
RTVSPropertyOp60
 70
     0
102
RTVSPropertyOp61
 70
     0
102
RTVSPropertyOp62
 70
     0
  0
XRECORD
  5
2F13
102
{ACAD_REACTORS
330
2F12
102
}
330
2F12
100
AcDbXrecord
280
     1
102
RTVSPost2010Prop28
280
     0
102
RTVSPost2010PropOp28
 70
     1
102
RTVSPost2010Prop29
280
     1
102
RTVSPost2010PropOp29
 70
     1
102
RTVSPost2010Prop30
280
     1
102
RTVSPost2010PropOp30
 70
     1
102
RTVSPost2010Prop31
280
     0
102
RTVSPost2010PropOp31
 70
     1
102
RTVSPost2010Prop32
280
     0
102
RTVSPost2010PropOp32
 70
     1
102
RTVSPost2010Prop33
280
     0
102
RTVSPost2010PropOp33
 70
     1
102
RTVSPost2010Prop34
280
     0
102
RTVSPost2010PropOp34
 70
     1
102
RTVSPost2010Prop35
280
     0
102
RTVSPost2010PropOp35
 70
     1
102
RTVSPost2010Prop36
280
     0
102
RTVSPost2010PropOp36
 70
     1
102
RTVSPost2010Prop37
 90
       50
102
RTVSPost2010PropOp37
 70
     1
102
RTVSPost2010Prop38
140
0.0
102
RTVSPost2010PropOp38
 70
     1
102
RTVSPost2010Prop39
140
1.0
102
RTVSPost2010PropOp39
 70
     1
102
RTVSPost2010Prop40
 90
        0
102
RTVSPost2010PropOp40
 70
     1
102
RTVSPost2010Prop41ColorIndex
 90
       18
102
RTVSPost2010Prop41ColorRGB
 90
        0
102
RTVSPost2010PropOp41
 70
     1
102
RTVSPost2010Prop42
 90
       50
102
RTVSPost2010PropOp42
 70
     1
102
RTVSPost2010Prop43
 90
        3
102
RTVSPost2010PropOp43
 70
     1
102
RTVSPost2010Prop44ColorIndex
 90
        5
102
RTVSPost2010Prop44ColorRGB
 90
      255
102
RTVSPost2010PropOp44
 70
     1
102
RTVSPost2010Prop45
280
     0
102
RTVSPost2010PropOp45
 70
     1
102
RTVSPost2010Prop46
 90
       50
102
RTVSPost2010PropOp46
 70
     1
102
RTVSPost2010Prop47
 90
       50
102
RTVSPost2010PropOp47
 70
     1
102
RTVSPost2010Prop48
 90
       50
102
RTVSPost2010PropOp48
 70
     1
102
RTVSPost2010Prop49
280
     0
102
RTVSPost2010PropOp49
 70
     1
102
RTVSPost2010Prop50
 90
       50
102
RTVSPost2010PropOp50
 70
     1
102
RTVSPost2010Prop51ColorIndex
 90
      256
102
RTVSPost2010Prop51ColorRGB
 90
-16777216
102
RTVSPost2010PropOp51
 70
     0
102
RTVSPost2010Prop52
140
1.0
102
RTVSPost2010PropOp52
 70
     0
102
RTVSPost2010Prop53
 90
        2
102
RTVSPost2010PropOp53
 70
     1
102
RTVSPost2010Prop54
  1
strokes_ogs.tif
102
RTVSPost2010PropOp54
 70
     1
102
RTVSPost2010Prop55
280
     0
102
RTVSPost2010PropOp55
 70
     1
102
RTVSPost2010Prop56
140
1.0
102
RTVSPost2010PropOp56
 70
     1
102
RTVSPost2010Prop57
140
1.0
102
RTVSPost2010PropOp57
 70
     1
102
RTVSPropertyOp0
 70
     1
102
RTVSPropertyOp1
 70
     1
102
RTVSPropertyOp2
 70
     1
102
RTVSPropertyOp3
 70
     1
102
RTVSPropertyOp4
 70
     1
102
RTVSPropertyOp5
 70
     1
102
RTVSPropertyOp6
 70
     1
102
RTVSPropertyOp7
 70
     1
102
RTVSPropertyOp8
 70
     1
102
RTVSPropertyOp9
 70
     1
102
RTVSPropertyOp10
 70
     1
102
RTVSPropertyOp11
 70
     1
102
RTVSPropertyOp12
 70
     1
102
RTVSPropertyOp13
 70
     1
102
RTVSPropertyOp14
 70
     1
102
RTVSPropertyOp15
 70
     1
102
RTVSPropertyOp16
 70
     1
102
RTVSPropertyOp17
 70
     1
102
RTVSPropertyOp18
 70
     1
102
RTVSPropertyOp19
 70
     1
102
RTVSPropertyOp20
 70
     1
102
RTVSPropertyOp21
 70
     1
102
RTVSPropertyOp22
 70
     1
102
RTVSPropertyOp23
 70
     1
102
RTVSPropertyOp24
 70
     1
102
RTVSPropertyOp25
 70
     1
102
RTVSPropertyOp26
 70
     1
102
RTVSPropertyOp27
 70
     1
102
RTVSPropertyOp28
 70
     1
102
RTVSPropertyOp29
 70
     1
102
RTVSPropertyOp30
 70
     1
102
RTVSPropertyOp31
 70
     1
102
RTVSPropertyOp32
 70
     1
102
RTVSPropertyOp33
 70
     1
102
RTVSPropertyOp34
 70
     1
102
RTVSPropertyOp35
 70
     1
102
RTVSPropertyOp36
 70
     1
102
RTVSPropertyOp37
 70
     1
102
RTVSPropertyOp38
 70
     1
102
RTVSPropertyOp39
 70
     1
102
RTVSPropertyOp40
 70
     1
102
RTVSPropertyOp41
 70
     1
102
RTVSPropertyOp42
 70
     1
102
RTVSPropertyOp43
 70
     1
102
RTVSPropertyOp44
 70
     1
102
RTVSPropertyOp45
 70
     1
102
RTVSPropertyOp46
 70
     1
102
RTVSPropertyOp47
 70
     1
102
RTVSPropertyOp48
 70
     1
102
RTVSPropertyOp49
 70
     1
102
RTVSPropertyOp50
 70
     1
102
RTVSPropertyOp51
 70
     0
102
RTVSPropertyOp52
 70
     0
102
RTVSPropertyOp53
 70
     1
102
RTVSPropertyOp54
 70
     1
102
RTVSPropertyOp55
 70
     1
102
RTVSPropertyOp56
 70
     1
102
RTVSPropertyOp57
 70
     1
102
RTVSPropertyOp58
 70
     1
102
RTVSPropertyOp59
 70
     1
102
RTVSPropertyOp60
 70
     1
102
RTVSPropertyOp61
 70
     1
102
RTVSPropertyOp62
 70
     1
  0
XRECORD
  5
2F29
102
{ACAD_REACTORS
330
2F28
102
}
330
2F28
100
AcDbXrecord
280
     1
102
RTVSPost2010Prop28
280
     0
102
RTVSPost2010PropOp28
 70
     1
102
RTVSPost2010Prop29
280
     1
102
RTVSPost2010PropOp29
 70
     1
102
RTVSPost2010Prop30
280
     1
102
RTVSPost2010PropOp30
 70
     1
102
RTVSPost2010Prop31
280
     0
102
RTVSPost2010PropOp31
 70
     1
102
RTVSPost2010Prop32
280
     0
102
RTVSPost2010PropOp32
 70
     1
102
RTVSPost2010Prop33
280
     0
102
RTVSPost2010PropOp33
 70
     1
102
RTVSPost2010Prop34
280
     0
102
RTVSPost2010PropOp34
 70
     1
102
RTVSPost2010Prop35
280
     0
102
RTVSPost2010PropOp35
 70
     1
102
RTVSPost2010Prop36
280
     0
102
RTVSPost2010PropOp36
 70
     1
102
RTVSPost2010Prop37
 90
       50
102
RTVSPost2010PropOp37
 70
     1
102
RTVSPost2010Prop38
140
0.0
102
RTVSPost2010PropOp38
 70
     1
102
RTVSPost2010Prop39
140
1.0
102
RTVSPost2010PropOp39
 70
     1
102
RTVSPost2010Prop40
 90
        0
102
RTVSPost2010PropOp40
 70
     1
102
RTVSPost2010Prop41ColorIndex
 90
       18
102
RTVSPost2010Prop41ColorRGB
 90
        0
102
RTVSPost2010PropOp41
 70
     1
102
RTVSPost2010Prop42
 90
       50
102
RTVSPost2010PropOp42
 70
     1
102
RTVSPost2010Prop43
 90
        3
102
RTVSPost2010PropOp43
 70
     1
102
RTVSPost2010Prop44ColorIndex
 90
        5
102
RTVSPost2010Prop44ColorRGB
 90
      255
102
RTVSPost2010PropOp44
 70
     1
102
RTVSPost2010Prop45
280
     0
102
RTVSPost2010PropOp45
 70
     1
102
RTVSPost2010Prop46
 90
       50
102
RTVSPost2010PropOp46
 70
     1
102
RTVSPost2010Prop47
 90
       50
102
RTVSPost2010PropOp47
 70
     1
102
RTVSPost2010Prop48
 90
       50
102
RTVSPost2010PropOp48
 70
     1
102
RTVSPost2010Prop49
280
     0
102
RTVSPost2010PropOp49
 70
     1
102
RTVSPost2010Prop50
 90
       50
102
RTVSPost2010PropOp50
 70
     1
102
RTVSPost2010Prop51ColorIndex
 90
      256
102
RTVSPost2010Prop51ColorRGB
 90
-16777216
102
RTVSPost2010PropOp51
 70
     0
102
RTVSPost2010Prop52
140
1.0
102
RTVSPost2010PropOp52
 70
     0
102
RTVSPost2010Prop53
 90
        2
102
RTVSPost2010PropOp53
 70
     1
102
RTVSPost2010Prop54
  1
strokes_ogs.tif
102
RTVSPost2010PropOp54
 70
     1
102
RTVSPost2010Prop55
280
     0
102
RTVSPost2010PropOp55
 70
     1
102
RTVSPost2010Prop56
140
1.0
102
RTVSPost2010PropOp56
 70
     1
102
RTVSPost2010Prop57
140
1.0
102
RTVSPost2010PropOp57
 70
     1
102
RTVSPropertyOp0
 70
     1
102
RTVSPropertyOp1
 70
     1
102
RTVSPropertyOp2
 70
     1
102
RTVSPropertyOp3
 70
     1
102
RTVSPropertyOp4
 70
     1
102
RTVSPropertyOp5
 70
     1
102
RTVSPropertyOp6
 70
     1
102
RTVSPropertyOp7
 70
     1
102
RTVSPropertyOp8
 70
     1
102
RTVSPropertyOp9
 70
     1
102
RTVSPropertyOp10
 70
     1
102
RTVSPropertyOp11
 70
     1
102
RTVSPropertyOp12
 70
     1
102
RTVSPropertyOp13
 70
     1
102
RTVSPropertyOp14
 70
     1
102
RTVSPropertyOp15
 70
     1
102
RTVSPropertyOp16
 70
     1
102
RTVSPropertyOp17
 70
     1
102
RTVSPropertyOp18
 70
     1
102
RTVSPropertyOp19
 70
     1
102
RTVSPropertyOp20
 70
     1
102
RTVSPropertyOp21
 70
     1
102
RTVSPropertyOp22
 70
     1
102
RTVSPropertyOp23
 70
     1
102
RTVSPropertyOp24
 70
     1
102
RTVSPropertyOp25
 70
     1
102
RTVSPropertyOp26
 70
     1
102
RTVSPropertyOp27
 70
     1
102
RTVSPropertyOp28
 70
     1
102
RTVSPropertyOp29
 70
     1
102
RTVSPropertyOp30
 70
     1
102
RTVSPropertyOp31
 70
     1
102
RTVSPropertyOp32
 70
     1
102
RTVSPropertyOp33
 70
     1
102
RTVSPropertyOp34
 70
     1
102
RTVSPropertyOp35
 70
     1
102
RTVSPropertyOp36
 70
     1
102
RTVSPropertyOp37
 70
     1
102
RTVSPropertyOp38
 70
     1
102
RTVSPropertyOp39
 70
     1
102
RTVSPropertyOp40
 70
     1
102
RTVSPropertyOp41
 70
     1
102
RTVSPropertyOp42
 70
     1
102
RTVSPropertyOp43
 70
     1
102
RTVSPropertyOp44
 70
     1
102
RTVSPropertyOp45
 70
     1
102
RTVSPropertyOp46
 70
     1
102
RTVSPropertyOp47
 70
     1
102
RTVSPropertyOp48
 70
     1
102
RTVSPropertyOp49
 70
     1
102
RTVSPropertyOp50
 70
     1
102
RTVSPropertyOp51
 70
     0
102
RTVSPropertyOp52
 70
     0
102
RTVSPropertyOp53
 70
     1
102
RTVSPropertyOp54
 70
     1
102
RTVSPropertyOp55
 70
     1
102
RTVSPropertyOp56
 70
     1
102
RTVSPropertyOp57
 70
     1
102
RTVSPropertyOp58
 70
     1
102
RTVSPropertyOp59
 70
     1
102
RTVSPropertyOp60
 70
     1
102
RTVSPropertyOp61
 70
     1
102
RTVSPropertyOp62
 70
     1
  0
XRECORD
  5
2F27
102
{ACAD_REACTORS
330
2F26
102
}
330
2F26
100
AcDbXrecord
280
     1
102
RTVSPost2010Prop28
280
     0
102
RTVSPost2010PropOp28
 70
     1
102
RTVSPost2010Prop29
280
     1
102
RTVSPost2010PropOp29
 70
     1
102
RTVSPost2010Prop30
280
     1
102
RTVSPost2010PropOp30
 70
     1
102
RTVSPost2010Prop31
280
     0
102
RTVSPost2010PropOp31
 70
     1
102
RTVSPost2010Prop32
280
     0
102
RTVSPost2010PropOp32
 70
     1
102
RTVSPost2010Prop33
280
     0
102
RTVSPost2010PropOp33
 70
     1
102
RTVSPost2010Prop34
280
     0
102
RTVSPost2010PropOp34
 70
     1
102
RTVSPost2010Prop35
280
     0
102
RTVSPost2010PropOp35
 70
     1
102
RTVSPost2010Prop36
280
     0
102
RTVSPost2010PropOp36
 70
     1
102
RTVSPost2010Prop37
 90
       50
102
RTVSPost2010PropOp37
 70
     1
102
RTVSPost2010Prop38
140
0.0
102
RTVSPost2010PropOp38
 70
     1
102
RTVSPost2010Prop39
140
1.0
102
RTVSPost2010PropOp39
 70
     1
102
RTVSPost2010Prop40
 90
        0
102
RTVSPost2010PropOp40
 70
     1
102
RTVSPost2010Prop41ColorIndex
 90
       18
102
RTVSPost2010Prop41ColorRGB
 90
        0
102
RTVSPost2010PropOp41
 70
     1
102
RTVSPost2010Prop42
 90
       50
102
RTVSPost2010PropOp42
 70
     1
102
RTVSPost2010Prop43
 90
        3
102
RTVSPost2010PropOp43
 70
     1
102
RTVSPost2010Prop44ColorIndex
 90
        5
102
RTVSPost2010Prop44ColorRGB
 90
      255
102
RTVSPost2010PropOp44
 70
     1
102
RTVSPost2010Prop45
280
     0
102
RTVSPost2010PropOp45
 70
     1
102
RTVSPost2010Prop46
 90
       50
102
RTVSPost2010PropOp46
 70
     1
102
RTVSPost2010Prop47
 90
       50
102
RTVSPost2010PropOp47
 70
     1
102
RTVSPost2010Prop48
 90
       50
102
RTVSPost2010PropOp48
 70
     1
102
RTVSPost2010Prop49
280
     0
102
RTVSPost2010PropOp49
 70
     1
102
RTVSPost2010Prop50
 90
       50
102
RTVSPost2010PropOp50
 70
     1
102
RTVSPost2010Prop51ColorIndex
 90
      256
102
RTVSPost2010Prop51ColorRGB
 90
-16777216
102
RTVSPost2010PropOp51
 70
     0
102
RTVSPost2010Prop52
140
1.0
102
RTVSPost2010PropOp52
 70
     0
102
RTVSPost2010Prop53
 90
        2
102
RTVSPost2010PropOp53
 70
     1
102
RTVSPost2010Prop54
  1
strokes_ogs.tif
102
RTVSPost2010PropOp54
 70
     1
102
RTVSPost2010Prop55
280
     0
102
RTVSPost2010PropOp55
 70
     1
102
RTVSPost2010Prop56
140
1.0
102
RTVSPost2010PropOp56
 70
     1
102
RTVSPost2010Prop57
140
1.0
102
RTVSPost2010PropOp57
 70
     1
102
RTVSPropertyOp0
 70
     1
102
RTVSPropertyOp1
 70
     1
102
RTVSPropertyOp2
 70
     1
102
RTVSPropertyOp3
 70
     1
102
RTVSPropertyOp4
 70
     1
102
RTVSPropertyOp5
 70
     1
102
RTVSPropertyOp6
 70
     1
102
RTVSPropertyOp7
 70
     1
102
RTVSPropertyOp8
 70
     1
102
RTVSPropertyOp9
 70
     1
102
RTVSPropertyOp10
 70
     1
102
RTVSPropertyOp11
 70
     1
102
RTVSPropertyOp12
 70
     1
102
RTVSPropertyOp13
 70
     1
102
RTVSPropertyOp14
 70
     1
102
RTVSPropertyOp15
 70
     1
102
RTVSPropertyOp16
 70
     1
102
RTVSPropertyOp17
 70
     1
102
RTVSPropertyOp18
 70
     1
102
RTVSPropertyOp19
 70
     1
102
RTVSPropertyOp20
 70
     1
102
RTVSPropertyOp21
 70
     1
102
RTVSPropertyOp22
 70
     1
102
RTVSPropertyOp23
 70
     1
102
RTVSPropertyOp24
 70
     1
102
RTVSPropertyOp25
 70
     1
102
RTVSPropertyOp26
 70
     1
102
RTVSPropertyOp27
 70
     1
102
RTVSPropertyOp28
 70
     1
102
RTVSPropertyOp29
 70
     1
102
RTVSPropertyOp30
 70
     1
102
RTVSPropertyOp31
 70
     1
102
RTVSPropertyOp32
 70
     1
102
RTVSPropertyOp33
 70
     1
102
RTVSPropertyOp34
 70
     1
102
RTVSPropertyOp35
 70
     1
102
RTVSPropertyOp36
 70
     1
102
RTVSPropertyOp37
 70
     1
102
RTVSPropertyOp38
 70
     1
102
RTVSPropertyOp39
 70
     1
102
RTVSPropertyOp40
 70
     1
102
RTVSPropertyOp41
 70
     1
102
RTVSPropertyOp42
 70
     1
102
RTVSPropertyOp43
 70
     1
102
RTVSPropertyOp44
 70
     1
102
RTVSPropertyOp45
 70
     1
102
RTVSPropertyOp46
 70
     1
102
RTVSPropertyOp47
 70
     1
102
RTVSPropertyOp48
 70
     1
102
RTVSPropertyOp49
 70
     1
102
RTVSPropertyOp50
 70
     1
102
RTVSPropertyOp51
 70
     0
102
RTVSPropertyOp52
 70
     0
102
RTVSPropertyOp53
 70
     1
102
RTVSPropertyOp54
 70
     1
102
RTVSPropertyOp55
 70
     1
102
RTVSPropertyOp56
 70
     1
102
RTVSPropertyOp57
 70
     1
102
RTVSPropertyOp58
 70
     1
102
RTVSPropertyOp59
 70
     1
102
RTVSPropertyOp60
 70
     1
102
RTVSPropertyOp61
 70
     1
102
RTVSPropertyOp62
 70
     1
  0
XRECORD
  5
2F21
102
{ACAD_REACTORS
330
2F20
102
}
330
2F20
100
AcDbXrecord
280
     1
102
RTVSPost2010Prop28
280
     0
102
RTVSPost2010PropOp28
 70
     1
102
RTVSPost2010Prop29
280
     1
102
RTVSPost2010PropOp29
 70
     1
102
RTVSPost2010Prop30
280
     1
102
RTVSPost2010PropOp30
 70
     1
102
RTVSPost2010Prop31
280
     0
102
RTVSPost2010PropOp31
 70
     1
102
RTVSPost2010Prop32
280
     0
102
RTVSPost2010PropOp32
 70
     1
102
RTVSPost2010Prop33
280
     0
102
RTVSPost2010PropOp33
 70
     1
102
RTVSPost2010Prop34
280
     0
102
RTVSPost2010PropOp34
 70
     1
102
RTVSPost2010Prop35
280
     0
102
RTVSPost2010PropOp35
 70
     1
102
RTVSPost2010Prop36
280
     0
102
RTVSPost2010PropOp36
 70
     1
102
RTVSPost2010Prop37
 90
       50
102
RTVSPost2010PropOp37
 70
     1
102
RTVSPost2010Prop38
140
0.0
102
RTVSPost2010PropOp38
 70
     1
102
RTVSPost2010Prop39
140
1.0
102
RTVSPost2010PropOp39
 70
     1
102
RTVSPost2010Prop40
 90
        0
102
RTVSPost2010PropOp40
 70
     1
102
RTVSPost2010Prop41ColorIndex
 90
       18
102
RTVSPost2010Prop41ColorRGB
 90
        0
102
RTVSPost2010PropOp41
 70
     1
102
RTVSPost2010Prop42
 90
       50
102
RTVSPost2010PropOp42
 70
     1
102
RTVSPost2010Prop43
 90
        3
102
RTVSPost2010PropOp43
 70
     1
102
RTVSPost2010Prop44ColorIndex
 90
        5
102
RTVSPost2010Prop44ColorRGB
 90
      255
102
RTVSPost2010PropOp44
 70
     1
102
RTVSPost2010Prop45
280
     0
102
RTVSPost2010PropOp45
 70
     1
102
RTVSPost2010Prop46
 90
       50
102
RTVSPost2010PropOp46
 70
     1
102
RTVSPost2010Prop47
 90
       50
102
RTVSPost2010PropOp47
 70
     1
102
RTVSPost2010Prop48
 90
       50
102
RTVSPost2010PropOp48
 70
     1
102
RTVSPost2010Prop49
280
     0
102
RTVSPost2010PropOp49
 70
     1
102
RTVSPost2010Prop50
 90
       50
102
RTVSPost2010PropOp50
 70
     1
102
RTVSPost2010Prop51ColorIndex
 90
      256
102
RTVSPost2010Prop51ColorRGB
 90
-16777216
102
RTVSPost2010PropOp51
 70
     0
102
RTVSPost2010Prop52
140
1.0
102
RTVSPost2010PropOp52
 70
     0
102
RTVSPost2010Prop53
 90
        2
102
RTVSPost2010PropOp53
 70
     1
102
RTVSPost2010Prop54
  1
strokes_ogs.tif
102
RTVSPost2010PropOp54
 70
     1
102
RTVSPost2010Prop55
280
     0
102
RTVSPost2010PropOp55
 70
     1
102
RTVSPost2010Prop56
140
1.0
102
RTVSPost2010PropOp56
 70
     1
102
RTVSPost2010Prop57
140
1.0
102
RTVSPost2010PropOp57
 70
     1
102
RTVSPropertyOp0
 70
     1
102
RTVSPropertyOp1
 70
     1
102
RTVSPropertyOp2
 70
     1
102
RTVSPropertyOp3
 70
     1
102
RTVSPropertyOp4
 70
     1
102
RTVSPropertyOp5
 70
     1
102
RTVSPropertyOp6
 70
     1
102
RTVSPropertyOp7
 70
     1
102
RTVSPropertyOp8
 70
     1
102
RTVSPropertyOp9
 70
     1
102
RTVSPropertyOp10
 70
     1
102
RTVSPropertyOp11
 70
     1
102
RTVSPropertyOp12
 70
     1
102
RTVSPropertyOp13
 70
     1
102
RTVSPropertyOp14
 70
     1
102
RTVSPropertyOp15
 70
     1
102
RTVSPropertyOp16
 70
     1
102
RTVSPropertyOp17
 70
     1
102
RTVSPropertyOp18
 70
     1
102
RTVSPropertyOp19
 70
     1
102
RTVSPropertyOp20
 70
     1
102
RTVSPropertyOp21
 70
     1
102
RTVSPropertyOp22
 70
     1
102
RTVSPropertyOp23
 70
     1
102
RTVSPropertyOp24
 70
     1
102
RTVSPropertyOp25
 70
     1
102
RTVSPropertyOp26
 70
     1
102
RTVSPropertyOp27
 70
     1
102
RTVSPropertyOp28
 70
     1
102
RTVSPropertyOp29
 70
     1
102
RTVSPropertyOp30
 70
     1
102
RTVSPropertyOp31
 70
     1
102
RTVSPropertyOp32
 70
     1
102
RTVSPropertyOp33
 70
     1
102
RTVSPropertyOp34
 70
     1
102
RTVSPropertyOp35
 70
     1
102
RTVSPropertyOp36
 70
     1
102
RTVSPropertyOp37
 70
     1
102
RTVSPropertyOp38
 70
     1
102
RTVSPropertyOp39
 70
     1
102
RTVSPropertyOp40
 70
     1
102
RTVSPropertyOp41
 70
     1
102
RTVSPropertyOp42
 70
     1
102
RTVSPropertyOp43
 70
     1
102
RTVSPropertyOp44
 70
     1
102
RTVSPropertyOp45
 70
     1
102
RTVSPropertyOp46
 70
     1
102
RTVSPropertyOp47
 70
     1
102
RTVSPropertyOp48
 70
     1
102
RTVSPropertyOp49
 70
     1
102
RTVSPropertyOp50
 70
     1
102
RTVSPropertyOp51
 70
     0
102
RTVSPropertyOp52
 70
     0
102
RTVSPropertyOp53
 70
     1
102
RTVSPropertyOp54
 70
     1
102
RTVSPropertyOp55
 70
     1
102
RTVSPropertyOp56
 70
     1
102
RTVSPropertyOp57
 70
     1
102
RTVSPropertyOp58
 70
     1
102
RTVSPropertyOp59
 70
     1
102
RTVSPropertyOp60
 70
     1
102
RTVSPropertyOp61
 70
     1
102
RTVSPropertyOp62
 70
     1
  0
XRECORD
  5
2F23
102
{ACAD_REACTORS
330
2F22
102
}
330
2F22
100
AcDbXrecord
280
     1
102
RTVSPost2010Prop28
280
     0
102
RTVSPost2010PropOp28
 70
     1
102
RTVSPost2010Prop29
280
     1
102
RTVSPost2010PropOp29
 70
     1
102
RTVSPost2010Prop30
280
     1
102
RTVSPost2010PropOp30
 70
     1
102
RTVSPost2010Prop31
280
     0
102
RTVSPost2010PropOp31
 70
     1
102
RTVSPost2010Prop32
280
     0
102
RTVSPost2010PropOp32
 70
     1
102
RTVSPost2010Prop33
280
     0
102
RTVSPost2010PropOp33
 70
     1
102
RTVSPost2010Prop34
280
     0
102
RTVSPost2010PropOp34
 70
     1
102
RTVSPost2010Prop35
280
     0
102
RTVSPost2010PropOp35
 70
     1
102
RTVSPost2010Prop36
280
     0
102
RTVSPost2010PropOp36
 70
     1
102
RTVSPost2010Prop37
 90
       50
102
RTVSPost2010PropOp37
 70
     1
102
RTVSPost2010Prop38
140
0.0
102
RTVSPost2010PropOp38
 70
     1
102
RTVSPost2010Prop39
140
1.0
102
RTVSPost2010PropOp39
 70
     1
102
RTVSPost2010Prop40
 90
        0
102
RTVSPost2010PropOp40
 70
     1
102
RTVSPost2010Prop41ColorIndex
 90
       18
102
RTVSPost2010Prop41ColorRGB
 90
        0
102
RTVSPost2010PropOp41
 70
     1
102
RTVSPost2010Prop42
 90
       50
102
RTVSPost2010PropOp42
 70
     1
102
RTVSPost2010Prop43
 90
        3
102
RTVSPost2010PropOp43
 70
     1
102
RTVSPost2010Prop44ColorIndex
 90
        5
102
RTVSPost2010Prop44ColorRGB
 90
      255
102
RTVSPost2010PropOp44
 70
     1
102
RTVSPost2010Prop45
280
     0
102
RTVSPost2010PropOp45
 70
     1
102
RTVSPost2010Prop46
 90
       50
102
RTVSPost2010PropOp46
 70
     1
102
RTVSPost2010Prop47
 90
       50
102
RTVSPost2010PropOp47
 70
     1
102
RTVSPost2010Prop48
 90
       50
102
RTVSPost2010PropOp48
 70
     1
102
RTVSPost2010Prop49
280
     0
102
RTVSPost2010PropOp49
 70
     1
102
RTVSPost2010Prop50
 90
       50
102
RTVSPost2010PropOp50
 70
     1
102
RTVSPost2010Prop51ColorIndex
 90
      256
102
RTVSPost2010Prop51ColorRGB
 90
-16777216
102
RTVSPost2010PropOp51
 70
     0
102
RTVSPost2010Prop52
140
1.0
102
RTVSPost2010PropOp52
 70
     0
102
RTVSPost2010Prop53
 90
        2
102
RTVSPost2010PropOp53
 70
     1
102
RTVSPost2010Prop54
  1
strokes_ogs.tif
102
RTVSPost2010PropOp54
 70
     1
102
RTVSPost2010Prop55
280
     0
102
RTVSPost2010PropOp55
 70
     1
102
RTVSPost2010Prop56
140
1.0
102
RTVSPost2010PropOp56
 70
     1
102
RTVSPost2010Prop57
140
1.0
102
RTVSPost2010PropOp57
 70
     1
102
RTVSPropertyOp0
 70
     1
102
RTVSPropertyOp1
 70
     1
102
RTVSPropertyOp2
 70
     1
102
RTVSPropertyOp3
 70
     1
102
RTVSPropertyOp4
 70
     1
102
RTVSPropertyOp5
 70
     1
102
RTVSPropertyOp6
 70
     1
102
RTVSPropertyOp7
 70
     1
102
RTVSPropertyOp8
 70
     1
102
RTVSPropertyOp9
 70
     1
102
RTVSPropertyOp10
 70
     1
102
RTVSPropertyOp11
 70
     1
102
RTVSPropertyOp12
 70
     1
102
RTVSPropertyOp13
 70
     1
102
RTVSPropertyOp14
 70
     1
102
RTVSPropertyOp15
 70
     1
102
RTVSPropertyOp16
 70
     1
102
RTVSPropertyOp17
 70
     1
102
RTVSPropertyOp18
 70
     1
102
RTVSPropertyOp19
 70
     1
102
RTVSPropertyOp20
 70
     1
102
RTVSPropertyOp21
 70
     1
102
RTVSPropertyOp22
 70
     1
102
RTVSPropertyOp23
 70
     1
102
RTVSPropertyOp24
 70
     1
102
RTVSPropertyOp25
 70
     1
102
RTVSPropertyOp26
 70
     1
102
RTVSPropertyOp27
 70
     1
102
RTVSPropertyOp28
 70
     1
102
RTVSPropertyOp29
 70
     1
102
RTVSPropertyOp30
 70
     1
102
RTVSPropertyOp31
 70
     1
102
RTVSPropertyOp32
 70
     1
102
RTVSPropertyOp33
 70
     1
102
RTVSPropertyOp34
 70
     1
102
RTVSPropertyOp35
 70
     1
102
RTVSPropertyOp36
 70
     1
102
RTVSPropertyOp37
 70
     1
102
RTVSPropertyOp38
 70
     1
102
RTVSPropertyOp39
 70
     1
102
RTVSPropertyOp40
 70
     1
102
RTVSPropertyOp41
 70
     1
102
RTVSPropertyOp42
 70
     1
102
RTVSPropertyOp43
 70
     1
102
RTVSPropertyOp44
 70
     1
102
RTVSPropertyOp45
 70
     1
102
RTVSPropertyOp46
 70
     1
102
RTVSPropertyOp47
 70
     1
102
RTVSPropertyOp48
 70
     1
102
RTVSPropertyOp49
 70
     1
102
RTVSPropertyOp50
 70
     1
102
RTVSPropertyOp51
 70
     0
102
RTVSPropertyOp52
 70
     0
102
RTVSPropertyOp53
 70
     1
102
RTVSPropertyOp54
 70
     1
102
RTVSPropertyOp55
 70
     1
102
RTVSPropertyOp56
 70
     1
102
RTVSPropertyOp57
 70
     1
102
RTVSPropertyOp58
 70
     1
102
RTVSPropertyOp59
 70
     1
102
RTVSPropertyOp60
 70
     1
102
RTVSPropertyOp61
 70
     1
102
RTVSPropertyOp62
 70
     1
  0
XRECORD
  5
2F19
102
{ACAD_REACTORS
330
2F18
102
}
330
2F18
100
AcDbXrecord
280
     1
102
RTVSPost2010Prop28
280
     0
102
RTVSPost2010PropOp28
 70
     1
102
RTVSPost2010Prop29
280
     1
102
RTVSPost2010PropOp29
 70
     1
102
RTVSPost2010Prop30
280
     1
102
RTVSPost2010PropOp30
 70
     1
102
RTVSPost2010Prop31
280
     0
102
RTVSPost2010PropOp31
 70
     1
102
RTVSPost2010Prop32
280
     0
102
RTVSPost2010PropOp32
 70
     1
102
RTVSPost2010Prop33
280
     0
102
RTVSPost2010PropOp33
 70
     1
102
RTVSPost2010Prop34
280
     0
102
RTVSPost2010PropOp34
 70
     1
102
RTVSPost2010Prop35
280
     0
102
RTVSPost2010PropOp35
 70
     1
102
RTVSPost2010Prop36
280
     0
102
RTVSPost2010PropOp36
 70
     1
102
RTVSPost2010Prop37
 90
       50
102
RTVSPost2010PropOp37
 70
     1
102
RTVSPost2010Prop38
140
0.0
102
RTVSPost2010PropOp38
 70
     1
102
RTVSPost2010Prop39
140
1.0
102
RTVSPost2010PropOp39
 70
     1
102
RTVSPost2010Prop40
 90
        0
102
RTVSPost2010PropOp40
 70
     1
102
RTVSPost2010Prop41ColorIndex
 90
       18
102
RTVSPost2010Prop41ColorRGB
 90
        0
102
RTVSPost2010PropOp41
 70
     1
102
RTVSPost2010Prop42
 90
       50
102
RTVSPost2010PropOp42
 70
     1
102
RTVSPost2010Prop43
 90
        3
102
RTVSPost2010PropOp43
 70
     1
102
RTVSPost2010Prop44ColorIndex
 90
        5
102
RTVSPost2010Prop44ColorRGB
 90
      255
102
RTVSPost2010PropOp44
 70
     1
102
RTVSPost2010Prop45
280
     0
102
RTVSPost2010PropOp45
 70
     1
102
RTVSPost2010Prop46
 90
       50
102
RTVSPost2010PropOp46
 70
     1
102
RTVSPost2010Prop47
 90
       50
102
RTVSPost2010PropOp47
 70
     1
102
RTVSPost2010Prop48
 90
       50
102
RTVSPost2010PropOp48
 70
     1
102
RTVSPost2010Prop49
280
     0
102
RTVSPost2010PropOp49
 70
     1
102
RTVSPost2010Prop50
 90
       50
102
RTVSPost2010PropOp50
 70
     1
102
RTVSPost2010Prop51ColorIndex
 90
      256
102
RTVSPost2010Prop51ColorRGB
 90
-16777216
102
RTVSPost2010PropOp51
 70
     0
102
RTVSPost2010Prop52
140
1.0
102
RTVSPost2010PropOp52
 70
     0
102
RTVSPost2010Prop53
 90
        2
102
RTVSPost2010PropOp53
 70
     1
102
RTVSPost2010Prop54
  1
strokes_ogs.tif
102
RTVSPost2010PropOp54
 70
     1
102
RTVSPost2010Prop55
280
     0
102
RTVSPost2010PropOp55
 70
     1
102
RTVSPost2010Prop56
140
1.0
102
RTVSPost2010PropOp56
 70
     1
102
RTVSPost2010Prop57
140
1.0
102
RTVSPost2010PropOp57
 70
     1
102
RTVSPropertyOp0
 70
     1
102
RTVSPropertyOp1
 70
     1
102
RTVSPropertyOp2
 70
     1
102
RTVSPropertyOp3
 70
     1
102
RTVSPropertyOp4
 70
     1
102
RTVSPropertyOp5
 70
     1
102
RTVSPropertyOp6
 70
     1
102
RTVSPropertyOp7
 70
     1
102
RTVSPropertyOp8
 70
     1
102
RTVSPropertyOp9
 70
     1
102
RTVSPropertyOp10
 70
     1
102
RTVSPropertyOp11
 70
     1
102
RTVSPropertyOp12
 70
     1
102
RTVSPropertyOp13
 70
     1
102
RTVSPropertyOp14
 70
     1
102
RTVSPropertyOp15
 70
     1
102
RTVSPropertyOp16
 70
     1
102
RTVSPropertyOp17
 70
     1
102
RTVSPropertyOp18
 70
     1
102
RTVSPropertyOp19
 70
     1
102
RTVSPropertyOp20
 70
     1
102
RTVSPropertyOp21
 70
     1
102
RTVSPropertyOp22
 70
     1
102
RTVSPropertyOp23
 70
     1
102
RTVSPropertyOp24
 70
     1
102
RTVSPropertyOp25
 70
     1
102
RTVSPropertyOp26
 70
     1
102
RTVSPropertyOp27
 70
     1
102
RTVSPropertyOp28
 70
     1
102
RTVSPropertyOp29
 70
     1
102
RTVSPropertyOp30
 70
     1
102
RTVSPropertyOp31
 70
     1
102
RTVSPropertyOp32
 70
     1
102
RTVSPropertyOp33
 70
     1
102
RTVSPropertyOp34
 70
     1
102
RTVSPropertyOp35
 70
     1
102
RTVSPropertyOp36
 70
     1
102
RTVSPropertyOp37
 70
     1
102
RTVSPropertyOp38
 70
     1
102
RTVSPropertyOp39
 70
     1
102
RTVSPropertyOp40
 70
     1
102
RTVSPropertyOp41
 70
     1
102
RTVSPropertyOp42
 70
     1
102
RTVSPropertyOp43
 70
     1
102
RTVSPropertyOp44
 70
     1
102
RTVSPropertyOp45
 70
     1
102
RTVSPropertyOp46
 70
     1
102
RTVSPropertyOp47
 70
     1
102
RTVSPropertyOp48
 70
     1
102
RTVSPropertyOp49
 70
     1
102
RTVSPropertyOp50
 70
     1
102
RTVSPropertyOp51
 70
     0
102
RTVSPropertyOp52
 70
     0
102
RTVSPropertyOp53
 70
     1
102
RTVSPropertyOp54
 70
     1
102
RTVSPropertyOp55
 70
     1
102
RTVSPropertyOp56
 70
     1
102
RTVSPropertyOp57
 70
     1
102
RTVSPropertyOp58
 70
     1
102
RTVSPropertyOp59
 70
     1
102
RTVSPropertyOp60
 70
     1
102
RTVSPropertyOp61
 70
     1
102
RTVSPropertyOp62
 70
     1
  0
XRECORD
  5
2F0D
102
{ACAD_REACTORS
330
2F0C
102
}
330
2F0C
100
AcDbXrecord
280
     1
102
RTVSPost2010Prop28
280
     0
102
RTVSPost2010PropOp28
 70
     1
102
RTVSPost2010Prop29
280
     1
102
RTVSPost2010PropOp29
 70
     1
102
RTVSPost2010Prop30
280
     1
102
RTVSPost2010PropOp30
 70
     1
102
RTVSPost2010Prop31
280
     0
102
RTVSPost2010PropOp31
 70
     1
102
RTVSPost2010Prop32
280
     0
102
RTVSPost2010PropOp32
 70
     1
102
RTVSPost2010Prop33
280
     0
102
RTVSPost2010PropOp33
 70
     1
102
RTVSPost2010Prop34
280
     0
102
RTVSPost2010PropOp34
 70
     1
102
RTVSPost2010Prop35
280
     0
102
RTVSPost2010PropOp35
 70
     1
102
RTVSPost2010Prop36
280
     0
102
RTVSPost2010PropOp36
 70
     1
102
RTVSPost2010Prop37
 90
       50
102
RTVSPost2010PropOp37
 70
     1
102
RTVSPost2010Prop38
140
0.0
102
RTVSPost2010PropOp38
 70
     1
102
RTVSPost2010Prop39
140
1.0
102
RTVSPost2010PropOp39
 70
     1
102
RTVSPost2010Prop40
 90
        0
102
RTVSPost2010PropOp40
 70
     1
102
RTVSPost2010Prop41ColorIndex
 90
       18
102
RTVSPost2010Prop41ColorRGB
 90
        0
102
RTVSPost2010PropOp41
 70
     1
102
RTVSPost2010Prop42
 90
       50
102
RTVSPost2010PropOp42
 70
     1
102
RTVSPost2010Prop43
 90
        3
102
RTVSPost2010PropOp43
 70
     1
102
RTVSPost2010Prop44ColorIndex
 90
        5
102
RTVSPost2010Prop44ColorRGB
 90
      255
102
RTVSPost2010PropOp44
 70
     1
102
RTVSPost2010Prop45
280
     0
102
RTVSPost2010PropOp45
 70
     1
102
RTVSPost2010Prop46
 90
       50
102
RTVSPost2010PropOp46
 70
     1
102
RTVSPost2010Prop47
 90
       50
102
RTVSPost2010PropOp47
 70
     1
102
RTVSPost2010Prop48
 90
       50
102
RTVSPost2010PropOp48
 70
     1
102
RTVSPost2010Prop49
280
     0
102
RTVSPost2010PropOp49
 70
     1
102
RTVSPost2010Prop50
 90
       50
102
RTVSPost2010PropOp50
 70
     1
102
RTVSPost2010Prop51ColorIndex
 90
      256
102
RTVSPost2010Prop51ColorRGB
 90
-16777216
102
RTVSPost2010PropOp51
 70
     0
102
RTVSPost2010Prop52
140
1.0
102
RTVSPost2010PropOp52
 70
     0
102
RTVSPost2010Prop53
 90
        2
102
RTVSPost2010PropOp53
 70
     1
102
RTVSPost2010Prop54
  1
strokes_ogs.tif
102
RTVSPost2010PropOp54
 70
     1
102
RTVSPost2010Prop55
280
     0
102
RTVSPost2010PropOp55
 70
     1
102
RTVSPost2010Prop56
140
1.0
102
RTVSPost2010PropOp56
 70
     1
102
RTVSPost2010Prop57
140
1.0
102
RTVSPost2010PropOp57
 70
     1
102
RTVSPropertyOp0
 70
     1
102
RTVSPropertyOp1
 70
     1
102
RTVSPropertyOp2
 70
     1
102
RTVSPropertyOp3
 70
     1
102
RTVSPropertyOp4
 70
     1
102
RTVSPropertyOp5
 70
     1
102
RTVSPropertyOp6
 70
     1
102
RTVSPropertyOp7
 70
     1
102
RTVSPropertyOp8
 70
     1
102
RTVSPropertyOp9
 70
     1
102
RTVSPropertyOp10
 70
     1
102
RTVSPropertyOp11
 70
     1
102
RTVSPropertyOp12
 70
     1
102
RTVSPropertyOp13
 70
     1
102
RTVSPropertyOp14
 70
     1
102
RTVSPropertyOp15
 70
     1
102
RTVSPropertyOp16
 70
     1
102
RTVSPropertyOp17
 70
     1
102
RTVSPropertyOp18
 70
     1
102
RTVSPropertyOp19
 70
     1
102
RTVSPropertyOp20
 70
     1
102
RTVSPropertyOp21
 70
     1
102
RTVSPropertyOp22
 70
     1
102
RTVSPropertyOp23
 70
     1
102
RTVSPropertyOp24
 70
     1
102
RTVSPropertyOp25
 70
     1
102
RTVSPropertyOp26
 70
     1
102
RTVSPropertyOp27
 70
     1
102
RTVSPropertyOp28
 70
     1
102
RTVSPropertyOp29
 70
     1
102
RTVSPropertyOp30
 70
     1
102
RTVSPropertyOp31
 70
     1
102
RTVSPropertyOp32
 70
     1
102
RTVSPropertyOp33
 70
     1
102
RTVSPropertyOp34
 70
     1
102
RTVSPropertyOp35
 70
     1
102
RTVSPropertyOp36
 70
     1
102
RTVSPropertyOp37
 70
     1
102
RTVSPropertyOp38
 70
     1
102
RTVSPropertyOp39
 70
     1
102
RTVSPropertyOp40
 70
     1
102
RTVSPropertyOp41
 70
     1
102
RTVSPropertyOp42
 70
     1
102
RTVSPropertyOp43
 70
     1
102
RTVSPropertyOp44
 70
     1
102
RTVSPropertyOp45
 70
     1
102
RTVSPropertyOp46
 70
     1
102
RTVSPropertyOp47
 70
     1
102
RTVSPropertyOp48
 70
     1
102
RTVSPropertyOp49
 70
     1
102
RTVSPropertyOp50
 70
     1
102
RTVSPropertyOp51
 70
     0
102
RTVSPropertyOp52
 70
     0
102
RTVSPropertyOp53
 70
     1
102
RTVSPropertyOp54
 70
     1
102
RTVSPropertyOp55
 70
     1
102
RTVSPropertyOp56
 70
     1
102
RTVSPropertyOp57
 70
     1
102
RTVSPropertyOp58
 70
     1
102
RTVSPropertyOp59
 70
     1
102
RTVSPropertyOp60
 70
     1
102
RTVSPropertyOp61
 70
     1
102
RTVSPropertyOp62
 70
     1
  0
XRECORD
  5
2F25
102
{ACAD_REACTORS
330
2F24
102
}
330
2F24
100
AcDbXrecord
280
     1
102
RTVSPost2010Prop28
280
     0
102
RTVSPost2010PropOp28
 70
     1
102
RTVSPost2010Prop29
280
     1
102
RTVSPost2010PropOp29
 70
     1
102
RTVSPost2010Prop30
280
     1
102
RTVSPost2010PropOp30
 70
     1
102
RTVSPost2010Prop31
280
     0
102
RTVSPost2010PropOp31
 70
     1
102
RTVSPost2010Prop32
280
     0
102
RTVSPost2010PropOp32
 70
     1
102
RTVSPost2010Prop33
280
     0
102
RTVSPost2010PropOp33
 70
     1
102
RTVSPost2010Prop34
280
     0
102
RTVSPost2010PropOp34
 70
     1
102
RTVSPost2010Prop35
280
     0
102
RTVSPost2010PropOp35
 70
     1
102
RTVSPost2010Prop36
280
     0
102
RTVSPost2010PropOp36
 70
     1
102
RTVSPost2010Prop37
 90
       50
102
RTVSPost2010PropOp37
 70
     1
102
RTVSPost2010Prop38
140
0.0
102
RTVSPost2010PropOp38
 70
     1
102
RTVSPost2010Prop39
140
1.0
102
RTVSPost2010PropOp39
 70
     1
102
RTVSPost2010Prop40
 90
        0
102
RTVSPost2010PropOp40
 70
     1
102
RTVSPost2010Prop41ColorIndex
 90
       18
102
RTVSPost2010Prop41ColorRGB
 90
        0
102
RTVSPost2010PropOp41
 70
     1
102
RTVSPost2010Prop42
 90
       50
102
RTVSPost2010PropOp42
 70
     1
102
RTVSPost2010Prop43
 90
        3
102
RTVSPost2010PropOp43
 70
     1
102
RTVSPost2010Prop44ColorIndex
 90
        5
102
RTVSPost2010Prop44ColorRGB
 90
      255
102
RTVSPost2010PropOp44
 70
     1
102
RTVSPost2010Prop45
280
     0
102
RTVSPost2010PropOp45
 70
     1
102
RTVSPost2010Prop46
 90
       50
102
RTVSPost2010PropOp46
 70
     1
102
RTVSPost2010Prop47
 90
       50
102
RTVSPost2010PropOp47
 70
     1
102
RTVSPost2010Prop48
 90
       50
102
RTVSPost2010PropOp48
 70
     1
102
RTVSPost2010Prop49
280
     0
102
RTVSPost2010PropOp49
 70
     1
102
RTVSPost2010Prop50
 90
       50
102
RTVSPost2010PropOp50
 70
     1
102
RTVSPost2010Prop51ColorIndex
 90
      256
102
RTVSPost2010Prop51ColorRGB
 90
-16777216
102
RTVSPost2010PropOp51
 70
     0
102
RTVSPost2010Prop52
140
1.0
102
RTVSPost2010PropOp52
 70
     0
102
RTVSPost2010Prop53
 90
        2
102
RTVSPost2010PropOp53
 70
     1
102
RTVSPost2010Prop54
  1
strokes_ogs.tif
102
RTVSPost2010PropOp54
 70
     1
102
RTVSPost2010Prop55
280
     0
102
RTVSPost2010PropOp55
 70
     1
102
RTVSPost2010Prop56
140
1.0
102
RTVSPost2010PropOp56
 70
     1
102
RTVSPost2010Prop57
140
1.0
102
RTVSPost2010PropOp57
 70
     1
102
RTVSPropertyOp0
 70
     1
102
RTVSPropertyOp1
 70
     1
102
RTVSPropertyOp2
 70
     1
102
RTVSPropertyOp3
 70
     1
102
RTVSPropertyOp4
 70
     1
102
RTVSPropertyOp5
 70
     1
102
RTVSPropertyOp6
 70
     1
102
RTVSPropertyOp7
 70
     1
102
RTVSPropertyOp8
 70
     1
102
RTVSPropertyOp9
 70
     1
102
RTVSPropertyOp10
 70
     1
102
RTVSPropertyOp11
 70
     1
102
RTVSPropertyOp12
 70
     1
102
RTVSPropertyOp13
 70
     1
102
RTVSPropertyOp14
 70
     1
102
RTVSPropertyOp15
 70
     1
102
RTVSPropertyOp16
 70
     1
102
RTVSPropertyOp17
 70
     1
102
RTVSPropertyOp18
 70
     1
102
RTVSPropertyOp19
 70
     1
102
RTVSPropertyOp20
 70
     1
102
RTVSPropertyOp21
 70
     1
102
RTVSPropertyOp22
 70
     1
102
RTVSPropertyOp23
 70
     1
102
RTVSPropertyOp24
 70
     1
102
RTVSPropertyOp25
 70
     1
102
RTVSPropertyOp26
 70
     1
102
RTVSPropertyOp27
 70
     1
102
RTVSPropertyOp28
 70
     1
102
RTVSPropertyOp29
 70
     1
102
RTVSPropertyOp30
 70
     1
102
RTVSPropertyOp31
 70
     1
102
RTVSPropertyOp32
 70
     1
102
RTVSPropertyOp33
 70
     1
102
RTVSPropertyOp34
 70
     1
102
RTVSPropertyOp35
 70
     1
102
RTVSPropertyOp36
 70
     1
102
RTVSPropertyOp37
 70
     1
102
RTVSPropertyOp38
 70
     1
102
RTVSPropertyOp39
 70
     1
102
RTVSPropertyOp40
 70
     1
102
RTVSPropertyOp41
 70
     1
102
RTVSPropertyOp42
 70
     1
102
RTVSPropertyOp43
 70
     1
102
RTVSPropertyOp44
 70
     1
102
RTVSPropertyOp45
 70
     1
102
RTVSPropertyOp46
 70
     1
102
RTVSPropertyOp47
 70
     1
102
RTVSPropertyOp48
 70
     1
102
RTVSPropertyOp49
 70
     1
102
RTVSPropertyOp50
 70
     1
102
RTVSPropertyOp51
 70
     0
102
RTVSPropertyOp52
 70
     0
102
RTVSPropertyOp53
 70
     1
102
RTVSPropertyOp54
 70
     1
102
RTVSPropertyOp55
 70
     1
102
RTVSPropertyOp56
 70
     1
102
RTVSPropertyOp57
 70
     1
102
RTVSPropertyOp58
 70
     1
102
RTVSPropertyOp59
 70
     1
102
RTVSPropertyOp60
 70
     1
102
RTVSPropertyOp61
 70
     1
102
RTVSPropertyOp62
 70
     1
  0
ENDSEC
  0
EOF
