  0
SECTION
  2
HEADER
  9
$ACADVER
  1
AC1015
  9
$ACADMAINTVER
 70
    20
  9
$DWGCODEPAGE
  3
ANSI_1252
  9
$INSBASE
 10
0.0
 20
0.0
 30
0.0
  9
$EXTMIN
 10
-308.3031371698621
 20
-361.6974463392694
 30
0.0
  9
$EXTMAX
 10
349.9853946110524
 20
42.1242232067748
 30
0.0
  9
$LIMMIN
 10
0.0
 20
0.0
  9
$LIMMAX
 10
420.0
 20
297.0
  9
$ORTHOMODE
 70
     1
  9
$REGENMODE
 70
     1
  9
$FILLMODE
 70
     1
  9
$QTEXTMODE
 70
     0
  9
$MIRRTEXT
 70
     0
  9
$LTSCALE
 40
23.1
  9
$ATTMODE
 70
     1
  9
$TEXTSIZE
 40
3.5
  9
$TRACEWID
 40
0.05
  9
$TEXTSTYLE
  7
STANDARD
  9
$CLAYER
  8
CUT
  9
$CELTYPE
  6
BYLAYER
  9
$CECOLOR
 62
   256
  9
$CELTSCALE
 40
1.0
  9
$DISPSILH
 70
     0
  9
$DIMSCALE
 40
1.0
  9
$DIMASZ
 40
4.57
  9
$DIMEXO
 40
0.0625
  9
$DIMDLI
 40
0.38
  9
$DIMRND
 40
0.0
  9
$DIMDLE
 40
0.0
  9
$DIMEXE
 40
0.18
  9
$DIMTP
 40
0.01
  9
$DIMTM
 40
0.01
  9
$DIMTXT
 40
3.5
  9
$DIMCEN
 40
0.09
  9
$DIMTSZ
 40
0.0
  9
$DIMTOL
 70
     0
  9
$DIMLIM
 70
     0
  9
$DIMTIH
 70
     0
  9
$DIMTOH
 70
     0
  9
$DIMSE1
 70
     0
  9
$DIMSE2
 70
     0
  9
$DIMTAD
 70
     1
  9
$DIMZIN
 70
     8
  9
$DIMBLK
  1

  9
$DIMASO
 70
     1
  9
$DIMSHO
 70
     1
  9
$DIMPOST
  1

  9
$DIMAPOST
  1

  9
$DIMALT
 70
     0
  9
$DIMALTD
 70
     2
  9
$DIMALTF
 40
25.4
  9
$DIMLFAC
 40
1.0
  9
$DIMTOFL
 70
     0
  9
$DIMTVP
 40
0.0
  9
$DIMTIX
 70
     0
  9
$DIMSOXD
 70
     0
  9
$DIMSAH
 70
     0
  9
$DIMBLK1
  1

  9
$DIMBLK2
  1

  9
$DIMSTYLE
  2
STANDARD
  9
$DIMCLRD
 70
     0
  9
$DIMCLRE
 70
     0
  9
$DIMCLRT
 70
     0
  9
$DIMTFAC
 40
1.0
  9
$DIMGAP
 40
0.09
  9
$DIMJUST
 70
     0
  9
$DIMSD1
 70
     0
  9
$DIMSD2
 70
     0
  9
$DIMTOLJ
 70
     1
  9
$DIMTZIN
 70
     8
  9
$DIMALTZ
 70
     0
  9
$DIMALTTZ
 70
     0
  9
$DIMUPT
 70
     0
  9
$DIMDEC
 70
     3
  9
$DIMTDEC
 70
     3
  9
$DIMALTU
 70
     2
  9
$DIMALTTD
 70
     2
  9
$DIMTXSTY
  7
STANDARD
  9
$DIMAUNIT
 70
     0
  9
$DIMADEC
 70
     0
  9
$DIMALTRND
 40
0.0
  9
$DIMAZIN
 70
     0
  9
$DIMDSEP
 70
    46
  9
$DIMATFIT
 70
     0
  9
$DIMFRAC
 70
     0
  9
$DIMLDRBLK
  1

  9
$DIMLUNIT
 70
     2
  9
$DIMLWD
 70
    -2
  9
$DIMLWE
 70
    -2
  9
$DIMTMOVE
 70
     0
  9
$LUNITS
 70
     2
  9
$LUPREC
 70
     4
  9
$SKETCHINC
 40
0.1
  9
$FILLETRAD
 40
0.0
  9
$AUNITS
 70
     0
  9
$AUPREC
 70
     0
  9
$MENU
  1
.
  9
$ELEVATION
 40
0.0
  9
$PELEVATION
 40
0.0
  9
$THICKNESS
 40
0.0
  9
$LIMCHECK
 70
     0
  9
$CHAMFERA
 40
0.0
  9
$CHAMFERB
 40
0.0
  9
$CHAMFERC
 40
0.0
  9
$CHAMFERD
 40
0.0
  9
$SKPOLY
 70
     0
  9
$TDCREATE
 40
2457482.848334780
  9
$TDUCREATE
 40
2457482.765001447
  9
$TDUPDATE
 40
2457482.870764062
  9
$TDUUPDATE
 40
2457482.787430730
  9
$TDINDWG
 40
0.0224824884
  9
$TDUSRTIMER
 40
0.0224365741
  9
$USRTIMER
 70
     1
  9
$ANGBASE
 50
0.0
  9
$ANGDIR
 70
     0
  9
$PDMODE
 70
     3
  9
$PDSIZE
 40
0.3125
  9
$PLINEWID
 40
0.0
  9
$SPLFRAME
 70
     0
  9
$SPLINETYPE
 70
     6
  9
$SPLINESEGS
 70
     8
  9
$HANDSEED
  5
2113D
  9
$SURFTAB1
 70
     6
  9
$SURFTAB2
 70
     6
  9
$SURFTYPE
 70
     6
  9
$SURFU
 70
     6
  9
$SURFV
 70
     6
  9
$UCSBASE
  2

  9
$UCSNAME
  2

  9
$UCSORG
 10
0.0
 20
0.0
 30
0.0
  9
$UCSXDIR
 10
1.0
 20
0.0
 30
0.0
  9
$UCSYDIR
 10
0.0
 20
1.0
 30
0.0
  9
$UCSORTHOREF
  2

  9
$UCSORTHOVIEW
 70
     0
  9
$UCSORGTOP
 10
0.0
 20
0.0
 30
0.0
  9
$UCSORGBOTTOM
 10
0.0
 20
0.0
 30
0.0
  9
$UCSORGLEFT
 10
0.0
 20
0.0
 30
0.0
  9
$UCSORGRIGHT
 10
0.0
 20
0.0
 30
0.0
  9
$UCSORGFRONT
 10
0.0
 20
0.0
 30
0.0
  9
$UCSORGBACK
 10
0.0
 20
0.0
 30
0.0
  9
$PUCSBASE
  2

  9
$PUCSNAME
  2

  9
$PUCSORG
 10
0.0
 20
0.0
 30
0.0
  9
$PUCSXDIR
 10
1.0
 20
0.0
 30
0.0
  9
$PUCSYDIR
 10
0.0
 20
1.0
 30
0.0
  9
$PUCSORTHOREF
  2

  9
$PUCSORTHOVIEW
 70
     0
  9
$PUCSORGTOP
 10
0.0
 20
0.0
 30
0.0
  9
$PUCSORGBOTTOM
 10
0.0
 20
0.0
 30
0.0
  9
$PUCSORGLEFT
 10
0.0
 20
0.0
 30
0.0
  9
$PUCSORGRIGHT
 10
0.0
 20
0.0
 30
0.0
  9
$PUCSORGFRONT
 10
0.0
 20
0.0
 30
0.0
  9
$PUCSORGBACK
 10
0.0
 20
0.0
 30
0.0
  9
$USERI1
 70
     0
  9
$USERI2
 70
     0
  9
$USERI3
 70
     0
  9
$USERI4
 70
     0
  9
$USERI5
 70
     0
  9
$USERR1
 40
0.0
  9
$USERR2
 40
0.0
  9
$USERR3
 40
0.0
  9
$USERR4
 40
0.0
  9
$USERR5
 40
0.0
  9
$WORLDVIEW
 70
     1
  9
$SHADEDGE
 70
     3
  9
$SHADEDIF
 70
    70
  9
$TILEMODE
 70
     1
  9
$MAXACTVP
 70
    64
  9
$PINSBASE
 10
0.0
 20
0.0
 30
0.0
  9
$PLIMCHECK
 70
     0
  9
$PEXTMIN
 10
28.69141678810127
 20
19.6363175392151
 30
0.0
  9
$PEXTMAX
 10
258.2227510929107
 20
176.7268578529358
 30
0.0
  9
$PLIMMIN
 10
-5.027069091796875
 20
-6.805083274841307
  9
$PLIMMAX
 10
291.9412536621094
 20
203.1682443618775
  9
$UNITMODE
 70
     0
  9
$VISRETAIN
 70
     1
  9
$PLINEGEN
 70
     0
  9
$PSLTSCALE
 70
     1
  9
$TREEDEPTH
 70
  3020
  9
$CMLSTYLE
  2
STANDARD
  9
$CMLJUST
 70
     0
  9
$CMLSCALE
 40
1.0
  9
$PROXYGRAPHICS
 70
     1
  9
$MEASUREMENT
 70
     1
  9
$CELWEIGHT
370
    -1
  9
$ENDCAPS
280
     0
  9
$JOINSTYLE
280
     0
  9
$LWDISPLAY
290
     0
  9
$INSUNITS
 70
     0
  9
$HYPERLINKBASE
  1

  9
$STYLESHEET
  1
A1-A2.CTB
  9
$XEDIT
290
     1
  9
$CEPSNTYPE
380
     0
  9
$PSTYLEMODE
290
     1
  9
$FINGERPRINTGUID
  2
{9BE923D5-7315-4CC2-BBEF-82ECF37C7867}
  9
$VERSIONGUID
  2
{66CDAE77-8E65-410B-BBA6-664F9618728C}
  9
$EXTNAMES
290
     1
  9
$PSVPSCALE
 40
0.0
  9
$OLESTARTUP
290
     0
  0
ENDSEC
  0
SECTION
  2
CLASSES
  0
CLASS
  1
ACDBDICTIONARYWDFLT
  2
AcDbDictionaryWithDefault
  3
ObjectDBX Classes
 90
        0
280
     0
281
     0
  0
CLASS
  1
MATERIAL
  2
AcDbMaterial
  3
ObjectDBX Classes
 90
     1153
280
     0
281
     0
  0
CLASS
  1
VISUALSTYLE
  2
AcDbVisualStyle
  3
ObjectDBX Classes
 90
     4095
280
     0
281
     0
  0
CLASS
  1
TABLESTYLE
  2
AcDbTableStyle
  3
ObjectDBX Classes
 90
     4095
280
     0
281
     0
  0
CLASS
  1
SORTENTSTABLE
  2
AcDbSortentsTable
  3
ObjectDBX Classes
 90
        0
280
     0
281
     0
  0
CLASS
  1
DICTIONARYVAR
  2
AcDbDictionaryVar
  3
ObjectDBX Classes
 90
        0
280
     0
281
     0
  0
CLASS
  1
EXACXREFPANELOBJECT
  2
ExAcXREFPanelObject
  3
EXAC_ESW
 90
    33793
280
     1
281
     0
  0
CLASS
  1
NPOCOLLECTION
  2
AcDbImpNonPersistentObjectsCollection
  3
ObjectDBX Classes
 90
    33921
280
     1
281
     0
  0
CLASS
  1
ACDBPLACEHOLDER
  2
AcDbPlaceHolder
  3
ObjectDBX Classes
 90
        0
280
     0
281
     0
  0
CLASS
  1
LAYOUT
  2
AcDbLayout
  3
ObjectDBX Classes
 90
        0
280
     0
281
     0
  0
CLASS
  1
SCALE
  2
AcDbScale
  3
ObjectDBX Classes
 90
     1153
280
     0
281
     0
  0
CLASS
  1
MLEADERSTYLE
  2
AcDbMLeaderStyle
  3
ACDB_MLEADERSTYLE_CLASS
 90
     4095
280
     0
281
     0
  0
CLASS
  1
ACDBSECTIONVIEWSTYLE
  2
AcDbSectionViewStyle
  3
ObjectDBX Classes
 90
     1025
280
     0
281
     0
  0
CLASS
  1
ACDBDETAILVIEWSTYLE
  2
AcDbDetailViewStyle
  3
ObjectDBX Classes
 90
     1025
280
     0
281
     0
  0
CLASS
  1
CELLSTYLEMAP
  2
AcDbCellStyleMap
  3
ObjectDBX Classes
 90
     1152
280
     0
281
     0
  0
CLASS
  1
ACAD_EVALUATION_GRAPH
  2
AcDbEvalGraph
  3
ObjectDBX Classes
 90
    33921
280
     0
281
     0
  0
CLASS
  1
ACAECUSTOBJ
  2
AcAeEditorObj
  3
AcAeEditorObj
 90
    33792
280
     0
281
     0
  0
CLASS
  1
ACDB_DYNAMICBLOCKPURGEPREVENTER_VERSION
  2
AcDbDynamicBlockPurgePreventer
  3
ObjectDBX Classes
 90
    33921
280
     0
281
     0
  0
CLASS
  1
FIELD
  2
AcDbField
  3
ObjectDBX Classes
 90
     1152
280
     0
281
     0
  0
CLASS
  1
FIELDLIST
  2
AcDbFieldList
  3
ObjectDBX Classes
 90
     1152
280
     0
281
     0
  0
CLASS
  1
DIMASSOC
  2
AcDbDimAssoc
  3
"AcDbDimAssoc|Product Desc:     AcDim ARX App For Dimension|Company:          Autodesk, Inc.|WEB Address:      www.autodesk.com"
 90
        0
280
     0
281
     0
  0
ENDSEC
  0
SECTION
  2
TABLES
  0
TABLE
  2
VPORT
  5
8
330
0
100
AcDbSymbolTable
 70
     1
  0
VPORT
  5
1F4
330
8
100
AcDbSymbolTableRecord
100
AcDbViewportTableRecord
  2
*ACTIVE
 70
     0
 10
0.0
 20
0.0
 11
1.0
 21
1.0
 12
62.71285376081275
 22
27.577409644348
 13
0.0
 23
0.0
 14
1.0
 24
1.0
 15
0.0
 25
0.0
 16
0.0
 26
0.0
 36
1.0
 17
0.0
 27
0.0
 37
0.0
 40
86.87650064192098
 41
2.387516254876462
 42
50.0
 43
0.0
 44
0.0
 50
0.0
 51
0.0
 71
     0
 72
  2000
 73
     1
 74
     1
 75
     0
 76
     0
 77
     0
 78
     0
281
     0
 65
     1
110
0.0
120
0.0
130
0.0
111
1.0
121
0.0
131
0.0
112
0.0
122
1.0
132
0.0
 79
     0
146
0.0
1001
ACAD_NAV_VCDISPLAY
1070
     3
  0
ENDTAB
  0
TABLE
  2
LTYPE
  5
5
330
0
100
AcDbSymbolTable
 70
     5
  0
LTYPE
  5
14
330
5
100
AcDbSymbolTableRecord
100
AcDbLinetypeTableRecord
  2
BYBLOCK
 70
     0
  3

 72
    65
 73
     0
 40
0.0
  0
LTYPE
  5
15
330
5
100
AcDbSymbolTableRecord
100
AcDbLinetypeTableRecord
  2
BYLAYER
 70
     0
  3

 72
    65
 73
     0
 40
0.0
  0
LTYPE
  5
16
330
5
100
AcDbSymbolTableRecord
100
AcDbLinetypeTableRecord
  2
CONTINUOUS
 70
     0
  3
Solid line
 72
    65
 73
     0
 40
0.0
  0
LTYPE
  5
9C48
330
5
100
AcDbSymbolTableRecord
100
AcDbLinetypeTableRecord
  2
CENTER
 70
     0
  3
____ _ ____ _ ____ _ ____ _ ____ _ ____ _ ____
 72
    65
 73
     4
 40
0.6
 49
0.375
 74
     0
 49
-0.075
 74
     0
 49
0.075
 74
     0
 49
-0.075
 74
     0
  0
ENDTAB
  0
TABLE
  2
LAYER
  5
2
102
{ACAD_XDICTIONARY
360
422A
102
}
330
0
100
AcDbSymbolTable
 70
    19
  0
LAYER
  5
10
102
{ACAD_XDICTIONARY
360
1B2F5
102
}
330
2
100
AcDbSymbolTableRecord
100
AcDbLayerTableRecord
  2
0
 70
     0
 62
     7
  6
CONTINUOUS
370
    -3
390
318A
  0
LAYER
  5
3F8C
102
{ACAD_XDICTIONARY
360
1B2F7
102
}
330
2
100
AcDbSymbolTableRecord
100
AcDbLayerTableRecord
  2
1
 70
     0
 62
     4
  6
BYBLOCK
370
    50
390
318A
  0
LAYER
  5
3FA7
330
2
100
AcDbSymbolTableRecord
100
AcDbLayerTableRecord
  2
Defpoints
 70
     0
 62
     7
  6
CONTINUOUS
290
     0
370
    -3
390
318A
  0
LAYER
  5
9C4A
102
{ACAD_XDICTIONARY
360
1B2F9
102
}
330
2
100
AcDbSymbolTableRecord
100
AcDbLayerTableRecord
  2
2
 70
     0
 62
     7
  6
BYBLOCK
370
    25
390
318A
  0
LAYER
  5
9C4B
102
{ACAD_XDICTIONARY
360
1B2FB
102
}
330
2
100
AcDbSymbolTableRecord
100
AcDbLayerTableRecord
  2
4
 70
     0
 62
     2
  6
CENTER
370
    25
390
318A
  0
LAYER
  5
9C4D
102
{ACAD_XDICTIONARY
360
1B2FD
102
}
330
2
100
AcDbSymbolTableRecord
100
AcDbLayerTableRecord
  2
CUT
 70
     0
 62
     1
  6
BYBLOCK
370
    25
390
318A
  0
LAYER
  5
9C4E
102
{ACAD_XDICTIONARY
360
1B2FF
102
}
330
2
100
AcDbSymbolTableRecord
100
AcDbLayerTableRecord
  2
NOCUT
 70
     0
 62
     7
  6
BYBLOCK
370
    25
390
318A
  0
LAYER
  5
9C50
102
{ACAD_XDICTIONARY
360
1B303
102
}
330
2
100
AcDbSymbolTableRecord
100
AcDbLayerTableRecord
  2
SK1
 70
     0
 62
     4
  6
BYBLOCK
370
    50
390
318A
  0
LAYER
  5
9C51
102
{ACAD_XDICTIONARY
360
1B305
102
}
330
2
100
AcDbSymbolTableRecord
100
AcDbLayerTableRecord
  2
SK4
 70
     0
 62
     2
  6
CENTER
370
    25
390
318A
  0
LAYER
  5
13335
102
{ACAD_XDICTIONARY
360
1B307
102
}
330
2
100
AcDbSymbolTableRecord
100
AcDbLayerTableRecord
  2
INFTOTAL
 70
     0
 62
     9
  6
BYBLOCK
370
    18
390
318A
1001
AcAecLayerStandard
1000

1000

  0
LAYER
  5
20AE0
102
{ACAD_XDICTIONARY
360
20AE1
102
}
330
2
100
AcDbSymbolTableRecord
100
AcDbLayerTableRecord
  2
SKVIEW63
 70
     0
 62
     5
  6
CONTINUOUS
370
    35
390
318A
  0
ENDTAB
  0
TABLE
  2
STYLE
  5
3
330
0
100
AcDbSymbolTable
 70
     4
  0
STYLE
  5
11
330
3
100
AcDbSymbolTableRecord
100
AcDbTextStyleTableRecord
  2
STANDARD
 70
     0
 40
3.5
 41
0.8
 50
0.0
 71
     0
 42
3.5
  3
monos.ttf
  4

1001
ACAD
1000
Monospac821 BT
1071
       49
  0
STYLE
  5
1686F
330
3
100
AcDbSymbolTableRecord
100
AcDbTextStyleTableRecord
  2
BMG_Text
 70
     0
 40
3.5
 41
1.0
 50
0.0
 71
     0
 42
0.2
  3
monos.ttf
  4

1001
ACAD
1000
Monospac821 BT
1071
       49
  0
ENDTAB
  0
TABLE
  2
VIEW
  5
6
330
0
100
AcDbSymbolTable
 70
     0
  0
ENDTAB
  0
TABLE
  2
UCS
  5
7
330
0
100
AcDbSymbolTable
 70
     0
  0
ENDTAB
  0
TABLE
  2
APPID
  5
9
330
0
100
AcDbSymbolTable
 70
    12
  0
APPID
  5
23B
330
9
100
AcDbSymbolTableRecord
100
AcDbRegAppTableRecord
  2
ACAD
 70
     0
  0
APPID
  5
3395
330
9
100
AcDbSymbolTableRecord
100
AcDbRegAppTableRecord
  2
ACAD_EXEMPT_FROM_CAD_STANDARDS
 70
     0
  0
APPID
  5
4229
330
9
100
AcDbSymbolTableRecord
100
AcDbRegAppTableRecord
  2
AcAecLayerStandard
 70
     0
  0
APPID
  5
9A1B
330
9
100
AcDbSymbolTableRecord
100
AcDbRegAppTableRecord
  2
ACAD_PSEXT
 70
     0
  0
APPID
  5
1B313
330
9
100
AcDbSymbolTableRecord
100
AcDbRegAppTableRecord
  2
ACAD_NAV_VCDISPLAY
 70
     0
  0
APPID
  5
1B355
330
9
100
AcDbSymbolTableRecord
100
AcDbRegAppTableRecord
  2
ACAD_MLEADERVER
 70
     0
  0
APPID
  5
1EC7F
330
9
100
AcDbSymbolTableRecord
100
AcDbRegAppTableRecord
  2
ACAUTHENVIRON
 70
     0
  0
APPID
  5
1EC82
330
9
100
AcDbSymbolTableRecord
100
AcDbRegAppTableRecord
  2
AcDbDynamicBlockTrueName
 70
     0
  0
APPID
  5
1EC83
330
9
100
AcDbSymbolTableRecord
100
AcDbRegAppTableRecord
  2
AcDbDynamicBlockGUID
 70
     0
  0
APPID
  5
20A85
330
9
100
AcDbSymbolTableRecord
100
AcDbRegAppTableRecord
  2
AcCmTransparency
 70
     0
  0
APPID
  5
20AE2
330
9
100
AcDbSymbolTableRecord
100
AcDbRegAppTableRecord
  2
ACAD_DSTYLE_DIMRADIAL_EXTENSION
 70
     0
  0
APPID
  5
20CB0
330
9
100
AcDbSymbolTableRecord
100
AcDbRegAppTableRecord
  2
AcadAnnotative
 70
     0
  0
ENDTAB
  0
TABLE
  2
DIMSTYLE
  5
A
330
0
100
AcDbSymbolTable
 70
     3
100
AcDbDimStyleTable
 71
     1
340
243
  0
DIMSTYLE
105
243
102
{ACAD_REACTORS
330
20EBD
330
20EB9
330
20EBA
330
20EB8
330
20EB5
102
}
330
A
100
AcDbSymbolTableRecord
100
AcDbDimStyleTableRecord
  2
STANDARD
 70
     0
 41
4.57
 47
0.01
 48
0.01
 73
     0
 74
     0
 77
     1
 78
     8
140
3.5
271
     3
272
     3
284
     8
289
     0
340
11
  0
ENDTAB
  0
TABLE
  2
BLOCK_RECORD
  5
1
330
0
100
AcDbSymbolTable
 70
    32
  0
BLOCK_RECORD
  5
1F
102
{ACAD_XDICTIONARY
360
339C
102
}
330
1
100
AcDbSymbolTableRecord
100
AcDbBlockTableRecord
  2
*MODEL_SPACE
340
31A6
  0
BLOCK_RECORD
  5
1B
330
1
100
AcDbSymbolTableRecord
100
AcDbBlockTableRecord
  2
*PAPER_SPACE
340
31A7
  0
BLOCK_RECORD
  5
1B3D7
102
{ACAD_XDICTIONARY
360
1DE81
102
}
330
1
100
AcDbSymbolTableRecord
100
AcDbBlockTableRecord
  2
cero_point
340
0
310
28000000200000002000000001002000000000000010000001000000010000000000000000000000302821FF302821FF302821FF302821FF302821FF302821FF302821FF302821FF302821FF302821FF302821FF302821FF302821FF302821FF302821FF302821FF302821FF302821FF302821FF302821FF302821FF302821
310
FF302821FF302821FF302821FF302821FF302821FF302821FF302821FF302821FF302821FF302821FF302821FF302821FF302821FF302821FF302821FF302821FF302821FF302821FF302821FF302821FF302821FF302821FF302821FF302821FF302821FFFFFF00FFFFFF00FFFFFF00FF302821FF302821FF302821FF3028
310
21FF302821FF302821FF302821FF302821FF302821FF302821FF302821FF302821FF302821FF302821FF302821FF302821FF302821FF302821FF302821FF302821FF302821FF302821FF302821FF302821FFFFFF00FFFFFF00FFFFFF00FFFFFF00FFFFFF00FFFFFF00FFFFFF00FF302821FFFFFF00FFFFFF00FFFFFF00FF30
310
2821FF302821FF302821FF302821FF302821FF302821FF302821FF302821FF302821FF302821FF302821FF302821FF302821FF302821FF302821FF302821FF302821FF302821FF302821FFFFFF00FFFFFF00FFFFFF00FFFFFF00FFFFFF00FFFFFF00FFFFFF00FFFFFF00FFFFFF00FF302821FF302821FF302821FF302821FF
310
FFFF00FFFFFF00FF302821FF302821FF302821FF302821FF302821FF302821FF302821FF302821FF302821FF302821FF302821FF302821FF302821FF302821FF302821FF302821FFFFFF00FFFFFF00FFFFFF00FFFFFF00FFFFFF00FFFFFF00FFFFFF00FFFFFF00FFFFFF00FFFFFF00FF302821FF302821FF302821FF302821
310
FF302821FF302821FFFFFF00FFFFFF00FF302821FF302821FF302821FF302821FF302821FF302821FF302821FF302821FF302821FF302821FF302821FF302821FF302821FFFFFF00FFFFFF00FFFFFF00FFFFFF00FFFFFF00FFFFFF00FFFFFF00FFFFFF00FFFFFF00FFFFFF00FFFFFF00FF302821FF302821FF302821FF3028
310
21FF302821FF302821FF302821FF302821FFFFFF00FF302821FF302821FF302821FF302821FF302821FF302821FF302821FF302821FF302821FF302821FF302821FFFFFF00FFFFFF00FFFFFF00FFFFFF00FFFFFF00FFFFFF00FFFFFF00FFFFFF00FFFFFF00FFFFFF00FFFFFF00FFFFFF00FF302821FF302821FF302821FF30
310
2821FF302821FF302821FF302821FF302821FF302821FFFFFF00FF302821FF302821FF302821FF302821FF302821FF302821FF302821FF302821FF302821FFFFFF00FFFFFF00FFFFFF00FFFFFF00FFFFFF00FFFFFF00FFFFFF00FFFFFF00FFFFFF00FFFFFF00FFFFFF00FFFFFF00FFFFFF00FF302821FF302821FF302821FF
310
302821FF302821FF302821FF302821FF302821FF302821FF302821FFFFFF00FF302821FF302821FF302821FF302821FF302821FF302821FF302821FFFFFF00FFFFFF00FFFFFF00FFFFFF00FFFFFF00FFFFFF00FFFFFF00FFFFFF00FFFFFF00FFFFFF00FFFFFF00FFFFFF00FFFFFF00FFFFFF00FF302821FF302821FF302821
310
FF302821FF302821FF302821FF302821FF302821FF302821FF302821FFFFFF00FF302821FF302821FF302821FF302821FF302821FF302821FF302821FFFFFF00FFFFFF00FFFFFF00FFFFFF00FFFFFF00FFFFFF00FFFFFF00FFFFFF00FFFFFF00FFFFFF00FFFFFF00FFFFFF00FFFFFF00FFFFFF00FF302821FF302821FF3028
310
21FF302821FF302821FF302821FF302821FF302821FF302821FF302821FF302821FFFFFF00FF302821FF302821FF302821FF302821FF302821FFFFFF00FFFFFF00FFFFFF00FFFFFF00FFFFFF00FFFFFF00FFFFFF00FFFFFF00FFFFFF00FFFFFF00FFFFFF00FFFFFF00FFFFFF00FFFFFF00FFFFFF00FF302821FF302821FF30
310
2821FF302821FF302821FF302821FF302821FF302821FF302821FF302821FF302821FF302821FFFFFF00FF302821FF302821FF302821FF302821FFFFFF00FFFFFF00FFFFFF00FFFFFF00FFFFFF00FFFFFF00FFFFFF00FFFFFF00FFFFFF00FFFFFF00FFFFFF00FFFFFF00FFFFFF00FFFFFF00FFFFFF00FF302821FF302821FF
310
302821FF302821FF302821FF302821FF302821FF302821FF302821FF302821FF302821FF302821FFFFFF00FF302821FF302821FF302821FF302821FFFFFF00FFFFFF00FFFFFF00FFFFFF00FFFFFF00FFFFFF00FFFFFF00FFFFFF00FFFFFF00FFFFFF00FFFFFF00FFFFFF00FFFFFF00FFFFFF00FFFFFF00FF302821FF302821
310
FF302821FF302821FF302821FF302821FF302821FF302821FF302821FF302821FF302821FF302821FFFFFF00FF302821FF302821FF302821FF302821FFFFFF00FFFFFF00FFFFFF00FFFFFF00FFFFFF00FFFFFF00FFFFFF00FFFFFF00FFFFFF00FFFFFF00FFFFFF00FFFFFF00FFFFFF00FFFFFF00FFFFFF00FF302821FF3028
310
21FF302821FF302821FF302821FF302821FF302821FF302821FF302821FF302821FF302821FF302821FFFFFF00FF302821FF302821FF302821FFFFFF00FFFFFF00FFFFFF00FFFFFF00FFFFFF00FFFFFF00FFFFFF00FFFFFF00FFFFFF00FFFFFF00FFFFFF00FFFFFF00FFFFFF00FFFFFF00FFFFFF00FFFFFF00FF302821FF30
310
2821FF302821FF302821FF302821FF302821FF302821FF302821FF302821FF302821FF302821FF302821FF302821FFFFFF00FF302821FF302821FFFFFF00FFFFFF00FFFFFF00FFFFFF00FFFFFF00FFFFFF00FFFFFF00FFFFFF00FFFFFF00FFFFFF00FFFFFF00FFFFFF00FFFFFF00FFFFFF00FFFFFF00FFFFFF00FFFFFF00FF
310
FFFF00FFFFFF00FFFFFF00FFFFFF00FFFFFF00FFFFFF00FFFFFF00FFFFFF00FFFFFF00FFFFFF00FFFFFF00FFFFFF00FFFFFF00FF302821FF302821FFFFFF00FF302821FF302821FF302821FF302821FF302821FF302821FF302821FF302821FF302821FF302821FF302821FF302821FF302821FF302821FFFFFF00FFFFFF00
310
FFFFFF00FFFFFF00FFFFFF00FFFFFF00FFFFFF00FFFFFF00FFFFFF00FFFFFF00FFFFFF00FFFFFF00FFFFFF00FFFFFF00FFFFFF00FF302821FF302821FFFFFF00FF302821FF302821FF302821FF302821FF302821FF302821FF302821FF302821FF302821FF302821FF302821FF302821FF302821FF302821FFFFFF00FFFFFF
310
00FFFFFF00FFFFFF00FFFFFF00FFFFFF00FFFFFF00FFFFFF00FFFFFF00FFFFFF00FFFFFF00FFFFFF00FFFFFF00FFFFFF00FF302821FF302821FF302821FF302821FFFFFF00FF302821FF302821FF302821FF302821FF302821FF302821FF302821FF302821FF302821FF302821FF302821FF302821FF302821FFFFFF00FFFF
310
FF00FFFFFF00FFFFFF00FFFFFF00FFFFFF00FFFFFF00FFFFFF00FFFFFF00FFFFFF00FFFFFF00FFFFFF00FFFFFF00FFFFFF00FF302821FF302821FF302821FF302821FFFFFF00FF302821FF302821FF302821FF302821FF302821FF302821FF302821FF302821FF302821FF302821FF302821FF302821FF302821FFFFFF00FF
310
FFFF00FFFFFF00FFFFFF00FFFFFF00FFFFFF00FFFFFF00FFFFFF00FFFFFF00FFFFFF00FFFFFF00FFFFFF00FFFFFF00FFFFFF00FF302821FF302821FF302821FF302821FFFFFF00FF302821FF302821FF302821FF302821FF302821FF302821FF302821FF302821FF302821FF302821FF302821FF302821FF302821FFFFFF00
310
FFFFFF00FFFFFF00FFFFFF00FFFFFF00FFFFFF00FFFFFF00FFFFFF00FFFFFF00FFFFFF00FFFFFF00FFFFFF00FFFFFF00FFFFFF00FF302821FF302821FF302821FF302821FF302821FFFFFF00FF302821FF302821FF302821FF302821FF302821FF302821FF302821FF302821FF302821FF302821FF302821FF302821FFFFFF
310
00FFFFFF00FFFFFF00FFFFFF00FFFFFF00FFFFFF00FFFFFF00FFFFFF00FFFFFF00FFFFFF00FFFFFF00FFFFFF00FFFFFF00FFFFFF00FF302821FF302821FF302821FF302821FF302821FFFFFF00FF302821FF302821FF302821FF302821FF302821FF302821FF302821FF302821FF302821FF302821FF302821FF302821FFFF
310
FF00FFFFFF00FFFFFF00FFFFFF00FFFFFF00FFFFFF00FFFFFF00FFFFFF00FFFFFF00FFFFFF00FFFFFF00FFFFFF00FFFFFF00FF302821FF302821FF302821FF302821FF302821FF302821FF302821FFFFFF00FF302821FF302821FF302821FF302821FF302821FF302821FF302821FF302821FF302821FF302821FF302821FF
310
FFFF00FFFFFF00FFFFFF00FFFFFF00FFFFFF00FFFFFF00FFFFFF00FFFFFF00FFFFFF00FFFFFF00FFFFFF00FFFFFF00FFFFFF00FF302821FF302821FF302821FF302821FF302821FF302821FF302821FFFFFF00FF302821FF302821FF302821FF302821FF302821FF302821FF302821FF302821FF302821FF302821FF302821
310
FFFFFF00FFFFFF00FFFFFF00FFFFFF00FFFFFF00FFFFFF00FFFFFF00FFFFFF00FFFFFF00FFFFFF00FFFFFF00FFFFFF00FF302821FF302821FF302821FF302821FF302821FF302821FF302821FF302821FF302821FFFFFF00FF302821FF302821FF302821FF302821FF302821FF302821FF302821FF302821FF302821FF3028
310
21FFFFFF00FFFFFF00FFFFFF00FFFFFF00FFFFFF00FFFFFF00FFFFFF00FFFFFF00FFFFFF00FFFFFF00FFFFFF00FF302821FF302821FF302821FF302821FF302821FF302821FF302821FF302821FF302821FF302821FF302821FFFFFF00FF302821FF302821FF302821FF302821FF302821FF302821FF302821FF302821FF30
310
2821FFFFFF00FFFFFF00FFFFFF00FFFFFF00FFFFFF00FFFFFF00FFFFFF00FFFFFF00FFFFFF00FFFFFF00FF302821FF302821FF302821FF302821FF302821FF302821FF302821FF302821FF302821FF302821FF302821FF302821FF302821FFFFFF00FF302821FF302821FF302821FF302821FF302821FF302821FF302821FF
310
302821FFFFFF00FFFFFF00FFFFFF00FFFFFF00FFFFFF00FFFFFF00FFFFFF00FFFFFF00FFFFFF00FF302821FF302821FF302821FF302821FF302821FF302821FF302821FF302821FF302821FF302821FF302821FF302821FF302821FF302821FF302821FFFFFF00FFFFFF00FF302821FF302821FF302821FF302821FF302821
310
FF302821FFFFFF00FFFFFF00FFFFFF00FFFFFF00FFFFFF00FFFFFF00FFFFFF00FFFFFF00FF302821FF302821FF302821FF302821FF302821FF302821FF302821FF302821FF302821FF302821FF302821FF302821FF302821FF302821FF302821FF302821FF302821FF302821FFFFFF00FFFFFF00FFFFFF00FFFFFF00FFFFFF
310
00FF302821FFFFFF00FFFFFF00FFFFFF00FFFFFF00FFFFFF00FFFFFF00FF302821FF302821FF302821FF302821FF302821FF302821FF302821FF302821FF302821FF302821FF302821FF302821FF302821FF302821FF302821FF302821FF302821FF302821FF302821FF302821FF302821FF302821FF302821FF302821FF30
310
2821FFFFFF00FFFFFF00FFFFFF00FF302821FF302821FF302821FF302821FF302821FF302821FF302821FF302821FF302821FF302821FF302821FF302821FF302821FF302821FF302821FF302821FF302821FF302821FF302821FF302821FF302821FF302821FF302821FF302821FF302821FF302821FF302821FF302821FF
310
302821FF302821FF302821FF302821FF302821FF302821FF302821FF302821FF302821FF302821FF302821FF302821FF302821FF302821FF302821FF302821FF302821FF302821FF
102
{BLKREFS
331
20A18
102
}
  0
BLOCK_RECORD
  5
20CA5
102
{ACAD_XDICTIONARY
360
20CA6
102
}
330
1
100
AcDbSymbolTableRecord
100
AcDbBlockTableRecord
  2
Name
340
0
310
28000000200000002000000001002000000000000010000001000000010000000000000000000000302821FF302821FF302821FF302821FF302821FF302821FF302821FF302821FF302821FF302821FF302821FF302821FF302821FF302821FF302821FF302821FF302821FF302821FF302821FF302821FF302821FF302821
310
FF302821FF302821FF302821FF302821FF302821FF302821FF302821FF302821FF302821FF302821FF302821FF302821FF302821FF302821FF302821FF302821FF302821FF302821FF302821FF302821FF302821FF302821FF302821FF302821FF302821FF302821FF302821FF302821FF302821FF302821FF302821FF3028
310
21FF302821FF302821FF302821FF302821FF302821FF302821FF302821FF302821FF302821FF302821FF302821FF302821FF302821FF302821FF302821FF302821FF302821FF302821FF302821FF302821FF302821FF302821FF302821FF302821FF302821FF302821FF302821FF302821FF302821FF302821FF302821FF30
310
2821FF302821FF302821FF302821FF302821FF302821FF302821FF302821FF302821FF302821FF302821FF302821FF302821FF302821FF302821FF302821FF302821FF302821FF302821FF302821FF302821FF302821FF302821FF302821FF302821FF302821FF302821FF302821FF302821FF302821FF302821FF302821FF
310
302821FF302821FF302821FF302821FF302821FF302821FF302821FF302821FF302821FF302821FF302821FF302821FF302821FF302821FF302821FF302821FF302821FF302821FF302821FF302821FF302821FF302821FF302821FF302821FF302821FF302821FF302821FF302821FF302821FF302821FF302821FF302821
310
FF302821FF302821FF302821FF302821FF302821FF302821FF302821FF302821FF302821FF302821FF302821FF302821FF302821FF302821FF302821FF302821FF302821FF302821FF302821FF302821FF302821FF302821FF302821FF302821FF302821FF302821FF302821FF302821FF302821FF302821FF302821FF3028
310
21FF302821FF302821FF302821FF302821FF302821FF302821FF302821FF302821FF302821FF302821FF302821FF302821FF302821FF302821FF302821FF302821FF302821FF302821FF302821FF302821FF302821FF302821FF302821FF302821FF302821FF302821FF302821FF302821FF302821FF302821FF302821FF30
310
2821FF302821FF302821FF302821FF302821FF302821FF302821FF302821FF302821FF302821FF302821FF302821FF302821FF302821FF302821FF302821FF302821FF302821FF302821FF302821FF302821FF302821FF302821FF302821FF302821FF302821FF302821FF302821FF302821FF302821FF302821FF302821FF
310
302821FF302821FF302821FF302821FF302821FF302821FF302821FF302821FF302821FF302821FF302821FF302821FF302821FF302821FF302821FF302821FF302821FF302821FF302821FF302821FF302821FF302821FF302821FF302821FF302821FF302821FF302821FF302821FF302821FF302821FF302821FF302821
310
FF302821FF302821FF302821FF302821FF302821FF302821FF302821FF302821FF302821FF302821FF302821FF302821FF302821FF302821FF302821FF302821FF302821FF302821FF302821FF302821FF302821FF302821FF302821FF302821FF302821FF302821FF302821FF302821FF302821FF302821FF302821FF3028
310
21FF302821FF302821FF302821FF302821FF302821FF302821FF302821FF302821FF302821FF302821FF302821FF302821FF302821FF302821FFFF0000FFFF0000FF302821FF302821FFFF0000FFFF0000FFFF0000FFFF0000FFFF0000FF302821FF302821FF302821FF302821FFFF0000FFFF0000FFFF0000FFFF0000FFFF
310
0000FFFF0000FFFF0000FFFF0000FF302821FFFF0000FFFF0000FFFF0000FFFF0000FFFF0000FFFF0000FF302821FF302821FF302821FF302821FFFF0000FFFF0000FF302821FF302821FFFF0000FFFF0000FFFF0000FFFF0000FFFF0000FF302821FF302821FF302821FF302821FFFF0000FFFF0000FFFF0000FFFF0000FF
310
FF0000FFFF0000FFFF0000FFFF0000FF302821FFFF0000FFFF0000FFFF0000FFFF0000FFFF0000FFFF0000FF302821FF302821FF302821FF302821FFFF0000FFFF0000FF302821FFFF0000FFFF0000FFFF0000FFFF0000FFFF0000FFFF0000FF302821FF302821FF302821FFFF0000FFFF0000FFFF0000FFFF0000FFFF0000
310
FFFF0000FFFF0000FFFF0000FFFF0000FF302821FFFF0000FFFF0000FFFF0000FFFF0000FFFF0000FFFF0000FF302821FF302821FF302821FF302821FFFF0000FFFF0000FF302821FFFF0000FFFF0000FFFF0000FFFF0000FFFF0000FFFF0000FFFF0000FFFF0000FFFF0000FFFF0000FFFF0000FFFF0000FFFF0000FFFF00
310
00FFFF0000FFFF0000FFFF0000FFFF0000FF302821FFFF0000FFFF0000FF302821FF302821FF302821FF302821FF302821FF302821FF302821FF302821FFFF0000FFFF0000FF302821FFFF0000FFFF0000FFFF0000FFFF0000FFFF0000FFFF0000FFFF0000FFFF0000FFFF0000FFFF0000FFFF0000FFFF0000FFFF0000FFFF
310
0000FFFF0000FFFF0000FFFF0000FFFF0000FF302821FFFF0000FFFF0000FF302821FF302821FF302821FF302821FF302821FF302821FF302821FF302821FFFF0000FFFF0000FFFF0000FFFF0000FFFF0000FFFF0000FFFF0000FFFF0000FFFF0000FFFF0000FFFF0000FFFF0000FFFF0000FF302821FFFF0000FFFF0000FF
310
FF0000FF302821FFFF0000FFFF0000FFFF0000FF302821FFFF0000FFFF0000FFFF0000FFFF0000FFFF0000FF302821FF302821FF302821FF302821FF302821FFFF0000FFFF0000FFFF0000FFFF0000FFFF0000FFFF0000FFFF0000FF302821FFFF0000FFFF0000FF302821FFFF0000FFFF0000FF302821FFFF0000FFFF0000
310
FFFF0000FF302821FFFF0000FFFF0000FFFF0000FF302821FFFF0000FFFF0000FFFF0000FFFF0000FFFF0000FF302821FF302821FF302821FF302821FF302821FFFF0000FFFF0000FFFF0000FFFF0000FF302821FFFF0000FFFF0000FF302821FFFF0000FFFF0000FFFF0000FFFF0000FFFF0000FF302821FFFF0000FFFF00
310
00FFFF0000FF302821FFFF0000FFFF0000FFFF0000FF302821FFFF0000FFFF0000FFFF0000FFFF0000FFFF0000FF302821FF302821FF302821FF302821FF302821FFFF0000FFFF0000FFFF0000FFFF0000FF302821FFFF0000FFFF0000FF302821FFFF0000FFFF0000FFFF0000FFFF0000FFFF0000FF302821FFFF0000FFFF
310
0000FFFF0000FF302821FF302821FFFF0000FFFF0000FF302821FFFF0000FFFF0000FF302821FF302821FF302821FF302821FF302821FF302821FF302821FF302821FFFF0000FFFF0000FFFF0000FF302821FF302821FFFF0000FFFF0000FF302821FF302821FFFF0000FFFF0000FFFF0000FF302821FF302821FFFF0000FF
310
FF0000FF302821FF302821FF302821FFFF0000FFFF0000FF302821FFFF0000FFFF0000FFFF0000FFFF0000FFFF0000FF302821FF302821FF302821FF302821FF302821FFFF0000FFFF0000FFFF0000FF302821FF302821FFFF0000FFFF0000FF302821FF302821FFFF0000FFFF0000FFFF0000FF302821FF302821FFFF0000
310
FFFF0000FF302821FF302821FF302821FFFF0000FFFF0000FF302821FFFF0000FFFF0000FFFF0000FFFF0000FFFF0000FF302821FF302821FF302821FF302821FF302821FF302821FF302821FF302821FF302821FF302821FF302821FF302821FF302821FF302821FF302821FF302821FF302821FF302821FF302821FF3028
310
21FF302821FF302821FF302821FF302821FF302821FF302821FF302821FF302821FF302821FF302821FF302821FF302821FF302821FF302821FF302821FF302821FF302821FF302821FF302821FF302821FF302821FF302821FF302821FF302821FF302821FF302821FF302821FF302821FF302821FF302821FF302821FF30
310
2821FF302821FF302821FF302821FF302821FF302821FF302821FF302821FF302821FF302821FF302821FF302821FF302821FF302821FF302821FF302821FF302821FF302821FF302821FF302821FF302821FF302821FF302821FF302821FF302821FF302821FF302821FF302821FF302821FF302821FF302821FF302821FF
310
302821FF302821FF302821FF302821FF302821FF302821FF302821FF302821FF302821FF302821FF302821FF302821FF302821FF302821FF302821FF302821FF302821FF302821FF302821FF302821FF302821FF302821FF302821FF302821FF302821FF302821FF302821FF302821FF302821FF302821FF302821FF302821
310
FF302821FF302821FF302821FF302821FF302821FF302821FF302821FF302821FF302821FF302821FF302821FF302821FF302821FF302821FF302821FF302821FF302821FF302821FF302821FF302821FF302821FF302821FF302821FF302821FF302821FF302821FF302821FF302821FF302821FF302821FF302821FF3028
310
21FF302821FF302821FF302821FF302821FF302821FF302821FF302821FF302821FF302821FF302821FF302821FF302821FF302821FF302821FF302821FF302821FF302821FF302821FF302821FF302821FF302821FF302821FF302821FF302821FF302821FF302821FF302821FF302821FF302821FF302821FF302821FF30
310
2821FF302821FF302821FF302821FF302821FF302821FF302821FF302821FF302821FF302821FF302821FF302821FF302821FF302821FF302821FF302821FF302821FF302821FF302821FF302821FF302821FF302821FF302821FF302821FF302821FF302821FF302821FF302821FF302821FF302821FF302821FF302821FF
310
302821FF302821FF302821FF302821FF302821FF302821FF302821FF302821FF302821FF302821FF302821FF302821FF302821FF302821FF302821FF302821FF302821FF302821FF302821FF302821FF302821FF302821FF302821FF302821FF302821FF302821FF302821FF302821FF302821FF302821FF302821FF302821
310
FF302821FF302821FF302821FF302821FF302821FF302821FF302821FF302821FF302821FF302821FF302821FF302821FF302821FF302821FF302821FF302821FF302821FF302821FF302821FF302821FF302821FF302821FF302821FF302821FF302821FF302821FF302821FF302821FF302821FF302821FF302821FF3028
310
21FF302821FF302821FF302821FF302821FF302821FF302821FF302821FF302821FF302821FF302821FF302821FF302821FF302821FF302821FF302821FF302821FF302821FF302821FF302821FF302821FF302821FF302821FF302821FF302821FF302821FF302821FF302821FF302821FF302821FF302821FF302821FF30
310
2821FF302821FF302821FF302821FF302821FF302821FF302821FF302821FF302821FF302821FF302821FF302821FF302821FF302821FF302821FF302821FF302821FF302821FF302821FF302821FF302821FF302821FF302821FF302821FF302821FF302821FF302821FF302821FF302821FF302821FF302821FF302821FF
310
302821FF302821FF302821FF302821FF302821FF302821FF302821FF302821FF302821FF302821FF302821FF302821FF302821FF302821FF302821FF302821FF302821FF302821FF
102
{BLKREFS
331
20CC2
102
}
1001
AcDbDynamicBlockGUID
1000
{15A9DAFA-FD13-4556-B9B1-5A71F15CF06E}
  0
BLOCK_RECORD
  5
20D5A
330
1
100
AcDbSymbolTableRecord
100
AcDbBlockTableRecord
  2
NOCUT
340
0
310
2800000020000000200000000100080000000000000400000000000000000000000000000000000000000000000080000080000000808000800000008000800080800000C0C0C000C0DCC000F0CAA6000020400000206000002080000020A0000020C0000020E00000400000004020000040400000406000004080000040A0
310
000040C0000040E00000600000006020000060400000606000006080000060A0000060C0000060E00000800000008020000080400000806000008080000080A0000080C0000080E00000A0000000A0200000A0400000A0600000A0800000A0A00000A0C00000A0E00000C0000000C0200000C0400000C0600000C0800000C0
310
A00000C0C00000C0E00000E0000000E0200000E0400000E0600000E0800000E0A00000E0C00000E0E00040000000400020004000400040006000400080004000A0004000C0004000E00040200000402020004020400040206000402080004020A0004020C0004020E000404000004040200040404000404060004040800040
310
40A0004040C0004040E00040600000406020004060400040606000406080004060A0004060C0004060E00040800000408020004080400040806000408080004080A0004080C0004080E00040A0000040A0200040A0400040A0600040A0800040A0A00040A0C00040A0E00040C0000040C0200040C0400040C0600040C08000
310
40C0A00040C0C00040C0E00040E0000040E0200040E0400040E0600040E0800040E0A00040E0C00040E0E00080000000800020008000400080006000800080008000A0008000C0008000E00080200000802020008020400080206000802080008020A0008020C0008020E00080400000804020008040400080406000804080
310
008040A0008040C0008040E00080600000806020008060400080606000806080008060A0008060C0008060E00080800000808020008080400080806000808080008080A0008080C0008080E00080A0000080A0200080A0400080A0600080A0800080A0A00080A0C00080A0E00080C0000080C0200080C0400080C0600080C0
310
800080C0A00080C0C00080C0E00080E0000080E0200080E0400080E0600080E0800080E0A00080E0C00080E0E000C0000000C0002000C0004000C0006000C0008000C000A000C000C000C000E000C0200000C0202000C0204000C0206000C0208000C020A000C020C000C020E000C0400000C0402000C0404000C0406000C0
310
408000C040A000C040C000C040E000C0600000C0602000C0604000C0606000C0608000C060A000C060C000C060E000C0800000C0802000C0804000C0806000C0808000C080A000C080C000C080E000C0A00000C0A02000C0A04000C0A06000C0A08000C0A0A000C0A0C000C0A0E000C0C00000C0C02000C0C04000C0C06000
310
C0C08000C0C0A000F0FBFF00A4A0A000808080000000FF0000FF000000FFFF00FF000000FF00FF00FFFF0000FFFFFF0048484848484848484848484848484848484848484848484848484848484848484848484848484848484848484848484848484848484848484848484848484848484848484848484848484848484848
310
48484848484848484848484848484848484848484848484848484848484848484848484848484848484848484848484848484848484848484848484848484848484848484848484848484848484848484848484848484848484848484848484848484848484848484848484848484848484848484848484848484848484848
310
48484848484848484848484848484848484848484848484848484848484848484848484848484848484848484848484848484848484848484848484848484848484848484848484848484848484848484848484848484848484848484848484848484848484848484848484848484848484848FFFFFFFFFFFFFFFFFFFFFFFF
310
FFFFFFFFFFFFFFFFFFFFFFFFFFFFFFFFFFFF4848FF48484848484848484848484848484848484848484848484848484848FF4848FF48484848484848484848484848484848484848484848484848484848FF4848FF48484848484848484848484848484848484848484848484848484848FF4848FF48484848484848484848
310
484848484848484848484848484848484848FF4848FF484848484848484848484848484848484848484848484848484848FFFF4848FF48484848484848484848484848484848484848484848484848FFFF48484848FF4848484848484848484848484848484848484848484848FFFF484848484848FF484848484848484848
310
484848484848484848484848FFFF4848484848484848FF48484848484848484848484848484848484848FFFF48484848484848484848FF4848484848484848484848484848484848FFFF484848484848484848484848FFFFFFFFFFFFFFFFFFFFFFFFFFFFFFFFFFFF4848484848484848484848484848484848484848484848
310
48484848484848484848484848484848484848484848484848484848484848484848484848484848484848484848484848484848484848484848484848484848484848484848484848484848484848484848484848484848484848484848484848484848484848484848484848484848484848484848484848484848484848
310
48484848484848484848484848484848484848484848484848484848484848484848484848484848484848484848484848484848484848484848484848484848484848484848484848484848484848484848484848484848484848484848484848484848484848484848484848484848484848484848484848484848484848
310
4848484848484848484848484848484848484848484848484848484848484848484848484848484848484848484848484848484848484848
102
{BLKREFS
331
20EC5
102
}
1001
ACAD
1000
DesignCenter Data
1002
{
1070
     1
1070
     4
1002
}
  0
BLOCK_RECORD
  5
20EC6
330
1
100
AcDbSymbolTableRecord
100
AcDbBlockTableRecord
  2
*D26
340
0
  0
BLOCK_RECORD
  5
20ED3
330
1
100
AcDbSymbolTableRecord
100
AcDbBlockTableRecord
  2
*D27
340
0
  0
BLOCK_RECORD
  5
20EE0
330
1
100
AcDbSymbolTableRecord
100
AcDbBlockTableRecord
  2
*D28
340
0
  0
BLOCK_RECORD
  5
20EEE
330
1
100
AcDbSymbolTableRecord
100
AcDbBlockTableRecord
  2
*D29
340
0
  0
BLOCK_RECORD
  5
20F0E
330
1
100
AcDbSymbolTableRecord
100
AcDbBlockTableRecord
  2
*D30
340
0
  0
ENDTAB
  0
ENDSEC
  0
SECTION
  2
BLOCKS
  0
BLOCK
  5
20
330
1F
100
AcDbEntity
  8
0
100
AcDbBlockBegin
  2
*MODEL_SPACE
 70
     0
 10
0.0
 20
0.0
 30
0.0
  3
*MODEL_SPACE
  1

  0
ENDBLK
  5
21
330
1F
100
AcDbEntity
  8
0
100
AcDbBlockEnd
  0
BLOCK
  5
1C
330
1B
100
AcDbEntity
 67
     1
  8
0
100
AcDbBlockBegin
  2
*PAPER_SPACE
 70
     0
 10
0.0
 20
0.0
 30
0.0
  3
*PAPER_SPACE
  1

  0
ENDBLK
  5
1D
330
1B
100
AcDbEntity
 67
     1
  8
0
100
AcDbBlockEnd
  0
BLOCK
  5
1B3D8
330
1B3D7
100
AcDbEntity
  8
0
100
AcDbBlockBegin
  2
cero_point
 70
     0
 10
0.0
 20
0.0
 30
0.0
  3
cero_point
  1

  0
HATCH
  5
1B3DA
330
1B3D7
100
AcDbEntity
  8
1
  6
ByBlock
370
    50
100
AcDbHatch
 10
0.0
 20
0.0
 30
0.0
210
0.0
220
0.0
230
1.0
  2
SOLID
 70
     1
 71
     0
 91
        2
 92
        7
 72
     1
 73
     1
 93
        3
 10
-0.0000000000001137
 20
0.0
 42
0.0
 10
-2.950972054112752
 20
0.0
 42
0.4142135623730968
 10
-0.0000000000001137
 20
-2.950972054112583
 42
0.0
 97
        0
 92
        7
 72
     1
 73
     1
 93
        3
 10
-0.0000000000001137
 20
2.950972054112638
 42
0.0
 10
-0.0000000000001137
 20
0.0
 42
0.0
 10
2.950972054112526
 20
0.0
 42
0.4142135623730966
 97
        0
 75
     0
 76
     1
 47
0.1190009775223266
 98
        2
 10
-0.7445530588121301
 20
-0.9212244733764125
 10
1.279464601852737
 20
1.696796923046345
  0
LWPOLYLINE
  5
1B3DB
330
1B3D7
100
AcDbEntity
  8
1
  6
ByBlock
370
    50
100
AcDbPolyline
 90
        3
 70
     1
 43
0.0
 10
-0.0000000000001137
 20
0.0
 10
2.950972054112526
 20
0.0
 42
0.4142135623730966
 10
-0.0000000000001137
 20
2.950972054112638
  0
LINE
  5
1B3DC
330
1B3D7
100
AcDbEntity
  8
1
  6
ByBlock
370
    50
100
AcDbLine
 10
-0.0000000000001137
 20
-2.950972054112583
 30
0.0
 11
-0.0000000000001137
 21
2.950972054112638
 31
0.0
  0
LWPOLYLINE
  5
1B3DD
330
1B3D7
100
AcDbEntity
  8
1
  6
ByBlock
370
    50
100
AcDbPolyline
 90
        3
 70
     1
 43
0.0
 10
-0.0000000000001137
 20
-2.950972054112583
 10
-0.0000000000001137
 20
0.0
 10
-2.950972054112752
 20
0.0
 42
0.4142135623730966
  0
LINE
  5
1B3DE
330
1B3D7
100
AcDbEntity
  8
1
  6
ByBlock
370
    50
100
AcDbLine
 10
2.950972054112638
 20
0.0
 30
0.0
 11
-2.950972054112638
 21
0.0
 31
0.0
  0
CIRCLE
  5
1B3DF
330
1B3D7
100
AcDbEntity
  8
1
  6
ByBlock
370
    50
100
AcDbCircle
 10
-0.0000000000001137
 20
0.0
 30
0.0
 40
2.950972054112601
  0
ENDBLK
  5
1B3D9
330
1B3D7
100
AcDbEntity
  8
0
100
AcDbBlockEnd
  0
BLOCK
  5
20CA7
330
20CA5
100
AcDbEntity
  8
0
100
AcDbBlockBegin
  2
Name
 70
     2
 10
0.0
 20
0.0
 30
0.0
  3
Name
  1

  0
ATTDEF
  5
20CA8
102
{ACAD_XDICTIONARY
360
20CA9
102
}
330
20CA5
100
AcDbEntity
  8
SKVIEW63
100
AcDbText
 10
0.0905073844082551
 20
0.0474757964751689
 30
0.0
 40
3.5
  1
45Z03208TQRA15
 41
0.8
  7
BMG_Text
100
AcDbAttributeDefinition
  3
identisch mit Dateiname
  2
NAME
 70
     4
  0
ENDBLK
  5
20CAD
330
20CA5
100
AcDbEntity
  8
0
100
AcDbBlockEnd
  0
BLOCK
  5
20D5B
330
20D5A
100
AcDbEntity
  8
0
100
AcDbBlockBegin
  2
NOCUT
 70
     0
 10
0.0
 20
0.0
 30
0.0
  3
NOCUT
  1

  0
LINE
  5
20D5C
330
20D5A
100
AcDbEntity
  8
NOCUT
100
AcDbLine
 10
10.38990458232884
 20
-0.0000000000000012
 30
0.0
 11
10.38990458232884
 21
1.631846383383538
 31
0.0
  0
LINE
  5
20D5D
330
20D5A
100
AcDbEntity
  8
NOCUT
100
AcDbLine
 10
10.38990458232884
 20
1.631846383383538
 30
0.0
 11
5.88822543634876
 21
3.999999999961423
 31
0.0
  0
LINE
  5
20D5E
330
20D5A
100
AcDbEntity
  8
NOCUT
100
AcDbLine
 10
5.88822543634876
 20
3.999999999961423
 30
0.0
 11
0.0
 21
3.999999999947662
 31
0.0
  0
LINE
  5
20D5F
330
20D5A
100
AcDbEntity
  8
NOCUT
100
AcDbLine
 10
0.0
 20
3.999999999947662
 30
0.0
 11
0.000000000003638
 21
0.0
 31
0.0
  0
LINE
  5
20D60
330
20D5A
100
AcDbEntity
  8
NOCUT
100
AcDbLine
 10
0.000000000003638
 20
0.0
 30
0.0
 11
10.38990458232884
 21
-0.0000000000000012
 31
0.0
  0
ENDBLK
  5
20D61
330
20D5A
100
AcDbEntity
  8
0
100
AcDbBlockEnd
  0
BLOCK
  5
20EC7
330
20EC6
100
AcDbEntity
  8
0
100
AcDbBlockBegin
  2
*D26
 70
     1
 10
0.0
 20
0.0
 30
0.0
  3
*D26
  1

  0
LINE
  5
21006
330
20EC6
100
AcDbEntity
  8
2
 62
     0
370
    -2
100
AcDbLine
 10
14.98990458232887
 20
0.0624999999999734
 30
0.0
 11
14.98990458232887
 21
13.99188573409505
 31
0.0
  0
LINE
  5
21007
330
20EC6
100
AcDbEntity
  8
2
 62
     0
370
    -2
100
AcDbLine
 10
10.38990458232888
 20
1.776825775626074
 30
0.0
 11
10.38990458232888
 21
13.99188573409505
 31
0.0
  0
LINE
  5
21008
330
20EC6
100
AcDbEntity
  8
2
 62
     0
370
    -2
100
AcDbLine
 10
19.55990458232887
 20
13.81188573409505
 30
0.0
 11
24.12990458232888
 21
13.81188573409505
 31
0.0
  0
LINE
  5
21009
330
20EC6
100
AcDbEntity
  8
2
 62
     0
370
    -2
100
AcDbLine
 10
5.819904582328881
 20
13.81188573409505
 30
0.0
 11
-9.297256345288827
 21
13.81188573409505
 31
0.0
  0
LINE
  5
2100A
330
20EC6
100
AcDbEntity
  8
2
 62
     0
370
    -2
100
AcDbLine
 10
14.98990458232887
 20
13.81188573409505
 30
0.0
 11
10.38990458232888
 21
13.81188573409505
 31
0.0
  0
SOLID
  5
2100B
330
20EC6
100
AcDbEntity
  8
2
 62
     0
100
AcDbTrace
 10
19.55990458232887
 20
14.57355240076172
 30
0.0
 11
19.55990458232887
 21
13.05021906742838
 31
0.0
 12
14.98990458232887
 22
13.81188573409505
 32
0.0
 13
14.98990458232887
 23
13.81188573409505
 33
0.0
  0
SOLID
  5
2100C
330
20EC6
100
AcDbEntity
  8
2
 62
     0
100
AcDbTrace
 10
5.819904582328881
 20
14.57355240076172
 30
0.0
 11
5.819904582328881
 21
13.05021906742838
 31
0.0
 12
10.38990458232888
 22
13.81188573409505
 32
0.0
 13
10.38990458232888
 23
13.81188573409505
 33
0.0
  0
MTEXT
  5
2100D
330
20EC6
100
AcDbEntity
  8
2
 62
     0
100
AcDbMText
 10
-5.781536036082924
 20
15.71337554435506
 30
0.0
 40
3.5
 41
0.0
 71
     5
 72
     1
  1
\A1;4.6
 73
     1
 44
1.0
1001
ACAD
1000
MTEXTBEGIN
1070
    73
1070
     1
1070
    44
1040
1.0
1070
    74
1070
     0
1000
MTEXTEND
  0
POINT
  5
2100E
330
20EC6
100
AcDbEntity
  8
Defpoints
 62
     0
100
AcDbPoint
 10
14.98990458232887
 20
-0.0000000000000266
 30
0.0
  0
POINT
  5
2100F
330
20EC6
100
AcDbEntity
  8
Defpoints
 62
     0
100
AcDbPoint
 10
10.38990458232888
 20
1.714325775626074
 30
0.0
  0
POINT
  5
21010
330
20EC6
100
AcDbEntity
  8
Defpoints
 62
     0
100
AcDbPoint
 10
10.38990458232888
 20
13.81188573409505
 30
0.0
  0
ENDBLK
  5
20EC8
330
20EC6
100
AcDbEntity
  8
0
100
AcDbBlockEnd
  0
BLOCK
  5
20ED4
330
20ED3
100
AcDbEntity
  8
0
100
AcDbBlockBegin
  2
*D27
 70
     1
 10
0.0
 20
0.0
 30
0.0
  3
*D27
  1

  0
LINE
  5
20FD3
330
20ED3
100
AcDbEntity
  8
2
 62
     0
370
    -2
100
AcDbLine
 10
14.24763743009213
 20
1.639999999999973
 30
0.0
 11
33.00278685086935
 21
1.639999999999968
 31
0.0
  0
LINE
  5
20FD4
330
20ED3
100
AcDbEntity
  8
2
 62
     0
370
    -2
100
AcDbLine
 10
14.24763743009213
 20
-1.64000000000002
 30
0.0
 11
33.00278685086935
 21
-1.640000000000025
 31
0.0
  0
LINE
  5
20FD5
330
20ED3
100
AcDbEntity
  8
2
 62
     0
370
    -2
100
AcDbLine
 10
32.82278685086935
 20
6.209999999999968
 30
0.0
 11
32.82278685086935
 21
10.77999999999997
 31
0.0
  0
LINE
  5
20FD6
330
20ED3
100
AcDbEntity
  8
2
 62
     0
370
    -2
100
AcDbLine
 10
32.82278685086935
 20
-6.210000000000025
 30
0.0
 11
32.82278685086934
 21
-20.21790583274774
 31
0.0
  0
LINE
  5
20FD7
330
20ED3
100
AcDbEntity
  8
2
 62
     0
370
    -2
100
AcDbLine
 10
32.82278685086935
 20
1.639999999999968
 30
0.0
 11
32.82278685086935
 21
-1.640000000000025
 31
0.0
  0
SOLID
  5
20FD8
330
20ED3
100
AcDbEntity
  8
2
 62
     0
100
AcDbTrace
 10
32.06112018420268
 20
6.209999999999968
 30
0.0
 11
33.58445351753602
 21
6.209999999999968
 31
0.0
 12
32.82278685086935
 22
1.639999999999968
 32
0.0
 13
32.82278685086935
 23
1.639999999999968
 33
0.0
  0
SOLID
  5
20FD9
330
20ED3
100
AcDbEntity
  8
2
 62
     0
100
AcDbTrace
 10
32.06112018420268
 20
-6.210000000000025
 30
0.0
 11
33.58445351753602
 21
-6.210000000000025
 31
0.0
 12
32.82278685086935
 22
-1.640000000000025
 32
0.0
 13
32.82278685086935
 23
-1.640000000000025
 33
0.0
  0
MTEXT
  5
20FDA
330
20ED3
100
AcDbEntity
  8
2
 62
     0
100
AcDbMText
 10
30.92129704060934
 20
-15.49895291637388
 30
0.0
 40
3.5
 41
0.0
 71
     5
 72
     1
  1
\A1;3.28
 11
0.0000000000000001
 21
1.0
 31
0.0
 73
     1
 44
1.0
1001
ACAD
1000
MTEXTBEGIN
1070
    73
1070
     1
1070
    44
1040
1.0
1070
    74
1070
     0
1000
MTEXTEND
  0
POINT
  5
20FDB
330
20ED3
100
AcDbEntity
  8
Defpoints
 62
     0
100
AcDbPoint
 10
14.18513743009213
 20
1.639999999999973
 30
0.0
  0
POINT
  5
20FDC
330
20ED3
100
AcDbEntity
  8
Defpoints
 62
     0
100
AcDbPoint
 10
14.18513743009213
 20
-1.64000000000002
 30
0.0
  0
POINT
  5
20FDD
330
20ED3
100
AcDbEntity
  8
Defpoints
 62
     0
100
AcDbPoint
 10
32.82278685086935
 20
-1.640000000000025
 30
0.0
  0
ENDBLK
  5
20ED5
330
20ED3
100
AcDbEntity
  8
0
100
AcDbBlockEnd
  0
BLOCK
  5
20EE1
330
20EE0
100
AcDbEntity
  8
0
100
AcDbBlockBegin
  2
*D28
 70
     1
 10
0.0
 20
0.0
 30
0.0
  3
*D28
  1

  0
LINE
  5
20FBF
330
20EE0
100
AcDbEntity
  8
2
 62
     0
370
    -2
100
AcDbLine
 10
15.02221701534567
 20
-0.0541265877365469
 30
0.0
 11
30.79039789428392
 21
-27.36541701299354
 31
0.0
  0
LINE
  5
20FC0
330
20EE0
100
AcDbEntity
  8
2
 62
     0
370
    -2
100
AcDbLine
 10
15.02221701534567
 20
0.0541265877365079
 30
0.0
 11
30.79039789428384
 21
27.36541701299354
 31
0.0
  0
ARC
  5
20FC1
330
20EE0
100
AcDbEntity
  8
2
 62
     0
370
    -2
100
AcDbCircle
 10
14.99096701534567
 20
-0.0000000000000195
 30
0.0
 40
31.41886175787638
100
AcDbArc
 50
308.3412661009577
 51
51.65873389904247
  0
SOLID
  5
20FC2
330
20EE0
100
AcDbEntity
  8
2
 62
     0
100
AcDbTrace
 10
34.90926945079634
 20
-25.27292811007557
 30
0.0
 11
34.05367498928644
 21
-24.01257000148974
 31
0.0
 12
30.70039789428392
 22
-27.20953244031234
 32
0.0
 13
30.70039789428392
 23
-27.20953244031234
 33
0.0
  0
SOLID
  5
20FC3
330
20EE0
100
AcDbEntity
  8
2
 62
     0
100
AcDbTrace
 10
34.05367498928638
 20
24.01257000148976
 30
0.0
 11
34.90926945079627
 21
25.27292811007559
 31
0.0
 12
30.70039789428384
 22
27.20953244031234
 32
0.0
 13
30.70039789428384
 23
27.20953244031234
 33
0.0
  0
MTEXT
  5
20FC4
330
20EE0
100
AcDbEntity
  8
2
 62
     0
100
AcDbMText
 10
44.50833896296204
 20
0.0000000000000312
 30
0.0
 40
3.5
 41
0.0
 71
     5
 72
     1
  1
\A1;120\U+00B0
 11
0.0000000000000001
 21
1.0
 31
0.0
 73
     1
 44
1.0
1001
ACAD
1000
MTEXTBEGIN
1070
    73
1070
     1
1070
    44
1040
1.0
1070
    74
1070
     0
1000
MTEXTEND
  0
POINT
  5
20FC5
330
20EE0
100
AcDbEntity
  8
Defpoints
 62
     0
100
AcDbPoint
 10
44.5150395627147
 20
-10.74588360155822
 30
0.0
  0
POINT
  5
20FC6
330
20EE0
100
AcDbEntity
  8
Defpoints
 62
     0
100
AcDbPoint
 10
14.99096701534567
 20
-0.0000000000000195
 30
0.0
  0
POINT
  5
20FC7
330
20EE0
100
AcDbEntity
  8
Defpoints
 62
     0
100
AcDbPoint
 10
14.99096701534567
 20
-0.0000000000000195
 30
0.0
  0
POINT
  5
20FC8
330
20EE0
100
AcDbEntity
  8
Defpoints
 62
     0
100
AcDbPoint
 10
14.49096701534567
 20
-0.8660254037844605
 30
0.0
  0
POINT
  5
20FC9
330
20EE0
100
AcDbEntity
  8
Defpoints
 62
     0
100
AcDbPoint
 10
14.49096701534567
 20
0.8660254037844143
 30
0.0
  0
ENDBLK
  5
20EE2
330
20EE0
100
AcDbEntity
  8
0
100
AcDbBlockEnd
  0
BLOCK
  5
20EEF
330
20EEE
100
AcDbEntity
  8
0
100
AcDbBlockBegin
  2
*D29
 70
     1
 10
0.0
 20
0.0
 30
0.0
  3
*D29
  1

  0
LINE
  5
20FFD
330
20EEE
100
AcDbEntity
  8
2
 62
     0
370
    -2
100
AcDbLine
 10
14.98990458232888
 20
0.0624999999999698
 30
0.0
 11
14.98990458232888
 21
23.95262600414552
 31
0.0
  0
LINE
  5
20FFE
330
20EEE
100
AcDbEntity
  8
2
 62
     0
370
    -2
100
AcDbLine
 10
0.0000000000000497
 20
4.062499999947638
 30
0.0
 11
0.000000000000051
 21
23.95262600414552
 31
0.0
  0
LINE
  5
20FFF
330
20EEE
100
AcDbEntity
  8
2
 62
     0
370
    -2
100
AcDbLine
 10
10.41990458232888
 20
23.77262600414551
 30
0.0
 11
4.57000000000005
 21
23.77262600414551
 31
0.0
  0
SOLID
  5
21000
330
20EEE
100
AcDbEntity
  8
2
 62
     0
100
AcDbTrace
 10
10.41990458232888
 20
24.53429267081218
 30
0.0
 11
10.41990458232888
 21
23.01095933747885
 31
0.0
 12
14.98990458232888
 22
23.77262600414551
 32
0.0
 13
14.98990458232888
 23
23.77262600414551
 33
0.0
  0
SOLID
  5
21001
330
20EEE
100
AcDbEntity
  8
2
 62
     0
100
AcDbTrace
 10
4.57000000000005
 20
24.53429267081218
 30
0.0
 11
4.57000000000005
 21
23.01095933747885
 31
0.0
 12
0.0000000000000509
 22
23.77262600414551
 32
0.0
 13
0.0000000000000509
 23
23.77262600414551
 33
0.0
  0
MTEXT
  5
21002
330
20EEE
100
AcDbEntity
  8
2
 62
     0
100
AcDbMText
 10
7.494952291164468
 20
25.67411581440553
 30
0.0
 40
3.5
 41
0.0
 71
     5
 72
     1
  1
\A1;15
 73
     1
 44
1.0
1001
ACAD
1000
MTEXTBEGIN
1070
    73
1070
     1
1070
    44
1040
1.0
1070
    74
1070
     0
1000
MTEXTEND
  0
POINT
  5
21003
330
20EEE
100
AcDbEntity
  8
Defpoints
 62
     0
100
AcDbPoint
 10
14.98990458232888
 20
-0.0000000000000302
 30
0.0
  0
POINT
  5
21004
330
20EEE
100
AcDbEntity
  8
Defpoints
 62
     0
100
AcDbPoint
 10
0.0000000000000497
 20
3.999999999947638
 30
0.0
  0
POINT
  5
21005
330
20EEE
100
AcDbEntity
  8
Defpoints
 62
     0
100
AcDbPoint
 10
0.0000000000000509
 20
23.77262600414551
 30
0.0
  0
ENDBLK
  5
20EF0
330
20EEE
100
AcDbEntity
  8
0
100
AcDbBlockEnd
  0
BLOCK
  5
20F0F
330
20F0E
100
AcDbEntity
  8
0
100
AcDbBlockBegin
  2
*D30
 70
     1
 10
0.0
 20
0.0
 30
0.0
  3
*D30
  1

  0
LINE
  5
20FDE
330
20F0E
100
AcDbEntity
  8
2
 62
     0
370
    -2
100
AcDbLine
 10
-0.0624999999999574
 20
3.999999999962215
 30
0.0
 11
-24.27999999999995
 21
3.999999999962221
 31
0.0
  0
LINE
  5
20FDF
330
20F0E
100
AcDbEntity
  8
2
 62
     0
370
    -2
100
AcDbLine
 10
-0.0624999999999574
 20
-3.99999999994768
 30
0.0
 11
-24.27999999999995
 21
-3.999999999947674
 31
0.0
  0
LINE
  5
20FE0
330
20F0E
100
AcDbEntity
  8
2
 62
     0
370
    -2
100
AcDbLine
 10
-24.09999999999995
 20
8.569999999962222
 30
0.0
 11
-24.09999999999995
 21
13.13999999996222
 31
0.0
  0
LINE
  5
20FE1
330
20F0E
100
AcDbEntity
  8
2
 62
     0
370
    -2
100
AcDbLine
 10
-24.09999999999996
 20
-8.569999999947674
 30
0.0
 11
-24.09999999999996
 21
-15.24635277577339
 31
0.0
  0
LINE
  5
20FE2
330
20F0E
100
AcDbEntity
  8
2
 62
     0
370
    -2
100
AcDbLine
 10
-24.09999999999995
 20
3.999999999962221
 30
0.0
 11
-24.09999999999995
 21
-3.999999999947674
 31
0.0
  0
SOLID
  5
20FE3
330
20F0E
100
AcDbEntity
  8
2
 62
     0
100
AcDbTrace
 10
-24.86166666666662
 20
8.569999999962222
 30
0.0
 11
-23.33833333333328
 21
8.569999999962222
 31
0.0
 12
-24.09999999999995
 22
3.999999999962221
 32
0.0
 13
-24.09999999999995
 23
3.999999999962221
 33
0.0
  0
SOLID
  5
20FE4
330
20F0E
100
AcDbEntity
  8
2
 62
     0
100
AcDbTrace
 10
-24.86166666666662
 20
-8.569999999947674
 30
0.0
 11
-23.33833333333329
 21
-8.569999999947674
 31
0.0
 12
-24.09999999999995
 22
-3.999999999947674
 32
0.0
 13
-24.09999999999995
 23
-3.999999999947674
 33
0.0
  0
MTEXT
  5
20FE5
330
20F0E
100
AcDbEntity
  8
2
 62
     0
100
AcDbMText
 10
-26.00148981025997
 20
-14.19317638786053
 30
0.0
 40
3.5
 41
0.0
 71
     5
 72
     1
  1
\A1;8
 11
0.0000000000000001
 21
1.0
 31
0.0
 73
     1
 44
1.0
1001
ACAD
1000
MTEXTBEGIN
1070
    73
1070
     1
1070
    44
1040
1.0
1070
    74
1070
     0
1000
MTEXTEND
  0
POINT
  5
20FE6
330
20F0E
100
AcDbEntity
  8
Defpoints
 62
     0
100
AcDbPoint
 10
0.0000000000000426
 20
3.999999999962215
 30
0.0
  0
POINT
  5
20FE7
330
20F0E
100
AcDbEntity
  8
Defpoints
 62
     0
100
AcDbPoint
 10
0.0000000000000426
 20
-3.99999999994768
 30
0.0
  0
POINT
  5
20FE8
330
20F0E
100
AcDbEntity
  8
Defpoints
 62
     0
100
AcDbPoint
 10
-24.09999999999995
 20
-3.999999999947674
 30
0.0
  0
ENDBLK
  5
20F10
330
20F0E
100
AcDbEntity
  8
0
100
AcDbBlockEnd
  0
ENDSEC
  0
SECTION
  2
ENTITIES
  0
LINE
  5
1FB3A
330
1F
100
AcDbEntity
  8
INFTOTAL
  6
ByBlock
370
    18
100
AcDbLine
 10
-87.00908924057648
 20
42.1242232067748
 30
0.0
 11
-87.00908924057648
 21
-6.808323644426195
 31
0.0
  0
LINE
  5
208E9
330
1F
100
AcDbEntity
  8
INFTOTAL
  6
ByBlock
370
    18
100
AcDbLine
 10
-87.00908924057648
 20
42.1242232067748
 30
0.0
 11
-38.07654238937545
 21
42.1242232067748
 31
0.0
  0
LINE
  5
208EA
330
1F
100
AcDbEntity
  8
INFTOTAL
  6
ByBlock
370
    18
100
AcDbLine
 10
76.09295300378107
 20
-68.1039980203293
 30
0.0
 11
76.09295300378107
 21
-19.17145116912832
 31
0.0
  0
LINE
  5
208EB
330
1F
100
AcDbEntity
  8
INFTOTAL
  6
ByBlock
370
    18
100
AcDbLine
 10
76.09295300378107
 20
-68.1039980203293
 30
0.0
 11
27.16040615257997
 21
-68.1039980203293
 31
0.0
  0
INSERT
  5
20A18
330
1F
100
AcDbEntity
  8
2
100
AcDbBlockReference
  2
cero_point
 10
-0.0000000000000569
 20
0.0
 30
0.0
 41
0.5
 42
0.5
 43
0.5
  0
INSERT
  5
20CC2
330
1F
100
AcDbEntity
  8
0
100
AcDbBlockReference
 66
     1
  2
Name
 10
-9.937955797917766
 20
-42.648338140644
 30
0.0
  0
ATTRIB
  5
20CC3
102
{ACAD_XDICTIONARY
360
20CC4
102
}
330
20CC2
100
AcDbEntity
  8
SKVIEW63
100
AcDbText
 10
-9.847448413509511
 20
-42.60086234416883
 30
0.0
 40
3.5
  1
45Z03208TQRA15
 41
0.8
  7
BMG_Text
100
AcDbAttribute
  2
NAME
 70
     0
  0
SEQEND
  5
20CC8
330
20CC2
100
AcDbEntity
  8
0
  0
LINE
  5
20E19
330
1F
100
AcDbEntity
  8
SK4
100
AcDbLine
 10
-7.311549716525561
 20
-0.0000000000000195
 30
0.0
 11
0.0000000000036806
 21
-0.0000000000000195
 31
0.0
  0
LINE
  5
20E1A
330
1F
100
AcDbEntity
  8
1
100
AcDbLine
 10
10.23373199998374
 20
1.690625540225889
 30
0.0
 11
6.235727534556929
 21
3.816557546076731
 31
0.0
  0
LINE
  5
20E1B
330
1F
100
AcDbEntity
  8
1
100
AcDbLine
 10
10.2386654336406
 20
-1.690648443793035
 30
0.0
 11
6.24050928027681
 21
-3.816700306372345
 31
0.0
  0
LINE
  5
20E1C
330
1F
100
AcDbEntity
  8
1
100
AcDbLine
 10
0.0000000000000426
 20
3.786596977891457
 30
0.0
 11
0.0000000000000426
 21
-1.289062964724065
 31
0.0
  0
LINE
  5
20E1D
102
{ACAD_REACTORS
330
20EB7
102
}
330
1F
100
AcDbEntity
  8
1
100
AcDbLine
 10
0.0000000000000426
 20
3.999999999947641
 30
0.0
 11
0.0000000000000426
 21
3.786596977891457
 31
0.0
  0
LINE
  5
20E1E
102
{ACAD_REACTORS
330
20EBC
102
}
330
1F
100
AcDbEntity
  8
1
100
AcDbLine
 10
0.0000000000000426
 20
-1.289062964724065
 30
0.0
 11
0.0000000000000426
 21
-3.99999999994768
 31
0.0
  0
LWPOLYLINE
  5
20E1F
330
1F
100
AcDbEntity
  8
1
100
AcDbPolyline
 90
       20
 70
     0
 43
0.0
 10
0.6753578186035583
 20
2.190534353256206
 10
0.6408643722534606
 20
2.022213935852031
 10
0.607718467712445
 20
1.845351457595805
 10
0.5778007507324645
 20
1.669986605644206
 10
0.5500726699829528
 20
1.49101710319517
 10
0.5245313644409606
 20
1.308502197265605
 10
0.5012550354004333
 20
1.123034477233867
 10
0.4803113937378356
 20
0.9352265596389575
 10
0.4617538452148864
 20
0.745697677135448
 10
0.4456176757812927
 20
0.5550338625907703
 10
0.431927680969281
 20
0.3638610839843555
 10
0.4206943511963317
 20
0.1728599965572162
 10
0.411917686462445
 20
-0.0173077527433829
 10
0.4055757522583435
 20
-0.2060737162828641
 10
0.4016323089600036
 20
-0.392963051795979
 10
0.4000406265259216
 20
-0.5774048566818433
 10
0.4007902145386169
 20
-0.7612669467926221
 10
0.4038619995117614
 20
-0.944605410099049
 10
0.4090480804443786
 20
-1.119326710701008
 10
0.4162836074829528
 20
-1.289062976837177
  0
LWPOLYLINE
  5
20E20
330
1F
100
AcDbEntity
  8
1
100
AcDbPolyline
 90
       29
 70
     0
 43
0.0
 10
0.9651355743408629
 20
2.449833154678325
 10
0.9560613632202574
 20
2.449680089950541
 10
0.9469861984253356
 20
2.449225902557353
 10
0.9288854598999449
 20
2.447417974472026
 10
0.9110031127930113
 20
2.444443225860576
 10
0.8935575485229918
 20
2.440366983413676
 10
0.8767271041870543
 20
2.435271739959697
 10
0.860566139221234
 20
2.429234266281108
 10
0.8450403213501402
 20
2.42230749130247
 10
0.8301792144775816
 20
2.414573669433574
 10
0.8160572052002379
 20
2.406136035919169
 10
0.8027257919311949
 20
2.39708948135374
 10
0.7901639938354919
 20
2.387492418289165
 10
0.7783241271973083
 20
2.377379417419414
 10
0.7671823501587341
 20
2.36679196357725
 10
0.7567214965820739
 20
2.355776309967021
 10
0.7469272613525817
 20
2.344379901885966
 10
0.737784385681195
 20
2.332650661468486
 10
0.7292823791504333
 20
2.320634365081767
 10
0.7214069366455505
 20
2.308372497558574
 10
0.7141418457031677
 20
2.295900583267192
 10
0.7074680328369567
 20
2.283245801925639
 10
0.7013616561890075
 20
2.270424365997294
 10
0.695792198181195
 20
2.25744104385374
 10
0.6907367706299255
 20
2.244303941726665
 10
0.6861810684204528
 20
2.23102855682371
 10
0.6821088790893981
 20
2.217632055282573
 10
0.6785049438476989
 20
2.204125165939311
 10
0.6753578186035583
 20
2.190534353256206
  0
LINE
  5
20E21
330
1F
100
AcDbEntity
  8
1
100
AcDbLine
 10
3.604738252113335
 20
2.449833156277053
 30
0.0
 11
0.9651352521133418
 21
2.449833156277053
 31
0.0
  0
LWPOLYLINE
  5
20E22
330
1F
100
AcDbEntity
  8
1
100
AcDbPolyline
 90
       21
 70
     0
 43
0.0
 10
3.89451599121098
 20
2.190534353256206
 10
3.889924049377484
 20
2.209778308868388
 10
3.884410858154339
 20
2.228790283203105
 10
3.877941131591839
 20
2.247547626495341
 10
3.870470046997112
 20
2.266019582748393
 10
3.861942291259808
 20
2.284172773361186
 10
3.852275848388714
 20
2.301993131637553
 10
3.841405868530316
 20
2.319426298141459
 10
3.829281806945843
 20
2.33638072013853
 10
3.815862655639691
 20
2.352740287780742
 10
3.801102638244671
 20
2.368375539779643
 10
3.784951210022015
 20
2.383154630660991
 10
3.767338752746624
 20
2.396954774856547
 10
3.748148918151898
 20
2.409663438796977
 10
3.727361679077191
 20
2.421079158782939
 10
3.705113410949749
 20
2.430915355682353
 10
3.681506156921429
 20
2.438927888870219
 10
3.65667247772221
 20
2.444897651672343
 10
3.630974769592327
 20
2.448585510253886
 10
3.617882728576702
 20
2.449523687362651
 10
3.604738235473675
 20
2.449833154678325
  0
LWPOLYLINE
  5
20E23
330
1F
100
AcDbEntity
  8
1
100
AcDbPolyline
 90
       20
 70
     0
 43
0.0
 10
3.89451599121098
 20
2.190534353256206
 10
3.929009437561077
 20
2.022213935852031
 10
3.962154388427777
 20
1.845351457595805
 10
3.992073059082073
 20
1.669986605644206
 10
4.019800186157269
 20
1.49101710319517
 10
4.045342445373577
 20
1.308502197265605
 10
4.068618774414105
 20
1.123034477233867
 10
4.089561462402386
 20
0.9352265596389575
 10
4.108119010925335
 20
0.745697677135448
 10
4.124255180358929
 20
0.5550338625907703
 10
4.137946128845257
 20
0.3638610839843555
 10
4.14917850494389
 20
0.1728599965572162
 10
4.157956123352093
 20
-0.0173077527433829
 10
4.164297103881878
 20
-0.2060737162828641
 10
4.168241500854534
 20
-0.392963051795979
 10
4.1698322296143
 20
-0.5774048566818433
 10
4.169082641601605
 20
-0.7612669467926221
 10
4.166011810302777
 20
-0.944605410099049
 10
4.160824775695843
 20
-1.119326710701008
 10
4.153590202331585
 20
-1.289062976837177
  0
LWPOLYLINE
  5
20E24
330
1F
100
AcDbEntity
  8
1
100
AcDbPolyline
 90
       20
 70
     0
 43
0.0
 10
5.245155334472698
 20
2.008255481719951
 10
5.268668174743694
 20
1.86363410949705
 10
5.289662361145062
 20
1.729633688926677
 10
5.312385559082073
 20
1.580273389816264
 10
5.336209297180218
 20
1.419865012168864
 10
5.359706878662152
 20
1.258599519729594
 10
5.382871627807659
 20
1.097413420677165
 10
5.405838966369671
 20
0.9361183047294421
 10
5.428811073303265
 20
0.7738185524940296
 10
5.451991081237835
 20
0.6093779206275745
 10
5.475519180297894
 20
0.441918551921825
 10
5.499405860900921
 20
0.2713350057601733
 10
5.523476600647015
 20
0.0986904948949619
 10
5.5486164093018
 20
-0.0822834670543866
 10
5.576516151428265
 20
-0.2831133604049878
 10
5.606850624084515
 20
-0.500663042068501
 10
5.63792419433598
 20
-0.7219750285148816
 10
5.667680740356487
 20
-0.9318580031395153
 10
5.69471073150639
 20
-1.120278358459492
 10
5.719259262085003
 20
-1.289062976837177
  0
ARC
  5
20E25
330
1F
100
AcDbEntity
  8
1
100
AcDbCircle
 10
6.699362807186062
 20
2.25240352326425
 30
0.0
 40
1.474344104694984
100
AcDbArc
 50
171.8938440919748
 51
189.5305447909358
  0
LWPOLYLINE
  5
20E26
330
1F
100
AcDbEntity
  8
1
100
AcDbPolyline
 90
       14
 70
     0
 43
0.0
 10
1.189675331115765
 20
3.783010244369487
 10
1.366896629333538
 20
3.742679119110087
 10
1.545252799987835
 20
3.699841737747172
 10
1.905342102050823
 20
3.60709810256956
 10
2.269120216369671
 20
3.505743980407695
 10
2.635660171508831
 20
3.396640777587871
 10
3.004384040832562
 20
3.280449390411357
 10
3.37480163574223
 20
3.157731771469096
 10
3.746406555175823
 20
3.028990268707255
 10
4.119042396545452
 20
2.894551038742045
 10
4.492408752441448
 20
2.754748582839946
 10
4.866127967834515
 20
2.60990571975706
 10
5.053040504455609
 20
2.535672187805156
 10
5.239946365356487
 20
2.460268974304179
  0
LINE
  5
20E27
330
1F
100
AcDbEntity
  8
1
100
AcDbLine
 10
1.189675232766134
 20
3.783010191862027
 30
0.0
 11
1.173450977147936
 21
3.78659700347555
 31
0.0
  0
LWPOLYLINE
  5
20E28
330
1F
100
AcDbEntity
  8
1
100
AcDbPolyline
 90
       17
 70
     0
 43
0.0
 10
1.173451423645062
 20
3.786597013473491
 10
1.134499549865765
 20
3.795216798782329
 10
1.095784187316937
 20
3.803799867629985
 10
1.019202232360882
 20
3.820832490921
 10
0.9440164566040465
 20
3.837637662887553
 10
0.8701715469360777
 20
3.85424804687498
 10
0.7983751296997497
 20
3.870537042617778
 10
0.7291488647461364
 20
3.886404991149882
 10
0.6626567840576599
 20
3.901854038238505
 10
0.5995168685913513
 20
3.916787385940532
 10
0.540173530578656
 20
3.931167602539042
 10
0.4858236312866638
 20
3.944785833358745
 10
0.4376497268677185
 20
3.957465410232524
 10
0.3970975875854918
 20
3.968969345092753
 10
0.3657283782959411
 20
3.979072332382182
 10
0.3541402816772887
 20
3.983476877212504
 10
0.3455390930176208
 20
3.98741078376768
  0
LWPOLYLINE
  5
20E29
330
1F
100
AcDbEntity
  8
1
100
AcDbPolyline
 90
       11
 70
     0
 43
0.0
 10
0.3455390930176208
 20
3.98741078376768
 10
0.3420009613037536
 20
3.989460229873637
 10
0.3395586013794372
 20
3.991336345672587
 10
0.3383970260620543
 20
3.992911100387553
 10
0.3380479812622497
 20
3.994543075561503
 10
0.3384370803833434
 20
3.99532938003538
 10
0.3410968780518004
 20
3.996991634368876
 10
0.3486080169678161
 20
3.998692989349345
 10
0.3604164123535583
 20
3.999682426452617
 10
0.3678894042969176
 20
3.999923229217509
 10
0.3763799667358825
 20
4.000000953674296
  0
LWPOLYLINE
  5
20E2A
330
1F
100
AcDbEntity
  8
1
100
AcDbPolyline
 90
       22
 70
     0
 43
0.0
 10
0.3763799667358825
 20
4.000000953674296
 10
0.3932313919067809
 20
3.99976658821104
 10
0.41280269622807
 20
3.999096870422343
 10
0.4591064453125427
 20
3.996594190597514
 10
0.513907432556195
 20
3.992765426635722
 10
0.5756511688232849
 20
3.987873554229716
 10
0.642813682556195
 20
3.982183456420878
 10
0.7146368026733825
 20
3.975865840911845
 10
0.7900438308716247
 20
3.969102621078471
 10
0.8683929443359801
 20
3.962018728256206
 10
0.9491310119629332
 20
3.954720973968486
 10
1.03194046020512
 20
3.947281360626201
 10
1.116527557373089
 20
3.939767599105815
 10
1.202592849731487
 20
3.932239294052104
 10
1.289804458618206
 20
3.924751281738261
 10
1.378072738647503
 20
3.9173319339752
 10
1.467216491699261
 20
3.910020589828471
 10
1.556399345397991
 20
3.902901411056499
 10
1.646067619323773
 20
3.895940780639628
 10
1.737124443054241
 20
3.889093399047832
 10
1.782987594604534
 20
3.885731935501079
 10
1.828977584838909
 20
3.882419586181621
  0
ARC
  5
20E2B
330
1F
100
AcDbEntity
  8
1
100
AcDbCircle
 10
4.064959337127078
 20
34.90329230335454
 30
0.0
 40
31.10130809520019
100
AcDbArc
 50
265.8772556146903
 51
268.1644619373134
  0
ARC
  5
20E2C
330
1F
100
AcDbEntity
  8
1
100
AcDbCircle
 10
4.673866443463609
 20
54.34020775897622
 30
0.0
 40
50.54768301268307
100
AcDbArc
 50
268.1803121128169
 51
271.7706619179486
  0
LWPOLYLINE
  5
20E2D
330
1F
100
AcDbEntity
  8
1
100
AcDbPolyline
 90
       22
 70
     0
 43
0.0
 10
0.3763799667358825
 20
-4.000000953674335
 10
0.3932313919067809
 20
-3.999766588211079
 10
0.41280269622807
 20
-3.999096870422382
 10
0.4591064453125427
 20
-3.996594190597553
 10
0.513907432556195
 20
-3.992765426635761
 10
0.5756511688232849
 20
-3.987873554229755
 10
0.642813682556195
 20
-3.982183456420917
 10
0.7146368026733825
 20
-3.975865840911884
 10
0.7900438308716247
 20
-3.96910262107851
 10
0.8683929443359801
 20
-3.962018728256245
 10
0.9491310119629332
 20
-3.954720973968525
 10
1.03194046020512
 20
-3.94728136062624
 10
1.116527557373089
 20
-3.939767599105854
 10
1.202592849731487
 20
-3.932239294052143
 10
1.289804458618206
 20
-3.9247512817383
 10
1.378072738647503
 20
-3.917331933975239
 10
1.467216491699261
 20
-3.91002058982851
 10
1.556399345397991
 20
-3.902901411056538
 10
1.646067619323773
 20
-3.895940780639667
 10
1.737124443054241
 20
-3.889093399047871
 10
1.782987594604534
 20
-3.885731935501118
 10
1.828977584838909
 20
-3.88241958618166
  0
ARC
  5
20E2E
330
1F
100
AcDbEntity
  8
1
100
AcDbCircle
 10
4.064959346906206
 20
-34.90329249124417
 30
0.0
 40
31.10130828331506
100
AcDbArc
 50
91.83553806960606
 51
94.12274437839366
  0
ARC
  5
20E2F
330
1F
100
AcDbEntity
  8
1
100
AcDbCircle
 10
4.673906588182362
 20
-54.34539298429529
 30
0.0
 40
50.55286763886442
100
AcDbArc
 50
88.2241426868544
 51
91.81954674899262
  0
LWPOLYLINE
  5
20E30
330
1F
100
AcDbEntity
  8
1
100
AcDbPolyline
 90
       20
 70
     0
 43
0.0
 10
5.719259262085003
 20
-1.289062976837177
 10
5.748368263244671
 20
-1.485622763633747
 10
5.777487754821819
 20
-1.677986979484577
 10
5.806575775146527
 20
-1.865729570388813
 10
5.835609436035198
 20
-2.048200845718403
 10
5.864612579345745
 20
-2.224843263626118
 10
5.893601417541546
 20
-2.395277261734028
 10
5.922586441040081
 20
-2.559189081192036
 10
5.951576232910198
 20
-2.716235399246235
 10
5.980578422546429
 20
-2.866001367568989
 10
6.009271621704144
 20
-3.006364345550556
 10
6.034342765808148
 20
-3.122323989868183
 10
6.054927825927777
 20
-3.212767124176044
 10
6.074438095092816
 20
-3.294495105743427
 10
6.097125053405804
 20
-3.384503841400166
 10
6.124551773071331
 20
-3.485756397247333
 10
6.153552055358929
 20
-3.583427667617817
 10
6.182580947876019
 20
-3.671294212341328
 10
6.211582183837933
 20
-3.74913740158083
 10
6.24052429199223
 20
-3.816724061965961
  0
LWPOLYLINE
  5
20E31
330
1F
100
AcDbEntity
  8
1
100
AcDbPolyline
 90
       12
 70
     0
 43
0.0
 10
3.89451599121098
 20
-3.099990844726582
 10
3.930545806884808
 20
-2.965143203735371
 10
3.964127540588421
 20
-2.823262453079243
 10
3.995706558227581
 20
-2.672516584396381
 10
4.02473831176762
 20
-2.515327692031879
 10
4.05115604400639
 20
-2.352380752563496
 10
4.074910163879437
 20
-2.184408426284809
 10
4.095964431762737
 20
-2.012177228927631
 10
4.114307403564495
 20
-1.836460947990437
 10
4.12995243072514
 20
-1.657930016517658
 10
4.143150329589886
 20
-1.473556876182575
 10
4.153590202331585
 20
-1.289062976837177
  0
LWPOLYLINE
  5
20E32
330
1F
100
AcDbEntity
  8
1
100
AcDbPolyline
 90
       25
 70
     0
 43
0.0
 10
3.89451599121098
 20
-3.099990844726582
 10
3.89080333709721
 20
-3.111948251724262
 10
3.886467933654827
 20
-3.123762607574482
 10
3.881492614746136
 20
-3.135423183441181
 10
3.87584972381596
 20
-3.146925449371357
 10
3.86951541900639
 20
-3.158248424530048
 10
3.862452507019085
 20
-3.169384241104145
 10
3.854613304138226
 20
-3.180328369140644
 10
3.845959663391155
 20
-3.191061258316059
 10
3.836459159851116
 20
-3.201549768447895
 10
3.826086997985882
 20
-3.211750745773334
 10
3.814818382263226
 20
-3.221614360809345
 10
3.802627563476605
 20
-3.231088161468525
 10
3.789486885070843
 20
-3.240118741989155
 10
3.775360107421917
 20
-3.248656749725361
 10
3.760190963745159
 20
-3.256659507751484
 10
3.743914604187054
 20
-3.264075279235859
 10
3.726556777954144
 20
-3.270807981491108
 10
3.708203315734905
 20
-3.27674102783205
 10
3.688923835754437
 20
-3.28177523612978
 10
3.668735504150433
 20
-3.285835742950458
 10
3.647873878479046
 20
-3.288814067840595
 10
3.626450538635296
 20
-3.290642976760883
 10
3.615610122680706
 20
-3.291103601455708
 10
3.604738235473675
 20
-3.291255474090595
  0
LINE
  5
20E33
330
1F
100
AcDbEntity
  8
1
100
AcDbLine
 10
3.604738252113335
 20
-3.291255432015963
 30
0.0
 11
0.9651352521133418
 21
-3.291255432015963
 31
0.0
  0
LWPOLYLINE
  5
20E34
330
1F
100
AcDbEntity
  8
1
100
AcDbPolyline
 90
       29
 70
     0
 43
0.0
 10
0.9651355743408629
 20
-3.291255474090595
 10
0.9560375213623473
 20
-3.291144847869892
 10
0.9469385147095152
 20
-3.290816545486469
 10
0.9287910461426207
 20
-3.289509773254414
 10
0.9108629226684996
 20
-3.287358045578022
 10
0.8933734893799254
 20
-3.284407377243061
 10
0.8765001296997496
 20
-3.280715465545673
 10
0.8602991104126402
 20
-3.27633500099184
 10
0.8447360992432066
 20
-3.271302461624165
 10
0.8298416137695738
 20
-3.265675306320209
 10
0.8156919479370543
 20
-3.259526968002338
 10
0.8023405075073668
 20
-3.252924442291279
 10
0.7897644042969177
 20
-3.245908737182636
 10
0.7779216766357849
 20
-3.238510847091694
 10
0.766797065734906
 20
-3.230767488479633
 10
0.7563724517822692
 20
-3.222712516784687
 10
0.746629714965863
 20
-3.214376211166401
 10
0.7375469207764099
 20
-3.205786705017109
 10
0.7291049957275817
 20
-3.196969032287617
 10
0.7212810516357849
 20
-3.187945842742939
 10
0.7140541076660583
 20
-3.178736209869404
 10
0.7074031829834411
 20
-3.169357299804707
 10
0.7013072967529724
 20
-3.159823179245014
 10
0.6957454681396911
 20
-3.150145292282124
 10
0.6906986236572692
 20
-3.140334129333515
 10
0.6861515045166442
 20
-3.130401372909565
 10
0.68208980560307
 20
-3.120359420776386
 10
0.6784954071045349
 20
-3.110216140747089
 10
0.6753578186035583
 20
-3.099990844726582
  0
LWPOLYLINE
  5
20E35
330
1F
100
AcDbEntity
  8
1
100
AcDbPolyline
 90
       12
 70
     0
 43
0.0
 10
0.6753578186035583
 20
-3.099990844726582
 10
0.6393270492554138
 20
-2.965143203735371
 10
0.6057462692261169
 20
-2.823262453079243
 10
0.5741672515869567
 20
-2.672516345977802
 10
0.5451354980469177
 20
-2.515327692031879
 10
0.5187168121338317
 20
-2.352380752563496
 10
0.4949636459351013
 20
-2.184408426284809
 10
0.4739084243774841
 20
-2.012177228927631
 10
0.4555664062500427
 20
-1.836460947990437
 10
0.4399213790893981
 20
-1.657929897308369
 10
0.426723480224652
 20
-1.473556756973286
 10
0.4162836074829528
 20
-1.289062976837177
  0
LINE
  5
20E36
330
1F
100
AcDbEntity
  8
1
100
AcDbLine
 10
0.6753575042266391
 20
2.19053445617496
 30
0.0
 11
0.6753575042266391
 21
-3.099990866179657
 31
0.0
  0
LINE
  5
20E37
330
1F
100
AcDbEntity
  8
1
100
AcDbLine
 10
0.9651352521097038
 20
2.449833156270324
 30
0.0
 11
0.9651352521097038
 21
-3.291255432009227
 31
0.0
  0
LINE
  5
20E38
330
1F
100
AcDbEntity
  8
1
100
AcDbLine
 10
3.604738252116973
 20
2.44983315627031
 30
0.0
 11
3.604738252116973
 21
-3.29125543200922
 31
0.0
  0
LINE
  5
20E39
330
1F
100
AcDbEntity
  8
1
100
AcDbLine
 10
3.894516000000038
 20
2.190534456174967
 30
0.0
 11
3.894516000000038
 21
-3.099990866179664
 31
0.0
  0
LINE
  5
20E3A
330
1F
100
AcDbEntity
  8
1
100
AcDbLine
 10
6.421402940742694
 20
1.621722251320358
 30
0.0
 11
5.23994655042928
 21
2.460269039850041
 31
0.0
  0
ARC
  5
20E3B
330
1F
100
AcDbEntity
  8
1
100
AcDbCircle
 10
-15.87810347606364
 20
-30.10320593646867
 30
0.0
 40
38.77771804277371
100
AcDbArc
 50
52.12812734711461
 51
54.89655063911765
  0
ARC
  5
20E3C
330
1F
100
AcDbEntity
  8
1
100
AcDbCircle
 10
10.35680631770172
 20
2.697882573863148
 30
0.0
 40
5.173030686145986
100
AcDbArc
 50
312.2037789033476
 51
323.4391105744138
  0
ARC
  5
20E3D
330
1F
100
AcDbEntity
  8
1
100
AcDbCircle
 10
10.27083238239248
 20
-2.565853934752913
 30
0.0
 40
4.769894572249151
100
AcDbArc
 50
27.22520573200845
 51
33.32427172124233
  0
LINE
  5
20E3E
330
1F
100
AcDbEntity
  8
1
100
AcDbLine
 10
14.25286213820797
 20
0.0593224060244797
 30
0.0
 11
14.25657279791512
 21
0.0547058317835596
 31
0.0
  0
ARC
  5
20E3F
330
1F
100
AcDbEntity
  8
1
100
AcDbCircle
 10
-12.30373829900078
 20
-615.9140270487171
 30
0.0
 40
616.545421631445
100
AcDbArc
 50
87.53132269760211
 51
87.85990938588568
  0
ARC
  5
20E40
330
1F
100
AcDbEntity
  8
1
100
AcDbCircle
 10
23.63163881926987
 20
91.25937475407679
 30
0.0
 40
92.91157160817354
100
AcDbArc
 50
262.6259242345414
 51
263.9453858073022
  0
LWPOLYLINE
  5
20E41
330
1F
100
AcDbEntity
  8
1
100
AcDbPolyline
 90
       41
 70
     0
 43
0.0
 10
14.35491955280308
 20
0.5190272927284046
 10
14.34643304347996
 20
0.5183271765708728
 10
14.33791983127598
 20
0.5174769163131519
 10
14.32079654932026
 20
0.5152789950370594
 10
14.30355602502827
 20
0.5123358964919849
 10
14.28626149892811
 20
0.5085480213165088
 10
14.26902395486836
 20
0.5038176774978443
 10
14.25199306011204
 20
0.4980529248714252
 10
14.23534762859349
 20
0.4911715984344287
 10
14.21928656101231
 20
0.4831049442291065
 10
14.20401960611348
 20
0.4738016128539844
 10
14.18975794315342
 20
0.463231354951839
 10
14.17669945955281
 20
0.451375007629375
 10
14.1650223731995
 20
0.4382348358630939
 10
14.15494501590733
 20
0.4240257143974109
 10
14.14666491746906
 20
0.4090990722179218
 10
14.14025843143467
 20
0.3937749266624255
 10
14.13560128211979
 20
0.378197312355022
 10
14.13251656293873
 20
0.3624448776244922
 10
14.13086003065113
 20
0.3466232419013782
 10
14.13048636913304
 20
0.3308290839195056
 10
14.13125205039982
 20
0.3151473701000018
 10
14.13301920890812
 20
0.2996491491794391
 10
14.13565921783451
 20
0.2843892276286883
 10
14.13905608654026
 20
0.269403994083385
 10
14.14311057329182
 20
0.2547090053558154
 10
14.14774316549305
 20
0.2402968108653827
 10
14.15289831161503
 20
0.2261347472667499
 10
14.15853822231297
 20
0.212184071540813
 10
14.16462403535847
 20
0.1984344422817035
 10
14.17111939191822
 20
0.1848807483911319
 10
14.17799144983296
 20
0.1715187877416415
 10
14.18521076440815
 20
0.1583449691533847
 10
14.19275099039082
 20
0.1453561484813495
 10
14.20058870315556
 20
0.1325493305921359
 10
14.20870310068135
 20
0.1199214234947963
 10
14.21707606315617
 20
0.1074690520763202
 10
14.22569149732594
 20
0.0951882526278301
 10
14.23453551530842
 20
0.0830742865800662
 10
14.24359589815144
 20
0.0711213573813243
 10
14.25286215543751
 20
0.0593224056064887
  0
LINE
  5
20E42
330
1F
100
AcDbEntity
  8
1
100
AcDbLine
 10
14.36151376807916
 20
0.5194555577919307
 30
0.0
 11
14.3549206329706
 21
0.5190244794796844
 31
0.0
  0
LINE
  5
20E43
330
1F
100
AcDbEntity
  8
1
100
AcDbLine
 10
14.73459190552189
 20
0.54621989143042
 30
0.0
 11
14.36143420462646
 21
0.5195138292613155
 31
0.0
  0
ARC
  5
20E44
330
1F
100
AcDbEntity
  8
1
100
AcDbCircle
 10
133.9188400307668
 20
69.55499096407746
 30
0.0
 40
137.7210686854223
100
AcDbArc
 50
209.5664445124799
 51
210.0712331759738
  0
ARC
  5
20E45
330
1F
100
AcDbEntity
  8
1
100
AcDbCircle
 10
12.23342697096528
 20
-51.81994493975962
 30
0.0
 40
53.45254825033094
100
AcDbArc
 50
89.15034319238973
 51
91.07867695047856
  0
ARC
  5
20E46
330
1F
100
AcDbEntity
  8
1
100
AcDbCircle
 10
12.23276128399438
 20
-51.90941564724031
 30
0.0
 40
53.54202042441787
100
AcDbArc
 50
87.96797720289966
 51
89.15105066941507
  0
ARC
  5
20E47
330
1F
100
AcDbEntity
  8
1
100
AcDbCircle
 10
133.9192142627368
 20
-69.55520598700229
 30
0.0
 40
137.7215002907064
100
AcDbArc
 50
149.9287673815215
 51
150.4335443583119
  0
ARC
  5
20E48
330
1F
100
AcDbEntity
  8
1
100
AcDbCircle
 10
12.23339913088649
 20
51.81845137789384
 30
0.0
 40
53.45103461325024
100
AcDbArc
 50
268.9213161235387
 51
270.8496752691106
  0
LWPOLYLINE
  5
20E49
330
1F
100
AcDbEntity
  8
1
100
AcDbPolyline
 90
       21
 70
     0
 43
0.0
 10
13.83166885375981
 20
-1.133849024772663
 10
13.8297032117844
 20
-1.175424098968525
 10
13.82955777645115
 20
-1.215344905853291
 10
13.83122408390049
 20
-1.253526806831379
 10
13.83468508720402
 20
-1.289904356002827
 10
13.83991420269017
 20
-1.324425935745258
 10
13.84687721729283
 20
-1.357047200202961
 10
13.85553121566777
 20
-1.387724876403828
 10
13.86582684516911
 20
-1.416411519050617
 10
13.87772202491764
 20
-1.443079710006733
 10
13.89117503166203
 20
-1.467728614807148
 10
13.90612220764164
 20
-1.490349888801594
 10
13.92248523235325
 20
-1.510932207107563
 10
13.94018018245701
 20
-1.529470205307026
 10
13.95912694931034
 20
-1.545971035957355
 10
13.97925889492039
 20
-1.560463666915913
 10
14.00053030252461
 20
-1.573001980781574
 10
14.02289515733723
 20
-1.583631873130817
 10
14.04628157615666
 20
-1.592382073402424
 10
14.05833399295811
 20
-1.59606373310091
 10
14.07061558961872
 20
-1.59929335117342
  0
LINE
  5
20E4A
330
1F
100
AcDbEntity
  8
1
100
AcDbLine
 10
14.98990458232895
 20
0.0029001059093847
 30
0.0
 11
14.07061558822036
 21
-1.599293317152719
 31
0.0
  0
LINE
  5
20E4B
330
1F
100
AcDbEntity
  8
1
100
AcDbLine
 10
14.9737685421242
 20
0.0536776471816882
 30
0.0
 11
14.98990458232885
 21
0.0029001059092781
 31
0.0
  0
ARC
  5
20E4C
330
1F
100
AcDbEntity
  8
1
100
AcDbCircle
 10
14.3860146096644
 20
0.3280746846736608
 30
0.0
 40
0.6483124627038465
100
AcDbArc
 50
303.7491410353356
 51
334.9741899130456
  0
LINE
  5
20E4D
330
1F
100
AcDbEntity
  8
1
100
AcDbLine
 10
14.74581936689276
 20
-0.2104286941519273
 30
0.0
 11
14.51215339418138
 21
-0.3837520756655603
 31
0.0
  0
LINE
  5
20E4E
330
1F
100
AcDbEntity
  8
1
100
AcDbLine
 10
14.74581936689276
 20
-0.2104286941519273
 30
0.0
 11
14.25657278372826
 21
0.0547058130214797
 31
0.0
  0
LINE
  5
20E4F
330
1F
100
AcDbEntity
  8
1
100
AcDbLine
 10
14.88499455914693
 20
0.2312439104016324
 30
0.0
 11
14.97376789577326
 21
0.0536785849642616
 31
0.0
  0
LINE
  5
20E50
330
1F
100
AcDbEntity
  8
1
100
AcDbLine
 10
14.88499457490982
 20
0.2312438773893408
 30
0.0
 11
14.35492041550567
 21
0.5190265548468052
 31
0.0
  0
ARC
  5
20E51
330
1F
100
AcDbEntity
  8
1
100
AcDbCircle
 10
14.09282054522464
 20
-1.583703931241506
 30
0.0
 40
0.0271489716685937
100
AcDbArc
 50
215.0700913902884
 51
273.8828127629748
  0
ARC
  5
20E52
330
1F
100
AcDbEntity
  8
1
100
AcDbCircle
 10
14.08691675296636
 20
-1.526622331222325
 30
0.0
 40
0.0846887066996989
100
AcDbArc
 50
275.2547741938561
 51
301.5297742665405
  0
LINE
  5
20E53
330
1F
100
AcDbEntity
  8
1
100
AcDbLine
 10
14.7345919296183
 20
-0.5462198409651702
 30
0.0
 11
14.88237591729279
 21
-0.2367142877793977
 31
0.0
  0
LINE
  5
20E54
330
1F
100
AcDbEntity
  8
1
100
AcDbLine
 10
14.88239514285216
 20
-0.2366878951725564
 30
0.0
 11
14.88499457490975
 21
-0.2312438773894225
 31
0.0
  0
LINE
  5
20E55
330
1F
100
AcDbEntity
  8
1
100
AcDbLine
 10
14.97376948684476
 20
-0.0536746742971115
 30
0.0
 11
14.88499455914696
 21
-0.2312439104016786
 31
0.0
  0
LINE
  5
20E56
330
1F
100
AcDbEntity
  8
1
100
AcDbLine
 10
14.97376948684477
 20
-0.0536746742970973
 30
0.0
 11
14.98990458232889
 21
-0.0029001059092959
 31
0.0
  0
LINE
  5
20E57
102
{ACAD_REACTORS
330
20EB7
102
}
330
1F
100
AcDbEntity
  8
1
100
AcDbLine
 10
14.98990458232889
 20
-0.0029001059093172
 30
0.0
 11
14.98990458232887
 21
0.0029001059092568
 31
0.0
  0
LINE
  5
20E58
330
1F
100
AcDbEntity
  8
1
100
AcDbLine
 10
14.88239514285375
 20
0.2366878951691707
 30
0.0
 11
14.88499457490978
 21
0.2312438773893337
 31
0.0
  0
LINE
  5
20E59
330
1F
100
AcDbEntity
  8
1
100
AcDbLine
 10
14.73459190552192
 20
0.5462198914304413
 30
0.0
 11
14.88237591684075
 21
0.2367142887260716
 31
0.0
  0
ARC
  5
20E5A
330
1F
100
AcDbEntity
  8
1
100
AcDbCircle
 10
14.0869063326384
 20
1.52664603321749
 30
0.0
 40
0.0846857515392389
100
AcDbArc
 50
58.47027223139587
 51
84.74542961666982
  0
ARC
  5
20E5B
330
1F
100
AcDbEntity
  8
1
100
AcDbCircle
 10
13.00091267510685
 20
9.156612825370006
 30
0.0
 40
10.12353730638412
100
AcDbArc
 50
254.7932895550854
 51
262.6551804775116
  0
ARC
  5
20E5C
330
1F
100
AcDbEntity
  8
1
100
AcDbCircle
 10
74.31511442328484
 20
144.6226525984199
 30
0.0
 40
157.8034997669599
100
AcDbArc
 50
243.160850367989
 51
246.233947820391
  0
ARC
  5
20E5D
330
1F
100
AcDbEntity
  8
1
100
AcDbCircle
 10
10.43376750417468
 20
2.376769102836719
 30
0.0
 40
2.950825866143789
100
AcDbArc
 50
245.3889636168386
 51
261.126521657039
  0
LWPOLYLINE
  5
20E5E
330
1F
100
AcDbEntity
  8
1
100
AcDbPolyline
 90
        8
 70
     0
 43
0.0
 10
9.204710960388226
 20
-0.3063575327396588
 10
9.094018936157269
 20
-0.2548128068447308
 10
8.98419237136845
 20
-0.1994982212782101
 10
8.767146587371868
 20
-0.0786151438951688
 10
8.553379535675091
 20
0.0542549528181358
 10
8.342394828796429
 20
0.1973087340593142
 10
8.133796215057415
 20
0.3488050103187366
 10
7.927244186401409
 20
0.5070993900298877
  0
ARC
  5
20E5F
330
1F
100
AcDbEntity
  8
1
100
AcDbCircle
 10
9.555153503511618
 20
-3.59140644455496
 30
0.0
 40
3.082076077616541
100
AcDbArc
 50
75.14140176069865
 51
82.10269327240318
  0
ARC
  5
20E60
330
1F
100
AcDbEntity
  8
1
100
AcDbCircle
 10
10.5720888229316
 20
-2.341944471217848
 30
0.0
 40
0.7317973817629903
100
AcDbArc
 50
88.45524693221559
 51
117.1096628885434
  0
LINE
  5
20E61
330
1F
100
AcDbEntity
  8
1
100
AcDbLine
 10
11.23077926441196
 20
-1.623111358812378
 30
0.0
 11
10.59544376845285
 21
-1.610285654699501
 31
0.0
  0
LWPOLYLINE
  5
20E62
330
1F
100
AcDbEntity
  8
1
100
AcDbPolyline
 90
       19
 70
     0
 43
0.0
 10
10.23866558074955
 20
-1.690648436546345
 10
10.22435522079472
 20
-1.660336732864399
 10
10.21000862121586
 20
-1.624719738960285
 10
10.19568204879765
 20
-1.583948135375996
 10
10.18139219284062
 20
-1.538260102272053
 10
10.16709375381474
 20
-1.48790681362154
 10
10.15274620056156
 20
-1.433124542236347
 10
10.13840055465702
 20
-1.37409746646883
 10
10.12409973144535
 20
-1.311117410659809
 10
10.10980415344242
 20
-1.244493722915668
 10
10.0954685211182
 20
-1.174512863159199
 10
10.08111810684208
 20
-1.101405382156391
 10
10.06681346893315
 20
-1.025487303733845
 10
10.05252075195317
 20
-0.9471018314361767
 10
10.03819370269779
 20
-0.8665669560432629
 10
10.02383804321293
 20
-0.7841413021087842
 10
10.00952434539799
 20
-0.7001342177391248
 10
9.995370864868206
 20
-0.6157397627830701
 10
9.978653430938763
 20
-0.5383788943290906
  0
LWPOLYLINE
  5
20E63
330
1F
100
AcDbEntity
  8
1
100
AcDbPolyline
 90
       19
 70
     0
 43
0.0
 10
10.59181976318363
 20
-1.610286474227924
 10
10.5783205032349
 20
-1.589595556259174
 10
10.56463479995731
 20
-1.560470342636127
 10
10.55091333389286
 20
-1.526777267456074
 10
10.53720378875736
 20
-1.488723158836384
 10
10.52353334426884
 20
-1.446435451507587
 10
10.50986480712895
 20
-1.400096297264118
 10
10.49615478515629
 20
-1.349909305572529
 10
10.48242187500004
 20
-1.296177029609699
 10
10.46873188018803
 20
-1.239080429077167
 10
10.45506334304814
 20
-1.178777575492878
 10
10.44137334823612
 20
-1.115513443946857
 10
10.42764186859135
 20
-1.049606204032917
 10
10.41393661499028
 20
-0.9813540577888684
 10
10.40026617050175
 20
-0.9108895659446911
 10
10.38658952713017
 20
-0.8384619951248364
 10
10.37286806106571
 20
-0.7643598318100171
 10
10.35914421081547
 20
-0.6889999508857923
 10
10.3454651832581
 20
-0.6125259995460706
  0
ARC
  5
20E64
330
1F
100
AcDbEntity
  8
1
100
AcDbCircle
 10
10.56700458240981
 20
2.341814380883102
 30
0.0
 40
0.7317232861555226
100
AcDbArc
 50
242.8970155268005
 51
271.5526306414856
  0
LINE
  5
20E65
330
1F
100
AcDbEntity
  8
1
100
AcDbLine
 10
11.23078506539883
 20
1.623131304065731
 30
0.0
 11
10.590458874982
 21
1.610204335816719
 31
0.0
  0
LINE
  5
20E66
102
{ACAD_REACTORS
330
20EBC
102
}
330
1F
100
AcDbEntity
  8
1
100
AcDbLine
 10
0.3762305813603319
 20
3.999999999646805
 30
0.0
 11
0.0000000000000426
 21
3.999999999962215
 31
0.0
  0
LINE
  5
20E67
330
1F
100
AcDbEntity
  8
1
100
AcDbLine
 10
0.3762305813588824
 20
-3.99999999964684
 30
0.0
 11
0.0000000000000426
 21
-3.999999999962254
 31
0.0
  0
LINE
  5
20E68
330
1F
100
AcDbEntity
  8
1
100
AcDbLine
 10
14.10249868955257
 20
-1.61074135253372
 30
0.0
 11
13.02681735674504
 21
-1.626700073511385
 31
0.0
  0
LINE
  5
20E69
330
1F
100
AcDbEntity
  8
1
100
AcDbLine
 10
14.09466194285174
 20
1.610975903512569
 30
0.0
 11
13.02685040611891
 21
1.62672021207255
 31
0.0
  0
LINE
  5
20E6A
330
1F
100
AcDbEntity
  8
SK1
100
AcDbLine
 10
-1.94999999999996
 20
-2.644000000000017
 30
0.0
 11
-1.94999999999996
 21
-0.8520706196826122
 31
0.0
  0
LINE
  5
20E6B
330
1F
100
AcDbEntity
  8
SK1
100
AcDbLine
 10
-1.94999999999996
 20
-0.8520706196826122
 30
0.0
 11
-1.94999999999996
 21
2.643999987967264
 31
0.0
  0
LINE
  5
20E6C
330
1F
100
AcDbEntity
  8
SK1
100
AcDbLine
 10
-2.13879618640216
 20
-2.509999999011858
 30
0.0
 11
-2.13879618640216
 21
-0.8088870103643568
 31
0.0
  0
LINE
  5
20E6D
330
1F
100
AcDbEntity
  8
SK1
100
AcDbLine
 10
-2.13879618640216
 20
-0.8088870103643497
 30
0.0
 11
-2.13879618640216
 21
2.509999999999978
 31
0.0
  0
LWPOLYLINE
  5
20E6E
330
1F
100
AcDbEntity
  8
SK1
100
AcDbPolyline
 90
       27
 70
     0
 43
0.0
 10
-6.090250015258746
 20
-0.8088870048523144
 10
-6.07854080200191
 20
-0.9259564280510144
 10
-6.066831588745074
 20
-1.040738105773945
 10
-6.055122375488238
 20
-1.15294849872591
 10
-6.043413162231402
 20
-1.26231038570406
 10
-6.031703948974566
 20
-1.368553519248981
 10
-6.01999473571773
 20
-1.471415400505085
 10
-6.008285522460894
 20
-1.570641875267048
 10
-5.996576309204058
 20
-1.665987968444843
 10
-5.98486518859859
 20
-1.75721788406374
 10
-5.973155975341754
 20
-1.844106316566486
 10
-5.961446762084918
 20
-1.926438689231892
 10
-5.949737548828082
 20
-2.004011392593403
 10
-5.938028335571246
 20
-2.076632976532001
 10
-5.92631912231441
 20
-2.144123792648334
 10
-5.914609909057574
 20
-2.206317424774189
 10
-5.902900695800738
 20
-2.263059854507465
 10
-5.891191482543902
 20
-2.314211130142231
 10
-5.879482269287066
 20
-2.359644651412983
 10
-5.86777305603023
 20
-2.399248361587543
 10
-5.856063842773394
 20
-2.432924509048481
 10
-5.844354629516558
 20
-2.46058964729311
 10
-5.832645416259722
 20
-2.482175588607807
 10
-5.820936203002887
 20
-2.497628688812275
 10
-5.809226989746051
 20
-2.506911277771015
 10
-5.803371429443316
 20
-2.509230613708515
 10
-5.797517776489215
 20
-2.509999990463276
  0
LINE
  5
20E6F
330
1F
100
AcDbEntity
  8
SK1
100
AcDbLine
 10
-5.78481648127861
 20
-2.506339476790847
 30
0.0
 11
-5.797516858701627
 21
-2.509999988577098
 31
0.0
  0
LWPOLYLINE
  5
20E70
330
1F
100
AcDbEntity
  8
SK1
100
AcDbPolyline
 90
       25
 70
     0
 43
0.0
 10
-6.614999771118121
 20
-0.8088870048523144
 10
-6.602827072143512
 20
-0.9305512905121045
 10
-6.590652465820269
 20
-1.049730777740498
 10
-6.57847976684566
 20
-1.166106939315815
 10
-6.566307067871051
 20
-1.279369354248066
 10
-6.554132461547808
 20
-1.389215350151081
 10
-6.541959762573199
 20
-1.495351672172565
 10
-6.529785156249957
 20
-1.597494840621967
 10
-6.517612457275347
 20
-1.695372223854084
 10
-6.505439758300738
 20
-1.788722395896931
 10
-6.493265151977496
 20
-1.877295970916767
 10
-6.481092453002887
 20
-1.960856676101704
 10
-6.468917846679644
 20
-2.039180994033833
 10
-6.456745147705035
 20
-2.11206030845644
 10
-6.444572448730426
 20
-2.179299354553242
 10
-6.432397842407183
 20
-2.240719079971333
 10
-6.420225143432574
 20
-2.296155452728291
 10
-6.408050537109332
 20
-2.345460176467915
 10
-6.395877838134722
 20
-2.388501644134541
 10
-6.383705139160113
 20
-2.425165176391621
 10
-6.371530532836871
 20
-2.455352544784565
 10
-6.359357833862262
 20
-2.478983163833637
 10
-6.347183227539019
 20
-2.495994329452534
 10
-6.341096878051715
 20
-2.502002477645893
 10
-6.33501052856441
 20
-2.506340026855488
  0
LINE
  5
20E71
330
1F
100
AcDbEntity
  8
SK1
100
AcDbLine
 10
-6.322266405458449
 20
-2.509999988577162
 30
0.0
 11
-6.335010609094112
 21
-2.506340120396165
 31
0.0
  0
LWPOLYLINE
  5
20E72
330
1F
100
AcDbEntity
  8
SK1
100
AcDbPolyline
 90
       27
 70
     0
 43
0.0
 10
-4.610250473022418
 20
-0.8088870048523144
 10
-4.598541259765582
 20
-0.9259564280510144
 10
-4.586832046508746
 20
-1.040738105773945
 10
-4.57512283325191
 20
-1.15294849872591
 10
-4.563413619995074
 20
-1.26231038570406
 10
-4.551704406738238
 20
-1.368553519248981
 10
-4.539993286132769
 20
-1.471415400505085
 10
-4.528284072875933
 20
-1.570641875267048
 10
-4.516574859619097
 20
-1.665987968444843
 10
-4.504865646362262
 20
-1.75721788406374
 10
-4.493156433105426
 20
-1.844106316566486
 10
-4.48144721984859
 20
-1.926438689231892
 10
-4.469738006591754
 20
-2.004011392593403
 10
-4.458028793334918
 20
-2.076632976532001
 10
-4.446319580078082
 20
-2.144123792648334
 10
-4.434610366821246
 20
-2.206317424774189
 10
-4.42290115356441
 20
-2.263059854507465
 10
-4.411191940307574
 20
-2.314211130142231
 10
-4.399482727050738
 20
-2.359644651412983
 10
-4.387773513793902
 20
-2.399248361587543
 10
-4.376064300537066
 20
-2.432924509048481
 10
-4.36435508728023
 20
-2.46058964729311
 10
-4.352643966674762
 20
-2.482175588607807
 10
-4.340934753417926
 20
-2.497628688812275
 10
-4.32922554016109
 20
-2.506911277771015
 10
-4.323371887206988
 20
-2.509230613708515
 10
-4.317516326904254
 20
-2.509999990463276
  0
LINE
  5
20E73
330
1F
100
AcDbEntity
  8
SK1
100
AcDbLine
 10
-4.30481077802834
 20
-2.506336195061619
 30
0.0
 11
-4.317516858701154
 21
-2.509999988577098
 31
0.0
  0
LWPOLYLINE
  5
20E74
330
1F
100
AcDbEntity
  8
SK1
100
AcDbPolyline
 90
       26
 70
     0
 43
0.0
 10
-5.135000228881793
 20
-0.8088870048523144
 10
-5.123332977294879
 20
-0.9255306720733837
 10
-5.111667633056597
 20
-1.039904475212116
 10
-5.100000381469683
 20
-1.15172779560091
 10
-5.088335037231402
 20
-1.260726451873798
 10
-5.076667785644488
 20
-1.366633057594318
 10
-5.065002441406207
 20
-1.469187974929829
 10
-5.053335189819293
 20
-1.568139672279377
 10
-5.041669845581012
 20
-1.663245439529438
 10
-5.030002593994097
 20
-1.754271984100361
 10
-5.018337249755816
 20
-1.840996026992817
 10
-5.006669998168902
 20
-1.923205018043537
 10
-4.995004653930621
 20
-2.000697135925312
 10
-4.983337402343707
 20
-2.073282480239887
 10
-4.971670150756793
 20
-2.140783071517963
 10
-4.960004806518512
 20
-2.203033208847065
 10
-4.948337554931597
 20
-2.259880304336567
 10
-4.936672210693316
 20
-2.311184883117695
 10
-4.925004959106402
 20
-2.356821298599262
 10
-4.913339614868121
 20
-2.396677494049091
 10
-4.901672363281207
 20
-2.430655479431171
 10
-4.890007019042926
 20
-2.458672285079975
 10
-4.878339767456012
 20
-2.480659246444721
 10
-4.86667442321773
 20
-2.496562004089375
 10
-4.860839843749957
 20
-2.502219200134296
 10
-4.855007171630816
 20
-2.506341934204121
  0
LINE
  5
20E75
330
1F
100
AcDbEntity
  8
SK1
100
AcDbLine
 10
-4.842266405458886
 20
-2.509999988577162
 30
0.0
 11
-4.855007376881175
 21
-2.506341979440923
 31
0.0
  0
LWPOLYLINE
  5
20E76
330
1F
100
AcDbEntity
  8
SK1
100
AcDbPolyline
 90
        8
 70
     0
 43
0.0
 10
-3.13025093078609
 20
-0.8088870048523144
 10
-3.118181228637652
 20
-0.8985464572906689
 10
-3.101385116577105
 20
-0.9862344264984326
 10
-3.080947875976519
 20
-1.07193636894228
 10
-3.058790206909137
 20
-1.15583848953249
 10
-3.036956787109332
 20
-1.238170742988605
 10
-3.016889572143512
 20
-1.319061875343342
 10
-2.99872016906734
 20
-1.398414254188557
  0
ARC
  5
20E77
330
1F
100
AcDbEntity
  8
SK1
100
AcDbCircle
 10
0.1760745564528037
 20
-0.7149973644215902
 30
0.0
 40
3.247315605204674
100
AcDbArc
 50
192.1482991278777
 51
199.6705223124923
  0
LWPOLYLINE
  5
20E78
330
1F
100
AcDbEntity
  8
SK1
100
AcDbPolyline
 90
       21
 70
     0
 43
0.0
 10
-2.88133621215816
 20
-1.807934641838093
 10
-2.87607383728023
 20
-1.820318341255207
 10
-2.870487213134722
 20
-1.83255636692049
 10
-2.864517211914019
 20
-1.844637751579304
 10
-2.858100891113238
 20
-1.856547951698322
 10
-2.851169586181597
 20
-1.86826717853548
 10
-2.843658447265582
 20
-1.879768967628498
 10
-2.835502624511676
 20
-1.891019463539143
 10
-2.826637268066363
 20
-1.901975512504597
 10
-2.81700515747066
 20
-1.912583827972431
 10
-2.806552886962847
 20
-1.922779917716999
 10
-2.795234680175738
 20
-1.93248701095583
 10
-2.783012390136676
 20
-1.941614508628864
 10
-2.769861221313433
 20
-1.950056910514851
 10
-2.755764007568316
 20
-1.957692980766315
 10
-2.740718841552691
 20
-1.964383482933063
 10
-2.724739074706988
 20
-1.969969391822834
 10
-2.707855224609332
 20
-1.974270105361958
 10
-2.69011306762691
 20
-1.977080106735249
 10
-2.680940628051715
 20
-1.977854251861591
 10
-2.671581268310504
 20
-1.978165626525898
  0
LINE
  5
20E79
330
1F
100
AcDbEntity
  8
SK1
100
AcDbLine
 10
-2.325303122457555
 20
-1.978266928197568
 30
0.0
 11
-2.671580453193499
 21
-1.978165659010484
 31
0.0
  0
LWPOLYLINE
  5
20E7A
330
1F
100
AcDbEntity
  8
SK1
100
AcDbPolyline
 90
       25
 70
     0
 43
0.0
 10
-2.325304031372027
 20
-1.978266954422016
 10
-2.318094253539996
 20
-1.978174805641193
 10
-2.311035156249957
 20
-1.977723836898823
 10
-2.297414779663043
 20
-1.975833773612995
 10
-2.284524917602496
 20
-1.972761273384113
 10
-2.272426605224566
 20
-1.968653798103352
 10
-2.261165618896441
 20
-1.96364402770998
 10
-2.250770568847613
 20
-1.957851171493549
 10
-2.241252899169879
 20
-1.951382040977497
 10
-2.232610702514605
 20
-1.944332361221333
 10
-2.224830627441363
 20
-1.936787962913532
 10
-2.217885971069293
 20
-1.92882478237154
 10
-2.211744308471637
 20
-1.920509815216083
 10
-2.20636177062984
 20
-1.91190218925478
 10
-2.201688766479449
 20
-1.903052687644978
 10
-2.197669982910113
 20
-1.894005179405231
 10
-2.194248199462847
 20
-1.884796500206013
 10
-2.191360473632769
 20
-1.875457167625446
 10
-2.188947677612262
 20
-1.866011857986469
 10
-2.186946868896441
 20
-1.856480121612568
 10
-2.185297012329058
 20
-1.846876621246357
 10
-2.183946609497027
 20
-1.837211728096027
 10
-2.182844161987262
 20
-1.827492356300373
 10
-2.181941986083941
 20
-1.817722439765949
 10
-2.181207656860308
 20
-1.80790364742281
  0
ARC
  5
20E7B
330
1F
100
AcDbEntity
  8
SK1
100
AcDbCircle
 10
-10.29300369127624
 20
-1.584364941463453
 30
0.0
 40
8.115127840511853
100
AcDbArc
 50
358.4214859765163
 51
1.313490561078551
  0
LWPOLYLINE
  5
20E7C
330
1F
100
AcDbEntity
  8
SK1
100
AcDbPolyline
 90
        8
 70
     0
 43
0.0
 10
-2.179866790771441
 20
-1.398340821266193
 10
-2.180429458618121
 20
-1.319087624549885
 10
-2.178722381591754
 20
-1.237999081611652
 10
-2.174982070922808
 20
-1.15516960620882
 10
-2.17075157165523
 20
-1.070695638656635
 10
-2.168159484863238
 20
-0.9846981763839917
 10
-2.169197082519488
 20
-0.8973471522331433
 10
-2.174999237060504
 20
-0.8088870048523144
  0
LWPOLYLINE
  5
20E7D
330
1F
100
AcDbEntity
  8
SK1
100
AcDbPolyline
 90
       26
 70
     0
 43
0.0
 10
-3.655000686645465
 20
-0.8088870048523144
 10
-3.643333435058551
 20
-0.9255329370498852
 10
-3.631666183471637
 20
-1.03990876674654
 10
-3.620000839233355
 20
-1.151734232902546
 10
-3.608333587646441
 20
-1.260734796524067
 10
-3.59666824340816
 20
-1.36664319038393
 10
-3.585000991821246
 20
-1.469199776649494
 10
-3.573333740234332
 20
-1.568152785301228
 10
-3.561668395996051
 20
-1.663259863853474
 10
-3.550001144409137
 20
-1.754287362098713
 10
-3.538333892822222
 20
-1.841012358665485
 10
-3.526668548583941
 20
-1.923221945762653
 10
-3.515001296997027
 20
-2.000714540481586
 10
-3.503334045410113
 20
-2.073300123214741
 10
-3.491668701171832
 20
-2.140800714492817
 10
-3.480001449584918
 20
-2.203050613403339
 10
-3.468334197998004
 20
-2.259896993637104
 10
-3.456668853759722
 20
-2.311200857162495
 10
-3.445001602172808
 20
-2.356836318969746
 10
-3.433334350585894
 20
-2.3966910839081
 10
-3.421669006347613
 20
-2.430667638778706
 10
-3.410001754760699
 20
-2.458682537078876
 10
-3.398334503173785
 20
-2.480667352676411
 10
-3.386669158935504
 20
-2.496567726135273
 10
-3.38083457946773
 20
-2.502223730087299
 10
-3.37500190734859
 20
-2.506345033645649
  0
LINE
  5
20E7E
330
1F
100
AcDbEntity
  8
SK1
100
AcDbLine
 10
-3.362266405458413
 20
-2.509999988577162
 30
0.0
 11
-3.37500196642479
 21
-2.506345090270832
 31
0.0
  0
LINE
  5
20E7F
330
1F
100
AcDbEntity
  8
SK1
100
AcDbLine
 10
-6.375740333480138
 20
1.940770475558325
 30
0.0
 11
-6.878352216497432
 21
1.782836474019235
 31
0.0
  0
LWPOLYLINE
  5
20E80
330
1F
100
AcDbEntity
  8
SK1
100
AcDbPolyline
 90
       20
 70
     0
 43
0.0
 10
-6.375740051269488
 20
1.940770506858806
 10
-6.360713958740191
 20
1.835356712341289
 10
-6.345687866210894
 20
1.722477078437785
 10
-6.33066368103023
 20
1.602590560913066
 10
-6.315637588500933
 20
1.476185083389262
 10
-6.300611495971637
 20
1.343774676322917
 10
-6.28558540344234
 20
1.20589804649351
 10
-6.270559310913043
 20
1.063115954399089
 10
-6.255533218383746
 20
0.916009366512279
 10
-6.240509033203082
 20
0.7651765346526905
 10
-6.225482940673785
 20
0.6112310886382862
 10
-6.210456848144488
 20
0.4547992944717212
 10
-6.195430755615191
 20
0.2965174317359729
 10
-6.180404663085894
 20
0.1370293945073886
 10
-6.165378570556597
 20
-0.0230160690844255
 10
-6.150354385375933
 20
-0.1829679012298779
 10
-6.135328292846637
 20
-0.3421754539013104
 10
-6.12030220031734
 20
-0.4999910891056257
 10
-6.105276107788043
 20
-0.6557728648185926
 10
-6.090250015258746
 20
-0.8088870048523144
  0
LWPOLYLINE
  5
20E81
330
1F
100
AcDbEntity
  8
SK1
100
AcDbPolyline
 90
       20
 70
     0
 43
0.0
 10
-6.878353118896441
 20
1.782837748527507
 10
-6.864492416381793
 20
1.675846099853496
 10
-6.850631713867144
 20
1.563053369522075
 10
-6.836771011352496
 20
1.444849848747233
 10
-6.822910308837847
 20
1.321644902229289
 10
-6.809049606323199
 20
1.193864822387675
 10
-6.795188903808551
 20
1.061951994895915
 10
-6.781328201293902
 20
0.9263631701469225
 10
-6.767467498779254
 20
0.7875675559043689
 10
-6.753606796264605
 20
0.6460457444190784
 10
-6.739746093749957
 20
0.5022875070571704
 10
-6.725885391235308
 20
0.3567905724048419
 10
-6.71202468872066
 20
0.2100585401058002
 10
-6.698163986206012
 20
0.0625993758439822
 10
-6.684303283691363
 20
-0.0850764960050778
 10
-6.670442581176715
 20
-0.2324578613043027
 10
-6.656581878662066
 20
-0.3790345489978986
 10
-6.642721176147418
 20
-0.5242991447448926
 10
-6.628860473632769
 20
-0.6677488088607984
 10
-6.614999771118121
 20
-0.8088870048523144
  0
LINE
  5
20E82
330
1F
100
AcDbEntity
  8
SK1
100
AcDbLine
 10
-5.044815840287313
 20
2.506339108029203
 30
0.0
 11
-5.057516858700921
 21
2.509999988577058
 31
0.0
  0
LWPOLYLINE
  5
20E83
330
1F
100
AcDbEntity
  8
SK1
100
AcDbPolyline
 90
       40
 70
     0
 43
0.0
 10
-5.044815063476519
 20
2.506339073181132
 10
-5.03909873962398
 20
2.50231146812437
 10
-5.033380508422808
 20
2.496809244155864
 10
-5.021944046020465
 20
2.481395244598369
 10
-5.010507583618121
 20
2.46013331413267
 10
-4.99907302856441
 20
2.433073759078959
 10
-4.987636566162066
 20
2.400280475616435
 10
-4.976200103759722
 20
2.361830472946147
 10
-4.964763641357379
 20
2.317814588546733
 10
-4.953329086303668
 20
2.268336296081523
 10
-4.941892623901324
 20
2.213512420654277
 10
-4.93045616149898
 20
2.153472185134868
 10
-4.919019699096637
 20
2.088356733322124
 10
-4.907585144042926
 20
2.018320083618144
 10
-4.896148681640582
 20
1.94352662563322
 10
-4.884712219238238
 20
1.864153146743754
 10
-4.873277664184527
 20
1.780386567115764
 10
-4.861841201782183
 20
1.692424178123454
 10
-4.85040473937984
 20
1.600473284721354
 10
-4.838968276977496
 20
1.504750728607158
 10
-4.827533721923785
 20
1.405482053756694
 10
-4.816097259521441
 20
1.302901029586772
 10
-4.804660797119097
 20
1.19724965095518
 10
-4.793224334716754
 20
1.088776707649211
 10
-4.781789779663043
 20
0.9777379035949511
 10
-4.770353317260699
 20
0.8643949627876086
 10
-4.758916854858355
 20
0.7490149140357776
 10
-4.747482299804644
 20
0.6318697333335681
 10
-4.736045837402301
 20
0.5132354497909351
 10
-4.724609374999957
 20
0.393391609191875
 10
-4.713174819946246
 20
0.2726207375526233
 10
-4.701738357543902
 20
0.1512073725461764
 10
-4.690301895141558
 20
0.0294376648962302
 10
-4.678865432739215
 20
-0.0924014076590734
 10
-4.667430877685504
 20
-0.2140227258205609
 10
-4.65599441528316
 20
-0.3351396620273785
 10
-4.644557952880816
 20
-0.4554668068885999
 10
-4.633121490478472
 20
-0.5747205615043836
 10
-4.621686935424762
 20
-0.6926199197769361
 10
-4.610250473022418
 20
-0.8088870048523144
  0
LINE
  5
20E84
330
1F
100
AcDbEntity
  8
SK1
100
AcDbLine
 10
-5.582266405458668
 20
2.509999988577122
 30
0.0
 11
-5.595002608595706
 21
2.506344721113437
 31
0.0
  0
LWPOLYLINE
  5
20E85
330
1F
100
AcDbEntity
  8
SK1
100
AcDbPolyline
 90
       42
 70
     0
 43
0.0
 10
-5.582265853881793
 20
2.509999990463237
 10
-5.576675415039019
 20
2.509287357330302
 10
-5.571084976196246
 20
2.507161140441874
 10
-5.559902191162066
 20
2.498673439025859
 10
-5.548721313476519
 20
2.484556198120097
 10
-5.537540435790972
 20
2.46484112739561
 10
-5.526357650756793
 20
2.439572811126689
 10
-5.515176773071246
 20
2.408807992935161
 10
-5.503993988037066
 20
2.372616052627543
 10
-5.492813110351519
 20
2.33107852935789
 10
-5.481632232665972
 20
2.284289121627788
 10
-5.470449447631793
 20
2.23235297203062
 10
-5.459268569946246
 20
2.175387382507304
 10
-5.448085784912066
 20
2.113520383834819
 10
-5.436904907226519
 20
2.046891689300517
 10
-5.425724029540972
 20
1.975651383399943
 10
-5.414541244506793
 20
1.899959802627543
 10
-5.403360366821246
 20
1.819987416267375
 10
-5.392177581787066
 20
1.735914707183818
 10
-5.380996704101519
 20
1.647930860519389
 10
-5.369815826415972
 20
1.556234121322612
 10
-5.358633041381793
 20
1.461031198501567
 10
-5.347452163696246
 20
1.362536549568156
 10
-5.336269378662066
 20
1.260972023010234
 10
-5.325088500976519
 20
1.156566500663737
 10
-5.31390571594234
 20
1.04955518245695
 10
-5.302724838256793
 20
0.9401792287826342
 10
-5.291543960571246
 20
0.8286849856376452
 10
-5.280361175537066
 20
0.7153236865997119
 10
-5.269180297851519
 20
0.6003507375716968
 10
-5.25799751281734
 20
0.4840251803397937
 10
-5.246816635131793
 20
0.3666090965270801
 10
-5.235635757446246
 20
0.2483670264482303
 10
-5.224452972412066
 20
0.1295653879642291
 10
-5.213272094726519
 20
0.0104718348011179
 10
-5.20208930969234
 20
-0.1086453124880986
 10
-5.190908432006793
 20
-0.2275176793337064
 10
-5.179725646972613
 20
-0.3458774387836652
 10
-5.168544769287066
 20
-0.4634579420089917
 10
-5.157363891601519
 20
-0.5799942612648206
 10
-5.14618110656734
 20
-0.6952238082885938
 10
-5.135000228881793
 20
-0.8088870048523144
  0
LINE
  5
20E86
330
1F
100
AcDbEntity
  8
SK1
100
AcDbLine
 10
-3.564812705366009
 20
2.506337304242721
 30
0.0
 11
-3.577516858701358
 21
2.509999988577066
 31
0.0
  0
LWPOLYLINE
  5
20E87
330
1F
100
AcDbEntity
  8
SK1
100
AcDbPolyline
 90
       40
 70
     0
 43
0.0
 10
-3.564813613891558
 20
2.506337404251079
 10
-3.559095382690387
 20
2.502308845519999
 10
-3.553377151489215
 20
2.496805906295756
 10
-3.541940689086871
 20
2.481390476226787
 10
-3.530504226684527
 20
2.460127115249614
 10
-3.519069671630816
 20
2.433066606521586
 10
-3.507633209228472
 20
2.400272130966166
 10
-3.496196746826129
 20
2.361820936202983
 10
-3.484762191772418
 20
2.317804098129252
 10
-3.473325729370074
 20
2.268325090408305
 10
-3.46188926696773
 20
2.213500499725322
 10
-3.450454711914019
 20
2.153459548950175
 10
-3.439018249511676
 20
2.088343620300273
 10
-3.427581787109332
 20
2.018306493759135
 10
-3.416147232055621
 20
1.943512797355632
 10
-3.404710769653277
 20
1.864139080047587
 10
-3.393274307250933
 20
1.780372262001018
 10
-3.381839752197222
 20
1.692409873008708
 10
-3.370403289794879
 20
1.600459098815898
 10
-3.358966827392535
 20
1.504736661910991
 10
-3.347532272338824
 20
1.405468225479106
 10
-3.33609580993648
 20
1.302887558937053
 10
-3.324659347534137
 20
1.19723653793333
 10
-3.313224792480426
 20
1.088764071464519
 10
-3.301788330078082
 20
0.9777258038520617
 10
-3.290351867675738
 20
0.8643833994865222
 10
-3.278917312622027
 20
0.7490040063857837
 10
-3.267480850219683
 20
0.6318594813346668
 10
-3.25604438781734
 20
0.5132259726524158
 10
-3.244609832763629
 20
0.3933829367160602
 10
-3.233173370361285
 20
0.2726128697395129
 10
-3.221736907958941
 20
0.1512003540992541
 10
-3.21030235290523
 20
0.0294315125793023
 10
-3.198865890502887
 20
-0.092406682670136
 10
-3.187429428100543
 20
-0.2140271067619519
 10
-3.175992965698199
 20
-0.3351431488990979
 10
-3.164558410644488
 20
-0.4554693996906476
 10
-3.153121948242144
 20
-0.5747222900390821
 10
-3.141685485839801
 20
-0.6926207542419629
 10
-3.13025093078609
 20
-0.8088870048523144
  0
LINE
  5
20E88
330
1F
100
AcDbEntity
  8
SK1
100
AcDbLine
 10
-4.102266405458195
 20
2.509999988577122
 30
0.0
 11
-4.115005678740274
 21
2.506342955956684
 31
0.0
  0
LWPOLYLINE
  5
20E89
330
1F
100
AcDbEntity
  8
SK1
100
AcDbPolyline
 90
       42
 70
     0
 43
0.0
 10
-4.102266311645465
 20
2.509999990463237
 10
-4.096675872802691
 20
2.509287357330302
 10
-4.091085433959918
 20
2.507161140441874
 10
-4.079902648925738
 20
2.498673439025859
 10
-4.068721771240191
 20
2.484556198120097
 10
-4.057538986206012
 20
2.46484112739561
 10
-4.046358108520465
 20
2.439572811126689
 10
-4.035177230834918
 20
2.408807992935161
 10
-4.023994445800738
 20
2.372616052627543
 10
-4.012813568115191
 20
2.33107852935789
 10
-4.001630783081012
 20
2.284289121627788
 10
-3.990449905395465
 20
2.23235297203062
 10
-3.979269027709918
 20
2.175387382507304
 10
-3.968086242675738
 20
2.113520383834819
 10
-3.956905364990191
 20
2.046891689300517
 10
-3.945722579956012
 20
1.975651383399943
 10
-3.934541702270465
 20
1.899959802627543
 10
-3.923360824584918
 20
1.819987416267375
 10
-3.912178039550738
 20
1.735914707183818
 10
-3.900997161865191
 20
1.647930860519389
 10
-3.889814376831012
 20
1.556234121322612
 10
-3.878633499145465
 20
1.461031198501567
 10
-3.867450714111285
 20
1.362536549568156
 10
-3.856269836425738
 20
1.260972023010234
 10
-3.845088958740191
 20
1.156566500663737
 10
-3.833906173706012
 20
1.04955518245695
 10
-3.822725296020465
 20
0.9401792287826342
 10
-3.811542510986285
 20
0.8286849856376452
 10
-3.800361633300738
 20
0.7153236865997119
 10
-3.789180755615191
 20
0.6003507375716968
 10
-3.777997970581012
 20
0.4840251803397937
 10
-3.766817092895465
 20
0.3666090965270801
 10
-3.755634307861285
 20
0.2483670264482303
 10
-3.744453430175738
 20
0.1295653879642291
 10
-3.733270645141558
 20
0.0104718348011179
 10
-3.722089767456012
 20
-0.1086453124880986
 10
-3.710908889770465
 20
-0.2275176793337064
 10
-3.699726104736285
 20
-0.3458774387836652
 10
-3.688545227050738
 20
-0.4634579420089917
 10
-3.677362442016558
 20
-0.5799942612648206
 10
-3.666181564331012
 20
-0.6952238082885938
 10
-3.655000686645465
 20
-0.8088870048523144
  0
LINE
  5
20E8A
330
1F
100
AcDbEntity
  8
SK1
100
AcDbLine
 10
-2.622266405458631
 20
2.509999988577122
 30
0.0
 11
-2.635005457424725
 21
2.506343083214888
 31
0.0
  0
LWPOLYLINE
  5
20E8B
330
1F
100
AcDbEntity
  8
SK1
100
AcDbPolyline
 90
       42
 70
     0
 43
0.0
 10
-2.622266769409137
 20
2.509999990463237
 10
-2.616676330566363
 20
2.509287357330302
 10
-2.611083984374957
 20
2.507161140441874
 10
-2.59990310668941
 20
2.498673439025859
 10
-2.588722229003863
 20
2.484556198120097
 10
-2.577539443969683
 20
2.46484112739561
 10
-2.566358566284137
 20
2.439572811126689
 10
-2.555175781249957
 20
2.408807992935161
 10
-2.54399490356441
 20
2.372616052627543
 10
-2.532814025878863
 20
2.33107852935789
 10
-2.521631240844683
 20
2.284289121627788
 10
-2.510450363159137
 20
2.23235297203062
 10
-2.499267578124957
 20
2.175387382507304
 10
-2.48808670043941
 20
2.113520383834819
 10
-2.476905822753863
 20
2.046891689300517
 10
-2.465723037719683
 20
1.975651383399943
 10
-2.454542160034137
 20
1.899959802627543
 10
-2.443359374999957
 20
1.819987416267375
 10
-2.43217849731441
 20
1.735914707183818
 10
-2.42099571228023
 20
1.647930860519389
 10
-2.409814834594683
 20
1.556234121322612
 10
-2.398633956909137
 20
1.461031198501567
 10
-2.387451171874957
 20
1.362536549568156
 10
-2.37627029418941
 20
1.260972023010234
 10
-2.36508750915523
 20
1.156566500663737
 10
-2.353906631469683
 20
1.04955518245695
 10
-2.342725753784137
 20
0.9401792287826342
 10
-2.331542968749957
 20
0.8286849856376452
 10
-2.32036209106441
 20
0.7153236865997119
 10
-2.30917930603023
 20
0.6003507375716968
 10
-2.297998428344683
 20
0.4840251803397937
 10
-2.286815643310504
 20
0.3666090965270801
 10
-2.275634765624957
 20
0.2483670264482303
 10
-2.26445388793941
 20
0.1295653879642291
 10
-2.25327110290523
 20
0.0104718348011179
 10
-2.242090225219683
 20
-0.1086453124880986
 10
-2.230907440185504
 20
-0.2275176793337064
 10
-2.219726562499957
 20
-0.3458774387836652
 10
-2.20854568481441
 20
-0.4634579420089917
 10
-2.19736289978023
 20
-0.5799942612648206
 10
-2.186182022094683
 20
-0.6952238082885938
 10
-2.174999237060504
 20
-0.8088870048523144
  0
LINE
  5
20E8C
330
1F
100
AcDbEntity
  8
SK1
100
AcDbLine
 10
-7.099999999999951
 20
0.8908519983863758
 30
0.0
 11
-7.099999999999951
 21
-2.086870934656593
 31
0.0
  0
LINE
  5
20E8D
330
1F
100
AcDbEntity
  8
SK1
100
AcDbLine
 10
-7.099999999999951
 20
1.911985571435986
 30
0.0
 11
-7.099999999999951
 21
1.900717100474688
 31
0.0
  0
LINE
  5
20E8E
330
1F
100
AcDbEntity
  8
SK1
100
AcDbLine
 10
-7.099999999999951
 20
-2.086874584175943
 30
0.0
 11
-7.099999999999951
 21
-2.110221247337191
 31
0.0
  0
LINE
  5
20E8F
330
1F
100
AcDbEntity
  8
SK1
100
AcDbLine
 10
-7.099999999999951
 20
1.900717100474688
 30
0.0
 11
-7.099999999999951
 21
1.784332704937805
 31
0.0
  0
LINE
  5
20E90
330
1F
100
AcDbEntity
  8
SK1
100
AcDbLine
 10
-7.099999999999951
 20
1.784332698999508
 30
0.0
 11
-7.099999999999951
 21
0.8908519982498024
 31
0.0
  0
LWPOLYLINE
  5
20E91
330
1F
100
AcDbEntity
  8
SK1
100
AcDbPolyline
 90
       25
 70
     0
 43
0.0
 10
-6.375747680664019
 20
1.940789103507976
 10
-6.363239288330035
 20
1.946626782417277
 10
-6.352355957031207
 20
1.952225208282451
 10
-6.335609436035113
 20
1.96268630027769
 10
-6.325620651245074
 20
1.971775889396647
 10
-6.321296691894488
 20
1.979558706283549
 10
-6.318082809448199
 20
1.987169861793498
 10
-6.315345764160113
 20
1.994625926017741
 10
-6.313110351562457
 20
2.001888990402202
 10
-6.311353683471637
 20
2.008981227874736
 10
-6.310153961181597
 20
2.015923261642436
 10
-6.309476852416949
 20
2.022766828536967
 10
-6.309360504150347
 20
2.029481887817363
 10
-6.30902290344234
 20
2.036257266998271
 10
-6.307477951049762
 20
2.043380975723247
 10
-6.304855346679644
 20
2.050812959671
 10
-6.301618576049762
 20
2.058396577835063
 10
-6.298112869262652
 20
2.066035985946635
 10
-6.294691085815387
 20
2.073713064193706
 10
-6.291896820068316
 20
2.081461429595927
 10
-6.289972305297808
 20
2.08899188041685
 10
-6.289033889770465
 20
2.095986366271953
 10
-6.290067672729449
 20
2.102648496627788
 10
-6.294019699096637
 20
2.109075546264628
 10
-6.300563812255816
 20
2.1147937774658
  0
LINE
  5
20E92
330
1F
100
AcDbEntity
  8
SK1
100
AcDbLine
 10
-6.300562916215469
 20
2.114793690358157
 30
0.0
 11
-6.304688433143425
 21
2.117292969729563
 31
0.0
  0
ARC
  5
20E93
330
1F
100
AcDbEntity
  8
SK1
100
AcDbCircle
 10
-6.317564545364163
 20
2.093941866232244
 30
0.0
 40
0.026647218094317
100
AcDbArc
 50
61.12706760319685
 51
105.6227591308842
  0
ARC
  5
20E94
330
1F
100
AcDbEntity
  8
SK1
100
AcDbCircle
 10
-7.057865437855667
 20
-2.092786465269695
 30
0.0
 40
0.0278009792262002
100
AcDbArc
 50
255.3858212482363
 51
298.9854748863746
  0
ARC
  5
20E95
330
1F
100
AcDbEntity
  8
SK1
100
AcDbCircle
 10
-7.037554383462079
 20
-2.056558536918457
 30
0.0
 40
0.0690698176768484
100
AcDbArc
 50
205.9007403911352
 51
246.5926930641352
  0
LWPOLYLINE
  5
20E96
330
1F
100
AcDbEntity
  8
SK1
100
AcDbPolyline
 90
       34
 70
     0
 43
0.0
 10
-7.099971771240191
 20
1.784338474273662
 10
-7.094488143920855
 20
1.785179138183574
 10
-7.089239120483355
 20
1.785847187042216
 10
-7.079391479492144
 20
1.786733269691447
 10
-7.070333480834918
 20
1.787129282951335
 10
-7.062030792236285
 20
1.787164211273173
 10
-7.054504394531207
 20
1.786960482597331
 10
-7.047780990600543
 20
1.786621809005717
 10
-7.041809082031207
 20
1.786212563514689
 10
-7.036375045776324
 20
1.785741567611674
 10
-7.031156539916949
 20
1.785183906555156
 10
-7.025949478149371
 20
1.784538626670817
 10
-7.020706176757769
 20
1.783836841583232
 10
-7.015451431274371
 20
1.783111453056315
 10
-7.010189056396441
 20
1.782376170158366
 10
-7.004903793334918
 20
1.781627416610698
 10
-6.999580383300738
 20
1.780855655670146
 10
-6.994226455688433
 20
1.780056595802287
 10
-6.988862991332965
 20
1.779230833053569
 10
-6.983489990234332
 20
1.778380393981914
 10
-6.978084564208941
 20
1.777507305145244
 10
-6.972618103027301
 20
1.77662718296049
 10
-6.967124938964801
 20
1.77578878402708
 10
-6.961683273315387
 20
1.775079488754252
 10
-6.956253051757769
 20
1.774587512016276
 10
-6.950420379638629
 20
1.774335861206035
 10
-6.943584442138629
 20
1.774305582046489
 10
-6.935491561889605
 20
1.774546265602092
 10
-6.926191329956012
 20
1.775168657302836
 10
-6.915769577026324
 20
1.776277422904948
 10
-6.904262542724566
 20
1.777933478355388
 10
-6.891735076904254
 20
1.780146598815898
 10
-6.885135650634722
 20
1.781450748443583
 10
-6.878347396850543
 20
1.782872796058635
  0
LINE
  5
20E97
330
1F
100
AcDbEntity
  8
SK1
100
AcDbLine
 10
-6.300000386747555
 20
2.114497664112109
 30
0.0
 11
-7.099999999982102
 21
1.900758075806722
 31
0.0
  0
LINE
  5
20E98
330
1F
100
AcDbEntity
  8
SK1
100
AcDbLine
 10
-1.94999999999996
 20
-2.643999998795321
 30
0.0
 11
0.0000000000000426
 21
-2.746195168350686
 31
0.0
  0
LINE
  5
20E99
330
1F
100
AcDbEntity
  8
SK1
100
AcDbLine
 10
-1.94999999999996
 20
2.643999998795282
 30
0.0
 11
0.0000000000000426
 21
2.746195168350647
 31
0.0
  0
ARC
  5
20E9A
330
1F
100
AcDbEntity
  8
SK1
100
AcDbCircle
 10
-2.138797663558179
 20
-2.71005802268319
 30
0.0
 40
0.2000003052374939
100
AcDbArc
 50
19.26785059343772
 51
89.9995768313208
  0
ARC
  5
20E9B
330
1F
100
AcDbEntity
  8
SK1
100
AcDbCircle
 10
-2.138796439239285
 20
2.710009923154851
 30
0.0
 40
0.200000052486899
100
AcDbArc
 50
270.0000724274634
 51
340.7313826251584
  0
LINE
  5
20E9C
330
1F
100
AcDbEntity
  8
SK1
100
AcDbLine
 10
-6.322266405458449
 20
-2.509999988577162
 30
0.0
 11
-5.797516858701627
 21
-2.509999988577098
 31
0.0
  0
LINE
  5
20E9D
330
1F
100
AcDbEntity
  8
SK1
100
AcDbLine
 10
-4.842266405458886
 20
-2.509999988577162
 30
0.0
 11
-4.317516858701154
 21
-2.509999988577098
 31
0.0
  0
LINE
  5
20E9E
330
1F
100
AcDbEntity
  8
SK1
100
AcDbLine
 10
-3.362266405458413
 20
-2.509999988577162
 30
0.0
 11
-2.13879618640216
 21
-2.509999999011858
 31
0.0
  0
LINE
  5
20E9F
330
1F
100
AcDbEntity
  8
SK1
100
AcDbLine
 10
-5.582266405458668
 20
2.509999988577122
 30
0.0
 11
-5.057516858700921
 21
2.509999988577058
 31
0.0
  0
LINE
  5
20EA0
330
1F
100
AcDbEntity
  8
SK1
100
AcDbLine
 10
-4.102266405458195
 20
2.509999988577122
 30
0.0
 11
-3.577516858701358
 21
2.509999988577058
 31
0.0
  0
LINE
  5
20EA1
330
1F
100
AcDbEntity
  8
SK1
100
AcDbLine
 10
-2.622266405458631
 20
2.509999988577122
 30
0.0
 11
-2.13879618640216
 21
2.509999997308037
 31
0.0
  0
LWPOLYLINE
  5
20EA2
330
1F
100
AcDbEntity
  8
SK1
100
AcDbPolyline
 90
       14
 70
     0
 43
0.0
 10
-3.564825057983355
 20
2.506301641464213
 10
-3.545719146728472
 20
2.493704319000224
 10
-3.527936935424762
 20
2.478722333908061
 10
-3.502334594726519
 20
2.449897766113261
 10
-3.483230590820269
 20
2.421018362045268
 10
-3.468883514404254
 20
2.39378285408018
 10
-3.459503173828082
 20
2.37287163734434
 10
-3.450586318969683
 20
2.350530385971049
 10
-3.441730499267535
 20
2.325901508331279
 10
-3.431283950805621
 20
2.294079542160014
 10
-3.410087585449176
 20
2.227975606918315
 10
-3.390541076660113
 20
2.167332887649516
 10
-3.380197525024371
 20
2.135258197784404
 10
-3.37334060668941
 20
2.11376690864561
  0
LWPOLYLINE
  5
20EA3
330
1F
100
AcDbEntity
  8
SK1
100
AcDbPolyline
 90
       15
 70
     0
 43
0.0
 10
-3.389160156249957
 20
2.1543605327606
 10
-3.388813018798785
 20
2.153857946395854
 10
-3.384811401367144
 20
2.148651599884013
 10
-3.377981185913043
 20
2.141191720962504
 10
-3.366947174072222
 20
2.131561756134013
 10
-3.345666885375933
 20
2.117899417877177
 10
-3.320894241332965
 20
2.107410192489604
 10
-3.294643402099566
 20
2.101469278335551
 10
-3.248643875122027
 20
2.099970817565898
 10
-3.182851791381793
 20
2.09996485710142
 10
-3.118759155273394
 20
2.099953651428203
 10
-3.054777145385699
 20
2.099993467330913
 10
-2.990829467773394
 20
2.099941492080668
 10
-2.958974838256793
 20
2.099880695342998
 10
-2.927122116088824
 20
2.099947690963725
  0
LWPOLYLINE
  5
20EA4
330
1F
100
AcDbEntity
  8
SK1
100
AcDbPolyline
 90
       15
 70
     0
 43
0.0
 10
-4.304843902587847
 20
-2.506318807601948
 10
-4.292125701904254
 20
-2.498314142227192
 10
-4.279972076415972
 20
-2.489261865615864
 10
-4.260452270507769
 20
-2.471279144287128
 10
-4.242113113403277
 20
-2.449607610702534
 10
-4.22550010681148
 20
-2.424871444702167
 10
-4.212442398071246
 20
-2.401057720184345
 10
-4.20108604431148
 20
-2.376584768295307
 10
-4.190820693969683
 20
-2.351156949996967
 10
-4.18158149719234
 20
-2.325466394424458
 10
-4.170562744140582
 20
-2.291832923889179
 10
-4.149274826049762
 20
-2.225447416305561
 10
-4.129272460937457
 20
-2.163396835327167
 10
-4.118656158447222
 20
-2.130461692810078
 10
-4.113834381103472
 20
-2.115376710891743
  0
LWPOLYLINE
  5
20EA5
330
1F
100
AcDbEntity
  8
SK1
100
AcDbPolyline
 90
       18
 70
     0
 43
0.0
 10
-4.130262374877887
 20
-2.156042098999042
 10
-4.129718780517535
 20
-2.155202865600605
 10
-4.129680633544879
 20
-2.155144691467304
 10
-4.129123687744097
 20
-2.154314756393452
 10
-4.128736495971637
 20
-2.153757333755512
 10
-4.124656677246051
 20
-2.148472309112568
 10
-4.117769241332965
 20
-2.140989065170307
 10
-4.106594085693316
 20
-2.131294727325458
 10
-4.085466384887652
 20
-2.117794513702412
 10
-4.060821533203082
 20
-2.107392787933369
 10
-4.034326553344683
 20
-2.10143208503725
 10
-3.987651824951129
 20
-2.099974393844624
 10
-3.922164916992144
 20
-2.099970340728779
 10
-3.858240127563433
 20
-2.099957466125507
 10
-3.794424057006793
 20
-2.099998474121113
 10
-3.730642318725543
 20
-2.09994626045229
 10
-3.698867797851519
 20
-2.09988522529604
 10
-3.667098999023394
 20
-2.099952697753925
  0
LWPOLYLINE
  5
20EA6
330
1F
100
AcDbEntity
  8
SK1
100
AcDbPolyline
 90
       17
 70
     0
 43
0.0
 10
-5.044826507568316
 20
2.506339073181132
 10
-5.025825500488238
 20
2.493817806243876
 10
-5.008121490478472
 20
2.478928327560405
 10
-4.982889175414996
 20
2.450659513473491
 10
-4.969324111938433
 20
2.431085109710673
 10
-4.96054649353023
 20
2.416355848312358
 10
-4.952779769897418
 20
2.401743173599223
 10
-4.945646286010699
 20
2.386880874633769
 10
-4.938924789428668
 20
2.371517658233623
 10
-4.932462692260699
 20
2.355454683303813
 10
-4.926090240478472
 20
2.338350772857646
 10
-4.919582366943316
 20
2.319597244262675
 10
-4.911081314086871
 20
2.293460130691508
 10
-4.889663696289019
 20
2.226670026779155
 10
-4.870195388793902
 20
2.166273355483989
 10
-4.859897613525347
 20
2.134337902069072
 10
-4.853229522705035
 20
2.113453865051249
  0
LWPOLYLINE
  5
20EA7
330
1F
100
AcDbEntity
  8
SK1
100
AcDbPolyline
 90
       16
 70
     0
 43
0.0
 10
-4.870248794555621
 20
2.156039237976054
 10
-4.869697570800738
 20
2.155205011367778
 10
-4.869340896606402
 20
2.154672861099223
 10
-4.867776870727496
 20
2.152458906173686
 10
-4.860342025756793
 20
2.143660306930522
 10
-4.84744834899898
 20
2.131952524185161
 10
-4.826999664306597
 20
2.118628740310649
 10
-4.802110671997027
 20
2.107834100723247
 10
-4.775590896606402
 20
2.101636171340922
 10
-4.73032188415523
 20
2.099998474121074
 10
-4.664049148559527
 20
2.099995136260966
 10
-4.59964561462398
 20
2.099986553192119
 10
-4.535362243652301
 20
2.100024700164775
 10
-4.471115112304644
 20
2.09997296333311
 10
-4.439109802246051
 20
2.099913120269755
 10
-4.407110214233355
 20
2.099979639053325
  0
LWPOLYLINE
  5
20EA8
330
1F
100
AcDbEntity
  8
SK1
100
AcDbPolyline
 90
       16
 70
     0
 43
0.0
 10
-5.784832000732379
 20
-2.506311416625996
 10
-5.765798568725543
 20
-2.4937689304352
 10
-5.748069763183551
 20
-2.478848218917866
 10
-5.723039627075152
 20
-2.450829505920429
 10
-5.712366104125933
 20
-2.435761213302631
 10
-5.70323562622066
 20
-2.421030282974262
 10
-5.695211410522418
 20
-2.406461000442524
 10
-5.687847137451129
 20
-2.39158535003664
 10
-5.678569793701129
 20
-2.370645761489887
 10
-5.669963836669879
 20
-2.348870277404804
 10
-5.661380767822222
 20
-2.324874639511127
 10
-5.651042938232379
 20
-2.293315172195454
 10
-5.629898071289019
 20
-2.227375984191914
 10
-5.610424041748004
 20
-2.166957616806049
 10
-5.600120544433551
 20
-2.135004520416279
 10
-5.593330383300738
 20
-2.113727092742939
  0
LWPOLYLINE
  5
20EA9
330
1F
100
AcDbEntity
  8
SK1
100
AcDbPolyline
 90
       17
 70
     0
 43
0.0
 10
-5.610261917114215
 20
-2.156031608581562
 10
-5.609718322753863
 20
-2.155192375183125
 10
-5.609159469604449
 20
-2.154358625412006
 10
-5.608798980712847
 20
-2.153839349746723
 10
-5.604778289794879
 20
-2.148614645004292
 10
-5.597930908203082
 20
-2.141144514083881
 10
-5.58688926696773
 20
-2.131518602371235
 10
-5.565876007080035
 20
-2.118008852005024
 10
-5.541152954101519
 20
-2.107499599456806
 10
-5.514654159545855
 20
-2.101477622985859
 10
-5.468387603759722
 20
-2.099976539611835
 10
-5.402687072753863
 20
-2.099972009658833
 10
-5.338636398315387
 20
-2.099960327148457
 10
-5.274696350097613
 20
-2.100000619888325
 10
-5.21079063415523
 20
-2.099948406219501
 10
-5.178955078124957
 20
-2.099887609481831
 10
-5.147125244140582
 20
-2.099954843521137
  0
LWPOLYLINE
  5
20EAA
330
1F
100
AcDbEntity
  8
SK1
100
AcDbPolyline
 90
       12
 70
     0
 43
0.0
 10
-6.304687499999957
 20
2.117292881011943
 10
-6.298696517944293
 20
2.114348649978618
 10
-6.29254341125484
 20
2.111655950546245
 10
-6.269374847412066
 20
2.104215383529643
 10
-6.243635177612262
 20
2.100365400314311
 10
-6.185543060302691
 20
2.100001096725444
 10
-6.125877380371051
 20
2.100009679794291
 10
-6.066070556640582
 20
2.099962711334208
 10
-6.006320953369097
 20
2.100018978118876
 10
-5.946601867675738
 20
2.099970102310161
 10
-5.916849136352496
 20
2.099895477294902
 10
-5.887098312377887
 20
2.09997034072874
  0
LWPOLYLINE
  5
20EAB
330
1F
100
AcDbEntity
  8
SK1
100
AcDbPolyline
 90
       12
 70
     0
 43
0.0
 10
-7.044382095336871
 20
-2.117126941680927
 10
-7.038530349731402
 20
-2.11426544189455
 10
-7.032529830932574
 20
-2.111644029617329
 10
-7.009424209594683
 20
-2.104222297668476
 10
-6.98364448547359
 20
-2.100362539291401
 10
-6.925559997558551
 20
-2.099998235702534
 10
-6.865896224975543
 20
-2.100006818771381
 10
-6.806087493896441
 20
-2.099959850311298
 10
-6.746337890624957
 20
-2.100016117095966
 10
-6.68662071228023
 20
-2.09996724128725
 10
-6.656867980956988
 20
-2.099892377853413
 10
-6.627117156982379
 20
-2.09996724128725
  0
LWPOLYLINE
  5
20EAC
330
1F
100
AcDbEntity
  8
SK1
100
AcDbPolyline
 90
       36
 70
     0
 43
0.0
 10
-2.927110671997027
 20
2.099947929382304
 10
-2.910177230834918
 20
2.100890874862651
 10
-2.89348220825191
 20
2.103509187698344
 10
-2.862432479858355
 20
2.113729238510112
 10
-2.835844039916949
 20
2.129238605499248
 10
-2.824554443359332
 20
2.138570070266704
 10
-2.817022323608355
 20
2.146295309066752
 10
-2.810802459716754
 20
2.154154539108256
 10
-2.810136795043902
 20
2.155156135559062
 10
-2.809736251831012
 20
2.155739068984965
 10
-2.809673309326129
 20
2.155771732330302
 10
-2.810750961303668
 20
2.153706312179545
 10
-2.811973571777301
 20
2.151427507400493
 10
-2.815814971923785
 20
2.142932891845683
 10
-2.82036209106441
 20
2.131533145904521
 10
-2.824697494506793
 20
2.119394302368144
 10
-2.824871063232379
 20
2.118929386138896
 10
-2.824893951415972
 20
2.118885993957499
 10
-2.82489204406734
 20
2.118914842605571
 10
-2.824781417846637
 20
2.119307994842509
 10
-2.824150085449176
 20
2.121330976486186
 10
-2.821632385253863
 20
2.12915563583372
 10
-2.815317153930621
 20
2.148602962493876
 10
-2.802795410156207
 20
2.18744969367979
 10
-2.790523529052691
 20
2.22547435760496
 10
-2.776821136474566
 20
2.268108129501323
 10
-2.764465332031207
 20
2.306775569915751
 10
-2.752801895141558
 20
2.340921878814677
 10
-2.741569519042926
 20
2.369898319244365
 10
-2.729618072509722
 20
2.396525144577006
 10
-2.715925216674762
 20
2.422165632247905
 10
-2.69867134094234
 20
2.448320150375346
 10
-2.675653457641558
 20
2.475066661834697
 10
-2.657541275024371
 20
2.491093158721904
 10
-2.646492004394488
 20
2.499130725860576
 10
-2.634994506835894
 20
2.506305694580058
  0
LWPOLYLINE
  5
20EAD
330
1F
100
AcDbEntity
  8
SK1
100
AcDbPolyline
 90
       36
 70
     0
 43
0.0
 10
-3.667106628417926
 20
-2.099952697753925
 10
-3.650175094604449
 20
-2.100895404815693
 10
-3.633478164672808
 20
-2.103513956069965
 10
-3.602428436279254
 20
-2.113734006881733
 10
-3.575839996337847
 20
-2.129243612289448
 10
-3.56455039978023
 20
-2.13857603073122
 10
-3.557018280029254
 20
-2.146300792694111
 10
-3.550796508789019
 20
-2.154160976409931
 10
-3.550132751464801
 20
-2.155162811279316
 10
-3.549730300903277
 20
-2.155745744705219
 10
-3.549669265747027
 20
-2.155777692794819
 10
-3.550745010375933
 20
-2.153714179992695
 10
-3.551963806152301
 20
-2.15144133567812
 10
-3.555801391601519
 20
-2.142960786819477
 10
-3.560342788696246
 20
-2.131577968597431
 10
-3.564661026000933
 20
-2.119492769241352
 10
-3.564834594726519
 20
-2.119028091430683
 10
-3.564857482910113
 20
-2.118984460830708
 10
-3.56485557556148
 20
-2.1190130710602
 10
-3.56474685668941
 20
-2.119404792785664
 10
-3.564117431640582
 20
-2.121421337127705
 10
-3.561607360839801
 20
-2.129222631454487
 10
-3.555311203002887
 20
-2.148614645004292
 10
-3.542722702026324
 20
-2.18766689300539
 10
-3.530475616455035
 20
-2.225613117218037
 10
-3.516878128051715
 20
-2.267921686172504
 10
-3.504522323608355
 20
-2.306588649749775
 10
-3.492858886718707
 20
-2.34075641632082
 10
-3.481607437133746
 20
-2.369801759719868
 10
-3.469636917114215
 20
-2.396483659744282
 10
-3.45592117309566
 20
-2.422172546386738
 10
-3.438667297363238
 20
-2.448326110839863
 10
-3.415649414062457
 20
-2.475072622299213
 10
-3.397539138793902
 20
-2.491098642349262
 10
-3.386487960815387
 20
-2.499136209487934
 10
-3.374990463256793
 20
-2.506311416625996
  0
LWPOLYLINE
  5
20EAE
330
1F
100
AcDbEntity
  8
SK1
100
AcDbPolyline
 90
       37
 70
     0
 43
0.0
 10
-4.407112121581988
 20
2.099979639053325
 10
-4.402498245239215
 20
2.100075960159282
 10
-4.397893905639605
 20
2.100271940231303
 10
-4.373483657836871
 20
2.103541135787944
 10
-4.342432022094683
 20
2.113761425018291
 10
-4.315843582153277
 20
2.129271268844584
 10
-4.304552078247027
 20
2.138604640960673
 10
-4.297021865844683
 20
2.146329164504985
 10
-4.290800094604449
 20
2.154190540313701
 10
-4.290134429931597
 20
2.155192375183085
 10
-4.289733886718707
 20
2.155775547027568
 10
-4.289670944213824
 20
2.155808687210063
 10
-4.29074668884273
 20
2.153741836547832
 10
-4.291971206664996
 20
2.15145993232725
 10
-4.295818328857379
 20
2.14295506477354
 10
-4.300369262695269
 20
2.131542205810527
 10
-4.304718017578082
 20
2.119357824325541
 10
-4.304893493652301
 20
2.118887424468974
 10
-4.304916381835894
 20
2.11884331703184
 10
-4.304914474487262
 20
2.118870735168437
 10
-4.304803848266558
 20
2.119263410568217
 10
-4.304170608520465
 20
2.121297121047954
 10
-4.301633834838824
 20
2.129178762435893
 10
-4.295267105102496
 20
2.148785829544047
 10
-4.282779693603472
 20
2.187525033950786
 10
-4.270534515380816
 20
2.225470542907695
 10
-4.256843566894488
 20
2.26806378364561
 10
-4.244457244873004
 20
2.306830406188945
 10
-4.232793807983355
 20
2.340973377227763
 10
-4.221563339233355
 20
2.369945049285869
 10
-4.209615707397418
 20
2.396567583084086
 10
-4.195922851562457
 20
2.422205209732036
 10
-4.178670883178668
 20
2.448358297348002
 10
-4.155652999877887
 20
2.475105047225932
 10
-4.137542724609332
 20
2.491130828857402
 10
-4.126493453979449
 20
2.499168634414653
 10
-4.114995956420855
 20
2.506344079971293
  0
LWPOLYLINE
  5
20EAF
330
1F
100
AcDbEntity
  8
SK1
100
AcDbPolyline
 90
       37
 70
     0
 43
0.0
 10
-5.147113800048785
 20
-2.099954843521137
 10
-5.136285781860308
 20
-2.10039472579958
 10
-5.126810073852496
 20
-2.101245403289814
 10
-5.113485336303668
 20
-2.103516101837177
 10
-5.08243370056148
 20
-2.113736391067524
 10
-5.055845260620074
 20
-2.12924575805666
 10
-5.044553756713824
 20
-2.138579368591328
 10
-5.03702354431148
 20
-2.146302700042744
 10
-5.030801773071246
 20
-2.154164314270039
 10
-5.030138015747027
 20
-2.155165910720844
 10
-5.029735565185504
 20
-2.15574812889101
 10
-5.029674530029254
 20
-2.155780792236347
 10
-5.03075027465816
 20
-2.153715848922749
 10
-5.031972885131793
 20
-2.15143871307375
 10
-5.035812377929644
 20
-2.142946481704731
 10
-5.040359497070269
 20
-2.131549596786518
 10
-5.044691085815387
 20
-2.119416952133198
 10
-5.044864654540972
 20
-2.118954181671162
 10
-5.044887542724566
 20
-2.118911266326923
 10
-5.044885635375933
 20
-2.118940591812153
 10
-5.04477500915523
 20
-2.11933422088625
 10
-5.044145584106402
 20
-2.121355295181293
 10
-5.041631698608355
 20
-2.129165172576923
 10
-5.035333633422808
 20
-2.148564338684101
 10
-5.022846221923785
 20
-2.187302589416523
 10
-5.010519027709918
 20
-2.22549819946291
 10
-4.996847152709918
 20
-2.268035650253315
 10
-4.984458923339801
 20
-2.306801557540913
 10
-4.972795486450152
 20
-2.340944528579731
 10
-4.961565017700152
 20
-2.36991524696352
 10
-4.949617385864215
 20
-2.39653730392458
 10
-4.935926437377887
 20
-2.42217469215395
 10
-4.918672561645465
 20
-2.448327541351337
 10
-4.895654678344683
 20
-2.475075006485004
 10
-4.877546310424762
 20
-2.491100549697895
 10
-4.866495132446246
 20
-2.499138593673725
 10
-4.854997634887652
 20
-2.506314277648945
  0
LWPOLYLINE
  5
20EB0
330
1F
100
AcDbEntity
  8
SK1
100
AcDbPolyline
 90
       36
 70
     0
 43
0.0
 10
-5.887107849121051
 20
2.099970102310161
 10
-5.870176315307574
 20
2.100913047790507
 10
-5.853479385375933
 20
2.10353159904478
 10
-5.822429656982379
 20
2.113751649856547
 10
-5.795841217040972
 20
2.129261255264262
 10
-5.784549713134722
 20
2.138595581054667
 10
-5.777019500732379
 20
2.146318435668925
 10
-5.770795822143512
 20
2.154180765151957
 10
-5.770132064819293
 20
2.155182361602763
 10
-5.769731521606402
 20
2.155764102935771
 10
-5.769668579101519
 20
2.155796766281108
 10
-5.770744323730426
 20
2.153732061386088
 10
-5.771966934204058
 20
2.151455402374248
 10
-5.77580642700191
 20
2.142963409423808
 10
-5.780353546142535
 20
2.131567239761332
 10
-5.784685134887652
 20
2.119436264038066
 10
-5.784860610961871
 20
2.11897087097166
 10
-5.784881591796832
 20
2.118927478790263
 10
-5.784879684448199
 20
2.118956089019755
 10
-5.784770965576129
 20
2.119348764419536
 10
-5.784139633178668
 20
2.121371507644633
 10
-5.781621932983355
 20
2.129196882247905
 10
-5.775306701660113
 20
2.148646116256694
 10
-5.762784957885699
 20
2.187493562698344
 10
-5.750513076782183
 20
2.225518703460673
 10
-5.736841201782183
 20
2.268055915832499
 10
-5.724452972412066
 20
2.306822061538676
 10
-5.712789535522418
 20
2.340964317321757
 10
-5.701560974121051
 20
2.36993408203123
 10
-5.689613342285113
 20
2.396555423736552
 10
-5.675922393798785
 20
2.422192573547343
 10
-5.658668518066363
 20
2.448344945907573
 10
-5.635650634765582
 20
2.475093126296977
 10
-5.617540359497027
 20
2.491118669509868
 10
-5.606489181518512
 20
2.499156713485698
 10
-5.594991683959918
 20
2.506332397460917
  0
LWPOLYLINE
  5
20EB1
330
1F
100
AcDbEntity
  8
SK1
100
AcDbPolyline
 90
       37
 70
     0
 43
0.0
 10
-6.627117156982379
 20
-2.09996724128725
 10
-6.607042312622027
 20
-2.101586818695087
 10
-6.593488693237262
 20
-2.103528499603291
 10
-6.586212158203082
 20
-2.105278491973896
 10
-6.562437057495074
 20
-2.113748788833637
 10
-6.535848617553668
 20
-2.129258155822773
 10
-6.524557113647418
 20
-2.138592720031757
 10
-6.517026901245074
 20
-2.146315097808857
 10
-6.51080513000484
 20
-2.154177904129047
 10
-6.510139465331988
 20
-2.155179500579853
 10
-6.509738922119097
 20
-2.155760526657124
 10
-6.509677886962847
 20
-2.15579319000246
 10
-6.510753631591754
 20
-2.15372872352602
 10
-6.511974334716754
 20
-2.151452779769917
 10
-6.515815734863238
 20
-2.142961502075214
 10
-6.52036094665523
 20
-2.131565809249897
 10
-6.524692535400347
 20
-2.119436740875263
 10
-6.524866104125933
 20
-2.118971347808857
 10
-6.524888992309527
 20
-2.118927717208881
 10
-6.524887084960894
 20
-2.118956327438374
 10
-6.524776458740191
 20
-2.119349002838154
 10
-6.524147033691363
 20
-2.121371746063251
 10
-6.521629333496051
 20
-2.129197120666523
 10
-6.515312194824176
 20
-2.148647069931049
 10
-6.502790451049762
 20
-2.187494277954121
 10
-6.490518569946246
 20
-2.225519180297871
 10
-6.476846694946246
 20
-2.268055915832539
 10
-6.464460372924762
 20
-2.306821823120136
 10
-6.452796936035113
 20
-2.340963125228901
 10
-6.441568374633746
 20
-2.369931936264057
 10
-6.429620742797808
 20
-2.396552085876484
 10
-6.41592979431148
 20
-2.422188758850117
 10
-6.398677825927691
 20
-2.448340892791767
 10
-6.375658035278277
 20
-2.47508955001833
 10
-6.357549667358355
 20
-2.491114854812641
 10
-6.34649848937984
 20
-2.49915313720705
 10
-6.335000991821246
 20
-2.506329059600849
  0
LINE
  5
20EB2
330
1F
100
AcDbEntity
  8
SK1
100
AcDbLine
 10
-6.324910301206799
 20
2.119695064176058
 30
0.0
 11
-7.099999999952487
 21
1.912112065111033
 31
0.0
  0
LINE
  5
20EB3
330
1F
100
AcDbEntity
  8
SK1
100
AcDbLine
 10
-7.064915089889851
 20
-2.119692903822686
 30
0.0
 11
-7.099999999981562
 21
-2.110296104586913
 31
0.0
  0
LINE
  5
20EB4
330
1F
100
AcDbEntity
  8
1
100
AcDbLine
 10
10.98990458232889
 20
-1.618248750914139
 30
0.0
 11
10.98990458232889
 21
1.61826838512996
 31
0.0
  0
DIMENSION
  5
20EB5
102
{ACAD_XDICTIONARY
360
20EB6
102
}
102
{ACAD_REACTORS
330
20EB7
102
}
330
1F
100
AcDbEntity
  8
2
100
AcDbDimension
  2
*D29
 10
0.0000000000000509
 20
23.77262600414551
 30
0.0
 11
7.494952291164468
 21
25.67411581440553
 31
0.0
 70
    32
 71
     5
 42
14.98990458232883
  3
STANDARD
100
AcDbAlignedDimension
 13
14.98990458232888
 23
-0.0000000000000302
 33
0.0
 14
0.0000000000000497
 24
3.999999999947638
 34
0.0
100
AcDbRotatedDimension
1001
ACAD
1000
DSTYLE
1002
{
1070
   172
1070
     1
1070
   271
1070
     0
1002
}
  0
DIMENSION
  5
20EB8
330
1F
100
AcDbEntity
  8
2
100
AcDbDimension
  2
*D26
 10
10.38990458232888
 20
13.81188573409505
 30
0.0
 11
-5.781536036082924
 21
13.81188573409505
 31
0.0
 70
   160
 71
     5
 42
4.599999999999994
  3
STANDARD
100
AcDbAlignedDimension
 13
14.98990458232887
 23
-0.0000000000000266
 33
0.0
 14
10.38990458232888
 24
1.714325775626074
 34
0.0
100
AcDbRotatedDimension
1001
ACAD
1000
DSTYLE
1002
{
1070
   172
1070
     1
1002
}
  0
DIMENSION
  5
20EB9
330
1F
100
AcDbEntity
  8
2
100
AcDbDimension
  2
*D27
 10
32.82278685086935
 20
-1.640000000000025
 30
0.0
 11
30.92129704060934
 21
-15.49895291637388
 31
0.0
 70
    32
 71
     5
 42
3.279999999999994
  3
STANDARD
100
AcDbAlignedDimension
 13
14.18513743009213
 23
1.639999999999973
 33
0.0
 14
14.18513743009213
 24
-1.64000000000002
 34
0.0
 50
90.0
100
AcDbRotatedDimension
1001
ACAD
1000
DSTYLE
1002
{
1070
   172
1070
     1
1002
}
  0
DIMENSION
  5
20EBA
102
{ACAD_XDICTIONARY
360
20EBB
102
}
102
{ACAD_REACTORS
330
20EBC
102
}
330
1F
100
AcDbEntity
  8
2
100
AcDbDimension
  2
*D30
 10
-24.09999999999995
 20
-3.999999999947674
 30
0.0
 11
-26.00148981025997
 21
-14.19317638786053
 31
0.0
 70
    32
 71
     5
 42
7.999999999909896
  3
STANDARD
100
AcDbAlignedDimension
 13
0.0000000000000426
 23
3.999999999962215
 33
0.0
 14
0.0000000000000426
 24
-3.99999999994768
 34
0.0
 50
90.0
100
AcDbRotatedDimension
1001
ACAD
1000
DSTYLE
1002
{
1070
   172
1070
     1
1002
}
  0
DIMENSION
  5
20EBD
330
1F
100
AcDbEntity
  8
2
100
AcDbDimension
  2
*D28
 10
14.49096701534567
 20
0.8660254037844143
 30
0.0
 11
44.50833896296204
 21
0.0000000000000241
 31
0.0
 70
    34
 71
     5
 42
2.094395102393194
  3
STANDARD
100
AcDb2LineAngularDimension
 13
14.99096701534567
 23
-0.0000000000000195
 33
0.0
 14
14.49096701534567
 24
-0.8660254037844605
 34
0.0
 15
14.99096701534567
 25
-0.0000000000000195
 35
0.0
 16
44.5150395627147
 26
-10.74588360155822
 36
0.0
1001
ACAD
1000
DSTYLE
1002
{
1070
   179
1070
     0
1002
}
  0
INSERT
  5
20EC5
330
1F
100
AcDbEntity
  8
NOCUT
100
AcDbBlockReference
  2
NOCUT
 10
0.0000000000000426
 20
-0.0000000000000195
 30
0.0
  0
LINE
  5
21011
330
1F
100
AcDbEntity
  8
4
100
AcDbLine
 10
0.0000000000036806
 20
-0.0000000000000195
 30
0.0
 11
15.24599429633886
 21
-0.0000000000000195
 31
0.0
  0
LWPOLYLINE
  5
210E3
330
1F
100
AcDbEntity
  8
CUT
100
AcDbPolyline
 90
        9
 70
     1
 43
0.0
 10
13.02685040611891
 20
1.62672021207255
 10
14.12466882264761
 20
1.610533468159339
 10
14.73453811444784
 20
0.5463325466401939
 10
14.88484714543915
 20
0.2315387687902944
 10
14.9737688517751
 20
0.0536766727596995
 10
14.98990458232887
 20
0.0029001059091863
 10
14.98990458232887
 20
-0.0000000000000207
 10
10.38990458232888
 20
-0.0000000000000207
 10
10.38990458232888
 20
1.62672021207255
  0
VIEWPORT
  5
9C00
102
{ACAD_XDICTIONARY
360
2111B
102
}
330
1B
100
AcDbEntity
 67
     1
  8
0
100
AcDbViewport
 10
108.2280559557949
 20
71.69854161746989
 30
0.0
 40
251.8950231529317
 41
201.8884082081047
 68
     1
 69
     1
 12
108.2280559557949
 22
71.69854161746989
 13
0.0
 23
0.0
 14
10.0
 24
10.0
 15
10.0
 25
10.0
 16
0.0
 26
0.0
 36
1.0
 17
0.0
 27
0.0
 37
0.0
 42
50.0
 43
0.0
 44
0.0
 45
201.8884082081047
 50
0.0
 51
0.0
 72
   100
 90
   557088
  1

281
     0
 71
     1
 74
     0
110
0.0
120
0.0
130
0.0
111
1.0
121
0.0
131
0.0
112
0.0
122
1.0
132
0.0
 79
     0
146
0.0
  0
VIEWPORT
  5
9C02
102
{ACAD_XDICTIONARY
360
2111D
102
}
330
1B
100
AcDbEntity
 67
     1
  8
1
100
AcDbViewport
 10
143.457083940506
 20
98.18158769607544
 30
0.0
 40
229.5313343048095
 41
157.0905403137207
 68
     2
 69
     2
 12
-44.37697124786255
 22
-35.12342998133886
 13
0.0
 23
0.0
 14
10.0
 24
10.0
 15
10.0
 25
10.0
 16
0.0
 26
0.0
 36
1.0
 17
0.0
 27
0.0
 37
0.0
 42
50.0
 43
0.0
 44
0.0
 45
300.3886240724386
 50
0.0
 51
0.0
 72
   100
 90
   557088
  1

281
     0
 71
     1
 74
     0
110
0.0
120
0.0
130
0.0
111
1.0
121
0.0
131
0.0
112
0.0
122
1.0
132
0.0
 79
     0
146
0.0
  0
ENDSEC
  0
SECTION
  2
OBJECTS
  0
DICTIONARY
  5
3182
330
0
100
AcDbDictionary
281
     1
  3
ACAD_CIP_PREVIOUS_PRODUCT_INFO
350
1B2F4
  3
ACAD_COLOR
350
31A0
  3
ACAD_DETAILVIEWSTYLE
350
1B2F0
  3
ACAD_FIELDLIST
350
20CBF
  3
ACAD_GROUP
350
3183
  3
ACAD_LAYOUT
350
31A5
  3
ACAD_MATERIAL
350
318B
  3
ACAD_MLEADERSTYLE
350
1B221
  3
ACAD_MLINESTYLE
350
3184
  3
ACAD_PLOTSETTINGS
350
31A4
  3
ACAD_PLOTSTYLENAME
350
3189
  3
ACAD_SCALELIST
350
1B1FC
  3
ACAD_SECTIONVIEWSTYLE
350
1B2EE
  3
ACAD_TABLESTYLE
350
31A1
  3
ACAD_VISUALSTYLE
350
318F
  3
ACDB_RECOMPOSE_DATA
350
210ED
  3
AcDbVariableDictionary
350
33A3
  3
AcDsDecomposeData
350
210F4
  3
AEC_PROPERTY_SET_DEFS
350
20E17
  3
DWGPROPS
350
210EE
  0
DICTIONARY
  5
422A
330
2
100
AcDbDictionary
280
     1
281
     1
  3
ACAD_LAYERFILTERS
360
1B063
  3
ACAD_LAYERSTATES
360
9A1C
  3
ACLYDICTIONARY
360
1B062
  0
DICTIONARY
  5
1B2F5
330
10
100
AcDbDictionary
280
     1
281
     1
  3
ADSK_XREC_LAYER_RECONCILED
360
20F2F
  0
DICTIONARY
  5
1B2F7
330
3F8C
100
AcDbDictionary
280
     1
281
     1
  3
ADSK_XREC_LAYER_RECONCILED
360
20F30
  0
DICTIONARY
  5
1B2F9
330
9C4A
100
AcDbDictionary
280
     1
281
     1
  3
ADSK_XREC_LAYER_RECONCILED
360
20F31
  0
DICTIONARY
  5
1B2FB
330
9C4B
100
AcDbDictionary
280
     1
281
     1
  3
ADSK_XREC_LAYER_RECONCILED
360
20F32
  0
DICTIONARY
  5
1B2FD
330
9C4D
100
AcDbDictionary
280
     1
281
     1
  3
ADSK_XREC_LAYER_RECONCILED
360
20F33
  0
DICTIONARY
  5
1B2FF
330
9C4E
100
AcDbDictionary
280
     1
281
     1
  3
ADSK_XREC_LAYER_RECONCILED
360
20F34
  0
DICTIONARY
  5
1B303
330
9C50
100
AcDbDictionary
280
     1
281
     1
  3
ADSK_XREC_LAYER_RECONCILED
360
20F36
  0
DICTIONARY
  5
1B305
330
9C51
100
AcDbDictionary
280
     1
281
     1
  3
ADSK_XREC_LAYER_RECONCILED
360
20F37
  0
DICTIONARY
  5
1B307
330
13335
100
AcDbDictionary
280
     1
281
     1
  3
ADSK_XREC_LAYER_RECONCILED
360
20F38
  0
DICTIONARY
  5
20AE1
330
20AE0
100
AcDbDictionary
280
     1
281
     1
  3
ADSK_XREC_LAYER_RECONCILED
360
20F43
  0
DICTIONARY
  5
339C
330
1F
100
AcDbDictionary
280
     1
281
     1
  3
ACAD_SORTENTS
360
339D
  0
DICTIONARY
  5
1DE81
330
1B3D7
100
AcDbDictionary
280
     1
281
     1
  3
AcDbBlockTableRecordData
360
21135
  0
DICTIONARY
  5
20CA6
330
20CA5
100
AcDbDictionary
280
     1
281
     1
  3
AcDbBlockTableRecordData
360
21139
  0
DICTIONARY
  5
20CA9
330
20CA8
100
AcDbDictionary
280
     1
281
     1
  3
ACAD_FIELD
360
20CAA
  0
DICTIONARY
  5
20CC4
330
20CC3
100
AcDbDictionary
280
     1
281
     1
  3
ACAD_FIELD
360
20CC5
  0
DICTIONARY
  5
20EB6
330
20EB5
100
AcDbDictionary
280
     1
281
     1
  3
ACAD_DIMASSOC
360
20EB7
  0
DICTIONARY
  5
20EBB
330
20EBA
100
AcDbDictionary
280
     1
281
     1
  3
ACAD_DIMASSOC
360
20EBC
  0
DICTIONARY
  5
2111B
330
9C00
100
AcDbDictionary
280
     1
281
     1
  3
ACAD_XREC_ROUNDTRIP
360
2111C
  0
DICTIONARY
  5
2111D
330
9C02
100
AcDbDictionary
280
     1
281
     1
  3
ACAD_XREC_ROUNDTRIP
360
2111E
  0
XRECORD
  5
1B2F4
102
{ACAD_REACTORS
330
3182
102
}
330
3182
100
AcDbXrecord
280
     1
300
ACDLT
300
2015
300
ACDLT_F_S
  0
DICTIONARY
  5
31A0
102
{ACAD_REACTORS
330
3182
102
}
330
3182
100
AcDbDictionary
281
     1
  0
DICTIONARY
  5
1B2F0
102
{ACAD_REACTORS
330
3182
102
}
330
3182
100
AcDbDictionary
281
     1
  3
Imperial24
350
20CB3
  3
Metric50
350
1B2F1
  0
FIELDLIST
  5
20CBF
102
{ACAD_REACTORS
330
3182
102
}
330
3182
100
AcDbIdSet
 90
        6
330
20CAB
330
20CAC
330
20CBA
330
20CBB
330
20CC6
330
20CC7
100
AcDbFieldList
  0
DICTIONARY
  5
3183
102
{ACAD_REACTORS
330
3182
102
}
330
3182
100
AcDbDictionary
281
     1
  0
DICTIONARY
  5
31A5
102
{ACAD_REACTORS
330
3182
102
}
330
3182
100
AcDbDictionary
281
     1
  3
Layout1
350
31A7
  3
Model
350
31A6
  0
DICTIONARY
  5
318B
102
{ACAD_REACTORS
330
3182
102
}
330
3182
100
AcDbDictionary
281
     1
  3
ByBlock
350
318D
  3
ByLayer
350
318C
  3
Global
350
318E
  0
DICTIONARY
  5
1B221
102
{ACAD_REACTORS
330
3182
102
}
330
3182
100
AcDbDictionary
281
     1
  3
Standard
350
1B2ED
  0
DICTIONARY
  5
3184
102
{ACAD_REACTORS
330
3182
102
}
330
3182
100
AcDbDictionary
281
     1
  3
STANDARD
350
3185
  0
DICTIONARY
  5
31A4
102
{ACAD_REACTORS
330
3182
102
}
330
3182
100
AcDbDictionary
281
     1
  0
ACDBDICTIONARYWDFLT
  5
3189
102
{ACAD_REACTORS
330
3182
102
}
330
3182
100
AcDbDictionary
281
     1
  3
Normal
350
318A
100
AcDbDictionaryWithDefault
340
318A
  0
DICTIONARY
  5
1B1FC
102
{ACAD_REACTORS
330
3182
102
}
330
3182
100
AcDbDictionary
281
     1
  3
A0
350
1B1FD
  3
A1
350
1B1FE
  3
A2
350
1B1FF
  3
A3
350
1B200
  3
A4
350
1B201
  3
A5
350
1B202
  3
A6
350
1B203
  3
A7
350
1B204
  3
A8
350
1B205
  3
A9
350
1B206
  3
B0
350
1B207
  3
B1
350
1B208
  3
B2
350
1B209
  3
B3
350
1B20A
  3
B4
350
1B20B
  3
B5
350
1B20C
  3
B6
350
1B20D
  3
B7
350
1B20E
  3
B8
350
1B20F
  3
B9
350
1B210
  3
C0
350
1B211
  3
C1
350
1B212
  3
C2
350
1B213
  3
C3
350
1B214
  3
C4
350
1B215
  3
C5
350
1B216
  3
C6
350
1B217
  3
C7
350
1B218
  3
C8
350
1B219
  3
C9
350
1B21A
  3
D0
350
1B21B
  3
D1
350
1B21C
  3
D2
350
1B21D
  0
DICTIONARY
  5
1B2EE
102
{ACAD_REACTORS
330
3182
102
}
330
3182
100
AcDbDictionary
281
     1
  3
Imperial24
350
20CB1
  3
Metric50
350
1B2EF
  0
DICTIONARY
  5
31A1
102
{ACAD_REACTORS
330
3182
102
}
330
3182
100
AcDbDictionary
281
     1
  3
Standard
350
31A2
  0
DICTIONARY
  5
318F
102
{ACAD_REACTORS
330
3182
102
}
330
3182
100
AcDbDictionary
281
     1
  3
2dWireframe
350
3195
  3
3D Hidden
350
3197
  3
3dWireframe
350
3196
  3
Basic
350
3194
  3
Brighten
350
319B
  3
ColorChange
350
319F
  3
Conceptual
350
3198
  3
Dim
350
319A
  3
EdgeColorOff
350
1B2EC
  3
Facepattern
350
319E
  3
Flat
350
3190
  3
FlatWithEdges
350
3191
  3
Gouraud
350
3192
  3
GouraudWithEdges
350
3193
  3
Hidden
350
1B2E4
  3
JitterOff
350
1B2EA
  3
Linepattern
350
319D
  3
OverhangOff
350
1B2EB
  3
Realistic
350
3199
  3
Shaded
350
1B2E9
  3
Shaded with edges
350
1B2E8
  3
Shades of Gray
350
1B2E5
  3
Sketchy
350
1B2E6
  3
Thicken
350
319C
  3
Wireframe
350
1B2E3
  3
X-Ray
350
1B2E7
  0
XRECORD
  5
210ED
102
{ACAD_REACTORS
330
3182
102
}
330
3182
100
AcDbXrecord
280
     1
 90
        1
330
31A2
  0
DICTIONARY
  5
33A3
102
{ACAD_REACTORS
330
3182
102
}
330
3182
100
AcDbDictionary
281
     1
  3
CANNOSCALE
350
1B222
  3
CMLEADERSTYLE
350
1B30F
  3
CTABLESTYLE
350
33A4
  3
CVIEWDETAILSTYLE
350
1B310
  3
CVIEWSECTIONSTYLE
350
1B311
  3
DIMASSOC
350
9BE8
  3
INDEXCTL
350
9BE7
  3
LAYEREVAL
350
20993
  3
LAYERNOTIFY
350
20994
  3
LIGHTINGUNITS
350
20992
  3
MSLTSCALE
350
20991
  3
SORTENTS
350
9BE6
  3
XCLIPFRAME
350
1FAAB
  0
DICTIONARY
  5
210F4
102
{ACAD_REACTORS
330
3182
102
}
330
3182
100
AcDbDictionary
281
     1
  3
AcDsRecords
350
210F6
  3
AcDsSchemas
350
210F5
1001
ACAD
1070
     2
  0
DICTIONARY
  5
20E17
102
{ACAD_REACTORS
330
3182
102
}
330
3182
100
AcDbDictionary
281
     1
  0
XRECORD
  5
210EE
102
{ACAD_REACTORS
330
3182
102
}
330
3182
100
AcDbXrecord
280
     1
  1
DWGPROPS COOKIE
  2

  3

  4

  6

  7

  8
bendera
  9

300
=
301
=
302
=
303
=
304
=
305
=
306
=
307
=
308
=
309
=
 40
0.0224803587962963
 41
2457482.84833478
 42
2457482.870764062
  1

 90
        0
  0
DICTIONARY
  5
1B063
102
{ACAD_REACTORS
330
422A
102
}
330
422A
100
AcDbDictionary
281
     1
  0
DICTIONARY
  5
9A1C
102
{ACAD_REACTORS
330
422A
102
}
330
422A
100
AcDbDictionary
281
     1
  0
DICTIONARY
  5
1B062
102
{ACAD_REACTORS
330
422A
102
}
330
422A
100
AcDbDictionary
281
     1
1001
ACAD
1000
<All
  0
XRECORD
  5
20F2F
102
{ACAD_REACTORS
330
1B2F5
102
}
330
1B2F5
100
AcDbXrecord
280
     1
290
     1
  0
XRECORD
  5
20F30
102
{ACAD_REACTORS
330
1B2F7
102
}
330
1B2F7
100
AcDbXrecord
280
     1
290
     1
  0
XRECORD
  5
20F31
102
{ACAD_REACTORS
330
1B2F9
102
}
330
1B2F9
100
AcDbXrecord
280
     1
290
     1
  0
XRECORD
  5
20F32
102
{ACAD_REACTORS
330
1B2FB
102
}
330
1B2FB
100
AcDbXrecord
280
     1
290
     1
  0
XRECORD
  5
20F33
102
{ACAD_REACTORS
330
1B2FD
102
}
330
1B2FD
100
AcDbXrecord
280
     1
290
     1
  0
XRECORD
  5
20F34
102
{ACAD_REACTORS
330
1B2FF
102
}
330
1B2FF
100
AcDbXrecord
280
     1
290
     1
  0
XRECORD
  5
20F36
102
{ACAD_REACTORS
330
1B303
102
}
330
1B303
100
AcDbXrecord
280
     1
290
     1
  0
XRECORD
  5
20F37
102
{ACAD_REACTORS
330
1B305
102
}
330
1B305
100
AcDbXrecord
280
     1
290
     1
  0
XRECORD
  5
20F38
102
{ACAD_REACTORS
330
1B307
102
}
330
1B307
100
AcDbXrecord
280
     1
290
     1
  0
XRECORD
  5
20F43
102
{ACAD_REACTORS
330
20AE1
102
}
330
20AE1
100
AcDbXrecord
280
     1
290
     1
  0
SORTENTSTABLE
  5
339D
102
{ACAD_REACTORS
330
339C
102
}
330
339C
100
AcDbSortentsTable
330
1F
331
20E3F
  5
20E40
331
20E2F
  5
20E30
331
20E3E
  5
20E3F
331
20E2E
  5
20E2F
331
20E1F
  5
20E20
331
20E3D
  5
20E3E
331
20E2D
  5
20E2E
331
20E1E
  5
20E1F
331
20E3C
  5
20E3D
331
20E2C
  5
20E2D
331
20E1D
  5
20E1E
331
20E3B
  5
20E3C
331
20E2B
  5
20E2C
331
20E1C
  5
20E1D
331
20E3A
  5
20E3B
331
20E2A
  5
20E2B
331
20E1B
  5
20E1C
331
20E39
  5
20E3A
331
20E38
  5
20E39
331
20E29
  5
20E2A
331
20E1A
  5
20E1B
331
20E47
  5
20E48
331
20E37
  5
20E38
331
20E28
  5
20E29
331
20E19
  5
20E19
331
20E46
  5
20E47
331
20E36
  5
20E37
331
20E27
  5
20E28
331
20E45
  5
20E46
331
20EA7
  5
20EA8
331
20E35
  5
20E36
331
20EB5
  5
20EB8
331
20E26
  5
20E27
331
20E44
  5
20E45
331
20E97
  5
20E98
331
20EA6
  5
20EA7
331
20E34
  5
20E35
331
20EB4
  5
20EB5
331
20E25
  5
20E26
331
20E43
  5
20E44
331
20EA5
  5
20EA6
331
20E87
  5
20E88
331
20E96
  5
20E97
331
20E33
  5
20E34
331
20EB3
  5
20EB4
331
20E24
  5
20E25
331
20E42
  5
20E43
331
20EA4
  5
20EA5
331
20E77
  5
20E78
331
20E86
  5
20E87
331
20E95
  5
20E96
331
20E41
  5
20E42
331
20E32
  5
20E33
331
20EB2
  5
20EB3
331
20E23
  5
20E24
331
20EA3
  5
20EA4
331
20E94
  5
20E95
331
20E67
  5
20E68
331
20E76
  5
20E77
331
20E85
  5
20E86
331
20E40
  5
20E41
331
20E31
  5
20E32
331
20EB1
  5
20EB2
331
20E22
  5
20E23
331
20EA2
  5
20EA3
331
20E93
  5
20E94
331
20E66
  5
20E67
331
20E57
  5
20E58
331
20E75
  5
20E76
331
20E84
  5
20E85
331
20E30
  5
20E31
331
20E21
  5
20E22
331
20EA1
  5
20EA2
331
20E92
  5
20E93
331
20E74
  5
20E75
331
20E56
  5
20E57
331
20E65
  5
20E66
331
20E83
  5
20E84
331
20EB0
  5
20EB1
331
20E20
  5
20E21
331
20EAF
  5
20EB0
331
20E91
  5
20E92
331
20E73
  5
20E74
331
20E55
  5
20E56
331
20E64
  5
20E65
331
20E82
  5
20E83
331
20EA0
  5
20EA1
331
20EBD
  5
20EC3
331
20EAE
  5
20EAF
331
20E9F
  5
20EA0
331
20E81
  5
20E82
331
20E72
  5
20E73
331
20E63
  5
20E64
331
20E54
  5
20E55
331
20E90
  5
20E91
331
20EAD
  5
20EAE
331
20E9E
  5
20E9F
331
20E80
  5
20E81
331
20E62
  5
20E63
331
20E71
  5
20E72
331
20E53
  5
20E54
331
20E8F
  5
20E90
331
20EAC
  5
20EAD
331
20E9D
  5
20E9E
331
20E8E
  5
20E8F
331
20E7F
  5
20E80
331
20E61
  5
20E62
331
20E52
  5
20E53
331
20E70
  5
20E71
331
20EBA
  5
20EBD
331
20E9C
  5
20E9D
331
20EAB
  5
20EAC
331
20E7E
  5
20E7F
331
20E8D
  5
20E8E
331
20E6F
  5
20E70
331
20E51
  5
20E52
331
20E60
  5
20E61
331
20EB9
  5
20EBA
331
20E9B
  5
20E9C
331
20EAA
  5
20EAB
331
20E7D
  5
20E7E
331
20E8C
  5
20E8D
331
20E6E
  5
20E6F
331
20E50
  5
20E51
331
20E5F
  5
20E60
331
20EB8
  5
20EB9
331
20E9A
  5
20E9B
331
20EA9
  5
20EAA
331
20E7C
  5
20E7D
331
20E8B
  5
20E8C
331
20E6D
  5
20E6E
331
20E5E
  5
20E5F
331
20E4F
  5
20E50
331
20EA8
  5
20EA9
331
20E99
  5
20E9A
331
20E8A
  5
20E8B
331
20E7B
  5
20E7C
331
20E6C
  5
20E6D
331
20E5D
  5
20E5E
331
20E4E
  5
20E4F
331
20E98
  5
20E99
331
20E89
  5
20E8A
331
20E7A
  5
20E7B
331
20E6B
  5
20E6C
331
20E5C
  5
20E5D
331
20E4D
  5
20E4E
331
20E88
  5
20E89
331
20E79
  5
20E7A
331
20E6A
  5
20E6B
331
20E5B
  5
20E5C
331
20E4C
  5
20E4D
331
20E78
  5
20E79
331
20E69
  5
20E6A
331
20E5A
  5
20E5B
331
20E4B
  5
20E4C
331
20E68
  5
20E69
331
20E59
  5
20E5A
331
20E4A
  5
20E4B
331
20E58
  5
20E59
331
20E49
  5
20E4A
331
20E48
  5
20E49
331
20EC5
  5
210EA
331
1FB3A
  5
1FB3A
331
208EB
  5
208EB
331
208EA
  5
208EA
331
208E9
  5
208E9
331
21011
  5
20E1A
331
20A18
  5
20A18
331
20CC2
  5
20CC2
331
210E3
  5
210EB
  0
DICTIONARY
  5
21135
102
{ACAD_REACTORS
330
1DE81
102
}
330
1DE81
100
AcDbDictionary
280
     1
281
     1
  3
Edit
360
21136
  0
DICTIONARY
  5
21139
102
{ACAD_REACTORS
330
20CA6
102
}
330
20CA6
100
AcDbDictionary
280
     1
281
     1
  3
Edit
360
2113A
  0
DICTIONARY
  5
20CAA
102
{ACAD_REACTORS
330
20CA9
102
}
330
20CA9
100
AcDbDictionary
280
     1
281
     1
  3
TEXT
360
20CAB
  0
DICTIONARY
  5
20CC5
102
{ACAD_REACTORS
330
20CC4
102
}
330
20CC4
100
AcDbDictionary
280
     1
281
     1
  3
TEXT
360
20CC6
  0
DIMASSOC
  5
20EB7
102
{ACAD_REACTORS
330
20EB6
102
}
330
20EB6
100
AcDbDimAssoc
330
20EB5
 90
        3
 70
     0
 71
     0
  1
AcDbOsnapPointRef
 72
     2
331
20E57
 73
     2
 91
        0
 40
0.5
 10
0.0
 20
0.0
 30
0.0
 75
     0
  1
AcDbOsnapPointRef
 72
    13
331
20E1D
 73
     2
 91
        0
 40
0.0
 10
0.0
 20
0.0
 30
2.000000000000000E+50
 75
     0
  0
DIMASSOC
  5
20EBC
102
{ACAD_REACTORS
330
20EBB
102
}
330
20EBB
100
AcDbDimAssoc
330
20EBA
 90
        3
 70
     0
 71
     0
  1
AcDbOsnapPointRef
 72
     1
331
20E66
 73
     2
 91
        0
 40
1.0
 10
0.0
 20
0.0
 30
2.000000000000000E+50
 75
     0
  1
AcDbOsnapPointRef
 72
     1
331
20E1E
 73
     2
 91
        0
 40
1.0
 10
0.0
 20
0.0
 30
2.000000000000000E+50
 75
     0
  0
XRECORD
  5
2111C
102
{ACAD_REACTORS
330
2111B
102
}
330
2111B
100
AcDbXrecord
280
     1
102
SHADEPLOT
 70
     0
  0
XRECORD
  5
2111E
102
{ACAD_REACTORS
330
2111D
102
}
330
2111D
100
AcDbXrecord
280
     1
102
SHADEPLOT
 70
     0
  0
ACDBDETAILVIEWSTYLE
  5
20CB3
102
{ACAD_XDICTIONARY
360
20CB4
102
}
102
{ACAD_REACTORS
330
1B2F0
102
}
330
1B2F0
100
AcDbModelDocViewStyle
 70
     0
  3
Imperial24
290
     0
100
AcDbDetailViewStyle
 70
     0
 71
     0
 90
        3
 71
     1
340
11
 40
0.24
340
0
 40
0.24
300

 40
0.36
280
     3
 71
     2
340
16
 90
       25
 71
     3
340
11
 40
0.24
 90
        1
 40
0.75
 90
        1
300
%<\AcVar ViewType \f "%tc1">% %<\AcVar ViewDetailId>%\PVARIA %<\AcVar ViewScale \f "%sn">%
 71
     4
340
16
 90
       25
340
16
 90
       25
280
     0
  0
ACDBDETAILVIEWSTYLE
  5
1B2F1
102
{ACAD_XDICTIONARY
360
2098E
102
}
102
{ACAD_REACTORS
330
1B2F0
102
}
330
1B2F0
100
AcDbModelDocViewStyle
 70
     0
  3
Metric50
290
     0
100
AcDbDetailViewStyle
 70
     0
 71
     0
 90
        3
 71
     1
340
11
 40
5.0
340
0
 40
5.0
300

 40
0.0
280
     1
 71
     2
340
16
 90
       25
 71
     3
340
11
 40
5.0
 90
        0
 40
15.0
 90
        1
300
%<\AcVar ViewDetailId>% (%<\AcVar ViewScale \f "%sn">%)
 71
     4
340
16
 90
       25
340
16
 90
       25
280
     0
  0
LAYOUT
  5
31A7
102
{ACAD_XDICTIONARY
360
9C07
102
}
102
{ACAD_REACTORS
330
31A5
102
}
330
31A5
100
AcDbPlotSettings
  1

  2
\\ingdc01\ITB3
  4
A4
  6

 40
6.805083274841307
 41
5.027085781097412
 42
6.805068969726562
 43
5.027069091796875
 44
209.9733276367186
 45
296.9683227539062
 46
0.0
 47
0.0
 48
0.0
 49
0.0
140
0.0
141
0.0
142
1.0
143
1.0
 70
   688
 72
     1
 73
     1
 74
     5
  7

 75
    16
147
1.0
148
0.0
149
0.0
100
AcDbLayout
  1
Layout1
 70
     1
 71
     1
 10
-5.027069091796875
 20
-6.805083274841307
 11
291.9412536621094
 21
203.1682443618775
 12
0.0
 22
0.0
 32
0.0
 14
28.69141678810127
 24
19.6363175392151
 34
0.0
 15
258.2227510929107
 25
176.7268578529358
 35
0.0
146
0.0
 13
0.0
 23
0.0
 33
0.0
 16
1.0
 26
0.0
 36
0.0
 17
0.0
 27
1.0
 37
0.0
 76
     0
330
1B
331
9C00
1001
ACAD_PSEXT
1000
\\ingdc01\ITB3
1000
HP LaserJet 5000 Series PCL
1000
TB
1000

1070
     0
  0
LAYOUT
  5
31A6
102
{ACAD_XDICTIONARY
360
21118
102
}
102
{ACAD_REACTORS
330
31A5
102
}
330
31A5
100
AcDbPlotSettings
  1

  2
\\ingdc01\ITB3
  4
A4
  6

 40
6.805083274841307
 41
5.027085781097412
 42
6.805068969726562
 43
5.027069091796875
 44
209.9733276367186
 45
296.9683227539062
 46
0.0
 47
0.0
 48
0.0
 49
0.0
140
0.0
141
0.0
142
1.0
143
1.500313223655698
 70
 11952
 72
     1
 73
     1
 74
     0
  7

 75
     0
147
0.6665274852163048
148
239.0155119930048
149
102.2558208723354
100
AcDbLayout
  1
Model
 70
     1
 71
     0
 10
0.0
 20
0.0
 11
12.0
 21
9.0
 12
0.0
 22
0.0
 32
0.0
 14
0.0
 24
0.0
 34
0.0
 15
0.0
 25
0.0
 35
0.0
146
0.0
 13
0.0
 23
0.0
 33
0.0
 16
1.0
 26
0.0
 36
0.0
 17
0.0
 27
1.0
 37
0.0
 76
     0
330
1F
331
1F4
1001
ACAD_PSEXT
1000
\\ingdc01\ITB3
1000
HP LaserJet 5000 Series PCL
1000
TB
1000

1070
     0
  0
MATERIAL
  5
318D
102
{ACAD_XDICTIONARY
360
1B22B
102
}
102
{ACAD_REACTORS
330
318B
102
}
330
318B
100
AcDbMaterial
  1
ByBlock
  0
MATERIAL
  5
318C
102
{ACAD_XDICTIONARY
360
1B22D
102
}
102
{ACAD_REACTORS
330
318B
102
}
330
318B
100
AcDbMaterial
  1
ByLayer
  0
MATERIAL
  5
318E
102
{ACAD_XDICTIONARY
360
1B22F
102
}
102
{ACAD_REACTORS
330
318B
102
}
330
318B
100
AcDbMaterial
  1
Global
  0
MLEADERSTYLE
  5
1B2ED
102
{ACAD_REACTORS
330
1B221
102
}
330
1B221
100
AcDbMLeaderStyle
170
     2
171
     1
172
     0
 90
        2
 40
0.0
 41
0.0
173
     1
 91
-1056964608
340
14
 92
       -2
290
     1
 42
2.0
291
     1
 43
0.36
  3
Standard
 44
4.0
300

342
11
174
     1
178
     6
175
     1
176
     0
 93
-1056964608
 45
4.0
292
     0
297
     0
 46
4.0
 94
-1056964608
 47
1.0
 49
1.0
140
1.0
293
     1
141
0.0
294
     1
177
     0
142
1.0
295
     0
296
     0
143
0.125
1001
ACAD_MLEADERVER
1070
     2
  0
MLINESTYLE
  5
3185
102
{ACAD_REACTORS
330
3184
102
}
330
3184
100
AcDbMlineStyle
  2
STANDARD
 70
     0
  3

 62
   256
 51
90.0
 52
90.0
 71
     2
 49
0.5
 62
   256
  6
BYLAYER
 49
-0.5
 62
   256
  6
BYLAYER
  0
ACDBPLACEHOLDER
  5
318A
102
{ACAD_REACTORS
330
3189
102
}
330
3189
  0
SCALE
  5
1B1FD
102
{ACAD_REACTORS
330
1B1FC
102
}
330
1B1FC
100
AcDbScale
 70
     0
300
1:1
140
1.0
141
1.0
290
     1
1001
ACAD
1000
AcRTDxfName
1000
SCALE
  0
SCALE
  5
1B1FE
102
{ACAD_REACTORS
330
1B1FC
102
}
330
1B1FC
100
AcDbScale
 70
     0
300
1:2
140
1.0
141
2.0
290
     0
1001
ACAD
1000
AcRTDxfName
1000
SCALE
  0
SCALE
  5
1B1FF
102
{ACAD_REACTORS
330
1B1FC
102
}
330
1B1FC
100
AcDbScale
 70
     0
300
1:4
140
1.0
141
4.0
290
     0
1001
ACAD
1000
AcRTDxfName
1000
SCALE
  0
SCALE
  5
1B200
102
{ACAD_REACTORS
330
1B1FC
102
}
330
1B1FC
100
AcDbScale
 70
     0
300
1:5
140
1.0
141
5.0
290
     0
1001
ACAD
1000
AcRTDxfName
1000
SCALE
  0
SCALE
  5
1B201
102
{ACAD_REACTORS
330
1B1FC
102
}
330
1B1FC
100
AcDbScale
 70
     0
300
1:8
140
1.0
141
8.0
290
     0
1001
ACAD
1000
AcRTDxfName
1000
SCALE
  0
SCALE
  5
1B202
102
{ACAD_REACTORS
330
1B1FC
102
}
330
1B1FC
100
AcDbScale
 70
     0
300
1:10
140
1.0
141
10.0
290
     0
1001
ACAD
1000
AcRTDxfName
1000
SCALE
  0
SCALE
  5
1B203
102
{ACAD_REACTORS
330
1B1FC
102
}
330
1B1FC
100
AcDbScale
 70
     0
300
1:16
140
1.0
141
16.0
290
     0
1001
ACAD
1000
AcRTDxfName
1000
SCALE
  0
SCALE
  5
1B204
102
{ACAD_REACTORS
330
1B1FC
102
}
330
1B1FC
100
AcDbScale
 70
     0
300
1:20
140
1.0
141
20.0
290
     0
1001
ACAD
1000
AcRTDxfName
1000
SCALE
  0
SCALE
  5
1B205
102
{ACAD_REACTORS
330
1B1FC
102
}
330
1B1FC
100
AcDbScale
 70
     0
300
1:30
140
1.0
141
30.0
290
     0
1001
ACAD
1000
AcRTDxfName
1000
SCALE
  0
SCALE
  5
1B206
102
{ACAD_REACTORS
330
1B1FC
102
}
330
1B1FC
100
AcDbScale
 70
     0
300
1:40
140
1.0
141
40.0
290
     0
1001
ACAD
1000
AcRTDxfName
1000
SCALE
  0
SCALE
  5
1B207
102
{ACAD_REACTORS
330
1B1FC
102
}
330
1B1FC
100
AcDbScale
 70
     0
300
1:50
140
1.0
141
50.0
290
     0
1001
ACAD
1000
AcRTDxfName
1000
SCALE
  0
SCALE
  5
1B208
102
{ACAD_REACTORS
330
1B1FC
102
}
330
1B1FC
100
AcDbScale
 70
     0
300
1:100
140
1.0
141
100.0
290
     0
1001
ACAD
1000
AcRTDxfName
1000
SCALE
  0
SCALE
  5
1B209
102
{ACAD_REACTORS
330
1B1FC
102
}
330
1B1FC
100
AcDbScale
 70
     0
300
2:1
140
2.0
141
1.0
290
     0
1001
ACAD
1000
AcRTDxfName
1000
SCALE
  0
SCALE
  5
1B20A
102
{ACAD_REACTORS
330
1B1FC
102
}
330
1B1FC
100
AcDbScale
 70
     0
300
4:1
140
4.0
141
1.0
290
     0
1001
ACAD
1000
AcRTDxfName
1000
SCALE
  0
SCALE
  5
1B20B
102
{ACAD_REACTORS
330
1B1FC
102
}
330
1B1FC
100
AcDbScale
 70
     0
300
8:1
140
8.0
141
1.0
290
     0
1001
ACAD
1000
AcRTDxfName
1000
SCALE
  0
SCALE
  5
1B20C
102
{ACAD_REACTORS
330
1B1FC
102
}
330
1B1FC
100
AcDbScale
 70
     0
300
10:1
140
10.0
141
1.0
290
     0
1001
ACAD
1000
AcRTDxfName
1000
SCALE
  0
SCALE
  5
1B20D
102
{ACAD_REACTORS
330
1B1FC
102
}
330
1B1FC
100
AcDbScale
 70
     0
300
100:1
140
100.0
141
1.0
290
     0
1001
ACAD
1000
AcRTDxfName
1000
SCALE
  0
SCALE
  5
1B20E
102
{ACAD_REACTORS
330
1B1FC
102
}
330
1B1FC
100
AcDbScale
 70
     0
300
1/128" = 1'-0"
140
0.0078125
141
12.0
290
     0
1001
ACAD
1000
AcRTDxfName
1000
SCALE
  0
SCALE
  5
1B20F
102
{ACAD_REACTORS
330
1B1FC
102
}
330
1B1FC
100
AcDbScale
 70
     0
300
1/64" = 1'-0"
140
0.015625
141
12.0
290
     0
1001
ACAD
1000
AcRTDxfName
1000
SCALE
  0
SCALE
  5
1B210
102
{ACAD_REACTORS
330
1B1FC
102
}
330
1B1FC
100
AcDbScale
 70
     0
300
1/32" = 1'-0"
140
0.03125
141
12.0
290
     0
1001
ACAD
1000
AcRTDxfName
1000
SCALE
  0
SCALE
  5
1B211
102
{ACAD_REACTORS
330
1B1FC
102
}
330
1B1FC
100
AcDbScale
 70
     0
300
1/16" = 1'-0"
140
0.0625
141
12.0
290
     0
1001
ACAD
1000
AcRTDxfName
1000
SCALE
  0
SCALE
  5
1B212
102
{ACAD_REACTORS
330
1B1FC
102
}
330
1B1FC
100
AcDbScale
 70
     0
300
3/32" = 1'-0"
140
0.09375
141
12.0
290
     0
1001
ACAD
1000
AcRTDxfName
1000
SCALE
  0
SCALE
  5
1B213
102
{ACAD_REACTORS
330
1B1FC
102
}
330
1B1FC
100
AcDbScale
 70
     0
300
1/8" = 1'-0"
140
0.125
141
12.0
290
     0
1001
ACAD
1000
AcRTDxfName
1000
SCALE
  0
SCALE
  5
1B214
102
{ACAD_REACTORS
330
1B1FC
102
}
330
1B1FC
100
AcDbScale
 70
     0
300
3/16" = 1'-0"
140
0.1875
141
12.0
290
     0
1001
ACAD
1000
AcRTDxfName
1000
SCALE
  0
SCALE
  5
1B215
102
{ACAD_REACTORS
330
1B1FC
102
}
330
1B1FC
100
AcDbScale
 70
     0
300
1/4" = 1'-0"
140
0.25
141
12.0
290
     0
1001
ACAD
1000
AcRTDxfName
1000
SCALE
  0
SCALE
  5
1B216
102
{ACAD_REACTORS
330
1B1FC
102
}
330
1B1FC
100
AcDbScale
 70
     0
300
3/8" = 1'-0"
140
0.375
141
12.0
290
     0
1001
ACAD
1000
AcRTDxfName
1000
SCALE
  0
SCALE
  5
1B217
102
{ACAD_REACTORS
330
1B1FC
102
}
330
1B1FC
100
AcDbScale
 70
     0
300
1/2" = 1'-0"
140
0.5
141
12.0
290
     0
1001
ACAD
1000
AcRTDxfName
1000
SCALE
  0
SCALE
  5
1B218
102
{ACAD_REACTORS
330
1B1FC
102
}
330
1B1FC
100
AcDbScale
 70
     0
300
3/4" = 1'-0"
140
0.75
141
12.0
290
     0
1001
ACAD
1000
AcRTDxfName
1000
SCALE
  0
SCALE
  5
1B219
102
{ACAD_REACTORS
330
1B1FC
102
}
330
1B1FC
100
AcDbScale
 70
     0
300
1" = 1'-0"
140
1.0
141
12.0
290
     0
1001
ACAD
1000
AcRTDxfName
1000
SCALE
  0
SCALE
  5
1B21A
102
{ACAD_REACTORS
330
1B1FC
102
}
330
1B1FC
100
AcDbScale
 70
     0
300
1-1/2" = 1'-0"
140
1.5
141
12.0
290
     0
1001
ACAD
1000
AcRTDxfName
1000
SCALE
  0
SCALE
  5
1B21B
102
{ACAD_REACTORS
330
1B1FC
102
}
330
1B1FC
100
AcDbScale
 70
     0
300
3" = 1'-0"
140
3.0
141
12.0
290
     0
1001
ACAD
1000
AcRTDxfName
1000
SCALE
  0
SCALE
  5
1B21C
102
{ACAD_REACTORS
330
1B1FC
102
}
330
1B1FC
100
AcDbScale
 70
     0
300
6" = 1'-0"
140
6.0
141
12.0
290
     0
1001
ACAD
1000
AcRTDxfName
1000
SCALE
  0
SCALE
  5
1B21D
102
{ACAD_REACTORS
330
1B1FC
102
}
330
1B1FC
100
AcDbScale
 70
     0
300
1'-0" = 1'-0"
140
12.0
141
12.0
290
     0
1001
ACAD
1000
AcRTDxfName
1000
SCALE
  0
ACDBSECTIONVIEWSTYLE
  5
20CB1
102
{ACAD_XDICTIONARY
360
20CB2
102
}
102
{ACAD_REACTORS
330
1B2EE
102
}
330
1B2EE
100
AcDbModelDocViewStyle
 70
     0
  3
Imperial24
290
     0
100
AcDbSectionViewStyle
 70
     0
 71
     0
 90
       78
 71
     1
340
11
 40
0.24
340
0
340
0
 40
0.24
300
I, O, Q, S, X, Z
 40
0.48
 90
        3
 40
0.18
 90
        1
 71
     2
340
16
 90
       25
340
16
 90
       50
 40
0.24
 40
0.0
 40
0.24
 71
     3
340
11
 40
0.24
 90
        1
 40
0.75
 90
        1
300
%<\AcVar ViewType \f "%tc1">% %<\AcVar ViewSectionStartId>%-%<\AcVar ViewSectionEndId>%\PVARIA %<\AcVar ViewScale \f "%sn">%
 71
     4
300
ANSI31
 40
1.0
 90
        0
290
     0
290
     0
 90
        6
 40
0.0
 40
1.570796326794896
 40
0.2617993877991494
 40
1.308996938995747
 40
-0.2617993877991494
 40
1.832595714594046
  0
ACDBSECTIONVIEWSTYLE
  5
1B2EF
102
{ACAD_XDICTIONARY
360
2098C
102
}
102
{ACAD_REACTORS
330
1B2EE
102
}
330
1B2EE
100
AcDbModelDocViewStyle
 70
     0
  3
Metric50
290
     0
100
AcDbSectionViewStyle
 70
     0
 71
     0
 90
      102
 71
     1
340
11
 40
5.0
340
0
340
0
 40
5.0
300
I, O, Q, S, X, Z
 40
10.0
 90
        0
 40
2.5
 90
        0
 71
     2
340
16
 90
       25
340
16
 90
       50
 40
5.0
 40
2.5
 40
5.0
 71
     3
340
11
 40
5.0
 90
        0
 40
15.0
 90
        1
300
%<\AcVar ViewSectionStartId>%-%<\AcVar ViewSectionEndId>% (%<\AcVar ViewScale \f "%sn">%)
 71
     4
300
ANSI31
 40
1.0
 90
        0
290
     0
290
     0
 90
        6
 40
0.0
 40
1.570796326794896
 40
0.2617993877991494
 40
1.308996938995747
 40
-0.2617993877991494
 40
1.832595714594044
  0
TABLESTYLE
  5
31A2
102
{ACAD_XDICTIONARY
360
1B314
102
}
102
{ACAD_REACTORS
330
31A1
102
}
330
31A1
100
AcDbTableStyle
  3
Standard
 70
     0
 71
     0
 40
1.5
 41
1.5
280
     0
281
     0
  7
STANDARD
140
4.5
170
     2
 62
     0
 63
     7
283
     0
274
    -2
284
     1
 64
     0
275
    -2
285
     1
 65
     0
276
    -2
286
     1
 66
     0
277
    -2
287
     1
 67
     0
278
    -2
288
     1
 68
     0
279
    -2
289
     1
 69
     0
  7
STANDARD
140
6.0
170
     5
 62
     0
 63
     7
283
     0
274
    -2
284
     1
 64
     0
275
    -2
285
     1
 65
     0
276
    -2
286
     1
 66
     0
277
    -2
287
     1
 67
     0
278
    -2
288
     1
 68
     0
279
    -2
289
     1
 69
     0
  7
STANDARD
140
4.5
170
     5
 62
     0
 63
     7
283
     0
274
    -2
284
     1
 64
     0
275
    -2
285
     1
 65
     0
276
    -2
286
     1
 66
     0
277
    -2
287
     1
 67
     0
278
    -2
288
     1
 68
     0
279
    -2
289
     1
 69
     0
  0
VISUALSTYLE
  5
3195
102
{ACAD_XDICTIONARY
360
21101
102
}
102
{ACAD_REACTORS
330
318F
102
}
330
318F
100
AcDbVisualStyle
  2

 70
     4
 71
     0
 72
     2
 73
     0
 90
        0
 40
-0.6
 41
-30.0
 62
     5
 63
     7
 74
     1
 91
        4
 64
     7
 65
   257
 75
     1
175
     1
 42
1.0
 92
        0
 66
   257
 43
1.0
 76
     1
 77
     6
 78
     2
 67
     7
 79
     5
170
     0
171
     0
290
     0
174
     0
 93
        1
 44
0.0
173
     0
291
     0
 45
0.0
1001
ACAD
1000
AcDbSavedByObjectVersion
1070
     0
  0
VISUALSTYLE
  5
3197
102
{ACAD_XDICTIONARY
360
21105
102
}
102
{ACAD_REACTORS
330
318F
102
}
330
318F
100
AcDbVisualStyle
  2

 70
     6
 71
     1
 72
     2
 73
     2
 90
        0
 40
-0.6
 41
-30.0
 62
     5
 63
     7
 74
     2
 91
        2
 64
     7
 65
   257
 75
     2
175
     1
 42
40.0
 92
        0
 66
   257
 43
1.0
 76
     1
 77
     6
 78
     2
 67
     7
 79
     3
170
     0
171
     0
290
     0
174
     0
 93
        1
 44
0.0
173
     0
291
     0
 45
0.0
1001
ACAD
1000
AcDbSavedByObjectVersion
1070
     0
  0
VISUALSTYLE
  5
3196
102
{ACAD_XDICTIONARY
360
21103
102
}
102
{ACAD_REACTORS
330
318F
102
}
330
318F
100
AcDbVisualStyle
  2

 70
     5
 71
     0
 72
     2
 73
     0
 90
        0
 40
-0.6
 41
-30.0
 62
     5
 63
     7
 74
     1
 91
        4
 64
     7
 65
   257
 75
     1
175
     1
 42
1.0
 92
        0
 66
   257
 43
1.0
 76
     1
 77
     6
 78
     2
 67
     7
 79
     5
170
     0
171
     0
290
     0
174
     0
 93
        1
 44
0.0
173
     0
291
     0
 45
0.0
1001
ACAD
1000
AcDbSavedByObjectVersion
1070
     0
  0
VISUALSTYLE
  5
3194
102
{ACAD_XDICTIONARY
360
210FF
102
}
102
{ACAD_REACTORS
330
318F
102
}
330
318F
100
AcDbVisualStyle
  2

 70
     7
 71
     1
 72
     0
 73
     1
 90
        0
 40
-0.6
 41
-30.0
 62
     5
 63
     7
 74
     0
 91
        4
 64
     7
 65
   257
 75
     1
175
     1
 42
1.0
 92
        8
 66
     7
 43
1.0
 76
     1
 77
     6
 78
     2
 67
     7
 79
     5
170
     0
171
     0
290
     0
174
     0
 93
        1
 44
0.0
173
     0
291
     1
 45
0.0
1001
ACAD
1000
AcDbSavedByObjectVersion
1070
     0
  0
VISUALSTYLE
  5
319B
102
{ACAD_XDICTIONARY
360
2110D
102
}
102
{ACAD_REACTORS
330
318F
102
}
330
318F
100
AcDbVisualStyle
  2

 70
    12
 71
     2
 72
     2
 73
     0
 90
        0
 40
-0.6
 41
-30.0
 62
     5
 63
     7
 74
     1
 91
        4
 64
     7
 65
   257
 75
     1
175
     1
 42
1.0
 92
        8
 66
     7
 43
1.0
 76
     1
 77
     6
 78
     2
 67
     7
 79
     5
170
     0
171
     0
290
     0
174
     0
 93
        1
 44
50.0
173
     0
291
     1
 45
0.0
1001
ACAD
1000
AcDbSavedByObjectVersion
1070
     0
  0
VISUALSTYLE
  5
319F
102
{ACAD_XDICTIONARY
360
21115
102
}
102
{ACAD_REACTORS
330
318F
102
}
330
318F
100
AcDbVisualStyle
  2

 70
    16
 71
     2
 72
     2
 73
     3
 90
        0
 40
-0.6
 41
-30.0
 62
     5
 63
     8
 74
     1
 91
        4
 64
     7
 65
   257
 75
     1
175
     1
 42
1.0
 92
        8
 66
     8
 43
1.0
 76
     1
 77
     6
 78
     2
 67
     7
 79
     5
170
     0
171
     0
290
     0
174
     0
 93
        1
 44
0.0
173
     0
291
     1
 45
0.0
1001
ACAD
1000
AcDbSavedByObjectVersion
1070
     0
  0
VISUALSTYLE
  5
3198
102
{ACAD_XDICTIONARY
360
21107
102
}
102
{ACAD_REACTORS
330
318F
102
}
330
318F
100
AcDbVisualStyle
  2

 70
     9
 71
     3
 72
     2
 73
     0
 90
        0
 40
-0.6
 41
-30.0
 62
     5
 63
     7
 74
     2
 91
        2
 64
     7
 65
   257
 75
     1
175
     1
 42
40.0
 92
        8
 66
     7
 43
1.0
 76
     1
 77
     6
 78
     2
 67
     7
 79
     3
170
     0
171
     0
290
     0
174
     0
 93
        1
 44
0.0
173
     0
291
     0
 45
0.0
1001
ACAD
1000
AcDbSavedByObjectVersion
1070
     0
  0
VISUALSTYLE
  5
319A
102
{ACAD_XDICTIONARY
360
2110B
102
}
102
{ACAD_REACTORS
330
318F
102
}
330
318F
100
AcDbVisualStyle
  2

 70
    11
 71
     2
 72
     2
 73
     0
 90
        0
 40
-0.6
 41
-30.0
 62
     5
 63
     7
 74
     1
 91
        4
 64
     7
 65
   257
 75
     1
175
     1
 42
1.0
 92
        8
 66
     7
 43
1.0
 76
     1
 77
     6
 78
     2
 67
     7
 79
     5
170
     0
171
     0
290
     0
174
     0
 93
        1
 44
-50.0
173
     0
291
     1
 45
0.0
1001
ACAD
1000
AcDbSavedByObjectVersion
1070
     0
  0
VISUALSTYLE
  5
1B2EC
102
{ACAD_XDICTIONARY
360
21131
102
}
102
{ACAD_REACTORS
330
318F
102
}
330
318F
100
AcDbVisualStyle
  2

 70
    22
 71
     2
 72
     2
 73
     0
 90
        0
 40
-0.6
 41
-30.0
 62
     5
 63
     7
 74
     1
 91
        4
 64
     7
 65
   257
 75
     1
175
     1
 42
1.0
 92
        8
 66
     7
 43
1.0
 76
     1
 77
     6
 78
     2
 67
     7
 79
     5
170
     0
171
     0
290
     0
174
     0
 93
        1
 44
0.0
173
     0
291
     1
 45
0.0
1001
ACAD
1000
AcDbSavedByObjectVersion
1070
     0
  0
VISUALSTYLE
  5
319E
102
{ACAD_XDICTIONARY
360
21113
102
}
102
{ACAD_REACTORS
330
318F
102
}
330
318F
100
AcDbVisualStyle
  2

 70
    15
 71
     2
 72
     2
 73
     0
 90
        0
 40
-0.6
 41
-30.0
 62
     5
 63
     7
 74
     1
 91
        4
 64
     7
 65
   257
 75
     1
175
     1
 42
1.0
 92
        8
 66
     7
 43
1.0
 76
     1
 77
     6
 78
     2
 67
     7
 79
     5
170
     0
171
     0
290
     0
174
     0
 93
        1
 44
0.0
173
     0
291
     1
 45
0.0
1001
ACAD
1000
AcDbSavedByObjectVersion
1070
     0
  0
VISUALSTYLE
  5
3190
102
{ACAD_XDICTIONARY
360
210F7
102
}
102
{ACAD_REACTORS
330
318F
102
}
330
318F
100
AcDbVisualStyle
  2

 70
     0
 71
     2
 72
     1
 73
     1
 90
        2
 40
-0.6
 41
30.0
 62
     5
 63
     7
 74
     0
 91
        4
 64
     7
 65
   257
 75
     1
175
     1
 42
1.0
 92
        8
 66
     7
 43
1.0
 76
     1
 77
     6
 78
     2
 67
     7
 79
     5
170
     0
171
     0
290
     0
174
     0
 93
       13
 44
0.0
173
     0
291
     1
 45
0.0
1001
ACAD
1000
AcDbSavedByObjectVersion
1070
     0
  0
VISUALSTYLE
  5
3191
102
{ACAD_XDICTIONARY
360
210F9
102
}
102
{ACAD_REACTORS
330
318F
102
}
330
318F
100
AcDbVisualStyle
  2

 70
     1
 71
     2
 72
     1
 73
     1
 90
        2
 40
-0.6
 41
30.0
 62
     5
 63
     7
 74
     1
 91
        4
 64
     7
 65
   257
 75
     1
175
     1
 42
1.0
 92
        0
 66
   257
 43
1.0
 76
     1
 77
     6
 78
     2
 67
     7
 79
     5
170
     0
171
     0
290
     0
174
     0
 93
       13
 44
0.0
173
     0
291
     1
 45
0.0
1001
ACAD
1000
AcDbSavedByObjectVersion
1070
     0
  0
VISUALSTYLE
  5
3192
102
{ACAD_XDICTIONARY
360
210FB
102
}
102
{ACAD_REACTORS
330
318F
102
}
330
318F
100
AcDbVisualStyle
  2

 70
     2
 71
     2
 72
     2
 73
     1
 90
        2
 40
-0.6
 41
30.0
 62
     5
 63
     7
 74
     0
 91
        4
 64
     7
 65
   257
 75
     1
175
     1
 42
1.0
 92
        0
 66
     7
 43
1.0
 76
     1
 77
     6
 78
     2
 67
     7
 79
     5
170
     0
171
     0
290
     0
174
     0
 93
       13
 44
0.0
173
     0
291
     1
 45
0.0
1001
ACAD
1000
AcDbSavedByObjectVersion
1070
     0
  0
VISUALSTYLE
  5
3193
102
{ACAD_XDICTIONARY
360
210FD
102
}
102
{ACAD_REACTORS
330
318F
102
}
330
318F
100
AcDbVisualStyle
  2

 70
     3
 71
     2
 72
     2
 73
     1
 90
        2
 40
-0.6
 41
30.0
 62
     5
 63
     7
 74
     1
 91
        4
 64
     7
 65
   257
 75
     1
175
     1
 42
1.0
 92
        0
 66
   257
 43
1.0
 76
     1
 77
     6
 78
     2
 67
     7
 79
     5
170
     0
171
     0
290
     0
174
     0
 93
       13
 44
0.0
173
     0
291
     1
 45
0.0
1001
ACAD
1000
AcDbSavedByObjectVersion
1070
     0
  0
VISUALSTYLE
  5
1B2E4
102
{ACAD_XDICTIONARY
360
21121
102
}
102
{ACAD_REACTORS
330
318F
102
}
330
318F
100
AcDbVisualStyle
  2

 70
     6
 71
     1
 72
     2
 73
     2
 90
        0
 40
-0.6
 41
-30.0
 62
     5
 63
     7
 74
     2
 91
        2
 64
     7
 65
   257
 75
     2
175
     1
 42
40.0
 92
        0
 66
   257
 43
1.0
 76
     1
 77
     6
 78
     2
 67
     7
 79
     3
170
     0
171
     0
290
     0
174
     0
 93
        1
 44
0.0
173
     0
291
     0
 45
0.0
1001
ACAD
1000
AcDbSavedByObjectVersion
1070
     0
  0
VISUALSTYLE
  5
1B2EA
102
{ACAD_XDICTIONARY
360
2112D
102
}
102
{ACAD_REACTORS
330
318F
102
}
330
318F
100
AcDbVisualStyle
  2

 70
    20
 71
     2
 72
     2
 73
     0
 90
        0
 40
-0.6
 41
-30.0
 62
     5
 63
     7
 74
     1
 91
        4
 64
     7
 65
   257
 75
     1
175
     1
 42
1.0
 92
       10
 66
     7
 43
1.0
 76
     1
 77
     6
 78
     2
 67
     7
 79
     5
170
     0
171
     0
290
     0
174
     0
 93
        1
 44
0.0
173
     0
291
     1
 45
0.0
1001
ACAD
1000
AcDbSavedByObjectVersion
1070
     0
  0
VISUALSTYLE
  5
319D
102
{ACAD_XDICTIONARY
360
21111
102
}
102
{ACAD_REACTORS
330
318F
102
}
330
318F
100
AcDbVisualStyle
  2

 70
    14
 71
     2
 72
     2
 73
     0
 90
        0
 40
-0.6
 41
-30.0
 62
     5
 63
     7
 74
     1
 91
        4
 64
     7
 65
   257
 75
     7
175
     7
 42
1.0
 92
        8
 66
     7
 43
1.0
 76
     1
 77
     6
 78
     2
 67
     7
 79
     5
170
     0
171
     0
290
     0
174
     0
 93
        1
 44
0.0
173
     0
291
     1
 45
0.0
1001
ACAD
1000
AcDbSavedByObjectVersion
1070
     0
  0
VISUALSTYLE
  5
1B2EB
102
{ACAD_XDICTIONARY
360
2112F
102
}
102
{ACAD_REACTORS
330
318F
102
}
330
318F
100
AcDbVisualStyle
  2

 70
    21
 71
     2
 72
     2
 73
     0
 90
        0
 40
-0.6
 41
-30.0
 62
     5
 63
     7
 74
     1
 91
        4
 64
     7
 65
   257
 75
     1
175
     1
 42
1.0
 92
        9
 66
     7
 43
1.0
 76
     1
 77
     6
 78
     2
 67
     7
 79
     5
170
     0
171
     0
290
     0
174
     0
 93
        1
 44
0.0
173
     0
291
     1
 45
0.0
1001
ACAD
1000
AcDbSavedByObjectVersion
1070
     0
  0
VISUALSTYLE
  5
3199
102
{ACAD_XDICTIONARY
360
21109
102
}
102
{ACAD_REACTORS
330
318F
102
}
330
318F
100
AcDbVisualStyle
  2

 70
     8
 71
     2
 72
     2
 73
     0
 90
        0
 40
-0.6
 41
-30.0
 62
     5
 63
     7
 74
     1
 91
        0
 64
     7
 65
   257
 75
     1
175
     1
 42
1.0
 92
        8
 66
     8
 43
1.0
 76
     1
 77
     6
 78
     2
 67
     7
 79
     5
170
     0
171
     0
290
     0
174
     0
 93
       13
 44
0.0
173
     0
291
     0
 45
0.0
1001
ACAD
1000
AcDbSavedByObjectVersion
1070
     0
  0
VISUALSTYLE
  5
1B2E9
102
{ACAD_XDICTIONARY
360
2112B
102
}
102
{ACAD_REACTORS
330
318F
102
}
330
318F
100
AcDbVisualStyle
  2

 70
    27
 71
     2
 72
     2
 73
     1
 90
        2
 40
-0.6
 41
30.0
 62
     5
 63
     7
 74
     0
 91
        4
 64
     7
 65
   257
 75
     1
175
     1
 42
1.0
 92
        8
 66
   257
 43
1.0
 76
     1
 77
     6
 78
     2
 67
     8
 79
     3
170
     0
171
     0
290
     0
174
     0
 93
        5
 44
0.0
173
     0
291
     0
 45
0.0
1001
ACAD
1000
AcDbSavedByObjectVersion
1070
     0
  0
VISUALSTYLE
  5
1B2E8
102
{ACAD_XDICTIONARY
360
21129
102
}
102
{ACAD_REACTORS
330
318F
102
}
330
318F
100
AcDbVisualStyle
  2

 70
    26
 71
     2
 72
     2
 73
     1
 90
        2
 40
-0.6
 41
30.0
 62
     5
 63
     7
 74
     1
 91
       10
 64
     7
 65
   257
 75
     2
175
     1
 42
1.0
 92
        8
 66
   257
 43
1.0
 76
     1
 77
     6
 78
     2
 67
     7
 79
     3
170
     0
171
     0
290
     0
174
     0
 93
        5
 44
0.0
173
     0
291
     0
 45
0.0
1001
ACAD
1000
AcDbSavedByObjectVersion
1070
     0
  0
VISUALSTYLE
  5
1B2E5
102
{ACAD_XDICTIONARY
360
21123
102
}
102
{ACAD_REACTORS
330
318F
102
}
330
318F
100
AcDbVisualStyle
  2

 70
    23
 71
     2
 72
     2
 73
     3
 90
        0
 40
-0.6
 41
-30.0
 62
     5
 63
     7
 74
     2
 91
        2
 64
     7
 65
     7
 75
     1
175
     1
 42
40.0
 92
        8
 66
     7
 43
1.0
 76
     1
 77
     6
 78
     2
 67
     7
 79
     3
170
     0
171
     0
290
     0
174
     0
 93
        1
 44
0.0
173
     0
291
     0
 45
0.0
1001
ACAD
1000
AcDbSavedByObjectVersion
1070
     0
  0
VISUALSTYLE
  5
1B2E6
102
{ACAD_XDICTIONARY
360
21125
102
}
102
{ACAD_REACTORS
330
318F
102
}
330
318F
100
AcDbVisualStyle
  2

 70
    24
 71
     1
 72
     2
 73
     2
 90
        0
 40
-0.6
 41
-30.0
 62
     5
 63
     7
 74
     2
 91
        2
 64
     7
 65
     7
 75
     1
175
     1
 42
40.0
 92
       11
 66
     7
 43
1.0
 76
     1
 77
     6
 78
     2
 67
     7
 79
     6
170
     0
171
     0
290
     0
174
     0
 93
        1
 44
0.0
173
     0
291
     0
 45
0.0
1001
ACAD
1000
AcDbSavedByObjectVersion
1070
     0
  0
VISUALSTYLE
  5
319C
102
{ACAD_XDICTIONARY
360
2110F
102
}
102
{ACAD_REACTORS
330
318F
102
}
330
318F
100
AcDbVisualStyle
  2

 70
    13
 71
     2
 72
     2
 73
     0
 90
        0
 40
-0.6
 41
-30.0
 62
     5
 63
     7
 74
     1
 91
        4
 64
     7
 65
   257
 75
     1
175
     1
 42
1.0
 92
       12
 66
     7
 43
1.0
 76
     1
 77
     6
 78
     2
 67
     7
 79
     5
170
     0
171
     0
290
     0
174
     0
 93
        1
 44
0.0
173
     0
291
     1
 45
0.0
1001
ACAD
1000
AcDbSavedByObjectVersion
1070
     0
  0
VISUALSTYLE
  5
1B2E3
102
{ACAD_XDICTIONARY
360
2111F
102
}
102
{ACAD_REACTORS
330
318F
102
}
330
318F
100
AcDbVisualStyle
  2

 70
     5
 71
     0
 72
     2
 73
     0
 90
        0
 40
-0.6
 41
-30.0
 62
     5
 63
     7
 74
     1
 91
        4
 64
     7
 65
   257
 75
     1
175
     1
 42
1.0
 92
        0
 66
   257
 43
1.0
 76
     1
 77
     6
 78
     2
 67
     7
 79
     3
170
     0
171
     0
290
     0
174
     0
 93
        1
 44
0.0
173
     0
291
     0
 45
0.0
1001
ACAD
1000
AcDbSavedByObjectVersion
1070
     0
  0
VISUALSTYLE
  5
1B2E7
102
{ACAD_XDICTIONARY
360
21127
102
}
102
{ACAD_REACTORS
330
318F
102
}
330
318F
100
AcDbVisualStyle
  2

 70
    25
 71
     2
 72
     2
 73
     1
 90
        1
 40
0.5
 41
-30.0
 62
     5
 63
     7
 74
     1
 91
        0
 64
     7
 65
   257
 75
     1
175
     1
 42
1.0
 92
        8
 66
     7
 43
1.0
 76
     1
 77
     6
 78
     2
 67
     7
 79
     3
170
     0
171
     0
290
     0
174
     0
 93
       13
 44
0.0
173
     0
291
     0
 45
0.0
1001
ACAD
1000
AcDbSavedByObjectVersion
1070
     0
  0
DICTIONARYVAR
  5
1B222
102
{ACAD_REACTORS
330
33A3
102
}
330
33A3
100
DictionaryVariables
280
     0
  1
1:1
  0
DICTIONARYVAR
  5
1B30F
102
{ACAD_REACTORS
330
33A3
102
}
330
33A3
100
DictionaryVariables
280
     0
  1
STANDARD
  0
DICTIONARYVAR
  5
33A4
102
{ACAD_REACTORS
330
33A3
102
}
330
33A3
100
DictionaryVariables
280
     0
  1
STANDARD
  0
DICTIONARYVAR
  5
1B310
102
{ACAD_REACTORS
330
33A3
102
}
330
33A3
100
DictionaryVariables
280
     0
  1
Metric50
  0
DICTIONARYVAR
  5
1B311
102
{ACAD_REACTORS
330
33A3
102
}
330
33A3
100
DictionaryVariables
280
     0
  1
Metric50
  0
DICTIONARYVAR
  5
9BE8
102
{ACAD_REACTORS
330
33A3
102
}
330
33A3
100
DictionaryVariables
280
     0
  1
1
  0
DICTIONARYVAR
  5
9BE7
102
{ACAD_REACTORS
330
33A3
102
}
330
33A3
100
DictionaryVariables
280
     0
  1
0
  0
DICTIONARYVAR
  5
20993
102
{ACAD_REACTORS
330
33A3
102
}
330
33A3
100
DictionaryVariables
280
     0
  1
1
  0
DICTIONARYVAR
  5
20994
102
{ACAD_REACTORS
330
33A3
102
}
330
33A3
100
DictionaryVariables
280
     0
  1
15
  0
DICTIONARYVAR
  5
20992
102
{ACAD_REACTORS
330
33A3
102
}
330
33A3
100
DictionaryVariables
280
     0
  1
0
  0
DICTIONARYVAR
  5
20991
102
{ACAD_REACTORS
330
33A3
102
}
330
33A3
100
DictionaryVariables
280
     0
  1
0
  0
DICTIONARYVAR
  5
9BE6
102
{ACAD_REACTORS
330
33A3
102
}
330
33A3
100
DictionaryVariables
280
     0
  1
127
  0
DICTIONARYVAR
  5
1FAAB
102
{ACAD_REACTORS
330
33A3
102
}
330
33A3
100
DictionaryVariables
280
     0
  1
2
  0
DICTIONARY
  5
210F6
102
{ACAD_REACTORS
330
210F4
102
}
330
210F4
100
AcDbDictionary
281
     1
  0
DICTIONARY
  5
210F5
102
{ACAD_REACTORS
330
210F4
102
}
330
210F4
100
AcDbDictionary
281
     1
  3
8796087338224
350
210EF
  3
8796087338240
350
210F0
  3
8796087338256
350
210F1
  3
8796087338272
350
210F2
  3
8796087338288
350
210F3
  0
XRECORD
  5
21136
102
{ACAD_REACTORS
330
21135
102
}
330
21135
100
AcDbXrecord
280
     1
1070
     0
1070
     1
1070
     1
  0
XRECORD
  5
2113A
102
{ACAD_REACTORS
330
21139
102
}
330
21139
100
AcDbXrecord
280
     1
1070
     0
1070
     1
1070
     1
  0
FIELD
  5
20CAB
102
{ACAD_REACTORS
330
20CAA
102
}
330
20CAA
100
AcDbField
  1
_text
  2
%<\_FldIdx 0>%
 90
        1
360
20CAC
 97
        0
  4

 91
       63
 92
        0
 94
        9
 95
        2
 96
        0
300

 93
        2
  6
ACFD_FIELDTEXT_ATTDEF
 90
        1
 91
        1
  6
ACFD_FIELDTEXT_CHECKSUM
 90
        2
140
6586.0
  7
ACFD_FIELD_VALUE
 90
        0
 91
        0
301

 98
        0
  0
FIELD
  5
20CC6
102
{ACAD_REACTORS
330
20CC5
102
}
330
20CC5
100
AcDbField
  1
_text
  2
%<\_FldIdx 0>%
 90
        1
360
20CC7
 97
        0
  4

 91
       63
 92
        0
 94
        9
 95
        2
 96
        0
300

 93
        1
  6
ACFD_FIELDTEXT_CHECKSUM
 90
        2
140
6586.0
  7
ACFD_FIELD_VALUE
 90
        0
 91
        0
301

 98
        0
  0
DICTIONARY
  5
20CB4
330
20CB3
100
AcDbDictionary
280
     1
281
     1
  3
ACAD_XREC_ROUNDTRIP
360
2113C
  0
DICTIONARY
  5
2098E
330
1B2F1
100
AcDbDictionary
280
     1
281
     1
  3
ACAD_XREC_ROUNDTRIP
360
21134
  0
DICTIONARY
  5
9C07
330
31A7
100
AcDbDictionary
280
     1
281
     1
  3
ACAD_XREC_ROUNDTRIP
360
2111A
  0
DICTIONARY
  5
21118
330
31A6
100
AcDbDictionary
280
     1
281
     1
  3
ACAD_XREC_ROUNDTRIP
360
21119
  0
DICTIONARY
  5
1B22B
330
318D
100
AcDbDictionary
280
     1
281
     1
  3
ACAD_XREC_ROUNDTRIP
360
1B22C
  0
DICTIONARY
  5
1B22D
330
318C
100
AcDbDictionary
280
     1
281
     1
  3
ACAD_XREC_ROUNDTRIP
360
1B22E
  0
DICTIONARY
  5
1B22F
330
318E
100
AcDbDictionary
280
     1
281
     1
  3
ACAD_XREC_ROUNDTRIP
360
1B230
  0
DICTIONARY
  5
20CB2
330
20CB1
100
AcDbDictionary
280
     1
281
     1
  3
ACAD_XREC_ROUNDTRIP
360
2113B
  0
DICTIONARY
  5
2098C
330
1B2EF
100
AcDbDictionary
280
     1
281
     1
  3
ACAD_XREC_ROUNDTRIP
360
21133
  0
DICTIONARY
  5
1B314
330
31A2
100
AcDbDictionary
280
     1
281
     1
  3
ACAD_ROUNDTRIP_2008_TABLESTYLE_CELLSTYLEMAP
360
210EC
  3
ACAD_XREC_ROUNDTRIP
360
21117
  0
DICTIONARY
  5
21101
330
3195
100
AcDbDictionary
280
     1
281
     1
  3
ACAD_XREC_ROUNDTRIP
360
21102
  0
DICTIONARY
  5
21105
330
3197
100
AcDbDictionary
280
     1
281
     1
  3
ACAD_XREC_ROUNDTRIP
360
21106
  0
DICTIONARY
  5
21103
330
3196
100
AcDbDictionary
280
     1
281
     1
  3
ACAD_XREC_ROUNDTRIP
360
21104
  0
DICTIONARY
  5
210FF
330
3194
100
AcDbDictionary
280
     1
281
     1
  3
ACAD_XREC_ROUNDTRIP
360
21100
  0
DICTIONARY
  5
2110D
330
319B
100
AcDbDictionary
280
     1
281
     1
  3
ACAD_XREC_ROUNDTRIP
360
2110E
  0
DICTIONARY
  5
21115
330
319F
100
AcDbDictionary
280
     1
281
     1
  3
ACAD_XREC_ROUNDTRIP
360
21116
  0
DICTIONARY
  5
21107
330
3198
100
AcDbDictionary
280
     1
281
     1
  3
ACAD_XREC_ROUNDTRIP
360
21108
  0
DICTIONARY
  5
2110B
330
319A
100
AcDbDictionary
280
     1
281
     1
  3
ACAD_XREC_ROUNDTRIP
360
2110C
  0
DICTIONARY
  5
21131
330
1B2EC
100
AcDbDictionary
280
     1
281
     1
  3
ACAD_XREC_ROUNDTRIP
360
21132
  0
DICTIONARY
  5
21113
330
319E
100
AcDbDictionary
280
     1
281
     1
  3
ACAD_XREC_ROUNDTRIP
360
21114
  0
DICTIONARY
  5
210F7
330
3190
100
AcDbDictionary
280
     1
281
     1
  3
ACAD_XREC_ROUNDTRIP
360
210F8
  0
DICTIONARY
  5
210F9
330
3191
100
AcDbDictionary
280
     1
281
     1
  3
ACAD_XREC_ROUNDTRIP
360
210FA
  0
DICTIONARY
  5
210FB
330
3192
100
AcDbDictionary
280
     1
281
     1
  3
ACAD_XREC_ROUNDTRIP
360
210FC
  0
DICTIONARY
  5
210FD
330
3193
100
AcDbDictionary
280
     1
281
     1
  3
ACAD_XREC_ROUNDTRIP
360
210FE
  0
DICTIONARY
  5
21121
330
1B2E4
100
AcDbDictionary
280
     1
281
     1
  3
ACAD_XREC_ROUNDTRIP
360
21122
  0
DICTIONARY
  5
2112D
330
1B2EA
100
AcDbDictionary
280
     1
281
     1
  3
ACAD_XREC_ROUNDTRIP
360
2112E
  0
DICTIONARY
  5
21111
330
319D
100
AcDbDictionary
280
     1
281
     1
  3
ACAD_XREC_ROUNDTRIP
360
21112
  0
DICTIONARY
  5
2112F
330
1B2EB
100
AcDbDictionary
280
     1
281
     1
  3
ACAD_XREC_ROUNDTRIP
360
21130
  0
DICTIONARY
  5
21109
330
3199
100
AcDbDictionary
280
     1
281
     1
  3
ACAD_XREC_ROUNDTRIP
360
2110A
  0
DICTIONARY
  5
2112B
330
1B2E9
100
AcDbDictionary
280
     1
281
     1
  3
ACAD_XREC_ROUNDTRIP
360
2112C
  0
DICTIONARY
  5
21129
330
1B2E8
100
AcDbDictionary
280
     1
281
     1
  3
ACAD_XREC_ROUNDTRIP
360
2112A
  0
DICTIONARY
  5
21123
330
1B2E5
100
AcDbDictionary
280
     1
281
     1
  3
ACAD_XREC_ROUNDTRIP
360
21124
  0
DICTIONARY
  5
21125
330
1B2E6
100
AcDbDictionary
280
     1
281
     1
  3
ACAD_XREC_ROUNDTRIP
360
21126
  0
DICTIONARY
  5
2110F
330
319C
100
AcDbDictionary
280
     1
281
     1
  3
ACAD_XREC_ROUNDTRIP
360
21110
  0
DICTIONARY
  5
2111F
330
1B2E3
100
AcDbDictionary
280
     1
281
     1
  3
ACAD_XREC_ROUNDTRIP
360
21120
  0
DICTIONARY
  5
21127
330
1B2E7
100
AcDbDictionary
280
     1
281
     1
  3
ACAD_XREC_ROUNDTRIP
360
21128
  0
XRECORD
  5
210EF
102
{ACAD_REACTORS
330
210F5
102
}
330
210F5
100
AcDbXrecord
280
     1
  1
AcDb_Thumbnail_Schema
102
{ATTRRECORD
341
210F0
  2
AcDbDs::TreatedAsObjectData
280
     1
291
     1
102
ATTRRECORD}
102
{ATTRRECORD
341
210F1
  2
AcDbDs::Legacy
280
     1
291
     1
102
ATTRRECORD}
  2
AcDbDs::ID
280
    10
 91
        8
102
{ATTRRECORD
341
210F2
  2
AcDs:Indexable
280
     1
291
     1
102
ATTRRECORD}
102
{ATTRRECORD
341
210F3
  2
AcDbDs::HandleAttribute
280
     7
282
     1
102
ATTRRECORD}
  2
Thumbnail_Data
280
    15
 91
        0
  0
XRECORD
  5
210F0
102
{ACAD_REACTORS
330
210F5
102
}
330
210F5
100
AcDbXrecord
280
     1
  1
AcDbDs::TreatedAsObjectDataSchema
  2
AcDbDs::TreatedAsObjectData
280
     1
 91
        0
  0
XRECORD
  5
210F1
102
{ACAD_REACTORS
330
210F5
102
}
330
210F5
100
AcDbXrecord
280
     1
  1
AcDbDs::LegacySchema
  2
AcDbDs::Legacy
280
     1
 91
        0
  0
XRECORD
  5
210F2
102
{ACAD_REACTORS
330
210F5
102
}
330
210F5
100
AcDbXrecord
280
     1
  1
AcDbDs::IndexedPropertySchema
  2
AcDs:Indexable
280
     1
 91
        0
  0
XRECORD
  5
210F3
102
{ACAD_REACTORS
330
210F5
102
}
330
210F5
100
AcDbXrecord
280
     1
  1
AcDbDs::HandleAttributeSchema
  2
AcDbDs::HandleAttribute
280
     7
 91
        1
284
     1
  0
FIELD
  5
20CAC
330
20CAB
100
AcDbField
  1
AcVar
  2
\AcVar Filename \f "%tc1%fn2"
 90
        0
 97
        0
  4
%tc1%fn2
 91
       63
 92
        0
 94
       59
 95
        2
 96
        0
300

 93
        1
  6
Variable
 90
        4
  1
Filename
  7
ACFD_FIELD_VALUE
 90
        4
  1
S:\BenderA\DXF_CIM\ISCAR45+46B_C_D_J_MTEC_PSK\45Z03208TQRA15.dxf
301
45Z03208TQRA15
 98
       14
  0
FIELD
  5
20CC7
330
20CC6
100
AcDbField
  1
AcVar
  2
\AcVar Filename \f "%tc1%fn2"
 90
        0
 97
        0
  4
%tc1%fn2
 91
       63
 92
        0
 94
       59
 95
        2
 96
        0
300

 93
        1
  6
Variable
 90
        4
  1
Filename
  7
ACFD_FIELD_VALUE
 90
        4
  1
S:\BenderA\DXF_CIM\ISCAR45+46B_C_D_J_MTEC_PSK\45Z03208TQRA15.dxf
301
45Z03208TQRA15
 98
       14
  0
XRECORD
  5
2113C
102
{ACAD_REACTORS
330
20CB4
102
}
330
20CB4
100
AcDbXrecord
280
     1
102
DISPLAYNAME
  1
Imperial24
102
FLAGS
 90
        0
  0
XRECORD
  5
21134
102
{ACAD_REACTORS
330
2098E
102
}
330
2098E
100
AcDbXrecord
280
     1
102
DISPLAYNAME
  1
Metric50
102
FLAGS
 90
        0
  0
XRECORD
  5
2111A
102
{ACAD_REACTORS
330
9C07
102
}
330
9C07
100
AcDbXrecord
280
     1
102
SHADEPLOT
 70
     0
102
SHADEPLOTRESLEVEL
 70
     2
102
SHADEPLOTCUSTOMDPI
 70
   300
  0
XRECORD
  5
21119
102
{ACAD_REACTORS
330
21118
102
}
330
21118
100
AcDbXrecord
280
     1
102
SHADEPLOT
 70
     0
102
SHADEPLOTRESLEVEL
 70
     2
102
SHADEPLOTCUSTOMDPI
 70
   300
  0
XRECORD
  5
1B22C
102
{ACAD_REACTORS
330
1B22B
102
}
330
1B22B
100
AcDbXrecord
280
     1
102
MATERIAL
148
0.0
149
0.0
149
0.0
 93
        0
 94
      127
282
     0
 72
     1
 77
     1
171
     1
175
     1
179
     1
273
     0
  0
XRECORD
  5
1B22E
102
{ACAD_REACTORS
330
1B22D
102
}
330
1B22D
100
AcDbXrecord
280
     1
102
MATERIAL
148
0.0
149
0.0
149
0.0
 93
        0
 94
      127
282
     0
 72
     1
 77
     1
171
     1
175
     1
179
     1
273
     0
  0
XRECORD
  5
1B230
102
{ACAD_REACTORS
330
1B22F
102
}
330
1B22F
100
AcDbXrecord
280
     1
102
MATERIAL
148
0.0
149
0.0
149
0.0
 93
        0
 94
      127
282
     0
 72
     1
 77
     1
171
     1
175
     1
179
     1
273
     0
  0
XRECORD
  5
2113B
102
{ACAD_REACTORS
330
20CB2
102
}
330
20CB2
100
AcDbXrecord
280
     1
102
DISPLAYNAME
  1
Imperial24
102
FLAGS
 90
        0
  0
XRECORD
  5
21133
102
{ACAD_REACTORS
330
2098C
102
}
330
2098C
100
AcDbXrecord
280
     1
102
DISPLAYNAME
  1
Metric50
102
FLAGS
 90
        0
  0
CELLSTYLEMAP
  5
210EC
102
{ACAD_REACTORS
330
1B314
102
}
330
1B314
100
AcDbCellStyleMap
 90
        3
300
CELLSTYLE
  1
TABLEFORMAT_BEGIN
 90
        5
170
     1
 91
        0
 92
    32768
 62
   257
 93
        1
300
CONTENTFORMAT
  1
CONTENTFORMAT_BEGIN
 90
        0
 91
        0
 92
        4
 93
        0
300

 40
0.0
140
1.0
 94
        5
 62
     0
340
11
144
6.0
309
CONTENTFORMAT_END
171
     1
301
MARGIN
  1
CELLMARGIN_BEGIN
 40
1.5
 40
1.5
 40
1.5
 40
1.5
 40
0.18
 40
0.18
309
CELLMARGIN_END
 94
        6
 95
        1
302
GRIDFORMAT
  1
GRIDFORMAT_BEGIN
 90
        0
 91
        1
 62
     0
 92
       -2
340
0
 93
        0
 40
0.045
309
GRIDFORMAT_END
 95
        2
302
GRIDFORMAT
  1
GRIDFORMAT_BEGIN
 90
        0
 91
        1
 62
     0
 92
       -2
340
0
 93
        0
 40
0.045
309
GRIDFORMAT_END
 95
        4
302
GRIDFORMAT
  1
GRIDFORMAT_BEGIN
 90
        0
 91
        1
 62
     0
 92
       -2
340
0
 93
        0
 40
0.045
309
GRIDFORMAT_END
 95
        8
302
GRIDFORMAT
  1
GRIDFORMAT_BEGIN
 90
        0
 91
        1
 62
     0
 92
       -2
340
0
 93
        0
 40
0.045
309
GRIDFORMAT_END
 95
       16
302
GRIDFORMAT
  1
GRIDFORMAT_BEGIN
 90
        0
 91
        1
 62
     0
 92
       -2
340
0
 93
        0
 40
0.045
309
GRIDFORMAT_END
 95
       32
302
GRIDFORMAT
  1
GRIDFORMAT_BEGIN
 90
        0
 91
        1
 62
     0
 92
       -2
340
0
 93
        0
 40
0.045
309
GRIDFORMAT_END
309
TABLEFORMAT_END
  1
CELLSTYLE_BEGIN
 90
        1
 91
        1
300
_TITLE
309
CELLSTYLE_END
300
CELLSTYLE
  1
TABLEFORMAT_BEGIN
 90
        5
170
     1
 91
        0
 92
        0
 62
   257
 93
        1
300
CONTENTFORMAT
  1
CONTENTFORMAT_BEGIN
 90
        0
 91
        0
 92
        4
 93
        0
300

 40
0.0
140
1.0
 94
        5
 62
     0
340
11
144
4.5
309
CONTENTFORMAT_END
171
     1
301
MARGIN
  1
CELLMARGIN_BEGIN
 40
1.5
 40
1.5
 40
1.5
 40
1.5
 40
0.18
 40
0.18
309
CELLMARGIN_END
 94
        6
 95
        1
302
GRIDFORMAT
  1
GRIDFORMAT_BEGIN
 90
        0
 91
        1
 62
     0
 92
       -2
340
0
 93
        0
 40
0.045
309
GRIDFORMAT_END
 95
        2
302
GRIDFORMAT
  1
GRIDFORMAT_BEGIN
 90
        0
 91
        1
 62
     0
 92
       -2
340
0
 93
        0
 40
0.045
309
GRIDFORMAT_END
 95
        4
302
GRIDFORMAT
  1
GRIDFORMAT_BEGIN
 90
        0
 91
        1
 62
     0
 92
       -2
340
0
 93
        0
 40
0.045
309
GRIDFORMAT_END
 95
        8
302
GRIDFORMAT
  1
GRIDFORMAT_BEGIN
 90
        0
 91
        1
 62
     0
 92
       -2
340
0
 93
        0
 40
0.045
309
GRIDFORMAT_END
 95
       16
302
GRIDFORMAT
  1
GRIDFORMAT_BEGIN
 90
        0
 91
        1
 62
     0
 92
       -2
340
0
 93
        0
 40
0.045
309
GRIDFORMAT_END
 95
       32
302
GRIDFORMAT
  1
GRIDFORMAT_BEGIN
 90
        0
 91
        1
 62
     0
 92
       -2
340
0
 93
        0
 40
0.045
309
GRIDFORMAT_END
309
TABLEFORMAT_END
  1
CELLSTYLE_BEGIN
 90
        2
 91
        1
300
_HEADER
309
CELLSTYLE_END
300
CELLSTYLE
  1
TABLEFORMAT_BEGIN
 90
        5
170
     1
 91
        0
 92
        0
 62
   257
 93
        1
300
CONTENTFORMAT
  1
CONTENTFORMAT_BEGIN
 90
        0
 91
        0
 92
        4
 93
        0
300

 40
0.0
140
1.0
 94
        2
 62
     0
340
11
144
4.5
309
CONTENTFORMAT_END
171
     1
301
MARGIN
  1
CELLMARGIN_BEGIN
 40
1.5
 40
1.5
 40
1.5
 40
1.5
 40
0.18
 40
0.18
309
CELLMARGIN_END
 94
        6
 95
        1
302
GRIDFORMAT
  1
GRIDFORMAT_BEGIN
 90
        0
 91
        1
 62
     0
 92
       -2
340
0
 93
        0
 40
0.045
309
GRIDFORMAT_END
 95
        2
302
GRIDFORMAT
  1
GRIDFORMAT_BEGIN
 90
        0
 91
        1
 62
     0
 92
       -2
340
0
 93
        0
 40
0.045
309
GRIDFORMAT_END
 95
        4
302
GRIDFORMAT
  1
GRIDFORMAT_BEGIN
 90
        0
 91
        1
 62
     0
 92
       -2
340
0
 93
        0
 40
0.045
309
GRIDFORMAT_END
 95
        8
302
GRIDFORMAT
  1
GRIDFORMAT_BEGIN
 90
        0
 91
        1
 62
     0
 92
       -2
340
0
 93
        0
 40
0.045
309
GRIDFORMAT_END
 95
       16
302
GRIDFORMAT
  1
GRIDFORMAT_BEGIN
 90
        0
 91
        1
 62
     0
 92
       -2
340
0
 93
        0
 40
0.045
309
GRIDFORMAT_END
 95
       32
302
GRIDFORMAT
  1
GRIDFORMAT_BEGIN
 90
        0
 91
        1
 62
     0
 92
       -2
340
0
 93
        0
 40
0.045
309
GRIDFORMAT_END
309
TABLEFORMAT_END
  1
CELLSTYLE_BEGIN
 90
        3
 91
        2
300
_DATA
309
CELLSTYLE_END
  0
XRECORD
  5
21117
102
{ACAD_REACTORS
330
1B314
102
}
330
1B314
100
AcDbXrecord
280
     1
102
ACAD_ROUNDTRIP_PRE2007_TABLESTYLE
 90
        4
 91
        0
  1

 92
        4
 93
        0
  2

 94
        4
 95
        0
  3

  0
XRECORD
  5
21102
102
{ACAD_REACTORS
330
21101
102
}
330
21101
100
AcDbXrecord
280
     1
102
RTVSPost2010Prop28
280
     1
102
RTVSPost2010PropOp28
 70
     1
102
RTVSPost2010Prop29
280
     1
102
RTVSPost2010PropOp29
 70
     1
102
RTVSPost2010Prop30
280
     0
102
RTVSPost2010PropOp30
 70
     1
102
RTVSPost2010Prop31
280
     0
102
RTVSPost2010PropOp31
 70
     1
102
RTVSPost2010Prop32
280
     0
102
RTVSPost2010PropOp32
 70
     1
102
RTVSPost2010Prop33
280
     0
102
RTVSPost2010PropOp33
 70
     1
102
RTVSPost2010Prop34
280
     0
102
RTVSPost2010PropOp34
 70
     1
102
RTVSPost2010Prop35
280
     0
102
RTVSPost2010PropOp35
 70
     1
102
RTVSPost2010Prop36
280
     0
102
RTVSPost2010PropOp36
 70
     1
102
RTVSPost2010Prop37
 90
       50
102
RTVSPost2010PropOp37
 70
     1
102
RTVSPost2010Prop38
140
0.0
102
RTVSPost2010PropOp38
 70
     1
102
RTVSPost2010Prop39
140
1.0
102
RTVSPost2010PropOp39
 70
     1
102
RTVSPost2010Prop40
 90
        0
102
RTVSPost2010PropOp40
 70
     1
102
RTVSPost2010Prop41ColorIndex
 90
       18
102
RTVSPost2010Prop41ColorRGB
 90
        0
102
RTVSPost2010PropOp41
 70
     1
102
RTVSPost2010Prop42
 90
       50
102
RTVSPost2010PropOp42
 70
     1
102
RTVSPost2010Prop43
 90
        3
102
RTVSPost2010PropOp43
 70
     1
102
RTVSPost2010Prop44ColorIndex
 90
        5
102
RTVSPost2010Prop44ColorRGB
 90
      255
102
RTVSPost2010PropOp44
 70
     1
102
RTVSPost2010Prop45
280
     0
102
RTVSPost2010PropOp45
 70
     1
102
RTVSPost2010Prop46
 90
       50
102
RTVSPost2010PropOp46
 70
     1
102
RTVSPost2010Prop47
 90
       50
102
RTVSPost2010PropOp47
 70
     1
102
RTVSPost2010Prop48
 90
       50
102
RTVSPost2010PropOp48
 70
     1
102
RTVSPost2010Prop49
280
     0
102
RTVSPost2010PropOp49
 70
     1
102
RTVSPost2010Prop50
 90
       50
102
RTVSPost2010PropOp50
 70
     1
102
RTVSPost2010Prop51ColorIndex
 90
      256
102
RTVSPost2010Prop51ColorRGB
 90
-16777216
102
RTVSPost2010PropOp51
 70
     0
102
RTVSPost2010Prop52
140
1.0
102
RTVSPost2010PropOp52
 70
     0
102
RTVSPost2010Prop53
 90
        2
102
RTVSPost2010PropOp53
 70
     1
102
RTVSPost2010Prop54
  1
strokes_ogs.tif
102
RTVSPost2010PropOp54
 70
     1
102
RTVSPost2010Prop55
280
     0
102
RTVSPost2010PropOp55
 70
     1
102
RTVSPost2010Prop56
140
1.0
102
RTVSPost2010PropOp56
 70
     1
102
RTVSPost2010Prop57
140
1.0
102
RTVSPost2010PropOp57
 70
     1
102
RTVSPropertyOp0
 70
     1
102
RTVSPropertyOp1
 70
     1
102
RTVSPropertyOp2
 70
     1
102
RTVSPropertyOp3
 70
     1
102
RTVSPropertyOp4
 70
     1
102
RTVSPropertyOp5
 70
     1
102
RTVSPropertyOp6
 70
     1
102
RTVSPropertyOp7
 70
     1
102
RTVSPropertyOp8
 70
     1
102
RTVSPropertyOp9
 70
     1
102
RTVSPropertyOp10
 70
     1
102
RTVSPropertyOp11
 70
     1
102
RTVSPropertyOp12
 70
     1
102
RTVSPropertyOp13
 70
     1
102
RTVSPropertyOp14
 70
     1
102
RTVSPropertyOp15
 70
     1
102
RTVSPropertyOp16
 70
     1
102
RTVSPropertyOp17
 70
     1
102
RTVSPropertyOp18
 70
     1
102
RTVSPropertyOp19
 70
     1
102
RTVSPropertyOp20
 70
     1
102
RTVSPropertyOp21
 70
     1
102
RTVSPropertyOp22
 70
     1
102
RTVSPropertyOp23
 70
     1
102
RTVSPropertyOp24
 70
     1
102
RTVSPropertyOp25
 70
     1
102
RTVSPropertyOp26
 70
     1
102
RTVSPropertyOp27
 70
     1
102
RTVSPropertyOp28
 70
     1
102
RTVSPropertyOp29
 70
     1
102
RTVSPropertyOp30
 70
     1
102
RTVSPropertyOp31
 70
     1
102
RTVSPropertyOp32
 70
     1
102
RTVSPropertyOp33
 70
     1
102
RTVSPropertyOp34
 70
     1
102
RTVSPropertyOp35
 70
     1
102
RTVSPropertyOp36
 70
     1
102
RTVSPropertyOp37
 70
     1
102
RTVSPropertyOp38
 70
     1
102
RTVSPropertyOp39
 70
     1
102
RTVSPropertyOp40
 70
     1
102
RTVSPropertyOp41
 70
     1
102
RTVSPropertyOp42
 70
     1
102
RTVSPropertyOp43
 70
     1
102
RTVSPropertyOp44
 70
     1
102
RTVSPropertyOp45
 70
     1
102
RTVSPropertyOp46
 70
     1
102
RTVSPropertyOp47
 70
     1
102
RTVSPropertyOp48
 70
     1
102
RTVSPropertyOp49
 70
     1
102
RTVSPropertyOp50
 70
     1
102
RTVSPropertyOp51
 70
     0
102
RTVSPropertyOp52
 70
     0
102
RTVSPropertyOp53
 70
     1
102
RTVSPropertyOp54
 70
     1
102
RTVSPropertyOp55
 70
     1
102
RTVSPropertyOp56
 70
     1
102
RTVSPropertyOp57
 70
     1
102
RTVSPropertyOp58
 70
     1
102
RTVSPropertyOp59
 70
     1
102
RTVSPropertyOp60
 70
     1
102
RTVSPropertyOp61
 70
     1
102
RTVSPropertyOp62
 70
     1
  0
XRECORD
  5
21106
102
{ACAD_REACTORS
330
21105
102
}
330
21105
100
AcDbXrecord
280
     1
102
RTVSPost2010Prop28
280
     0
102
RTVSPost2010PropOp28
 70
     1
102
RTVSPost2010Prop29
280
     1
102
RTVSPost2010PropOp29
 70
     1
102
RTVSPost2010Prop30
280
     1
102
RTVSPost2010PropOp30
 70
     1
102
RTVSPost2010Prop31
280
     0
102
RTVSPost2010PropOp31
 70
     1
102
RTVSPost2010Prop32
280
     0
102
RTVSPost2010PropOp32
 70
     1
102
RTVSPost2010Prop33
280
     0
102
RTVSPost2010PropOp33
 70
     1
102
RTVSPost2010Prop34
280
     0
102
RTVSPost2010PropOp34
 70
     1
102
RTVSPost2010Prop35
280
     0
102
RTVSPost2010PropOp35
 70
     1
102
RTVSPost2010Prop36
280
     0
102
RTVSPost2010PropOp36
 70
     1
102
RTVSPost2010Prop37
 90
       50
102
RTVSPost2010PropOp37
 70
     1
102
RTVSPost2010Prop38
140
0.0
102
RTVSPost2010PropOp38
 70
     1
102
RTVSPost2010Prop39
140
1.0
102
RTVSPost2010PropOp39
 70
     1
102
RTVSPost2010Prop40
 90
        0
102
RTVSPost2010PropOp40
 70
     1
102
RTVSPost2010Prop41ColorIndex
 90
       18
102
RTVSPost2010Prop41ColorRGB
 90
        0
102
RTVSPost2010PropOp41
 70
     1
102
RTVSPost2010Prop42
 90
       50
102
RTVSPost2010PropOp42
 70
     1
102
RTVSPost2010Prop43
 90
        3
102
RTVSPost2010PropOp43
 70
     1
102
RTVSPost2010Prop44ColorIndex
 90
        5
102
RTVSPost2010Prop44ColorRGB
 90
      255
102
RTVSPost2010PropOp44
 70
     1
102
RTVSPost2010Prop45
280
     0
102
RTVSPost2010PropOp45
 70
     1
102
RTVSPost2010Prop46
 90
       50
102
RTVSPost2010PropOp46
 70
     1
102
RTVSPost2010Prop47
 90
       50
102
RTVSPost2010PropOp47
 70
     1
102
RTVSPost2010Prop48
 90
       50
102
RTVSPost2010PropOp48
 70
     1
102
RTVSPost2010Prop49
280
     0
102
RTVSPost2010PropOp49
 70
     1
102
RTVSPost2010Prop50
 90
       50
102
RTVSPost2010PropOp50
 70
     1
102
RTVSPost2010Prop51ColorIndex
 90
      256
102
RTVSPost2010Prop51ColorRGB
 90
-16777216
102
RTVSPost2010PropOp51
 70
     0
102
RTVSPost2010Prop52
140
1.0
102
RTVSPost2010PropOp52
 70
     0
102
RTVSPost2010Prop53
 90
        2
102
RTVSPost2010PropOp53
 70
     1
102
RTVSPost2010Prop54
  1
strokes_ogs.tif
102
RTVSPost2010PropOp54
 70
     1
102
RTVSPost2010Prop55
280
     0
102
RTVSPost2010PropOp55
 70
     1
102
RTVSPost2010Prop56
140
1.0
102
RTVSPost2010PropOp56
 70
     1
102
RTVSPost2010Prop57
140
1.0
102
RTVSPost2010PropOp57
 70
     1
102
RTVSPropertyOp0
 70
     1
102
RTVSPropertyOp1
 70
     1
102
RTVSPropertyOp2
 70
     1
102
RTVSPropertyOp3
 70
     1
102
RTVSPropertyOp4
 70
     1
102
RTVSPropertyOp5
 70
     1
102
RTVSPropertyOp6
 70
     1
102
RTVSPropertyOp7
 70
     1
102
RTVSPropertyOp8
 70
     1
102
RTVSPropertyOp9
 70
     1
102
RTVSPropertyOp10
 70
     1
102
RTVSPropertyOp11
 70
     1
102
RTVSPropertyOp12
 70
     1
102
RTVSPropertyOp13
 70
     1
102
RTVSPropertyOp14
 70
     1
102
RTVSPropertyOp15
 70
     1
102
RTVSPropertyOp16
 70
     1
102
RTVSPropertyOp17
 70
     1
102
RTVSPropertyOp18
 70
     1
102
RTVSPropertyOp19
 70
     1
102
RTVSPropertyOp20
 70
     1
102
RTVSPropertyOp21
 70
     1
102
RTVSPropertyOp22
 70
     1
102
RTVSPropertyOp23
 70
     1
102
RTVSPropertyOp24
 70
     1
102
RTVSPropertyOp25
 70
     1
102
RTVSPropertyOp26
 70
     1
102
RTVSPropertyOp27
 70
     1
102
RTVSPropertyOp28
 70
     1
102
RTVSPropertyOp29
 70
     1
102
RTVSPropertyOp30
 70
     1
102
RTVSPropertyOp31
 70
     1
102
RTVSPropertyOp32
 70
     1
102
RTVSPropertyOp33
 70
     1
102
RTVSPropertyOp34
 70
     1
102
RTVSPropertyOp35
 70
     1
102
RTVSPropertyOp36
 70
     1
102
RTVSPropertyOp37
 70
     1
102
RTVSPropertyOp38
 70
     1
102
RTVSPropertyOp39
 70
     1
102
RTVSPropertyOp40
 70
     1
102
RTVSPropertyOp41
 70
     1
102
RTVSPropertyOp42
 70
     1
102
RTVSPropertyOp43
 70
     1
102
RTVSPropertyOp44
 70
     1
102
RTVSPropertyOp45
 70
     1
102
RTVSPropertyOp46
 70
     1
102
RTVSPropertyOp47
 70
     1
102
RTVSPropertyOp48
 70
     1
102
RTVSPropertyOp49
 70
     1
102
RTVSPropertyOp50
 70
     1
102
RTVSPropertyOp51
 70
     0
102
RTVSPropertyOp52
 70
     0
102
RTVSPropertyOp53
 70
     1
102
RTVSPropertyOp54
 70
     1
102
RTVSPropertyOp55
 70
     1
102
RTVSPropertyOp56
 70
     1
102
RTVSPropertyOp57
 70
     1
102
RTVSPropertyOp58
 70
     1
102
RTVSPropertyOp59
 70
     1
102
RTVSPropertyOp60
 70
     1
102
RTVSPropertyOp61
 70
     1
102
RTVSPropertyOp62
 70
     1
  0
XRECORD
  5
21104
102
{ACAD_REACTORS
330
21103
102
}
330
21103
100
AcDbXrecord
280
     1
102
RTVSPost2010Prop28
280
     0
102
RTVSPost2010PropOp28
 70
     1
102
RTVSPost2010Prop29
280
     1
102
RTVSPost2010PropOp29
 70
     1
102
RTVSPost2010Prop30
280
     1
102
RTVSPost2010PropOp30
 70
     1
102
RTVSPost2010Prop31
280
     0
102
RTVSPost2010PropOp31
 70
     1
102
RTVSPost2010Prop32
280
     0
102
RTVSPost2010PropOp32
 70
     1
102
RTVSPost2010Prop33
280
     0
102
RTVSPost2010PropOp33
 70
     1
102
RTVSPost2010Prop34
280
     0
102
RTVSPost2010PropOp34
 70
     1
102
RTVSPost2010Prop35
280
     0
102
RTVSPost2010PropOp35
 70
     1
102
RTVSPost2010Prop36
280
     0
102
RTVSPost2010PropOp36
 70
     1
102
RTVSPost2010Prop37
 90
       50
102
RTVSPost2010PropOp37
 70
     1
102
RTVSPost2010Prop38
140
0.0
102
RTVSPost2010PropOp38
 70
     1
102
RTVSPost2010Prop39
140
1.0
102
RTVSPost2010PropOp39
 70
     1
102
RTVSPost2010Prop40
 90
        0
102
RTVSPost2010PropOp40
 70
     1
102
RTVSPost2010Prop41ColorIndex
 90
       18
102
RTVSPost2010Prop41ColorRGB
 90
        0
102
RTVSPost2010PropOp41
 70
     1
102
RTVSPost2010Prop42
 90
       50
102
RTVSPost2010PropOp42
 70
     1
102
RTVSPost2010Prop43
 90
        3
102
RTVSPost2010PropOp43
 70
     1
102
RTVSPost2010Prop44ColorIndex
 90
        5
102
RTVSPost2010Prop44ColorRGB
 90
      255
102
RTVSPost2010PropOp44
 70
     1
102
RTVSPost2010Prop45
280
     0
102
RTVSPost2010PropOp45
 70
     1
102
RTVSPost2010Prop46
 90
       50
102
RTVSPost2010PropOp46
 70
     1
102
RTVSPost2010Prop47
 90
       50
102
RTVSPost2010PropOp47
 70
     1
102
RTVSPost2010Prop48
 90
       50
102
RTVSPost2010PropOp48
 70
     1
102
RTVSPost2010Prop49
280
     0
102
RTVSPost2010PropOp49
 70
     1
102
RTVSPost2010Prop50
 90
       50
102
RTVSPost2010PropOp50
 70
     1
102
RTVSPost2010Prop51ColorIndex
 90
      256
102
RTVSPost2010Prop51ColorRGB
 90
-16777216
102
RTVSPost2010PropOp51
 70
     0
102
RTVSPost2010Prop52
140
1.0
102
RTVSPost2010PropOp52
 70
     0
102
RTVSPost2010Prop53
 90
        2
102
RTVSPost2010PropOp53
 70
     1
102
RTVSPost2010Prop54
  1
strokes_ogs.tif
102
RTVSPost2010PropOp54
 70
     1
102
RTVSPost2010Prop55
280
     0
102
RTVSPost2010PropOp55
 70
     1
102
RTVSPost2010Prop56
140
1.0
102
RTVSPost2010PropOp56
 70
     1
102
RTVSPost2010Prop57
140
1.0
102
RTVSPost2010PropOp57
 70
     1
102
RTVSPropertyOp0
 70
     1
102
RTVSPropertyOp1
 70
     1
102
RTVSPropertyOp2
 70
     1
102
RTVSPropertyOp3
 70
     1
102
RTVSPropertyOp4
 70
     1
102
RTVSPropertyOp5
 70
     1
102
RTVSPropertyOp6
 70
     1
102
RTVSPropertyOp7
 70
     1
102
RTVSPropertyOp8
 70
     1
102
RTVSPropertyOp9
 70
     1
102
RTVSPropertyOp10
 70
     1
102
RTVSPropertyOp11
 70
     1
102
RTVSPropertyOp12
 70
     1
102
RTVSPropertyOp13
 70
     1
102
RTVSPropertyOp14
 70
     1
102
RTVSPropertyOp15
 70
     1
102
RTVSPropertyOp16
 70
     1
102
RTVSPropertyOp17
 70
     1
102
RTVSPropertyOp18
 70
     1
102
RTVSPropertyOp19
 70
     1
102
RTVSPropertyOp20
 70
     1
102
RTVSPropertyOp21
 70
     1
102
RTVSPropertyOp22
 70
     1
102
RTVSPropertyOp23
 70
     1
102
RTVSPropertyOp24
 70
     1
102
RTVSPropertyOp25
 70
     1
102
RTVSPropertyOp26
 70
     1
102
RTVSPropertyOp27
 70
     1
102
RTVSPropertyOp28
 70
     1
102
RTVSPropertyOp29
 70
     1
102
RTVSPropertyOp30
 70
     1
102
RTVSPropertyOp31
 70
     1
102
RTVSPropertyOp32
 70
     1
102
RTVSPropertyOp33
 70
     1
102
RTVSPropertyOp34
 70
     1
102
RTVSPropertyOp35
 70
     1
102
RTVSPropertyOp36
 70
     1
102
RTVSPropertyOp37
 70
     1
102
RTVSPropertyOp38
 70
     1
102
RTVSPropertyOp39
 70
     1
102
RTVSPropertyOp40
 70
     1
102
RTVSPropertyOp41
 70
     1
102
RTVSPropertyOp42
 70
     1
102
RTVSPropertyOp43
 70
     1
102
RTVSPropertyOp44
 70
     1
102
RTVSPropertyOp45
 70
     1
102
RTVSPropertyOp46
 70
     1
102
RTVSPropertyOp47
 70
     1
102
RTVSPropertyOp48
 70
     1
102
RTVSPropertyOp49
 70
     1
102
RTVSPropertyOp50
 70
     1
102
RTVSPropertyOp51
 70
     0
102
RTVSPropertyOp52
 70
     0
102
RTVSPropertyOp53
 70
     1
102
RTVSPropertyOp54
 70
     1
102
RTVSPropertyOp55
 70
     1
102
RTVSPropertyOp56
 70
     1
102
RTVSPropertyOp57
 70
     1
102
RTVSPropertyOp58
 70
     1
102
RTVSPropertyOp59
 70
     1
102
RTVSPropertyOp60
 70
     1
102
RTVSPropertyOp61
 70
     1
102
RTVSPropertyOp62
 70
     1
  0
XRECORD
  5
21100
102
{ACAD_REACTORS
330
210FF
102
}
330
210FF
100
AcDbXrecord
280
     1
102
RTVSPost2010Prop28
280
     0
102
RTVSPost2010PropOp28
 70
     1
102
RTVSPost2010Prop29
280
     1
102
RTVSPost2010PropOp29
 70
     1
102
RTVSPost2010Prop30
280
     1
102
RTVSPost2010PropOp30
 70
     1
102
RTVSPost2010Prop31
280
     0
102
RTVSPost2010PropOp31
 70
     1
102
RTVSPost2010Prop32
280
     0
102
RTVSPost2010PropOp32
 70
     1
102
RTVSPost2010Prop33
280
     0
102
RTVSPost2010PropOp33
 70
     1
102
RTVSPost2010Prop34
280
     0
102
RTVSPost2010PropOp34
 70
     1
102
RTVSPost2010Prop35
280
     0
102
RTVSPost2010PropOp35
 70
     1
102
RTVSPost2010Prop36
280
     0
102
RTVSPost2010PropOp36
 70
     1
102
RTVSPost2010Prop37
 90
       50
102
RTVSPost2010PropOp37
 70
     1
102
RTVSPost2010Prop38
140
0.0
102
RTVSPost2010PropOp38
 70
     1
102
RTVSPost2010Prop39
140
1.0
102
RTVSPost2010PropOp39
 70
     1
102
RTVSPost2010Prop40
 90
        0
102
RTVSPost2010PropOp40
 70
     1
102
RTVSPost2010Prop41ColorIndex
 90
       18
102
RTVSPost2010Prop41ColorRGB
 90
        0
102
RTVSPost2010PropOp41
 70
     1
102
RTVSPost2010Prop42
 90
       50
102
RTVSPost2010PropOp42
 70
     1
102
RTVSPost2010Prop43
 90
        3
102
RTVSPost2010PropOp43
 70
     1
102
RTVSPost2010Prop44ColorIndex
 90
        5
102
RTVSPost2010Prop44ColorRGB
 90
      255
102
RTVSPost2010PropOp44
 70
     1
102
RTVSPost2010Prop45
280
     0
102
RTVSPost2010PropOp45
 70
     1
102
RTVSPost2010Prop46
 90
       50
102
RTVSPost2010PropOp46
 70
     1
102
RTVSPost2010Prop47
 90
       50
102
RTVSPost2010PropOp47
 70
     1
102
RTVSPost2010Prop48
 90
       50
102
RTVSPost2010PropOp48
 70
     1
102
RTVSPost2010Prop49
280
     0
102
RTVSPost2010PropOp49
 70
     1
102
RTVSPost2010Prop50
 90
       50
102
RTVSPost2010PropOp50
 70
     1
102
RTVSPost2010Prop51ColorIndex
 90
      256
102
RTVSPost2010Prop51ColorRGB
 90
-16777216
102
RTVSPost2010PropOp51
 70
     0
102
RTVSPost2010Prop52
140
1.0
102
RTVSPost2010PropOp52
 70
     0
102
RTVSPost2010Prop53
 90
        2
102
RTVSPost2010PropOp53
 70
     1
102
RTVSPost2010Prop54
  1
strokes_ogs.tif
102
RTVSPost2010PropOp54
 70
     1
102
RTVSPost2010Prop55
280
     0
102
RTVSPost2010PropOp55
 70
     1
102
RTVSPost2010Prop56
140
1.0
102
RTVSPost2010PropOp56
 70
     1
102
RTVSPost2010Prop57
140
1.0
102
RTVSPost2010PropOp57
 70
     1
102
RTVSPropertyOp0
 70
     1
102
RTVSPropertyOp1
 70
     1
102
RTVSPropertyOp2
 70
     1
102
RTVSPropertyOp3
 70
     1
102
RTVSPropertyOp4
 70
     1
102
RTVSPropertyOp5
 70
     1
102
RTVSPropertyOp6
 70
     1
102
RTVSPropertyOp7
 70
     1
102
RTVSPropertyOp8
 70
     1
102
RTVSPropertyOp9
 70
     1
102
RTVSPropertyOp10
 70
     1
102
RTVSPropertyOp11
 70
     1
102
RTVSPropertyOp12
 70
     1
102
RTVSPropertyOp13
 70
     1
102
RTVSPropertyOp14
 70
     1
102
RTVSPropertyOp15
 70
     1
102
RTVSPropertyOp16
 70
     1
102
RTVSPropertyOp17
 70
     1
102
RTVSPropertyOp18
 70
     1
102
RTVSPropertyOp19
 70
     1
102
RTVSPropertyOp20
 70
     1
102
RTVSPropertyOp21
 70
     1
102
RTVSPropertyOp22
 70
     1
102
RTVSPropertyOp23
 70
     1
102
RTVSPropertyOp24
 70
     1
102
RTVSPropertyOp25
 70
     1
102
RTVSPropertyOp26
 70
     1
102
RTVSPropertyOp27
 70
     1
102
RTVSPropertyOp28
 70
     1
102
RTVSPropertyOp29
 70
     1
102
RTVSPropertyOp30
 70
     1
102
RTVSPropertyOp31
 70
     1
102
RTVSPropertyOp32
 70
     1
102
RTVSPropertyOp33
 70
     1
102
RTVSPropertyOp34
 70
     1
102
RTVSPropertyOp35
 70
     1
102
RTVSPropertyOp36
 70
     1
102
RTVSPropertyOp37
 70
     1
102
RTVSPropertyOp38
 70
     1
102
RTVSPropertyOp39
 70
     1
102
RTVSPropertyOp40
 70
     1
102
RTVSPropertyOp41
 70
     1
102
RTVSPropertyOp42
 70
     1
102
RTVSPropertyOp43
 70
     1
102
RTVSPropertyOp44
 70
     1
102
RTVSPropertyOp45
 70
     1
102
RTVSPropertyOp46
 70
     1
102
RTVSPropertyOp47
 70
     1
102
RTVSPropertyOp48
 70
     1
102
RTVSPropertyOp49
 70
     1
102
RTVSPropertyOp50
 70
     1
102
RTVSPropertyOp51
 70
     0
102
RTVSPropertyOp52
 70
     0
102
RTVSPropertyOp53
 70
     1
102
RTVSPropertyOp54
 70
     1
102
RTVSPropertyOp55
 70
     1
102
RTVSPropertyOp56
 70
     1
102
RTVSPropertyOp57
 70
     1
102
RTVSPropertyOp58
 70
     1
102
RTVSPropertyOp59
 70
     1
102
RTVSPropertyOp60
 70
     1
102
RTVSPropertyOp61
 70
     1
102
RTVSPropertyOp62
 70
     1
  0
XRECORD
  5
2110E
102
{ACAD_REACTORS
330
2110D
102
}
330
2110D
100
AcDbXrecord
280
     1
102
RTVSPost2010Prop28
280
     0
102
RTVSPost2010PropOp28
 70
     1
102
RTVSPost2010Prop29
280
     1
102
RTVSPost2010PropOp29
 70
     1
102
RTVSPost2010Prop30
280
     1
102
RTVSPost2010PropOp30
 70
     1
102
RTVSPost2010Prop31
280
     0
102
RTVSPost2010PropOp31
 70
     1
102
RTVSPost2010Prop32
280
     0
102
RTVSPost2010PropOp32
 70
     1
102
RTVSPost2010Prop33
280
     0
102
RTVSPost2010PropOp33
 70
     1
102
RTVSPost2010Prop34
280
     0
102
RTVSPost2010PropOp34
 70
     1
102
RTVSPost2010Prop35
280
     0
102
RTVSPost2010PropOp35
 70
     1
102
RTVSPost2010Prop36
280
     0
102
RTVSPost2010PropOp36
 70
     1
102
RTVSPost2010Prop37
 90
       50
102
RTVSPost2010PropOp37
 70
     1
102
RTVSPost2010Prop38
140
0.0
102
RTVSPost2010PropOp38
 70
     1
102
RTVSPost2010Prop39
140
1.0
102
RTVSPost2010PropOp39
 70
     1
102
RTVSPost2010Prop40
 90
        0
102
RTVSPost2010PropOp40
 70
     1
102
RTVSPost2010Prop41ColorIndex
 90
       18
102
RTVSPost2010Prop41ColorRGB
 90
        0
102
RTVSPost2010PropOp41
 70
     1
102
RTVSPost2010Prop42
 90
       50
102
RTVSPost2010PropOp42
 70
     1
102
RTVSPost2010Prop43
 90
        3
102
RTVSPost2010PropOp43
 70
     1
102
RTVSPost2010Prop44ColorIndex
 90
        5
102
RTVSPost2010Prop44ColorRGB
 90
      255
102
RTVSPost2010PropOp44
 70
     1
102
RTVSPost2010Prop45
280
     0
102
RTVSPost2010PropOp45
 70
     1
102
RTVSPost2010Prop46
 90
       50
102
RTVSPost2010PropOp46
 70
     1
102
RTVSPost2010Prop47
 90
       50
102
RTVSPost2010PropOp47
 70
     1
102
RTVSPost2010Prop48
 90
       50
102
RTVSPost2010PropOp48
 70
     1
102
RTVSPost2010Prop49
280
     0
102
RTVSPost2010PropOp49
 70
     1
102
RTVSPost2010Prop50
 90
       50
102
RTVSPost2010PropOp50
 70
     1
102
RTVSPost2010Prop51ColorIndex
 90
      256
102
RTVSPost2010Prop51ColorRGB
 90
-16777216
102
RTVSPost2010PropOp51
 70
     0
102
RTVSPost2010Prop52
140
1.0
102
RTVSPost2010PropOp52
 70
     0
102
RTVSPost2010Prop53
 90
        2
102
RTVSPost2010PropOp53
 70
     1
102
RTVSPost2010Prop54
  1
strokes_ogs.tif
102
RTVSPost2010PropOp54
 70
     1
102
RTVSPost2010Prop55
280
     0
102
RTVSPost2010PropOp55
 70
     1
102
RTVSPost2010Prop56
140
1.0
102
RTVSPost2010PropOp56
 70
     1
102
RTVSPost2010Prop57
140
1.0
102
RTVSPost2010PropOp57
 70
     1
102
RTVSPropertyOp0
 70
     1
102
RTVSPropertyOp1
 70
     1
102
RTVSPropertyOp2
 70
     1
102
RTVSPropertyOp3
 70
     1
102
RTVSPropertyOp4
 70
     1
102
RTVSPropertyOp5
 70
     1
102
RTVSPropertyOp6
 70
     1
102
RTVSPropertyOp7
 70
     1
102
RTVSPropertyOp8
 70
     1
102
RTVSPropertyOp9
 70
     1
102
RTVSPropertyOp10
 70
     1
102
RTVSPropertyOp11
 70
     1
102
RTVSPropertyOp12
 70
     1
102
RTVSPropertyOp13
 70
     1
102
RTVSPropertyOp14
 70
     1
102
RTVSPropertyOp15
 70
     1
102
RTVSPropertyOp16
 70
     1
102
RTVSPropertyOp17
 70
     1
102
RTVSPropertyOp18
 70
     1
102
RTVSPropertyOp19
 70
     1
102
RTVSPropertyOp20
 70
     1
102
RTVSPropertyOp21
 70
     1
102
RTVSPropertyOp22
 70
     1
102
RTVSPropertyOp23
 70
     1
102
RTVSPropertyOp24
 70
     1
102
RTVSPropertyOp25
 70
     1
102
RTVSPropertyOp26
 70
     1
102
RTVSPropertyOp27
 70
     1
102
RTVSPropertyOp28
 70
     1
102
RTVSPropertyOp29
 70
     1
102
RTVSPropertyOp30
 70
     1
102
RTVSPropertyOp31
 70
     1
102
RTVSPropertyOp32
 70
     1
102
RTVSPropertyOp33
 70
     1
102
RTVSPropertyOp34
 70
     1
102
RTVSPropertyOp35
 70
     1
102
RTVSPropertyOp36
 70
     1
102
RTVSPropertyOp37
 70
     1
102
RTVSPropertyOp38
 70
     1
102
RTVSPropertyOp39
 70
     1
102
RTVSPropertyOp40
 70
     1
102
RTVSPropertyOp41
 70
     1
102
RTVSPropertyOp42
 70
     1
102
RTVSPropertyOp43
 70
     1
102
RTVSPropertyOp44
 70
     1
102
RTVSPropertyOp45
 70
     1
102
RTVSPropertyOp46
 70
     1
102
RTVSPropertyOp47
 70
     1
102
RTVSPropertyOp48
 70
     1
102
RTVSPropertyOp49
 70
     1
102
RTVSPropertyOp50
 70
     1
102
RTVSPropertyOp51
 70
     0
102
RTVSPropertyOp52
 70
     0
102
RTVSPropertyOp53
 70
     1
102
RTVSPropertyOp54
 70
     1
102
RTVSPropertyOp55
 70
     1
102
RTVSPropertyOp56
 70
     1
102
RTVSPropertyOp57
 70
     1
102
RTVSPropertyOp58
 70
     1
102
RTVSPropertyOp59
 70
     1
102
RTVSPropertyOp60
 70
     1
102
RTVSPropertyOp61
 70
     1
102
RTVSPropertyOp62
 70
     1
  0
XRECORD
  5
21116
102
{ACAD_REACTORS
330
21115
102
}
330
21115
100
AcDbXrecord
280
     1
102
RTVSPost2010Prop28
280
     0
102
RTVSPost2010PropOp28
 70
     1
102
RTVSPost2010Prop29
280
     1
102
RTVSPost2010PropOp29
 70
     1
102
RTVSPost2010Prop30
280
     1
102
RTVSPost2010PropOp30
 70
     1
102
RTVSPost2010Prop31
280
     0
102
RTVSPost2010PropOp31
 70
     1
102
RTVSPost2010Prop32
280
     0
102
RTVSPost2010PropOp32
 70
     1
102
RTVSPost2010Prop33
280
     0
102
RTVSPost2010PropOp33
 70
     1
102
RTVSPost2010Prop34
280
     0
102
RTVSPost2010PropOp34
 70
     1
102
RTVSPost2010Prop35
280
     0
102
RTVSPost2010PropOp35
 70
     1
102
RTVSPost2010Prop36
280
     0
102
RTVSPost2010PropOp36
 70
     1
102
RTVSPost2010Prop37
 90
       50
102
RTVSPost2010PropOp37
 70
     1
102
RTVSPost2010Prop38
140
0.0
102
RTVSPost2010PropOp38
 70
     1
102
RTVSPost2010Prop39
140
1.0
102
RTVSPost2010PropOp39
 70
     1
102
RTVSPost2010Prop40
 90
        0
102
RTVSPost2010PropOp40
 70
     1
102
RTVSPost2010Prop41ColorIndex
 90
       18
102
RTVSPost2010Prop41ColorRGB
 90
        0
102
RTVSPost2010PropOp41
 70
     1
102
RTVSPost2010Prop42
 90
       50
102
RTVSPost2010PropOp42
 70
     1
102
RTVSPost2010Prop43
 90
        3
102
RTVSPost2010PropOp43
 70
     1
102
RTVSPost2010Prop44ColorIndex
 90
        5
102
RTVSPost2010Prop44ColorRGB
 90
      255
102
RTVSPost2010PropOp44
 70
     1
102
RTVSPost2010Prop45
280
     0
102
RTVSPost2010PropOp45
 70
     1
102
RTVSPost2010Prop46
 90
       50
102
RTVSPost2010PropOp46
 70
     1
102
RTVSPost2010Prop47
 90
       50
102
RTVSPost2010PropOp47
 70
     1
102
RTVSPost2010Prop48
 90
       50
102
RTVSPost2010PropOp48
 70
     1
102
RTVSPost2010Prop49
280
     0
102
RTVSPost2010PropOp49
 70
     1
102
RTVSPost2010Prop50
 90
       50
102
RTVSPost2010PropOp50
 70
     1
102
RTVSPost2010Prop51ColorIndex
 90
      256
102
RTVSPost2010Prop51ColorRGB
 90
-16777216
102
RTVSPost2010PropOp51
 70
     0
102
RTVSPost2010Prop52
140
1.0
102
RTVSPost2010PropOp52
 70
     0
102
RTVSPost2010Prop53
 90
        2
102
RTVSPost2010PropOp53
 70
     1
102
RTVSPost2010Prop54
  1
strokes_ogs.tif
102
RTVSPost2010PropOp54
 70
     1
102
RTVSPost2010Prop55
280
     0
102
RTVSPost2010PropOp55
 70
     1
102
RTVSPost2010Prop56
140
1.0
102
RTVSPost2010PropOp56
 70
     1
102
RTVSPost2010Prop57
140
1.0
102
RTVSPost2010PropOp57
 70
     1
102
RTVSPropertyOp0
 70
     1
102
RTVSPropertyOp1
 70
     1
102
RTVSPropertyOp2
 70
     1
102
RTVSPropertyOp3
 70
     1
102
RTVSPropertyOp4
 70
     1
102
RTVSPropertyOp5
 70
     1
102
RTVSPropertyOp6
 70
     1
102
RTVSPropertyOp7
 70
     1
102
RTVSPropertyOp8
 70
     1
102
RTVSPropertyOp9
 70
     1
102
RTVSPropertyOp10
 70
     1
102
RTVSPropertyOp11
 70
     1
102
RTVSPropertyOp12
 70
     1
102
RTVSPropertyOp13
 70
     1
102
RTVSPropertyOp14
 70
     1
102
RTVSPropertyOp15
 70
     1
102
RTVSPropertyOp16
 70
     1
102
RTVSPropertyOp17
 70
     1
102
RTVSPropertyOp18
 70
     1
102
RTVSPropertyOp19
 70
     1
102
RTVSPropertyOp20
 70
     1
102
RTVSPropertyOp21
 70
     1
102
RTVSPropertyOp22
 70
     1
102
RTVSPropertyOp23
 70
     1
102
RTVSPropertyOp24
 70
     1
102
RTVSPropertyOp25
 70
     1
102
RTVSPropertyOp26
 70
     1
102
RTVSPropertyOp27
 70
     1
102
RTVSPropertyOp28
 70
     1
102
RTVSPropertyOp29
 70
     1
102
RTVSPropertyOp30
 70
     1
102
RTVSPropertyOp31
 70
     1
102
RTVSPropertyOp32
 70
     1
102
RTVSPropertyOp33
 70
     1
102
RTVSPropertyOp34
 70
     1
102
RTVSPropertyOp35
 70
     1
102
RTVSPropertyOp36
 70
     1
102
RTVSPropertyOp37
 70
     1
102
RTVSPropertyOp38
 70
     1
102
RTVSPropertyOp39
 70
     1
102
RTVSPropertyOp40
 70
     1
102
RTVSPropertyOp41
 70
     1
102
RTVSPropertyOp42
 70
     1
102
RTVSPropertyOp43
 70
     1
102
RTVSPropertyOp44
 70
     1
102
RTVSPropertyOp45
 70
     1
102
RTVSPropertyOp46
 70
     1
102
RTVSPropertyOp47
 70
     1
102
RTVSPropertyOp48
 70
     1
102
RTVSPropertyOp49
 70
     1
102
RTVSPropertyOp50
 70
     1
102
RTVSPropertyOp51
 70
     0
102
RTVSPropertyOp52
 70
     0
102
RTVSPropertyOp53
 70
     1
102
RTVSPropertyOp54
 70
     1
102
RTVSPropertyOp55
 70
     1
102
RTVSPropertyOp56
 70
     1
102
RTVSPropertyOp57
 70
     1
102
RTVSPropertyOp58
 70
     1
102
RTVSPropertyOp59
 70
     1
102
RTVSPropertyOp60
 70
     1
102
RTVSPropertyOp61
 70
     1
102
RTVSPropertyOp62
 70
     1
  0
XRECORD
  5
21108
102
{ACAD_REACTORS
330
21107
102
}
330
21107
100
AcDbXrecord
280
     1
102
RTVSPost2010Prop28
280
     0
102
RTVSPost2010PropOp28
 70
     1
102
RTVSPost2010Prop29
280
     1
102
RTVSPost2010PropOp29
 70
     1
102
RTVSPost2010Prop30
280
     1
102
RTVSPost2010PropOp30
 70
     1
102
RTVSPost2010Prop31
280
     0
102
RTVSPost2010PropOp31
 70
     1
102
RTVSPost2010Prop32
280
     0
102
RTVSPost2010PropOp32
 70
     1
102
RTVSPost2010Prop33
280
     0
102
RTVSPost2010PropOp33
 70
     1
102
RTVSPost2010Prop34
280
     0
102
RTVSPost2010PropOp34
 70
     1
102
RTVSPost2010Prop35
280
     0
102
RTVSPost2010PropOp35
 70
     1
102
RTVSPost2010Prop36
280
     0
102
RTVSPost2010PropOp36
 70
     1
102
RTVSPost2010Prop37
 90
       50
102
RTVSPost2010PropOp37
 70
     1
102
RTVSPost2010Prop38
140
0.0
102
RTVSPost2010PropOp38
 70
     1
102
RTVSPost2010Prop39
140
1.0
102
RTVSPost2010PropOp39
 70
     1
102
RTVSPost2010Prop40
 90
        0
102
RTVSPost2010PropOp40
 70
     1
102
RTVSPost2010Prop41ColorIndex
 90
       18
102
RTVSPost2010Prop41ColorRGB
 90
        0
102
RTVSPost2010PropOp41
 70
     1
102
RTVSPost2010Prop42
 90
       50
102
RTVSPost2010PropOp42
 70
     1
102
RTVSPost2010Prop43
 90
        3
102
RTVSPost2010PropOp43
 70
     1
102
RTVSPost2010Prop44ColorIndex
 90
        5
102
RTVSPost2010Prop44ColorRGB
 90
      255
102
RTVSPost2010PropOp44
 70
     1
102
RTVSPost2010Prop45
280
     0
102
RTVSPost2010PropOp45
 70
     1
102
RTVSPost2010Prop46
 90
       50
102
RTVSPost2010PropOp46
 70
     1
102
RTVSPost2010Prop47
 90
       50
102
RTVSPost2010PropOp47
 70
     1
102
RTVSPost2010Prop48
 90
       50
102
RTVSPost2010PropOp48
 70
     1
102
RTVSPost2010Prop49
280
     0
102
RTVSPost2010PropOp49
 70
     1
102
RTVSPost2010Prop50
 90
       50
102
RTVSPost2010PropOp50
 70
     1
102
RTVSPost2010Prop51ColorIndex
 90
      256
102
RTVSPost2010Prop51ColorRGB
 90
-16777216
102
RTVSPost2010PropOp51
 70
     0
102
RTVSPost2010Prop52
140
1.0
102
RTVSPost2010PropOp52
 70
     0
102
RTVSPost2010Prop53
 90
        2
102
RTVSPost2010PropOp53
 70
     1
102
RTVSPost2010Prop54
  1
strokes_ogs.tif
102
RTVSPost2010PropOp54
 70
     1
102
RTVSPost2010Prop55
280
     0
102
RTVSPost2010PropOp55
 70
     1
102
RTVSPost2010Prop56
140
1.0
102
RTVSPost2010PropOp56
 70
     1
102
RTVSPost2010Prop57
140
1.0
102
RTVSPost2010PropOp57
 70
     1
102
RTVSPropertyOp0
 70
     1
102
RTVSPropertyOp1
 70
     1
102
RTVSPropertyOp2
 70
     1
102
RTVSPropertyOp3
 70
     1
102
RTVSPropertyOp4
 70
     1
102
RTVSPropertyOp5
 70
     1
102
RTVSPropertyOp6
 70
     1
102
RTVSPropertyOp7
 70
     1
102
RTVSPropertyOp8
 70
     1
102
RTVSPropertyOp9
 70
     1
102
RTVSPropertyOp10
 70
     1
102
RTVSPropertyOp11
 70
     1
102
RTVSPropertyOp12
 70
     1
102
RTVSPropertyOp13
 70
     1
102
RTVSPropertyOp14
 70
     1
102
RTVSPropertyOp15
 70
     1
102
RTVSPropertyOp16
 70
     1
102
RTVSPropertyOp17
 70
     1
102
RTVSPropertyOp18
 70
     1
102
RTVSPropertyOp19
 70
     1
102
RTVSPropertyOp20
 70
     1
102
RTVSPropertyOp21
 70
     1
102
RTVSPropertyOp22
 70
     1
102
RTVSPropertyOp23
 70
     1
102
RTVSPropertyOp24
 70
     1
102
RTVSPropertyOp25
 70
     1
102
RTVSPropertyOp26
 70
     1
102
RTVSPropertyOp27
 70
     1
102
RTVSPropertyOp28
 70
     1
102
RTVSPropertyOp29
 70
     1
102
RTVSPropertyOp30
 70
     1
102
RTVSPropertyOp31
 70
     1
102
RTVSPropertyOp32
 70
     1
102
RTVSPropertyOp33
 70
     1
102
RTVSPropertyOp34
 70
     1
102
RTVSPropertyOp35
 70
     1
102
RTVSPropertyOp36
 70
     1
102
RTVSPropertyOp37
 70
     1
102
RTVSPropertyOp38
 70
     1
102
RTVSPropertyOp39
 70
     1
102
RTVSPropertyOp40
 70
     1
102
RTVSPropertyOp41
 70
     1
102
RTVSPropertyOp42
 70
     1
102
RTVSPropertyOp43
 70
     1
102
RTVSPropertyOp44
 70
     1
102
RTVSPropertyOp45
 70
     1
102
RTVSPropertyOp46
 70
     1
102
RTVSPropertyOp47
 70
     1
102
RTVSPropertyOp48
 70
     1
102
RTVSPropertyOp49
 70
     1
102
RTVSPropertyOp50
 70
     1
102
RTVSPropertyOp51
 70
     0
102
RTVSPropertyOp52
 70
     0
102
RTVSPropertyOp53
 70
     1
102
RTVSPropertyOp54
 70
     1
102
RTVSPropertyOp55
 70
     1
102
RTVSPropertyOp56
 70
     1
102
RTVSPropertyOp57
 70
     1
102
RTVSPropertyOp58
 70
     1
102
RTVSPropertyOp59
 70
     1
102
RTVSPropertyOp60
 70
     1
102
RTVSPropertyOp61
 70
     1
102
RTVSPropertyOp62
 70
     1
  0
XRECORD
  5
2110C
102
{ACAD_REACTORS
330
2110B
102
}
330
2110B
100
AcDbXrecord
280
     1
102
RTVSPost2010Prop28
280
     0
102
RTVSPost2010PropOp28
 70
     1
102
RTVSPost2010Prop29
280
     1
102
RTVSPost2010PropOp29
 70
     1
102
RTVSPost2010Prop30
280
     1
102
RTVSPost2010PropOp30
 70
     1
102
RTVSPost2010Prop31
280
     0
102
RTVSPost2010PropOp31
 70
     1
102
RTVSPost2010Prop32
280
     0
102
RTVSPost2010PropOp32
 70
     1
102
RTVSPost2010Prop33
280
     0
102
RTVSPost2010PropOp33
 70
     1
102
RTVSPost2010Prop34
280
     0
102
RTVSPost2010PropOp34
 70
     1
102
RTVSPost2010Prop35
280
     0
102
RTVSPost2010PropOp35
 70
     1
102
RTVSPost2010Prop36
280
     0
102
RTVSPost2010PropOp36
 70
     1
102
RTVSPost2010Prop37
 90
       50
102
RTVSPost2010PropOp37
 70
     1
102
RTVSPost2010Prop38
140
0.0
102
RTVSPost2010PropOp38
 70
     1
102
RTVSPost2010Prop39
140
1.0
102
RTVSPost2010PropOp39
 70
     1
102
RTVSPost2010Prop40
 90
        0
102
RTVSPost2010PropOp40
 70
     1
102
RTVSPost2010Prop41ColorIndex
 90
       18
102
RTVSPost2010Prop41ColorRGB
 90
        0
102
RTVSPost2010PropOp41
 70
     1
102
RTVSPost2010Prop42
 90
       50
102
RTVSPost2010PropOp42
 70
     1
102
RTVSPost2010Prop43
 90
        3
102
RTVSPost2010PropOp43
 70
     1
102
RTVSPost2010Prop44ColorIndex
 90
        5
102
RTVSPost2010Prop44ColorRGB
 90
      255
102
RTVSPost2010PropOp44
 70
     1
102
RTVSPost2010Prop45
280
     0
102
RTVSPost2010PropOp45
 70
     1
102
RTVSPost2010Prop46
 90
       50
102
RTVSPost2010PropOp46
 70
     1
102
RTVSPost2010Prop47
 90
       50
102
RTVSPost2010PropOp47
 70
     1
102
RTVSPost2010Prop48
 90
       50
102
RTVSPost2010PropOp48
 70
     1
102
RTVSPost2010Prop49
280
     0
102
RTVSPost2010PropOp49
 70
     1
102
RTVSPost2010Prop50
 90
       50
102
RTVSPost2010PropOp50
 70
     1
102
RTVSPost2010Prop51ColorIndex
 90
      256
102
RTVSPost2010Prop51ColorRGB
 90
-16777216
102
RTVSPost2010PropOp51
 70
     0
102
RTVSPost2010Prop52
140
1.0
102
RTVSPost2010PropOp52
 70
     0
102
RTVSPost2010Prop53
 90
        2
102
RTVSPost2010PropOp53
 70
     1
102
RTVSPost2010Prop54
  1
strokes_ogs.tif
102
RTVSPost2010PropOp54
 70
     1
102
RTVSPost2010Prop55
280
     0
102
RTVSPost2010PropOp55
 70
     1
102
RTVSPost2010Prop56
140
1.0
102
RTVSPost2010PropOp56
 70
     1
102
RTVSPost2010Prop57
140
1.0
102
RTVSPost2010PropOp57
 70
     1
102
RTVSPropertyOp0
 70
     1
102
RTVSPropertyOp1
 70
     1
102
RTVSPropertyOp2
 70
     1
102
RTVSPropertyOp3
 70
     1
102
RTVSPropertyOp4
 70
     1
102
RTVSPropertyOp5
 70
     1
102
RTVSPropertyOp6
 70
     1
102
RTVSPropertyOp7
 70
     1
102
RTVSPropertyOp8
 70
     1
102
RTVSPropertyOp9
 70
     1
102
RTVSPropertyOp10
 70
     1
102
RTVSPropertyOp11
 70
     1
102
RTVSPropertyOp12
 70
     1
102
RTVSPropertyOp13
 70
     1
102
RTVSPropertyOp14
 70
     1
102
RTVSPropertyOp15
 70
     1
102
RTVSPropertyOp16
 70
     1
102
RTVSPropertyOp17
 70
     1
102
RTVSPropertyOp18
 70
     1
102
RTVSPropertyOp19
 70
     1
102
RTVSPropertyOp20
 70
     1
102
RTVSPropertyOp21
 70
     1
102
RTVSPropertyOp22
 70
     1
102
RTVSPropertyOp23
 70
     1
102
RTVSPropertyOp24
 70
     1
102
RTVSPropertyOp25
 70
     1
102
RTVSPropertyOp26
 70
     1
102
RTVSPropertyOp27
 70
     1
102
RTVSPropertyOp28
 70
     1
102
RTVSPropertyOp29
 70
     1
102
RTVSPropertyOp30
 70
     1
102
RTVSPropertyOp31
 70
     1
102
RTVSPropertyOp32
 70
     1
102
RTVSPropertyOp33
 70
     1
102
RTVSPropertyOp34
 70
     1
102
RTVSPropertyOp35
 70
     1
102
RTVSPropertyOp36
 70
     1
102
RTVSPropertyOp37
 70
     1
102
RTVSPropertyOp38
 70
     1
102
RTVSPropertyOp39
 70
     1
102
RTVSPropertyOp40
 70
     1
102
RTVSPropertyOp41
 70
     1
102
RTVSPropertyOp42
 70
     1
102
RTVSPropertyOp43
 70
     1
102
RTVSPropertyOp44
 70
     1
102
RTVSPropertyOp45
 70
     1
102
RTVSPropertyOp46
 70
     1
102
RTVSPropertyOp47
 70
     1
102
RTVSPropertyOp48
 70
     1
102
RTVSPropertyOp49
 70
     1
102
RTVSPropertyOp50
 70
     1
102
RTVSPropertyOp51
 70
     0
102
RTVSPropertyOp52
 70
     0
102
RTVSPropertyOp53
 70
     1
102
RTVSPropertyOp54
 70
     1
102
RTVSPropertyOp55
 70
     1
102
RTVSPropertyOp56
 70
     1
102
RTVSPropertyOp57
 70
     1
102
RTVSPropertyOp58
 70
     1
102
RTVSPropertyOp59
 70
     1
102
RTVSPropertyOp60
 70
     1
102
RTVSPropertyOp61
 70
     1
102
RTVSPropertyOp62
 70
     1
  0
XRECORD
  5
21132
102
{ACAD_REACTORS
330
21131
102
}
330
21131
100
AcDbXrecord
280
     1
102
RTVSPost2010Prop28
280
     0
102
RTVSPost2010PropOp28
 70
     1
102
RTVSPost2010Prop29
280
     1
102
RTVSPost2010PropOp29
 70
     1
102
RTVSPost2010Prop30
280
     1
102
RTVSPost2010PropOp30
 70
     1
102
RTVSPost2010Prop31
280
     0
102
RTVSPost2010PropOp31
 70
     1
102
RTVSPost2010Prop32
280
     0
102
RTVSPost2010PropOp32
 70
     1
102
RTVSPost2010Prop33
280
     0
102
RTVSPost2010PropOp33
 70
     1
102
RTVSPost2010Prop34
280
     0
102
RTVSPost2010PropOp34
 70
     1
102
RTVSPost2010Prop35
280
     0
102
RTVSPost2010PropOp35
 70
     1
102
RTVSPost2010Prop36
280
     0
102
RTVSPost2010PropOp36
 70
     1
102
RTVSPost2010Prop37
 90
       50
102
RTVSPost2010PropOp37
 70
     0
102
RTVSPost2010Prop38
140
0.0
102
RTVSPost2010PropOp38
 70
     0
102
RTVSPost2010Prop39
140
1.0
102
RTVSPost2010PropOp39
 70
     0
102
RTVSPost2010Prop40
 90
        0
102
RTVSPost2010PropOp40
 70
     0
102
RTVSPost2010Prop41ColorIndex
 90
       18
102
RTVSPost2010Prop41ColorRGB
 90
        0
102
RTVSPost2010PropOp41
 70
     0
102
RTVSPost2010Prop42
 90
       50
102
RTVSPost2010PropOp42
 70
     0
102
RTVSPost2010Prop43
 90
        3
102
RTVSPost2010PropOp43
 70
     0
102
RTVSPost2010Prop44ColorIndex
 90
        5
102
RTVSPost2010Prop44ColorRGB
 90
      255
102
RTVSPost2010PropOp44
 70
     0
102
RTVSPost2010Prop45
280
     0
102
RTVSPost2010PropOp45
 70
     1
102
RTVSPost2010Prop46
 90
       50
102
RTVSPost2010PropOp46
 70
     0
102
RTVSPost2010Prop47
 90
       50
102
RTVSPost2010PropOp47
 70
     0
102
RTVSPost2010Prop48
 90
       50
102
RTVSPost2010PropOp48
 70
     0
102
RTVSPost2010Prop49
280
     0
102
RTVSPost2010PropOp49
 70
     1
102
RTVSPost2010Prop50
 90
       50
102
RTVSPost2010PropOp50
 70
     0
102
RTVSPost2010Prop51ColorIndex
 90
      256
102
RTVSPost2010Prop51ColorRGB
 90
-16777216
102
RTVSPost2010PropOp51
 70
     0
102
RTVSPost2010Prop52
140
1.0
102
RTVSPost2010PropOp52
 70
     0
102
RTVSPost2010Prop53
 90
        2
102
RTVSPost2010PropOp53
 70
     0
102
RTVSPost2010Prop54
  1
strokes_ogs.tif
102
RTVSPost2010PropOp54
 70
     0
102
RTVSPost2010Prop55
280
     0
102
RTVSPost2010PropOp55
 70
     1
102
RTVSPost2010Prop56
140
1.0
102
RTVSPost2010PropOp56
 70
     0
102
RTVSPost2010Prop57
140
1.0
102
RTVSPost2010PropOp57
 70
     0
102
RTVSPropertyOp0
 70
     0
102
RTVSPropertyOp1
 70
     0
102
RTVSPropertyOp2
 70
     0
102
RTVSPropertyOp3
 70
     0
102
RTVSPropertyOp4
 70
     0
102
RTVSPropertyOp5
 70
     0
102
RTVSPropertyOp6
 70
     0
102
RTVSPropertyOp7
 70
     0
102
RTVSPropertyOp8
 70
     0
102
RTVSPropertyOp9
 70
     0
102
RTVSPropertyOp10
 70
     0
102
RTVSPropertyOp11
 70
     0
102
RTVSPropertyOp12
 70
     0
102
RTVSPropertyOp13
 70
     0
102
RTVSPropertyOp14
 70
     2
102
RTVSPropertyOp15
 70
     0
102
RTVSPropertyOp16
 70
     0
102
RTVSPropertyOp17
 70
     0
102
RTVSPropertyOp18
 70
     0
102
RTVSPropertyOp19
 70
     0
102
RTVSPropertyOp20
 70
     0
102
RTVSPropertyOp21
 70
     0
102
RTVSPropertyOp22
 70
     0
102
RTVSPropertyOp23
 70
     0
102
RTVSPropertyOp24
 70
     0
102
RTVSPropertyOp25
 70
     0
102
RTVSPropertyOp26
 70
     0
102
RTVSPropertyOp27
 70
     0
102
RTVSPropertyOp28
 70
     1
102
RTVSPropertyOp29
 70
     1
102
RTVSPropertyOp30
 70
     1
102
RTVSPropertyOp31
 70
     1
102
RTVSPropertyOp32
 70
     1
102
RTVSPropertyOp33
 70
     1
102
RTVSPropertyOp34
 70
     1
102
RTVSPropertyOp35
 70
     1
102
RTVSPropertyOp36
 70
     1
102
RTVSPropertyOp37
 70
     0
102
RTVSPropertyOp38
 70
     0
102
RTVSPropertyOp39
 70
     0
102
RTVSPropertyOp40
 70
     0
102
RTVSPropertyOp41
 70
     0
102
RTVSPropertyOp42
 70
     0
102
RTVSPropertyOp43
 70
     0
102
RTVSPropertyOp44
 70
     0
102
RTVSPropertyOp45
 70
     1
102
RTVSPropertyOp46
 70
     0
102
RTVSPropertyOp47
 70
     0
102
RTVSPropertyOp48
 70
     0
102
RTVSPropertyOp49
 70
     1
102
RTVSPropertyOp50
 70
     0
102
RTVSPropertyOp51
 70
     0
102
RTVSPropertyOp52
 70
     0
102
RTVSPropertyOp53
 70
     0
102
RTVSPropertyOp54
 70
     0
102
RTVSPropertyOp55
 70
     1
102
RTVSPropertyOp56
 70
     0
102
RTVSPropertyOp57
 70
     0
102
RTVSPropertyOp58
 70
     1
102
RTVSPropertyOp59
 70
     1
102
RTVSPropertyOp60
 70
     1
102
RTVSPropertyOp61
 70
     1
102
RTVSPropertyOp62
 70
     1
  0
XRECORD
  5
21114
102
{ACAD_REACTORS
330
21113
102
}
330
21113
100
AcDbXrecord
280
     1
102
RTVSPost2010Prop28
280
     0
102
RTVSPost2010PropOp28
 70
     1
102
RTVSPost2010Prop29
280
     1
102
RTVSPost2010PropOp29
 70
     1
102
RTVSPost2010Prop30
280
     1
102
RTVSPost2010PropOp30
 70
     1
102
RTVSPost2010Prop31
280
     0
102
RTVSPost2010PropOp31
 70
     1
102
RTVSPost2010Prop32
280
     0
102
RTVSPost2010PropOp32
 70
     1
102
RTVSPost2010Prop33
280
     0
102
RTVSPost2010PropOp33
 70
     1
102
RTVSPost2010Prop34
280
     0
102
RTVSPost2010PropOp34
 70
     1
102
RTVSPost2010Prop35
280
     0
102
RTVSPost2010PropOp35
 70
     1
102
RTVSPost2010Prop36
280
     0
102
RTVSPost2010PropOp36
 70
     1
102
RTVSPost2010Prop37
 90
       50
102
RTVSPost2010PropOp37
 70
     1
102
RTVSPost2010Prop38
140
0.0
102
RTVSPost2010PropOp38
 70
     1
102
RTVSPost2010Prop39
140
1.0
102
RTVSPost2010PropOp39
 70
     1
102
RTVSPost2010Prop40
 90
        0
102
RTVSPost2010PropOp40
 70
     1
102
RTVSPost2010Prop41ColorIndex
 90
       18
102
RTVSPost2010Prop41ColorRGB
 90
        0
102
RTVSPost2010PropOp41
 70
     1
102
RTVSPost2010Prop42
 90
       50
102
RTVSPost2010PropOp42
 70
     1
102
RTVSPost2010Prop43
 90
        3
102
RTVSPost2010PropOp43
 70
     1
102
RTVSPost2010Prop44ColorIndex
 90
        5
102
RTVSPost2010Prop44ColorRGB
 90
      255
102
RTVSPost2010PropOp44
 70
     1
102
RTVSPost2010Prop45
280
     0
102
RTVSPost2010PropOp45
 70
     1
102
RTVSPost2010Prop46
 90
       50
102
RTVSPost2010PropOp46
 70
     1
102
RTVSPost2010Prop47
 90
       50
102
RTVSPost2010PropOp47
 70
     1
102
RTVSPost2010Prop48
 90
       50
102
RTVSPost2010PropOp48
 70
     1
102
RTVSPost2010Prop49
280
     0
102
RTVSPost2010PropOp49
 70
     1
102
RTVSPost2010Prop50
 90
       50
102
RTVSPost2010PropOp50
 70
     1
102
RTVSPost2010Prop51ColorIndex
 90
      256
102
RTVSPost2010Prop51ColorRGB
 90
-16777216
102
RTVSPost2010PropOp51
 70
     0
102
RTVSPost2010Prop52
140
1.0
102
RTVSPost2010PropOp52
 70
     0
102
RTVSPost2010Prop53
 90
        2
102
RTVSPost2010PropOp53
 70
     1
102
RTVSPost2010Prop54
  1
strokes_ogs.tif
102
RTVSPost2010PropOp54
 70
     1
102
RTVSPost2010Prop55
280
     0
102
RTVSPost2010PropOp55
 70
     1
102
RTVSPost2010Prop56
140
1.0
102
RTVSPost2010PropOp56
 70
     1
102
RTVSPost2010Prop57
140
1.0
102
RTVSPost2010PropOp57
 70
     1
102
RTVSPropertyOp0
 70
     1
102
RTVSPropertyOp1
 70
     1
102
RTVSPropertyOp2
 70
     1
102
RTVSPropertyOp3
 70
     1
102
RTVSPropertyOp4
 70
     1
102
RTVSPropertyOp5
 70
     1
102
RTVSPropertyOp6
 70
     1
102
RTVSPropertyOp7
 70
     1
102
RTVSPropertyOp8
 70
     1
102
RTVSPropertyOp9
 70
     1
102
RTVSPropertyOp10
 70
     1
102
RTVSPropertyOp11
 70
     1
102
RTVSPropertyOp12
 70
     1
102
RTVSPropertyOp13
 70
     1
102
RTVSPropertyOp14
 70
     1
102
RTVSPropertyOp15
 70
     1
102
RTVSPropertyOp16
 70
     1
102
RTVSPropertyOp17
 70
     1
102
RTVSPropertyOp18
 70
     1
102
RTVSPropertyOp19
 70
     1
102
RTVSPropertyOp20
 70
     1
102
RTVSPropertyOp21
 70
     1
102
RTVSPropertyOp22
 70
     1
102
RTVSPropertyOp23
 70
     1
102
RTVSPropertyOp24
 70
     1
102
RTVSPropertyOp25
 70
     1
102
RTVSPropertyOp26
 70
     1
102
RTVSPropertyOp27
 70
     1
102
RTVSPropertyOp28
 70
     1
102
RTVSPropertyOp29
 70
     1
102
RTVSPropertyOp30
 70
     1
102
RTVSPropertyOp31
 70
     1
102
RTVSPropertyOp32
 70
     1
102
RTVSPropertyOp33
 70
     1
102
RTVSPropertyOp34
 70
     1
102
RTVSPropertyOp35
 70
     1
102
RTVSPropertyOp36
 70
     1
102
RTVSPropertyOp37
 70
     1
102
RTVSPropertyOp38
 70
     1
102
RTVSPropertyOp39
 70
     1
102
RTVSPropertyOp40
 70
     1
102
RTVSPropertyOp41
 70
     1
102
RTVSPropertyOp42
 70
     1
102
RTVSPropertyOp43
 70
     1
102
RTVSPropertyOp44
 70
     1
102
RTVSPropertyOp45
 70
     1
102
RTVSPropertyOp46
 70
     1
102
RTVSPropertyOp47
 70
     1
102
RTVSPropertyOp48
 70
     1
102
RTVSPropertyOp49
 70
     1
102
RTVSPropertyOp50
 70
     1
102
RTVSPropertyOp51
 70
     0
102
RTVSPropertyOp52
 70
     0
102
RTVSPropertyOp53
 70
     1
102
RTVSPropertyOp54
 70
     1
102
RTVSPropertyOp55
 70
     1
102
RTVSPropertyOp56
 70
     1
102
RTVSPropertyOp57
 70
     1
102
RTVSPropertyOp58
 70
     1
102
RTVSPropertyOp59
 70
     1
102
RTVSPropertyOp60
 70
     1
102
RTVSPropertyOp61
 70
     1
102
RTVSPropertyOp62
 70
     1
  0
XRECORD
  5
210F8
102
{ACAD_REACTORS
330
210F7
102
}
330
210F7
100
AcDbXrecord
280
     1
102
RTVSPost2010Prop28
280
     0
102
RTVSPost2010PropOp28
 70
     1
102
RTVSPost2010Prop29
280
     1
102
RTVSPost2010PropOp29
 70
     1
102
RTVSPost2010Prop30
280
     1
102
RTVSPost2010PropOp30
 70
     1
102
RTVSPost2010Prop31
280
     0
102
RTVSPost2010PropOp31
 70
     1
102
RTVSPost2010Prop32
280
     0
102
RTVSPost2010PropOp32
 70
     1
102
RTVSPost2010Prop33
280
     0
102
RTVSPost2010PropOp33
 70
     1
102
RTVSPost2010Prop34
280
     0
102
RTVSPost2010PropOp34
 70
     1
102
RTVSPost2010Prop35
280
     0
102
RTVSPost2010PropOp35
 70
     1
102
RTVSPost2010Prop36
280
     0
102
RTVSPost2010PropOp36
 70
     1
102
RTVSPost2010Prop37
 90
       50
102
RTVSPost2010PropOp37
 70
     1
102
RTVSPost2010Prop38
140
0.0
102
RTVSPost2010PropOp38
 70
     1
102
RTVSPost2010Prop39
140
1.0
102
RTVSPost2010PropOp39
 70
     1
102
RTVSPost2010Prop40
 90
        0
102
RTVSPost2010PropOp40
 70
     1
102
RTVSPost2010Prop41ColorIndex
 90
       18
102
RTVSPost2010Prop41ColorRGB
 90
        0
102
RTVSPost2010PropOp41
 70
     1
102
RTVSPost2010Prop42
 90
       50
102
RTVSPost2010PropOp42
 70
     1
102
RTVSPost2010Prop43
 90
        3
102
RTVSPost2010PropOp43
 70
     1
102
RTVSPost2010Prop44ColorIndex
 90
        5
102
RTVSPost2010Prop44ColorRGB
 90
      255
102
RTVSPost2010PropOp44
 70
     1
102
RTVSPost2010Prop45
280
     0
102
RTVSPost2010PropOp45
 70
     1
102
RTVSPost2010Prop46
 90
       50
102
RTVSPost2010PropOp46
 70
     1
102
RTVSPost2010Prop47
 90
       50
102
RTVSPost2010PropOp47
 70
     1
102
RTVSPost2010Prop48
 90
       50
102
RTVSPost2010PropOp48
 70
     1
102
RTVSPost2010Prop49
280
     0
102
RTVSPost2010PropOp49
 70
     1
102
RTVSPost2010Prop50
 90
       50
102
RTVSPost2010PropOp50
 70
     1
102
RTVSPost2010Prop51ColorIndex
 90
      256
102
RTVSPost2010Prop51ColorRGB
 90
-16777216
102
RTVSPost2010PropOp51
 70
     0
102
RTVSPost2010Prop52
140
1.0
102
RTVSPost2010PropOp52
 70
     0
102
RTVSPost2010Prop53
 90
        2
102
RTVSPost2010PropOp53
 70
     1
102
RTVSPost2010Prop54
  1
strokes_ogs.tif
102
RTVSPost2010PropOp54
 70
     1
102
RTVSPost2010Prop55
280
     0
102
RTVSPost2010PropOp55
 70
     1
102
RTVSPost2010Prop56
140
1.0
102
RTVSPost2010PropOp56
 70
     1
102
RTVSPost2010Prop57
140
1.0
102
RTVSPost2010PropOp57
 70
     1
102
RTVSPropertyOp0
 70
     1
102
RTVSPropertyOp1
 70
     1
102
RTVSPropertyOp2
 70
     1
102
RTVSPropertyOp3
 70
     1
102
RTVSPropertyOp4
 70
     1
102
RTVSPropertyOp5
 70
     1
102
RTVSPropertyOp6
 70
     1
102
RTVSPropertyOp7
 70
     1
102
RTVSPropertyOp8
 70
     1
102
RTVSPropertyOp9
 70
     1
102
RTVSPropertyOp10
 70
     1
102
RTVSPropertyOp11
 70
     1
102
RTVSPropertyOp12
 70
     1
102
RTVSPropertyOp13
 70
     1
102
RTVSPropertyOp14
 70
     1
102
RTVSPropertyOp15
 70
     1
102
RTVSPropertyOp16
 70
     1
102
RTVSPropertyOp17
 70
     1
102
RTVSPropertyOp18
 70
     1
102
RTVSPropertyOp19
 70
     1
102
RTVSPropertyOp20
 70
     1
102
RTVSPropertyOp21
 70
     1
102
RTVSPropertyOp22
 70
     1
102
RTVSPropertyOp23
 70
     1
102
RTVSPropertyOp24
 70
     1
102
RTVSPropertyOp25
 70
     1
102
RTVSPropertyOp26
 70
     1
102
RTVSPropertyOp27
 70
     1
102
RTVSPropertyOp28
 70
     1
102
RTVSPropertyOp29
 70
     1
102
RTVSPropertyOp30
 70
     1
102
RTVSPropertyOp31
 70
     1
102
RTVSPropertyOp32
 70
     1
102
RTVSPropertyOp33
 70
     1
102
RTVSPropertyOp34
 70
     1
102
RTVSPropertyOp35
 70
     1
102
RTVSPropertyOp36
 70
     1
102
RTVSPropertyOp37
 70
     1
102
RTVSPropertyOp38
 70
     1
102
RTVSPropertyOp39
 70
     1
102
RTVSPropertyOp40
 70
     1
102
RTVSPropertyOp41
 70
     1
102
RTVSPropertyOp42
 70
     1
102
RTVSPropertyOp43
 70
     1
102
RTVSPropertyOp44
 70
     1
102
RTVSPropertyOp45
 70
     1
102
RTVSPropertyOp46
 70
     1
102
RTVSPropertyOp47
 70
     1
102
RTVSPropertyOp48
 70
     1
102
RTVSPropertyOp49
 70
     1
102
RTVSPropertyOp50
 70
     1
102
RTVSPropertyOp51
 70
     0
102
RTVSPropertyOp52
 70
     0
102
RTVSPropertyOp53
 70
     1
102
RTVSPropertyOp54
 70
     1
102
RTVSPropertyOp55
 70
     1
102
RTVSPropertyOp56
 70
     1
102
RTVSPropertyOp57
 70
     1
102
RTVSPropertyOp58
 70
     1
102
RTVSPropertyOp59
 70
     1
102
RTVSPropertyOp60
 70
     1
102
RTVSPropertyOp61
 70
     1
102
RTVSPropertyOp62
 70
     1
  0
XRECORD
  5
210FA
102
{ACAD_REACTORS
330
210F9
102
}
330
210F9
100
AcDbXrecord
280
     1
102
RTVSPost2010Prop28
280
     0
102
RTVSPost2010PropOp28
 70
     1
102
RTVSPost2010Prop29
280
     1
102
RTVSPost2010PropOp29
 70
     1
102
RTVSPost2010Prop30
280
     1
102
RTVSPost2010PropOp30
 70
     1
102
RTVSPost2010Prop31
280
     0
102
RTVSPost2010PropOp31
 70
     1
102
RTVSPost2010Prop32
280
     0
102
RTVSPost2010PropOp32
 70
     1
102
RTVSPost2010Prop33
280
     0
102
RTVSPost2010PropOp33
 70
     1
102
RTVSPost2010Prop34
280
     0
102
RTVSPost2010PropOp34
 70
     1
102
RTVSPost2010Prop35
280
     0
102
RTVSPost2010PropOp35
 70
     1
102
RTVSPost2010Prop36
280
     0
102
RTVSPost2010PropOp36
 70
     1
102
RTVSPost2010Prop37
 90
       50
102
RTVSPost2010PropOp37
 70
     1
102
RTVSPost2010Prop38
140
0.0
102
RTVSPost2010PropOp38
 70
     1
102
RTVSPost2010Prop39
140
1.0
102
RTVSPost2010PropOp39
 70
     1
102
RTVSPost2010Prop40
 90
        0
102
RTVSPost2010PropOp40
 70
     1
102
RTVSPost2010Prop41ColorIndex
 90
       18
102
RTVSPost2010Prop41ColorRGB
 90
        0
102
RTVSPost2010PropOp41
 70
     1
102
RTVSPost2010Prop42
 90
       50
102
RTVSPost2010PropOp42
 70
     1
102
RTVSPost2010Prop43
 90
        3
102
RTVSPost2010PropOp43
 70
     1
102
RTVSPost2010Prop44ColorIndex
 90
        5
102
RTVSPost2010Prop44ColorRGB
 90
      255
102
RTVSPost2010PropOp44
 70
     1
102
RTVSPost2010Prop45
280
     0
102
RTVSPost2010PropOp45
 70
     1
102
RTVSPost2010Prop46
 90
       50
102
RTVSPost2010PropOp46
 70
     1
102
RTVSPost2010Prop47
 90
       50
102
RTVSPost2010PropOp47
 70
     1
102
RTVSPost2010Prop48
 90
       50
102
RTVSPost2010PropOp48
 70
     1
102
RTVSPost2010Prop49
280
     0
102
RTVSPost2010PropOp49
 70
     1
102
RTVSPost2010Prop50
 90
       50
102
RTVSPost2010PropOp50
 70
     1
102
RTVSPost2010Prop51ColorIndex
 90
      256
102
RTVSPost2010Prop51ColorRGB
 90
-16777216
102
RTVSPost2010PropOp51
 70
     0
102
RTVSPost2010Prop52
140
1.0
102
RTVSPost2010PropOp52
 70
     0
102
RTVSPost2010Prop53
 90
        2
102
RTVSPost2010PropOp53
 70
     1
102
RTVSPost2010Prop54
  1
strokes_ogs.tif
102
RTVSPost2010PropOp54
 70
     1
102
RTVSPost2010Prop55
280
     0
102
RTVSPost2010PropOp55
 70
     1
102
RTVSPost2010Prop56
140
1.0
102
RTVSPost2010PropOp56
 70
     1
102
RTVSPost2010Prop57
140
1.0
102
RTVSPost2010PropOp57
 70
     1
102
RTVSPropertyOp0
 70
     1
102
RTVSPropertyOp1
 70
     1
102
RTVSPropertyOp2
 70
     1
102
RTVSPropertyOp3
 70
     1
102
RTVSPropertyOp4
 70
     1
102
RTVSPropertyOp5
 70
     1
102
RTVSPropertyOp6
 70
     1
102
RTVSPropertyOp7
 70
     1
102
RTVSPropertyOp8
 70
     1
102
RTVSPropertyOp9
 70
     1
102
RTVSPropertyOp10
 70
     1
102
RTVSPropertyOp11
 70
     1
102
RTVSPropertyOp12
 70
     1
102
RTVSPropertyOp13
 70
     1
102
RTVSPropertyOp14
 70
     1
102
RTVSPropertyOp15
 70
     1
102
RTVSPropertyOp16
 70
     1
102
RTVSPropertyOp17
 70
     1
102
RTVSPropertyOp18
 70
     1
102
RTVSPropertyOp19
 70
     1
102
RTVSPropertyOp20
 70
     1
102
RTVSPropertyOp21
 70
     1
102
RTVSPropertyOp22
 70
     1
102
RTVSPropertyOp23
 70
     1
102
RTVSPropertyOp24
 70
     1
102
RTVSPropertyOp25
 70
     1
102
RTVSPropertyOp26
 70
     1
102
RTVSPropertyOp27
 70
     1
102
RTVSPropertyOp28
 70
     1
102
RTVSPropertyOp29
 70
     1
102
RTVSPropertyOp30
 70
     1
102
RTVSPropertyOp31
 70
     1
102
RTVSPropertyOp32
 70
     1
102
RTVSPropertyOp33
 70
     1
102
RTVSPropertyOp34
 70
     1
102
RTVSPropertyOp35
 70
     1
102
RTVSPropertyOp36
 70
     1
102
RTVSPropertyOp37
 70
     1
102
RTVSPropertyOp38
 70
     1
102
RTVSPropertyOp39
 70
     1
102
RTVSPropertyOp40
 70
     1
102
RTVSPropertyOp41
 70
     1
102
RTVSPropertyOp42
 70
     1
102
RTVSPropertyOp43
 70
     1
102
RTVSPropertyOp44
 70
     1
102
RTVSPropertyOp45
 70
     1
102
RTVSPropertyOp46
 70
     1
102
RTVSPropertyOp47
 70
     1
102
RTVSPropertyOp48
 70
     1
102
RTVSPropertyOp49
 70
     1
102
RTVSPropertyOp50
 70
     1
102
RTVSPropertyOp51
 70
     0
102
RTVSPropertyOp52
 70
     0
102
RTVSPropertyOp53
 70
     1
102
RTVSPropertyOp54
 70
     1
102
RTVSPropertyOp55
 70
     1
102
RTVSPropertyOp56
 70
     1
102
RTVSPropertyOp57
 70
     1
102
RTVSPropertyOp58
 70
     1
102
RTVSPropertyOp59
 70
     1
102
RTVSPropertyOp60
 70
     1
102
RTVSPropertyOp61
 70
     1
102
RTVSPropertyOp62
 70
     1
  0
XRECORD
  5
210FC
102
{ACAD_REACTORS
330
210FB
102
}
330
210FB
100
AcDbXrecord
280
     1
102
RTVSPost2010Prop28
280
     0
102
RTVSPost2010PropOp28
 70
     1
102
RTVSPost2010Prop29
280
     1
102
RTVSPost2010PropOp29
 70
     1
102
RTVSPost2010Prop30
280
     1
102
RTVSPost2010PropOp30
 70
     1
102
RTVSPost2010Prop31
280
     0
102
RTVSPost2010PropOp31
 70
     1
102
RTVSPost2010Prop32
280
     0
102
RTVSPost2010PropOp32
 70
     1
102
RTVSPost2010Prop33
280
     0
102
RTVSPost2010PropOp33
 70
     1
102
RTVSPost2010Prop34
280
     0
102
RTVSPost2010PropOp34
 70
     1
102
RTVSPost2010Prop35
280
     0
102
RTVSPost2010PropOp35
 70
     1
102
RTVSPost2010Prop36
280
     0
102
RTVSPost2010PropOp36
 70
     1
102
RTVSPost2010Prop37
 90
       50
102
RTVSPost2010PropOp37
 70
     1
102
RTVSPost2010Prop38
140
0.0
102
RTVSPost2010PropOp38
 70
     1
102
RTVSPost2010Prop39
140
1.0
102
RTVSPost2010PropOp39
 70
     1
102
RTVSPost2010Prop40
 90
        0
102
RTVSPost2010PropOp40
 70
     1
102
RTVSPost2010Prop41ColorIndex
 90
       18
102
RTVSPost2010Prop41ColorRGB
 90
        0
102
RTVSPost2010PropOp41
 70
     1
102
RTVSPost2010Prop42
 90
       50
102
RTVSPost2010PropOp42
 70
     1
102
RTVSPost2010Prop43
 90
        3
102
RTVSPost2010PropOp43
 70
     1
102
RTVSPost2010Prop44ColorIndex
 90
        5
102
RTVSPost2010Prop44ColorRGB
 90
      255
102
RTVSPost2010PropOp44
 70
     1
102
RTVSPost2010Prop45
280
     0
102
RTVSPost2010PropOp45
 70
     1
102
RTVSPost2010Prop46
 90
       50
102
RTVSPost2010PropOp46
 70
     1
102
RTVSPost2010Prop47
 90
       50
102
RTVSPost2010PropOp47
 70
     1
102
RTVSPost2010Prop48
 90
       50
102
RTVSPost2010PropOp48
 70
     1
102
RTVSPost2010Prop49
280
     0
102
RTVSPost2010PropOp49
 70
     1
102
RTVSPost2010Prop50
 90
       50
102
RTVSPost2010PropOp50
 70
     1
102
RTVSPost2010Prop51ColorIndex
 90
      256
102
RTVSPost2010Prop51ColorRGB
 90
-16777216
102
RTVSPost2010PropOp51
 70
     0
102
RTVSPost2010Prop52
140
1.0
102
RTVSPost2010PropOp52
 70
     0
102
RTVSPost2010Prop53
 90
        2
102
RTVSPost2010PropOp53
 70
     1
102
RTVSPost2010Prop54
  1
strokes_ogs.tif
102
RTVSPost2010PropOp54
 70
     1
102
RTVSPost2010Prop55
280
     0
102
RTVSPost2010PropOp55
 70
     1
102
RTVSPost2010Prop56
140
1.0
102
RTVSPost2010PropOp56
 70
     1
102
RTVSPost2010Prop57
140
1.0
102
RTVSPost2010PropOp57
 70
     1
102
RTVSPropertyOp0
 70
     1
102
RTVSPropertyOp1
 70
     1
102
RTVSPropertyOp2
 70
     1
102
RTVSPropertyOp3
 70
     1
102
RTVSPropertyOp4
 70
     1
102
RTVSPropertyOp5
 70
     1
102
RTVSPropertyOp6
 70
     1
102
RTVSPropertyOp7
 70
     1
102
RTVSPropertyOp8
 70
     1
102
RTVSPropertyOp9
 70
     1
102
RTVSPropertyOp10
 70
     1
102
RTVSPropertyOp11
 70
     1
102
RTVSPropertyOp12
 70
     1
102
RTVSPropertyOp13
 70
     1
102
RTVSPropertyOp14
 70
     1
102
RTVSPropertyOp15
 70
     1
102
RTVSPropertyOp16
 70
     1
102
RTVSPropertyOp17
 70
     1
102
RTVSPropertyOp18
 70
     1
102
RTVSPropertyOp19
 70
     1
102
RTVSPropertyOp20
 70
     1
102
RTVSPropertyOp21
 70
     1
102
RTVSPropertyOp22
 70
     1
102
RTVSPropertyOp23
 70
     1
102
RTVSPropertyOp24
 70
     1
102
RTVSPropertyOp25
 70
     1
102
RTVSPropertyOp26
 70
     1
102
RTVSPropertyOp27
 70
     1
102
RTVSPropertyOp28
 70
     1
102
RTVSPropertyOp29
 70
     1
102
RTVSPropertyOp30
 70
     1
102
RTVSPropertyOp31
 70
     1
102
RTVSPropertyOp32
 70
     1
102
RTVSPropertyOp33
 70
     1
102
RTVSPropertyOp34
 70
     1
102
RTVSPropertyOp35
 70
     1
102
RTVSPropertyOp36
 70
     1
102
RTVSPropertyOp37
 70
     1
102
RTVSPropertyOp38
 70
     1
102
RTVSPropertyOp39
 70
     1
102
RTVSPropertyOp40
 70
     1
102
RTVSPropertyOp41
 70
     1
102
RTVSPropertyOp42
 70
     1
102
RTVSPropertyOp43
 70
     1
102
RTVSPropertyOp44
 70
     1
102
RTVSPropertyOp45
 70
     1
102
RTVSPropertyOp46
 70
     1
102
RTVSPropertyOp47
 70
     1
102
RTVSPropertyOp48
 70
     1
102
RTVSPropertyOp49
 70
     1
102
RTVSPropertyOp50
 70
     1
102
RTVSPropertyOp51
 70
     0
102
RTVSPropertyOp52
 70
     0
102
RTVSPropertyOp53
 70
     1
102
RTVSPropertyOp54
 70
     1
102
RTVSPropertyOp55
 70
     1
102
RTVSPropertyOp56
 70
     1
102
RTVSPropertyOp57
 70
     1
102
RTVSPropertyOp58
 70
     1
102
RTVSPropertyOp59
 70
     1
102
RTVSPropertyOp60
 70
     1
102
RTVSPropertyOp61
 70
     1
102
RTVSPropertyOp62
 70
     1
  0
XRECORD
  5
210FE
102
{ACAD_REACTORS
330
210FD
102
}
330
210FD
100
AcDbXrecord
280
     1
102
RTVSPost2010Prop28
280
     0
102
RTVSPost2010PropOp28
 70
     1
102
RTVSPost2010Prop29
280
     1
102
RTVSPost2010PropOp29
 70
     1
102
RTVSPost2010Prop30
280
     1
102
RTVSPost2010PropOp30
 70
     1
102
RTVSPost2010Prop31
280
     0
102
RTVSPost2010PropOp31
 70
     1
102
RTVSPost2010Prop32
280
     0
102
RTVSPost2010PropOp32
 70
     1
102
RTVSPost2010Prop33
280
     0
102
RTVSPost2010PropOp33
 70
     1
102
RTVSPost2010Prop34
280
     0
102
RTVSPost2010PropOp34
 70
     1
102
RTVSPost2010Prop35
280
     0
102
RTVSPost2010PropOp35
 70
     1
102
RTVSPost2010Prop36
280
     0
102
RTVSPost2010PropOp36
 70
     1
102
RTVSPost2010Prop37
 90
       50
102
RTVSPost2010PropOp37
 70
     1
102
RTVSPost2010Prop38
140
0.0
102
RTVSPost2010PropOp38
 70
     1
102
RTVSPost2010Prop39
140
1.0
102
RTVSPost2010PropOp39
 70
     1
102
RTVSPost2010Prop40
 90
        0
102
RTVSPost2010PropOp40
 70
     1
102
RTVSPost2010Prop41ColorIndex
 90
       18
102
RTVSPost2010Prop41ColorRGB
 90
        0
102
RTVSPost2010PropOp41
 70
     1
102
RTVSPost2010Prop42
 90
       50
102
RTVSPost2010PropOp42
 70
     1
102
RTVSPost2010Prop43
 90
        3
102
RTVSPost2010PropOp43
 70
     1
102
RTVSPost2010Prop44ColorIndex
 90
        5
102
RTVSPost2010Prop44ColorRGB
 90
      255
102
RTVSPost2010PropOp44
 70
     1
102
RTVSPost2010Prop45
280
     0
102
RTVSPost2010PropOp45
 70
     1
102
RTVSPost2010Prop46
 90
       50
102
RTVSPost2010PropOp46
 70
     1
102
RTVSPost2010Prop47
 90
       50
102
RTVSPost2010PropOp47
 70
     1
102
RTVSPost2010Prop48
 90
       50
102
RTVSPost2010PropOp48
 70
     1
102
RTVSPost2010Prop49
280
     0
102
RTVSPost2010PropOp49
 70
     1
102
RTVSPost2010Prop50
 90
       50
102
RTVSPost2010PropOp50
 70
     1
102
RTVSPost2010Prop51ColorIndex
 90
      256
102
RTVSPost2010Prop51ColorRGB
 90
-16777216
102
RTVSPost2010PropOp51
 70
     0
102
RTVSPost2010Prop52
140
1.0
102
RTVSPost2010PropOp52
 70
     0
102
RTVSPost2010Prop53
 90
        2
102
RTVSPost2010PropOp53
 70
     1
102
RTVSPost2010Prop54
  1
strokes_ogs.tif
102
RTVSPost2010PropOp54
 70
     1
102
RTVSPost2010Prop55
280
     0
102
RTVSPost2010PropOp55
 70
     1
102
RTVSPost2010Prop56
140
1.0
102
RTVSPost2010PropOp56
 70
     1
102
RTVSPost2010Prop57
140
1.0
102
RTVSPost2010PropOp57
 70
     1
102
RTVSPropertyOp0
 70
     1
102
RTVSPropertyOp1
 70
     1
102
RTVSPropertyOp2
 70
     1
102
RTVSPropertyOp3
 70
     1
102
RTVSPropertyOp4
 70
     1
102
RTVSPropertyOp5
 70
     1
102
RTVSPropertyOp6
 70
     1
102
RTVSPropertyOp7
 70
     1
102
RTVSPropertyOp8
 70
     1
102
RTVSPropertyOp9
 70
     1
102
RTVSPropertyOp10
 70
     1
102
RTVSPropertyOp11
 70
     1
102
RTVSPropertyOp12
 70
     1
102
RTVSPropertyOp13
 70
     1
102
RTVSPropertyOp14
 70
     1
102
RTVSPropertyOp15
 70
     1
102
RTVSPropertyOp16
 70
     1
102
RTVSPropertyOp17
 70
     1
102
RTVSPropertyOp18
 70
     1
102
RTVSPropertyOp19
 70
     1
102
RTVSPropertyOp20
 70
     1
102
RTVSPropertyOp21
 70
     1
102
RTVSPropertyOp22
 70
     1
102
RTVSPropertyOp23
 70
     1
102
RTVSPropertyOp24
 70
     1
102
RTVSPropertyOp25
 70
     1
102
RTVSPropertyOp26
 70
     1
102
RTVSPropertyOp27
 70
     1
102
RTVSPropertyOp28
 70
     1
102
RTVSPropertyOp29
 70
     1
102
RTVSPropertyOp30
 70
     1
102
RTVSPropertyOp31
 70
     1
102
RTVSPropertyOp32
 70
     1
102
RTVSPropertyOp33
 70
     1
102
RTVSPropertyOp34
 70
     1
102
RTVSPropertyOp35
 70
     1
102
RTVSPropertyOp36
 70
     1
102
RTVSPropertyOp37
 70
     1
102
RTVSPropertyOp38
 70
     1
102
RTVSPropertyOp39
 70
     1
102
RTVSPropertyOp40
 70
     1
102
RTVSPropertyOp41
 70
     1
102
RTVSPropertyOp42
 70
     1
102
RTVSPropertyOp43
 70
     1
102
RTVSPropertyOp44
 70
     1
102
RTVSPropertyOp45
 70
     1
102
RTVSPropertyOp46
 70
     1
102
RTVSPropertyOp47
 70
     1
102
RTVSPropertyOp48
 70
     1
102
RTVSPropertyOp49
 70
     1
102
RTVSPropertyOp50
 70
     1
102
RTVSPropertyOp51
 70
     0
102
RTVSPropertyOp52
 70
     0
102
RTVSPropertyOp53
 70
     1
102
RTVSPropertyOp54
 70
     1
102
RTVSPropertyOp55
 70
     1
102
RTVSPropertyOp56
 70
     1
102
RTVSPropertyOp57
 70
     1
102
RTVSPropertyOp58
 70
     1
102
RTVSPropertyOp59
 70
     1
102
RTVSPropertyOp60
 70
     1
102
RTVSPropertyOp61
 70
     1
102
RTVSPropertyOp62
 70
     1
  0
XRECORD
  5
21122
102
{ACAD_REACTORS
330
21121
102
}
330
21121
100
AcDbXrecord
280
     1
102
RTVSPost2010Prop28
280
     0
102
RTVSPost2010PropOp28
 70
     1
102
RTVSPost2010Prop29
280
     1
102
RTVSPost2010PropOp29
 70
     1
102
RTVSPost2010Prop30
280
     1
102
RTVSPost2010PropOp30
 70
     1
102
RTVSPost2010Prop31
280
     0
102
RTVSPost2010PropOp31
 70
     1
102
RTVSPost2010Prop32
280
     0
102
RTVSPost2010PropOp32
 70
     1
102
RTVSPost2010Prop33
280
     0
102
RTVSPost2010PropOp33
 70
     1
102
RTVSPost2010Prop34
280
     0
102
RTVSPost2010PropOp34
 70
     1
102
RTVSPost2010Prop35
280
     0
102
RTVSPost2010PropOp35
 70
     1
102
RTVSPost2010Prop36
280
     0
102
RTVSPost2010PropOp36
 70
     1
102
RTVSPost2010Prop37
 90
       50
102
RTVSPost2010PropOp37
 70
     1
102
RTVSPost2010Prop38
140
0.0
102
RTVSPost2010PropOp38
 70
     1
102
RTVSPost2010Prop39
140
1.0
102
RTVSPost2010PropOp39
 70
     1
102
RTVSPost2010Prop40
 90
        0
102
RTVSPost2010PropOp40
 70
     1
102
RTVSPost2010Prop41ColorIndex
 90
       18
102
RTVSPost2010Prop41ColorRGB
 90
        0
102
RTVSPost2010PropOp41
 70
     1
102
RTVSPost2010Prop42
 90
       50
102
RTVSPost2010PropOp42
 70
     1
102
RTVSPost2010Prop43
 90
        3
102
RTVSPost2010PropOp43
 70
     1
102
RTVSPost2010Prop44ColorIndex
 90
        5
102
RTVSPost2010Prop44ColorRGB
 90
      255
102
RTVSPost2010PropOp44
 70
     1
102
RTVSPost2010Prop45
280
     0
102
RTVSPost2010PropOp45
 70
     1
102
RTVSPost2010Prop46
 90
       50
102
RTVSPost2010PropOp46
 70
     1
102
RTVSPost2010Prop47
 90
       50
102
RTVSPost2010PropOp47
 70
     1
102
RTVSPost2010Prop48
 90
       50
102
RTVSPost2010PropOp48
 70
     1
102
RTVSPost2010Prop49
280
     0
102
RTVSPost2010PropOp49
 70
     1
102
RTVSPost2010Prop50
 90
       50
102
RTVSPost2010PropOp50
 70
     1
102
RTVSPost2010Prop51ColorIndex
 90
      256
102
RTVSPost2010Prop51ColorRGB
 90
-16777216
102
RTVSPost2010PropOp51
 70
     0
102
RTVSPost2010Prop52
140
1.0
102
RTVSPost2010PropOp52
 70
     0
102
RTVSPost2010Prop53
 90
        2
102
RTVSPost2010PropOp53
 70
     1
102
RTVSPost2010Prop54
  1
strokes_ogs.tif
102
RTVSPost2010PropOp54
 70
     1
102
RTVSPost2010Prop55
280
     0
102
RTVSPost2010PropOp55
 70
     1
102
RTVSPost2010Prop56
140
1.0
102
RTVSPost2010PropOp56
 70
     1
102
RTVSPost2010Prop57
140
1.0
102
RTVSPost2010PropOp57
 70
     1
102
RTVSPropertyOp0
 70
     1
102
RTVSPropertyOp1
 70
     1
102
RTVSPropertyOp2
 70
     1
102
RTVSPropertyOp3
 70
     1
102
RTVSPropertyOp4
 70
     1
102
RTVSPropertyOp5
 70
     1
102
RTVSPropertyOp6
 70
     1
102
RTVSPropertyOp7
 70
     1
102
RTVSPropertyOp8
 70
     1
102
RTVSPropertyOp9
 70
     1
102
RTVSPropertyOp10
 70
     1
102
RTVSPropertyOp11
 70
     1
102
RTVSPropertyOp12
 70
     1
102
RTVSPropertyOp13
 70
     1
102
RTVSPropertyOp14
 70
     1
102
RTVSPropertyOp15
 70
     1
102
RTVSPropertyOp16
 70
     1
102
RTVSPropertyOp17
 70
     1
102
RTVSPropertyOp18
 70
     1
102
RTVSPropertyOp19
 70
     1
102
RTVSPropertyOp20
 70
     1
102
RTVSPropertyOp21
 70
     1
102
RTVSPropertyOp22
 70
     1
102
RTVSPropertyOp23
 70
     1
102
RTVSPropertyOp24
 70
     1
102
RTVSPropertyOp25
 70
     1
102
RTVSPropertyOp26
 70
     1
102
RTVSPropertyOp27
 70
     1
102
RTVSPropertyOp28
 70
     1
102
RTVSPropertyOp29
 70
     1
102
RTVSPropertyOp30
 70
     1
102
RTVSPropertyOp31
 70
     1
102
RTVSPropertyOp32
 70
     1
102
RTVSPropertyOp33
 70
     1
102
RTVSPropertyOp34
 70
     1
102
RTVSPropertyOp35
 70
     1
102
RTVSPropertyOp36
 70
     1
102
RTVSPropertyOp37
 70
     1
102
RTVSPropertyOp38
 70
     1
102
RTVSPropertyOp39
 70
     1
102
RTVSPropertyOp40
 70
     1
102
RTVSPropertyOp41
 70
     1
102
RTVSPropertyOp42
 70
     1
102
RTVSPropertyOp43
 70
     1
102
RTVSPropertyOp44
 70
     1
102
RTVSPropertyOp45
 70
     1
102
RTVSPropertyOp46
 70
     1
102
RTVSPropertyOp47
 70
     1
102
RTVSPropertyOp48
 70
     1
102
RTVSPropertyOp49
 70
     1
102
RTVSPropertyOp50
 70
     1
102
RTVSPropertyOp51
 70
     0
102
RTVSPropertyOp52
 70
     0
102
RTVSPropertyOp53
 70
     1
102
RTVSPropertyOp54
 70
     1
102
RTVSPropertyOp55
 70
     1
102
RTVSPropertyOp56
 70
     1
102
RTVSPropertyOp57
 70
     1
102
RTVSPropertyOp58
 70
     1
102
RTVSPropertyOp59
 70
     1
102
RTVSPropertyOp60
 70
     1
102
RTVSPropertyOp61
 70
     1
102
RTVSPropertyOp62
 70
     1
  0
XRECORD
  5
2112E
102
{ACAD_REACTORS
330
2112D
102
}
330
2112D
100
AcDbXrecord
280
     1
102
RTVSPost2010Prop28
280
     0
102
RTVSPost2010PropOp28
 70
     1
102
RTVSPost2010Prop29
280
     1
102
RTVSPost2010PropOp29
 70
     1
102
RTVSPost2010Prop30
280
     1
102
RTVSPost2010PropOp30
 70
     1
102
RTVSPost2010Prop31
280
     0
102
RTVSPost2010PropOp31
 70
     1
102
RTVSPost2010Prop32
280
     0
102
RTVSPost2010PropOp32
 70
     1
102
RTVSPost2010Prop33
280
     0
102
RTVSPost2010PropOp33
 70
     1
102
RTVSPost2010Prop34
280
     0
102
RTVSPost2010PropOp34
 70
     1
102
RTVSPost2010Prop35
280
     0
102
RTVSPost2010PropOp35
 70
     1
102
RTVSPost2010Prop36
280
     0
102
RTVSPost2010PropOp36
 70
     1
102
RTVSPost2010Prop37
 90
       50
102
RTVSPost2010PropOp37
 70
     0
102
RTVSPost2010Prop38
140
0.0
102
RTVSPost2010PropOp38
 70
     0
102
RTVSPost2010Prop39
140
1.0
102
RTVSPost2010PropOp39
 70
     0
102
RTVSPost2010Prop40
 90
        0
102
RTVSPost2010PropOp40
 70
     0
102
RTVSPost2010Prop41ColorIndex
 90
       18
102
RTVSPost2010Prop41ColorRGB
 90
        0
102
RTVSPost2010PropOp41
 70
     0
102
RTVSPost2010Prop42
 90
       50
102
RTVSPost2010PropOp42
 70
     0
102
RTVSPost2010Prop43
 90
        3
102
RTVSPost2010PropOp43
 70
     0
102
RTVSPost2010Prop44ColorIndex
 90
        5
102
RTVSPost2010Prop44ColorRGB
 90
      255
102
RTVSPost2010PropOp44
 70
     0
102
RTVSPost2010Prop45
280
     0
102
RTVSPost2010PropOp45
 70
     1
102
RTVSPost2010Prop46
 90
       50
102
RTVSPost2010PropOp46
 70
     0
102
RTVSPost2010Prop47
 90
       50
102
RTVSPost2010PropOp47
 70
     0
102
RTVSPost2010Prop48
 90
       50
102
RTVSPost2010PropOp48
 70
     0
102
RTVSPost2010Prop49
280
     0
102
RTVSPost2010PropOp49
 70
     1
102
RTVSPost2010Prop50
 90
       50
102
RTVSPost2010PropOp50
 70
     0
102
RTVSPost2010Prop51ColorIndex
 90
      256
102
RTVSPost2010Prop51ColorRGB
 90
-16777216
102
RTVSPost2010PropOp51
 70
     0
102
RTVSPost2010Prop52
140
1.0
102
RTVSPost2010PropOp52
 70
     0
102
RTVSPost2010Prop53
 90
        2
102
RTVSPost2010PropOp53
 70
     0
102
RTVSPost2010Prop54
  1
strokes_ogs.tif
102
RTVSPost2010PropOp54
 70
     0
102
RTVSPost2010Prop55
280
     0
102
RTVSPost2010PropOp55
 70
     1
102
RTVSPost2010Prop56
140
1.0
102
RTVSPost2010PropOp56
 70
     0
102
RTVSPost2010Prop57
140
1.0
102
RTVSPost2010PropOp57
 70
     0
102
RTVSPropertyOp0
 70
     0
102
RTVSPropertyOp1
 70
     0
102
RTVSPropertyOp2
 70
     0
102
RTVSPropertyOp3
 70
     0
102
RTVSPropertyOp4
 70
     0
102
RTVSPropertyOp5
 70
     0
102
RTVSPropertyOp6
 70
     0
102
RTVSPropertyOp7
 70
     0
102
RTVSPropertyOp8
 70
     0
102
RTVSPropertyOp9
 70
     0
102
RTVSPropertyOp10
 70
     0
102
RTVSPropertyOp11
 70
     0
102
RTVSPropertyOp12
 70
     0
102
RTVSPropertyOp13
 70
     0
102
RTVSPropertyOp14
 70
     2
102
RTVSPropertyOp15
 70
     0
102
RTVSPropertyOp16
 70
     0
102
RTVSPropertyOp17
 70
     0
102
RTVSPropertyOp18
 70
     0
102
RTVSPropertyOp19
 70
     0
102
RTVSPropertyOp20
 70
     0
102
RTVSPropertyOp21
 70
     0
102
RTVSPropertyOp22
 70
     0
102
RTVSPropertyOp23
 70
     0
102
RTVSPropertyOp24
 70
     0
102
RTVSPropertyOp25
 70
     0
102
RTVSPropertyOp26
 70
     0
102
RTVSPropertyOp27
 70
     0
102
RTVSPropertyOp28
 70
     1
102
RTVSPropertyOp29
 70
     1
102
RTVSPropertyOp30
 70
     1
102
RTVSPropertyOp31
 70
     1
102
RTVSPropertyOp32
 70
     1
102
RTVSPropertyOp33
 70
     1
102
RTVSPropertyOp34
 70
     1
102
RTVSPropertyOp35
 70
     1
102
RTVSPropertyOp36
 70
     1
102
RTVSPropertyOp37
 70
     0
102
RTVSPropertyOp38
 70
     0
102
RTVSPropertyOp39
 70
     0
102
RTVSPropertyOp40
 70
     0
102
RTVSPropertyOp41
 70
     0
102
RTVSPropertyOp42
 70
     0
102
RTVSPropertyOp43
 70
     0
102
RTVSPropertyOp44
 70
     0
102
RTVSPropertyOp45
 70
     1
102
RTVSPropertyOp46
 70
     0
102
RTVSPropertyOp47
 70
     0
102
RTVSPropertyOp48
 70
     0
102
RTVSPropertyOp49
 70
     1
102
RTVSPropertyOp50
 70
     0
102
RTVSPropertyOp51
 70
     0
102
RTVSPropertyOp52
 70
     0
102
RTVSPropertyOp53
 70
     0
102
RTVSPropertyOp54
 70
     0
102
RTVSPropertyOp55
 70
     1
102
RTVSPropertyOp56
 70
     0
102
RTVSPropertyOp57
 70
     0
102
RTVSPropertyOp58
 70
     1
102
RTVSPropertyOp59
 70
     1
102
RTVSPropertyOp60
 70
     1
102
RTVSPropertyOp61
 70
     1
102
RTVSPropertyOp62
 70
     1
  0
XRECORD
  5
21112
102
{ACAD_REACTORS
330
21111
102
}
330
21111
100
AcDbXrecord
280
     1
102
RTVSPost2010Prop28
280
     0
102
RTVSPost2010PropOp28
 70
     1
102
RTVSPost2010Prop29
280
     1
102
RTVSPost2010PropOp29
 70
     1
102
RTVSPost2010Prop30
280
     1
102
RTVSPost2010PropOp30
 70
     1
102
RTVSPost2010Prop31
280
     0
102
RTVSPost2010PropOp31
 70
     1
102
RTVSPost2010Prop32
280
     0
102
RTVSPost2010PropOp32
 70
     1
102
RTVSPost2010Prop33
280
     0
102
RTVSPost2010PropOp33
 70
     1
102
RTVSPost2010Prop34
280
     0
102
RTVSPost2010PropOp34
 70
     1
102
RTVSPost2010Prop35
280
     0
102
RTVSPost2010PropOp35
 70
     1
102
RTVSPost2010Prop36
280
     0
102
RTVSPost2010PropOp36
 70
     1
102
RTVSPost2010Prop37
 90
       50
102
RTVSPost2010PropOp37
 70
     1
102
RTVSPost2010Prop38
140
0.0
102
RTVSPost2010PropOp38
 70
     1
102
RTVSPost2010Prop39
140
1.0
102
RTVSPost2010PropOp39
 70
     1
102
RTVSPost2010Prop40
 90
        0
102
RTVSPost2010PropOp40
 70
     1
102
RTVSPost2010Prop41ColorIndex
 90
       18
102
RTVSPost2010Prop41ColorRGB
 90
        0
102
RTVSPost2010PropOp41
 70
     1
102
RTVSPost2010Prop42
 90
       50
102
RTVSPost2010PropOp42
 70
     1
102
RTVSPost2010Prop43
 90
        3
102
RTVSPost2010PropOp43
 70
     1
102
RTVSPost2010Prop44ColorIndex
 90
        5
102
RTVSPost2010Prop44ColorRGB
 90
      255
102
RTVSPost2010PropOp44
 70
     1
102
RTVSPost2010Prop45
280
     0
102
RTVSPost2010PropOp45
 70
     1
102
RTVSPost2010Prop46
 90
       50
102
RTVSPost2010PropOp46
 70
     1
102
RTVSPost2010Prop47
 90
       50
102
RTVSPost2010PropOp47
 70
     1
102
RTVSPost2010Prop48
 90
       50
102
RTVSPost2010PropOp48
 70
     1
102
RTVSPost2010Prop49
280
     0
102
RTVSPost2010PropOp49
 70
     1
102
RTVSPost2010Prop50
 90
       50
102
RTVSPost2010PropOp50
 70
     1
102
RTVSPost2010Prop51ColorIndex
 90
      256
102
RTVSPost2010Prop51ColorRGB
 90
-16777216
102
RTVSPost2010PropOp51
 70
     0
102
RTVSPost2010Prop52
140
1.0
102
RTVSPost2010PropOp52
 70
     0
102
RTVSPost2010Prop53
 90
        2
102
RTVSPost2010PropOp53
 70
     1
102
RTVSPost2010Prop54
  1
strokes_ogs.tif
102
RTVSPost2010PropOp54
 70
     1
102
RTVSPost2010Prop55
280
     0
102
RTVSPost2010PropOp55
 70
     1
102
RTVSPost2010Prop56
140
1.0
102
RTVSPost2010PropOp56
 70
     1
102
RTVSPost2010Prop57
140
1.0
102
RTVSPost2010PropOp57
 70
     1
102
RTVSPropertyOp0
 70
     1
102
RTVSPropertyOp1
 70
     1
102
RTVSPropertyOp2
 70
     1
102
RTVSPropertyOp3
 70
     1
102
RTVSPropertyOp4
 70
     1
102
RTVSPropertyOp5
 70
     1
102
RTVSPropertyOp6
 70
     1
102
RTVSPropertyOp7
 70
     1
102
RTVSPropertyOp8
 70
     1
102
RTVSPropertyOp9
 70
     1
102
RTVSPropertyOp10
 70
     1
102
RTVSPropertyOp11
 70
     1
102
RTVSPropertyOp12
 70
     1
102
RTVSPropertyOp13
 70
     1
102
RTVSPropertyOp14
 70
     1
102
RTVSPropertyOp15
 70
     1
102
RTVSPropertyOp16
 70
     1
102
RTVSPropertyOp17
 70
     1
102
RTVSPropertyOp18
 70
     1
102
RTVSPropertyOp19
 70
     1
102
RTVSPropertyOp20
 70
     1
102
RTVSPropertyOp21
 70
     1
102
RTVSPropertyOp22
 70
     1
102
RTVSPropertyOp23
 70
     1
102
RTVSPropertyOp24
 70
     1
102
RTVSPropertyOp25
 70
     1
102
RTVSPropertyOp26
 70
     1
102
RTVSPropertyOp27
 70
     1
102
RTVSPropertyOp28
 70
     1
102
RTVSPropertyOp29
 70
     1
102
RTVSPropertyOp30
 70
     1
102
RTVSPropertyOp31
 70
     1
102
RTVSPropertyOp32
 70
     1
102
RTVSPropertyOp33
 70
     1
102
RTVSPropertyOp34
 70
     1
102
RTVSPropertyOp35
 70
     1
102
RTVSPropertyOp36
 70
     1
102
RTVSPropertyOp37
 70
     1
102
RTVSPropertyOp38
 70
     1
102
RTVSPropertyOp39
 70
     1
102
RTVSPropertyOp40
 70
     1
102
RTVSPropertyOp41
 70
     1
102
RTVSPropertyOp42
 70
     1
102
RTVSPropertyOp43
 70
     1
102
RTVSPropertyOp44
 70
     1
102
RTVSPropertyOp45
 70
     1
102
RTVSPropertyOp46
 70
     1
102
RTVSPropertyOp47
 70
     1
102
RTVSPropertyOp48
 70
     1
102
RTVSPropertyOp49
 70
     1
102
RTVSPropertyOp50
 70
     1
102
RTVSPropertyOp51
 70
     0
102
RTVSPropertyOp52
 70
     0
102
RTVSPropertyOp53
 70
     1
102
RTVSPropertyOp54
 70
     1
102
RTVSPropertyOp55
 70
     1
102
RTVSPropertyOp56
 70
     1
102
RTVSPropertyOp57
 70
     1
102
RTVSPropertyOp58
 70
     1
102
RTVSPropertyOp59
 70
     1
102
RTVSPropertyOp60
 70
     1
102
RTVSPropertyOp61
 70
     1
102
RTVSPropertyOp62
 70
     1
  0
XRECORD
  5
21130
102
{ACAD_REACTORS
330
2112F
102
}
330
2112F
100
AcDbXrecord
280
     1
102
RTVSPost2010Prop28
280
     0
102
RTVSPost2010PropOp28
 70
     1
102
RTVSPost2010Prop29
280
     1
102
RTVSPost2010PropOp29
 70
     1
102
RTVSPost2010Prop30
280
     1
102
RTVSPost2010PropOp30
 70
     1
102
RTVSPost2010Prop31
280
     0
102
RTVSPost2010PropOp31
 70
     1
102
RTVSPost2010Prop32
280
     0
102
RTVSPost2010PropOp32
 70
     1
102
RTVSPost2010Prop33
280
     0
102
RTVSPost2010PropOp33
 70
     1
102
RTVSPost2010Prop34
280
     0
102
RTVSPost2010PropOp34
 70
     1
102
RTVSPost2010Prop35
280
     0
102
RTVSPost2010PropOp35
 70
     1
102
RTVSPost2010Prop36
280
     0
102
RTVSPost2010PropOp36
 70
     1
102
RTVSPost2010Prop37
 90
       50
102
RTVSPost2010PropOp37
 70
     0
102
RTVSPost2010Prop38
140
0.0
102
RTVSPost2010PropOp38
 70
     0
102
RTVSPost2010Prop39
140
1.0
102
RTVSPost2010PropOp39
 70
     0
102
RTVSPost2010Prop40
 90
        0
102
RTVSPost2010PropOp40
 70
     0
102
RTVSPost2010Prop41ColorIndex
 90
       18
102
RTVSPost2010Prop41ColorRGB
 90
        0
102
RTVSPost2010PropOp41
 70
     0
102
RTVSPost2010Prop42
 90
       50
102
RTVSPost2010PropOp42
 70
     0
102
RTVSPost2010Prop43
 90
        3
102
RTVSPost2010PropOp43
 70
     0
102
RTVSPost2010Prop44ColorIndex
 90
        5
102
RTVSPost2010Prop44ColorRGB
 90
      255
102
RTVSPost2010PropOp44
 70
     0
102
RTVSPost2010Prop45
280
     0
102
RTVSPost2010PropOp45
 70
     1
102
RTVSPost2010Prop46
 90
       50
102
RTVSPost2010PropOp46
 70
     0
102
RTVSPost2010Prop47
 90
       50
102
RTVSPost2010PropOp47
 70
     0
102
RTVSPost2010Prop48
 90
       50
102
RTVSPost2010PropOp48
 70
     0
102
RTVSPost2010Prop49
280
     0
102
RTVSPost2010PropOp49
 70
     1
102
RTVSPost2010Prop50
 90
       50
102
RTVSPost2010PropOp50
 70
     0
102
RTVSPost2010Prop51ColorIndex
 90
      256
102
RTVSPost2010Prop51ColorRGB
 90
-16777216
102
RTVSPost2010PropOp51
 70
     0
102
RTVSPost2010Prop52
140
1.0
102
RTVSPost2010PropOp52
 70
     0
102
RTVSPost2010Prop53
 90
        2
102
RTVSPost2010PropOp53
 70
     0
102
RTVSPost2010Prop54
  1
strokes_ogs.tif
102
RTVSPost2010PropOp54
 70
     0
102
RTVSPost2010Prop55
280
     0
102
RTVSPost2010PropOp55
 70
     1
102
RTVSPost2010Prop56
140
1.0
102
RTVSPost2010PropOp56
 70
     0
102
RTVSPost2010Prop57
140
1.0
102
RTVSPost2010PropOp57
 70
     0
102
RTVSPropertyOp0
 70
     0
102
RTVSPropertyOp1
 70
     0
102
RTVSPropertyOp2
 70
     0
102
RTVSPropertyOp3
 70
     0
102
RTVSPropertyOp4
 70
     0
102
RTVSPropertyOp5
 70
     0
102
RTVSPropertyOp6
 70
     0
102
RTVSPropertyOp7
 70
     0
102
RTVSPropertyOp8
 70
     0
102
RTVSPropertyOp9
 70
     0
102
RTVSPropertyOp10
 70
     0
102
RTVSPropertyOp11
 70
     0
102
RTVSPropertyOp12
 70
     0
102
RTVSPropertyOp13
 70
     0
102
RTVSPropertyOp14
 70
     2
102
RTVSPropertyOp15
 70
     0
102
RTVSPropertyOp16
 70
     0
102
RTVSPropertyOp17
 70
     0
102
RTVSPropertyOp18
 70
     0
102
RTVSPropertyOp19
 70
     0
102
RTVSPropertyOp20
 70
     0
102
RTVSPropertyOp21
 70
     0
102
RTVSPropertyOp22
 70
     0
102
RTVSPropertyOp23
 70
     0
102
RTVSPropertyOp24
 70
     0
102
RTVSPropertyOp25
 70
     0
102
RTVSPropertyOp26
 70
     0
102
RTVSPropertyOp27
 70
     0
102
RTVSPropertyOp28
 70
     1
102
RTVSPropertyOp29
 70
     1
102
RTVSPropertyOp30
 70
     1
102
RTVSPropertyOp31
 70
     1
102
RTVSPropertyOp32
 70
     1
102
RTVSPropertyOp33
 70
     1
102
RTVSPropertyOp34
 70
     1
102
RTVSPropertyOp35
 70
     1
102
RTVSPropertyOp36
 70
     1
102
RTVSPropertyOp37
 70
     0
102
RTVSPropertyOp38
 70
     0
102
RTVSPropertyOp39
 70
     0
102
RTVSPropertyOp40
 70
     0
102
RTVSPropertyOp41
 70
     0
102
RTVSPropertyOp42
 70
     0
102
RTVSPropertyOp43
 70
     0
102
RTVSPropertyOp44
 70
     0
102
RTVSPropertyOp45
 70
     1
102
RTVSPropertyOp46
 70
     0
102
RTVSPropertyOp47
 70
     0
102
RTVSPropertyOp48
 70
     0
102
RTVSPropertyOp49
 70
     1
102
RTVSPropertyOp50
 70
     0
102
RTVSPropertyOp51
 70
     0
102
RTVSPropertyOp52
 70
     0
102
RTVSPropertyOp53
 70
     0
102
RTVSPropertyOp54
 70
     0
102
RTVSPropertyOp55
 70
     1
102
RTVSPropertyOp56
 70
     0
102
RTVSPropertyOp57
 70
     0
102
RTVSPropertyOp58
 70
     1
102
RTVSPropertyOp59
 70
     1
102
RTVSPropertyOp60
 70
     1
102
RTVSPropertyOp61
 70
     1
102
RTVSPropertyOp62
 70
     1
  0
XRECORD
  5
2110A
102
{ACAD_REACTORS
330
21109
102
}
330
21109
100
AcDbXrecord
280
     1
102
RTVSPost2010Prop28
280
     0
102
RTVSPost2010PropOp28
 70
     1
102
RTVSPost2010Prop29
280
     1
102
RTVSPost2010PropOp29
 70
     1
102
RTVSPost2010Prop30
280
     1
102
RTVSPost2010PropOp30
 70
     1
102
RTVSPost2010Prop31
280
     0
102
RTVSPost2010PropOp31
 70
     1
102
RTVSPost2010Prop32
280
     0
102
RTVSPost2010PropOp32
 70
     1
102
RTVSPost2010Prop33
280
     0
102
RTVSPost2010PropOp33
 70
     1
102
RTVSPost2010Prop34
280
     0
102
RTVSPost2010PropOp34
 70
     1
102
RTVSPost2010Prop35
280
     0
102
RTVSPost2010PropOp35
 70
     1
102
RTVSPost2010Prop36
280
     0
102
RTVSPost2010PropOp36
 70
     1
102
RTVSPost2010Prop37
 90
       50
102
RTVSPost2010PropOp37
 70
     1
102
RTVSPost2010Prop38
140
0.0
102
RTVSPost2010PropOp38
 70
     1
102
RTVSPost2010Prop39
140
1.0
102
RTVSPost2010PropOp39
 70
     1
102
RTVSPost2010Prop40
 90
        0
102
RTVSPost2010PropOp40
 70
     1
102
RTVSPost2010Prop41ColorIndex
 90
       18
102
RTVSPost2010Prop41ColorRGB
 90
        0
102
RTVSPost2010PropOp41
 70
     1
102
RTVSPost2010Prop42
 90
       50
102
RTVSPost2010PropOp42
 70
     1
102
RTVSPost2010Prop43
 90
        3
102
RTVSPost2010PropOp43
 70
     1
102
RTVSPost2010Prop44ColorIndex
 90
        5
102
RTVSPost2010Prop44ColorRGB
 90
      255
102
RTVSPost2010PropOp44
 70
     1
102
RTVSPost2010Prop45
280
     0
102
RTVSPost2010PropOp45
 70
     1
102
RTVSPost2010Prop46
 90
       50
102
RTVSPost2010PropOp46
 70
     1
102
RTVSPost2010Prop47
 90
       50
102
RTVSPost2010PropOp47
 70
     1
102
RTVSPost2010Prop48
 90
       50
102
RTVSPost2010PropOp48
 70
     1
102
RTVSPost2010Prop49
280
     0
102
RTVSPost2010PropOp49
 70
     1
102
RTVSPost2010Prop50
 90
       50
102
RTVSPost2010PropOp50
 70
     1
102
RTVSPost2010Prop51ColorIndex
 90
      256
102
RTVSPost2010Prop51ColorRGB
 90
-16777216
102
RTVSPost2010PropOp51
 70
     0
102
RTVSPost2010Prop52
140
1.0
102
RTVSPost2010PropOp52
 70
     0
102
RTVSPost2010Prop53
 90
        2
102
RTVSPost2010PropOp53
 70
     1
102
RTVSPost2010Prop54
  1
strokes_ogs.tif
102
RTVSPost2010PropOp54
 70
     1
102
RTVSPost2010Prop55
280
     0
102
RTVSPost2010PropOp55
 70
     1
102
RTVSPost2010Prop56
140
1.0
102
RTVSPost2010PropOp56
 70
     1
102
RTVSPost2010Prop57
140
1.0
102
RTVSPost2010PropOp57
 70
     1
102
RTVSPropertyOp0
 70
     1
102
RTVSPropertyOp1
 70
     1
102
RTVSPropertyOp2
 70
     1
102
RTVSPropertyOp3
 70
     1
102
RTVSPropertyOp4
 70
     1
102
RTVSPropertyOp5
 70
     1
102
RTVSPropertyOp6
 70
     1
102
RTVSPropertyOp7
 70
     1
102
RTVSPropertyOp8
 70
     1
102
RTVSPropertyOp9
 70
     1
102
RTVSPropertyOp10
 70
     1
102
RTVSPropertyOp11
 70
     1
102
RTVSPropertyOp12
 70
     1
102
RTVSPropertyOp13
 70
     1
102
RTVSPropertyOp14
 70
     1
102
RTVSPropertyOp15
 70
     1
102
RTVSPropertyOp16
 70
     1
102
RTVSPropertyOp17
 70
     1
102
RTVSPropertyOp18
 70
     1
102
RTVSPropertyOp19
 70
     1
102
RTVSPropertyOp20
 70
     1
102
RTVSPropertyOp21
 70
     1
102
RTVSPropertyOp22
 70
     1
102
RTVSPropertyOp23
 70
     1
102
RTVSPropertyOp24
 70
     1
102
RTVSPropertyOp25
 70
     1
102
RTVSPropertyOp26
 70
     1
102
RTVSPropertyOp27
 70
     1
102
RTVSPropertyOp28
 70
     1
102
RTVSPropertyOp29
 70
     1
102
RTVSPropertyOp30
 70
     1
102
RTVSPropertyOp31
 70
     1
102
RTVSPropertyOp32
 70
     1
102
RTVSPropertyOp33
 70
     1
102
RTVSPropertyOp34
 70
     1
102
RTVSPropertyOp35
 70
     1
102
RTVSPropertyOp36
 70
     1
102
RTVSPropertyOp37
 70
     1
102
RTVSPropertyOp38
 70
     1
102
RTVSPropertyOp39
 70
     1
102
RTVSPropertyOp40
 70
     1
102
RTVSPropertyOp41
 70
     1
102
RTVSPropertyOp42
 70
     1
102
RTVSPropertyOp43
 70
     1
102
RTVSPropertyOp44
 70
     1
102
RTVSPropertyOp45
 70
     1
102
RTVSPropertyOp46
 70
     1
102
RTVSPropertyOp47
 70
     1
102
RTVSPropertyOp48
 70
     1
102
RTVSPropertyOp49
 70
     1
102
RTVSPropertyOp50
 70
     1
102
RTVSPropertyOp51
 70
     0
102
RTVSPropertyOp52
 70
     0
102
RTVSPropertyOp53
 70
     1
102
RTVSPropertyOp54
 70
     1
102
RTVSPropertyOp55
 70
     1
102
RTVSPropertyOp56
 70
     1
102
RTVSPropertyOp57
 70
     1
102
RTVSPropertyOp58
 70
     1
102
RTVSPropertyOp59
 70
     1
102
RTVSPropertyOp60
 70
     1
102
RTVSPropertyOp61
 70
     1
102
RTVSPropertyOp62
 70
     1
  0
XRECORD
  5
2112C
102
{ACAD_REACTORS
330
2112B
102
}
330
2112B
100
AcDbXrecord
280
     1
102
RTVSPost2010Prop28
280
     0
102
RTVSPost2010PropOp28
 70
     1
102
RTVSPost2010Prop29
280
     1
102
RTVSPost2010PropOp29
 70
     1
102
RTVSPost2010Prop30
280
     1
102
RTVSPost2010PropOp30
 70
     1
102
RTVSPost2010Prop31
280
     0
102
RTVSPost2010PropOp31
 70
     1
102
RTVSPost2010Prop32
280
     0
102
RTVSPost2010PropOp32
 70
     1
102
RTVSPost2010Prop33
280
     0
102
RTVSPost2010PropOp33
 70
     1
102
RTVSPost2010Prop34
280
     0
102
RTVSPost2010PropOp34
 70
     1
102
RTVSPost2010Prop35
280
     0
102
RTVSPost2010PropOp35
 70
     1
102
RTVSPost2010Prop36
280
     0
102
RTVSPost2010PropOp36
 70
     1
102
RTVSPost2010Prop37
 90
       50
102
RTVSPost2010PropOp37
 70
     1
102
RTVSPost2010Prop38
140
0.0
102
RTVSPost2010PropOp38
 70
     1
102
RTVSPost2010Prop39
140
1.0
102
RTVSPost2010PropOp39
 70
     1
102
RTVSPost2010Prop40
 90
        0
102
RTVSPost2010PropOp40
 70
     1
102
RTVSPost2010Prop41ColorIndex
 90
       18
102
RTVSPost2010Prop41ColorRGB
 90
        0
102
RTVSPost2010PropOp41
 70
     1
102
RTVSPost2010Prop42
 90
       50
102
RTVSPost2010PropOp42
 70
     1
102
RTVSPost2010Prop43
 90
        3
102
RTVSPost2010PropOp43
 70
     1
102
RTVSPost2010Prop44ColorIndex
 90
        5
102
RTVSPost2010Prop44ColorRGB
 90
      255
102
RTVSPost2010PropOp44
 70
     1
102
RTVSPost2010Prop45
280
     0
102
RTVSPost2010PropOp45
 70
     1
102
RTVSPost2010Prop46
 90
       50
102
RTVSPost2010PropOp46
 70
     1
102
RTVSPost2010Prop47
 90
       50
102
RTVSPost2010PropOp47
 70
     1
102
RTVSPost2010Prop48
 90
       50
102
RTVSPost2010PropOp48
 70
     1
102
RTVSPost2010Prop49
280
     0
102
RTVSPost2010PropOp49
 70
     1
102
RTVSPost2010Prop50
 90
       50
102
RTVSPost2010PropOp50
 70
     1
102
RTVSPost2010Prop51ColorIndex
 90
      256
102
RTVSPost2010Prop51ColorRGB
 90
-16777216
102
RTVSPost2010PropOp51
 70
     0
102
RTVSPost2010Prop52
140
1.0
102
RTVSPost2010PropOp52
 70
     0
102
RTVSPost2010Prop53
 90
        2
102
RTVSPost2010PropOp53
 70
     1
102
RTVSPost2010Prop54
  1
strokes_ogs.tif
102
RTVSPost2010PropOp54
 70
     1
102
RTVSPost2010Prop55
280
     0
102
RTVSPost2010PropOp55
 70
     1
102
RTVSPost2010Prop56
140
1.0
102
RTVSPost2010PropOp56
 70
     1
102
RTVSPost2010Prop57
140
1.0
102
RTVSPost2010PropOp57
 70
     1
102
RTVSPropertyOp0
 70
     1
102
RTVSPropertyOp1
 70
     1
102
RTVSPropertyOp2
 70
     1
102
RTVSPropertyOp3
 70
     1
102
RTVSPropertyOp4
 70
     1
102
RTVSPropertyOp5
 70
     1
102
RTVSPropertyOp6
 70
     1
102
RTVSPropertyOp7
 70
     1
102
RTVSPropertyOp8
 70
     1
102
RTVSPropertyOp9
 70
     1
102
RTVSPropertyOp10
 70
     1
102
RTVSPropertyOp11
 70
     1
102
RTVSPropertyOp12
 70
     1
102
RTVSPropertyOp13
 70
     1
102
RTVSPropertyOp14
 70
     1
102
RTVSPropertyOp15
 70
     1
102
RTVSPropertyOp16
 70
     1
102
RTVSPropertyOp17
 70
     1
102
RTVSPropertyOp18
 70
     1
102
RTVSPropertyOp19
 70
     1
102
RTVSPropertyOp20
 70
     1
102
RTVSPropertyOp21
 70
     1
102
RTVSPropertyOp22
 70
     1
102
RTVSPropertyOp23
 70
     1
102
RTVSPropertyOp24
 70
     1
102
RTVSPropertyOp25
 70
     1
102
RTVSPropertyOp26
 70
     1
102
RTVSPropertyOp27
 70
     1
102
RTVSPropertyOp28
 70
     1
102
RTVSPropertyOp29
 70
     1
102
RTVSPropertyOp30
 70
     1
102
RTVSPropertyOp31
 70
     1
102
RTVSPropertyOp32
 70
     1
102
RTVSPropertyOp33
 70
     1
102
RTVSPropertyOp34
 70
     1
102
RTVSPropertyOp35
 70
     1
102
RTVSPropertyOp36
 70
     1
102
RTVSPropertyOp37
 70
     1
102
RTVSPropertyOp38
 70
     1
102
RTVSPropertyOp39
 70
     1
102
RTVSPropertyOp40
 70
     1
102
RTVSPropertyOp41
 70
     1
102
RTVSPropertyOp42
 70
     1
102
RTVSPropertyOp43
 70
     1
102
RTVSPropertyOp44
 70
     1
102
RTVSPropertyOp45
 70
     1
102
RTVSPropertyOp46
 70
     1
102
RTVSPropertyOp47
 70
     1
102
RTVSPropertyOp48
 70
     1
102
RTVSPropertyOp49
 70
     1
102
RTVSPropertyOp50
 70
     1
102
RTVSPropertyOp51
 70
     0
102
RTVSPropertyOp52
 70
     0
102
RTVSPropertyOp53
 70
     1
102
RTVSPropertyOp54
 70
     1
102
RTVSPropertyOp55
 70
     1
102
RTVSPropertyOp56
 70
     1
102
RTVSPropertyOp57
 70
     1
102
RTVSPropertyOp58
 70
     1
102
RTVSPropertyOp59
 70
     1
102
RTVSPropertyOp60
 70
     1
102
RTVSPropertyOp61
 70
     1
102
RTVSPropertyOp62
 70
     1
  0
XRECORD
  5
2112A
102
{ACAD_REACTORS
330
21129
102
}
330
21129
100
AcDbXrecord
280
     1
102
RTVSPost2010Prop28
280
     0
102
RTVSPost2010PropOp28
 70
     1
102
RTVSPost2010Prop29
280
     1
102
RTVSPost2010PropOp29
 70
     1
102
RTVSPost2010Prop30
280
     1
102
RTVSPost2010PropOp30
 70
     1
102
RTVSPost2010Prop31
280
     0
102
RTVSPost2010PropOp31
 70
     1
102
RTVSPost2010Prop32
280
     0
102
RTVSPost2010PropOp32
 70
     1
102
RTVSPost2010Prop33
280
     0
102
RTVSPost2010PropOp33
 70
     1
102
RTVSPost2010Prop34
280
     0
102
RTVSPost2010PropOp34
 70
     1
102
RTVSPost2010Prop35
280
     0
102
RTVSPost2010PropOp35
 70
     1
102
RTVSPost2010Prop36
280
     0
102
RTVSPost2010PropOp36
 70
     1
102
RTVSPost2010Prop37
 90
       50
102
RTVSPost2010PropOp37
 70
     1
102
RTVSPost2010Prop38
140
0.0
102
RTVSPost2010PropOp38
 70
     1
102
RTVSPost2010Prop39
140
1.0
102
RTVSPost2010PropOp39
 70
     1
102
RTVSPost2010Prop40
 90
        0
102
RTVSPost2010PropOp40
 70
     1
102
RTVSPost2010Prop41ColorIndex
 90
       18
102
RTVSPost2010Prop41ColorRGB
 90
        0
102
RTVSPost2010PropOp41
 70
     1
102
RTVSPost2010Prop42
 90
       50
102
RTVSPost2010PropOp42
 70
     1
102
RTVSPost2010Prop43
 90
        3
102
RTVSPost2010PropOp43
 70
     1
102
RTVSPost2010Prop44ColorIndex
 90
        5
102
RTVSPost2010Prop44ColorRGB
 90
      255
102
RTVSPost2010PropOp44
 70
     1
102
RTVSPost2010Prop45
280
     0
102
RTVSPost2010PropOp45
 70
     1
102
RTVSPost2010Prop46
 90
       50
102
RTVSPost2010PropOp46
 70
     1
102
RTVSPost2010Prop47
 90
       50
102
RTVSPost2010PropOp47
 70
     1
102
RTVSPost2010Prop48
 90
       50
102
RTVSPost2010PropOp48
 70
     1
102
RTVSPost2010Prop49
280
     0
102
RTVSPost2010PropOp49
 70
     1
102
RTVSPost2010Prop50
 90
       50
102
RTVSPost2010PropOp50
 70
     1
102
RTVSPost2010Prop51ColorIndex
 90
      256
102
RTVSPost2010Prop51ColorRGB
 90
-16777216
102
RTVSPost2010PropOp51
 70
     0
102
RTVSPost2010Prop52
140
1.0
102
RTVSPost2010PropOp52
 70
     0
102
RTVSPost2010Prop53
 90
        2
102
RTVSPost2010PropOp53
 70
     1
102
RTVSPost2010Prop54
  1
strokes_ogs.tif
102
RTVSPost2010PropOp54
 70
     1
102
RTVSPost2010Prop55
280
     0
102
RTVSPost2010PropOp55
 70
     1
102
RTVSPost2010Prop56
140
1.0
102
RTVSPost2010PropOp56
 70
     1
102
RTVSPost2010Prop57
140
1.0
102
RTVSPost2010PropOp57
 70
     1
102
RTVSPropertyOp0
 70
     1
102
RTVSPropertyOp1
 70
     1
102
RTVSPropertyOp2
 70
     1
102
RTVSPropertyOp3
 70
     1
102
RTVSPropertyOp4
 70
     1
102
RTVSPropertyOp5
 70
     1
102
RTVSPropertyOp6
 70
     1
102
RTVSPropertyOp7
 70
     1
102
RTVSPropertyOp8
 70
     1
102
RTVSPropertyOp9
 70
     1
102
RTVSPropertyOp10
 70
     1
102
RTVSPropertyOp11
 70
     1
102
RTVSPropertyOp12
 70
     1
102
RTVSPropertyOp13
 70
     1
102
RTVSPropertyOp14
 70
     1
102
RTVSPropertyOp15
 70
     1
102
RTVSPropertyOp16
 70
     1
102
RTVSPropertyOp17
 70
     1
102
RTVSPropertyOp18
 70
     1
102
RTVSPropertyOp19
 70
     1
102
RTVSPropertyOp20
 70
     1
102
RTVSPropertyOp21
 70
     1
102
RTVSPropertyOp22
 70
     1
102
RTVSPropertyOp23
 70
     1
102
RTVSPropertyOp24
 70
     1
102
RTVSPropertyOp25
 70
     1
102
RTVSPropertyOp26
 70
     1
102
RTVSPropertyOp27
 70
     1
102
RTVSPropertyOp28
 70
     1
102
RTVSPropertyOp29
 70
     1
102
RTVSPropertyOp30
 70
     1
102
RTVSPropertyOp31
 70
     1
102
RTVSPropertyOp32
 70
     1
102
RTVSPropertyOp33
 70
     1
102
RTVSPropertyOp34
 70
     1
102
RTVSPropertyOp35
 70
     1
102
RTVSPropertyOp36
 70
     1
102
RTVSPropertyOp37
 70
     1
102
RTVSPropertyOp38
 70
     1
102
RTVSPropertyOp39
 70
     1
102
RTVSPropertyOp40
 70
     1
102
RTVSPropertyOp41
 70
     1
102
RTVSPropertyOp42
 70
     1
102
RTVSPropertyOp43
 70
     1
102
RTVSPropertyOp44
 70
     1
102
RTVSPropertyOp45
 70
     1
102
RTVSPropertyOp46
 70
     1
102
RTVSPropertyOp47
 70
     1
102
RTVSPropertyOp48
 70
     1
102
RTVSPropertyOp49
 70
     1
102
RTVSPropertyOp50
 70
     1
102
RTVSPropertyOp51
 70
     0
102
RTVSPropertyOp52
 70
     0
102
RTVSPropertyOp53
 70
     1
102
RTVSPropertyOp54
 70
     1
102
RTVSPropertyOp55
 70
     1
102
RTVSPropertyOp56
 70
     1
102
RTVSPropertyOp57
 70
     1
102
RTVSPropertyOp58
 70
     1
102
RTVSPropertyOp59
 70
     1
102
RTVSPropertyOp60
 70
     1
102
RTVSPropertyOp61
 70
     1
102
RTVSPropertyOp62
 70
     1
  0
XRECORD
  5
21124
102
{ACAD_REACTORS
330
21123
102
}
330
21123
100
AcDbXrecord
280
     1
102
RTVSPost2010Prop28
280
     0
102
RTVSPost2010PropOp28
 70
     1
102
RTVSPost2010Prop29
280
     1
102
RTVSPost2010PropOp29
 70
     1
102
RTVSPost2010Prop30
280
     1
102
RTVSPost2010PropOp30
 70
     1
102
RTVSPost2010Prop31
280
     0
102
RTVSPost2010PropOp31
 70
     1
102
RTVSPost2010Prop32
280
     0
102
RTVSPost2010PropOp32
 70
     1
102
RTVSPost2010Prop33
280
     0
102
RTVSPost2010PropOp33
 70
     1
102
RTVSPost2010Prop34
280
     0
102
RTVSPost2010PropOp34
 70
     1
102
RTVSPost2010Prop35
280
     0
102
RTVSPost2010PropOp35
 70
     1
102
RTVSPost2010Prop36
280
     0
102
RTVSPost2010PropOp36
 70
     1
102
RTVSPost2010Prop37
 90
       50
102
RTVSPost2010PropOp37
 70
     1
102
RTVSPost2010Prop38
140
0.0
102
RTVSPost2010PropOp38
 70
     1
102
RTVSPost2010Prop39
140
1.0
102
RTVSPost2010PropOp39
 70
     1
102
RTVSPost2010Prop40
 90
        0
102
RTVSPost2010PropOp40
 70
     1
102
RTVSPost2010Prop41ColorIndex
 90
       18
102
RTVSPost2010Prop41ColorRGB
 90
        0
102
RTVSPost2010PropOp41
 70
     1
102
RTVSPost2010Prop42
 90
       50
102
RTVSPost2010PropOp42
 70
     1
102
RTVSPost2010Prop43
 90
        3
102
RTVSPost2010PropOp43
 70
     1
102
RTVSPost2010Prop44ColorIndex
 90
        5
102
RTVSPost2010Prop44ColorRGB
 90
      255
102
RTVSPost2010PropOp44
 70
     1
102
RTVSPost2010Prop45
280
     0
102
RTVSPost2010PropOp45
 70
     1
102
RTVSPost2010Prop46
 90
       50
102
RTVSPost2010PropOp46
 70
     1
102
RTVSPost2010Prop47
 90
       50
102
RTVSPost2010PropOp47
 70
     1
102
RTVSPost2010Prop48
 90
       50
102
RTVSPost2010PropOp48
 70
     1
102
RTVSPost2010Prop49
280
     0
102
RTVSPost2010PropOp49
 70
     1
102
RTVSPost2010Prop50
 90
       50
102
RTVSPost2010PropOp50
 70
     1
102
RTVSPost2010Prop51ColorIndex
 90
      256
102
RTVSPost2010Prop51ColorRGB
 90
-16777216
102
RTVSPost2010PropOp51
 70
     0
102
RTVSPost2010Prop52
140
1.0
102
RTVSPost2010PropOp52
 70
     0
102
RTVSPost2010Prop53
 90
        2
102
RTVSPost2010PropOp53
 70
     1
102
RTVSPost2010Prop54
  1
strokes_ogs.tif
102
RTVSPost2010PropOp54
 70
     1
102
RTVSPost2010Prop55
280
     0
102
RTVSPost2010PropOp55
 70
     1
102
RTVSPost2010Prop56
140
1.0
102
RTVSPost2010PropOp56
 70
     1
102
RTVSPost2010Prop57
140
1.0
102
RTVSPost2010PropOp57
 70
     1
102
RTVSPropertyOp0
 70
     1
102
RTVSPropertyOp1
 70
     1
102
RTVSPropertyOp2
 70
     1
102
RTVSPropertyOp3
 70
     1
102
RTVSPropertyOp4
 70
     1
102
RTVSPropertyOp5
 70
     1
102
RTVSPropertyOp6
 70
     1
102
RTVSPropertyOp7
 70
     1
102
RTVSPropertyOp8
 70
     1
102
RTVSPropertyOp9
 70
     1
102
RTVSPropertyOp10
 70
     1
102
RTVSPropertyOp11
 70
     1
102
RTVSPropertyOp12
 70
     1
102
RTVSPropertyOp13
 70
     1
102
RTVSPropertyOp14
 70
     1
102
RTVSPropertyOp15
 70
     1
102
RTVSPropertyOp16
 70
     1
102
RTVSPropertyOp17
 70
     1
102
RTVSPropertyOp18
 70
     1
102
RTVSPropertyOp19
 70
     1
102
RTVSPropertyOp20
 70
     1
102
RTVSPropertyOp21
 70
     1
102
RTVSPropertyOp22
 70
     1
102
RTVSPropertyOp23
 70
     1
102
RTVSPropertyOp24
 70
     1
102
RTVSPropertyOp25
 70
     1
102
RTVSPropertyOp26
 70
     1
102
RTVSPropertyOp27
 70
     1
102
RTVSPropertyOp28
 70
     1
102
RTVSPropertyOp29
 70
     1
102
RTVSPropertyOp30
 70
     1
102
RTVSPropertyOp31
 70
     1
102
RTVSPropertyOp32
 70
     1
102
RTVSPropertyOp33
 70
     1
102
RTVSPropertyOp34
 70
     1
102
RTVSPropertyOp35
 70
     1
102
RTVSPropertyOp36
 70
     1
102
RTVSPropertyOp37
 70
     1
102
RTVSPropertyOp38
 70
     1
102
RTVSPropertyOp39
 70
     1
102
RTVSPropertyOp40
 70
     1
102
RTVSPropertyOp41
 70
     1
102
RTVSPropertyOp42
 70
     1
102
RTVSPropertyOp43
 70
     1
102
RTVSPropertyOp44
 70
     1
102
RTVSPropertyOp45
 70
     1
102
RTVSPropertyOp46
 70
     1
102
RTVSPropertyOp47
 70
     1
102
RTVSPropertyOp48
 70
     1
102
RTVSPropertyOp49
 70
     1
102
RTVSPropertyOp50
 70
     1
102
RTVSPropertyOp51
 70
     0
102
RTVSPropertyOp52
 70
     0
102
RTVSPropertyOp53
 70
     1
102
RTVSPropertyOp54
 70
     1
102
RTVSPropertyOp55
 70
     1
102
RTVSPropertyOp56
 70
     1
102
RTVSPropertyOp57
 70
     1
102
RTVSPropertyOp58
 70
     1
102
RTVSPropertyOp59
 70
     1
102
RTVSPropertyOp60
 70
     1
102
RTVSPropertyOp61
 70
     1
102
RTVSPropertyOp62
 70
     1
  0
XRECORD
  5
21126
102
{ACAD_REACTORS
330
21125
102
}
330
21125
100
AcDbXrecord
280
     1
102
RTVSPost2010Prop28
280
     0
102
RTVSPost2010PropOp28
 70
     1
102
RTVSPost2010Prop29
280
     1
102
RTVSPost2010PropOp29
 70
     1
102
RTVSPost2010Prop30
280
     1
102
RTVSPost2010PropOp30
 70
     1
102
RTVSPost2010Prop31
280
     0
102
RTVSPost2010PropOp31
 70
     1
102
RTVSPost2010Prop32
280
     0
102
RTVSPost2010PropOp32
 70
     1
102
RTVSPost2010Prop33
280
     0
102
RTVSPost2010PropOp33
 70
     1
102
RTVSPost2010Prop34
280
     0
102
RTVSPost2010PropOp34
 70
     1
102
RTVSPost2010Prop35
280
     0
102
RTVSPost2010PropOp35
 70
     1
102
RTVSPost2010Prop36
280
     0
102
RTVSPost2010PropOp36
 70
     1
102
RTVSPost2010Prop37
 90
       50
102
RTVSPost2010PropOp37
 70
     1
102
RTVSPost2010Prop38
140
0.0
102
RTVSPost2010PropOp38
 70
     1
102
RTVSPost2010Prop39
140
1.0
102
RTVSPost2010PropOp39
 70
     1
102
RTVSPost2010Prop40
 90
        0
102
RTVSPost2010PropOp40
 70
     1
102
RTVSPost2010Prop41ColorIndex
 90
       18
102
RTVSPost2010Prop41ColorRGB
 90
        0
102
RTVSPost2010PropOp41
 70
     1
102
RTVSPost2010Prop42
 90
       50
102
RTVSPost2010PropOp42
 70
     1
102
RTVSPost2010Prop43
 90
        3
102
RTVSPost2010PropOp43
 70
     1
102
RTVSPost2010Prop44ColorIndex
 90
        5
102
RTVSPost2010Prop44ColorRGB
 90
      255
102
RTVSPost2010PropOp44
 70
     1
102
RTVSPost2010Prop45
280
     0
102
RTVSPost2010PropOp45
 70
     1
102
RTVSPost2010Prop46
 90
       50
102
RTVSPost2010PropOp46
 70
     1
102
RTVSPost2010Prop47
 90
       50
102
RTVSPost2010PropOp47
 70
     1
102
RTVSPost2010Prop48
 90
       50
102
RTVSPost2010PropOp48
 70
     1
102
RTVSPost2010Prop49
280
     0
102
RTVSPost2010PropOp49
 70
     1
102
RTVSPost2010Prop50
 90
       50
102
RTVSPost2010PropOp50
 70
     1
102
RTVSPost2010Prop51ColorIndex
 90
      256
102
RTVSPost2010Prop51ColorRGB
 90
-16777216
102
RTVSPost2010PropOp51
 70
     0
102
RTVSPost2010Prop52
140
1.0
102
RTVSPost2010PropOp52
 70
     0
102
RTVSPost2010Prop53
 90
        2
102
RTVSPost2010PropOp53
 70
     1
102
RTVSPost2010Prop54
  1
strokes_ogs.tif
102
RTVSPost2010PropOp54
 70
     1
102
RTVSPost2010Prop55
280
     0
102
RTVSPost2010PropOp55
 70
     1
102
RTVSPost2010Prop56
140
1.0
102
RTVSPost2010PropOp56
 70
     1
102
RTVSPost2010Prop57
140
1.0
102
RTVSPost2010PropOp57
 70
     1
102
RTVSPropertyOp0
 70
     1
102
RTVSPropertyOp1
 70
     1
102
RTVSPropertyOp2
 70
     1
102
RTVSPropertyOp3
 70
     1
102
RTVSPropertyOp4
 70
     1
102
RTVSPropertyOp5
 70
     1
102
RTVSPropertyOp6
 70
     1
102
RTVSPropertyOp7
 70
     1
102
RTVSPropertyOp8
 70
     1
102
RTVSPropertyOp9
 70
     1
102
RTVSPropertyOp10
 70
     1
102
RTVSPropertyOp11
 70
     1
102
RTVSPropertyOp12
 70
     1
102
RTVSPropertyOp13
 70
     1
102
RTVSPropertyOp14
 70
     1
102
RTVSPropertyOp15
 70
     1
102
RTVSPropertyOp16
 70
     1
102
RTVSPropertyOp17
 70
     1
102
RTVSPropertyOp18
 70
     1
102
RTVSPropertyOp19
 70
     1
102
RTVSPropertyOp20
 70
     1
102
RTVSPropertyOp21
 70
     1
102
RTVSPropertyOp22
 70
     1
102
RTVSPropertyOp23
 70
     1
102
RTVSPropertyOp24
 70
     1
102
RTVSPropertyOp25
 70
     1
102
RTVSPropertyOp26
 70
     1
102
RTVSPropertyOp27
 70
     1
102
RTVSPropertyOp28
 70
     1
102
RTVSPropertyOp29
 70
     1
102
RTVSPropertyOp30
 70
     1
102
RTVSPropertyOp31
 70
     1
102
RTVSPropertyOp32
 70
     1
102
RTVSPropertyOp33
 70
     1
102
RTVSPropertyOp34
 70
     1
102
RTVSPropertyOp35
 70
     1
102
RTVSPropertyOp36
 70
     1
102
RTVSPropertyOp37
 70
     1
102
RTVSPropertyOp38
 70
     1
102
RTVSPropertyOp39
 70
     1
102
RTVSPropertyOp40
 70
     1
102
RTVSPropertyOp41
 70
     1
102
RTVSPropertyOp42
 70
     1
102
RTVSPropertyOp43
 70
     1
102
RTVSPropertyOp44
 70
     1
102
RTVSPropertyOp45
 70
     1
102
RTVSPropertyOp46
 70
     1
102
RTVSPropertyOp47
 70
     1
102
RTVSPropertyOp48
 70
     1
102
RTVSPropertyOp49
 70
     1
102
RTVSPropertyOp50
 70
     1
102
RTVSPropertyOp51
 70
     0
102
RTVSPropertyOp52
 70
     0
102
RTVSPropertyOp53
 70
     1
102
RTVSPropertyOp54
 70
     1
102
RTVSPropertyOp55
 70
     1
102
RTVSPropertyOp56
 70
     1
102
RTVSPropertyOp57
 70
     1
102
RTVSPropertyOp58
 70
     1
102
RTVSPropertyOp59
 70
     1
102
RTVSPropertyOp60
 70
     1
102
RTVSPropertyOp61
 70
     1
102
RTVSPropertyOp62
 70
     1
  0
XRECORD
  5
21110
102
{ACAD_REACTORS
330
2110F
102
}
330
2110F
100
AcDbXrecord
280
     1
102
RTVSPost2010Prop28
280
     0
102
RTVSPost2010PropOp28
 70
     1
102
RTVSPost2010Prop29
280
     1
102
RTVSPost2010PropOp29
 70
     1
102
RTVSPost2010Prop30
280
     1
102
RTVSPost2010PropOp30
 70
     1
102
RTVSPost2010Prop31
280
     0
102
RTVSPost2010PropOp31
 70
     1
102
RTVSPost2010Prop32
280
     0
102
RTVSPost2010PropOp32
 70
     1
102
RTVSPost2010Prop33
280
     0
102
RTVSPost2010PropOp33
 70
     1
102
RTVSPost2010Prop34
280
     0
102
RTVSPost2010PropOp34
 70
     1
102
RTVSPost2010Prop35
280
     0
102
RTVSPost2010PropOp35
 70
     1
102
RTVSPost2010Prop36
280
     0
102
RTVSPost2010PropOp36
 70
     1
102
RTVSPost2010Prop37
 90
       50
102
RTVSPost2010PropOp37
 70
     1
102
RTVSPost2010Prop38
140
0.0
102
RTVSPost2010PropOp38
 70
     1
102
RTVSPost2010Prop39
140
1.0
102
RTVSPost2010PropOp39
 70
     1
102
RTVSPost2010Prop40
 90
        0
102
RTVSPost2010PropOp40
 70
     1
102
RTVSPost2010Prop41ColorIndex
 90
       18
102
RTVSPost2010Prop41ColorRGB
 90
        0
102
RTVSPost2010PropOp41
 70
     1
102
RTVSPost2010Prop42
 90
       50
102
RTVSPost2010PropOp42
 70
     1
102
RTVSPost2010Prop43
 90
        3
102
RTVSPost2010PropOp43
 70
     1
102
RTVSPost2010Prop44ColorIndex
 90
        5
102
RTVSPost2010Prop44ColorRGB
 90
      255
102
RTVSPost2010PropOp44
 70
     1
102
RTVSPost2010Prop45
280
     0
102
RTVSPost2010PropOp45
 70
     1
102
RTVSPost2010Prop46
 90
       50
102
RTVSPost2010PropOp46
 70
     1
102
RTVSPost2010Prop47
 90
       50
102
RTVSPost2010PropOp47
 70
     1
102
RTVSPost2010Prop48
 90
       50
102
RTVSPost2010PropOp48
 70
     1
102
RTVSPost2010Prop49
280
     0
102
RTVSPost2010PropOp49
 70
     1
102
RTVSPost2010Prop50
 90
       50
102
RTVSPost2010PropOp50
 70
     1
102
RTVSPost2010Prop51ColorIndex
 90
      256
102
RTVSPost2010Prop51ColorRGB
 90
-16777216
102
RTVSPost2010PropOp51
 70
     0
102
RTVSPost2010Prop52
140
1.0
102
RTVSPost2010PropOp52
 70
     0
102
RTVSPost2010Prop53
 90
        2
102
RTVSPost2010PropOp53
 70
     1
102
RTVSPost2010Prop54
  1
strokes_ogs.tif
102
RTVSPost2010PropOp54
 70
     1
102
RTVSPost2010Prop55
280
     0
102
RTVSPost2010PropOp55
 70
     1
102
RTVSPost2010Prop56
140
1.0
102
RTVSPost2010PropOp56
 70
     1
102
RTVSPost2010Prop57
140
1.0
102
RTVSPost2010PropOp57
 70
     1
102
RTVSPropertyOp0
 70
     1
102
RTVSPropertyOp1
 70
     1
102
RTVSPropertyOp2
 70
     1
102
RTVSPropertyOp3
 70
     1
102
RTVSPropertyOp4
 70
     1
102
RTVSPropertyOp5
 70
     1
102
RTVSPropertyOp6
 70
     1
102
RTVSPropertyOp7
 70
     1
102
RTVSPropertyOp8
 70
     1
102
RTVSPropertyOp9
 70
     1
102
RTVSPropertyOp10
 70
     1
102
RTVSPropertyOp11
 70
     1
102
RTVSPropertyOp12
 70
     1
102
RTVSPropertyOp13
 70
     1
102
RTVSPropertyOp14
 70
     1
102
RTVSPropertyOp15
 70
     1
102
RTVSPropertyOp16
 70
     1
102
RTVSPropertyOp17
 70
     1
102
RTVSPropertyOp18
 70
     1
102
RTVSPropertyOp19
 70
     1
102
RTVSPropertyOp20
 70
     1
102
RTVSPropertyOp21
 70
     1
102
RTVSPropertyOp22
 70
     1
102
RTVSPropertyOp23
 70
     1
102
RTVSPropertyOp24
 70
     1
102
RTVSPropertyOp25
 70
     1
102
RTVSPropertyOp26
 70
     1
102
RTVSPropertyOp27
 70
     1
102
RTVSPropertyOp28
 70
     1
102
RTVSPropertyOp29
 70
     1
102
RTVSPropertyOp30
 70
     1
102
RTVSPropertyOp31
 70
     1
102
RTVSPropertyOp32
 70
     1
102
RTVSPropertyOp33
 70
     1
102
RTVSPropertyOp34
 70
     1
102
RTVSPropertyOp35
 70
     1
102
RTVSPropertyOp36
 70
     1
102
RTVSPropertyOp37
 70
     1
102
RTVSPropertyOp38
 70
     1
102
RTVSPropertyOp39
 70
     1
102
RTVSPropertyOp40
 70
     1
102
RTVSPropertyOp41
 70
     1
102
RTVSPropertyOp42
 70
     1
102
RTVSPropertyOp43
 70
     1
102
RTVSPropertyOp44
 70
     1
102
RTVSPropertyOp45
 70
     1
102
RTVSPropertyOp46
 70
     1
102
RTVSPropertyOp47
 70
     1
102
RTVSPropertyOp48
 70
     1
102
RTVSPropertyOp49
 70
     1
102
RTVSPropertyOp50
 70
     1
102
RTVSPropertyOp51
 70
     0
102
RTVSPropertyOp52
 70
     0
102
RTVSPropertyOp53
 70
     1
102
RTVSPropertyOp54
 70
     1
102
RTVSPropertyOp55
 70
     1
102
RTVSPropertyOp56
 70
     1
102
RTVSPropertyOp57
 70
     1
102
RTVSPropertyOp58
 70
     1
102
RTVSPropertyOp59
 70
     1
102
RTVSPropertyOp60
 70
     1
102
RTVSPropertyOp61
 70
     1
102
RTVSPropertyOp62
 70
     1
  0
XRECORD
  5
21120
102
{ACAD_REACTORS
330
2111F
102
}
330
2111F
100
AcDbXrecord
280
     1
102
RTVSPost2010Prop28
280
     0
102
RTVSPost2010PropOp28
 70
     1
102
RTVSPost2010Prop29
280
     1
102
RTVSPost2010PropOp29
 70
     1
102
RTVSPost2010Prop30
280
     1
102
RTVSPost2010PropOp30
 70
     1
102
RTVSPost2010Prop31
280
     0
102
RTVSPost2010PropOp31
 70
     1
102
RTVSPost2010Prop32
280
     0
102
RTVSPost2010PropOp32
 70
     1
102
RTVSPost2010Prop33
280
     0
102
RTVSPost2010PropOp33
 70
     1
102
RTVSPost2010Prop34
280
     0
102
RTVSPost2010PropOp34
 70
     1
102
RTVSPost2010Prop35
280
     0
102
RTVSPost2010PropOp35
 70
     1
102
RTVSPost2010Prop36
280
     0
102
RTVSPost2010PropOp36
 70
     1
102
RTVSPost2010Prop37
 90
       50
102
RTVSPost2010PropOp37
 70
     1
102
RTVSPost2010Prop38
140
0.0
102
RTVSPost2010PropOp38
 70
     1
102
RTVSPost2010Prop39
140
1.0
102
RTVSPost2010PropOp39
 70
     1
102
RTVSPost2010Prop40
 90
        0
102
RTVSPost2010PropOp40
 70
     1
102
RTVSPost2010Prop41ColorIndex
 90
       18
102
RTVSPost2010Prop41ColorRGB
 90
        0
102
RTVSPost2010PropOp41
 70
     1
102
RTVSPost2010Prop42
 90
       50
102
RTVSPost2010PropOp42
 70
     1
102
RTVSPost2010Prop43
 90
        3
102
RTVSPost2010PropOp43
 70
     1
102
RTVSPost2010Prop44ColorIndex
 90
        5
102
RTVSPost2010Prop44ColorRGB
 90
      255
102
RTVSPost2010PropOp44
 70
     1
102
RTVSPost2010Prop45
280
     0
102
RTVSPost2010PropOp45
 70
     1
102
RTVSPost2010Prop46
 90
       50
102
RTVSPost2010PropOp46
 70
     1
102
RTVSPost2010Prop47
 90
       50
102
RTVSPost2010PropOp47
 70
     1
102
RTVSPost2010Prop48
 90
       50
102
RTVSPost2010PropOp48
 70
     1
102
RTVSPost2010Prop49
280
     0
102
RTVSPost2010PropOp49
 70
     1
102
RTVSPost2010Prop50
 90
       50
102
RTVSPost2010PropOp50
 70
     1
102
RTVSPost2010Prop51ColorIndex
 90
      256
102
RTVSPost2010Prop51ColorRGB
 90
-16777216
102
RTVSPost2010PropOp51
 70
     0
102
RTVSPost2010Prop52
140
1.0
102
RTVSPost2010PropOp52
 70
     0
102
RTVSPost2010Prop53
 90
        2
102
RTVSPost2010PropOp53
 70
     1
102
RTVSPost2010Prop54
  1
strokes_ogs.tif
102
RTVSPost2010PropOp54
 70
     1
102
RTVSPost2010Prop55
280
     0
102
RTVSPost2010PropOp55
 70
     1
102
RTVSPost2010Prop56
140
1.0
102
RTVSPost2010PropOp56
 70
     1
102
RTVSPost2010Prop57
140
1.0
102
RTVSPost2010PropOp57
 70
     1
102
RTVSPropertyOp0
 70
     1
102
RTVSPropertyOp1
 70
     1
102
RTVSPropertyOp2
 70
     1
102
RTVSPropertyOp3
 70
     1
102
RTVSPropertyOp4
 70
     1
102
RTVSPropertyOp5
 70
     1
102
RTVSPropertyOp6
 70
     1
102
RTVSPropertyOp7
 70
     1
102
RTVSPropertyOp8
 70
     1
102
RTVSPropertyOp9
 70
     1
102
RTVSPropertyOp10
 70
     1
102
RTVSPropertyOp11
 70
     1
102
RTVSPropertyOp12
 70
     1
102
RTVSPropertyOp13
 70
     1
102
RTVSPropertyOp14
 70
     1
102
RTVSPropertyOp15
 70
     1
102
RTVSPropertyOp16
 70
     1
102
RTVSPropertyOp17
 70
     1
102
RTVSPropertyOp18
 70
     1
102
RTVSPropertyOp19
 70
     1
102
RTVSPropertyOp20
 70
     1
102
RTVSPropertyOp21
 70
     1
102
RTVSPropertyOp22
 70
     1
102
RTVSPropertyOp23
 70
     1
102
RTVSPropertyOp24
 70
     1
102
RTVSPropertyOp25
 70
     1
102
RTVSPropertyOp26
 70
     1
102
RTVSPropertyOp27
 70
     1
102
RTVSPropertyOp28
 70
     1
102
RTVSPropertyOp29
 70
     1
102
RTVSPropertyOp30
 70
     1
102
RTVSPropertyOp31
 70
     1
102
RTVSPropertyOp32
 70
     1
102
RTVSPropertyOp33
 70
     1
102
RTVSPropertyOp34
 70
     1
102
RTVSPropertyOp35
 70
     1
102
RTVSPropertyOp36
 70
     1
102
RTVSPropertyOp37
 70
     1
102
RTVSPropertyOp38
 70
     1
102
RTVSPropertyOp39
 70
     1
102
RTVSPropertyOp40
 70
     1
102
RTVSPropertyOp41
 70
     1
102
RTVSPropertyOp42
 70
     1
102
RTVSPropertyOp43
 70
     1
102
RTVSPropertyOp44
 70
     1
102
RTVSPropertyOp45
 70
     1
102
RTVSPropertyOp46
 70
     1
102
RTVSPropertyOp47
 70
     1
102
RTVSPropertyOp48
 70
     1
102
RTVSPropertyOp49
 70
     1
102
RTVSPropertyOp50
 70
     1
102
RTVSPropertyOp51
 70
     0
102
RTVSPropertyOp52
 70
     0
102
RTVSPropertyOp53
 70
     1
102
RTVSPropertyOp54
 70
     1
102
RTVSPropertyOp55
 70
     1
102
RTVSPropertyOp56
 70
     1
102
RTVSPropertyOp57
 70
     1
102
RTVSPropertyOp58
 70
     1
102
RTVSPropertyOp59
 70
     1
102
RTVSPropertyOp60
 70
     1
102
RTVSPropertyOp61
 70
     1
102
RTVSPropertyOp62
 70
     1
  0
XRECORD
  5
21128
102
{ACAD_REACTORS
330
21127
102
}
330
21127
100
AcDbXrecord
280
     1
102
RTVSPost2010Prop28
280
     0
102
RTVSPost2010PropOp28
 70
     1
102
RTVSPost2010Prop29
280
     1
102
RTVSPost2010PropOp29
 70
     1
102
RTVSPost2010Prop30
280
     1
102
RTVSPost2010PropOp30
 70
     1
102
RTVSPost2010Prop31
280
     0
102
RTVSPost2010PropOp31
 70
     1
102
RTVSPost2010Prop32
280
     0
102
RTVSPost2010PropOp32
 70
     1
102
RTVSPost2010Prop33
280
     0
102
RTVSPost2010PropOp33
 70
     1
102
RTVSPost2010Prop34
280
     0
102
RTVSPost2010PropOp34
 70
     1
102
RTVSPost2010Prop35
280
     0
102
RTVSPost2010PropOp35
 70
     1
102
RTVSPost2010Prop36
280
     0
102
RTVSPost2010PropOp36
 70
     1
102
RTVSPost2010Prop37
 90
       50
102
RTVSPost2010PropOp37
 70
     1
102
RTVSPost2010Prop38
140
0.0
102
RTVSPost2010PropOp38
 70
     1
102
RTVSPost2010Prop39
140
1.0
102
RTVSPost2010PropOp39
 70
     1
102
RTVSPost2010Prop40
 90
        0
102
RTVSPost2010PropOp40
 70
     1
102
RTVSPost2010Prop41ColorIndex
 90
       18
102
RTVSPost2010Prop41ColorRGB
 90
        0
102
RTVSPost2010PropOp41
 70
     1
102
RTVSPost2010Prop42
 90
       50
102
RTVSPost2010PropOp42
 70
     1
102
RTVSPost2010Prop43
 90
        3
102
RTVSPost2010PropOp43
 70
     1
102
RTVSPost2010Prop44ColorIndex
 90
        5
102
RTVSPost2010Prop44ColorRGB
 90
      255
102
RTVSPost2010PropOp44
 70
     1
102
RTVSPost2010Prop45
280
     0
102
RTVSPost2010PropOp45
 70
     1
102
RTVSPost2010Prop46
 90
       50
102
RTVSPost2010PropOp46
 70
     1
102
RTVSPost2010Prop47
 90
       50
102
RTVSPost2010PropOp47
 70
     1
102
RTVSPost2010Prop48
 90
       50
102
RTVSPost2010PropOp48
 70
     1
102
RTVSPost2010Prop49
280
     0
102
RTVSPost2010PropOp49
 70
     1
102
RTVSPost2010Prop50
 90
       50
102
RTVSPost2010PropOp50
 70
     1
102
RTVSPost2010Prop51ColorIndex
 90
      256
102
RTVSPost2010Prop51ColorRGB
 90
-16777216
102
RTVSPost2010PropOp51
 70
     0
102
RTVSPost2010Prop52
140
1.0
102
RTVSPost2010PropOp52
 70
     0
102
RTVSPost2010Prop53
 90
        2
102
RTVSPost2010PropOp53
 70
     1
102
RTVSPost2010Prop54
  1
strokes_ogs.tif
102
RTVSPost2010PropOp54
 70
     1
102
RTVSPost2010Prop55
280
     0
102
RTVSPost2010PropOp55
 70
     1
102
RTVSPost2010Prop56
140
1.0
102
RTVSPost2010PropOp56
 70
     1
102
RTVSPost2010Prop57
140
1.0
102
RTVSPost2010PropOp57
 70
     1
102
RTVSPropertyOp0
 70
     1
102
RTVSPropertyOp1
 70
     1
102
RTVSPropertyOp2
 70
     1
102
RTVSPropertyOp3
 70
     1
102
RTVSPropertyOp4
 70
     1
102
RTVSPropertyOp5
 70
     1
102
RTVSPropertyOp6
 70
     1
102
RTVSPropertyOp7
 70
     1
102
RTVSPropertyOp8
 70
     1
102
RTVSPropertyOp9
 70
     1
102
RTVSPropertyOp10
 70
     1
102
RTVSPropertyOp11
 70
     1
102
RTVSPropertyOp12
 70
     1
102
RTVSPropertyOp13
 70
     1
102
RTVSPropertyOp14
 70
     1
102
RTVSPropertyOp15
 70
     1
102
RTVSPropertyOp16
 70
     1
102
RTVSPropertyOp17
 70
     1
102
RTVSPropertyOp18
 70
     1
102
RTVSPropertyOp19
 70
     1
102
RTVSPropertyOp20
 70
     1
102
RTVSPropertyOp21
 70
     1
102
RTVSPropertyOp22
 70
     1
102
RTVSPropertyOp23
 70
     1
102
RTVSPropertyOp24
 70
     1
102
RTVSPropertyOp25
 70
     1
102
RTVSPropertyOp26
 70
     1
102
RTVSPropertyOp27
 70
     1
102
RTVSPropertyOp28
 70
     1
102
RTVSPropertyOp29
 70
     1
102
RTVSPropertyOp30
 70
     1
102
RTVSPropertyOp31
 70
     1
102
RTVSPropertyOp32
 70
     1
102
RTVSPropertyOp33
 70
     1
102
RTVSPropertyOp34
 70
     1
102
RTVSPropertyOp35
 70
     1
102
RTVSPropertyOp36
 70
     1
102
RTVSPropertyOp37
 70
     1
102
RTVSPropertyOp38
 70
     1
102
RTVSPropertyOp39
 70
     1
102
RTVSPropertyOp40
 70
     1
102
RTVSPropertyOp41
 70
     1
102
RTVSPropertyOp42
 70
     1
102
RTVSPropertyOp43
 70
     1
102
RTVSPropertyOp44
 70
     1
102
RTVSPropertyOp45
 70
     1
102
RTVSPropertyOp46
 70
     1
102
RTVSPropertyOp47
 70
     1
102
RTVSPropertyOp48
 70
     1
102
RTVSPropertyOp49
 70
     1
102
RTVSPropertyOp50
 70
     1
102
RTVSPropertyOp51
 70
     0
102
RTVSPropertyOp52
 70
     0
102
RTVSPropertyOp53
 70
     1
102
RTVSPropertyOp54
 70
     1
102
RTVSPropertyOp55
 70
     1
102
RTVSPropertyOp56
 70
     1
102
RTVSPropertyOp57
 70
     1
102
RTVSPropertyOp58
 70
     1
102
RTVSPropertyOp59
 70
     1
102
RTVSPropertyOp60
 70
     1
102
RTVSPropertyOp61
 70
     1
102
RTVSPropertyOp62
 70
     1
  0
ENDSEC
  0
EOF
