  0
SECTION
  2
HEADER
  9
$ACADVER
  1
AC1024
  9
$ACADMAINTVER
 70
   182
  9
$DWGCODEPAGE
  3
ANSI_1252
  9
$LASTSAVEDBY
  1
kamerka
  9
$INSBASE
 10
0.0
 20
0.0
 30
0.0
  9
$EXTMIN
 10
-133.7353785596956
 20
-58.90415406233262
 30
-0.0015258207003583
  9
$EXTMAX
 10
90.86840198507468
 20
63.86277898567448
 30
0.0000000349246037
  9
$LIMMIN
 10
0.0
 20
0.0
  9
$LIMMAX
 10
420.0
 20
297.0
  9
$ORTHOMODE
 70
     0
  9
$REGENMODE
 70
     1
  9
$FILLMODE
 70
     1
  9
$QTEXTMODE
 70
     0
  9
$MIRRTEXT
 70
     0
  9
$LTSCALE
 40
23.1
  9
$ATTMODE
 70
     1
  9
$TEXTSIZE
 40
3.5
  9
$TRACEWID
 40
0.05
  9
$TEXTSTYLE
  7
STANDARD
  9
$CLAYER
  8
0
  9
$CELTYPE
  6
BYLAYER
  9
$CECOLOR
 62
   256
  9
$CELTSCALE
 40
1.0
  9
$DISPSILH
 70
     0
  9
$DIMSCALE
 40
1.0
  9
$DIMASZ
 40
4.57
  9
$DIMEXO
 40
0.0625
  9
$DIMDLI
 40
0.38
  9
$DIMRND
 40
0.0
  9
$DIMDLE
 40
0.0
  9
$DIMEXE
 40
0.18
  9
$DIMTP
 40
0.01
  9
$DIMTM
 40
0.01
  9
$DIMTXT
 40
3.5
  9
$DIMCEN
 40
0.09
  9
$DIMTSZ
 40
0.0
  9
$DIMTOL
 70
     0
  9
$DIMLIM
 70
     0
  9
$DIMTIH
 70
     0
  9
$DIMTOH
 70
     0
  9
$DIMSE1
 70
     0
  9
$DIMSE2
 70
     0
  9
$DIMTAD
 70
     1
  9
$DIMZIN
 70
     8
  9
$DIMBLK
  1

  9
$DIMASO
 70
     1
  9
$DIMSHO
 70
     1
  9
$DIMPOST
  1

  9
$DIMAPOST
  1

  9
$DIMALT
 70
     0
  9
$DIMALTD
 70
     2
  9
$DIMALTF
 40
25.4
  9
$DIMLFAC
 40
1.0
  9
$DIMTOFL
 70
     0
  9
$DIMTVP
 40
0.0
  9
$DIMTIX
 70
     0
  9
$DIMSOXD
 70
     0
  9
$DIMSAH
 70
     0
  9
$DIMBLK1
  1

  9
$DIMBLK2
  1

  9
$DIMSTYLE
  2
STANDARD
  9
$DIMCLRD
 70
     0
  9
$DIMCLRE
 70
     0
  9
$DIMCLRT
 70
     0
  9
$DIMTFAC
 40
1.0
  9
$DIMGAP
 40
0.09
  9
$DIMJUST
 70
     0
  9
$DIMSD1
 70
     0
  9
$DIMSD2
 70
     0
  9
$DIMTOLJ
 70
     1
  9
$DIMTZIN
 70
     8
  9
$DIMALTZ
 70
     0
  9
$DIMALTTZ
 70
     0
  9
$DIMUPT
 70
     0
  9
$DIMDEC
 70
     3
  9
$DIMTDEC
 70
     3
  9
$DIMALTU
 70
     2
  9
$DIMALTTD
 70
     2
  9
$DIMTXSTY
  7
STANDARD
  9
$DIMAUNIT
 70
     0
  9
$DIMADEC
 70
     0
  9
$DIMALTRND
 40
0.0
  9
$DIMAZIN
 70
     0
  9
$DIMDSEP
 70
    46
  9
$DIMATFIT
 70
     0
  9
$DIMFRAC
 70
     0
  9
$DIMLDRBLK
  1

  9
$DIMLUNIT
 70
     2
  9
$DIMLWD
 70
    -2
  9
$DIMLWE
 70
    -2
  9
$DIMTMOVE
 70
     0
  9
$DIMFXL
 40
1.0
  9
$DIMFXLON
 70
     0
  9
$DIMJOGANG
 40
0.7853981633974483
  9
$DIMTFILL
 70
     0
  9
$DIMTFILLCLR
 70
     0
  9
$DIMARCSYM
 70
     0
  9
$DIMLTYPE
  6

  9
$DIMLTEX1
  6

  9
$DIMLTEX2
  6

  9
$DIMTXTDIRECTION
 70
     0
  9
$LUNITS
 70
     2
  9
$LUPREC
 70
     4
  9
$SKETCHINC
 40
0.1
  9
$FILLETRAD
 40
0.0
  9
$AUNITS
 70
     0
  9
$AUPREC
 70
     0
  9
$MENU
  1
.
  9
$ELEVATION
 40
0.0
  9
$PELEVATION
 40
0.0
  9
$THICKNESS
 40
0.0
  9
$LIMCHECK
 70
     0
  9
$CHAMFERA
 40
0.0
  9
$CHAMFERB
 40
0.0
  9
$CHAMFERC
 40
0.0
  9
$CHAMFERD
 40
0.0
  9
$SKPOLY
 70
     0
  9
$TDCREATE
 40
2458446.405227107
  9
$TDUCREATE
 40
2458446.321893773
  9
$TDUPDATE
 40
2458978.367201991
  9
$TDUUPDATE
 40
2458978.283868658
  9
$TDINDWG
 40
0.0287971528
  9
$TDUSRTIMER
 40
0.0287960995
  9
$USRTIMER
 70
     1
  9
$ANGBASE
 50
0.0
  9
$ANGDIR
 70
     0
  9
$PDMODE
 70
     3
  9
$PDSIZE
 40
0.3125
  9
$PLINEWID
 40
0.0
  9
$SPLFRAME
 70
     0
  9
$SPLINETYPE
 70
     6
  9
$SPLINESEGS
 70
     8
  9
$HANDSEED
  5
2210A
  9
$SURFTAB1
 70
     6
  9
$SURFTAB2
 70
     6
  9
$SURFTYPE
 70
     6
  9
$SURFU
 70
     6
  9
$SURFV
 70
     6
  9
$UCSBASE
  2

  9
$UCSNAME
  2

  9
$UCSORG
 10
0.0
 20
0.0
 30
0.0
  9
$UCSXDIR
 10
1.0
 20
0.0
 30
0.0
  9
$UCSYDIR
 10
0.0
 20
1.0
 30
0.0
  9
$UCSORTHOREF
  2

  9
$UCSORTHOVIEW
 70
     0
  9
$UCSORGTOP
 10
0.0
 20
0.0
 30
0.0
  9
$UCSORGBOTTOM
 10
0.0
 20
0.0
 30
0.0
  9
$UCSORGLEFT
 10
0.0
 20
0.0
 30
0.0
  9
$UCSORGRIGHT
 10
0.0
 20
0.0
 30
0.0
  9
$UCSORGFRONT
 10
0.0
 20
0.0
 30
0.0
  9
$UCSORGBACK
 10
0.0
 20
0.0
 30
0.0
  9
$PUCSBASE
  2

  9
$PUCSNAME
  2

  9
$PUCSORG
 10
0.0
 20
0.0
 30
0.0
  9
$PUCSXDIR
 10
1.0
 20
0.0
 30
0.0
  9
$PUCSYDIR
 10
0.0
 20
1.0
 30
0.0
  9
$PUCSORTHOREF
  2

  9
$PUCSORTHOVIEW
 70
     0
  9
$PUCSORGTOP
 10
0.0
 20
0.0
 30
0.0
  9
$PUCSORGBOTTOM
 10
0.0
 20
0.0
 30
0.0
  9
$PUCSORGLEFT
 10
0.0
 20
0.0
 30
0.0
  9
$PUCSORGRIGHT
 10
0.0
 20
0.0
 30
0.0
  9
$PUCSORGFRONT
 10
0.0
 20
0.0
 30
0.0
  9
$PUCSORGBACK
 10
0.0
 20
0.0
 30
0.0
  9
$USERI1
 70
     0
  9
$USERI2
 70
     0
  9
$USERI3
 70
     0
  9
$USERI4
 70
     0
  9
$USERI5
 70
     0
  9
$USERR1
 40
0.0
  9
$USERR2
 40
0.0
  9
$USERR3
 40
0.0
  9
$USERR4
 40
0.0
  9
$USERR5
 40
0.0
  9
$WORLDVIEW
 70
     1
  9
$SHADEDGE
 70
     3
  9
$SHADEDIF
 70
    70
  9
$TILEMODE
 70
     1
  9
$MAXACTVP
 70
    64
  9
$PINSBASE
 10
0.0
 20
0.0
 30
0.0
  9
$PLIMCHECK
 70
     0
  9
$PEXTMIN
 10
28.69141678810127
 20
19.6363175392151
 30
0.0
  9
$PEXTMAX
 10
258.2227510929107
 20
176.7268578529358
 30
0.0
  9
$PLIMMIN
 10
-5.027069091796875
 20
-6.805083274841307
  9
$PLIMMAX
 10
291.9412536621094
 20
203.1682443618775
  9
$UNITMODE
 70
     0
  9
$VISRETAIN
 70
     1
  9
$PLINEGEN
 70
     0
  9
$PSLTSCALE
 70
     1
  9
$TREEDEPTH
 70
  3020
  9
$CMLSTYLE
  2
STANDARD
  9
$CMLJUST
 70
     0
  9
$CMLSCALE
 40
1.0
  9
$PROXYGRAPHICS
 70
     1
  9
$MEASUREMENT
 70
     1
  9
$CELWEIGHT
370
    -1
  9
$ENDCAPS
280
     0
  9
$JOINSTYLE
280
     0
  9
$LWDISPLAY
290
     0
  9
$INSUNITS
 70
     0
  9
$HYPERLINKBASE
  1

  9
$STYLESHEET
  1
A1-A2.CTB
  9
$XEDIT
290
     1
  9
$CEPSNTYPE
380
     0
  9
$PSTYLEMODE
290
     1
  9
$FINGERPRINTGUID
  2
{6D3BC7B5-ACA7-406D-8A0D-A7DBBE093430}
  9
$VERSIONGUID
  2
{52F3FBFC-9E85-4D27-9349-A31E5B6FF4A2}
  9
$EXTNAMES
290
     1
  9
$PSVPSCALE
 40
0.0
  9
$OLESTARTUP
290
     0
  9
$SORTENTS
280
   127
  9
$INDEXCTL
280
     0
  9
$HIDETEXT
280
     0
  9
$XCLIPFRAME
280
     2
  9
$HALOGAP
280
     0
  9
$OBSCOLOR
 70
   257
  9
$OBSLTYPE
280
     0
  9
$INTERSECTIONDISPLAY
280
     0
  9
$INTERSECTIONCOLOR
 70
   257
  9
$DIMASSOC
280
     1
  9
$PROJECTNAME
  1

  9
$CAMERADISPLAY
290
     0
  9
$LENSLENGTH
 40
50.0
  9
$CAMERAHEIGHT
 40
0.0
  9
$STEPSPERSEC
 40
2.0
  9
$STEPSIZE
 40
6.0
  9
$3DDWFPREC
 40
2.0
  9
$PSOLWIDTH
 40
0.25
  9
$PSOLHEIGHT
 40
4.0
  9
$LOFTANG1
 40
1.570796326794896
  9
$LOFTANG2
 40
1.570796326794896
  9
$LOFTMAG1
 40
0.0
  9
$LOFTMAG2
 40
0.0
  9
$LOFTPARAM
 70
     7
  9
$LOFTNORMALS
280
     1
  9
$LATITUDE
 40
37.795
  9
$LONGITUDE
 40
-122.394
  9
$NORTHDIRECTION
 40
0.0
  9
$TIMEZONE
 70
 -8000
  9
$LIGHTGLYPHDISPLAY
280
     1
  9
$TILEMODELIGHTSYNCH
280
     1
  9
$CMATERIAL
347
318C
  9
$SOLIDHIST
280
     0
  9
$SHOWHIST
280
     1
  9
$DWFFRAME
280
     2
  9
$DGNFRAME
280
     0
  9
$REALWORLDSCALE
290
     1
  9
$INTERFERECOLOR
 62
     1
  9
$INTERFEREOBJVS
345
3199
  9
$INTERFEREVPVS
346
1B2E3
  9
$CSHADOW
280
     0
  9
$SHADOWPLANELOCATION
 40
0.0
  0
ENDSEC
  0
SECTION
  2
CLASSES
  0
CLASS
  1
ACDBDICTIONARYWDFLT
  2
AcDbDictionaryWithDefault
  3
ObjectDBX Classes
 90
        0
 91
        1
280
     0
281
     0
  0
CLASS
  1
MATERIAL
  2
AcDbMaterial
  3
ObjectDBX Classes
 90
     1153
 91
        3
280
     0
281
     0
  0
CLASS
  1
VISUALSTYLE
  2
AcDbVisualStyle
  3
ObjectDBX Classes
 90
     4095
 91
       26
280
     0
281
     0
  0
CLASS
  1
TABLESTYLE
  2
AcDbTableStyle
  3
ObjectDBX Classes
 90
     4095
 91
        1
280
     0
281
     0
  0
CLASS
  1
SORTENTSTABLE
  2
AcDbSortentsTable
  3
ObjectDBX Classes
 90
        0
 91
        2
280
     0
281
     0
  0
CLASS
  1
DICTIONARYVAR
  2
AcDbDictionaryVar
  3
ObjectDBX Classes
 90
        0
 91
       13
280
     0
281
     0
  0
CLASS
  1
EXACXREFPANELOBJECT
  2
ExAcXREFPanelObject
  3
EXAC_ESW
 90
     1025
 91
        0
280
     1
281
     0
  0
CLASS
  1
NPOCOLLECTION
  2
AcDbImpNonPersistentObjectsCollection
  3
ObjectDBX Classes
 90
     1153
 91
        0
280
     1
281
     0
  0
CLASS
  1
SCALE
  2
AcDbScale
  3
ObjectDBX Classes
 90
     1153
 91
       33
280
     0
281
     0
  0
CLASS
  1
MLEADERSTYLE
  2
AcDbMLeaderStyle
  3
ACDB_MLEADERSTYLE_CLASS
 90
     4095
 91
        1
280
     0
281
     0
  0
CLASS
  1
ACDBSECTIONVIEWSTYLE
  2
AcDbSectionViewStyle
  3
ObjectDBX Classes
 90
     1025
 91
        2
280
     0
281
     0
  0
CLASS
  1
ACDBDETAILVIEWSTYLE
  2
AcDbDetailViewStyle
  3
ObjectDBX Classes
 90
     1025
 91
        2
280
     0
281
     0
  0
CLASS
  1
CELLSTYLEMAP
  2
AcDbCellStyleMap
  3
ObjectDBX Classes
 90
     1152
 91
        2
280
     0
281
     0
  0
CLASS
  1
ACAD_EVALUATION_GRAPH
  2
AcDbEvalGraph
  3
ObjectDBX Classes
 90
     1153
 91
        0
280
     0
281
     0
  0
CLASS
  1
ACAECUSTOBJ
  2
AcAeEditorObj
  3
AcAeEditorObj
 90
     1024
 91
        0
280
     0
281
     0
  0
CLASS
  1
ACDB_DYNAMICBLOCKPURGEPREVENTER_VERSION
  2
AcDbDynamicBlockPurgePreventer
  3
ObjectDBX Classes
 90
     1153
 91
        0
280
     0
281
     0
  0
CLASS
  1
FIELD
  2
AcDbField
  3
ObjectDBX Classes
 90
     1152
 91
        0
280
     0
281
     0
  0
CLASS
  1
FIELDLIST
  2
AcDbFieldList
  3
ObjectDBX Classes
 90
     1152
 91
        1
280
     0
281
     0
  0
CLASS
  1
ACDB_ALDIMOBJECTCONTEXTDATA_CLASS
  2
AcDbAlignedDimensionObjectContextData
  3
ObjectDBX Classes
 90
     1153
 91
        0
280
     0
281
     0
  0
ENDSEC
  0
SECTION
  2
TABLES
  0
TABLE
  2
VPORT
  5
8
330
0
100
AcDbSymbolTable
 70
     1
  0
VPORT
  5
1F4
330
8
100
AcDbSymbolTableRecord
100
AcDbViewportTableRecord
  2
*ACTIVE
 70
     0
 10
0.0
 20
0.0
 11
1.0
 21
1.0
 12
-21.43348828731045
 22
2.479312461670929
 13
0.0
 23
0.0
 14
1.0
 24
1.0
 15
0.0
 25
0.0
 16
0.0
 26
0.0
 36
1.0
 17
0.0
 27
0.0
 37
0.0
 40
123.8192210455614
 41
2.698140200286123
 42
50.0
 43
0.0
 44
0.0
 50
0.0
 51
0.0
 71
     0
 72
  2000
 73
     1
 74
     1
 75
     0
 76
     0
 77
     0
 78
     0
281
     0
 65
     1
110
0.0
120
0.0
130
0.0
111
1.0
121
0.0
131
0.0
112
0.0
122
1.0
132
0.0
 79
     0
146
0.0
348
3195
 60
     3
 61
     5
292
     1
282
     1
141
0.0
142
0.0
 63
   250
421
  3355443
1001
ACAD_NAV_VCDISPLAY
1070
     3
  0
ENDTAB
  0
TABLE
  2
LTYPE
  5
5
330
0
100
AcDbSymbolTable
 70
     6
  0
LTYPE
  5
14
330
5
100
AcDbSymbolTableRecord
100
AcDbLinetypeTableRecord
  2
BYBLOCK
 70
     0
  3

 72
    65
 73
     0
 40
0.0
  0
LTYPE
  5
15
330
5
100
AcDbSymbolTableRecord
100
AcDbLinetypeTableRecord
  2
BYLAYER
 70
     0
  3

 72
    65
 73
     0
 40
0.0
  0
LTYPE
  5
16
330
5
100
AcDbSymbolTableRecord
100
AcDbLinetypeTableRecord
  2
CONTINUOUS
 70
     0
  3
Solid line
 72
    65
 73
     0
 40
0.0
  0
LTYPE
  5
9C48
330
5
100
AcDbSymbolTableRecord
100
AcDbLinetypeTableRecord
  2
CENTER
 70
     0
  3
____ _ ____ _ ____ _ ____ _ ____ _ ____ _ ____
 72
    65
 73
     4
 40
0.6
 49
0.375
 74
     0
 49
-0.075
 74
     0
 49
0.075
 74
     0
 49
-0.075
 74
     0
  0
LTYPE
  5
20A82
330
5
100
AcDbSymbolTableRecord
100
AcDbLinetypeTableRecord
  2
HIDDEN
 70
     0
  3
- - - - - - - - - - - - - - - - - - - -
 72
    65
 73
     2
 40
0.2
 49
0.1
 74
     0
 49
-0.1
 74
     0
  0
LTYPE
  5
21CB3
330
5
100
AcDbSymbolTableRecord
100
AcDbLinetypeTableRecord
  2
CENTER2
 70
     0
  3
Center (.5x) ___ _ ___ _ ___ _ ___ _ ___ _ ___
 72
    65
 73
     4
 40
28.57499999999999
 49
19.05
 74
     4
 75
     0
340
0
 46
1.0
 50
0.0
 44
0.0
 45
0.0
 49
-3.174999999999998
 74
     4
 75
     0
340
0
 46
1.0
 50
0.0
 44
0.0
 45
0.0
 49
3.174999999999998
 74
     4
 75
     0
340
0
 46
1.0
 50
0.0
 44
0.0
 45
0.0
 49
-3.174999999999998
 74
     4
 75
     0
340
0
 46
1.0
 50
0.0
 44
0.0
 45
0.0
  0
ENDTAB
  0
TABLE
  2
LAYER
  5
2
102
{ACAD_XDICTIONARY
360
422A
102
}
330
0
100
AcDbSymbolTable
 70
    16
  0
LAYER
  5
10
102
{ACAD_XDICTIONARY
360
1B2F5
102
}
330
2
100
AcDbSymbolTableRecord
100
AcDbLayerTableRecord
  2
0
 70
     0
 62
     7
  6
CONTINUOUS
370
    -3
390
318A
347
318E
  0
LAYER
  5
3F8C
102
{ACAD_XDICTIONARY
360
1B2F7
102
}
330
2
100
AcDbSymbolTableRecord
100
AcDbLayerTableRecord
  2
1
 70
     0
 62
     4
  6
BYBLOCK
370
    50
390
318A
347
318E
  0
LAYER
  5
3FA7
330
2
100
AcDbSymbolTableRecord
100
AcDbLayerTableRecord
  2
Defpoints
 70
     0
 62
     7
  6
CONTINUOUS
290
     0
370
    -3
390
318A
347
318E
  0
LAYER
  5
9C4A
102
{ACAD_XDICTIONARY
360
1B2F9
102
}
330
2
100
AcDbSymbolTableRecord
100
AcDbLayerTableRecord
  2
2
 70
     0
 62
     7
  6
BYBLOCK
370
    25
390
318A
347
318E
  0
LAYER
  5
9C4B
102
{ACAD_XDICTIONARY
360
1B2FB
102
}
330
2
100
AcDbSymbolTableRecord
100
AcDbLayerTableRecord
  2
4
 70
     0
 62
     2
  6
CENTER
370
    25
390
318A
347
318E
  0
LAYER
  5
9C4D
102
{ACAD_XDICTIONARY
360
1B2FD
102
}
330
2
100
AcDbSymbolTableRecord
100
AcDbLayerTableRecord
  2
CUT
 70
     0
 62
     1
  6
BYBLOCK
370
    25
390
318A
347
318E
  0
LAYER
  5
9C4E
102
{ACAD_XDICTIONARY
360
1B2FF
102
}
330
2
100
AcDbSymbolTableRecord
100
AcDbLayerTableRecord
  2
NOCUT
 70
     0
 62
     7
  6
BYBLOCK
370
    25
390
318A
347
318E
  0
LAYER
  5
9C4F
102
{ACAD_XDICTIONARY
360
1B301
102
}
330
2
100
AcDbSymbolTableRecord
100
AcDbLayerTableRecord
  2
SK2
 70
     0
 62
     7
  6
BYBLOCK
370
    25
390
318A
347
318E
  0
LAYER
  5
9C50
102
{ACAD_XDICTIONARY
360
1B303
102
}
330
2
100
AcDbSymbolTableRecord
100
AcDbLayerTableRecord
  2
SK1
 70
     0
 62
     4
  6
BYBLOCK
370
    50
390
318A
347
318E
  0
LAYER
  5
9C51
102
{ACAD_XDICTIONARY
360
1B305
102
}
330
2
100
AcDbSymbolTableRecord
100
AcDbLayerTableRecord
  2
SK4
 70
     0
 62
     2
  6
CENTER
370
    25
390
318A
347
318E
  0
LAYER
  5
13335
102
{ACAD_XDICTIONARY
360
1B307
102
}
330
2
100
AcDbSymbolTableRecord
100
AcDbLayerTableRecord
  2
INFTOTAL
 70
     0
 62
     9
  6
BYBLOCK
370
    18
390
318A
347
318E
1001
AcAecLayerStandard
1000

1000

  0
LAYER
  5
1686E
102
{ACAD_XDICTIONARY
360
1B309
102
}
330
2
100
AcDbSymbolTableRecord
100
AcDbLayerTableRecord
  2
SK6
 70
     0
 62
     5
  6
BYBLOCK
370
    -3
390
318A
347
318E
  0
LAYER
  5
21CB4
330
2
100
AcDbSymbolTableRecord
100
AcDbLayerTableRecord
  2
SK3
 70
     0
 62
     1
  6
HIDDEN
370
    35
390
318A
347
318E
  0
LAYER
  5
21CB5
330
2
100
AcDbSymbolTableRecord
100
AcDbLayerTableRecord
  2
SKVIEW1
 70
     0
 62
     4
  6
CONTINUOUS
370
    50
390
318A
347
318E
1001
AcAecLayerStandard
1000

1000

  0
LAYER
  5
21CB6
330
2
100
AcDbSymbolTableRecord
100
AcDbLayerTableRecord
  2
SKVIEW4
 70
     0
 62
     2
  6
CENTER2
370
    25
390
318A
347
318E
1001
AcAecLayerStandard
1000

1000

  0
ENDTAB
  0
TABLE
  2
STYLE
  5
3
330
0
100
AcDbSymbolTable
 70
     2
  0
STYLE
  5
11
330
3
100
AcDbSymbolTableRecord
100
AcDbTextStyleTableRecord
  2
STANDARD
 70
     0
 40
3.5
 41
0.8
 50
0.0
 71
     0
 42
3.5
  3
monos.ttf
  4

1001
ACAD
1000
Monospac821 BT
1071
       49
  0
ENDTAB
  0
TABLE
  2
VIEW
  5
6
330
0
100
AcDbSymbolTable
 70
     0
  0
ENDTAB
  0
TABLE
  2
UCS
  5
7
330
0
100
AcDbSymbolTable
 70
     0
  0
ENDTAB
  0
TABLE
  2
APPID
  5
9
330
0
100
AcDbSymbolTable
 70
    19
  0
APPID
  5
23B
330
9
100
AcDbSymbolTableRecord
100
AcDbRegAppTableRecord
  2
ACAD
 70
     0
  0
APPID
  5
3395
330
9
100
AcDbSymbolTableRecord
100
AcDbRegAppTableRecord
  2
ACAD_EXEMPT_FROM_CAD_STANDARDS
 70
     0
  0
APPID
  5
4229
330
9
100
AcDbSymbolTableRecord
100
AcDbRegAppTableRecord
  2
AcAecLayerStandard
 70
     0
  0
APPID
  5
9A1B
330
9
100
AcDbSymbolTableRecord
100
AcDbRegAppTableRecord
  2
ACAD_PSEXT
 70
     0
  0
APPID
  5
1B313
330
9
100
AcDbSymbolTableRecord
100
AcDbRegAppTableRecord
  2
ACAD_NAV_VCDISPLAY
 70
     0
  0
APPID
  5
1B355
330
9
100
AcDbSymbolTableRecord
100
AcDbRegAppTableRecord
  2
ACAD_MLEADERVER
 70
     0
  0
APPID
  5
1EC7F
330
9
100
AcDbSymbolTableRecord
100
AcDbRegAppTableRecord
  2
ACAUTHENVIRON
 70
     0
  0
APPID
  5
1EC82
330
9
100
AcDbSymbolTableRecord
100
AcDbRegAppTableRecord
  2
AcDbDynamicBlockTrueName
 70
     0
  0
APPID
  5
1EC83
330
9
100
AcDbSymbolTableRecord
100
AcDbRegAppTableRecord
  2
AcDbDynamicBlockGUID
 70
     0
  0
APPID
  5
20A85
330
9
100
AcDbSymbolTableRecord
100
AcDbRegAppTableRecord
  2
AcCmTransparency
 70
     0
  0
APPID
  5
20AE2
330
9
100
AcDbSymbolTableRecord
100
AcDbRegAppTableRecord
  2
ACAD_DSTYLE_DIMRADIAL_EXTENSION
 70
     0
  0
APPID
  5
20CB0
330
9
100
AcDbSymbolTableRecord
100
AcDbRegAppTableRecord
  2
AcadAnnotative
 70
     0
  0
APPID
  5
21667
330
9
100
AcDbSymbolTableRecord
100
AcDbRegAppTableRecord
  2
AcadAnnoMonitorAlertIconDisabled
 70
     0
  0
APPID
  5
21CB9
330
9
100
AcDbSymbolTableRecord
100
AcDbRegAppTableRecord
  2
ACAD_DSTYLE_DIMJAG
 70
     0
  0
APPID
  5
21CBA
330
9
100
AcDbSymbolTableRecord
100
AcDbRegAppTableRecord
  2
ACAD_DSTYLE_DIMTALN
 70
     0
  0
APPID
  5
21CBB
330
9
100
AcDbSymbolTableRecord
100
AcDbRegAppTableRecord
  2
ACAD_DSTYLE_DIM_LINETYPE
 70
     0
  0
APPID
  5
21CBC
330
9
100
AcDbSymbolTableRecord
100
AcDbRegAppTableRecord
  2
ACAD_DSTYLE_DIM_EXT1_LINETYPE
 70
     0
  0
APPID
  5
21CBD
330
9
100
AcDbSymbolTableRecord
100
AcDbRegAppTableRecord
  2
ACAD_DSTYLE_DIM_EXT2_LINETYPE
 70
     0
  0
APPID
  5
21CBE
330
9
100
AcDbSymbolTableRecord
100
AcDbRegAppTableRecord
  2
ACAD_DSTYLE_DIMARC_LENGTH_SYMBOL
 70
     0
  0
ENDTAB
  0
TABLE
  2
DIMSTYLE
  5
A
330
0
100
AcDbSymbolTable
 70
     3
100
AcDbDimStyleTable
 71
     1
340
243
  0
DIMSTYLE
105
243
102
{ACAD_REACTORS
330
21DEB
330
21DE8
330
21DEA
330
21DE9
330
21EFA
102
}
330
A
100
AcDbSymbolTableRecord
100
AcDbDimStyleTableRecord
  2
STANDARD
 70
     0
 41
4.57
 47
0.01
 48
0.01
 73
     0
 74
     0
 77
     1
 78
     8
140
3.5
271
     3
272
     3
284
     8
289
     0
340
11
  0
ENDTAB
  0
TABLE
  2
BLOCK_RECORD
  5
1
330
0
100
AcDbSymbolTable
 70
    18
  0
BLOCK_RECORD
  5
1F
102
{ACAD_XDICTIONARY
360
339C
102
}
330
1
100
AcDbSymbolTableRecord
100
AcDbBlockTableRecord
  2
*MODEL_SPACE
340
31A6
 70
     0
280
     1
281
     0
  0
BLOCK_RECORD
  5
1B
330
1
100
AcDbSymbolTableRecord
100
AcDbBlockTableRecord
  2
*PAPER_SPACE
340
31A7
 70
     0
280
     1
281
     0
  0
BLOCK_RECORD
  5
1B3D7
102
{ACAD_XDICTIONARY
360
1DE81
102
}
330
1
100
AcDbSymbolTableRecord
100
AcDbBlockTableRecord
  2
cero_point
340
0
310
28000000200000002000000001002000000000000010000001000000010000000000000000000000302821FF302821FF302821FF302821FF302821FF302821FF302821FF302821FF302821FF302821FF302821FF302821FF302821FF302821FF302821FF302821FF302821FF302821FF302821FF302821FF302821FF302821
310
FF302821FF302821FF302821FF302821FF302821FF302821FF302821FF302821FF302821FF302821FF302821FF302821FF302821FF302821FF302821FF302821FF302821FF302821FF302821FF302821FF302821FF302821FF302821FF302821FF302821FFFFFF00FFFFFF00FFFFFF00FF302821FF302821FF302821FF3028
310
21FF302821FF302821FF302821FF302821FF302821FF302821FF302821FF302821FF302821FF302821FF302821FF302821FF302821FF302821FF302821FF302821FF302821FF302821FF302821FF302821FFFFFF00FFFFFF00FFFFFF00FFFFFF00FFFFFF00FFFFFF00FFFFFF00FF302821FFFFFF00FFFFFF00FFFFFF00FF30
310
2821FF302821FF302821FF302821FF302821FF302821FF302821FF302821FF302821FF302821FF302821FF302821FF302821FF302821FF302821FF302821FF302821FF302821FF302821FFFFFF00FFFFFF00FFFFFF00FFFFFF00FFFFFF00FFFFFF00FFFFFF00FFFFFF00FFFFFF00FF302821FF302821FF302821FF302821FF
310
FFFF00FFFFFF00FF302821FF302821FF302821FF302821FF302821FF302821FF302821FF302821FF302821FF302821FF302821FF302821FF302821FF302821FF302821FF302821FFFFFF00FFFFFF00FFFFFF00FFFFFF00FFFFFF00FFFFFF00FFFFFF00FFFFFF00FFFFFF00FFFFFF00FF302821FF302821FF302821FF302821
310
FF302821FF302821FFFFFF00FFFFFF00FF302821FF302821FF302821FF302821FF302821FF302821FF302821FF302821FF302821FF302821FF302821FF302821FF302821FFFFFF00FFFFFF00FFFFFF00FFFFFF00FFFFFF00FFFFFF00FFFFFF00FFFFFF00FFFFFF00FFFFFF00FFFFFF00FF302821FF302821FF302821FF3028
310
21FF302821FF302821FF302821FF302821FFFFFF00FF302821FF302821FF302821FF302821FF302821FF302821FF302821FF302821FF302821FF302821FF302821FFFFFF00FFFFFF00FFFFFF00FFFFFF00FFFFFF00FFFFFF00FFFFFF00FFFFFF00FFFFFF00FFFFFF00FFFFFF00FFFFFF00FF302821FF302821FF302821FF30
310
2821FF302821FF302821FF302821FF302821FF302821FFFFFF00FF302821FF302821FF302821FF302821FF302821FF302821FF302821FF302821FF302821FFFFFF00FFFFFF00FFFFFF00FFFFFF00FFFFFF00FFFFFF00FFFFFF00FFFFFF00FFFFFF00FFFFFF00FFFFFF00FFFFFF00FFFFFF00FF302821FF302821FF302821FF
310
302821FF302821FF302821FF302821FF302821FF302821FF302821FFFFFF00FF302821FF302821FF302821FF302821FF302821FF302821FF302821FFFFFF00FFFFFF00FFFFFF00FFFFFF00FFFFFF00FFFFFF00FFFFFF00FFFFFF00FFFFFF00FFFFFF00FFFFFF00FFFFFF00FFFFFF00FFFFFF00FF302821FF302821FF302821
310
FF302821FF302821FF302821FF302821FF302821FF302821FF302821FFFFFF00FF302821FF302821FF302821FF302821FF302821FF302821FF302821FFFFFF00FFFFFF00FFFFFF00FFFFFF00FFFFFF00FFFFFF00FFFFFF00FFFFFF00FFFFFF00FFFFFF00FFFFFF00FFFFFF00FFFFFF00FFFFFF00FF302821FF302821FF3028
310
21FF302821FF302821FF302821FF302821FF302821FF302821FF302821FF302821FFFFFF00FF302821FF302821FF302821FF302821FF302821FFFFFF00FFFFFF00FFFFFF00FFFFFF00FFFFFF00FFFFFF00FFFFFF00FFFFFF00FFFFFF00FFFFFF00FFFFFF00FFFFFF00FFFFFF00FFFFFF00FFFFFF00FF302821FF302821FF30
310
2821FF302821FF302821FF302821FF302821FF302821FF302821FF302821FF302821FF302821FFFFFF00FF302821FF302821FF302821FF302821FFFFFF00FFFFFF00FFFFFF00FFFFFF00FFFFFF00FFFFFF00FFFFFF00FFFFFF00FFFFFF00FFFFFF00FFFFFF00FFFFFF00FFFFFF00FFFFFF00FFFFFF00FF302821FF302821FF
310
302821FF302821FF302821FF302821FF302821FF302821FF302821FF302821FF302821FF302821FFFFFF00FF302821FF302821FF302821FF302821FFFFFF00FFFFFF00FFFFFF00FFFFFF00FFFFFF00FFFFFF00FFFFFF00FFFFFF00FFFFFF00FFFFFF00FFFFFF00FFFFFF00FFFFFF00FFFFFF00FFFFFF00FF302821FF302821
310
FF302821FF302821FF302821FF302821FF302821FF302821FF302821FF302821FF302821FF302821FFFFFF00FF302821FF302821FF302821FF302821FFFFFF00FFFFFF00FFFFFF00FFFFFF00FFFFFF00FFFFFF00FFFFFF00FFFFFF00FFFFFF00FFFFFF00FFFFFF00FFFFFF00FFFFFF00FFFFFF00FFFFFF00FF302821FF3028
310
21FF302821FF302821FF302821FF302821FF302821FF302821FF302821FF302821FF302821FF302821FFFFFF00FF302821FF302821FF302821FFFFFF00FFFFFF00FFFFFF00FFFFFF00FFFFFF00FFFFFF00FFFFFF00FFFFFF00FFFFFF00FFFFFF00FFFFFF00FFFFFF00FFFFFF00FFFFFF00FFFFFF00FFFFFF00FF302821FF30
310
2821FF302821FF302821FF302821FF302821FF302821FF302821FF302821FF302821FF302821FF302821FF302821FFFFFF00FF302821FF302821FFFFFF00FFFFFF00FFFFFF00FFFFFF00FFFFFF00FFFFFF00FFFFFF00FFFFFF00FFFFFF00FFFFFF00FFFFFF00FFFFFF00FFFFFF00FFFFFF00FFFFFF00FFFFFF00FFFFFF00FF
310
FFFF00FFFFFF00FFFFFF00FFFFFF00FFFFFF00FFFFFF00FFFFFF00FFFFFF00FFFFFF00FFFFFF00FFFFFF00FFFFFF00FFFFFF00FF302821FF302821FFFFFF00FF302821FF302821FF302821FF302821FF302821FF302821FF302821FF302821FF302821FF302821FF302821FF302821FF302821FF302821FFFFFF00FFFFFF00
310
FFFFFF00FFFFFF00FFFFFF00FFFFFF00FFFFFF00FFFFFF00FFFFFF00FFFFFF00FFFFFF00FFFFFF00FFFFFF00FFFFFF00FFFFFF00FF302821FF302821FFFFFF00FF302821FF302821FF302821FF302821FF302821FF302821FF302821FF302821FF302821FF302821FF302821FF302821FF302821FF302821FFFFFF00FFFFFF
310
00FFFFFF00FFFFFF00FFFFFF00FFFFFF00FFFFFF00FFFFFF00FFFFFF00FFFFFF00FFFFFF00FFFFFF00FFFFFF00FFFFFF00FF302821FF302821FF302821FF302821FFFFFF00FF302821FF302821FF302821FF302821FF302821FF302821FF302821FF302821FF302821FF302821FF302821FF302821FF302821FFFFFF00FFFF
310
FF00FFFFFF00FFFFFF00FFFFFF00FFFFFF00FFFFFF00FFFFFF00FFFFFF00FFFFFF00FFFFFF00FFFFFF00FFFFFF00FFFFFF00FF302821FF302821FF302821FF302821FFFFFF00FF302821FF302821FF302821FF302821FF302821FF302821FF302821FF302821FF302821FF302821FF302821FF302821FF302821FFFFFF00FF
310
FFFF00FFFFFF00FFFFFF00FFFFFF00FFFFFF00FFFFFF00FFFFFF00FFFFFF00FFFFFF00FFFFFF00FFFFFF00FFFFFF00FFFFFF00FF302821FF302821FF302821FF302821FFFFFF00FF302821FF302821FF302821FF302821FF302821FF302821FF302821FF302821FF302821FF302821FF302821FF302821FF302821FFFFFF00
310
FFFFFF00FFFFFF00FFFFFF00FFFFFF00FFFFFF00FFFFFF00FFFFFF00FFFFFF00FFFFFF00FFFFFF00FFFFFF00FFFFFF00FFFFFF00FF302821FF302821FF302821FF302821FF302821FFFFFF00FF302821FF302821FF302821FF302821FF302821FF302821FF302821FF302821FF302821FF302821FF302821FF302821FFFFFF
310
00FFFFFF00FFFFFF00FFFFFF00FFFFFF00FFFFFF00FFFFFF00FFFFFF00FFFFFF00FFFFFF00FFFFFF00FFFFFF00FFFFFF00FFFFFF00FF302821FF302821FF302821FF302821FF302821FFFFFF00FF302821FF302821FF302821FF302821FF302821FF302821FF302821FF302821FF302821FF302821FF302821FF302821FFFF
310
FF00FFFFFF00FFFFFF00FFFFFF00FFFFFF00FFFFFF00FFFFFF00FFFFFF00FFFFFF00FFFFFF00FFFFFF00FFFFFF00FFFFFF00FF302821FF302821FF302821FF302821FF302821FF302821FF302821FFFFFF00FF302821FF302821FF302821FF302821FF302821FF302821FF302821FF302821FF302821FF302821FF302821FF
310
FFFF00FFFFFF00FFFFFF00FFFFFF00FFFFFF00FFFFFF00FFFFFF00FFFFFF00FFFFFF00FFFFFF00FFFFFF00FFFFFF00FFFFFF00FF302821FF302821FF302821FF302821FF302821FF302821FF302821FFFFFF00FF302821FF302821FF302821FF302821FF302821FF302821FF302821FF302821FF302821FF302821FF302821
310
FFFFFF00FFFFFF00FFFFFF00FFFFFF00FFFFFF00FFFFFF00FFFFFF00FFFFFF00FFFFFF00FFFFFF00FFFFFF00FFFFFF00FF302821FF302821FF302821FF302821FF302821FF302821FF302821FF302821FF302821FFFFFF00FF302821FF302821FF302821FF302821FF302821FF302821FF302821FF302821FF302821FF3028
310
21FFFFFF00FFFFFF00FFFFFF00FFFFFF00FFFFFF00FFFFFF00FFFFFF00FFFFFF00FFFFFF00FFFFFF00FFFFFF00FF302821FF302821FF302821FF302821FF302821FF302821FF302821FF302821FF302821FF302821FF302821FFFFFF00FF302821FF302821FF302821FF302821FF302821FF302821FF302821FF302821FF30
310
2821FFFFFF00FFFFFF00FFFFFF00FFFFFF00FFFFFF00FFFFFF00FFFFFF00FFFFFF00FFFFFF00FFFFFF00FF302821FF302821FF302821FF302821FF302821FF302821FF302821FF302821FF302821FF302821FF302821FF302821FF302821FFFFFF00FF302821FF302821FF302821FF302821FF302821FF302821FF302821FF
310
302821FFFFFF00FFFFFF00FFFFFF00FFFFFF00FFFFFF00FFFFFF00FFFFFF00FFFFFF00FFFFFF00FF302821FF302821FF302821FF302821FF302821FF302821FF302821FF302821FF302821FF302821FF302821FF302821FF302821FF302821FF302821FFFFFF00FFFFFF00FF302821FF302821FF302821FF302821FF302821
310
FF302821FFFFFF00FFFFFF00FFFFFF00FFFFFF00FFFFFF00FFFFFF00FFFFFF00FFFFFF00FF302821FF302821FF302821FF302821FF302821FF302821FF302821FF302821FF302821FF302821FF302821FF302821FF302821FF302821FF302821FF302821FF302821FF302821FFFFFF00FFFFFF00FFFFFF00FFFFFF00FFFFFF
310
00FF302821FFFFFF00FFFFFF00FFFFFF00FFFFFF00FFFFFF00FFFFFF00FF302821FF302821FF302821FF302821FF302821FF302821FF302821FF302821FF302821FF302821FF302821FF302821FF302821FF302821FF302821FF302821FF302821FF302821FF302821FF302821FF302821FF302821FF302821FF302821FF30
310
2821FFFFFF00FFFFFF00FFFFFF00FF302821FF302821FF302821FF302821FF302821FF302821FF302821FF302821FF302821FF302821FF302821FF302821FF302821FF302821FF302821FF302821FF302821FF302821FF302821FF302821FF302821FF302821FF302821FF302821FF302821FF302821FF302821FF302821FF
310
302821FF302821FF302821FF302821FF302821FF302821FF302821FF302821FF302821FF302821FF302821FF302821FF302821FF302821FF302821FF302821FF302821FF302821FF
102
{BLKREFS
331
21DE0
102
}
 70
     0
280
     1
281
     1
  0
BLOCK_RECORD
  5
21EFB
330
1
100
AcDbSymbolTableRecord
100
AcDbBlockTableRecord
  2
*D12
340
0
 70
     0
280
     1
281
     0
  0
BLOCK_RECORD
  5
21F05
330
1
100
AcDbSymbolTableRecord
100
AcDbBlockTableRecord
  2
*D13
340
0
 70
     0
280
     1
281
     0
  0
BLOCK_RECORD
  5
21F11
330
1
100
AcDbSymbolTableRecord
100
AcDbBlockTableRecord
  2
*D14
340
0
 70
     0
280
     1
281
     0
  0
BLOCK_RECORD
  5
21F1D
330
1
100
AcDbSymbolTableRecord
100
AcDbBlockTableRecord
  2
*D15
340
0
 70
     0
280
     1
281
     0
  0
BLOCK_RECORD
  5
21F2B
330
1
100
AcDbSymbolTableRecord
100
AcDbBlockTableRecord
  2
*D16
340
0
 70
     0
280
     1
281
     0
  0
ENDTAB
  0
ENDSEC
  0
SECTION
  2
BLOCKS
  0
BLOCK
  5
20
330
1F
100
AcDbEntity
  8
0
100
AcDbBlockBegin
  2
*MODEL_SPACE
 70
     0
 10
0.0
 20
0.0
 30
0.0
  3
*MODEL_SPACE
  1

  0
ENDBLK
  5
21
330
1F
100
AcDbEntity
  8
0
100
AcDbBlockEnd
  0
BLOCK
  5
1C
330
1B
100
AcDbEntity
 67
     1
  8
0
100
AcDbBlockBegin
  2
*PAPER_SPACE
 70
     0
 10
0.0
 20
0.0
 30
0.0
  3
*PAPER_SPACE
  1

  0
ENDBLK
  5
1D
330
1B
100
AcDbEntity
 67
     1
  8
0
100
AcDbBlockEnd
  0
BLOCK
  5
1B3D8
330
1B3D7
100
AcDbEntity
  8
0
100
AcDbBlockBegin
  2
cero_point
 70
     0
 10
0.0
 20
0.0
 30
0.0
  3
cero_point
  1

  0
HATCH
  5
1B3DA
330
1B3D7
100
AcDbEntity
  8
1
  6
ByBlock
370
    50
100
AcDbHatch
 10
0.0
 20
0.0
 30
0.0
210
0.0
220
0.0
230
1.0
  2
SOLID
 70
     1
 71
     0
 91
        2
 92
        7
 72
     1
 73
     1
 93
        3
 10
-0.0000000000001137
 20
0.0
 42
0.0
 10
-2.950972054112752
 20
0.0
 42
0.4142135623730968
 10
-0.0000000000001137
 20
-2.950972054112583
 42
0.0
 97
        0
 92
        7
 72
     1
 73
     1
 93
        3
 10
-0.0000000000001137
 20
2.950972054112638
 42
0.0
 10
-0.0000000000001137
 20
0.0
 42
0.0
 10
2.950972054112526
 20
0.0
 42
0.4142135623730966
 97
        0
 75
     0
 76
     1
 47
0.1190009775223266
 98
        2
 10
-0.7445530588121301
 20
-0.9212244733764125
 10
1.279464601852737
 20
1.696796923046345
450
        0
451
        0
460
0.0
461
0.0
452
        0
462
0.0
453
        0
470

  0
LWPOLYLINE
  5
1B3DB
330
1B3D7
100
AcDbEntity
  8
1
  6
ByBlock
370
    50
100
AcDbPolyline
 90
        3
 70
     1
 43
0.0
 10
-0.0000000000001137
 20
0.0
 10
2.950972054112526
 20
0.0
 42
0.4142135623730966
 10
-0.0000000000001137
 20
2.950972054112638
  0
LINE
  5
1B3DC
330
1B3D7
100
AcDbEntity
  8
1
  6
ByBlock
370
    50
100
AcDbLine
 10
-0.0000000000001137
 20
-2.950972054112583
 30
0.0
 11
-0.0000000000001137
 21
2.950972054112638
 31
0.0
  0
LWPOLYLINE
  5
1B3DD
330
1B3D7
100
AcDbEntity
  8
1
  6
ByBlock
370
    50
100
AcDbPolyline
 90
        3
 70
     1
 43
0.0
 10
-0.0000000000001137
 20
-2.950972054112583
 10
-0.0000000000001137
 20
0.0
 10
-2.950972054112752
 20
0.0
 42
0.4142135623730966
  0
LINE
  5
1B3DE
330
1B3D7
100
AcDbEntity
  8
1
  6
ByBlock
370
    50
100
AcDbLine
 10
2.950972054112638
 20
0.0
 30
0.0
 11
-2.950972054112638
 21
0.0
 31
0.0
  0
CIRCLE
  5
1B3DF
330
1B3D7
100
AcDbEntity
  8
1
  6
ByBlock
370
    50
100
AcDbCircle
 10
-0.0000000000001137
 20
0.0
 30
0.0
 40
2.950972054112601
  0
ENDBLK
  5
1B3D9
330
1B3D7
100
AcDbEntity
  8
0
100
AcDbBlockEnd
  0
BLOCK
  5
21EFC
330
21EFB
100
AcDbEntity
  8
0
100
AcDbBlockBegin
  2
*D12
 70
     1
 10
0.0
 20
0.0
 30
0.0
  3
*D12
  1

  0
LINE
  5
220C3
330
21EFB
100
AcDbEntity
  8
SK2
 62
     0
440
 16777216
370
    -2
100
AcDbLine
 10
-19.56249999999619
 20
9.600000000000008
 30
0.0
 11
-36.3274161810001
 21
9.600000000000015
 31
0.0
  0
LINE
  5
220C4
330
21EFB
100
AcDbEntity
  8
SK2
 62
     0
440
 16777216
370
    -2
100
AcDbLine
 10
-19.56249999999619
 20
-9.599999999999695
 30
0.0
 11
-36.3274161810001
 21
-9.599999999999688
 31
0.0
  0
LINE
  5
220C5
330
21EFB
100
AcDbEntity
  8
SK2
 62
     0
440
 16777216
370
    -2
100
AcDbLine
 10
-36.1474161810001
 20
5.030000000000014
 30
0.0
 11
-36.1474161810001
 21
-5.029999999999689
 31
0.0
  0
SOLID
  5
220C6
330
21EFB
100
AcDbEntity
  8
SK2
 62
     0
440
 16777216
100
AcDbTrace
 10
-36.90908284766677
 20
5.030000000000014
 30
0.0
 11
-35.38574951433343
 21
5.030000000000014
 31
0.0
 12
-36.1474161810001
 22
9.600000000000015
 32
0.0
 13
-36.1474161810001
 23
9.600000000000015
 33
0.0
  0
SOLID
  5
220C7
330
21EFB
100
AcDbEntity
  8
SK2
 62
     0
440
 16777216
100
AcDbTrace
 10
-36.90908284766677
 20
-5.029999999999689
 30
0.0
 11
-35.38574951433343
 21
-5.029999999999689
 31
0.0
 12
-36.1474161810001
 22
-9.599999999999688
 32
0.0
 13
-36.1474161810001
 23
-9.599999999999688
 33
0.0
  0
MTEXT
  5
220C8
330
21EFB
100
AcDbEntity
  8
SK2
 62
     0
440
 16777216
100
AcDbMText
 10
-38.10055743187852
 20
0.1213287502776981
 30
0.0
 40
3.5
 41
0.0
 46
0.0
 71
     5
 72
     1
  1
\A1;%%C19.2
 11
0.0000000000000001
 21
1.0
 31
0.0
 73
     1
 44
1.0
  0
POINT
  5
220C9
330
21EFB
100
AcDbEntity
  8
Defpoints
 62
     0
440
 16777216
100
AcDbPoint
 10
-19.49999999999619
 20
9.600000000000008
 30
0.0
  0
POINT
  5
220CA
330
21EFB
100
AcDbEntity
  8
Defpoints
 62
     0
440
 16777216
100
AcDbPoint
 10
-19.49999999999619
 20
-9.599999999999695
 30
0.0
  0
POINT
  5
220CB
330
21EFB
100
AcDbEntity
  8
Defpoints
 62
     0
440
 16777216
100
AcDbPoint
 10
-36.1474161810001
 20
-9.599999999999688
 30
0.0
  0
ENDBLK
  5
21EFD
330
21EFB
100
AcDbEntity
  8
0
100
AcDbBlockEnd
  0
BLOCK
  5
21F06
330
21F05
100
AcDbEntity
  8
0
100
AcDbBlockBegin
  2
*D13
 70
     1
 10
0.0
 20
0.0
 30
0.0
  3
*D13
  1

  0
LINE
  5
2209D
330
21F05
100
AcDbEntity
  8
2
 62
     0
440
 16777216
370
    -2
100
AcDbLine
 10
39.68250000000347
 20
-12.45000000000017
 30
0.0
 11
59.48311416433159
 21
-12.45000000000018
 31
0.0
  0
LINE
  5
2209E
330
21F05
100
AcDbEntity
  8
2
 62
     0
440
 16777216
370
    -2
100
AcDbLine
 10
39.68250000000347
 20
12.44999999999992
 30
0.0
 11
59.48311416433159
 21
12.44999999999991
 31
0.0
  0
LINE
  5
2209F
330
21F05
100
AcDbEntity
  8
2
 62
     0
440
 16777216
370
    -2
100
AcDbLine
 10
59.30311416433159
 20
-7.880000000000179
 30
0.0
 11
59.30311416433159
 21
7.879999999999911
 31
0.0
  0
SOLID
  5
220A0
330
21F05
100
AcDbEntity
  8
2
 62
     0
440
 16777216
100
AcDbTrace
 10
58.54144749766492
 20
-7.880000000000179
 30
0.0
 11
60.06478083099826
 21
-7.880000000000179
 31
0.0
 12
59.30311416433159
 22
-12.45000000000018
 32
0.0
 13
59.30311416433159
 23
-12.45000000000018
 33
0.0
  0
SOLID
  5
220A1
330
21F05
100
AcDbEntity
  8
2
 62
     0
440
 16777216
100
AcDbTrace
 10
58.54144749766492
 20
7.879999999999911
 30
0.0
 11
60.06478083099826
 21
7.879999999999911
 31
0.0
 12
59.30311416433159
 22
12.44999999999991
 32
0.0
 13
59.30311416433159
 23
12.44999999999991
 33
0.0
  0
MTEXT
  5
220A2
330
21F05
100
AcDbEntity
  8
2
 62
     0
440
 16777216
100
AcDbMText
 10
57.40162435407157
 20
-0.000000000000014
 30
0.0
 40
3.5
 41
0.0
 46
0.0
 71
     5
 72
     1
  1
\A1;24.9
 11
0.0000000000000001
 21
1.0
 31
0.0
 73
     1
 44
1.0
  0
POINT
  5
220A3
330
21F05
100
AcDbEntity
  8
Defpoints
 62
     0
440
 16777216
100
AcDbPoint
 10
39.62000000000347
 20
-12.45000000000017
 30
0.0
  0
POINT
  5
220A4
330
21F05
100
AcDbEntity
  8
Defpoints
 62
     0
440
 16777216
100
AcDbPoint
 10
39.62000000000347
 20
12.44999999999992
 30
0.0
  0
POINT
  5
220A5
330
21F05
100
AcDbEntity
  8
Defpoints
 62
     0
440
 16777216
100
AcDbPoint
 10
59.30311416433159
 20
12.44999999999991
 30
0.0
  0
ENDBLK
  5
21F07
330
21F05
100
AcDbEntity
  8
0
100
AcDbBlockEnd
  0
BLOCK
  5
21F12
330
21F11
100
AcDbEntity
  8
0
100
AcDbBlockBegin
  2
*D14
 70
     1
 10
0.0
 20
0.0
 30
0.0
  3
*D14
  1

  0
LINE
  5
220A6
330
21F11
100
AcDbEntity
  8
2
 62
     0
440
 16777216
370
    -2
100
AcDbLine
 10
44.26000104065602
 20
0.0624999999913221
 30
0.0
 11
44.26078830565228
 21
47.34443058886216
 31
0.0
  0
LINE
  5
220A7
330
21F11
100
AcDbEntity
  8
2
 62
     0
440
 16777216
370
    -2
100
AcDbLine
 10
0.0000010406563717
 20
24.15378099999131
 30
0.0
 11
0.0003871874700411
 21
47.34516754406021
 31
0.0
  0
LINE
  5
220A8
330
21F11
100
AcDbEntity
  8
2
 62
     0
440
 16777216
370
    -2
100
AcDbLine
 10
39.69078530920639
 20
47.16450668140254
 30
0.0
 11
4.570384189757173
 21
47.16509145156974
 31
0.0
  0
SOLID
  5
220A9
330
21F11
100
AcDbEntity
  8
2
 62
     0
440
 16777216
100
AcDbTrace
 10
39.6907979912923
 20
47.92617334796362
 30
0.0
 11
39.69077262712049
 21
46.40284001484146
 31
0.0
 12
44.2607853085729
 22
47.16443058888712
 32
0.0
 13
44.2607853085729
 23
47.16443058888712
 33
0.0
  0
SOLID
  5
220AA
330
21F11
100
AcDbEntity
  8
2
 62
     0
440
 16777216
100
AcDbTrace
 10
4.570396871843076
 20
47.92675811813082
 30
0.0
 11
4.570371507671269
 21
46.40342478500866
 31
0.0
 12
0.0003841903906592
 22
47.16516754408516
 32
0.0
 13
0.0003841903906592
 23
47.16516754408516
 33
0.0
  0
MTEXT
  5
220AB
330
21F11
100
AcDbEntity
  8
2
 62
     0
440
 16777216
100
AcDbMText
 10
22.13018745829306
 20
49.06628888362481
 30
0.0
 40
3.5
 41
0.0
 46
0.0
 71
     5
 72
     1
  1
\A1;44.26
 11
0.9999999998613814
 21
-0.000016650441011
 31
0.0
 73
     1
 44
1.0
  0
POINT
  5
220AC
330
21F11
100
AcDbEntity
  8
Defpoints
 62
     0
440
 16777216
100
AcDbPoint
 10
44.26000000000345
 20
-0.0000000000000142
 30
0.0
  0
POINT
  5
220AD
330
21F11
100
AcDbEntity
  8
Defpoints
 62
     0
440
 16777216
100
AcDbPoint
 10
0.0000000000038085
 20
24.09128099999997
 30
0.0
  0
POINT
  5
220AE
330
21F11
100
AcDbEntity
  8
Defpoints
 62
     0
440
 16777216
100
AcDbPoint
 10
0.0003841903906592
 20
47.16516754408516
 30
0.0
  0
ENDBLK
  5
21F13
330
21F11
100
AcDbEntity
  8
0
100
AcDbBlockEnd
  0
BLOCK
  5
21F1E
330
21F1D
100
AcDbEntity
  8
0
100
AcDbBlockBegin
  2
*D15
 70
     1
 10
0.0
 20
0.0
 30
0.0
  3
*D15
  1

  0
LINE
  5
220AF
330
21F1D
100
AcDbEntity
  8
2
 62
     0
440
 16777216
370
    -2
100
AcDbLine
 10
44.26000104065602
 20
0.0624999999913221
 30
0.0
 11
44.26059682558065
 21
35.84443059045621
 31
0.0
  0
LINE
  5
220B0
330
21F1D
100
AcDbEntity
  8
2
 62
     0
440
 16777216
370
    -2
100
AcDbLine
 10
38.82000104065608
 20
23.36249999999116
 30
0.0
 11
38.82020887181339
 21
35.84452117531493
 31
0.0
  0
LINE
  5
220B1
330
21F1D
100
AcDbEntity
  8
2
 62
     0
440
 16777216
370
    -2
100
AcDbLine
 10
48.83059382786779
 20
35.66435449796574
 30
0.0
 11
53.40059382723431
 21
35.66427840545032
 31
0.0
  0
LINE
  5
220B2
330
21F1D
100
AcDbEntity
  8
2
 62
     0
440
 16777216
370
    -2
100
AcDbLine
 10
34.25020587536749
 20
35.6645972678553
 30
0.0
 11
20.24033237063348
 21
35.66483053842769
 31
0.0
  0
LINE
  5
220B3
330
21F1D
100
AcDbEntity
  8
2
 62
     0
440
 16777216
370
    -2
100
AcDbLine
 10
44.26059382850128
 20
35.66443059048116
 30
0.0
 11
38.82020587473401
 21
35.66452117533987
 31
0.0
  0
SOLID
  5
220B4
330
21F1D
100
AcDbEntity
  8
2
 62
     0
440
 16777216
100
AcDbTrace
 10
48.8306065099537
 20
36.42602116452682
 30
0.0
 11
48.83058114578189
 21
34.90268783140467
 31
0.0
 12
44.26059382850128
 22
35.66443059048116
 32
0.0
 13
44.26059382850128
 23
35.66443059048116
 33
0.0
  0
SOLID
  5
220B5
330
21F1D
100
AcDbEntity
  8
2
 62
     0
440
 16777216
100
AcDbTrace
 10
34.2502185574534
 20
36.42626393441638
 30
0.0
 11
34.25019319328159
 21
34.90293060129422
 31
0.0
 12
38.82020587473401
 22
35.66452117533987
 32
0.0
 13
38.82020587473401
 23
35.66452117533987
 33
0.0
  0
MTEXT
  5
220B6
330
21F1D
100
AcDbEntity
  8
2
 62
     0
440
 16777216
100
AcDbMText
 10
24.96030059967131
 20
37.55517359355036
 30
0.0
 40
3.5
 41
0.0
 46
0.0
 71
     5
 72
     1
  1
\A1;5.44
 11
0.9999999998613814
 21
-0.000016650441011
 31
0.0
 73
     1
 44
1.0
  0
POINT
  5
220B7
330
21F1D
100
AcDbEntity
  8
Defpoints
 62
     0
440
 16777216
100
AcDbPoint
 10
44.26000000000345
 20
-0.0000000000000142
 30
0.0
  0
POINT
  5
220B8
330
21F1D
100
AcDbEntity
  8
Defpoints
 62
     0
440
 16777216
100
AcDbPoint
 10
38.82000000000352
 20
23.29999999999983
 30
0.0
  0
POINT
  5
220B9
330
21F1D
100
AcDbEntity
  8
Defpoints
 62
     0
440
 16777216
100
AcDbPoint
 10
38.82020587473401
 20
35.66452117533987
 30
0.0
  0
ENDBLK
  5
21F1F
330
21F1D
100
AcDbEntity
  8
0
100
AcDbBlockEnd
  0
BLOCK
  5
21F2C
330
21F2B
100
AcDbEntity
  8
0
100
AcDbBlockBegin
  2
*D16
 70
     1
 10
0.0
 20
0.0
 30
0.0
  3
*D16
  1

  0
LINE
  5
220BA
330
21F2B
100
AcDbEntity
  8
2
 62
     0
440
 16777216
370
    -2
100
AcDbLine
 10
37.68250000000347
 20
24.49999999999999
 30
0.0
 11
73.48311416433159
 21
24.49999999999997
 31
0.0
  0
LINE
  5
220BB
330
21F2B
100
AcDbEntity
  8
2
 62
     0
440
 16777216
370
    -2
100
AcDbLine
 10
37.68250000000347
 20
-24.50000000000024
 30
0.0
 11
73.48311416433159
 21
-24.50000000000026
 31
0.0
  0
LINE
  5
220BC
330
21F2B
100
AcDbEntity
  8
2
 62
     0
440
 16777216
370
    -2
100
AcDbLine
 10
73.30311416433159
 20
19.92999999999997
 30
0.0
 11
73.30311416433159
 21
-19.93000000000025
 31
0.0
  0
SOLID
  5
220BD
330
21F2B
100
AcDbEntity
  8
2
 62
     0
440
 16777216
100
AcDbTrace
 10
72.54144749766492
 20
19.92999999999997
 30
0.0
 11
74.06478083099826
 21
19.92999999999997
 31
0.0
 12
73.30311416433159
 22
24.49999999999997
 32
0.0
 13
73.30311416433159
 23
24.49999999999997
 33
0.0
  0
SOLID
  5
220BE
330
21F2B
100
AcDbEntity
  8
2
 62
     0
440
 16777216
100
AcDbTrace
 10
72.54144749766492
 20
-19.93000000000025
 30
0.0
 11
74.06478083099826
 21
-19.93000000000025
 31
0.0
 12
73.30311416433159
 22
-24.50000000000026
 32
0.0
 13
73.30311416433159
 23
-24.50000000000026
 33
0.0
  0
MTEXT
  5
220BF
330
21F2B
100
AcDbEntity
  8
2
 62
     0
440
 16777216
100
AcDbMText
 10
71.34997291345316
 20
-0.000000000000014
 30
0.0
 40
3.5
 41
0.0
 46
0.0
 71
     5
 72
     1
  1
\A1;%%c49
 11
0.0000000000000001
 21
1.0
 31
0.0
 73
     1
 44
1.0
  0
POINT
  5
220C0
330
21F2B
100
AcDbEntity
  8
Defpoints
 62
     0
440
 16777216
100
AcDbPoint
 10
37.62000000000347
 20
24.49999999999999
 30
0.0
  0
POINT
  5
220C1
330
21F2B
100
AcDbEntity
  8
Defpoints
 62
     0
440
 16777216
100
AcDbPoint
 10
37.62000000000347
 20
-24.50000000000024
 30
0.0
  0
POINT
  5
220C2
330
21F2B
100
AcDbEntity
  8
Defpoints
 62
     0
440
 16777216
100
AcDbPoint
 10
73.30311416433159
 20
-24.50000000000026
 30
0.0
  0
ENDBLK
  5
21F2D
330
21F2B
100
AcDbEntity
  8
0
100
AcDbBlockEnd
  0
ENDSEC
  0
SECTION
  2
ENTITIES
  0
MTEXT
  5
211A0
330
1F
100
AcDbEntity
  8
SK6
100
AcDbMText
 10
-2.415818809719894
 20
-40.91143451878226
 30
0.0
 40
3.5
 41
41.87058589293636
 46
0.0
 71
     2
 72
     1
  1
CD4900044YSR00
 73
     1
 44
1.0
1001
ACAD
1000
MTEXTBEGIN
1070
    73
1070
     1
1070
    44
1040
1.0
1070
    74
1070
     0
1000
MTEXTEND
  0
INSERT
  5
21DE0
330
1F
100
AcDbEntity
  8
1
100
AcDbBlockReference
  2
cero_point
 10
0.0000000000001705
 20
-0.0000000000000142
 30
0.0
  0
LINE
  5
21DE4
330
1F
100
AcDbEntity
  8
INFTOTAL
100
AcDbLine
 10
-133.7213570071106
 20
20.26347535032572
 30
0.0
 11
-133.7213570071106
 21
63.85519774656448
 31
0.0
  0
LINE
  5
21DE5
330
1F
100
AcDbEntity
  8
INFTOTAL
100
AcDbLine
 10
-133.7213570071106
 20
63.85519774656448
 30
0.0
 11
-77.31757063835158
 21
63.85519774656448
 31
0.0
  0
LINE
  5
21DE6
330
1F
100
AcDbEntity
  8
INFTOTAL
100
AcDbLine
 10
35.50953194589709
 20
-58.88023682187168
 30
0.0
 11
90.8683131969812
 21
-58.88023682187168
 31
0.0
  0
LINE
  5
21DE7
330
1F
100
AcDbEntity
  8
INFTOTAL
100
AcDbLine
 10
90.8683131969812
 20
-58.88023682187168
 30
0.0
 11
90.8683131969812
 21
-18.43212062527712
 31
0.0
  0
DIMENSION
  5
21DE8
330
1F
100
AcDbEntity
  8
2
100
AcDbDimension
280
     0
  2
*D13
 10
59.30311416433159
 20
12.44999999999991
 30
0.0
 11
59.30311416433159
 21
-0.0000000000000142
 31
0.0
 70
   161
 71
     5
 42
24.90000000000009
 73
     0
 74
     0
 75
     0
  3
STANDARD
100
AcDbAlignedDimension
 13
39.62000000000347
 23
-12.45000000000017
 33
0.0
 14
39.62000000000347
 24
12.44999999999992
 34
0.0
1001
ACAD_DSTYLE_DIMARC_LENGTH_SYMBOL
1070
   379
1070
     1
1001
ACAD_DSTYLE_DIM_LINETYPE
1070
   380
1005
14
1001
ACAD_DSTYLE_DIM_EXT1_LINETYPE
1070
   381
1005
14
1001
ACAD_DSTYLE_DIM_EXT2_LINETYPE
1070
   382
1005
14
1001
ACAD
1000
DSTYLE
1002
{
1070
   172
1070
     1
1002
}
  0
DIMENSION
  5
21DE9
330
1F
100
AcDbEntity
  8
2
100
AcDbDimension
280
     0
  2
*D14
 10
0.0003841903906592
 20
47.16516754408516
 30
0.0
 11
22.13015579764914
 21
47.16479907362837
 31
0.0
 70
   160
 71
     5
 42
44.26040112431755
 73
     0
 74
     0
 75
     0
  3
STANDARD
100
AcDbAlignedDimension
 13
44.26000000000345
 23
-0.0000000000000142
 33
0.0
 14
0.0000000000038085
 24
24.09128099999997
 34
0.0
 50
179.999046000003
100
AcDbRotatedDimension
1001
ACAD_DSTYLE_DIMARC_LENGTH_SYMBOL
1070
   379
1070
     1
1001
ACAD_DSTYLE_DIM_LINETYPE
1070
   380
1005
14
1001
ACAD_DSTYLE_DIM_EXT1_LINETYPE
1070
   381
1005
14
1001
ACAD_DSTYLE_DIM_EXT2_LINETYPE
1070
   382
1005
14
1001
ACAD
1000
DSTYLE
1002
{
1070
   172
1070
     1
1002
}
  0
DIMENSION
  5
21DEA
330
1F
100
AcDbEntity
  8
2
100
AcDbDimension
280
     0
  2
*D15
 10
38.82020587473401
 20
35.66452117533987
 30
0.0
 11
24.96026912331723
 21
35.6647519493992
 31
0.0
 70
   160
 71
     5
 42
5.440387954521412
 73
     0
 74
     0
 75
     0
  3
STANDARD
100
AcDbAlignedDimension
 13
44.26000000000345
 23
-0.0000000000000142
 33
0.0
 14
38.82000000000352
 24
23.29999999999983
 34
0.0
 50
179.999046000003
100
AcDbRotatedDimension
1001
ACAD_DSTYLE_DIMARC_LENGTH_SYMBOL
1070
   379
1070
     1
1001
ACAD_DSTYLE_DIM_LINETYPE
1070
   380
1005
14
1001
ACAD_DSTYLE_DIM_EXT1_LINETYPE
1070
   381
1005
14
1001
ACAD_DSTYLE_DIM_EXT2_LINETYPE
1070
   382
1005
14
1001
ACAD
1000
DSTYLE
1002
{
1070
   172
1070
     1
1002
}
  0
DIMENSION
  5
21DEB
330
1F
100
AcDbEntity
  8
2
100
AcDbDimension
280
     0
  2
*D16
 10
73.30311416433159
 20
-24.50000000000026
 30
0.0
 11
73.30311416433159
 21
-0.0000000000000142
 31
0.0
 70
   161
  1
%%c<>
 71
     5
 42
49.00000000000023
 73
     0
 74
     0
 75
     0
  3
STANDARD
100
AcDbAlignedDimension
 13
37.62000000000347
 23
24.49999999999999
 33
0.0
 14
37.62000000000347
 24
-24.50000000000024
 34
0.0
1001
ACAD_DSTYLE_DIMARC_LENGTH_SYMBOL
1070
   379
1070
     1
1001
ACAD_DSTYLE_DIM_LINETYPE
1070
   380
1005
14
1001
ACAD_DSTYLE_DIM_EXT1_LINETYPE
1070
   381
1005
14
1001
ACAD_DSTYLE_DIM_EXT2_LINETYPE
1070
   382
1005
14
1001
ACAD
1000
DSTYLE
1002
{
1070
   172
1070
     1
1002
}
  0
LINE
  5
21DEC
330
1F
100
AcDbEntity
  8
SK4
100
AcDbLine
 10
-22.89206699999619
 20
-0.0000000000000142
 30
0.0
 11
0.0
 21
0.0
 31
0.0
  0
LINE
  5
21DED
330
1F
100
AcDbEntity
  8
SK3
100
AcDbLine
 10
0.0000000000038085
 20
7.199999999999803
 30
0.0
 11
37.67000000000343
 21
7.199999999999803
 31
0.0
  0
LINE
  5
21DEE
330
1F
100
AcDbEntity
  8
SK3
100
AcDbLine
 10
0.0000000000038085
 20
-7.200000000000173
 30
0.0
 11
37.67000000000343
 21
-7.200000000000173
 31
0.0
  0
LINE
  5
21DEF
330
1F
100
AcDbEntity
  8
SK3
100
AcDbLine
 10
0.0000000000038085
 20
-12.00000000000024
 30
0.0
 11
37.67000000000343
 21
-12.00000000000024
 31
0.0
  0
LINE
  5
21DF1
330
1F
100
AcDbEntity
  8
1
100
AcDbLine
 10
38.82000000000352
 20
12.44999999999992
 30
0.0
 11
35.83800000000343
 21
12.44999999999992
 31
0.0
  0
LINE
  5
21DF4
330
1F
100
AcDbEntity
  8
SK3
100
AcDbLine
 10
0.0000000000038085
 20
12.24999999999976
 30
0.0
 11
37.82000000000352
 21
12.24999999999976
 31
0.0
  0
LINE
  5
21DF6
330
1F
100
AcDbEntity
  8
1
100
AcDbLine
 10
21.84500000000384
 20
6.05872100000009
 30
0.0
 11
21.84500000000384
 21
5.122435999999751
 31
0.0
  0
ARC
  5
21DF9
330
1F
100
AcDbEntity
  8
1
100
AcDbCircle
 10
-240.2943209999963
 20
-40.20355900000005
 30
0.0
 40
284.815146
100
AcDbArc
 50
8.943741000000407
 51
9.902647000000321
  0
LINE
  5
21DFA
330
1F
100
AcDbEntity
  8
1
100
AcDbLine
 10
40.27817900000349
 20
8.777539999999916
 30
0.0
 11
39.62000000000347
 21
9.272401999999928
 31
0.0
  0
ARC
  5
21DFB
330
1F
100
AcDbEntity
  8
1
100
AcDbCircle
 10
-1.701626999996221
 20
-221.550474
 30
0.0
 40
234.492357
100
AcDbArc
 50
79.85049200000182
 51
80.78794200000301
  0
ARC
  5
21DFC
330
1F
100
AcDbEntity
  8
1
100
AcDbCircle
 10
49.60149900000345
 20
-112.4802560000002
 30
0.0
 40
123.169396
100
AcDbArc
 50
96.41589799999954
 51
98.98753199999843
  0
ARC
  5
21DFD
330
1F
100
AcDbEntity
  8
1
100
AcDbCircle
 10
18.11767000000378
 20
43.77810899999983
 30
0.0
 40
45.85404099999998
100
AcDbArc
 50
295.4446460000013
 51
300.0184620000017
  0
LINE
  5
21DFE
330
1F
100
AcDbEntity
  8
1
100
AcDbLine
 10
35.83800000000343
 20
9.917515999999963
 30
0.0
 11
35.83800000000343
 21
12.44999999999992
 31
0.0
  0
LINE
  5
21DFF
330
1F
100
AcDbEntity
  8
1
100
AcDbLine
 10
30.36000000000348
 20
10.98217399999997
 30
0.0
 11
35.83800000000343
 21
12.44999999999992
 31
0.0
  0
LINE
  5
21E04
330
1F
100
AcDbEntity
  8
1
100
AcDbLine
 10
37.82000000000352
 20
0.7801919999998149
 30
0.0
 11
44.06542000000349
 21
-0.2298680000001383
 31
0.0
  0
ARC
  5
21E05
330
1F
100
AcDbEntity
  8
1
100
AcDbCircle
 10
45.80158300000351
 20
9.847576999999986
 30
0.0
 40
16.968656
100
AcDbArc
 50
241.9398429999978
 51
254.0678909999999
  0
ARC
  5
21E06
330
1F
100
AcDbEntity
  8
1
100
AcDbCircle
 10
44.86056600000353
 20
-7.413345000000063
 30
0.0
 40
3.834782
100
AcDbArc
 50
154.1519149999957
 51
165.7617879999962
  0
LINE
  5
21E07
330
1F
100
AcDbEntity
  8
1
100
AcDbLine
 10
42.67808600000347
 20
-3.139553000000219
 30
0.0
 11
41.40954400000345
 21
-5.741481000000149
 31
0.0
  0
SPLINE
  5
21E08
330
1F
100
AcDbEntity
  8
1
100
AcDbSpline
210
0.0
220
0.0
230
1.0
 70
     8
 71
     5
 72
    24
 73
    18
 74
     0
 42
0.000000001
 43
0.0000000001
 40
0.0
 40
0.0
 40
0.0
 40
0.0
 40
0.0
 40
0.0
 40
26.80990204156897
 40
26.80990204156897
 40
26.80990204156897
 40
42.97579977192522
 40
42.97579977192522
 40
42.97579977192522
 40
49.28310245668738
 40
49.28310245668738
 40
49.28310245668738
 40
52.90969094653782
 40
52.90969094653782
 40
52.90969094653782
 40
53.80439076495662
 40
53.80439076495662
 40
53.80439076495662
 40
53.80439076495662
 40
53.80439076495662
 40
53.80439076495662
 10
44.06542044387646
 20
-0.2298677934070525
 30
0.0
 10
44.05140706292246
 20
-0.2665368957240304
 30
0.0
 10
44.03377539769957
 20
-0.3102757285789863
 30
0.0
 10
44.01191758165049
 20
-0.3617825766337006
 30
0.0
 10
43.96608796928359
 20
-0.4670925139121352
 30
0.0
 10
43.86489398670647
 20
-0.6851957912289351
 30
0.0
 10
43.81758645917051
 20
-0.7856883397773942
 30
0.0
 10
43.73261845360963
 20
-0.9652510177161417
 30
0.0
 10
43.5361302346866
 20
-1.373044921196779
 30
0.0
 10
43.47021489570756
 20
-1.50951019280491
 30
0.0
 10
43.3385521358245
 20
-1.781504053430936
 30
0.0
 10
43.13420888446052
 20
-2.202234828890723
 30
0.0
 10
43.04382509019655
 20
-2.388185535574521
 30
0.0
 10
42.91783410704357
 20
-2.647163398848434
 30
0.0
 10
42.77042423964752
 20
-2.949941826356294
 30
0.0
 10
42.74042679143548
 20
-3.011548446429756
 30
0.0
 10
42.70965288298549
 20
-3.074741000654753
 30
0.0
 10
42.6780864084655
 20
-3.139553395938165
 30
0.0
  0
SPLINE
  5
21E09
330
1F
100
AcDbEntity
  8
1
100
AcDbSpline
210
0.0
220
0.0
230
1.0
 70
     8
 71
     5
 72
    54
 73
    48
 74
     0
 42
0.000000001
 43
0.0000000001
 40
0.0
 40
0.0
 40
0.0
 40
0.0
 40
0.0
 40
0.0
 40
36.94310629344702
 40
36.94310629344702
 40
36.94310629344702
 40
87.41513076662977
 40
87.41513076662977
 40
87.41513076662977
 40
99.7214618020976
 40
99.7214618020976
 40
99.7214618020976
 40
112.106024929775
 40
112.106024929775
 40
112.106024929775
 40
116.2086412802256
 40
116.2086412802256
 40
116.2086412802256
 40
120.2590176428263
 40
120.2590176428263
 40
120.2590176428263
 40
121.2914352150713
 40
121.2914352150713
 40
121.2914352150713
 40
122.3728420655763
 40
122.3728420655763
 40
122.3728420655763
 40
122.6325992237543
 40
122.6325992237543
 40
122.6325992237543
 40
122.8923563819322
 40
122.8923563819322
 40
122.8923563819322
 40
123.1521098376942
 40
123.1521098376942
 40
123.1521098376942
 40
123.4118632934561
 40
123.4118632934561
 40
123.4118632934561
 40
123.6703992647543
 40
123.6703992647543
 40
123.6703992647543
 40
123.9289352360526
 40
123.9289352360526
 40
123.9289352360526
 40
124.4459461554733
 40
124.4459461554733
 40
124.4459461554733
 40
124.4459461554733
 40
124.4459461554733
 40
124.4459461554733
 10
44.06542044387646
 20
-0.2298677934070525
 30
0.0
 10
44.08473381781749
 20
-0.1793300903677988
 30
0.0
 10
44.09321938156852
 20
-0.1468931611217528
 30
0.0
 10
44.10064059267762
 20
-0.1159945112327847
 30
0.0
 10
44.11080550828154
 20
-0.0512881007439461
 30
0.0
 10
44.10903336538757
 20
0.0059443294022543
 30
0.0
 10
44.10517846047952
 20
0.0368927692745587
 30
0.0
 10
44.09696733420452
 20
0.0817258370098983
 30
0.0
 10
44.07506436017951
 20
0.1467791661082032
 30
0.0
 10
44.0700906203586
 20
0.1606020049643888
 30
0.0
 10
44.05862838929744
 20
0.190685651480166
 30
0.0
 10
44.04278249453255
 20
0.2276930080354162
 30
0.0
 10
44.03357012764644
 20
0.2480824040074907
 30
0.0
 10
44.01871005792253
 20
0.27973065726313
 30
0.0
 10
43.99645915220657
 20
0.3230270796146755
 30
0.0
 10
43.99037990535856
 20
0.3346579554532667
 30
0.0
 10
43.97700538727753
 20
0.359805076788561
 30
0.0
 10
43.95964267549146
 20
0.3910765815673898
 30
0.0
 10
43.94847633109162
 20
0.4105239757702606
 30
0.0
 10
43.9358396706495
 20
0.4324559319954773
 30
0.0
 10
43.91650513358849
 20
0.4645151409665545
 30
0.0
 10
43.91222540546943
 20
0.471557343027925
 30
0.0
 10
43.90253302752961
 20
0.487359938915219
 30
0.0
 10
43.89037098029047
 20
0.5067692893992302
 30
0.0
 10
43.8847209486085
 20
0.5156336728717719
 30
0.0
 10
43.87530932509747
 20
0.5304009630470859
 30
0.0
 10
43.8622321425766
 20
0.5503621836147517
 30
0.0
 10
43.85952767065049
 20
0.5544708356444375
 30
0.0
 10
43.85367574730145
 20
0.5633119414862762
 30
0.0
 10
43.84663723477461
 20
0.5738210425187021
 30
0.0
 10
43.84278213394253
 20
0.5794817107487092
 30
0.0
 10
43.83580408217648
 20
0.5897851862746251
 30
0.0
 10
43.8251901195926
 20
0.6052652606478972
 30
0.0
 10
43.81560190025749
 20
0.6190509096693262
 30
0.0
 10
43.79150864311549
 20
0.6531302893357492
 30
0.0
 10
43.76782467662855
 20
0.6857813465708063
 30
0.0
 10
43.75740830561659
 20
0.6998271650531791
 30
0.0
 10
43.74097970591941
 20
0.721293374341812
 30
0.0
 10
43.7312828520715
 20
0.7329632662498256
 30
0.0
 10
43.72774903817452
 20
0.7369979203863153
 30
0.0
 10
43.72096135854355
 20
0.7450373336734942
 30
0.0
 10
43.71408575585252
 20
0.7536242238677318
 30
0.0
 10
43.71072537364847
 20
0.75776433919917
 30
0.0
 10
43.70109758294853
 20
0.7695344155814468
 30
0.0
 10
43.69224684963256
 20
0.7801628026787597
 30
0.0
 10
43.68658933719444
 20
0.7868857224451489
 30
0.0
 10
43.68114595113451
 20
0.7932877908366294
 30
0.0
 10
43.67587741924052
 20
0.7994243592475954
 30
0.0
  0
LINE
  5
21E0A
330
1F
100
AcDbEntity
  8
1
100
AcDbLine
 10
43.67587700000348
 20
0.7994239999999167
 30
0.0
 11
37.82000000000352
 21
1.746483999999767
 31
0.0
  0
LINE
  5
21E0B
330
1F
100
AcDbEntity
  8
1
100
AcDbLine
 10
41.40954400000345
 20
3.423577000000008
 30
0.0
 11
43.67587700000348
 21
0.7994239999999167
 31
0.0
  0
ARC
  5
21E0C
330
1F
100
AcDbEntity
  8
1
100
AcDbCircle
 10
42.64932400000344
 20
4.513815000000121
 30
0.0
 40
1.65067
100
AcDbArc
 50
197.7284879999991
 51
221.3277709999972
  0
LINE
  5
21E0D
330
1F
100
AcDbEntity
  8
1
100
AcDbLine
 10
41.07728400000342
 20
4.011251000000001
 30
0.0
 11
41.05732200000346
 21
4.07501599999999
 31
0.0
  0
LINE
  5
21E0E
330
1F
100
AcDbEntity
  8
1
100
AcDbLine
 10
41.07728400000342
 20
7.534193999999942
 30
0.0
 11
41.07728400000342
 21
4.011251000000001
 31
0.0
  0
LINE
  5
21E0F
330
1F
100
AcDbEntity
  8
1
100
AcDbLine
 10
40.27817900000349
 20
12.06999999999992
 30
0.0
 11
40.27817900000349
 21
8.777539999999916
 31
0.0
  0
LINE
  5
21E10
330
1F
100
AcDbEntity
  8
1
100
AcDbLine
 10
39.62000000000347
 20
12.44999999999992
 30
0.0
 11
39.62000000000347
 21
9.272401999999928
 31
0.0
  0
LINE
  5
21E11
330
1F
100
AcDbEntity
  8
1
100
AcDbLine
 10
40.92755500000345
 20
-8.387205000000008
 30
0.0
 11
41.07728400000342
 21
-7.534194000000198
 31
0.0
  0
LINE
  5
21E12
330
1F
100
AcDbEntity
  8
1
100
AcDbLine
 10
40.92755500000345
 20
-8.387205000000008
 30
0.0
 11
40.27817900000349
 21
-12.07000000000006
 31
0.0
  0
LINE
  5
21E13
330
1F
100
AcDbEntity
  8
1
100
AcDbLine
 10
40.27817900000349
 20
-12.07000000000006
 30
0.0
 11
39.62000000000347
 21
-12.45000000000017
 31
0.0
  0
LINE
  5
21E14
330
1F
100
AcDbEntity
  8
1
100
AcDbLine
 10
39.62000000000347
 20
-12.45000000000017
 30
0.0
 11
38.82000000000352
 21
-12.45000000000017
 31
0.0
  0
LINE
  5
21E15
330
1F
100
AcDbEntity
  8
1
100
AcDbLine
 10
41.40954400000345
 20
6.446313999999787
 30
0.0
 11
41.40954400000345
 21
3.423577000000008
 31
0.0
  0
LINE
  5
21E16
330
1F
100
AcDbEntity
  8
1
100
AcDbLine
 10
41.40954400000345
 20
-5.741481000000149
 30
0.0
 11
41.40954400000345
 21
-6.446314000000157
 31
0.0
  0
LINE
  5
21E17
330
1F
100
AcDbEntity
  8
1
100
AcDbLine
 10
41.14347100000344
 20
-7.219719000000068
 30
0.0
 11
41.14347100000344
 21
-6.470137000000036
 31
0.0
  0
LINE
  5
21E18
330
1F
100
AcDbEntity
  8
1
100
AcDbLine
 10
41.14347100000344
 20
-7.219719000000068
 30
0.0
 11
41.12640500000344
 21
-7.296586000000061
 31
0.0
  0
ARC
  5
21E19
330
1F
100
AcDbEntity
  8
1
100
AcDbCircle
 10
45.92286000000348
 20
-8.413454000000243
 30
0.0
 40
4.924731999999997
100
AcDbArc
 50
166.8920989999959
 51
169.715231000002
  0
LINE
  5
21E1A
330
1F
100
AcDbEntity
  8
1
100
AcDbLine
 10
37.81998300000345
 20
-8.387205000000008
 30
0.0
 11
40.92755500000345
 21
-8.387205000000008
 31
0.0
  0
LINE
  5
21E1B
330
1F
100
AcDbEntity
  8
1
100
AcDbLine
 10
37.82000000000352
 20
-7.219719000000068
 30
0.0
 11
41.14347100000344
 21
-7.219719000000068
 31
0.0
  0
LINE
  5
21E1E
330
1F
100
AcDbEntity
  8
1
100
AcDbLine
 10
44.26000000000345
 20
-0.0000000000000142
 30
0.0
 11
41.40954400000345
 21
-6.446313000000046
 31
0.0
  0
ARC
  5
21E1F
330
1F
100
AcDbEntity
  8
1
100
AcDbCircle
 10
45.73640900000344
 20
-8.359583000000057
 30
0.0
 40
4.730999999999998
100
AcDbArc
 50
156.1457599999987
 51
167.0152009999982
  0
LINE
  5
21E20
330
1F
100
AcDbEntity
  8
1
100
AcDbLine
 10
21.84500000000384
 20
5.122524999999981
 30
0.0
 11
21.84500000000384
 21
6.058420999999825
 31
0.0
  0
LINE
  5
21E21
330
1F
100
AcDbEntity
  8
1
100
AcDbLine
 10
24.41000000000344
 20
23.68591400000001
 30
0.0
 11
24.47374400000348
 21
23.68591400000001
 31
0.0
  0
ARC
  5
21E22
330
1F
100
AcDbEntity
  8
1
100
AcDbCircle
 10
15.92383200000375
 20
-773.1691460000002
 30
0.0
 40
797.419165
100
AcDbArc
 50
90.00186700000194
 51
91.14422800000152
  0
LINE
  5
21E23
330
1F
100
AcDbEntity
  8
1
100
AcDbLine
 10
24.41000000000344
 20
24.24999999999999
 30
0.0
 11
15.89784200000378
 21
24.24999999999999
 31
0.0
  0
CIRCLE
  5
21E24
330
1F
100
AcDbEntity
  8
1
100
AcDbCircle
 10
31.61500000000348
 20
17.29499999999994
 30
0.0
 40
2.08
  0
LINE
  5
21E25
330
1F
100
AcDbEntity
  8
1
100
AcDbLine
 10
30.36000000000348
 20
10.0899999999999
 30
0.0
 11
24.41000000000344
 21
10.0899999999999
 31
0.0
  0
ARC
  5
21E26
330
1F
100
AcDbEntity
  8
1
100
AcDbCircle
 10
53.30374500000352
 20
192.8748739999998
 30
0.0
 40
186.201281
100
AcDbArc
 50
260.9659440000001
 51
262.9220170000008
  0
SPLINE
  5
21E27
330
1F
100
AcDbEntity
  8
1
100
AcDbSpline
210
0.0
220
0.0
230
1.0
 70
     8
 71
     5
 72
    12
 73
     6
 74
     0
 42
0.000000001
 43
0.0000000001
 40
0.0
 40
0.0
 40
0.0
 40
0.0
 40
0.0
 40
0.0
 40
15.49112751588426
 40
15.49112751588426
 40
15.49112751588426
 40
15.49112751588426
 40
15.49112751588426
 40
15.49112751588426
 10
15.32228679340375
 20
8.723329969119944
 30
0.0
 10
17.03461739228254
 20
8.867091840015049
 30
0.0
 10
18.77422403963175
 20
8.946334065438676
 30
0.0
 10
20.53690191951108
 20
8.981915376441619
 30
0.0
 10
22.29799450162858
 20
8.990688170351845
 30
0.0
 10
24.06613942930352
 20
8.98338509366998
 30
0.0
  0
LINE
  5
21E28
330
1F
100
AcDbEntity
  8
1
100
AcDbLine
 10
15.30887700000375
 20
8.62344199999994
 30
0.0
 11
15.32228700000377
 21
8.723329999999904
 31
0.0
  0
SPLINE
  5
21E29
330
1F
100
AcDbEntity
  8
1
100
AcDbSpline
210
0.0
220
0.0
230
1.0
 70
     8
 71
     5
 72
    15
 73
     9
 74
     0
 42
0.000000001
 43
0.0000000001
 40
0.0
 40
0.0
 40
0.0
 40
0.0
 40
0.0
 40
0.0
 40
8.931987810380416
 40
8.931987810380416
 40
8.931987810380416
 40
9.953253574881877
 40
9.953253574881877
 40
9.953253574881877
 40
9.953253574881877
 40
9.953253574881877
 40
9.953253574881877
 10
10.23222293388716
 20
7.236002352226236
 30
0.0
 10
11.06895034116615
 20
7.56373192154966
 30
0.0
 10
11.9586109095481
 20
7.850914325885
 30
0.0
 10
12.87535502559734
 20
8.101368592617276
 30
0.0
 10
13.91922398516777
 20
8.346489500470383
 30
0.0
 10
14.98098738809079
 20
8.559743892148716
 30
0.0
 10
15.09011223253259
 20
8.581296674862741
 30
0.0
 10
15.19940950879203
 20
8.602527243422954
 30
0.0
 10
15.30887735770415
 20
8.623442809581305
 30
0.0
  0
ARC
  5
21E2A
330
1F
100
AcDbEntity
  8
1
100
AcDbCircle
 10
32.30883400000351
 20
-623.118877
 30
0.0
 40
629.2650049999997
100
AcDbArc
 50
90.17744500000011
 51
90.95279699999789
  0
LINE
  5
21E2B
330
1F
100
AcDbEntity
  8
1
100
AcDbLine
 10
24.41000000000344
 20
10.0899999999999
 30
0.0
 11
24.41000000000344
 21
8.981973999999908
 31
0.0
  0
LINE
  5
21E2C
330
1F
100
AcDbEntity
  8
1
100
AcDbLine
 10
24.06613900000349
 20
8.983384999999984
 30
0.0
 11
24.41000000000344
 21
8.981973999999908
 31
0.0
  0
LINE
  5
21E2D
330
1F
100
AcDbEntity
  8
1
100
AcDbLine
 10
0.0000000000038085
 20
24.09128099999997
 30
0.0
 11
0.0000000000038085
 21
9.571278000000106
 31
0.0
  0
ARC
  5
21E2E
330
1F
100
AcDbEntity
  8
1
100
AcDbCircle
 10
15.90621800000377
 20
772.7430339999998
 30
0.0
 40
796.993045
100
AcDbArc
 50
268.8564269999985
 51
269.9993980000019
  0
ARC
  5
21E2F
330
1F
100
AcDbEntity
  8
SK1
100
AcDbCircle
 10
10.88307800000376
 20
2021.509933999999
 30
0.0
 40
2031.110385
100
AcDbArc
 50
269.1711009999998
 51
269.692997000002
  0
ARC
  5
21E30
330
1F
100
AcDbEntity
  8
SK1
100
AcDbCircle
 10
37.70925900000344
 20
57.39749999999991
 30
0.0
 40
87.29106299999996
100
AcDbArc
 50
229.0510409999954
 51
229.9147050000012
  0
LINE
  5
21E31
330
1F
100
AcDbEntity
  8
SK1
100
AcDbLine
 10
-19.49999999999619
 20
-7.547210000000077
 30
0.0
 11
-19.49999999999619
 21
-8.532753000000084
 31
0.0
  0
LINE
  5
21E32
330
1F
100
AcDbEntity
  8
SK1
100
AcDbLine
 10
-19.49999999999619
 20
5.636677999999946
 30
0.0
 11
-19.49999999999619
 21
-7.547210000000077
 31
0.0
  0
LINE
  5
21E33
330
1F
100
AcDbEntity
  8
SK1
100
AcDbLine
 10
-19.49999999999619
 20
5.636677999999946
 30
0.0
 11
-19.49999999999619
 21
6.537728000000115
 31
0.0
  0
LINE
  5
21E34
330
1F
100
AcDbEntity
  8
SK1
100
AcDbLine
 10
-19.49999999999619
 20
8.532752999999829
 30
0.0
 11
-19.49999999999619
 21
6.537728000000115
 31
0.0
  0
LINE
  5
21E35
330
1F
100
AcDbEntity
  8
1
100
AcDbLine
 10
24.41000000000344
 20
11.66666699999983
 30
0.0
 11
24.41000000000344
 21
24.24999999999999
 31
0.0
  0
LINE
  5
21E36
330
1F
100
AcDbEntity
  8
1
100
AcDbLine
 10
24.41000000000344
 20
10.0899999999999
 30
0.0
 11
24.41000000000344
 21
11.66666699999983
 31
0.0
  0
ARC
  5
21E37
330
1F
100
AcDbEntity
  8
1
100
AcDbCircle
 10
-20.8535179999962
 20
-98.75539300000006
 30
0.0
 40
128.3783
100
AcDbArc
 50
72.85021799999821
 51
73.36498400000174
  0
ARC
  5
21E38
330
1F
100
AcDbEntity
  8
SK1
100
AcDbCircle
 10
10.88307800000376
 20
-2021.509934
 30
0.0
 40
2031.110385
100
AcDbArc
 50
90.30700299999805
 51
90.82889900000019
  0
ARC
  5
21E39
330
1F
100
AcDbEntity
  8
SK1
100
AcDbCircle
 10
37.70925900000344
 20
-57.39750000000005
 30
0.0
 40
87.29106299999996
100
AcDbArc
 50
130.0852949999988
 51
130.9489590000046
  0
LINE
  5
21E3A
330
1F
100
AcDbEntity
  8
1
100
AcDbLine
 10
15.76210200000383
 20
11.66666699999983
 30
0.0
 11
24.41000000000344
 21
11.66666699999983
 31
0.0
  0
LINE
  5
21E3B
330
1F
100
AcDbEntity
  8
1
100
AcDbLine
 10
17.00147300000373
 20
23.91483199999981
 30
0.0
 11
15.76210200000383
 21
11.66666699999983
 31
0.0
  0
ELLIPSE
  5
21E3C
330
1F
100
AcDbEntity
  8
1
100
AcDbEllipse
 10
15.05482400000397
 20
11.66451199999993
 30
0.0
 11
-0.5061267018318178
 21
-4.895519733428955
 31
0.0
210
0.0
220
0.0
230
1.0
 40
0.142918
 41
0.9411631147293874
 42
1.586011000761593
  0
ARC
  5
21E3D
330
1F
100
AcDbEntity
  8
SK1
100
AcDbCircle
 10
-18.11967099999623
 20
14.58690999999986
 30
0.0
 40
9.056242999999998
100
AcDbArc
 50
261.2327670000021
 51
267.0933839999977
  0
LINE
  5
21E3E
330
1F
100
AcDbEntity
  8
SK1
100
AcDbLine
 10
-18.57890799999626
 20
5.542114999999839
 30
0.0
 11
-18.49999999999619
 21
5.538005999999754
 31
0.0
  0
LINE
  5
21E3F
330
1F
100
AcDbEntity
  8
SK1
100
AcDbLine
 10
-18.49999999999619
 20
5.538005999999754
 30
0.0
 11
-17.63707399999617
 21
5.48917399999992
 31
0.0
  0
ARC
  5
21E40
330
1F
100
AcDbEntity
  8
SK1
100
AcDbCircle
 10
-238.4783089999963
 20
-3882.671682
 30
0.0
 40
3894.427594
100
AcDbArc
 50
86.48925200000196
 51
86.74918500000275
  0
SPLINE
  5
21E41
330
1F
100
AcDbEntity
  8
1
100
AcDbSpline
210
0.0
220
0.0
230
1.0
 70
     8
 71
     5
 72
    12
 73
     6
 74
     0
 42
0.000000001
 43
0.0000000001
 40
0.0
 40
0.0
 40
0.0
 40
0.0
 40
0.0
 40
0.0
 40
66.57183518213843
 40
66.57183518213843
 40
66.57183518213843
 40
66.57183518213843
 40
66.57183518213843
 40
66.57183518213843
 10
37.8200000002426
 20
3.244259884194875
 30
0.0
 10
30.1540549907956
 20
3.846060588019881
 30
0.0
 10
22.51842721335953
 20
4.811949078544543
 30
0.0
 10
14.93088345862924
 20
6.120982957347777
 30
0.0
 10
7.418818673389694
 20
7.728413221259515
 30
0.0
 10
-0.0000000000550813
 20
9.574929592380939
 30
0.0
  0
LINE
  5
21E42
330
1F
100
AcDbEntity
  8
1
100
AcDbLine
 10
37.82000000000352
 20
3.244259999999925
 30
0.0
 11
37.82000000000352
 21
-21.28137700000003
 31
0.0
  0
LINE
  5
21E43
330
1F
100
AcDbEntity
  8
1
100
AcDbLine
 10
37.82000000000352
 20
-21.28137700000003
 30
0.0
 11
37.82000000000352
 21
-23.68591400000005
 31
0.0
  0
LINE
  5
21E44
330
1F
100
AcDbEntity
  8
1
100
AcDbLine
 10
24.41000000000344
 20
-23.68591400000005
 30
0.0
 11
24.41000000000344
 21
-24.25000000000002
 31
0.0
  0
LINE
  5
21E45
330
1F
100
AcDbEntity
  8
1
100
AcDbLine
 10
24.41000000000344
 20
-24.25000000000002
 30
0.0
 11
15.89784200000378
 21
-24.25000000000002
 31
0.0
  0
LINE
  5
21E46
330
1F
100
AcDbEntity
  8
1
100
AcDbLine
 10
37.82000000000352
 20
-23.68591400000005
 30
0.0
 11
24.41000000000344
 21
-23.68591400000005
 31
0.0
  0
LINE
  5
21E47
330
1F
100
AcDbEntity
  8
1
100
AcDbLine
 10
0.0000000000038085
 20
-21.28137700000003
 30
0.0
 11
0.0000000000038085
 21
-24.09128100000022
 31
0.0
  0
LINE
  5
21E48
330
1F
100
AcDbEntity
  8
1
100
AcDbLine
 10
0.0000000000038085
 20
9.574930000000094
 30
0.0
 11
0.0000000000038085
 21
-21.28137700000003
 31
0.0
  0
LINE
  5
21E49
330
1F
100
AcDbEntity
  8
SK1
100
AcDbLine
 10
-18.49999999999619
 20
-8.424793000000036
 30
0.0
 11
-18.49999999999619
 21
-9.387923000000014
 31
0.0
  0
LINE
  5
21E4A
330
1F
100
AcDbEntity
  8
SK1
100
AcDbLine
 10
-18.49999999999619
 20
5.538005999999754
 30
0.0
 11
-18.49999999999619
 21
-8.424793000000036
 31
0.0
  0
CIRCLE
  5
21E4B
330
1F
100
AcDbEntity
  8
1
100
AcDbCircle
 10
31.61500000000348
 20
-17.29500000000019
 30
0.0
 40
2.08
  0
CIRCLE
  5
21E4C
330
1F
100
AcDbEntity
  8
1
100
AcDbCircle
 10
31.61500000000348
 20
17.29499999999994
 30
0.0
 40
2.875
  0
CIRCLE
  5
21E4D
330
1F
100
AcDbEntity
  8
1
100
AcDbCircle
 10
31.61500000000348
 20
17.29499999999994
 30
0.0
 40
3.534123
  0
LINE
  5
21E4E
330
1F
100
AcDbEntity
  8
1
100
AcDbLine
 10
30.36000000000348
 20
10.0899999999999
 30
0.0
 11
25.61000000000348
 21
10.0899999999999
 31
0.0
  0
LINE
  5
21E4F
330
1F
100
AcDbEntity
  8
1
100
AcDbLine
 10
38.82000000000352
 20
12.44999999999992
 30
0.0
 11
38.82000000000352
 21
23.29999999999983
 31
0.0
  0
ARC
  5
21E50
330
1F
100
AcDbEntity
  8
1
100
AcDbCircle
 10
37.62000000000347
 20
23.29999999999983
 30
0.0
 40
1.199999999999999
100
AcDbArc
 50
0.0
 51
90.0
  0
LINE
  5
21E51
330
1F
100
AcDbEntity
  8
1
100
AcDbLine
 10
25.61000000000348
 20
24.49999999999999
 30
0.0
 11
37.62000000000347
 21
24.49999999999999
 31
0.0
  0
ARC
  5
21E52
330
1F
100
AcDbEntity
  8
1
100
AcDbCircle
 10
25.61000000000348
 20
23.29999999999983
 30
0.0
 40
1.199999999999999
100
AcDbArc
 50
90.0
 51
180.0
  0
LINE
  5
21E53
330
1F
100
AcDbEntity
  8
1
100
AcDbLine
 10
24.41000000000344
 20
23.29999999999983
 30
0.0
 11
24.41000000000344
 21
11.28999999999995
 31
0.0
  0
ARC
  5
21E54
330
1F
100
AcDbEntity
  8
1
100
AcDbCircle
 10
25.61000000000348
 20
11.28999999999995
 30
0.0
 40
1.199999999999999
100
AcDbArc
 50
180.0
 51
270.0
  0
ARC
  5
21E5C
330
1F
100
AcDbEntity
  8
1
100
AcDbCircle
 10
37.62000000000347
 20
-11.29000000000009
 30
0.0
 40
1.199999999999999
100
AcDbArc
 50
0.0
 51
80.40593199999776
  0
LINE
  5
21E5D
330
1F
100
AcDbEntity
  8
1
100
AcDbLine
 10
38.82000000000352
 20
-11.29000000000009
 30
0.0
 11
38.82000000000352
 21
-23.30000000000008
 31
0.0
  0
ARC
  5
21E5E
330
1F
100
AcDbEntity
  8
1
100
AcDbCircle
 10
37.62000000000347
 20
-23.30000000000008
 30
0.0
 40
1.199999999999999
100
AcDbArc
 50
270.0
 51
0.0
  0
LINE
  5
21E5F
330
1F
100
AcDbEntity
  8
1
100
AcDbLine
 10
25.61000000000348
 20
-24.50000000000024
 30
0.0
 11
37.62000000000347
 21
-24.50000000000024
 31
0.0
  0
ARC
  5
21E60
330
1F
100
AcDbEntity
  8
1
100
AcDbCircle
 10
25.61000000000348
 20
-23.30000000000008
 30
0.0
 40
1.199999999999999
100
AcDbArc
 50
198.7595679999984
 51
270.0
  0
ARC
  5
21E61
330
1F
100
AcDbEntity
  8
1
100
AcDbCircle
 10
25.61000000000348
 20
-23.30000000000008
 30
0.0
 40
0.4691880000000002
100
AcDbArc
 50
235.3372779999959
 51
270.0
  0
LINE
  5
21E62
330
1F
100
AcDbEntity
  8
1
100
AcDbLine
 10
25.61000000000348
 20
-23.769188
 30
0.0
 11
37.62000000000347
 21
-23.769188
 31
0.0
  0
ARC
  5
21E63
330
1F
100
AcDbEntity
  8
1
100
AcDbCircle
 10
37.62000000000347
 20
-23.30000000000008
 30
0.0
 40
0.4691880000000002
100
AcDbArc
 50
270.0
 51
0.0
  0
LINE
  5
21E64
330
1F
100
AcDbEntity
  8
1
100
AcDbLine
 10
38.08918800000351
 20
-23.30000000000008
 30
0.0
 11
38.08918800000351
 21
-11.29000000000009
 31
0.0
  0
ARC
  5
21E65
330
1F
100
AcDbEntity
  8
1
100
AcDbCircle
 10
37.62000000000347
 20
-11.29000000000009
 30
0.0
 40
0.4691880000000002
100
AcDbArc
 50
0.0
 51
64.77062399999707
  0
LINE
  5
21E66
330
1F
100
AcDbEntity
  8
1
100
AcDbLine
 10
38.08918800000351
 20
-11.29000000000009
 30
0.0
 11
38.82000000000352
 21
-11.29000000000009
 31
0.0
  0
LINE
  5
21E67
330
1F
100
AcDbEntity
  8
1
100
AcDbLine
 10
38.08918800000351
 20
-23.30000000000008
 30
0.0
 11
38.82000000000352
 21
-23.30000000000008
 31
0.0
  0
LINE
  5
21E68
330
1F
100
AcDbEntity
  8
1
100
AcDbLine
 10
37.62000000000347
 20
-23.769188
 30
0.0
 11
37.62000000000347
 21
-24.50000000000024
 31
0.0
  0
LINE
  5
21E69
330
1F
100
AcDbEntity
  8
1
100
AcDbLine
 10
25.61000000000348
 20
-23.769188
 30
0.0
 11
25.61000000000348
 21
-24.50000000000024
 31
0.0
  0
ARC
  5
21E6A
330
1F
100
AcDbEntity
  8
1
100
AcDbCircle
 10
37.62000000000347
 20
-23.30000000000008
 30
0.0
 40
1.199999999999999
100
AcDbArc
 50
270.0
 51
0.0
  0
LINE
  5
21E6B
330
1F
100
AcDbEntity
  8
1
100
AcDbLine
 10
37.62000000000347
 20
-24.50000000000024
 30
0.0
 11
25.61000000000348
 21
-24.50000000000024
 31
0.0
  0
ARC
  5
21E6C
330
1F
100
AcDbEntity
  8
1
100
AcDbCircle
 10
25.61000000000348
 20
-23.30000000000008
 30
0.0
 40
1.199999999999999
100
AcDbArc
 50
198.7595679999984
 51
270.0
  0
ARC
  5
21E6D
330
1F
100
AcDbEntity
  8
1
100
AcDbCircle
 10
37.62000000000347
 20
-11.29000000000009
 30
0.0
 40
1.199999999999999
100
AcDbArc
 50
0.0
 51
80.40593199999776
  0
LINE
  5
21E6E
330
1F
100
AcDbEntity
  8
1
100
AcDbLine
 10
38.82000000000352
 20
-11.29000000000009
 30
0.0
 11
38.82000000000352
 21
-23.30000000000008
 31
0.0
  0
LINE
  5
21E6F
330
1F
100
AcDbEntity
  8
SKVIEW4
100
AcDbLine
 10
-57.46437495434412
 20
-0.0000000000000142
 30
0.0
 11
-120.5143749543442
 21
-0.0000000000000142
 31
0.0
  0
LINE
  5
21E70
330
1F
100
AcDbEntity
  8
SKVIEW4
100
AcDbLine
 10
-88.9893749543441
 20
31.52499999999985
 30
0.0
 11
-88.9893749543441
 21
-31.52499999999999
 31
0.0
  0
ARC
  5
21E71
330
1F
100
AcDbEntity
  8
SKVIEW1
100
AcDbCircle
 10
-88.9893749543441
 20
-0.0000000000000142
 30
0.0
 40
6.224999999999997
100
AcDbArc
 50
342.137822
 51
352.6431389999949
  0
ARC
  5
21E72
330
1F
100
AcDbEntity
  8
SKVIEW1
100
AcDbCircle
 10
-95.57215095434429
 20
4.083575999999979
 30
0.0
 40
2.271533
100
AcDbArc
 50
286.8341150000001
 51
303.162740999999
  0
ARC
  5
21E73
330
1F
100
AcDbEntity
  8
SKVIEW1
100
AcDbCircle
 10
-82.40659895434413
 20
-4.083575999999894
 30
0.0
 40
2.271533
100
AcDbArc
 50
106.8341150000001
 51
123.1627419999997
  0
LINE
  5
21E74
330
1F
100
AcDbEntity
  8
SKVIEW1
100
AcDbLine
 10
-81.784265954344
 20
-0.5357499999999078
 30
0.0
 11
-81.97041595434411
 21
-0.552036000000058
 31
0.0
  0
ARC
  5
21E75
330
1F
100
AcDbEntity
  8
SKVIEW1
100
AcDbCircle
 10
-81.77242795434398
 20
-2.81488800000001
 30
0.0
 40
2.271497999999998
100
AcDbArc
 50
95.00035600000099
 51
117.3389260000033
  0
SPLINE
  5
21E76
330
1F
100
AcDbEntity
  8
SKVIEW1
100
AcDbSpline
210
0.0
220
0.0
230
1.0
 70
     8
 71
     5
 72
    18
 73
    12
 74
     0
 42
0.000000001
 43
0.0000000001
 40
0.0
 40
0.0
 40
0.0
 40
0.0
 40
0.0
 40
0.0
 40
1.709151501560097
 40
1.709151501560097
 40
1.709151501560097
 40
3.337792023596378
 40
3.337792023596378
 40
3.337792023596378
 40
5.432436544223014
 40
5.432436544223014
 40
5.432436544223014
 40
5.432436544223014
 40
5.432436544223014
 40
5.432436544223014
 10
-83.6028323085323
 20
-1.112909242560945
 30
0.0
 10
-83.53752395440864
 20
-0.9535460456247761
 30
0.0
 10
-83.45718029975518
 20
-0.807513796801814
 30
0.0
 10
-83.36531740539482
 20
-0.6802798889228967
 30
0.0
 10
-83.17204766602088
 20
-0.4668879799896928
 30
0.0
 10
-82.96012541978559
 20
-0.3162687142735336
 30
0.0
 10
-82.85386573909756
 20
-0.2560375850536189
 30
0.0
 10
-82.60801752983701
 20
-0.1463976698637595
 30
0.0
 10
-82.35930622188272
 20
-0.0940711353281501
 30
0.0
 10
-82.22083309020121
 20
-0.0803634907928341
 30
0.0
 10
-82.0840367135757
 20
-0.0801972225387005
 30
0.0
 10
-81.94934548048451
 20
-0.0923129180704479
 30
0.0
  0
ARC
  5
21E77
330
1F
100
AcDbEntity
  8
SKVIEW1
100
AcDbCircle
 10
-81.77941695434407
 20
-1.864077000000079
 30
0.0
 40
1.972054
100
AcDbArc
 50
157.6104829999961
 51
165.4385579999954
  0
SPLINE
  5
21E78
330
1F
100
AcDbEntity
  8
SKVIEW1
100
AcDbSpline
210
0.0
220
0.0
230
1.0
 70
     8
 71
     5
 72
    12
 73
     6
 74
     0
 42
0.000000001
 43
0.0000000001
 40
0.0
 40
0.0
 40
0.0
 40
0.0
 40
0.0
 40
0.0
 40
1.666459234331571
 40
1.666459234331571
 40
1.666459234331571
 40
1.666459234331571
 40
1.666459234331571
 40
1.666459234331571
 10
-83.68810082394697
 20
-1.368273024151235
 30
0.0
 10
-83.72551917666028
 20
-1.513483485529619
 30
0.0
 10
-83.74435419836499
 20
-1.648291470557651
 30
0.0
 10
-83.74647367084088
 20
-1.76720863031177
 30
0.0
 10
-83.73812990500955
 20
-1.860420257644719
 30
0.0
 10
-83.7248629335923
 20
-1.928259834710175
 30
0.0
  0
ARC
  5
21E79
330
1F
100
AcDbEntity
  8
SKVIEW1
100
AcDbCircle
 10
-82.17785195434414
 20
-1.603738000000035
 30
0.0
 40
1.581017
100
AcDbArc
 50
191.8473490000012
 51
209.0495800000007
  0
ARC
  5
21E7A
330
1F
100
AcDbEntity
  8
SKVIEW1
100
AcDbCircle
 10
-88.98889595434429
 20
-0.0000170000001987
 30
0.0
 40
7.040155999999997
100
AcDbArc
 50
355.5028160000013
 51
359.2488309999968
  0
ARC
  5
21E7B
330
1F
100
AcDbEntity
  8
SKVIEW1
100
AcDbCircle
 10
-88.9893749543441
 20
-0.0000000000000142
 30
0.0
 40
6.224999999999997
100
AcDbArc
 50
162.137822
 51
172.6431389999949
  0
SPLINE
  5
21E7C
330
1F
100
AcDbEntity
  8
SKVIEW1
100
AcDbSpline
210
0.0
220
0.0
230
1.0
 70
     8
 71
     5
 72
    18
 73
    12
 74
     0
 42
0.000000001
 43
0.0000000001
 40
0.0
 40
0.0
 40
0.0
 40
0.0
 40
0.0
 40
0.0
 40
1.70915150267426
 40
1.70915150267426
 40
1.70915150267426
 40
3.337792025759696
 40
3.337792025759696
 40
3.337792025759696
 40
5.432436547652056
 40
5.432436547652056
 40
5.432436547652056
 40
5.432436547652056
 40
5.432436547652056
 40
5.432436547652056
 10
-94.37591760015635
 20
1.112909242560689
 30
0.0
 10
-94.44122595432242
 20
0.9535460455206106
 30
0.0
 10
-94.52156960903826
 20
0.8075137966112464
 30
0.0
 10
-94.61343250342094
 20
0.6802798887607509
 30
0.0
 10
-94.80670224280419
 20
0.4668879798614256
 30
0.0
 10
-95.01862448918263
 20
0.3162687140933116
 30
0.0
 10
-95.12488417000913
 20
0.2560375848630514
 30
0.0
 10
-95.37073237894649
 20
0.1463976698776008
 30
0.0
 10
-95.61944368642292
 20
0.0940711354212312
 30
0.0
 10
-95.75791681832146
 20
0.0803634907932605
 30
0.0
 10
-95.89471319503122
 20
0.0801972225312824
 30
0.0
 10
-96.02940442820369
 20
0.0923129180701921
 30
0.0
  0
ARC
  5
21E7D
330
1F
100
AcDbEntity
  8
SKVIEW1
100
AcDbCircle
 10
-96.19933295434414
 20
1.864076999999937
 30
0.0
 40
1.972054
100
AcDbArc
 50
337.6104829999962
 51
345.4385579999954
  0
SPLINE
  5
21E7E
330
1F
100
AcDbEntity
  8
SKVIEW1
100
AcDbSpline
210
0.0
220
0.0
230
1.0
 70
     8
 71
     5
 72
    12
 73
     6
 74
     0
 42
0.000000001
 43
0.0000000001
 40
0.0
 40
0.0
 40
0.0
 40
0.0
 40
0.0
 40
0.0
 40
1.666459210656505
 40
1.666459210656505
 40
1.666459210656505
 40
1.666459210656505
 40
1.666459210656505
 40
1.666459210656505
 10
-94.29064908475124
 20
1.368273024112554
 30
0.0
 10
-94.2532307324763
 20
1.513483483778927
 30
0.0
 10
-94.23439571071089
 20
1.648291467571411
 30
0.0
 10
-94.23227623808571
 20
1.767208632959281
 30
0.0
 10
-94.2406200038674
 20
1.860420258602729
 30
0.0
 10
-94.25388697509623
 20
1.928259834709692
 30
0.0
  0
ARC
  5
21E7F
330
1F
100
AcDbEntity
  8
SKVIEW1
100
AcDbCircle
 10
-95.80089795434407
 20
1.603738000000006
 30
0.0
 40
1.581017
100
AcDbArc
 50
11.84734900000205
 51
29.04958000000075
  0
ARC
  5
21E80
330
1F
100
AcDbEntity
  8
SKVIEW1
100
AcDbCircle
 10
-96.2063219543441
 20
2.814887999999982
 30
0.0
 40
2.271497999999998
100
AcDbArc
 50
275.000356000001
 51
297.3389259999997
  0
ARC
  5
21E81
330
1F
100
AcDbEntity
  8
SKVIEW1
100
AcDbCircle
 10
-88.98985395434413
 20
0.0000169999999429
 30
0.0
 40
7.040155999999997
100
AcDbArc
 50
175.5028160000013
 51
179.2488310000033
  0
ARC
  5
21E82
330
1F
100
AcDbEntity
  8
SKVIEW1
100
AcDbCircle
 10
31.78499304565588
 20
55.73031400000001
 30
0.0
 40
137.334871
100
AcDbArc
 50
199.9917830000002
 51
202.0939550000017
  0
ARC
  5
21E83
330
1F
100
AcDbEntity
  8
SKVIEW1
100
AcDbCircle
 10
-78.51008995434398
 20
9.906114999999758
 30
0.0
 40
18.798102
100
AcDbArc
 50
181.9318969999968
 51
183.4419180000001
  0
ARC
  5
21E84
330
1F
100
AcDbEntity
  8
SKVIEW1
100
AcDbCircle
 10
-111.3997269543441
 20
-6.899587000000011
 30
0.0
 40
19.347717
100
AcDbArc
 50
28.63302099999927
 51
34.55635399999849
  0
ARC
  5
21E85
330
1F
100
AcDbEntity
  8
SKVIEW1
100
AcDbCircle
 10
-209.7637429543443
 20
-55.73031400000004
 30
0.0
 40
137.334871
100
AcDbArc
 50
19.99178300000026
 51
22.09395500000167
  0
ARC
  5
21E86
330
1F
100
AcDbEntity
  8
SKVIEW1
100
AcDbCircle
 10
-99.46815095434429
 20
-9.906092000000072
 30
0.0
 40
18.797593
100
AcDbArc
 50
1.931876000003394
 51
3.441939000000883
  0
ARC
  5
21E87
330
1F
100
AcDbEntity
  8
SKVIEW1
100
AcDbCircle
 10
-66.57902295434411
 20
6.899586999999982
 30
0.0
 40
19.347717
100
AcDbArc
 50
208.6330209999993
 51
214.5563539999985
  0
ARC
  5
21E88
330
1F
100
AcDbEntity
  8
SKVIEW1
100
AcDbCircle
 10
-88.9893749543441
 20
-0.0000000000000142
 30
0.0
 40
7.224999999999997
100
AcDbArc
 50
355.7474859999957
 51
63.57538699999577
  0
LINE
  5
21E89
330
1F
100
AcDbEntity
  8
SKVIEW1
100
AcDbLine
 10
-81.94934595434409
 20
-0.0923129999998906
 30
0.0
 11
-81.7652079543439
 21
-0.1101090000000937
 31
0.0
  0
LINE
  5
21E8A
330
1F
100
AcDbEntity
  8
SKVIEW1
100
AcDbLine
 10
-88.9893749543441
 20
12.06999999999992
 30
0.0
 11
-88.9893749543441
 21
12.44999999999992
 31
0.0
  0
LINE
  5
21E8B
330
1F
100
AcDbEntity
  8
SKVIEW1
100
AcDbLine
 10
-88.9893749543441
 20
8.38720499999998
 30
0.0
 11
-88.9893749543441
 21
12.06999999999992
 31
0.0
  0
ARC
  5
21E8C
330
1F
100
AcDbEntity
  8
SKVIEW1
100
AcDbCircle
 10
-88.68937495434414
 20
7.841764000000111
 30
0.0
 40
0.6225000000000001
100
AcDbArc
 50
118.8113799999997
 51
267.8091210000003
  0
ARC
  5
21E8D
330
1F
100
AcDbEntity
  8
SKVIEW1
100
AcDbCircle
 10
-88.9893749543441
 20
-0.0000000000000142
 30
0.0
 40
7.224999999999997
100
AcDbArc
 50
63.57539900000254
 51
87.8091210000003
  0
LINE
  5
21E8E
330
1F
100
AcDbEntity
  8
SKVIEW1
100
AcDbLine
 10
-88.61414395434445
 20
0.2298679999997688
 30
0.0
 11
-83.60283195434414
 21
-1.112909000000072
 31
0.0
  0
ARC
  5
21E8F
330
1F
100
AcDbEntity
  8
SKVIEW1
100
AcDbCircle
 10
-91.72250695434405
 20
8.369666999999807
 30
0.0
 40
6.244226
100
AcDbArc
 50
335.1081919999988
 51
342.2899169999995
  0
LINE
  5
21E90
330
1F
100
AcDbEntity
  8
SKVIEW1
100
AcDbLine
 10
-87.27422895434443
 20
3.139552999999963
 30
0.0
 11
-86.05844395434401
 21
5.74148099999978
 31
0.0
  0
SPLINE
  5
21E91
330
1F
100
AcDbEntity
  8
SKVIEW1
100
AcDbSpline
210
0.0
220
0.0
230
1.0
 70
     8
 71
     5
 72
    24
 73
    18
 74
     0
 42
0.000000001
 43
0.0000000001
 40
0.0
 40
0.0
 40
0.0
 40
0.0
 40
0.0
 40
0.0
 40
26.81824761891841
 40
26.81824761891841
 40
26.81824761891841
 40
42.98523001587064
 40
42.98523001587064
 40
42.98523001587064
 40
49.30294382907434
 40
49.30294382907434
 40
49.30294382907434
 40
52.93960049155202
 40
52.93960049155202
 40
52.93960049155202
 40
53.80982567345228
 40
53.80982567345228
 40
53.80982567345228
 40
53.80982567345228
 40
53.80982567345228
 40
53.80982567345228
 10
-88.61414443002827
 20
0.2298677934069104
 30
0.0
 10
-88.59943832471078
 20
0.2665482977385949
 30
0.0
 10
-88.58131851300806
 20
0.3103029305622016
 30
0.0
 10
-88.55926514901517
 20
0.3617417415687072
 30
0.0
 10
-88.51360573803782
 20
0.4670525460081621
 30
0.0
 10
-88.41489316440066
 20
0.685207278931884
 30
0.0
 10
-88.36897697464115
 20
0.785673686957793
 30
0.0
 10
-88.28670973811886
 20
0.9653014514300224
 30
0.0
 10
-88.09745182149899
 20
1.373443362097745
 30
0.0
 10
-88.03391500599053
 20
1.510235350904949
 30
0.0
 10
-87.90703681083385
 20
1.783095066547829
 30
0.0
 10
-87.70997412277523
 20
2.205835332657542
 30
0.0
 10
-87.62280415700372
 20
2.392791920507747
 30
0.0
 10
-87.50184993170757
 20
2.65198754111644
 30
0.0
 10
-87.36049823124966
 20
2.95478597522775
 30
0.0
 10
-87.332454573147
 20
3.014855940346805
 30
0.0
 10
-87.30370254261055
 20
3.076434540722502
 30
0.0
 10
-87.27422911714274
 20
3.139553395943707
 30
0.0
  0
LINE
  5
21E92
330
1F
100
AcDbEntity
  8
SKVIEW1
100
AcDbLine
 10
-87.93773395434445
 20
-0.7994240000000588
 30
0.0
 11
-83.72486295434425
 21
-1.928260000000037
 31
0.0
  0
SPLINE
  5
21E93
330
1F
100
AcDbEntity
  8
SKVIEW1
100
AcDbSpline
210
0.0
220
0.0
230
1.0
 70
     8
 71
     5
 72
    54
 73
    48
 74
     0
 42
0.000000001
 43
0.0000000001
 40
0.0
 40
0.0
 40
0.0
 40
0.0
 40
0.0
 40
0.0
 40
37.07686176499896
 40
37.07686176499896
 40
37.07686176499896
 40
87.8685517367692
 40
87.8685517367692
 40
87.8685517367692
 40
100.1748970396725
 40
100.1748970396725
 40
100.1748970396725
 40
112.5601668964728
 40
112.5601668964728
 40
112.5601668964728
 40
117.8511606347354
 40
117.8511606347354
 40
117.8511606347354
 40
121.0009830032031
 40
121.0009830032031
 40
121.0009830032031
 40
121.9165276932467
 40
121.9165276932467
 40
121.9165276932467
 40
122.8320723832904
 40
122.8320723832904
 40
122.8320723832904
 40
123.074844715798
 40
123.074844715798
 40
123.074844715798
 40
123.3027970957998
 40
123.3027970957998
 40
123.3027970957998
 40
123.419621843508
 40
123.419621843508
 40
123.419621843508
 40
123.7700915450894
 40
123.7700915450894
 40
123.7700915450894
 40
124.0016655577731
 40
124.0016655577731
 40
124.0016655577731
 40
124.2332395704568
 40
124.2332395704568
 40
124.2332395704568
 40
124.7599951245947
 40
124.7599951245947
 40
124.7599951245947
 40
124.7599951245947
 40
124.7599951245947
 40
124.7599951245947
 10
-88.61414443002827
 20
0.2298677934069104
 30
0.0
 10
-88.63447957540092
 20
0.1791471320070599
 30
0.0
 10
-88.64060519075071
 20
0.1466584682071783
 30
0.0
 10
-88.6466674494879
 20
0.1161925114976015
 30
0.0
 10
-88.65249635144602
 20
0.0511389731643561
 30
0.0
 10
-88.64555286696083
 20
-0.0063628441628367
 30
0.0
 10
-88.63900261042926
 20
-0.0364367576771798
 30
0.0
 10
-88.62724448413535
 20
-0.081394673017158
 30
0.0
 10
-88.59754598224986
 20
-0.1467791963356291
 30
0.0
 10
-88.59083850929328
 20
-0.1606020338981722
 30
0.0
 10
-88.5754292749055
 20
-0.1906865052481095
 30
0.0
 10
-88.55384638793424
 20
-0.2276949709212346
 30
0.0
 10
-88.54114748246393
 20
-0.2480798734075194
 30
0.0
 10
-88.51908903830638
 20
-0.2820101049121746
 30
0.0
 10
-88.4837869522741
 20
-0.3293278546617699
 30
0.0
 10
-88.46987825788977
 20
-0.3473247035996252
 30
0.0
 10
-88.4465690383692
 20
-0.3765593294551905
 30
0.0
 10
-88.41400684716342
 20
-0.4138163046496999
 30
0.0
 10
-88.40087749234379
 20
-0.4281940729475906
 30
0.0
 10
-88.38245806318088
 20
-0.4484503640914142
 30
0.0
 10
-88.35405588298744
 20
-0.4775245708414247
 30
0.0
 10
-88.34700965586041
 20
-0.4846361110786717
 30
0.0
 10
-88.33145935048497
 20
-0.5001105849313632
 30
0.0
 10
-88.31192087030155
 20
-0.5188868002948226
 30
0.0
 10
-88.30021448563488
 20
-0.5298402438792352
 30
0.0
 10
-88.28489704344036
 20
-0.544183687559567
 30
0.0
 10
-88.2614650247196
 20
-0.5649838451614784
 30
0.0
 10
-88.25717922837299
 20
-0.5687750532422485
 30
0.0
 10
-88.24611446663476
 20
-0.5783495615627459
 30
0.0
 10
-88.23419157496909
 20
-0.5885186851950408
 30
0.0
 10
-88.22769239205882
 20
-0.5940787971274091
 30
0.0
 10
-88.21563320847491
 20
-0.6042979193417893
 30
0.0
 10
-88.19318095528222
 20
-0.6225273895899051
 30
0.0
 10
-88.18451891888315
 20
-0.6294953765232237
 30
0.0
 10
-88.14918688490122
 20
-0.6577104799477099
 30
0.0
 10
-88.11149864200549
 20
-0.6868715710294424
 30
0.0
 10
-88.08700686799994
 20
-0.7049676078802492
 30
0.0
 10
-88.05733616394405
 20
-0.7252394010321411
 30
0.0
 10
-88.03945309592
 20
-0.7360398688330321
 30
0.0
 10
-88.03358897176138
 20
-0.7394706665798055
 30
0.0
 10
-88.02193843658534
 20
-0.746730852151714
 30
0.0
 10
-88.01027131988684
 20
-0.7544419166352015
 30
0.0
 10
-88.00466361002321
 20
-0.7580328993707468
 30
0.0
 10
-87.98673885169904
 20
-0.7694906758691929
 30
0.0
 10
-87.97009110876791
 20
-0.7798615080187262
 30
0.0
 10
-87.9589534709591
 20
-0.7866931321336921
 30
0.0
 10
-87.94819187429045
 20
-0.7931949163445467
 30
0.0
 10
-87.93773428142145
 20
-0.7994243592477375
 30
0.0
  0
LINE
  5
21E94
330
1F
100
AcDbEntity
  8
SKVIEW1
100
AcDbLine
 10
-83.52731595434425
 20
-3.423577000000037
 30
0.0
 11
-87.93773395434445
 21
-0.7994240000000588
 31
0.0
  0
ARC
  5
21E95
330
1F
100
AcDbEntity
  8
SKVIEW1
100
AcDbCircle
 10
-92.71836095434428
 20
-18.82338600000004
 30
0.0
 40
17.934108
100
AcDbArc
 50
55.68151299999751
 51
59.17004500000179
  0
LINE
  5
21E96
330
1F
100
AcDbEntity
  8
SKVIEW1
100
AcDbLine
 10
-82.60720295434413
 20
-4.011251000000029
 30
0.0
 11
-82.5135719543444
 21
-4.075016000000019
 31
0.0
  0
LINE
  5
21E97
330
1F
100
AcDbEntity
  8
SKVIEW1
100
AcDbLine
 10
-96.1944839543441
 20
0.5357499999997657
 30
0.0
 11
-96.0083339543441
 21
0.5520359999999159
 31
0.0
  0
LINE
  5
21E98
330
1F
100
AcDbEntity
  8
SKVIEW1
100
AcDbLine
 10
-94.37591795434405
 20
1.112908999999817
 30
0.0
 11
-89.3646059543442
 21
-0.2298680000001383
 31
0.0
  0
LINE
  5
21E99
330
1F
100
AcDbEntity
  8
SKVIEW1
100
AcDbLine
 10
-96.0294039543441
 20
0.0923129999998622
 30
0.0
 11
-96.21354195434406
 21
0.1101089999998379
 31
0.0
  0
ARC
  5
21E9A
330
1F
100
AcDbEntity
  8
SKVIEW1
100
AcDbCircle
 10
-88.9893749543441
 20
-0.0000000000000142
 30
0.0
 40
7.224999999999997
100
AcDbArc
 50
175.7474859999957
 51
267.8091219999966
  0
ARC
  5
21E9B
330
1F
100
AcDbEntity
  8
SKVIEW1
100
AcDbCircle
 10
-86.25624295434414
 20
-8.369667000000063
 30
0.0
 40
6.244226
100
AcDbArc
 50
155.1081919999988
 51
162.2899169999995
  0
LINE
  5
21E9C
330
1F
100
AcDbEntity
  8
SKVIEW1
100
AcDbLine
 10
-90.70452095434445
 20
-3.139553000000219
 30
0.0
 11
-91.92030595434408
 21
-5.741481000000149
 31
0.0
  0
SPLINE
  5
21E9D
330
1F
100
AcDbEntity
  8
SKVIEW1
100
AcDbSpline
210
0.0
220
0.0
230
1.0
 70
     8
 71
     5
 72
    24
 73
    18
 74
     0
 42
0.000000001
 43
0.0000000001
 40
0.0
 40
0.0
 40
0.0
 40
0.0
 40
0.0
 40
0.0
 40
26.81824762001188
 40
26.81824762001188
 40
26.81824762001188
 40
42.9852300156183
 40
42.9852300156183
 40
42.9852300156183
 40
49.30294382906581
 40
49.30294382906581
 40
49.30294382906581
 40
52.93960049204524
 40
52.93960049204524
 40
52.93960049204524
 40
53.80982567396833
 40
53.80982567396833
 40
53.80982567396833
 40
53.80982567396833
 40
53.80982567396833
 40
53.80982567396833
 10
-89.36460547866008
 20
-0.2298677934070525
 30
0.0
 10
-89.379311583978
 20
-0.2665482977397602
 30
0.0
 10
-89.39743139568324
 20
-0.310302930567687
 30
0.0
 10
-89.41948475967189
 20
-0.3617417415611186
 30
0.0
 10
-89.46514417064582
 20
-0.4670525460001187
 30
0.0
 10
-89.56385674428583
 20
-0.685207278921908
 30
0.0
 10
-89.60977293404079
 20
-0.785673686955434
 30
0.0
 10
-89.69204017058968
 20
-0.9653014514685906
 30
0.0
 10
-89.88129808719277
 20
-1.373443362105959
 30
0.0
 10
-89.9448349026972
 20
-1.510235350902931
 30
0.0
 10
-90.07171309786173
 20
-1.783095066562864
 30
0.0
 10
-90.2687757859381
 20
-2.20583533271305
 30
0.0
 10
-90.35594575166902
 20
-2.392791920468212
 30
0.0
 10
-90.47689997696279
 20
-2.651987541077588
 30
0.0
 10
-90.61825167742785
 20
-2.954785975209247
 30
0.0
 10
-90.64629533553016
 20
-3.014855940327848
 30
0.0
 10
-90.67504736606867
 20
-3.076434540706955
 30
0.0
 10
-90.7045207915427
 20
-3.139553395938165
 30
0.0
  0
SPLINE
  5
21E9E
330
1F
100
AcDbEntity
  8
SKVIEW1
100
AcDbSpline
210
0.0
220
0.0
230
1.0
 70
     8
 71
     5
 72
    54
 73
    48
 74
     0
 42
0.000000001
 43
0.0000000001
 40
0.0
 40
0.0
 40
0.0
 40
0.0
 40
0.0
 40
0.0
 40
37.07686175473217
 40
37.07686175473217
 40
37.07686175473217
 40
87.86855175378788
 40
87.86855175378788
 40
87.86855175378788
 40
100.17489706025
 40
100.17489706025
 40
100.17489706025
 40
112.5601669190015
 40
112.5601669190015
 40
112.5601669190015
 40
117.8511607100807
 40
117.8511607100807
 40
117.8511607100807
 40
121.000983067755
 40
121.000983067755
 40
121.000983067755
 40
121.916527730925
 40
121.916527730925
 40
121.916527730925
 40
122.8320723940951
 40
122.8320723940951
 40
122.8320723940951
 40
123.0748447504413
 40
123.0748447504413
 40
123.0748447504413
 40
123.3027971314547
 40
123.3027971314547
 40
123.3027971314547
 40
123.4196219201827
 40
123.4196219201827
 40
123.4196219201827
 40
123.7700917458531
 40
123.7700917458531
 40
123.7700917458531
 40
124.0016658719813
 40
124.0016658719813
 40
124.0016658719813
 40
124.2332399981096
 40
124.2332399981096
 40
124.2332399981096
 40
124.7599952345582
 40
124.7599952345582
 40
124.7599952345582
 40
124.7599952345582
 40
124.7599952345582
 40
124.7599952345582
 10
-89.36460547866008
 20
-0.2298677934070525
 30
0.0
 10
-89.34427033329308
 20
-0.1791471320215265
 30
0.0
 10
-89.33814471794546
 20
-0.1466584682260787
 30
0.0
 10
-89.3320824591969
 20
-0.1161925114568163
 30
0.0
 10
-89.32625355724026
 20
-0.0511389731151581
 30
0.0
 10
-89.33319704173749
 20
0.0063628442196517
 30
0.0
 10
-89.33974729827724
 20
0.036436757714327
 30
0.0
 10
-89.35150542456444
 20
0.0813946730718129
 30
0.0
 10
-89.3812039264962
 20
0.1467791964557676
 30
0.0
 10
-89.38791139946085
 20
0.1606020340287699
 30
0.0
 10
-89.40332063386604
 20
0.1906865054015583
 30
0.0
 10
-89.42490352087252
 20
0.2276949711153833
 30
0.0
 10
-89.43760242637125
 20
0.2480798736423679
 30
0.0
 10
-89.45966087064034
 20
0.2820101052954982
 30
0.0
 10
-89.4949629569175
 20
0.3293278553289696
 30
0.0
 10
-89.50887165096601
 20
0.3473247037787672
 30
0.0
 10
-89.53218087045565
 20
0.3765593296588889
 30
0.0
 10
-89.56474306209765
 20
0.4138163052775639
 30
0.0
 10
-89.57787241732985
 20
0.4281940740023487
 30
0.0
 10
-89.59629184688237
 20
0.4484503655584007
 30
0.0
 10
-89.6246940275193
 20
0.4775245726811903
 30
0.0
 10
-89.63174025466759
 20
0.4846361129030896
 30
0.0
 10
-89.64729055972188
 20
0.5001105864254072
 30
0.0
 10
-89.66682903976352
 20
0.5188868015835482
 30
0.0
 10
-89.67853542413326
 20
0.5298402448902238
 30
0.0
 10
-89.69385286652828
 20
0.5441836887252834
 30
0.0
 10
-89.71728488554191
 20
0.5649838465545685
 30
0.0
 10
-89.72157067999246
 20
0.5687750529627778
 30
0.0
 10
-89.73263544042566
 20
0.5783495601700537
 30
0.0
 10
-89.74455832722998
 20
0.5885186796459579
 30
0.0
 10
-89.75105750622066
 20
0.5940787882259287
 30
0.0
 10
-89.76311668512011
 20
0.6042979067662913
 30
0.0
 10
-89.78556893191813
 20
0.6225273722861715
 30
0.0
 10
-89.79423097159264
 20
0.6294953619343318
 30
0.0
 10
-89.82956301646078
 20
0.6577104743763443
 30
0.0
 10
-89.8672512748414
 20
0.6868715775640198
 30
0.0
 10
-89.8917430561724
 20
0.7049676194260286
 30
0.0
 10
-89.92141376477837
 20
0.7252394141618055
 30
0.0
 10
-89.93929683221967
 20
0.736039880445091
 30
0.0
 10
-89.94516095701516
 20
0.7394706785175771
 30
0.0
 10
-89.95681149769001
 20
0.7467308687624695
 30
0.0
 10
-89.96847862037128
 20
0.7544419374987541
 30
0.0
 10
-89.97408633140635
 20
0.7580329204140384
 30
0.0
 10
-89.99201108273842
 20
0.7694906919946192
 30
0.0
 10
-90.00865882007195
 20
0.7798615203792992
 30
0.0
 10
-90.01979645070964
 20
0.7866931399764639
 30
0.0
 10
-90.03055804070521
 20
0.7931949201010724
 30
0.0
 10
-90.04101562726708
 20
0.7994243592475954
 30
0.0
  0
LINE
  5
21E9F
330
1F
100
AcDbEntity
  8
SKVIEW1
100
AcDbLine
 10
-90.04101595434446
 20
0.7994239999999167
 30
0.0
 11
-94.25388695434429
 21
1.928260000000008
 31
0.0
  0
LINE
  5
21EA0
330
1F
100
AcDbEntity
  8
SKVIEW1
100
AcDbLine
 10
-94.4514339543444
 20
3.423577000000008
 30
0.0
 11
-90.04101595434446
 21
0.7994239999999167
 31
0.0
  0
ARC
  5
21EA1
330
1F
100
AcDbEntity
  8
SKVIEW1
100
AcDbCircle
 10
-85.26038895434414
 20
18.82338600000001
 30
0.0
 40
17.934108
100
AcDbArc
 50
235.6815129999975
 51
239.1700450000018
  0
LINE
  5
21EA2
330
1F
100
AcDbEntity
  8
SKVIEW1
100
AcDbLine
 10
-95.37154695434441
 20
4.011251000000001
 30
0.0
 11
-95.46517795434414
 21
4.07501599999999
 31
0.0
  0
ARC
  5
21EA3
330
1F
100
AcDbEntity
  8
SKVIEW1
100
AcDbCircle
 10
-88.9893749543441
 20
-0.0000000000000142
 30
0.0
 40
7.538053999999998
100
AcDbArc
 50
91.83371000000454
 51
147.8502779999952
  0
ARC
  5
21EA4
330
1F
100
AcDbEntity
  8
SKVIEW1
100
AcDbCircle
 10
-88.9893749543441
 20
-0.0000000000000142
 30
0.0
 40
12.07
100
AcDbArc
 50
90.0
 51
133.3461980000022
  0
ARC
  5
21EA5
330
1F
100
AcDbEntity
  8
SKVIEW1
100
AcDbCircle
 10
-88.9893749543441
 20
-0.0000000000000142
 30
0.0
 40
12.45
100
AcDbArc
 50
90.0
 51
131.8605470000012
  0
ARC
  5
21EA6
330
1F
100
AcDbEntity
  8
SKVIEW1
100
AcDbCircle
 10
-88.9893749543441
 20
-0.0000000000000142
 30
0.0
 40
7.538053999999998
100
AcDbArc
 50
271.8337100000046
 51
327.8502779999952
  0
ARC
  5
21EA7
330
1F
100
AcDbEntity
  8
SKVIEW1
100
AcDbCircle
 10
-89.28937495434402
 20
-7.841764000000139
 30
0.0
 40
0.6225000000000001
100
AcDbArc
 50
298.8113799999997
 51
87.8091210000003
  0
LINE
  5
21EA8
330
1F
100
AcDbEntity
  8
SKVIEW1
100
AcDbLine
 10
-88.9893749543441
 20
-8.387205000000008
 30
0.0
 11
-88.9893749543441
 21
-12.07000000000006
 31
0.0
  0
ARC
  5
21EA9
330
1F
100
AcDbEntity
  8
SKVIEW1
100
AcDbCircle
 10
-88.9893749543441
 20
-0.0000000000000142
 30
0.0
 40
12.07
100
AcDbArc
 50
270.0
 51
313.3461980000023
  0
ARC
  5
21EAA
330
1F
100
AcDbEntity
  8
SKVIEW1
100
AcDbCircle
 10
-88.9893749543441
 20
-0.0000000000000142
 30
0.0
 40
12.45
100
AcDbArc
 50
270.0
 51
311.8605470000012
  0
LINE
  5
21EAB
330
1F
100
AcDbEntity
  8
SKVIEW1
100
AcDbLine
 10
-88.9893749543441
 20
-12.07000000000006
 30
0.0
 11
-88.9893749543441
 21
-12.45000000000017
 31
0.0
  0
ARC
  5
21EAC
330
1F
100
AcDbEntity
  8
SKVIEW1
100
AcDbCircle
 10
-88.9893749543441
 20
-0.0000000000000142
 30
0.0
 40
6.446314
100
AcDbArc
 50
62.95644199999615
 51
147.9208280000025
  0
ARC
  5
21EAD
330
1F
100
AcDbEntity
  8
SKVIEW1
100
AcDbCircle
 10
-88.9893749543441
 20
-0.0000000000000142
 30
0.0
 40
6.446314
100
AcDbArc
 50
242.9564419999961
 51
327.9208280000026
  0
ARC
  5
21EAE
330
1F
100
AcDbEntity
  8
SKVIEW1
100
AcDbCircle
 10
-88.9893749543441
 20
-0.0000000000000142
 30
0.0
 40
7.224999999999997
100
AcDbArc
 50
6.01679600000369
 51
87.82244500000087
  0
LINE
  5
21EAF
330
1F
100
AcDbEntity
  8
SKVIEW1
100
AcDbLine
 10
-75.94480895434407
 20
-4.245334000000084
 30
0.0
 11
-75.94480895434407
 21
1.879267000000126
 31
0.0
  0
ARC
  5
21EB0
330
1F
100
AcDbEntity
  8
SKVIEW1
100
AcDbCircle
 10
-78.53334395434405
 20
-3.671891000000087
 30
0.0
 40
6.125017999999997
100
AcDbArc
 50
65.00011200000095
 51
123.4454630000006
  0
ARC
  5
21EB1
330
1F
100
AcDbEntity
  8
SKVIEW1
100
AcDbCircle
 10
-88.9893749543441
 20
-0.0000000000000142
 30
0.0
 40
6.224999999999997
100
AcDbArc
 50
346.5920689999969
 51
352.6430629999985
  0
LINE
  5
21EB2
330
1F
100
AcDbEntity
  8
SKVIEW1
100
AcDbLine
 10
-83.12884895434427
 20
-3.122589000000189
 30
0.0
 11
-83.12884895434427
 21
-1.929933000000247
 31
0.0
  0
SPLINE
  5
21EB3
330
1F
100
AcDbEntity
  8
SKVIEW1
100
AcDbSpline
210
0.0
220
0.0
230
1.0
 70
     8
 71
     5
 72
    24
 73
    18
 74
     0
 42
0.000000001
 43
0.0000000001
 40
0.0
 40
0.0
 40
0.0
 40
0.0
 40
0.0
 40
0.0
 40
2.587411724860364
 40
2.587411724860364
 40
2.587411724860364
 40
5.381837897647471
 40
5.381837897647471
 40
5.381837897647471
 40
8.349612087871891
 40
8.349612087871891
 40
8.349612087871891
 40
11.13368870648875
 40
11.13368870648875
 40
11.13368870648875
 40
13.72990159474205
 40
13.72990159474205
 40
13.72990159474205
 40
13.72990159474205
 40
13.72990159474205
 40
13.72990159474205
 10
-75.94480635459905
 20
-4.245316940158446
 30
0.0
 10
-76.1113863551488
 20
-4.246402912144631
 30
0.0
 10
-76.29256083670083
 20
-4.245294823007512
 30
0.0
 10
-76.49094948713781
 20
-4.242080769479812
 30
0.0
 10
-76.94294513510141
 20
-4.231657469992697
 30
0.0
 10
-77.47584564533821
 20
-4.218021992506933
 30
0.0
 10
-77.77153713244132
 20
-4.211341307541843
 30
0.0
 10
-78.4240560420422
 20
-4.203529216698953
 30
0.0
 10
-79.10298971641674
 20
-4.215232205894395
 30
0.0
 10
-79.44140000845772
 20
-4.228080565152609
 30
0.0
 10
-80.0826196668674
 20
-4.26666290074219
 30
0.0
 10
-80.65577244369052
 20
-4.326038345829161
 30
0.0
 10
-80.91913770740331
 20
-4.359229825496086
 30
0.0
 10
-81.38550872871343
 20
-4.427533651133003
 30
0.0
 10
-81.78929605562343
 20
-4.502488125542541
 30
0.0
 10
-81.97069954645479
 20
-4.539544272243247
 30
0.0
 10
-82.13914847337028
 20
-4.57681772833088
 30
0.0
 10
-82.29606914329991
 20
-4.614012355588457
 30
0.0
  0
LINE
  5
21EB4
330
1F
100
AcDbEntity
  8
SKVIEW1
100
AcDbLine
 10
-88.9893749543441
 20
7.296318999999911
 30
0.0
 11
-88.9893749543441
 21
10.0899999999999
 31
0.0
  0
LINE
  5
21EB5
330
1F
100
AcDbEntity
  8
SKVIEW1
100
AcDbLine
 10
-75.94480895434407
 20
1.879267000000126
 30
0.0
 11
-64.95736995434407
 21
-3.244260000000068
 31
0.0
  0
ARC
  5
21EB6
330
1F
100
AcDbEntity
  8
SKVIEW1
100
AcDbCircle
 10
-88.9893749543441
 20
-0.0000000000000142
 30
0.0
 40
24.25
100
AcDbArc
 50
336.7438509999971
 51
77.61773600000153
  0
LINE
  5
21EB7
330
1F
100
AcDbEntity
  8
SKVIEW1
100
AcDbLine
 10
-83.78937495434405
 20
10.0899999999999
 30
0.0
 11
-83.78937495434405
 21
23.68591400000001
 31
0.0
  0
LINE
  5
21EB8
330
1F
100
AcDbEntity
  8
SKVIEW1
100
AcDbLine
 10
-83.78937495434405
 20
10.0899999999999
 30
0.0
 11
-88.9893749543441
 21
10.0899999999999
 31
0.0
  0
CIRCLE
  5
21EB9
330
1F
100
AcDbEntity
  8
SKVIEW1
100
AcDbCircle
 10
-72.01527695434407
 20
9.799999999999826
 30
0.0
 40
2.45
  0
SPLINE
  5
21EBA
330
1F
100
AcDbEntity
  8
SKVIEW1
100
AcDbSpline
210
0.0
220
0.0
230
1.0
 70
     8
 71
     5
 72
    39
 73
    33
 74
     0
 42
0.000000001
 43
0.0000000001
 40
0.0
 40
0.0
 40
0.0
 40
0.0
 40
0.0
 40
0.0
 40
5.007197588415518
 40
5.007197588415518
 40
5.007197588415518
 40
7.561276959847352
 40
7.561276959847352
 40
7.561276959847352
 40
9.316422612947283
 40
9.316422612947283
 40
9.316422612947283
 40
10.65892218697564
 40
10.65892218697564
 40
10.65892218697564
 40
11.8594554690531
 40
11.8594554690531
 40
11.8594554690531
 40
13.19526677483522
 40
13.19526677483522
 40
13.19526677483522
 40
14.80540325500013
 40
14.80540325500013
 40
14.80540325500013
 40
16.66447130084685
 40
16.66447130084685
 40
16.66447130084685
 40
21.66228438344488
 40
21.66228438344488
 40
21.66228438344488
 40
25.64007750945436
 40
25.64007750945436
 40
25.64007750945436
 40
25.64007750945436
 40
25.64007750945436
 40
25.64007750945436
 10
-75.94480635459939
 20
-4.245316940159355
 30
0.0
 10
-75.6223672772765
 20
-4.243214888275147
 30
0.0
 10
-75.29288641378133
 20
-4.248289515944421
 30
0.0
 10
-74.9511928194317
 20
-4.262185136848771
 30
0.0
 10
-74.42162700127932
 20
-4.29874575541568
 30
0.0
 10
-73.85020475173877
 20
-4.372514095838155
 30
0.0
 10
-73.65168680377775
 20
-4.402504408787777
 30
0.0
 10
-73.3041630287517
 20
-4.463647140379876
 30
0.0
 10
-72.92847936478375
 20
-4.55000463050068
 30
0.0
 10
-72.76961836254367
 20
-4.590303322967102
 30
0.0
 10
-72.47842027814141
 20
-4.672415238212138
 30
0.0
 10
-72.16746229090694
 20
-4.778893433494104
 30
0.0
 10
-72.02160408762932
 20
-4.833114176349809
 30
0.0
 10
-71.75306733123676
 20
-4.94247219761327
 30
0.0
 10
-71.48316853319006
 20
-5.071779366130968
 30
0.0
 10
-71.35687630162824
 20
-5.137165061958867
 30
0.0
 10
-71.10018100775033
 20
-5.280556711969794
 30
0.0
 10
-70.86857651615122
 20
-5.430292686781072
 30
0.0
 10
-70.75200946718081
 20
-5.511477979866995
 30
0.0
 10
-70.5183068077078
 20
-5.685070647890157
 30
0.0
 10
-70.3198709189474
 20
-5.85344187800878
 30
0.0
 10
-70.21990786146097
 20
-5.94387926039873
 30
0.0
 10
-70.02098217141534
 20
-6.134275478986992
 30
0.0
 10
-69.85007510124336
 20
-6.318151196693307
 30
0.0
 10
-69.76232711809456
 20
-6.417989663228595
 30
0.0
 10
-69.46598052286441
 20
-6.77337075004074
 30
0.0
 10
-69.23211226797542
 20
-7.11455081444366
 30
0.0
 10
-69.08274349109291
 20
-7.356364418334592
 30
0.0
 10
-68.8411812671398
 20
-7.789317131584667
 30
0.0
 10
-68.64118834291179
 20
-8.216318075752397
 30
0.0
 10
-68.55922046248696
 20
-8.404929716403231
 30
0.0
 10
-68.48332284801978
 20
-8.592942640319975
 30
0.0
 10
-68.41274725146144
 20
-8.780747222607615
 30
0.0
  0
LINE
  5
21EBB
330
1F
100
AcDbEntity
  8
SKVIEW1
100
AcDbLine
 10
-68.41270095434407
 20
-8.780814000000091
 30
0.0
 11
-66.70971595434406
 21
-9.574930000000009
 31
0.0
  0
ARC
  5
21EBC
330
1F
100
AcDbEntity
  8
SKVIEW1
100
AcDbCircle
 10
-80.39870395434405
 20
-25.0831000000002
 30
0.0
 40
19.559426
100
AcDbArc
 50
92.19483799999856
 51
94.43750199999792
  0
ARC
  5
21EBD
330
1F
100
AcDbEntity
  8
SKVIEW1
100
AcDbCircle
 10
-88.9893749543441
 20
-0.0000000000000142
 30
0.0
 40
9.599999999999999
100
AcDbArc
 50
324.7689120000015
 51
332.4014130000023
  0
ELLIPSE
  5
21EBE
330
1F
100
AcDbEntity
  8
SKVIEW1
100
AcDbEllipse
 10
-78.81788195434404
 20
-18.37688300000003
 30
0.0
 11
12.25565338134765
 21
7.097046375274659
 31
0.0
210
0.0
220
0.0
230
1.0
 40
0.9888379999999994
 41
0.2224728703791641
 42
1.168839452338774
  0
LINE
  5
21EBF
330
1F
100
AcDbEntity
  8
SKVIEW1
100
AcDbLine
 10
-94.84990095434412
 20
3.122588999999933
 30
0.0
 11
-94.84990095434412
 21
1.929932999999763
 31
0.0
  0
LINE
  5
21EC0
330
1F
100
AcDbEntity
  8
SKVIEW1
100
AcDbLine
 10
-102.0339409543442
 20
4.245333999999942
 30
0.0
 11
-102.0339409543442
 21
-1.879267000000155
 31
0.0
  0
ARC
  5
21EC1
330
1F
100
AcDbEntity
  8
SKVIEW1
100
AcDbCircle
 10
-99.4456489543441
 20
3.673064999999823
 30
0.0
 40
6.126195
100
AcDbArc
 50
245.0068099999976
 51
303.4413020000005
  0
ARC
  5
21EC2
330
1F
100
AcDbEntity
  8
SKVIEW1
100
AcDbCircle
 10
-88.9893749543441
 20
-0.0000000000000142
 30
0.0
 40
7.224999999999997
100
AcDbArc
 50
186.0167960000037
 51
241.3521100000017
  0
SPLINE
  5
21EC3
330
1F
100
AcDbEntity
  8
SKVIEW1
100
AcDbSpline
210
0.0
220
0.0
230
1.0
 70
     8
 71
     5
 72
    24
 73
    18
 74
     0
 42
0.000000001
 43
0.0000000001
 40
0.0
 40
0.0
 40
0.0
 40
0.0
 40
0.0
 40
0.0
 40
2.587411943548115
 40
2.587411943548115
 40
2.587411943548115
 40
5.381838379857645
 40
5.381838379857645
 40
5.381838379857645
 40
8.349612826797141
 40
8.349612826797141
 40
8.349612826797141
 40
11.13368962547454
 40
11.13368962547454
 40
11.13368962547454
 40
13.72990267507354
 40
13.72990267507354
 40
13.72990267507354
 40
13.72990267507354
 40
13.72990267507354
 40
13.72990267507354
 10
-102.0339435540892
 20
4.245316940158303
 30
0.0
 10
-101.8673635394718
 20
4.246402912238735
 30
0.0
 10
-101.686189041386
 20
4.245294822824675
 30
0.0
 10
-101.4878003712967
 20
4.242080768664308
 30
0.0
 10
-101.0358046729439
 20
4.231657467304316
 30
0.0
 10
-100.5029040979145
 20
4.218021988509676
 30
0.0
 10
-100.2072125740322
 20
4.21134130345932
 30
0.0
 10
-99.55469358694069
 20
4.20352921585173
 30
0.0
 10
-98.87575985335793
 20
4.215232215183263
 30
0.0
 10
-98.53734954757744
 20
4.228080580836703
 30
0.0
 10
-97.89612986568869
 20
4.266662930557671
 30
0.0
 10
-97.32297708665164
 20
4.326038389531831
 30
0.0
 10
-97.05961182917185
 20
4.359229874924594
 30
0.0
 10
-96.59324081929987
 20
4.427533710777069
 30
0.0
 10
-96.18945350863789
 20
4.502488192959717
 30
0.0
 10
-96.00805002637327
 20
4.539544342813073
 30
0.0
 10
-95.83960110823142
 20
4.576817801555407
 30
0.0
 10
-95.68268044725261
 20
4.614012430995316
 30
0.0
  0
SPLINE
  5
21EC4
330
1F
100
AcDbEntity
  8
SKVIEW1
100
AcDbSpline
210
0.0
220
0.0
230
1.0
 70
     8
 71
     5
 72
    39
 73
    33
 74
     0
 42
0.000000001
 43
0.0000000001
 40
0.0
 40
0.0
 40
0.0
 40
0.0
 40
0.0
 40
0.0
 40
5.007197586669983
 40
5.007197586669983
 40
5.007197586669983
 40
7.561276958058352
 40
7.561276958058352
 40
7.561276958058352
 40
9.316422611135774
 40
9.316422611135774
 40
9.316422611135774
 40
10.65892218627441
 40
10.65892218627441
 40
10.65892218627441
 40
11.85945546821407
 40
11.85945546821407
 40
11.85945546821407
 40
13.19526677429546
 40
13.19526677429546
 40
13.19526677429546
 40
14.80540325564735
 40
14.80540325564735
 40
14.80540325564735
 40
16.66447130176788
 40
16.66447130176788
 40
16.66447130176788
 40
21.66228438464661
 40
21.66228438464661
 40
21.66228438464661
 40
25.64007750950433
 40
25.64007750950433
 40
25.64007750950433
 40
25.64007750950433
 40
25.64007750950433
 40
25.64007750950433
 10
-102.0339435540892
 20
4.245316940159213
 30
0.0
 10
-102.356382631337
 20
4.243214888284668
 30
0.0
 10
-102.6858634946614
 20
4.248289515939617
 30
0.0
 10
-103.0275570896234
 20
4.262185136871934
 30
0.0
 10
-103.5571229076748
 20
4.298745755442254
 30
0.0
 10
-104.1285451570775
 20
4.37251409585518
 30
0.0
 10
-104.3270631050448
 20
4.402504408812646
 30
0.0
 10
-104.6745868800186
 20
4.463647140397924
 30
0.0
 10
-105.0502705440224
 20
4.550004630529414
 30
0.0
 10
-105.2091315462922
 20
4.590303323005386
 30
0.0
 10
-105.5003296307665
 20
4.672415238275434
 30
0.0
 10
-105.8112876181027
 20
4.778893433606626
 30
0.0
 10
-105.9571458210592
 20
4.833114176344665
 30
0.0
 10
-106.2256825775574
 20
4.942472197654851
 30
0.0
 10
-106.4955813756846
 20
5.071779366224731
 30
0.0
 10
-106.6218736072803
 20
5.137165062081507
 30
0.0
 10
-106.8785689011105
 20
5.280556712076176
 30
0.0
 10
-107.1101733926817
 20
5.430292686874153
 30
0.0
 10
-107.2267404414733
 20
5.511477979841728
 30
0.0
 10
-107.4604431011113
 20
5.685070647984375
 30
0.0
 10
-107.6588789899957
 20
5.853441878214866
 30
0.0
 10
-107.7588420475218
 20
5.943879260658817
 30
0.0
 10
-107.9577677376273
 20
6.134275479340757
 30
0.0
 10
-108.1286748078617
 20
6.318151197150186
 30
0.0
 10
-108.2164227908862
 20
6.417989663561783
 30
0.0
 10
-108.5127693860703
 20
6.773370750379612
 30
0.0
 10
-108.7466376409494
 20
7.114550814802996
 30
0.0
 10
-108.8960064177561
 20
7.356364418599227
 30
0.0
 10
-109.1375686416352
 20
7.789317131786773
 30
0.0
 10
-109.3375615658276
 20
8.216318075900275
 30
0.0
 10
-109.4195294462252
 20
8.404929716498813
 30
0.0
 10
-109.4954270606809
 20
8.592942640368491
 30
0.0
 10
-109.5660026572266
 20
8.780747222608155
 30
0.0
  0
ARC
  5
21EC5
330
1F
100
AcDbEntity
  8
SKVIEW1
100
AcDbCircle
 10
-97.58004595434414
 20
25.08309899999982
 30
0.0
 40
19.559426
100
AcDbArc
 50
272.1948379999986
 51
274.4375030000007
  0
ARC
  5
21EC6
330
1F
100
AcDbEntity
  8
SKVIEW1
100
AcDbCircle
 10
-88.9893749543441
 20
-0.0000000000000142
 30
0.0
 40
9.599999999999999
100
AcDbArc
 50
144.7689120000015
 51
152.4014130000023
  0
ELLIPSE
  5
21EC7
330
1F
100
AcDbEntity
  8
SKVIEW1
100
AcDbEllipse
 10
-99.16086795434416
 20
18.37688300000001
 30
0.0
 11
12.25565338134765
 21
7.097046375274659
 31
0.0
210
0.0
220
0.0
230
1.0
 40
0.9888379999999994
 41
3.364065523557893
 42
4.310432105512218
  0
LINE
  5
21EC8
330
1F
100
AcDbEntity
  8
SKVIEW1
100
AcDbLine
 10
-109.5660489543439
 20
8.780813999999949
 30
0.0
 11
-111.2690339543441
 21
9.574930000000094
 31
0.0
  0
ARC
  5
21EC9
330
1F
100
AcDbEntity
  8
SKVIEW1
100
AcDbCircle
 10
-88.9893749543441
 20
-0.0000000000000142
 30
0.0
 40
24.25
100
AcDbArc
 50
156.7438509999971
 51
257.6177360000015
  0
LINE
  5
21ECA
330
1F
100
AcDbEntity
  8
SKVIEW1
100
AcDbLine
 10
-102.0339409543442
 20
-1.879267000000155
 30
0.0
 11
-113.0213799543442
 21
3.244259999999925
 31
0.0
  0
LINE
  5
21ECB
330
1F
100
AcDbEntity
  8
SKVIEW1
100
AcDbLine
 10
-88.9893749543441
 20
-8.387206000000233
 30
0.0
 11
-88.9893749543441
 21
-7.296326000000036
 31
0.0
  0
LINE
  5
21ECC
330
1F
100
AcDbEntity
  8
SKVIEW1
100
AcDbLine
 10
-94.18937495434425
 20
-10.09000000000004
 30
0.0
 11
-94.18937495434425
 21
-10.86745700000018
 31
0.0
  0
LINE
  5
21ECD
330
1F
100
AcDbEntity
  8
SKVIEW1
100
AcDbLine
 10
-94.18937495434425
 20
-10.09000000000004
 30
0.0
 11
-88.9893749543441
 21
-10.09000000000004
 31
0.0
  0
CIRCLE
  5
21ECE
330
1F
100
AcDbEntity
  8
SKVIEW1
100
AcDbCircle
 10
-105.9634729543441
 20
-9.800000000000082
 30
0.0
 40
2.45
  0
LINE
  5
21ECF
330
1F
100
AcDbEntity
  8
SKVIEW1
100
AcDbLine
 10
-88.9893749543441
 20
-24.25000000000002
 30
0.0
 11
-88.9893749543441
 21
-12.45001100000014
 31
0.0
  0
LINE
  5
21ED0
330
1F
100
AcDbEntity
  8
SKVIEW1
100
AcDbLine
 10
-88.9893749543441
 20
11.28999999999995
 30
0.0
 11
-88.9893749543441
 21
10.0899999999999
 31
0.0
  0
LINE
  5
21ED1
330
1F
100
AcDbEntity
  8
SKVIEW1
100
AcDbLine
 10
-88.9893749543441
 20
11.28999999999995
 30
0.0
 11
-88.9893749543441
 21
23.29999999999983
 31
0.0
  0
LINE
  5
21ED2
330
1F
100
AcDbEntity
  8
SKVIEW1
100
AcDbLine
 10
-88.9893749543441
 20
23.29999999999983
 30
0.0
 11
-88.9893749543441
 21
24.49999999999999
 31
0.0
  0
LINE
  5
21ED3
330
1F
100
AcDbEntity
  8
SKVIEW1
100
AcDbLine
 10
-83.78937495434405
 20
23.76918799999986
 30
0.0
 11
-83.78937495434405
 21
23.29999999999983
 31
0.0
  0
LINE
  5
21ED4
330
1F
100
AcDbEntity
  8
SKVIEW1
100
AcDbLine
 10
-83.78937495434405
 20
23.29999999999983
 30
0.0
 11
-83.78937495434405
 21
11.28999999999995
 31
0.0
  0
LINE
  5
21ED5
330
1F
100
AcDbEntity
  8
SKVIEW1
100
AcDbLine
 10
-83.78937495434405
 20
11.28999999999995
 30
0.0
 11
-83.78937495434405
 21
10.86645999999983
 31
0.0
  0
LINE
  5
21ED6
330
1F
100
AcDbEntity
  8
SKVIEW1
100
AcDbLine
 10
-83.78937495434405
 20
10.8208119999998
 30
0.0
 11
-88.9893749543441
 21
10.0899999999999
 31
0.0
  0
LINE
  5
21ED7
330
1F
100
AcDbEntity
  8
SKVIEW1
100
AcDbLine
 10
-83.78937495434405
 20
11.28999999999995
 30
0.0
 11
-88.9893749543441
 21
11.28999999999995
 31
0.0
  0
LINE
  5
21ED8
330
1F
100
AcDbEntity
  8
SKVIEW1
100
AcDbLine
 10
-83.78937495434405
 20
23.29999999999983
 30
0.0
 11
-88.9893749543441
 21
23.29999999999983
 31
0.0
  0
LINE
  5
21ED9
330
1F
100
AcDbEntity
  8
SKVIEW1
100
AcDbLine
 10
-83.78937495434405
 20
23.76918799999986
 30
0.0
 11
-88.9893749543441
 21
24.49999999999999
 31
0.0
  0
LINE
  5
21EDA
330
1F
100
AcDbEntity
  8
SKVIEW1
100
AcDbLine
 10
-88.9893749543441
 20
24.49999999999999
 30
0.0
 11
-88.9893749543441
 21
23.29999999999983
 31
0.0
  0
LINE
  5
21EDB
330
1F
100
AcDbEntity
  8
SKVIEW1
100
AcDbLine
 10
-88.9893749543441
 20
11.28999999999995
 30
0.0
 11
-88.9893749543441
 21
10.0899999999999
 31
0.0
  0
LINE
  5
21EDC
330
1F
100
AcDbEntity
  8
SKVIEW1
100
AcDbLine
 10
-88.9893749543441
 20
11.28999999999995
 30
0.0
 11
-88.9893749543441
 21
23.29999999999983
 31
0.0
  0
LINE
  5
21EDD
330
1F
100
AcDbEntity
  8
SKVIEW1
100
AcDbLine
 10
-88.9893749543441
 20
-12.45000100000005
 30
0.0
 11
-88.9893749543441
 21
-23.30000000000008
 31
0.0
  0
LINE
  5
21EDE
330
1F
100
AcDbEntity
  8
SKVIEW1
100
AcDbLine
 10
-88.9893749543441
 20
-23.30000000000008
 30
0.0
 11
-88.9893749543441
 21
-24.50000000000024
 31
0.0
  0
LINE
  5
21EDF
330
1F
100
AcDbEntity
  8
SKVIEW1
100
AcDbLine
 10
-94.18937495434425
 20
-23.769188
 30
0.0
 11
-94.18937495434425
 21
-23.30000000000008
 31
0.0
  0
LINE
  5
21EE0
330
1F
100
AcDbEntity
  8
SKVIEW1
100
AcDbLine
 10
-94.18937495434425
 20
-23.30000000000008
 30
0.0
 11
-94.18937495434425
 21
-11.29000000000009
 31
0.0
  0
LINE
  5
21EE1
330
1F
100
AcDbEntity
  8
SKVIEW1
100
AcDbLine
 10
-94.18937495434425
 20
-11.29000000000009
 30
0.0
 11
-94.18937495434425
 21
-10.82081200000006
 31
0.0
  0
LINE
  5
21EE2
330
1F
100
AcDbEntity
  8
SKVIEW1
100
AcDbLine
 10
-94.18937495434425
 20
-10.82081200000006
 30
0.0
 11
-88.9893749543441
 21
-10.09000000000004
 31
0.0
  0
LINE
  5
21EE3
330
1F
100
AcDbEntity
  8
SKVIEW1
100
AcDbLine
 10
-94.18937495434425
 20
-11.29000000000009
 30
0.0
 11
-88.9893749543441
 21
-11.29000000000009
 31
0.0
  0
LINE
  5
21EE4
330
1F
100
AcDbEntity
  8
SKVIEW1
100
AcDbLine
 10
-94.18937495434425
 20
-23.30000000000008
 30
0.0
 11
-88.9893749543441
 21
-23.30000000000008
 31
0.0
  0
LINE
  5
21EE5
330
1F
100
AcDbEntity
  8
SKVIEW1
100
AcDbLine
 10
-94.18937495434425
 20
-23.769188
 30
0.0
 11
-88.9893749543441
 21
-24.50000000000024
 31
0.0
  0
LINE
  5
21EE6
330
1F
100
AcDbEntity
  8
SKVIEW1
100
AcDbLine
 10
-88.9893749543441
 20
-24.50000000000024
 30
0.0
 11
-88.9893749543441
 21
-23.30000000000008
 31
0.0
  0
LINE
  5
21EE7
330
1F
100
AcDbEntity
  8
SKVIEW1
100
AcDbLine
 10
-88.9893749543441
 20
-24.50000000000024
 30
0.0
 11
-88.9893749543441
 21
-23.30000000000008
 31
0.0
  0
LINE
  5
21EE8
330
1F
100
AcDbEntity
  8
SKVIEW1
100
AcDbLine
 10
-88.9893749543441
 20
-23.30000000000008
 30
0.0
 11
-88.9893749543441
 21
-12.45001100000014
 31
0.0
  0
LINE
  5
21EE9
330
1F
100
AcDbEntity
  8
SKVIEW1
100
AcDbLine
 10
-88.9893749543441
 20
-12.45000000000017
 30
0.0
 11
-88.9893749543441
 21
-23.30000000000008
 31
0.0
  0
LINE
  5
21EF2
330
1F
100
AcDbEntity
  8
1
100
AcDbLine
 10
39.62000000000347
 20
12.44999999999992
 30
0.0
 11
38.82000000000352
 21
12.44999999999992
 31
0.0
  0
LINE
  5
21EF3
330
1F
100
AcDbEntity
  8
1
100
AcDbLine
 10
40.27817900000349
 20
12.06999999999992
 30
0.0
 11
39.62000000000347
 21
12.44999999999992
 31
0.0
  0
LINE
  5
21EF4
330
1F
100
AcDbEntity
  8
1
100
AcDbLine
 10
40.92755500000345
 20
8.38720499999998
 30
0.0
 11
40.27817900000349
 21
12.06999999999992
 31
0.0
  0
LINE
  5
21EF5
330
1F
100
AcDbEntity
  8
1
100
AcDbLine
 10
40.92755500000345
 20
8.38720499999998
 30
0.0
 11
41.07728400000342
 21
7.534193999999942
 31
0.0
  0
ARC
  5
21EF6
330
1F
100
AcDbEntity
  8
1
100
AcDbCircle
 10
45.92286000000348
 20
8.413453999999759
 30
0.0
 40
4.924732999999998
100
AcDbArc
 50
190.2847689999964
 51
193.107901000004
  0
ARC
  5
21EF7
330
1F
100
AcDbEntity
  8
1
100
AcDbCircle
 10
45.73640900000344
 20
8.359582999999801
 30
0.0
 40
4.730999999999998
100
AcDbArc
 50
192.9847990000018
 51
203.8542400000013
  0
LINE
  5
21EF8
330
1F
100
AcDbEntity
  8
1
100
AcDbLine
 10
44.26000000000345
 20
-0.0000000000000142
 30
0.0
 11
41.40954400000345
 21
6.44631299999979
 31
0.0
  0
LINE
  5
21EF9
330
1F
100
AcDbEntity
  8
1
100
AcDbLine
 10
30.36000000000348
 20
10.98217399999997
 30
0.0
 11
30.36000000000348
 21
3.967577776325796
 31
0.0
  0
DIMENSION
  5
21EFA
330
1F
100
AcDbEntity
  8
SK2
100
AcDbDimension
280
     0
  2
*D12
 10
-36.1474161810001
 20
-9.599999999999688
 30
0.0
 11
-36.1474161810001
 21
0.1213287502776978
 31
0.0
 70
   160
  1
%%C<>
 71
     5
 42
19.1999999999997
 73
     0
 74
     0
 75
     0
  3
STANDARD
100
AcDbAlignedDimension
 13
-19.49999999999619
 23
9.600000000000008
 33
0.0
 14
-19.49999999999619
 24
-9.599999999999695
 34
0.0
 50
90.0
100
AcDbRotatedDimension
1001
ACAD_DSTYLE_DIMARC_LENGTH_SYMBOL
1070
   379
1070
     1
1001
ACAD_DSTYLE_DIM_LINETYPE
1070
   380
1005
14
1001
ACAD_DSTYLE_DIM_EXT1_LINETYPE
1070
   381
1005
14
1001
ACAD_DSTYLE_DIM_EXT2_LINETYPE
1070
   382
1005
14
1001
ACAD
1000
DSTYLE
1002
{
1070
   172
1070
     1
1002
}
  0
LINE
  5
2207B
330
1F
100
AcDbEntity
  8
4
100
AcDbLine
 10
0.0000000000038085
 20
-0.0000000000000142
 30
0.0
 11
46.53015200000339
 21
-0.0000000000000142
 31
0.0
  0
LWPOLYLINE
  5
22082
330
1F
100
AcDbEntity
  8
CUT
 48
0.240324
100
AcDbPolyline
 90
       18
 70
     1
 43
0.0
 10
41.12644238021869
 20
7.296595397531575
 42
-0.0123188602446426
 10
41.07725497827442
 20
7.534188912166257
 10
40.92755500000345
 20
8.38720499999998
 10
40.27817900000349
 20
12.06999999999992
 10
39.62000000000347
 20
12.44999999999992
 10
38.82000000000352
 20
12.44999999999992
 10
38.82000000000346
 20
23.29999999999983
 42
0.4142135623730951
 10
37.62000000000347
 20
24.49999999999999
 10
25.61000000000348
 20
24.49999999999983
 42
0.4142135623730951
 10
24.41000000000344
 20
23.29999999999983
 10
24.41000000000349
 20
11.28999999999995
 42
0.4142135623730951
 10
25.61000000000348
 20
10.0899999999999
 10
30.36000000000348
 20
10.0899999999999
 10
30.36000000000348
 20
9.177117999999936
 10
30.36000000000348
 20
3.967578000000102
 10
30.36000000000348
 20
-0.0000000000000142
 10
44.26000000000345
 20
-0.0000000000000142
 10
41.40954410086078
 20
6.446313247830232
 42
-0.0473978995089153
  0
LWPOLYLINE
  5
22094
330
1F
100
AcDbEntity
  8
NOCUT
100
AcDbPolyline
 90
        9
 70
     1
 43
0.0
 10
37.82000000000352
 20
-0.0000000000000142
 10
37.82000000000352
 20
11.62606900000001
 10
37.82000000000352
 20
24.24999999999999
 10
0.0000000000038085
 20
24.24999999999999
 10
0.0000000000038085
 20
11.62606900000001
 10
0.0000000000038085
 20
9.600000000000008
 10
-19.49999999999619
 20
9.600000000000008
 10
-19.49999999999619
 20
4.602484999999987
 10
-19.49999999999619
 20
-0.0000000000000142
  0
VIEWPORT
  5
9C00
330
1B
100
AcDbEntity
 67
     1
  8
0
348
3195
100
AcDbViewport
 10
108.2280559557949
 20
71.69854161746989
 30
0.0
 40
251.8950231529317
 41
201.8884082081047
 68
     1
 69
     1
 12
108.2280559557949
 22
71.69854161746989
 13
0.0
 23
0.0
 14
10.0
 24
10.0
 15
10.0
 25
10.0
 16
0.0
 26
0.0
 36
1.0
 17
0.0
 27
0.0
 37
0.0
 42
50.0
 43
0.0
 44
0.0
 45
201.8884082081047
 50
0.0
 51
0.0
 72
   100
 90
   557088
  1

281
     0
 71
     1
 74
     0
110
0.0
120
0.0
130
0.0
111
1.0
121
0.0
131
0.0
112
0.0
122
1.0
132
0.0
 79
     0
146
0.0
170
     0
 61
     5
292
     1
282
     1
141
0.0
142
0.0
 63
   250
421
  3355443
  0
VIEWPORT
  5
9C02
330
1B
100
AcDbEntity
 67
     1
  8
1
348
3195
100
AcDbViewport
 10
143.457083940506
 20
98.18158769607544
 30
0.0
 40
229.5313343048095
 41
157.0905403137207
 68
     2
 69
     2
 12
-44.37697124786255
 22
-35.12342998133886
 13
0.0
 23
0.0
 14
10.0
 24
10.0
 15
10.0
 25
10.0
 16
0.0
 26
0.0
 36
1.0
 17
0.0
 27
0.0
 37
0.0
 42
50.0
 43
0.0
 44
0.0
 45
300.3886240724386
 50
0.0
 51
0.0
 72
   100
 90
   557088
  1

281
     0
 71
     1
 74
     0
110
0.0
120
0.0
130
0.0
111
1.0
121
0.0
131
0.0
112
0.0
122
1.0
132
0.0
 79
     0
146
0.0
170
     0
 61
     5
348
3195
292
     1
282
     1
141
0.0
142
0.0
 63
   250
421
  3355443
  0
ENDSEC
  0
SECTION
  2
OBJECTS
  0
DICTIONARY
  5
3182
330
0
100
AcDbDictionary
281
     1
  3
ACAD_CIP_PREVIOUS_PRODUCT_INFO
350
1B2F4
  3
ACAD_COLOR
350
31A0
  3
ACAD_DETAILVIEWSTYLE
350
1B2F0
  3
ACAD_FIELDLIST
350
20CBF
  3
ACAD_GROUP
350
3183
  3
ACAD_LAYOUT
350
31A5
  3
ACAD_MATERIAL
350
318B
  3
ACAD_MLEADERSTYLE
350
1B221
  3
ACAD_MLINESTYLE
350
3184
  3
ACAD_PLOTSETTINGS
350
31A4
  3
ACAD_PLOTSTYLENAME
350
3189
  3
ACAD_SCALELIST
350
1B1FC
  3
ACAD_SECTIONVIEWSTYLE
350
1B2EE
  3
ACAD_TABLESTYLE
350
31A1
  3
ACAD_VISUALSTYLE
350
318F
  3
ACDB_RECOMPOSE_DATA
350
220CD
  3
AcDbVariableDictionary
350
33A3
  0
DICTIONARY
  5
422A
330
2
100
AcDbDictionary
280
     1
281
     1
  3
ACAD_LAYERFILTERS
360
1B063
  3
ACAD_LAYERSTATES
360
9A1C
  3
ACLYDICTIONARY
360
1B062
  0
DICTIONARY
  5
1B2F5
330
10
100
AcDbDictionary
280
     1
281
     1
  3
ADSK_XREC_LAYER_RECONCILED
360
21B8E
  0
DICTIONARY
  5
1B2F7
330
3F8C
100
AcDbDictionary
280
     1
281
     1
  3
ADSK_XREC_LAYER_RECONCILED
360
21B8F
  0
DICTIONARY
  5
1B2F9
330
9C4A
100
AcDbDictionary
280
     1
281
     1
  3
ADSK_XREC_LAYER_RECONCILED
360
21B90
  0
DICTIONARY
  5
1B2FB
330
9C4B
100
AcDbDictionary
280
     1
281
     1
  3
ADSK_XREC_LAYER_RECONCILED
360
21B91
  0
DICTIONARY
  5
1B2FD
330
9C4D
100
AcDbDictionary
280
     1
281
     1
  3
ADSK_XREC_LAYER_RECONCILED
360
21B92
  0
DICTIONARY
  5
1B2FF
330
9C4E
100
AcDbDictionary
280
     1
281
     1
  3
ADSK_XREC_LAYER_RECONCILED
360
21B93
  0
DICTIONARY
  5
1B301
330
9C4F
100
AcDbDictionary
280
     1
281
     1
  3
ADSK_XREC_LAYER_RECONCILED
360
21B94
  0
DICTIONARY
  5
1B303
330
9C50
100
AcDbDictionary
280
     1
281
     1
  3
ADSK_XREC_LAYER_RECONCILED
360
21B95
  0
DICTIONARY
  5
1B305
330
9C51
100
AcDbDictionary
280
     1
281
     1
  3
ADSK_XREC_LAYER_RECONCILED
360
21B96
  0
DICTIONARY
  5
1B307
330
13335
100
AcDbDictionary
280
     1
281
     1
  3
ADSK_XREC_LAYER_RECONCILED
360
21B97
  0
DICTIONARY
  5
1B309
330
1686E
100
AcDbDictionary
280
     1
281
     1
  3
ADSK_XREC_LAYER_RECONCILED
360
21B98
  0
DICTIONARY
  5
339C
330
1F
100
AcDbDictionary
280
     1
281
     1
  3
ACAD_SORTENTS
360
339D
  0
DICTIONARY
  5
1DE81
330
1B3D7
100
AcDbDictionary
280
     1
281
     1
  0
XRECORD
  5
1B2F4
102
{ACAD_REACTORS
330
3182
102
}
330
3182
100
AcDbXrecord
280
     1
300
ACDLT
300
2015
300
ACDLT_F_S
  0
DICTIONARY
  5
31A0
102
{ACAD_REACTORS
330
3182
102
}
330
3182
100
AcDbDictionary
281
     1
  0
DICTIONARY
  5
1B2F0
102
{ACAD_REACTORS
330
3182
102
}
330
3182
100
AcDbDictionary
281
     1
  3
Imperial24
350
20CB3
  3
Metric50
350
1B2F1
  0
FIELDLIST
  5
20CBF
102
{ACAD_REACTORS
330
3182
102
}
330
3182
100
AcDbIdSet
 90
        0
100
AcDbFieldList
  0
DICTIONARY
  5
3183
102
{ACAD_REACTORS
330
3182
102
}
330
3182
100
AcDbDictionary
281
     1
  0
DICTIONARY
  5
31A5
102
{ACAD_REACTORS
330
3182
102
}
330
3182
100
AcDbDictionary
281
     1
  3
Layout1
350
31A7
  3
Model
350
31A6
  0
DICTIONARY
  5
318B
102
{ACAD_REACTORS
330
3182
102
}
330
3182
100
AcDbDictionary
281
     1
  3
ByBlock
350
318D
  3
ByLayer
350
318C
  3
Global
350
318E
  0
DICTIONARY
  5
1B221
102
{ACAD_REACTORS
330
3182
102
}
330
3182
100
AcDbDictionary
281
     1
  3
Standard
350
1B2ED
  0
DICTIONARY
  5
3184
102
{ACAD_REACTORS
330
3182
102
}
330
3182
100
AcDbDictionary
281
     1
  3
STANDARD
350
3185
  0
DICTIONARY
  5
31A4
102
{ACAD_REACTORS
330
3182
102
}
330
3182
100
AcDbDictionary
281
     1
  0
ACDBDICTIONARYWDFLT
  5
3189
102
{ACAD_REACTORS
330
3182
102
}
330
3182
100
AcDbDictionary
281
     1
  3
Normal
350
318A
100
AcDbDictionaryWithDefault
340
318A
  0
DICTIONARY
  5
1B1FC
102
{ACAD_REACTORS
330
3182
102
}
330
3182
100
AcDbDictionary
281
     1
  3
A0
350
1B1FD
  3
A1
350
1B1FE
  3
A2
350
1B1FF
  3
A3
350
1B200
  3
A4
350
1B201
  3
A5
350
1B202
  3
A6
350
1B203
  3
A7
350
1B204
  3
A8
350
1B205
  3
A9
350
1B206
  3
B0
350
1B207
  3
B1
350
1B208
  3
B2
350
1B209
  3
B3
350
1B20A
  3
B4
350
1B20B
  3
B5
350
1B20C
  3
B6
350
1B20D
  3
B7
350
1B20E
  3
B8
350
1B20F
  3
B9
350
1B210
  3
C0
350
1B211
  3
C1
350
1B212
  3
C2
350
1B213
  3
C3
350
1B214
  3
C4
350
1B215
  3
C5
350
1B216
  3
C6
350
1B217
  3
C7
350
1B218
  3
C8
350
1B219
  3
C9
350
1B21A
  3
D0
350
1B21B
  3
D1
350
1B21C
  3
D2
350
1B21D
  0
DICTIONARY
  5
1B2EE
102
{ACAD_REACTORS
330
3182
102
}
330
3182
100
AcDbDictionary
281
     1
  3
Imperial24
350
20CB1
  3
Metric50
350
1B2EF
  0
DICTIONARY
  5
31A1
102
{ACAD_REACTORS
330
3182
102
}
330
3182
100
AcDbDictionary
281
     1
  3
Standard
350
31A2
  0
DICTIONARY
  5
318F
102
{ACAD_REACTORS
330
3182
102
}
330
3182
100
AcDbDictionary
281
     1
  3
2dWireframe
350
3195
  3
3D Hidden
350
3197
  3
3dWireframe
350
3196
  3
Basic
350
3194
  3
Brighten
350
319B
  3
ColorChange
350
319F
  3
Conceptual
350
3198
  3
Dim
350
319A
  3
EdgeColorOff
350
1B2EC
  3
Facepattern
350
319E
  3
Flat
350
3190
  3
FlatWithEdges
350
3191
  3
Gouraud
350
3192
  3
GouraudWithEdges
350
3193
  3
Hidden
350
1B2E4
  3
JitterOff
350
1B2EA
  3
Linepattern
350
319D
  3
OverhangOff
350
1B2EB
  3
Realistic
350
3199
  3
Shaded
350
1B2E9
  3
Shaded with edges
350
1B2E8
  3
Shades of Gray
350
1B2E5
  3
Sketchy
350
1B2E6
  3
Thicken
350
319C
  3
Wireframe
350
1B2E3
  3
X-Ray
350
1B2E7
  0
XRECORD
  5
220CD
102
{ACAD_REACTORS
330
3182
102
}
330
3182
100
AcDbXrecord
280
     1
 90
        1
330
31A2
  0
DICTIONARY
  5
33A3
102
{ACAD_REACTORS
330
3182
102
}
330
3182
100
AcDbDictionary
281
     1
  3
CANNOSCALE
350
1B222
  3
CMLEADERSTYLE
350
1B30F
  3
CTABLESTYLE
350
33A4
  3
CVIEWDETAILSTYLE
350
1B310
  3
CVIEWSECTIONSTYLE
350
1B311
  3
DIMASSOC
350
9BE8
  3
INDEXCTL
350
9BE7
  3
LAYEREVAL
350
20993
  3
LAYERNOTIFY
350
20994
  3
LIGHTINGUNITS
350
20992
  3
MSLTSCALE
350
20991
  3
SORTENTS
350
9BE6
  0
DICTIONARY
  5
1B063
102
{ACAD_REACTORS
330
422A
102
}
330
422A
100
AcDbDictionary
281
     1
  0
DICTIONARY
  5
9A1C
102
{ACAD_REACTORS
330
422A
102
}
330
422A
100
AcDbDictionary
281
     1
  0
DICTIONARY
  5
1B062
102
{ACAD_REACTORS
330
422A
102
}
330
422A
100
AcDbDictionary
281
     1
1001
ACAD
1000
<All
  0
XRECORD
  5
21B8E
102
{ACAD_REACTORS
330
1B2F5
102
}
330
1B2F5
100
AcDbXrecord
280
     1
290
     1
  0
XRECORD
  5
21B8F
102
{ACAD_REACTORS
330
1B2F7
102
}
330
1B2F7
100
AcDbXrecord
280
     1
290
     1
  0
XRECORD
  5
21B90
102
{ACAD_REACTORS
330
1B2F9
102
}
330
1B2F9
100
AcDbXrecord
280
     1
290
     1
  0
XRECORD
  5
21B91
102
{ACAD_REACTORS
330
1B2FB
102
}
330
1B2FB
100
AcDbXrecord
280
     1
290
     1
  0
XRECORD
  5
21B92
102
{ACAD_REACTORS
330
1B2FD
102
}
330
1B2FD
100
AcDbXrecord
280
     1
290
     1
  0
XRECORD
  5
21B93
102
{ACAD_REACTORS
330
1B2FF
102
}
330
1B2FF
100
AcDbXrecord
280
     1
290
     1
  0
XRECORD
  5
21B94
102
{ACAD_REACTORS
330
1B301
102
}
330
1B301
100
AcDbXrecord
280
     1
290
     1
  0
XRECORD
  5
21B95
102
{ACAD_REACTORS
330
1B303
102
}
330
1B303
100
AcDbXrecord
280
     1
290
     1
  0
XRECORD
  5
21B96
102
{ACAD_REACTORS
330
1B305
102
}
330
1B305
100
AcDbXrecord
280
     1
290
     1
  0
XRECORD
  5
21B97
102
{ACAD_REACTORS
330
1B307
102
}
330
1B307
100
AcDbXrecord
280
     1
290
     1
  0
XRECORD
  5
21B98
102
{ACAD_REACTORS
330
1B309
102
}
330
1B309
100
AcDbXrecord
280
     1
290
     1
  0
SORTENTSTABLE
  5
339D
102
{ACAD_REACTORS
330
339C
102
}
330
339C
100
AcDbSortentsTable
330
1F
331
21ED0
  5
21EE4
331
21E28
  5
21E35
331
21EC1
  5
21ED5
331
21E19
  5
21E26
331
21EB2
  5
21EC6
331
21E0A
  5
21E15
331
21EA3
  5
21EB7
331
21DFB
  5
21E06
331
21E94
  5
21EA8
331
21E85
  5
21E99
331
21E76
  5
21E8A
331
21EE1
  5
21EF5
331
21E67
  5
21E7B
331
21E53
  5
21E67
331
21E44
  5
21E51
331
21E35
  5
21E42
331
21ECE
  5
21EE2
331
21E26
  5
21E33
331
21EBF
  5
21ED3
331
21E17
  5
21E24
331
21DEC
  5
21DEC
331
21E80
  5
21E94
331
21E71
  5
21E85
331
21E62
  5
21E76
331
21EFA
  5
2209C
331
22082
  5
21E6F
331
21EDC
  5
21EF0
331
21E5D
  5
21E71
331
21E4E
  5
21E62
331
21E3F
  5
21E4C
331
21E30
  5
21E3D
331
21EC9
  5
21EDD
331
21E21
  5
21E2E
331
21EBA
  5
21ECE
331
21E12
  5
21E1F
331
21EAB
  5
21EBF
331
21E9C
  5
21EB0
331
21E8D
  5
21EA1
331
21DF4
  5
21DFA
331
21E7E
  5
21E92
331
21E6F
  5
21E83
331
21DE5
  5
21DE5
331
21E49
  5
21E5D
331
21E3A
  5
21E47
331
21ED3
  5
21EE7
331
21E2B
  5
21E38
331
21EC4
  5
21ED8
331
21EB5
  5
21EC9
331
21E0D
  5
21E18
331
21EA6
  5
21EBA
331
21DFE
  5
21E09
331
21E97
  5
21EAB
331
21E88
  5
21E9C
331
21DEF
  5
21DF0
331
21E79
  5
21E8D
331
21E6A
  5
21E7E
331
21EF3
  5
22095
331
21EE4
  5
21EF8
331
21E47
  5
21E54
331
2207B
  5
21DED
331
21DE0
  5
21DE0
331
21EB0
  5
21EC4
331
21E08
  5
21E13
331
21EA1
  5
21EB5
331
21DF9
  5
21E00
331
21E92
  5
21EA6
331
21E83
  5
21E97
331
22094
  5
22093
331
21E74
  5
21E88
331
21EDF
  5
21EF3
331
21E65
  5
21E79
331
21E51
  5
21E65
331
21E42
  5
21E4F
331
21E33
  5
21E40
331
21ECC
  5
21EE0
331
21E24
  5
21E31
331
21EBD
  5
21ED1
331
21E15
  5
21E22
331
21EAE
  5
21EC2
331
21E06
  5
21E11
331
21E9F
  5
21EB3
331
21DEA
  5
21DEA
331
21EF8
  5
2209A
331
21E60
  5
21E74
331
21EE9
  5
2208B
331
21EDA
  5
21EEE
331
21E4C
  5
21E60
331
21E3D
  5
21E4A
331
21ED6
  5
21EEA
331
21E2E
  5
21E3B
331
21EC7
  5
21EDB
331
21E1F
  5
21E2C
331
21EB8
  5
21ECC
331
21E10
  5
21E1B
331
21EA9
  5
21EBD
331
21E9A
  5
21EAE
331
21E8B
  5
21E9F
331
21EF6
  5
22098
331
21E6D
  5
21E81
331
21EE7
  5
2207B
331
21E7C
  5
21E90
331
21E38
  5
21E45
331
21ED1
  5
21EE5
331
21E29
  5
21E36
331
21EC2
  5
21ED6
331
21E1A
  5
21E27
331
21EB3
  5
21EC7
331
21E0B
  5
21E16
331
21EA4
  5
21EB8
331
21DFC
  5
21E07
331
21E95
  5
21EA9
331
21E86
  5
21E9A
331
21E77
  5
21E8B
331
21EE2
  5
21EF6
331
21E68
  5
21E7C
331
21E54
  5
21E6E
331
21E45
  5
21E52
331
21E36
  5
21E43
331
21ECF
  5
21EE3
331
21E27
  5
21E34
331
21DED
  5
21DEE
331
21E90
  5
21EA4
331
21E81
  5
21E95
331
21E72
  5
21E86
331
21EDD
  5
21EF1
331
21E63
  5
21E77
331
21E5E
  5
21E72
331
21E4F
  5
21E63
331
21E40
  5
21E4D
331
21E31
  5
21E3E
331
21ECA
  5
21EDE
331
21E22
  5
21E2F
331
21EBB
  5
21ECF
331
21E13
  5
21E20
331
21EAC
  5
21EC0
331
21E04
  5
21E0F
331
21E9D
  5
21EB1
331
21E8E
  5
21EA2
331
21DE8
  5
21DE8
331
21E7F
  5
21E93
331
21DE6
  5
21DE6
331
21ED8
  5
21EEC
331
21E4A
  5
21E5E
331
21E3B
  5
21E48
331
21ED4
  5
21EE8
331
21E2C
  5
21E39
331
21EC5
  5
21ED9
331
21EB6
  5
21ECA
331
21E0E
  5
21E19
331
21EA7
  5
21EBB
331
21DFF
  5
21E0E
331
21E98
  5
21EAC
331
21E89
  5
21E9D
331
21E7A
  5
21E8E
331
21EF4
  5
22096
331
21E6B
  5
21E7F
331
21EE5
  5
21EF9
331
211A0
  5
211A0
331
21EC0
  5
21ED4
331
21E18
  5
21E25
331
21EB1
  5
21EC5
331
21E09
  5
21E14
331
21EA2
  5
21EB6
331
21DFA
  5
21E05
331
21E93
  5
21EA7
331
21E84
  5
21E98
331
21E75
  5
21E89
331
21EE0
  5
21EF4
331
21E66
  5
21E7A
331
21E52
  5
21E66
331
21E43
  5
21E50
331
21E34
  5
21E41
331
21ECD
  5
21EE1
331
21E25
  5
21E32
331
21EBE
  5
21ED2
331
21E16
  5
21E23
331
21EAF
  5
21EC3
331
21E07
  5
21E12
331
21DEB
  5
21DEB
331
21E70
  5
21E84
331
21EF9
  5
2209B
331
21E61
  5
21E75
331
21EDB
  5
21EEF
331
21E5C
  5
21E70
331
21E4D
  5
21E61
331
21E3E
  5
21E4B
331
21ED7
  5
21EEB
331
21E2F
  5
21E3C
331
21EC8
  5
21EDC
331
21E20
  5
21E2D
331
21EB9
  5
21ECD
331
21E11
  5
21E1C
331
21EAA
  5
21EBE
331
21E9B
  5
21EAF
331
21E8C
  5
21EA0
331
21E7D
  5
21E91
331
21EF7
  5
22099
331
21E6E
  5
21E82
331
21DE4
  5
21DE4
331
21E48
  5
21E55
331
21E39
  5
21E46
331
21ED2
  5
21EE6
331
21E2A
  5
21E37
331
21EC3
  5
21ED7
331
21E1B
  5
21E2A
331
21EB4
  5
21EC8
331
21E0C
  5
21E17
331
21EA5
  5
21EB9
331
21DFD
  5
21E08
331
21E96
  5
21EAA
331
21E87
  5
21E9B
331
21E78
  5
21E8C
331
21EF2
  5
22094
331
21E69
  5
21E7D
331
21EE3
  5
21EF7
331
21E46
  5
21E53
331
21E37
  5
21E44
331
21DEE
  5
21DEF
331
21EA0
  5
21EB4
331
21E91
  5
21EA5
331
21E82
  5
21E96
331
21E73
  5
21E87
331
21EDE
  5
21EF2
331
21E64
  5
21E78
331
21E5F
  5
21E73
331
21E50
  5
21E64
331
21E41
  5
21E4E
331
21E32
  5
21E3F
331
21ECB
  5
21EDF
331
21E23
  5
21E30
331
21EBC
  5
21ED0
331
21E14
  5
21E21
331
21EAD
  5
21EC1
331
21E05
  5
21E10
331
21E9E
  5
21EB2
331
21DF6
  5
21DFF
331
21E8F
  5
21EA3
331
21DE9
  5
21DE9
331
21DE7
  5
21DE7
331
21EE8
  5
22082
331
21ED9
  5
21EED
331
21E4B
  5
21E5F
331
21E3C
  5
21E49
331
21ED5
  5
21EE9
331
21E2D
  5
21E3A
331
21EC6
  5
21EDA
331
21E1E
  5
21E2B
331
21EB7
  5
21ECB
331
21E0F
  5
21E1A
331
21EA8
  5
21EBC
331
21E99
  5
21EAD
331
21E8A
  5
21E9E
331
21DF1
  5
21DF5
331
21EF5
  5
22097
331
21E6C
  5
21E80
331
21EE6
  5
21EFA
331
21E7B
  5
21E8F
  0
ACDBDETAILVIEWSTYLE
  5
20CB3
102
{ACAD_XDICTIONARY
360
22108
102
}
102
{ACAD_REACTORS
330
1B2F0
102
}
330
1B2F0
100
AcDbModelDocViewStyle
 70
     0
  3
Imperial24
290
     0
100
AcDbDetailViewStyle
 70
     0
 71
     0
 90
        3
 71
     1
340
11
 62
   256
 40
0.24
340
0
 62
   256
 40
0.24
300

 40
0.36
280
     3
 71
     2
340
16
 90
       25
 62
   256
 71
     3
340
11
 62
   256
 40
0.24
 90
        1
 40
0.75
 90
        1
300
%<\AcVar ViewType \f "%tc1">% %<\AcVar ViewDetailId>%\PVARIA %<\AcVar ViewScale \f "%sn">%
 71
     4
340
16
 90
       25
 62
   256
340
16
 90
       25
 62
   256
280
     0
  0
ACDBDETAILVIEWSTYLE
  5
1B2F1
102
{ACAD_XDICTIONARY
360
22104
102
}
102
{ACAD_REACTORS
330
1B2F0
102
}
330
1B2F0
100
AcDbModelDocViewStyle
 70
     0
  3
Metric50
290
     0
100
AcDbDetailViewStyle
 70
     0
 71
     0
 90
        3
 71
     1
340
11
 62
   256
 40
5.0
340
0
 62
   256
 40
5.0
300

 40
0.0
280
     1
 71
     2
340
16
 90
       25
 62
   256
 71
     3
340
11
 62
   256
 40
5.0
 90
        0
 40
15.0
 90
        1
300
%<\AcVar ViewDetailId>% (%<\AcVar ViewScale \f "%sn">%)
 71
     4
340
16
 90
       25
 62
   256
340
16
 90
       25
 62
   256
280
     0
  0
LAYOUT
  5
31A7
102
{ACAD_REACTORS
330
31A5
102
}
330
31A5
100
AcDbPlotSettings
  1

  2
\\ingdc01\ITB3
  4
A4
  6

 40
6.805083274841307
 41
5.027085781097412
 42
6.805068969726562
 43
5.027069091796875
 44
209.9733276367186
 45
296.9683227539062
 46
0.0
 47
0.0
 48
0.0
 49
0.0
140
0.0
141
0.0
142
1.0
143
1.0
 70
   688
 72
     1
 73
     1
 74
     5
  7

 75
    16
147
1.0
 76
     0
 77
     2
 78
   300
148
0.0
149
0.0
100
AcDbLayout
  1
Layout1
 70
     1
 71
     1
 10
-5.027069091796875
 20
-6.805083274841307
 11
291.9412536621094
 21
203.1682443618775
 12
0.0
 22
0.0
 32
0.0
 14
28.69141678810127
 24
19.6363175392151
 34
0.0
 15
258.2227510929107
 25
176.7268578529358
 35
0.0
146
0.0
 13
0.0
 23
0.0
 33
0.0
 16
1.0
 26
0.0
 36
0.0
 17
0.0
 27
1.0
 37
0.0
 76
     0
330
1B
331
9C00
1001
ACAD_PSEXT
1000
\\ingdc01\ITB3
1000
HP LaserJet 5000 Series PCL
1000
TB
1000

1070
     0
  0
LAYOUT
  5
31A6
102
{ACAD_REACTORS
330
31A5
102
}
330
31A5
100
AcDbPlotSettings
  1

  2
\\ingdc01\ITB3
  4
A4
  6

 40
6.805083274841307
 41
5.027085781097412
 42
6.805068969726562
 43
5.027069091796875
 44
209.9733276367186
 45
296.9683227539062
 46
0.0
 47
0.0
 48
0.0
 49
0.0
140
0.0
141
0.0
142
1.0
143
1.500313223655698
 70
 11952
 72
     1
 73
     1
 74
     0
  7

 75
     0
147
0.6665274852163048
 76
     0
 77
     2
 78
   300
148
239.0155119930048
149
102.2558208723354
100
AcDbLayout
  1
Model
 70
     1
 71
     0
 10
0.0
 20
0.0
 11
12.0
 21
9.0
 12
0.0
 22
0.0
 32
0.0
 14
0.0
 24
0.0
 34
0.0
 15
0.0
 25
0.0
 35
0.0
146
0.0
 13
0.0
 23
0.0
 33
0.0
 16
1.0
 26
0.0
 36
0.0
 17
0.0
 27
1.0
 37
0.0
 76
     0
330
1F
331
1F4
1001
ACAD_PSEXT
1000
\\ingdc01\ITB3
1000
HP LaserJet 5000 Series PCL
1000
TB
1000

1070
     0
  0
MATERIAL
  5
318D
102
{ACAD_XDICTIONARY
360
1B22B
102
}
102
{ACAD_REACTORS
330
318B
102
}
330
318B
100
AcDbMaterial
  1
ByBlock
  0
MATERIAL
  5
318C
102
{ACAD_XDICTIONARY
360
1B22D
102
}
102
{ACAD_REACTORS
330
318B
102
}
330
318B
100
AcDbMaterial
  1
ByLayer
  0
MATERIAL
  5
318E
102
{ACAD_XDICTIONARY
360
1B22F
102
}
102
{ACAD_REACTORS
330
318B
102
}
330
318B
100
AcDbMaterial
  1
Global
  0
MLEADERSTYLE
  5
1B2ED
102
{ACAD_REACTORS
330
1B221
102
}
330
1B221
100
AcDbMLeaderStyle
179
     2
170
     2
171
     1
172
     0
 90
        2
 40
0.0
 41
0.0
173
     1
 91
-1056964608
340
14
 92
       -2
290
     1
 42
2.0
291
     1
 43
0.36
  3
Standard
 44
4.0
300

342
11
174
     1
178
     6
175
     1
176
     0
 93
-1056964608
 45
4.0
292
     0
297
     0
 46
4.0
 94
-1056964608
 47
1.0
 49
1.0
140
1.0
293
     1
141
0.0
294
     1
177
     0
142
1.0
295
     0
296
     0
143
0.125
271
     0
272
     9
273
     9
1001
ACAD_MLEADERVER
1070
     2
  0
MLINESTYLE
  5
3185
102
{ACAD_REACTORS
330
3184
102
}
330
3184
100
AcDbMlineStyle
  2
STANDARD
 70
     0
  3

 62
   256
 51
90.0
 52
90.0
 71
     2
 49
0.5
 62
   256
  6
BYLAYER
 49
-0.5
 62
   256
  6
BYLAYER
  0
ACDBPLACEHOLDER
  5
318A
102
{ACAD_REACTORS
330
3189
102
}
330
3189
  0
SCALE
  5
1B1FD
102
{ACAD_REACTORS
330
1B1FC
102
}
330
1B1FC
100
AcDbScale
 70
     0
300
1:1
140
1.0
141
1.0
290
     1
1001
ACAD
1000
AcRTDxfName
1000
SCALE
  0
SCALE
  5
1B1FE
102
{ACAD_REACTORS
330
1B1FC
102
}
330
1B1FC
100
AcDbScale
 70
     0
300
1:2
140
1.0
141
2.0
290
     0
1001
ACAD
1000
AcRTDxfName
1000
SCALE
  0
SCALE
  5
1B1FF
102
{ACAD_REACTORS
330
1B1FC
102
}
330
1B1FC
100
AcDbScale
 70
     0
300
1:4
140
1.0
141
4.0
290
     0
1001
ACAD
1000
AcRTDxfName
1000
SCALE
  0
SCALE
  5
1B200
102
{ACAD_REACTORS
330
1B1FC
102
}
330
1B1FC
100
AcDbScale
 70
     0
300
1:5
140
1.0
141
5.0
290
     0
1001
ACAD
1000
AcRTDxfName
1000
SCALE
  0
SCALE
  5
1B201
102
{ACAD_REACTORS
330
1B1FC
102
}
330
1B1FC
100
AcDbScale
 70
     0
300
1:8
140
1.0
141
8.0
290
     0
1001
ACAD
1000
AcRTDxfName
1000
SCALE
  0
SCALE
  5
1B202
102
{ACAD_REACTORS
330
1B1FC
102
}
330
1B1FC
100
AcDbScale
 70
     0
300
1:10
140
1.0
141
10.0
290
     0
1001
ACAD
1000
AcRTDxfName
1000
SCALE
  0
SCALE
  5
1B203
102
{ACAD_REACTORS
330
1B1FC
102
}
330
1B1FC
100
AcDbScale
 70
     0
300
1:16
140
1.0
141
16.0
290
     0
1001
ACAD
1000
AcRTDxfName
1000
SCALE
  0
SCALE
  5
1B204
102
{ACAD_REACTORS
330
1B1FC
102
}
330
1B1FC
100
AcDbScale
 70
     0
300
1:20
140
1.0
141
20.0
290
     0
1001
ACAD
1000
AcRTDxfName
1000
SCALE
  0
SCALE
  5
1B205
102
{ACAD_REACTORS
330
1B1FC
102
}
330
1B1FC
100
AcDbScale
 70
     0
300
1:30
140
1.0
141
30.0
290
     0
1001
ACAD
1000
AcRTDxfName
1000
SCALE
  0
SCALE
  5
1B206
102
{ACAD_REACTORS
330
1B1FC
102
}
330
1B1FC
100
AcDbScale
 70
     0
300
1:40
140
1.0
141
40.0
290
     0
1001
ACAD
1000
AcRTDxfName
1000
SCALE
  0
SCALE
  5
1B207
102
{ACAD_REACTORS
330
1B1FC
102
}
330
1B1FC
100
AcDbScale
 70
     0
300
1:50
140
1.0
141
50.0
290
     0
1001
ACAD
1000
AcRTDxfName
1000
SCALE
  0
SCALE
  5
1B208
102
{ACAD_REACTORS
330
1B1FC
102
}
330
1B1FC
100
AcDbScale
 70
     0
300
1:100
140
1.0
141
100.0
290
     0
1001
ACAD
1000
AcRTDxfName
1000
SCALE
  0
SCALE
  5
1B209
102
{ACAD_REACTORS
330
1B1FC
102
}
330
1B1FC
100
AcDbScale
 70
     0
300
2:1
140
2.0
141
1.0
290
     0
1001
ACAD
1000
AcRTDxfName
1000
SCALE
  0
SCALE
  5
1B20A
102
{ACAD_REACTORS
330
1B1FC
102
}
330
1B1FC
100
AcDbScale
 70
     0
300
4:1
140
4.0
141
1.0
290
     0
1001
ACAD
1000
AcRTDxfName
1000
SCALE
  0
SCALE
  5
1B20B
102
{ACAD_REACTORS
330
1B1FC
102
}
330
1B1FC
100
AcDbScale
 70
     0
300
8:1
140
8.0
141
1.0
290
     0
1001
ACAD
1000
AcRTDxfName
1000
SCALE
  0
SCALE
  5
1B20C
102
{ACAD_REACTORS
330
1B1FC
102
}
330
1B1FC
100
AcDbScale
 70
     0
300
10:1
140
10.0
141
1.0
290
     0
1001
ACAD
1000
AcRTDxfName
1000
SCALE
  0
SCALE
  5
1B20D
102
{ACAD_REACTORS
330
1B1FC
102
}
330
1B1FC
100
AcDbScale
 70
     0
300
100:1
140
100.0
141
1.0
290
     0
1001
ACAD
1000
AcRTDxfName
1000
SCALE
  0
SCALE
  5
1B20E
102
{ACAD_REACTORS
330
1B1FC
102
}
330
1B1FC
100
AcDbScale
 70
     0
300
1/128" = 1'-0"
140
0.0078125
141
12.0
290
     0
1001
ACAD
1000
AcRTDxfName
1000
SCALE
  0
SCALE
  5
1B20F
102
{ACAD_REACTORS
330
1B1FC
102
}
330
1B1FC
100
AcDbScale
 70
     0
300
1/64" = 1'-0"
140
0.015625
141
12.0
290
     0
1001
ACAD
1000
AcRTDxfName
1000
SCALE
  0
SCALE
  5
1B210
102
{ACAD_REACTORS
330
1B1FC
102
}
330
1B1FC
100
AcDbScale
 70
     0
300
1/32" = 1'-0"
140
0.03125
141
12.0
290
     0
1001
ACAD
1000
AcRTDxfName
1000
SCALE
  0
SCALE
  5
1B211
102
{ACAD_REACTORS
330
1B1FC
102
}
330
1B1FC
100
AcDbScale
 70
     0
300
1/16" = 1'-0"
140
0.0625
141
12.0
290
     0
1001
ACAD
1000
AcRTDxfName
1000
SCALE
  0
SCALE
  5
1B212
102
{ACAD_REACTORS
330
1B1FC
102
}
330
1B1FC
100
AcDbScale
 70
     0
300
3/32" = 1'-0"
140
0.09375
141
12.0
290
     0
1001
ACAD
1000
AcRTDxfName
1000
SCALE
  0
SCALE
  5
1B213
102
{ACAD_REACTORS
330
1B1FC
102
}
330
1B1FC
100
AcDbScale
 70
     0
300
1/8" = 1'-0"
140
0.125
141
12.0
290
     0
1001
ACAD
1000
AcRTDxfName
1000
SCALE
  0
SCALE
  5
1B214
102
{ACAD_REACTORS
330
1B1FC
102
}
330
1B1FC
100
AcDbScale
 70
     0
300
3/16" = 1'-0"
140
0.1875
141
12.0
290
     0
1001
ACAD
1000
AcRTDxfName
1000
SCALE
  0
SCALE
  5
1B215
102
{ACAD_REACTORS
330
1B1FC
102
}
330
1B1FC
100
AcDbScale
 70
     0
300
1/4" = 1'-0"
140
0.25
141
12.0
290
     0
1001
ACAD
1000
AcRTDxfName
1000
SCALE
  0
SCALE
  5
1B216
102
{ACAD_REACTORS
330
1B1FC
102
}
330
1B1FC
100
AcDbScale
 70
     0
300
3/8" = 1'-0"
140
0.375
141
12.0
290
     0
1001
ACAD
1000
AcRTDxfName
1000
SCALE
  0
SCALE
  5
1B217
102
{ACAD_REACTORS
330
1B1FC
102
}
330
1B1FC
100
AcDbScale
 70
     0
300
1/2" = 1'-0"
140
0.5
141
12.0
290
     0
1001
ACAD
1000
AcRTDxfName
1000
SCALE
  0
SCALE
  5
1B218
102
{ACAD_REACTORS
330
1B1FC
102
}
330
1B1FC
100
AcDbScale
 70
     0
300
3/4" = 1'-0"
140
0.75
141
12.0
290
     0
1001
ACAD
1000
AcRTDxfName
1000
SCALE
  0
SCALE
  5
1B219
102
{ACAD_REACTORS
330
1B1FC
102
}
330
1B1FC
100
AcDbScale
 70
     0
300
1" = 1'-0"
140
1.0
141
12.0
290
     0
1001
ACAD
1000
AcRTDxfName
1000
SCALE
  0
SCALE
  5
1B21A
102
{ACAD_REACTORS
330
1B1FC
102
}
330
1B1FC
100
AcDbScale
 70
     0
300
1-1/2" = 1'-0"
140
1.5
141
12.0
290
     0
1001
ACAD
1000
AcRTDxfName
1000
SCALE
  0
SCALE
  5
1B21B
102
{ACAD_REACTORS
330
1B1FC
102
}
330
1B1FC
100
AcDbScale
 70
     0
300
3" = 1'-0"
140
3.0
141
12.0
290
     0
1001
ACAD
1000
AcRTDxfName
1000
SCALE
  0
SCALE
  5
1B21C
102
{ACAD_REACTORS
330
1B1FC
102
}
330
1B1FC
100
AcDbScale
 70
     0
300
6" = 1'-0"
140
6.0
141
12.0
290
     0
1001
ACAD
1000
AcRTDxfName
1000
SCALE
  0
SCALE
  5
1B21D
102
{ACAD_REACTORS
330
1B1FC
102
}
330
1B1FC
100
AcDbScale
 70
     0
300
1'-0" = 1'-0"
140
12.0
141
12.0
290
     0
1001
ACAD
1000
AcRTDxfName
1000
SCALE
  0
ACDBSECTIONVIEWSTYLE
  5
20CB1
102
{ACAD_XDICTIONARY
360
22106
102
}
102
{ACAD_REACTORS
330
1B2EE
102
}
330
1B2EE
100
AcDbModelDocViewStyle
 70
     0
  3
Imperial24
290
     0
100
AcDbSectionViewStyle
 70
     0
 71
     0
 90
       78
 71
     1
340
11
 62
   256
 40
0.24
340
0
340
0
 62
   256
 40
0.24
300
I, O, Q, S, X, Z
 40
0.48
 90
        3
 40
0.18
 90
        1
 71
     2
340
16
 90
       25
 62
   256
340
16
 90
       50
 62
   256
 40
0.24
 40
0.0
 40
0.24
 71
     3
340
11
 62
   256
 40
0.24
 90
        1
 40
0.75
 90
        1
300
%<\AcVar ViewType \f "%tc1">% %<\AcVar ViewSectionStartId>%-%<\AcVar ViewSectionEndId>%\PVARIA %<\AcVar ViewScale \f "%sn">%
 71
     4
 62
   256
 62
   257
300
ANSI31
 40
1.0
 90
        0
290
     0
290
     0
 90
        6
 40
0.0
 40
1.570796326794896
 40
0.2617993877991494
 40
1.308996938995747
 40
-0.2617993877991494
 40
1.832595714594044
  0
ACDBSECTIONVIEWSTYLE
  5
1B2EF
102
{ACAD_XDICTIONARY
360
22102
102
}
102
{ACAD_REACTORS
330
1B2EE
102
}
330
1B2EE
100
AcDbModelDocViewStyle
 70
     0
  3
Metric50
290
     0
100
AcDbSectionViewStyle
 70
     0
 71
     0
 90
      102
 71
     1
340
11
 62
   256
 40
5.0
340
0
340
0
 62
   256
 40
5.0
300
I, O, Q, S, X, Z
 40
10.0
 90
        0
 40
2.5
 90
        0
 71
     2
340
16
 90
       25
 62
   256
340
16
 90
       50
 62
   256
 40
5.0
 40
2.5
 40
5.0
 71
     3
340
11
 62
   256
 40
5.0
 90
        0
 40
15.0
 90
        1
300
%<\AcVar ViewSectionStartId>%-%<\AcVar ViewSectionEndId>% (%<\AcVar ViewScale \f "%sn">%)
 71
     4
 62
   256
 62
   257
300
ANSI31
 40
1.0
 90
        0
290
     0
290
     0
 90
        6
 40
0.0
 40
1.570796326794896
 40
0.2617993877991494
 40
1.308996938995747
 40
-0.2617993877991494
 40
1.832595714594044
  0
TABLESTYLE
  5
31A2
102
{ACAD_XDICTIONARY
360
1B314
102
}
102
{ACAD_REACTORS
330
31A1
102
}
330
31A1
100
AcDbTableStyle
280
     0
  3
Standard
 70
     0
 71
     0
 40
1.5
 41
1.5
280
     0
281
     0
  7
STANDARD
140
4.5
170
     2
 62
     0
 63
     7
283
     0
 90
        4
 91
        0
  1

274
    -2
284
     1
 64
     0
275
    -2
285
     1
 65
     0
276
    -2
286
     1
 66
     0
277
    -2
287
     1
 67
     0
278
    -2
288
     1
 68
     0
279
    -2
289
     1
 69
     0
  7
STANDARD
140
6.0
170
     5
 62
     0
 63
     7
283
     0
 90
        4
 91
        0
  1

274
    -2
284
     1
 64
     0
275
    -2
285
     1
 65
     0
276
    -2
286
     1
 66
     0
277
    -2
287
     1
 67
     0
278
    -2
288
     1
 68
     0
279
    -2
289
     1
 69
     0
  7
STANDARD
140
4.5
170
     5
 62
     0
 63
     7
283
     0
 90
        4
 91
        0
  1

274
    -2
284
     1
 64
     0
275
    -2
285
     1
 65
     0
276
    -2
286
     1
 66
     0
277
    -2
287
     1
 67
     0
278
    -2
288
     1
 68
     0
279
    -2
289
     1
 69
     0
  0
VISUALSTYLE
  5
3195
102
{ACAD_XDICTIONARY
360
220D8
102
}
102
{ACAD_REACTORS
330
318F
102
}
330
318F
100
AcDbVisualStyle
  2

 70
     4
177
     2
291
     0
 71
     0
176
     1
 72
     2
176
     1
 73
     0
176
     1
 90
        0
176
     1
 40
0.6
176
     1
 41
30.0
176
     1
 63
     7
176
     1
 74
     1
176
     1
 91
        4
176
     1
 64
     7
176
     1
 65
   257
176
     1
 75
     1
176
     1
175
     1
176
     1
 42
1.0
176
     1
 92
        0
176
     1
 66
   257
176
     1
 43
1.0
176
     1
 76
     1
176
     1
 77
     6
176
     1
 78
     2
176
     1
 67
     7
176
     1
 79
     5
176
     1
170
     0
176
     1
171
     0
176
     1
290
     0
176
     1
 93
        1
176
     1
 44
0.0
176
     1
173
     0
176
     1
1001
ACAD
1000
AcDbSavedByObjectVersion
1070
     0
  0
VISUALSTYLE
  5
3197
102
{ACAD_XDICTIONARY
360
220DC
102
}
102
{ACAD_REACTORS
330
318F
102
}
330
318F
100
AcDbVisualStyle
  2

 70
     6
177
     2
291
     0
 71
     1
176
     1
 72
     2
176
     1
 73
     2
176
     1
 90
        0
176
     1
 40
0.6
176
     1
 41
30.0
176
     1
 63
     7
176
     1
 74
     2
176
     1
 91
        2
176
     1
 64
     7
176
     1
 65
   257
176
     1
 75
     2
176
     1
175
     1
176
     1
 42
40.0
176
     1
 92
        0
176
     1
 66
   257
176
     1
 43
1.0
176
     1
 76
     1
176
     1
 77
     6
176
     1
 78
     2
176
     1
 67
     7
176
     1
 79
     3
176
     1
170
     0
176
     1
171
     0
176
     1
290
     0
176
     1
 93
        1
176
     1
 44
0.0
176
     1
173
     0
176
     1
1001
ACAD
1000
AcDbSavedByObjectVersion
1070
     0
  0
VISUALSTYLE
  5
3196
102
{ACAD_XDICTIONARY
360
220DA
102
}
102
{ACAD_REACTORS
330
318F
102
}
330
318F
100
AcDbVisualStyle
  2

 70
     5
177
     2
291
     0
 71
     0
176
     1
 72
     2
176
     1
 73
     0
176
     1
 90
        0
176
     1
 40
0.6
176
     1
 41
30.0
176
     1
 63
     7
176
     1
 74
     1
176
     1
 91
        4
176
     1
 64
     7
176
     1
 65
   257
176
     1
 75
     1
176
     1
175
     1
176
     1
 42
1.0
176
     1
 92
        0
176
     1
 66
   257
176
     1
 43
1.0
176
     1
 76
     1
176
     1
 77
     6
176
     1
 78
     2
176
     1
 67
     7
176
     1
 79
     5
176
     1
170
     0
176
     1
171
     0
176
     1
290
     0
176
     1
 93
        1
176
     1
 44
0.0
176
     1
173
     0
176
     1
1001
ACAD
1000
AcDbSavedByObjectVersion
1070
     0
  0
VISUALSTYLE
  5
3194
102
{ACAD_XDICTIONARY
360
220D6
102
}
102
{ACAD_REACTORS
330
318F
102
}
330
318F
100
AcDbVisualStyle
  2

 70
     7
177
     2
291
     1
 71
     1
176
     1
 72
     0
176
     1
 73
     1
176
     1
 90
        0
176
     1
 40
0.6
176
     1
 41
30.0
176
     1
 63
     7
176
     1
 74
     0
176
     1
 91
        4
176
     1
 64
     7
176
     1
 65
   257
176
     1
 75
     1
176
     1
175
     1
176
     1
 42
1.0
176
     1
 92
        8
176
     1
 66
     7
176
     1
 43
1.0
176
     1
 76
     1
176
     1
 77
     6
176
     1
 78
     2
176
     1
 67
     7
176
     1
 79
     5
176
     1
170
     0
176
     1
171
     0
176
     1
290
     0
176
     1
 93
        1
176
     1
 44
0.0
176
     1
173
     0
176
     1
1001
ACAD
1000
AcDbSavedByObjectVersion
1070
     0
  0
VISUALSTYLE
  5
319B
102
{ACAD_XDICTIONARY
360
220E4
102
}
102
{ACAD_REACTORS
330
318F
102
}
330
318F
100
AcDbVisualStyle
  2

 70
    12
177
     2
291
     1
 71
     2
176
     1
 72
     2
176
     1
 73
     0
176
     1
 90
        0
176
     1
 40
0.6
176
     1
 41
30.0
176
     1
 63
     7
176
     1
 74
     1
176
     1
 91
        4
176
     1
 64
     7
176
     1
 65
   257
176
     1
 75
     1
176
     1
175
     1
176
     1
 42
1.0
176
     1
 92
        8
176
     1
 66
     7
176
     1
 43
1.0
176
     1
 76
     1
176
     1
 77
     6
176
     1
 78
     2
176
     1
 67
     7
176
     1
 79
     5
176
     1
170
     0
176
     1
171
     0
176
     1
290
     0
176
     1
 93
        1
176
     1
 44
50.0
176
     1
173
     0
176
     1
1001
ACAD
1000
AcDbSavedByObjectVersion
1070
     0
  0
VISUALSTYLE
  5
319F
102
{ACAD_XDICTIONARY
360
220EC
102
}
102
{ACAD_REACTORS
330
318F
102
}
330
318F
100
AcDbVisualStyle
  2

 70
    16
177
     2
291
     1
 71
     2
176
     1
 72
     2
176
     1
 73
     3
176
     1
 90
        0
176
     1
 40
0.6
176
     1
 41
30.0
176
     1
 63
     8
176
     1
 74
     1
176
     1
 91
        4
176
     1
 64
     7
176
     1
 65
   257
176
     1
 75
     1
176
     1
175
     1
176
     1
 42
1.0
176
     1
 92
        8
176
     1
 66
     8
176
     1
 43
1.0
176
     1
 76
     1
176
     1
 77
     6
176
     1
 78
     2
176
     1
 67
     7
176
     1
 79
     5
176
     1
170
     0
176
     1
171
     0
176
     1
290
     0
176
     1
 93
        1
176
     1
 44
0.0
176
     1
173
     0
176
     1
1001
ACAD
1000
AcDbSavedByObjectVersion
1070
     0
  0
VISUALSTYLE
  5
3198
102
{ACAD_XDICTIONARY
360
220DE
102
}
102
{ACAD_REACTORS
330
318F
102
}
330
318F
100
AcDbVisualStyle
  2

 70
     9
177
     2
291
     0
 71
     3
176
     1
 72
     2
176
     1
 73
     0
176
     1
 90
        0
176
     1
 40
0.6
176
     1
 41
30.0
176
     1
 63
     7
176
     1
 74
     2
176
     1
 91
        2
176
     1
 64
     7
176
     1
 65
   257
176
     1
 75
     1
176
     1
175
     1
176
     1
 42
40.0
176
     1
 92
        8
176
     1
 66
     7
176
     1
 43
1.0
176
     1
 76
     1
176
     1
 77
     6
176
     1
 78
     2
176
     1
 67
     7
176
     1
 79
     3
176
     1
170
     0
176
     1
171
     0
176
     1
290
     0
176
     1
 93
        1
176
     1
 44
0.0
176
     1
173
     0
176
     1
1001
ACAD
1000
AcDbSavedByObjectVersion
1070
     0
  0
VISUALSTYLE
  5
319A
102
{ACAD_XDICTIONARY
360
220E2
102
}
102
{ACAD_REACTORS
330
318F
102
}
330
318F
100
AcDbVisualStyle
  2

 70
    11
177
     2
291
     1
 71
     2
176
     1
 72
     2
176
     1
 73
     0
176
     1
 90
        0
176
     1
 40
0.6
176
     1
 41
30.0
176
     1
 63
     7
176
     1
 74
     1
176
     1
 91
        4
176
     1
 64
     7
176
     1
 65
   257
176
     1
 75
     1
176
     1
175
     1
176
     1
 42
1.0
176
     1
 92
        8
176
     1
 66
     7
176
     1
 43
1.0
176
     1
 76
     1
176
     1
 77
     6
176
     1
 78
     2
176
     1
 67
     7
176
     1
 79
     5
176
     1
170
     0
176
     1
171
     0
176
     1
290
     0
176
     1
 93
        1
176
     1
 44
-50.0
176
     1
173
     0
176
     1
1001
ACAD
1000
AcDbSavedByObjectVersion
1070
     0
  0
VISUALSTYLE
  5
1B2EC
102
{ACAD_XDICTIONARY
360
22100
102
}
102
{ACAD_REACTORS
330
318F
102
}
330
318F
100
AcDbVisualStyle
  2

 70
    22
177
     2
291
     1
 71
     2
176
     0
 72
     2
176
     0
 73
     0
176
     0
 90
        0
176
     0
 40
0.6
176
     0
 41
30.0
176
     0
 63
     7
176
     0
 74
     1
176
     0
 91
        4
176
     0
 64
     7
176
     0
 65
   257
176
     0
 75
     1
176
     0
175
     1
176
     0
 42
1.0
176
     0
 92
        8
176
     2
 66
     7
176
     0
 43
1.0
176
     0
 76
     1
176
     0
 77
     6
176
     0
 78
     2
176
     0
 67
     7
176
     0
 79
     5
176
     0
170
     0
176
     0
171
     0
176
     0
290
     0
176
     0
 93
        1
176
     0
 44
0.0
176
     0
173
     0
176
     0
1001
ACAD
1000
AcDbSavedByObjectVersion
1070
     0
  0
VISUALSTYLE
  5
319E
102
{ACAD_XDICTIONARY
360
220EA
102
}
102
{ACAD_REACTORS
330
318F
102
}
330
318F
100
AcDbVisualStyle
  2

 70
    15
177
     2
291
     1
 71
     2
176
     1
 72
     2
176
     1
 73
     0
176
     1
 90
        0
176
     1
 40
0.6
176
     1
 41
30.0
176
     1
 63
     7
176
     1
 74
     1
176
     1
 91
        4
176
     1
 64
     7
176
     1
 65
   257
176
     1
 75
     1
176
     1
175
     1
176
     1
 42
1.0
176
     1
 92
        8
176
     1
 66
     7
176
     1
 43
1.0
176
     1
 76
     1
176
     1
 77
     6
176
     1
 78
     2
176
     1
 67
     7
176
     1
 79
     5
176
     1
170
     0
176
     1
171
     0
176
     1
290
     0
176
     1
 93
        1
176
     1
 44
0.0
176
     1
173
     0
176
     1
1001
ACAD
1000
AcDbSavedByObjectVersion
1070
     0
  0
VISUALSTYLE
  5
3190
102
{ACAD_XDICTIONARY
360
220CE
102
}
102
{ACAD_REACTORS
330
318F
102
}
330
318F
100
AcDbVisualStyle
  2

 70
     0
177
     2
291
     1
 71
     2
176
     1
 72
     1
176
     1
 73
     1
176
     1
 90
        2
176
     1
 40
0.6
176
     1
 41
30.0
176
     1
 63
     7
176
     1
 74
     0
176
     1
 91
        4
176
     1
 64
     7
176
     1
 65
   257
176
     1
 75
     1
176
     1
175
     1
176
     1
 42
1.0
176
     1
 92
        8
176
     1
 66
     7
176
     1
 43
1.0
176
     1
 76
     1
176
     1
 77
     6
176
     1
 78
     2
176
     1
 67
     7
176
     1
 79
     5
176
     1
170
     0
176
     1
171
     0
176
     1
290
     0
176
     1
 93
       13
176
     1
 44
0.0
176
     1
173
     0
176
     1
1001
ACAD
1000
AcDbSavedByObjectVersion
1070
     0
  0
VISUALSTYLE
  5
3191
102
{ACAD_XDICTIONARY
360
220D0
102
}
102
{ACAD_REACTORS
330
318F
102
}
330
318F
100
AcDbVisualStyle
  2

 70
     1
177
     2
291
     1
 71
     2
176
     1
 72
     1
176
     1
 73
     1
176
     1
 90
        2
176
     1
 40
0.6
176
     1
 41
30.0
176
     1
 63
     7
176
     1
 74
     1
176
     1
 91
        4
176
     1
 64
     7
176
     1
 65
   257
176
     1
 75
     1
176
     1
175
     1
176
     1
 42
1.0
176
     1
 92
        0
176
     1
 66
   257
176
     1
 43
1.0
176
     1
 76
     1
176
     1
 77
     6
176
     1
 78
     2
176
     1
 67
     7
176
     1
 79
     5
176
     1
170
     0
176
     1
171
     0
176
     1
290
     0
176
     1
 93
       13
176
     1
 44
0.0
176
     1
173
     0
176
     1
1001
ACAD
1000
AcDbSavedByObjectVersion
1070
     0
  0
VISUALSTYLE
  5
3192
102
{ACAD_XDICTIONARY
360
220D2
102
}
102
{ACAD_REACTORS
330
318F
102
}
330
318F
100
AcDbVisualStyle
  2

 70
     2
177
     2
291
     1
 71
     2
176
     1
 72
     2
176
     1
 73
     1
176
     1
 90
        2
176
     1
 40
0.6
176
     1
 41
30.0
176
     1
 63
     7
176
     1
 74
     0
176
     1
 91
        4
176
     1
 64
     7
176
     1
 65
   257
176
     1
 75
     1
176
     1
175
     1
176
     1
 42
1.0
176
     1
 92
        0
176
     1
 66
     7
176
     1
 43
1.0
176
     1
 76
     1
176
     1
 77
     6
176
     1
 78
     2
176
     1
 67
     7
176
     1
 79
     5
176
     1
170
     0
176
     1
171
     0
176
     1
290
     0
176
     1
 93
       13
176
     1
 44
0.0
176
     1
173
     0
176
     1
1001
ACAD
1000
AcDbSavedByObjectVersion
1070
     0
  0
VISUALSTYLE
  5
3193
102
{ACAD_XDICTIONARY
360
220D4
102
}
102
{ACAD_REACTORS
330
318F
102
}
330
318F
100
AcDbVisualStyle
  2

 70
     3
177
     2
291
     1
 71
     2
176
     1
 72
     2
176
     1
 73
     1
176
     1
 90
        2
176
     1
 40
0.6
176
     1
 41
30.0
176
     1
 63
     7
176
     1
 74
     1
176
     1
 91
        4
176
     1
 64
     7
176
     1
 65
   257
176
     1
 75
     1
176
     1
175
     1
176
     1
 42
1.0
176
     1
 92
        0
176
     1
 66
   257
176
     1
 43
1.0
176
     1
 76
     1
176
     1
 77
     6
176
     1
 78
     2
176
     1
 67
     7
176
     1
 79
     5
176
     1
170
     0
176
     1
171
     0
176
     1
290
     0
176
     1
 93
       13
176
     1
 44
0.0
176
     1
173
     0
176
     1
1001
ACAD
1000
AcDbSavedByObjectVersion
1070
     0
  0
VISUALSTYLE
  5
1B2E4
102
{ACAD_XDICTIONARY
360
220F0
102
}
102
{ACAD_REACTORS
330
318F
102
}
330
318F
100
AcDbVisualStyle
  2

 70
     6
177
     2
291
     0
 71
     1
176
     1
 72
     2
176
     1
 73
     2
176
     1
 90
        0
176
     1
 40
0.6
176
     1
 41
30.0
176
     1
 63
     7
176
     1
 74
     2
176
     1
 91
        2
176
     1
 64
     7
176
     1
 65
   257
176
     1
 75
     2
176
     1
175
     1
176
     1
 42
40.0
176
     1
 92
        0
176
     1
 66
   257
176
     1
 43
1.0
176
     1
 76
     1
176
     1
 77
     6
176
     1
 78
     2
176
     1
 67
     7
176
     1
 79
     3
176
     1
170
     0
176
     1
171
     0
176
     1
290
     0
176
     1
 93
        1
176
     1
 44
0.0
176
     1
173
     0
176
     1
1001
ACAD
1000
AcDbSavedByObjectVersion
1070
     0
  0
VISUALSTYLE
  5
1B2EA
102
{ACAD_XDICTIONARY
360
220FC
102
}
102
{ACAD_REACTORS
330
318F
102
}
330
318F
100
AcDbVisualStyle
  2

 70
    20
177
     2
291
     1
 71
     2
176
     0
 72
     2
176
     0
 73
     0
176
     0
 90
        0
176
     0
 40
0.6
176
     0
 41
30.0
176
     0
 63
     7
176
     0
 74
     1
176
     0
 91
        4
176
     0
 64
     7
176
     0
 65
   257
176
     0
 75
     1
176
     0
175
     1
176
     0
 42
1.0
176
     0
 92
       10
176
     2
 66
     7
176
     0
 43
1.0
176
     0
 76
     1
176
     0
 77
     6
176
     0
 78
     2
176
     0
 67
     7
176
     0
 79
     5
176
     0
170
     0
176
     0
171
     0
176
     0
290
     0
176
     0
 93
        1
176
     0
 44
0.0
176
     0
173
     0
176
     0
1001
ACAD
1000
AcDbSavedByObjectVersion
1070
     0
  0
VISUALSTYLE
  5
319D
102
{ACAD_XDICTIONARY
360
220E8
102
}
102
{ACAD_REACTORS
330
318F
102
}
330
318F
100
AcDbVisualStyle
  2

 70
    14
177
     2
291
     1
 71
     2
176
     1
 72
     2
176
     1
 73
     0
176
     1
 90
        0
176
     1
 40
0.6
176
     1
 41
30.0
176
     1
 63
     7
176
     1
 74
     1
176
     1
 91
        4
176
     1
 64
     7
176
     1
 65
   257
176
     1
 75
     7
176
     1
175
     7
176
     1
 42
1.0
176
     1
 92
        8
176
     1
 66
     7
176
     1
 43
1.0
176
     1
 76
     1
176
     1
 77
     6
176
     1
 78
     2
176
     1
 67
     7
176
     1
 79
     5
176
     1
170
     0
176
     1
171
     0
176
     1
290
     0
176
     1
 93
        1
176
     1
 44
0.0
176
     1
173
     0
176
     1
1001
ACAD
1000
AcDbSavedByObjectVersion
1070
     0
  0
VISUALSTYLE
  5
1B2EB
102
{ACAD_XDICTIONARY
360
220FE
102
}
102
{ACAD_REACTORS
330
318F
102
}
330
318F
100
AcDbVisualStyle
  2

 70
    21
177
     2
291
     1
 71
     2
176
     0
 72
     2
176
     0
 73
     0
176
     0
 90
        0
176
     0
 40
0.6
176
     0
 41
30.0
176
     0
 63
     7
176
     0
 74
     1
176
     0
 91
        4
176
     0
 64
     7
176
     0
 65
   257
176
     0
 75
     1
176
     0
175
     1
176
     0
 42
1.0
176
     0
 92
        9
176
     2
 66
     7
176
     0
 43
1.0
176
     0
 76
     1
176
     0
 77
     6
176
     0
 78
     2
176
     0
 67
     7
176
     0
 79
     5
176
     0
170
     0
176
     0
171
     0
176
     0
290
     0
176
     0
 93
        1
176
     0
 44
0.0
176
     0
173
     0
176
     0
1001
ACAD
1000
AcDbSavedByObjectVersion
1070
     0
  0
VISUALSTYLE
  5
3199
102
{ACAD_XDICTIONARY
360
220E0
102
}
102
{ACAD_REACTORS
330
318F
102
}
330
318F
100
AcDbVisualStyle
  2

 70
     8
177
     2
291
     0
 71
     2
176
     1
 72
     2
176
     1
 73
     0
176
     1
 90
        0
176
     1
 40
0.6
176
     1
 41
30.0
176
     1
 63
     7
176
     1
 74
     1
176
     1
 91
        0
176
     1
 64
     7
176
     1
 65
   257
176
     1
 75
     1
176
     1
175
     1
176
     1
 42
1.0
176
     1
 92
        8
176
     1
 66
     8
176
     1
 43
1.0
176
     1
 76
     1
176
     1
 77
     6
176
     1
 78
     2
176
     1
 67
     7
176
     1
 79
     5
176
     1
170
     0
176
     1
171
     0
176
     1
290
     0
176
     1
 93
       13
176
     1
 44
0.0
176
     1
173
     0
176
     1
1001
ACAD
1000
AcDbSavedByObjectVersion
1070
     0
  0
VISUALSTYLE
  5
1B2E9
102
{ACAD_XDICTIONARY
360
220FA
102
}
102
{ACAD_REACTORS
330
318F
102
}
330
318F
100
AcDbVisualStyle
  2

 70
    27
177
     2
291
     0
 71
     2
176
     1
 72
     2
176
     1
 73
     1
176
     1
 90
        2
176
     1
 40
0.6
176
     1
 41
30.0
176
     1
 63
     7
176
     1
 74
     0
176
     1
 91
        4
176
     1
 64
     7
176
     1
 65
   257
176
     1
 75
     1
176
     1
175
     1
176
     1
 42
1.0
176
     1
 92
        8
176
     1
 66
   257
176
     1
 43
1.0
176
     1
 76
     1
176
     1
 77
     6
176
     1
 78
     2
176
     1
 67
     8
176
     1
 79
     3
176
     1
170
     0
176
     1
171
     0
176
     1
290
     0
176
     1
 93
        5
176
     1
 44
0.0
176
     1
173
     0
176
     1
1001
ACAD
1000
AcDbSavedByObjectVersion
1070
     0
  0
VISUALSTYLE
  5
1B2E8
102
{ACAD_XDICTIONARY
360
220F8
102
}
102
{ACAD_REACTORS
330
318F
102
}
330
318F
100
AcDbVisualStyle
  2

 70
    26
177
     2
291
     0
 71
     2
176
     1
 72
     2
176
     1
 73
     1
176
     1
 90
        2
176
     1
 40
0.6
176
     1
 41
30.0
176
     1
 63
     7
176
     1
 74
     1
176
     1
 91
       10
176
     1
 64
     7
176
     1
 65
   257
176
     1
 75
     2
176
     1
175
     1
176
     1
 42
1.0
176
     1
 92
        8
176
     1
 66
   257
176
     1
 43
1.0
176
     1
 76
     1
176
     1
 77
     6
176
     1
 78
     2
176
     1
 67
     7
176
     1
 79
     3
176
     1
170
     0
176
     1
171
     0
176
     1
290
     0
176
     1
 93
        5
176
     1
 44
0.0
176
     1
173
     0
176
     1
1001
ACAD
1000
AcDbSavedByObjectVersion
1070
     0
  0
VISUALSTYLE
  5
1B2E5
102
{ACAD_XDICTIONARY
360
220F2
102
}
102
{ACAD_REACTORS
330
318F
102
}
330
318F
100
AcDbVisualStyle
  2

 70
    23
177
     2
291
     0
 71
     2
176
     1
 72
     2
176
     1
 73
     3
176
     1
 90
        0
176
     1
 40
0.6
176
     1
 41
30.0
176
     1
 63
     7
176
     1
 74
     2
176
     1
 91
        2
176
     1
 64
     7
176
     1
 65
     7
176
     1
 75
     1
176
     1
175
     1
176
     1
 42
40.0
176
     1
 92
        8
176
     1
 66
     7
176
     1
 43
1.0
176
     1
 76
     1
176
     1
 77
     6
176
     1
 78
     2
176
     1
 67
     7
176
     1
 79
     3
176
     1
170
     0
176
     1
171
     0
176
     1
290
     0
176
     1
 93
        1
176
     1
 44
0.0
176
     1
173
     0
176
     1
1001
ACAD
1000
AcDbSavedByObjectVersion
1070
     0
  0
VISUALSTYLE
  5
1B2E6
102
{ACAD_XDICTIONARY
360
220F4
102
}
102
{ACAD_REACTORS
330
318F
102
}
330
318F
100
AcDbVisualStyle
  2

 70
    24
177
     2
291
     0
 71
     1
176
     1
 72
     2
176
     1
 73
     2
176
     1
 90
        0
176
     1
 40
0.6
176
     1
 41
30.0
176
     1
 63
     7
176
     1
 74
     2
176
     1
 91
        2
176
     1
 64
     7
176
     1
 65
     7
176
     1
 75
     1
176
     1
175
     1
176
     1
 42
40.0
176
     1
 92
       11
176
     1
 66
     7
176
     1
 43
1.0
176
     1
 76
     1
176
     1
 77
     6
176
     1
 78
     2
176
     1
 67
     7
176
     1
 79
     6
176
     1
170
     0
176
     1
171
     0
176
     1
290
     0
176
     1
 93
        1
176
     1
 44
0.0
176
     1
173
     0
176
     1
1001
ACAD
1000
AcDbSavedByObjectVersion
1070
     0
  0
VISUALSTYLE
  5
319C
102
{ACAD_XDICTIONARY
360
220E6
102
}
102
{ACAD_REACTORS
330
318F
102
}
330
318F
100
AcDbVisualStyle
  2

 70
    13
177
     2
291
     1
 71
     2
176
     1
 72
     2
176
     1
 73
     0
176
     1
 90
        0
176
     1
 40
0.6
176
     1
 41
30.0
176
     1
 63
     7
176
     1
 74
     1
176
     1
 91
        4
176
     1
 64
     7
176
     1
 65
   257
176
     1
 75
     1
176
     1
175
     1
176
     1
 42
1.0
176
     1
 92
       12
176
     1
 66
     7
176
     1
 43
1.0
176
     1
 76
     1
176
     1
 77
     6
176
     1
 78
     2
176
     1
 67
     7
176
     1
 79
     5
176
     1
170
     0
176
     1
171
     0
176
     1
290
     0
176
     1
 93
        1
176
     1
 44
0.0
176
     1
173
     0
176
     1
1001
ACAD
1000
AcDbSavedByObjectVersion
1070
     0
  0
VISUALSTYLE
  5
1B2E3
102
{ACAD_XDICTIONARY
360
220EE
102
}
102
{ACAD_REACTORS
330
318F
102
}
330
318F
100
AcDbVisualStyle
  2

 70
     5
177
     2
291
     0
 71
     0
176
     1
 72
     2
176
     1
 73
     0
176
     1
 90
        0
176
     1
 40
0.6
176
     1
 41
30.0
176
     1
 63
     7
176
     1
 74
     1
176
     1
 91
        4
176
     1
 64
     7
176
     1
 65
   257
176
     1
 75
     1
176
     1
175
     1
176
     1
 42
1.0
176
     1
 92
        0
176
     1
 66
   257
176
     1
 43
1.0
176
     1
 76
     1
176
     1
 77
     6
176
     1
 78
     2
176
     1
 67
     7
176
     1
 79
     3
176
     1
170
     0
176
     1
171
     0
176
     1
290
     0
176
     1
 93
        1
176
     1
 44
0.0
176
     1
173
     0
176
     1
1001
ACAD
1000
AcDbSavedByObjectVersion
1070
     0
  0
VISUALSTYLE
  5
1B2E7
102
{ACAD_XDICTIONARY
360
220F6
102
}
102
{ACAD_REACTORS
330
318F
102
}
330
318F
100
AcDbVisualStyle
  2

 70
    25
177
     2
291
     0
 71
     2
176
     1
 72
     2
176
     1
 73
     1
176
     1
 90
        1
176
     1
 40
0.5
176
     1
 41
30.0
176
     1
 63
     7
176
     1
 74
     1
176
     1
 91
        0
176
     1
 64
     7
176
     1
 65
   257
176
     1
 75
     1
176
     1
175
     1
176
     1
 42
1.0
176
     1
 92
        8
176
     1
 66
     7
176
     1
 43
1.0
176
     1
 76
     1
176
     1
 77
     6
176
     1
 78
     2
176
     1
 67
     7
176
     1
 79
     3
176
     1
170
     0
176
     1
171
     0
176
     1
290
     0
176
     1
 93
       13
176
     1
 44
0.0
176
     1
173
     0
176
     1
1001
ACAD
1000
AcDbSavedByObjectVersion
1070
     0
  0
DICTIONARYVAR
  5
1B222
102
{ACAD_REACTORS
330
33A3
102
}
330
33A3
100
DictionaryVariables
280
     0
  1
1:1
  0
DICTIONARYVAR
  5
1B30F
102
{ACAD_REACTORS
330
33A3
102
}
330
33A3
100
DictionaryVariables
280
     0
  1
STANDARD
  0
DICTIONARYVAR
  5
33A4
102
{ACAD_REACTORS
330
33A3
102
}
330
33A3
100
DictionaryVariables
280
     0
  1
STANDARD
  0
DICTIONARYVAR
  5
1B310
102
{ACAD_REACTORS
330
33A3
102
}
330
33A3
100
DictionaryVariables
280
     0
  1
Metric50
  0
DICTIONARYVAR
  5
1B311
102
{ACAD_REACTORS
330
33A3
102
}
330
33A3
100
DictionaryVariables
280
     0
  1
Metric50
  0
DICTIONARYVAR
  5
9BE8
102
{ACAD_REACTORS
330
33A3
102
}
330
33A3
100
DictionaryVariables
280
     0
  1
1
  0
DICTIONARYVAR
  5
9BE7
102
{ACAD_REACTORS
330
33A3
102
}
330
33A3
100
DictionaryVariables
280
     0
  1
0
  0
DICTIONARYVAR
  5
20993
102
{ACAD_REACTORS
330
33A3
102
}
330
33A3
100
DictionaryVariables
280
     0
  1
1
  0
DICTIONARYVAR
  5
20994
102
{ACAD_REACTORS
330
33A3
102
}
330
33A3
100
DictionaryVariables
280
     0
  1
15
  0
DICTIONARYVAR
  5
20992
102
{ACAD_REACTORS
330
33A3
102
}
330
33A3
100
DictionaryVariables
280
     0
  1
0
  0
DICTIONARYVAR
  5
20991
102
{ACAD_REACTORS
330
33A3
102
}
330
33A3
100
DictionaryVariables
280
     0
  1
0
  0
DICTIONARYVAR
  5
9BE6
102
{ACAD_REACTORS
330
33A3
102
}
330
33A3
100
DictionaryVariables
280
     0
  1
127
  0
DICTIONARY
  5
22108
330
20CB3
100
AcDbDictionary
280
     1
281
     1
  3
ACAD_XREC_ROUNDTRIP
360
22109
  0
DICTIONARY
  5
22104
330
1B2F1
100
AcDbDictionary
280
     1
281
     1
  3
ACAD_XREC_ROUNDTRIP
360
22105
  0
DICTIONARY
  5
1B22B
330
318D
100
AcDbDictionary
280
     1
281
     1
  3
ACAD_XREC_ROUNDTRIP
360
1B22C
  0
DICTIONARY
  5
1B22D
330
318C
100
AcDbDictionary
280
     1
281
     1
  3
ACAD_XREC_ROUNDTRIP
360
1B22E
  0
DICTIONARY
  5
1B22F
330
318E
100
AcDbDictionary
280
     1
281
     1
  3
ACAD_XREC_ROUNDTRIP
360
1B230
  0
DICTIONARY
  5
22106
330
20CB1
100
AcDbDictionary
280
     1
281
     1
  3
ACAD_XREC_ROUNDTRIP
360
22107
  0
DICTIONARY
  5
22102
330
1B2EF
100
AcDbDictionary
280
     1
281
     1
  3
ACAD_XREC_ROUNDTRIP
360
22103
  0
DICTIONARY
  5
1B314
330
31A2
100
AcDbDictionary
280
     1
281
     1
  3
ACAD_ROUNDTRIP_2008_TABLESTYLE_CELLSTYLEMAP
360
220CC
  0
DICTIONARY
  5
220D8
330
3195
100
AcDbDictionary
280
     1
281
     1
  3
ACAD_XREC_ROUNDTRIP
360
220D9
  0
DICTIONARY
  5
220DC
330
3197
100
AcDbDictionary
280
     1
281
     1
  3
ACAD_XREC_ROUNDTRIP
360
220DD
  0
DICTIONARY
  5
220DA
330
3196
100
AcDbDictionary
280
     1
281
     1
  3
ACAD_XREC_ROUNDTRIP
360
220DB
  0
DICTIONARY
  5
220D6
330
3194
100
AcDbDictionary
280
     1
281
     1
  3
ACAD_XREC_ROUNDTRIP
360
220D7
  0
DICTIONARY
  5
220E4
330
319B
100
AcDbDictionary
280
     1
281
     1
  3
ACAD_XREC_ROUNDTRIP
360
220E5
  0
DICTIONARY
  5
220EC
330
319F
100
AcDbDictionary
280
     1
281
     1
  3
ACAD_XREC_ROUNDTRIP
360
220ED
  0
DICTIONARY
  5
220DE
330
3198
100
AcDbDictionary
280
     1
281
     1
  3
ACAD_XREC_ROUNDTRIP
360
220DF
  0
DICTIONARY
  5
220E2
330
319A
100
AcDbDictionary
280
     1
281
     1
  3
ACAD_XREC_ROUNDTRIP
360
220E3
  0
DICTIONARY
  5
22100
330
1B2EC
100
AcDbDictionary
280
     1
281
     1
  3
ACAD_XREC_ROUNDTRIP
360
22101
  0
DICTIONARY
  5
220EA
330
319E
100
AcDbDictionary
280
     1
281
     1
  3
ACAD_XREC_ROUNDTRIP
360
220EB
  0
DICTIONARY
  5
220CE
330
3190
100
AcDbDictionary
280
     1
281
     1
  3
ACAD_XREC_ROUNDTRIP
360
220CF
  0
DICTIONARY
  5
220D0
330
3191
100
AcDbDictionary
280
     1
281
     1
  3
ACAD_XREC_ROUNDTRIP
360
220D1
  0
DICTIONARY
  5
220D2
330
3192
100
AcDbDictionary
280
     1
281
     1
  3
ACAD_XREC_ROUNDTRIP
360
220D3
  0
DICTIONARY
  5
220D4
330
3193
100
AcDbDictionary
280
     1
281
     1
  3
ACAD_XREC_ROUNDTRIP
360
220D5
  0
DICTIONARY
  5
220F0
330
1B2E4
100
AcDbDictionary
280
     1
281
     1
  3
ACAD_XREC_ROUNDTRIP
360
220F1
  0
DICTIONARY
  5
220FC
330
1B2EA
100
AcDbDictionary
280
     1
281
     1
  3
ACAD_XREC_ROUNDTRIP
360
220FD
  0
DICTIONARY
  5
220E8
330
319D
100
AcDbDictionary
280
     1
281
     1
  3
ACAD_XREC_ROUNDTRIP
360
220E9
  0
DICTIONARY
  5
220FE
330
1B2EB
100
AcDbDictionary
280
     1
281
     1
  3
ACAD_XREC_ROUNDTRIP
360
220FF
  0
DICTIONARY
  5
220E0
330
3199
100
AcDbDictionary
280
     1
281
     1
  3
ACAD_XREC_ROUNDTRIP
360
220E1
  0
DICTIONARY
  5
220FA
330
1B2E9
100
AcDbDictionary
280
     1
281
     1
  3
ACAD_XREC_ROUNDTRIP
360
220FB
  0
DICTIONARY
  5
220F8
330
1B2E8
100
AcDbDictionary
280
     1
281
     1
  3
ACAD_XREC_ROUNDTRIP
360
220F9
  0
DICTIONARY
  5
220F2
330
1B2E5
100
AcDbDictionary
280
     1
281
     1
  3
ACAD_XREC_ROUNDTRIP
360
220F3
  0
DICTIONARY
  5
220F4
330
1B2E6
100
AcDbDictionary
280
     1
281
     1
  3
ACAD_XREC_ROUNDTRIP
360
220F5
  0
DICTIONARY
  5
220E6
330
319C
100
AcDbDictionary
280
     1
281
     1
  3
ACAD_XREC_ROUNDTRIP
360
220E7
  0
DICTIONARY
  5
220EE
330
1B2E3
100
AcDbDictionary
280
     1
281
     1
  3
ACAD_XREC_ROUNDTRIP
360
220EF
  0
DICTIONARY
  5
220F6
330
1B2E7
100
AcDbDictionary
280
     1
281
     1
  3
ACAD_XREC_ROUNDTRIP
360
220F7
  0
XRECORD
  5
22109
102
{ACAD_REACTORS
330
22108
102
}
330
22108
100
AcDbXrecord
280
     1
102
DISPLAYNAME
  1
Imperial24
102
FLAGS
 90
        0
  0
XRECORD
  5
22105
102
{ACAD_REACTORS
330
22104
102
}
330
22104
100
AcDbXrecord
280
     1
102
DISPLAYNAME
  1
Metric50
102
FLAGS
 90
        0
  0
XRECORD
  5
1B22C
102
{ACAD_REACTORS
330
1B22B
102
}
330
1B22B
100
AcDbXrecord
280
     1
102
MATERIAL
148
0.0
149
0.0
149
0.0
 93
        0
 94
      127
282
     0
 72
     1
 77
     1
171
     1
175
     1
179
     1
273
     0
  0
XRECORD
  5
1B22E
102
{ACAD_REACTORS
330
1B22D
102
}
330
1B22D
100
AcDbXrecord
280
     1
102
MATERIAL
148
0.0
149
0.0
149
0.0
 93
        0
 94
      127
282
     0
 72
     1
 77
     1
171
     1
175
     1
179
     1
273
     0
  0
XRECORD
  5
1B230
102
{ACAD_REACTORS
330
1B22F
102
}
330
1B22F
100
AcDbXrecord
280
     1
102
MATERIAL
148
0.0
149
0.0
149
0.0
 93
        0
 94
      127
282
     0
 72
     1
 77
     1
171
     1
175
     1
179
     1
273
     0
  0
XRECORD
  5
22107
102
{ACAD_REACTORS
330
22106
102
}
330
22106
100
AcDbXrecord
280
     1
102
DISPLAYNAME
  1
Imperial24
102
FLAGS
 90
        0
  0
XRECORD
  5
22103
102
{ACAD_REACTORS
330
22102
102
}
330
22102
100
AcDbXrecord
280
     1
102
DISPLAYNAME
  1
Metric50
102
FLAGS
 90
        0
  0
CELLSTYLEMAP
  5
220CC
102
{ACAD_REACTORS
330
1B314
102
}
330
1B314
100
AcDbCellStyleMap
 90
        3
300
CELLSTYLE
  1
TABLEFORMAT_BEGIN
 90
        5
170
     1
 91
        0
 92
    32768
 62
   257
 93
        1
300
CONTENTFORMAT
  1
CONTENTFORMAT_BEGIN
 90
        0
 91
        0
 92
        4
 93
        0
300

 40
0.0
140
1.0
 94
        5
 62
     0
340
11
144
6.0
309
CONTENTFORMAT_END
171
     1
301
MARGIN
  1
CELLMARGIN_BEGIN
 40
1.5
 40
1.5
 40
1.5
 40
1.5
 40
0.18
 40
0.18
309
CELLMARGIN_END
 94
        6
 95
        1
302
GRIDFORMAT
  1
GRIDFORMAT_BEGIN
 90
        0
 91
        1
 62
     0
 92
       -2
340
0
 93
        0
 40
0.045
309
GRIDFORMAT_END
 95
        2
302
GRIDFORMAT
  1
GRIDFORMAT_BEGIN
 90
        0
 91
        1
 62
     0
 92
       -2
340
0
 93
        0
 40
0.045
309
GRIDFORMAT_END
 95
        4
302
GRIDFORMAT
  1
GRIDFORMAT_BEGIN
 90
        0
 91
        1
 62
     0
 92
       -2
340
0
 93
        0
 40
0.045
309
GRIDFORMAT_END
 95
        8
302
GRIDFORMAT
  1
GRIDFORMAT_BEGIN
 90
        0
 91
        1
 62
     0
 92
       -2
340
0
 93
        0
 40
0.045
309
GRIDFORMAT_END
 95
       16
302
GRIDFORMAT
  1
GRIDFORMAT_BEGIN
 90
        0
 91
        1
 62
     0
 92
       -2
340
0
 93
        0
 40
0.045
309
GRIDFORMAT_END
 95
       32
302
GRIDFORMAT
  1
GRIDFORMAT_BEGIN
 90
        0
 91
        1
 62
     0
 92
       -2
340
0
 93
        0
 40
0.045
309
GRIDFORMAT_END
309
TABLEFORMAT_END
  1
CELLSTYLE_BEGIN
 90
        1
 91
        1
300
_TITLE
309
CELLSTYLE_END
300
CELLSTYLE
  1
TABLEFORMAT_BEGIN
 90
        5
170
     1
 91
        0
 92
        0
 62
   257
 93
        1
300
CONTENTFORMAT
  1
CONTENTFORMAT_BEGIN
 90
        0
 91
        0
 92
        4
 93
        0
300

 40
0.0
140
1.0
 94
        5
 62
     0
340
11
144
4.5
309
CONTENTFORMAT_END
171
     1
301
MARGIN
  1
CELLMARGIN_BEGIN
 40
1.5
 40
1.5
 40
1.5
 40
1.5
 40
0.18
 40
0.18
309
CELLMARGIN_END
 94
        6
 95
        1
302
GRIDFORMAT
  1
GRIDFORMAT_BEGIN
 90
        0
 91
        1
 62
     0
 92
       -2
340
0
 93
        0
 40
0.045
309
GRIDFORMAT_END
 95
        2
302
GRIDFORMAT
  1
GRIDFORMAT_BEGIN
 90
        0
 91
        1
 62
     0
 92
       -2
340
0
 93
        0
 40
0.045
309
GRIDFORMAT_END
 95
        4
302
GRIDFORMAT
  1
GRIDFORMAT_BEGIN
 90
        0
 91
        1
 62
     0
 92
       -2
340
0
 93
        0
 40
0.045
309
GRIDFORMAT_END
 95
        8
302
GRIDFORMAT
  1
GRIDFORMAT_BEGIN
 90
        0
 91
        1
 62
     0
 92
       -2
340
0
 93
        0
 40
0.045
309
GRIDFORMAT_END
 95
       16
302
GRIDFORMAT
  1
GRIDFORMAT_BEGIN
 90
        0
 91
        1
 62
     0
 92
       -2
340
0
 93
        0
 40
0.045
309
GRIDFORMAT_END
 95
       32
302
GRIDFORMAT
  1
GRIDFORMAT_BEGIN
 90
        0
 91
        1
 62
     0
 92
       -2
340
0
 93
        0
 40
0.045
309
GRIDFORMAT_END
309
TABLEFORMAT_END
  1
CELLSTYLE_BEGIN
 90
        2
 91
        1
300
_HEADER
309
CELLSTYLE_END
300
CELLSTYLE
  1
TABLEFORMAT_BEGIN
 90
        5
170
     1
 91
        0
 92
        0
 62
   257
 93
        1
300
CONTENTFORMAT
  1
CONTENTFORMAT_BEGIN
 90
        0
 91
        0
 92
        4
 93
        0
300

 40
0.0
140
1.0
 94
        2
 62
     0
340
11
144
4.5
309
CONTENTFORMAT_END
171
     1
301
MARGIN
  1
CELLMARGIN_BEGIN
 40
1.5
 40
1.5
 40
1.5
 40
1.5
 40
0.18
 40
0.18
309
CELLMARGIN_END
 94
        6
 95
        1
302
GRIDFORMAT
  1
GRIDFORMAT_BEGIN
 90
        0
 91
        1
 62
     0
 92
       -2
340
0
 93
        0
 40
0.045
309
GRIDFORMAT_END
 95
        2
302
GRIDFORMAT
  1
GRIDFORMAT_BEGIN
 90
        0
 91
        1
 62
     0
 92
       -2
340
0
 93
        0
 40
0.045
309
GRIDFORMAT_END
 95
        4
302
GRIDFORMAT
  1
GRIDFORMAT_BEGIN
 90
        0
 91
        1
 62
     0
 92
       -2
340
0
 93
        0
 40
0.045
309
GRIDFORMAT_END
 95
        8
302
GRIDFORMAT
  1
GRIDFORMAT_BEGIN
 90
        0
 91
        1
 62
     0
 92
       -2
340
0
 93
        0
 40
0.045
309
GRIDFORMAT_END
 95
       16
302
GRIDFORMAT
  1
GRIDFORMAT_BEGIN
 90
        0
 91
        1
 62
     0
 92
       -2
340
0
 93
        0
 40
0.045
309
GRIDFORMAT_END
 95
       32
302
GRIDFORMAT
  1
GRIDFORMAT_BEGIN
 90
        0
 91
        1
 62
     0
 92
       -2
340
0
 93
        0
 40
0.045
309
GRIDFORMAT_END
309
TABLEFORMAT_END
  1
CELLSTYLE_BEGIN
 90
        3
 91
        2
300
_DATA
309
CELLSTYLE_END
  0
XRECORD
  5
220D9
102
{ACAD_REACTORS
330
220D8
102
}
330
220D8
100
AcDbXrecord
280
     1
102
RTVSPost2010Prop28
280
     1
102
RTVSPost2010PropOp28
 70
     1
102
RTVSPost2010Prop29
280
     1
102
RTVSPost2010PropOp29
 70
     1
102
RTVSPost2010Prop30
280
     0
102
RTVSPost2010PropOp30
 70
     1
102
RTVSPost2010Prop31
280
     0
102
RTVSPost2010PropOp31
 70
     1
102
RTVSPost2010Prop32
280
     0
102
RTVSPost2010PropOp32
 70
     1
102
RTVSPost2010Prop33
280
     0
102
RTVSPost2010PropOp33
 70
     1
102
RTVSPost2010Prop34
280
     0
102
RTVSPost2010PropOp34
 70
     1
102
RTVSPost2010Prop35
280
     0
102
RTVSPost2010PropOp35
 70
     1
102
RTVSPost2010Prop36
280
     0
102
RTVSPost2010PropOp36
 70
     1
102
RTVSPost2010Prop37
 90
       50
102
RTVSPost2010PropOp37
 70
     1
102
RTVSPost2010Prop38
140
0.0
102
RTVSPost2010PropOp38
 70
     1
102
RTVSPost2010Prop39
140
1.0
102
RTVSPost2010PropOp39
 70
     1
102
RTVSPost2010Prop40
 90
        0
102
RTVSPost2010PropOp40
 70
     1
102
RTVSPost2010Prop41ColorIndex
 90
       18
102
RTVSPost2010Prop41ColorRGB
 90
        0
102
RTVSPost2010PropOp41
 70
     1
102
RTVSPost2010Prop42
 90
       50
102
RTVSPost2010PropOp42
 70
     1
102
RTVSPost2010Prop43
 90
        3
102
RTVSPost2010PropOp43
 70
     1
102
RTVSPost2010Prop44ColorIndex
 90
        5
102
RTVSPost2010Prop44ColorRGB
 90
      255
102
RTVSPost2010PropOp44
 70
     1
102
RTVSPost2010Prop45
280
     0
102
RTVSPost2010PropOp45
 70
     1
102
RTVSPost2010Prop46
 90
       50
102
RTVSPost2010PropOp46
 70
     1
102
RTVSPost2010Prop47
 90
       50
102
RTVSPost2010PropOp47
 70
     1
102
RTVSPost2010Prop48
 90
       50
102
RTVSPost2010PropOp48
 70
     1
102
RTVSPost2010Prop49
280
     0
102
RTVSPost2010PropOp49
 70
     1
102
RTVSPost2010Prop50
 90
       50
102
RTVSPost2010PropOp50
 70
     1
102
RTVSPost2010Prop51ColorIndex
 90
      256
102
RTVSPost2010Prop51ColorRGB
 90
-16777216
102
RTVSPost2010PropOp51
 70
     0
102
RTVSPost2010Prop52
140
1.0
102
RTVSPost2010PropOp52
 70
     0
102
RTVSPost2010Prop53
 90
        2
102
RTVSPost2010PropOp53
 70
     1
102
RTVSPost2010Prop54
  1
strokes_ogs.tif
102
RTVSPost2010PropOp54
 70
     1
102
RTVSPost2010Prop55
280
     0
102
RTVSPost2010PropOp55
 70
     1
102
RTVSPost2010Prop56
140
1.0
102
RTVSPost2010PropOp56
 70
     1
102
RTVSPost2010Prop57
140
1.0
102
RTVSPost2010PropOp57
 70
     1
  0
XRECORD
  5
220DD
102
{ACAD_REACTORS
330
220DC
102
}
330
220DC
100
AcDbXrecord
280
     1
102
RTVSPost2010Prop28
280
     0
102
RTVSPost2010PropOp28
 70
     1
102
RTVSPost2010Prop29
280
     1
102
RTVSPost2010PropOp29
 70
     1
102
RTVSPost2010Prop30
280
     1
102
RTVSPost2010PropOp30
 70
     1
102
RTVSPost2010Prop31
280
     0
102
RTVSPost2010PropOp31
 70
     1
102
RTVSPost2010Prop32
280
     0
102
RTVSPost2010PropOp32
 70
     1
102
RTVSPost2010Prop33
280
     0
102
RTVSPost2010PropOp33
 70
     1
102
RTVSPost2010Prop34
280
     0
102
RTVSPost2010PropOp34
 70
     1
102
RTVSPost2010Prop35
280
     0
102
RTVSPost2010PropOp35
 70
     1
102
RTVSPost2010Prop36
280
     0
102
RTVSPost2010PropOp36
 70
     1
102
RTVSPost2010Prop37
 90
       50
102
RTVSPost2010PropOp37
 70
     1
102
RTVSPost2010Prop38
140
0.0
102
RTVSPost2010PropOp38
 70
     1
102
RTVSPost2010Prop39
140
1.0
102
RTVSPost2010PropOp39
 70
     1
102
RTVSPost2010Prop40
 90
        0
102
RTVSPost2010PropOp40
 70
     1
102
RTVSPost2010Prop41ColorIndex
 90
       18
102
RTVSPost2010Prop41ColorRGB
 90
        0
102
RTVSPost2010PropOp41
 70
     1
102
RTVSPost2010Prop42
 90
       50
102
RTVSPost2010PropOp42
 70
     1
102
RTVSPost2010Prop43
 90
        3
102
RTVSPost2010PropOp43
 70
     1
102
RTVSPost2010Prop44ColorIndex
 90
        5
102
RTVSPost2010Prop44ColorRGB
 90
      255
102
RTVSPost2010PropOp44
 70
     1
102
RTVSPost2010Prop45
280
     0
102
RTVSPost2010PropOp45
 70
     1
102
RTVSPost2010Prop46
 90
       50
102
RTVSPost2010PropOp46
 70
     1
102
RTVSPost2010Prop47
 90
       50
102
RTVSPost2010PropOp47
 70
     1
102
RTVSPost2010Prop48
 90
       50
102
RTVSPost2010PropOp48
 70
     1
102
RTVSPost2010Prop49
280
     0
102
RTVSPost2010PropOp49
 70
     1
102
RTVSPost2010Prop50
 90
       50
102
RTVSPost2010PropOp50
 70
     1
102
RTVSPost2010Prop51ColorIndex
 90
      256
102
RTVSPost2010Prop51ColorRGB
 90
-16777216
102
RTVSPost2010PropOp51
 70
     0
102
RTVSPost2010Prop52
140
1.0
102
RTVSPost2010PropOp52
 70
     0
102
RTVSPost2010Prop53
 90
        2
102
RTVSPost2010PropOp53
 70
     1
102
RTVSPost2010Prop54
  1
strokes_ogs.tif
102
RTVSPost2010PropOp54
 70
     1
102
RTVSPost2010Prop55
280
     0
102
RTVSPost2010PropOp55
 70
     1
102
RTVSPost2010Prop56
140
1.0
102
RTVSPost2010PropOp56
 70
     1
102
RTVSPost2010Prop57
140
1.0
102
RTVSPost2010PropOp57
 70
     1
  0
XRECORD
  5
220DB
102
{ACAD_REACTORS
330
220DA
102
}
330
220DA
100
AcDbXrecord
280
     1
102
RTVSPost2010Prop28
280
     0
102
RTVSPost2010PropOp28
 70
     1
102
RTVSPost2010Prop29
280
     1
102
RTVSPost2010PropOp29
 70
     1
102
RTVSPost2010Prop30
280
     1
102
RTVSPost2010PropOp30
 70
     1
102
RTVSPost2010Prop31
280
     0
102
RTVSPost2010PropOp31
 70
     1
102
RTVSPost2010Prop32
280
     0
102
RTVSPost2010PropOp32
 70
     1
102
RTVSPost2010Prop33
280
     0
102
RTVSPost2010PropOp33
 70
     1
102
RTVSPost2010Prop34
280
     0
102
RTVSPost2010PropOp34
 70
     1
102
RTVSPost2010Prop35
280
     0
102
RTVSPost2010PropOp35
 70
     1
102
RTVSPost2010Prop36
280
     0
102
RTVSPost2010PropOp36
 70
     1
102
RTVSPost2010Prop37
 90
       50
102
RTVSPost2010PropOp37
 70
     1
102
RTVSPost2010Prop38
140
0.0
102
RTVSPost2010PropOp38
 70
     1
102
RTVSPost2010Prop39
140
1.0
102
RTVSPost2010PropOp39
 70
     1
102
RTVSPost2010Prop40
 90
        0
102
RTVSPost2010PropOp40
 70
     1
102
RTVSPost2010Prop41ColorIndex
 90
       18
102
RTVSPost2010Prop41ColorRGB
 90
        0
102
RTVSPost2010PropOp41
 70
     1
102
RTVSPost2010Prop42
 90
       50
102
RTVSPost2010PropOp42
 70
     1
102
RTVSPost2010Prop43
 90
        3
102
RTVSPost2010PropOp43
 70
     1
102
RTVSPost2010Prop44ColorIndex
 90
        5
102
RTVSPost2010Prop44ColorRGB
 90
      255
102
RTVSPost2010PropOp44
 70
     1
102
RTVSPost2010Prop45
280
     0
102
RTVSPost2010PropOp45
 70
     1
102
RTVSPost2010Prop46
 90
       50
102
RTVSPost2010PropOp46
 70
     1
102
RTVSPost2010Prop47
 90
       50
102
RTVSPost2010PropOp47
 70
     1
102
RTVSPost2010Prop48
 90
       50
102
RTVSPost2010PropOp48
 70
     1
102
RTVSPost2010Prop49
280
     0
102
RTVSPost2010PropOp49
 70
     1
102
RTVSPost2010Prop50
 90
       50
102
RTVSPost2010PropOp50
 70
     1
102
RTVSPost2010Prop51ColorIndex
 90
      256
102
RTVSPost2010Prop51ColorRGB
 90
-16777216
102
RTVSPost2010PropOp51
 70
     0
102
RTVSPost2010Prop52
140
1.0
102
RTVSPost2010PropOp52
 70
     0
102
RTVSPost2010Prop53
 90
        2
102
RTVSPost2010PropOp53
 70
     1
102
RTVSPost2010Prop54
  1
strokes_ogs.tif
102
RTVSPost2010PropOp54
 70
     1
102
RTVSPost2010Prop55
280
     0
102
RTVSPost2010PropOp55
 70
     1
102
RTVSPost2010Prop56
140
1.0
102
RTVSPost2010PropOp56
 70
     1
102
RTVSPost2010Prop57
140
1.0
102
RTVSPost2010PropOp57
 70
     1
  0
XRECORD
  5
220D7
102
{ACAD_REACTORS
330
220D6
102
}
330
220D6
100
AcDbXrecord
280
     1
102
RTVSPost2010Prop28
280
     0
102
RTVSPost2010PropOp28
 70
     1
102
RTVSPost2010Prop29
280
     1
102
RTVSPost2010PropOp29
 70
     1
102
RTVSPost2010Prop30
280
     1
102
RTVSPost2010PropOp30
 70
     1
102
RTVSPost2010Prop31
280
     0
102
RTVSPost2010PropOp31
 70
     1
102
RTVSPost2010Prop32
280
     0
102
RTVSPost2010PropOp32
 70
     1
102
RTVSPost2010Prop33
280
     0
102
RTVSPost2010PropOp33
 70
     1
102
RTVSPost2010Prop34
280
     0
102
RTVSPost2010PropOp34
 70
     1
102
RTVSPost2010Prop35
280
     0
102
RTVSPost2010PropOp35
 70
     1
102
RTVSPost2010Prop36
280
     0
102
RTVSPost2010PropOp36
 70
     1
102
RTVSPost2010Prop37
 90
       50
102
RTVSPost2010PropOp37
 70
     1
102
RTVSPost2010Prop38
140
0.0
102
RTVSPost2010PropOp38
 70
     1
102
RTVSPost2010Prop39
140
1.0
102
RTVSPost2010PropOp39
 70
     1
102
RTVSPost2010Prop40
 90
        0
102
RTVSPost2010PropOp40
 70
     1
102
RTVSPost2010Prop41ColorIndex
 90
       18
102
RTVSPost2010Prop41ColorRGB
 90
        0
102
RTVSPost2010PropOp41
 70
     1
102
RTVSPost2010Prop42
 90
       50
102
RTVSPost2010PropOp42
 70
     1
102
RTVSPost2010Prop43
 90
        3
102
RTVSPost2010PropOp43
 70
     1
102
RTVSPost2010Prop44ColorIndex
 90
        5
102
RTVSPost2010Prop44ColorRGB
 90
      255
102
RTVSPost2010PropOp44
 70
     1
102
RTVSPost2010Prop45
280
     0
102
RTVSPost2010PropOp45
 70
     1
102
RTVSPost2010Prop46
 90
       50
102
RTVSPost2010PropOp46
 70
     1
102
RTVSPost2010Prop47
 90
       50
102
RTVSPost2010PropOp47
 70
     1
102
RTVSPost2010Prop48
 90
       50
102
RTVSPost2010PropOp48
 70
     1
102
RTVSPost2010Prop49
280
     0
102
RTVSPost2010PropOp49
 70
     1
102
RTVSPost2010Prop50
 90
       50
102
RTVSPost2010PropOp50
 70
     1
102
RTVSPost2010Prop51ColorIndex
 90
      256
102
RTVSPost2010Prop51ColorRGB
 90
-16777216
102
RTVSPost2010PropOp51
 70
     0
102
RTVSPost2010Prop52
140
1.0
102
RTVSPost2010PropOp52
 70
     0
102
RTVSPost2010Prop53
 90
        2
102
RTVSPost2010PropOp53
 70
     1
102
RTVSPost2010Prop54
  1
strokes_ogs.tif
102
RTVSPost2010PropOp54
 70
     1
102
RTVSPost2010Prop55
280
     0
102
RTVSPost2010PropOp55
 70
     1
102
RTVSPost2010Prop56
140
1.0
102
RTVSPost2010PropOp56
 70
     1
102
RTVSPost2010Prop57
140
1.0
102
RTVSPost2010PropOp57
 70
     1
  0
XRECORD
  5
220E5
102
{ACAD_REACTORS
330
220E4
102
}
330
220E4
100
AcDbXrecord
280
     1
102
RTVSPost2010Prop28
280
     0
102
RTVSPost2010PropOp28
 70
     1
102
RTVSPost2010Prop29
280
     1
102
RTVSPost2010PropOp29
 70
     1
102
RTVSPost2010Prop30
280
     1
102
RTVSPost2010PropOp30
 70
     1
102
RTVSPost2010Prop31
280
     0
102
RTVSPost2010PropOp31
 70
     1
102
RTVSPost2010Prop32
280
     0
102
RTVSPost2010PropOp32
 70
     1
102
RTVSPost2010Prop33
280
     0
102
RTVSPost2010PropOp33
 70
     1
102
RTVSPost2010Prop34
280
     0
102
RTVSPost2010PropOp34
 70
     1
102
RTVSPost2010Prop35
280
     0
102
RTVSPost2010PropOp35
 70
     1
102
RTVSPost2010Prop36
280
     0
102
RTVSPost2010PropOp36
 70
     1
102
RTVSPost2010Prop37
 90
       50
102
RTVSPost2010PropOp37
 70
     1
102
RTVSPost2010Prop38
140
0.0
102
RTVSPost2010PropOp38
 70
     1
102
RTVSPost2010Prop39
140
1.0
102
RTVSPost2010PropOp39
 70
     1
102
RTVSPost2010Prop40
 90
        0
102
RTVSPost2010PropOp40
 70
     1
102
RTVSPost2010Prop41ColorIndex
 90
       18
102
RTVSPost2010Prop41ColorRGB
 90
        0
102
RTVSPost2010PropOp41
 70
     1
102
RTVSPost2010Prop42
 90
       50
102
RTVSPost2010PropOp42
 70
     1
102
RTVSPost2010Prop43
 90
        3
102
RTVSPost2010PropOp43
 70
     1
102
RTVSPost2010Prop44ColorIndex
 90
        5
102
RTVSPost2010Prop44ColorRGB
 90
      255
102
RTVSPost2010PropOp44
 70
     1
102
RTVSPost2010Prop45
280
     0
102
RTVSPost2010PropOp45
 70
     1
102
RTVSPost2010Prop46
 90
       50
102
RTVSPost2010PropOp46
 70
     1
102
RTVSPost2010Prop47
 90
       50
102
RTVSPost2010PropOp47
 70
     1
102
RTVSPost2010Prop48
 90
       50
102
RTVSPost2010PropOp48
 70
     1
102
RTVSPost2010Prop49
280
     0
102
RTVSPost2010PropOp49
 70
     1
102
RTVSPost2010Prop50
 90
       50
102
RTVSPost2010PropOp50
 70
     1
102
RTVSPost2010Prop51ColorIndex
 90
      256
102
RTVSPost2010Prop51ColorRGB
 90
-16777216
102
RTVSPost2010PropOp51
 70
     0
102
RTVSPost2010Prop52
140
1.0
102
RTVSPost2010PropOp52
 70
     0
102
RTVSPost2010Prop53
 90
        2
102
RTVSPost2010PropOp53
 70
     1
102
RTVSPost2010Prop54
  1
strokes_ogs.tif
102
RTVSPost2010PropOp54
 70
     1
102
RTVSPost2010Prop55
280
     0
102
RTVSPost2010PropOp55
 70
     1
102
RTVSPost2010Prop56
140
1.0
102
RTVSPost2010PropOp56
 70
     1
102
RTVSPost2010Prop57
140
1.0
102
RTVSPost2010PropOp57
 70
     1
  0
XRECORD
  5
220ED
102
{ACAD_REACTORS
330
220EC
102
}
330
220EC
100
AcDbXrecord
280
     1
102
RTVSPost2010Prop28
280
     0
102
RTVSPost2010PropOp28
 70
     1
102
RTVSPost2010Prop29
280
     1
102
RTVSPost2010PropOp29
 70
     1
102
RTVSPost2010Prop30
280
     1
102
RTVSPost2010PropOp30
 70
     1
102
RTVSPost2010Prop31
280
     0
102
RTVSPost2010PropOp31
 70
     1
102
RTVSPost2010Prop32
280
     0
102
RTVSPost2010PropOp32
 70
     1
102
RTVSPost2010Prop33
280
     0
102
RTVSPost2010PropOp33
 70
     1
102
RTVSPost2010Prop34
280
     0
102
RTVSPost2010PropOp34
 70
     1
102
RTVSPost2010Prop35
280
     0
102
RTVSPost2010PropOp35
 70
     1
102
RTVSPost2010Prop36
280
     0
102
RTVSPost2010PropOp36
 70
     1
102
RTVSPost2010Prop37
 90
       50
102
RTVSPost2010PropOp37
 70
     1
102
RTVSPost2010Prop38
140
0.0
102
RTVSPost2010PropOp38
 70
     1
102
RTVSPost2010Prop39
140
1.0
102
RTVSPost2010PropOp39
 70
     1
102
RTVSPost2010Prop40
 90
        0
102
RTVSPost2010PropOp40
 70
     1
102
RTVSPost2010Prop41ColorIndex
 90
       18
102
RTVSPost2010Prop41ColorRGB
 90
        0
102
RTVSPost2010PropOp41
 70
     1
102
RTVSPost2010Prop42
 90
       50
102
RTVSPost2010PropOp42
 70
     1
102
RTVSPost2010Prop43
 90
        3
102
RTVSPost2010PropOp43
 70
     1
102
RTVSPost2010Prop44ColorIndex
 90
        5
102
RTVSPost2010Prop44ColorRGB
 90
      255
102
RTVSPost2010PropOp44
 70
     1
102
RTVSPost2010Prop45
280
     0
102
RTVSPost2010PropOp45
 70
     1
102
RTVSPost2010Prop46
 90
       50
102
RTVSPost2010PropOp46
 70
     1
102
RTVSPost2010Prop47
 90
       50
102
RTVSPost2010PropOp47
 70
     1
102
RTVSPost2010Prop48
 90
       50
102
RTVSPost2010PropOp48
 70
     1
102
RTVSPost2010Prop49
280
     0
102
RTVSPost2010PropOp49
 70
     1
102
RTVSPost2010Prop50
 90
       50
102
RTVSPost2010PropOp50
 70
     1
102
RTVSPost2010Prop51ColorIndex
 90
      256
102
RTVSPost2010Prop51ColorRGB
 90
-16777216
102
RTVSPost2010PropOp51
 70
     0
102
RTVSPost2010Prop52
140
1.0
102
RTVSPost2010PropOp52
 70
     0
102
RTVSPost2010Prop53
 90
        2
102
RTVSPost2010PropOp53
 70
     1
102
RTVSPost2010Prop54
  1
strokes_ogs.tif
102
RTVSPost2010PropOp54
 70
     1
102
RTVSPost2010Prop55
280
     0
102
RTVSPost2010PropOp55
 70
     1
102
RTVSPost2010Prop56
140
1.0
102
RTVSPost2010PropOp56
 70
     1
102
RTVSPost2010Prop57
140
1.0
102
RTVSPost2010PropOp57
 70
     1
  0
XRECORD
  5
220DF
102
{ACAD_REACTORS
330
220DE
102
}
330
220DE
100
AcDbXrecord
280
     1
102
RTVSPost2010Prop28
280
     0
102
RTVSPost2010PropOp28
 70
     1
102
RTVSPost2010Prop29
280
     1
102
RTVSPost2010PropOp29
 70
     1
102
RTVSPost2010Prop30
280
     1
102
RTVSPost2010PropOp30
 70
     1
102
RTVSPost2010Prop31
280
     0
102
RTVSPost2010PropOp31
 70
     1
102
RTVSPost2010Prop32
280
     0
102
RTVSPost2010PropOp32
 70
     1
102
RTVSPost2010Prop33
280
     0
102
RTVSPost2010PropOp33
 70
     1
102
RTVSPost2010Prop34
280
     0
102
RTVSPost2010PropOp34
 70
     1
102
RTVSPost2010Prop35
280
     0
102
RTVSPost2010PropOp35
 70
     1
102
RTVSPost2010Prop36
280
     0
102
RTVSPost2010PropOp36
 70
     1
102
RTVSPost2010Prop37
 90
       50
102
RTVSPost2010PropOp37
 70
     1
102
RTVSPost2010Prop38
140
0.0
102
RTVSPost2010PropOp38
 70
     1
102
RTVSPost2010Prop39
140
1.0
102
RTVSPost2010PropOp39
 70
     1
102
RTVSPost2010Prop40
 90
        0
102
RTVSPost2010PropOp40
 70
     1
102
RTVSPost2010Prop41ColorIndex
 90
       18
102
RTVSPost2010Prop41ColorRGB
 90
        0
102
RTVSPost2010PropOp41
 70
     1
102
RTVSPost2010Prop42
 90
       50
102
RTVSPost2010PropOp42
 70
     1
102
RTVSPost2010Prop43
 90
        3
102
RTVSPost2010PropOp43
 70
     1
102
RTVSPost2010Prop44ColorIndex
 90
        5
102
RTVSPost2010Prop44ColorRGB
 90
      255
102
RTVSPost2010PropOp44
 70
     1
102
RTVSPost2010Prop45
280
     0
102
RTVSPost2010PropOp45
 70
     1
102
RTVSPost2010Prop46
 90
       50
102
RTVSPost2010PropOp46
 70
     1
102
RTVSPost2010Prop47
 90
       50
102
RTVSPost2010PropOp47
 70
     1
102
RTVSPost2010Prop48
 90
       50
102
RTVSPost2010PropOp48
 70
     1
102
RTVSPost2010Prop49
280
     0
102
RTVSPost2010PropOp49
 70
     1
102
RTVSPost2010Prop50
 90
       50
102
RTVSPost2010PropOp50
 70
     1
102
RTVSPost2010Prop51ColorIndex
 90
      256
102
RTVSPost2010Prop51ColorRGB
 90
-16777216
102
RTVSPost2010PropOp51
 70
     0
102
RTVSPost2010Prop52
140
1.0
102
RTVSPost2010PropOp52
 70
     0
102
RTVSPost2010Prop53
 90
        2
102
RTVSPost2010PropOp53
 70
     1
102
RTVSPost2010Prop54
  1
strokes_ogs.tif
102
RTVSPost2010PropOp54
 70
     1
102
RTVSPost2010Prop55
280
     0
102
RTVSPost2010PropOp55
 70
     1
102
RTVSPost2010Prop56
140
1.0
102
RTVSPost2010PropOp56
 70
     1
102
RTVSPost2010Prop57
140
1.0
102
RTVSPost2010PropOp57
 70
     1
  0
XRECORD
  5
220E3
102
{ACAD_REACTORS
330
220E2
102
}
330
220E2
100
AcDbXrecord
280
     1
102
RTVSPost2010Prop28
280
     0
102
RTVSPost2010PropOp28
 70
     1
102
RTVSPost2010Prop29
280
     1
102
RTVSPost2010PropOp29
 70
     1
102
RTVSPost2010Prop30
280
     1
102
RTVSPost2010PropOp30
 70
     1
102
RTVSPost2010Prop31
280
     0
102
RTVSPost2010PropOp31
 70
     1
102
RTVSPost2010Prop32
280
     0
102
RTVSPost2010PropOp32
 70
     1
102
RTVSPost2010Prop33
280
     0
102
RTVSPost2010PropOp33
 70
     1
102
RTVSPost2010Prop34
280
     0
102
RTVSPost2010PropOp34
 70
     1
102
RTVSPost2010Prop35
280
     0
102
RTVSPost2010PropOp35
 70
     1
102
RTVSPost2010Prop36
280
     0
102
RTVSPost2010PropOp36
 70
     1
102
RTVSPost2010Prop37
 90
       50
102
RTVSPost2010PropOp37
 70
     1
102
RTVSPost2010Prop38
140
0.0
102
RTVSPost2010PropOp38
 70
     1
102
RTVSPost2010Prop39
140
1.0
102
RTVSPost2010PropOp39
 70
     1
102
RTVSPost2010Prop40
 90
        0
102
RTVSPost2010PropOp40
 70
     1
102
RTVSPost2010Prop41ColorIndex
 90
       18
102
RTVSPost2010Prop41ColorRGB
 90
        0
102
RTVSPost2010PropOp41
 70
     1
102
RTVSPost2010Prop42
 90
       50
102
RTVSPost2010PropOp42
 70
     1
102
RTVSPost2010Prop43
 90
        3
102
RTVSPost2010PropOp43
 70
     1
102
RTVSPost2010Prop44ColorIndex
 90
        5
102
RTVSPost2010Prop44ColorRGB
 90
      255
102
RTVSPost2010PropOp44
 70
     1
102
RTVSPost2010Prop45
280
     0
102
RTVSPost2010PropOp45
 70
     1
102
RTVSPost2010Prop46
 90
       50
102
RTVSPost2010PropOp46
 70
     1
102
RTVSPost2010Prop47
 90
       50
102
RTVSPost2010PropOp47
 70
     1
102
RTVSPost2010Prop48
 90
       50
102
RTVSPost2010PropOp48
 70
     1
102
RTVSPost2010Prop49
280
     0
102
RTVSPost2010PropOp49
 70
     1
102
RTVSPost2010Prop50
 90
       50
102
RTVSPost2010PropOp50
 70
     1
102
RTVSPost2010Prop51ColorIndex
 90
      256
102
RTVSPost2010Prop51ColorRGB
 90
-16777216
102
RTVSPost2010PropOp51
 70
     0
102
RTVSPost2010Prop52
140
1.0
102
RTVSPost2010PropOp52
 70
     0
102
RTVSPost2010Prop53
 90
        2
102
RTVSPost2010PropOp53
 70
     1
102
RTVSPost2010Prop54
  1
strokes_ogs.tif
102
RTVSPost2010PropOp54
 70
     1
102
RTVSPost2010Prop55
280
     0
102
RTVSPost2010PropOp55
 70
     1
102
RTVSPost2010Prop56
140
1.0
102
RTVSPost2010PropOp56
 70
     1
102
RTVSPost2010Prop57
140
1.0
102
RTVSPost2010PropOp57
 70
     1
  0
XRECORD
  5
22101
102
{ACAD_REACTORS
330
22100
102
}
330
22100
100
AcDbXrecord
280
     1
102
RTVSPost2010Prop28
280
     0
102
RTVSPost2010PropOp28
 70
     1
102
RTVSPost2010Prop29
280
     1
102
RTVSPost2010PropOp29
 70
     1
102
RTVSPost2010Prop30
280
     1
102
RTVSPost2010PropOp30
 70
     1
102
RTVSPost2010Prop31
280
     0
102
RTVSPost2010PropOp31
 70
     1
102
RTVSPost2010Prop32
280
     0
102
RTVSPost2010PropOp32
 70
     1
102
RTVSPost2010Prop33
280
     0
102
RTVSPost2010PropOp33
 70
     1
102
RTVSPost2010Prop34
280
     0
102
RTVSPost2010PropOp34
 70
     1
102
RTVSPost2010Prop35
280
     0
102
RTVSPost2010PropOp35
 70
     1
102
RTVSPost2010Prop36
280
     0
102
RTVSPost2010PropOp36
 70
     1
102
RTVSPost2010Prop37
 90
       50
102
RTVSPost2010PropOp37
 70
     0
102
RTVSPost2010Prop38
140
0.0
102
RTVSPost2010PropOp38
 70
     0
102
RTVSPost2010Prop39
140
1.0
102
RTVSPost2010PropOp39
 70
     0
102
RTVSPost2010Prop40
 90
        0
102
RTVSPost2010PropOp40
 70
     0
102
RTVSPost2010Prop41ColorIndex
 90
       18
102
RTVSPost2010Prop41ColorRGB
 90
        0
102
RTVSPost2010PropOp41
 70
     0
102
RTVSPost2010Prop42
 90
       50
102
RTVSPost2010PropOp42
 70
     0
102
RTVSPost2010Prop43
 90
        3
102
RTVSPost2010PropOp43
 70
     0
102
RTVSPost2010Prop44ColorIndex
 90
        5
102
RTVSPost2010Prop44ColorRGB
 90
      255
102
RTVSPost2010PropOp44
 70
     0
102
RTVSPost2010Prop45
280
     0
102
RTVSPost2010PropOp45
 70
     1
102
RTVSPost2010Prop46
 90
       50
102
RTVSPost2010PropOp46
 70
     0
102
RTVSPost2010Prop47
 90
       50
102
RTVSPost2010PropOp47
 70
     0
102
RTVSPost2010Prop48
 90
       50
102
RTVSPost2010PropOp48
 70
     0
102
RTVSPost2010Prop49
280
     0
102
RTVSPost2010PropOp49
 70
     1
102
RTVSPost2010Prop50
 90
       50
102
RTVSPost2010PropOp50
 70
     0
102
RTVSPost2010Prop51ColorIndex
 90
      256
102
RTVSPost2010Prop51ColorRGB
 90
-16777216
102
RTVSPost2010PropOp51
 70
     0
102
RTVSPost2010Prop52
140
1.0
102
RTVSPost2010PropOp52
 70
     0
102
RTVSPost2010Prop53
 90
        2
102
RTVSPost2010PropOp53
 70
     0
102
RTVSPost2010Prop54
  1
strokes_ogs.tif
102
RTVSPost2010PropOp54
 70
     0
102
RTVSPost2010Prop55
280
     0
102
RTVSPost2010PropOp55
 70
     1
102
RTVSPost2010Prop56
140
1.0
102
RTVSPost2010PropOp56
 70
     0
102
RTVSPost2010Prop57
140
1.0
102
RTVSPost2010PropOp57
 70
     0
  0
XRECORD
  5
220EB
102
{ACAD_REACTORS
330
220EA
102
}
330
220EA
100
AcDbXrecord
280
     1
102
RTVSPost2010Prop28
280
     0
102
RTVSPost2010PropOp28
 70
     1
102
RTVSPost2010Prop29
280
     1
102
RTVSPost2010PropOp29
 70
     1
102
RTVSPost2010Prop30
280
     1
102
RTVSPost2010PropOp30
 70
     1
102
RTVSPost2010Prop31
280
     0
102
RTVSPost2010PropOp31
 70
     1
102
RTVSPost2010Prop32
280
     0
102
RTVSPost2010PropOp32
 70
     1
102
RTVSPost2010Prop33
280
     0
102
RTVSPost2010PropOp33
 70
     1
102
RTVSPost2010Prop34
280
     0
102
RTVSPost2010PropOp34
 70
     1
102
RTVSPost2010Prop35
280
     0
102
RTVSPost2010PropOp35
 70
     1
102
RTVSPost2010Prop36
280
     0
102
RTVSPost2010PropOp36
 70
     1
102
RTVSPost2010Prop37
 90
       50
102
RTVSPost2010PropOp37
 70
     1
102
RTVSPost2010Prop38
140
0.0
102
RTVSPost2010PropOp38
 70
     1
102
RTVSPost2010Prop39
140
1.0
102
RTVSPost2010PropOp39
 70
     1
102
RTVSPost2010Prop40
 90
        0
102
RTVSPost2010PropOp40
 70
     1
102
RTVSPost2010Prop41ColorIndex
 90
       18
102
RTVSPost2010Prop41ColorRGB
 90
        0
102
RTVSPost2010PropOp41
 70
     1
102
RTVSPost2010Prop42
 90
       50
102
RTVSPost2010PropOp42
 70
     1
102
RTVSPost2010Prop43
 90
        3
102
RTVSPost2010PropOp43
 70
     1
102
RTVSPost2010Prop44ColorIndex
 90
        5
102
RTVSPost2010Prop44ColorRGB
 90
      255
102
RTVSPost2010PropOp44
 70
     1
102
RTVSPost2010Prop45
280
     0
102
RTVSPost2010PropOp45
 70
     1
102
RTVSPost2010Prop46
 90
       50
102
RTVSPost2010PropOp46
 70
     1
102
RTVSPost2010Prop47
 90
       50
102
RTVSPost2010PropOp47
 70
     1
102
RTVSPost2010Prop48
 90
       50
102
RTVSPost2010PropOp48
 70
     1
102
RTVSPost2010Prop49
280
     0
102
RTVSPost2010PropOp49
 70
     1
102
RTVSPost2010Prop50
 90
       50
102
RTVSPost2010PropOp50
 70
     1
102
RTVSPost2010Prop51ColorIndex
 90
      256
102
RTVSPost2010Prop51ColorRGB
 90
-16777216
102
RTVSPost2010PropOp51
 70
     0
102
RTVSPost2010Prop52
140
1.0
102
RTVSPost2010PropOp52
 70
     0
102
RTVSPost2010Prop53
 90
        2
102
RTVSPost2010PropOp53
 70
     1
102
RTVSPost2010Prop54
  1
strokes_ogs.tif
102
RTVSPost2010PropOp54
 70
     1
102
RTVSPost2010Prop55
280
     0
102
RTVSPost2010PropOp55
 70
     1
102
RTVSPost2010Prop56
140
1.0
102
RTVSPost2010PropOp56
 70
     1
102
RTVSPost2010Prop57
140
1.0
102
RTVSPost2010PropOp57
 70
     1
  0
XRECORD
  5
220CF
102
{ACAD_REACTORS
330
220CE
102
}
330
220CE
100
AcDbXrecord
280
     1
102
RTVSPost2010Prop28
280
     0
102
RTVSPost2010PropOp28
 70
     1
102
RTVSPost2010Prop29
280
     1
102
RTVSPost2010PropOp29
 70
     1
102
RTVSPost2010Prop30
280
     1
102
RTVSPost2010PropOp30
 70
     1
102
RTVSPost2010Prop31
280
     0
102
RTVSPost2010PropOp31
 70
     1
102
RTVSPost2010Prop32
280
     0
102
RTVSPost2010PropOp32
 70
     1
102
RTVSPost2010Prop33
280
     0
102
RTVSPost2010PropOp33
 70
     1
102
RTVSPost2010Prop34
280
     0
102
RTVSPost2010PropOp34
 70
     1
102
RTVSPost2010Prop35
280
     0
102
RTVSPost2010PropOp35
 70
     1
102
RTVSPost2010Prop36
280
     0
102
RTVSPost2010PropOp36
 70
     1
102
RTVSPost2010Prop37
 90
       50
102
RTVSPost2010PropOp37
 70
     1
102
RTVSPost2010Prop38
140
0.0
102
RTVSPost2010PropOp38
 70
     1
102
RTVSPost2010Prop39
140
1.0
102
RTVSPost2010PropOp39
 70
     1
102
RTVSPost2010Prop40
 90
        0
102
RTVSPost2010PropOp40
 70
     1
102
RTVSPost2010Prop41ColorIndex
 90
       18
102
RTVSPost2010Prop41ColorRGB
 90
        0
102
RTVSPost2010PropOp41
 70
     1
102
RTVSPost2010Prop42
 90
       50
102
RTVSPost2010PropOp42
 70
     1
102
RTVSPost2010Prop43
 90
        3
102
RTVSPost2010PropOp43
 70
     1
102
RTVSPost2010Prop44ColorIndex
 90
        5
102
RTVSPost2010Prop44ColorRGB
 90
      255
102
RTVSPost2010PropOp44
 70
     1
102
RTVSPost2010Prop45
280
     0
102
RTVSPost2010PropOp45
 70
     1
102
RTVSPost2010Prop46
 90
       50
102
RTVSPost2010PropOp46
 70
     1
102
RTVSPost2010Prop47
 90
       50
102
RTVSPost2010PropOp47
 70
     1
102
RTVSPost2010Prop48
 90
       50
102
RTVSPost2010PropOp48
 70
     1
102
RTVSPost2010Prop49
280
     0
102
RTVSPost2010PropOp49
 70
     1
102
RTVSPost2010Prop50
 90
       50
102
RTVSPost2010PropOp50
 70
     1
102
RTVSPost2010Prop51ColorIndex
 90
      256
102
RTVSPost2010Prop51ColorRGB
 90
-16777216
102
RTVSPost2010PropOp51
 70
     0
102
RTVSPost2010Prop52
140
1.0
102
RTVSPost2010PropOp52
 70
     0
102
RTVSPost2010Prop53
 90
        2
102
RTVSPost2010PropOp53
 70
     1
102
RTVSPost2010Prop54
  1
strokes_ogs.tif
102
RTVSPost2010PropOp54
 70
     1
102
RTVSPost2010Prop55
280
     0
102
RTVSPost2010PropOp55
 70
     1
102
RTVSPost2010Prop56
140
1.0
102
RTVSPost2010PropOp56
 70
     1
102
RTVSPost2010Prop57
140
1.0
102
RTVSPost2010PropOp57
 70
     1
  0
XRECORD
  5
220D1
102
{ACAD_REACTORS
330
220D0
102
}
330
220D0
100
AcDbXrecord
280
     1
102
RTVSPost2010Prop28
280
     0
102
RTVSPost2010PropOp28
 70
     1
102
RTVSPost2010Prop29
280
     1
102
RTVSPost2010PropOp29
 70
     1
102
RTVSPost2010Prop30
280
     1
102
RTVSPost2010PropOp30
 70
     1
102
RTVSPost2010Prop31
280
     0
102
RTVSPost2010PropOp31
 70
     1
102
RTVSPost2010Prop32
280
     0
102
RTVSPost2010PropOp32
 70
     1
102
RTVSPost2010Prop33
280
     0
102
RTVSPost2010PropOp33
 70
     1
102
RTVSPost2010Prop34
280
     0
102
RTVSPost2010PropOp34
 70
     1
102
RTVSPost2010Prop35
280
     0
102
RTVSPost2010PropOp35
 70
     1
102
RTVSPost2010Prop36
280
     0
102
RTVSPost2010PropOp36
 70
     1
102
RTVSPost2010Prop37
 90
       50
102
RTVSPost2010PropOp37
 70
     1
102
RTVSPost2010Prop38
140
0.0
102
RTVSPost2010PropOp38
 70
     1
102
RTVSPost2010Prop39
140
1.0
102
RTVSPost2010PropOp39
 70
     1
102
RTVSPost2010Prop40
 90
        0
102
RTVSPost2010PropOp40
 70
     1
102
RTVSPost2010Prop41ColorIndex
 90
       18
102
RTVSPost2010Prop41ColorRGB
 90
        0
102
RTVSPost2010PropOp41
 70
     1
102
RTVSPost2010Prop42
 90
       50
102
RTVSPost2010PropOp42
 70
     1
102
RTVSPost2010Prop43
 90
        3
102
RTVSPost2010PropOp43
 70
     1
102
RTVSPost2010Prop44ColorIndex
 90
        5
102
RTVSPost2010Prop44ColorRGB
 90
      255
102
RTVSPost2010PropOp44
 70
     1
102
RTVSPost2010Prop45
280
     0
102
RTVSPost2010PropOp45
 70
     1
102
RTVSPost2010Prop46
 90
       50
102
RTVSPost2010PropOp46
 70
     1
102
RTVSPost2010Prop47
 90
       50
102
RTVSPost2010PropOp47
 70
     1
102
RTVSPost2010Prop48
 90
       50
102
RTVSPost2010PropOp48
 70
     1
102
RTVSPost2010Prop49
280
     0
102
RTVSPost2010PropOp49
 70
     1
102
RTVSPost2010Prop50
 90
       50
102
RTVSPost2010PropOp50
 70
     1
102
RTVSPost2010Prop51ColorIndex
 90
      256
102
RTVSPost2010Prop51ColorRGB
 90
-16777216
102
RTVSPost2010PropOp51
 70
     0
102
RTVSPost2010Prop52
140
1.0
102
RTVSPost2010PropOp52
 70
     0
102
RTVSPost2010Prop53
 90
        2
102
RTVSPost2010PropOp53
 70
     1
102
RTVSPost2010Prop54
  1
strokes_ogs.tif
102
RTVSPost2010PropOp54
 70
     1
102
RTVSPost2010Prop55
280
     0
102
RTVSPost2010PropOp55
 70
     1
102
RTVSPost2010Prop56
140
1.0
102
RTVSPost2010PropOp56
 70
     1
102
RTVSPost2010Prop57
140
1.0
102
RTVSPost2010PropOp57
 70
     1
  0
XRECORD
  5
220D3
102
{ACAD_REACTORS
330
220D2
102
}
330
220D2
100
AcDbXrecord
280
     1
102
RTVSPost2010Prop28
280
     0
102
RTVSPost2010PropOp28
 70
     1
102
RTVSPost2010Prop29
280
     1
102
RTVSPost2010PropOp29
 70
     1
102
RTVSPost2010Prop30
280
     1
102
RTVSPost2010PropOp30
 70
     1
102
RTVSPost2010Prop31
280
     0
102
RTVSPost2010PropOp31
 70
     1
102
RTVSPost2010Prop32
280
     0
102
RTVSPost2010PropOp32
 70
     1
102
RTVSPost2010Prop33
280
     0
102
RTVSPost2010PropOp33
 70
     1
102
RTVSPost2010Prop34
280
     0
102
RTVSPost2010PropOp34
 70
     1
102
RTVSPost2010Prop35
280
     0
102
RTVSPost2010PropOp35
 70
     1
102
RTVSPost2010Prop36
280
     0
102
RTVSPost2010PropOp36
 70
     1
102
RTVSPost2010Prop37
 90
       50
102
RTVSPost2010PropOp37
 70
     1
102
RTVSPost2010Prop38
140
0.0
102
RTVSPost2010PropOp38
 70
     1
102
RTVSPost2010Prop39
140
1.0
102
RTVSPost2010PropOp39
 70
     1
102
RTVSPost2010Prop40
 90
        0
102
RTVSPost2010PropOp40
 70
     1
102
RTVSPost2010Prop41ColorIndex
 90
       18
102
RTVSPost2010Prop41ColorRGB
 90
        0
102
RTVSPost2010PropOp41
 70
     1
102
RTVSPost2010Prop42
 90
       50
102
RTVSPost2010PropOp42
 70
     1
102
RTVSPost2010Prop43
 90
        3
102
RTVSPost2010PropOp43
 70
     1
102
RTVSPost2010Prop44ColorIndex
 90
        5
102
RTVSPost2010Prop44ColorRGB
 90
      255
102
RTVSPost2010PropOp44
 70
     1
102
RTVSPost2010Prop45
280
     0
102
RTVSPost2010PropOp45
 70
     1
102
RTVSPost2010Prop46
 90
       50
102
RTVSPost2010PropOp46
 70
     1
102
RTVSPost2010Prop47
 90
       50
102
RTVSPost2010PropOp47
 70
     1
102
RTVSPost2010Prop48
 90
       50
102
RTVSPost2010PropOp48
 70
     1
102
RTVSPost2010Prop49
280
     0
102
RTVSPost2010PropOp49
 70
     1
102
RTVSPost2010Prop50
 90
       50
102
RTVSPost2010PropOp50
 70
     1
102
RTVSPost2010Prop51ColorIndex
 90
      256
102
RTVSPost2010Prop51ColorRGB
 90
-16777216
102
RTVSPost2010PropOp51
 70
     0
102
RTVSPost2010Prop52
140
1.0
102
RTVSPost2010PropOp52
 70
     0
102
RTVSPost2010Prop53
 90
        2
102
RTVSPost2010PropOp53
 70
     1
102
RTVSPost2010Prop54
  1
strokes_ogs.tif
102
RTVSPost2010PropOp54
 70
     1
102
RTVSPost2010Prop55
280
     0
102
RTVSPost2010PropOp55
 70
     1
102
RTVSPost2010Prop56
140
1.0
102
RTVSPost2010PropOp56
 70
     1
102
RTVSPost2010Prop57
140
1.0
102
RTVSPost2010PropOp57
 70
     1
  0
XRECORD
  5
220D5
102
{ACAD_REACTORS
330
220D4
102
}
330
220D4
100
AcDbXrecord
280
     1
102
RTVSPost2010Prop28
280
     0
102
RTVSPost2010PropOp28
 70
     1
102
RTVSPost2010Prop29
280
     1
102
RTVSPost2010PropOp29
 70
     1
102
RTVSPost2010Prop30
280
     1
102
RTVSPost2010PropOp30
 70
     1
102
RTVSPost2010Prop31
280
     0
102
RTVSPost2010PropOp31
 70
     1
102
RTVSPost2010Prop32
280
     0
102
RTVSPost2010PropOp32
 70
     1
102
RTVSPost2010Prop33
280
     0
102
RTVSPost2010PropOp33
 70
     1
102
RTVSPost2010Prop34
280
     0
102
RTVSPost2010PropOp34
 70
     1
102
RTVSPost2010Prop35
280
     0
102
RTVSPost2010PropOp35
 70
     1
102
RTVSPost2010Prop36
280
     0
102
RTVSPost2010PropOp36
 70
     1
102
RTVSPost2010Prop37
 90
       50
102
RTVSPost2010PropOp37
 70
     1
102
RTVSPost2010Prop38
140
0.0
102
RTVSPost2010PropOp38
 70
     1
102
RTVSPost2010Prop39
140
1.0
102
RTVSPost2010PropOp39
 70
     1
102
RTVSPost2010Prop40
 90
        0
102
RTVSPost2010PropOp40
 70
     1
102
RTVSPost2010Prop41ColorIndex
 90
       18
102
RTVSPost2010Prop41ColorRGB
 90
        0
102
RTVSPost2010PropOp41
 70
     1
102
RTVSPost2010Prop42
 90
       50
102
RTVSPost2010PropOp42
 70
     1
102
RTVSPost2010Prop43
 90
        3
102
RTVSPost2010PropOp43
 70
     1
102
RTVSPost2010Prop44ColorIndex
 90
        5
102
RTVSPost2010Prop44ColorRGB
 90
      255
102
RTVSPost2010PropOp44
 70
     1
102
RTVSPost2010Prop45
280
     0
102
RTVSPost2010PropOp45
 70
     1
102
RTVSPost2010Prop46
 90
       50
102
RTVSPost2010PropOp46
 70
     1
102
RTVSPost2010Prop47
 90
       50
102
RTVSPost2010PropOp47
 70
     1
102
RTVSPost2010Prop48
 90
       50
102
RTVSPost2010PropOp48
 70
     1
102
RTVSPost2010Prop49
280
     0
102
RTVSPost2010PropOp49
 70
     1
102
RTVSPost2010Prop50
 90
       50
102
RTVSPost2010PropOp50
 70
     1
102
RTVSPost2010Prop51ColorIndex
 90
      256
102
RTVSPost2010Prop51ColorRGB
 90
-16777216
102
RTVSPost2010PropOp51
 70
     0
102
RTVSPost2010Prop52
140
1.0
102
RTVSPost2010PropOp52
 70
     0
102
RTVSPost2010Prop53
 90
        2
102
RTVSPost2010PropOp53
 70
     1
102
RTVSPost2010Prop54
  1
strokes_ogs.tif
102
RTVSPost2010PropOp54
 70
     1
102
RTVSPost2010Prop55
280
     0
102
RTVSPost2010PropOp55
 70
     1
102
RTVSPost2010Prop56
140
1.0
102
RTVSPost2010PropOp56
 70
     1
102
RTVSPost2010Prop57
140
1.0
102
RTVSPost2010PropOp57
 70
     1
  0
XRECORD
  5
220F1
102
{ACAD_REACTORS
330
220F0
102
}
330
220F0
100
AcDbXrecord
280
     1
102
RTVSPost2010Prop28
280
     0
102
RTVSPost2010PropOp28
 70
     1
102
RTVSPost2010Prop29
280
     1
102
RTVSPost2010PropOp29
 70
     1
102
RTVSPost2010Prop30
280
     1
102
RTVSPost2010PropOp30
 70
     1
102
RTVSPost2010Prop31
280
     0
102
RTVSPost2010PropOp31
 70
     1
102
RTVSPost2010Prop32
280
     0
102
RTVSPost2010PropOp32
 70
     1
102
RTVSPost2010Prop33
280
     0
102
RTVSPost2010PropOp33
 70
     1
102
RTVSPost2010Prop34
280
     0
102
RTVSPost2010PropOp34
 70
     1
102
RTVSPost2010Prop35
280
     0
102
RTVSPost2010PropOp35
 70
     1
102
RTVSPost2010Prop36
280
     0
102
RTVSPost2010PropOp36
 70
     1
102
RTVSPost2010Prop37
 90
       50
102
RTVSPost2010PropOp37
 70
     1
102
RTVSPost2010Prop38
140
0.0
102
RTVSPost2010PropOp38
 70
     1
102
RTVSPost2010Prop39
140
1.0
102
RTVSPost2010PropOp39
 70
     1
102
RTVSPost2010Prop40
 90
        0
102
RTVSPost2010PropOp40
 70
     1
102
RTVSPost2010Prop41ColorIndex
 90
       18
102
RTVSPost2010Prop41ColorRGB
 90
        0
102
RTVSPost2010PropOp41
 70
     1
102
RTVSPost2010Prop42
 90
       50
102
RTVSPost2010PropOp42
 70
     1
102
RTVSPost2010Prop43
 90
        3
102
RTVSPost2010PropOp43
 70
     1
102
RTVSPost2010Prop44ColorIndex
 90
        5
102
RTVSPost2010Prop44ColorRGB
 90
      255
102
RTVSPost2010PropOp44
 70
     1
102
RTVSPost2010Prop45
280
     0
102
RTVSPost2010PropOp45
 70
     1
102
RTVSPost2010Prop46
 90
       50
102
RTVSPost2010PropOp46
 70
     1
102
RTVSPost2010Prop47
 90
       50
102
RTVSPost2010PropOp47
 70
     1
102
RTVSPost2010Prop48
 90
       50
102
RTVSPost2010PropOp48
 70
     1
102
RTVSPost2010Prop49
280
     0
102
RTVSPost2010PropOp49
 70
     1
102
RTVSPost2010Prop50
 90
       50
102
RTVSPost2010PropOp50
 70
     1
102
RTVSPost2010Prop51ColorIndex
 90
      256
102
RTVSPost2010Prop51ColorRGB
 90
-16777216
102
RTVSPost2010PropOp51
 70
     0
102
RTVSPost2010Prop52
140
1.0
102
RTVSPost2010PropOp52
 70
     0
102
RTVSPost2010Prop53
 90
        2
102
RTVSPost2010PropOp53
 70
     1
102
RTVSPost2010Prop54
  1
strokes_ogs.tif
102
RTVSPost2010PropOp54
 70
     1
102
RTVSPost2010Prop55
280
     0
102
RTVSPost2010PropOp55
 70
     1
102
RTVSPost2010Prop56
140
1.0
102
RTVSPost2010PropOp56
 70
     1
102
RTVSPost2010Prop57
140
1.0
102
RTVSPost2010PropOp57
 70
     1
  0
XRECORD
  5
220FD
102
{ACAD_REACTORS
330
220FC
102
}
330
220FC
100
AcDbXrecord
280
     1
102
RTVSPost2010Prop28
280
     0
102
RTVSPost2010PropOp28
 70
     1
102
RTVSPost2010Prop29
280
     1
102
RTVSPost2010PropOp29
 70
     1
102
RTVSPost2010Prop30
280
     1
102
RTVSPost2010PropOp30
 70
     1
102
RTVSPost2010Prop31
280
     0
102
RTVSPost2010PropOp31
 70
     1
102
RTVSPost2010Prop32
280
     0
102
RTVSPost2010PropOp32
 70
     1
102
RTVSPost2010Prop33
280
     0
102
RTVSPost2010PropOp33
 70
     1
102
RTVSPost2010Prop34
280
     0
102
RTVSPost2010PropOp34
 70
     1
102
RTVSPost2010Prop35
280
     0
102
RTVSPost2010PropOp35
 70
     1
102
RTVSPost2010Prop36
280
     0
102
RTVSPost2010PropOp36
 70
     1
102
RTVSPost2010Prop37
 90
       50
102
RTVSPost2010PropOp37
 70
     0
102
RTVSPost2010Prop38
140
0.0
102
RTVSPost2010PropOp38
 70
     0
102
RTVSPost2010Prop39
140
1.0
102
RTVSPost2010PropOp39
 70
     0
102
RTVSPost2010Prop40
 90
        0
102
RTVSPost2010PropOp40
 70
     0
102
RTVSPost2010Prop41ColorIndex
 90
       18
102
RTVSPost2010Prop41ColorRGB
 90
        0
102
RTVSPost2010PropOp41
 70
     0
102
RTVSPost2010Prop42
 90
       50
102
RTVSPost2010PropOp42
 70
     0
102
RTVSPost2010Prop43
 90
        3
102
RTVSPost2010PropOp43
 70
     0
102
RTVSPost2010Prop44ColorIndex
 90
        5
102
RTVSPost2010Prop44ColorRGB
 90
      255
102
RTVSPost2010PropOp44
 70
     0
102
RTVSPost2010Prop45
280
     0
102
RTVSPost2010PropOp45
 70
     1
102
RTVSPost2010Prop46
 90
       50
102
RTVSPost2010PropOp46
 70
     0
102
RTVSPost2010Prop47
 90
       50
102
RTVSPost2010PropOp47
 70
     0
102
RTVSPost2010Prop48
 90
       50
102
RTVSPost2010PropOp48
 70
     0
102
RTVSPost2010Prop49
280
     0
102
RTVSPost2010PropOp49
 70
     1
102
RTVSPost2010Prop50
 90
       50
102
RTVSPost2010PropOp50
 70
     0
102
RTVSPost2010Prop51ColorIndex
 90
      256
102
RTVSPost2010Prop51ColorRGB
 90
-16777216
102
RTVSPost2010PropOp51
 70
     0
102
RTVSPost2010Prop52
140
1.0
102
RTVSPost2010PropOp52
 70
     0
102
RTVSPost2010Prop53
 90
        2
102
RTVSPost2010PropOp53
 70
     0
102
RTVSPost2010Prop54
  1
strokes_ogs.tif
102
RTVSPost2010PropOp54
 70
     0
102
RTVSPost2010Prop55
280
     0
102
RTVSPost2010PropOp55
 70
     1
102
RTVSPost2010Prop56
140
1.0
102
RTVSPost2010PropOp56
 70
     0
102
RTVSPost2010Prop57
140
1.0
102
RTVSPost2010PropOp57
 70
     0
  0
XRECORD
  5
220E9
102
{ACAD_REACTORS
330
220E8
102
}
330
220E8
100
AcDbXrecord
280
     1
102
RTVSPost2010Prop28
280
     0
102
RTVSPost2010PropOp28
 70
     1
102
RTVSPost2010Prop29
280
     1
102
RTVSPost2010PropOp29
 70
     1
102
RTVSPost2010Prop30
280
     1
102
RTVSPost2010PropOp30
 70
     1
102
RTVSPost2010Prop31
280
     0
102
RTVSPost2010PropOp31
 70
     1
102
RTVSPost2010Prop32
280
     0
102
RTVSPost2010PropOp32
 70
     1
102
RTVSPost2010Prop33
280
     0
102
RTVSPost2010PropOp33
 70
     1
102
RTVSPost2010Prop34
280
     0
102
RTVSPost2010PropOp34
 70
     1
102
RTVSPost2010Prop35
280
     0
102
RTVSPost2010PropOp35
 70
     1
102
RTVSPost2010Prop36
280
     0
102
RTVSPost2010PropOp36
 70
     1
102
RTVSPost2010Prop37
 90
       50
102
RTVSPost2010PropOp37
 70
     1
102
RTVSPost2010Prop38
140
0.0
102
RTVSPost2010PropOp38
 70
     1
102
RTVSPost2010Prop39
140
1.0
102
RTVSPost2010PropOp39
 70
     1
102
RTVSPost2010Prop40
 90
        0
102
RTVSPost2010PropOp40
 70
     1
102
RTVSPost2010Prop41ColorIndex
 90
       18
102
RTVSPost2010Prop41ColorRGB
 90
        0
102
RTVSPost2010PropOp41
 70
     1
102
RTVSPost2010Prop42
 90
       50
102
RTVSPost2010PropOp42
 70
     1
102
RTVSPost2010Prop43
 90
        3
102
RTVSPost2010PropOp43
 70
     1
102
RTVSPost2010Prop44ColorIndex
 90
        5
102
RTVSPost2010Prop44ColorRGB
 90
      255
102
RTVSPost2010PropOp44
 70
     1
102
RTVSPost2010Prop45
280
     0
102
RTVSPost2010PropOp45
 70
     1
102
RTVSPost2010Prop46
 90
       50
102
RTVSPost2010PropOp46
 70
     1
102
RTVSPost2010Prop47
 90
       50
102
RTVSPost2010PropOp47
 70
     1
102
RTVSPost2010Prop48
 90
       50
102
RTVSPost2010PropOp48
 70
     1
102
RTVSPost2010Prop49
280
     0
102
RTVSPost2010PropOp49
 70
     1
102
RTVSPost2010Prop50
 90
       50
102
RTVSPost2010PropOp50
 70
     1
102
RTVSPost2010Prop51ColorIndex
 90
      256
102
RTVSPost2010Prop51ColorRGB
 90
-16777216
102
RTVSPost2010PropOp51
 70
     0
102
RTVSPost2010Prop52
140
1.0
102
RTVSPost2010PropOp52
 70
     0
102
RTVSPost2010Prop53
 90
        2
102
RTVSPost2010PropOp53
 70
     1
102
RTVSPost2010Prop54
  1
strokes_ogs.tif
102
RTVSPost2010PropOp54
 70
     1
102
RTVSPost2010Prop55
280
     0
102
RTVSPost2010PropOp55
 70
     1
102
RTVSPost2010Prop56
140
1.0
102
RTVSPost2010PropOp56
 70
     1
102
RTVSPost2010Prop57
140
1.0
102
RTVSPost2010PropOp57
 70
     1
  0
XRECORD
  5
220FF
102
{ACAD_REACTORS
330
220FE
102
}
330
220FE
100
AcDbXrecord
280
     1
102
RTVSPost2010Prop28
280
     0
102
RTVSPost2010PropOp28
 70
     1
102
RTVSPost2010Prop29
280
     1
102
RTVSPost2010PropOp29
 70
     1
102
RTVSPost2010Prop30
280
     1
102
RTVSPost2010PropOp30
 70
     1
102
RTVSPost2010Prop31
280
     0
102
RTVSPost2010PropOp31
 70
     1
102
RTVSPost2010Prop32
280
     0
102
RTVSPost2010PropOp32
 70
     1
102
RTVSPost2010Prop33
280
     0
102
RTVSPost2010PropOp33
 70
     1
102
RTVSPost2010Prop34
280
     0
102
RTVSPost2010PropOp34
 70
     1
102
RTVSPost2010Prop35
280
     0
102
RTVSPost2010PropOp35
 70
     1
102
RTVSPost2010Prop36
280
     0
102
RTVSPost2010PropOp36
 70
     1
102
RTVSPost2010Prop37
 90
       50
102
RTVSPost2010PropOp37
 70
     0
102
RTVSPost2010Prop38
140
0.0
102
RTVSPost2010PropOp38
 70
     0
102
RTVSPost2010Prop39
140
1.0
102
RTVSPost2010PropOp39
 70
     0
102
RTVSPost2010Prop40
 90
        0
102
RTVSPost2010PropOp40
 70
     0
102
RTVSPost2010Prop41ColorIndex
 90
       18
102
RTVSPost2010Prop41ColorRGB
 90
        0
102
RTVSPost2010PropOp41
 70
     0
102
RTVSPost2010Prop42
 90
       50
102
RTVSPost2010PropOp42
 70
     0
102
RTVSPost2010Prop43
 90
        3
102
RTVSPost2010PropOp43
 70
     0
102
RTVSPost2010Prop44ColorIndex
 90
        5
102
RTVSPost2010Prop44ColorRGB
 90
      255
102
RTVSPost2010PropOp44
 70
     0
102
RTVSPost2010Prop45
280
     0
102
RTVSPost2010PropOp45
 70
     1
102
RTVSPost2010Prop46
 90
       50
102
RTVSPost2010PropOp46
 70
     0
102
RTVSPost2010Prop47
 90
       50
102
RTVSPost2010PropOp47
 70
     0
102
RTVSPost2010Prop48
 90
       50
102
RTVSPost2010PropOp48
 70
     0
102
RTVSPost2010Prop49
280
     0
102
RTVSPost2010PropOp49
 70
     1
102
RTVSPost2010Prop50
 90
       50
102
RTVSPost2010PropOp50
 70
     0
102
RTVSPost2010Prop51ColorIndex
 90
      256
102
RTVSPost2010Prop51ColorRGB
 90
-16777216
102
RTVSPost2010PropOp51
 70
     0
102
RTVSPost2010Prop52
140
1.0
102
RTVSPost2010PropOp52
 70
     0
102
RTVSPost2010Prop53
 90
        2
102
RTVSPost2010PropOp53
 70
     0
102
RTVSPost2010Prop54
  1
strokes_ogs.tif
102
RTVSPost2010PropOp54
 70
     0
102
RTVSPost2010Prop55
280
     0
102
RTVSPost2010PropOp55
 70
     1
102
RTVSPost2010Prop56
140
1.0
102
RTVSPost2010PropOp56
 70
     0
102
RTVSPost2010Prop57
140
1.0
102
RTVSPost2010PropOp57
 70
     0
  0
XRECORD
  5
220E1
102
{ACAD_REACTORS
330
220E0
102
}
330
220E0
100
AcDbXrecord
280
     1
102
RTVSPost2010Prop28
280
     0
102
RTVSPost2010PropOp28
 70
     1
102
RTVSPost2010Prop29
280
     1
102
RTVSPost2010PropOp29
 70
     1
102
RTVSPost2010Prop30
280
     1
102
RTVSPost2010PropOp30
 70
     1
102
RTVSPost2010Prop31
280
     0
102
RTVSPost2010PropOp31
 70
     1
102
RTVSPost2010Prop32
280
     0
102
RTVSPost2010PropOp32
 70
     1
102
RTVSPost2010Prop33
280
     0
102
RTVSPost2010PropOp33
 70
     1
102
RTVSPost2010Prop34
280
     0
102
RTVSPost2010PropOp34
 70
     1
102
RTVSPost2010Prop35
280
     0
102
RTVSPost2010PropOp35
 70
     1
102
RTVSPost2010Prop36
280
     0
102
RTVSPost2010PropOp36
 70
     1
102
RTVSPost2010Prop37
 90
       50
102
RTVSPost2010PropOp37
 70
     1
102
RTVSPost2010Prop38
140
0.0
102
RTVSPost2010PropOp38
 70
     1
102
RTVSPost2010Prop39
140
1.0
102
RTVSPost2010PropOp39
 70
     1
102
RTVSPost2010Prop40
 90
        0
102
RTVSPost2010PropOp40
 70
     1
102
RTVSPost2010Prop41ColorIndex
 90
       18
102
RTVSPost2010Prop41ColorRGB
 90
        0
102
RTVSPost2010PropOp41
 70
     1
102
RTVSPost2010Prop42
 90
       50
102
RTVSPost2010PropOp42
 70
     1
102
RTVSPost2010Prop43
 90
        3
102
RTVSPost2010PropOp43
 70
     1
102
RTVSPost2010Prop44ColorIndex
 90
        5
102
RTVSPost2010Prop44ColorRGB
 90
      255
102
RTVSPost2010PropOp44
 70
     1
102
RTVSPost2010Prop45
280
     0
102
RTVSPost2010PropOp45
 70
     1
102
RTVSPost2010Prop46
 90
       50
102
RTVSPost2010PropOp46
 70
     1
102
RTVSPost2010Prop47
 90
       50
102
RTVSPost2010PropOp47
 70
     1
102
RTVSPost2010Prop48
 90
       50
102
RTVSPost2010PropOp48
 70
     1
102
RTVSPost2010Prop49
280
     0
102
RTVSPost2010PropOp49
 70
     1
102
RTVSPost2010Prop50
 90
       50
102
RTVSPost2010PropOp50
 70
     1
102
RTVSPost2010Prop51ColorIndex
 90
      256
102
RTVSPost2010Prop51ColorRGB
 90
-16777216
102
RTVSPost2010PropOp51
 70
     0
102
RTVSPost2010Prop52
140
1.0
102
RTVSPost2010PropOp52
 70
     0
102
RTVSPost2010Prop53
 90
        2
102
RTVSPost2010PropOp53
 70
     1
102
RTVSPost2010Prop54
  1
strokes_ogs.tif
102
RTVSPost2010PropOp54
 70
     1
102
RTVSPost2010Prop55
280
     0
102
RTVSPost2010PropOp55
 70
     1
102
RTVSPost2010Prop56
140
1.0
102
RTVSPost2010PropOp56
 70
     1
102
RTVSPost2010Prop57
140
1.0
102
RTVSPost2010PropOp57
 70
     1
  0
XRECORD
  5
220FB
102
{ACAD_REACTORS
330
220FA
102
}
330
220FA
100
AcDbXrecord
280
     1
102
RTVSPost2010Prop28
280
     0
102
RTVSPost2010PropOp28
 70
     1
102
RTVSPost2010Prop29
280
     1
102
RTVSPost2010PropOp29
 70
     1
102
RTVSPost2010Prop30
280
     1
102
RTVSPost2010PropOp30
 70
     1
102
RTVSPost2010Prop31
280
     0
102
RTVSPost2010PropOp31
 70
     1
102
RTVSPost2010Prop32
280
     0
102
RTVSPost2010PropOp32
 70
     1
102
RTVSPost2010Prop33
280
     0
102
RTVSPost2010PropOp33
 70
     1
102
RTVSPost2010Prop34
280
     0
102
RTVSPost2010PropOp34
 70
     1
102
RTVSPost2010Prop35
280
     0
102
RTVSPost2010PropOp35
 70
     1
102
RTVSPost2010Prop36
280
     0
102
RTVSPost2010PropOp36
 70
     1
102
RTVSPost2010Prop37
 90
       50
102
RTVSPost2010PropOp37
 70
     1
102
RTVSPost2010Prop38
140
0.0
102
RTVSPost2010PropOp38
 70
     1
102
RTVSPost2010Prop39
140
1.0
102
RTVSPost2010PropOp39
 70
     1
102
RTVSPost2010Prop40
 90
        0
102
RTVSPost2010PropOp40
 70
     1
102
RTVSPost2010Prop41ColorIndex
 90
       18
102
RTVSPost2010Prop41ColorRGB
 90
        0
102
RTVSPost2010PropOp41
 70
     1
102
RTVSPost2010Prop42
 90
       50
102
RTVSPost2010PropOp42
 70
     1
102
RTVSPost2010Prop43
 90
        3
102
RTVSPost2010PropOp43
 70
     1
102
RTVSPost2010Prop44ColorIndex
 90
        5
102
RTVSPost2010Prop44ColorRGB
 90
      255
102
RTVSPost2010PropOp44
 70
     1
102
RTVSPost2010Prop45
280
     0
102
RTVSPost2010PropOp45
 70
     1
102
RTVSPost2010Prop46
 90
       50
102
RTVSPost2010PropOp46
 70
     1
102
RTVSPost2010Prop47
 90
       50
102
RTVSPost2010PropOp47
 70
     1
102
RTVSPost2010Prop48
 90
       50
102
RTVSPost2010PropOp48
 70
     1
102
RTVSPost2010Prop49
280
     0
102
RTVSPost2010PropOp49
 70
     1
102
RTVSPost2010Prop50
 90
       50
102
RTVSPost2010PropOp50
 70
     1
102
RTVSPost2010Prop51ColorIndex
 90
      256
102
RTVSPost2010Prop51ColorRGB
 90
-16777216
102
RTVSPost2010PropOp51
 70
     0
102
RTVSPost2010Prop52
140
1.0
102
RTVSPost2010PropOp52
 70
     0
102
RTVSPost2010Prop53
 90
        2
102
RTVSPost2010PropOp53
 70
     1
102
RTVSPost2010Prop54
  1
strokes_ogs.tif
102
RTVSPost2010PropOp54
 70
     1
102
RTVSPost2010Prop55
280
     0
102
RTVSPost2010PropOp55
 70
     1
102
RTVSPost2010Prop56
140
1.0
102
RTVSPost2010PropOp56
 70
     1
102
RTVSPost2010Prop57
140
1.0
102
RTVSPost2010PropOp57
 70
     1
  0
XRECORD
  5
220F9
102
{ACAD_REACTORS
330
220F8
102
}
330
220F8
100
AcDbXrecord
280
     1
102
RTVSPost2010Prop28
280
     0
102
RTVSPost2010PropOp28
 70
     1
102
RTVSPost2010Prop29
280
     1
102
RTVSPost2010PropOp29
 70
     1
102
RTVSPost2010Prop30
280
     1
102
RTVSPost2010PropOp30
 70
     1
102
RTVSPost2010Prop31
280
     0
102
RTVSPost2010PropOp31
 70
     1
102
RTVSPost2010Prop32
280
     0
102
RTVSPost2010PropOp32
 70
     1
102
RTVSPost2010Prop33
280
     0
102
RTVSPost2010PropOp33
 70
     1
102
RTVSPost2010Prop34
280
     0
102
RTVSPost2010PropOp34
 70
     1
102
RTVSPost2010Prop35
280
     0
102
RTVSPost2010PropOp35
 70
     1
102
RTVSPost2010Prop36
280
     0
102
RTVSPost2010PropOp36
 70
     1
102
RTVSPost2010Prop37
 90
       50
102
RTVSPost2010PropOp37
 70
     1
102
RTVSPost2010Prop38
140
0.0
102
RTVSPost2010PropOp38
 70
     1
102
RTVSPost2010Prop39
140
1.0
102
RTVSPost2010PropOp39
 70
     1
102
RTVSPost2010Prop40
 90
        0
102
RTVSPost2010PropOp40
 70
     1
102
RTVSPost2010Prop41ColorIndex
 90
       18
102
RTVSPost2010Prop41ColorRGB
 90
        0
102
RTVSPost2010PropOp41
 70
     1
102
RTVSPost2010Prop42
 90
       50
102
RTVSPost2010PropOp42
 70
     1
102
RTVSPost2010Prop43
 90
        3
102
RTVSPost2010PropOp43
 70
     1
102
RTVSPost2010Prop44ColorIndex
 90
        5
102
RTVSPost2010Prop44ColorRGB
 90
      255
102
RTVSPost2010PropOp44
 70
     1
102
RTVSPost2010Prop45
280
     0
102
RTVSPost2010PropOp45
 70
     1
102
RTVSPost2010Prop46
 90
       50
102
RTVSPost2010PropOp46
 70
     1
102
RTVSPost2010Prop47
 90
       50
102
RTVSPost2010PropOp47
 70
     1
102
RTVSPost2010Prop48
 90
       50
102
RTVSPost2010PropOp48
 70
     1
102
RTVSPost2010Prop49
280
     0
102
RTVSPost2010PropOp49
 70
     1
102
RTVSPost2010Prop50
 90
       50
102
RTVSPost2010PropOp50
 70
     1
102
RTVSPost2010Prop51ColorIndex
 90
      256
102
RTVSPost2010Prop51ColorRGB
 90
-16777216
102
RTVSPost2010PropOp51
 70
     0
102
RTVSPost2010Prop52
140
1.0
102
RTVSPost2010PropOp52
 70
     0
102
RTVSPost2010Prop53
 90
        2
102
RTVSPost2010PropOp53
 70
     1
102
RTVSPost2010Prop54
  1
strokes_ogs.tif
102
RTVSPost2010PropOp54
 70
     1
102
RTVSPost2010Prop55
280
     0
102
RTVSPost2010PropOp55
 70
     1
102
RTVSPost2010Prop56
140
1.0
102
RTVSPost2010PropOp56
 70
     1
102
RTVSPost2010Prop57
140
1.0
102
RTVSPost2010PropOp57
 70
     1
  0
XRECORD
  5
220F3
102
{ACAD_REACTORS
330
220F2
102
}
330
220F2
100
AcDbXrecord
280
     1
102
RTVSPost2010Prop28
280
     0
102
RTVSPost2010PropOp28
 70
     1
102
RTVSPost2010Prop29
280
     1
102
RTVSPost2010PropOp29
 70
     1
102
RTVSPost2010Prop30
280
     1
102
RTVSPost2010PropOp30
 70
     1
102
RTVSPost2010Prop31
280
     0
102
RTVSPost2010PropOp31
 70
     1
102
RTVSPost2010Prop32
280
     0
102
RTVSPost2010PropOp32
 70
     1
102
RTVSPost2010Prop33
280
     0
102
RTVSPost2010PropOp33
 70
     1
102
RTVSPost2010Prop34
280
     0
102
RTVSPost2010PropOp34
 70
     1
102
RTVSPost2010Prop35
280
     0
102
RTVSPost2010PropOp35
 70
     1
102
RTVSPost2010Prop36
280
     0
102
RTVSPost2010PropOp36
 70
     1
102
RTVSPost2010Prop37
 90
       50
102
RTVSPost2010PropOp37
 70
     1
102
RTVSPost2010Prop38
140
0.0
102
RTVSPost2010PropOp38
 70
     1
102
RTVSPost2010Prop39
140
1.0
102
RTVSPost2010PropOp39
 70
     1
102
RTVSPost2010Prop40
 90
        0
102
RTVSPost2010PropOp40
 70
     1
102
RTVSPost2010Prop41ColorIndex
 90
       18
102
RTVSPost2010Prop41ColorRGB
 90
        0
102
RTVSPost2010PropOp41
 70
     1
102
RTVSPost2010Prop42
 90
       50
102
RTVSPost2010PropOp42
 70
     1
102
RTVSPost2010Prop43
 90
        3
102
RTVSPost2010PropOp43
 70
     1
102
RTVSPost2010Prop44ColorIndex
 90
        5
102
RTVSPost2010Prop44ColorRGB
 90
      255
102
RTVSPost2010PropOp44
 70
     1
102
RTVSPost2010Prop45
280
     0
102
RTVSPost2010PropOp45
 70
     1
102
RTVSPost2010Prop46
 90
       50
102
RTVSPost2010PropOp46
 70
     1
102
RTVSPost2010Prop47
 90
       50
102
RTVSPost2010PropOp47
 70
     1
102
RTVSPost2010Prop48
 90
       50
102
RTVSPost2010PropOp48
 70
     1
102
RTVSPost2010Prop49
280
     0
102
RTVSPost2010PropOp49
 70
     1
102
RTVSPost2010Prop50
 90
       50
102
RTVSPost2010PropOp50
 70
     1
102
RTVSPost2010Prop51ColorIndex
 90
      256
102
RTVSPost2010Prop51ColorRGB
 90
-16777216
102
RTVSPost2010PropOp51
 70
     0
102
RTVSPost2010Prop52
140
1.0
102
RTVSPost2010PropOp52
 70
     0
102
RTVSPost2010Prop53
 90
        2
102
RTVSPost2010PropOp53
 70
     1
102
RTVSPost2010Prop54
  1
strokes_ogs.tif
102
RTVSPost2010PropOp54
 70
     1
102
RTVSPost2010Prop55
280
     0
102
RTVSPost2010PropOp55
 70
     1
102
RTVSPost2010Prop56
140
1.0
102
RTVSPost2010PropOp56
 70
     1
102
RTVSPost2010Prop57
140
1.0
102
RTVSPost2010PropOp57
 70
     1
  0
XRECORD
  5
220F5
102
{ACAD_REACTORS
330
220F4
102
}
330
220F4
100
AcDbXrecord
280
     1
102
RTVSPost2010Prop28
280
     0
102
RTVSPost2010PropOp28
 70
     1
102
RTVSPost2010Prop29
280
     1
102
RTVSPost2010PropOp29
 70
     1
102
RTVSPost2010Prop30
280
     1
102
RTVSPost2010PropOp30
 70
     1
102
RTVSPost2010Prop31
280
     0
102
RTVSPost2010PropOp31
 70
     1
102
RTVSPost2010Prop32
280
     0
102
RTVSPost2010PropOp32
 70
     1
102
RTVSPost2010Prop33
280
     0
102
RTVSPost2010PropOp33
 70
     1
102
RTVSPost2010Prop34
280
     0
102
RTVSPost2010PropOp34
 70
     1
102
RTVSPost2010Prop35
280
     0
102
RTVSPost2010PropOp35
 70
     1
102
RTVSPost2010Prop36
280
     0
102
RTVSPost2010PropOp36
 70
     1
102
RTVSPost2010Prop37
 90
       50
102
RTVSPost2010PropOp37
 70
     1
102
RTVSPost2010Prop38
140
0.0
102
RTVSPost2010PropOp38
 70
     1
102
RTVSPost2010Prop39
140
1.0
102
RTVSPost2010PropOp39
 70
     1
102
RTVSPost2010Prop40
 90
        0
102
RTVSPost2010PropOp40
 70
     1
102
RTVSPost2010Prop41ColorIndex
 90
       18
102
RTVSPost2010Prop41ColorRGB
 90
        0
102
RTVSPost2010PropOp41
 70
     1
102
RTVSPost2010Prop42
 90
       50
102
RTVSPost2010PropOp42
 70
     1
102
RTVSPost2010Prop43
 90
        3
102
RTVSPost2010PropOp43
 70
     1
102
RTVSPost2010Prop44ColorIndex
 90
        5
102
RTVSPost2010Prop44ColorRGB
 90
      255
102
RTVSPost2010PropOp44
 70
     1
102
RTVSPost2010Prop45
280
     0
102
RTVSPost2010PropOp45
 70
     1
102
RTVSPost2010Prop46
 90
       50
102
RTVSPost2010PropOp46
 70
     1
102
RTVSPost2010Prop47
 90
       50
102
RTVSPost2010PropOp47
 70
     1
102
RTVSPost2010Prop48
 90
       50
102
RTVSPost2010PropOp48
 70
     1
102
RTVSPost2010Prop49
280
     0
102
RTVSPost2010PropOp49
 70
     1
102
RTVSPost2010Prop50
 90
       50
102
RTVSPost2010PropOp50
 70
     1
102
RTVSPost2010Prop51ColorIndex
 90
      256
102
RTVSPost2010Prop51ColorRGB
 90
-16777216
102
RTVSPost2010PropOp51
 70
     0
102
RTVSPost2010Prop52
140
1.0
102
RTVSPost2010PropOp52
 70
     0
102
RTVSPost2010Prop53
 90
        2
102
RTVSPost2010PropOp53
 70
     1
102
RTVSPost2010Prop54
  1
strokes_ogs.tif
102
RTVSPost2010PropOp54
 70
     1
102
RTVSPost2010Prop55
280
     0
102
RTVSPost2010PropOp55
 70
     1
102
RTVSPost2010Prop56
140
1.0
102
RTVSPost2010PropOp56
 70
     1
102
RTVSPost2010Prop57
140
1.0
102
RTVSPost2010PropOp57
 70
     1
  0
XRECORD
  5
220E7
102
{ACAD_REACTORS
330
220E6
102
}
330
220E6
100
AcDbXrecord
280
     1
102
RTVSPost2010Prop28
280
     0
102
RTVSPost2010PropOp28
 70
     1
102
RTVSPost2010Prop29
280
     1
102
RTVSPost2010PropOp29
 70
     1
102
RTVSPost2010Prop30
280
     1
102
RTVSPost2010PropOp30
 70
     1
102
RTVSPost2010Prop31
280
     0
102
RTVSPost2010PropOp31
 70
     1
102
RTVSPost2010Prop32
280
     0
102
RTVSPost2010PropOp32
 70
     1
102
RTVSPost2010Prop33
280
     0
102
RTVSPost2010PropOp33
 70
     1
102
RTVSPost2010Prop34
280
     0
102
RTVSPost2010PropOp34
 70
     1
102
RTVSPost2010Prop35
280
     0
102
RTVSPost2010PropOp35
 70
     1
102
RTVSPost2010Prop36
280
     0
102
RTVSPost2010PropOp36
 70
     1
102
RTVSPost2010Prop37
 90
       50
102
RTVSPost2010PropOp37
 70
     1
102
RTVSPost2010Prop38
140
0.0
102
RTVSPost2010PropOp38
 70
     1
102
RTVSPost2010Prop39
140
1.0
102
RTVSPost2010PropOp39
 70
     1
102
RTVSPost2010Prop40
 90
        0
102
RTVSPost2010PropOp40
 70
     1
102
RTVSPost2010Prop41ColorIndex
 90
       18
102
RTVSPost2010Prop41ColorRGB
 90
        0
102
RTVSPost2010PropOp41
 70
     1
102
RTVSPost2010Prop42
 90
       50
102
RTVSPost2010PropOp42
 70
     1
102
RTVSPost2010Prop43
 90
        3
102
RTVSPost2010PropOp43
 70
     1
102
RTVSPost2010Prop44ColorIndex
 90
        5
102
RTVSPost2010Prop44ColorRGB
 90
      255
102
RTVSPost2010PropOp44
 70
     1
102
RTVSPost2010Prop45
280
     0
102
RTVSPost2010PropOp45
 70
     1
102
RTVSPost2010Prop46
 90
       50
102
RTVSPost2010PropOp46
 70
     1
102
RTVSPost2010Prop47
 90
       50
102
RTVSPost2010PropOp47
 70
     1
102
RTVSPost2010Prop48
 90
       50
102
RTVSPost2010PropOp48
 70
     1
102
RTVSPost2010Prop49
280
     0
102
RTVSPost2010PropOp49
 70
     1
102
RTVSPost2010Prop50
 90
       50
102
RTVSPost2010PropOp50
 70
     1
102
RTVSPost2010Prop51ColorIndex
 90
      256
102
RTVSPost2010Prop51ColorRGB
 90
-16777216
102
RTVSPost2010PropOp51
 70
     0
102
RTVSPost2010Prop52
140
1.0
102
RTVSPost2010PropOp52
 70
     0
102
RTVSPost2010Prop53
 90
        2
102
RTVSPost2010PropOp53
 70
     1
102
RTVSPost2010Prop54
  1
strokes_ogs.tif
102
RTVSPost2010PropOp54
 70
     1
102
RTVSPost2010Prop55
280
     0
102
RTVSPost2010PropOp55
 70
     1
102
RTVSPost2010Prop56
140
1.0
102
RTVSPost2010PropOp56
 70
     1
102
RTVSPost2010Prop57
140
1.0
102
RTVSPost2010PropOp57
 70
     1
  0
XRECORD
  5
220EF
102
{ACAD_REACTORS
330
220EE
102
}
330
220EE
100
AcDbXrecord
280
     1
102
RTVSPost2010Prop28
280
     0
102
RTVSPost2010PropOp28
 70
     1
102
RTVSPost2010Prop29
280
     1
102
RTVSPost2010PropOp29
 70
     1
102
RTVSPost2010Prop30
280
     1
102
RTVSPost2010PropOp30
 70
     1
102
RTVSPost2010Prop31
280
     0
102
RTVSPost2010PropOp31
 70
     1
102
RTVSPost2010Prop32
280
     0
102
RTVSPost2010PropOp32
 70
     1
102
RTVSPost2010Prop33
280
     0
102
RTVSPost2010PropOp33
 70
     1
102
RTVSPost2010Prop34
280
     0
102
RTVSPost2010PropOp34
 70
     1
102
RTVSPost2010Prop35
280
     0
102
RTVSPost2010PropOp35
 70
     1
102
RTVSPost2010Prop36
280
     0
102
RTVSPost2010PropOp36
 70
     1
102
RTVSPost2010Prop37
 90
       50
102
RTVSPost2010PropOp37
 70
     1
102
RTVSPost2010Prop38
140
0.0
102
RTVSPost2010PropOp38
 70
     1
102
RTVSPost2010Prop39
140
1.0
102
RTVSPost2010PropOp39
 70
     1
102
RTVSPost2010Prop40
 90
        0
102
RTVSPost2010PropOp40
 70
     1
102
RTVSPost2010Prop41ColorIndex
 90
       18
102
RTVSPost2010Prop41ColorRGB
 90
        0
102
RTVSPost2010PropOp41
 70
     1
102
RTVSPost2010Prop42
 90
       50
102
RTVSPost2010PropOp42
 70
     1
102
RTVSPost2010Prop43
 90
        3
102
RTVSPost2010PropOp43
 70
     1
102
RTVSPost2010Prop44ColorIndex
 90
        5
102
RTVSPost2010Prop44ColorRGB
 90
      255
102
RTVSPost2010PropOp44
 70
     1
102
RTVSPost2010Prop45
280
     0
102
RTVSPost2010PropOp45
 70
     1
102
RTVSPost2010Prop46
 90
       50
102
RTVSPost2010PropOp46
 70
     1
102
RTVSPost2010Prop47
 90
       50
102
RTVSPost2010PropOp47
 70
     1
102
RTVSPost2010Prop48
 90
       50
102
RTVSPost2010PropOp48
 70
     1
102
RTVSPost2010Prop49
280
     0
102
RTVSPost2010PropOp49
 70
     1
102
RTVSPost2010Prop50
 90
       50
102
RTVSPost2010PropOp50
 70
     1
102
RTVSPost2010Prop51ColorIndex
 90
      256
102
RTVSPost2010Prop51ColorRGB
 90
-16777216
102
RTVSPost2010PropOp51
 70
     0
102
RTVSPost2010Prop52
140
1.0
102
RTVSPost2010PropOp52
 70
     0
102
RTVSPost2010Prop53
 90
        2
102
RTVSPost2010PropOp53
 70
     1
102
RTVSPost2010Prop54
  1
strokes_ogs.tif
102
RTVSPost2010PropOp54
 70
     1
102
RTVSPost2010Prop55
280
     0
102
RTVSPost2010PropOp55
 70
     1
102
RTVSPost2010Prop56
140
1.0
102
RTVSPost2010PropOp56
 70
     1
102
RTVSPost2010Prop57
140
1.0
102
RTVSPost2010PropOp57
 70
     1
  0
XRECORD
  5
220F7
102
{ACAD_REACTORS
330
220F6
102
}
330
220F6
100
AcDbXrecord
280
     1
102
RTVSPost2010Prop28
280
     0
102
RTVSPost2010PropOp28
 70
     1
102
RTVSPost2010Prop29
280
     1
102
RTVSPost2010PropOp29
 70
     1
102
RTVSPost2010Prop30
280
     1
102
RTVSPost2010PropOp30
 70
     1
102
RTVSPost2010Prop31
280
     0
102
RTVSPost2010PropOp31
 70
     1
102
RTVSPost2010Prop32
280
     0
102
RTVSPost2010PropOp32
 70
     1
102
RTVSPost2010Prop33
280
     0
102
RTVSPost2010PropOp33
 70
     1
102
RTVSPost2010Prop34
280
     0
102
RTVSPost2010PropOp34
 70
     1
102
RTVSPost2010Prop35
280
     0
102
RTVSPost2010PropOp35
 70
     1
102
RTVSPost2010Prop36
280
     0
102
RTVSPost2010PropOp36
 70
     1
102
RTVSPost2010Prop37
 90
       50
102
RTVSPost2010PropOp37
 70
     1
102
RTVSPost2010Prop38
140
0.0
102
RTVSPost2010PropOp38
 70
     1
102
RTVSPost2010Prop39
140
1.0
102
RTVSPost2010PropOp39
 70
     1
102
RTVSPost2010Prop40
 90
        0
102
RTVSPost2010PropOp40
 70
     1
102
RTVSPost2010Prop41ColorIndex
 90
       18
102
RTVSPost2010Prop41ColorRGB
 90
        0
102
RTVSPost2010PropOp41
 70
     1
102
RTVSPost2010Prop42
 90
       50
102
RTVSPost2010PropOp42
 70
     1
102
RTVSPost2010Prop43
 90
        3
102
RTVSPost2010PropOp43
 70
     1
102
RTVSPost2010Prop44ColorIndex
 90
        5
102
RTVSPost2010Prop44ColorRGB
 90
      255
102
RTVSPost2010PropOp44
 70
     1
102
RTVSPost2010Prop45
280
     0
102
RTVSPost2010PropOp45
 70
     1
102
RTVSPost2010Prop46
 90
       50
102
RTVSPost2010PropOp46
 70
     1
102
RTVSPost2010Prop47
 90
       50
102
RTVSPost2010PropOp47
 70
     1
102
RTVSPost2010Prop48
 90
       50
102
RTVSPost2010PropOp48
 70
     1
102
RTVSPost2010Prop49
280
     0
102
RTVSPost2010PropOp49
 70
     1
102
RTVSPost2010Prop50
 90
       50
102
RTVSPost2010PropOp50
 70
     1
102
RTVSPost2010Prop51ColorIndex
 90
      256
102
RTVSPost2010Prop51ColorRGB
 90
-16777216
102
RTVSPost2010PropOp51
 70
     0
102
RTVSPost2010Prop52
140
1.0
102
RTVSPost2010PropOp52
 70
     0
102
RTVSPost2010Prop53
 90
        2
102
RTVSPost2010PropOp53
 70
     1
102
RTVSPost2010Prop54
  1
strokes_ogs.tif
102
RTVSPost2010PropOp54
 70
     1
102
RTVSPost2010Prop55
280
     0
102
RTVSPost2010PropOp55
 70
     1
102
RTVSPost2010Prop56
140
1.0
102
RTVSPost2010PropOp56
 70
     1
102
RTVSPost2010Prop57
140
1.0
102
RTVSPost2010PropOp57
 70
     1
  0
ENDSEC
  0
EOF
