  0
SECTION
  2
HEADER
  9
$ACADVER
  1
AC1024
  9
$ACADMAINTVER
 70
   182
  9
$DWGCODEPAGE
  3
ANSI_1252
  9
$LASTSAVEDBY
  1
kamerka
  9
$INSBASE
 10
0.0
 20
0.0
 30
0.0
  9
$EXTMIN
 10
-132.6142865312229
 20
-58.90415406233262
 30
-0.0015258207003583
  9
$EXTMAX
 10
90.86840198507468
 20
63.86277898567448
 30
0.0000000349246037
  9
$LIMMIN
 10
0.0
 20
0.0
  9
$LIMMAX
 10
420.0
 20
297.0
  9
$ORTHOMODE
 70
     0
  9
$REGENMODE
 70
     1
  9
$FILLMODE
 70
     1
  9
$QTEXTMODE
 70
     0
  9
$MIRRTEXT
 70
     0
  9
$LTSCALE
 40
23.1
  9
$ATTMODE
 70
     1
  9
$TEXTSIZE
 40
3.5
  9
$TRACEWID
 40
0.05
  9
$TEXTSTYLE
  7
STANDARD
  9
$CLAYER
  8
0
  9
$CELTYPE
  6
BYLAYER
  9
$CECOLOR
 62
   256
  9
$CELTSCALE
 40
1.0
  9
$DISPSILH
 70
     0
  9
$DIMSCALE
 40
1.0
  9
$DIMASZ
 40
4.57
  9
$DIMEXO
 40
0.0625
  9
$DIMDLI
 40
0.38
  9
$DIMRND
 40
0.0
  9
$DIMDLE
 40
0.0
  9
$DIMEXE
 40
0.18
  9
$DIMTP
 40
0.01
  9
$DIMTM
 40
0.01
  9
$DIMTXT
 40
3.5
  9
$DIMCEN
 40
0.09
  9
$DIMTSZ
 40
0.0
  9
$DIMTOL
 70
     0
  9
$DIMLIM
 70
     0
  9
$DIMTIH
 70
     0
  9
$DIMTOH
 70
     0
  9
$DIMSE1
 70
     0
  9
$DIMSE2
 70
     0
  9
$DIMTAD
 70
     1
  9
$DIMZIN
 70
     8
  9
$DIMBLK
  1

  9
$DIMASO
 70
     1
  9
$DIMSHO
 70
     1
  9
$DIMPOST
  1

  9
$DIMAPOST
  1

  9
$DIMALT
 70
     0
  9
$DIMALTD
 70
     2
  9
$DIMALTF
 40
25.4
  9
$DIMLFAC
 40
1.0
  9
$DIMTOFL
 70
     0
  9
$DIMTVP
 40
0.0
  9
$DIMTIX
 70
     0
  9
$DIMSOXD
 70
     0
  9
$DIMSAH
 70
     0
  9
$DIMBLK1
  1

  9
$DIMBLK2
  1

  9
$DIMSTYLE
  2
STANDARD
  9
$DIMCLRD
 70
     0
  9
$DIMCLRE
 70
     0
  9
$DIMCLRT
 70
     0
  9
$DIMTFAC
 40
1.0
  9
$DIMGAP
 40
0.09
  9
$DIMJUST
 70
     0
  9
$DIMSD1
 70
     0
  9
$DIMSD2
 70
     0
  9
$DIMTOLJ
 70
     1
  9
$DIMTZIN
 70
     8
  9
$DIMALTZ
 70
     0
  9
$DIMALTTZ
 70
     0
  9
$DIMUPT
 70
     0
  9
$DIMDEC
 70
     3
  9
$DIMTDEC
 70
     3
  9
$DIMALTU
 70
     2
  9
$DIMALTTD
 70
     2
  9
$DIMTXSTY
  7
STANDARD
  9
$DIMAUNIT
 70
     0
  9
$DIMADEC
 70
     0
  9
$DIMALTRND
 40
0.0
  9
$DIMAZIN
 70
     0
  9
$DIMDSEP
 70
    46
  9
$DIMATFIT
 70
     0
  9
$DIMFRAC
 70
     0
  9
$DIMLDRBLK
  1

  9
$DIMLUNIT
 70
     2
  9
$DIMLWD
 70
    -2
  9
$DIMLWE
 70
    -2
  9
$DIMTMOVE
 70
     0
  9
$DIMFXL
 40
1.0
  9
$DIMFXLON
 70
     0
  9
$DIMJOGANG
 40
0.7853981633974483
  9
$DIMTFILL
 70
     0
  9
$DIMTFILLCLR
 70
     0
  9
$DIMARCSYM
 70
     0
  9
$DIMLTYPE
  6

  9
$DIMLTEX1
  6

  9
$DIMLTEX2
  6

  9
$DIMTXTDIRECTION
 70
     0
  9
$LUNITS
 70
     2
  9
$LUPREC
 70
     4
  9
$SKETCHINC
 40
0.1
  9
$FILLETRAD
 40
0.0
  9
$AUNITS
 70
     0
  9
$AUPREC
 70
     0
  9
$MENU
  1
.
  9
$ELEVATION
 40
0.0
  9
$PELEVATION
 40
0.0
  9
$THICKNESS
 40
0.0
  9
$LIMCHECK
 70
     0
  9
$CHAMFERA
 40
0.0
  9
$CHAMFERB
 40
0.0
  9
$CHAMFERC
 40
0.0
  9
$CHAMFERD
 40
0.0
  9
$SKPOLY
 70
     0
  9
$TDCREATE
 40
2458446.405227107
  9
$TDUCREATE
 40
2458446.321893773
  9
$TDUPDATE
 40
2458978.339212350
  9
$TDUUPDATE
 40
2458978.255879016
  9
$TDINDWG
 40
0.0293022106
  9
$TDUSRTIMER
 40
0.0293011458
  9
$USRTIMER
 70
     1
  9
$ANGBASE
 50
0.0
  9
$ANGDIR
 70
     0
  9
$PDMODE
 70
     3
  9
$PDSIZE
 40
0.3125
  9
$PLINEWID
 40
0.0
  9
$SPLFRAME
 70
     0
  9
$SPLINETYPE
 70
     6
  9
$SPLINESEGS
 70
     8
  9
$HANDSEED
  5
22110
  9
$SURFTAB1
 70
     6
  9
$SURFTAB2
 70
     6
  9
$SURFTYPE
 70
     6
  9
$SURFU
 70
     6
  9
$SURFV
 70
     6
  9
$UCSBASE
  2

  9
$UCSNAME
  2

  9
$UCSORG
 10
0.0
 20
0.0
 30
0.0
  9
$UCSXDIR
 10
1.0
 20
0.0
 30
0.0
  9
$UCSYDIR
 10
0.0
 20
1.0
 30
0.0
  9
$UCSORTHOREF
  2

  9
$UCSORTHOVIEW
 70
     0
  9
$UCSORGTOP
 10
0.0
 20
0.0
 30
0.0
  9
$UCSORGBOTTOM
 10
0.0
 20
0.0
 30
0.0
  9
$UCSORGLEFT
 10
0.0
 20
0.0
 30
0.0
  9
$UCSORGRIGHT
 10
0.0
 20
0.0
 30
0.0
  9
$UCSORGFRONT
 10
0.0
 20
0.0
 30
0.0
  9
$UCSORGBACK
 10
0.0
 20
0.0
 30
0.0
  9
$PUCSBASE
  2

  9
$PUCSNAME
  2

  9
$PUCSORG
 10
0.0
 20
0.0
 30
0.0
  9
$PUCSXDIR
 10
1.0
 20
0.0
 30
0.0
  9
$PUCSYDIR
 10
0.0
 20
1.0
 30
0.0
  9
$PUCSORTHOREF
  2

  9
$PUCSORTHOVIEW
 70
     0
  9
$PUCSORGTOP
 10
0.0
 20
0.0
 30
0.0
  9
$PUCSORGBOTTOM
 10
0.0
 20
0.0
 30
0.0
  9
$PUCSORGLEFT
 10
0.0
 20
0.0
 30
0.0
  9
$PUCSORGRIGHT
 10
0.0
 20
0.0
 30
0.0
  9
$PUCSORGFRONT
 10
0.0
 20
0.0
 30
0.0
  9
$PUCSORGBACK
 10
0.0
 20
0.0
 30
0.0
  9
$USERI1
 70
     0
  9
$USERI2
 70
     0
  9
$USERI3
 70
     0
  9
$USERI4
 70
     0
  9
$USERI5
 70
     0
  9
$USERR1
 40
0.0
  9
$USERR2
 40
0.0
  9
$USERR3
 40
0.0
  9
$USERR4
 40
0.0
  9
$USERR5
 40
0.0
  9
$WORLDVIEW
 70
     1
  9
$SHADEDGE
 70
     3
  9
$SHADEDIF
 70
    70
  9
$TILEMODE
 70
     1
  9
$MAXACTVP
 70
    64
  9
$PINSBASE
 10
0.0
 20
0.0
 30
0.0
  9
$PLIMCHECK
 70
     0
  9
$PEXTMIN
 10
28.69141678810127
 20
19.6363175392151
 30
0.0
  9
$PEXTMAX
 10
258.2227510929107
 20
176.7268578529358
 30
0.0
  9
$PLIMMIN
 10
-5.027069091796875
 20
-6.805083274841307
  9
$PLIMMAX
 10
291.9412536621094
 20
203.1682443618775
  9
$UNITMODE
 70
     0
  9
$VISRETAIN
 70
     1
  9
$PLINEGEN
 70
     0
  9
$PSLTSCALE
 70
     1
  9
$TREEDEPTH
 70
  3020
  9
$CMLSTYLE
  2
STANDARD
  9
$CMLJUST
 70
     0
  9
$CMLSCALE
 40
1.0
  9
$PROXYGRAPHICS
 70
     1
  9
$MEASUREMENT
 70
     1
  9
$CELWEIGHT
370
    -1
  9
$ENDCAPS
280
     0
  9
$JOINSTYLE
280
     0
  9
$LWDISPLAY
290
     0
  9
$INSUNITS
 70
     0
  9
$HYPERLINKBASE
  1

  9
$STYLESHEET
  1
A1-A2.CTB
  9
$XEDIT
290
     1
  9
$CEPSNTYPE
380
     0
  9
$PSTYLEMODE
290
     1
  9
$FINGERPRINTGUID
  2
{6D3BC7B5-ACA7-406D-8A0D-A7DBBE093430}
  9
$VERSIONGUID
  2
{7ECDC232-E0F4-420A-A4EA-B12D6A82D3EE}
  9
$EXTNAMES
290
     1
  9
$PSVPSCALE
 40
0.0
  9
$OLESTARTUP
290
     0
  9
$SORTENTS
280
   127
  9
$INDEXCTL
280
     0
  9
$HIDETEXT
280
     0
  9
$XCLIPFRAME
280
     2
  9
$HALOGAP
280
     0
  9
$OBSCOLOR
 70
   257
  9
$OBSLTYPE
280
     0
  9
$INTERSECTIONDISPLAY
280
     0
  9
$INTERSECTIONCOLOR
 70
   257
  9
$DIMASSOC
280
     1
  9
$PROJECTNAME
  1

  9
$CAMERADISPLAY
290
     0
  9
$LENSLENGTH
 40
50.0
  9
$CAMERAHEIGHT
 40
0.0
  9
$STEPSPERSEC
 40
2.0
  9
$STEPSIZE
 40
6.0
  9
$3DDWFPREC
 40
2.0
  9
$PSOLWIDTH
 40
0.25
  9
$PSOLHEIGHT
 40
4.0
  9
$LOFTANG1
 40
1.570796326794896
  9
$LOFTANG2
 40
1.570796326794896
  9
$LOFTMAG1
 40
0.0
  9
$LOFTMAG2
 40
0.0
  9
$LOFTPARAM
 70
     7
  9
$LOFTNORMALS
280
     1
  9
$LATITUDE
 40
37.795
  9
$LONGITUDE
 40
-122.394
  9
$NORTHDIRECTION
 40
0.0
  9
$TIMEZONE
 70
 -8000
  9
$LIGHTGLYPHDISPLAY
280
     1
  9
$TILEMODELIGHTSYNCH
280
     1
  9
$CMATERIAL
347
318C
  9
$SOLIDHIST
280
     0
  9
$SHOWHIST
280
     1
  9
$DWFFRAME
280
     2
  9
$DGNFRAME
280
     0
  9
$REALWORLDSCALE
290
     1
  9
$INTERFERECOLOR
 62
     1
  9
$INTERFEREOBJVS
345
3199
  9
$INTERFEREVPVS
346
1B2E3
  9
$CSHADOW
280
     0
  9
$SHADOWPLANELOCATION
 40
0.0
  0
ENDSEC
  0
SECTION
  2
CLASSES
  0
CLASS
  1
ACDBDICTIONARYWDFLT
  2
AcDbDictionaryWithDefault
  3
ObjectDBX Classes
 90
        0
 91
        1
280
     0
281
     0
  0
CLASS
  1
MATERIAL
  2
AcDbMaterial
  3
ObjectDBX Classes
 90
     1153
 91
        3
280
     0
281
     0
  0
CLASS
  1
VISUALSTYLE
  2
AcDbVisualStyle
  3
ObjectDBX Classes
 90
     4095
 91
       26
280
     0
281
     0
  0
CLASS
  1
TABLESTYLE
  2
AcDbTableStyle
  3
ObjectDBX Classes
 90
     4095
 91
        1
280
     0
281
     0
  0
CLASS
  1
SORTENTSTABLE
  2
AcDbSortentsTable
  3
ObjectDBX Classes
 90
        0
 91
        2
280
     0
281
     0
  0
CLASS
  1
DICTIONARYVAR
  2
AcDbDictionaryVar
  3
ObjectDBX Classes
 90
        0
 91
       13
280
     0
281
     0
  0
CLASS
  1
EXACXREFPANELOBJECT
  2
ExAcXREFPanelObject
  3
EXAC_ESW
 90
     1025
 91
        0
280
     1
281
     0
  0
CLASS
  1
NPOCOLLECTION
  2
AcDbImpNonPersistentObjectsCollection
  3
ObjectDBX Classes
 90
     1153
 91
        0
280
     1
281
     0
  0
CLASS
  1
SCALE
  2
AcDbScale
  3
ObjectDBX Classes
 90
     1153
 91
       33
280
     0
281
     0
  0
CLASS
  1
MLEADERSTYLE
  2
AcDbMLeaderStyle
  3
ACDB_MLEADERSTYLE_CLASS
 90
     4095
 91
        1
280
     0
281
     0
  0
CLASS
  1
ACDBSECTIONVIEWSTYLE
  2
AcDbSectionViewStyle
  3
ObjectDBX Classes
 90
     1025
 91
        2
280
     0
281
     0
  0
CLASS
  1
ACDBDETAILVIEWSTYLE
  2
AcDbDetailViewStyle
  3
ObjectDBX Classes
 90
     1025
 91
        2
280
     0
281
     0
  0
CLASS
  1
CELLSTYLEMAP
  2
AcDbCellStyleMap
  3
ObjectDBX Classes
 90
     1152
 91
        2
280
     0
281
     0
  0
CLASS
  1
ACAD_EVALUATION_GRAPH
  2
AcDbEvalGraph
  3
ObjectDBX Classes
 90
     1153
 91
        0
280
     0
281
     0
  0
CLASS
  1
ACAECUSTOBJ
  2
AcAeEditorObj
  3
AcAeEditorObj
 90
     1024
 91
        0
280
     0
281
     0
  0
CLASS
  1
ACDB_DYNAMICBLOCKPURGEPREVENTER_VERSION
  2
AcDbDynamicBlockPurgePreventer
  3
ObjectDBX Classes
 90
     1153
 91
        0
280
     0
281
     0
  0
CLASS
  1
FIELD
  2
AcDbField
  3
ObjectDBX Classes
 90
     1152
 91
        0
280
     0
281
     0
  0
CLASS
  1
FIELDLIST
  2
AcDbFieldList
  3
ObjectDBX Classes
 90
     1152
 91
        1
280
     0
281
     0
  0
CLASS
  1
ACDB_ALDIMOBJECTCONTEXTDATA_CLASS
  2
AcDbAlignedDimensionObjectContextData
  3
ObjectDBX Classes
 90
     1153
 91
        0
280
     0
281
     0
  0
ENDSEC
  0
SECTION
  2
TABLES
  0
TABLE
  2
VPORT
  5
8
330
0
100
AcDbSymbolTable
 70
     1
  0
VPORT
  5
1F4
330
8
100
AcDbSymbolTableRecord
100
AcDbViewportTableRecord
  2
*ACTIVE
 70
     0
 10
0.0
 20
0.0
 11
1.0
 21
1.0
 12
-20.8729422730741
 22
2.479312461670929
 13
0.0
 23
0.0
 14
1.0
 24
1.0
 15
0.0
 25
0.0
 16
0.0
 26
0.0
 36
1.0
 17
0.0
 27
0.0
 37
0.0
 40
123.8192210455614
 41
2.698140200286123
 42
50.0
 43
0.0
 44
0.0
 50
0.0
 51
0.0
 71
     0
 72
  2000
 73
     1
 74
     1
 75
     0
 76
     0
 77
     0
 78
     0
281
     0
 65
     1
110
0.0
120
0.0
130
0.0
111
1.0
121
0.0
131
0.0
112
0.0
122
1.0
132
0.0
 79
     0
146
0.0
348
3195
 60
     3
 61
     5
292
     1
282
     1
141
0.0
142
0.0
 63
   250
421
  3355443
1001
ACAD_NAV_VCDISPLAY
1070
     3
  0
ENDTAB
  0
TABLE
  2
LTYPE
  5
5
330
0
100
AcDbSymbolTable
 70
     6
  0
LTYPE
  5
14
330
5
100
AcDbSymbolTableRecord
100
AcDbLinetypeTableRecord
  2
BYBLOCK
 70
     0
  3

 72
    65
 73
     0
 40
0.0
  0
LTYPE
  5
15
330
5
100
AcDbSymbolTableRecord
100
AcDbLinetypeTableRecord
  2
BYLAYER
 70
     0
  3

 72
    65
 73
     0
 40
0.0
  0
LTYPE
  5
16
330
5
100
AcDbSymbolTableRecord
100
AcDbLinetypeTableRecord
  2
CONTINUOUS
 70
     0
  3
Solid line
 72
    65
 73
     0
 40
0.0
  0
LTYPE
  5
9C48
330
5
100
AcDbSymbolTableRecord
100
AcDbLinetypeTableRecord
  2
CENTER
 70
     0
  3
____ _ ____ _ ____ _ ____ _ ____ _ ____ _ ____
 72
    65
 73
     4
 40
0.6
 49
0.375
 74
     0
 49
-0.075
 74
     0
 49
0.075
 74
     0
 49
-0.075
 74
     0
  0
LTYPE
  5
20A82
330
5
100
AcDbSymbolTableRecord
100
AcDbLinetypeTableRecord
  2
HIDDEN
 70
     0
  3
- - - - - - - - - - - - - - - - - - - -
 72
    65
 73
     2
 40
0.2
 49
0.1
 74
     0
 49
-0.1
 74
     0
  0
LTYPE
  5
21CB3
330
5
100
AcDbSymbolTableRecord
100
AcDbLinetypeTableRecord
  2
CENTER2
 70
     0
  3
Center (.5x) ___ _ ___ _ ___ _ ___ _ ___ _ ___
 72
    65
 73
     4
 40
28.57499999999999
 49
19.05
 74
     4
 75
     0
340
0
 46
1.0
 50
0.0
 44
0.0
 45
0.0
 49
-3.174999999999998
 74
     4
 75
     0
340
0
 46
1.0
 50
0.0
 44
0.0
 45
0.0
 49
3.174999999999998
 74
     4
 75
     0
340
0
 46
1.0
 50
0.0
 44
0.0
 45
0.0
 49
-3.174999999999998
 74
     4
 75
     0
340
0
 46
1.0
 50
0.0
 44
0.0
 45
0.0
  0
ENDTAB
  0
TABLE
  2
LAYER
  5
2
102
{ACAD_XDICTIONARY
360
422A
102
}
330
0
100
AcDbSymbolTable
 70
    16
  0
LAYER
  5
10
102
{ACAD_XDICTIONARY
360
1B2F5
102
}
330
2
100
AcDbSymbolTableRecord
100
AcDbLayerTableRecord
  2
0
 70
     0
 62
     7
  6
CONTINUOUS
370
    -3
390
318A
347
318E
  0
LAYER
  5
3F8C
102
{ACAD_XDICTIONARY
360
1B2F7
102
}
330
2
100
AcDbSymbolTableRecord
100
AcDbLayerTableRecord
  2
1
 70
     0
 62
     4
  6
BYBLOCK
370
    50
390
318A
347
318E
  0
LAYER
  5
3FA7
330
2
100
AcDbSymbolTableRecord
100
AcDbLayerTableRecord
  2
Defpoints
 70
     0
 62
     7
  6
CONTINUOUS
290
     0
370
    -3
390
318A
347
318E
  0
LAYER
  5
9C4A
102
{ACAD_XDICTIONARY
360
1B2F9
102
}
330
2
100
AcDbSymbolTableRecord
100
AcDbLayerTableRecord
  2
2
 70
     0
 62
     7
  6
BYBLOCK
370
    25
390
318A
347
318E
  0
LAYER
  5
9C4B
102
{ACAD_XDICTIONARY
360
1B2FB
102
}
330
2
100
AcDbSymbolTableRecord
100
AcDbLayerTableRecord
  2
4
 70
     0
 62
     2
  6
CENTER
370
    25
390
318A
347
318E
  0
LAYER
  5
9C4D
102
{ACAD_XDICTIONARY
360
1B2FD
102
}
330
2
100
AcDbSymbolTableRecord
100
AcDbLayerTableRecord
  2
CUT
 70
     0
 62
     1
  6
BYBLOCK
370
    25
390
318A
347
318E
  0
LAYER
  5
9C4E
102
{ACAD_XDICTIONARY
360
1B2FF
102
}
330
2
100
AcDbSymbolTableRecord
100
AcDbLayerTableRecord
  2
NOCUT
 70
     0
 62
     7
  6
BYBLOCK
370
    25
390
318A
347
318E
  0
LAYER
  5
9C4F
102
{ACAD_XDICTIONARY
360
1B301
102
}
330
2
100
AcDbSymbolTableRecord
100
AcDbLayerTableRecord
  2
SK2
 70
     0
 62
     7
  6
BYBLOCK
370
    25
390
318A
347
318E
  0
LAYER
  5
9C50
102
{ACAD_XDICTIONARY
360
1B303
102
}
330
2
100
AcDbSymbolTableRecord
100
AcDbLayerTableRecord
  2
SK1
 70
     0
 62
     4
  6
BYBLOCK
370
    50
390
318A
347
318E
  0
LAYER
  5
9C51
102
{ACAD_XDICTIONARY
360
1B305
102
}
330
2
100
AcDbSymbolTableRecord
100
AcDbLayerTableRecord
  2
SK4
 70
     0
 62
     2
  6
CENTER
370
    25
390
318A
347
318E
  0
LAYER
  5
13335
102
{ACAD_XDICTIONARY
360
1B307
102
}
330
2
100
AcDbSymbolTableRecord
100
AcDbLayerTableRecord
  2
INFTOTAL
 70
     0
 62
     9
  6
BYBLOCK
370
    18
390
318A
347
318E
1001
AcAecLayerStandard
1000

1000

  0
LAYER
  5
1686E
102
{ACAD_XDICTIONARY
360
1B309
102
}
330
2
100
AcDbSymbolTableRecord
100
AcDbLayerTableRecord
  2
SK6
 70
     0
 62
     5
  6
BYBLOCK
370
    -3
390
318A
347
318E
  0
LAYER
  5
21CB4
330
2
100
AcDbSymbolTableRecord
100
AcDbLayerTableRecord
  2
SK3
 70
     0
 62
     1
  6
HIDDEN
370
    35
390
318A
347
318E
  0
LAYER
  5
21CB5
330
2
100
AcDbSymbolTableRecord
100
AcDbLayerTableRecord
  2
SKVIEW1
 70
     0
 62
     4
  6
CONTINUOUS
370
    50
390
318A
347
318E
1001
AcAecLayerStandard
1000

1000

  0
LAYER
  5
21CB6
330
2
100
AcDbSymbolTableRecord
100
AcDbLayerTableRecord
  2
SKVIEW4
 70
     0
 62
     2
  6
CENTER2
370
    25
390
318A
347
318E
1001
AcAecLayerStandard
1000

1000

  0
ENDTAB
  0
TABLE
  2
STYLE
  5
3
330
0
100
AcDbSymbolTable
 70
     2
  0
STYLE
  5
11
330
3
100
AcDbSymbolTableRecord
100
AcDbTextStyleTableRecord
  2
STANDARD
 70
     0
 40
3.5
 41
0.8
 50
0.0
 71
     0
 42
3.5
  3
monos.ttf
  4

1001
ACAD
1000
Monospac821 BT
1071
       49
  0
ENDTAB
  0
TABLE
  2
VIEW
  5
6
330
0
100
AcDbSymbolTable
 70
     0
  0
ENDTAB
  0
TABLE
  2
UCS
  5
7
330
0
100
AcDbSymbolTable
 70
     0
  0
ENDTAB
  0
TABLE
  2
APPID
  5
9
330
0
100
AcDbSymbolTable
 70
    19
  0
APPID
  5
23B
330
9
100
AcDbSymbolTableRecord
100
AcDbRegAppTableRecord
  2
ACAD
 70
     0
  0
APPID
  5
3395
330
9
100
AcDbSymbolTableRecord
100
AcDbRegAppTableRecord
  2
ACAD_EXEMPT_FROM_CAD_STANDARDS
 70
     0
  0
APPID
  5
4229
330
9
100
AcDbSymbolTableRecord
100
AcDbRegAppTableRecord
  2
AcAecLayerStandard
 70
     0
  0
APPID
  5
9A1B
330
9
100
AcDbSymbolTableRecord
100
AcDbRegAppTableRecord
  2
ACAD_PSEXT
 70
     0
  0
APPID
  5
1B313
330
9
100
AcDbSymbolTableRecord
100
AcDbRegAppTableRecord
  2
ACAD_NAV_VCDISPLAY
 70
     0
  0
APPID
  5
1B355
330
9
100
AcDbSymbolTableRecord
100
AcDbRegAppTableRecord
  2
ACAD_MLEADERVER
 70
     0
  0
APPID
  5
1EC7F
330
9
100
AcDbSymbolTableRecord
100
AcDbRegAppTableRecord
  2
ACAUTHENVIRON
 70
     0
  0
APPID
  5
1EC82
330
9
100
AcDbSymbolTableRecord
100
AcDbRegAppTableRecord
  2
AcDbDynamicBlockTrueName
 70
     0
  0
APPID
  5
1EC83
330
9
100
AcDbSymbolTableRecord
100
AcDbRegAppTableRecord
  2
AcDbDynamicBlockGUID
 70
     0
  0
APPID
  5
20A85
330
9
100
AcDbSymbolTableRecord
100
AcDbRegAppTableRecord
  2
AcCmTransparency
 70
     0
  0
APPID
  5
20AE2
330
9
100
AcDbSymbolTableRecord
100
AcDbRegAppTableRecord
  2
ACAD_DSTYLE_DIMRADIAL_EXTENSION
 70
     0
  0
APPID
  5
20CB0
330
9
100
AcDbSymbolTableRecord
100
AcDbRegAppTableRecord
  2
AcadAnnotative
 70
     0
  0
APPID
  5
21667
330
9
100
AcDbSymbolTableRecord
100
AcDbRegAppTableRecord
  2
AcadAnnoMonitorAlertIconDisabled
 70
     0
  0
APPID
  5
21CB9
330
9
100
AcDbSymbolTableRecord
100
AcDbRegAppTableRecord
  2
ACAD_DSTYLE_DIMJAG
 70
     0
  0
APPID
  5
21CBA
330
9
100
AcDbSymbolTableRecord
100
AcDbRegAppTableRecord
  2
ACAD_DSTYLE_DIMTALN
 70
     0
  0
APPID
  5
21CBB
330
9
100
AcDbSymbolTableRecord
100
AcDbRegAppTableRecord
  2
ACAD_DSTYLE_DIM_LINETYPE
 70
     0
  0
APPID
  5
21CBC
330
9
100
AcDbSymbolTableRecord
100
AcDbRegAppTableRecord
  2
ACAD_DSTYLE_DIM_EXT1_LINETYPE
 70
     0
  0
APPID
  5
21CBD
330
9
100
AcDbSymbolTableRecord
100
AcDbRegAppTableRecord
  2
ACAD_DSTYLE_DIM_EXT2_LINETYPE
 70
     0
  0
APPID
  5
21CBE
330
9
100
AcDbSymbolTableRecord
100
AcDbRegAppTableRecord
  2
ACAD_DSTYLE_DIMARC_LENGTH_SYMBOL
 70
     0
  0
ENDTAB
  0
TABLE
  2
DIMSTYLE
  5
A
330
0
100
AcDbSymbolTable
 70
     3
100
AcDbDimStyleTable
 71
     1
340
243
  0
DIMSTYLE
105
243
102
{ACAD_REACTORS
330
21DEE
330
21DEB
330
21DED
330
21DEC
330
21F00
102
}
330
A
100
AcDbSymbolTableRecord
100
AcDbDimStyleTableRecord
  2
STANDARD
 70
     0
 41
4.57
 47
0.01
 48
0.01
 73
     0
 74
     0
 77
     1
 78
     8
140
3.5
271
     3
272
     3
284
     8
289
     0
340
11
  0
ENDTAB
  0
TABLE
  2
BLOCK_RECORD
  5
1
330
0
100
AcDbSymbolTable
 70
    18
  0
BLOCK_RECORD
  5
1F
102
{ACAD_XDICTIONARY
360
339C
102
}
330
1
100
AcDbSymbolTableRecord
100
AcDbBlockTableRecord
  2
*MODEL_SPACE
340
31A6
 70
     0
280
     1
281
     0
  0
BLOCK_RECORD
  5
1B
330
1
100
AcDbSymbolTableRecord
100
AcDbBlockTableRecord
  2
*PAPER_SPACE
340
31A7
 70
     0
280
     1
281
     0
  0
BLOCK_RECORD
  5
1B3D7
102
{ACAD_XDICTIONARY
360
1DE81
102
}
330
1
100
AcDbSymbolTableRecord
100
AcDbBlockTableRecord
  2
cero_point
340
0
310
28000000200000002000000001002000000000000010000001000000010000000000000000000000302821FF302821FF302821FF302821FF302821FF302821FF302821FF302821FF302821FF302821FF302821FF302821FF302821FF302821FF302821FF302821FF302821FF302821FF302821FF302821FF302821FF302821
310
FF302821FF302821FF302821FF302821FF302821FF302821FF302821FF302821FF302821FF302821FF302821FF302821FF302821FF302821FF302821FF302821FF302821FF302821FF302821FF302821FF302821FF302821FF302821FF302821FF302821FFFFFF00FFFFFF00FFFFFF00FF302821FF302821FF302821FF3028
310
21FF302821FF302821FF302821FF302821FF302821FF302821FF302821FF302821FF302821FF302821FF302821FF302821FF302821FF302821FF302821FF302821FF302821FF302821FF302821FF302821FFFFFF00FFFFFF00FFFFFF00FFFFFF00FFFFFF00FFFFFF00FFFFFF00FF302821FFFFFF00FFFFFF00FFFFFF00FF30
310
2821FF302821FF302821FF302821FF302821FF302821FF302821FF302821FF302821FF302821FF302821FF302821FF302821FF302821FF302821FF302821FF302821FF302821FF302821FFFFFF00FFFFFF00FFFFFF00FFFFFF00FFFFFF00FFFFFF00FFFFFF00FFFFFF00FFFFFF00FF302821FF302821FF302821FF302821FF
310
FFFF00FFFFFF00FF302821FF302821FF302821FF302821FF302821FF302821FF302821FF302821FF302821FF302821FF302821FF302821FF302821FF302821FF302821FF302821FFFFFF00FFFFFF00FFFFFF00FFFFFF00FFFFFF00FFFFFF00FFFFFF00FFFFFF00FFFFFF00FFFFFF00FF302821FF302821FF302821FF302821
310
FF302821FF302821FFFFFF00FFFFFF00FF302821FF302821FF302821FF302821FF302821FF302821FF302821FF302821FF302821FF302821FF302821FF302821FF302821FFFFFF00FFFFFF00FFFFFF00FFFFFF00FFFFFF00FFFFFF00FFFFFF00FFFFFF00FFFFFF00FFFFFF00FFFFFF00FF302821FF302821FF302821FF3028
310
21FF302821FF302821FF302821FF302821FFFFFF00FF302821FF302821FF302821FF302821FF302821FF302821FF302821FF302821FF302821FF302821FF302821FFFFFF00FFFFFF00FFFFFF00FFFFFF00FFFFFF00FFFFFF00FFFFFF00FFFFFF00FFFFFF00FFFFFF00FFFFFF00FFFFFF00FF302821FF302821FF302821FF30
310
2821FF302821FF302821FF302821FF302821FF302821FFFFFF00FF302821FF302821FF302821FF302821FF302821FF302821FF302821FF302821FF302821FFFFFF00FFFFFF00FFFFFF00FFFFFF00FFFFFF00FFFFFF00FFFFFF00FFFFFF00FFFFFF00FFFFFF00FFFFFF00FFFFFF00FFFFFF00FF302821FF302821FF302821FF
310
302821FF302821FF302821FF302821FF302821FF302821FF302821FFFFFF00FF302821FF302821FF302821FF302821FF302821FF302821FF302821FFFFFF00FFFFFF00FFFFFF00FFFFFF00FFFFFF00FFFFFF00FFFFFF00FFFFFF00FFFFFF00FFFFFF00FFFFFF00FFFFFF00FFFFFF00FFFFFF00FF302821FF302821FF302821
310
FF302821FF302821FF302821FF302821FF302821FF302821FF302821FFFFFF00FF302821FF302821FF302821FF302821FF302821FF302821FF302821FFFFFF00FFFFFF00FFFFFF00FFFFFF00FFFFFF00FFFFFF00FFFFFF00FFFFFF00FFFFFF00FFFFFF00FFFFFF00FFFFFF00FFFFFF00FFFFFF00FF302821FF302821FF3028
310
21FF302821FF302821FF302821FF302821FF302821FF302821FF302821FF302821FFFFFF00FF302821FF302821FF302821FF302821FF302821FFFFFF00FFFFFF00FFFFFF00FFFFFF00FFFFFF00FFFFFF00FFFFFF00FFFFFF00FFFFFF00FFFFFF00FFFFFF00FFFFFF00FFFFFF00FFFFFF00FFFFFF00FF302821FF302821FF30
310
2821FF302821FF302821FF302821FF302821FF302821FF302821FF302821FF302821FF302821FFFFFF00FF302821FF302821FF302821FF302821FFFFFF00FFFFFF00FFFFFF00FFFFFF00FFFFFF00FFFFFF00FFFFFF00FFFFFF00FFFFFF00FFFFFF00FFFFFF00FFFFFF00FFFFFF00FFFFFF00FFFFFF00FF302821FF302821FF
310
302821FF302821FF302821FF302821FF302821FF302821FF302821FF302821FF302821FF302821FFFFFF00FF302821FF302821FF302821FF302821FFFFFF00FFFFFF00FFFFFF00FFFFFF00FFFFFF00FFFFFF00FFFFFF00FFFFFF00FFFFFF00FFFFFF00FFFFFF00FFFFFF00FFFFFF00FFFFFF00FFFFFF00FF302821FF302821
310
FF302821FF302821FF302821FF302821FF302821FF302821FF302821FF302821FF302821FF302821FFFFFF00FF302821FF302821FF302821FF302821FFFFFF00FFFFFF00FFFFFF00FFFFFF00FFFFFF00FFFFFF00FFFFFF00FFFFFF00FFFFFF00FFFFFF00FFFFFF00FFFFFF00FFFFFF00FFFFFF00FFFFFF00FF302821FF3028
310
21FF302821FF302821FF302821FF302821FF302821FF302821FF302821FF302821FF302821FF302821FFFFFF00FF302821FF302821FF302821FFFFFF00FFFFFF00FFFFFF00FFFFFF00FFFFFF00FFFFFF00FFFFFF00FFFFFF00FFFFFF00FFFFFF00FFFFFF00FFFFFF00FFFFFF00FFFFFF00FFFFFF00FFFFFF00FF302821FF30
310
2821FF302821FF302821FF302821FF302821FF302821FF302821FF302821FF302821FF302821FF302821FF302821FFFFFF00FF302821FF302821FFFFFF00FFFFFF00FFFFFF00FFFFFF00FFFFFF00FFFFFF00FFFFFF00FFFFFF00FFFFFF00FFFFFF00FFFFFF00FFFFFF00FFFFFF00FFFFFF00FFFFFF00FFFFFF00FFFFFF00FF
310
FFFF00FFFFFF00FFFFFF00FFFFFF00FFFFFF00FFFFFF00FFFFFF00FFFFFF00FFFFFF00FFFFFF00FFFFFF00FFFFFF00FFFFFF00FF302821FF302821FFFFFF00FF302821FF302821FF302821FF302821FF302821FF302821FF302821FF302821FF302821FF302821FF302821FF302821FF302821FF302821FFFFFF00FFFFFF00
310
FFFFFF00FFFFFF00FFFFFF00FFFFFF00FFFFFF00FFFFFF00FFFFFF00FFFFFF00FFFFFF00FFFFFF00FFFFFF00FFFFFF00FFFFFF00FF302821FF302821FFFFFF00FF302821FF302821FF302821FF302821FF302821FF302821FF302821FF302821FF302821FF302821FF302821FF302821FF302821FF302821FFFFFF00FFFFFF
310
00FFFFFF00FFFFFF00FFFFFF00FFFFFF00FFFFFF00FFFFFF00FFFFFF00FFFFFF00FFFFFF00FFFFFF00FFFFFF00FFFFFF00FF302821FF302821FF302821FF302821FFFFFF00FF302821FF302821FF302821FF302821FF302821FF302821FF302821FF302821FF302821FF302821FF302821FF302821FF302821FFFFFF00FFFF
310
FF00FFFFFF00FFFFFF00FFFFFF00FFFFFF00FFFFFF00FFFFFF00FFFFFF00FFFFFF00FFFFFF00FFFFFF00FFFFFF00FFFFFF00FF302821FF302821FF302821FF302821FFFFFF00FF302821FF302821FF302821FF302821FF302821FF302821FF302821FF302821FF302821FF302821FF302821FF302821FF302821FFFFFF00FF
310
FFFF00FFFFFF00FFFFFF00FFFFFF00FFFFFF00FFFFFF00FFFFFF00FFFFFF00FFFFFF00FFFFFF00FFFFFF00FFFFFF00FFFFFF00FF302821FF302821FF302821FF302821FFFFFF00FF302821FF302821FF302821FF302821FF302821FF302821FF302821FF302821FF302821FF302821FF302821FF302821FF302821FFFFFF00
310
FFFFFF00FFFFFF00FFFFFF00FFFFFF00FFFFFF00FFFFFF00FFFFFF00FFFFFF00FFFFFF00FFFFFF00FFFFFF00FFFFFF00FFFFFF00FF302821FF302821FF302821FF302821FF302821FFFFFF00FF302821FF302821FF302821FF302821FF302821FF302821FF302821FF302821FF302821FF302821FF302821FF302821FFFFFF
310
00FFFFFF00FFFFFF00FFFFFF00FFFFFF00FFFFFF00FFFFFF00FFFFFF00FFFFFF00FFFFFF00FFFFFF00FFFFFF00FFFFFF00FFFFFF00FF302821FF302821FF302821FF302821FF302821FFFFFF00FF302821FF302821FF302821FF302821FF302821FF302821FF302821FF302821FF302821FF302821FF302821FF302821FFFF
310
FF00FFFFFF00FFFFFF00FFFFFF00FFFFFF00FFFFFF00FFFFFF00FFFFFF00FFFFFF00FFFFFF00FFFFFF00FFFFFF00FFFFFF00FF302821FF302821FF302821FF302821FF302821FF302821FF302821FFFFFF00FF302821FF302821FF302821FF302821FF302821FF302821FF302821FF302821FF302821FF302821FF302821FF
310
FFFF00FFFFFF00FFFFFF00FFFFFF00FFFFFF00FFFFFF00FFFFFF00FFFFFF00FFFFFF00FFFFFF00FFFFFF00FFFFFF00FFFFFF00FF302821FF302821FF302821FF302821FF302821FF302821FF302821FFFFFF00FF302821FF302821FF302821FF302821FF302821FF302821FF302821FF302821FF302821FF302821FF302821
310
FFFFFF00FFFFFF00FFFFFF00FFFFFF00FFFFFF00FFFFFF00FFFFFF00FFFFFF00FFFFFF00FFFFFF00FFFFFF00FFFFFF00FF302821FF302821FF302821FF302821FF302821FF302821FF302821FF302821FF302821FFFFFF00FF302821FF302821FF302821FF302821FF302821FF302821FF302821FF302821FF302821FF3028
310
21FFFFFF00FFFFFF00FFFFFF00FFFFFF00FFFFFF00FFFFFF00FFFFFF00FFFFFF00FFFFFF00FFFFFF00FFFFFF00FF302821FF302821FF302821FF302821FF302821FF302821FF302821FF302821FF302821FF302821FF302821FFFFFF00FF302821FF302821FF302821FF302821FF302821FF302821FF302821FF302821FF30
310
2821FFFFFF00FFFFFF00FFFFFF00FFFFFF00FFFFFF00FFFFFF00FFFFFF00FFFFFF00FFFFFF00FFFFFF00FF302821FF302821FF302821FF302821FF302821FF302821FF302821FF302821FF302821FF302821FF302821FF302821FF302821FFFFFF00FF302821FF302821FF302821FF302821FF302821FF302821FF302821FF
310
302821FFFFFF00FFFFFF00FFFFFF00FFFFFF00FFFFFF00FFFFFF00FFFFFF00FFFFFF00FFFFFF00FF302821FF302821FF302821FF302821FF302821FF302821FF302821FF302821FF302821FF302821FF302821FF302821FF302821FF302821FF302821FFFFFF00FFFFFF00FF302821FF302821FF302821FF302821FF302821
310
FF302821FFFFFF00FFFFFF00FFFFFF00FFFFFF00FFFFFF00FFFFFF00FFFFFF00FFFFFF00FF302821FF302821FF302821FF302821FF302821FF302821FF302821FF302821FF302821FF302821FF302821FF302821FF302821FF302821FF302821FF302821FF302821FF302821FFFFFF00FFFFFF00FFFFFF00FFFFFF00FFFFFF
310
00FF302821FFFFFF00FFFFFF00FFFFFF00FFFFFF00FFFFFF00FFFFFF00FF302821FF302821FF302821FF302821FF302821FF302821FF302821FF302821FF302821FF302821FF302821FF302821FF302821FF302821FF302821FF302821FF302821FF302821FF302821FF302821FF302821FF302821FF302821FF302821FF30
310
2821FFFFFF00FFFFFF00FFFFFF00FF302821FF302821FF302821FF302821FF302821FF302821FF302821FF302821FF302821FF302821FF302821FF302821FF302821FF302821FF302821FF302821FF302821FF302821FF302821FF302821FF302821FF302821FF302821FF302821FF302821FF302821FF302821FF302821FF
310
302821FF302821FF302821FF302821FF302821FF302821FF302821FF302821FF302821FF302821FF302821FF302821FF302821FF302821FF302821FF302821FF302821FF302821FF
102
{BLKREFS
331
21DE3
102
}
 70
     0
280
     1
281
     1
  0
BLOCK_RECORD
  5
21F01
330
1
100
AcDbSymbolTableRecord
100
AcDbBlockTableRecord
  2
*D12
340
0
 70
     0
280
     1
281
     0
  0
BLOCK_RECORD
  5
21F0D
330
1
100
AcDbSymbolTableRecord
100
AcDbBlockTableRecord
  2
*D13
340
0
 70
     0
280
     1
281
     0
  0
BLOCK_RECORD
  5
21F19
330
1
100
AcDbSymbolTableRecord
100
AcDbBlockTableRecord
  2
*D14
340
0
 70
     0
280
     1
281
     0
  0
BLOCK_RECORD
  5
21F27
330
1
100
AcDbSymbolTableRecord
100
AcDbBlockTableRecord
  2
*D15
340
0
 70
     0
280
     1
281
     0
  0
BLOCK_RECORD
  5
21F33
330
1
100
AcDbSymbolTableRecord
100
AcDbBlockTableRecord
  2
*D16
340
0
 70
     0
280
     1
281
     0
  0
ENDTAB
  0
ENDSEC
  0
SECTION
  2
BLOCKS
  0
BLOCK
  5
20
330
1F
100
AcDbEntity
  8
0
100
AcDbBlockBegin
  2
*MODEL_SPACE
 70
     0
 10
0.0
 20
0.0
 30
0.0
  3
*MODEL_SPACE
  1

  0
ENDBLK
  5
21
330
1F
100
AcDbEntity
  8
0
100
AcDbBlockEnd
  0
BLOCK
  5
1C
330
1B
100
AcDbEntity
 67
     1
  8
0
100
AcDbBlockBegin
  2
*PAPER_SPACE
 70
     0
 10
0.0
 20
0.0
 30
0.0
  3
*PAPER_SPACE
  1

  0
ENDBLK
  5
1D
330
1B
100
AcDbEntity
 67
     1
  8
0
100
AcDbBlockEnd
  0
BLOCK
  5
1B3D8
330
1B3D7
100
AcDbEntity
  8
0
100
AcDbBlockBegin
  2
cero_point
 70
     0
 10
0.0
 20
0.0
 30
0.0
  3
cero_point
  1

  0
HATCH
  5
1B3DA
330
1B3D7
100
AcDbEntity
  8
1
  6
ByBlock
370
    50
100
AcDbHatch
 10
0.0
 20
0.0
 30
0.0
210
0.0
220
0.0
230
1.0
  2
SOLID
 70
     1
 71
     0
 91
        2
 92
        7
 72
     1
 73
     1
 93
        3
 10
-0.0000000000001137
 20
0.0
 42
0.0
 10
-2.950972054112752
 20
0.0
 42
0.4142135623730968
 10
-0.0000000000001137
 20
-2.950972054112583
 42
0.0
 97
        0
 92
        7
 72
     1
 73
     1
 93
        3
 10
-0.0000000000001137
 20
2.950972054112638
 42
0.0
 10
-0.0000000000001137
 20
0.0
 42
0.0
 10
2.950972054112526
 20
0.0
 42
0.4142135623730966
 97
        0
 75
     0
 76
     1
 47
0.1190009775223266
 98
        2
 10
-0.7445530588121301
 20
-0.9212244733764125
 10
1.279464601852737
 20
1.696796923046345
450
        0
451
        0
460
0.0
461
0.0
452
        0
462
0.0
453
        0
470

  0
LWPOLYLINE
  5
1B3DB
330
1B3D7
100
AcDbEntity
  8
1
  6
ByBlock
370
    50
100
AcDbPolyline
 90
        3
 70
     1
 43
0.0
 10
-0.0000000000001137
 20
0.0
 10
2.950972054112526
 20
0.0
 42
0.4142135623730966
 10
-0.0000000000001137
 20
2.950972054112638
  0
LINE
  5
1B3DC
330
1B3D7
100
AcDbEntity
  8
1
  6
ByBlock
370
    50
100
AcDbLine
 10
-0.0000000000001137
 20
-2.950972054112583
 30
0.0
 11
-0.0000000000001137
 21
2.950972054112638
 31
0.0
  0
LWPOLYLINE
  5
1B3DD
330
1B3D7
100
AcDbEntity
  8
1
  6
ByBlock
370
    50
100
AcDbPolyline
 90
        3
 70
     1
 43
0.0
 10
-0.0000000000001137
 20
-2.950972054112583
 10
-0.0000000000001137
 20
0.0
 10
-2.950972054112752
 20
0.0
 42
0.4142135623730966
  0
LINE
  5
1B3DE
330
1B3D7
100
AcDbEntity
  8
1
  6
ByBlock
370
    50
100
AcDbLine
 10
2.950972054112638
 20
0.0
 30
0.0
 11
-2.950972054112638
 21
0.0
 31
0.0
  0
CIRCLE
  5
1B3DF
330
1B3D7
100
AcDbEntity
  8
1
  6
ByBlock
370
    50
100
AcDbCircle
 10
-0.0000000000001137
 20
0.0
 30
0.0
 40
2.950972054112601
  0
ENDBLK
  5
1B3D9
330
1B3D7
100
AcDbEntity
  8
0
100
AcDbBlockEnd
  0
BLOCK
  5
21F02
330
21F01
100
AcDbEntity
  8
0
100
AcDbBlockBegin
  2
*D12
 70
     1
 10
0.0
 20
0.0
 30
0.0
  3
*D12
  1

  0
LINE
  5
220A3
330
21F01
100
AcDbEntity
  8
2
 62
     0
440
 16777216
370
    -2
100
AcDbLine
 10
38.07250000000161
 20
-11.45000052032645
 30
0.0
 11
56.93128445222567
 21
-11.4501575238655
 31
0.0
  0
LINE
  5
220A4
330
21F01
100
AcDbEntity
  8
2
 62
     0
440
 16777216
370
    -2
100
AcDbLine
 10
37.27250000000142
 20
11.44999947967363
 30
0.0
 11
56.9314750997198
 21
11.449835814371
 31
0.0
  0
LINE
  5
220A5
330
21F01
100
AcDbEntity
  8
2
 62
     0
440
 16777216
370
    -2
100
AcDbLine
 10
56.75132249848963
 20
-6.880156025484177
 30
0.0
 11
56.75143705346833
 21
6.879837313069069
 31
0.0
  0
SOLID
  5
220A6
330
21F01
100
AcDbEntity
  8
2
 62
     0
440
 16777216
100
AcDbTrace
 10
55.98965583184936
 20
-6.880149684441225
 30
0.0
 11
57.5129891651299
 21
-6.880162366527129
 31
0.0
 12
56.75128445223191
 22
-11.4501560253258
 32
0.0
 13
56.75128445223191
 23
-11.4501560253258
 33
0.0
  0
SOLID
  5
220A7
330
21F01
100
AcDbEntity
  8
2
 62
     0
440
 16777216
100
AcDbTrace
 10
55.98977038682806
 20
6.879843654112021
 30
0.0
 11
57.51310372010859
 21
6.879830972026117
 31
0.0
 12
56.75147509972604
 22
11.4498373129107
 32
0.0
 13
56.75147509972604
 23
11.4498373129107
 33
0.0
  0
MTEXT
  5
220A8
330
21F01
100
AcDbEntity
  8
2
 62
     0
440
 16777216
100
AcDbMText
 10
54.84988988526062
 20
-0.0098158502110087
 30
0.0
 40
3.5
 41
0.0
 46
0.0
 71
     5
 72
     1
  1
\A1;22.9
 11
0.0000083252205058
 21
0.9999999999653454
 31
0.0
 73
     1
 44
1.0
  0
POINT
  5
220A9
330
21F01
100
AcDbEntity
  8
Defpoints
 62
     0
440
 16777216
100
AcDbPoint
 10
38.01000000000378
 20
-11.45000000000017
 30
0.0
  0
POINT
  5
220AA
330
21F01
100
AcDbEntity
  8
Defpoints
 62
     0
440
 16777216
100
AcDbPoint
 10
37.21000000000359
 20
11.44999999999992
 30
0.0
  0
POINT
  5
220AB
330
21F01
100
AcDbEntity
  8
Defpoints
 62
     0
440
 16777216
100
AcDbPoint
 10
56.75147509972604
 20
11.4498373129107
 30
0.0
  0
ENDBLK
  5
21F03
330
21F01
100
AcDbEntity
  8
0
100
AcDbBlockEnd
  0
BLOCK
  5
21F0E
330
21F0D
100
AcDbEntity
  8
0
100
AcDbBlockBegin
  2
*D13
 70
     1
 10
0.0
 20
0.0
 30
0.0
  3
*D13
  1

  0
LINE
  5
220AC
330
21F0D
100
AcDbEntity
  8
2
 62
     0
440
 16777216
370
    -2
100
AcDbLine
 10
42.32000104065616
 20
0.0624999999913222
 30
0.0
 11
42.32077478508203
 21
46.53240582710711
 31
0.0
  0
LINE
  5
220AD
330
21F0D
100
AcDbEntity
  8
2
 62
     0
440
 16777216
370
    -2
100
AcDbLine
 10
0.0000010406563433
 20
23.16015399999113
 30
0.0
 11
0.0003902106895238
 21
46.53311048017413
 31
0.0
  0
LINE
  5
220AE
330
21F0D
100
AcDbEntity
  8
2
 62
     0
440
 16777216
370
    -2
100
AcDbLine
 10
37.75077178863614
 20
46.35248191964748
 30
0.0
 11
4.570387212976655
 21
46.35303438768366
 31
0.0
  0
SOLID
  5
220AF
330
21F0D
100
AcDbEntity
  8
2
 62
     0
440
 16777216
100
AcDbTrace
 10
37.75078447072205
 20
47.11414858620857
 30
0.0
 11
37.75075910655024
 21
45.5908152530864
 31
0.0
 12
42.32077178800264
 22
46.35240582713207
 32
0.0
 13
42.32077178800264
 23
46.35240582713207
 33
0.0
  0
SOLID
  5
220B0
330
21F0D
100
AcDbEntity
  8
2
 62
     0
440
 16777216
100
AcDbTrace
 10
4.570399895062558
 20
47.11470105424474
 30
0.0
 11
4.570374530890751
 21
45.59136772112258
 31
0.0
 12
0.0003872136101418
 22
46.35311048019908
 32
0.0
 13
0.0003872136101418
 23
46.35311048019908
 33
0.0
  0
MTEXT
  5
220B1
330
21F0D
100
AcDbEntity
  8
2
 62
     0
440
 16777216
100
AcDbMText
 10
21.16017393745384
 20
48.25424797094198
 30
0.0
 40
3.5
 41
0.0
 46
0.0
 71
     5
 72
     1
  1
\A1;42.32
 11
0.9999999998613814
 21
-0.000016650441011
 31
0.0
 73
     1
 44
1.0
  0
POINT
  5
220B2
330
21F0D
100
AcDbEntity
  8
Defpoints
 62
     0
440
 16777216
100
AcDbPoint
 10
42.3200000000036
 20
-0.0000000000000142
 30
0.0
  0
POINT
  5
220B3
330
21F0D
100
AcDbEntity
  8
Defpoints
 62
     0
440
 16777216
100
AcDbPoint
 10
0.0000000000037801
 20
23.0976539999998
 30
0.0
  0
POINT
  5
220B4
330
21F0D
100
AcDbEntity
  8
Defpoints
 62
     0
440
 16777216
100
AcDbPoint
 10
0.0003872136101418
 20
46.35311048019908
 30
0.0
  0
ENDBLK
  5
21F0F
330
21F0D
100
AcDbEntity
  8
0
100
AcDbBlockEnd
  0
BLOCK
  5
21F1A
330
21F19
100
AcDbEntity
  8
0
100
AcDbBlockBegin
  2
*D14
 70
     1
 10
0.0
 20
0.0
 30
0.0
  3
*D14
  1

  0
LINE
  5
220B5
330
21F19
100
AcDbEntity
  8
2
 62
     0
440
 16777216
370
    -2
100
AcDbLine
 10
42.32000104065616
 20
0.0624999999913222
 30
0.0
 11
42.3205833050104
 21
35.03240582870168
 31
0.0
  0
LINE
  5
220B6
330
21F19
100
AcDbEntity
  8
2
 62
     0
440
 16777216
370
    -2
100
AcDbLine
 10
37.21000104065616
 20
22.36249999999116
 30
0.0
 11
37.21021200159259
 21
35.03249091863763
 31
0.0
  0
LINE
  5
220B7
330
21F19
100
AcDbEntity
  8
2
 62
     0
440
 16777216
370
    -2
100
AcDbLine
 10
46.89058030729754
 20
34.85232973621122
 30
0.0
 11
51.46058030666406
 21
34.8522536436958
 31
0.0
  0
LINE
  5
220B8
330
21F19
100
AcDbEntity
  8
2
 62
     0
440
 16777216
370
    -2
100
AcDbLine
 10
32.64020900514669
 20
34.852567011178
 30
0.0
 11
19.31902137522938
 21
34.85278881482686
 31
0.0
  0
LINE
  5
220B9
330
21F19
100
AcDbEntity
  8
2
 62
     0
440
 16777216
370
    -2
100
AcDbLine
 10
42.32058030793102
 20
34.85240582872664
 30
0.0
 11
37.21020900451321
 21
34.85249091866258
 31
0.0
  0
SOLID
  5
220BA
330
21F19
100
AcDbEntity
  8
2
 62
     0
440
 16777216
100
AcDbTrace
 10
46.89059298938344
 20
35.6139964027723
 30
0.0
 11
46.89056762521163
 21
34.09066306965014
 31
0.0
 12
42.32058030793102
 22
34.85240582872664
 32
0.0
 13
42.32058030793102
 23
34.85240582872664
 33
0.0
  0
SOLID
  5
220BB
330
21F19
100
AcDbEntity
  8
2
 62
     0
440
 16777216
100
AcDbTrace
 10
32.6402216872326
 20
35.61423367773908
 30
0.0
 11
32.64019632306079
 21
34.09090034461692
 31
0.0
 12
37.21020900451321
 22
34.85249091866258
 32
0.0
 13
37.21020900451321
 23
34.85249091866258
 33
0.0
  0
MTEXT
  5
220BC
330
21F19
100
AcDbEntity
  8
2
 62
     0
440
 16777216
100
AcDbMText
 10
23.6946468511487
 20
36.75420576925657
 30
0.0
 40
3.5
 41
0.0
 46
0.0
 71
     5
 72
     1
  1
\A1;5.11
 11
0.9999999998613814
 21
-0.000016650441011
 31
0.0
 73
     1
 44
1.0
  0
POINT
  5
220BD
330
21F19
100
AcDbEntity
  8
Defpoints
 62
     0
440
 16777216
100
AcDbPoint
 10
42.3200000000036
 20
-0.0000000000000142
 30
0.0
  0
POINT
  5
220BE
330
21F19
100
AcDbEntity
  8
Defpoints
 62
     0
440
 16777216
100
AcDbPoint
 10
37.2100000000036
 20
22.29999999999983
 30
0.0
  0
POINT
  5
220BF
330
21F19
100
AcDbEntity
  8
Defpoints
 62
     0
440
 16777216
100
AcDbPoint
 10
37.21020900451321
 20
34.85249091866258
 30
0.0
  0
ENDBLK
  5
21F1B
330
21F19
100
AcDbEntity
  8
0
100
AcDbBlockEnd
  0
BLOCK
  5
21F28
330
21F27
100
AcDbEntity
  8
0
100
AcDbBlockBegin
  2
*D15
 70
     1
 10
0.0
 20
0.0
 30
0.0
  3
*D15
  1

  0
LINE
  5
220C0
330
21F27
100
AcDbEntity
  8
2
 62
     0
440
 16777216
370
    -2
100
AcDbLine
 10
36.07250000000377
 20
23.49999999999999
 30
0.0
 11
70.93137977742433
 21
23.49999999999997
 31
0.0
  0
LINE
  5
220C1
330
21F27
100
AcDbEntity
  8
2
 62
     0
440
 16777216
370
    -2
100
AcDbLine
 10
36.07250000000377
 20
-23.50000000000013
 30
0.0
 11
70.93137977742433
 21
-23.50000000000015
 31
0.0
  0
LINE
  5
220C2
330
21F27
100
AcDbEntity
  8
2
 62
     0
440
 16777216
370
    -2
100
AcDbLine
 10
70.75137977742432
 20
18.92999999999997
 30
0.0
 11
70.75137977742432
 21
-18.93000000000014
 31
0.0
  0
SOLID
  5
220C3
330
21F27
100
AcDbEntity
  8
2
 62
     0
440
 16777216
100
AcDbTrace
 10
69.98971311075765
 20
18.92999999999997
 30
0.0
 11
71.51304644409099
 21
18.92999999999997
 31
0.0
 12
70.75137977742432
 22
23.49999999999997
 32
0.0
 13
70.75137977742432
 23
23.49999999999997
 33
0.0
  0
SOLID
  5
220C4
330
21F27
100
AcDbEntity
  8
2
 62
     0
440
 16777216
100
AcDbTrace
 10
69.98971311075765
 20
-18.93000000000014
 30
0.0
 11
71.51304644409099
 21
-18.93000000000014
 31
0.0
 12
70.75137977742432
 22
-23.50000000000015
 32
0.0
 13
70.75137977742432
 23
-23.50000000000015
 33
0.0
  0
MTEXT
  5
220C5
330
21F27
100
AcDbEntity
  8
2
 62
     0
440
 16777216
100
AcDbMText
 10
68.79823852654588
 20
-0.0000440289758356
 30
0.0
 40
3.5
 41
0.0
 46
0.0
 71
     5
 72
     1
  1
\A1;%%c47
 11
0.0000000000000001
 21
1.0
 31
0.0
 73
     1
 44
1.0
  0
POINT
  5
220C6
330
21F27
100
AcDbEntity
  8
Defpoints
 62
     0
440
 16777216
100
AcDbPoint
 10
36.01000000000377
 20
23.49999999999999
 30
0.0
  0
POINT
  5
220C7
330
21F27
100
AcDbEntity
  8
Defpoints
 62
     0
440
 16777216
100
AcDbPoint
 10
36.01000000000377
 20
-23.50000000000013
 30
0.0
  0
POINT
  5
220C8
330
21F27
100
AcDbEntity
  8
Defpoints
 62
     0
440
 16777216
100
AcDbPoint
 10
70.75137977742432
 20
-23.50000000000015
 30
0.0
  0
ENDBLK
  5
21F29
330
21F27
100
AcDbEntity
  8
0
100
AcDbBlockEnd
  0
BLOCK
  5
21F34
330
21F33
100
AcDbEntity
  8
0
100
AcDbBlockBegin
  2
*D16
 70
     1
 10
0.0
 20
0.0
 30
0.0
  3
*D16
  1

  0
LINE
  5
220C9
330
21F33
100
AcDbEntity
  8
SK2
 62
     0
440
 16777216
370
    -2
100
AcDbLine
 10
-18.76249999999643
 20
9.199999999999803
 30
0.0
 11
-35.49722024185703
 21
9.199999999999809
 31
0.0
  0
LINE
  5
220CA
330
21F33
100
AcDbEntity
  8
SK2
 62
     0
440
 16777216
370
    -2
100
AcDbLine
 10
-18.76249999999643
 20
-9.200000000000173
 30
0.0
 11
-35.49722024185703
 21
-9.200000000000168
 31
0.0
  0
LINE
  5
220CB
330
21F33
100
AcDbEntity
  8
SK2
 62
     0
440
 16777216
370
    -2
100
AcDbLine
 10
-35.31722024185703
 20
4.629999999999809
 30
0.0
 11
-35.31722024185703
 21
-4.630000000000166
 31
0.0
  0
SOLID
  5
220CC
330
21F33
100
AcDbEntity
  8
SK2
 62
     0
440
 16777216
100
AcDbTrace
 10
-36.0788869085237
 20
4.629999999999809
 30
0.0
 11
-34.55555357519036
 21
4.629999999999809
 31
0.0
 12
-35.31722024185703
 22
9.199999999999809
 32
0.0
 13
-35.31722024185703
 23
9.199999999999809
 33
0.0
  0
SOLID
  5
220CD
330
21F33
100
AcDbEntity
  8
SK2
 62
     0
440
 16777216
100
AcDbTrace
 10
-36.0788869085237
 20
-4.630000000000166
 30
0.0
 11
-34.55555357519036
 21
-4.630000000000166
 31
0.0
 12
-35.31722024185703
 22
-9.200000000000168
 32
0.0
 13
-35.31722024185703
 23
-9.200000000000168
 33
0.0
  0
MTEXT
  5
220CE
330
21F33
100
AcDbEntity
  8
SK2
 62
     0
440
 16777216
100
AcDbMText
 10
-37.27036149273545
 20
-0.1227029160794612
 30
0.0
 40
3.5
 41
0.0
 46
0.0
 71
     5
 72
     1
  1
\A1;%%C18.4
 11
0.0000000000000001
 21
1.0
 31
0.0
 73
     1
 44
1.0
  0
POINT
  5
220CF
330
21F33
100
AcDbEntity
  8
Defpoints
 62
     0
440
 16777216
100
AcDbPoint
 10
-18.69999999999643
 20
9.199999999999803
 30
0.0
  0
POINT
  5
220D0
330
21F33
100
AcDbEntity
  8
Defpoints
 62
     0
440
 16777216
100
AcDbPoint
 10
-18.69999999999643
 20
-9.200000000000173
 30
0.0
  0
POINT
  5
220D1
330
21F33
100
AcDbEntity
  8
Defpoints
 62
     0
440
 16777216
100
AcDbPoint
 10
-35.31722024185703
 20
-9.200000000000168
 30
0.0
  0
ENDBLK
  5
21F35
330
21F33
100
AcDbEntity
  8
0
100
AcDbBlockEnd
  0
ENDSEC
  0
SECTION
  2
ENTITIES
  0
MTEXT
  5
211A0
330
1F
100
AcDbEntity
  8
SK6
100
AcDbMText
 10
-12.85027429835369
 20
-40.64691788834291
 30
0.0
 40
3.5
 41
41.87058589293636
 46
0.0
 71
     2
 72
     1
  1
CD4700042YRR00
 73
     1
 44
1.0
1001
ACAD
1000
MTEXTBEGIN
1070
    73
1070
     1
1070
    44
1040
1.0
1070
    74
1070
     0
1000
MTEXTEND
  0
INSERT
  5
21DE3
330
1F
100
AcDbEntity
  8
1
100
AcDbBlockReference
  2
cero_point
 10
0.0000000000001421
 20
-0.0000000000000142
 30
0.0
  0
LINE
  5
21DE7
330
1F
100
AcDbEntity
  8
INFTOTAL
100
AcDbLine
 10
-132.6049326510891
 20
20.26347535032572
 30
0.0
 11
-132.6049326510891
 21
63.85519774656448
 31
0.0
  0
LINE
  5
21DE8
330
1F
100
AcDbEntity
  8
INFTOTAL
100
AcDbLine
 10
-132.6049326510891
 20
63.85519774656448
 30
0.0
 11
-76.20114628233008
 21
63.85519774656448
 31
0.0
  0
LINE
  5
21DE9
330
1F
100
AcDbEntity
  8
INFTOTAL
100
AcDbLine
 10
35.50953194589707
 20
-58.88023682187168
 30
0.0
 11
90.86831319698118
 21
-58.88023682187168
 31
0.0
  0
LINE
  5
21DEA
330
1F
100
AcDbEntity
  8
INFTOTAL
100
AcDbLine
 10
90.86831319698118
 20
-58.88023682187168
 30
0.0
 11
90.86831319698118
 21
-18.43212062527712
 31
0.0
  0
DIMENSION
  5
21DEB
330
1F
100
AcDbEntity
  8
2
100
AcDbDimension
280
     0
  2
*D12
 10
56.75147509972604
 20
11.4498373129107
 30
0.0
 11
56.75137969545474
 21
-0.0098316805329688
 31
0.0
 70
   160
 71
     5
 42
22.8999933390301
 73
     0
 74
     0
 75
     0
  3
STANDARD
100
AcDbAlignedDimension
 13
38.01000000000377
 23
-11.45000000000017
 33
0.0
 14
37.21000000000359
 24
11.44999999999992
 34
0.0
 50
89.99952300000151
100
AcDbRotatedDimension
1001
ACAD_DSTYLE_DIMARC_LENGTH_SYMBOL
1070
   379
1070
     1
1001
ACAD_DSTYLE_DIM_LINETYPE
1070
   380
1005
14
1001
ACAD_DSTYLE_DIM_EXT1_LINETYPE
1070
   381
1005
14
1001
ACAD_DSTYLE_DIM_EXT2_LINETYPE
1070
   382
1005
14
1001
ACAD
1000
DSTYLE
1002
{
1070
   172
1070
     1
1002
}
  0
DIMENSION
  5
21DEC
330
1F
100
AcDbEntity
  8
2
100
AcDbDimension
280
     0
  2
*D13
 10
0.0003872136101418
 20
46.35311048019908
 30
0.0
 11
21.16014227680993
 21
46.35275816094554
 31
0.0
 70
   160
 71
     5
 42
42.3203845802589
 73
     0
 74
     0
 75
     0
  3
STANDARD
100
AcDbAlignedDimension
 13
42.3200000000036
 23
-0.0000000000000142
 33
0.0
 14
0.0000000000037801
 24
23.09765399999979
 34
0.0
 50
179.999046000003
100
AcDbRotatedDimension
1001
ACAD_DSTYLE_DIMARC_LENGTH_SYMBOL
1070
   379
1070
     1
1001
ACAD_DSTYLE_DIM_LINETYPE
1070
   380
1005
14
1001
ACAD_DSTYLE_DIM_EXT1_LINETYPE
1070
   381
1005
14
1001
ACAD_DSTYLE_DIM_EXT2_LINETYPE
1070
   382
1005
14
1001
ACAD
1000
DSTYLE
1002
{
1070
   172
1070
     1
1002
}
  0
DIMENSION
  5
21DED
330
1F
100
AcDbEntity
  8
2
100
AcDbDimension
280
     0
  2
*D14
 10
37.21020900451321
 20
34.85249091866258
 30
0.0
 11
23.69461519050478
 21
34.85271595926014
 31
0.0
 70
   160
 71
     5
 42
5.110371304126211
 73
     0
 74
     0
 75
     0
  3
STANDARD
100
AcDbAlignedDimension
 13
42.3200000000036
 23
-0.0000000000000142
 33
0.0
 14
37.21000000000359
 24
22.29999999999983
 34
0.0
 50
179.999046000003
100
AcDbRotatedDimension
1001
ACAD_DSTYLE_DIMARC_LENGTH_SYMBOL
1070
   379
1070
     1
1001
ACAD_DSTYLE_DIM_LINETYPE
1070
   380
1005
14
1001
ACAD_DSTYLE_DIM_EXT1_LINETYPE
1070
   381
1005
14
1001
ACAD_DSTYLE_DIM_EXT2_LINETYPE
1070
   382
1005
14
1001
ACAD
1000
DSTYLE
1002
{
1070
   172
1070
     1
1002
}
  0
DIMENSION
  5
21DEE
330
1F
100
AcDbEntity
  8
2
100
AcDbDimension
280
     0
  2
*D15
 10
70.75137977742432
 20
-23.50000000000015
 30
0.0
 11
70.75137977742432
 21
-0.0000440289758359
 31
0.0
 70
   161
  1
%%c<>
 71
     5
 42
47.00000000000012
 73
     0
 74
     0
 75
     0
  3
STANDARD
100
AcDbAlignedDimension
 13
36.01000000000377
 23
23.49999999999999
 33
0.0
 14
36.01000000000377
 24
-23.50000000000013
 34
0.0
1001
ACAD_DSTYLE_DIMARC_LENGTH_SYMBOL
1070
   379
1070
     1
1001
ACAD_DSTYLE_DIM_LINETYPE
1070
   380
1005
14
1001
ACAD_DSTYLE_DIM_EXT1_LINETYPE
1070
   381
1005
14
1001
ACAD_DSTYLE_DIM_EXT2_LINETYPE
1070
   382
1005
14
1001
ACAD
1000
DSTYLE
1002
{
1070
   172
1070
     1
1002
}
  0
LINE
  5
21DEF
330
1F
100
AcDbEntity
  8
SK4
100
AcDbLine
 10
-21.56671299999644
 20
-0.0000000000000142
 30
0.0
 11
0.0
 21
0.0
 31
0.0
  0
LINE
  5
21DF0
330
1F
100
AcDbEntity
  8
SK3
100
AcDbLine
 10
0.0000000000037801
 20
11.49999999999987
 30
0.0
 11
36.21000000000359
 21
11.49999999999987
 31
0.0
  0
LINE
  5
21DF1
330
1F
100
AcDbEntity
  8
SK3
100
AcDbLine
 10
0.0000000000037801
 20
6.899999999999963
 30
0.0
 11
36.21000000000359
 21
6.899999999999963
 31
0.0
  0
LINE
  5
21DF2
330
1F
100
AcDbEntity
  8
SK3
100
AcDbLine
 10
0.0000000000037801
 20
-6.899999999999991
 30
0.0
 11
36.21000000000359
 21
-6.899999999999991
 31
0.0
  0
LINE
  5
21DF3
330
1F
100
AcDbEntity
  8
SK3
100
AcDbLine
 10
0.0000000000037801
 20
-11.50000000000001
 30
0.0
 11
36.21000000000359
 21
-11.50000000000001
 31
0.0
  0
LINE
  5
21DF5
330
1F
100
AcDbEntity
  8
1
100
AcDbLine
 10
37.21000000000359
 20
11.44999999999992
 30
0.0
 11
34.59800000000357
 21
11.44999999999992
 31
0.0
  0
LINE
  5
21DF9
330
1F
100
AcDbEntity
  8
1
100
AcDbLine
 10
21.6050000000038
 20
5.534709999999776
 30
0.0
 11
21.6050000000038
 21
4.821145999999984
 31
0.0
  0
ARC
  5
21DFC
330
1F
100
AcDbEntity
  8
1
100
AcDbCircle
 10
33.31381800000381
 20
9.191265999999913
 30
0.0
 40
7.712139999999997
100
AcDbArc
 50
292.0572669999972
 51
295.6584989999988
  0
LINE
  5
21DFD
330
1F
100
AcDbEntity
  8
1
100
AcDbLine
 10
36.65320600000351
 20
2.239649999999969
 30
0.0
 11
36.21000000000382
 21
2.290921000000011
 31
0.0
  0
LINE
  5
21DFE
330
1F
100
AcDbEntity
  8
1
100
AcDbLine
 10
39.40127300000361
 20
3.688972999999791
 30
0.0
 11
39.3979560000038
 21
3.710137999999787
 31
0.0
  0
ARC
  5
21DFF
330
1F
100
AcDbEntity
  8
1
100
AcDbCircle
 10
-222.7697889999962
 20
-37.67369700000008
 30
0.0
 40
265.414516
100
AcDbArc
 50
8.970266000000208
 51
9.931313000000031
  0
LINE
  5
21E00
330
1F
100
AcDbEntity
  8
1
100
AcDbLine
 10
38.66817900000379
 20
8.101776999999955
 30
0.0
 11
38.01000000000377
 21
8.594643000000004
 31
0.0
  0
ARC
  5
21E01
330
1F
100
AcDbEntity
  8
1
100
AcDbCircle
 10
0.6498130000037748
 20
-202.1862269999998
 30
0.0
 40
214.066227
100
AcDbArc
 50
79.94890800000011
 51
80.87509100000284
  0
ARC
  5
21E02
330
1F
100
AcDbEntity
  8
1
100
AcDbCircle
 10
47.40436900000363
 20
-103.8747950000002
 30
0.0
 40
113.769025
100
AcDbArc
 50
96.46318799999725
 51
99.02393600000161
  0
ARC
  5
21E03
330
1F
100
AcDbEntity
  8
1
100
AcDbCircle
 10
18.47053200000377
 20
40.05957299999998
 30
0.0
 40
41.963512
100
AcDbArc
 50
295.6768379999976
 51
299.9197879999949
  0
LINE
  5
21E04
330
1F
100
AcDbEntity
  8
1
100
AcDbLine
 10
34.59800000000357
 20
9.170961999999789
 30
0.0
 11
34.59800000000357
 21
11.44999999999992
 31
0.0
  0
LINE
  5
21E05
330
1F
100
AcDbEntity
  8
1
100
AcDbLine
 10
29.56000000000356
 20
10.10007199999982
 30
0.0
 11
34.59800000000357
 21
11.44999999999992
 31
0.0
  0
LINE
  5
21E0A
330
1F
100
AcDbEntity
  8
1
100
AcDbLine
 10
36.21000000000382
 20
0.7268219999999559
 30
0.0
 11
42.12582600000351
 21
-0.2299330000002016
 31
0.0
  0
ARC
  5
21E0B
330
1F
100
AcDbEntity
  8
1
100
AcDbCircle
 10
43.74508600000379
 20
9.076290999999955
 30
0.0
 40
15.698697
100
AcDbArc
 50
241.3138780000052
 51
254.0827549999993
  0
ARC
  5
21E0C
330
1F
100
AcDbEntity
  8
1
100
AcDbCircle
 10
42.90507200000379
 20
-6.820266000000074
 30
0.0
 40
3.556326999999998
100
AcDbArc
 50
154.2349299999962
 51
167.0191509999992
  0
LINE
  5
21E0D
330
1F
100
AcDbEntity
  8
1
100
AcDbLine
 10
40.75298100000376
 20
-3.115260000000048
 30
0.0
 11
39.70243000000383
 21
-5.274457000000225
 31
0.0
  0
SPLINE
  5
21E0E
330
1F
100
AcDbEntity
  8
1
100
AcDbSpline
210
0.0
220
0.0
230
1.0
 70
     8
 71
     5
 72
    24
 73
    18
 74
     0
 42
0.000000001
 43
0.0000000001
 40
0.0
 40
0.0
 40
0.0
 40
0.0
 40
0.0
 40
0.0
 40
26.85704559904151
 40
26.85704559904151
 40
26.85704559904151
 40
42.74894214930577
 40
42.74894214930577
 40
42.74894214930577
 40
49.08274427387884
 40
49.08274427387884
 40
49.08274427387884
 40
52.73256905653941
 40
52.73256905653941
 40
52.73256905653941
 40
53.59225429114381
 40
53.59225429114381
 40
53.59225429114381
 40
53.59225429114381
 40
53.59225429114381
 40
53.59225429114381
 10
42.12582648081971
 20
-0.2299334609969179
 30
0.0
 10
42.11181613025146
 20
-0.2666610414095345
 30
0.0
 10
42.09418252217725
 20
-0.3104820965489949
 30
0.0
 10
42.07232274282367
 20
-0.3620694781481148
 30
0.0
 10
42.02681064347976
 20
-0.4668447328664485
 30
0.0
 10
41.92646890217591
 20
-0.6835462872949308
 30
0.0
 10
41.87660391541842
 20
-0.7896475750839187
 30
0.0
 10
41.7930924174158
 20
-0.9664444223424339
 30
0.0
 10
41.60039699883069
 20
-1.36718282370397
 30
0.0
 10
41.53519129517579
 20
-1.502449813213516
 30
0.0
 10
41.4041610881425
 20
-1.773673504887611
 30
0.0
 10
41.20115995192523
 20
-2.192464683053358
 30
0.0
 10
41.11119021555239
 20
-2.377924149674996
 30
0.0
 10
40.98645955918667
 20
-2.634810223522109
 30
0.0
 10
40.84072933953533
 20
-2.934720451514309
 30
0.0
 10
40.81219585405747
 20
-2.993434595579074
 30
0.0
 10
40.78295283549803
 20
-3.053600702806889
 30
0.0
 10
40.75298076452887
 20
-3.11525972238634
 30
0.0
  0
SPLINE
  5
21E0F
330
1F
100
AcDbEntity
  8
1
100
AcDbSpline
210
0.0
220
0.0
230
1.0
 70
     8
 71
     5
 72
    48
 73
    42
 74
     0
 42
0.000000001
 43
0.0000000001
 40
0.0
 40
0.0
 40
0.0
 40
0.0
 40
0.0
 40
0.0
 40
36.997079135666
 40
36.997079135666
 40
36.997079135666
 40
86.86683690061148
 40
86.86683690061148
 40
86.86683690061148
 40
112.7674524302351
 40
112.7674524302351
 40
112.7674524302351
 40
116.882148592442
 40
116.882148592442
 40
116.882148592442
 40
118.9395138361927
 40
118.9395138361927
 40
118.9395138361927
 40
120.9968790799435
 40
120.9968790799435
 40
120.9968790799435
 40
122.5495702250183
 40
122.5495702250183
 40
122.5495702250183
 40
123.0671590002541
 40
123.0671590002541
 40
123.0671590002541
 40
123.3271650330816
 40
123.3271650330816
 40
123.3271650330816
 40
123.5871710659092
 40
123.5871710659092
 40
123.5871710659092
 40
123.8485621228864
 40
123.8485621228864
 40
123.8485621228864
 40
124.1099531798637
 40
124.1099531798637
 40
124.1099531798637
 40
125.1769135979711
 40
125.1769135979711
 40
125.1769135979711
 40
125.1769135979711
 40
125.1769135979711
 40
125.1769135979711
 10
42.12582648081971
 20
-0.2299334609969179
 30
0.0
 10
42.14512949247356
 20
-0.1793313786862569
 30
0.0
 10
42.15359873768526
 20
-0.1468787335781059
 30
0.0
 10
42.16104713031441
 20
-0.1157920602771725
 30
0.0
 10
42.17108004119213
 20
-0.05157105694731
 30
0.0
 10
42.16939013174297
 20
0.0053307481835958
 30
0.0
 10
42.16537309782021
 20
0.0380657219567269
 30
0.0
 10
42.15516780776127
 20
0.0926065207550977
 30
0.0
 10
42.12514368283305
 20
0.1764882971644823
 30
0.0
 10
42.11299209483676
 20
0.2050721383593412
 30
0.0
 10
42.09684564047998
 20
0.2455172235403182
 30
0.0
 10
42.05594602635895
 20
0.3251052532597072
 30
0.0
 10
42.04985771796535
 20
0.3367245227855022
 30
0.0
 10
42.03991268543032
 20
0.3553968040194917
 30
0.0
 10
42.0276881976346
 20
0.3776117361085056
 30
0.0
 10
42.02330314725
 20
0.3854992326855466
 30
0.0
 10
42.01375596678386
 20
0.402477244920064
 30
0.0
 10
42.00223056639404
 20
0.422466485016102
 30
0.0
 10
41.99566375571182
 20
0.4337018100811605
 30
0.0
 10
41.98399459671001
 20
0.4533508300056468
 30
0.0
 10
41.96993968133599
 20
0.4764681457685214
 30
0.0
 10
41.96316699338879
 20
0.4875098014015152
 30
0.0
 10
41.95229390373348
 20
0.5050407907477706
 30
0.0
 10
41.93675133302216
 20
0.5292966456070048
 30
0.0
 10
41.93250494656914
 20
0.5358671576159253
 30
0.0
 10
41.92649783900813
 20
0.5451039580562878
 30
0.0
 10
41.91933179401772
 20
0.5559924263593388
 30
0.0
 10
41.91672900131348
 20
0.5599325669414697
 30
0.0
 10
41.9108809010759
 20
0.5687450887090649
 30
0.0
 10
41.90317574362055
 20
0.5802085055029096
 30
0.0
 10
41.89406821821049
 20
0.5934620158536604
 30
0.0
 10
41.89446591159279
 20
0.5932365549370929
 30
0.0
 10
41.86332673923189
 20
0.6378925978483352
 30
0.0
 10
41.84424568342004
 20
0.6640040658552238
 30
0.0
 10
41.82763391607832
 20
0.6863949362493571
 30
0.0
 10
41.81639563280046
 20
0.7011636972721221
 30
0.0
 10
41.81122942142931
 20
0.7079048854908337
 30
0.0
 10
41.78734562900595
 20
0.7387806269544939
 30
0.0
 10
41.77067420851486
 20
0.759312603007956
 30
0.0
 10
41.75962583342382
 20
0.7727782908036574
 30
0.0
 10
41.74804373013549
 20
0.7865584562459702
 30
0.0
 10
41.73720344742676
 20
0.7992099032412483
 30
0.0
  0
LINE
  5
21E10
330
1F
100
AcDbEntity
  8
1
100
AcDbLine
 10
41.7372030000038
 20
0.7992100000000022
 30
0.0
 11
36.21000000000382
 21
1.693113999999795
 31
0.0
  0
LINE
  5
21E11
330
1F
100
AcDbEntity
  8
1
100
AcDbLine
 10
39.70243000000383
 20
3.160234999999929
 30
0.0
 11
41.7372030000038
 21
0.7992100000000022
 31
0.0
  0
ARC
  5
21E12
330
1F
100
AcDbEntity
  8
1
100
AcDbCircle
 10
40.8453600000038
 20
4.162723999999784
 30
0.0
 40
1.520032999999999
100
AcDbArc
 50
198.1627589999962
 51
221.2547400000044
  0
LINE
  5
21E13
330
1F
100
AcDbEntity
  8
1
100
AcDbLine
 10
39.3979560000038
 20
6.929734999999922
 30
0.0
 11
39.3979560000038
 21
3.710137999999787
 31
0.0
  0
LINE
  5
21E14
330
1F
100
AcDbEntity
  8
1
100
AcDbLine
 10
39.70243000000383
 20
5.929666999999867
 30
0.0
 11
39.70243000000383
 21
3.160234999999929
 31
0.0
  0
LINE
  5
21E15
330
1F
100
AcDbEntity
  8
1
100
AcDbLine
 10
38.66817900000379
 20
11.06999999999981
 30
0.0
 11
38.66817900000379
 21
8.101776999999955
 31
0.0
  0
LINE
  5
21E16
330
1F
100
AcDbEntity
  8
1
100
AcDbLine
 10
38.01000000000377
 20
11.44999999999992
 30
0.0
 11
38.01000000000377
 21
8.594643000000004
 31
0.0
  0
LINE
  5
21E17
330
1F
100
AcDbEntity
  8
1
100
AcDbLine
 10
39.70243000000383
 20
-5.274457000000225
 30
0.0
 11
39.70243000000383
 21
-5.929667000000009
 31
0.0
  0
LINE
  5
21E18
330
1F
100
AcDbEntity
  8
1
100
AcDbLine
 10
39.43948400000378
 20
-6.719315000000179
 30
0.0
 11
39.43948400000378
 21
-6.021391999999892
 31
0.0
  0
LINE
  5
21E19
330
1F
100
AcDbEntity
  8
1
100
AcDbLine
 10
39.43948400000378
 20
-6.719315000000179
 30
0.0
 11
39.4220480000038
 21
-6.8040060000002
 31
0.0
  0
LINE
  5
21E1A
330
1F
100
AcDbEntity
  8
1
100
AcDbLine
 10
39.4220480000038
 20
-6.8040060000002
 30
0.0
 11
39.3979560000038
 21
-6.929735000000064
 31
0.0
  0
LINE
  5
21E1B
330
1F
100
AcDbEntity
  8
1
100
AcDbLine
 10
39.24848300000352
 20
-7.778933000000179
 30
0.0
 11
39.3979560000038
 21
-6.929735000000064
 31
0.0
  0
LINE
  5
21E1C
330
1F
100
AcDbEntity
  8
1
100
AcDbLine
 10
39.24848300000352
 20
-7.778933000000179
 30
0.0
 11
38.66817900000379
 21
-11.07000000000006
 31
0.0
  0
LINE
  5
21E1D
330
1F
100
AcDbEntity
  8
1
100
AcDbLine
 10
38.66817900000379
 20
-11.07000000000006
 30
0.0
 11
38.01000000000377
 21
-11.45000000000017
 31
0.0
  0
LINE
  5
21E1E
330
1F
100
AcDbEntity
  8
1
100
AcDbLine
 10
38.01000000000377
 20
-11.45000000000017
 30
0.0
 11
37.21000000000382
 21
-11.45000000000017
 31
0.0
  0
LINE
  5
21E1F
330
1F
100
AcDbEntity
  8
1
100
AcDbLine
 10
36.20998400000352
 20
-7.778933000000179
 30
0.0
 11
39.24848300000352
 21
-7.778933000000179
 31
0.0
  0
LINE
  5
21E20
330
1F
100
AcDbEntity
  8
1
100
AcDbLine
 10
36.21000000000382
 20
-6.719315000000179
 30
0.0
 11
39.43948400000378
 21
-6.719315000000179
 31
0.0
  0
ARC
  5
21E22
330
1F
100
AcDbEntity
  8
1
100
AcDbCircle
 10
43.68285500000379
 20
-7.686771000000149
 30
0.0
 40
4.350999999999999
100
AcDbArc
 50
156.1815950000026
 51
168.2995749999985
  0
LINE
  5
21E24
330
1F
100
AcDbEntity
  8
1
100
AcDbLine
 10
42.32000000000383
 20
-0.0000000000000142
 30
0.0
 11
39.70243000000383
 21
-5.929667000000009
 31
0.0
  0
LINE
  5
21E25
330
1F
100
AcDbEntity
  8
1
100
AcDbLine
 10
22.80000000000356
 20
22.66103499999996
 30
0.0
 11
22.85559600000377
 21
22.66103499999996
 31
0.0
  0
ARC
  5
21E26
330
1F
100
AcDbEntity
  8
1
100
AcDbCircle
 10
15.28237500000378
 20
-741.9502989999998
 30
0.0
 40
765.2003179999996
100
AcDbArc
 50
90.00185800000233
 51
91.14437200000031
  0
LINE
  5
21E27
330
1F
100
AcDbEntity
  8
1
100
AcDbLine
 10
22.80000000000356
 20
23.24999999999999
 30
0.0
 11
15.25756700000377
 21
23.24999999999999
 31
0.0
  0
CIRCLE
  5
21E28
330
1F
100
AcDbEntity
  8
1
100
AcDbCircle
 10
30.00500000000378
 20
16.29499999999994
 30
0.0
 40
2.08
  0
LINE
  5
21E29
330
1F
100
AcDbEntity
  8
1
100
AcDbLine
 10
29.56000000000356
 20
9.08999999999979
 30
0.0
 11
22.80000000000356
 21
9.08999999999979
 31
0.0
  0
ARC
  5
21E2A
330
1F
100
AcDbEntity
  8
1
100
AcDbCircle
 10
51.30544600000352
 20
184.9453139999999
 30
0.0
 40
178.601522
100
AcDbArc
 50
260.8161110000023
 51
263.0066580000005
  0
LINE
  5
21E2B
330
1F
100
AcDbEntity
  8
1
100
AcDbLine
 10
22.80000000000356
 20
8.568779999999932
 30
0.0
 11
22.80000000000356
 21
8.633251999999956
 31
0.0
  0
SPLINE
  5
21E2C
330
1F
100
AcDbEntity
  8
1
100
AcDbSpline
210
0.0
220
0.0
230
1.0
 70
     8
 71
     5
 72
    12
 73
     6
 74
     0
 42
0.000000001
 43
0.0000000001
 40
0.0
 40
0.0
 40
0.0
 40
0.0
 40
0.0
 40
0.0
 40
14.43408592708637
 40
14.43408592708637
 40
14.43408592708637
 40
14.43408592708637
 40
14.43408592708637
 40
14.43408592708637
 10
14.65976015980365
 20
8.312332493359448
 30
0.0
 10
16.25474652784228
 20
8.446317540933918
 30
0.0
 10
17.87427014974767
 20
8.523312395354409
 30
0.0
 10
19.51379476952374
 20
8.560550035657669
 30
0.0
 10
21.15357982998038
 20
8.572383051363985
 30
0.0
 10
22.80000000000356
 20
8.568779872799936
 30
0.0
  0
LINE
  5
21E2D
330
1F
100
AcDbEntity
  8
1
100
AcDbLine
 10
14.64672700000378
 20
8.215884999999829
 30
0.0
 11
14.65976000000378
 21
8.312331999999841
 31
0.0
  0
SPLINE
  5
21E2E
330
1F
100
AcDbEntity
  8
1
100
AcDbSpline
210
0.0
220
0.0
230
1.0
 70
     8
 71
     5
 72
    15
 73
     9
 74
     0
 42
0.000000001
 43
0.0000000001
 40
0.0
 40
0.0
 40
0.0
 40
0.0
 40
0.0
 40
0.0
 40
8.299923199333717
 40
8.299923199333717
 40
8.299923199333717
 40
9.248055334119392
 40
9.248055334119392
 40
9.248055334119392
 40
9.248055334119392
 40
9.248055334119392
 40
9.248055334119392
 10
9.92429469645603
 20
6.936433134654052
 30
0.0
 10
10.70628908144957
 20
7.236119035495434
 30
0.0
 10
11.53410863403744
 20
7.499835999330102
 30
0.0
 10
12.38694842185217
 20
7.731159244004501
 30
0.0
 10
13.35653835483632
 20
7.958247006126029
 30
0.0
 10
14.34250917249446
 20
8.156623840445931
 30
0.0
 10
14.44375870733884
 20
8.176666132879276
 30
0.0
 10
14.54516535587797
 20
8.196417938211183
 30
0.0
 10
14.646727273104
 20
8.215885488900411
 30
0.0
  0
LINE
  5
21E2F
330
1F
100
AcDbEntity
  8
1
100
AcDbLine
 10
21.6050000000038
 20
4.821190999999984
 30
0.0
 11
21.6050000000038
 21
5.534605999999811
 31
0.0
  0
ARC
  5
21E30
330
1F
100
AcDbEntity
  8
1
100
AcDbCircle
 10
31.57420900000378
 20
-498.6391149999994
 30
0.0
 40
504.273034
100
AcDbArc
 50
90.22885599999959
 51
91.13278299999942
  0
LINE
  5
21E31
330
1F
100
AcDbEntity
  8
1
100
AcDbLine
 10
22.80000000000356
 20
9.08999999999979
 30
0.0
 11
22.80000000000356
 21
8.633251999999956
 31
0.0
  0
LINE
  5
21E32
330
1F
100
AcDbEntity
  8
1
100
AcDbLine
 10
0.0000000000037801
 20
23.09765399999979
 30
0.0
 11
0.0000000000037801
 21
9.210727999999775
 31
0.0
  0
ARC
  5
21E33
330
1F
100
AcDbEntity
  8
1
100
AcDbCircle
 10
15.26561400000381
 20
741.5499279999997
 30
0.0
 40
764.7999379999999
100
AcDbArc
 50
268.8562849999974
 51
269.9993970000006
  0
ARC
  5
21E34
330
1F
100
AcDbEntity
  8
SK1
100
AcDbCircle
 10
10.32818200000363
 20
1940.452227999999
 30
0.0
 40
1949.652648
100
AcDbArc
 50
269.1762879999976
 51
269.6964769999984
  0
ARC
  5
21E35
330
1F
100
AcDbEntity
  8
SK1
100
AcDbCircle
 10
32.26599500000364
 20
50.37758099999983
 30
0.0
 40
77.60238499999998
100
AcDbArc
 50
228.9467719999984
 51
229.9190300000017
  0
LINE
  5
21E36
330
1F
100
AcDbEntity
  8
SK1
100
AcDbLine
 10
-18.69999999999621
 20
-7.196177000000162
 30
0.0
 11
-18.69999999999621
 21
-8.142202000000239
 31
0.0
  0
LINE
  5
21E37
330
1F
100
AcDbEntity
  8
SK1
100
AcDbLine
 10
-18.69999999999621
 20
5.41090599999994
 30
0.0
 11
-18.69999999999621
 21
-7.196177000000162
 31
0.0
  0
LINE
  5
21E38
330
1F
100
AcDbEntity
  8
SK1
100
AcDbLine
 10
-18.69999999999621
 20
5.41090599999994
 30
0.0
 11
-18.69999999999621
 21
6.270348999999768
 31
0.0
  0
LINE
  5
21E39
330
1F
100
AcDbEntity
  8
SK1
100
AcDbLine
 10
-18.69999999999621
 20
8.142201999999983
 30
0.0
 11
-18.69999999999621
 21
6.270348999999768
 31
0.0
  0
LINE
  5
21E3A
330
1F
100
AcDbEntity
  8
1
100
AcDbLine
 10
22.80000000000356
 20
11.19047599999997
 30
0.0
 11
22.80000000000356
 21
23.24999999999999
 31
0.0
  0
LINE
  5
21E3B
330
1F
100
AcDbEntity
  8
1
100
AcDbLine
 10
22.80000000000356
 20
9.08999999999979
 30
0.0
 11
22.80000000000356
 21
11.19047599999997
 31
0.0
  0
ARC
  5
21E3C
330
1F
100
AcDbEntity
  8
1
100
AcDbCircle
 10
-19.98401599999622
 20
-94.58065400000021
 30
0.0
 40
122.98793
100
AcDbArc
 50
72.84996899999557
 51
73.3487710000017
  0
ARC
  5
21E3D
330
1F
100
AcDbEntity
  8
SK1
100
AcDbCircle
 10
10.32818200000363
 20
-1940.452228
 30
0.0
 40
1949.652648
100
AcDbArc
 50
90.30352300000158
 51
90.82371200000244
  0
ARC
  5
21E3E
330
1F
100
AcDbEntity
  8
SK1
100
AcDbCircle
 10
32.26599500000364
 20
-50.37758099999987
 30
0.0
 40
77.60238499999998
100
AcDbArc
 50
130.0809699999983
 51
131.0532280000016
  0
LINE
  5
21E3F
330
1F
100
AcDbEntity
  8
1
100
AcDbLine
 10
15.09324100000381
 20
11.19047599999997
 30
0.0
 11
22.80000000000356
 21
11.19047599999997
 31
0.0
  0
LINE
  5
21E40
330
1F
100
AcDbEntity
  8
1
100
AcDbLine
 10
16.28202500000364
 20
22.93871599999987
 30
0.0
 11
15.09324100000381
 21
11.19047599999997
 31
0.0
  0
ELLIPSE
  5
21E41
330
1F
100
AcDbEntity
  8
1
100
AcDbEllipse
 10
14.41481400000381
 20
11.188396
 30
0.0
 11
-0.4854756593704225
 21
-4.695749759674073
 31
0.0
210
0.0
220
0.0
230
1.0
 40
0.14292
 41
0.9264585802526395
 42
1.586014107675633
  0
ARC
  5
21E42
330
1F
100
AcDbEntity
  8
SK1
100
AcDbCircle
 10
-17.33301499999643
 20
13.85132899999995
 30
0.0
 40
8.550641999999998
100
AcDbArc
 50
260.8004320000004
 51
267.1350629999981
  0
LINE
  5
21E43
330
1F
100
AcDbEntity
  8
SK1
100
AcDbLine
 10
-17.76040299999621
 20
5.31112999999992
 30
0.0
 11
-17.69999999999621
 21
5.307934999999915
 31
0.0
  0
LINE
  5
21E44
330
1F
100
AcDbEntity
  8
SK1
100
AcDbLine
 10
-17.69999999999621
 20
5.307934999999915
 30
0.0
 11
-17.04030399999621
 21
5.270655999999789
 31
0.0
  0
ARC
  5
21E45
330
1F
100
AcDbEntity
  8
SK1
100
AcDbCircle
 10
-228.3612199999963
 20
-3722.005489999999
 30
0.0
 40
3733.261919
100
AcDbArc
 50
86.49306500000237
 51
86.75504400000138
  0
LINE
  5
21E46
330
1F
100
AcDbEntity
  8
1
100
AcDbLine
 10
22.80000000000356
 20
-22.66103500000021
 30
0.0
 11
22.80000000000356
 21
-23.25000000000013
 31
0.0
  0
LINE
  5
21E47
330
1F
100
AcDbEntity
  8
1
100
AcDbLine
 10
22.80000000000356
 20
-23.25000000000013
 30
0.0
 11
15.25756700000377
 21
-23.25000000000013
 31
0.0
  0
LINE
  5
21E48
330
1F
100
AcDbEntity
  8
1
100
AcDbLine
 10
36.21000000000382
 20
-22.66103500000021
 30
0.0
 11
22.80000000000356
 21
-22.66103500000021
 31
0.0
  0
LINE
  5
21E49
330
1F
100
AcDbEntity
  8
1
100
AcDbLine
 10
36.21000000000382
 20
-20.40379500000007
 30
0.0
 11
36.21000000000382
 21
-22.66103500000021
 31
0.0
  0
LINE
  5
21E4A
330
1F
100
AcDbEntity
  8
1
100
AcDbLine
 10
0.0000000000037801
 20
-20.40379500000007
 30
0.0
 11
0.0000000000037801
 21
-23.09765400000005
 31
0.0
  0
LINE
  5
21E4B
330
1F
100
AcDbEntity
  8
1
100
AcDbLine
 10
0.0000000000037801
 20
9.210727999999775
 30
0.0
 11
0.0000000000037801
 21
-20.40379500000007
 31
0.0
  0
LINE
  5
21E4C
330
1F
100
AcDbEntity
  8
SK1
100
AcDbLine
 10
-17.69999999999621
 20
-8.073760000000007
 30
0.0
 11
-17.69999999999621
 21
-8.998960000000025
 31
0.0
  0
LINE
  5
21E4D
330
1F
100
AcDbEntity
  8
SK1
100
AcDbLine
 10
-17.69999999999621
 20
5.307934999999915
 30
0.0
 11
-17.69999999999621
 21
-8.073760000000007
 31
0.0
  0
SPLINE
  5
21E4E
330
1F
100
AcDbEntity
  8
1
100
AcDbSpline
210
0.0
220
0.0
230
1.0
 70
     8
 71
     5
 72
    12
 73
     6
 74
     0
 42
0.000000001
 43
0.0000000001
 40
0.0
 40
0.0
 40
0.0
 40
0.0
 40
0.0
 40
0.0
 40
63.74886519764227
 40
63.74886519764227
 40
63.74886519764227
 40
63.74886519764227
 40
63.74886519764227
 40
63.74886519764227
 10
36.21000000016832
 20
3.111611743453963
 30
0.0
 10
28.8698201449873
 20
3.697346668995791
 30
0.0
 10
21.55907894255367
 20
4.630847033286599
 30
0.0
 10
14.29446428994888
 20
5.891868147952649
 30
0.0
 10
7.102490513264825
 20
7.437434931419929
 30
0.0
 10
-0.0000000007257484
 20
9.210727696094281
 30
0.0
  0
LINE
  5
21E4F
330
1F
100
AcDbEntity
  8
1
100
AcDbLine
 10
36.21000000000382
 20
3.111611999999794
 30
0.0
 11
36.21000000000382
 21
-20.40379500000007
 31
0.0
  0
CIRCLE
  5
21E50
330
1F
100
AcDbEntity
  8
1
100
AcDbCircle
 10
30.00500000000378
 20
-16.29500000000019
 30
0.0
 40
2.08
  0
CIRCLE
  5
21E51
330
1F
100
AcDbEntity
  8
1
100
AcDbCircle
 10
30.00500000000378
 20
16.29499999999994
 30
0.0
 40
2.875
  0
CIRCLE
  5
21E52
330
1F
100
AcDbEntity
  8
1
100
AcDbCircle
 10
30.00500000000378
 20
16.29499999999994
 30
0.0
 40
3.534123
  0
LINE
  5
21E53
330
1F
100
AcDbEntity
  8
1
100
AcDbLine
 10
29.56000000000356
 20
9.08999999999979
 30
0.0
 11
24.00000000000356
 21
9.08999999999979
 31
0.0
  0
LINE
  5
21E54
330
1F
100
AcDbEntity
  8
1
100
AcDbLine
 10
37.21000000000382
 20
11.44999999999992
 30
0.0
 11
37.21000000000382
 21
22.29999999999983
 31
0.0
  0
ARC
  5
21E55
330
1F
100
AcDbEntity
  8
1
100
AcDbCircle
 10
36.01000000000377
 20
22.29999999999983
 30
0.0
 40
1.199999999999999
100
AcDbArc
 50
0.0
 51
90.0
  0
LINE
  5
21E56
330
1F
100
AcDbEntity
  8
1
100
AcDbLine
 10
24.00000000000356
 20
23.49999999999999
 30
0.0
 11
36.01000000000377
 21
23.49999999999999
 31
0.0
  0
ARC
  5
21E57
330
1F
100
AcDbEntity
  8
1
100
AcDbCircle
 10
24.00000000000356
 20
22.29999999999983
 30
0.0
 40
1.199999999999999
100
AcDbArc
 50
90.0
 51
180.0
  0
LINE
  5
21E58
330
1F
100
AcDbEntity
  8
1
100
AcDbLine
 10
22.80000000000356
 20
22.29999999999983
 30
0.0
 11
22.80000000000356
 21
10.28999999999983
 31
0.0
  0
ARC
  5
21E59
330
1F
100
AcDbEntity
  8
1
100
AcDbCircle
 10
24.00000000000356
 20
10.28999999999983
 30
0.0
 40
1.199999999999999
100
AcDbArc
 50
180.0
 51
270.0
  0
ARC
  5
21E61
330
1F
100
AcDbEntity
  8
1
100
AcDbCircle
 10
36.01000000000377
 20
-10.28999999999998
 30
0.0
 40
1.199999999999999
100
AcDbArc
 50
0.0
 51
80.40593199999776
  0
LINE
  5
21E62
330
1F
100
AcDbEntity
  8
1
100
AcDbLine
 10
37.21000000000382
 20
-10.28999999999998
 30
0.0
 11
37.21000000000382
 21
-22.30000000000008
 31
0.0
  0
ARC
  5
21E63
330
1F
100
AcDbEntity
  8
1
100
AcDbCircle
 10
36.01000000000377
 20
-22.30000000000008
 30
0.0
 40
1.199999999999999
100
AcDbArc
 50
270.0
 51
0.0
  0
LINE
  5
21E64
330
1F
100
AcDbEntity
  8
1
100
AcDbLine
 10
24.00000000000356
 20
-23.50000000000013
 30
0.0
 11
36.01000000000377
 21
-23.50000000000013
 31
0.0
  0
ARC
  5
21E65
330
1F
100
AcDbEntity
  8
1
100
AcDbCircle
 10
24.00000000000356
 20
-22.30000000000008
 30
0.0
 40
1.199999999999999
100
AcDbArc
 50
197.5095850000041
 51
270.0
  0
ARC
  5
21E66
330
1F
100
AcDbEntity
  8
1
100
AcDbCircle
 10
24.00000000000356
 20
-22.30000000000008
 30
0.0
 40
0.4691880000000002
100
AcDbArc
 50
230.3080419999978
 51
270.0
  0
LINE
  5
21E67
330
1F
100
AcDbEntity
  8
1
100
AcDbLine
 10
24.00000000000356
 20
-22.769188
 30
0.0
 11
36.01000000000377
 21
-22.769188
 31
0.0
  0
ARC
  5
21E68
330
1F
100
AcDbEntity
  8
1
100
AcDbCircle
 10
36.01000000000377
 20
-22.30000000000008
 30
0.0
 40
0.4691880000000002
100
AcDbArc
 50
270.0
 51
0.0
  0
LINE
  5
21E69
330
1F
100
AcDbEntity
  8
1
100
AcDbLine
 10
36.4791880000038
 20
-22.30000000000008
 30
0.0
 11
36.4791880000038
 21
-10.28999999999998
 31
0.0
  0
ARC
  5
21E6A
330
1F
100
AcDbEntity
  8
1
100
AcDbCircle
 10
36.01000000000377
 20
-10.28999999999998
 30
0.0
 40
0.4691880000000002
100
AcDbArc
 50
0.0
 51
64.77055899999793
  0
LINE
  5
21E6B
330
1F
100
AcDbEntity
  8
1
100
AcDbLine
 10
36.4791880000038
 20
-10.28999999999998
 30
0.0
 11
37.21000000000382
 21
-10.28999999999998
 31
0.0
  0
LINE
  5
21E6C
330
1F
100
AcDbEntity
  8
1
100
AcDbLine
 10
36.4791880000038
 20
-22.30000000000008
 30
0.0
 11
37.21000000000382
 21
-22.30000000000008
 31
0.0
  0
LINE
  5
21E6D
330
1F
100
AcDbEntity
  8
1
100
AcDbLine
 10
36.01000000000377
 20
-22.769188
 30
0.0
 11
36.01000000000377
 21
-23.50000000000013
 31
0.0
  0
LINE
  5
21E6E
330
1F
100
AcDbEntity
  8
1
100
AcDbLine
 10
24.00000000000356
 20
-22.769188
 30
0.0
 11
24.00000000000356
 21
-23.50000000000013
 31
0.0
  0
ARC
  5
21E6F
330
1F
100
AcDbEntity
  8
1
100
AcDbCircle
 10
36.01000000000377
 20
-22.30000000000008
 30
0.0
 40
1.199999999999999
100
AcDbArc
 50
270.0
 51
0.0
  0
LINE
  5
21E70
330
1F
100
AcDbEntity
  8
1
100
AcDbLine
 10
36.01000000000377
 20
-23.50000000000013
 30
0.0
 11
24.00000000000356
 21
-23.50000000000013
 31
0.0
  0
ARC
  5
21E71
330
1F
100
AcDbEntity
  8
1
100
AcDbCircle
 10
24.00000000000356
 20
-22.30000000000008
 30
0.0
 40
1.199999999999999
100
AcDbArc
 50
197.5095850000041
 51
270.0
  0
ARC
  5
21E72
330
1F
100
AcDbEntity
  8
1
100
AcDbCircle
 10
36.01000000000377
 20
-10.28999999999998
 30
0.0
 40
1.199999999999999
100
AcDbArc
 50
0.0
 51
80.40593199999776
  0
LINE
  5
21E73
330
1F
100
AcDbEntity
  8
1
100
AcDbLine
 10
37.21000000000382
 20
-10.28999999999998
 30
0.0
 11
37.21000000000382
 21
-22.30000000000008
 31
0.0
  0
LINE
  5
21E74
330
1F
100
AcDbEntity
  8
SKVIEW4
100
AcDbLine
 10
-59.50962480886866
 20
-0.0000000000000142
 30
0.0
 11
-119.9596248088684
 21
-0.0000000000000142
 31
0.0
  0
LINE
  5
21E75
330
1F
100
AcDbEntity
  8
SKVIEW4
100
AcDbLine
 10
-89.73462480886846
 20
30.22499999999978
 30
0.0
 11
-89.73462480886846
 21
-30.22500000000005
 31
0.0
  0
ARC
  5
21E76
330
1F
100
AcDbEntity
  8
SKVIEW1
100
AcDbCircle
 10
-89.73462480886846
 20
-0.0000000000000142
 30
0.0
 40
5.724999999999997
100
AcDbArc
 50
343.0675739999977
 51
353.7391519999979
  0
ARC
  5
21E77
330
1F
100
AcDbEntity
  8
SKVIEW1
100
AcDbCircle
 10
-95.88140780886844
 20
3.837860999999847
 30
0.0
 40
2.271538999999999
100
AcDbArc
 50
287.1539660000018
 51
305.2260620000034
  0
ARC
  5
21E78
330
1F
100
AcDbEntity
  8
SKVIEW1
100
AcDbCircle
 10
-83.58784180886866
 20
-3.837860999999875
 30
0.0
 40
2.271538999999999
100
AcDbArc
 50
107.153966
 51
125.2260620000034
  0
LINE
  5
21E79
330
1F
100
AcDbEntity
  8
SKVIEW1
100
AcDbLine
 10
-83.01906180886865
 20
-0.3561399999998827
 30
0.0
 11
-83.18148880886864
 21
-0.3703510000001557
 31
0.0
  0
ARC
  5
21E7A
330
1F
100
AcDbEntity
  8
SKVIEW1
100
AcDbCircle
 10
-82.98350080886867
 20
-2.633203999999992
 30
0.0
 40
2.271497999999998
100
AcDbArc
 50
95.00036100000077
 51
117.824914000003
  0
SPLINE
  5
21E7B
330
1F
100
AcDbEntity
  8
SKVIEW1
100
AcDbSpline
210
0.0
220
0.0
230
1.0
 70
     8
 71
     5
 72
    18
 73
    12
 74
     0
 42
0.000000001
 43
0.0000000001
 40
0.0
 40
0.0
 40
0.0
 40
0.0
 40
0.0
 40
0.0
 40
1.719550094164975
 40
1.719550094164975
 40
1.719550094164975
 40
3.356996101217023
 40
3.356996101217023
 40
3.356996101217023
 40
5.462311694305676
 40
5.462311694305676
 40
5.462311694305676
 40
5.462311694305676
 40
5.462311694305676
 40
5.462311694305676
 10
-84.83265640263907
 20
-0.983067966390891
 30
0.0
 10
-84.76777306794762
 20
-0.8219078459927828
 30
0.0
 10
-84.68748089022367
 20
-0.6740771945969897
 30
0.0
 10
-84.59532305700092
 20
-0.5453827328031054
 30
0.0
 10
-84.4011460034155
 20
-0.3298703510199772
 30
0.0
 10
-84.18784754495929
 20
-0.1782870287105567
 30
0.0
 10
-84.08088158395221
 20
-0.1178377567308786
 30
0.0
 10
-83.83349921660183
 20
-0.0082242181502039
 30
0.0
 10
-83.5834165642602
 20
0.0432025827683305
 30
0.0
 10
-83.44417015800164
 20
0.0562443700115267
 30
0.0
 10
-83.30659839637448
 20
0.0555664984324125
 30
0.0
 10
-83.17116873476861
 20
0.042454260075246
 30
0.0
  0
ARC
  5
21E7C
330
1F
100
AcDbEntity
  8
SKVIEW1
100
AcDbCircle
 10
-83.00182780886846
 20
-1.723911000000171
 30
0.0
 40
1.975016999999999
100
AcDbArc
 50
157.9693189999977
 51
165.5659359999982
  0
SPLINE
  5
21E7D
330
1F
100
AcDbEntity
  8
SKVIEW1
100
AcDbSpline
210
0.0
220
0.0
230
1.0
 70
     8
 71
     5
 72
    12
 73
     6
 74
     0
 42
0.000000001
 43
0.0000000001
 40
0.0
 40
0.0
 40
0.0
 40
0.0
 40
0.0
 40
0.0
 40
1.676983522496715
 40
1.676983522496715
 40
1.676983522496715
 40
1.676983522496715
 40
1.676983522496715
 40
1.676983522496715
 10
-84.91447998847414
 20
-1.231613508694991
 30
0.0
 10
-84.95210343775616
 20
-1.378920181380536
 30
0.0
 10
-84.9707779916935
 20
-1.515819405704988
 30
0.0
 10
-84.9723024473325
 20
-1.636669130724058
 30
0.0
 10
-84.96315602570595
 20
-1.731242319897219
 30
0.0
 10
-84.94908050192837
 20
-1.799920822590038
 30
0.0
  0
ARC
  5
21E7E
330
1F
100
AcDbEntity
  8
SKVIEW1
100
AcDbCircle
 10
-83.3978348088685
 20
-1.459950000000176
 30
0.0
 40
1.588392999999999
100
AcDbArc
 50
192.3614880000002
 51
209.391575000002
  0
ARC
  5
21E7F
330
1F
100
AcDbEntity
  8
SKVIEW1
100
AcDbCircle
 10
-89.73418980886853
 20
-0.0000029999998929
 30
0.0
 40
6.563158
100
AcDbArc
 50
356.7651780000004
 51
0.3706490000048026
  0
ARC
  5
21E80
330
1F
100
AcDbEntity
  8
SKVIEW1
100
AcDbCircle
 10
-89.73462480886846
 20
-0.0000000000000142
 30
0.0
 40
5.724999999999997
100
AcDbArc
 50
163.0675739999984
 51
173.7391519999979
  0
SPLINE
  5
21E81
330
1F
100
AcDbEntity
  8
SKVIEW1
100
AcDbSpline
210
0.0
220
0.0
230
1.0
 70
     8
 71
     5
 72
    18
 73
    12
 74
     0
 42
0.000000001
 43
0.0000000001
 40
0.0
 40
0.0
 40
0.0
 40
0.0
 40
0.0
 40
0.0
 40
1.719550093072125
 40
1.719550093072125
 40
1.719550093072125
 40
3.356996099110483
 40
3.356996099110483
 40
3.356996099110483
 40
5.462311690962279
 40
5.462311690962279
 40
5.462311690962279
 40
5.462311690962279
 40
5.462311690962279
 40
5.462311690962279
 10
-94.63659321509814
 20
0.9830679663906352
 30
0.0
 10
-94.70147654974804
 20
0.8219078460949589
 30
0.0
 10
-94.78176872741128
 20
0.6740771947847719
 30
0.0
 10
-94.87392656060777
 20
0.5453827329692871
 30
0.0
 10
-95.06810361417118
 20
0.3298703511619436
 30
0.0
 10
-95.28140207248142
 20
0.1782870289010674
 30
0.0
 10
-95.38836803336446
 20
0.1178377569187745
 30
0.0
 10
-95.63575040107824
 20
0.008224218122777
 30
0.0
 10
-95.88583305387581
 20
-0.0432025828595357
 30
0.0
 10
-96.02507945989598
 20
-0.0562443700112141
 30
0.0
 10
-96.16265122144184
 20
-0.0555664984250512
 30
0.0
 10
-96.29808088296849
 20
-0.0424542600756155
 30
0.0
  0
ARC
  5
21E82
330
1F
100
AcDbEntity
  8
SKVIEW1
100
AcDbCircle
 10
-96.46742180886841
 20
1.723910999999915
 30
0.0
 40
1.975016999999999
100
AcDbArc
 50
337.9693189999977
 51
345.5659359999982
  0
SPLINE
  5
21E83
330
1F
100
AcDbEntity
  8
SKVIEW1
100
AcDbSpline
210
0.0
220
0.0
230
1.0
 70
     8
 71
     5
 72
    12
 73
     6
 74
     0
 42
0.000000001
 43
0.0000000001
 40
0.0
 40
0.0
 40
0.0
 40
0.0
 40
0.0
 40
0.0
 40
1.6769834986181
 40
1.6769834986181
 40
1.6769834986181
 40
1.6769834986181
 40
1.6769834986181
 40
1.6769834986181
 10
-94.55476962926448
 20
1.231613508688937
 30
0.0
 10
-94.51714618042897
 20
1.378920179625865
 30
0.0
 10
-94.49847162642223
 20
1.515819402704309
 30
0.0
 10
-94.49694717066543
 20
1.636669133422955
 30
0.0
 10
-94.50609359223145
 20
1.731242320875011
 30
0.0
 10
-94.52016911580868
 20
1.79992082259001
 30
0.0
  0
ARC
  5
21E84
330
1F
100
AcDbEntity
  8
SKVIEW1
100
AcDbCircle
 10
-96.07141480886852
 20
1.459949999999921
 30
0.0
 40
1.588392999999999
100
AcDbArc
 50
12.36148800000105
 51
29.39157500000206
  0
ARC
  5
21E85
330
1F
100
AcDbEntity
  8
SKVIEW1
100
AcDbCircle
 10
-96.4857488088684
 20
2.633203999999963
 30
0.0
 40
2.271497999999998
100
AcDbArc
 50
275.0003610000007
 51
297.8249140000031
  0
ARC
  5
21E86
330
1F
100
AcDbEntity
  8
SKVIEW1
100
AcDbCircle
 10
-89.73505980886844
 20
0.0000029999998645
 30
0.0
 40
6.563158
100
AcDbArc
 50
176.7651780000003
 51
180.3706489999983
  0
LINE
  5
21E87
330
1F
100
AcDbEntity
  8
SKVIEW1
100
AcDbLine
 10
-95.58067480886851
 20
3.688972999999791
 30
0.0
 11
-95.58926380886864
 21
3.710137999999787
 31
0.0
  0
ARC
  5
21E88
330
1F
100
AcDbEntity
  8
SKVIEW1
100
AcDbCircle
 10
21.30315319113149
 20
51.18826799999998
 30
0.0
 40
126.166557
100
AcDbArc
 50
199.9685890000034
 51
202.1054870000017
  0
ARC
  5
21E89
330
1F
100
AcDbEntity
  8
SKVIEW1
100
AcDbCircle
 10
-80.07206680886842
 20
9.107699000000124
 30
0.0
 40
17.235552
100
AcDbArc
 50
181.7057929999989
 51
183.3458650000004
  0
ARC
  5
21E8A
330
1F
100
AcDbEntity
  8
SKVIEW1
100
AcDbCircle
 10
-110.3294128088684
 20
-6.411475000000237
 30
0.0
 40
17.875473
100
AcDbArc
 50
28.94533799999875
 51
34.40469500000085
  0
LINE
  5
21E8B
330
1F
100
AcDbEntity
  8
SKVIEW1
100
AcDbLine
 10
-83.88857480886864
 20
-3.688973000000046
 30
0.0
 11
-83.87998580886844
 21
-3.710138000000043
 31
0.0
  0
ARC
  5
21E8C
330
1F
100
AcDbEntity
  8
SKVIEW1
100
AcDbCircle
 10
-200.7564088088683
 20
-51.181648
 30
0.0
 40
126.149256
100
AcDbArc
 50
19.96824400000496
 51
22.10543500000002
  0
ARC
  5
21E8D
330
1F
100
AcDbEntity
  8
SKVIEW1
100
AcDbCircle
 10
-99.39664380886846
 20
-9.107674999999986
 30
0.0
 40
17.235012
100
AcDbArc
 50
1.705766999996314
 51
3.345890999997549
  0
ARC
  5
21E8E
330
1F
100
AcDbEntity
  8
SKVIEW1
100
AcDbCircle
 10
-69.13983680886852
 20
6.411474999999981
 30
0.0
 40
17.875473
100
AcDbArc
 50
208.9453379999987
 51
214.4046950000009
  0
ARC
  5
21E8F
330
1F
100
AcDbEntity
  8
SKVIEW1
100
AcDbCircle
 10
-89.73462480886846
 20
-0.0000000000000142
 30
0.0
 40
6.724999999999997
100
AcDbArc
 50
356.9643309999988
 51
63.55654499999804
  0
LINE
  5
21E90
330
1F
100
AcDbEntity
  8
SKVIEW1
100
AcDbLine
 10
-83.17116880886866
 20
0.0424540000000064
 30
0.0
 11
-83.00966880886845
 21
0.0257890000000174
 31
0.0
  0
LINE
  5
21E91
330
1F
100
AcDbEntity
  8
SKVIEW1
100
AcDbLine
 10
-89.73462480886846
 20
11.06999999999981
 30
0.0
 11
-89.73462480886846
 21
11.44999999999992
 31
0.0
  0
LINE
  5
21E92
330
1F
100
AcDbEntity
  8
SKVIEW1
100
AcDbLine
 10
-89.73462480886846
 20
7.778932999999923
 30
0.0
 11
-89.73462480886846
 21
11.06999999999981
 31
0.0
  0
ARC
  5
21E93
330
1F
100
AcDbEntity
  8
SKVIEW1
100
AcDbCircle
 10
-89.43462480886845
 20
7.291330999999772
 30
0.0
 40
0.5725
100
AcDbArc
 50
121.6021230000013
 51
267.6439079999998
  0
ARC
  5
21E94
330
1F
100
AcDbEntity
  8
SKVIEW1
100
AcDbCircle
 10
-89.73462480886846
 20
-0.0000000000000142
 30
0.0
 40
6.724999999999997
100
AcDbArc
 50
63.55655599999838
 51
87.64390799999979
  0
LINE
  5
21E95
330
1F
100
AcDbEntity
  8
SKVIEW1
100
AcDbLine
 10
-89.35963980886842
 20
0.2299329999999458
 30
0.0
 11
-84.83265680886868
 21
-0.9830680000000171
 31
0.0
  0
ARC
  5
21E96
330
1F
100
AcDbEntity
  8
SKVIEW1
100
AcDbCircle
 10
-92.30219080886845
 20
7.715938999999806
 30
0.0
 40
5.814569
100
AcDbArc
 50
335.1716949999999
 51
343.0567279999949
  0
LINE
  5
21E97
330
1F
100
AcDbEntity
  8
SKVIEW1
100
AcDbLine
 10
-88.03275080886848
 20
3.115259999999793
 30
0.0
 11
-87.02518580886843
 21
5.274456999999969
 31
0.0
  0
SPLINE
  5
21E98
330
1F
100
AcDbEntity
  8
SKVIEW1
100
AcDbSpline
210
0.0
220
0.0
230
1.0
 70
     8
 71
     5
 72
    24
 73
    18
 74
     0
 42
0.000000001
 43
0.0000000001
 40
0.0
 40
0.0
 40
0.0
 40
0.0
 40
0.0
 40
0.0
 40
26.86593244609117
 40
26.86593244609117
 40
26.86593244609117
 40
42.75430928249345
 40
42.75430928249345
 40
42.75430928249345
 40
49.09880317126021
 40
49.09880317126021
 40
49.09880317126021
 40
52.75862004904945
 40
52.75862004904945
 40
52.75862004904945
 40
53.5942473300253
 40
53.5942473300253
 40
53.5942473300253
 40
53.5942473300253
 40
53.5942473300253
 40
53.5942473300253
 10
-89.35963935928052
 20
0.2299334609966621
 30
0.0
 10
-89.34492549389071
 20
0.2666731815862562
 30
0.0
 10
-89.32679083692525
 20
0.3105110677362148
 30
0.0
 10
-89.30471282609246
 20
0.3620259842453919
 30
0.0
 10
-89.25934786478691
 20
0.4667907935807847
 30
0.0
 10
-89.16142706931262
 20
0.6835110634007009
 30
0.0
 10
-89.11294050116518
 20
0.7897058729131317
 30
0.0
 10
-89.03202508183861
 20
0.9665807987815782
 30
0.0
 10
-88.84632571255295
 20
1.367588098099517
 30
0.0
 10
-88.78344266511945
 20
1.50314957817396
 30
0.0
 10
-88.65709564664555
 20
1.77521312583336
 30
0.0
 10
-88.46120613447496
 20
2.195991500093768
 30
0.0
 10
-88.37438479799855
 20
2.382430013966185
 30
0.0
 10
-88.25456204781616
 20
2.639529247674076
 30
0.0
 10
-88.11472976035267
 20
2.939455709626699
 30
0.0
 10
-88.08805571279284
 20
2.996664956731692
 30
0.0
 10
-88.06073470715992
 20
3.055253614991428
 30
0.0
 10
-88.032750665995
 20
3.11525972242974
 30
0.0
  0
LINE
  5
21E99
330
1F
100
AcDbEntity
  8
SKVIEW1
100
AcDbLine
 10
-88.68378480886841
 20
-0.7992100000000307
 30
0.0
 11
-84.94908080886844
 21
-1.799921000000168
 31
0.0
  0
SPLINE
  5
21E9A
330
1F
100
AcDbEntity
  8
SKVIEW1
100
AcDbSpline
210
0.0
220
0.0
230
1.0
 70
     8
 71
     5
 72
    63
 73
    57
 74
     0
 42
0.000000001
 43
0.0000000001
 40
0.0
 40
0.0
 40
0.0
 40
0.0
 40
0.0
 40
0.0
 40
24.68513508037907
 40
24.68513508037907
 40
24.68513508037907
 40
61.71232143002058
 40
61.71232143002058
 40
61.71232143002058
 40
99.64738154598506
 40
99.64738154598506
 40
99.64738154598506
 40
112.088197715839
 40
112.088197715839
 40
112.088197715839
 40
117.574398298284
 40
117.574398298284
 40
117.574398298284
 40
121.0082798608513
 40
121.0082798608513
 40
121.0082798608513
 40
121.9275711383579
 40
121.9275711383579
 40
121.9275711383579
 40
122.4025440086155
 40
122.4025440086155
 40
122.4025440086155
 40
122.8622150889801
 40
122.8622150889801
 40
122.8622150889801
 40
123.1699548189788
 40
123.1699548189788
 40
123.1699548189788
 40
123.2149384720801
 40
123.2149384720801
 40
123.2149384720801
 40
123.2599221251815
 40
123.2599221251815
 40
123.2599221251815
 40
123.3493304275784
 40
123.3493304275784
 40
123.3493304275784
 40
123.3940316035947
 40
123.3940316035947
 40
123.3940316035947
 40
123.438732779611
 40
123.438732779611
 40
123.438732779611
 40
123.5280134659297
 40
123.5280134659297
 40
123.5280134659297
 40
123.8827006967144
 40
123.8827006967144
 40
123.8827006967144
 40
124.7447629592448
 40
124.7447629592448
 40
124.7447629592448
 40
124.7447629592448
 40
124.7447629592448
 40
124.7447629592448
 10
-89.35963935928052
 20
0.2299334609966621
 30
0.0
 10
-89.37316093289096
 20
0.1961708280571059
 30
0.0
 10
-89.38039256886666
 20
0.1704879333742468
 30
0.0
 10
-89.38565946166093
 20
0.1480976360002018
 30
0.0
 10
-89.39492924809716
 20
0.0961438420043663
 30
0.0
 10
-89.39601256644861
 20
0.0530882853779389
 30
0.0
 10
-89.39461085531693
 20
0.0283544309818211
 30
0.0
 10
-89.38827257600847
 20
-0.0219766382357563
 30
0.0
 10
-89.37211967909119
 20
-0.0780048455078628
 30
0.0
 10
-89.36141159605691
 20
-0.106400741501389
 30
0.0
 10
-89.34295330854267
 20
-0.1529135545711284
 30
0.0
 10
-89.29869857286499
 20
-0.2287874002194172
 30
0.0
 10
-89.28593511548047
 20
-0.2492172639113193
 30
0.0
 10
-89.26335406660919
 20
-0.2838572843158005
 30
0.0
 10
-89.22699849441514
 20
-0.3324589534337434
 30
0.0
 10
-89.21448856871117
 20
-0.3485118461172902
 30
0.0
 10
-89.19130881463983
 20
-0.3775667603189419
 30
0.0
 10
-89.15585007794934
 20
-0.4181244113116378
 30
0.0
 10
-89.14399824820916
 20
-0.4311085076210617
 30
0.0
 10
-89.12400123466145
 20
-0.4527639284064123
 30
0.0
 10
-89.09368162854141
 20
-0.4835298180964998
 30
0.0
 10
-89.08663901417392
 20
-0.4905942038260634
 30
0.0
 10
-89.07457313723412
 20
-0.5025199791456459
 30
0.0
 10
-89.05946944664483
 20
-0.5169997095706691
 30
0.0
 10
-89.0548054289267
 20
-0.5214340751350762
 30
0.0
 10
-89.04288146090946
 20
-0.5326358768185316
 30
0.0
 10
-89.03032311451321
 20
-0.5441570878086992
 30
0.0
 10
-89.02406230556151
 20
-0.5498339588869073
 30
0.0
 10
-89.01232036637569
 20
-0.5604353727621998
 30
0.0
 10
-88.99492127394816
 20
-0.5756750182569164
 30
0.0
 10
-88.98742419270091
 20
-0.5821314783229497
 30
0.0
 10
-88.97721413133721
 20
-0.5909160597199304
 30
0.0
 10
-88.96147790822643
 20
-0.6039901420491703
 30
0.0
 10
-88.95925587546438
 20
-0.6058307454553784
 30
0.0
 10
-88.95356592711946
 20
-0.6105188546467986
 30
0.0
 10
-88.94623623071183
 20
-0.6165016418475631
 30
0.0
 10
-88.94224776977509
 20
-0.6197410731292763
 30
0.0
 10
-88.92989833963898
 20
-0.62971173571556
 30
0.0
 10
-88.91677147509748
 20
-0.6401011447704974
 30
0.0
 10
-88.90868693117651
 20
-0.6463077887007245
 30
0.0
 10
-88.89576032881995
 20
-0.6562882784763957
 30
0.0
 10
-88.88537492409474
 20
-0.6641679804042866
 30
0.0
 10
-88.88230123882303
 20
-0.6664733739093123
 30
0.0
 10
-88.87684053724896
 20
-0.6705297407959421
 30
0.0
 10
-88.87196547304766
 20
-0.6741179563459952
 30
0.0
 10
-88.86945493703317
 20
-0.6759758374556811
 30
0.0
 10
-88.86225976918254
 20
-0.6812769645079158
 30
0.0
 10
-88.85580857753794
 20
-0.6859782654019142
 30
0.0
 10
-88.85173799726434
 20
-0.6889266758885384
 30
0.0
 10
-88.83250827231448
 20
-0.7027764768254344
 30
0.0
 10
-88.81732740527661
 20
-0.7133601340032243
 30
0.0
 10
-88.80614447053174
 20
-0.721043114805994
 30
0.0
 10
-88.76999179662911
 20
-0.7455751793155656
 30
0.0
 10
-88.74082631199948
 20
-0.7643423033695314
 30
0.0
 10
-88.71877813008168
 20
-0.7781124209294746
 30
0.0
 10
-88.70087519043019
 20
-0.7890252239482294
 30
0.0
 10
-88.68378449665035
 20
-0.7992099032415041
 30
0.0
  0
LINE
  5
21E9B
330
1F
100
AcDbEntity
  8
SKVIEW1
100
AcDbLine
 10
-84.71726780886845
 20
-3.160235000000184
 30
0.0
 11
-88.68378480886841
 21
-0.7992100000000307
 31
0.0
  0
ARC
  5
21E9C
330
1F
100
AcDbEntity
  8
SKVIEW1
100
AcDbCircle
 10
-93.15909380886845
 20
-17.30081700000017
 30
0.0
 40
16.468841
100
AcDbArc
 50
55.74268700000284
 51
59.16310499999994
  0
LINE
  5
21E9D
330
1F
100
AcDbEntity
  8
SKVIEW1
100
AcDbLine
 10
-96.4501878088685
 20
0.3561399999998542
 30
0.0
 11
-96.28776080886845
 21
0.3703510000001273
 31
0.0
  0
LINE
  5
21E9E
330
1F
100
AcDbEntity
  8
SKVIEW1
100
AcDbLine
 10
-94.63659280886853
 20
0.9830679999997613
 30
0.0
 11
-90.10960980886844
 21
-0.2299330000002016
 31
0.0
  0
LINE
  5
21E9F
330
1F
100
AcDbEntity
  8
SKVIEW1
100
AcDbLine
 10
-96.29808080886849
 20
-0.0424540000000349
 30
0.0
 11
-96.45958080886865
 21
-0.0257890000000458
 31
0.0
  0
ARC
  5
21EA0
330
1F
100
AcDbEntity
  8
SKVIEW1
100
AcDbCircle
 10
-89.73462480886846
 20
-0.0000000000000142
 30
0.0
 40
6.724999999999997
100
AcDbArc
 50
176.9643309999987
 51
267.6439029999999
  0
ARC
  5
21EA1
330
1F
100
AcDbEntity
  8
SKVIEW1
100
AcDbCircle
 10
-87.16705880886847
 20
-7.715939000000062
 30
0.0
 40
5.814569
100
AcDbArc
 50
155.1716949999999
 51
163.0567279999961
  0
LINE
  5
21EA2
330
1F
100
AcDbEntity
  8
SKVIEW1
100
AcDbLine
 10
-91.43649880886849
 20
-3.115260000000048
 30
0.0
 11
-92.44406380886848
 21
-5.274457000000225
 31
0.0
  0
SPLINE
  5
21EA3
330
1F
100
AcDbEntity
  8
SKVIEW1
100
AcDbSpline
210
0.0
220
0.0
230
1.0
 70
     8
 71
     5
 72
    24
 73
    18
 74
     0
 42
0.000000001
 43
0.0000000001
 40
0.0
 40
0.0
 40
0.0
 40
0.0
 40
0.0
 40
0.0
 40
26.86593244622217
 40
26.86593244622217
 40
26.86593244622217
 40
42.75430928235802
 40
42.75430928235802
 40
42.75430928235802
 40
49.0988031708011
 40
49.0988031708011
 40
49.0988031708011
 40
52.75862004982307
 40
52.75862004982307
 40
52.75862004982307
 40
53.5942473309991
 40
53.5942473309991
 40
53.5942473309991
 40
53.5942473309991
 40
53.5942473309991
 40
53.5942473309991
 10
-90.10961025845663
 20
-0.2299334609969179
 30
0.0
 10
-90.12432412384683
 20
-0.2666731815866257
 30
0.0
 10
-90.14245878081291
 20
-0.3105110677384033
 30
0.0
 10
-90.1645367916446
 20
-0.3620259842484899
 30
0.0
 10
-90.20990175295148
 20
-0.4667907935829732
 30
0.0
 10
-90.30782254843016
 20
-0.6835110634114159
 30
0.0
 10
-90.35630911658364
 20
-0.7897058729348743
 30
0.0
 10
-90.4372245358887
 20
-0.9665807987646672
 30
0.0
 10
-90.62292390516743
 20
-1.367588098066462
 30
0.0
 10
-90.68580695261173
 20
-1.50314957817649
 30
0.0
 10
-90.81215397110199
 20
-1.775213125856808
 30
0.0
 10
-91.00804348330271
 20
-2.195991500185883
 30
0.0
 10
-91.09486481967474
 20
-2.38243001381376
 30
0.0
 10
-91.21468756988369
 20
-2.639529247576902
 30
0.0
 10
-91.35451985733615
 20
-2.939455709534186
 30
0.0
 10
-91.38119390489285
 20
-2.996664956637474
 30
0.0
 10
-91.40851491052954
 20
-3.055253614906646
 30
0.0
 10
-91.43649895171833
 20
-3.11525972238634
 30
0.0
  0
SPLINE
  5
21EA4
330
1F
100
AcDbEntity
  8
SKVIEW1
100
AcDbSpline
210
0.0
220
0.0
230
1.0
 70
     8
 71
     5
 72
    63
 73
    57
 74
     0
 42
0.000000001
 43
0.0000000001
 40
0.0
 40
0.0
 40
0.0
 40
0.0
 40
0.0
 40
0.0
 40
24.685135076272
 40
24.685135076272
 40
24.685135076272
 40
61.71232141975294
 40
61.71232141975294
 40
61.71232141975294
 40
99.64738153080993
 40
99.64738153080993
 40
99.64738153080993
 40
112.0881977002036
 40
112.0881977002036
 40
112.0881977002036
 40
117.5743982817349
 40
117.5743982817349
 40
117.5743982817349
 40
121.0082798298281
 40
121.0082798298281
 40
121.0082798298281
 40
121.9275710947171
 40
121.9275710947171
 40
121.9275710947171
 40
122.4025439579431
 40
122.4025439579431
 40
122.4025439579431
 40
122.8622150319899
 40
122.8622150319899
 40
122.8622150319899
 40
123.1699547752556
 40
123.1699547752556
 40
123.1699547752556
 40
123.2149384306487
 40
123.2149384306487
 40
123.2149384306487
 40
123.2599220860418
 40
123.2599220860418
 40
123.2599220860418
 40
123.3493303928957
 40
123.3493303928957
 40
123.3493303928957
 40
123.3940315710773
 40
123.3940315710773
 40
123.3940315710773
 40
123.438732749259
 40
123.438732749259
 40
123.438732749259
 40
123.5280134398654
 40
123.5280134398654
 40
123.5280134398654
 40
123.8827006880505
 40
123.8827006880505
 40
123.8827006880505
 40
124.7447629367615
 40
124.7447629367615
 40
124.7447629367615
 40
124.7447629367615
 40
124.7447629367615
 40
124.7447629367615
 10
-90.10961025845663
 20
-0.2299334609969179
 30
0.0
 10
-90.09608868484795
 20
-0.1961708280624776
 30
0.0
 10
-90.08885704887166
 20
-0.170487933382006
 30
0.0
 10
-90.08359015607593
 20
-0.1480976360003439
 30
0.0
 10
-90.07432036964226
 20
-0.0961438420101928
 30
0.0
 10
-90.07323705128792
 20
-0.053088285392974
 30
0.0
 10
-90.07463876241862
 20
-0.0283544309970836
 30
0.0
 10
-90.08097704172447
 20
0.0219766382096935
 30
0.0
 10
-90.097129938634
 20
0.0780048454728188
 30
0.0
 10
-90.1078380216566
 20
0.1064007414484962
 30
0.0
 10
-90.12629630916814
 20
0.1529135545095954
 30
0.0
 10
-90.17055104480689
 20
0.2287874001115
 30
0.0
 10
-90.18331450217297
 20
0.2492172637774814
 30
0.0
 10
-90.20589555101542
 20
0.2838572841513809
 30
0.0
 10
-90.24225112314999
 20
0.3324589532086151
 30
0.0
 10
-90.25476104889699
 20
0.3485118459462768
 30
0.0
 10
-90.27794080296573
 20
0.3775667601561139
 30
0.0
 10
-90.31339953953144
 20
0.4181244110226175
 30
0.0
 10
-90.32525136929095
 20
0.4311085073670569
 30
0.0
 10
-90.34524838306529
 20
0.4527639283856928
 30
0.0
 10
-90.37556798928752
 20
0.4835298181820776
 30
0.0
 10
-90.38261060360392
 20
0.4905942038610505
 30
0.0
 10
-90.39467648040286
 20
0.5025199790435267
 30
0.0
 10
-90.40978017073186
 20
0.5169997092260559
 30
0.0
 10
-90.41444418837462
 20
0.5214340747208866
 30
0.0
 10
-90.42636815622589
 20
0.5326358762560944
 30
0.0
 10
-90.4389265021523
 20
0.5441570868342609
 30
0.0
 10
-90.44518731074864
 20
0.5498339575978975
 30
0.0
 10
-90.45692924944948
 20
0.5604353710511845
 30
0.0
 10
-90.47432834108141
 20
0.5756750159061852
 30
0.0
 10
-90.48182542218516
 20
0.5821314758758121
 30
0.0
 10
-90.49203548359523
 20
0.5909160573420281
 30
0.0
 10
-90.50777170644366
 20
0.6039901395061947
 30
0.0
 10
-90.50999373860145
 20
0.6058307424224126
 30
0.0
 10
-90.51568368616093
 20
0.6105188509911699
 30
0.0
 10
-90.52301338226735
 20
0.6165016379760431
 30
0.0
 10
-90.52700184321427
 20
0.6197410692835632
 30
0.0
 10
-90.53935127356968
 20
0.6297117321019954
 30
0.0
 10
-90.5524781388917
 20
0.6401011418463299
 30
0.0
 10
-90.56056268314893
 20
0.6463077860621383
 30
0.0
 10
-90.57348928638598
 20
0.6562882765336866
 30
0.0
 10
-90.58387469209666
 20
0.6641679792398776
 30
0.0
 10
-90.58694837766294
 20
0.6664733729754602
 30
0.0
 10
-90.59240907965616
 20
0.6705297401834827
 30
0.0
 10
-90.59728414409851
 20
0.6741179559099777
 30
0.0
 10
-90.59979468023309
 20
0.6759758371079983
 30
0.0
 10
-90.60698984846382
 20
0.6812769644425174
 30
0.0
 10
-90.61344104041021
 20
0.6859782655557041
 30
0.0
 10
-90.61751162086471
 20
0.6889266761721587
 30
0.0
 10
-90.63674134665356
 20
0.7027764777047736
 30
0.0
 10
-90.65192221420634
 20
0.7133601352164618
 30
0.0
 10
-90.6631051493818
 20
0.7210431162992422
 30
0.0
 10
-90.69925782297364
 20
0.7455751805368749
 30
0.0
 10
-90.72842330738641
 20
0.7643423043964362
 30
0.0
 10
-90.75047148822946
 20
0.7781124212792605
 30
0.0
 10
-90.76837442758066
 20
0.7890252241113416
 30
0.0
 10
-90.78546512108664
 20
0.7992099032412483
 30
0.0
  0
LINE
  5
21EA5
330
1F
100
AcDbEntity
  8
SKVIEW1
100
AcDbLine
 10
-90.78546480886846
 20
0.7992100000000022
 30
0.0
 11
-94.52016880886842
 21
1.799920999999912
 31
0.0
  0
LINE
  5
21EA6
330
1F
100
AcDbEntity
  8
SKVIEW1
100
AcDbLine
 10
-94.75198180886838
 20
3.160234999999929
 30
0.0
 11
-90.78546480886846
 21
0.7992100000000022
 31
0.0
  0
ARC
  5
21EA7
330
1F
100
AcDbEntity
  8
SKVIEW1
100
AcDbCircle
 10
-86.31015580886842
 20
17.30081699999992
 30
0.0
 40
16.468841
100
AcDbArc
 50
235.7426870000028
 51
239.1631049999981
  0
ARC
  5
21EA8
330
1F
100
AcDbEntity
  8
SKVIEW1
100
AcDbCircle
 10
-89.73462480886846
 20
-0.0000000000000142
 30
0.0
 40
6.931227999999999
100
AcDbArc
 50
91.18921400000015
 51
147.6371939999971
  0
ARC
  5
21EA9
330
1F
100
AcDbEntity
  8
SKVIEW1
100
AcDbCircle
 10
-89.73462480886846
 20
-0.0000000000000142
 30
0.0
 40
5.929667
100
AcDbArc
 50
62.81086099999937
 51
147.7947969999985
  0
ARC
  5
21EAA
330
1F
100
AcDbEntity
  8
SKVIEW1
100
AcDbCircle
 10
-89.73462480886846
 20
-0.0000000000000142
 30
0.0
 40
11.07
100
AcDbArc
 50
90.0
 51
132.9567850000045
  0
ARC
  5
21EAB
330
1F
100
AcDbEntity
  8
SKVIEW1
100
AcDbCircle
 10
-89.73462480886846
 20
-0.0000000000000142
 30
0.0
 40
11.45
100
AcDbArc
 50
90.0
 51
131.355553999999
  0
ARC
  5
21EAC
330
1F
100
AcDbEntity
  8
SKVIEW1
100
AcDbCircle
 10
-89.73462480886846
 20
-0.0000000000000142
 30
0.0
 40
5.929667
100
AcDbArc
 50
242.8108609999994
 51
327.7947969999985
  0
ARC
  5
21EAD
330
1F
100
AcDbEntity
  8
SKVIEW1
100
AcDbCircle
 10
-90.03462480886842
 20
-7.291331000000027
 30
0.0
 40
0.5725
100
AcDbArc
 50
301.6021230000014
 51
87.64390799999979
  0
ARC
  5
21EAE
330
1F
100
AcDbEntity
  8
SKVIEW1
100
AcDbCircle
 10
-89.73462480886846
 20
-0.0000000000000142
 30
0.0
 40
6.931227999999999
100
AcDbArc
 50
271.1892140000002
 51
327.6371939999972
  0
ARC
  5
21EAF
330
1F
100
AcDbEntity
  8
SKVIEW1
100
AcDbCircle
 10
-89.73462480886846
 20
-0.0000000000000142
 30
0.0
 40
11.07
100
AcDbArc
 50
270.0
 51
312.9567850000045
  0
LINE
  5
21EB0
330
1F
100
AcDbEntity
  8
SKVIEW1
100
AcDbLine
 10
-89.73462480886846
 20
-7.778933000000179
 30
0.0
 11
-89.73462480886846
 21
-11.07000000000006
 31
0.0
  0
ARC
  5
21EB1
330
1F
100
AcDbEntity
  8
SKVIEW1
100
AcDbCircle
 10
-89.73462480886846
 20
-0.0000000000000142
 30
0.0
 40
11.45
100
AcDbArc
 50
270.0
 51
311.3555539999989
  0
LINE
  5
21EB2
330
1F
100
AcDbEntity
  8
SKVIEW1
100
AcDbLine
 10
-89.73462480886846
 20
-11.07000000000006
 30
0.0
 11
-89.73462480886846
 21
-11.45000000000017
 31
0.0
  0
ARC
  5
21EB3
330
1F
100
AcDbEntity
  8
SKVIEW1
100
AcDbCircle
 10
-89.73462480886846
 20
-0.0000000000000142
 30
0.0
 40
6.724999999999997
100
AcDbArc
 50
5.364248999999212
 51
87.65746499999877
  0
LINE
  5
21EB4
330
1F
100
AcDbEntity
  8
SKVIEW1
100
AcDbLine
 10
-77.22248980886869
 20
-4.049733000000074
 30
0.0
 11
-77.22248980886869
 21
1.798004999999861
 31
0.0
  0
ARC
  5
21EB5
330
1F
100
AcDbEntity
  8
SKVIEW1
100
AcDbCircle
 10
-79.70536980886866
 20
-3.526579000000211
 30
0.0
 40
5.87502
100
AcDbArc
 50
65.00013000000172
 51
125.6162550000031
  0
ARC
  5
21EB6
330
1F
100
AcDbEntity
  8
SKVIEW1
100
AcDbCircle
 10
-89.73462480886846
 20
-0.0000000000000142
 30
0.0
 40
5.724999999999997
100
AcDbArc
 50
344.7735629999986
 51
353.738974000002
  0
LINE
  5
21EB7
330
1F
100
AcDbEntity
  8
SKVIEW1
100
AcDbLine
 10
-84.07394380886868
 20
-3.411798999999874
 30
0.0
 11
-84.07394380886868
 21
-0.8562269999998903
 31
0.0
  0
SPLINE
  5
21EB8
330
1F
100
AcDbEntity
  8
SKVIEW1
100
AcDbSpline
210
0.0
220
0.0
230
1.0
 70
     8
 71
     5
 72
    24
 73
    18
 74
     0
 42
0.000000001
 43
0.0000000001
 40
0.0
 40
0.0
 40
0.0
 40
0.0
 40
0.0
 40
0.0
 40
2.662951744269998
 40
2.662951744269998
 40
2.662951744269998
 40
5.547420540363368
 40
5.547420540363368
 40
5.547420540363368
 40
8.594024375215138
 40
8.594024375215138
 40
8.594024375215138
 40
11.43286597437548
 40
11.43286597437548
 40
11.43286597437548
 40
14.06158337863669
 40
14.06158337863669
 40
14.06158337863669
 40
14.06158337863669
 40
14.06158337863669
 40
14.06158337863669
 10
-77.22248770716785
 20
-4.049717726944336
 30
0.0
 10
-77.39316267549267
 20
-4.051411979533227
 30
0.0
 10
-77.57981210555115
 20
-4.050741105278248
 30
0.0
 10
-77.78455988906367
 20
-4.047823928969037
 30
0.0
 10
-78.25472502624117
 20
-4.037877871398237
 30
0.0
 10
-78.81735559521016
 20
-4.025505246305229
 30
0.0
 10
-79.1362426657387
 20
-4.01997876897407
 30
0.0
 10
-79.81999971369518
 20
-4.017496726655181
 30
0.0
 10
-80.51657001384516
 20
-4.039203502744967
 30
0.0
 10
-80.85624500710602
 20
-4.058009434145233
 30
0.0
 10
-81.48976155390077
 20
-4.108297795534795
 30
0.0
 10
-82.04278056425195
 20
-4.178058937501546
 30
0.0
 10
-82.28600257254598
 20
-4.214407048625517
 30
0.0
 10
-82.72618527881574
 20
-4.289358932800283
 30
0.0
 10
-83.10255420741313
 20
-4.368655969167335
 30
0.0
 10
-83.27026642726847
 20
-4.407183553703944
 30
0.0
 10
-83.42515948420716
 20
-4.445442752631507
 30
0.0
 10
-83.56881084091439
 20
-4.48321213388705
 30
0.0
  0
LINE
  5
21EB9
330
1F
100
AcDbEntity
  8
SKVIEW1
100
AcDbLine
 10
-89.73462480886846
 20
6.803724999999971
 30
0.0
 11
-89.73462480886846
 21
9.08999999999979
 31
0.0
  0
LINE
  5
21EBA
330
1F
100
AcDbEntity
  8
SKVIEW1
100
AcDbLine
 10
-77.22248980886869
 20
1.798004999999861
 30
0.0
 11
-66.69378380886868
 21
-3.11161200000005
 31
0.0
  0
ARC
  5
21EBB
330
1F
100
AcDbEntity
  8
SKVIEW1
100
AcDbCircle
 10
-89.73462480886846
 20
-0.0000000000000142
 30
0.0
 40
23.25
100
AcDbArc
 50
336.6616390000008
 51
77.07614600000131
  0
LINE
  5
21EBC
330
1F
100
AcDbEntity
  8
SKVIEW1
100
AcDbLine
 10
-84.53462480886864
 20
9.08999999999979
 30
0.0
 11
-84.53462480886864
 21
22.66103499999996
 31
0.0
  0
LINE
  5
21EBD
330
1F
100
AcDbEntity
  8
SKVIEW1
100
AcDbLine
 10
-84.53462480886864
 20
9.08999999999979
 30
0.0
 11
-89.73462480886846
 21
9.08999999999979
 31
0.0
  0
CIRCLE
  5
21EBE
330
1F
100
AcDbEntity
  8
SKVIEW1
100
AcDbCircle
 10
-73.45334680886864
 20
9.399999999999963
 30
0.0
 40
2.35
  0
SPLINE
  5
21EBF
330
1F
100
AcDbEntity
  8
SKVIEW1
100
AcDbSpline
210
0.0
220
0.0
230
1.0
 70
     8
 71
     5
 72
    42
 73
    36
 74
     0
 42
0.000000001
 43
0.0000000001
 40
0.0
 40
0.0
 40
0.0
 40
0.0
 40
0.0
 40
0.0
 40
2.460455134023733
 40
2.460455134023733
 40
2.460455134023733
 40
4.946926898273419
 40
4.946926898273419
 40
4.946926898273419
 40
7.451160062678692
 40
7.451160062678692
 40
7.451160062678692
 40
9.181484577096464
 40
9.181484577096464
 40
9.181484577096464
 40
10.16633063705239
 40
10.16633063705239
 40
10.16633063705239
 40
11.15117669700833
 40
11.15117669700833
 40
11.15117669700833
 40
12.44904043718415
 40
12.44904043718415
 40
12.44904043718415
 40
14.0602258134451
 40
14.0602258134451
 40
14.0602258134451
 40
15.79636726936956
 40
15.79636726936956
 40
15.79636726936956
 40
18.1255034108095
 40
18.1255034108095
 40
18.1255034108095
 40
25.25064322162936
 40
25.25064322162936
 40
25.25064322162936
 40
25.25064322162936
 40
25.25064322162936
 40
25.25064322162936
 10
-77.22248770716797
 20
-4.049717726945473
 30
0.0
 10
-77.06482127034437
 20
-4.048152607166812
 30
0.0
 10
-76.90543876214437
 20
-4.048352481220618
 30
0.0
 10
-76.74433987035715
 20
-4.050491750323104
 30
0.0
 10
-76.41626131164215
 20
-4.059079355410077
 30
0.0
 10
-76.07734558492714
 20
-4.077662123171776
 30
0.0
 10
-75.90691690038622
 20
-4.089632437012951
 30
0.0
 10
-75.55067129741033
 20
-4.120773569601979
 30
0.0
 10
-75.17559873544357
 20
-4.168553133735045
 30
0.0
 10
-74.9792686803793
 20
-4.197971968215043
 30
0.0
 10
-74.63920407211706
 20
-4.257547909609357
 30
0.0
 10
-74.27007426443904
 20
-4.342708731534358
 30
0.0
 10
-74.11559863253396
 20
-4.382109062455597
 30
0.0
 10
-73.85899103609316
 20
-4.455132184855429
 30
0.0
 10
-73.58666913609821
 20
-4.548134563692215
 30
0.0
 10
-73.48585621723774
 20
-4.584783999840865
 30
0.0
 10
-73.2806530619446
 20
-4.664541519055106
 30
0.0
 10
-73.07156185379344
 20
-4.757198285672316
 30
0.0
 10
-72.96686014752672
 20
-4.806741974218326
 30
0.0
 10
-72.7271178213725
 20
-4.928120086424442
 30
0.0
 10
-72.50170055053178
 20
-5.060145341800208
 30
0.0
 10
-72.38402296921762
 20
-5.134991495591307
 30
0.0
 10
-72.13256962500711
 20
-5.30646333015342
 30
0.0
 10
-71.91803458959597
 20
-5.476351540353576
 30
0.0
 10
-71.81007725273136
 20
-5.568418487487988
 30
0.0
 10
-71.60380522756267
 20
-5.755644415606084
 30
0.0
 10
-71.42820617448123
 20
-5.93621477790954
 30
0.0
 10
-71.34356941163193
 20
-6.028416109791933
 30
0.0
 10
-71.15849412017055
 20
-6.240855180327471
 30
0.0
 10
-70.99890442506969
 20
-6.447347374539972
 30
0.0
 10
-70.91475690644242
 20
-6.563063095585007
 30
0.0
 10
-70.59204391099413
 20
-7.032601236716701
 30
0.0
 10
-70.34818171983627
 20
-7.484868015335692
 30
0.0
 10
-70.18936661249316
 20
-7.820074627250747
 30
0.0
 10
-70.05042899706101
 20
-8.156158638580237
 30
0.0
 10
-69.92852609534665
 20
-8.491811384943403
 30
0.0
  0
LINE
  5
21EC0
330
1F
100
AcDbEntity
  8
SKVIEW1
100
AcDbLine
 10
-69.92847980886867
 20
-8.491881000000049
 30
0.0
 11
-68.38690880886852
 21
-9.210728000000031
 31
0.0
  0
ARC
  5
21EC1
330
1F
100
AcDbEntity
  8
SKVIEW1
100
AcDbCircle
 10
-81.49735880886865
 20
-23.77778500000001
 30
0.0
 40
18.483957
100
AcDbArc
 50
92.24135500000047
 51
95.34087100000137
  0
ARC
  5
21EC2
330
1F
100
AcDbEntity
  8
SKVIEW1
100
AcDbCircle
 10
-89.73462480886846
 20
-0.0000000000000142
 30
0.0
 40
9.199999999999999
100
AcDbArc
 50
324.7637309999997
 51
332.3769199999969
  0
ELLIPSE
  5
21EC3
330
1F
100
AcDbEntity
  8
SKVIEW1
100
AcDbEllipse
 10
-79.97492980886867
 20
-17.62493300000018
 30
0.0
 11
11.75409889221191
 21
6.809666633605957
 31
0.0
210
0.0
220
0.0
230
1.0
 40
0.988837
 41
0.2150462158230595
 42
1.1695695868036
  0
LINE
  5
21EC4
330
1F
100
AcDbEntity
  8
SKVIEW1
100
AcDbLine
 10
-95.39530580886852
 20
3.411799999999956
 30
0.0
 11
-95.39530580886852
 21
0.8562269999998619
 31
0.0
  0
SPLINE
  5
21EC5
330
1F
100
AcDbEntity
  8
SKVIEW1
100
AcDbSpline
210
0.0
220
0.0
230
1.0
 70
     8
 71
     5
 72
    42
 73
    36
 74
     0
 42
0.000000001
 43
0.0000000001
 40
0.0
 40
0.0
 40
0.0
 40
0.0
 40
0.0
 40
0.0
 40
2.460455133793408
 40
2.460455133793408
 40
2.460455133793408
 40
4.946926895899159
 40
4.946926895899159
 40
4.946926895899159
 40
7.451160060858388
 40
7.451160060858388
 40
7.451160060858388
 40
9.181484574143699
 40
9.181484574143699
 40
9.181484574143699
 40
10.1663306350049
 40
10.1663306350049
 40
10.1663306350049
 40
11.1511766958661
 40
11.1511766958661
 40
11.1511766958661
 40
12.44904044255565
 40
12.44904044255565
 40
12.44904044255565
 40
14.06022581791032
 40
14.06022581791032
 40
14.06022581791032
 40
15.79636727502106
 40
15.79636727502106
 40
15.79636727502106
 40
18.12550341696743
 40
18.12550341696743
 40
18.12550341696743
 40
25.25064322172136
 40
25.25064322172136
 40
25.25064322172136
 40
25.25064322172136
 40
25.25064322172136
 40
25.25064322172136
 10
-102.2467619105684
 20
4.049717726928733
 30
0.0
 10
-102.4044283473644
 20
4.048152607145979
 30
0.0
 10
-102.5638108555539
 20
4.048352481197966
 30
0.0
 10
-102.7249097473679
 20
4.05049175030011
 30
0.0
 10
-103.0529883060394
 20
4.059079355387879
 30
0.0
 10
-103.3919040326979
 20
4.07766212314344
 30
0.0
 10
-103.5623327177814
 20
4.089632437025088
 30
0.0
 10
-103.9185783208653
 20
4.120773569636057
 30
0.0
 10
-104.2936508828506
 20
4.168553133786403
 30
0.0
 10
-104.4899809375917
 20
4.197971968223882
 30
0.0
 10
-104.8300455459429
 20
4.257547909646163
 30
0.0
 10
-105.1991753536379
 20
4.342708731598676
 30
0.0
 10
-105.3536509859371
 20
4.382109062635876
 30
0.0
 10
-105.6102585822626
 20
4.455132185020929
 30
0.0
 10
-105.8825804822252
 20
4.548134563872835
 30
0.0
 10
-105.9833934011971
 20
4.584784000074463
 30
0.0
 10
-106.1885965567183
 20
4.664541519405915
 30
0.0
 10
-106.397687765046
 20
4.757198286141132
 30
0.0
 10
-106.502389471372
 20
4.80674197474137
 30
0.0
 10
-106.742131798125
 20
4.928120087336864
 30
0.0
 10
-106.9675490697411
 20
5.060145343266626
 30
0.0
 10
-107.0852266488749
 20
5.134991495754192
 30
0.0
 10
-107.3366799934569
 20
5.306463330645087
 30
0.0
 10
-107.5512150291279
 20
5.47635154114549
 30
0.0
 10
-107.659172365886
 20
5.568418488222263
 30
0.0
 10
-107.8654443910035
 20
5.755644416358435
 30
0.0
 10
-108.041043444027
 20
5.936214778668599
 30
0.0
 10
-108.1256802068924
 20
6.028416110608176
 30
0.0
 10
-108.3107554983384
 20
6.240855181222045
 30
0.0
 10
-108.4703451934323
 20
6.447347375514354
 30
0.0
 10
-108.5544927120481
 20
6.563063096590653
 30
0.0
 10
-108.8772057071647
 20
7.032601237439834
 30
0.0
 10
-109.1210678981479
 20
7.484868015801211
 30
0.0
 10
-109.2798830055422
 20
7.820074627880202
 30
0.0
 10
-109.4188206207569
 20
8.156158638844985
 30
0.0
 10
-109.5407235224423
 20
8.491811385002264
 30
0.0
  0
SPLINE
  5
21EC6
330
1F
100
AcDbEntity
  8
SKVIEW1
100
AcDbSpline
210
0.0
220
0.0
230
1.0
 70
     8
 71
     5
 72
    24
 73
    18
 74
     0
 42
0.000000001
 43
0.0000000001
 40
0.0
 40
0.0
 40
0.0
 40
0.0
 40
0.0
 40
0.0
 40
2.663102313731977
 40
2.663102313731977
 40
2.663102313731977
 40
5.547753971812236
 40
5.547753971812236
 40
5.547753971812236
 40
8.594501800957509
 40
8.594501800957509
 40
8.594501800957509
 40
11.43349025085454
 40
11.43349025085454
 40
11.43349025085454
 40
14.06232261009436
 40
14.06232261009436
 40
14.06232261009436
 40
14.06232261009436
 40
14.06232261009436
 40
14.06232261009436
 10
-102.2467619105687
 20
4.049717726927596
 30
0.0
 10
-102.0760772919454
 20
4.051412075324705
 30
0.0
 10
-101.8894164048677
 20
4.050741029368609
 30
0.0
 10
-101.6846540970372
 20
4.047823416977834
 30
0.0
 10
-101.2144530981268
 20
4.037876096865474
 30
0.0
 10
-100.6517753821831
 20
4.025502882262671
 30
0.0
 10
-100.3328605933994
 20
4.019976717704466
 30
0.0
 10
-99.64905524849118
 20
4.017498251159949
 30
0.0
 10
-98.9524519162542
 20
4.039213364361202
 30
0.0
 10
-98.61275948447056
 20
4.058024825010633
 30
0.0
 10
-97.9792350007589
 20
4.108323220205519
 30
0.0
 10
-97.42621939893016
 20
4.178093478099285
 30
0.0
 10
-97.18301149258648
 20
4.214443777221944
 30
0.0
 10
-96.74283639686146
 20
4.289402178635199
 30
0.0
 10
-96.36647784159718
 20
4.368704042084331
 30
0.0
 10
-96.19877167476884
 20
4.407233398194975
 30
0.0
 10
-96.0438848009417
 20
4.445494006653561
 30
0.0
 10
-95.90023963041696
 20
4.483264496136243
 30
0.0
  0
ARC
  5
21EC7
330
1F
100
AcDbEntity
  8
SKVIEW1
100
AcDbCircle
 10
-97.97188780886845
 20
23.777734
 30
0.0
 40
18.483906
100
AcDbArc
 50
272.2413520000004
 51
275.3410659999993
  0
ARC
  5
21EC8
330
1F
100
AcDbEntity
  8
SKVIEW1
100
AcDbCircle
 10
-89.73462480886846
 20
-0.0000000000000142
 30
0.0
 40
9.199999999999999
100
AcDbArc
 50
144.7637309999997
 51
152.3769199999969
  0
ELLIPSE
  5
21EC9
330
1F
100
AcDbEntity
  8
SKVIEW1
100
AcDbEllipse
 10
-99.49431980886842
 20
17.62493299999993
 30
0.0
 11
11.75409889221191
 21
6.809666633605957
 31
0.0
210
0.0
220
0.0
230
1.0
 40
0.988837
 41
3.356638871623023
 42
4.311162242647676
  0
LINE
  5
21ECA
330
1F
100
AcDbEntity
  8
SKVIEW1
100
AcDbLine
 10
-102.2467598088684
 20
4.049732999999932
 30
0.0
 11
-102.2467598088684
 21
-1.798005000000003
 31
0.0
  0
ARC
  5
21ECB
330
1F
100
AcDbEntity
  8
SKVIEW1
100
AcDbCircle
 10
-99.76409480886841
 20
3.527707999999947
 30
0.0
 40
5.876149999999999
100
AcDbArc
 50
245.0066829999964
 51
305.6115480000001
  0
ARC
  5
21ECC
330
1F
100
AcDbEntity
  8
SKVIEW1
100
AcDbCircle
 10
-89.73462480886846
 20
-0.0000000000000142
 30
0.0
 40
6.724999999999997
100
AcDbArc
 50
185.3642489999992
 51
241.352109999998
  0
LINE
  5
21ECD
330
1F
100
AcDbEntity
  8
SKVIEW1
100
AcDbLine
 10
-94.93462480886842
 20
-9.090000000000046
 30
0.0
 11
-89.73462480886846
 21
-9.090000000000046
 31
0.0
  0
LINE
  5
21ECE
330
1F
100
AcDbEntity
  8
SKVIEW1
100
AcDbLine
 10
-89.73462480886846
 20
-23.25000000000013
 30
0.0
 11
-89.73462480886846
 21
-11.45001100000014
 31
0.0
  0
ARC
  5
21ECF
330
1F
100
AcDbEntity
  8
SKVIEW1
100
AcDbCircle
 10
-89.73462480886846
 20
-0.0000000000000142
 30
0.0
 40
23.25
100
AcDbArc
 50
172.3088700000025
 51
257.0761460000013
  0
LINE
  5
21ED0
330
1F
100
AcDbEntity
  8
SKVIEW1
100
AcDbLine
 10
-109.5407698088685
 20
8.491880999999793
 30
0.0
 11
-111.0823408088684
 21
9.210727999999775
 31
0.0
  0
LINE
  5
21ED1
330
1F
100
AcDbEntity
  8
SKVIEW1
100
AcDbLine
 10
-89.73462480886846
 20
-7.778934000000063
 30
0.0
 11
-89.73462480886846
 21
-6.803732000000209
 31
0.0
  0
ARC
  5
21ED2
330
1F
100
AcDbEntity
  8
SKVIEW1
100
AcDbCircle
 10
-89.73462480886846
 20
-0.0000000000000142
 30
0.0
 40
23.25
100
AcDbArc
 50
156.6616390000008
 51
172.3088700000025
  0
LINE
  5
21ED3
330
1F
100
AcDbEntity
  8
SKVIEW1
100
AcDbLine
 10
-102.2467598088684
 20
-1.798005000000003
 30
0.0
 11
-112.7754658088685
 21
3.111611999999794
 31
0.0
  0
LINE
  5
21ED4
330
1F
100
AcDbEntity
  8
SKVIEW1
100
AcDbLine
 10
-94.93462480886842
 20
-9.090000000000046
 30
0.0
 11
-94.93462480886842
 21
-9.867457000000186
 31
0.0
  0
CIRCLE
  5
21ED5
330
1F
100
AcDbEntity
  8
SKVIEW1
100
AcDbCircle
 10
-106.0159028088684
 20
-9.400000000000218
 30
0.0
 40
2.35
  0
LINE
  5
21ED6
330
1F
100
AcDbEntity
  8
SKVIEW1
100
AcDbLine
 10
-89.73462480886846
 20
10.28999999999983
 30
0.0
 11
-89.73462480886846
 21
9.08999999999979
 31
0.0
  0
LINE
  5
21ED7
330
1F
100
AcDbEntity
  8
SKVIEW1
100
AcDbLine
 10
-89.73462480886846
 20
10.28999999999983
 30
0.0
 11
-89.73462480886846
 21
22.29999999999983
 31
0.0
  0
LINE
  5
21ED8
330
1F
100
AcDbEntity
  8
SKVIEW1
100
AcDbLine
 10
-89.73462480886846
 20
22.29999999999983
 30
0.0
 11
-89.73462480886846
 21
23.49999999999999
 31
0.0
  0
LINE
  5
21ED9
330
1F
100
AcDbEntity
  8
SKVIEW1
100
AcDbLine
 10
-84.53462480886864
 20
22.76918799999997
 30
0.0
 11
-84.53462480886864
 21
22.29999999999983
 31
0.0
  0
LINE
  5
21EDA
330
1F
100
AcDbEntity
  8
SKVIEW1
100
AcDbLine
 10
-84.53462480886864
 20
22.29999999999983
 30
0.0
 11
-84.53462480886864
 21
10.28999999999983
 31
0.0
  0
LINE
  5
21EDB
330
1F
100
AcDbEntity
  8
SKVIEW1
100
AcDbLine
 10
-84.53462480886864
 20
10.28999999999983
 30
0.0
 11
-84.53462480886864
 21
9.866459999999946
 31
0.0
  0
LINE
  5
21EDC
330
1F
100
AcDbEntity
  8
SKVIEW1
100
AcDbLine
 10
-84.53462480886864
 20
9.820811999999804
 30
0.0
 11
-89.73462480886846
 21
9.08999999999979
 31
0.0
  0
LINE
  5
21EDD
330
1F
100
AcDbEntity
  8
SKVIEW1
100
AcDbLine
 10
-84.53462480886864
 20
10.28999999999983
 30
0.0
 11
-89.73462480886846
 21
10.28999999999983
 31
0.0
  0
LINE
  5
21EDE
330
1F
100
AcDbEntity
  8
SKVIEW1
100
AcDbLine
 10
-84.53462480886864
 20
22.29999999999983
 30
0.0
 11
-89.73462480886846
 21
22.29999999999983
 31
0.0
  0
LINE
  5
21EDF
330
1F
100
AcDbEntity
  8
SKVIEW1
100
AcDbLine
 10
-84.53462480886864
 20
22.76918799999997
 30
0.0
 11
-89.73462480886846
 21
23.49999999999999
 31
0.0
  0
LINE
  5
21EE0
330
1F
100
AcDbEntity
  8
SKVIEW1
100
AcDbLine
 10
-89.73462480886846
 20
23.49999999999999
 30
0.0
 11
-89.73462480886846
 21
22.29999999999983
 31
0.0
  0
LINE
  5
21EE1
330
1F
100
AcDbEntity
  8
SKVIEW1
100
AcDbLine
 10
-89.73462480886846
 20
10.28999999999983
 30
0.0
 11
-89.73462480886846
 21
9.08999999999979
 31
0.0
  0
LINE
  5
21EE2
330
1F
100
AcDbEntity
  8
SKVIEW1
100
AcDbLine
 10
-89.73462480886846
 20
10.28999999999983
 30
0.0
 11
-89.73462480886846
 21
22.29999999999983
 31
0.0
  0
LINE
  5
21EE3
330
1F
100
AcDbEntity
  8
SKVIEW1
100
AcDbLine
 10
-89.73462480886846
 20
-11.45000100000005
 30
0.0
 11
-89.73462480886846
 21
-22.30000000000008
 31
0.0
  0
LINE
  5
21EE4
330
1F
100
AcDbEntity
  8
SKVIEW1
100
AcDbLine
 10
-89.73462480886846
 20
-22.30000000000008
 30
0.0
 11
-89.73462480886846
 21
-23.50000000000013
 31
0.0
  0
LINE
  5
21EE5
330
1F
100
AcDbEntity
  8
SKVIEW1
100
AcDbLine
 10
-94.93462480886842
 20
-22.769188
 30
0.0
 11
-94.93462480886842
 21
-22.30000000000008
 31
0.0
  0
LINE
  5
21EE6
330
1F
100
AcDbEntity
  8
SKVIEW1
100
AcDbLine
 10
-94.93462480886842
 20
-22.30000000000008
 30
0.0
 11
-94.93462480886842
 21
-10.28999999999998
 31
0.0
  0
LINE
  5
21EE7
330
1F
100
AcDbEntity
  8
SKVIEW1
100
AcDbLine
 10
-94.93462480886842
 20
-10.28999999999998
 30
0.0
 11
-94.93462480886842
 21
-9.82081200000006
 31
0.0
  0
LINE
  5
21EE8
330
1F
100
AcDbEntity
  8
SKVIEW1
100
AcDbLine
 10
-94.93462480886842
 20
-9.82081200000006
 30
0.0
 11
-89.73462480886846
 21
-9.090000000000046
 31
0.0
  0
LINE
  5
21EE9
330
1F
100
AcDbEntity
  8
SKVIEW1
100
AcDbLine
 10
-94.93462480886842
 20
-10.28999999999998
 30
0.0
 11
-89.73462480886846
 21
-10.28999999999998
 31
0.0
  0
LINE
  5
21EEA
330
1F
100
AcDbEntity
  8
SKVIEW1
100
AcDbLine
 10
-94.93462480886842
 20
-22.30000000000008
 30
0.0
 11
-89.73462480886846
 21
-22.30000000000008
 31
0.0
  0
LINE
  5
21EEB
330
1F
100
AcDbEntity
  8
SKVIEW1
100
AcDbLine
 10
-94.93462480886842
 20
-22.769188
 30
0.0
 11
-89.73462480886846
 21
-23.50000000000013
 31
0.0
  0
LINE
  5
21EEC
330
1F
100
AcDbEntity
  8
SKVIEW1
100
AcDbLine
 10
-89.73462480886846
 20
-23.50000000000013
 30
0.0
 11
-89.73462480886846
 21
-22.30000000000008
 31
0.0
  0
LINE
  5
21EED
330
1F
100
AcDbEntity
  8
SKVIEW1
100
AcDbLine
 10
-89.73462480886846
 20
-23.50000000000013
 30
0.0
 11
-89.73462480886846
 21
-22.30000000000008
 31
0.0
  0
LINE
  5
21EEE
330
1F
100
AcDbEntity
  8
SKVIEW1
100
AcDbLine
 10
-89.73462480886846
 20
-22.30000000000008
 30
0.0
 11
-89.73462480886846
 21
-11.45001100000014
 31
0.0
  0
LINE
  5
21EEF
330
1F
100
AcDbEntity
  8
SKVIEW1
100
AcDbLine
 10
-89.73462480886846
 20
-11.45000000000017
 30
0.0
 11
-89.73462480886846
 21
-22.30000000000008
 31
0.0
  0
LINE
  5
21EF8
330
1F
100
AcDbEntity
  8
1
100
AcDbLine
 10
38.01000000000389
 20
11.44999999999992
 30
0.0
 11
37.21000000000382
 21
11.44999999999992
 31
0.0
  0
LINE
  5
21EF9
330
1F
100
AcDbEntity
  8
1
100
AcDbLine
 10
38.6681790000039
 20
11.06999999999981
 30
0.0
 11
38.01000000000389
 21
11.44999999999992
 31
0.0
  0
LINE
  5
21EFA
330
1F
100
AcDbEntity
  8
1
100
AcDbLine
 10
39.24848300000386
 20
7.778932999999923
 30
0.0
 11
38.6681790000039
 21
11.06999999999981
 31
0.0
  0
LINE
  5
21EFB
330
1F
100
AcDbEntity
  8
1
100
AcDbLine
 10
39.24848300000386
 20
7.778932999999923
 30
0.0
 11
39.39795600000392
 21
6.929734999999922
 31
0.0
  0
LINE
  5
21EFC
330
1F
100
AcDbEntity
  8
1
100
AcDbLine
 10
39.42204800000391
 20
6.804005999999944
 30
0.0
 11
39.39795600000392
 21
6.929734999999922
 31
0.0
  0
ARC
  5
21EFD
330
1F
100
AcDbEntity
  8
1
100
AcDbCircle
 10
43.68285500000391
 20
7.686771000000007
 30
0.0
 40
4.350999999999999
100
AcDbArc
 50
191.7004250000014
 51
203.8184049999973
  0
LINE
  5
21EFE
330
1F
100
AcDbEntity
  8
1
100
AcDbLine
 10
42.32000000000383
 20
-0.0000000000000142
 30
0.0
 11
39.70243000000394
 21
5.929666999999867
 31
0.0
  0
LINE
  5
21EFF
330
1F
100
AcDbEntity
  8
1
100
AcDbLine
 10
29.56000000000356
 20
10.10007199999982
 30
0.0
 11
29.56000000000356
 21
3.756342572178922
 31
0.0
  0
DIMENSION
  5
21F00
330
1F
100
AcDbEntity
  8
SK2
100
AcDbDimension
280
     0
  2
*D16
 10
-35.31722024185703
 20
-9.200000000000168
 30
0.0
 11
-35.31722024185703
 21
-0.1227029160794615
 31
0.0
 70
   160
  1
%%C<>
 71
     5
 42
18.39999999999998
 73
     0
 74
     0
 75
     0
  3
STANDARD
100
AcDbAlignedDimension
 13
-18.69999999999643
 23
9.199999999999803
 33
0.0
 14
-18.69999999999643
 24
-9.200000000000173
 34
0.0
 50
90.0
100
AcDbRotatedDimension
1001
ACAD_DSTYLE_DIMARC_LENGTH_SYMBOL
1070
   379
1070
     1
1001
ACAD_DSTYLE_DIM_LINETYPE
1070
   380
1005
14
1001
ACAD_DSTYLE_DIM_EXT1_LINETYPE
1070
   381
1005
14
1001
ACAD_DSTYLE_DIM_EXT2_LINETYPE
1070
   382
1005
14
1001
ACAD
1000
DSTYLE
1002
{
1070
   172
1070
     1
1002
}
  0
LINE
  5
22081
330
1F
100
AcDbEntity
  8
4
100
AcDbLine
 10
0.0000000000000284
 20
-0.0000000000000142
 30
0.0
 11
44.22725000000369
 21
-0.0000000000000142
 31
0.0
  0
LWPOLYLINE
  5
22088
330
1F
100
AcDbEntity
  8
CUT
 48
0.240324
100
AcDbPolyline
 90
       18
 70
     1
 43
0.0
 10
39.70242971064866
 20
5.929666701484379
 42
-0.0529239920136656
 10
39.42226309590186
 20
6.8044118743028
 10
39.3979560000038
 20
6.929734999999922
 10
39.24848300000352
 20
7.778932999999923
 10
38.66817900000379
 20
11.06999999999981
 10
38.01000000000377
 20
11.44999999999992
 10
37.21000000000382
 20
11.44999999999992
 10
37.21000000000376
 20
22.29999999999983
 42
0.4142135623730951
 10
36.01000000000377
 20
23.49999999999999
 10
24.00000000000356
 20
23.49999999999983
 42
0.4142135623730951
 10
22.80000000000356
 20
22.29999999999983
 10
22.80000000000356
 20
10.28999999999983
 42
0.4142135623730951
 10
24.00000000000356
 20
9.08999999999979
 10
29.56000000000356
 20
9.08999999999979
 10
29.56000000000356
 20
8.486293999999801
 10
29.56165700000358
 20
3.756153999999796
 10
29.56165700000358
 20
-0.0000000000000142
 10
42.32000000000383
 20
-0.0000000000000142
  0
LWPOLYLINE
  5
2209A
330
1F
100
AcDbEntity
  8
NOCUT
100
AcDbPolyline
 90
        9
 70
     1
 43
0.0
 10
-18.69999999999621
 20
-0.0000000000000142
 10
36.21000000000359
 20
-0.0000000000000142
 10
36.21000000000359
 20
11.14664400000002
 10
36.21000000000359
 20
23.24999999999999
 10
0.0000000000035527
 20
23.24999999999999
 10
0.0000000000035527
 20
11.14664400000002
 10
0.0000000000035527
 20
9.199999999999803
 10
-18.69999999999643
 20
9.199999999999803
 10
-18.69999999999643
 20
4.410714999999854
  0
VIEWPORT
  5
9C00
330
1B
100
AcDbEntity
 67
     1
  8
0
348
3195
100
AcDbViewport
 10
108.2280559557949
 20
71.69854161746989
 30
0.0
 40
251.8950231529317
 41
201.8884082081047
 68
     1
 69
     1
 12
108.2280559557949
 22
71.69854161746989
 13
0.0
 23
0.0
 14
10.0
 24
10.0
 15
10.0
 25
10.0
 16
0.0
 26
0.0
 36
1.0
 17
0.0
 27
0.0
 37
0.0
 42
50.0
 43
0.0
 44
0.0
 45
201.8884082081047
 50
0.0
 51
0.0
 72
   100
 90
   557088
  1

281
     0
 71
     1
 74
     0
110
0.0
120
0.0
130
0.0
111
1.0
121
0.0
131
0.0
112
0.0
122
1.0
132
0.0
 79
     0
146
0.0
170
     0
 61
     5
292
     1
282
     1
141
0.0
142
0.0
 63
   250
421
  3355443
  0
VIEWPORT
  5
9C02
330
1B
100
AcDbEntity
 67
     1
  8
1
348
3195
100
AcDbViewport
 10
143.457083940506
 20
98.18158769607544
 30
0.0
 40
229.5313343048095
 41
157.0905403137207
 68
     2
 69
     2
 12
-44.37697124786255
 22
-35.12342998133886
 13
0.0
 23
0.0
 14
10.0
 24
10.0
 15
10.0
 25
10.0
 16
0.0
 26
0.0
 36
1.0
 17
0.0
 27
0.0
 37
0.0
 42
50.0
 43
0.0
 44
0.0
 45
300.3886240724386
 50
0.0
 51
0.0
 72
   100
 90
   557088
  1

281
     0
 71
     1
 74
     0
110
0.0
120
0.0
130
0.0
111
1.0
121
0.0
131
0.0
112
0.0
122
1.0
132
0.0
 79
     0
146
0.0
170
     0
 61
     5
348
3195
292
     1
282
     1
141
0.0
142
0.0
 63
   250
421
  3355443
  0
ENDSEC
  0
SECTION
  2
OBJECTS
  0
DICTIONARY
  5
3182
330
0
100
AcDbDictionary
281
     1
  3
ACAD_CIP_PREVIOUS_PRODUCT_INFO
350
1B2F4
  3
ACAD_COLOR
350
31A0
  3
ACAD_DETAILVIEWSTYLE
350
1B2F0
  3
ACAD_FIELDLIST
350
20CBF
  3
ACAD_GROUP
350
3183
  3
ACAD_LAYOUT
350
31A5
  3
ACAD_MATERIAL
350
318B
  3
ACAD_MLEADERSTYLE
350
1B221
  3
ACAD_MLINESTYLE
350
3184
  3
ACAD_PLOTSETTINGS
350
31A4
  3
ACAD_PLOTSTYLENAME
350
3189
  3
ACAD_SCALELIST
350
1B1FC
  3
ACAD_SECTIONVIEWSTYLE
350
1B2EE
  3
ACAD_TABLESTYLE
350
31A1
  3
ACAD_VISUALSTYLE
350
318F
  3
ACDB_RECOMPOSE_DATA
350
220D3
  3
AcDbVariableDictionary
350
33A3
  0
DICTIONARY
  5
422A
330
2
100
AcDbDictionary
280
     1
281
     1
  3
ACAD_LAYERFILTERS
360
1B063
  3
ACAD_LAYERSTATES
360
9A1C
  3
ACLYDICTIONARY
360
1B062
  0
DICTIONARY
  5
1B2F5
330
10
100
AcDbDictionary
280
     1
281
     1
  3
ADSK_XREC_LAYER_RECONCILED
360
21B8E
  0
DICTIONARY
  5
1B2F7
330
3F8C
100
AcDbDictionary
280
     1
281
     1
  3
ADSK_XREC_LAYER_RECONCILED
360
21B8F
  0
DICTIONARY
  5
1B2F9
330
9C4A
100
AcDbDictionary
280
     1
281
     1
  3
ADSK_XREC_LAYER_RECONCILED
360
21B90
  0
DICTIONARY
  5
1B2FB
330
9C4B
100
AcDbDictionary
280
     1
281
     1
  3
ADSK_XREC_LAYER_RECONCILED
360
21B91
  0
DICTIONARY
  5
1B2FD
330
9C4D
100
AcDbDictionary
280
     1
281
     1
  3
ADSK_XREC_LAYER_RECONCILED
360
21B92
  0
DICTIONARY
  5
1B2FF
330
9C4E
100
AcDbDictionary
280
     1
281
     1
  3
ADSK_XREC_LAYER_RECONCILED
360
21B93
  0
DICTIONARY
  5
1B301
330
9C4F
100
AcDbDictionary
280
     1
281
     1
  3
ADSK_XREC_LAYER_RECONCILED
360
21B94
  0
DICTIONARY
  5
1B303
330
9C50
100
AcDbDictionary
280
     1
281
     1
  3
ADSK_XREC_LAYER_RECONCILED
360
21B95
  0
DICTIONARY
  5
1B305
330
9C51
100
AcDbDictionary
280
     1
281
     1
  3
ADSK_XREC_LAYER_RECONCILED
360
21B96
  0
DICTIONARY
  5
1B307
330
13335
100
AcDbDictionary
280
     1
281
     1
  3
ADSK_XREC_LAYER_RECONCILED
360
21B97
  0
DICTIONARY
  5
1B309
330
1686E
100
AcDbDictionary
280
     1
281
     1
  3
ADSK_XREC_LAYER_RECONCILED
360
21B98
  0
DICTIONARY
  5
339C
330
1F
100
AcDbDictionary
280
     1
281
     1
  3
ACAD_SORTENTS
360
339D
  0
DICTIONARY
  5
1DE81
330
1B3D7
100
AcDbDictionary
280
     1
281
     1
  0
XRECORD
  5
1B2F4
102
{ACAD_REACTORS
330
3182
102
}
330
3182
100
AcDbXrecord
280
     1
300
ACDLT
300
2015
300
ACDLT_F_S
  0
DICTIONARY
  5
31A0
102
{ACAD_REACTORS
330
3182
102
}
330
3182
100
AcDbDictionary
281
     1
  0
DICTIONARY
  5
1B2F0
102
{ACAD_REACTORS
330
3182
102
}
330
3182
100
AcDbDictionary
281
     1
  3
Imperial24
350
20CB3
  3
Metric50
350
1B2F1
  0
FIELDLIST
  5
20CBF
102
{ACAD_REACTORS
330
3182
102
}
330
3182
100
AcDbIdSet
 90
        0
100
AcDbFieldList
  0
DICTIONARY
  5
3183
102
{ACAD_REACTORS
330
3182
102
}
330
3182
100
AcDbDictionary
281
     1
  0
DICTIONARY
  5
31A5
102
{ACAD_REACTORS
330
3182
102
}
330
3182
100
AcDbDictionary
281
     1
  3
Layout1
350
31A7
  3
Model
350
31A6
  0
DICTIONARY
  5
318B
102
{ACAD_REACTORS
330
3182
102
}
330
3182
100
AcDbDictionary
281
     1
  3
ByBlock
350
318D
  3
ByLayer
350
318C
  3
Global
350
318E
  0
DICTIONARY
  5
1B221
102
{ACAD_REACTORS
330
3182
102
}
330
3182
100
AcDbDictionary
281
     1
  3
Standard
350
1B2ED
  0
DICTIONARY
  5
3184
102
{ACAD_REACTORS
330
3182
102
}
330
3182
100
AcDbDictionary
281
     1
  3
STANDARD
350
3185
  0
DICTIONARY
  5
31A4
102
{ACAD_REACTORS
330
3182
102
}
330
3182
100
AcDbDictionary
281
     1
  0
ACDBDICTIONARYWDFLT
  5
3189
102
{ACAD_REACTORS
330
3182
102
}
330
3182
100
AcDbDictionary
281
     1
  3
Normal
350
318A
100
AcDbDictionaryWithDefault
340
318A
  0
DICTIONARY
  5
1B1FC
102
{ACAD_REACTORS
330
3182
102
}
330
3182
100
AcDbDictionary
281
     1
  3
A0
350
1B1FD
  3
A1
350
1B1FE
  3
A2
350
1B1FF
  3
A3
350
1B200
  3
A4
350
1B201
  3
A5
350
1B202
  3
A6
350
1B203
  3
A7
350
1B204
  3
A8
350
1B205
  3
A9
350
1B206
  3
B0
350
1B207
  3
B1
350
1B208
  3
B2
350
1B209
  3
B3
350
1B20A
  3
B4
350
1B20B
  3
B5
350
1B20C
  3
B6
350
1B20D
  3
B7
350
1B20E
  3
B8
350
1B20F
  3
B9
350
1B210
  3
C0
350
1B211
  3
C1
350
1B212
  3
C2
350
1B213
  3
C3
350
1B214
  3
C4
350
1B215
  3
C5
350
1B216
  3
C6
350
1B217
  3
C7
350
1B218
  3
C8
350
1B219
  3
C9
350
1B21A
  3
D0
350
1B21B
  3
D1
350
1B21C
  3
D2
350
1B21D
  0
DICTIONARY
  5
1B2EE
102
{ACAD_REACTORS
330
3182
102
}
330
3182
100
AcDbDictionary
281
     1
  3
Imperial24
350
20CB1
  3
Metric50
350
1B2EF
  0
DICTIONARY
  5
31A1
102
{ACAD_REACTORS
330
3182
102
}
330
3182
100
AcDbDictionary
281
     1
  3
Standard
350
31A2
  0
DICTIONARY
  5
318F
102
{ACAD_REACTORS
330
3182
102
}
330
3182
100
AcDbDictionary
281
     1
  3
2dWireframe
350
3195
  3
3D Hidden
350
3197
  3
3dWireframe
350
3196
  3
Basic
350
3194
  3
Brighten
350
319B
  3
ColorChange
350
319F
  3
Conceptual
350
3198
  3
Dim
350
319A
  3
EdgeColorOff
350
1B2EC
  3
Facepattern
350
319E
  3
Flat
350
3190
  3
FlatWithEdges
350
3191
  3
Gouraud
350
3192
  3
GouraudWithEdges
350
3193
  3
Hidden
350
1B2E4
  3
JitterOff
350
1B2EA
  3
Linepattern
350
319D
  3
OverhangOff
350
1B2EB
  3
Realistic
350
3199
  3
Shaded
350
1B2E9
  3
Shaded with edges
350
1B2E8
  3
Shades of Gray
350
1B2E5
  3
Sketchy
350
1B2E6
  3
Thicken
350
319C
  3
Wireframe
350
1B2E3
  3
X-Ray
350
1B2E7
  0
XRECORD
  5
220D3
102
{ACAD_REACTORS
330
3182
102
}
330
3182
100
AcDbXrecord
280
     1
 90
        1
330
31A2
  0
DICTIONARY
  5
33A3
102
{ACAD_REACTORS
330
3182
102
}
330
3182
100
AcDbDictionary
281
     1
  3
CANNOSCALE
350
1B222
  3
CMLEADERSTYLE
350
1B30F
  3
CTABLESTYLE
350
33A4
  3
CVIEWDETAILSTYLE
350
1B310
  3
CVIEWSECTIONSTYLE
350
1B311
  3
DIMASSOC
350
9BE8
  3
INDEXCTL
350
9BE7
  3
LAYEREVAL
350
20993
  3
LAYERNOTIFY
350
20994
  3
LIGHTINGUNITS
350
20992
  3
MSLTSCALE
350
20991
  3
SORTENTS
350
9BE6
  0
DICTIONARY
  5
1B063
102
{ACAD_REACTORS
330
422A
102
}
330
422A
100
AcDbDictionary
281
     1
  0
DICTIONARY
  5
9A1C
102
{ACAD_REACTORS
330
422A
102
}
330
422A
100
AcDbDictionary
281
     1
  0
DICTIONARY
  5
1B062
102
{ACAD_REACTORS
330
422A
102
}
330
422A
100
AcDbDictionary
281
     1
1001
ACAD
1000
<All
  0
XRECORD
  5
21B8E
102
{ACAD_REACTORS
330
1B2F5
102
}
330
1B2F5
100
AcDbXrecord
280
     1
290
     1
  0
XRECORD
  5
21B8F
102
{ACAD_REACTORS
330
1B2F7
102
}
330
1B2F7
100
AcDbXrecord
280
     1
290
     1
  0
XRECORD
  5
21B90
102
{ACAD_REACTORS
330
1B2F9
102
}
330
1B2F9
100
AcDbXrecord
280
     1
290
     1
  0
XRECORD
  5
21B91
102
{ACAD_REACTORS
330
1B2FB
102
}
330
1B2FB
100
AcDbXrecord
280
     1
290
     1
  0
XRECORD
  5
21B92
102
{ACAD_REACTORS
330
1B2FD
102
}
330
1B2FD
100
AcDbXrecord
280
     1
290
     1
  0
XRECORD
  5
21B93
102
{ACAD_REACTORS
330
1B2FF
102
}
330
1B2FF
100
AcDbXrecord
280
     1
290
     1
  0
XRECORD
  5
21B94
102
{ACAD_REACTORS
330
1B301
102
}
330
1B301
100
AcDbXrecord
280
     1
290
     1
  0
XRECORD
  5
21B95
102
{ACAD_REACTORS
330
1B303
102
}
330
1B303
100
AcDbXrecord
280
     1
290
     1
  0
XRECORD
  5
21B96
102
{ACAD_REACTORS
330
1B305
102
}
330
1B305
100
AcDbXrecord
280
     1
290
     1
  0
XRECORD
  5
21B97
102
{ACAD_REACTORS
330
1B307
102
}
330
1B307
100
AcDbXrecord
280
     1
290
     1
  0
XRECORD
  5
21B98
102
{ACAD_REACTORS
330
1B309
102
}
330
1B309
100
AcDbXrecord
280
     1
290
     1
  0
SORTENTSTABLE
  5
339D
102
{ACAD_REACTORS
330
339C
102
}
330
339C
100
AcDbSortentsTable
330
1F
331
21E70
  5
21E84
331
21EF9
  5
2209B
331
21E61
  5
21E75
331
21EEA
  5
21EFE
331
21E59
  5
21E73
331
21EDB
  5
21EEF
331
21E4A
  5
21E57
331
21E3B
  5
21E48
331
21E2C
  5
21E39
331
21E1D
  5
21E2A
331
21ED7
  5
21EEB
331
21E0E
  5
21E19
331
21EC8
  5
21EDC
331
21DFF
  5
21E06
331
21EB9
  5
21ECD
331
21EAA
  5
21EBE
331
21E9B
  5
21EAF
331
21E8C
  5
21EA0
331
21E7D
  5
21E91
331
21E6E
  5
21E82
331
21E57
  5
21E6B
331
21DF0
  5
21DF1
331
21DED
  5
21DED
331
21ED2
  5
21EE6
331
21E18
  5
21E25
331
21EC3
  5
21ED7
331
21EB4
  5
21EC8
331
21EA5
  5
21EB9
331
21E96
  5
21EAA
331
21E78
  5
21E8C
331
22088
  5
21E74
331
21E69
  5
21E7D
331
21EE3
  5
21EF7
331
21E52
  5
21E66
331
21E43
  5
21E50
331
21E34
  5
21E41
331
21E25
  5
21E32
331
21E16
  5
21E21
331
21E87
  5
21E9B
331
21DE8
  5
21DE8
331
21EA0
  5
21EB4
331
21E91
  5
21EA5
331
21E82
  5
21E96
331
21E73
  5
21E87
331
21EFC
  5
2209E
331
21E64
  5
21E78
331
21EED
  5
22081
331
21EDE
  5
21EF2
331
21E4D
  5
21E5A
331
21E3E
  5
21E4B
331
21E2F
  5
21E3C
331
21E20
  5
21E2E
331
21E11
  5
21E1C
331
21ECB
  5
21EDF
331
21E02
  5
21E0D
331
21EBC
  5
21ED0
331
21EAD
  5
21EC1
331
21E9E
  5
21EB2
331
21E8F
  5
21EA3
331
21DF3
  5
21DF4
331
21EE8
  5
21EFC
331
21ED9
  5
21EED
331
21E48
  5
21E55
331
21E39
  5
21E46
331
21E2A
  5
21E37
331
21E1B
  5
21E28
331
21ED5
  5
21EE9
331
21E0C
  5
21E17
331
21EC6
  5
21EDA
331
21DFD
  5
21E04
331
21EB7
  5
21ECB
331
21EA8
  5
21EBC
331
21DEB
  5
21DEB
331
2209A
  5
22099
331
21E99
  5
21EAD
331
21E8A
  5
21E9E
331
21E7B
  5
21E8F
331
21E6C
  5
21E80
331
21EE6
  5
21EFA
331
21E55
  5
21E69
331
21E46
  5
21E53
331
21E37
  5
21E44
331
211A0
  5
211A0
331
21ED0
  5
21EE4
331
21EC1
  5
21ED5
331
21EB2
  5
21EC6
331
21EA3
  5
21EB7
331
21E94
  5
21EA8
331
21E76
  5
21E8A
331
21EFF
  5
220A1
331
21E67
  5
21E7B
331
21EE1
  5
21EF5
331
21E50
  5
21E64
331
21E41
  5
21E4E
331
21E32
  5
21E3F
331
21E14
  5
21E1F
331
21ECE
  5
21EE2
331
21E05
  5
21E14
331
21EBF
  5
21ED3
331
21E85
  5
21E99
331
21E80
  5
21E94
331
21E71
  5
21E85
331
21EFA
  5
2209C
331
21E62
  5
21E76
331
21EEB
  5
21EFF
331
21EDC
  5
21EF0
331
21E4B
  5
21E58
331
21E3C
  5
21E49
331
21E2D
  5
21E3A
331
22081
  5
21DF0
331
21E1E
  5
21E2B
331
21E0F
  5
21E1A
331
21EC9
  5
21EDD
331
21E00
  5
21E0B
331
21EBA
  5
21ECE
331
21EAB
  5
21EBF
331
21E9C
  5
21EB0
331
21E8D
  5
21EA1
331
21E7E
  5
21E92
331
21E6F
  5
21E83
331
21DF1
  5
21DF2
331
21DEE
  5
21DEE
331
21E28
  5
21E35
331
21E19
  5
21E26
331
21ED3
  5
21EE7
331
21E0A
  5
21E15
331
21EC4
  5
21ED8
331
21EB5
  5
21EC9
331
21EA6
  5
21EBA
331
21E97
  5
21EAB
331
21E88
  5
21E9C
331
21E6A
  5
21E7E
331
21EE4
  5
21EF8
331
21E53
  5
21E67
331
21E44
  5
21E51
331
21E35
  5
21E42
331
21E26
  5
21E33
331
21E79
  5
21E8D
331
21DE9
  5
21DE9
331
21E17
  5
21E23
331
21DE7
  5
21DE7
331
21EB0
  5
21EC4
331
21EA1
  5
21EB5
331
21E92
  5
21EA6
331
21E83
  5
21E97
331
21E74
  5
21E88
331
21EFD
  5
2209F
331
21E65
  5
21E79
331
21EEE
  5
22088
331
21EDF
  5
21EF3
331
21E4E
  5
21E62
331
21E3F
  5
21E4C
331
21E30
  5
21E3D
331
21E12
  5
21E1D
331
21ECC
  5
21EE0
331
21E03
  5
21E0E
331
21EBD
  5
21ED1
331
21E9F
  5
21EB3
331
21EAE
  5
21EC2
331
21EF8
  5
2209A
331
21EE9
  5
21EFD
331
21E58
  5
21E6C
331
21EDA
  5
21EEE
331
21E49
  5
21E56
331
21E3A
  5
21E47
331
21E2B
  5
21E38
331
21E1C
  5
21E29
331
21ED6
  5
21EEA
331
21E0D
  5
21E18
331
21EC7
  5
21EDB
331
21DFE
  5
21E05
331
21EB8
  5
21ECC
331
21EA9
  5
21EBD
331
21E9A
  5
21EAE
331
21E8B
  5
21E9F
331
21E7C
  5
21E90
331
21EE7
  5
21EFB
331
21E56
  5
21E6A
331
21E47
  5
21E54
331
21E6D
  5
21E81
331
21DEC
  5
21DEC
331
21ED1
  5
21EE5
331
21EC2
  5
21ED6
331
21DF9
  5
21E02
331
21EB3
  5
21EC7
331
21EA4
  5
21EB8
331
21E95
  5
21EA9
331
21E77
  5
21E8B
331
21F00
  5
220A2
331
21E68
  5
21E7C
331
21EE2
  5
21EF6
331
21E51
  5
21E65
331
21E42
  5
21E4F
331
21E33
  5
21E40
331
21E24
  5
21E31
331
21ECF
  5
21EE3
331
21E15
  5
21E20
331
21E86
  5
21E9A
331
21E90
  5
21EA4
331
21E81
  5
21E95
331
21E72
  5
21E86
331
21EFB
  5
2209D
331
21E63
  5
21E77
331
21EEC
  5
21F00
331
21EDD
  5
21EF1
331
21E4C
  5
21E59
331
21E3D
  5
21E4A
331
21E2E
  5
21E3B
331
21E1F
  5
21E2C
331
21E10
  5
21E1B
331
21ECA
  5
21EDE
331
21E01
  5
21E0C
331
21EBB
  5
21ECF
331
21EAC
  5
21EC0
331
21E9D
  5
21EB1
331
21E8E
  5
21EA2
331
21E7F
  5
21E93
331
21DF2
  5
21DF3
331
21DEF
  5
21DEF
331
21ED8
  5
21EEC
331
21E38
  5
21E45
331
21E29
  5
21E36
331
21E1A
  5
21E27
331
21ED4
  5
21EE8
331
21E0B
  5
21E16
331
21EC5
  5
21ED9
331
21DFC
  5
21E03
331
21EB6
  5
21ECA
331
21EA7
  5
21EBB
331
21E98
  5
21EAC
331
21E89
  5
21E9D
331
21E7A
  5
21E8E
331
21EE5
  5
21EF9
331
21E54
  5
21E68
331
21E45
  5
21E52
331
21E36
  5
21E43
331
21E27
  5
21E34
331
21E6B
  5
21E7F
331
21DEA
  5
21DEA
331
21EC0
  5
21ED4
331
21EB1
  5
21EC5
331
21EA2
  5
21EB6
331
21E93
  5
21EA7
331
21E84
  5
21E98
331
21E75
  5
21E89
331
21EFE
  5
220A0
331
21E66
  5
21E7A
331
21EEF
  5
22091
331
21EE0
  5
21EF4
331
21E4F
  5
21E63
331
21E40
  5
21E4D
331
21E31
  5
21E3E
331
21E22
  5
21E30
331
21E13
  5
21E1E
331
21ECD
  5
21EE1
331
21E04
  5
21E0F
331
21EBE
  5
21ED2
331
21EAF
  5
21EC3
331
21DF5
  5
21DF9
331
21DE3
  5
21DE3
  0
ACDBDETAILVIEWSTYLE
  5
20CB3
102
{ACAD_XDICTIONARY
360
2210E
102
}
102
{ACAD_REACTORS
330
1B2F0
102
}
330
1B2F0
100
AcDbModelDocViewStyle
 70
     0
  3
Imperial24
290
     0
100
AcDbDetailViewStyle
 70
     0
 71
     0
 90
        3
 71
     1
340
11
 62
   256
 40
0.24
340
0
 62
   256
 40
0.24
300

 40
0.36
280
     3
 71
     2
340
16
 90
       25
 62
   256
 71
     3
340
11
 62
   256
 40
0.24
 90
        1
 40
0.75
 90
        1
300
%<\AcVar ViewType \f "%tc1">% %<\AcVar ViewDetailId>%\PVARIA %<\AcVar ViewScale \f "%sn">%
 71
     4
340
16
 90
       25
 62
   256
340
16
 90
       25
 62
   256
280
     0
  0
ACDBDETAILVIEWSTYLE
  5
1B2F1
102
{ACAD_XDICTIONARY
360
2210A
102
}
102
{ACAD_REACTORS
330
1B2F0
102
}
330
1B2F0
100
AcDbModelDocViewStyle
 70
     0
  3
Metric50
290
     0
100
AcDbDetailViewStyle
 70
     0
 71
     0
 90
        3
 71
     1
340
11
 62
   256
 40
5.0
340
0
 62
   256
 40
5.0
300

 40
0.0
280
     1
 71
     2
340
16
 90
       25
 62
   256
 71
     3
340
11
 62
   256
 40
5.0
 90
        0
 40
15.0
 90
        1
300
%<\AcVar ViewDetailId>% (%<\AcVar ViewScale \f "%sn">%)
 71
     4
340
16
 90
       25
 62
   256
340
16
 90
       25
 62
   256
280
     0
  0
LAYOUT
  5
31A7
102
{ACAD_REACTORS
330
31A5
102
}
330
31A5
100
AcDbPlotSettings
  1

  2
\\ingdc01\ITB3
  4
A4
  6

 40
6.805083274841307
 41
5.027085781097412
 42
6.805068969726562
 43
5.027069091796875
 44
209.9733276367186
 45
296.9683227539062
 46
0.0
 47
0.0
 48
0.0
 49
0.0
140
0.0
141
0.0
142
1.0
143
1.0
 70
   688
 72
     1
 73
     1
 74
     5
  7

 75
    16
147
1.0
 76
     0
 77
     2
 78
   300
148
0.0
149
0.0
100
AcDbLayout
  1
Layout1
 70
     1
 71
     1
 10
-5.027069091796875
 20
-6.805083274841307
 11
291.9412536621094
 21
203.1682443618775
 12
0.0
 22
0.0
 32
0.0
 14
28.69141678810127
 24
19.6363175392151
 34
0.0
 15
258.2227510929107
 25
176.7268578529358
 35
0.0
146
0.0
 13
0.0
 23
0.0
 33
0.0
 16
1.0
 26
0.0
 36
0.0
 17
0.0
 27
1.0
 37
0.0
 76
     0
330
1B
331
9C00
1001
ACAD_PSEXT
1000
\\ingdc01\ITB3
1000
HP LaserJet 5000 Series PCL
1000
TB
1000

1070
     0
  0
LAYOUT
  5
31A6
102
{ACAD_REACTORS
330
31A5
102
}
330
31A5
100
AcDbPlotSettings
  1

  2
\\ingdc01\ITB3
  4
A4
  6

 40
6.805083274841307
 41
5.027085781097412
 42
6.805068969726562
 43
5.027069091796875
 44
209.9733276367186
 45
296.9683227539062
 46
0.0
 47
0.0
 48
0.0
 49
0.0
140
0.0
141
0.0
142
1.0
143
1.500313223655698
 70
 11952
 72
     1
 73
     1
 74
     0
  7

 75
     0
147
0.6665274852163048
 76
     0
 77
     2
 78
   300
148
239.0155119930048
149
102.2558208723354
100
AcDbLayout
  1
Model
 70
     1
 71
     0
 10
0.0
 20
0.0
 11
12.0
 21
9.0
 12
0.0
 22
0.0
 32
0.0
 14
0.0
 24
0.0
 34
0.0
 15
0.0
 25
0.0
 35
0.0
146
0.0
 13
0.0
 23
0.0
 33
0.0
 16
1.0
 26
0.0
 36
0.0
 17
0.0
 27
1.0
 37
0.0
 76
     0
330
1F
331
1F4
1001
ACAD_PSEXT
1000
\\ingdc01\ITB3
1000
HP LaserJet 5000 Series PCL
1000
TB
1000

1070
     0
  0
MATERIAL
  5
318D
102
{ACAD_XDICTIONARY
360
1B22B
102
}
102
{ACAD_REACTORS
330
318B
102
}
330
318B
100
AcDbMaterial
  1
ByBlock
  0
MATERIAL
  5
318C
102
{ACAD_XDICTIONARY
360
1B22D
102
}
102
{ACAD_REACTORS
330
318B
102
}
330
318B
100
AcDbMaterial
  1
ByLayer
  0
MATERIAL
  5
318E
102
{ACAD_XDICTIONARY
360
1B22F
102
}
102
{ACAD_REACTORS
330
318B
102
}
330
318B
100
AcDbMaterial
  1
Global
  0
MLEADERSTYLE
  5
1B2ED
102
{ACAD_REACTORS
330
1B221
102
}
330
1B221
100
AcDbMLeaderStyle
179
     2
170
     2
171
     1
172
     0
 90
        2
 40
0.0
 41
0.0
173
     1
 91
-1056964608
340
14
 92
       -2
290
     1
 42
2.0
291
     1
 43
0.36
  3
Standard
 44
4.0
300

342
11
174
     1
178
     6
175
     1
176
     0
 93
-1056964608
 45
4.0
292
     0
297
     0
 46
4.0
 94
-1056964608
 47
1.0
 49
1.0
140
1.0
293
     1
141
0.0
294
     1
177
     0
142
1.0
295
     0
296
     0
143
0.125
271
     0
272
     9
273
     9
1001
ACAD_MLEADERVER
1070
     2
  0
MLINESTYLE
  5
3185
102
{ACAD_REACTORS
330
3184
102
}
330
3184
100
AcDbMlineStyle
  2
STANDARD
 70
     0
  3

 62
   256
 51
90.0
 52
90.0
 71
     2
 49
0.5
 62
   256
  6
BYLAYER
 49
-0.5
 62
   256
  6
BYLAYER
  0
ACDBPLACEHOLDER
  5
318A
102
{ACAD_REACTORS
330
3189
102
}
330
3189
  0
SCALE
  5
1B1FD
102
{ACAD_REACTORS
330
1B1FC
102
}
330
1B1FC
100
AcDbScale
 70
     0
300
1:1
140
1.0
141
1.0
290
     1
1001
ACAD
1000
AcRTDxfName
1000
SCALE
  0
SCALE
  5
1B1FE
102
{ACAD_REACTORS
330
1B1FC
102
}
330
1B1FC
100
AcDbScale
 70
     0
300
1:2
140
1.0
141
2.0
290
     0
1001
ACAD
1000
AcRTDxfName
1000
SCALE
  0
SCALE
  5
1B1FF
102
{ACAD_REACTORS
330
1B1FC
102
}
330
1B1FC
100
AcDbScale
 70
     0
300
1:4
140
1.0
141
4.0
290
     0
1001
ACAD
1000
AcRTDxfName
1000
SCALE
  0
SCALE
  5
1B200
102
{ACAD_REACTORS
330
1B1FC
102
}
330
1B1FC
100
AcDbScale
 70
     0
300
1:5
140
1.0
141
5.0
290
     0
1001
ACAD
1000
AcRTDxfName
1000
SCALE
  0
SCALE
  5
1B201
102
{ACAD_REACTORS
330
1B1FC
102
}
330
1B1FC
100
AcDbScale
 70
     0
300
1:8
140
1.0
141
8.0
290
     0
1001
ACAD
1000
AcRTDxfName
1000
SCALE
  0
SCALE
  5
1B202
102
{ACAD_REACTORS
330
1B1FC
102
}
330
1B1FC
100
AcDbScale
 70
     0
300
1:10
140
1.0
141
10.0
290
     0
1001
ACAD
1000
AcRTDxfName
1000
SCALE
  0
SCALE
  5
1B203
102
{ACAD_REACTORS
330
1B1FC
102
}
330
1B1FC
100
AcDbScale
 70
     0
300
1:16
140
1.0
141
16.0
290
     0
1001
ACAD
1000
AcRTDxfName
1000
SCALE
  0
SCALE
  5
1B204
102
{ACAD_REACTORS
330
1B1FC
102
}
330
1B1FC
100
AcDbScale
 70
     0
300
1:20
140
1.0
141
20.0
290
     0
1001
ACAD
1000
AcRTDxfName
1000
SCALE
  0
SCALE
  5
1B205
102
{ACAD_REACTORS
330
1B1FC
102
}
330
1B1FC
100
AcDbScale
 70
     0
300
1:30
140
1.0
141
30.0
290
     0
1001
ACAD
1000
AcRTDxfName
1000
SCALE
  0
SCALE
  5
1B206
102
{ACAD_REACTORS
330
1B1FC
102
}
330
1B1FC
100
AcDbScale
 70
     0
300
1:40
140
1.0
141
40.0
290
     0
1001
ACAD
1000
AcRTDxfName
1000
SCALE
  0
SCALE
  5
1B207
102
{ACAD_REACTORS
330
1B1FC
102
}
330
1B1FC
100
AcDbScale
 70
     0
300
1:50
140
1.0
141
50.0
290
     0
1001
ACAD
1000
AcRTDxfName
1000
SCALE
  0
SCALE
  5
1B208
102
{ACAD_REACTORS
330
1B1FC
102
}
330
1B1FC
100
AcDbScale
 70
     0
300
1:100
140
1.0
141
100.0
290
     0
1001
ACAD
1000
AcRTDxfName
1000
SCALE
  0
SCALE
  5
1B209
102
{ACAD_REACTORS
330
1B1FC
102
}
330
1B1FC
100
AcDbScale
 70
     0
300
2:1
140
2.0
141
1.0
290
     0
1001
ACAD
1000
AcRTDxfName
1000
SCALE
  0
SCALE
  5
1B20A
102
{ACAD_REACTORS
330
1B1FC
102
}
330
1B1FC
100
AcDbScale
 70
     0
300
4:1
140
4.0
141
1.0
290
     0
1001
ACAD
1000
AcRTDxfName
1000
SCALE
  0
SCALE
  5
1B20B
102
{ACAD_REACTORS
330
1B1FC
102
}
330
1B1FC
100
AcDbScale
 70
     0
300
8:1
140
8.0
141
1.0
290
     0
1001
ACAD
1000
AcRTDxfName
1000
SCALE
  0
SCALE
  5
1B20C
102
{ACAD_REACTORS
330
1B1FC
102
}
330
1B1FC
100
AcDbScale
 70
     0
300
10:1
140
10.0
141
1.0
290
     0
1001
ACAD
1000
AcRTDxfName
1000
SCALE
  0
SCALE
  5
1B20D
102
{ACAD_REACTORS
330
1B1FC
102
}
330
1B1FC
100
AcDbScale
 70
     0
300
100:1
140
100.0
141
1.0
290
     0
1001
ACAD
1000
AcRTDxfName
1000
SCALE
  0
SCALE
  5
1B20E
102
{ACAD_REACTORS
330
1B1FC
102
}
330
1B1FC
100
AcDbScale
 70
     0
300
1/128" = 1'-0"
140
0.0078125
141
12.0
290
     0
1001
ACAD
1000
AcRTDxfName
1000
SCALE
  0
SCALE
  5
1B20F
102
{ACAD_REACTORS
330
1B1FC
102
}
330
1B1FC
100
AcDbScale
 70
     0
300
1/64" = 1'-0"
140
0.015625
141
12.0
290
     0
1001
ACAD
1000
AcRTDxfName
1000
SCALE
  0
SCALE
  5
1B210
102
{ACAD_REACTORS
330
1B1FC
102
}
330
1B1FC
100
AcDbScale
 70
     0
300
1/32" = 1'-0"
140
0.03125
141
12.0
290
     0
1001
ACAD
1000
AcRTDxfName
1000
SCALE
  0
SCALE
  5
1B211
102
{ACAD_REACTORS
330
1B1FC
102
}
330
1B1FC
100
AcDbScale
 70
     0
300
1/16" = 1'-0"
140
0.0625
141
12.0
290
     0
1001
ACAD
1000
AcRTDxfName
1000
SCALE
  0
SCALE
  5
1B212
102
{ACAD_REACTORS
330
1B1FC
102
}
330
1B1FC
100
AcDbScale
 70
     0
300
3/32" = 1'-0"
140
0.09375
141
12.0
290
     0
1001
ACAD
1000
AcRTDxfName
1000
SCALE
  0
SCALE
  5
1B213
102
{ACAD_REACTORS
330
1B1FC
102
}
330
1B1FC
100
AcDbScale
 70
     0
300
1/8" = 1'-0"
140
0.125
141
12.0
290
     0
1001
ACAD
1000
AcRTDxfName
1000
SCALE
  0
SCALE
  5
1B214
102
{ACAD_REACTORS
330
1B1FC
102
}
330
1B1FC
100
AcDbScale
 70
     0
300
3/16" = 1'-0"
140
0.1875
141
12.0
290
     0
1001
ACAD
1000
AcRTDxfName
1000
SCALE
  0
SCALE
  5
1B215
102
{ACAD_REACTORS
330
1B1FC
102
}
330
1B1FC
100
AcDbScale
 70
     0
300
1/4" = 1'-0"
140
0.25
141
12.0
290
     0
1001
ACAD
1000
AcRTDxfName
1000
SCALE
  0
SCALE
  5
1B216
102
{ACAD_REACTORS
330
1B1FC
102
}
330
1B1FC
100
AcDbScale
 70
     0
300
3/8" = 1'-0"
140
0.375
141
12.0
290
     0
1001
ACAD
1000
AcRTDxfName
1000
SCALE
  0
SCALE
  5
1B217
102
{ACAD_REACTORS
330
1B1FC
102
}
330
1B1FC
100
AcDbScale
 70
     0
300
1/2" = 1'-0"
140
0.5
141
12.0
290
     0
1001
ACAD
1000
AcRTDxfName
1000
SCALE
  0
SCALE
  5
1B218
102
{ACAD_REACTORS
330
1B1FC
102
}
330
1B1FC
100
AcDbScale
 70
     0
300
3/4" = 1'-0"
140
0.75
141
12.0
290
     0
1001
ACAD
1000
AcRTDxfName
1000
SCALE
  0
SCALE
  5
1B219
102
{ACAD_REACTORS
330
1B1FC
102
}
330
1B1FC
100
AcDbScale
 70
     0
300
1" = 1'-0"
140
1.0
141
12.0
290
     0
1001
ACAD
1000
AcRTDxfName
1000
SCALE
  0
SCALE
  5
1B21A
102
{ACAD_REACTORS
330
1B1FC
102
}
330
1B1FC
100
AcDbScale
 70
     0
300
1-1/2" = 1'-0"
140
1.5
141
12.0
290
     0
1001
ACAD
1000
AcRTDxfName
1000
SCALE
  0
SCALE
  5
1B21B
102
{ACAD_REACTORS
330
1B1FC
102
}
330
1B1FC
100
AcDbScale
 70
     0
300
3" = 1'-0"
140
3.0
141
12.0
290
     0
1001
ACAD
1000
AcRTDxfName
1000
SCALE
  0
SCALE
  5
1B21C
102
{ACAD_REACTORS
330
1B1FC
102
}
330
1B1FC
100
AcDbScale
 70
     0
300
6" = 1'-0"
140
6.0
141
12.0
290
     0
1001
ACAD
1000
AcRTDxfName
1000
SCALE
  0
SCALE
  5
1B21D
102
{ACAD_REACTORS
330
1B1FC
102
}
330
1B1FC
100
AcDbScale
 70
     0
300
1'-0" = 1'-0"
140
12.0
141
12.0
290
     0
1001
ACAD
1000
AcRTDxfName
1000
SCALE
  0
ACDBSECTIONVIEWSTYLE
  5
20CB1
102
{ACAD_XDICTIONARY
360
2210C
102
}
102
{ACAD_REACTORS
330
1B2EE
102
}
330
1B2EE
100
AcDbModelDocViewStyle
 70
     0
  3
Imperial24
290
     0
100
AcDbSectionViewStyle
 70
     0
 71
     0
 90
       78
 71
     1
340
11
 62
   256
 40
0.24
340
0
340
0
 62
   256
 40
0.24
300
I, O, Q, S, X, Z
 40
0.48
 90
        3
 40
0.18
 90
        1
 71
     2
340
16
 90
       25
 62
   256
340
16
 90
       50
 62
   256
 40
0.24
 40
0.0
 40
0.24
 71
     3
340
11
 62
   256
 40
0.24
 90
        1
 40
0.75
 90
        1
300
%<\AcVar ViewType \f "%tc1">% %<\AcVar ViewSectionStartId>%-%<\AcVar ViewSectionEndId>%\PVARIA %<\AcVar ViewScale \f "%sn">%
 71
     4
 62
   256
 62
   257
300
ANSI31
 40
1.0
 90
        0
290
     0
290
     0
 90
        6
 40
0.0
 40
1.570796326794896
 40
0.2617993877991494
 40
1.308996938995747
 40
-0.2617993877991494
 40
1.832595714594044
  0
ACDBSECTIONVIEWSTYLE
  5
1B2EF
102
{ACAD_XDICTIONARY
360
22108
102
}
102
{ACAD_REACTORS
330
1B2EE
102
}
330
1B2EE
100
AcDbModelDocViewStyle
 70
     0
  3
Metric50
290
     0
100
AcDbSectionViewStyle
 70
     0
 71
     0
 90
      102
 71
     1
340
11
 62
   256
 40
5.0
340
0
340
0
 62
   256
 40
5.0
300
I, O, Q, S, X, Z
 40
10.0
 90
        0
 40
2.5
 90
        0
 71
     2
340
16
 90
       25
 62
   256
340
16
 90
       50
 62
   256
 40
5.0
 40
2.5
 40
5.0
 71
     3
340
11
 62
   256
 40
5.0
 90
        0
 40
15.0
 90
        1
300
%<\AcVar ViewSectionStartId>%-%<\AcVar ViewSectionEndId>% (%<\AcVar ViewScale \f "%sn">%)
 71
     4
 62
   256
 62
   257
300
ANSI31
 40
1.0
 90
        0
290
     0
290
     0
 90
        6
 40
0.0
 40
1.570796326794896
 40
0.2617993877991494
 40
1.308996938995747
 40
-0.2617993877991494
 40
1.832595714594044
  0
TABLESTYLE
  5
31A2
102
{ACAD_XDICTIONARY
360
1B314
102
}
102
{ACAD_REACTORS
330
31A1
102
}
330
31A1
100
AcDbTableStyle
280
     0
  3
Standard
 70
     0
 71
     0
 40
1.5
 41
1.5
280
     0
281
     0
  7
STANDARD
140
4.5
170
     2
 62
     0
 63
     7
283
     0
 90
        4
 91
        0
  1

274
    -2
284
     1
 64
     0
275
    -2
285
     1
 65
     0
276
    -2
286
     1
 66
     0
277
    -2
287
     1
 67
     0
278
    -2
288
     1
 68
     0
279
    -2
289
     1
 69
     0
  7
STANDARD
140
6.0
170
     5
 62
     0
 63
     7
283
     0
 90
        4
 91
        0
  1

274
    -2
284
     1
 64
     0
275
    -2
285
     1
 65
     0
276
    -2
286
     1
 66
     0
277
    -2
287
     1
 67
     0
278
    -2
288
     1
 68
     0
279
    -2
289
     1
 69
     0
  7
STANDARD
140
4.5
170
     5
 62
     0
 63
     7
283
     0
 90
        4
 91
        0
  1

274
    -2
284
     1
 64
     0
275
    -2
285
     1
 65
     0
276
    -2
286
     1
 66
     0
277
    -2
287
     1
 67
     0
278
    -2
288
     1
 68
     0
279
    -2
289
     1
 69
     0
  0
VISUALSTYLE
  5
3195
102
{ACAD_XDICTIONARY
360
220DE
102
}
102
{ACAD_REACTORS
330
318F
102
}
330
318F
100
AcDbVisualStyle
  2

 70
     4
177
     2
291
     0
 71
     0
176
     1
 72
     2
176
     1
 73
     0
176
     1
 90
        0
176
     1
 40
0.6
176
     1
 41
30.0
176
     1
 63
     7
176
     1
 74
     1
176
     1
 91
        4
176
     1
 64
     7
176
     1
 65
   257
176
     1
 75
     1
176
     1
175
     1
176
     1
 42
1.0
176
     1
 92
        0
176
     1
 66
   257
176
     1
 43
1.0
176
     1
 76
     1
176
     1
 77
     6
176
     1
 78
     2
176
     1
 67
     7
176
     1
 79
     5
176
     1
170
     0
176
     1
171
     0
176
     1
290
     0
176
     1
 93
        1
176
     1
 44
0.0
176
     1
173
     0
176
     1
1001
ACAD
1000
AcDbSavedByObjectVersion
1070
     0
  0
VISUALSTYLE
  5
3197
102
{ACAD_XDICTIONARY
360
220E2
102
}
102
{ACAD_REACTORS
330
318F
102
}
330
318F
100
AcDbVisualStyle
  2

 70
     6
177
     2
291
     0
 71
     1
176
     1
 72
     2
176
     1
 73
     2
176
     1
 90
        0
176
     1
 40
0.6
176
     1
 41
30.0
176
     1
 63
     7
176
     1
 74
     2
176
     1
 91
        2
176
     1
 64
     7
176
     1
 65
   257
176
     1
 75
     2
176
     1
175
     1
176
     1
 42
40.0
176
     1
 92
        0
176
     1
 66
   257
176
     1
 43
1.0
176
     1
 76
     1
176
     1
 77
     6
176
     1
 78
     2
176
     1
 67
     7
176
     1
 79
     3
176
     1
170
     0
176
     1
171
     0
176
     1
290
     0
176
     1
 93
        1
176
     1
 44
0.0
176
     1
173
     0
176
     1
1001
ACAD
1000
AcDbSavedByObjectVersion
1070
     0
  0
VISUALSTYLE
  5
3196
102
{ACAD_XDICTIONARY
360
220E0
102
}
102
{ACAD_REACTORS
330
318F
102
}
330
318F
100
AcDbVisualStyle
  2

 70
     5
177
     2
291
     0
 71
     0
176
     1
 72
     2
176
     1
 73
     0
176
     1
 90
        0
176
     1
 40
0.6
176
     1
 41
30.0
176
     1
 63
     7
176
     1
 74
     1
176
     1
 91
        4
176
     1
 64
     7
176
     1
 65
   257
176
     1
 75
     1
176
     1
175
     1
176
     1
 42
1.0
176
     1
 92
        0
176
     1
 66
   257
176
     1
 43
1.0
176
     1
 76
     1
176
     1
 77
     6
176
     1
 78
     2
176
     1
 67
     7
176
     1
 79
     5
176
     1
170
     0
176
     1
171
     0
176
     1
290
     0
176
     1
 93
        1
176
     1
 44
0.0
176
     1
173
     0
176
     1
1001
ACAD
1000
AcDbSavedByObjectVersion
1070
     0
  0
VISUALSTYLE
  5
3194
102
{ACAD_XDICTIONARY
360
220DC
102
}
102
{ACAD_REACTORS
330
318F
102
}
330
318F
100
AcDbVisualStyle
  2

 70
     7
177
     2
291
     1
 71
     1
176
     1
 72
     0
176
     1
 73
     1
176
     1
 90
        0
176
     1
 40
0.6
176
     1
 41
30.0
176
     1
 63
     7
176
     1
 74
     0
176
     1
 91
        4
176
     1
 64
     7
176
     1
 65
   257
176
     1
 75
     1
176
     1
175
     1
176
     1
 42
1.0
176
     1
 92
        8
176
     1
 66
     7
176
     1
 43
1.0
176
     1
 76
     1
176
     1
 77
     6
176
     1
 78
     2
176
     1
 67
     7
176
     1
 79
     5
176
     1
170
     0
176
     1
171
     0
176
     1
290
     0
176
     1
 93
        1
176
     1
 44
0.0
176
     1
173
     0
176
     1
1001
ACAD
1000
AcDbSavedByObjectVersion
1070
     0
  0
VISUALSTYLE
  5
319B
102
{ACAD_XDICTIONARY
360
220EA
102
}
102
{ACAD_REACTORS
330
318F
102
}
330
318F
100
AcDbVisualStyle
  2

 70
    12
177
     2
291
     1
 71
     2
176
     1
 72
     2
176
     1
 73
     0
176
     1
 90
        0
176
     1
 40
0.6
176
     1
 41
30.0
176
     1
 63
     7
176
     1
 74
     1
176
     1
 91
        4
176
     1
 64
     7
176
     1
 65
   257
176
     1
 75
     1
176
     1
175
     1
176
     1
 42
1.0
176
     1
 92
        8
176
     1
 66
     7
176
     1
 43
1.0
176
     1
 76
     1
176
     1
 77
     6
176
     1
 78
     2
176
     1
 67
     7
176
     1
 79
     5
176
     1
170
     0
176
     1
171
     0
176
     1
290
     0
176
     1
 93
        1
176
     1
 44
50.0
176
     1
173
     0
176
     1
1001
ACAD
1000
AcDbSavedByObjectVersion
1070
     0
  0
VISUALSTYLE
  5
319F
102
{ACAD_XDICTIONARY
360
220F2
102
}
102
{ACAD_REACTORS
330
318F
102
}
330
318F
100
AcDbVisualStyle
  2

 70
    16
177
     2
291
     1
 71
     2
176
     1
 72
     2
176
     1
 73
     3
176
     1
 90
        0
176
     1
 40
0.6
176
     1
 41
30.0
176
     1
 63
     8
176
     1
 74
     1
176
     1
 91
        4
176
     1
 64
     7
176
     1
 65
   257
176
     1
 75
     1
176
     1
175
     1
176
     1
 42
1.0
176
     1
 92
        8
176
     1
 66
     8
176
     1
 43
1.0
176
     1
 76
     1
176
     1
 77
     6
176
     1
 78
     2
176
     1
 67
     7
176
     1
 79
     5
176
     1
170
     0
176
     1
171
     0
176
     1
290
     0
176
     1
 93
        1
176
     1
 44
0.0
176
     1
173
     0
176
     1
1001
ACAD
1000
AcDbSavedByObjectVersion
1070
     0
  0
VISUALSTYLE
  5
3198
102
{ACAD_XDICTIONARY
360
220E4
102
}
102
{ACAD_REACTORS
330
318F
102
}
330
318F
100
AcDbVisualStyle
  2

 70
     9
177
     2
291
     0
 71
     3
176
     1
 72
     2
176
     1
 73
     0
176
     1
 90
        0
176
     1
 40
0.6
176
     1
 41
30.0
176
     1
 63
     7
176
     1
 74
     2
176
     1
 91
        2
176
     1
 64
     7
176
     1
 65
   257
176
     1
 75
     1
176
     1
175
     1
176
     1
 42
40.0
176
     1
 92
        8
176
     1
 66
     7
176
     1
 43
1.0
176
     1
 76
     1
176
     1
 77
     6
176
     1
 78
     2
176
     1
 67
     7
176
     1
 79
     3
176
     1
170
     0
176
     1
171
     0
176
     1
290
     0
176
     1
 93
        1
176
     1
 44
0.0
176
     1
173
     0
176
     1
1001
ACAD
1000
AcDbSavedByObjectVersion
1070
     0
  0
VISUALSTYLE
  5
319A
102
{ACAD_XDICTIONARY
360
220E8
102
}
102
{ACAD_REACTORS
330
318F
102
}
330
318F
100
AcDbVisualStyle
  2

 70
    11
177
     2
291
     1
 71
     2
176
     1
 72
     2
176
     1
 73
     0
176
     1
 90
        0
176
     1
 40
0.6
176
     1
 41
30.0
176
     1
 63
     7
176
     1
 74
     1
176
     1
 91
        4
176
     1
 64
     7
176
     1
 65
   257
176
     1
 75
     1
176
     1
175
     1
176
     1
 42
1.0
176
     1
 92
        8
176
     1
 66
     7
176
     1
 43
1.0
176
     1
 76
     1
176
     1
 77
     6
176
     1
 78
     2
176
     1
 67
     7
176
     1
 79
     5
176
     1
170
     0
176
     1
171
     0
176
     1
290
     0
176
     1
 93
        1
176
     1
 44
-50.0
176
     1
173
     0
176
     1
1001
ACAD
1000
AcDbSavedByObjectVersion
1070
     0
  0
VISUALSTYLE
  5
1B2EC
102
{ACAD_XDICTIONARY
360
22106
102
}
102
{ACAD_REACTORS
330
318F
102
}
330
318F
100
AcDbVisualStyle
  2

 70
    22
177
     2
291
     1
 71
     2
176
     0
 72
     2
176
     0
 73
     0
176
     0
 90
        0
176
     0
 40
0.6
176
     0
 41
30.0
176
     0
 63
     7
176
     0
 74
     1
176
     0
 91
        4
176
     0
 64
     7
176
     0
 65
   257
176
     0
 75
     1
176
     0
175
     1
176
     0
 42
1.0
176
     0
 92
        8
176
     2
 66
     7
176
     0
 43
1.0
176
     0
 76
     1
176
     0
 77
     6
176
     0
 78
     2
176
     0
 67
     7
176
     0
 79
     5
176
     0
170
     0
176
     0
171
     0
176
     0
290
     0
176
     0
 93
        1
176
     0
 44
0.0
176
     0
173
     0
176
     0
1001
ACAD
1000
AcDbSavedByObjectVersion
1070
     0
  0
VISUALSTYLE
  5
319E
102
{ACAD_XDICTIONARY
360
220F0
102
}
102
{ACAD_REACTORS
330
318F
102
}
330
318F
100
AcDbVisualStyle
  2

 70
    15
177
     2
291
     1
 71
     2
176
     1
 72
     2
176
     1
 73
     0
176
     1
 90
        0
176
     1
 40
0.6
176
     1
 41
30.0
176
     1
 63
     7
176
     1
 74
     1
176
     1
 91
        4
176
     1
 64
     7
176
     1
 65
   257
176
     1
 75
     1
176
     1
175
     1
176
     1
 42
1.0
176
     1
 92
        8
176
     1
 66
     7
176
     1
 43
1.0
176
     1
 76
     1
176
     1
 77
     6
176
     1
 78
     2
176
     1
 67
     7
176
     1
 79
     5
176
     1
170
     0
176
     1
171
     0
176
     1
290
     0
176
     1
 93
        1
176
     1
 44
0.0
176
     1
173
     0
176
     1
1001
ACAD
1000
AcDbSavedByObjectVersion
1070
     0
  0
VISUALSTYLE
  5
3190
102
{ACAD_XDICTIONARY
360
220D4
102
}
102
{ACAD_REACTORS
330
318F
102
}
330
318F
100
AcDbVisualStyle
  2

 70
     0
177
     2
291
     1
 71
     2
176
     1
 72
     1
176
     1
 73
     1
176
     1
 90
        2
176
     1
 40
0.6
176
     1
 41
30.0
176
     1
 63
     7
176
     1
 74
     0
176
     1
 91
        4
176
     1
 64
     7
176
     1
 65
   257
176
     1
 75
     1
176
     1
175
     1
176
     1
 42
1.0
176
     1
 92
        8
176
     1
 66
     7
176
     1
 43
1.0
176
     1
 76
     1
176
     1
 77
     6
176
     1
 78
     2
176
     1
 67
     7
176
     1
 79
     5
176
     1
170
     0
176
     1
171
     0
176
     1
290
     0
176
     1
 93
       13
176
     1
 44
0.0
176
     1
173
     0
176
     1
1001
ACAD
1000
AcDbSavedByObjectVersion
1070
     0
  0
VISUALSTYLE
  5
3191
102
{ACAD_XDICTIONARY
360
220D6
102
}
102
{ACAD_REACTORS
330
318F
102
}
330
318F
100
AcDbVisualStyle
  2

 70
     1
177
     2
291
     1
 71
     2
176
     1
 72
     1
176
     1
 73
     1
176
     1
 90
        2
176
     1
 40
0.6
176
     1
 41
30.0
176
     1
 63
     7
176
     1
 74
     1
176
     1
 91
        4
176
     1
 64
     7
176
     1
 65
   257
176
     1
 75
     1
176
     1
175
     1
176
     1
 42
1.0
176
     1
 92
        0
176
     1
 66
   257
176
     1
 43
1.0
176
     1
 76
     1
176
     1
 77
     6
176
     1
 78
     2
176
     1
 67
     7
176
     1
 79
     5
176
     1
170
     0
176
     1
171
     0
176
     1
290
     0
176
     1
 93
       13
176
     1
 44
0.0
176
     1
173
     0
176
     1
1001
ACAD
1000
AcDbSavedByObjectVersion
1070
     0
  0
VISUALSTYLE
  5
3192
102
{ACAD_XDICTIONARY
360
220D8
102
}
102
{ACAD_REACTORS
330
318F
102
}
330
318F
100
AcDbVisualStyle
  2

 70
     2
177
     2
291
     1
 71
     2
176
     1
 72
     2
176
     1
 73
     1
176
     1
 90
        2
176
     1
 40
0.6
176
     1
 41
30.0
176
     1
 63
     7
176
     1
 74
     0
176
     1
 91
        4
176
     1
 64
     7
176
     1
 65
   257
176
     1
 75
     1
176
     1
175
     1
176
     1
 42
1.0
176
     1
 92
        0
176
     1
 66
     7
176
     1
 43
1.0
176
     1
 76
     1
176
     1
 77
     6
176
     1
 78
     2
176
     1
 67
     7
176
     1
 79
     5
176
     1
170
     0
176
     1
171
     0
176
     1
290
     0
176
     1
 93
       13
176
     1
 44
0.0
176
     1
173
     0
176
     1
1001
ACAD
1000
AcDbSavedByObjectVersion
1070
     0
  0
VISUALSTYLE
  5
3193
102
{ACAD_XDICTIONARY
360
220DA
102
}
102
{ACAD_REACTORS
330
318F
102
}
330
318F
100
AcDbVisualStyle
  2

 70
     3
177
     2
291
     1
 71
     2
176
     1
 72
     2
176
     1
 73
     1
176
     1
 90
        2
176
     1
 40
0.6
176
     1
 41
30.0
176
     1
 63
     7
176
     1
 74
     1
176
     1
 91
        4
176
     1
 64
     7
176
     1
 65
   257
176
     1
 75
     1
176
     1
175
     1
176
     1
 42
1.0
176
     1
 92
        0
176
     1
 66
   257
176
     1
 43
1.0
176
     1
 76
     1
176
     1
 77
     6
176
     1
 78
     2
176
     1
 67
     7
176
     1
 79
     5
176
     1
170
     0
176
     1
171
     0
176
     1
290
     0
176
     1
 93
       13
176
     1
 44
0.0
176
     1
173
     0
176
     1
1001
ACAD
1000
AcDbSavedByObjectVersion
1070
     0
  0
VISUALSTYLE
  5
1B2E4
102
{ACAD_XDICTIONARY
360
220F6
102
}
102
{ACAD_REACTORS
330
318F
102
}
330
318F
100
AcDbVisualStyle
  2

 70
     6
177
     2
291
     0
 71
     1
176
     1
 72
     2
176
     1
 73
     2
176
     1
 90
        0
176
     1
 40
0.6
176
     1
 41
30.0
176
     1
 63
     7
176
     1
 74
     2
176
     1
 91
        2
176
     1
 64
     7
176
     1
 65
   257
176
     1
 75
     2
176
     1
175
     1
176
     1
 42
40.0
176
     1
 92
        0
176
     1
 66
   257
176
     1
 43
1.0
176
     1
 76
     1
176
     1
 77
     6
176
     1
 78
     2
176
     1
 67
     7
176
     1
 79
     3
176
     1
170
     0
176
     1
171
     0
176
     1
290
     0
176
     1
 93
        1
176
     1
 44
0.0
176
     1
173
     0
176
     1
1001
ACAD
1000
AcDbSavedByObjectVersion
1070
     0
  0
VISUALSTYLE
  5
1B2EA
102
{ACAD_XDICTIONARY
360
22102
102
}
102
{ACAD_REACTORS
330
318F
102
}
330
318F
100
AcDbVisualStyle
  2

 70
    20
177
     2
291
     1
 71
     2
176
     0
 72
     2
176
     0
 73
     0
176
     0
 90
        0
176
     0
 40
0.6
176
     0
 41
30.0
176
     0
 63
     7
176
     0
 74
     1
176
     0
 91
        4
176
     0
 64
     7
176
     0
 65
   257
176
     0
 75
     1
176
     0
175
     1
176
     0
 42
1.0
176
     0
 92
       10
176
     2
 66
     7
176
     0
 43
1.0
176
     0
 76
     1
176
     0
 77
     6
176
     0
 78
     2
176
     0
 67
     7
176
     0
 79
     5
176
     0
170
     0
176
     0
171
     0
176
     0
290
     0
176
     0
 93
        1
176
     0
 44
0.0
176
     0
173
     0
176
     0
1001
ACAD
1000
AcDbSavedByObjectVersion
1070
     0
  0
VISUALSTYLE
  5
319D
102
{ACAD_XDICTIONARY
360
220EE
102
}
102
{ACAD_REACTORS
330
318F
102
}
330
318F
100
AcDbVisualStyle
  2

 70
    14
177
     2
291
     1
 71
     2
176
     1
 72
     2
176
     1
 73
     0
176
     1
 90
        0
176
     1
 40
0.6
176
     1
 41
30.0
176
     1
 63
     7
176
     1
 74
     1
176
     1
 91
        4
176
     1
 64
     7
176
     1
 65
   257
176
     1
 75
     7
176
     1
175
     7
176
     1
 42
1.0
176
     1
 92
        8
176
     1
 66
     7
176
     1
 43
1.0
176
     1
 76
     1
176
     1
 77
     6
176
     1
 78
     2
176
     1
 67
     7
176
     1
 79
     5
176
     1
170
     0
176
     1
171
     0
176
     1
290
     0
176
     1
 93
        1
176
     1
 44
0.0
176
     1
173
     0
176
     1
1001
ACAD
1000
AcDbSavedByObjectVersion
1070
     0
  0
VISUALSTYLE
  5
1B2EB
102
{ACAD_XDICTIONARY
360
22104
102
}
102
{ACAD_REACTORS
330
318F
102
}
330
318F
100
AcDbVisualStyle
  2

 70
    21
177
     2
291
     1
 71
     2
176
     0
 72
     2
176
     0
 73
     0
176
     0
 90
        0
176
     0
 40
0.6
176
     0
 41
30.0
176
     0
 63
     7
176
     0
 74
     1
176
     0
 91
        4
176
     0
 64
     7
176
     0
 65
   257
176
     0
 75
     1
176
     0
175
     1
176
     0
 42
1.0
176
     0
 92
        9
176
     2
 66
     7
176
     0
 43
1.0
176
     0
 76
     1
176
     0
 77
     6
176
     0
 78
     2
176
     0
 67
     7
176
     0
 79
     5
176
     0
170
     0
176
     0
171
     0
176
     0
290
     0
176
     0
 93
        1
176
     0
 44
0.0
176
     0
173
     0
176
     0
1001
ACAD
1000
AcDbSavedByObjectVersion
1070
     0
  0
VISUALSTYLE
  5
3199
102
{ACAD_XDICTIONARY
360
220E6
102
}
102
{ACAD_REACTORS
330
318F
102
}
330
318F
100
AcDbVisualStyle
  2

 70
     8
177
     2
291
     0
 71
     2
176
     1
 72
     2
176
     1
 73
     0
176
     1
 90
        0
176
     1
 40
0.6
176
     1
 41
30.0
176
     1
 63
     7
176
     1
 74
     1
176
     1
 91
        0
176
     1
 64
     7
176
     1
 65
   257
176
     1
 75
     1
176
     1
175
     1
176
     1
 42
1.0
176
     1
 92
        8
176
     1
 66
     8
176
     1
 43
1.0
176
     1
 76
     1
176
     1
 77
     6
176
     1
 78
     2
176
     1
 67
     7
176
     1
 79
     5
176
     1
170
     0
176
     1
171
     0
176
     1
290
     0
176
     1
 93
       13
176
     1
 44
0.0
176
     1
173
     0
176
     1
1001
ACAD
1000
AcDbSavedByObjectVersion
1070
     0
  0
VISUALSTYLE
  5
1B2E9
102
{ACAD_XDICTIONARY
360
22100
102
}
102
{ACAD_REACTORS
330
318F
102
}
330
318F
100
AcDbVisualStyle
  2

 70
    27
177
     2
291
     0
 71
     2
176
     1
 72
     2
176
     1
 73
     1
176
     1
 90
        2
176
     1
 40
0.6
176
     1
 41
30.0
176
     1
 63
     7
176
     1
 74
     0
176
     1
 91
        4
176
     1
 64
     7
176
     1
 65
   257
176
     1
 75
     1
176
     1
175
     1
176
     1
 42
1.0
176
     1
 92
        8
176
     1
 66
   257
176
     1
 43
1.0
176
     1
 76
     1
176
     1
 77
     6
176
     1
 78
     2
176
     1
 67
     8
176
     1
 79
     3
176
     1
170
     0
176
     1
171
     0
176
     1
290
     0
176
     1
 93
        5
176
     1
 44
0.0
176
     1
173
     0
176
     1
1001
ACAD
1000
AcDbSavedByObjectVersion
1070
     0
  0
VISUALSTYLE
  5
1B2E8
102
{ACAD_XDICTIONARY
360
220FE
102
}
102
{ACAD_REACTORS
330
318F
102
}
330
318F
100
AcDbVisualStyle
  2

 70
    26
177
     2
291
     0
 71
     2
176
     1
 72
     2
176
     1
 73
     1
176
     1
 90
        2
176
     1
 40
0.6
176
     1
 41
30.0
176
     1
 63
     7
176
     1
 74
     1
176
     1
 91
       10
176
     1
 64
     7
176
     1
 65
   257
176
     1
 75
     2
176
     1
175
     1
176
     1
 42
1.0
176
     1
 92
        8
176
     1
 66
   257
176
     1
 43
1.0
176
     1
 76
     1
176
     1
 77
     6
176
     1
 78
     2
176
     1
 67
     7
176
     1
 79
     3
176
     1
170
     0
176
     1
171
     0
176
     1
290
     0
176
     1
 93
        5
176
     1
 44
0.0
176
     1
173
     0
176
     1
1001
ACAD
1000
AcDbSavedByObjectVersion
1070
     0
  0
VISUALSTYLE
  5
1B2E5
102
{ACAD_XDICTIONARY
360
220F8
102
}
102
{ACAD_REACTORS
330
318F
102
}
330
318F
100
AcDbVisualStyle
  2

 70
    23
177
     2
291
     0
 71
     2
176
     1
 72
     2
176
     1
 73
     3
176
     1
 90
        0
176
     1
 40
0.6
176
     1
 41
30.0
176
     1
 63
     7
176
     1
 74
     2
176
     1
 91
        2
176
     1
 64
     7
176
     1
 65
     7
176
     1
 75
     1
176
     1
175
     1
176
     1
 42
40.0
176
     1
 92
        8
176
     1
 66
     7
176
     1
 43
1.0
176
     1
 76
     1
176
     1
 77
     6
176
     1
 78
     2
176
     1
 67
     7
176
     1
 79
     3
176
     1
170
     0
176
     1
171
     0
176
     1
290
     0
176
     1
 93
        1
176
     1
 44
0.0
176
     1
173
     0
176
     1
1001
ACAD
1000
AcDbSavedByObjectVersion
1070
     0
  0
VISUALSTYLE
  5
1B2E6
102
{ACAD_XDICTIONARY
360
220FA
102
}
102
{ACAD_REACTORS
330
318F
102
}
330
318F
100
AcDbVisualStyle
  2

 70
    24
177
     2
291
     0
 71
     1
176
     1
 72
     2
176
     1
 73
     2
176
     1
 90
        0
176
     1
 40
0.6
176
     1
 41
30.0
176
     1
 63
     7
176
     1
 74
     2
176
     1
 91
        2
176
     1
 64
     7
176
     1
 65
     7
176
     1
 75
     1
176
     1
175
     1
176
     1
 42
40.0
176
     1
 92
       11
176
     1
 66
     7
176
     1
 43
1.0
176
     1
 76
     1
176
     1
 77
     6
176
     1
 78
     2
176
     1
 67
     7
176
     1
 79
     6
176
     1
170
     0
176
     1
171
     0
176
     1
290
     0
176
     1
 93
        1
176
     1
 44
0.0
176
     1
173
     0
176
     1
1001
ACAD
1000
AcDbSavedByObjectVersion
1070
     0
  0
VISUALSTYLE
  5
319C
102
{ACAD_XDICTIONARY
360
220EC
102
}
102
{ACAD_REACTORS
330
318F
102
}
330
318F
100
AcDbVisualStyle
  2

 70
    13
177
     2
291
     1
 71
     2
176
     1
 72
     2
176
     1
 73
     0
176
     1
 90
        0
176
     1
 40
0.6
176
     1
 41
30.0
176
     1
 63
     7
176
     1
 74
     1
176
     1
 91
        4
176
     1
 64
     7
176
     1
 65
   257
176
     1
 75
     1
176
     1
175
     1
176
     1
 42
1.0
176
     1
 92
       12
176
     1
 66
     7
176
     1
 43
1.0
176
     1
 76
     1
176
     1
 77
     6
176
     1
 78
     2
176
     1
 67
     7
176
     1
 79
     5
176
     1
170
     0
176
     1
171
     0
176
     1
290
     0
176
     1
 93
        1
176
     1
 44
0.0
176
     1
173
     0
176
     1
1001
ACAD
1000
AcDbSavedByObjectVersion
1070
     0
  0
VISUALSTYLE
  5
1B2E3
102
{ACAD_XDICTIONARY
360
220F4
102
}
102
{ACAD_REACTORS
330
318F
102
}
330
318F
100
AcDbVisualStyle
  2

 70
     5
177
     2
291
     0
 71
     0
176
     1
 72
     2
176
     1
 73
     0
176
     1
 90
        0
176
     1
 40
0.6
176
     1
 41
30.0
176
     1
 63
     7
176
     1
 74
     1
176
     1
 91
        4
176
     1
 64
     7
176
     1
 65
   257
176
     1
 75
     1
176
     1
175
     1
176
     1
 42
1.0
176
     1
 92
        0
176
     1
 66
   257
176
     1
 43
1.0
176
     1
 76
     1
176
     1
 77
     6
176
     1
 78
     2
176
     1
 67
     7
176
     1
 79
     3
176
     1
170
     0
176
     1
171
     0
176
     1
290
     0
176
     1
 93
        1
176
     1
 44
0.0
176
     1
173
     0
176
     1
1001
ACAD
1000
AcDbSavedByObjectVersion
1070
     0
  0
VISUALSTYLE
  5
1B2E7
102
{ACAD_XDICTIONARY
360
220FC
102
}
102
{ACAD_REACTORS
330
318F
102
}
330
318F
100
AcDbVisualStyle
  2

 70
    25
177
     2
291
     0
 71
     2
176
     1
 72
     2
176
     1
 73
     1
176
     1
 90
        1
176
     1
 40
0.5
176
     1
 41
30.0
176
     1
 63
     7
176
     1
 74
     1
176
     1
 91
        0
176
     1
 64
     7
176
     1
 65
   257
176
     1
 75
     1
176
     1
175
     1
176
     1
 42
1.0
176
     1
 92
        8
176
     1
 66
     7
176
     1
 43
1.0
176
     1
 76
     1
176
     1
 77
     6
176
     1
 78
     2
176
     1
 67
     7
176
     1
 79
     3
176
     1
170
     0
176
     1
171
     0
176
     1
290
     0
176
     1
 93
       13
176
     1
 44
0.0
176
     1
173
     0
176
     1
1001
ACAD
1000
AcDbSavedByObjectVersion
1070
     0
  0
DICTIONARYVAR
  5
1B222
102
{ACAD_REACTORS
330
33A3
102
}
330
33A3
100
DictionaryVariables
280
     0
  1
1:1
  0
DICTIONARYVAR
  5
1B30F
102
{ACAD_REACTORS
330
33A3
102
}
330
33A3
100
DictionaryVariables
280
     0
  1
STANDARD
  0
DICTIONARYVAR
  5
33A4
102
{ACAD_REACTORS
330
33A3
102
}
330
33A3
100
DictionaryVariables
280
     0
  1
STANDARD
  0
DICTIONARYVAR
  5
1B310
102
{ACAD_REACTORS
330
33A3
102
}
330
33A3
100
DictionaryVariables
280
     0
  1
Metric50
  0
DICTIONARYVAR
  5
1B311
102
{ACAD_REACTORS
330
33A3
102
}
330
33A3
100
DictionaryVariables
280
     0
  1
Metric50
  0
DICTIONARYVAR
  5
9BE8
102
{ACAD_REACTORS
330
33A3
102
}
330
33A3
100
DictionaryVariables
280
     0
  1
1
  0
DICTIONARYVAR
  5
9BE7
102
{ACAD_REACTORS
330
33A3
102
}
330
33A3
100
DictionaryVariables
280
     0
  1
0
  0
DICTIONARYVAR
  5
20993
102
{ACAD_REACTORS
330
33A3
102
}
330
33A3
100
DictionaryVariables
280
     0
  1
1
  0
DICTIONARYVAR
  5
20994
102
{ACAD_REACTORS
330
33A3
102
}
330
33A3
100
DictionaryVariables
280
     0
  1
15
  0
DICTIONARYVAR
  5
20992
102
{ACAD_REACTORS
330
33A3
102
}
330
33A3
100
DictionaryVariables
280
     0
  1
0
  0
DICTIONARYVAR
  5
20991
102
{ACAD_REACTORS
330
33A3
102
}
330
33A3
100
DictionaryVariables
280
     0
  1
0
  0
DICTIONARYVAR
  5
9BE6
102
{ACAD_REACTORS
330
33A3
102
}
330
33A3
100
DictionaryVariables
280
     0
  1
127
  0
DICTIONARY
  5
2210E
330
20CB3
100
AcDbDictionary
280
     1
281
     1
  3
ACAD_XREC_ROUNDTRIP
360
2210F
  0
DICTIONARY
  5
2210A
330
1B2F1
100
AcDbDictionary
280
     1
281
     1
  3
ACAD_XREC_ROUNDTRIP
360
2210B
  0
DICTIONARY
  5
1B22B
330
318D
100
AcDbDictionary
280
     1
281
     1
  3
ACAD_XREC_ROUNDTRIP
360
1B22C
  0
DICTIONARY
  5
1B22D
330
318C
100
AcDbDictionary
280
     1
281
     1
  3
ACAD_XREC_ROUNDTRIP
360
1B22E
  0
DICTIONARY
  5
1B22F
330
318E
100
AcDbDictionary
280
     1
281
     1
  3
ACAD_XREC_ROUNDTRIP
360
1B230
  0
DICTIONARY
  5
2210C
330
20CB1
100
AcDbDictionary
280
     1
281
     1
  3
ACAD_XREC_ROUNDTRIP
360
2210D
  0
DICTIONARY
  5
22108
330
1B2EF
100
AcDbDictionary
280
     1
281
     1
  3
ACAD_XREC_ROUNDTRIP
360
22109
  0
DICTIONARY
  5
1B314
330
31A2
100
AcDbDictionary
280
     1
281
     1
  3
ACAD_ROUNDTRIP_2008_TABLESTYLE_CELLSTYLEMAP
360
220D2
  0
DICTIONARY
  5
220DE
330
3195
100
AcDbDictionary
280
     1
281
     1
  3
ACAD_XREC_ROUNDTRIP
360
220DF
  0
DICTIONARY
  5
220E2
330
3197
100
AcDbDictionary
280
     1
281
     1
  3
ACAD_XREC_ROUNDTRIP
360
220E3
  0
DICTIONARY
  5
220E0
330
3196
100
AcDbDictionary
280
     1
281
     1
  3
ACAD_XREC_ROUNDTRIP
360
220E1
  0
DICTIONARY
  5
220DC
330
3194
100
AcDbDictionary
280
     1
281
     1
  3
ACAD_XREC_ROUNDTRIP
360
220DD
  0
DICTIONARY
  5
220EA
330
319B
100
AcDbDictionary
280
     1
281
     1
  3
ACAD_XREC_ROUNDTRIP
360
220EB
  0
DICTIONARY
  5
220F2
330
319F
100
AcDbDictionary
280
     1
281
     1
  3
ACAD_XREC_ROUNDTRIP
360
220F3
  0
DICTIONARY
  5
220E4
330
3198
100
AcDbDictionary
280
     1
281
     1
  3
ACAD_XREC_ROUNDTRIP
360
220E5
  0
DICTIONARY
  5
220E8
330
319A
100
AcDbDictionary
280
     1
281
     1
  3
ACAD_XREC_ROUNDTRIP
360
220E9
  0
DICTIONARY
  5
22106
330
1B2EC
100
AcDbDictionary
280
     1
281
     1
  3
ACAD_XREC_ROUNDTRIP
360
22107
  0
DICTIONARY
  5
220F0
330
319E
100
AcDbDictionary
280
     1
281
     1
  3
ACAD_XREC_ROUNDTRIP
360
220F1
  0
DICTIONARY
  5
220D4
330
3190
100
AcDbDictionary
280
     1
281
     1
  3
ACAD_XREC_ROUNDTRIP
360
220D5
  0
DICTIONARY
  5
220D6
330
3191
100
AcDbDictionary
280
     1
281
     1
  3
ACAD_XREC_ROUNDTRIP
360
220D7
  0
DICTIONARY
  5
220D8
330
3192
100
AcDbDictionary
280
     1
281
     1
  3
ACAD_XREC_ROUNDTRIP
360
220D9
  0
DICTIONARY
  5
220DA
330
3193
100
AcDbDictionary
280
     1
281
     1
  3
ACAD_XREC_ROUNDTRIP
360
220DB
  0
DICTIONARY
  5
220F6
330
1B2E4
100
AcDbDictionary
280
     1
281
     1
  3
ACAD_XREC_ROUNDTRIP
360
220F7
  0
DICTIONARY
  5
22102
330
1B2EA
100
AcDbDictionary
280
     1
281
     1
  3
ACAD_XREC_ROUNDTRIP
360
22103
  0
DICTIONARY
  5
220EE
330
319D
100
AcDbDictionary
280
     1
281
     1
  3
ACAD_XREC_ROUNDTRIP
360
220EF
  0
DICTIONARY
  5
22104
330
1B2EB
100
AcDbDictionary
280
     1
281
     1
  3
ACAD_XREC_ROUNDTRIP
360
22105
  0
DICTIONARY
  5
220E6
330
3199
100
AcDbDictionary
280
     1
281
     1
  3
ACAD_XREC_ROUNDTRIP
360
220E7
  0
DICTIONARY
  5
22100
330
1B2E9
100
AcDbDictionary
280
     1
281
     1
  3
ACAD_XREC_ROUNDTRIP
360
22101
  0
DICTIONARY
  5
220FE
330
1B2E8
100
AcDbDictionary
280
     1
281
     1
  3
ACAD_XREC_ROUNDTRIP
360
220FF
  0
DICTIONARY
  5
220F8
330
1B2E5
100
AcDbDictionary
280
     1
281
     1
  3
ACAD_XREC_ROUNDTRIP
360
220F9
  0
DICTIONARY
  5
220FA
330
1B2E6
100
AcDbDictionary
280
     1
281
     1
  3
ACAD_XREC_ROUNDTRIP
360
220FB
  0
DICTIONARY
  5
220EC
330
319C
100
AcDbDictionary
280
     1
281
     1
  3
ACAD_XREC_ROUNDTRIP
360
220ED
  0
DICTIONARY
  5
220F4
330
1B2E3
100
AcDbDictionary
280
     1
281
     1
  3
ACAD_XREC_ROUNDTRIP
360
220F5
  0
DICTIONARY
  5
220FC
330
1B2E7
100
AcDbDictionary
280
     1
281
     1
  3
ACAD_XREC_ROUNDTRIP
360
220FD
  0
XRECORD
  5
2210F
102
{ACAD_REACTORS
330
2210E
102
}
330
2210E
100
AcDbXrecord
280
     1
102
DISPLAYNAME
  1
Imperial24
102
FLAGS
 90
        0
  0
XRECORD
  5
2210B
102
{ACAD_REACTORS
330
2210A
102
}
330
2210A
100
AcDbXrecord
280
     1
102
DISPLAYNAME
  1
Metric50
102
FLAGS
 90
        0
  0
XRECORD
  5
1B22C
102
{ACAD_REACTORS
330
1B22B
102
}
330
1B22B
100
AcDbXrecord
280
     1
102
MATERIAL
148
0.0
149
0.0
149
0.0
 93
        0
 94
      127
282
     0
 72
     1
 77
     1
171
     1
175
     1
179
     1
273
     0
  0
XRECORD
  5
1B22E
102
{ACAD_REACTORS
330
1B22D
102
}
330
1B22D
100
AcDbXrecord
280
     1
102
MATERIAL
148
0.0
149
0.0
149
0.0
 93
        0
 94
      127
282
     0
 72
     1
 77
     1
171
     1
175
     1
179
     1
273
     0
  0
XRECORD
  5
1B230
102
{ACAD_REACTORS
330
1B22F
102
}
330
1B22F
100
AcDbXrecord
280
     1
102
MATERIAL
148
0.0
149
0.0
149
0.0
 93
        0
 94
      127
282
     0
 72
     1
 77
     1
171
     1
175
     1
179
     1
273
     0
  0
XRECORD
  5
2210D
102
{ACAD_REACTORS
330
2210C
102
}
330
2210C
100
AcDbXrecord
280
     1
102
DISPLAYNAME
  1
Imperial24
102
FLAGS
 90
        0
  0
XRECORD
  5
22109
102
{ACAD_REACTORS
330
22108
102
}
330
22108
100
AcDbXrecord
280
     1
102
DISPLAYNAME
  1
Metric50
102
FLAGS
 90
        0
  0
CELLSTYLEMAP
  5
220D2
102
{ACAD_REACTORS
330
1B314
102
}
330
1B314
100
AcDbCellStyleMap
 90
        3
300
CELLSTYLE
  1
TABLEFORMAT_BEGIN
 90
        5
170
     1
 91
        0
 92
    32768
 62
   257
 93
        1
300
CONTENTFORMAT
  1
CONTENTFORMAT_BEGIN
 90
        0
 91
        0
 92
        4
 93
        0
300

 40
0.0
140
1.0
 94
        5
 62
     0
340
11
144
6.0
309
CONTENTFORMAT_END
171
     1
301
MARGIN
  1
CELLMARGIN_BEGIN
 40
1.5
 40
1.5
 40
1.5
 40
1.5
 40
0.18
 40
0.18
309
CELLMARGIN_END
 94
        6
 95
        1
302
GRIDFORMAT
  1
GRIDFORMAT_BEGIN
 90
        0
 91
        1
 62
     0
 92
       -2
340
0
 93
        0
 40
0.045
309
GRIDFORMAT_END
 95
        2
302
GRIDFORMAT
  1
GRIDFORMAT_BEGIN
 90
        0
 91
        1
 62
     0
 92
       -2
340
0
 93
        0
 40
0.045
309
GRIDFORMAT_END
 95
        4
302
GRIDFORMAT
  1
GRIDFORMAT_BEGIN
 90
        0
 91
        1
 62
     0
 92
       -2
340
0
 93
        0
 40
0.045
309
GRIDFORMAT_END
 95
        8
302
GRIDFORMAT
  1
GRIDFORMAT_BEGIN
 90
        0
 91
        1
 62
     0
 92
       -2
340
0
 93
        0
 40
0.045
309
GRIDFORMAT_END
 95
       16
302
GRIDFORMAT
  1
GRIDFORMAT_BEGIN
 90
        0
 91
        1
 62
     0
 92
       -2
340
0
 93
        0
 40
0.045
309
GRIDFORMAT_END
 95
       32
302
GRIDFORMAT
  1
GRIDFORMAT_BEGIN
 90
        0
 91
        1
 62
     0
 92
       -2
340
0
 93
        0
 40
0.045
309
GRIDFORMAT_END
309
TABLEFORMAT_END
  1
CELLSTYLE_BEGIN
 90
        1
 91
        1
300
_TITLE
309
CELLSTYLE_END
300
CELLSTYLE
  1
TABLEFORMAT_BEGIN
 90
        5
170
     1
 91
        0
 92
        0
 62
   257
 93
        1
300
CONTENTFORMAT
  1
CONTENTFORMAT_BEGIN
 90
        0
 91
        0
 92
        4
 93
        0
300

 40
0.0
140
1.0
 94
        5
 62
     0
340
11
144
4.5
309
CONTENTFORMAT_END
171
     1
301
MARGIN
  1
CELLMARGIN_BEGIN
 40
1.5
 40
1.5
 40
1.5
 40
1.5
 40
0.18
 40
0.18
309
CELLMARGIN_END
 94
        6
 95
        1
302
GRIDFORMAT
  1
GRIDFORMAT_BEGIN
 90
        0
 91
        1
 62
     0
 92
       -2
340
0
 93
        0
 40
0.045
309
GRIDFORMAT_END
 95
        2
302
GRIDFORMAT
  1
GRIDFORMAT_BEGIN
 90
        0
 91
        1
 62
     0
 92
       -2
340
0
 93
        0
 40
0.045
309
GRIDFORMAT_END
 95
        4
302
GRIDFORMAT
  1
GRIDFORMAT_BEGIN
 90
        0
 91
        1
 62
     0
 92
       -2
340
0
 93
        0
 40
0.045
309
GRIDFORMAT_END
 95
        8
302
GRIDFORMAT
  1
GRIDFORMAT_BEGIN
 90
        0
 91
        1
 62
     0
 92
       -2
340
0
 93
        0
 40
0.045
309
GRIDFORMAT_END
 95
       16
302
GRIDFORMAT
  1
GRIDFORMAT_BEGIN
 90
        0
 91
        1
 62
     0
 92
       -2
340
0
 93
        0
 40
0.045
309
GRIDFORMAT_END
 95
       32
302
GRIDFORMAT
  1
GRIDFORMAT_BEGIN
 90
        0
 91
        1
 62
     0
 92
       -2
340
0
 93
        0
 40
0.045
309
GRIDFORMAT_END
309
TABLEFORMAT_END
  1
CELLSTYLE_BEGIN
 90
        2
 91
        1
300
_HEADER
309
CELLSTYLE_END
300
CELLSTYLE
  1
TABLEFORMAT_BEGIN
 90
        5
170
     1
 91
        0
 92
        0
 62
   257
 93
        1
300
CONTENTFORMAT
  1
CONTENTFORMAT_BEGIN
 90
        0
 91
        0
 92
        4
 93
        0
300

 40
0.0
140
1.0
 94
        2
 62
     0
340
11
144
4.5
309
CONTENTFORMAT_END
171
     1
301
MARGIN
  1
CELLMARGIN_BEGIN
 40
1.5
 40
1.5
 40
1.5
 40
1.5
 40
0.18
 40
0.18
309
CELLMARGIN_END
 94
        6
 95
        1
302
GRIDFORMAT
  1
GRIDFORMAT_BEGIN
 90
        0
 91
        1
 62
     0
 92
       -2
340
0
 93
        0
 40
0.045
309
GRIDFORMAT_END
 95
        2
302
GRIDFORMAT
  1
GRIDFORMAT_BEGIN
 90
        0
 91
        1
 62
     0
 92
       -2
340
0
 93
        0
 40
0.045
309
GRIDFORMAT_END
 95
        4
302
GRIDFORMAT
  1
GRIDFORMAT_BEGIN
 90
        0
 91
        1
 62
     0
 92
       -2
340
0
 93
        0
 40
0.045
309
GRIDFORMAT_END
 95
        8
302
GRIDFORMAT
  1
GRIDFORMAT_BEGIN
 90
        0
 91
        1
 62
     0
 92
       -2
340
0
 93
        0
 40
0.045
309
GRIDFORMAT_END
 95
       16
302
GRIDFORMAT
  1
GRIDFORMAT_BEGIN
 90
        0
 91
        1
 62
     0
 92
       -2
340
0
 93
        0
 40
0.045
309
GRIDFORMAT_END
 95
       32
302
GRIDFORMAT
  1
GRIDFORMAT_BEGIN
 90
        0
 91
        1
 62
     0
 92
       -2
340
0
 93
        0
 40
0.045
309
GRIDFORMAT_END
309
TABLEFORMAT_END
  1
CELLSTYLE_BEGIN
 90
        3
 91
        2
300
_DATA
309
CELLSTYLE_END
  0
XRECORD
  5
220DF
102
{ACAD_REACTORS
330
220DE
102
}
330
220DE
100
AcDbXrecord
280
     1
102
RTVSPost2010Prop28
280
     1
102
RTVSPost2010PropOp28
 70
     1
102
RTVSPost2010Prop29
280
     1
102
RTVSPost2010PropOp29
 70
     1
102
RTVSPost2010Prop30
280
     0
102
RTVSPost2010PropOp30
 70
     1
102
RTVSPost2010Prop31
280
     0
102
RTVSPost2010PropOp31
 70
     1
102
RTVSPost2010Prop32
280
     0
102
RTVSPost2010PropOp32
 70
     1
102
RTVSPost2010Prop33
280
     0
102
RTVSPost2010PropOp33
 70
     1
102
RTVSPost2010Prop34
280
     0
102
RTVSPost2010PropOp34
 70
     1
102
RTVSPost2010Prop35
280
     0
102
RTVSPost2010PropOp35
 70
     1
102
RTVSPost2010Prop36
280
     0
102
RTVSPost2010PropOp36
 70
     1
102
RTVSPost2010Prop37
 90
       50
102
RTVSPost2010PropOp37
 70
     1
102
RTVSPost2010Prop38
140
0.0
102
RTVSPost2010PropOp38
 70
     1
102
RTVSPost2010Prop39
140
1.0
102
RTVSPost2010PropOp39
 70
     1
102
RTVSPost2010Prop40
 90
        0
102
RTVSPost2010PropOp40
 70
     1
102
RTVSPost2010Prop41ColorIndex
 90
       18
102
RTVSPost2010Prop41ColorRGB
 90
        0
102
RTVSPost2010PropOp41
 70
     1
102
RTVSPost2010Prop42
 90
       50
102
RTVSPost2010PropOp42
 70
     1
102
RTVSPost2010Prop43
 90
        3
102
RTVSPost2010PropOp43
 70
     1
102
RTVSPost2010Prop44ColorIndex
 90
        5
102
RTVSPost2010Prop44ColorRGB
 90
      255
102
RTVSPost2010PropOp44
 70
     1
102
RTVSPost2010Prop45
280
     0
102
RTVSPost2010PropOp45
 70
     1
102
RTVSPost2010Prop46
 90
       50
102
RTVSPost2010PropOp46
 70
     1
102
RTVSPost2010Prop47
 90
       50
102
RTVSPost2010PropOp47
 70
     1
102
RTVSPost2010Prop48
 90
       50
102
RTVSPost2010PropOp48
 70
     1
102
RTVSPost2010Prop49
280
     0
102
RTVSPost2010PropOp49
 70
     1
102
RTVSPost2010Prop50
 90
       50
102
RTVSPost2010PropOp50
 70
     1
102
RTVSPost2010Prop51ColorIndex
 90
      256
102
RTVSPost2010Prop51ColorRGB
 90
-16777216
102
RTVSPost2010PropOp51
 70
     0
102
RTVSPost2010Prop52
140
1.0
102
RTVSPost2010PropOp52
 70
     0
102
RTVSPost2010Prop53
 90
        2
102
RTVSPost2010PropOp53
 70
     1
102
RTVSPost2010Prop54
  1
strokes_ogs.tif
102
RTVSPost2010PropOp54
 70
     1
102
RTVSPost2010Prop55
280
     0
102
RTVSPost2010PropOp55
 70
     1
102
RTVSPost2010Prop56
140
1.0
102
RTVSPost2010PropOp56
 70
     1
102
RTVSPost2010Prop57
140
1.0
102
RTVSPost2010PropOp57
 70
     1
  0
XRECORD
  5
220E3
102
{ACAD_REACTORS
330
220E2
102
}
330
220E2
100
AcDbXrecord
280
     1
102
RTVSPost2010Prop28
280
     0
102
RTVSPost2010PropOp28
 70
     1
102
RTVSPost2010Prop29
280
     1
102
RTVSPost2010PropOp29
 70
     1
102
RTVSPost2010Prop30
280
     1
102
RTVSPost2010PropOp30
 70
     1
102
RTVSPost2010Prop31
280
     0
102
RTVSPost2010PropOp31
 70
     1
102
RTVSPost2010Prop32
280
     0
102
RTVSPost2010PropOp32
 70
     1
102
RTVSPost2010Prop33
280
     0
102
RTVSPost2010PropOp33
 70
     1
102
RTVSPost2010Prop34
280
     0
102
RTVSPost2010PropOp34
 70
     1
102
RTVSPost2010Prop35
280
     0
102
RTVSPost2010PropOp35
 70
     1
102
RTVSPost2010Prop36
280
     0
102
RTVSPost2010PropOp36
 70
     1
102
RTVSPost2010Prop37
 90
       50
102
RTVSPost2010PropOp37
 70
     1
102
RTVSPost2010Prop38
140
0.0
102
RTVSPost2010PropOp38
 70
     1
102
RTVSPost2010Prop39
140
1.0
102
RTVSPost2010PropOp39
 70
     1
102
RTVSPost2010Prop40
 90
        0
102
RTVSPost2010PropOp40
 70
     1
102
RTVSPost2010Prop41ColorIndex
 90
       18
102
RTVSPost2010Prop41ColorRGB
 90
        0
102
RTVSPost2010PropOp41
 70
     1
102
RTVSPost2010Prop42
 90
       50
102
RTVSPost2010PropOp42
 70
     1
102
RTVSPost2010Prop43
 90
        3
102
RTVSPost2010PropOp43
 70
     1
102
RTVSPost2010Prop44ColorIndex
 90
        5
102
RTVSPost2010Prop44ColorRGB
 90
      255
102
RTVSPost2010PropOp44
 70
     1
102
RTVSPost2010Prop45
280
     0
102
RTVSPost2010PropOp45
 70
     1
102
RTVSPost2010Prop46
 90
       50
102
RTVSPost2010PropOp46
 70
     1
102
RTVSPost2010Prop47
 90
       50
102
RTVSPost2010PropOp47
 70
     1
102
RTVSPost2010Prop48
 90
       50
102
RTVSPost2010PropOp48
 70
     1
102
RTVSPost2010Prop49
280
     0
102
RTVSPost2010PropOp49
 70
     1
102
RTVSPost2010Prop50
 90
       50
102
RTVSPost2010PropOp50
 70
     1
102
RTVSPost2010Prop51ColorIndex
 90
      256
102
RTVSPost2010Prop51ColorRGB
 90
-16777216
102
RTVSPost2010PropOp51
 70
     0
102
RTVSPost2010Prop52
140
1.0
102
RTVSPost2010PropOp52
 70
     0
102
RTVSPost2010Prop53
 90
        2
102
RTVSPost2010PropOp53
 70
     1
102
RTVSPost2010Prop54
  1
strokes_ogs.tif
102
RTVSPost2010PropOp54
 70
     1
102
RTVSPost2010Prop55
280
     0
102
RTVSPost2010PropOp55
 70
     1
102
RTVSPost2010Prop56
140
1.0
102
RTVSPost2010PropOp56
 70
     1
102
RTVSPost2010Prop57
140
1.0
102
RTVSPost2010PropOp57
 70
     1
  0
XRECORD
  5
220E1
102
{ACAD_REACTORS
330
220E0
102
}
330
220E0
100
AcDbXrecord
280
     1
102
RTVSPost2010Prop28
280
     0
102
RTVSPost2010PropOp28
 70
     1
102
RTVSPost2010Prop29
280
     1
102
RTVSPost2010PropOp29
 70
     1
102
RTVSPost2010Prop30
280
     1
102
RTVSPost2010PropOp30
 70
     1
102
RTVSPost2010Prop31
280
     0
102
RTVSPost2010PropOp31
 70
     1
102
RTVSPost2010Prop32
280
     0
102
RTVSPost2010PropOp32
 70
     1
102
RTVSPost2010Prop33
280
     0
102
RTVSPost2010PropOp33
 70
     1
102
RTVSPost2010Prop34
280
     0
102
RTVSPost2010PropOp34
 70
     1
102
RTVSPost2010Prop35
280
     0
102
RTVSPost2010PropOp35
 70
     1
102
RTVSPost2010Prop36
280
     0
102
RTVSPost2010PropOp36
 70
     1
102
RTVSPost2010Prop37
 90
       50
102
RTVSPost2010PropOp37
 70
     1
102
RTVSPost2010Prop38
140
0.0
102
RTVSPost2010PropOp38
 70
     1
102
RTVSPost2010Prop39
140
1.0
102
RTVSPost2010PropOp39
 70
     1
102
RTVSPost2010Prop40
 90
        0
102
RTVSPost2010PropOp40
 70
     1
102
RTVSPost2010Prop41ColorIndex
 90
       18
102
RTVSPost2010Prop41ColorRGB
 90
        0
102
RTVSPost2010PropOp41
 70
     1
102
RTVSPost2010Prop42
 90
       50
102
RTVSPost2010PropOp42
 70
     1
102
RTVSPost2010Prop43
 90
        3
102
RTVSPost2010PropOp43
 70
     1
102
RTVSPost2010Prop44ColorIndex
 90
        5
102
RTVSPost2010Prop44ColorRGB
 90
      255
102
RTVSPost2010PropOp44
 70
     1
102
RTVSPost2010Prop45
280
     0
102
RTVSPost2010PropOp45
 70
     1
102
RTVSPost2010Prop46
 90
       50
102
RTVSPost2010PropOp46
 70
     1
102
RTVSPost2010Prop47
 90
       50
102
RTVSPost2010PropOp47
 70
     1
102
RTVSPost2010Prop48
 90
       50
102
RTVSPost2010PropOp48
 70
     1
102
RTVSPost2010Prop49
280
     0
102
RTVSPost2010PropOp49
 70
     1
102
RTVSPost2010Prop50
 90
       50
102
RTVSPost2010PropOp50
 70
     1
102
RTVSPost2010Prop51ColorIndex
 90
      256
102
RTVSPost2010Prop51ColorRGB
 90
-16777216
102
RTVSPost2010PropOp51
 70
     0
102
RTVSPost2010Prop52
140
1.0
102
RTVSPost2010PropOp52
 70
     0
102
RTVSPost2010Prop53
 90
        2
102
RTVSPost2010PropOp53
 70
     1
102
RTVSPost2010Prop54
  1
strokes_ogs.tif
102
RTVSPost2010PropOp54
 70
     1
102
RTVSPost2010Prop55
280
     0
102
RTVSPost2010PropOp55
 70
     1
102
RTVSPost2010Prop56
140
1.0
102
RTVSPost2010PropOp56
 70
     1
102
RTVSPost2010Prop57
140
1.0
102
RTVSPost2010PropOp57
 70
     1
  0
XRECORD
  5
220DD
102
{ACAD_REACTORS
330
220DC
102
}
330
220DC
100
AcDbXrecord
280
     1
102
RTVSPost2010Prop28
280
     0
102
RTVSPost2010PropOp28
 70
     1
102
RTVSPost2010Prop29
280
     1
102
RTVSPost2010PropOp29
 70
     1
102
RTVSPost2010Prop30
280
     1
102
RTVSPost2010PropOp30
 70
     1
102
RTVSPost2010Prop31
280
     0
102
RTVSPost2010PropOp31
 70
     1
102
RTVSPost2010Prop32
280
     0
102
RTVSPost2010PropOp32
 70
     1
102
RTVSPost2010Prop33
280
     0
102
RTVSPost2010PropOp33
 70
     1
102
RTVSPost2010Prop34
280
     0
102
RTVSPost2010PropOp34
 70
     1
102
RTVSPost2010Prop35
280
     0
102
RTVSPost2010PropOp35
 70
     1
102
RTVSPost2010Prop36
280
     0
102
RTVSPost2010PropOp36
 70
     1
102
RTVSPost2010Prop37
 90
       50
102
RTVSPost2010PropOp37
 70
     1
102
RTVSPost2010Prop38
140
0.0
102
RTVSPost2010PropOp38
 70
     1
102
RTVSPost2010Prop39
140
1.0
102
RTVSPost2010PropOp39
 70
     1
102
RTVSPost2010Prop40
 90
        0
102
RTVSPost2010PropOp40
 70
     1
102
RTVSPost2010Prop41ColorIndex
 90
       18
102
RTVSPost2010Prop41ColorRGB
 90
        0
102
RTVSPost2010PropOp41
 70
     1
102
RTVSPost2010Prop42
 90
       50
102
RTVSPost2010PropOp42
 70
     1
102
RTVSPost2010Prop43
 90
        3
102
RTVSPost2010PropOp43
 70
     1
102
RTVSPost2010Prop44ColorIndex
 90
        5
102
RTVSPost2010Prop44ColorRGB
 90
      255
102
RTVSPost2010PropOp44
 70
     1
102
RTVSPost2010Prop45
280
     0
102
RTVSPost2010PropOp45
 70
     1
102
RTVSPost2010Prop46
 90
       50
102
RTVSPost2010PropOp46
 70
     1
102
RTVSPost2010Prop47
 90
       50
102
RTVSPost2010PropOp47
 70
     1
102
RTVSPost2010Prop48
 90
       50
102
RTVSPost2010PropOp48
 70
     1
102
RTVSPost2010Prop49
280
     0
102
RTVSPost2010PropOp49
 70
     1
102
RTVSPost2010Prop50
 90
       50
102
RTVSPost2010PropOp50
 70
     1
102
RTVSPost2010Prop51ColorIndex
 90
      256
102
RTVSPost2010Prop51ColorRGB
 90
-16777216
102
RTVSPost2010PropOp51
 70
     0
102
RTVSPost2010Prop52
140
1.0
102
RTVSPost2010PropOp52
 70
     0
102
RTVSPost2010Prop53
 90
        2
102
RTVSPost2010PropOp53
 70
     1
102
RTVSPost2010Prop54
  1
strokes_ogs.tif
102
RTVSPost2010PropOp54
 70
     1
102
RTVSPost2010Prop55
280
     0
102
RTVSPost2010PropOp55
 70
     1
102
RTVSPost2010Prop56
140
1.0
102
RTVSPost2010PropOp56
 70
     1
102
RTVSPost2010Prop57
140
1.0
102
RTVSPost2010PropOp57
 70
     1
  0
XRECORD
  5
220EB
102
{ACAD_REACTORS
330
220EA
102
}
330
220EA
100
AcDbXrecord
280
     1
102
RTVSPost2010Prop28
280
     0
102
RTVSPost2010PropOp28
 70
     1
102
RTVSPost2010Prop29
280
     1
102
RTVSPost2010PropOp29
 70
     1
102
RTVSPost2010Prop30
280
     1
102
RTVSPost2010PropOp30
 70
     1
102
RTVSPost2010Prop31
280
     0
102
RTVSPost2010PropOp31
 70
     1
102
RTVSPost2010Prop32
280
     0
102
RTVSPost2010PropOp32
 70
     1
102
RTVSPost2010Prop33
280
     0
102
RTVSPost2010PropOp33
 70
     1
102
RTVSPost2010Prop34
280
     0
102
RTVSPost2010PropOp34
 70
     1
102
RTVSPost2010Prop35
280
     0
102
RTVSPost2010PropOp35
 70
     1
102
RTVSPost2010Prop36
280
     0
102
RTVSPost2010PropOp36
 70
     1
102
RTVSPost2010Prop37
 90
       50
102
RTVSPost2010PropOp37
 70
     1
102
RTVSPost2010Prop38
140
0.0
102
RTVSPost2010PropOp38
 70
     1
102
RTVSPost2010Prop39
140
1.0
102
RTVSPost2010PropOp39
 70
     1
102
RTVSPost2010Prop40
 90
        0
102
RTVSPost2010PropOp40
 70
     1
102
RTVSPost2010Prop41ColorIndex
 90
       18
102
RTVSPost2010Prop41ColorRGB
 90
        0
102
RTVSPost2010PropOp41
 70
     1
102
RTVSPost2010Prop42
 90
       50
102
RTVSPost2010PropOp42
 70
     1
102
RTVSPost2010Prop43
 90
        3
102
RTVSPost2010PropOp43
 70
     1
102
RTVSPost2010Prop44ColorIndex
 90
        5
102
RTVSPost2010Prop44ColorRGB
 90
      255
102
RTVSPost2010PropOp44
 70
     1
102
RTVSPost2010Prop45
280
     0
102
RTVSPost2010PropOp45
 70
     1
102
RTVSPost2010Prop46
 90
       50
102
RTVSPost2010PropOp46
 70
     1
102
RTVSPost2010Prop47
 90
       50
102
RTVSPost2010PropOp47
 70
     1
102
RTVSPost2010Prop48
 90
       50
102
RTVSPost2010PropOp48
 70
     1
102
RTVSPost2010Prop49
280
     0
102
RTVSPost2010PropOp49
 70
     1
102
RTVSPost2010Prop50
 90
       50
102
RTVSPost2010PropOp50
 70
     1
102
RTVSPost2010Prop51ColorIndex
 90
      256
102
RTVSPost2010Prop51ColorRGB
 90
-16777216
102
RTVSPost2010PropOp51
 70
     0
102
RTVSPost2010Prop52
140
1.0
102
RTVSPost2010PropOp52
 70
     0
102
RTVSPost2010Prop53
 90
        2
102
RTVSPost2010PropOp53
 70
     1
102
RTVSPost2010Prop54
  1
strokes_ogs.tif
102
RTVSPost2010PropOp54
 70
     1
102
RTVSPost2010Prop55
280
     0
102
RTVSPost2010PropOp55
 70
     1
102
RTVSPost2010Prop56
140
1.0
102
RTVSPost2010PropOp56
 70
     1
102
RTVSPost2010Prop57
140
1.0
102
RTVSPost2010PropOp57
 70
     1
  0
XRECORD
  5
220F3
102
{ACAD_REACTORS
330
220F2
102
}
330
220F2
100
AcDbXrecord
280
     1
102
RTVSPost2010Prop28
280
     0
102
RTVSPost2010PropOp28
 70
     1
102
RTVSPost2010Prop29
280
     1
102
RTVSPost2010PropOp29
 70
     1
102
RTVSPost2010Prop30
280
     1
102
RTVSPost2010PropOp30
 70
     1
102
RTVSPost2010Prop31
280
     0
102
RTVSPost2010PropOp31
 70
     1
102
RTVSPost2010Prop32
280
     0
102
RTVSPost2010PropOp32
 70
     1
102
RTVSPost2010Prop33
280
     0
102
RTVSPost2010PropOp33
 70
     1
102
RTVSPost2010Prop34
280
     0
102
RTVSPost2010PropOp34
 70
     1
102
RTVSPost2010Prop35
280
     0
102
RTVSPost2010PropOp35
 70
     1
102
RTVSPost2010Prop36
280
     0
102
RTVSPost2010PropOp36
 70
     1
102
RTVSPost2010Prop37
 90
       50
102
RTVSPost2010PropOp37
 70
     1
102
RTVSPost2010Prop38
140
0.0
102
RTVSPost2010PropOp38
 70
     1
102
RTVSPost2010Prop39
140
1.0
102
RTVSPost2010PropOp39
 70
     1
102
RTVSPost2010Prop40
 90
        0
102
RTVSPost2010PropOp40
 70
     1
102
RTVSPost2010Prop41ColorIndex
 90
       18
102
RTVSPost2010Prop41ColorRGB
 90
        0
102
RTVSPost2010PropOp41
 70
     1
102
RTVSPost2010Prop42
 90
       50
102
RTVSPost2010PropOp42
 70
     1
102
RTVSPost2010Prop43
 90
        3
102
RTVSPost2010PropOp43
 70
     1
102
RTVSPost2010Prop44ColorIndex
 90
        5
102
RTVSPost2010Prop44ColorRGB
 90
      255
102
RTVSPost2010PropOp44
 70
     1
102
RTVSPost2010Prop45
280
     0
102
RTVSPost2010PropOp45
 70
     1
102
RTVSPost2010Prop46
 90
       50
102
RTVSPost2010PropOp46
 70
     1
102
RTVSPost2010Prop47
 90
       50
102
RTVSPost2010PropOp47
 70
     1
102
RTVSPost2010Prop48
 90
       50
102
RTVSPost2010PropOp48
 70
     1
102
RTVSPost2010Prop49
280
     0
102
RTVSPost2010PropOp49
 70
     1
102
RTVSPost2010Prop50
 90
       50
102
RTVSPost2010PropOp50
 70
     1
102
RTVSPost2010Prop51ColorIndex
 90
      256
102
RTVSPost2010Prop51ColorRGB
 90
-16777216
102
RTVSPost2010PropOp51
 70
     0
102
RTVSPost2010Prop52
140
1.0
102
RTVSPost2010PropOp52
 70
     0
102
RTVSPost2010Prop53
 90
        2
102
RTVSPost2010PropOp53
 70
     1
102
RTVSPost2010Prop54
  1
strokes_ogs.tif
102
RTVSPost2010PropOp54
 70
     1
102
RTVSPost2010Prop55
280
     0
102
RTVSPost2010PropOp55
 70
     1
102
RTVSPost2010Prop56
140
1.0
102
RTVSPost2010PropOp56
 70
     1
102
RTVSPost2010Prop57
140
1.0
102
RTVSPost2010PropOp57
 70
     1
  0
XRECORD
  5
220E5
102
{ACAD_REACTORS
330
220E4
102
}
330
220E4
100
AcDbXrecord
280
     1
102
RTVSPost2010Prop28
280
     0
102
RTVSPost2010PropOp28
 70
     1
102
RTVSPost2010Prop29
280
     1
102
RTVSPost2010PropOp29
 70
     1
102
RTVSPost2010Prop30
280
     1
102
RTVSPost2010PropOp30
 70
     1
102
RTVSPost2010Prop31
280
     0
102
RTVSPost2010PropOp31
 70
     1
102
RTVSPost2010Prop32
280
     0
102
RTVSPost2010PropOp32
 70
     1
102
RTVSPost2010Prop33
280
     0
102
RTVSPost2010PropOp33
 70
     1
102
RTVSPost2010Prop34
280
     0
102
RTVSPost2010PropOp34
 70
     1
102
RTVSPost2010Prop35
280
     0
102
RTVSPost2010PropOp35
 70
     1
102
RTVSPost2010Prop36
280
     0
102
RTVSPost2010PropOp36
 70
     1
102
RTVSPost2010Prop37
 90
       50
102
RTVSPost2010PropOp37
 70
     1
102
RTVSPost2010Prop38
140
0.0
102
RTVSPost2010PropOp38
 70
     1
102
RTVSPost2010Prop39
140
1.0
102
RTVSPost2010PropOp39
 70
     1
102
RTVSPost2010Prop40
 90
        0
102
RTVSPost2010PropOp40
 70
     1
102
RTVSPost2010Prop41ColorIndex
 90
       18
102
RTVSPost2010Prop41ColorRGB
 90
        0
102
RTVSPost2010PropOp41
 70
     1
102
RTVSPost2010Prop42
 90
       50
102
RTVSPost2010PropOp42
 70
     1
102
RTVSPost2010Prop43
 90
        3
102
RTVSPost2010PropOp43
 70
     1
102
RTVSPost2010Prop44ColorIndex
 90
        5
102
RTVSPost2010Prop44ColorRGB
 90
      255
102
RTVSPost2010PropOp44
 70
     1
102
RTVSPost2010Prop45
280
     0
102
RTVSPost2010PropOp45
 70
     1
102
RTVSPost2010Prop46
 90
       50
102
RTVSPost2010PropOp46
 70
     1
102
RTVSPost2010Prop47
 90
       50
102
RTVSPost2010PropOp47
 70
     1
102
RTVSPost2010Prop48
 90
       50
102
RTVSPost2010PropOp48
 70
     1
102
RTVSPost2010Prop49
280
     0
102
RTVSPost2010PropOp49
 70
     1
102
RTVSPost2010Prop50
 90
       50
102
RTVSPost2010PropOp50
 70
     1
102
RTVSPost2010Prop51ColorIndex
 90
      256
102
RTVSPost2010Prop51ColorRGB
 90
-16777216
102
RTVSPost2010PropOp51
 70
     0
102
RTVSPost2010Prop52
140
1.0
102
RTVSPost2010PropOp52
 70
     0
102
RTVSPost2010Prop53
 90
        2
102
RTVSPost2010PropOp53
 70
     1
102
RTVSPost2010Prop54
  1
strokes_ogs.tif
102
RTVSPost2010PropOp54
 70
     1
102
RTVSPost2010Prop55
280
     0
102
RTVSPost2010PropOp55
 70
     1
102
RTVSPost2010Prop56
140
1.0
102
RTVSPost2010PropOp56
 70
     1
102
RTVSPost2010Prop57
140
1.0
102
RTVSPost2010PropOp57
 70
     1
  0
XRECORD
  5
220E9
102
{ACAD_REACTORS
330
220E8
102
}
330
220E8
100
AcDbXrecord
280
     1
102
RTVSPost2010Prop28
280
     0
102
RTVSPost2010PropOp28
 70
     1
102
RTVSPost2010Prop29
280
     1
102
RTVSPost2010PropOp29
 70
     1
102
RTVSPost2010Prop30
280
     1
102
RTVSPost2010PropOp30
 70
     1
102
RTVSPost2010Prop31
280
     0
102
RTVSPost2010PropOp31
 70
     1
102
RTVSPost2010Prop32
280
     0
102
RTVSPost2010PropOp32
 70
     1
102
RTVSPost2010Prop33
280
     0
102
RTVSPost2010PropOp33
 70
     1
102
RTVSPost2010Prop34
280
     0
102
RTVSPost2010PropOp34
 70
     1
102
RTVSPost2010Prop35
280
     0
102
RTVSPost2010PropOp35
 70
     1
102
RTVSPost2010Prop36
280
     0
102
RTVSPost2010PropOp36
 70
     1
102
RTVSPost2010Prop37
 90
       50
102
RTVSPost2010PropOp37
 70
     1
102
RTVSPost2010Prop38
140
0.0
102
RTVSPost2010PropOp38
 70
     1
102
RTVSPost2010Prop39
140
1.0
102
RTVSPost2010PropOp39
 70
     1
102
RTVSPost2010Prop40
 90
        0
102
RTVSPost2010PropOp40
 70
     1
102
RTVSPost2010Prop41ColorIndex
 90
       18
102
RTVSPost2010Prop41ColorRGB
 90
        0
102
RTVSPost2010PropOp41
 70
     1
102
RTVSPost2010Prop42
 90
       50
102
RTVSPost2010PropOp42
 70
     1
102
RTVSPost2010Prop43
 90
        3
102
RTVSPost2010PropOp43
 70
     1
102
RTVSPost2010Prop44ColorIndex
 90
        5
102
RTVSPost2010Prop44ColorRGB
 90
      255
102
RTVSPost2010PropOp44
 70
     1
102
RTVSPost2010Prop45
280
     0
102
RTVSPost2010PropOp45
 70
     1
102
RTVSPost2010Prop46
 90
       50
102
RTVSPost2010PropOp46
 70
     1
102
RTVSPost2010Prop47
 90
       50
102
RTVSPost2010PropOp47
 70
     1
102
RTVSPost2010Prop48
 90
       50
102
RTVSPost2010PropOp48
 70
     1
102
RTVSPost2010Prop49
280
     0
102
RTVSPost2010PropOp49
 70
     1
102
RTVSPost2010Prop50
 90
       50
102
RTVSPost2010PropOp50
 70
     1
102
RTVSPost2010Prop51ColorIndex
 90
      256
102
RTVSPost2010Prop51ColorRGB
 90
-16777216
102
RTVSPost2010PropOp51
 70
     0
102
RTVSPost2010Prop52
140
1.0
102
RTVSPost2010PropOp52
 70
     0
102
RTVSPost2010Prop53
 90
        2
102
RTVSPost2010PropOp53
 70
     1
102
RTVSPost2010Prop54
  1
strokes_ogs.tif
102
RTVSPost2010PropOp54
 70
     1
102
RTVSPost2010Prop55
280
     0
102
RTVSPost2010PropOp55
 70
     1
102
RTVSPost2010Prop56
140
1.0
102
RTVSPost2010PropOp56
 70
     1
102
RTVSPost2010Prop57
140
1.0
102
RTVSPost2010PropOp57
 70
     1
  0
XRECORD
  5
22107
102
{ACAD_REACTORS
330
22106
102
}
330
22106
100
AcDbXrecord
280
     1
102
RTVSPost2010Prop28
280
     0
102
RTVSPost2010PropOp28
 70
     1
102
RTVSPost2010Prop29
280
     1
102
RTVSPost2010PropOp29
 70
     1
102
RTVSPost2010Prop30
280
     1
102
RTVSPost2010PropOp30
 70
     1
102
RTVSPost2010Prop31
280
     0
102
RTVSPost2010PropOp31
 70
     1
102
RTVSPost2010Prop32
280
     0
102
RTVSPost2010PropOp32
 70
     1
102
RTVSPost2010Prop33
280
     0
102
RTVSPost2010PropOp33
 70
     1
102
RTVSPost2010Prop34
280
     0
102
RTVSPost2010PropOp34
 70
     1
102
RTVSPost2010Prop35
280
     0
102
RTVSPost2010PropOp35
 70
     1
102
RTVSPost2010Prop36
280
     0
102
RTVSPost2010PropOp36
 70
     1
102
RTVSPost2010Prop37
 90
       50
102
RTVSPost2010PropOp37
 70
     0
102
RTVSPost2010Prop38
140
0.0
102
RTVSPost2010PropOp38
 70
     0
102
RTVSPost2010Prop39
140
1.0
102
RTVSPost2010PropOp39
 70
     0
102
RTVSPost2010Prop40
 90
        0
102
RTVSPost2010PropOp40
 70
     0
102
RTVSPost2010Prop41ColorIndex
 90
       18
102
RTVSPost2010Prop41ColorRGB
 90
        0
102
RTVSPost2010PropOp41
 70
     0
102
RTVSPost2010Prop42
 90
       50
102
RTVSPost2010PropOp42
 70
     0
102
RTVSPost2010Prop43
 90
        3
102
RTVSPost2010PropOp43
 70
     0
102
RTVSPost2010Prop44ColorIndex
 90
        5
102
RTVSPost2010Prop44ColorRGB
 90
      255
102
RTVSPost2010PropOp44
 70
     0
102
RTVSPost2010Prop45
280
     0
102
RTVSPost2010PropOp45
 70
     1
102
RTVSPost2010Prop46
 90
       50
102
RTVSPost2010PropOp46
 70
     0
102
RTVSPost2010Prop47
 90
       50
102
RTVSPost2010PropOp47
 70
     0
102
RTVSPost2010Prop48
 90
       50
102
RTVSPost2010PropOp48
 70
     0
102
RTVSPost2010Prop49
280
     0
102
RTVSPost2010PropOp49
 70
     1
102
RTVSPost2010Prop50
 90
       50
102
RTVSPost2010PropOp50
 70
     0
102
RTVSPost2010Prop51ColorIndex
 90
      256
102
RTVSPost2010Prop51ColorRGB
 90
-16777216
102
RTVSPost2010PropOp51
 70
     0
102
RTVSPost2010Prop52
140
1.0
102
RTVSPost2010PropOp52
 70
     0
102
RTVSPost2010Prop53
 90
        2
102
RTVSPost2010PropOp53
 70
     0
102
RTVSPost2010Prop54
  1
strokes_ogs.tif
102
RTVSPost2010PropOp54
 70
     0
102
RTVSPost2010Prop55
280
     0
102
RTVSPost2010PropOp55
 70
     1
102
RTVSPost2010Prop56
140
1.0
102
RTVSPost2010PropOp56
 70
     0
102
RTVSPost2010Prop57
140
1.0
102
RTVSPost2010PropOp57
 70
     0
  0
XRECORD
  5
220F1
102
{ACAD_REACTORS
330
220F0
102
}
330
220F0
100
AcDbXrecord
280
     1
102
RTVSPost2010Prop28
280
     0
102
RTVSPost2010PropOp28
 70
     1
102
RTVSPost2010Prop29
280
     1
102
RTVSPost2010PropOp29
 70
     1
102
RTVSPost2010Prop30
280
     1
102
RTVSPost2010PropOp30
 70
     1
102
RTVSPost2010Prop31
280
     0
102
RTVSPost2010PropOp31
 70
     1
102
RTVSPost2010Prop32
280
     0
102
RTVSPost2010PropOp32
 70
     1
102
RTVSPost2010Prop33
280
     0
102
RTVSPost2010PropOp33
 70
     1
102
RTVSPost2010Prop34
280
     0
102
RTVSPost2010PropOp34
 70
     1
102
RTVSPost2010Prop35
280
     0
102
RTVSPost2010PropOp35
 70
     1
102
RTVSPost2010Prop36
280
     0
102
RTVSPost2010PropOp36
 70
     1
102
RTVSPost2010Prop37
 90
       50
102
RTVSPost2010PropOp37
 70
     1
102
RTVSPost2010Prop38
140
0.0
102
RTVSPost2010PropOp38
 70
     1
102
RTVSPost2010Prop39
140
1.0
102
RTVSPost2010PropOp39
 70
     1
102
RTVSPost2010Prop40
 90
        0
102
RTVSPost2010PropOp40
 70
     1
102
RTVSPost2010Prop41ColorIndex
 90
       18
102
RTVSPost2010Prop41ColorRGB
 90
        0
102
RTVSPost2010PropOp41
 70
     1
102
RTVSPost2010Prop42
 90
       50
102
RTVSPost2010PropOp42
 70
     1
102
RTVSPost2010Prop43
 90
        3
102
RTVSPost2010PropOp43
 70
     1
102
RTVSPost2010Prop44ColorIndex
 90
        5
102
RTVSPost2010Prop44ColorRGB
 90
      255
102
RTVSPost2010PropOp44
 70
     1
102
RTVSPost2010Prop45
280
     0
102
RTVSPost2010PropOp45
 70
     1
102
RTVSPost2010Prop46
 90
       50
102
RTVSPost2010PropOp46
 70
     1
102
RTVSPost2010Prop47
 90
       50
102
RTVSPost2010PropOp47
 70
     1
102
RTVSPost2010Prop48
 90
       50
102
RTVSPost2010PropOp48
 70
     1
102
RTVSPost2010Prop49
280
     0
102
RTVSPost2010PropOp49
 70
     1
102
RTVSPost2010Prop50
 90
       50
102
RTVSPost2010PropOp50
 70
     1
102
RTVSPost2010Prop51ColorIndex
 90
      256
102
RTVSPost2010Prop51ColorRGB
 90
-16777216
102
RTVSPost2010PropOp51
 70
     0
102
RTVSPost2010Prop52
140
1.0
102
RTVSPost2010PropOp52
 70
     0
102
RTVSPost2010Prop53
 90
        2
102
RTVSPost2010PropOp53
 70
     1
102
RTVSPost2010Prop54
  1
strokes_ogs.tif
102
RTVSPost2010PropOp54
 70
     1
102
RTVSPost2010Prop55
280
     0
102
RTVSPost2010PropOp55
 70
     1
102
RTVSPost2010Prop56
140
1.0
102
RTVSPost2010PropOp56
 70
     1
102
RTVSPost2010Prop57
140
1.0
102
RTVSPost2010PropOp57
 70
     1
  0
XRECORD
  5
220D5
102
{ACAD_REACTORS
330
220D4
102
}
330
220D4
100
AcDbXrecord
280
     1
102
RTVSPost2010Prop28
280
     0
102
RTVSPost2010PropOp28
 70
     1
102
RTVSPost2010Prop29
280
     1
102
RTVSPost2010PropOp29
 70
     1
102
RTVSPost2010Prop30
280
     1
102
RTVSPost2010PropOp30
 70
     1
102
RTVSPost2010Prop31
280
     0
102
RTVSPost2010PropOp31
 70
     1
102
RTVSPost2010Prop32
280
     0
102
RTVSPost2010PropOp32
 70
     1
102
RTVSPost2010Prop33
280
     0
102
RTVSPost2010PropOp33
 70
     1
102
RTVSPost2010Prop34
280
     0
102
RTVSPost2010PropOp34
 70
     1
102
RTVSPost2010Prop35
280
     0
102
RTVSPost2010PropOp35
 70
     1
102
RTVSPost2010Prop36
280
     0
102
RTVSPost2010PropOp36
 70
     1
102
RTVSPost2010Prop37
 90
       50
102
RTVSPost2010PropOp37
 70
     1
102
RTVSPost2010Prop38
140
0.0
102
RTVSPost2010PropOp38
 70
     1
102
RTVSPost2010Prop39
140
1.0
102
RTVSPost2010PropOp39
 70
     1
102
RTVSPost2010Prop40
 90
        0
102
RTVSPost2010PropOp40
 70
     1
102
RTVSPost2010Prop41ColorIndex
 90
       18
102
RTVSPost2010Prop41ColorRGB
 90
        0
102
RTVSPost2010PropOp41
 70
     1
102
RTVSPost2010Prop42
 90
       50
102
RTVSPost2010PropOp42
 70
     1
102
RTVSPost2010Prop43
 90
        3
102
RTVSPost2010PropOp43
 70
     1
102
RTVSPost2010Prop44ColorIndex
 90
        5
102
RTVSPost2010Prop44ColorRGB
 90
      255
102
RTVSPost2010PropOp44
 70
     1
102
RTVSPost2010Prop45
280
     0
102
RTVSPost2010PropOp45
 70
     1
102
RTVSPost2010Prop46
 90
       50
102
RTVSPost2010PropOp46
 70
     1
102
RTVSPost2010Prop47
 90
       50
102
RTVSPost2010PropOp47
 70
     1
102
RTVSPost2010Prop48
 90
       50
102
RTVSPost2010PropOp48
 70
     1
102
RTVSPost2010Prop49
280
     0
102
RTVSPost2010PropOp49
 70
     1
102
RTVSPost2010Prop50
 90
       50
102
RTVSPost2010PropOp50
 70
     1
102
RTVSPost2010Prop51ColorIndex
 90
      256
102
RTVSPost2010Prop51ColorRGB
 90
-16777216
102
RTVSPost2010PropOp51
 70
     0
102
RTVSPost2010Prop52
140
1.0
102
RTVSPost2010PropOp52
 70
     0
102
RTVSPost2010Prop53
 90
        2
102
RTVSPost2010PropOp53
 70
     1
102
RTVSPost2010Prop54
  1
strokes_ogs.tif
102
RTVSPost2010PropOp54
 70
     1
102
RTVSPost2010Prop55
280
     0
102
RTVSPost2010PropOp55
 70
     1
102
RTVSPost2010Prop56
140
1.0
102
RTVSPost2010PropOp56
 70
     1
102
RTVSPost2010Prop57
140
1.0
102
RTVSPost2010PropOp57
 70
     1
  0
XRECORD
  5
220D7
102
{ACAD_REACTORS
330
220D6
102
}
330
220D6
100
AcDbXrecord
280
     1
102
RTVSPost2010Prop28
280
     0
102
RTVSPost2010PropOp28
 70
     1
102
RTVSPost2010Prop29
280
     1
102
RTVSPost2010PropOp29
 70
     1
102
RTVSPost2010Prop30
280
     1
102
RTVSPost2010PropOp30
 70
     1
102
RTVSPost2010Prop31
280
     0
102
RTVSPost2010PropOp31
 70
     1
102
RTVSPost2010Prop32
280
     0
102
RTVSPost2010PropOp32
 70
     1
102
RTVSPost2010Prop33
280
     0
102
RTVSPost2010PropOp33
 70
     1
102
RTVSPost2010Prop34
280
     0
102
RTVSPost2010PropOp34
 70
     1
102
RTVSPost2010Prop35
280
     0
102
RTVSPost2010PropOp35
 70
     1
102
RTVSPost2010Prop36
280
     0
102
RTVSPost2010PropOp36
 70
     1
102
RTVSPost2010Prop37
 90
       50
102
RTVSPost2010PropOp37
 70
     1
102
RTVSPost2010Prop38
140
0.0
102
RTVSPost2010PropOp38
 70
     1
102
RTVSPost2010Prop39
140
1.0
102
RTVSPost2010PropOp39
 70
     1
102
RTVSPost2010Prop40
 90
        0
102
RTVSPost2010PropOp40
 70
     1
102
RTVSPost2010Prop41ColorIndex
 90
       18
102
RTVSPost2010Prop41ColorRGB
 90
        0
102
RTVSPost2010PropOp41
 70
     1
102
RTVSPost2010Prop42
 90
       50
102
RTVSPost2010PropOp42
 70
     1
102
RTVSPost2010Prop43
 90
        3
102
RTVSPost2010PropOp43
 70
     1
102
RTVSPost2010Prop44ColorIndex
 90
        5
102
RTVSPost2010Prop44ColorRGB
 90
      255
102
RTVSPost2010PropOp44
 70
     1
102
RTVSPost2010Prop45
280
     0
102
RTVSPost2010PropOp45
 70
     1
102
RTVSPost2010Prop46
 90
       50
102
RTVSPost2010PropOp46
 70
     1
102
RTVSPost2010Prop47
 90
       50
102
RTVSPost2010PropOp47
 70
     1
102
RTVSPost2010Prop48
 90
       50
102
RTVSPost2010PropOp48
 70
     1
102
RTVSPost2010Prop49
280
     0
102
RTVSPost2010PropOp49
 70
     1
102
RTVSPost2010Prop50
 90
       50
102
RTVSPost2010PropOp50
 70
     1
102
RTVSPost2010Prop51ColorIndex
 90
      256
102
RTVSPost2010Prop51ColorRGB
 90
-16777216
102
RTVSPost2010PropOp51
 70
     0
102
RTVSPost2010Prop52
140
1.0
102
RTVSPost2010PropOp52
 70
     0
102
RTVSPost2010Prop53
 90
        2
102
RTVSPost2010PropOp53
 70
     1
102
RTVSPost2010Prop54
  1
strokes_ogs.tif
102
RTVSPost2010PropOp54
 70
     1
102
RTVSPost2010Prop55
280
     0
102
RTVSPost2010PropOp55
 70
     1
102
RTVSPost2010Prop56
140
1.0
102
RTVSPost2010PropOp56
 70
     1
102
RTVSPost2010Prop57
140
1.0
102
RTVSPost2010PropOp57
 70
     1
  0
XRECORD
  5
220D9
102
{ACAD_REACTORS
330
220D8
102
}
330
220D8
100
AcDbXrecord
280
     1
102
RTVSPost2010Prop28
280
     0
102
RTVSPost2010PropOp28
 70
     1
102
RTVSPost2010Prop29
280
     1
102
RTVSPost2010PropOp29
 70
     1
102
RTVSPost2010Prop30
280
     1
102
RTVSPost2010PropOp30
 70
     1
102
RTVSPost2010Prop31
280
     0
102
RTVSPost2010PropOp31
 70
     1
102
RTVSPost2010Prop32
280
     0
102
RTVSPost2010PropOp32
 70
     1
102
RTVSPost2010Prop33
280
     0
102
RTVSPost2010PropOp33
 70
     1
102
RTVSPost2010Prop34
280
     0
102
RTVSPost2010PropOp34
 70
     1
102
RTVSPost2010Prop35
280
     0
102
RTVSPost2010PropOp35
 70
     1
102
RTVSPost2010Prop36
280
     0
102
RTVSPost2010PropOp36
 70
     1
102
RTVSPost2010Prop37
 90
       50
102
RTVSPost2010PropOp37
 70
     1
102
RTVSPost2010Prop38
140
0.0
102
RTVSPost2010PropOp38
 70
     1
102
RTVSPost2010Prop39
140
1.0
102
RTVSPost2010PropOp39
 70
     1
102
RTVSPost2010Prop40
 90
        0
102
RTVSPost2010PropOp40
 70
     1
102
RTVSPost2010Prop41ColorIndex
 90
       18
102
RTVSPost2010Prop41ColorRGB
 90
        0
102
RTVSPost2010PropOp41
 70
     1
102
RTVSPost2010Prop42
 90
       50
102
RTVSPost2010PropOp42
 70
     1
102
RTVSPost2010Prop43
 90
        3
102
RTVSPost2010PropOp43
 70
     1
102
RTVSPost2010Prop44ColorIndex
 90
        5
102
RTVSPost2010Prop44ColorRGB
 90
      255
102
RTVSPost2010PropOp44
 70
     1
102
RTVSPost2010Prop45
280
     0
102
RTVSPost2010PropOp45
 70
     1
102
RTVSPost2010Prop46
 90
       50
102
RTVSPost2010PropOp46
 70
     1
102
RTVSPost2010Prop47
 90
       50
102
RTVSPost2010PropOp47
 70
     1
102
RTVSPost2010Prop48
 90
       50
102
RTVSPost2010PropOp48
 70
     1
102
RTVSPost2010Prop49
280
     0
102
RTVSPost2010PropOp49
 70
     1
102
RTVSPost2010Prop50
 90
       50
102
RTVSPost2010PropOp50
 70
     1
102
RTVSPost2010Prop51ColorIndex
 90
      256
102
RTVSPost2010Prop51ColorRGB
 90
-16777216
102
RTVSPost2010PropOp51
 70
     0
102
RTVSPost2010Prop52
140
1.0
102
RTVSPost2010PropOp52
 70
     0
102
RTVSPost2010Prop53
 90
        2
102
RTVSPost2010PropOp53
 70
     1
102
RTVSPost2010Prop54
  1
strokes_ogs.tif
102
RTVSPost2010PropOp54
 70
     1
102
RTVSPost2010Prop55
280
     0
102
RTVSPost2010PropOp55
 70
     1
102
RTVSPost2010Prop56
140
1.0
102
RTVSPost2010PropOp56
 70
     1
102
RTVSPost2010Prop57
140
1.0
102
RTVSPost2010PropOp57
 70
     1
  0
XRECORD
  5
220DB
102
{ACAD_REACTORS
330
220DA
102
}
330
220DA
100
AcDbXrecord
280
     1
102
RTVSPost2010Prop28
280
     0
102
RTVSPost2010PropOp28
 70
     1
102
RTVSPost2010Prop29
280
     1
102
RTVSPost2010PropOp29
 70
     1
102
RTVSPost2010Prop30
280
     1
102
RTVSPost2010PropOp30
 70
     1
102
RTVSPost2010Prop31
280
     0
102
RTVSPost2010PropOp31
 70
     1
102
RTVSPost2010Prop32
280
     0
102
RTVSPost2010PropOp32
 70
     1
102
RTVSPost2010Prop33
280
     0
102
RTVSPost2010PropOp33
 70
     1
102
RTVSPost2010Prop34
280
     0
102
RTVSPost2010PropOp34
 70
     1
102
RTVSPost2010Prop35
280
     0
102
RTVSPost2010PropOp35
 70
     1
102
RTVSPost2010Prop36
280
     0
102
RTVSPost2010PropOp36
 70
     1
102
RTVSPost2010Prop37
 90
       50
102
RTVSPost2010PropOp37
 70
     1
102
RTVSPost2010Prop38
140
0.0
102
RTVSPost2010PropOp38
 70
     1
102
RTVSPost2010Prop39
140
1.0
102
RTVSPost2010PropOp39
 70
     1
102
RTVSPost2010Prop40
 90
        0
102
RTVSPost2010PropOp40
 70
     1
102
RTVSPost2010Prop41ColorIndex
 90
       18
102
RTVSPost2010Prop41ColorRGB
 90
        0
102
RTVSPost2010PropOp41
 70
     1
102
RTVSPost2010Prop42
 90
       50
102
RTVSPost2010PropOp42
 70
     1
102
RTVSPost2010Prop43
 90
        3
102
RTVSPost2010PropOp43
 70
     1
102
RTVSPost2010Prop44ColorIndex
 90
        5
102
RTVSPost2010Prop44ColorRGB
 90
      255
102
RTVSPost2010PropOp44
 70
     1
102
RTVSPost2010Prop45
280
     0
102
RTVSPost2010PropOp45
 70
     1
102
RTVSPost2010Prop46
 90
       50
102
RTVSPost2010PropOp46
 70
     1
102
RTVSPost2010Prop47
 90
       50
102
RTVSPost2010PropOp47
 70
     1
102
RTVSPost2010Prop48
 90
       50
102
RTVSPost2010PropOp48
 70
     1
102
RTVSPost2010Prop49
280
     0
102
RTVSPost2010PropOp49
 70
     1
102
RTVSPost2010Prop50
 90
       50
102
RTVSPost2010PropOp50
 70
     1
102
RTVSPost2010Prop51ColorIndex
 90
      256
102
RTVSPost2010Prop51ColorRGB
 90
-16777216
102
RTVSPost2010PropOp51
 70
     0
102
RTVSPost2010Prop52
140
1.0
102
RTVSPost2010PropOp52
 70
     0
102
RTVSPost2010Prop53
 90
        2
102
RTVSPost2010PropOp53
 70
     1
102
RTVSPost2010Prop54
  1
strokes_ogs.tif
102
RTVSPost2010PropOp54
 70
     1
102
RTVSPost2010Prop55
280
     0
102
RTVSPost2010PropOp55
 70
     1
102
RTVSPost2010Prop56
140
1.0
102
RTVSPost2010PropOp56
 70
     1
102
RTVSPost2010Prop57
140
1.0
102
RTVSPost2010PropOp57
 70
     1
  0
XRECORD
  5
220F7
102
{ACAD_REACTORS
330
220F6
102
}
330
220F6
100
AcDbXrecord
280
     1
102
RTVSPost2010Prop28
280
     0
102
RTVSPost2010PropOp28
 70
     1
102
RTVSPost2010Prop29
280
     1
102
RTVSPost2010PropOp29
 70
     1
102
RTVSPost2010Prop30
280
     1
102
RTVSPost2010PropOp30
 70
     1
102
RTVSPost2010Prop31
280
     0
102
RTVSPost2010PropOp31
 70
     1
102
RTVSPost2010Prop32
280
     0
102
RTVSPost2010PropOp32
 70
     1
102
RTVSPost2010Prop33
280
     0
102
RTVSPost2010PropOp33
 70
     1
102
RTVSPost2010Prop34
280
     0
102
RTVSPost2010PropOp34
 70
     1
102
RTVSPost2010Prop35
280
     0
102
RTVSPost2010PropOp35
 70
     1
102
RTVSPost2010Prop36
280
     0
102
RTVSPost2010PropOp36
 70
     1
102
RTVSPost2010Prop37
 90
       50
102
RTVSPost2010PropOp37
 70
     1
102
RTVSPost2010Prop38
140
0.0
102
RTVSPost2010PropOp38
 70
     1
102
RTVSPost2010Prop39
140
1.0
102
RTVSPost2010PropOp39
 70
     1
102
RTVSPost2010Prop40
 90
        0
102
RTVSPost2010PropOp40
 70
     1
102
RTVSPost2010Prop41ColorIndex
 90
       18
102
RTVSPost2010Prop41ColorRGB
 90
        0
102
RTVSPost2010PropOp41
 70
     1
102
RTVSPost2010Prop42
 90
       50
102
RTVSPost2010PropOp42
 70
     1
102
RTVSPost2010Prop43
 90
        3
102
RTVSPost2010PropOp43
 70
     1
102
RTVSPost2010Prop44ColorIndex
 90
        5
102
RTVSPost2010Prop44ColorRGB
 90
      255
102
RTVSPost2010PropOp44
 70
     1
102
RTVSPost2010Prop45
280
     0
102
RTVSPost2010PropOp45
 70
     1
102
RTVSPost2010Prop46
 90
       50
102
RTVSPost2010PropOp46
 70
     1
102
RTVSPost2010Prop47
 90
       50
102
RTVSPost2010PropOp47
 70
     1
102
RTVSPost2010Prop48
 90
       50
102
RTVSPost2010PropOp48
 70
     1
102
RTVSPost2010Prop49
280
     0
102
RTVSPost2010PropOp49
 70
     1
102
RTVSPost2010Prop50
 90
       50
102
RTVSPost2010PropOp50
 70
     1
102
RTVSPost2010Prop51ColorIndex
 90
      256
102
RTVSPost2010Prop51ColorRGB
 90
-16777216
102
RTVSPost2010PropOp51
 70
     0
102
RTVSPost2010Prop52
140
1.0
102
RTVSPost2010PropOp52
 70
     0
102
RTVSPost2010Prop53
 90
        2
102
RTVSPost2010PropOp53
 70
     1
102
RTVSPost2010Prop54
  1
strokes_ogs.tif
102
RTVSPost2010PropOp54
 70
     1
102
RTVSPost2010Prop55
280
     0
102
RTVSPost2010PropOp55
 70
     1
102
RTVSPost2010Prop56
140
1.0
102
RTVSPost2010PropOp56
 70
     1
102
RTVSPost2010Prop57
140
1.0
102
RTVSPost2010PropOp57
 70
     1
  0
XRECORD
  5
22103
102
{ACAD_REACTORS
330
22102
102
}
330
22102
100
AcDbXrecord
280
     1
102
RTVSPost2010Prop28
280
     0
102
RTVSPost2010PropOp28
 70
     1
102
RTVSPost2010Prop29
280
     1
102
RTVSPost2010PropOp29
 70
     1
102
RTVSPost2010Prop30
280
     1
102
RTVSPost2010PropOp30
 70
     1
102
RTVSPost2010Prop31
280
     0
102
RTVSPost2010PropOp31
 70
     1
102
RTVSPost2010Prop32
280
     0
102
RTVSPost2010PropOp32
 70
     1
102
RTVSPost2010Prop33
280
     0
102
RTVSPost2010PropOp33
 70
     1
102
RTVSPost2010Prop34
280
     0
102
RTVSPost2010PropOp34
 70
     1
102
RTVSPost2010Prop35
280
     0
102
RTVSPost2010PropOp35
 70
     1
102
RTVSPost2010Prop36
280
     0
102
RTVSPost2010PropOp36
 70
     1
102
RTVSPost2010Prop37
 90
       50
102
RTVSPost2010PropOp37
 70
     0
102
RTVSPost2010Prop38
140
0.0
102
RTVSPost2010PropOp38
 70
     0
102
RTVSPost2010Prop39
140
1.0
102
RTVSPost2010PropOp39
 70
     0
102
RTVSPost2010Prop40
 90
        0
102
RTVSPost2010PropOp40
 70
     0
102
RTVSPost2010Prop41ColorIndex
 90
       18
102
RTVSPost2010Prop41ColorRGB
 90
        0
102
RTVSPost2010PropOp41
 70
     0
102
RTVSPost2010Prop42
 90
       50
102
RTVSPost2010PropOp42
 70
     0
102
RTVSPost2010Prop43
 90
        3
102
RTVSPost2010PropOp43
 70
     0
102
RTVSPost2010Prop44ColorIndex
 90
        5
102
RTVSPost2010Prop44ColorRGB
 90
      255
102
RTVSPost2010PropOp44
 70
     0
102
RTVSPost2010Prop45
280
     0
102
RTVSPost2010PropOp45
 70
     1
102
RTVSPost2010Prop46
 90
       50
102
RTVSPost2010PropOp46
 70
     0
102
RTVSPost2010Prop47
 90
       50
102
RTVSPost2010PropOp47
 70
     0
102
RTVSPost2010Prop48
 90
       50
102
RTVSPost2010PropOp48
 70
     0
102
RTVSPost2010Prop49
280
     0
102
RTVSPost2010PropOp49
 70
     1
102
RTVSPost2010Prop50
 90
       50
102
RTVSPost2010PropOp50
 70
     0
102
RTVSPost2010Prop51ColorIndex
 90
      256
102
RTVSPost2010Prop51ColorRGB
 90
-16777216
102
RTVSPost2010PropOp51
 70
     0
102
RTVSPost2010Prop52
140
1.0
102
RTVSPost2010PropOp52
 70
     0
102
RTVSPost2010Prop53
 90
        2
102
RTVSPost2010PropOp53
 70
     0
102
RTVSPost2010Prop54
  1
strokes_ogs.tif
102
RTVSPost2010PropOp54
 70
     0
102
RTVSPost2010Prop55
280
     0
102
RTVSPost2010PropOp55
 70
     1
102
RTVSPost2010Prop56
140
1.0
102
RTVSPost2010PropOp56
 70
     0
102
RTVSPost2010Prop57
140
1.0
102
RTVSPost2010PropOp57
 70
     0
  0
XRECORD
  5
220EF
102
{ACAD_REACTORS
330
220EE
102
}
330
220EE
100
AcDbXrecord
280
     1
102
RTVSPost2010Prop28
280
     0
102
RTVSPost2010PropOp28
 70
     1
102
RTVSPost2010Prop29
280
     1
102
RTVSPost2010PropOp29
 70
     1
102
RTVSPost2010Prop30
280
     1
102
RTVSPost2010PropOp30
 70
     1
102
RTVSPost2010Prop31
280
     0
102
RTVSPost2010PropOp31
 70
     1
102
RTVSPost2010Prop32
280
     0
102
RTVSPost2010PropOp32
 70
     1
102
RTVSPost2010Prop33
280
     0
102
RTVSPost2010PropOp33
 70
     1
102
RTVSPost2010Prop34
280
     0
102
RTVSPost2010PropOp34
 70
     1
102
RTVSPost2010Prop35
280
     0
102
RTVSPost2010PropOp35
 70
     1
102
RTVSPost2010Prop36
280
     0
102
RTVSPost2010PropOp36
 70
     1
102
RTVSPost2010Prop37
 90
       50
102
RTVSPost2010PropOp37
 70
     1
102
RTVSPost2010Prop38
140
0.0
102
RTVSPost2010PropOp38
 70
     1
102
RTVSPost2010Prop39
140
1.0
102
RTVSPost2010PropOp39
 70
     1
102
RTVSPost2010Prop40
 90
        0
102
RTVSPost2010PropOp40
 70
     1
102
RTVSPost2010Prop41ColorIndex
 90
       18
102
RTVSPost2010Prop41ColorRGB
 90
        0
102
RTVSPost2010PropOp41
 70
     1
102
RTVSPost2010Prop42
 90
       50
102
RTVSPost2010PropOp42
 70
     1
102
RTVSPost2010Prop43
 90
        3
102
RTVSPost2010PropOp43
 70
     1
102
RTVSPost2010Prop44ColorIndex
 90
        5
102
RTVSPost2010Prop44ColorRGB
 90
      255
102
RTVSPost2010PropOp44
 70
     1
102
RTVSPost2010Prop45
280
     0
102
RTVSPost2010PropOp45
 70
     1
102
RTVSPost2010Prop46
 90
       50
102
RTVSPost2010PropOp46
 70
     1
102
RTVSPost2010Prop47
 90
       50
102
RTVSPost2010PropOp47
 70
     1
102
RTVSPost2010Prop48
 90
       50
102
RTVSPost2010PropOp48
 70
     1
102
RTVSPost2010Prop49
280
     0
102
RTVSPost2010PropOp49
 70
     1
102
RTVSPost2010Prop50
 90
       50
102
RTVSPost2010PropOp50
 70
     1
102
RTVSPost2010Prop51ColorIndex
 90
      256
102
RTVSPost2010Prop51ColorRGB
 90
-16777216
102
RTVSPost2010PropOp51
 70
     0
102
RTVSPost2010Prop52
140
1.0
102
RTVSPost2010PropOp52
 70
     0
102
RTVSPost2010Prop53
 90
        2
102
RTVSPost2010PropOp53
 70
     1
102
RTVSPost2010Prop54
  1
strokes_ogs.tif
102
RTVSPost2010PropOp54
 70
     1
102
RTVSPost2010Prop55
280
     0
102
RTVSPost2010PropOp55
 70
     1
102
RTVSPost2010Prop56
140
1.0
102
RTVSPost2010PropOp56
 70
     1
102
RTVSPost2010Prop57
140
1.0
102
RTVSPost2010PropOp57
 70
     1
  0
XRECORD
  5
22105
102
{ACAD_REACTORS
330
22104
102
}
330
22104
100
AcDbXrecord
280
     1
102
RTVSPost2010Prop28
280
     0
102
RTVSPost2010PropOp28
 70
     1
102
RTVSPost2010Prop29
280
     1
102
RTVSPost2010PropOp29
 70
     1
102
RTVSPost2010Prop30
280
     1
102
RTVSPost2010PropOp30
 70
     1
102
RTVSPost2010Prop31
280
     0
102
RTVSPost2010PropOp31
 70
     1
102
RTVSPost2010Prop32
280
     0
102
RTVSPost2010PropOp32
 70
     1
102
RTVSPost2010Prop33
280
     0
102
RTVSPost2010PropOp33
 70
     1
102
RTVSPost2010Prop34
280
     0
102
RTVSPost2010PropOp34
 70
     1
102
RTVSPost2010Prop35
280
     0
102
RTVSPost2010PropOp35
 70
     1
102
RTVSPost2010Prop36
280
     0
102
RTVSPost2010PropOp36
 70
     1
102
RTVSPost2010Prop37
 90
       50
102
RTVSPost2010PropOp37
 70
     0
102
RTVSPost2010Prop38
140
0.0
102
RTVSPost2010PropOp38
 70
     0
102
RTVSPost2010Prop39
140
1.0
102
RTVSPost2010PropOp39
 70
     0
102
RTVSPost2010Prop40
 90
        0
102
RTVSPost2010PropOp40
 70
     0
102
RTVSPost2010Prop41ColorIndex
 90
       18
102
RTVSPost2010Prop41ColorRGB
 90
        0
102
RTVSPost2010PropOp41
 70
     0
102
RTVSPost2010Prop42
 90
       50
102
RTVSPost2010PropOp42
 70
     0
102
RTVSPost2010Prop43
 90
        3
102
RTVSPost2010PropOp43
 70
     0
102
RTVSPost2010Prop44ColorIndex
 90
        5
102
RTVSPost2010Prop44ColorRGB
 90
      255
102
RTVSPost2010PropOp44
 70
     0
102
RTVSPost2010Prop45
280
     0
102
RTVSPost2010PropOp45
 70
     1
102
RTVSPost2010Prop46
 90
       50
102
RTVSPost2010PropOp46
 70
     0
102
RTVSPost2010Prop47
 90
       50
102
RTVSPost2010PropOp47
 70
     0
102
RTVSPost2010Prop48
 90
       50
102
RTVSPost2010PropOp48
 70
     0
102
RTVSPost2010Prop49
280
     0
102
RTVSPost2010PropOp49
 70
     1
102
RTVSPost2010Prop50
 90
       50
102
RTVSPost2010PropOp50
 70
     0
102
RTVSPost2010Prop51ColorIndex
 90
      256
102
RTVSPost2010Prop51ColorRGB
 90
-16777216
102
RTVSPost2010PropOp51
 70
     0
102
RTVSPost2010Prop52
140
1.0
102
RTVSPost2010PropOp52
 70
     0
102
RTVSPost2010Prop53
 90
        2
102
RTVSPost2010PropOp53
 70
     0
102
RTVSPost2010Prop54
  1
strokes_ogs.tif
102
RTVSPost2010PropOp54
 70
     0
102
RTVSPost2010Prop55
280
     0
102
RTVSPost2010PropOp55
 70
     1
102
RTVSPost2010Prop56
140
1.0
102
RTVSPost2010PropOp56
 70
     0
102
RTVSPost2010Prop57
140
1.0
102
RTVSPost2010PropOp57
 70
     0
  0
XRECORD
  5
220E7
102
{ACAD_REACTORS
330
220E6
102
}
330
220E6
100
AcDbXrecord
280
     1
102
RTVSPost2010Prop28
280
     0
102
RTVSPost2010PropOp28
 70
     1
102
RTVSPost2010Prop29
280
     1
102
RTVSPost2010PropOp29
 70
     1
102
RTVSPost2010Prop30
280
     1
102
RTVSPost2010PropOp30
 70
     1
102
RTVSPost2010Prop31
280
     0
102
RTVSPost2010PropOp31
 70
     1
102
RTVSPost2010Prop32
280
     0
102
RTVSPost2010PropOp32
 70
     1
102
RTVSPost2010Prop33
280
     0
102
RTVSPost2010PropOp33
 70
     1
102
RTVSPost2010Prop34
280
     0
102
RTVSPost2010PropOp34
 70
     1
102
RTVSPost2010Prop35
280
     0
102
RTVSPost2010PropOp35
 70
     1
102
RTVSPost2010Prop36
280
     0
102
RTVSPost2010PropOp36
 70
     1
102
RTVSPost2010Prop37
 90
       50
102
RTVSPost2010PropOp37
 70
     1
102
RTVSPost2010Prop38
140
0.0
102
RTVSPost2010PropOp38
 70
     1
102
RTVSPost2010Prop39
140
1.0
102
RTVSPost2010PropOp39
 70
     1
102
RTVSPost2010Prop40
 90
        0
102
RTVSPost2010PropOp40
 70
     1
102
RTVSPost2010Prop41ColorIndex
 90
       18
102
RTVSPost2010Prop41ColorRGB
 90
        0
102
RTVSPost2010PropOp41
 70
     1
102
RTVSPost2010Prop42
 90
       50
102
RTVSPost2010PropOp42
 70
     1
102
RTVSPost2010Prop43
 90
        3
102
RTVSPost2010PropOp43
 70
     1
102
RTVSPost2010Prop44ColorIndex
 90
        5
102
RTVSPost2010Prop44ColorRGB
 90
      255
102
RTVSPost2010PropOp44
 70
     1
102
RTVSPost2010Prop45
280
     0
102
RTVSPost2010PropOp45
 70
     1
102
RTVSPost2010Prop46
 90
       50
102
RTVSPost2010PropOp46
 70
     1
102
RTVSPost2010Prop47
 90
       50
102
RTVSPost2010PropOp47
 70
     1
102
RTVSPost2010Prop48
 90
       50
102
RTVSPost2010PropOp48
 70
     1
102
RTVSPost2010Prop49
280
     0
102
RTVSPost2010PropOp49
 70
     1
102
RTVSPost2010Prop50
 90
       50
102
RTVSPost2010PropOp50
 70
     1
102
RTVSPost2010Prop51ColorIndex
 90
      256
102
RTVSPost2010Prop51ColorRGB
 90
-16777216
102
RTVSPost2010PropOp51
 70
     0
102
RTVSPost2010Prop52
140
1.0
102
RTVSPost2010PropOp52
 70
     0
102
RTVSPost2010Prop53
 90
        2
102
RTVSPost2010PropOp53
 70
     1
102
RTVSPost2010Prop54
  1
strokes_ogs.tif
102
RTVSPost2010PropOp54
 70
     1
102
RTVSPost2010Prop55
280
     0
102
RTVSPost2010PropOp55
 70
     1
102
RTVSPost2010Prop56
140
1.0
102
RTVSPost2010PropOp56
 70
     1
102
RTVSPost2010Prop57
140
1.0
102
RTVSPost2010PropOp57
 70
     1
  0
XRECORD
  5
22101
102
{ACAD_REACTORS
330
22100
102
}
330
22100
100
AcDbXrecord
280
     1
102
RTVSPost2010Prop28
280
     0
102
RTVSPost2010PropOp28
 70
     1
102
RTVSPost2010Prop29
280
     1
102
RTVSPost2010PropOp29
 70
     1
102
RTVSPost2010Prop30
280
     1
102
RTVSPost2010PropOp30
 70
     1
102
RTVSPost2010Prop31
280
     0
102
RTVSPost2010PropOp31
 70
     1
102
RTVSPost2010Prop32
280
     0
102
RTVSPost2010PropOp32
 70
     1
102
RTVSPost2010Prop33
280
     0
102
RTVSPost2010PropOp33
 70
     1
102
RTVSPost2010Prop34
280
     0
102
RTVSPost2010PropOp34
 70
     1
102
RTVSPost2010Prop35
280
     0
102
RTVSPost2010PropOp35
 70
     1
102
RTVSPost2010Prop36
280
     0
102
RTVSPost2010PropOp36
 70
     1
102
RTVSPost2010Prop37
 90
       50
102
RTVSPost2010PropOp37
 70
     1
102
RTVSPost2010Prop38
140
0.0
102
RTVSPost2010PropOp38
 70
     1
102
RTVSPost2010Prop39
140
1.0
102
RTVSPost2010PropOp39
 70
     1
102
RTVSPost2010Prop40
 90
        0
102
RTVSPost2010PropOp40
 70
     1
102
RTVSPost2010Prop41ColorIndex
 90
       18
102
RTVSPost2010Prop41ColorRGB
 90
        0
102
RTVSPost2010PropOp41
 70
     1
102
RTVSPost2010Prop42
 90
       50
102
RTVSPost2010PropOp42
 70
     1
102
RTVSPost2010Prop43
 90
        3
102
RTVSPost2010PropOp43
 70
     1
102
RTVSPost2010Prop44ColorIndex
 90
        5
102
RTVSPost2010Prop44ColorRGB
 90
      255
102
RTVSPost2010PropOp44
 70
     1
102
RTVSPost2010Prop45
280
     0
102
RTVSPost2010PropOp45
 70
     1
102
RTVSPost2010Prop46
 90
       50
102
RTVSPost2010PropOp46
 70
     1
102
RTVSPost2010Prop47
 90
       50
102
RTVSPost2010PropOp47
 70
     1
102
RTVSPost2010Prop48
 90
       50
102
RTVSPost2010PropOp48
 70
     1
102
RTVSPost2010Prop49
280
     0
102
RTVSPost2010PropOp49
 70
     1
102
RTVSPost2010Prop50
 90
       50
102
RTVSPost2010PropOp50
 70
     1
102
RTVSPost2010Prop51ColorIndex
 90
      256
102
RTVSPost2010Prop51ColorRGB
 90
-16777216
102
RTVSPost2010PropOp51
 70
     0
102
RTVSPost2010Prop52
140
1.0
102
RTVSPost2010PropOp52
 70
     0
102
RTVSPost2010Prop53
 90
        2
102
RTVSPost2010PropOp53
 70
     1
102
RTVSPost2010Prop54
  1
strokes_ogs.tif
102
RTVSPost2010PropOp54
 70
     1
102
RTVSPost2010Prop55
280
     0
102
RTVSPost2010PropOp55
 70
     1
102
RTVSPost2010Prop56
140
1.0
102
RTVSPost2010PropOp56
 70
     1
102
RTVSPost2010Prop57
140
1.0
102
RTVSPost2010PropOp57
 70
     1
  0
XRECORD
  5
220FF
102
{ACAD_REACTORS
330
220FE
102
}
330
220FE
100
AcDbXrecord
280
     1
102
RTVSPost2010Prop28
280
     0
102
RTVSPost2010PropOp28
 70
     1
102
RTVSPost2010Prop29
280
     1
102
RTVSPost2010PropOp29
 70
     1
102
RTVSPost2010Prop30
280
     1
102
RTVSPost2010PropOp30
 70
     1
102
RTVSPost2010Prop31
280
     0
102
RTVSPost2010PropOp31
 70
     1
102
RTVSPost2010Prop32
280
     0
102
RTVSPost2010PropOp32
 70
     1
102
RTVSPost2010Prop33
280
     0
102
RTVSPost2010PropOp33
 70
     1
102
RTVSPost2010Prop34
280
     0
102
RTVSPost2010PropOp34
 70
     1
102
RTVSPost2010Prop35
280
     0
102
RTVSPost2010PropOp35
 70
     1
102
RTVSPost2010Prop36
280
     0
102
RTVSPost2010PropOp36
 70
     1
102
RTVSPost2010Prop37
 90
       50
102
RTVSPost2010PropOp37
 70
     1
102
RTVSPost2010Prop38
140
0.0
102
RTVSPost2010PropOp38
 70
     1
102
RTVSPost2010Prop39
140
1.0
102
RTVSPost2010PropOp39
 70
     1
102
RTVSPost2010Prop40
 90
        0
102
RTVSPost2010PropOp40
 70
     1
102
RTVSPost2010Prop41ColorIndex
 90
       18
102
RTVSPost2010Prop41ColorRGB
 90
        0
102
RTVSPost2010PropOp41
 70
     1
102
RTVSPost2010Prop42
 90
       50
102
RTVSPost2010PropOp42
 70
     1
102
RTVSPost2010Prop43
 90
        3
102
RTVSPost2010PropOp43
 70
     1
102
RTVSPost2010Prop44ColorIndex
 90
        5
102
RTVSPost2010Prop44ColorRGB
 90
      255
102
RTVSPost2010PropOp44
 70
     1
102
RTVSPost2010Prop45
280
     0
102
RTVSPost2010PropOp45
 70
     1
102
RTVSPost2010Prop46
 90
       50
102
RTVSPost2010PropOp46
 70
     1
102
RTVSPost2010Prop47
 90
       50
102
RTVSPost2010PropOp47
 70
     1
102
RTVSPost2010Prop48
 90
       50
102
RTVSPost2010PropOp48
 70
     1
102
RTVSPost2010Prop49
280
     0
102
RTVSPost2010PropOp49
 70
     1
102
RTVSPost2010Prop50
 90
       50
102
RTVSPost2010PropOp50
 70
     1
102
RTVSPost2010Prop51ColorIndex
 90
      256
102
RTVSPost2010Prop51ColorRGB
 90
-16777216
102
RTVSPost2010PropOp51
 70
     0
102
RTVSPost2010Prop52
140
1.0
102
RTVSPost2010PropOp52
 70
     0
102
RTVSPost2010Prop53
 90
        2
102
RTVSPost2010PropOp53
 70
     1
102
RTVSPost2010Prop54
  1
strokes_ogs.tif
102
RTVSPost2010PropOp54
 70
     1
102
RTVSPost2010Prop55
280
     0
102
RTVSPost2010PropOp55
 70
     1
102
RTVSPost2010Prop56
140
1.0
102
RTVSPost2010PropOp56
 70
     1
102
RTVSPost2010Prop57
140
1.0
102
RTVSPost2010PropOp57
 70
     1
  0
XRECORD
  5
220F9
102
{ACAD_REACTORS
330
220F8
102
}
330
220F8
100
AcDbXrecord
280
     1
102
RTVSPost2010Prop28
280
     0
102
RTVSPost2010PropOp28
 70
     1
102
RTVSPost2010Prop29
280
     1
102
RTVSPost2010PropOp29
 70
     1
102
RTVSPost2010Prop30
280
     1
102
RTVSPost2010PropOp30
 70
     1
102
RTVSPost2010Prop31
280
     0
102
RTVSPost2010PropOp31
 70
     1
102
RTVSPost2010Prop32
280
     0
102
RTVSPost2010PropOp32
 70
     1
102
RTVSPost2010Prop33
280
     0
102
RTVSPost2010PropOp33
 70
     1
102
RTVSPost2010Prop34
280
     0
102
RTVSPost2010PropOp34
 70
     1
102
RTVSPost2010Prop35
280
     0
102
RTVSPost2010PropOp35
 70
     1
102
RTVSPost2010Prop36
280
     0
102
RTVSPost2010PropOp36
 70
     1
102
RTVSPost2010Prop37
 90
       50
102
RTVSPost2010PropOp37
 70
     1
102
RTVSPost2010Prop38
140
0.0
102
RTVSPost2010PropOp38
 70
     1
102
RTVSPost2010Prop39
140
1.0
102
RTVSPost2010PropOp39
 70
     1
102
RTVSPost2010Prop40
 90
        0
102
RTVSPost2010PropOp40
 70
     1
102
RTVSPost2010Prop41ColorIndex
 90
       18
102
RTVSPost2010Prop41ColorRGB
 90
        0
102
RTVSPost2010PropOp41
 70
     1
102
RTVSPost2010Prop42
 90
       50
102
RTVSPost2010PropOp42
 70
     1
102
RTVSPost2010Prop43
 90
        3
102
RTVSPost2010PropOp43
 70
     1
102
RTVSPost2010Prop44ColorIndex
 90
        5
102
RTVSPost2010Prop44ColorRGB
 90
      255
102
RTVSPost2010PropOp44
 70
     1
102
RTVSPost2010Prop45
280
     0
102
RTVSPost2010PropOp45
 70
     1
102
RTVSPost2010Prop46
 90
       50
102
RTVSPost2010PropOp46
 70
     1
102
RTVSPost2010Prop47
 90
       50
102
RTVSPost2010PropOp47
 70
     1
102
RTVSPost2010Prop48
 90
       50
102
RTVSPost2010PropOp48
 70
     1
102
RTVSPost2010Prop49
280
     0
102
RTVSPost2010PropOp49
 70
     1
102
RTVSPost2010Prop50
 90
       50
102
RTVSPost2010PropOp50
 70
     1
102
RTVSPost2010Prop51ColorIndex
 90
      256
102
RTVSPost2010Prop51ColorRGB
 90
-16777216
102
RTVSPost2010PropOp51
 70
     0
102
RTVSPost2010Prop52
140
1.0
102
RTVSPost2010PropOp52
 70
     0
102
RTVSPost2010Prop53
 90
        2
102
RTVSPost2010PropOp53
 70
     1
102
RTVSPost2010Prop54
  1
strokes_ogs.tif
102
RTVSPost2010PropOp54
 70
     1
102
RTVSPost2010Prop55
280
     0
102
RTVSPost2010PropOp55
 70
     1
102
RTVSPost2010Prop56
140
1.0
102
RTVSPost2010PropOp56
 70
     1
102
RTVSPost2010Prop57
140
1.0
102
RTVSPost2010PropOp57
 70
     1
  0
XRECORD
  5
220FB
102
{ACAD_REACTORS
330
220FA
102
}
330
220FA
100
AcDbXrecord
280
     1
102
RTVSPost2010Prop28
280
     0
102
RTVSPost2010PropOp28
 70
     1
102
RTVSPost2010Prop29
280
     1
102
RTVSPost2010PropOp29
 70
     1
102
RTVSPost2010Prop30
280
     1
102
RTVSPost2010PropOp30
 70
     1
102
RTVSPost2010Prop31
280
     0
102
RTVSPost2010PropOp31
 70
     1
102
RTVSPost2010Prop32
280
     0
102
RTVSPost2010PropOp32
 70
     1
102
RTVSPost2010Prop33
280
     0
102
RTVSPost2010PropOp33
 70
     1
102
RTVSPost2010Prop34
280
     0
102
RTVSPost2010PropOp34
 70
     1
102
RTVSPost2010Prop35
280
     0
102
RTVSPost2010PropOp35
 70
     1
102
RTVSPost2010Prop36
280
     0
102
RTVSPost2010PropOp36
 70
     1
102
RTVSPost2010Prop37
 90
       50
102
RTVSPost2010PropOp37
 70
     1
102
RTVSPost2010Prop38
140
0.0
102
RTVSPost2010PropOp38
 70
     1
102
RTVSPost2010Prop39
140
1.0
102
RTVSPost2010PropOp39
 70
     1
102
RTVSPost2010Prop40
 90
        0
102
RTVSPost2010PropOp40
 70
     1
102
RTVSPost2010Prop41ColorIndex
 90
       18
102
RTVSPost2010Prop41ColorRGB
 90
        0
102
RTVSPost2010PropOp41
 70
     1
102
RTVSPost2010Prop42
 90
       50
102
RTVSPost2010PropOp42
 70
     1
102
RTVSPost2010Prop43
 90
        3
102
RTVSPost2010PropOp43
 70
     1
102
RTVSPost2010Prop44ColorIndex
 90
        5
102
RTVSPost2010Prop44ColorRGB
 90
      255
102
RTVSPost2010PropOp44
 70
     1
102
RTVSPost2010Prop45
280
     0
102
RTVSPost2010PropOp45
 70
     1
102
RTVSPost2010Prop46
 90
       50
102
RTVSPost2010PropOp46
 70
     1
102
RTVSPost2010Prop47
 90
       50
102
RTVSPost2010PropOp47
 70
     1
102
RTVSPost2010Prop48
 90
       50
102
RTVSPost2010PropOp48
 70
     1
102
RTVSPost2010Prop49
280
     0
102
RTVSPost2010PropOp49
 70
     1
102
RTVSPost2010Prop50
 90
       50
102
RTVSPost2010PropOp50
 70
     1
102
RTVSPost2010Prop51ColorIndex
 90
      256
102
RTVSPost2010Prop51ColorRGB
 90
-16777216
102
RTVSPost2010PropOp51
 70
     0
102
RTVSPost2010Prop52
140
1.0
102
RTVSPost2010PropOp52
 70
     0
102
RTVSPost2010Prop53
 90
        2
102
RTVSPost2010PropOp53
 70
     1
102
RTVSPost2010Prop54
  1
strokes_ogs.tif
102
RTVSPost2010PropOp54
 70
     1
102
RTVSPost2010Prop55
280
     0
102
RTVSPost2010PropOp55
 70
     1
102
RTVSPost2010Prop56
140
1.0
102
RTVSPost2010PropOp56
 70
     1
102
RTVSPost2010Prop57
140
1.0
102
RTVSPost2010PropOp57
 70
     1
  0
XRECORD
  5
220ED
102
{ACAD_REACTORS
330
220EC
102
}
330
220EC
100
AcDbXrecord
280
     1
102
RTVSPost2010Prop28
280
     0
102
RTVSPost2010PropOp28
 70
     1
102
RTVSPost2010Prop29
280
     1
102
RTVSPost2010PropOp29
 70
     1
102
RTVSPost2010Prop30
280
     1
102
RTVSPost2010PropOp30
 70
     1
102
RTVSPost2010Prop31
280
     0
102
RTVSPost2010PropOp31
 70
     1
102
RTVSPost2010Prop32
280
     0
102
RTVSPost2010PropOp32
 70
     1
102
RTVSPost2010Prop33
280
     0
102
RTVSPost2010PropOp33
 70
     1
102
RTVSPost2010Prop34
280
     0
102
RTVSPost2010PropOp34
 70
     1
102
RTVSPost2010Prop35
280
     0
102
RTVSPost2010PropOp35
 70
     1
102
RTVSPost2010Prop36
280
     0
102
RTVSPost2010PropOp36
 70
     1
102
RTVSPost2010Prop37
 90
       50
102
RTVSPost2010PropOp37
 70
     1
102
RTVSPost2010Prop38
140
0.0
102
RTVSPost2010PropOp38
 70
     1
102
RTVSPost2010Prop39
140
1.0
102
RTVSPost2010PropOp39
 70
     1
102
RTVSPost2010Prop40
 90
        0
102
RTVSPost2010PropOp40
 70
     1
102
RTVSPost2010Prop41ColorIndex
 90
       18
102
RTVSPost2010Prop41ColorRGB
 90
        0
102
RTVSPost2010PropOp41
 70
     1
102
RTVSPost2010Prop42
 90
       50
102
RTVSPost2010PropOp42
 70
     1
102
RTVSPost2010Prop43
 90
        3
102
RTVSPost2010PropOp43
 70
     1
102
RTVSPost2010Prop44ColorIndex
 90
        5
102
RTVSPost2010Prop44ColorRGB
 90
      255
102
RTVSPost2010PropOp44
 70
     1
102
RTVSPost2010Prop45
280
     0
102
RTVSPost2010PropOp45
 70
     1
102
RTVSPost2010Prop46
 90
       50
102
RTVSPost2010PropOp46
 70
     1
102
RTVSPost2010Prop47
 90
       50
102
RTVSPost2010PropOp47
 70
     1
102
RTVSPost2010Prop48
 90
       50
102
RTVSPost2010PropOp48
 70
     1
102
RTVSPost2010Prop49
280
     0
102
RTVSPost2010PropOp49
 70
     1
102
RTVSPost2010Prop50
 90
       50
102
RTVSPost2010PropOp50
 70
     1
102
RTVSPost2010Prop51ColorIndex
 90
      256
102
RTVSPost2010Prop51ColorRGB
 90
-16777216
102
RTVSPost2010PropOp51
 70
     0
102
RTVSPost2010Prop52
140
1.0
102
RTVSPost2010PropOp52
 70
     0
102
RTVSPost2010Prop53
 90
        2
102
RTVSPost2010PropOp53
 70
     1
102
RTVSPost2010Prop54
  1
strokes_ogs.tif
102
RTVSPost2010PropOp54
 70
     1
102
RTVSPost2010Prop55
280
     0
102
RTVSPost2010PropOp55
 70
     1
102
RTVSPost2010Prop56
140
1.0
102
RTVSPost2010PropOp56
 70
     1
102
RTVSPost2010Prop57
140
1.0
102
RTVSPost2010PropOp57
 70
     1
  0
XRECORD
  5
220F5
102
{ACAD_REACTORS
330
220F4
102
}
330
220F4
100
AcDbXrecord
280
     1
102
RTVSPost2010Prop28
280
     0
102
RTVSPost2010PropOp28
 70
     1
102
RTVSPost2010Prop29
280
     1
102
RTVSPost2010PropOp29
 70
     1
102
RTVSPost2010Prop30
280
     1
102
RTVSPost2010PropOp30
 70
     1
102
RTVSPost2010Prop31
280
     0
102
RTVSPost2010PropOp31
 70
     1
102
RTVSPost2010Prop32
280
     0
102
RTVSPost2010PropOp32
 70
     1
102
RTVSPost2010Prop33
280
     0
102
RTVSPost2010PropOp33
 70
     1
102
RTVSPost2010Prop34
280
     0
102
RTVSPost2010PropOp34
 70
     1
102
RTVSPost2010Prop35
280
     0
102
RTVSPost2010PropOp35
 70
     1
102
RTVSPost2010Prop36
280
     0
102
RTVSPost2010PropOp36
 70
     1
102
RTVSPost2010Prop37
 90
       50
102
RTVSPost2010PropOp37
 70
     1
102
RTVSPost2010Prop38
140
0.0
102
RTVSPost2010PropOp38
 70
     1
102
RTVSPost2010Prop39
140
1.0
102
RTVSPost2010PropOp39
 70
     1
102
RTVSPost2010Prop40
 90
        0
102
RTVSPost2010PropOp40
 70
     1
102
RTVSPost2010Prop41ColorIndex
 90
       18
102
RTVSPost2010Prop41ColorRGB
 90
        0
102
RTVSPost2010PropOp41
 70
     1
102
RTVSPost2010Prop42
 90
       50
102
RTVSPost2010PropOp42
 70
     1
102
RTVSPost2010Prop43
 90
        3
102
RTVSPost2010PropOp43
 70
     1
102
RTVSPost2010Prop44ColorIndex
 90
        5
102
RTVSPost2010Prop44ColorRGB
 90
      255
102
RTVSPost2010PropOp44
 70
     1
102
RTVSPost2010Prop45
280
     0
102
RTVSPost2010PropOp45
 70
     1
102
RTVSPost2010Prop46
 90
       50
102
RTVSPost2010PropOp46
 70
     1
102
RTVSPost2010Prop47
 90
       50
102
RTVSPost2010PropOp47
 70
     1
102
RTVSPost2010Prop48
 90
       50
102
RTVSPost2010PropOp48
 70
     1
102
RTVSPost2010Prop49
280
     0
102
RTVSPost2010PropOp49
 70
     1
102
RTVSPost2010Prop50
 90
       50
102
RTVSPost2010PropOp50
 70
     1
102
RTVSPost2010Prop51ColorIndex
 90
      256
102
RTVSPost2010Prop51ColorRGB
 90
-16777216
102
RTVSPost2010PropOp51
 70
     0
102
RTVSPost2010Prop52
140
1.0
102
RTVSPost2010PropOp52
 70
     0
102
RTVSPost2010Prop53
 90
        2
102
RTVSPost2010PropOp53
 70
     1
102
RTVSPost2010Prop54
  1
strokes_ogs.tif
102
RTVSPost2010PropOp54
 70
     1
102
RTVSPost2010Prop55
280
     0
102
RTVSPost2010PropOp55
 70
     1
102
RTVSPost2010Prop56
140
1.0
102
RTVSPost2010PropOp56
 70
     1
102
RTVSPost2010Prop57
140
1.0
102
RTVSPost2010PropOp57
 70
     1
  0
XRECORD
  5
220FD
102
{ACAD_REACTORS
330
220FC
102
}
330
220FC
100
AcDbXrecord
280
     1
102
RTVSPost2010Prop28
280
     0
102
RTVSPost2010PropOp28
 70
     1
102
RTVSPost2010Prop29
280
     1
102
RTVSPost2010PropOp29
 70
     1
102
RTVSPost2010Prop30
280
     1
102
RTVSPost2010PropOp30
 70
     1
102
RTVSPost2010Prop31
280
     0
102
RTVSPost2010PropOp31
 70
     1
102
RTVSPost2010Prop32
280
     0
102
RTVSPost2010PropOp32
 70
     1
102
RTVSPost2010Prop33
280
     0
102
RTVSPost2010PropOp33
 70
     1
102
RTVSPost2010Prop34
280
     0
102
RTVSPost2010PropOp34
 70
     1
102
RTVSPost2010Prop35
280
     0
102
RTVSPost2010PropOp35
 70
     1
102
RTVSPost2010Prop36
280
     0
102
RTVSPost2010PropOp36
 70
     1
102
RTVSPost2010Prop37
 90
       50
102
RTVSPost2010PropOp37
 70
     1
102
RTVSPost2010Prop38
140
0.0
102
RTVSPost2010PropOp38
 70
     1
102
RTVSPost2010Prop39
140
1.0
102
RTVSPost2010PropOp39
 70
     1
102
RTVSPost2010Prop40
 90
        0
102
RTVSPost2010PropOp40
 70
     1
102
RTVSPost2010Prop41ColorIndex
 90
       18
102
RTVSPost2010Prop41ColorRGB
 90
        0
102
RTVSPost2010PropOp41
 70
     1
102
RTVSPost2010Prop42
 90
       50
102
RTVSPost2010PropOp42
 70
     1
102
RTVSPost2010Prop43
 90
        3
102
RTVSPost2010PropOp43
 70
     1
102
RTVSPost2010Prop44ColorIndex
 90
        5
102
RTVSPost2010Prop44ColorRGB
 90
      255
102
RTVSPost2010PropOp44
 70
     1
102
RTVSPost2010Prop45
280
     0
102
RTVSPost2010PropOp45
 70
     1
102
RTVSPost2010Prop46
 90
       50
102
RTVSPost2010PropOp46
 70
     1
102
RTVSPost2010Prop47
 90
       50
102
RTVSPost2010PropOp47
 70
     1
102
RTVSPost2010Prop48
 90
       50
102
RTVSPost2010PropOp48
 70
     1
102
RTVSPost2010Prop49
280
     0
102
RTVSPost2010PropOp49
 70
     1
102
RTVSPost2010Prop50
 90
       50
102
RTVSPost2010PropOp50
 70
     1
102
RTVSPost2010Prop51ColorIndex
 90
      256
102
RTVSPost2010Prop51ColorRGB
 90
-16777216
102
RTVSPost2010PropOp51
 70
     0
102
RTVSPost2010Prop52
140
1.0
102
RTVSPost2010PropOp52
 70
     0
102
RTVSPost2010Prop53
 90
        2
102
RTVSPost2010PropOp53
 70
     1
102
RTVSPost2010Prop54
  1
strokes_ogs.tif
102
RTVSPost2010PropOp54
 70
     1
102
RTVSPost2010Prop55
280
     0
102
RTVSPost2010PropOp55
 70
     1
102
RTVSPost2010Prop56
140
1.0
102
RTVSPost2010PropOp56
 70
     1
102
RTVSPost2010Prop57
140
1.0
102
RTVSPost2010PropOp57
 70
     1
  0
ENDSEC
  0
EOF
