  0
SECTION
  2
HEADER
  9
$ACADVER
  1
AC1024
  9
$ACADMAINTVER
 70
   182
  9
$DWGCODEPAGE
  3
ANSI_1252
  9
$LASTSAVEDBY
  1
kamerka
  9
$INSBASE
 10
0.0
 20
0.0
 30
0.0
  9
$EXTMIN
 10
-131.2829897474114
 20
-58.90415406233262
 30
-0.0015258207003583
  9
$EXTMAX
 10
87.75036478088475
 20
63.6424594640805
 30
0.0000000349246037
  9
$LIMMIN
 10
0.0
 20
0.0
  9
$LIMMAX
 10
420.0
 20
297.0
  9
$ORTHOMODE
 70
     0
  9
$REGENMODE
 70
     1
  9
$FILLMODE
 70
     1
  9
$QTEXTMODE
 70
     0
  9
$MIRRTEXT
 70
     0
  9
$LTSCALE
 40
23.1
  9
$ATTMODE
 70
     1
  9
$TEXTSIZE
 40
3.5
  9
$TRACEWID
 40
0.05
  9
$TEXTSTYLE
  7
STANDARD
  9
$CLAYER
  8
0
  9
$CELTYPE
  6
BYLAYER
  9
$CECOLOR
 62
   256
  9
$CELTSCALE
 40
1.0
  9
$DISPSILH
 70
     0
  9
$DIMSCALE
 40
1.0
  9
$DIMASZ
 40
4.57
  9
$DIMEXO
 40
0.0625
  9
$DIMDLI
 40
0.38
  9
$DIMRND
 40
0.0
  9
$DIMDLE
 40
0.0
  9
$DIMEXE
 40
0.18
  9
$DIMTP
 40
0.01
  9
$DIMTM
 40
0.01
  9
$DIMTXT
 40
3.5
  9
$DIMCEN
 40
0.09
  9
$DIMTSZ
 40
0.0
  9
$DIMTOL
 70
     0
  9
$DIMLIM
 70
     0
  9
$DIMTIH
 70
     0
  9
$DIMTOH
 70
     0
  9
$DIMSE1
 70
     0
  9
$DIMSE2
 70
     0
  9
$DIMTAD
 70
     1
  9
$DIMZIN
 70
     8
  9
$DIMBLK
  1

  9
$DIMASO
 70
     1
  9
$DIMSHO
 70
     1
  9
$DIMPOST
  1

  9
$DIMAPOST
  1

  9
$DIMALT
 70
     0
  9
$DIMALTD
 70
     2
  9
$DIMALTF
 40
25.4
  9
$DIMLFAC
 40
1.0
  9
$DIMTOFL
 70
     0
  9
$DIMTVP
 40
0.0
  9
$DIMTIX
 70
     0
  9
$DIMSOXD
 70
     0
  9
$DIMSAH
 70
     0
  9
$DIMBLK1
  1

  9
$DIMBLK2
  1

  9
$DIMSTYLE
  2
STANDARD
  9
$DIMCLRD
 70
     0
  9
$DIMCLRE
 70
     0
  9
$DIMCLRT
 70
     0
  9
$DIMTFAC
 40
1.0
  9
$DIMGAP
 40
0.09
  9
$DIMJUST
 70
     0
  9
$DIMSD1
 70
     0
  9
$DIMSD2
 70
     0
  9
$DIMTOLJ
 70
     1
  9
$DIMTZIN
 70
     8
  9
$DIMALTZ
 70
     0
  9
$DIMALTTZ
 70
     0
  9
$DIMUPT
 70
     0
  9
$DIMDEC
 70
     3
  9
$DIMTDEC
 70
     3
  9
$DIMALTU
 70
     2
  9
$DIMALTTD
 70
     2
  9
$DIMTXSTY
  7
STANDARD
  9
$DIMAUNIT
 70
     0
  9
$DIMADEC
 70
     0
  9
$DIMALTRND
 40
0.0
  9
$DIMAZIN
 70
     0
  9
$DIMDSEP
 70
    46
  9
$DIMATFIT
 70
     0
  9
$DIMFRAC
 70
     0
  9
$DIMLDRBLK
  1

  9
$DIMLUNIT
 70
     2
  9
$DIMLWD
 70
    -2
  9
$DIMLWE
 70
    -2
  9
$DIMTMOVE
 70
     0
  9
$DIMFXL
 40
1.0
  9
$DIMFXLON
 70
     0
  9
$DIMJOGANG
 40
0.7853981633974483
  9
$DIMTFILL
 70
     0
  9
$DIMTFILLCLR
 70
     0
  9
$DIMARCSYM
 70
     0
  9
$DIMLTYPE
  6

  9
$DIMLTEX1
  6

  9
$DIMLTEX2
  6

  9
$DIMTXTDIRECTION
 70
     0
  9
$LUNITS
 70
     2
  9
$LUPREC
 70
     4
  9
$SKETCHINC
 40
0.1
  9
$FILLETRAD
 40
0.0
  9
$AUNITS
 70
     0
  9
$AUPREC
 70
     0
  9
$MENU
  1
.
  9
$ELEVATION
 40
0.0
  9
$PELEVATION
 40
0.0
  9
$THICKNESS
 40
0.0
  9
$LIMCHECK
 70
     0
  9
$CHAMFERA
 40
0.0
  9
$CHAMFERB
 40
0.0
  9
$CHAMFERC
 40
0.0
  9
$CHAMFERD
 40
0.0
  9
$SKPOLY
 70
     0
  9
$TDCREATE
 40
2458446.405227107
  9
$TDUCREATE
 40
2458446.321893773
  9
$TDUPDATE
 40
2458977.625859375
  9
$TDUUPDATE
 40
2458977.542526042
  9
$TDINDWG
 40
0.0287433218
  9
$TDUSRTIMER
 40
0.0287422569
  9
$USRTIMER
 70
     1
  9
$ANGBASE
 50
0.0
  9
$ANGDIR
 70
     0
  9
$PDMODE
 70
     3
  9
$PDSIZE
 40
0.3125
  9
$PLINEWID
 40
0.0
  9
$SPLFRAME
 70
     0
  9
$SPLINETYPE
 70
     6
  9
$SPLINESEGS
 70
     8
  9
$HANDSEED
  5
2216C
  9
$SURFTAB1
 70
     6
  9
$SURFTAB2
 70
     6
  9
$SURFTYPE
 70
     6
  9
$SURFU
 70
     6
  9
$SURFV
 70
     6
  9
$UCSBASE
  2

  9
$UCSNAME
  2

  9
$UCSORG
 10
0.0
 20
0.0
 30
0.0
  9
$UCSXDIR
 10
1.0
 20
0.0
 30
0.0
  9
$UCSYDIR
 10
0.0
 20
1.0
 30
0.0
  9
$UCSORTHOREF
  2

  9
$UCSORTHOVIEW
 70
     0
  9
$UCSORGTOP
 10
0.0
 20
0.0
 30
0.0
  9
$UCSORGBOTTOM
 10
0.0
 20
0.0
 30
0.0
  9
$UCSORGLEFT
 10
0.0
 20
0.0
 30
0.0
  9
$UCSORGRIGHT
 10
0.0
 20
0.0
 30
0.0
  9
$UCSORGFRONT
 10
0.0
 20
0.0
 30
0.0
  9
$UCSORGBACK
 10
0.0
 20
0.0
 30
0.0
  9
$PUCSBASE
  2

  9
$PUCSNAME
  2

  9
$PUCSORG
 10
0.0
 20
0.0
 30
0.0
  9
$PUCSXDIR
 10
1.0
 20
0.0
 30
0.0
  9
$PUCSYDIR
 10
0.0
 20
1.0
 30
0.0
  9
$PUCSORTHOREF
  2

  9
$PUCSORTHOVIEW
 70
     0
  9
$PUCSORGTOP
 10
0.0
 20
0.0
 30
0.0
  9
$PUCSORGBOTTOM
 10
0.0
 20
0.0
 30
0.0
  9
$PUCSORGLEFT
 10
0.0
 20
0.0
 30
0.0
  9
$PUCSORGRIGHT
 10
0.0
 20
0.0
 30
0.0
  9
$PUCSORGFRONT
 10
0.0
 20
0.0
 30
0.0
  9
$PUCSORGBACK
 10
0.0
 20
0.0
 30
0.0
  9
$USERI1
 70
     0
  9
$USERI2
 70
     0
  9
$USERI3
 70
     0
  9
$USERI4
 70
     0
  9
$USERI5
 70
     0
  9
$USERR1
 40
0.0
  9
$USERR2
 40
0.0
  9
$USERR3
 40
0.0
  9
$USERR4
 40
0.0
  9
$USERR5
 40
0.0
  9
$WORLDVIEW
 70
     1
  9
$SHADEDGE
 70
     3
  9
$SHADEDIF
 70
    70
  9
$TILEMODE
 70
     1
  9
$MAXACTVP
 70
    64
  9
$PINSBASE
 10
0.0
 20
0.0
 30
0.0
  9
$PLIMCHECK
 70
     0
  9
$PEXTMIN
 10
28.69141678810127
 20
19.6363175392151
 30
0.0
  9
$PEXTMAX
 10
258.2227510929107
 20
176.7268578529358
 30
0.0
  9
$PLIMMIN
 10
-5.027069091796875
 20
-6.805083274841307
  9
$PLIMMAX
 10
291.9412536621094
 20
203.1682443618775
  9
$UNITMODE
 70
     0
  9
$VISRETAIN
 70
     1
  9
$PLINEGEN
 70
     0
  9
$PSLTSCALE
 70
     1
  9
$TREEDEPTH
 70
  3020
  9
$CMLSTYLE
  2
STANDARD
  9
$CMLJUST
 70
     0
  9
$CMLSCALE
 40
1.0
  9
$PROXYGRAPHICS
 70
     1
  9
$MEASUREMENT
 70
     1
  9
$CELWEIGHT
370
    -1
  9
$ENDCAPS
280
     0
  9
$JOINSTYLE
280
     0
  9
$LWDISPLAY
290
     0
  9
$INSUNITS
 70
     0
  9
$HYPERLINKBASE
  1

  9
$STYLESHEET
  1
A1-A2.CTB
  9
$XEDIT
290
     1
  9
$CEPSNTYPE
380
     0
  9
$PSTYLEMODE
290
     1
  9
$FINGERPRINTGUID
  2
{6D3BC7B5-ACA7-406D-8A0D-A7DBBE093430}
  9
$VERSIONGUID
  2
{E61681D7-C6E4-42B7-AC41-154CC92BE904}
  9
$EXTNAMES
290
     1
  9
$PSVPSCALE
 40
0.0
  9
$OLESTARTUP
290
     0
  9
$SORTENTS
280
   127
  9
$INDEXCTL
280
     0
  9
$HIDETEXT
280
     0
  9
$XCLIPFRAME
280
     2
  9
$HALOGAP
280
     0
  9
$OBSCOLOR
 70
   257
  9
$OBSLTYPE
280
     0
  9
$INTERSECTIONDISPLAY
280
     0
  9
$INTERSECTIONCOLOR
 70
   257
  9
$DIMASSOC
280
     1
  9
$PROJECTNAME
  1

  9
$CAMERADISPLAY
290
     0
  9
$LENSLENGTH
 40
50.0
  9
$CAMERAHEIGHT
 40
0.0
  9
$STEPSPERSEC
 40
2.0
  9
$STEPSIZE
 40
6.0
  9
$3DDWFPREC
 40
2.0
  9
$PSOLWIDTH
 40
0.25
  9
$PSOLHEIGHT
 40
4.0
  9
$LOFTANG1
 40
1.570796326794896
  9
$LOFTANG2
 40
1.570796326794896
  9
$LOFTMAG1
 40
0.0
  9
$LOFTMAG2
 40
0.0
  9
$LOFTPARAM
 70
     7
  9
$LOFTNORMALS
280
     1
  9
$LATITUDE
 40
37.795
  9
$LONGITUDE
 40
-122.394
  9
$NORTHDIRECTION
 40
0.0
  9
$TIMEZONE
 70
 -8000
  9
$LIGHTGLYPHDISPLAY
280
     1
  9
$TILEMODELIGHTSYNCH
280
     1
  9
$CMATERIAL
347
318C
  9
$SOLIDHIST
280
     0
  9
$SHOWHIST
280
     1
  9
$DWFFRAME
280
     2
  9
$DGNFRAME
280
     0
  9
$REALWORLDSCALE
290
     1
  9
$INTERFERECOLOR
 62
     1
  9
$INTERFEREOBJVS
345
3199
  9
$INTERFEREVPVS
346
1B2E3
  9
$CSHADOW
280
     0
  9
$SHADOWPLANELOCATION
 40
0.0
  0
ENDSEC
  0
SECTION
  2
CLASSES
  0
CLASS
  1
ACDBDICTIONARYWDFLT
  2
AcDbDictionaryWithDefault
  3
ObjectDBX Classes
 90
        0
 91
        1
280
     0
281
     0
  0
CLASS
  1
MATERIAL
  2
AcDbMaterial
  3
ObjectDBX Classes
 90
     1153
 91
        3
280
     0
281
     0
  0
CLASS
  1
VISUALSTYLE
  2
AcDbVisualStyle
  3
ObjectDBX Classes
 90
     4095
 91
       26
280
     0
281
     0
  0
CLASS
  1
TABLESTYLE
  2
AcDbTableStyle
  3
ObjectDBX Classes
 90
     4095
 91
        1
280
     0
281
     0
  0
CLASS
  1
SORTENTSTABLE
  2
AcDbSortentsTable
  3
ObjectDBX Classes
 90
        0
 91
        2
280
     0
281
     0
  0
CLASS
  1
DICTIONARYVAR
  2
AcDbDictionaryVar
  3
ObjectDBX Classes
 90
        0
 91
       13
280
     0
281
     0
  0
CLASS
  1
EXACXREFPANELOBJECT
  2
ExAcXREFPanelObject
  3
EXAC_ESW
 90
     1025
 91
        0
280
     1
281
     0
  0
CLASS
  1
NPOCOLLECTION
  2
AcDbImpNonPersistentObjectsCollection
  3
ObjectDBX Classes
 90
     1153
 91
        0
280
     1
281
     0
  0
CLASS
  1
SCALE
  2
AcDbScale
  3
ObjectDBX Classes
 90
     1153
 91
       33
280
     0
281
     0
  0
CLASS
  1
MLEADERSTYLE
  2
AcDbMLeaderStyle
  3
ACDB_MLEADERSTYLE_CLASS
 90
     4095
 91
        1
280
     0
281
     0
  0
CLASS
  1
ACDBSECTIONVIEWSTYLE
  2
AcDbSectionViewStyle
  3
ObjectDBX Classes
 90
     1025
 91
        2
280
     0
281
     0
  0
CLASS
  1
ACDBDETAILVIEWSTYLE
  2
AcDbDetailViewStyle
  3
ObjectDBX Classes
 90
     1025
 91
        2
280
     0
281
     0
  0
CLASS
  1
CELLSTYLEMAP
  2
AcDbCellStyleMap
  3
ObjectDBX Classes
 90
     1152
 91
        2
280
     0
281
     0
  0
CLASS
  1
ACAD_EVALUATION_GRAPH
  2
AcDbEvalGraph
  3
ObjectDBX Classes
 90
     1153
 91
        0
280
     0
281
     0
  0
CLASS
  1
ACAECUSTOBJ
  2
AcAeEditorObj
  3
AcAeEditorObj
 90
     1024
 91
        0
280
     0
281
     0
  0
CLASS
  1
ACDB_DYNAMICBLOCKPURGEPREVENTER_VERSION
  2
AcDbDynamicBlockPurgePreventer
  3
ObjectDBX Classes
 90
     1153
 91
        0
280
     0
281
     0
  0
CLASS
  1
FIELD
  2
AcDbField
  3
ObjectDBX Classes
 90
     1152
 91
        0
280
     0
281
     0
  0
CLASS
  1
FIELDLIST
  2
AcDbFieldList
  3
ObjectDBX Classes
 90
     1152
 91
        1
280
     0
281
     0
  0
CLASS
  1
ACDB_ALDIMOBJECTCONTEXTDATA_CLASS
  2
AcDbAlignedDimensionObjectContextData
  3
ObjectDBX Classes
 90
     1153
 91
        0
280
     0
281
     0
  0
ENDSEC
  0
SECTION
  2
TABLES
  0
TABLE
  2
VPORT
  5
8
330
0
100
AcDbSymbolTable
 70
     1
  0
VPORT
  5
1F4
330
8
100
AcDbSymbolTableRecord
100
AcDbViewportTableRecord
  2
*ACTIVE
 70
     0
 10
0.0
 20
0.0
 11
1.0
 21
1.0
 12
-21.76631248326332
 22
2.369152700873939
 13
0.0
 23
0.0
 14
1.0
 24
1.0
 15
0.0
 25
0.0
 16
0.0
 26
0.0
 36
1.0
 17
0.0
 27
0.0
 37
0.0
 40
123.5970130709252
 41
2.698140200286123
 42
50.0
 43
0.0
 44
0.0
 50
0.0
 51
0.0
 71
     0
 72
  2000
 73
     1
 74
     1
 75
     0
 76
     0
 77
     0
 78
     0
281
     0
 65
     1
110
0.0
120
0.0
130
0.0
111
1.0
121
0.0
131
0.0
112
0.0
122
1.0
132
0.0
 79
     0
146
0.0
348
3195
 60
     3
 61
     5
292
     1
282
     1
141
0.0
142
0.0
 63
   250
421
  3355443
1001
ACAD_NAV_VCDISPLAY
1070
     3
  0
ENDTAB
  0
TABLE
  2
LTYPE
  5
5
330
0
100
AcDbSymbolTable
 70
     6
  0
LTYPE
  5
14
330
5
100
AcDbSymbolTableRecord
100
AcDbLinetypeTableRecord
  2
BYBLOCK
 70
     0
  3

 72
    65
 73
     0
 40
0.0
  0
LTYPE
  5
15
330
5
100
AcDbSymbolTableRecord
100
AcDbLinetypeTableRecord
  2
BYLAYER
 70
     0
  3

 72
    65
 73
     0
 40
0.0
  0
LTYPE
  5
16
330
5
100
AcDbSymbolTableRecord
100
AcDbLinetypeTableRecord
  2
CONTINUOUS
 70
     0
  3
Solid line
 72
    65
 73
     0
 40
0.0
  0
LTYPE
  5
9C48
330
5
100
AcDbSymbolTableRecord
100
AcDbLinetypeTableRecord
  2
CENTER
 70
     0
  3
____ _ ____ _ ____ _ ____ _ ____ _ ____ _ ____
 72
    65
 73
     4
 40
0.6
 49
0.375
 74
     0
 49
-0.075
 74
     0
 49
0.075
 74
     0
 49
-0.075
 74
     0
  0
LTYPE
  5
20A82
330
5
100
AcDbSymbolTableRecord
100
AcDbLinetypeTableRecord
  2
HIDDEN
 70
     0
  3
- - - - - - - - - - - - - - - - - - - -
 72
    65
 73
     2
 40
0.2
 49
0.1
 74
     0
 49
-0.1
 74
     0
  0
LTYPE
  5
21CB3
330
5
100
AcDbSymbolTableRecord
100
AcDbLinetypeTableRecord
  2
CENTER2
 70
     0
  3
Center (.5x) ___ _ ___ _ ___ _ ___ _ ___ _ ___
 72
    65
 73
     4
 40
28.57499999999999
 49
19.05
 74
     4
 75
     0
340
0
 46
1.0
 50
0.0
 44
0.0
 45
0.0
 49
-3.174999999999998
 74
     4
 75
     0
340
0
 46
1.0
 50
0.0
 44
0.0
 45
0.0
 49
3.174999999999998
 74
     4
 75
     0
340
0
 46
1.0
 50
0.0
 44
0.0
 45
0.0
 49
-3.174999999999998
 74
     4
 75
     0
340
0
 46
1.0
 50
0.0
 44
0.0
 45
0.0
  0
ENDTAB
  0
TABLE
  2
LAYER
  5
2
102
{ACAD_XDICTIONARY
360
422A
102
}
330
0
100
AcDbSymbolTable
 70
    16
  0
LAYER
  5
10
102
{ACAD_XDICTIONARY
360
1B2F5
102
}
330
2
100
AcDbSymbolTableRecord
100
AcDbLayerTableRecord
  2
0
 70
     0
 62
     7
  6
CONTINUOUS
370
    -3
390
318A
347
318E
  0
LAYER
  5
3F8C
102
{ACAD_XDICTIONARY
360
1B2F7
102
}
330
2
100
AcDbSymbolTableRecord
100
AcDbLayerTableRecord
  2
1
 70
     0
 62
     4
  6
BYBLOCK
370
    50
390
318A
347
318E
  0
LAYER
  5
3FA7
330
2
100
AcDbSymbolTableRecord
100
AcDbLayerTableRecord
  2
Defpoints
 70
     0
 62
     7
  6
CONTINUOUS
290
     0
370
    -3
390
318A
347
318E
  0
LAYER
  5
9C4A
102
{ACAD_XDICTIONARY
360
1B2F9
102
}
330
2
100
AcDbSymbolTableRecord
100
AcDbLayerTableRecord
  2
2
 70
     0
 62
     7
  6
BYBLOCK
370
    25
390
318A
347
318E
  0
LAYER
  5
9C4B
102
{ACAD_XDICTIONARY
360
1B2FB
102
}
330
2
100
AcDbSymbolTableRecord
100
AcDbLayerTableRecord
  2
4
 70
     0
 62
     2
  6
CENTER
370
    25
390
318A
347
318E
  0
LAYER
  5
9C4D
102
{ACAD_XDICTIONARY
360
1B2FD
102
}
330
2
100
AcDbSymbolTableRecord
100
AcDbLayerTableRecord
  2
CUT
 70
     0
 62
     1
  6
BYBLOCK
370
    25
390
318A
347
318E
  0
LAYER
  5
9C4E
102
{ACAD_XDICTIONARY
360
1B2FF
102
}
330
2
100
AcDbSymbolTableRecord
100
AcDbLayerTableRecord
  2
NOCUT
 70
     0
 62
     7
  6
BYBLOCK
370
    25
390
318A
347
318E
  0
LAYER
  5
9C4F
102
{ACAD_XDICTIONARY
360
1B301
102
}
330
2
100
AcDbSymbolTableRecord
100
AcDbLayerTableRecord
  2
SK2
 70
     0
 62
     7
  6
BYBLOCK
370
    25
390
318A
347
318E
  0
LAYER
  5
9C50
102
{ACAD_XDICTIONARY
360
1B303
102
}
330
2
100
AcDbSymbolTableRecord
100
AcDbLayerTableRecord
  2
SK1
 70
     0
 62
     4
  6
BYBLOCK
370
    50
390
318A
347
318E
  0
LAYER
  5
9C51
102
{ACAD_XDICTIONARY
360
1B305
102
}
330
2
100
AcDbSymbolTableRecord
100
AcDbLayerTableRecord
  2
SK4
 70
     0
 62
     2
  6
CENTER
370
    25
390
318A
347
318E
  0
LAYER
  5
13335
102
{ACAD_XDICTIONARY
360
1B307
102
}
330
2
100
AcDbSymbolTableRecord
100
AcDbLayerTableRecord
  2
INFTOTAL
 70
     0
 62
     9
  6
BYBLOCK
370
    18
390
318A
347
318E
1001
AcAecLayerStandard
1000

1000

  0
LAYER
  5
1686E
102
{ACAD_XDICTIONARY
360
1B309
102
}
330
2
100
AcDbSymbolTableRecord
100
AcDbLayerTableRecord
  2
SK6
 70
     0
 62
     5
  6
BYBLOCK
370
    -3
390
318A
347
318E
  0
LAYER
  5
21CB4
330
2
100
AcDbSymbolTableRecord
100
AcDbLayerTableRecord
  2
SK3
 70
     0
 62
     1
  6
HIDDEN
370
    35
390
318A
347
318E
  0
LAYER
  5
21CB5
330
2
100
AcDbSymbolTableRecord
100
AcDbLayerTableRecord
  2
SKVIEW1
 70
     0
 62
     4
  6
CONTINUOUS
370
    50
390
318A
347
318E
1001
AcAecLayerStandard
1000

1000

  0
LAYER
  5
21CB6
330
2
100
AcDbSymbolTableRecord
100
AcDbLayerTableRecord
  2
SKVIEW4
 70
     0
 62
     2
  6
CENTER2
370
    25
390
318A
347
318E
1001
AcAecLayerStandard
1000

1000

  0
ENDTAB
  0
TABLE
  2
STYLE
  5
3
330
0
100
AcDbSymbolTable
 70
     2
  0
STYLE
  5
11
330
3
100
AcDbSymbolTableRecord
100
AcDbTextStyleTableRecord
  2
STANDARD
 70
     0
 40
3.5
 41
0.8
 50
0.0
 71
     0
 42
3.5
  3
monos.ttf
  4

1001
ACAD
1000
Monospac821 BT
1071
       49
  0
ENDTAB
  0
TABLE
  2
VIEW
  5
6
330
0
100
AcDbSymbolTable
 70
     0
  0
ENDTAB
  0
TABLE
  2
UCS
  5
7
330
0
100
AcDbSymbolTable
 70
     0
  0
ENDTAB
  0
TABLE
  2
APPID
  5
9
330
0
100
AcDbSymbolTable
 70
    19
  0
APPID
  5
23B
330
9
100
AcDbSymbolTableRecord
100
AcDbRegAppTableRecord
  2
ACAD
 70
     0
  0
APPID
  5
3395
330
9
100
AcDbSymbolTableRecord
100
AcDbRegAppTableRecord
  2
ACAD_EXEMPT_FROM_CAD_STANDARDS
 70
     0
  0
APPID
  5
4229
330
9
100
AcDbSymbolTableRecord
100
AcDbRegAppTableRecord
  2
AcAecLayerStandard
 70
     0
  0
APPID
  5
9A1B
330
9
100
AcDbSymbolTableRecord
100
AcDbRegAppTableRecord
  2
ACAD_PSEXT
 70
     0
  0
APPID
  5
1B313
330
9
100
AcDbSymbolTableRecord
100
AcDbRegAppTableRecord
  2
ACAD_NAV_VCDISPLAY
 70
     0
  0
APPID
  5
1B355
330
9
100
AcDbSymbolTableRecord
100
AcDbRegAppTableRecord
  2
ACAD_MLEADERVER
 70
     0
  0
APPID
  5
1EC7F
330
9
100
AcDbSymbolTableRecord
100
AcDbRegAppTableRecord
  2
ACAUTHENVIRON
 70
     0
  0
APPID
  5
1EC82
330
9
100
AcDbSymbolTableRecord
100
AcDbRegAppTableRecord
  2
AcDbDynamicBlockTrueName
 70
     0
  0
APPID
  5
1EC83
330
9
100
AcDbSymbolTableRecord
100
AcDbRegAppTableRecord
  2
AcDbDynamicBlockGUID
 70
     0
  0
APPID
  5
20A85
330
9
100
AcDbSymbolTableRecord
100
AcDbRegAppTableRecord
  2
AcCmTransparency
 70
     0
  0
APPID
  5
20AE2
330
9
100
AcDbSymbolTableRecord
100
AcDbRegAppTableRecord
  2
ACAD_DSTYLE_DIMRADIAL_EXTENSION
 70
     0
  0
APPID
  5
20CB0
330
9
100
AcDbSymbolTableRecord
100
AcDbRegAppTableRecord
  2
AcadAnnotative
 70
     0
  0
APPID
  5
21667
330
9
100
AcDbSymbolTableRecord
100
AcDbRegAppTableRecord
  2
AcadAnnoMonitorAlertIconDisabled
 70
     0
  0
APPID
  5
21CB9
330
9
100
AcDbSymbolTableRecord
100
AcDbRegAppTableRecord
  2
ACAD_DSTYLE_DIMJAG
 70
     0
  0
APPID
  5
21CBA
330
9
100
AcDbSymbolTableRecord
100
AcDbRegAppTableRecord
  2
ACAD_DSTYLE_DIMTALN
 70
     0
  0
APPID
  5
21CBB
330
9
100
AcDbSymbolTableRecord
100
AcDbRegAppTableRecord
  2
ACAD_DSTYLE_DIM_LINETYPE
 70
     0
  0
APPID
  5
21CBC
330
9
100
AcDbSymbolTableRecord
100
AcDbRegAppTableRecord
  2
ACAD_DSTYLE_DIM_EXT1_LINETYPE
 70
     0
  0
APPID
  5
21CBD
330
9
100
AcDbSymbolTableRecord
100
AcDbRegAppTableRecord
  2
ACAD_DSTYLE_DIM_EXT2_LINETYPE
 70
     0
  0
APPID
  5
21CBE
330
9
100
AcDbSymbolTableRecord
100
AcDbRegAppTableRecord
  2
ACAD_DSTYLE_DIMARC_LENGTH_SYMBOL
 70
     0
  0
ENDTAB
  0
TABLE
  2
DIMSTYLE
  5
A
330
0
100
AcDbSymbolTable
 70
     3
100
AcDbDimStyleTable
 71
     1
340
243
  0
DIMSTYLE
105
243
102
{ACAD_REACTORS
330
21DED
330
21DEC
330
21DEE
330
21DEB
330
21F00
102
}
330
A
100
AcDbSymbolTableRecord
100
AcDbDimStyleTableRecord
  2
STANDARD
 70
     0
 41
4.57
 47
0.01
 48
0.01
 73
     0
 74
     0
 77
     1
 78
     8
140
3.5
271
     3
272
     3
284
     8
289
     0
340
11
  0
ENDTAB
  0
TABLE
  2
BLOCK_RECORD
  5
1
330
0
100
AcDbSymbolTable
 70
    18
  0
BLOCK_RECORD
  5
1F
102
{ACAD_XDICTIONARY
360
339C
102
}
330
1
100
AcDbSymbolTableRecord
100
AcDbBlockTableRecord
  2
*MODEL_SPACE
340
31A6
 70
     0
280
     1
281
     0
  0
BLOCK_RECORD
  5
1B
330
1
100
AcDbSymbolTableRecord
100
AcDbBlockTableRecord
  2
*PAPER_SPACE
340
31A7
 70
     0
280
     1
281
     0
  0
BLOCK_RECORD
  5
1B3D7
102
{ACAD_XDICTIONARY
360
1DE81
102
}
330
1
100
AcDbSymbolTableRecord
100
AcDbBlockTableRecord
  2
cero_point
340
0
310
28000000200000002000000001002000000000000010000001000000010000000000000000000000302821FF302821FF302821FF302821FF302821FF302821FF302821FF302821FF302821FF302821FF302821FF302821FF302821FF302821FF302821FF302821FF302821FF302821FF302821FF302821FF302821FF302821
310
FF302821FF302821FF302821FF302821FF302821FF302821FF302821FF302821FF302821FF302821FF302821FF302821FF302821FF302821FF302821FF302821FF302821FF302821FF302821FF302821FF302821FF302821FF302821FF302821FF302821FFFFFF00FFFFFF00FFFFFF00FF302821FF302821FF302821FF3028
310
21FF302821FF302821FF302821FF302821FF302821FF302821FF302821FF302821FF302821FF302821FF302821FF302821FF302821FF302821FF302821FF302821FF302821FF302821FF302821FF302821FFFFFF00FFFFFF00FFFFFF00FFFFFF00FFFFFF00FFFFFF00FFFFFF00FF302821FFFFFF00FFFFFF00FFFFFF00FF30
310
2821FF302821FF302821FF302821FF302821FF302821FF302821FF302821FF302821FF302821FF302821FF302821FF302821FF302821FF302821FF302821FF302821FF302821FF302821FFFFFF00FFFFFF00FFFFFF00FFFFFF00FFFFFF00FFFFFF00FFFFFF00FFFFFF00FFFFFF00FF302821FF302821FF302821FF302821FF
310
FFFF00FFFFFF00FF302821FF302821FF302821FF302821FF302821FF302821FF302821FF302821FF302821FF302821FF302821FF302821FF302821FF302821FF302821FF302821FFFFFF00FFFFFF00FFFFFF00FFFFFF00FFFFFF00FFFFFF00FFFFFF00FFFFFF00FFFFFF00FFFFFF00FF302821FF302821FF302821FF302821
310
FF302821FF302821FFFFFF00FFFFFF00FF302821FF302821FF302821FF302821FF302821FF302821FF302821FF302821FF302821FF302821FF302821FF302821FF302821FFFFFF00FFFFFF00FFFFFF00FFFFFF00FFFFFF00FFFFFF00FFFFFF00FFFFFF00FFFFFF00FFFFFF00FFFFFF00FF302821FF302821FF302821FF3028
310
21FF302821FF302821FF302821FF302821FFFFFF00FF302821FF302821FF302821FF302821FF302821FF302821FF302821FF302821FF302821FF302821FF302821FFFFFF00FFFFFF00FFFFFF00FFFFFF00FFFFFF00FFFFFF00FFFFFF00FFFFFF00FFFFFF00FFFFFF00FFFFFF00FFFFFF00FF302821FF302821FF302821FF30
310
2821FF302821FF302821FF302821FF302821FF302821FFFFFF00FF302821FF302821FF302821FF302821FF302821FF302821FF302821FF302821FF302821FFFFFF00FFFFFF00FFFFFF00FFFFFF00FFFFFF00FFFFFF00FFFFFF00FFFFFF00FFFFFF00FFFFFF00FFFFFF00FFFFFF00FFFFFF00FF302821FF302821FF302821FF
310
302821FF302821FF302821FF302821FF302821FF302821FF302821FFFFFF00FF302821FF302821FF302821FF302821FF302821FF302821FF302821FFFFFF00FFFFFF00FFFFFF00FFFFFF00FFFFFF00FFFFFF00FFFFFF00FFFFFF00FFFFFF00FFFFFF00FFFFFF00FFFFFF00FFFFFF00FFFFFF00FF302821FF302821FF302821
310
FF302821FF302821FF302821FF302821FF302821FF302821FF302821FFFFFF00FF302821FF302821FF302821FF302821FF302821FF302821FF302821FFFFFF00FFFFFF00FFFFFF00FFFFFF00FFFFFF00FFFFFF00FFFFFF00FFFFFF00FFFFFF00FFFFFF00FFFFFF00FFFFFF00FFFFFF00FFFFFF00FF302821FF302821FF3028
310
21FF302821FF302821FF302821FF302821FF302821FF302821FF302821FF302821FFFFFF00FF302821FF302821FF302821FF302821FF302821FFFFFF00FFFFFF00FFFFFF00FFFFFF00FFFFFF00FFFFFF00FFFFFF00FFFFFF00FFFFFF00FFFFFF00FFFFFF00FFFFFF00FFFFFF00FFFFFF00FFFFFF00FF302821FF302821FF30
310
2821FF302821FF302821FF302821FF302821FF302821FF302821FF302821FF302821FF302821FFFFFF00FF302821FF302821FF302821FF302821FFFFFF00FFFFFF00FFFFFF00FFFFFF00FFFFFF00FFFFFF00FFFFFF00FFFFFF00FFFFFF00FFFFFF00FFFFFF00FFFFFF00FFFFFF00FFFFFF00FFFFFF00FF302821FF302821FF
310
302821FF302821FF302821FF302821FF302821FF302821FF302821FF302821FF302821FF302821FFFFFF00FF302821FF302821FF302821FF302821FFFFFF00FFFFFF00FFFFFF00FFFFFF00FFFFFF00FFFFFF00FFFFFF00FFFFFF00FFFFFF00FFFFFF00FFFFFF00FFFFFF00FFFFFF00FFFFFF00FFFFFF00FF302821FF302821
310
FF302821FF302821FF302821FF302821FF302821FF302821FF302821FF302821FF302821FF302821FFFFFF00FF302821FF302821FF302821FF302821FFFFFF00FFFFFF00FFFFFF00FFFFFF00FFFFFF00FFFFFF00FFFFFF00FFFFFF00FFFFFF00FFFFFF00FFFFFF00FFFFFF00FFFFFF00FFFFFF00FFFFFF00FF302821FF3028
310
21FF302821FF302821FF302821FF302821FF302821FF302821FF302821FF302821FF302821FF302821FFFFFF00FF302821FF302821FF302821FFFFFF00FFFFFF00FFFFFF00FFFFFF00FFFFFF00FFFFFF00FFFFFF00FFFFFF00FFFFFF00FFFFFF00FFFFFF00FFFFFF00FFFFFF00FFFFFF00FFFFFF00FFFFFF00FF302821FF30
310
2821FF302821FF302821FF302821FF302821FF302821FF302821FF302821FF302821FF302821FF302821FF302821FFFFFF00FF302821FF302821FFFFFF00FFFFFF00FFFFFF00FFFFFF00FFFFFF00FFFFFF00FFFFFF00FFFFFF00FFFFFF00FFFFFF00FFFFFF00FFFFFF00FFFFFF00FFFFFF00FFFFFF00FFFFFF00FFFFFF00FF
310
FFFF00FFFFFF00FFFFFF00FFFFFF00FFFFFF00FFFFFF00FFFFFF00FFFFFF00FFFFFF00FFFFFF00FFFFFF00FFFFFF00FFFFFF00FF302821FF302821FFFFFF00FF302821FF302821FF302821FF302821FF302821FF302821FF302821FF302821FF302821FF302821FF302821FF302821FF302821FF302821FFFFFF00FFFFFF00
310
FFFFFF00FFFFFF00FFFFFF00FFFFFF00FFFFFF00FFFFFF00FFFFFF00FFFFFF00FFFFFF00FFFFFF00FFFFFF00FFFFFF00FFFFFF00FF302821FF302821FFFFFF00FF302821FF302821FF302821FF302821FF302821FF302821FF302821FF302821FF302821FF302821FF302821FF302821FF302821FF302821FFFFFF00FFFFFF
310
00FFFFFF00FFFFFF00FFFFFF00FFFFFF00FFFFFF00FFFFFF00FFFFFF00FFFFFF00FFFFFF00FFFFFF00FFFFFF00FFFFFF00FF302821FF302821FF302821FF302821FFFFFF00FF302821FF302821FF302821FF302821FF302821FF302821FF302821FF302821FF302821FF302821FF302821FF302821FF302821FFFFFF00FFFF
310
FF00FFFFFF00FFFFFF00FFFFFF00FFFFFF00FFFFFF00FFFFFF00FFFFFF00FFFFFF00FFFFFF00FFFFFF00FFFFFF00FFFFFF00FF302821FF302821FF302821FF302821FFFFFF00FF302821FF302821FF302821FF302821FF302821FF302821FF302821FF302821FF302821FF302821FF302821FF302821FF302821FFFFFF00FF
310
FFFF00FFFFFF00FFFFFF00FFFFFF00FFFFFF00FFFFFF00FFFFFF00FFFFFF00FFFFFF00FFFFFF00FFFFFF00FFFFFF00FFFFFF00FF302821FF302821FF302821FF302821FFFFFF00FF302821FF302821FF302821FF302821FF302821FF302821FF302821FF302821FF302821FF302821FF302821FF302821FF302821FFFFFF00
310
FFFFFF00FFFFFF00FFFFFF00FFFFFF00FFFFFF00FFFFFF00FFFFFF00FFFFFF00FFFFFF00FFFFFF00FFFFFF00FFFFFF00FFFFFF00FF302821FF302821FF302821FF302821FF302821FFFFFF00FF302821FF302821FF302821FF302821FF302821FF302821FF302821FF302821FF302821FF302821FF302821FF302821FFFFFF
310
00FFFFFF00FFFFFF00FFFFFF00FFFFFF00FFFFFF00FFFFFF00FFFFFF00FFFFFF00FFFFFF00FFFFFF00FFFFFF00FFFFFF00FFFFFF00FF302821FF302821FF302821FF302821FF302821FFFFFF00FF302821FF302821FF302821FF302821FF302821FF302821FF302821FF302821FF302821FF302821FF302821FF302821FFFF
310
FF00FFFFFF00FFFFFF00FFFFFF00FFFFFF00FFFFFF00FFFFFF00FFFFFF00FFFFFF00FFFFFF00FFFFFF00FFFFFF00FFFFFF00FF302821FF302821FF302821FF302821FF302821FF302821FF302821FFFFFF00FF302821FF302821FF302821FF302821FF302821FF302821FF302821FF302821FF302821FF302821FF302821FF
310
FFFF00FFFFFF00FFFFFF00FFFFFF00FFFFFF00FFFFFF00FFFFFF00FFFFFF00FFFFFF00FFFFFF00FFFFFF00FFFFFF00FFFFFF00FF302821FF302821FF302821FF302821FF302821FF302821FF302821FFFFFF00FF302821FF302821FF302821FF302821FF302821FF302821FF302821FF302821FF302821FF302821FF302821
310
FFFFFF00FFFFFF00FFFFFF00FFFFFF00FFFFFF00FFFFFF00FFFFFF00FFFFFF00FFFFFF00FFFFFF00FFFFFF00FFFFFF00FF302821FF302821FF302821FF302821FF302821FF302821FF302821FF302821FF302821FFFFFF00FF302821FF302821FF302821FF302821FF302821FF302821FF302821FF302821FF302821FF3028
310
21FFFFFF00FFFFFF00FFFFFF00FFFFFF00FFFFFF00FFFFFF00FFFFFF00FFFFFF00FFFFFF00FFFFFF00FFFFFF00FF302821FF302821FF302821FF302821FF302821FF302821FF302821FF302821FF302821FF302821FF302821FFFFFF00FF302821FF302821FF302821FF302821FF302821FF302821FF302821FF302821FF30
310
2821FFFFFF00FFFFFF00FFFFFF00FFFFFF00FFFFFF00FFFFFF00FFFFFF00FFFFFF00FFFFFF00FFFFFF00FF302821FF302821FF302821FF302821FF302821FF302821FF302821FF302821FF302821FF302821FF302821FF302821FF302821FFFFFF00FF302821FF302821FF302821FF302821FF302821FF302821FF302821FF
310
302821FFFFFF00FFFFFF00FFFFFF00FFFFFF00FFFFFF00FFFFFF00FFFFFF00FFFFFF00FFFFFF00FF302821FF302821FF302821FF302821FF302821FF302821FF302821FF302821FF302821FF302821FF302821FF302821FF302821FF302821FF302821FFFFFF00FFFFFF00FF302821FF302821FF302821FF302821FF302821
310
FF302821FFFFFF00FFFFFF00FFFFFF00FFFFFF00FFFFFF00FFFFFF00FFFFFF00FFFFFF00FF302821FF302821FF302821FF302821FF302821FF302821FF302821FF302821FF302821FF302821FF302821FF302821FF302821FF302821FF302821FF302821FF302821FF302821FFFFFF00FFFFFF00FFFFFF00FFFFFF00FFFFFF
310
00FF302821FFFFFF00FFFFFF00FFFFFF00FFFFFF00FFFFFF00FFFFFF00FF302821FF302821FF302821FF302821FF302821FF302821FF302821FF302821FF302821FF302821FF302821FF302821FF302821FF302821FF302821FF302821FF302821FF302821FF302821FF302821FF302821FF302821FF302821FF302821FF30
310
2821FFFFFF00FFFFFF00FFFFFF00FF302821FF302821FF302821FF302821FF302821FF302821FF302821FF302821FF302821FF302821FF302821FF302821FF302821FF302821FF302821FF302821FF302821FF302821FF302821FF302821FF302821FF302821FF302821FF302821FF302821FF302821FF302821FF302821FF
310
302821FF302821FF302821FF302821FF302821FF302821FF302821FF302821FF302821FF302821FF302821FF302821FF302821FF302821FF302821FF302821FF302821FF302821FF
102
{BLKREFS
331
21DE3
102
}
 70
     0
280
     1
281
     1
  0
BLOCK_RECORD
  5
21F01
330
1
100
AcDbSymbolTableRecord
100
AcDbBlockTableRecord
  2
*D12
340
0
 70
     0
280
     1
281
     0
  0
BLOCK_RECORD
  5
21F0D
330
1
100
AcDbSymbolTableRecord
100
AcDbBlockTableRecord
  2
*D13
340
0
 70
     0
280
     1
281
     0
  0
BLOCK_RECORD
  5
21F19
330
1
100
AcDbSymbolTableRecord
100
AcDbBlockTableRecord
  2
*D14
340
0
 70
     0
280
     1
281
     0
  0
BLOCK_RECORD
  5
21F27
330
1
100
AcDbSymbolTableRecord
100
AcDbBlockTableRecord
  2
*D15
340
0
 70
     0
280
     1
281
     0
  0
BLOCK_RECORD
  5
21F33
330
1
100
AcDbSymbolTableRecord
100
AcDbBlockTableRecord
  2
*D16
340
0
 70
     0
280
     1
281
     0
  0
ENDTAB
  0
ENDSEC
  0
SECTION
  2
BLOCKS
  0
BLOCK
  5
20
330
1F
100
AcDbEntity
  8
0
100
AcDbBlockBegin
  2
*MODEL_SPACE
 70
     0
 10
0.0
 20
0.0
 30
0.0
  3
*MODEL_SPACE
  1

  0
ENDBLK
  5
21
330
1F
100
AcDbEntity
  8
0
100
AcDbBlockEnd
  0
BLOCK
  5
1C
330
1B
100
AcDbEntity
 67
     1
  8
0
100
AcDbBlockBegin
  2
*PAPER_SPACE
 70
     0
 10
0.0
 20
0.0
 30
0.0
  3
*PAPER_SPACE
  1

  0
ENDBLK
  5
1D
330
1B
100
AcDbEntity
 67
     1
  8
0
100
AcDbBlockEnd
  0
BLOCK
  5
1B3D8
330
1B3D7
100
AcDbEntity
  8
0
100
AcDbBlockBegin
  2
cero_point
 70
     0
 10
0.0
 20
0.0
 30
0.0
  3
cero_point
  1

  0
HATCH
  5
1B3DA
330
1B3D7
100
AcDbEntity
  8
1
  6
ByBlock
370
    50
100
AcDbHatch
 10
0.0
 20
0.0
 30
0.0
210
0.0
220
0.0
230
1.0
  2
SOLID
 70
     1
 71
     0
 91
        2
 92
        7
 72
     1
 73
     1
 93
        3
 10
-0.0000000000001137
 20
0.0
 42
0.0
 10
-2.950972054112752
 20
0.0
 42
0.4142135623730968
 10
-0.0000000000001137
 20
-2.950972054112583
 42
0.0
 97
        0
 92
        7
 72
     1
 73
     1
 93
        3
 10
-0.0000000000001137
 20
2.950972054112638
 42
0.0
 10
-0.0000000000001137
 20
0.0
 42
0.0
 10
2.950972054112526
 20
0.0
 42
0.4142135623730966
 97
        0
 75
     0
 76
     1
 47
0.1190009775223266
 98
        2
 10
-0.7445530588121301
 20
-0.9212244733764125
 10
1.279464601852737
 20
1.696796923046345
450
        0
451
        0
460
0.0
461
0.0
452
        0
462
0.0
453
        0
470

  0
LWPOLYLINE
  5
1B3DB
330
1B3D7
100
AcDbEntity
  8
1
  6
ByBlock
370
    50
100
AcDbPolyline
 90
        3
 70
     1
 43
0.0
 10
-0.0000000000001137
 20
0.0
 10
2.950972054112526
 20
0.0
 42
0.4142135623730966
 10
-0.0000000000001137
 20
2.950972054112638
  0
LINE
  5
1B3DC
330
1B3D7
100
AcDbEntity
  8
1
  6
ByBlock
370
    50
100
AcDbLine
 10
-0.0000000000001137
 20
-2.950972054112583
 30
0.0
 11
-0.0000000000001137
 21
2.950972054112638
 31
0.0
  0
LWPOLYLINE
  5
1B3DD
330
1B3D7
100
AcDbEntity
  8
1
  6
ByBlock
370
    50
100
AcDbPolyline
 90
        3
 70
     1
 43
0.0
 10
-0.0000000000001137
 20
-2.950972054112583
 10
-0.0000000000001137
 20
0.0
 10
-2.950972054112752
 20
0.0
 42
0.4142135623730966
  0
LINE
  5
1B3DE
330
1B3D7
100
AcDbEntity
  8
1
  6
ByBlock
370
    50
100
AcDbLine
 10
2.950972054112638
 20
0.0
 30
0.0
 11
-2.950972054112638
 21
0.0
 31
0.0
  0
CIRCLE
  5
1B3DF
330
1B3D7
100
AcDbEntity
  8
1
  6
ByBlock
370
    50
100
AcDbCircle
 10
-0.0000000000001137
 20
0.0
 30
0.0
 40
2.950972054112601
  0
ENDBLK
  5
1B3D9
330
1B3D7
100
AcDbEntity
  8
0
100
AcDbBlockEnd
  0
BLOCK
  5
21F02
330
21F01
100
AcDbEntity
  8
0
100
AcDbBlockBegin
  2
*D12
 70
     1
 10
0.0
 20
0.0
 30
0.0
  3
*D12
  1

  0
LINE
  5
220FF
330
21F01
100
AcDbEntity
  8
2
 62
     0
440
 16777216
370
    -2
100
AcDbLine
 10
36.38250000000369
 20
12.45000000000004
 30
0.0
 11
55.2159929108057
 21
12.45000000000004
 31
0.0
  0
LINE
  5
22100
330
21F01
100
AcDbEntity
  8
2
 62
     0
440
 16777216
370
    -2
100
AcDbLine
 10
36.38250000000369
 20
-12.44999999999993
 30
0.0
 11
55.2159929108057
 21
-12.44999999999994
 31
0.0
  0
LINE
  5
22101
330
21F01
100
AcDbEntity
  8
2
 62
     0
440
 16777216
370
    -2
100
AcDbLine
 10
55.0359929108057
 20
7.880000000000039
 30
0.0
 11
55.0359929108057
 21
-7.879999999999936
 31
0.0
  0
SOLID
  5
22102
330
21F01
100
AcDbEntity
  8
2
 62
     0
440
 16777216
100
AcDbTrace
 10
54.27432624413903
 20
7.880000000000039
 30
0.0
 11
55.79765957747238
 21
7.880000000000039
 31
0.0
 12
55.0359929108057
 22
12.45000000000004
 32
0.0
 13
55.0359929108057
 23
12.45000000000004
 33
0.0
  0
SOLID
  5
22103
330
21F01
100
AcDbEntity
  8
2
 62
     0
440
 16777216
100
AcDbTrace
 10
54.27432624413903
 20
-7.879999999999936
 30
0.0
 11
55.79765957747238
 21
-7.879999999999936
 31
0.0
 12
55.0359929108057
 22
-12.44999999999994
 32
0.0
 13
55.0359929108057
 23
-12.44999999999994
 33
0.0
  0
MTEXT
  5
22104
330
21F01
100
AcDbEntity
  8
2
 62
     0
440
 16777216
100
AcDbMText
 10
53.13450310054569
 20
0.0000000000000002
 30
0.0
 40
3.5
 41
0.0
 46
0.0
 71
     5
 72
     1
  1
\A1;24.9
 11
0.0000000000000001
 21
1.0
 31
0.0
 73
     1
 44
1.0
  0
POINT
  5
22105
330
21F01
100
AcDbEntity
  8
Defpoints
 62
     0
440
 16777216
100
AcDbPoint
 10
36.32000000000369
 20
12.45000000000004
 30
0.0
  0
POINT
  5
22106
330
21F01
100
AcDbEntity
  8
Defpoints
 62
     0
440
 16777216
100
AcDbPoint
 10
36.32000000000369
 20
-12.44999999999993
 30
0.0
  0
POINT
  5
22107
330
21F01
100
AcDbEntity
  8
Defpoints
 62
     0
440
 16777216
100
AcDbPoint
 10
55.0359929108057
 20
-12.44999999999994
 30
0.0
  0
ENDBLK
  5
21F03
330
21F01
100
AcDbEntity
  8
0
100
AcDbBlockEnd
  0
BLOCK
  5
21F0E
330
21F0D
100
AcDbEntity
  8
0
100
AcDbBlockBegin
  2
*D13
 70
     1
 10
0.0
 20
0.0
 30
0.0
  3
*D13
  1

  0
LINE
  5
22108
330
21F0D
100
AcDbEntity
  8
2
 62
     0
440
 16777216
370
    -2
100
AcDbLine
 10
40.96000104065725
 20
0.0624999999913364
 30
0.0
 11
40.96075989804084
 21
45.63831285603228
 31
0.0
  0
LINE
  5
22109
330
21F0D
100
AcDbEntity
  8
2
 62
     0
440
 16777216
370
    -2
100
AcDbLine
 10
0.0000010406563149
 20
22.16811999999138
 30
0.0
 11
0.0003918410737731
 21
45.6389948642245
 31
0.0
  0
LINE
  5
2210A
330
21F0D
100
AcDbEntity
  8
2
 62
     0
440
 16777216
370
    -2
100
AcDbLine
 10
36.39075690159496
 20
45.45838894857265
 30
0.0
 11
4.570388843360905
 21
45.45891877173402
 31
0.0
  0
SOLID
  5
2210B
330
21F0D
100
AcDbEntity
  8
2
 62
     0
440
 16777216
100
AcDbTrace
 10
36.39076958368086
 20
46.22005561513375
 30
0.0
 11
36.39074421950905
 21
44.69672228201157
 31
0.0
 12
40.96075690096146
 22
45.45831285605723
 32
0.0
 13
40.96075690096146
 23
45.45831285605723
 33
0.0
  0
SOLID
  5
2210C
330
21F0D
100
AcDbEntity
  8
2
 62
     0
440
 16777216
100
AcDbTrace
 10
4.570401525446808
 20
46.22058543829512
 30
0.0
 11
4.570376161275001
 21
44.69725210517294
 31
0.0
 12
0.0003888439943911
 22
45.45899486424945
 32
0.0
 13
0.0003888439943911
 23
45.45899486424945
 33
0.0
  0
MTEXT
  5
2210D
330
21F0D
100
AcDbEntity
  8
2
 62
     0
440
 16777216
100
AcDbMText
 10
20.48017609141795
 20
47.36014367728351
 30
0.0
 40
3.5
 41
0.0
 46
0.0
 71
     5
 72
     1
  1
\A1;40.96
 11
0.9999999998613814
 21
-0.000016650441011
 31
0.0
 73
     1
 44
1.0
  0
POINT
  5
2210E
330
21F0D
100
AcDbEntity
  8
Defpoints
 62
     0
440
 16777216
100
AcDbPoint
 10
40.96000000000469
 20
0.0
 30
0.0
  0
POINT
  5
2210F
330
21F0D
100
AcDbEntity
  8
Defpoints
 62
     0
440
 16777216
100
AcDbPoint
 10
0.0000000000037517
 20
22.10562000000005
 30
0.0
  0
POINT
  5
22110
330
21F0D
100
AcDbEntity
  8
Defpoints
 62
     0
440
 16777216
100
AcDbPoint
 10
0.0003888439943911
 20
45.45899486424945
 30
0.0
  0
ENDBLK
  5
21F0F
330
21F0D
100
AcDbEntity
  8
0
100
AcDbBlockEnd
  0
BLOCK
  5
21F1A
330
21F19
100
AcDbEntity
  8
0
100
AcDbBlockBegin
  2
*D14
 70
     1
 10
0.0
 20
0.0
 30
0.0
  3
*D14
  1

  0
LINE
  5
22111
330
21F19
100
AcDbEntity
  8
2
 62
     0
440
 16777216
370
    -2
100
AcDbLine
 10
40.96000104065725
 20
0.0624999999913364
 30
0.0
 11
40.96056841796921
 21
34.13831285762621
 31
0.0
  0
LINE
  5
22112
330
21F19
100
AcDbEntity
  8
2
 62
     0
440
 16777216
370
    -2
100
AcDbLine
 10
35.5200010406563
 20
21.76249999999138
 30
0.0
 11
35.52020710490654
 21
34.13840344204134
 31
0.0
  0
LINE
  5
22113
330
21F19
100
AcDbEntity
  8
2
 62
     0
440
 16777216
370
    -2
100
AcDbLine
 10
45.53056542025635
 20
33.95823676513574
 30
0.0
 11
50.10056541962288
 21
33.95816067262032
 31
0.0
  0
LINE
  5
22114
330
21F19
100
AcDbEntity
  8
2
 62
     0
440
 16777216
370
    -2
100
AcDbLine
 10
30.95020410846065
 20
33.95847953458172
 30
0.0
 11
16.94033060372662
 21
33.95871280515411
 31
0.0
  0
LINE
  5
22115
330
21F19
100
AcDbEntity
  8
2
 62
     0
440
 16777216
370
    -2
100
AcDbLine
 10
40.96056542088984
 20
33.95831285765117
 30
0.0
 11
35.52020410782716
 21
33.9584034420663
 31
0.0
  0
SOLID
  5
22116
330
21F19
100
AcDbEntity
  8
2
 62
     0
440
 16777216
100
AcDbTrace
 10
45.53057810234226
 20
34.71990343169684
 30
0.0
 11
45.53055273817046
 21
33.19657009857465
 31
0.0
 12
40.96056542088984
 22
33.95831285765117
 32
0.0
 13
40.96056542088984
 23
33.95831285765117
 33
0.0
  0
SOLID
  5
22117
330
21F19
100
AcDbEntity
  8
2
 62
     0
440
 16777216
100
AcDbTrace
 10
30.95021679054656
 20
34.72014620114281
 30
0.0
 11
30.95019142637475
 21
33.19681286802063
 31
0.0
 12
35.52020410782716
 22
33.9584034420663
 32
0.0
 13
35.52020410782716
 23
33.9584034420663
 33
0.0
  0
MTEXT
  5
22118
330
21F19
100
AcDbEntity
  8
2
 62
     0
440
 16777216
100
AcDbMText
 10
21.66029883276445
 20
35.84905586027679
 30
0.0
 40
3.5
 41
0.0
 46
0.0
 71
     5
 72
     1
  1
\A1;5.44
 11
0.9999999998613814
 21
-0.000016650441011
 31
0.0
 73
     1
 44
1.0
  0
POINT
  5
22119
330
21F19
100
AcDbEntity
  8
Defpoints
 62
     0
440
 16777216
100
AcDbPoint
 10
40.96000000000469
 20
0.0
 30
0.0
  0
POINT
  5
2211A
330
21F19
100
AcDbEntity
  8
Defpoints
 62
     0
440
 16777216
100
AcDbPoint
 10
35.52000000000373
 20
21.70000000000005
 30
0.0
  0
POINT
  5
2211B
330
21F19
100
AcDbEntity
  8
Defpoints
 62
     0
440
 16777216
100
AcDbPoint
 10
35.52020410782716
 20
33.9584034420663
 30
0.0
  0
ENDBLK
  5
21F1B
330
21F19
100
AcDbEntity
  8
0
100
AcDbBlockEnd
  0
BLOCK
  5
21F28
330
21F27
100
AcDbEntity
  8
0
100
AcDbBlockBegin
  2
*D15
 70
     1
 10
0.0
 20
0.0
 30
0.0
  3
*D15
  1

  0
LINE
  5
2211C
330
21F27
100
AcDbEntity
  8
2
 62
     0
440
 16777216
370
    -2
100
AcDbLine
 10
34.78250000000378
 20
-22.49999999999977
 30
0.0
 11
69.21599291080571
 21
-22.49999999999978
 31
0.0
  0
LINE
  5
2211D
330
21F27
100
AcDbEntity
  8
2
 62
     0
440
 16777216
370
    -2
100
AcDbLine
 10
34.78250000000378
 20
22.50000000000023
 30
0.0
 11
69.21599291080571
 21
22.50000000000022
 31
0.0
  0
LINE
  5
2211E
330
21F27
100
AcDbEntity
  8
2
 62
     0
440
 16777216
370
    -2
100
AcDbLine
 10
69.03599291080571
 20
-17.92999999999978
 30
0.0
 11
69.03599291080571
 21
17.93000000000021
 31
0.0
  0
SOLID
  5
2211F
330
21F27
100
AcDbEntity
  8
2
 62
     0
440
 16777216
100
AcDbTrace
 10
68.27432624413903
 20
-17.92999999999978
 30
0.0
 11
69.79765957747237
 21
-17.92999999999978
 31
0.0
 12
69.03599291080571
 22
-22.49999999999978
 32
0.0
 13
69.03599291080571
 23
-22.49999999999978
 33
0.0
  0
SOLID
  5
22120
330
21F27
100
AcDbEntity
  8
2
 62
     0
440
 16777216
100
AcDbTrace
 10
68.27432624413903
 20
17.93000000000021
 30
0.0
 11
69.79765957747237
 21
17.93000000000021
 31
0.0
 12
69.03599291080571
 22
22.50000000000022
 32
0.0
 13
69.03599291080571
 23
22.50000000000022
 33
0.0
  0
MTEXT
  5
22121
330
21F27
100
AcDbEntity
  8
2
 62
     0
440
 16777216
100
AcDbMText
 10
67.08285165992727
 20
0.0000000000000002
 30
0.0
 40
3.5
 41
0.0
 46
0.0
 71
     5
 72
     1
  1
\A1;%%c45
 11
0.0000000000000001
 21
1.0
 31
0.0
 73
     1
 44
1.0
  0
POINT
  5
22122
330
21F27
100
AcDbEntity
  8
Defpoints
 62
     0
440
 16777216
100
AcDbPoint
 10
34.72000000000378
 20
-22.49999999999977
 30
0.0
  0
POINT
  5
22123
330
21F27
100
AcDbEntity
  8
Defpoints
 62
     0
440
 16777216
100
AcDbPoint
 10
34.72000000000378
 20
22.50000000000023
 30
0.0
  0
POINT
  5
22124
330
21F27
100
AcDbEntity
  8
Defpoints
 62
     0
440
 16777216
100
AcDbPoint
 10
69.03599291080571
 20
22.50000000000022
 30
0.0
  0
ENDBLK
  5
21F29
330
21F27
100
AcDbEntity
  8
0
100
AcDbBlockEnd
  0
BLOCK
  5
21F34
330
21F33
100
AcDbEntity
  8
0
100
AcDbBlockBegin
  2
*D16
 70
     1
 10
0.0
 20
0.0
 30
0.0
  3
*D16
  1

  0
LINE
  5
22125
330
21F33
100
AcDbEntity
  8
SK2
 62
     0
440
 16777216
370
    -2
100
AcDbLine
 10
-17.96249999999634
 20
8.800000000000068
 30
0.0
 11
-34.69722024185722
 21
8.800000000000073
 31
0.0
  0
LINE
  5
22126
330
21F33
100
AcDbEntity
  8
SK2
 62
     0
440
 16777216
370
    -2
100
AcDbLine
 10
-17.96249999999634
 20
-8.799999999999954
 30
0.0
 11
-34.69722024185722
 21
-8.799999999999949
 31
0.0
  0
LINE
  5
22127
330
21F33
100
AcDbEntity
  8
SK2
 62
     0
440
 16777216
370
    -2
100
AcDbLine
 10
-34.51722024185722
 20
4.230000000000074
 30
0.0
 11
-34.51722024185722
 21
-4.229999999999948
 31
0.0
  0
SOLID
  5
22128
330
21F33
100
AcDbEntity
  8
SK2
 62
     0
440
 16777216
100
AcDbTrace
 10
-35.27888690852389
 20
4.230000000000074
 30
0.0
 11
-33.75555357519055
 21
4.230000000000073
 31
0.0
 12
-34.51722024185722
 22
8.800000000000073
 32
0.0
 13
-34.51722024185722
 23
8.800000000000073
 33
0.0
  0
SOLID
  5
22129
330
21F33
100
AcDbEntity
  8
SK2
 62
     0
440
 16777216
100
AcDbTrace
 10
-35.27888690852389
 20
-4.229999999999948
 30
0.0
 11
-33.75555357519055
 21
-4.229999999999948
 31
0.0
 12
-34.51722024185722
 22
-8.799999999999949
 32
0.0
 13
-34.51722024185722
 23
-8.799999999999949
 33
0.0
  0
MTEXT
  5
2212A
330
21F33
100
AcDbEntity
  8
SK2
 62
     0
440
 16777216
100
AcDbMText
 10
-36.47036149273564
 20
-0.1469385065121285
 30
0.0
 40
3.5
 41
0.0
 46
0.0
 71
     5
 72
     1
  1
\A1;%%C17.6
 11
0.0000000000000001
 21
1.0
 31
0.0
 73
     1
 44
1.0
  0
POINT
  5
2212B
330
21F33
100
AcDbEntity
  8
Defpoints
 62
     0
440
 16777216
100
AcDbPoint
 10
-17.89999999999634
 20
8.800000000000068
 30
0.0
  0
POINT
  5
2212C
330
21F33
100
AcDbEntity
  8
Defpoints
 62
     0
440
 16777216
100
AcDbPoint
 10
-17.89999999999634
 20
-8.799999999999954
 30
0.0
  0
POINT
  5
2212D
330
21F33
100
AcDbEntity
  8
Defpoints
 62
     0
440
 16777216
100
AcDbPoint
 10
-34.51722024185722
 20
-8.799999999999949
 30
0.0
  0
ENDBLK
  5
21F35
330
21F33
100
AcDbEntity
  8
0
100
AcDbBlockEnd
  0
ENDSEC
  0
SECTION
  2
ENTITIES
  0
MTEXT
  5
211A0
330
1F
100
AcDbEntity
  8
SK6
100
AcDbMText
 10
6.634110507932916
 20
-38.34760963430623
 30
0.0
 40
3.5
 41
41.87058589293636
 46
0.0
 71
     2
 72
     1
  1
CD4500041YQR00
 73
     1
 44
1.0
1001
ACAD
1000
MTEXTBEGIN
1070
    73
1070
     1
1070
    44
1040
1.0
1070
    74
1070
     0
1000
MTEXTEND
  0
INSERT
  5
21DE3
330
1F
100
AcDbEntity
  8
1
100
AcDbBlockReference
  2
cero_point
 10
0.0000000000001137
 20
0.0
 30
0.0
  0
LINE
  5
21DE7
330
1F
100
AcDbEntity
  8
INFTOTAL
100
AcDbLine
 10
-131.2642675271598
 20
20.04042044436983
 30
0.0
 11
-131.2642675271598
 21
63.63214284060859
 31
0.0
  0
LINE
  5
21DE8
330
1F
100
AcDbEntity
  8
INFTOTAL
100
AcDbLine
 10
-131.2642675271598
 20
63.63214284060859
 30
0.0
 11
-74.86048115840083
 21
63.63214284060859
 31
0.0
  0
LINE
  5
21DE9
330
1F
100
AcDbEntity
  8
INFTOTAL
100
AcDbLine
 10
32.39030401850243
 20
-58.88023682187167
 30
0.0
 11
87.74908526958654
 21
-58.88023682187167
 31
0.0
  0
LINE
  5
21DEA
330
1F
100
AcDbEntity
  8
INFTOTAL
100
AcDbLine
 10
87.74908526958654
 20
-58.88023682187167
 30
0.0
 11
87.74908526958654
 21
-18.43212062527711
 31
0.0
  0
DIMENSION
  5
21DEB
330
1F
100
AcDbEntity
  8
2
100
AcDbDimension
280
     0
  2
*D12
 10
55.0359929108057
 20
-12.44999999999994
 30
0.0
 11
55.0359929108057
 21
0.0
 31
0.0
 70
   161
 71
     5
 42
24.89999999999998
 73
     0
 74
     0
 75
     0
  3
STANDARD
100
AcDbAlignedDimension
 13
36.32000000000369
 23
12.45000000000004
 33
0.0
 14
36.32000000000369
 24
-12.44999999999993
 34
0.0
1001
ACAD_DSTYLE_DIMARC_LENGTH_SYMBOL
1070
   379
1070
     1
1001
ACAD_DSTYLE_DIM_LINETYPE
1070
   380
1005
14
1001
ACAD_DSTYLE_DIM_EXT1_LINETYPE
1070
   381
1005
14
1001
ACAD_DSTYLE_DIM_EXT2_LINETYPE
1070
   382
1005
14
1001
ACAD
1000
DSTYLE
1002
{
1070
   172
1070
     1
1002
}
  0
DIMENSION
  5
21DEC
330
1F
100
AcDbEntity
  8
2
100
AcDbDimension
280
     0
  2
*D13
 10
0.0003888439943911
 20
45.45899486424945
 30
0.0
 11
20.48014443077403
 21
45.45865386728708
 31
0.0
 70
   160
 71
     5
 42
40.96036806264494
 73
     0
 74
     0
 75
     0
  3
STANDARD
100
AcDbAlignedDimension
 13
40.96000000000469
 23
0.0
 33
0.0
 14
0.0000000000037517
 24
22.10562000000004
 34
0.0
 50
179.999046000003
100
AcDbRotatedDimension
1001
ACAD_DSTYLE_DIMARC_LENGTH_SYMBOL
1070
   379
1070
     1
1001
ACAD_DSTYLE_DIM_LINETYPE
1070
   380
1005
14
1001
ACAD_DSTYLE_DIM_EXT1_LINETYPE
1070
   381
1005
14
1001
ACAD_DSTYLE_DIM_EXT2_LINETYPE
1070
   382
1005
14
1001
ACAD
1000
DSTYLE
1002
{
1070
   172
1070
     1
1002
}
  0
DIMENSION
  5
21DED
330
1F
100
AcDbEntity
  8
2
100
AcDbDimension
280
     0
  2
*D14
 10
35.52020410782716
 20
33.9584034420663
 30
0.0
 11
21.66026735641037
 21
33.95863421612562
 31
0.0
 70
   160
 71
     5
 42
5.440361313816815
 73
     0
 74
     0
 75
     0
  3
STANDARD
100
AcDbAlignedDimension
 13
40.96000000000469
 23
0.0
 33
0.0
 14
35.52000000000373
 24
21.70000000000005
 34
0.0
 50
179.999046000003
100
AcDbRotatedDimension
1001
ACAD_DSTYLE_DIMARC_LENGTH_SYMBOL
1070
   379
1070
     1
1001
ACAD_DSTYLE_DIM_LINETYPE
1070
   380
1005
14
1001
ACAD_DSTYLE_DIM_EXT1_LINETYPE
1070
   381
1005
14
1001
ACAD_DSTYLE_DIM_EXT2_LINETYPE
1070
   382
1005
14
1001
ACAD
1000
DSTYLE
1002
{
1070
   172
1070
     1
1002
}
  0
DIMENSION
  5
21DEE
330
1F
100
AcDbEntity
  8
2
100
AcDbDimension
280
     0
  2
*D15
 10
69.03599291080571
 20
22.50000000000022
 30
0.0
 11
69.03599291080571
 21
0.0
 31
0.0
 70
   161
  1
%%c<>
 71
     5
 42
45.0
 73
     0
 74
     0
 75
     0
  3
STANDARD
100
AcDbAlignedDimension
 13
34.72000000000378
 23
-22.49999999999977
 33
0.0
 14
34.72000000000378
 24
22.50000000000023
 34
0.0
1001
ACAD_DSTYLE_DIMARC_LENGTH_SYMBOL
1070
   379
1070
     1
1001
ACAD_DSTYLE_DIM_LINETYPE
1070
   380
1005
14
1001
ACAD_DSTYLE_DIM_EXT1_LINETYPE
1070
   381
1005
14
1001
ACAD_DSTYLE_DIM_EXT2_LINETYPE
1070
   382
1005
14
1001
ACAD
1000
DSTYLE
1002
{
1070
   172
1070
     1
1002
}
  0
LINE
  5
21DEF
330
1F
100
AcDbEntity
  8
SK4
100
AcDbLine
 10
-23.14205599999639
 20
0.0
 30
0.0
 11
0.0000000000037517
 21
0.0
 31
0.0
  0
LINE
  5
21DF0
330
1F
100
AcDbEntity
  8
SK3
100
AcDbLine
 10
0.0000000000037517
 20
11.00000000000022
 30
0.0
 11
34.52000000000487
 21
11.00000000000022
 31
0.0
  0
LINE
  5
21DF1
330
1F
100
AcDbEntity
  8
SK3
100
AcDbLine
 10
0.0000000000037517
 20
6.60000000000025
 30
0.0
 11
34.52000000000487
 21
6.60000000000025
 31
0.0
  0
LINE
  5
21DF2
330
1F
100
AcDbEntity
  8
SK3
100
AcDbLine
 10
0.0000000000037517
 20
-6.599999999999909
 30
0.0
 11
34.52000000000487
 21
-6.599999999999909
 31
0.0
  0
LINE
  5
21DF3
330
1F
100
AcDbEntity
  8
SK3
100
AcDbLine
 10
0.0000000000037517
 20
-10.99999999999977
 30
0.0
 11
34.52000000000487
 21
-10.99999999999977
 31
0.0
  0
LINE
  5
21DF7
330
1F
100
AcDbEntity
  8
1
100
AcDbLine
 10
35.52000000000373
 20
12.45000000000004
 30
0.0
 11
32.5380000000049
 21
12.45000000000004
 31
0.0
  0
LINE
  5
21DF9
330
1F
100
AcDbEntity
  8
1
100
AcDbLine
 10
18.54500000000382
 20
4.872325000000046
 30
0.0
 11
18.54500000000382
 21
6.105359000000248
 31
0.0
  0
ARC
  5
21DFA
330
1F
100
AcDbEntity
  8
1
100
AcDbCircle
 10
14.56059800000469
 20
-710.7077299999994
 30
0.0
 40
732.957748
100
AcDbArc
 50
90.0018250000016
 51
91.13828599999932
  0
LINE
  5
21DFB
330
1F
100
AcDbEntity
  8
1
100
AcDbLine
 10
23.90000000000362
 20
22.25000000000012
 30
0.0
 11
14.53725400000382
 21
22.25000000000012
 31
0.0
  0
CIRCLE
  5
21DFC
330
1F
100
AcDbEntity
  8
1
100
AcDbCircle
 10
29.7100000000047
 20
16.69000000000005
 30
0.0
 40
1.919999999999999
  0
LINE
  5
21DFD
330
1F
100
AcDbEntity
  8
1
100
AcDbLine
 10
27.0600000000037
 20
10.88000000000022
 30
0.0
 11
23.90000000000362
 21
10.88000000000022
 31
0.0
  0
ARC
  5
21DFE
330
1F
100
AcDbEntity
  8
1
100
AcDbCircle
 10
48.3454510000048
 20
177.0827
 30
0.0
 40
171.000806
100
AcDbArc
 50
261.0734670000001
 51
262.8495170000055
  0
SPLINE
  5
21DFF
330
1F
100
AcDbEntity
  8
1
100
AcDbSpline
210
0.0
220
0.0
230
1.0
 70
     8
 71
     5
 72
    12
 73
     6
 74
     0
 42
0.000000001
 43
0.0000000001
 40
0.0
 40
0.0
 40
0.0
 40
0.0
 40
0.0
 40
0.0
 40
13.94851583081909
 40
13.94851583081909
 40
13.94851583081909
 40
13.94851583081909
 40
13.94851583081909
 40
13.94851583081909
 10
13.92698777410385
 20
7.947575233999828
 30
0.0
 10
15.47466400671862
 20
8.060707887545959
 30
0.0
 10
17.04307798228763
 20
8.123509000168041
 30
0.0
 10
18.63294771078574
 20
8.152079264315375
 30
0.0
 10
20.21931958912467
 20
8.159187429542043
 30
0.0
 10
21.8116184044037
 20
8.153036019310093
 30
0.0
  0
LINE
  5
21E00
330
1F
100
AcDbEntity
  8
1
100
AcDbLine
 10
13.91513500000371
 20
7.858138000000053
 30
0.0
 11
13.92698800000482
 21
7.947575000000142
 31
0.0
  0
SPLINE
  5
21E01
330
1F
100
AcDbEntity
  8
1
100
AcDbSpline
210
0.0
220
0.0
230
1.0
 70
     8
 71
     5
 72
    15
 73
     9
 74
     0
 42
0.000000001
 43
0.0000000001
 40
0.0
 40
0.0
 40
0.0
 40
0.0
 40
0.0
 40
0.0
 40
8.523797481718968
 40
8.523797481718968
 40
8.523797481718968
 40
9.496167728360827
 40
9.496167728360827
 40
9.496167728360827
 40
9.496167728360827
 40
9.496167728360827
 40
9.496167728360827
 10
9.017372521619677
 20
6.621385903006057
 30
0.0
 10
9.833270214783738
 20
6.914349459703203
 30
0.0
 10
10.69411292672055
 20
7.170605871138832
 30
0.0
 10
11.57627851136965
 20
7.393454338563742
 30
0.0
 10
12.58084192323883
 20
7.611847516801276
 30
0.0
 10
13.60087590533669
 20
7.801590672435054
 30
0.0
 10
13.70547999838675
 20
7.82072564653697
 30
0.0
 10
13.81023365948374
 20
7.839572470124949
 30
0.0
 10
13.91513530060376
 20
7.858137706579782
 30
0.0
  0
ARC
  5
21E02
330
1F
100
AcDbEntity
  8
1
100
AcDbCircle
 10
28.34303800000373
 20
-843.4703199999994
 30
0.0
 40
849.6327039999997
100
AcDbArc
 50
90.0865230000064
 51
90.66075499999879
  0
LINE
  5
21E03
330
1F
100
AcDbEntity
  8
1
100
AcDbLine
 10
23.90000000000362
 20
10.88000000000022
 30
0.0
 11
23.90000000000362
 21
8.145309999999994
 31
0.0
  0
LINE
  5
21E04
330
1F
100
AcDbEntity
  8
1
100
AcDbLine
 10
21.81161800000371
 20
8.153036000000042
 30
0.0
 11
23.90000000000362
 21
8.145309999999994
 31
0.0
  0
LINE
  5
21E05
330
1F
100
AcDbEntity
  8
1
100
AcDbLine
 10
0.0000000000037517
 20
22.10562000000004
 30
0.0
 11
0.0000000000037517
 21
8.775228000000083
 31
0.0
  0
ARC
  5
21E06
330
1F
100
AcDbEntity
  8
1
100
AcDbCircle
 10
14.54484600000376
 20
710.340285
 30
0.0
 40
732.590294
100
AcDbArc
 50
268.8623749999956
 51
269.9994060000001
  0
ARC
  5
21E07
330
1F
100
AcDbEntity
  8
SK1
100
AcDbCircle
 10
9.691348000003813
 20
1859.229417
 30
0.0
 40
1868.029799
100
AcDbArc
 50
269.1843689999981
 51
269.7027480000019
  0
ARC
  5
21E08
330
1F
100
AcDbEntity
  8
SK1
100
AcDbCircle
 10
27.07109600000479
 20
43.62283300000024
 30
0.0
 40
68.277371
100
AcDbArc
 50
228.8025979999989
 51
229.9089739999901
  0
LINE
  5
21E09
330
1F
100
AcDbEntity
  8
SK1
100
AcDbLine
 10
-17.89999999999634
 20
-6.845143999999777
 30
0.0
 11
-17.89999999999634
 21
-7.751936
 31
0.0
  0
LINE
  5
21E0A
330
1F
100
AcDbEntity
  8
SK1
100
AcDbLine
 10
-17.89999999999634
 20
5.181983000000059
 30
0.0
 11
-17.89999999999634
 21
-6.845143999999777
 31
0.0
  0
LINE
  5
21E0B
330
1F
100
AcDbEntity
  8
SK1
100
AcDbLine
 10
-17.89999999999634
 20
5.181983000000059
 30
0.0
 11
-17.89999999999634
 21
6.001525000000128
 31
0.0
  0
LINE
  5
21E0C
330
1F
100
AcDbEntity
  8
SK1
100
AcDbLine
 10
-17.89999999999634
 20
7.751936000000114
 30
0.0
 11
-17.89999999999634
 21
6.001525000000128
 31
0.0
  0
LINE
  5
21E0D
330
1F
100
AcDbEntity
  8
1
100
AcDbLine
 10
23.90000000000362
 20
10.88000000000022
 30
0.0
 11
23.90000000000362
 21
22.25000000000012
 31
0.0
  0
ARC
  5
21E0E
330
1F
100
AcDbEntity
  8
1
100
AcDbCircle
 10
-19.19453899999519
 20
-90.40605200000005
 30
0.0
 40
117.597699
100
AcDbArc
 50
72.84970399999405
 51
73.33109700000656
  0
ARC
  5
21E0F
330
1F
100
AcDbEntity
  8
SK1
100
AcDbCircle
 10
9.691348000003813
 20
-1859.229417
 30
0.0
 40
1868.029799
100
AcDbArc
 50
90.29725199999811
 51
90.8156310000019
  0
ARC
  5
21E10
330
1F
100
AcDbEntity
  8
SK1
100
AcDbCircle
 10
27.07109600000479
 20
-43.62283299999979
 30
0.0
 40
68.277371
100
AcDbArc
 50
130.0910260000099
 51
131.1974020000011
  0
LINE
  5
21E11
330
1F
100
AcDbEntity
  8
1
100
AcDbLine
 10
14.34437900000364
 20
10.71428600000024
 30
0.0
 11
23.90000000000362
 21
10.71428600000024
 31
0.0
  0
LINE
  5
21E12
330
1F
100
AcDbEntity
  8
1
100
AcDbLine
 10
15.48257700000374
 20
21.96260100000007
 30
0.0
 11
14.34437900000364
 21
10.71428600000024
 31
0.0
  0
ELLIPSE
  5
21E13
330
1F
100
AcDbEntity
  8
1
100
AcDbEllipse
 10
13.69407600000374
 20
10.71428600000024
 30
0.0
 11
0.4649061262607578
 21
4.499508857727049
 31
0.0
210
0.0
220
0.0
230
1.0
 40
0.143017
 41
4.065001215644032
 42
4.72716491741338
  0
ARC
  5
21E14
330
1F
100
AcDbEntity
  8
SK1
100
AcDbCircle
 10
-16.51813499999628
 20
13.30598699999996
 30
0.0
 40
8.240992999999999
100
AcDbArc
 50
260.3465800000064
 51
267.1036039999979
  0
LINE
  5
21E15
330
1F
100
AcDbEntity
  8
SK1
100
AcDbLine
 10
-16.93456699999626
 20
5.075251999999977
 30
0.0
 11
-16.89999999999634
 21
5.07337300000006
 31
0.0
  0
LINE
  5
21E16
330
1F
100
AcDbEntity
  8
SK1
100
AcDbLine
 10
-16.89999999999634
 20
5.07337300000006
 30
0.0
 11
-16.52283599999634
 21
5.052087000000256
 31
0.0
  0
ARC
  5
21E17
330
1F
100
AcDbEntity
  8
SK1
100
AcDbCircle
 10
-218.4326599999963
 20
-3563.198984000001
 30
0.0
 40
3573.959123
100
AcDbArc
 50
86.49602199999698
 51
86.761367000001
  0
SPLINE
  5
21E18
330
1F
100
AcDbEntity
  8
1
100
AcDbSpline
210
0.0
220
0.0
230
1.0
 70
     8
 71
     5
 72
    12
 73
     6
 74
     0
 42
0.000000001
 43
0.0000000001
 40
0.0
 40
0.0
 40
0.0
 40
0.0
 40
0.0
 40
0.0
 40
60.7356526431811
 40
60.7356526431811
 40
60.7356526431811
 40
60.7356526431811
 40
60.7356526431811
 40
60.7356526431811
 10
34.51999999911561
 20
2.974171954660732
 30
0.0
 10
27.52506706221277
 20
3.507996064343842
 30
0.0
 10
20.55686511512283
 20
4.372289957679186
 30
0.0
 10
13.63207304919171
 20
5.548510159207353
 30
0.0
 10
6.774355505679636
 20
6.996964077285724
 30
0.0
 10
-0.0000000004373533
 20
8.664845995966174
 30
0.0
  0
LINE
  5
21E19
330
1F
100
AcDbEntity
  8
1
100
AcDbLine
 10
34.52000000000487
 20
2.974172000000066
 30
0.0
 11
34.52000000000487
 21
-19.52621199999976
 31
0.0
  0
LINE
  5
21E1A
330
1F
100
AcDbEntity
  8
1
100
AcDbLine
 10
34.52000000000487
 20
-19.52621199999976
 30
0.0
 11
34.52000000000487
 21
-21.72607900000004
 31
0.0
  0
LINE
  5
21E1B
330
1F
100
AcDbEntity
  8
1
100
AcDbLine
 10
23.90000000000362
 20
-22.25
 30
0.0
 11
14.53725400000382
 21
-22.25
 31
0.0
  0
LINE
  5
21E1C
330
1F
100
AcDbEntity
  8
1
100
AcDbLine
 10
23.90000000000362
 20
-21.72607900000004
 30
0.0
 11
23.90000000000362
 21
-22.25
 31
0.0
  0
LINE
  5
21E1D
330
1F
100
AcDbEntity
  8
1
100
AcDbLine
 10
34.52000000000487
 20
-21.72607900000004
 30
0.0
 11
23.90000000000362
 21
-21.72607900000004
 31
0.0
  0
LINE
  5
21E1E
330
1F
100
AcDbEntity
  8
1
100
AcDbLine
 10
0.0000000000037517
 20
-19.52621199999976
 30
0.0
 11
0.0000000000037517
 21
-22.10561999999971
 31
0.0
  0
LINE
  5
21E1F
330
1F
100
AcDbEntity
  8
1
100
AcDbLine
 10
0.0000000000037517
 20
8.664846000000125
 30
0.0
 11
0.0000000000037517
 21
-19.52621199999976
 31
0.0
  0
LINE
  5
21E20
330
1F
100
AcDbEntity
  8
SK1
100
AcDbLine
 10
-16.89999999999634
 20
-7.722726999999963
 30
0.0
 11
-16.89999999999634
 21
-8.611124000000017
 31
0.0
  0
LINE
  5
21E21
330
1F
100
AcDbEntity
  8
SK1
100
AcDbLine
 10
-16.89999999999634
 20
5.07337300000006
 30
0.0
 11
-16.89999999999634
 21
-7.722726999999963
 31
0.0
  0
CIRCLE
  5
21E22
330
1F
100
AcDbEntity
  8
1
100
AcDbCircle
 10
29.7100000000047
 20
-16.68999999999994
 30
0.0
 40
1.919999999999999
  0
CIRCLE
  5
21E23
330
1F
100
AcDbEntity
  8
1
100
AcDbCircle
 10
29.7100000000047
 20
16.69000000000005
 30
0.0
 40
2.225
  0
CIRCLE
  5
21E24
330
1F
100
AcDbEntity
  8
1
100
AcDbCircle
 10
29.7100000000047
 20
16.69000000000005
 30
0.0
 40
2.783567999999998
  0
LINE
  5
21E25
330
1F
100
AcDbEntity
  8
1
100
AcDbLine
 10
27.0600000000037
 20
10.88000000000022
 30
0.0
 11
24.7000000000038
 21
10.88000000000022
 31
0.0
  0
LINE
  5
21E26
330
1F
100
AcDbEntity
  8
1
100
AcDbLine
 10
35.52000000000373
 20
21.70000000000005
 30
0.0
 11
35.52000000000373
 21
12.45000000000004
 31
0.0
  0
ARC
  5
21E27
330
1F
100
AcDbEntity
  8
1
100
AcDbCircle
 10
34.72000000000378
 20
21.70000000000005
 30
0.0
 40
0.8
100
AcDbArc
 50
0.0
 51
90.0
  0
LINE
  5
21E28
330
1F
100
AcDbEntity
  8
1
100
AcDbLine
 10
24.7000000000038
 20
22.50000000000023
 30
0.0
 11
34.72000000000378
 21
22.50000000000023
 31
0.0
  0
ARC
  5
21E29
330
1F
100
AcDbEntity
  8
1
100
AcDbCircle
 10
24.7000000000038
 20
21.70000000000005
 30
0.0
 40
0.8
100
AcDbArc
 50
90.0
 51
180.0
  0
LINE
  5
21E2A
330
1F
100
AcDbEntity
  8
1
100
AcDbLine
 10
23.90000000000362
 20
11.68000000000006
 30
0.0
 11
23.90000000000362
 21
21.70000000000005
 31
0.0
  0
ARC
  5
21E2B
330
1F
100
AcDbEntity
  8
1
100
AcDbCircle
 10
24.7000000000038
 20
11.68000000000006
 30
0.0
 40
0.8
100
AcDbArc
 50
180.0
 51
270.0
  0
ARC
  5
21E33
330
1F
100
AcDbEntity
  8
1
100
AcDbCircle
 10
34.72000000000378
 20
-11.67999999999995
 30
0.0
 40
0.8
100
AcDbArc
 50
0.0
 51
90.0
  0
LINE
  5
21E34
330
1F
100
AcDbEntity
  8
1
100
AcDbLine
 10
35.52000000000373
 20
-21.69999999999971
 30
0.0
 11
35.52000000000373
 21
-11.67999999999995
 31
0.0
  0
ARC
  5
21E35
330
1F
100
AcDbEntity
  8
1
100
AcDbCircle
 10
34.72000000000378
 20
-21.69999999999971
 30
0.0
 40
0.8
100
AcDbArc
 50
270.0
 51
0.0
  0
LINE
  5
21E36
330
1F
100
AcDbEntity
  8
1
100
AcDbLine
 10
24.7000000000038
 20
-22.49999999999977
 30
0.0
 11
34.72000000000378
 21
-22.49999999999977
 31
0.0
  0
ARC
  5
21E37
330
1F
100
AcDbEntity
  8
1
100
AcDbCircle
 10
24.7000000000038
 20
-21.69999999999971
 30
0.0
 40
0.8
100
AcDbArc
 50
181.8683229999977
 51
270.0
  0
ARC
  5
21E38
330
1F
100
AcDbEntity
  8
1
100
AcDbCircle
 10
24.7000000000038
 20
-21.69999999999971
 30
0.0
 40
0.125404
100
AcDbArc
 50
192.0027290000029
 51
270.0000009999949
  0
LINE
  5
21E39
330
1F
100
AcDbEntity
  8
1
100
AcDbLine
 10
24.7000000000038
 20
-21.82540399999971
 30
0.0
 11
34.72000000000378
 21
-21.82540399999971
 31
0.0
  0
ARC
  5
21E3A
330
1F
100
AcDbEntity
  8
1
100
AcDbCircle
 10
34.72000000000378
 20
-21.69999999999971
 30
0.0
 40
0.125404
100
AcDbArc
 50
270.0
 51
0.0000010000014034
  0
LINE
  5
21E3B
330
1F
100
AcDbEntity
  8
1
100
AcDbLine
 10
34.84540400000481
 20
-21.69999999999971
 30
0.0
 11
34.84540400000481
 21
-11.67999999999995
 31
0.0
  0
ARC
  5
21E3C
330
1F
100
AcDbEntity
  8
1
100
AcDbCircle
 10
34.72000000000378
 20
-11.67999999999995
 30
0.0
 40
0.125404
100
AcDbArc
 50
0.0000010000014034
 51
89.99999899999208
  0
LINE
  5
21E3D
330
1F
100
AcDbEntity
  8
1
100
AcDbLine
 10
34.72000000000378
 20
-11.55459599999995
 30
0.0
 11
34.52000000000487
 21
-11.55459599999995
 31
0.0
  0
LINE
  5
21E3E
330
1F
100
AcDbEntity
  8
1
100
AcDbLine
 10
34.72000000000378
 20
-11.55459599999995
 30
0.0
 11
34.72000000000378
 21
-10.87999999999976
 31
0.0
  0
LINE
  5
21E3F
330
1F
100
AcDbEntity
  8
1
100
AcDbLine
 10
34.84540400000481
 20
-11.67999999999995
 30
0.0
 11
35.52000000000373
 21
-11.67999999999995
 31
0.0
  0
LINE
  5
21E40
330
1F
100
AcDbEntity
  8
1
100
AcDbLine
 10
34.84540400000481
 20
-21.69999999999971
 30
0.0
 11
35.52000000000373
 21
-21.69999999999971
 31
0.0
  0
LINE
  5
21E41
330
1F
100
AcDbEntity
  8
1
100
AcDbLine
 10
34.72000000000378
 20
-21.82540399999971
 30
0.0
 11
34.72000000000378
 21
-22.49999999999977
 31
0.0
  0
LINE
  5
21E42
330
1F
100
AcDbEntity
  8
1
100
AcDbLine
 10
24.7000000000038
 20
-21.82540399999971
 30
0.0
 11
24.7000000000038
 21
-22.49999999999977
 31
0.0
  0
ARC
  5
21E43
330
1F
100
AcDbEntity
  8
1
100
AcDbCircle
 10
34.72000000000378
 20
-21.69999999999971
 30
0.0
 40
0.8
100
AcDbArc
 50
270.0
 51
0.0
  0
LINE
  5
21E44
330
1F
100
AcDbEntity
  8
1
100
AcDbLine
 10
34.72000000000378
 20
-22.49999999999977
 30
0.0
 11
24.7000000000038
 21
-22.49999999999977
 31
0.0
  0
ARC
  5
21E45
330
1F
100
AcDbEntity
  8
1
100
AcDbCircle
 10
24.7000000000038
 20
-21.69999999999971
 30
0.0
 40
0.8
100
AcDbArc
 50
181.8683239999965
 51
270.0
  0
LINE
  5
21E46
330
1F
100
AcDbEntity
  8
1
100
AcDbLine
 10
34.52000000000487
 20
-10.87999999999976
 30
0.0
 11
34.72000000000378
 21
-10.87999999999976
 31
0.0
  0
ARC
  5
21E47
330
1F
100
AcDbEntity
  8
1
100
AcDbCircle
 10
34.72000000000378
 20
-11.67999999999995
 30
0.0
 40
0.8
100
AcDbArc
 50
0.0
 51
90.0
  0
LINE
  5
21E48
330
1F
100
AcDbEntity
  8
1
100
AcDbLine
 10
35.52000000000373
 20
-11.67999999999995
 30
0.0
 11
35.52000000000373
 21
-21.69999999999971
 31
0.0
  0
LINE
  5
21E49
330
1F
100
AcDbEntity
  8
1
100
AcDbLine
 10
18.54500000000382
 20
6.105666000000042
 30
0.0
 11
18.54500000000382
 21
4.872234000000048
 31
0.0
  0
ARC
  5
21E4C
330
1F
100
AcDbEntity
  8
1
100
AcDbCircle
 10
-243.5943209999957
 20
-40.20355900000004
 30
0.0
 40
284.815146
100
AcDbArc
 50
8.943741000000811
 51
9.90264699999992
  0
LINE
  5
21E4D
330
1F
100
AcDbEntity
  8
1
100
AcDbLine
 10
36.97817900000371
 20
8.777540000000044
 30
0.0
 11
36.32000000000483
 21
9.272402000000056
 31
0.0
  0
ARC
  5
21E4E
330
1F
100
AcDbEntity
  8
1
100
AcDbCircle
 10
-5.001626999996346
 20
-221.5504739999999
 30
0.0
 40
234.492357
100
AcDbArc
 50
79.8504920000019
 51
80.78794200000301
  0
ARC
  5
21E4F
330
1F
100
AcDbEntity
  8
1
100
AcDbCircle
 10
46.30149900000481
 20
-112.480256
 30
0.0
 40
123.169396
100
AcDbArc
 50
96.41589799999957
 51
98.98753200000504
  0
ARC
  5
21E50
330
1F
100
AcDbEntity
  8
1
100
AcDbCircle
 10
14.81767000000479
 20
43.77810899999997
 30
0.0
 40
45.85404099999998
100
AcDbArc
 50
295.444646000001
 51
300.0184620000016
  0
LINE
  5
21E51
330
1F
100
AcDbEntity
  8
1
100
AcDbLine
 10
32.5380000000049
 20
9.917515999999977
 30
0.0
 11
32.5380000000049
 21
12.45000000000004
 31
0.0
  0
LINE
  5
21E52
330
1F
100
AcDbEntity
  8
1
100
AcDbLine
 10
27.0600000000037
 20
10.9821740000001
 30
0.0
 11
32.5380000000049
 21
12.45000000000004
 31
0.0
  0
LINE
  5
21E57
330
1F
100
AcDbEntity
  8
1
100
AcDbLine
 10
34.52000000000487
 20
0.7801920000000564
 30
0.0
 11
40.7654200000037
 21
-0.2298680000000104
 31
0.0
  0
ARC
  5
21E58
330
1F
100
AcDbEntity
  8
1
100
AcDbCircle
 10
42.50158300000373
 20
9.847577000000228
 30
0.0
 40
16.968656
100
AcDbArc
 50
241.9398429999978
 51
254.0678910000066
  0
ARC
  5
21E59
330
1F
100
AcDbEntity
  8
1
100
AcDbCircle
 10
41.56056600000363
 20
-7.413344999999708
 30
0.0
 40
3.834782
100
AcDbArc
 50
154.1519149999957
 51
165.7617879999962
  0
LINE
  5
21E5A
330
1F
100
AcDbEntity
  8
1
100
AcDbLine
 10
39.37808600000483
 20
-3.13955299999975
 30
0.0
 11
38.10954400000481
 21
-5.741481000000021
 31
0.0
  0
SPLINE
  5
21E5B
330
1F
100
AcDbEntity
  8
1
100
AcDbSpline
210
0.0
220
0.0
230
1.0
 70
     8
 71
     5
 72
    24
 73
    18
 74
     0
 42
0.000000001
 43
0.0000000001
 40
0.0
 40
0.0
 40
0.0
 40
0.0
 40
0.0
 40
0.0
 40
26.80990200721195
 40
26.80990200721195
 40
26.80990200721195
 40
42.97579974450211
 40
42.97579974450211
 40
42.97579974450211
 40
49.2831024292741
 40
49.2831024292741
 40
49.2831024292741
 40
52.909690919465
 40
52.909690919465
 40
52.909690919465
 40
53.8043907378838
 40
53.8043907378838
 40
53.8043907378838
 40
53.8043907378838
 40
53.8043907378838
 40
53.8043907378838
 10
40.76542044387759
 20
-0.2298677934066973
 30
0.0
 10
40.75140706294075
 20
-0.2665368956768361
 30
0.0
 10
40.73377539774571
 20
-0.3102757284667632
 30
0.0
 10
40.71191758157681
 20
-0.3617825768019429
 30
0.0
 10
40.66608796919661
 20
-0.4670925141033422
 30
0.0
 10
40.56489398667361
 20
-0.6851957912990656
 30
0.0
 10
40.51758645922371
 20
-0.7856883396665353
 30
0.0
 10
40.43261845367067
 20
-0.9652510175901625
 30
0.0
 10
40.23613023468658
 20
-1.373044921197219
 30
0.0
 10
40.17021489570777
 20
-1.509510192804782
 30
0.0
 10
40.03855213582062
 20
-1.781504053439448
 30
0.0
 10
39.83420888444664
 20
-2.202234828919699
 30
0.0
 10
39.74382509021564
 20
-2.388185535535399
 30
0.0
 10
39.61783410705482
 20
-2.647163398825568
 30
0.0
 10
39.47042423964865
 20
-2.949941826356166
 30
0.0
 10
39.4404267914357
 20
-3.011548446429742
 30
0.0
 10
39.40965288298674
 20
-3.074741000654512
 30
0.0
 10
39.37808640846572
 20
-3.139553395938037
 30
0.0
  0
SPLINE
  5
21E5C
330
1F
100
AcDbEntity
  8
1
100
AcDbSpline
210
0.0
220
0.0
230
1.0
 70
     8
 71
     5
 72
    54
 73
    48
 74
     0
 42
0.000000001
 43
0.0000000001
 40
0.0
 40
0.0
 40
0.0
 40
0.0
 40
0.0
 40
0.0
 40
36.94310629344702
 40
36.94310629344702
 40
36.94310629344702
 40
87.41513076662977
 40
87.41513076662977
 40
87.41513076662977
 40
99.7214618020976
 40
99.7214618020976
 40
99.7214618020976
 40
112.106024929775
 40
112.106024929775
 40
112.106024929775
 40
116.2086412802256
 40
116.2086412802256
 40
116.2086412802256
 40
120.2590176428263
 40
120.2590176428263
 40
120.2590176428263
 40
121.2914352150713
 40
121.2914352150713
 40
121.2914352150713
 40
122.3728420655763
 40
122.3728420655763
 40
122.3728420655763
 40
122.6325992237542
 40
122.6325992237542
 40
122.6325992237542
 40
122.8923563819322
 40
122.8923563819322
 40
122.8923563819322
 40
123.1521098376942
 40
123.1521098376942
 40
123.1521098376942
 40
123.4118632934561
 40
123.4118632934561
 40
123.4118632934561
 40
123.6703992647543
 40
123.6703992647543
 40
123.6703992647543
 40
123.9289352360526
 40
123.9289352360526
 40
123.9289352360526
 40
124.4459461554733
 40
124.4459461554733
 40
124.4459461554733
 40
124.4459461554733
 40
124.4459461554733
 40
124.4459461554733
 10
40.76542044387759
 20
-0.2298677934066973
 30
0.0
 10
40.78473381781771
 20
-0.1793300903676709
 30
0.0
 10
40.79321938156875
 20
-0.1468931611213975
 30
0.0
 10
40.80064059267772
 20
-0.1159945112326568
 30
0.0
 10
40.81080550828267
 20
-0.0512881007438182
 30
0.0
 10
40.80903336538756
 20
0.0059443294023822
 30
0.0
 10
40.80517846047962
 20
0.0368927692745729
 30
0.0
 10
40.79696733420485
 20
0.0817258370102536
 30
0.0
 10
40.77506436017972
 20
0.1467791661083311
 30
0.0
 10
40.7700906203587
 20
0.160602004964403
 30
0.0
 10
40.75862838929867
 20
0.1906856514801802
 30
0.0
 10
40.74278249453266
 20
0.2276930080355441
 30
0.0
 10
40.73357012764756
 20
0.2480824040077323
 30
0.0
 10
40.71871005792274
 20
0.2797306572631442
 30
0.0
 10
40.69645915220656
 20
0.3230270796149171
 30
0.0
 10
40.69037990535855
 20
0.3346579554533946
 30
0.0
 10
40.67700538727774
 20
0.3598050767886889
 30
0.0
 10
40.65964267549168
 20
0.3910765815676314
 30
0.0
 10
40.64847633109173
 20
0.4105239757701611
 30
0.0
 10
40.63583967064971
 20
0.4324559319957189
 30
0.0
 10
40.6165051335887
 20
0.4645151409666824
 30
0.0
 10
40.61222540546975
 20
0.4715573430281666
 30
0.0
 10
40.60253302753074
 20
0.4873599389155743
 30
0.0
 10
40.59037098029068
 20
0.5067692893994718
 30
0.0
 10
40.58472094860974
 20
0.5156336728718998
 30
0.0
 10
40.57530932509769
 20
0.5304009630472138
 30
0.0
 10
40.56223214257658
 20
0.5503621836147659
 30
0.0
 10
40.55952767065185
 20
0.5544708356446791
 30
0.0
 10
40.55367574730178
 20
0.5633119414866315
 30
0.0
 10
40.54663723477585
 20
0.5738210425187163
 30
0.0
 10
40.54278213394252
 20
0.5794817107487234
 30
0.0
 10
40.53580408217669
 20
0.589785186274753
 30
0.0
 10
40.52519011959259
 20
0.6052652606482525
 30
0.0
 10
40.51560190025759
 20
0.6190509096694541
 30
0.0
 10
40.49150864311662
 20
0.6531302893359907
 30
0.0
 10
40.46782467662967
 20
0.6857813465707068
 30
0.0
 10
40.45740830561783
 20
0.699827165053307
 30
0.0
 10
40.44097970591963
 20
0.7212933743418262
 30
0.0
 10
40.43128285207183
 20
0.7329632662498398
 30
0.0
 10
40.42774903817565
 20
0.7369979203863295
 30
0.0
 10
40.42096135854388
 20
0.7450373336737357
 30
0.0
 10
40.41408575585353
 20
0.7536242238678597
 30
0.0
 10
40.41072537364868
 20
0.7577643391994116
 30
0.0
 10
40.40109758294863
 20
0.7695344155813473
 30
0.0
 10
40.39224684963381
 20
0.780162802679115
 30
0.0
 10
40.38658933719455
 20
0.7868857224452768
 30
0.0
 10
40.38114595113563
 20
0.7932877908367573
 30
0.0
 10
40.37587741924073
 20
0.7994243592477233
 30
0.0
  0
LINE
  5
21E5D
330
1F
100
AcDbEntity
  8
1
100
AcDbLine
 10
40.37587700000369
 20
0.7994240000000446
 30
0.0
 11
34.52000000000487
 21
1.746484000000236
 31
0.0
  0
LINE
  5
21E5E
330
1F
100
AcDbEntity
  8
1
100
AcDbLine
 10
38.10954400000481
 20
3.42357700000025
 30
0.0
 11
40.37587700000369
 21
0.7994240000000446
 31
0.0
  0
ARC
  5
21E5F
330
1F
100
AcDbEntity
  8
1
100
AcDbCircle
 10
39.34932400000377
 20
4.513815000000249
 30
0.0
 40
1.65067
100
AcDbArc
 50
197.7284879999995
 51
221.3277709999969
  0
LINE
  5
21E60
330
1F
100
AcDbEntity
  8
1
100
AcDbLine
 10
37.77728400000376
 20
4.011251000000129
 30
0.0
 11
37.75732200000368
 21
4.075016000000005
 31
0.0
  0
LINE
  5
21E61
330
1F
100
AcDbEntity
  8
1
100
AcDbLine
 10
37.77728400000376
 20
7.534194000000297
 30
0.0
 11
37.77728400000376
 21
4.011251000000129
 31
0.0
  0
LINE
  5
21E62
330
1F
100
AcDbEntity
  8
1
100
AcDbLine
 10
36.97817900000371
 20
12.07000000000005
 30
0.0
 11
36.97817900000371
 21
8.777540000000044
 31
0.0
  0
LINE
  5
21E63
330
1F
100
AcDbEntity
  8
1
100
AcDbLine
 10
36.32000000000483
 20
12.45000000000004
 30
0.0
 11
36.32000000000483
 21
9.272402000000056
 31
0.0
  0
LINE
  5
21E64
330
1F
100
AcDbEntity
  8
1
100
AcDbLine
 10
37.62755500000469
 20
-8.387204999999994
 30
0.0
 11
37.77728400000376
 21
-7.534193999999956
 31
0.0
  0
LINE
  5
21E65
330
1F
100
AcDbEntity
  8
1
100
AcDbLine
 10
37.62755500000469
 20
-8.387204999999994
 30
0.0
 11
36.97817900000371
 21
-12.06999999999993
 31
0.0
  0
LINE
  5
21E66
330
1F
100
AcDbEntity
  8
1
100
AcDbLine
 10
36.97817900000371
 20
-12.06999999999993
 30
0.0
 11
36.32000000000483
 21
-12.44999999999993
 31
0.0
  0
LINE
  5
21E67
330
1F
100
AcDbEntity
  8
1
100
AcDbLine
 10
36.32000000000483
 20
-12.44999999999993
 30
0.0
 11
35.52000000000373
 21
-12.44999999999993
 31
0.0
  0
LINE
  5
21E68
330
1F
100
AcDbEntity
  8
1
100
AcDbLine
 10
38.10954400000481
 20
6.446314000000256
 30
0.0
 11
38.10954400000481
 21
3.42357700000025
 31
0.0
  0
LINE
  5
21E69
330
1F
100
AcDbEntity
  8
1
100
AcDbLine
 10
38.10954400000481
 20
-5.741481000000021
 30
0.0
 11
38.10954400000481
 21
-6.446314000000029
 31
0.0
  0
LINE
  5
21E6A
330
1F
100
AcDbEntity
  8
1
100
AcDbLine
 10
37.8434710000048
 20
-7.219718999999713
 30
0.0
 11
37.8434710000048
 21
-6.470136999999908
 31
0.0
  0
LINE
  5
21E6B
330
1F
100
AcDbEntity
  8
1
100
AcDbLine
 10
37.8434710000048
 20
-7.219718999999713
 30
0.0
 11
37.82640500000378
 21
-7.296585999999933
 31
0.0
  0
ARC
  5
21E6C
330
1F
100
AcDbEntity
  8
1
100
AcDbCircle
 10
42.62286000000369
 20
-8.413454000000001
 30
0.0
 40
4.924731999999997
100
AcDbArc
 50
166.8920990000022
 51
169.715231000002
  0
LINE
  5
21E6D
330
1F
100
AcDbEntity
  8
1
100
AcDbLine
 10
34.5199850000048
 20
-8.387204999999994
 30
0.0
 11
37.62755500000469
 21
-8.387204999999994
 31
0.0
  0
LINE
  5
21E6E
330
1F
100
AcDbEntity
  8
1
100
AcDbLine
 10
34.5199850000048
 20
-7.219718999999713
 30
0.0
 11
37.8434710000048
 21
-7.219718999999713
 31
0.0
  0
LINE
  5
21E71
330
1F
100
AcDbEntity
  8
1
100
AcDbLine
 10
40.96000000000469
 20
0.0
 30
0.0
 11
38.10954400000481
 21
-6.446312999999918
 31
0.0
  0
ARC
  5
21E72
330
1F
100
AcDbEntity
  8
1
100
AcDbCircle
 10
42.43640900000366
 20
-8.359582999999929
 30
0.0
 40
4.730999999999998
100
AcDbArc
 50
156.1457599999958
 51
167.0152009999986
  0
LINE
  5
21E73
330
1F
100
AcDbEntity
  8
SKVIEW4
100
AcDbLine
 10
-62.61494946668119
 20
0.0
 30
0.0
 11
-116.6078914666812
 21
0.0
 31
0.0
  0
LINE
  5
21E74
330
1F
100
AcDbEntity
  8
SKVIEW4
100
AcDbLine
 10
-89.61142046668134
 20
26.99647100000004
 30
0.0
 11
-89.61142046668134
 21
-26.99647099999993
 31
0.0
  0
ARC
  5
21E75
330
1F
100
AcDbEntity
  8
SKVIEW1
100
AcDbCircle
 10
-89.61142046668134
 20
0.0
 30
0.0
 40
7.224999999999997
100
AcDbArc
 50
7.53183099999986
 51
87.82244500000087
  0
LINE
  5
21E76
330
1F
100
AcDbEntity
  8
SKVIEW1
100
AcDbLine
 10
-77.63171746668138
 20
-3.951802999999927
 30
0.0
 11
-77.63171746668138
 21
1.72183600000028
 31
0.0
  0
ARC
  5
21E77
330
1F
100
AcDbEntity
  8
SKVIEW1
100
AcDbCircle
 10
-80.00894346668122
 20
-3.376147999999943
 30
0.0
 40
5.624998
100
AcDbArc
 50
65.00002199999241
 51
117.116450000006
  0
LINE
  5
21E78
330
1F
100
AcDbEntity
  8
SKVIEW1
100
AcDbLine
 10
-83.46666146668132
 20
-0.9962709999999788
 30
0.0
 11
-83.4376684666812
 21
-0.7971229999999423
 31
0.0
  0
LINE
  5
21E79
330
1F
100
AcDbEntity
  8
SKVIEW1
100
AcDbLine
 10
-84.14851946668125
 20
-2.433800000000019
 30
0.0
 11
-84.14851946668125
 21
-2.107284999999933
 31
0.0
  0
SPLINE
  5
21E7A
330
1F
100
AcDbEntity
  8
SKVIEW1
100
AcDbSpline
210
0.0
220
0.0
230
1.0
 70
     8
 71
     5
 72
    21
 73
    15
 74
     0
 42
0.000000001
 43
0.0000000001
 40
0.0
 40
0.0
 40
0.0
 40
0.0
 40
0.0
 40
0.0
 40
3.262638989782423
 40
3.262638989782423
 40
3.262638989782423
 40
5.668091690131022
 40
5.668091690131022
 40
5.668091690131022
 40
8.10696508246978
 40
8.10696508246978
 40
8.10696508246978
 40
11.46814197582655
 40
11.46814197582655
 40
11.46814197582655
 40
11.46814197582655
 40
11.46814197582655
 40
11.46814197582655
 10
-77.63171444928514
 20
-3.95178704344471
 30
0.0
 10
-77.84432386806532
 20
-3.951364894382777
 30
0.0
 10
-78.08280063449513
 20
-3.946906329653984
 30
0.0
 10
-78.3567398270203
 20
-3.93840703333376
 30
0.0
 10
-78.8894802331223
 20
-3.919236511641543
 30
0.0
 10
-79.51263779117414
 20
-3.903799935113283
 30
0.0
 10
-79.78170561295531
 20
-3.899532825792903
 30
0.0
 10
-80.34952334387924
 20
-3.898882421634311
 30
0.0
 10
-80.90773088837421
 20
-3.916736026172657
 30
0.0
 10
-81.17690950507233
 20
-3.930804661913043
 30
0.0
 10
-81.79248927326431
 20
-3.975270850744664
 30
0.0
 10
-82.32673319571437
 20
-4.040150281429532
 30
0.0
 10
-82.60973281906524
 20
-4.082732527641383
 30
0.0
 10
-82.86442845484032
 20
-4.127422490756771
 30
0.0
 10
-83.0957890742103
 20
-4.17326630989055
 30
0.0
  0
LINE
  5
21E7B
330
1F
100
AcDbEntity
  8
SKVIEW1
100
AcDbLine
 10
-89.61142046668134
 20
7.296319000000039
 30
0.0
 11
-89.61142046668134
 21
10.88000000000022
 31
0.0
  0
LINE
  5
21E7C
330
1F
100
AcDbEntity
  8
SKVIEW1
100
AcDbLine
 10
-77.63171746668138
 20
1.72183600000028
 30
0.0
 11
-67.5610964666813
 21
-2.974171999999953
 31
0.0
  0
ARC
  5
21E7D
330
1F
100
AcDbEntity
  8
SKVIEW1
100
AcDbCircle
 10
-89.61142046668134
 20
0.0
 30
0.0
 40
22.25
100
AcDbArc
 50
337.080882999996
 51
77.54162200000471
  0
LINE
  5
21E7E
330
1F
100
AcDbEntity
  8
SKVIEW1
100
AcDbLine
 10
-84.81142046668026
 20
10.88000000000022
 30
0.0
 11
-84.81142046668026
 21
21.72607900000025
 31
0.0
  0
LINE
  5
21E7F
330
1F
100
AcDbEntity
  8
SKVIEW1
100
AcDbLine
 10
-84.81142046668026
 20
10.88000000000022
 30
0.0
 11
-89.61142046668134
 21
10.88000000000022
 31
0.0
  0
CIRCLE
  5
21E80
330
1F
100
AcDbEntity
  8
SKVIEW1
100
AcDbCircle
 10
-74.02296346668129
 20
9.0
 30
0.0
 40
2.25
  0
SPLINE
  5
21E81
330
1F
100
AcDbEntity
  8
SKVIEW1
100
AcDbSpline
210
0.0
220
0.0
230
1.0
 70
     8
 71
     5
 72
    36
 73
    30
 74
     0
 42
0.000000001
 43
0.0000000001
 40
0.0
 40
0.0
 40
0.0
 40
0.0
 40
0.0
 40
0.0
 40
4.283240163791471
 40
4.283240163791471
 40
4.283240163791471
 40
6.463005397284817
 40
6.463005397284817
 40
6.463005397284817
 40
7.937383391967824
 40
7.937383391967824
 40
7.937383391967824
 40
9.266021211201303
 40
9.266021211201303
 40
9.266021211201303
 40
10.42847923836432
 40
10.42847923836432
 40
10.42847923836432
 40
11.75891693866519
 40
11.75891693866519
 40
11.75891693866519
 40
13.31885510944844
 40
13.31885510944844
 40
13.31885510944844
 40
17.26839643594205
 40
17.26839643594205
 40
17.26839643594205
 40
21.89751609555075
 40
21.89751609555075
 40
21.89751609555075
 40
21.89751609555075
 40
21.89751609555075
 40
21.89751609555075
 10
-77.63171444928627
 20
-3.951787043445619
 30
0.0
 10
-77.35240339565018
 20
-3.952341632701291
 30
0.0
 10
-77.0670170219754
 20
-3.958961062809748
 30
0.0
 10
-76.77975937673216
 20
-3.972534185185395
 30
0.0
 10
-76.32326286638238
 20
-4.006398614573754
 30
0.0
 10
-75.83317838391633
 20
-4.070228163878027
 30
0.0
 10
-75.66674754762345
 20
-4.095254651816048
 30
0.0
 10
-75.37290725417335
 20
-4.14611749594826
 30
0.0
 10
-75.05838986316224
 20
-4.215563730708709
 30
0.0
 10
-74.92222295903719
 20
-4.248498813782816
 30
0.0
 10
-74.66413747095214
 20
-4.317190416423613
 30
0.0
 10
-74.38752779786125
 20
-4.405754187068055
 30
0.0
 10
-74.24861982692448
 20
-4.454221505134228
 30
0.0
 10
-73.98877674351331
 20
-4.553864800429778
 30
0.0
 10
-73.72359005001033
 20
-4.674569625434628
 30
0.0
 10
-73.60009443369233
 20
-4.735479272460224
 30
0.0
 10
-73.3425152170322
 20
-4.873284565163203
 30
0.0
 10
-73.10784849661025
 20
-5.0203145292312
 30
0.0
 10
-72.98988986887241
 20
-5.100619272581411
 30
0.0
 10
-72.75618215191241
 20
-5.271180481323654
 30
0.0
 10
-72.55866342511843
 20
-5.437379833613931
 30
0.0
 10
-72.46038605644128
 20
-5.52586704675275
 30
0.0
 10
-72.14057777839037
 20
-5.831553795458717
 30
0.0
 10
-71.8983527311874
 20
-6.119197017106671
 30
0.0
 10
-71.74621187830837
 20
-6.319010719236416
 30
0.0
 10
-71.45158353379327
 20
-6.74773346293955
 30
0.0
 10
-71.22006571538133
 20
-7.163473020596711
 30
0.0
 10
-71.10743816702518
 20
-7.386246130055269
 30
0.0
 10
-71.00597917916627
 20
-7.607232640198276
 30
0.0
 10
-70.91364368689517
 20
-7.827463246373099
 30
0.0
  0
LINE
  5
21E82
330
1F
100
AcDbEntity
  8
SKVIEW1
100
AcDbLine
 10
-70.91361446668122
 20
-7.827506999999741
 30
0.0
 11
-69.11793546668139
 21
-8.664846000000011
 31
0.0
  0
LINE
  5
21E83
330
1F
100
AcDbEntity
  8
SKVIEW1
100
AcDbLine
 10
-82.72877246668134
 20
-5.088848999999754
 30
0.0
 11
-82.42108746668135
 21
-5.073372999999946
 31
0.0
  0
ARC
  5
21E84
330
1F
100
AcDbEntity
  8
SKVIEW1
100
AcDbCircle
 10
-89.61142046668134
 20
0.0
 30
0.0
 40
8.8
100
AcDbArc
 50
324.793874999999
 51
332.3860360000019
  0
ELLIPSE
  5
21E85
330
1F
100
AcDbEntity
  8
SKVIEW1
100
AcDbEllipse
 10
-80.25282046668133
 20
-16.8671469999997
 30
0.0
 11
11.24821472167969
 21
6.529606342315674
 31
0.0
210
0.0
220
0.0
230
1.0
 40
0.9888459999999998
 41
0.2457751403417532
 42
1.170344212269113
  0
LINE
  5
21E86
330
1F
100
AcDbEntity
  8
SKVIEW1
100
AcDbLine
 10
-95.0743214666812
 20
2.433800000000132
 30
0.0
 11
-95.0743214666812
 21
2.107285000000047
 31
0.0
  0
LINE
  5
21E87
330
1F
100
AcDbEntity
  8
SKVIEW1
100
AcDbLine
 10
-101.5911234666813
 20
3.95180300000004
 30
0.0
 11
-101.5911234666813
 21
-1.721835999999939
 31
0.0
  0
ARC
  5
21E88
330
1F
100
AcDbEntity
  8
SKVIEW1
100
AcDbCircle
 10
-99.21412946668134
 20
3.376684000000068
 30
0.0
 40
5.625548
100
AcDbArc
 50
245.0044689999999
 51
297.1160469999981
  0
ARC
  5
21E89
330
1F
100
AcDbEntity
  8
SKVIEW1
100
AcDbCircle
 10
-89.61142046668134
 20
0.0
 30
0.0
 40
7.224999999999997
100
AcDbArc
 50
187.5318309999998
 51
241.3521099999945
  0
SPLINE
  5
21E8A
330
1F
100
AcDbEntity
  8
SKVIEW1
100
AcDbSpline
210
0.0
220
0.0
230
1.0
 70
     8
 71
     5
 72
    21
 73
    15
 74
     0
 42
0.000000001
 43
0.0000000001
 40
0.0
 40
0.0
 40
0.0
 40
0.0
 40
0.0
 40
0.0
 40
3.262639040830971
 40
3.262639040830971
 40
3.262639040830971
 40
5.668091772800207
 40
5.668091772800207
 40
5.668091772800207
 40
8.1069651842847
 40
8.1069651842847
 40
8.1069651842847
 40
11.46814211796604
 40
11.46814211796604
 40
11.46814211796604
 40
11.46814211796604
 40
11.46814211796604
 40
11.46814211796604
 10
-101.5911264840763
 20
3.951787043445733
 30
0.0
 10
-101.3785170619154
 20
3.951364894362995
 30
0.0
 10
-101.1400402913983
 20
3.946906329512671
 30
0.0
 10
-100.8661010935973
 20
3.938407032930399
 30
0.0
 10
-100.3333606765414
 20
3.919236510754217
 30
0.0
 10
-99.71020310630217
 20
3.903799934387393
 30
0.0
 10
-99.44113527491538
 20
3.899532825282221
 30
0.0
 10
-98.87331753664637
 20
3.898882422254928
 30
0.0
 10
-98.31510998779926
 20
3.916736028631362
 30
0.0
 10
-98.04593136345637
 20
3.930804665754976
 30
0.0
 10
-97.43035159522641
 20
3.975270857077134
 30
0.0
 10
-96.89610767563738
 20
4.040150289895109
 30
0.0
 10
-96.61310805491632
 20
4.082732537035781
 30
0.0
 10
-96.3584124207033
 20
4.12742250109477
 30
0.0
 10
-96.12705180308845
 20
4.173266321000824
 30
0.0
  0
SPLINE
  5
21E8B
330
1F
100
AcDbEntity
  8
SKVIEW1
100
AcDbSpline
210
0.0
220
0.0
230
1.0
 70
     8
 71
     5
 72
    36
 73
    30
 74
     0
 42
0.000000001
 43
0.0000000001
 40
0.0
 40
0.0
 40
0.0
 40
0.0
 40
0.0
 40
0.0
 40
4.283240168046171
 40
4.283240168046171
 40
4.283240168046171
 40
6.463005400923187
 40
6.463005400923187
 40
6.463005400923187
 40
7.937383396104696
 40
7.937383396104696
 40
7.937383396104696
 40
9.266021214157287
 40
9.266021214157287
 40
9.266021214157287
 40
10.42847923948378
 40
10.42847923948378
 40
10.42847923948378
 40
11.7589169376511
 40
11.7589169376511
 40
11.7589169376511
 40
13.31885510782651
 40
13.31885510782651
 40
13.31885510782651
 40
17.26839643358575
 40
17.26839643358575
 40
17.26839643358575
 40
21.89751609589322
 40
21.89751609589322
 40
21.89751609589322
 40
21.89751609589322
 40
21.89751609589322
 40
21.89751609589322
 10
-101.5911264840763
 20
3.951787043446756
 30
0.0
 10
-101.8704375379762
 20
3.952341632699244
 30
0.0
 10
-102.1558239119293
 20
3.958961062817479
 30
0.0
 10
-102.4430815561353
 20
3.972534185148333
 30
0.0
 10
-102.8995780667263
 20
4.006398614551699
 30
0.0
 10
-103.3896625492592
 20
4.070228163863248
 30
0.0
 10
-103.5560933857042
 20
4.095254651818322
 30
0.0
 10
-103.8499336791743
 20
4.146117495944622
 30
0.0
 10
-104.1644510702043
 20
4.21556373070598
 30
0.0
 10
-104.3006179741651
 20
4.248498813741662
 30
0.0
 10
-104.5587034621781
 20
4.317190416360972
 30
0.0
 10
-104.8353131351353
 20
4.405754186950275
 30
0.0
 10
-104.9742211068822
 20
4.454221505300097
 30
0.0
 10
-105.2340641899512
 20
4.553864800482074
 30
0.0
 10
-105.4992508834121
 20
4.674569625461003
 30
0.0
 10
-105.6227464992722
 20
4.735479272263887
 30
0.0
 10
-105.8803257155123
 20
4.873284564708455
 30
0.0
 10
-106.1149924358122
 20
5.020314528611379
 30
0.0
 10
-106.2329510641942
 20
5.10061927238155
 30
0.0
 10
-106.4666587810844
 20
5.27118048104603
 30
0.0
 10
-106.6641775076962
 20
5.437379833145087
 30
0.0
 10
-106.7624548763934
 20
5.525867046273219
 30
0.0
 10
-107.0822631544962
 20
5.831553794938372
 30
0.0
 10
-107.3244882017043
 20
6.119197016533235
 30
0.0
 10
-107.4766290545663
 20
6.319010718587492
 30
0.0
 10
-107.7712573992354
 20
6.747733462406245
 30
0.0
 10
-108.0027752177421
 20
7.163473020165952
 30
0.0
 10
-108.1154027661753
 20
7.386246129755249
 30
0.0
 10
-108.2168617541063
 20
7.607232640031952
 30
0.0
 10
-108.3091972464654
 20
7.827463246368324
 30
0.0
  0
LINE
  5
21E8C
330
1F
100
AcDbEntity
  8
SKVIEW1
100
AcDbLine
 10
-96.49406846668137
 20
5.088849000000095
 30
0.0
 11
-96.80175346668136
 21
5.07337300000006
 31
0.0
  0
ARC
  5
21E8D
330
1F
100
AcDbEntity
  8
SKVIEW1
100
AcDbCircle
 10
-89.61142046668134
 20
0.0
 30
0.0
 40
8.8
100
AcDbArc
 50
144.793874999999
 51
152.3860360000019
  0
ELLIPSE
  5
21E8E
330
1F
100
AcDbEntity
  8
SKVIEW1
100
AcDbEllipse
 10
-98.97002046668138
 20
16.86714700000004
 30
0.0
 11
11.24821472167968
 21
6.529606819152834
 31
0.0
210
0.0
220
0.0
230
1.0
 40
0.9888459999999998
 41
3.38736779025281
 42
4.311936862112506
  0
LINE
  5
21E8F
330
1F
100
AcDbEntity
  8
SKVIEW1
100
AcDbLine
 10
-108.3092264666812
 20
7.827507000000082
 30
0.0
 11
-110.1049054666812
 21
8.664846000000125
 31
0.0
  0
ARC
  5
21E90
330
1F
100
AcDbEntity
  8
SKVIEW1
100
AcDbCircle
 10
-89.61142046668134
 20
0.0
 30
0.0
 40
22.25
100
AcDbArc
 50
157.0808829999956
 51
257.5416220000047
  0
LINE
  5
21E91
330
1F
100
AcDbEntity
  8
SKVIEW1
100
AcDbLine
 10
-101.5911234666813
 20
-1.721835999999939
 30
0.0
 11
-111.6617444666813
 21
2.974172000000066
 31
0.0
  0
LINE
  5
21E92
330
1F
100
AcDbEntity
  8
SKVIEW1
100
AcDbLine
 10
-89.61142046668134
 20
-8.387205999999991
 30
0.0
 11
-89.61142046668134
 21
-7.296325999999908
 31
0.0
  0
LINE
  5
21E93
330
1F
100
AcDbEntity
  8
SKVIEW1
100
AcDbLine
 10
-94.41142046668131
 20
-10.87999999999976
 30
0.0
 11
-94.41142046668131
 21
-11.55459599999995
 31
0.0
  0
LINE
  5
21E94
330
1F
100
AcDbEntity
  8
SKVIEW1
100
AcDbLine
 10
-94.41142046668131
 20
-10.87999999999976
 30
0.0
 11
-89.61142046668134
 21
-10.87999999999976
 31
0.0
  0
CIRCLE
  5
21E95
330
1F
100
AcDbEntity
  8
SKVIEW1
100
AcDbCircle
 10
-105.1998774666813
 20
-8.999999999999886
 30
0.0
 40
2.25
  0
LINE
  5
21E96
330
1F
100
AcDbEntity
  8
SKVIEW1
100
AcDbLine
 10
-89.61142046668134
 20
-14.26382999999975
 30
0.0
 11
-89.61142046668134
 21
-12.45000899999979
 31
0.0
  0
LINE
  5
21E97
330
1F
100
AcDbEntity
  8
SKVIEW1
100
AcDbLine
 10
-89.61142046668134
 20
-22.25
 30
0.0
 11
-89.61142046668134
 21
-18.29281600000001
 31
0.0
  0
LINE
  5
21E98
330
1F
100
AcDbEntity
  8
SKVIEW1
100
AcDbLine
 10
-89.61142046668134
 20
11.68000000000006
 30
0.0
 11
-89.61142046668134
 21
10.88000000000022
 31
0.0
  0
LINE
  5
21E99
330
1F
100
AcDbEntity
  8
SKVIEW1
100
AcDbLine
 10
-89.61142046668134
 20
21.70000000000005
 30
0.0
 11
-89.61142046668134
 21
11.68000000000006
 31
0.0
  0
LINE
  5
21E9A
330
1F
100
AcDbEntity
  8
SKVIEW1
100
AcDbLine
 10
-89.61142046668134
 20
21.70000000000005
 30
0.0
 11
-89.61142046668134
 21
22.50000000000023
 31
0.0
  0
LINE
  5
21E9B
330
1F
100
AcDbEntity
  8
SKVIEW1
100
AcDbLine
 10
-84.81142046668026
 20
21.82540400000005
 30
0.0
 11
-84.81142046668026
 21
21.70000000000005
 31
0.0
  0
LINE
  5
21E9C
330
1F
100
AcDbEntity
  8
SKVIEW1
100
AcDbLine
 10
-84.81142046668026
 20
21.70000000000005
 30
0.0
 11
-84.81142046668026
 21
11.68000000000006
 31
0.0
  0
LINE
  5
21E9D
330
1F
100
AcDbEntity
  8
SKVIEW1
100
AcDbLine
 10
-84.81142046668026
 20
11.68000000000006
 30
0.0
 11
-84.81142046668026
 21
11.55459600000006
 31
0.0
  0
LINE
  5
21E9E
330
1F
100
AcDbEntity
  8
SKVIEW1
100
AcDbLine
 10
-84.81142046668026
 20
11.55459600000006
 30
0.0
 11
-89.61142046668134
 21
10.88000000000022
 31
0.0
  0
LINE
  5
21E9F
330
1F
100
AcDbEntity
  8
SKVIEW1
100
AcDbLine
 10
-84.81142046668026
 20
11.68000000000006
 30
0.0
 11
-89.61142046668134
 21
11.68000000000006
 31
0.0
  0
LINE
  5
21EA0
330
1F
100
AcDbEntity
  8
SKVIEW1
100
AcDbLine
 10
-84.81142046668026
 20
21.70000000000005
 30
0.0
 11
-89.61142046668134
 21
21.70000000000005
 31
0.0
  0
LINE
  5
21EA1
330
1F
100
AcDbEntity
  8
SKVIEW1
100
AcDbLine
 10
-84.81142046668026
 20
21.82540400000005
 30
0.0
 11
-89.61142046668134
 21
22.50000000000023
 31
0.0
  0
LINE
  5
21EA2
330
1F
100
AcDbEntity
  8
SKVIEW1
100
AcDbLine
 10
-89.61142046668134
 20
22.50000000000023
 30
0.0
 11
-89.61142046668134
 21
21.70000000000005
 31
0.0
  0
LINE
  5
21EA3
330
1F
100
AcDbEntity
  8
SKVIEW1
100
AcDbLine
 10
-89.61142046668134
 20
11.68000000000006
 30
0.0
 11
-89.61142046668134
 21
10.88000000000022
 31
0.0
  0
LINE
  5
21EA4
330
1F
100
AcDbEntity
  8
SKVIEW1
100
AcDbLine
 10
-89.61142046668134
 20
11.68000000000006
 30
0.0
 11
-89.61142046668134
 21
21.70000000000005
 31
0.0
  0
LINE
  5
21EA5
330
1F
100
AcDbEntity
  8
SKVIEW1
100
AcDbLine
 10
-89.61142046668134
 20
-21.69999999999971
 30
0.0
 11
-89.61142046668134
 21
-12.45000099999993
 31
0.0
  0
LINE
  5
21EA6
330
1F
100
AcDbEntity
  8
SKVIEW1
100
AcDbLine
 10
-89.61142046668134
 20
-21.69999999999971
 30
0.0
 11
-89.61142046668134
 21
-22.49999999999977
 31
0.0
  0
LINE
  5
21EA7
330
1F
100
AcDbEntity
  8
SKVIEW1
100
AcDbLine
 10
-94.41142046668131
 20
-21.82540399999971
 30
0.0
 11
-94.41142046668131
 21
-21.69999999999971
 31
0.0
  0
LINE
  5
21EA8
330
1F
100
AcDbEntity
  8
SKVIEW1
100
AcDbLine
 10
-94.41142046668131
 20
-21.69999999999971
 30
0.0
 11
-94.41142046668131
 21
-11.67999999999995
 31
0.0
  0
LINE
  5
21EA9
330
1F
100
AcDbEntity
  8
SKVIEW1
100
AcDbLine
 10
-94.41142046668131
 20
-11.67999999999995
 30
0.0
 11
-94.41142046668131
 21
-11.55459599999995
 31
0.0
  0
LINE
  5
21EAA
330
1F
100
AcDbEntity
  8
SKVIEW1
100
AcDbLine
 10
-94.41142046668131
 20
-11.55459599999995
 30
0.0
 11
-89.61142046668134
 21
-10.87999999999976
 31
0.0
  0
LINE
  5
21EAB
330
1F
100
AcDbEntity
  8
SKVIEW1
100
AcDbLine
 10
-94.41142046668131
 20
-11.67999999999995
 30
0.0
 11
-89.61142046668134
 21
-11.67999999999995
 31
0.0
  0
LINE
  5
21EAC
330
1F
100
AcDbEntity
  8
SKVIEW1
100
AcDbLine
 10
-94.41142046668131
 20
-21.69999999999971
 30
0.0
 11
-89.61142046668134
 21
-21.69999999999971
 31
0.0
  0
LINE
  5
21EAD
330
1F
100
AcDbEntity
  8
SKVIEW1
100
AcDbLine
 10
-94.41142046668131
 20
-21.82540399999971
 30
0.0
 11
-89.61142046668134
 21
-22.49999999999977
 31
0.0
  0
LINE
  5
21EAE
330
1F
100
AcDbEntity
  8
SKVIEW1
100
AcDbLine
 10
-89.61142046668134
 20
-22.49999999999977
 30
0.0
 11
-89.61142046668134
 21
-21.69999999999971
 31
0.0
  0
LINE
  5
21EAF
330
1F
100
AcDbEntity
  8
SKVIEW1
100
AcDbLine
 10
-89.61142046668134
 20
-22.49999999999977
 30
0.0
 11
-89.61142046668134
 21
-21.69999999999971
 31
0.0
  0
LINE
  5
21EB0
330
1F
100
AcDbEntity
  8
SKVIEW1
100
AcDbLine
 10
-89.61142046668134
 20
-21.69999999999971
 30
0.0
 11
-89.61142046668134
 21
-18.29278999999974
 31
0.0
  0
LINE
  5
21EB1
330
1F
100
AcDbEntity
  8
SKVIEW1
100
AcDbLine
 10
-89.61142046668134
 20
-14.26387
 30
0.0
 11
-89.61142046668134
 21
-12.45000899999979
 31
0.0
  0
LINE
  5
21EB2
330
1F
100
AcDbEntity
  8
SKVIEW1
100
AcDbLine
 10
-89.61142046668134
 20
-12.44999999999993
 30
0.0
 11
-89.61142046668134
 21
-21.69999999999971
 31
0.0
  0
ARC
  5
21EB3
330
1F
100
AcDbEntity
  8
SKVIEW1
100
AcDbCircle
 10
-89.61142046668134
 20
0.0
 30
0.0
 40
6.224999999999997
100
AcDbArc
 50
342.137822
 51
352.6431390000022
  0
ARC
  5
21EB4
330
1F
100
AcDbEntity
  8
SKVIEW1
100
AcDbCircle
 10
-96.19419646668132
 20
4.083576000000221
 30
0.0
 40
2.271533
100
AcDbArc
 50
286.8341150000069
 51
303.1627409999992
  0
ARC
  5
21EB5
330
1F
100
AcDbEntity
  8
SKVIEW1
100
AcDbCircle
 10
-83.02864446668138
 20
-4.083575999999766
 30
0.0
 40
2.271533
100
AcDbArc
 50
106.8341150000069
 51
123.1627420000042
  0
LINE
  5
21EB6
330
1F
100
AcDbEntity
  8
SKVIEW1
100
AcDbLine
 10
-82.40631146668135
 20
-0.5357499999997799
 30
0.0
 11
-82.59246146668136
 21
-0.5520360000000438
 31
0.0
  0
ARC
  5
21EB7
330
1F
100
AcDbEntity
  8
SKVIEW1
100
AcDbCircle
 10
-82.39447346668123
 20
-2.814887999999882
 30
0.0
 40
2.271497999999998
100
AcDbArc
 50
95.00035600000099
 51
117.3389259999997
  0
SPLINE
  5
21EB8
330
1F
100
AcDbEntity
  8
SKVIEW1
100
AcDbSpline
210
0.0
220
0.0
230
1.0
 70
     8
 71
     5
 72
    18
 73
    12
 74
     0
 42
0.000000001
 43
0.0000000001
 40
0.0
 40
0.0
 40
0.0
 40
0.0
 40
0.0
 40
0.0
 40
1.709151501560097
 40
1.709151501560097
 40
1.709151501560097
 40
3.337792023596378
 40
3.337792023596378
 40
3.337792023596378
 40
5.432436544223014
 40
5.432436544223014
 40
5.432436544223014
 40
5.432436544223014
 40
5.432436544223014
 40
5.432436544223014
 10
-84.22487782086944
 20
-1.112909242560817
 30
0.0
 10
-84.15956946674521
 20
-0.9535460456246482
 30
0.0
 10
-84.07922581209243
 20
-0.8075137968016861
 30
0.0
 10
-83.98736291773127
 20
-0.6802798889227688
 30
0.0
 10
-83.79409317835722
 20
-0.4668879799895649
 30
0.0
 10
-83.58217093212227
 20
-0.3162687142736331
 30
0.0
 10
-83.47591125143424
 20
-0.2560375850532637
 30
0.0
 10
-83.23006304217427
 20
-0.1463976698635179
 30
0.0
 10
-82.9813517342194
 20
-0.0940711353280222
 30
0.0
 10
-82.84287860253824
 20
-0.0803634907927062
 30
0.0
 10
-82.70608222591215
 20
-0.0801972225385726
 30
0.0
 10
-82.57139099282118
 20
-0.09231291807032
 30
0.0
  0
ARC
  5
21EB9
330
1F
100
AcDbEntity
  8
SKVIEW1
100
AcDbCircle
 10
-82.40146246668121
 20
-1.864076999999952
 30
0.0
 40
1.972054
100
AcDbArc
 50
157.6104829999984
 51
165.438557999997
  0
SPLINE
  5
21EBA
330
1F
100
AcDbEntity
  8
SKVIEW1
100
AcDbSpline
210
0.0
220
0.0
230
1.0
 70
     8
 71
     5
 72
    12
 73
     6
 74
     0
 42
0.000000001
 43
0.0000000001
 40
0.0
 40
0.0
 40
0.0
 40
0.0
 40
0.0
 40
0.0
 40
1.666459234331571
 40
1.666459234331571
 40
1.666459234331571
 40
1.666459234331571
 40
1.666459234331571
 40
1.666459234331571
 10
-84.31014633628331
 20
-1.368273024151108
 30
0.0
 10
-84.34756468899729
 20
-1.513483485529491
 30
0.0
 10
-84.36639971070134
 20
-1.648291470557524
 30
0.0
 10
-84.36851918317719
 20
-1.767208630311529
 30
0.0
 10
-84.36017541734633
 20
-1.860420257644591
 30
0.0
 10
-84.34690844592944
 20
-1.928259834709933
 30
0.0
  0
ARC
  5
21EBB
330
1F
100
AcDbEntity
  8
SKVIEW1
100
AcDbCircle
 10
-82.79989746668126
 20
-1.603738000000021
 30
0.0
 40
1.581017
100
AcDbArc
 50
191.8473490000016
 51
209.0495800000007
  0
ARC
  5
21EBC
330
1F
100
AcDbEntity
  8
SKVIEW1
100
AcDbCircle
 10
-89.61094146668131
 20
-0.0000169999999571
 30
0.0
 40
7.040155999999997
100
AcDbArc
 50
355.5028160000013
 51
359.2488309999968
  0
ARC
  5
21EBD
330
1F
100
AcDbEntity
  8
SKVIEW1
100
AcDbCircle
 10
-89.61142046668134
 20
0.0
 30
0.0
 40
6.224999999999997
100
AcDbArc
 50
162.137822
 51
172.6431390000022
  0
SPLINE
  5
21EBE
330
1F
100
AcDbEntity
  8
SKVIEW1
100
AcDbSpline
210
0.0
220
0.0
230
1.0
 70
     8
 71
     5
 72
    18
 73
    12
 74
     0
 42
0.000000001
 43
0.0000000001
 40
0.0
 40
0.0
 40
0.0
 40
0.0
 40
0.0
 40
0.0
 40
1.70915150267426
 40
1.70915150267426
 40
1.70915150267426
 40
3.337792025759696
 40
3.337792025759696
 40
3.337792025759696
 40
5.432436547652056
 40
5.432436547652056
 40
5.432436547652056
 40
5.432436547652056
 40
5.432436547652056
 40
5.432436547652056
 10
-94.99796311249326
 20
1.112909242560704
 30
0.0
 10
-95.06327146665933
 20
0.9535460455207385
 30
0.0
 10
-95.14361512137531
 20
0.8075137966113743
 30
0.0
 10
-95.23547801575739
 20
0.6802798887608788
 30
0.0
 10
-95.42874775514121
 20
0.4668879798616672
 30
0.0
 10
-95.6406700015192
 20
0.3162687140933258
 30
0.0
 10
-95.74692968234638
 20
0.2560375848631793
 30
0.0
 10
-95.99277789128326
 20
0.1463976698777287
 30
0.0
 10
-96.2414891987593
 20
0.0940711354212454
 30
0.0
 10
-96.37996233065827
 20
0.0803634907937294
 30
0.0
 10
-96.51675870736733
 20
0.0801972225311829
 30
0.0
 10
-96.65144994054015
 20
0.0923129180704336
 30
0.0
  0
ARC
  5
21EBF
330
1F
100
AcDbEntity
  8
SKVIEW1
100
AcDbCircle
 10
-96.8213784666813
 20
1.864077000000065
 30
0.0
 40
1.972054
100
AcDbArc
 50
337.610482999998
 51
345.438557999997
  0
SPLINE
  5
21EC0
330
1F
100
AcDbEntity
  8
SKVIEW1
100
AcDbSpline
210
0.0
220
0.0
230
1.0
 70
     8
 71
     5
 72
    12
 73
     6
 74
     0
 42
0.000000001
 43
0.0000000001
 40
0.0
 40
0.0
 40
0.0
 40
0.0
 40
0.0
 40
0.0
 40
1.666459210656505
 40
1.666459210656505
 40
1.666459210656505
 40
1.666459210656505
 40
1.666459210656505
 40
1.666459210656505
 10
-94.91269459708826
 20
1.368273024112681
 30
0.0
 10
-94.87527624481334
 20
1.513483483779054
 30
0.0
 10
-94.85644122304723
 20
1.648291467571539
 30
0.0
 10
-94.85432175042239
 20
1.767208632959409
 30
0.0
 10
-94.8626655162044
 20
1.860420258602744
 30
0.0
 10
-94.87593248743326
 20
1.928259834709933
 30
0.0
  0
ARC
  5
21EC1
330
1F
100
AcDbEntity
  8
SKVIEW1
100
AcDbCircle
 10
-96.42294346668121
 20
1.603738000000248
 30
0.0
 40
1.581017
100
AcDbArc
 50
11.84734900000205
 51
29.04958000000075
  0
ARC
  5
21EC2
330
1F
100
AcDbEntity
  8
SKVIEW1
100
AcDbCircle
 10
-96.82836746668124
 20
2.814887999999996
 30
0.0
 40
2.271497999999998
100
AcDbArc
 50
275.000356000001
 51
297.3389259999997
  0
ARC
  5
21EC3
330
1F
100
AcDbEntity
  8
SKVIEW1
100
AcDbCircle
 10
-89.61189946668026
 20
0.0000170000000708
 30
0.0
 40
7.040155999999997
100
AcDbArc
 50
175.5028160000013
 51
179.2488309999968
  0
ARC
  5
21EC4
330
1F
100
AcDbEntity
  8
SKVIEW1
100
AcDbCircle
 10
31.16294753331875
 20
55.73031400000025
 30
0.0
 40
137.334871
100
AcDbArc
 50
199.9917830000025
 51
202.0939550000055
  0
ARC
  5
21EC5
330
1F
100
AcDbEntity
  8
SKVIEW1
100
AcDbCircle
 10
-79.13213546668123
 20
9.906114999999999
 30
0.0
 40
18.798102
100
AcDbArc
 50
181.9318970000033
 51
183.4419180000009
  0
ARC
  5
21EC6
330
1F
100
AcDbEntity
  8
SKVIEW1
100
AcDbCircle
 10
-112.0217724666812
 20
-6.899586999999996
 30
0.0
 40
19.347717
100
AcDbArc
 50
28.63302099999677
 51
34.55635400000235
  0
ARC
  5
21EC7
330
1F
100
AcDbEntity
  8
SKVIEW1
100
AcDbCircle
 10
-210.3857884666814
 20
-55.73031400000002
 30
0.0
 40
137.334871
100
AcDbArc
 50
19.99178300000255
 51
22.09395500000554
  0
ARC
  5
21EC8
330
1F
100
AcDbEntity
  8
SKVIEW1
100
AcDbCircle
 10
-100.0901964666812
 20
-9.906091999999944
 30
0.0
 40
18.797593
100
AcDbArc
 50
1.931876000003394
 51
3.441939000000883
  0
ARC
  5
21EC9
330
1F
100
AcDbEntity
  8
SKVIEW1
100
AcDbCircle
 10
-67.20106846668125
 20
6.89958700000011
 30
0.0
 40
19.347717
100
AcDbArc
 50
208.6330209999968
 51
214.5563540000023
  0
ARC
  5
21ECA
330
1F
100
AcDbEntity
  8
SKVIEW1
100
AcDbCircle
 10
-89.61142046668134
 20
0.0
 30
0.0
 40
7.224999999999997
100
AcDbArc
 50
355.7474859999953
 51
63.57538699999577
  0
LINE
  5
21ECB
330
1F
100
AcDbEntity
  8
SKVIEW1
100
AcDbLine
 10
-82.57139146668135
 20
-0.0923129999997627
 30
0.0
 11
-82.38725346668127
 21
-0.1101089999999658
 31
0.0
  0
LINE
  5
21ECC
330
1F
100
AcDbEntity
  8
SKVIEW1
100
AcDbLine
 10
-89.61142046668134
 20
12.07000000000005
 30
0.0
 11
-89.61142046668134
 21
12.45000000000004
 31
0.0
  0
LINE
  5
21ECD
330
1F
100
AcDbEntity
  8
SKVIEW1
100
AcDbLine
 10
-89.61142046668134
 20
8.387205000000108
 30
0.0
 11
-89.61142046668134
 21
12.07000000000005
 31
0.0
  0
ARC
  5
21ECE
330
1F
100
AcDbEntity
  8
SKVIEW1
100
AcDbCircle
 10
-89.3114204666814
 20
7.841764000000239
 30
0.0
 40
0.6225000000000001
100
AcDbArc
 50
118.8113799999997
 51
267.8091209999938
  0
ARC
  5
21ECF
330
1F
100
AcDbEntity
  8
SKVIEW1
100
AcDbCircle
 10
-89.61142046668134
 20
0.0
 30
0.0
 40
7.224999999999997
100
AcDbArc
 50
63.57539900000656
 51
87.80912099999378
  0
LINE
  5
21ED0
330
1F
100
AcDbEntity
  8
SKVIEW1
100
AcDbLine
 10
-89.23618946668133
 20
0.2298680000000104
 30
0.0
 11
-84.22487746668128
 21
-1.112908999999945
 31
0.0
  0
ARC
  5
21ED1
330
1F
100
AcDbEntity
  8
SKVIEW1
100
AcDbCircle
 10
-92.34455246668119
 20
8.369667000000049
 30
0.0
 40
6.244226
100
AcDbArc
 50
335.1081919999988
 51
342.2899169999991
  0
LINE
  5
21ED2
330
1F
100
AcDbEntity
  8
SKVIEW1
100
AcDbLine
 10
-87.89627446668134
 20
3.139553000000091
 30
0.0
 11
-86.68048946668125
 21
5.741481000000021
 31
0.0
  0
SPLINE
  5
21ED3
330
1F
100
AcDbEntity
  8
SKVIEW1
100
AcDbSpline
210
0.0
220
0.0
230
1.0
 70
     8
 71
     5
 72
    24
 73
    18
 74
     0
 42
0.000000001
 43
0.0000000001
 40
0.0
 40
0.0
 40
0.0
 40
0.0
 40
0.0
 40
0.0
 40
26.81824761891841
 40
26.81824761891841
 40
26.81824761891841
 40
42.98523001587064
 40
42.98523001587064
 40
42.98523001587064
 40
49.30294382907434
 40
49.30294382907434
 40
49.30294382907434
 40
52.93960049155202
 40
52.93960049155202
 40
52.93960049155202
 40
53.80982567345228
 40
53.80982567345228
 40
53.80982567345228
 40
53.80982567345228
 40
53.80982567345228
 40
53.80982567345228
 10
-89.23618994236528
 20
0.229867793406811
 30
0.0
 10
-89.22148383704746
 20
0.2665482977387228
 30
0.0
 10
-89.2033640253452
 20
0.3103029305623295
 30
0.0
 10
-89.18131066135231
 20
0.3617417415687214
 30
0.0
 10
-89.13565125037431
 20
0.4670525460084037
 30
0.0
 10
-89.03693867673736
 20
0.6852072789322392
 30
0.0
 10
-88.99102248697829
 20
0.7856736869579209
 30
0.0
 10
-88.90875525045533
 20
0.965301451430264
 30
0.0
 10
-88.71949733383519
 20
1.373443362097873
 30
0.0
 10
-88.65596051832733
 20
1.51023535090519
 30
0.0
 10
-88.5290823231702
 20
1.783095066547957
 30
0.0
 10
-88.33201963511227
 20
2.20583533265767
 30
0.0
 10
-88.2448496693404
 20
2.392791920507988
 30
0.0
 10
-88.12389544404425
 20
2.651987541116682
 30
0.0
 10
-87.98254374358647
 20
2.954785975227991
 30
0.0
 10
-87.95450008548426
 20
3.014855940347047
 30
0.0
 10
-87.92574805494735
 20
3.076434540722743
 30
0.0
 10
-87.89627462947931
 20
3.139553395943721
 30
0.0
  0
LINE
  5
21ED4
330
1F
100
AcDbEntity
  8
SKVIEW1
100
AcDbLine
 10
-88.55977946668133
 20
-0.7994239999999309
 30
0.0
 11
-84.34690846668138
 21
-1.928260000000022
 31
0.0
  0
SPLINE
  5
21ED5
330
1F
100
AcDbEntity
  8
SKVIEW1
100
AcDbSpline
210
0.0
220
0.0
230
1.0
 70
     8
 71
     5
 72
    54
 73
    48
 74
     0
 42
0.000000001
 43
0.0000000001
 40
0.0
 40
0.0
 40
0.0
 40
0.0
 40
0.0
 40
0.0
 40
37.07686176499896
 40
37.07686176499896
 40
37.07686176499896
 40
87.8685517367692
 40
87.8685517367692
 40
87.8685517367692
 40
100.1748970396725
 40
100.1748970396725
 40
100.1748970396725
 40
112.5601668964728
 40
112.5601668964728
 40
112.5601668964728
 40
117.8511606347354
 40
117.8511606347354
 40
117.8511606347354
 40
121.0009830032031
 40
121.0009830032031
 40
121.0009830032031
 40
121.9165276932467
 40
121.9165276932467
 40
121.9165276932467
 40
122.8320723832904
 40
122.8320723832904
 40
122.8320723832904
 40
123.074844715798
 40
123.074844715798
 40
123.074844715798
 40
123.3027970957998
 40
123.3027970957998
 40
123.3027970957998
 40
123.419621843508
 40
123.419621843508
 40
123.419621843508
 40
123.7700915450894
 40
123.7700915450894
 40
123.7700915450894
 40
124.0016655577731
 40
124.0016655577731
 40
124.0016655577731
 40
124.2332395704568
 40
124.2332395704568
 40
124.2332395704568
 40
124.7599951245947
 40
124.7599951245947
 40
124.7599951245947
 40
124.7599951245947
 40
124.7599951245947
 40
124.7599951245947
 10
-89.23618994236528
 20
0.229867793406811
 30
0.0
 10
-89.25652508773726
 20
0.1791471320074152
 30
0.0
 10
-89.26265070308716
 20
0.1466584682073062
 30
0.0
 10
-89.26871296182424
 20
0.1161925114977294
 30
0.0
 10
-89.27454186378339
 20
0.051138973164484
 30
0.0
 10
-89.26759837929845
 20
-0.0063628441624815
 30
0.0
 10
-89.26104812276538
 20
-0.0364367576772793
 30
0.0
 10
-89.24928999647216
 20
-0.0813946730171438
 30
0.0
 10
-89.21959149458633
 20
-0.1467791963355012
 30
0.0
 10
-89.21288402163042
 20
-0.160602033898158
 30
0.0
 10
-89.19747478724241
 20
-0.1906865052482089
 30
0.0
 10
-89.17589190027035
 20
-0.227694970920993
 30
0.0
 10
-89.16319299480131
 20
-0.2480798734072778
 30
0.0
 10
-89.14113455064315
 20
-0.2820101049122741
 30
0.0
 10
-89.10583246461134
 20
-0.329327854661642
 30
0.0
 10
-89.09192377022634
 20
-0.3473247035993836
 30
0.0
 10
-89.06861455070623
 20
-0.3765593294548353
 30
0.0
 10
-89.03605235950033
 20
-0.4138163046497994
 30
0.0
 10
-89.02292300468037
 20
-0.4281940729473491
 30
0.0
 10
-89.00450357551733
 20
-0.4484503640912863
 30
0.0
 10
-88.97610139532423
 20
-0.4775245708412968
 30
0.0
 10
-88.96905516819732
 20
-0.4846361110787712
 30
0.0
 10
-88.9535048628212
 20
-0.5001105849312353
 30
0.0
 10
-88.93396638263823
 20
-0.5188868002948084
 30
0.0
 10
-88.92225999797132
 20
-0.5298402438788799
 30
0.0
 10
-88.9069425557774
 20
-0.5441836875594391
 30
0.0
 10
-88.88351053705639
 20
-0.5649838451612368
 30
0.0
 10
-88.87922474071013
 20
-0.5687750532421206
 30
0.0
 10
-88.86815997897144
 20
-0.5783495615625043
 30
0.0
 10
-88.85623708730634
 20
-0.5885186851951403
 30
0.0
 10
-88.84973790439529
 20
-0.5940787971272812
 30
0.0
 10
-88.83767872081227
 20
-0.6042979193416614
 30
0.0
 10
-88.81522646761926
 20
-0.6225273895897772
 30
0.0
 10
-88.8065644312204
 20
-0.6294953765230958
 30
0.0
 10
-88.77123239723838
 20
-0.6577104799474683
 30
0.0
 10
-88.73354415434221
 20
-0.6868715710293145
 30
0.0
 10
-88.70905238033618
 20
-0.704967607880235
 30
0.0
 10
-88.67938167628029
 20
-0.7252394010317858
 30
0.0
 10
-88.66149860825737
 20
-0.7360398688331316
 30
0.0
 10
-88.65563448409819
 20
-0.7394706665797913
 30
0.0
 10
-88.64398394892225
 20
-0.7467308521518135
 30
0.0
 10
-88.63231683222318
 20
-0.7544419166347325
 30
0.0
 10
-88.62670912236024
 20
-0.7580328993706189
 30
0.0
 10
-88.60878436403629
 20
-0.7694906758692924
 30
0.0
 10
-88.59213662110429
 20
-0.7798615080185983
 30
0.0
 10
-88.58099898329635
 20
-0.7866931321337916
 30
0.0
 10
-88.57023738662736
 20
-0.7931949163443051
 30
0.0
 10
-88.55977979375834
 20
-0.7994243592476096
 30
0.0
  0
LINE
  5
21ED6
330
1F
100
AcDbEntity
  8
SKVIEW1
100
AcDbLine
 10
-84.14936146668139
 20
-3.423577000000022
 30
0.0
 11
-88.55977946668133
 21
-0.7994239999999309
 31
0.0
  0
ARC
  5
21ED7
330
1F
100
AcDbEntity
  8
SKVIEW1
100
AcDbCircle
 10
-93.34040646668119
 20
-18.82338600000003
 30
0.0
 40
17.934108
100
AcDbArc
 50
55.68151300000471
 51
59.17004500000157
  0
LINE
  5
21ED8
330
1F
100
AcDbEntity
  8
SKVIEW1
100
AcDbLine
 10
-83.22924846668128
 20
-4.011251000000015
 30
0.0
 11
-83.13561746668131
 21
-4.075016000000005
 31
0.0
  0
LINE
  5
21ED9
330
1F
100
AcDbEntity
  8
SKVIEW1
100
AcDbLine
 10
-96.81652946668135
 20
0.5357500000002347
 30
0.0
 11
-96.63037946668135
 21
0.5520360000000438
 31
0.0
  0
LINE
  5
21EDA
330
1F
100
AcDbEntity
  8
SKVIEW1
100
AcDbLine
 10
-94.99796346668119
 20
1.112909000000058
 30
0.0
 11
-89.98665146668134
 21
-0.2298680000000104
 31
0.0
  0
LINE
  5
21EDB
330
1F
100
AcDbEntity
  8
SKVIEW1
100
AcDbLine
 10
-96.65144946668135
 20
0.0923130000002175
 30
0.0
 11
-96.8355874666803
 21
0.1101089999999658
 31
0.0
  0
ARC
  5
21EDC
330
1F
100
AcDbEntity
  8
SKVIEW1
100
AcDbCircle
 10
-89.61142046668134
 20
0.0
 30
0.0
 40
7.224999999999997
100
AcDbArc
 50
175.7474859999953
 51
267.8091219999901
  0
ARC
  5
21EDD
330
1F
100
AcDbEntity
  8
SKVIEW1
100
AcDbCircle
 10
-86.87828846668129
 20
-8.369666999999935
 30
0.0
 40
6.244226
100
AcDbArc
 50
155.1081919999988
 51
162.2899169999992
  0
LINE
  5
21EDE
330
1F
100
AcDbEntity
  8
SKVIEW1
100
AcDbLine
 10
-91.32656646668136
 20
-3.13955299999975
 30
0.0
 11
-92.54235146668122
 21
-5.741481000000021
 31
0.0
  0
SPLINE
  5
21EDF
330
1F
100
AcDbEntity
  8
SKVIEW1
100
AcDbSpline
210
0.0
220
0.0
230
1.0
 70
     8
 71
     5
 72
    24
 73
    18
 74
     0
 42
0.000000001
 43
0.0000000001
 40
0.0
 40
0.0
 40
0.0
 40
0.0
 40
0.0
 40
0.0
 40
26.81824762001188
 40
26.81824762001188
 40
26.81824762001188
 40
42.9852300156183
 40
42.9852300156183
 40
42.9852300156183
 40
49.30294382906581
 40
49.30294382906581
 40
49.30294382906581
 40
52.93960049204524
 40
52.93960049204524
 40
52.93960049204524
 40
53.80982567396833
 40
53.80982567396833
 40
53.80982567396833
 40
53.80982567396833
 40
53.80982567396833
 40
53.80982567396833
 10
-89.98665099099719
 20
-0.2298677934066973
 30
0.0
 10
-90.00135709631434
 20
-0.266548297739746
 30
0.0
 10
-90.01947690802024
 20
-0.3103029305673317
 30
0.0
 10
-90.04153027200834
 20
-0.361741741560877
 30
0.0
 10
-90.08718968298229
 20
-0.4670525459998771
 30
0.0
 10
-90.18590225662217
 20
-0.6852072789217801
 30
0.0
 10
-90.23181844637827
 20
-0.7856736869551924
 30
0.0
 10
-90.31408568292624
 20
-0.9653014514684628
 30
0.0
 10
-90.50334359952932
 20
-1.373443362105604
 30
0.0
 10
-90.56688041503424
 20
-1.510235350902803
 30
0.0
 10
-90.69375861019819
 20
-1.783095066562736
 30
0.0
 10
-90.89082129827522
 20
-2.205835332713149
 30
0.0
 10
-90.97799126400548
 20
-2.392791920468084
 30
0.0
 10
-91.09894548929934
 20
-2.65198754107746
 30
0.0
 10
-91.24029718976442
 20
-2.954785975209006
 30
0.0
 10
-91.26834084786731
 20
-3.01485594032772
 30
0.0
 10
-91.29709287840535
 20
-3.076434540706941
 30
0.0
 10
-91.32656630387931
 20
-3.139553395938037
 30
0.0
  0
SPLINE
  5
21EE0
330
1F
100
AcDbEntity
  8
SKVIEW1
100
AcDbSpline
210
0.0
220
0.0
230
1.0
 70
     8
 71
     5
 72
    54
 73
    48
 74
     0
 42
0.000000001
 43
0.0000000001
 40
0.0
 40
0.0
 40
0.0
 40
0.0
 40
0.0
 40
0.0
 40
37.07686175473217
 40
37.07686175473217
 40
37.07686175473217
 40
87.86855175378788
 40
87.86855175378788
 40
87.86855175378788
 40
100.17489706025
 40
100.17489706025
 40
100.17489706025
 40
112.5601669190015
 40
112.5601669190015
 40
112.5601669190015
 40
117.8511607100807
 40
117.8511607100807
 40
117.8511607100807
 40
121.000983067755
 40
121.000983067755
 40
121.000983067755
 40
121.916527730925
 40
121.916527730925
 40
121.916527730925
 40
122.8320723940951
 40
122.8320723940951
 40
122.8320723940951
 40
123.0748447504413
 40
123.0748447504413
 40
123.0748447504413
 40
123.3027971314547
 40
123.3027971314547
 40
123.3027971314547
 40
123.4196219201827
 40
123.4196219201827
 40
123.4196219201827
 40
123.7700917458531
 40
123.7700917458531
 40
123.7700917458531
 40
124.0016658719813
 40
124.0016658719813
 40
124.0016658719813
 40
124.2332399981096
 40
124.2332399981096
 40
124.2332399981096
 40
124.7599952345582
 40
124.7599952345582
 40
124.7599952345582
 40
124.7599952345582
 40
124.7599952345582
 40
124.7599952345582
 10
-89.98665099099719
 20
-0.2298677934066973
 30
0.0
 10
-89.96631584563022
 20
-0.179147132021285
 30
0.0
 10
-89.96019023028237
 20
-0.1466584682259508
 30
0.0
 10
-89.95412797153324
 20
-0.1161925114566884
 30
0.0
 10
-89.94829906957727
 20
-0.0511389731150303
 30
0.0
 10
-89.95524255407429
 20
0.0063628442197796
 30
0.0
 10
-89.96179281061415
 20
0.0364367577143412
 30
0.0
 10
-89.97355093690122
 20
0.0813946730720545
 30
0.0
 10
-90.00324943883322
 20
0.1467791964558955
 30
0.0
 10
-90.00995691179729
 20
0.1606020340288978
 30
0.0
 10
-90.02536614620238
 20
0.1906865054016862
 30
0.0
 10
-90.04694903320922
 20
0.2276949711155112
 30
0.0
 10
-90.05964793870736
 20
0.2480798736427232
 30
0.0
 10
-90.08170638297736
 20
0.2820101052956261
 30
0.0
 10
-90.1170084692543
 20
0.3293278553290975
 30
0.0
 10
-90.13091716330235
 20
0.3473247037788951
 30
0.0
 10
-90.15422638279218
 20
0.3765593296592442
 30
0.0
 10
-90.18678857443422
 20
0.4138163052775781
 30
0.0
 10
-90.1999179296664
 20
0.4281940740025903
 30
0.0
 10
-90.21833735921939
 20
0.448450365558756
 30
0.0
 10
-90.24673953985541
 20
0.4775245726814319
 30
0.0
 10
-90.25378576700438
 20
0.4846361129032175
 30
0.0
 10
-90.26933607205922
 20
0.5001105864253077
 30
0.0
 10
-90.2888745521003
 20
0.5188868015836761
 30
0.0
 10
-90.30058093647031
 20
0.529840244890238
 30
0.0
 10
-90.31589837886519
 20
0.5441836887251839
 30
0.0
 10
-90.33933039787838
 20
0.5649838465546964
 30
0.0
 10
-90.34361619232925
 20
0.568775052962792
 30
0.0
 10
-90.35468095276213
 20
0.5783495601701816
 30
0.0
 10
-90.36660383956624
 20
0.5885186796461995
 30
0.0
 10
-90.37310301855734
 20
0.5940787882258292
 30
0.0
 10
-90.38516219745735
 20
0.6042979067664192
 30
0.0
 10
-90.4076144442555
 20
0.6225273722861857
 30
0.0
 10
-90.41627648392944
 20
0.6294953619344597
 30
0.0
 10
-90.45160852879723
 20
0.6577104743762448
 30
0.0
 10
-90.4892967871782
 20
0.6868715775642614
 30
0.0
 10
-90.51378856850931
 20
0.7049676194261565
 30
0.0
 10
-90.54345927711541
 20
0.725239414161706
 30
0.0
 10
-90.56134234455646
 20
0.7360398804451052
 30
0.0
 10
-90.56720646935231
 20
0.7394706785175913
 30
0.0
 10
-90.57885701002726
 20
0.7467308687624837
 30
0.0
 10
-90.59052413270739
 20
0.7544419374989957
 30
0.0
 10
-90.59613184374336
 20
0.7580329204141663
 30
0.0
 10
-90.61405659507533
 20
0.7694906919947471
 30
0.0
 10
-90.63070433240829
 20
0.7798615203791997
 30
0.0
 10
-90.64184196304642
 20
0.7866931399762507
 30
0.0
 10
-90.65260355304223
 20
0.7931949201012003
 30
0.0
 10
-90.66306113960434
 20
0.7994243592477233
 30
0.0
  0
LINE
  5
21EE1
330
1F
100
AcDbEntity
  8
SKVIEW1
100
AcDbLine
 10
-90.66306146668138
 20
0.7994240000000446
 30
0.0
 11
-94.87593246668131
 21
1.92826000000025
 31
0.0
  0
LINE
  5
21EE2
330
1F
100
AcDbEntity
  8
SKVIEW1
100
AcDbLine
 10
-95.07347946668131
 20
3.42357700000025
 30
0.0
 11
-90.66306146668138
 21
0.7994240000000446
 31
0.0
  0
ARC
  5
21EE3
330
1F
100
AcDbEntity
  8
SKVIEW1
100
AcDbCircle
 10
-85.88243446668128
 20
18.82338600000025
 30
0.0
 40
17.934108
100
AcDbArc
 50
235.6815130000047
 51
239.1700450000016
  0
LINE
  5
21EE4
330
1F
100
AcDbEntity
  8
SKVIEW1
100
AcDbLine
 10
-95.9935924666812
 20
4.011251000000129
 30
0.0
 11
-96.08722346668139
 21
4.075016000000005
 31
0.0
  0
ARC
  5
21EE5
330
1F
100
AcDbEntity
  8
SKVIEW1
100
AcDbCircle
 10
-89.61142046668134
 20
0.0
 30
0.0
 40
7.538053999999998
100
AcDbArc
 50
91.83370999999803
 51
147.8502780000014
  0
ARC
  5
21EE6
330
1F
100
AcDbEntity
  8
SKVIEW1
100
AcDbCircle
 10
-89.61142046668134
 20
0.0
 30
0.0
 40
12.07
100
AcDbArc
 50
90.0
 51
133.3461980000022
  0
ARC
  5
21EE7
330
1F
100
AcDbEntity
  8
SKVIEW1
100
AcDbCircle
 10
-89.61142046668134
 20
0.0
 30
0.0
 40
12.45
100
AcDbArc
 50
90.0
 51
131.860547000001
  0
ARC
  5
21EE8
330
1F
100
AcDbEntity
  8
SKVIEW1
100
AcDbCircle
 10
-89.61142046668134
 20
0.0
 30
0.0
 40
7.538053999999998
100
AcDbArc
 50
271.8337099999981
 51
327.8502780000014
  0
ARC
  5
21EE9
330
1F
100
AcDbEntity
  8
SKVIEW1
100
AcDbCircle
 10
-89.9114204666813
 20
-7.841763999999784
 30
0.0
 40
0.6225000000000001
100
AcDbArc
 50
298.8113799999997
 51
87.80912099999378
  0
LINE
  5
21EEA
330
1F
100
AcDbEntity
  8
SKVIEW1
100
AcDbLine
 10
-89.61142046668134
 20
-8.387204999999994
 30
0.0
 11
-89.61142046668134
 21
-12.06999999999993
 31
0.0
  0
ARC
  5
21EEB
330
1F
100
AcDbEntity
  8
SKVIEW1
100
AcDbCircle
 10
-89.61142046668134
 20
0.0
 30
0.0
 40
12.07
100
AcDbArc
 50
270.0
 51
313.3461980000023
  0
ARC
  5
21EEC
330
1F
100
AcDbEntity
  8
SKVIEW1
100
AcDbCircle
 10
-89.61142046668134
 20
0.0
 30
0.0
 40
12.45
100
AcDbArc
 50
270.0
 51
311.860547000001
  0
LINE
  5
21EED
330
1F
100
AcDbEntity
  8
SKVIEW1
100
AcDbLine
 10
-89.61142046668134
 20
-12.06999999999993
 30
0.0
 11
-89.61142046668134
 21
-12.44999999999993
 31
0.0
  0
ARC
  5
21EEE
330
1F
100
AcDbEntity
  8
SKVIEW1
100
AcDbCircle
 10
-89.61142046668134
 20
0.0
 30
0.0
 40
6.446314
100
AcDbArc
 50
62.95644199999634
 51
147.9208279999974
  0
ARC
  5
21EEF
330
1F
100
AcDbEntity
  8
SKVIEW1
100
AcDbCircle
 10
-89.61142046668134
 20
0.0
 30
0.0
 40
6.446314
100
AcDbArc
 50
242.9564419999963
 51
327.9208279999985
  0
LINE
  5
21EF8
330
1F
100
AcDbEntity
  8
1
100
AcDbLine
 10
36.32000000000369
 20
12.45000000000004
 30
0.0
 11
35.52000000000373
 21
12.45000000000004
 31
0.0
  0
LINE
  5
21EF9
330
1F
100
AcDbEntity
  8
1
100
AcDbLine
 10
36.97817900000371
 20
12.07000000000005
 30
0.0
 11
36.32000000000483
 21
12.45000000000004
 31
0.0
  0
LINE
  5
21EFA
330
1F
100
AcDbEntity
  8
1
100
AcDbLine
 10
37.62755500000469
 20
8.387205000000108
 30
0.0
 11
36.97817900000371
 21
12.07000000000005
 31
0.0
  0
LINE
  5
21EFB
330
1F
100
AcDbEntity
  8
1
100
AcDbLine
 10
37.62755500000469
 20
8.387205000000108
 30
0.0
 11
37.77728400000376
 21
7.534194000000297
 31
0.0
  0
ARC
  5
21EFC
330
1F
100
AcDbEntity
  8
1
100
AcDbCircle
 10
42.62286000000369
 20
8.413454000000001
 30
0.0
 40
4.924732999999998
100
AcDbArc
 50
190.2847689999975
 51
193.1079009999978
  0
ARC
  5
21EFD
330
1F
100
AcDbEntity
  8
1
100
AcDbCircle
 10
42.43640900000366
 20
8.359583000000043
 30
0.0
 40
4.730999999999998
100
AcDbArc
 50
192.9847990000018
 51
203.8542400000041
  0
LINE
  5
21EFE
330
1F
100
AcDbEntity
  8
1
100
AcDbLine
 10
40.96000000000469
 20
0.0
 30
0.0
 11
38.10954400000481
 21
6.446313000000031
 31
0.0
  0
LINE
  5
21EFF
330
1F
100
AcDbEntity
  8
1
100
AcDbLine
 10
27.0600000000037
 20
10.9821740000001
 30
0.0
 11
27.0600000000037
 21
3.693432853534659
 31
0.0
  0
DIMENSION
  5
21F00
330
1F
100
AcDbEntity
  8
SK2
100
AcDbDimension
280
     0
  2
*D16
 10
-34.51722024185722
 20
-8.799999999999949
 30
0.0
 11
-34.51722024185722
 21
-0.1469385065121287
 31
0.0
 70
   160
  1
%%C<>
 71
     5
 42
17.60000000000002
 73
     0
 74
     0
 75
     0
  3
STANDARD
100
AcDbAlignedDimension
 13
-17.89999999999634
 23
8.800000000000068
 33
0.0
 14
-17.89999999999634
 24
-8.799999999999954
 34
0.0
 50
90.0
100
AcDbRotatedDimension
1001
ACAD_DSTYLE_DIMARC_LENGTH_SYMBOL
1070
   379
1070
     1
1001
ACAD_DSTYLE_DIM_LINETYPE
1070
   380
1005
14
1001
ACAD_DSTYLE_DIM_EXT1_LINETYPE
1070
   381
1005
14
1001
ACAD_DSTYLE_DIM_EXT2_LINETYPE
1070
   382
1005
14
1001
ACAD
1000
DSTYLE
1002
{
1070
   172
1070
     1
1002
}
  0
LINE
  5
220DD
330
1F
100
AcDbEntity
  8
4
100
AcDbLine
 10
0.0000000000037517
 20
0.0
 30
0.0
 11
45.13732758861772
 21
0.0
 31
0.0
  0
LWPOLYLINE
  5
220E4
330
1F
100
AcDbEntity
  8
CUT
 48
0.240324
100
AcDbPolyline
 90
       19
 70
     0
 43
0.0
 10
37.82644238021879
 20
7.29659539753235
 42
-0.0123188602446146
 10
37.77725497827459
 20
7.534188912166506
 10
37.62755500000469
 20
8.387205000000108
 10
36.97817900000371
 20
12.07000000000005
 10
36.32000000000369
 20
12.45000000000004
 10
35.52000000000373
 20
12.45000000000004
 10
35.52000000000379
 20
21.70000000000005
 42
0.4142135623730951
 10
34.72000000000378
 20
22.50000000000023
 10
24.7000000000038
 20
22.50000000000004
 42
0.4142135623730951
 10
23.90000000000362
 20
21.70000000000005
 10
23.90000000000378
 20
11.68000000000006
 42
0.4142135623730951
 10
24.7000000000038
 20
10.88000000000022
 10
27.0600000000037
 20
10.88000000000022
 10
27.0600000000037
 20
9.177118000000291
 10
27.0600000000037
 20
3.693259000000125
 10
27.0600000000037
 20
0.0
 10
40.96000000000469
 20
0.0
 10
38.10954410086106
 20
6.446313247830332
 42
-0.0474624745906162
 10
37.82638203397806
 20
7.296562599200186
  0
LWPOLYLINE
  5
220F6
330
1F
100
AcDbEntity
  8
NOCUT
100
AcDbPolyline
 90
        9
 70
     1
 43
0.0
 10
-17.89999999999634
 20
0.0
 10
34.52000000000487
 20
0.0
 10
34.52000000000487
 20
10.66721800000005
 10
34.52000000000487
 20
22.25000000000012
 10
0.0000000000037517
 20
22.25000000000012
 10
0.0000000000037517
 20
10.66721800000005
 10
0.0000000000037517
 20
8.800000000000068
 10
-17.89999999999634
 20
8.800000000000068
 10
-17.89999999999634
 20
4.218945000000189
  0
VIEWPORT
  5
9C00
330
1B
100
AcDbEntity
 67
     1
  8
0
348
3195
100
AcDbViewport
 10
108.2280559557949
 20
71.69854161746989
 30
0.0
 40
251.8950231529317
 41
201.8884082081047
 68
     1
 69
     1
 12
108.2280559557949
 22
71.69854161746989
 13
0.0
 23
0.0
 14
10.0
 24
10.0
 15
10.0
 25
10.0
 16
0.0
 26
0.0
 36
1.0
 17
0.0
 27
0.0
 37
0.0
 42
50.0
 43
0.0
 44
0.0
 45
201.8884082081047
 50
0.0
 51
0.0
 72
   100
 90
   557088
  1

281
     0
 71
     1
 74
     0
110
0.0
120
0.0
130
0.0
111
1.0
121
0.0
131
0.0
112
0.0
122
1.0
132
0.0
 79
     0
146
0.0
170
     0
 61
     5
292
     1
282
     1
141
0.0
142
0.0
 63
   250
421
  3355443
  0
VIEWPORT
  5
9C02
330
1B
100
AcDbEntity
 67
     1
  8
1
348
3195
100
AcDbViewport
 10
143.457083940506
 20
98.18158769607544
 30
0.0
 40
229.5313343048095
 41
157.0905403137207
 68
     2
 69
     2
 12
-44.37697124786255
 22
-35.12342998133886
 13
0.0
 23
0.0
 14
10.0
 24
10.0
 15
10.0
 25
10.0
 16
0.0
 26
0.0
 36
1.0
 17
0.0
 27
0.0
 37
0.0
 42
50.0
 43
0.0
 44
0.0
 45
300.3886240724386
 50
0.0
 51
0.0
 72
   100
 90
   557088
  1

281
     0
 71
     1
 74
     0
110
0.0
120
0.0
130
0.0
111
1.0
121
0.0
131
0.0
112
0.0
122
1.0
132
0.0
 79
     0
146
0.0
170
     0
 61
     5
348
3195
292
     1
282
     1
141
0.0
142
0.0
 63
   250
421
  3355443
  0
ENDSEC
  0
SECTION
  2
OBJECTS
  0
DICTIONARY
  5
3182
330
0
100
AcDbDictionary
281
     1
  3
ACAD_CIP_PREVIOUS_PRODUCT_INFO
350
1B2F4
  3
ACAD_COLOR
350
31A0
  3
ACAD_DETAILVIEWSTYLE
350
1B2F0
  3
ACAD_FIELDLIST
350
20CBF
  3
ACAD_GROUP
350
3183
  3
ACAD_LAYOUT
350
31A5
  3
ACAD_MATERIAL
350
318B
  3
ACAD_MLEADERSTYLE
350
1B221
  3
ACAD_MLINESTYLE
350
3184
  3
ACAD_PLOTSETTINGS
350
31A4
  3
ACAD_PLOTSTYLENAME
350
3189
  3
ACAD_SCALELIST
350
1B1FC
  3
ACAD_SECTIONVIEWSTYLE
350
1B2EE
  3
ACAD_TABLESTYLE
350
31A1
  3
ACAD_VISUALSTYLE
350
318F
  3
ACDB_RECOMPOSE_DATA
350
2212F
  3
AcDbVariableDictionary
350
33A3
  0
DICTIONARY
  5
422A
330
2
100
AcDbDictionary
280
     1
281
     1
  3
ACAD_LAYERFILTERS
360
1B063
  3
ACAD_LAYERSTATES
360
9A1C
  3
ACLYDICTIONARY
360
1B062
  0
DICTIONARY
  5
1B2F5
330
10
100
AcDbDictionary
280
     1
281
     1
  3
ADSK_XREC_LAYER_RECONCILED
360
21B8E
  0
DICTIONARY
  5
1B2F7
330
3F8C
100
AcDbDictionary
280
     1
281
     1
  3
ADSK_XREC_LAYER_RECONCILED
360
21B8F
  0
DICTIONARY
  5
1B2F9
330
9C4A
100
AcDbDictionary
280
     1
281
     1
  3
ADSK_XREC_LAYER_RECONCILED
360
21B90
  0
DICTIONARY
  5
1B2FB
330
9C4B
100
AcDbDictionary
280
     1
281
     1
  3
ADSK_XREC_LAYER_RECONCILED
360
21B91
  0
DICTIONARY
  5
1B2FD
330
9C4D
100
AcDbDictionary
280
     1
281
     1
  3
ADSK_XREC_LAYER_RECONCILED
360
21B92
  0
DICTIONARY
  5
1B2FF
330
9C4E
100
AcDbDictionary
280
     1
281
     1
  3
ADSK_XREC_LAYER_RECONCILED
360
21B93
  0
DICTIONARY
  5
1B301
330
9C4F
100
AcDbDictionary
280
     1
281
     1
  3
ADSK_XREC_LAYER_RECONCILED
360
21B94
  0
DICTIONARY
  5
1B303
330
9C50
100
AcDbDictionary
280
     1
281
     1
  3
ADSK_XREC_LAYER_RECONCILED
360
21B95
  0
DICTIONARY
  5
1B305
330
9C51
100
AcDbDictionary
280
     1
281
     1
  3
ADSK_XREC_LAYER_RECONCILED
360
21B96
  0
DICTIONARY
  5
1B307
330
13335
100
AcDbDictionary
280
     1
281
     1
  3
ADSK_XREC_LAYER_RECONCILED
360
21B97
  0
DICTIONARY
  5
1B309
330
1686E
100
AcDbDictionary
280
     1
281
     1
  3
ADSK_XREC_LAYER_RECONCILED
360
21B98
  0
DICTIONARY
  5
339C
330
1F
100
AcDbDictionary
280
     1
281
     1
  3
ACAD_SORTENTS
360
339D
  0
DICTIONARY
  5
1DE81
330
1B3D7
100
AcDbDictionary
280
     1
281
     1
  0
XRECORD
  5
1B2F4
102
{ACAD_REACTORS
330
3182
102
}
330
3182
100
AcDbXrecord
280
     1
300
ACDLT
300
2015
300
ACDLT_F_S
  0
DICTIONARY
  5
31A0
102
{ACAD_REACTORS
330
3182
102
}
330
3182
100
AcDbDictionary
281
     1
  0
DICTIONARY
  5
1B2F0
102
{ACAD_REACTORS
330
3182
102
}
330
3182
100
AcDbDictionary
281
     1
  3
Imperial24
350
20CB3
  3
Metric50
350
1B2F1
  0
FIELDLIST
  5
20CBF
102
{ACAD_REACTORS
330
3182
102
}
330
3182
100
AcDbIdSet
 90
        0
100
AcDbFieldList
  0
DICTIONARY
  5
3183
102
{ACAD_REACTORS
330
3182
102
}
330
3182
100
AcDbDictionary
281
     1
  0
DICTIONARY
  5
31A5
102
{ACAD_REACTORS
330
3182
102
}
330
3182
100
AcDbDictionary
281
     1
  3
Layout1
350
31A7
  3
Model
350
31A6
  0
DICTIONARY
  5
318B
102
{ACAD_REACTORS
330
3182
102
}
330
3182
100
AcDbDictionary
281
     1
  3
ByBlock
350
318D
  3
ByLayer
350
318C
  3
Global
350
318E
  0
DICTIONARY
  5
1B221
102
{ACAD_REACTORS
330
3182
102
}
330
3182
100
AcDbDictionary
281
     1
  3
Standard
350
1B2ED
  0
DICTIONARY
  5
3184
102
{ACAD_REACTORS
330
3182
102
}
330
3182
100
AcDbDictionary
281
     1
  3
STANDARD
350
3185
  0
DICTIONARY
  5
31A4
102
{ACAD_REACTORS
330
3182
102
}
330
3182
100
AcDbDictionary
281
     1
  0
ACDBDICTIONARYWDFLT
  5
3189
102
{ACAD_REACTORS
330
3182
102
}
330
3182
100
AcDbDictionary
281
     1
  3
Normal
350
318A
100
AcDbDictionaryWithDefault
340
318A
  0
DICTIONARY
  5
1B1FC
102
{ACAD_REACTORS
330
3182
102
}
330
3182
100
AcDbDictionary
281
     1
  3
A0
350
1B1FD
  3
A1
350
1B1FE
  3
A2
350
1B1FF
  3
A3
350
1B200
  3
A4
350
1B201
  3
A5
350
1B202
  3
A6
350
1B203
  3
A7
350
1B204
  3
A8
350
1B205
  3
A9
350
1B206
  3
B0
350
1B207
  3
B1
350
1B208
  3
B2
350
1B209
  3
B3
350
1B20A
  3
B4
350
1B20B
  3
B5
350
1B20C
  3
B6
350
1B20D
  3
B7
350
1B20E
  3
B8
350
1B20F
  3
B9
350
1B210
  3
C0
350
1B211
  3
C1
350
1B212
  3
C2
350
1B213
  3
C3
350
1B214
  3
C4
350
1B215
  3
C5
350
1B216
  3
C6
350
1B217
  3
C7
350
1B218
  3
C8
350
1B219
  3
C9
350
1B21A
  3
D0
350
1B21B
  3
D1
350
1B21C
  3
D2
350
1B21D
  0
DICTIONARY
  5
1B2EE
102
{ACAD_REACTORS
330
3182
102
}
330
3182
100
AcDbDictionary
281
     1
  3
Imperial24
350
20CB1
  3
Metric50
350
1B2EF
  0
DICTIONARY
  5
31A1
102
{ACAD_REACTORS
330
3182
102
}
330
3182
100
AcDbDictionary
281
     1
  3
Standard
350
31A2
  0
DICTIONARY
  5
318F
102
{ACAD_REACTORS
330
3182
102
}
330
3182
100
AcDbDictionary
281
     1
  3
2dWireframe
350
3195
  3
3D Hidden
350
3197
  3
3dWireframe
350
3196
  3
Basic
350
3194
  3
Brighten
350
319B
  3
ColorChange
350
319F
  3
Conceptual
350
3198
  3
Dim
350
319A
  3
EdgeColorOff
350
1B2EC
  3
Facepattern
350
319E
  3
Flat
350
3190
  3
FlatWithEdges
350
3191
  3
Gouraud
350
3192
  3
GouraudWithEdges
350
3193
  3
Hidden
350
1B2E4
  3
JitterOff
350
1B2EA
  3
Linepattern
350
319D
  3
OverhangOff
350
1B2EB
  3
Realistic
350
3199
  3
Shaded
350
1B2E9
  3
Shaded with edges
350
1B2E8
  3
Shades of Gray
350
1B2E5
  3
Sketchy
350
1B2E6
  3
Thicken
350
319C
  3
Wireframe
350
1B2E3
  3
X-Ray
350
1B2E7
  0
XRECORD
  5
2212F
102
{ACAD_REACTORS
330
3182
102
}
330
3182
100
AcDbXrecord
280
     1
 90
        1
330
31A2
  0
DICTIONARY
  5
33A3
102
{ACAD_REACTORS
330
3182
102
}
330
3182
100
AcDbDictionary
281
     1
  3
CANNOSCALE
350
1B222
  3
CMLEADERSTYLE
350
1B30F
  3
CTABLESTYLE
350
33A4
  3
CVIEWDETAILSTYLE
350
1B310
  3
CVIEWSECTIONSTYLE
350
1B311
  3
DIMASSOC
350
9BE8
  3
INDEXCTL
350
9BE7
  3
LAYEREVAL
350
20993
  3
LAYERNOTIFY
350
20994
  3
LIGHTINGUNITS
350
20992
  3
MSLTSCALE
350
20991
  3
SORTENTS
350
9BE6
  0
DICTIONARY
  5
1B063
102
{ACAD_REACTORS
330
422A
102
}
330
422A
100
AcDbDictionary
281
     1
  0
DICTIONARY
  5
9A1C
102
{ACAD_REACTORS
330
422A
102
}
330
422A
100
AcDbDictionary
281
     1
  0
DICTIONARY
  5
1B062
102
{ACAD_REACTORS
330
422A
102
}
330
422A
100
AcDbDictionary
281
     1
1001
ACAD
1000
<All
  0
XRECORD
  5
21B8E
102
{ACAD_REACTORS
330
1B2F5
102
}
330
1B2F5
100
AcDbXrecord
280
     1
290
     1
  0
XRECORD
  5
21B8F
102
{ACAD_REACTORS
330
1B2F7
102
}
330
1B2F7
100
AcDbXrecord
280
     1
290
     1
  0
XRECORD
  5
21B90
102
{ACAD_REACTORS
330
1B2F9
102
}
330
1B2F9
100
AcDbXrecord
280
     1
290
     1
  0
XRECORD
  5
21B91
102
{ACAD_REACTORS
330
1B2FB
102
}
330
1B2FB
100
AcDbXrecord
280
     1
290
     1
  0
XRECORD
  5
21B92
102
{ACAD_REACTORS
330
1B2FD
102
}
330
1B2FD
100
AcDbXrecord
280
     1
290
     1
  0
XRECORD
  5
21B93
102
{ACAD_REACTORS
330
1B2FF
102
}
330
1B2FF
100
AcDbXrecord
280
     1
290
     1
  0
XRECORD
  5
21B94
102
{ACAD_REACTORS
330
1B301
102
}
330
1B301
100
AcDbXrecord
280
     1
290
     1
  0
XRECORD
  5
21B95
102
{ACAD_REACTORS
330
1B303
102
}
330
1B303
100
AcDbXrecord
280
     1
290
     1
  0
XRECORD
  5
21B96
102
{ACAD_REACTORS
330
1B305
102
}
330
1B305
100
AcDbXrecord
280
     1
290
     1
  0
XRECORD
  5
21B97
102
{ACAD_REACTORS
330
1B307
102
}
330
1B307
100
AcDbXrecord
280
     1
290
     1
  0
XRECORD
  5
21B98
102
{ACAD_REACTORS
330
1B309
102
}
330
1B309
100
AcDbXrecord
280
     1
290
     1
  0
SORTENTSTABLE
  5
339D
102
{ACAD_REACTORS
330
339C
102
}
330
339C
100
AcDbSortentsTable
330
1F
331
21EB0
  5
21EC4
331
21EA1
  5
21EB5
331
21E92
  5
21EA6
331
21E83
  5
21E97
331
21E5A
  5
21E6C
331
21E74
  5
21E88
331
21E65
  5
21E79
331
21E3C
  5
21E48
331
21E1E
  5
21E23
331
21E0F
  5
21E14
331
21E00
  5
21E05
331
21DF1
  5
21DF2
331
21EE4
  5
21EF8
331
21ECC
  5
21EE0
331
21EBD
  5
21ED1
331
21EAE
  5
21EC2
331
21E9F
  5
21EB3
331
21DE3
  5
21DE3
331
21E60
  5
21E74
331
21E28
  5
21E34
331
21E19
  5
21E1E
331
21E0A
  5
21E0F
331
21DFB
  5
21E00
331
21EFD
  5
220FB
331
21EEE
  5
220E4
331
21EDF
  5
21EF3
331
21ED6
  5
21EEA
331
21EC7
  5
21EDB
331
21EB8
  5
21ECC
331
21EA9
  5
21EBD
331
21E9A
  5
21EAE
331
21E8B
  5
21E9F
331
21E7C
  5
21E90
331
220E4
  5
21E84
331
21E6D
  5
21E81
331
21E44
  5
21E52
331
21E35
  5
21E41
331
21E26
  5
21E2B
331
21E17
  5
21E1C
331
21DED
  5
21DED
331
21EF8
  5
220F6
331
21EE9
  5
21EFD
331
21EDA
  5
21EEE
331
21ED1
  5
21EE5
331
21EC2
  5
21ED6
331
21EB3
  5
21EC7
331
21EA4
  5
21EB8
331
21E95
  5
21EA9
331
21E86
  5
21E9A
331
21E5D
  5
21E6F
331
21E77
  5
21E8B
331
21E4E
  5
21E60
331
21E68
  5
21E7C
331
21E3F
  5
21E4D
331
21E21
  5
21E26
331
21E12
  5
21E17
331
21EE7
  5
21EFB
331
21E03
  5
21E08
331
21ECF
  5
21EE3
331
21DE8
  5
21DE8
331
21E90
  5
21EA4
331
21E81
  5
21E95
331
21E58
  5
21E6A
331
21E72
  5
21E86
331
21E49
  5
21E5D
331
21E63
  5
21E77
331
21E3A
  5
21E46
331
21E2B
  5
21E3E
331
21E1C
  5
21E21
331
21E0D
  5
21E12
331
21F00
  5
220FE
331
21DFE
  5
21E03
331
21EE2
  5
21EF6
331
21ECA
  5
21EDE
331
21EAC
  5
21EC0
331
220F6
  5
220F5
331
21E9D
  5
21EB1
331
21E8E
  5
21EA2
331
21E7F
  5
21E93
331
21E47
  5
21E59
331
21EBB
  5
21ECF
331
21E08
  5
21E0D
331
21DF9
  5
21DFE
331
21EFB
  5
220F9
331
21EEC
  5
21F00
331
21EDD
  5
21EF1
331
21ED4
  5
21EE8
331
21EC5
  5
21ED9
331
21EB6
  5
21ECA
331
21EA7
  5
21EBB
331
21E98
  5
21EAC
331
21DEB
  5
21DEB
331
21E89
  5
21E9D
331
21E7A
  5
21E8E
331
21E51
  5
21E63
331
21E6B
  5
21E7F
331
21E42
  5
21E50
331
21E33
  5
21E3F
331
21E24
  5
21E29
331
21E15
  5
21E1A
331
21E06
  5
21E0B
331
21DF7
  5
21DFB
331
211A0
  5
211A0
331
21ED8
  5
21EEC
331
21EC0
  5
21ED4
331
21EB1
  5
21EC5
331
21EA2
  5
21EB6
331
21E93
  5
21EA7
331
21E84
  5
21E98
331
21E5B
  5
21E6D
331
21E4C
  5
21E5E
331
21E75
  5
21E89
331
21E66
  5
21E7A
331
21E3D
  5
21E49
331
21E1F
  5
21E24
331
21E10
  5
21E15
331
21E01
  5
21E06
331
220DD
  5
21DF0
331
21EE5
  5
21EF9
331
21ECD
  5
21EE1
331
21EBE
  5
21ED2
331
21EAF
  5
21EC3
331
21DF2
  5
21DF3
331
21E61
  5
21E75
331
21E38
  5
21E44
331
21E29
  5
21E35
331
21E1A
  5
21E1F
331
21E0B
  5
21E10
331
21DFC
  5
21E01
331
21EFE
  5
220FC
331
21EEF
  5
220ED
331
21EE0
  5
21EF4
331
21ED7
  5
21EEB
331
21EC8
  5
21EDC
331
21EB9
  5
21ECD
331
21EAA
  5
21EBE
331
21E9B
  5
21EAF
331
21E8C
  5
21EA0
331
21E7D
  5
21E91
331
21E6E
  5
21E83
331
21E45
  5
21E53
331
21E36
  5
21E42
331
21E27
  5
21E2C
331
21DEE
  5
21DEE
331
21EF9
  5
220F7
331
21EEA
  5
21EFE
331
21EDB
  5
21EEF
331
21ED2
  5
21EE6
331
21EC3
  5
21ED7
331
21EB4
  5
21EC8
331
21EA5
  5
21EB9
331
21E96
  5
21EAA
331
21E87
  5
21E9B
331
21E5E
  5
21E72
331
21E78
  5
21E8C
331
21E4F
  5
21E61
331
21E69
  5
21E7D
331
21E40
  5
21E4E
331
21E22
  5
21E27
331
21E13
  5
21E18
331
21E04
  5
21E09
331
21DE9
  5
21DE9
331
21DE7
  5
21DE7
331
21EA0
  5
21EB4
331
21E91
  5
21EA5
331
21E82
  5
21E96
331
21E59
  5
21E6B
331
21E73
  5
21E87
331
21E64
  5
21E78
331
21E3B
  5
21E47
331
21E1D
  5
21E22
331
21E0E
  5
21E13
331
21DFF
  5
21E04
331
21EE3
  5
21EF7
331
21ECB
  5
21EDF
331
21EBC
  5
21ED0
331
21EAD
  5
21EC1
331
21E9E
  5
21EB2
331
21E8F
  5
21EA3
331
21E57
  5
21E69
331
21DF0
  5
21DF1
331
21E18
  5
21E1D
331
21E09
  5
21E0E
331
21DFA
  5
21DFF
331
21EFC
  5
220FA
331
21EED
  5
220DD
331
21EDE
  5
21EF2
331
21ED5
  5
21EE9
331
21EC6
  5
21EDA
331
21EB7
  5
21ECB
331
21EA8
  5
21EBC
331
21E99
  5
21EAD
331
21E8A
  5
21E9E
331
21E7B
  5
21E8F
331
21E52
  5
21E68
331
21E6C
  5
21E80
331
21E43
  5
21E51
331
21E34
  5
21E40
331
21E25
  5
21E2A
331
21E16
  5
21E1B
331
21E07
  5
21E0C
331
21DEC
  5
21DEC
331
21EE8
  5
21EFC
331
21ED9
  5
21EED
331
21ED0
  5
21EE4
331
21EC1
  5
21ED5
331
21EB2
  5
21EC6
331
21EA3
  5
21EB7
331
21E94
  5
21EA8
331
21E85
  5
21E99
331
21E5C
  5
21E6E
331
21E76
  5
21E8A
331
21E4D
  5
21E5F
331
21E67
  5
21E7B
331
21E3E
  5
21E4A
331
21E20
  5
21E25
331
21E11
  5
21E16
331
21E02
  5
21E07
331
21EE6
  5
21EFA
331
21ECE
  5
21EE2
331
21EBF
  5
21ED3
331
21DF3
  5
21DF4
331
21E80
  5
21E94
331
21E71
  5
21E85
331
21E48
  5
21E5A
331
21E62
  5
21E76
331
21E39
  5
21E45
331
21E2A
  5
21E36
331
21E1B
  5
21E20
331
21E0C
  5
21E11
331
21DFD
  5
21E02
331
21EFF
  5
220FD
331
21EE1
  5
21EF5
331
21EC9
  5
21EDD
331
21EBA
  5
21ECE
331
21EAB
  5
21EBF
331
21E9C
  5
21EB0
331
21E8D
  5
21EA1
331
21E7E
  5
21E92
331
21E46
  5
21E58
331
21E37
  5
21E43
331
21DEF
  5
21DEF
331
21EFA
  5
220F8
331
21EEB
  5
21EFF
331
21EDC
  5
21EF0
331
21ED3
  5
21EE7
331
21EC4
  5
21ED8
331
21EB5
  5
21EC9
331
21EA6
  5
21EBA
331
21E97
  5
21EAB
331
21E88
  5
21E9C
331
21E5F
  5
21E73
331
21E79
  5
21E8D
331
21E50
  5
21E62
331
21E6A
  5
21E7E
331
21E41
  5
21E4F
331
21E23
  5
21E28
331
21E14
  5
21E19
331
21E05
  5
21E0A
331
21DEA
  5
21DEA
  0
ACDBDETAILVIEWSTYLE
  5
20CB3
102
{ACAD_XDICTIONARY
360
2216A
102
}
102
{ACAD_REACTORS
330
1B2F0
102
}
330
1B2F0
100
AcDbModelDocViewStyle
 70
     0
  3
Imperial24
290
     0
100
AcDbDetailViewStyle
 70
     0
 71
     0
 90
        3
 71
     1
340
11
 62
   256
 40
0.24
340
0
 62
   256
 40
0.24
300

 40
0.36
280
     3
 71
     2
340
16
 90
       25
 62
   256
 71
     3
340
11
 62
   256
 40
0.24
 90
        1
 40
0.75
 90
        1
300
%<\AcVar ViewType \f "%tc1">% %<\AcVar ViewDetailId>%\PVARIA %<\AcVar ViewScale \f "%sn">%
 71
     4
340
16
 90
       25
 62
   256
340
16
 90
       25
 62
   256
280
     0
  0
ACDBDETAILVIEWSTYLE
  5
1B2F1
102
{ACAD_XDICTIONARY
360
22166
102
}
102
{ACAD_REACTORS
330
1B2F0
102
}
330
1B2F0
100
AcDbModelDocViewStyle
 70
     0
  3
Metric50
290
     0
100
AcDbDetailViewStyle
 70
     0
 71
     0
 90
        3
 71
     1
340
11
 62
   256
 40
5.0
340
0
 62
   256
 40
5.0
300

 40
0.0
280
     1
 71
     2
340
16
 90
       25
 62
   256
 71
     3
340
11
 62
   256
 40
5.0
 90
        0
 40
15.0
 90
        1
300
%<\AcVar ViewDetailId>% (%<\AcVar ViewScale \f "%sn">%)
 71
     4
340
16
 90
       25
 62
   256
340
16
 90
       25
 62
   256
280
     0
  0
LAYOUT
  5
31A7
102
{ACAD_REACTORS
330
31A5
102
}
330
31A5
100
AcDbPlotSettings
  1

  2
\\ingdc01\ITB3
  4
A4
  6

 40
6.805083274841307
 41
5.027085781097412
 42
6.805068969726562
 43
5.027069091796875
 44
209.9733276367186
 45
296.9683227539062
 46
0.0
 47
0.0
 48
0.0
 49
0.0
140
0.0
141
0.0
142
1.0
143
1.0
 70
   688
 72
     1
 73
     1
 74
     5
  7

 75
    16
147
1.0
 76
     0
 77
     2
 78
   300
148
0.0
149
0.0
100
AcDbLayout
  1
Layout1
 70
     1
 71
     1
 10
-5.027069091796875
 20
-6.805083274841307
 11
291.9412536621094
 21
203.1682443618775
 12
0.0
 22
0.0
 32
0.0
 14
28.69141678810127
 24
19.6363175392151
 34
0.0
 15
258.2227510929107
 25
176.7268578529358
 35
0.0
146
0.0
 13
0.0
 23
0.0
 33
0.0
 16
1.0
 26
0.0
 36
0.0
 17
0.0
 27
1.0
 37
0.0
 76
     0
330
1B
331
9C00
1001
ACAD_PSEXT
1000
\\ingdc01\ITB3
1000
HP LaserJet 5000 Series PCL
1000
TB
1000

1070
     0
  0
LAYOUT
  5
31A6
102
{ACAD_REACTORS
330
31A5
102
}
330
31A5
100
AcDbPlotSettings
  1

  2
\\ingdc01\ITB3
  4
A4
  6

 40
6.805083274841307
 41
5.027085781097412
 42
6.805068969726562
 43
5.027069091796875
 44
209.9733276367186
 45
296.9683227539062
 46
0.0
 47
0.0
 48
0.0
 49
0.0
140
0.0
141
0.0
142
1.0
143
1.500313223655698
 70
 11952
 72
     1
 73
     1
 74
     0
  7

 75
     0
147
0.6665274852163048
 76
     0
 77
     2
 78
   300
148
239.0155119930048
149
102.2558208723354
100
AcDbLayout
  1
Model
 70
     1
 71
     0
 10
0.0
 20
0.0
 11
12.0
 21
9.0
 12
0.0
 22
0.0
 32
0.0
 14
0.0
 24
0.0
 34
0.0
 15
0.0
 25
0.0
 35
0.0
146
0.0
 13
0.0
 23
0.0
 33
0.0
 16
1.0
 26
0.0
 36
0.0
 17
0.0
 27
1.0
 37
0.0
 76
     0
330
1F
331
1F4
1001
ACAD_PSEXT
1000
\\ingdc01\ITB3
1000
HP LaserJet 5000 Series PCL
1000
TB
1000

1070
     0
  0
MATERIAL
  5
318D
102
{ACAD_XDICTIONARY
360
1B22B
102
}
102
{ACAD_REACTORS
330
318B
102
}
330
318B
100
AcDbMaterial
  1
ByBlock
  0
MATERIAL
  5
318C
102
{ACAD_XDICTIONARY
360
1B22D
102
}
102
{ACAD_REACTORS
330
318B
102
}
330
318B
100
AcDbMaterial
  1
ByLayer
  0
MATERIAL
  5
318E
102
{ACAD_XDICTIONARY
360
1B22F
102
}
102
{ACAD_REACTORS
330
318B
102
}
330
318B
100
AcDbMaterial
  1
Global
  0
MLEADERSTYLE
  5
1B2ED
102
{ACAD_REACTORS
330
1B221
102
}
330
1B221
100
AcDbMLeaderStyle
179
     2
170
     2
171
     1
172
     0
 90
        2
 40
0.0
 41
0.0
173
     1
 91
-1056964608
340
14
 92
       -2
290
     1
 42
2.0
291
     1
 43
0.36
  3
Standard
 44
4.0
300

342
11
174
     1
178
     6
175
     1
176
     0
 93
-1056964608
 45
4.0
292
     0
297
     0
 46
4.0
 94
-1056964608
 47
1.0
 49
1.0
140
1.0
293
     1
141
0.0
294
     1
177
     0
142
1.0
295
     0
296
     0
143
0.125
271
     0
272
     9
273
     9
1001
ACAD_MLEADERVER
1070
     2
  0
MLINESTYLE
  5
3185
102
{ACAD_REACTORS
330
3184
102
}
330
3184
100
AcDbMlineStyle
  2
STANDARD
 70
     0
  3

 62
   256
 51
90.0
 52
90.0
 71
     2
 49
0.5
 62
   256
  6
BYLAYER
 49
-0.5
 62
   256
  6
BYLAYER
  0
ACDBPLACEHOLDER
  5
318A
102
{ACAD_REACTORS
330
3189
102
}
330
3189
  0
SCALE
  5
1B1FD
102
{ACAD_REACTORS
330
1B1FC
102
}
330
1B1FC
100
AcDbScale
 70
     0
300
1:1
140
1.0
141
1.0
290
     1
1001
ACAD
1000
AcRTDxfName
1000
SCALE
  0
SCALE
  5
1B1FE
102
{ACAD_REACTORS
330
1B1FC
102
}
330
1B1FC
100
AcDbScale
 70
     0
300
1:2
140
1.0
141
2.0
290
     0
1001
ACAD
1000
AcRTDxfName
1000
SCALE
  0
SCALE
  5
1B1FF
102
{ACAD_REACTORS
330
1B1FC
102
}
330
1B1FC
100
AcDbScale
 70
     0
300
1:4
140
1.0
141
4.0
290
     0
1001
ACAD
1000
AcRTDxfName
1000
SCALE
  0
SCALE
  5
1B200
102
{ACAD_REACTORS
330
1B1FC
102
}
330
1B1FC
100
AcDbScale
 70
     0
300
1:5
140
1.0
141
5.0
290
     0
1001
ACAD
1000
AcRTDxfName
1000
SCALE
  0
SCALE
  5
1B201
102
{ACAD_REACTORS
330
1B1FC
102
}
330
1B1FC
100
AcDbScale
 70
     0
300
1:8
140
1.0
141
8.0
290
     0
1001
ACAD
1000
AcRTDxfName
1000
SCALE
  0
SCALE
  5
1B202
102
{ACAD_REACTORS
330
1B1FC
102
}
330
1B1FC
100
AcDbScale
 70
     0
300
1:10
140
1.0
141
10.0
290
     0
1001
ACAD
1000
AcRTDxfName
1000
SCALE
  0
SCALE
  5
1B203
102
{ACAD_REACTORS
330
1B1FC
102
}
330
1B1FC
100
AcDbScale
 70
     0
300
1:16
140
1.0
141
16.0
290
     0
1001
ACAD
1000
AcRTDxfName
1000
SCALE
  0
SCALE
  5
1B204
102
{ACAD_REACTORS
330
1B1FC
102
}
330
1B1FC
100
AcDbScale
 70
     0
300
1:20
140
1.0
141
20.0
290
     0
1001
ACAD
1000
AcRTDxfName
1000
SCALE
  0
SCALE
  5
1B205
102
{ACAD_REACTORS
330
1B1FC
102
}
330
1B1FC
100
AcDbScale
 70
     0
300
1:30
140
1.0
141
30.0
290
     0
1001
ACAD
1000
AcRTDxfName
1000
SCALE
  0
SCALE
  5
1B206
102
{ACAD_REACTORS
330
1B1FC
102
}
330
1B1FC
100
AcDbScale
 70
     0
300
1:40
140
1.0
141
40.0
290
     0
1001
ACAD
1000
AcRTDxfName
1000
SCALE
  0
SCALE
  5
1B207
102
{ACAD_REACTORS
330
1B1FC
102
}
330
1B1FC
100
AcDbScale
 70
     0
300
1:50
140
1.0
141
50.0
290
     0
1001
ACAD
1000
AcRTDxfName
1000
SCALE
  0
SCALE
  5
1B208
102
{ACAD_REACTORS
330
1B1FC
102
}
330
1B1FC
100
AcDbScale
 70
     0
300
1:100
140
1.0
141
100.0
290
     0
1001
ACAD
1000
AcRTDxfName
1000
SCALE
  0
SCALE
  5
1B209
102
{ACAD_REACTORS
330
1B1FC
102
}
330
1B1FC
100
AcDbScale
 70
     0
300
2:1
140
2.0
141
1.0
290
     0
1001
ACAD
1000
AcRTDxfName
1000
SCALE
  0
SCALE
  5
1B20A
102
{ACAD_REACTORS
330
1B1FC
102
}
330
1B1FC
100
AcDbScale
 70
     0
300
4:1
140
4.0
141
1.0
290
     0
1001
ACAD
1000
AcRTDxfName
1000
SCALE
  0
SCALE
  5
1B20B
102
{ACAD_REACTORS
330
1B1FC
102
}
330
1B1FC
100
AcDbScale
 70
     0
300
8:1
140
8.0
141
1.0
290
     0
1001
ACAD
1000
AcRTDxfName
1000
SCALE
  0
SCALE
  5
1B20C
102
{ACAD_REACTORS
330
1B1FC
102
}
330
1B1FC
100
AcDbScale
 70
     0
300
10:1
140
10.0
141
1.0
290
     0
1001
ACAD
1000
AcRTDxfName
1000
SCALE
  0
SCALE
  5
1B20D
102
{ACAD_REACTORS
330
1B1FC
102
}
330
1B1FC
100
AcDbScale
 70
     0
300
100:1
140
100.0
141
1.0
290
     0
1001
ACAD
1000
AcRTDxfName
1000
SCALE
  0
SCALE
  5
1B20E
102
{ACAD_REACTORS
330
1B1FC
102
}
330
1B1FC
100
AcDbScale
 70
     0
300
1/128" = 1'-0"
140
0.0078125
141
12.0
290
     0
1001
ACAD
1000
AcRTDxfName
1000
SCALE
  0
SCALE
  5
1B20F
102
{ACAD_REACTORS
330
1B1FC
102
}
330
1B1FC
100
AcDbScale
 70
     0
300
1/64" = 1'-0"
140
0.015625
141
12.0
290
     0
1001
ACAD
1000
AcRTDxfName
1000
SCALE
  0
SCALE
  5
1B210
102
{ACAD_REACTORS
330
1B1FC
102
}
330
1B1FC
100
AcDbScale
 70
     0
300
1/32" = 1'-0"
140
0.03125
141
12.0
290
     0
1001
ACAD
1000
AcRTDxfName
1000
SCALE
  0
SCALE
  5
1B211
102
{ACAD_REACTORS
330
1B1FC
102
}
330
1B1FC
100
AcDbScale
 70
     0
300
1/16" = 1'-0"
140
0.0625
141
12.0
290
     0
1001
ACAD
1000
AcRTDxfName
1000
SCALE
  0
SCALE
  5
1B212
102
{ACAD_REACTORS
330
1B1FC
102
}
330
1B1FC
100
AcDbScale
 70
     0
300
3/32" = 1'-0"
140
0.09375
141
12.0
290
     0
1001
ACAD
1000
AcRTDxfName
1000
SCALE
  0
SCALE
  5
1B213
102
{ACAD_REACTORS
330
1B1FC
102
}
330
1B1FC
100
AcDbScale
 70
     0
300
1/8" = 1'-0"
140
0.125
141
12.0
290
     0
1001
ACAD
1000
AcRTDxfName
1000
SCALE
  0
SCALE
  5
1B214
102
{ACAD_REACTORS
330
1B1FC
102
}
330
1B1FC
100
AcDbScale
 70
     0
300
3/16" = 1'-0"
140
0.1875
141
12.0
290
     0
1001
ACAD
1000
AcRTDxfName
1000
SCALE
  0
SCALE
  5
1B215
102
{ACAD_REACTORS
330
1B1FC
102
}
330
1B1FC
100
AcDbScale
 70
     0
300
1/4" = 1'-0"
140
0.25
141
12.0
290
     0
1001
ACAD
1000
AcRTDxfName
1000
SCALE
  0
SCALE
  5
1B216
102
{ACAD_REACTORS
330
1B1FC
102
}
330
1B1FC
100
AcDbScale
 70
     0
300
3/8" = 1'-0"
140
0.375
141
12.0
290
     0
1001
ACAD
1000
AcRTDxfName
1000
SCALE
  0
SCALE
  5
1B217
102
{ACAD_REACTORS
330
1B1FC
102
}
330
1B1FC
100
AcDbScale
 70
     0
300
1/2" = 1'-0"
140
0.5
141
12.0
290
     0
1001
ACAD
1000
AcRTDxfName
1000
SCALE
  0
SCALE
  5
1B218
102
{ACAD_REACTORS
330
1B1FC
102
}
330
1B1FC
100
AcDbScale
 70
     0
300
3/4" = 1'-0"
140
0.75
141
12.0
290
     0
1001
ACAD
1000
AcRTDxfName
1000
SCALE
  0
SCALE
  5
1B219
102
{ACAD_REACTORS
330
1B1FC
102
}
330
1B1FC
100
AcDbScale
 70
     0
300
1" = 1'-0"
140
1.0
141
12.0
290
     0
1001
ACAD
1000
AcRTDxfName
1000
SCALE
  0
SCALE
  5
1B21A
102
{ACAD_REACTORS
330
1B1FC
102
}
330
1B1FC
100
AcDbScale
 70
     0
300
1-1/2" = 1'-0"
140
1.5
141
12.0
290
     0
1001
ACAD
1000
AcRTDxfName
1000
SCALE
  0
SCALE
  5
1B21B
102
{ACAD_REACTORS
330
1B1FC
102
}
330
1B1FC
100
AcDbScale
 70
     0
300
3" = 1'-0"
140
3.0
141
12.0
290
     0
1001
ACAD
1000
AcRTDxfName
1000
SCALE
  0
SCALE
  5
1B21C
102
{ACAD_REACTORS
330
1B1FC
102
}
330
1B1FC
100
AcDbScale
 70
     0
300
6" = 1'-0"
140
6.0
141
12.0
290
     0
1001
ACAD
1000
AcRTDxfName
1000
SCALE
  0
SCALE
  5
1B21D
102
{ACAD_REACTORS
330
1B1FC
102
}
330
1B1FC
100
AcDbScale
 70
     0
300
1'-0" = 1'-0"
140
12.0
141
12.0
290
     0
1001
ACAD
1000
AcRTDxfName
1000
SCALE
  0
ACDBSECTIONVIEWSTYLE
  5
20CB1
102
{ACAD_XDICTIONARY
360
22168
102
}
102
{ACAD_REACTORS
330
1B2EE
102
}
330
1B2EE
100
AcDbModelDocViewStyle
 70
     0
  3
Imperial24
290
     0
100
AcDbSectionViewStyle
 70
     0
 71
     0
 90
       78
 71
     1
340
11
 62
   256
 40
0.24
340
0
340
0
 62
   256
 40
0.24
300
I, O, Q, S, X, Z
 40
0.48
 90
        3
 40
0.18
 90
        1
 71
     2
340
16
 90
       25
 62
   256
340
16
 90
       50
 62
   256
 40
0.24
 40
0.0
 40
0.24
 71
     3
340
11
 62
   256
 40
0.24
 90
        1
 40
0.75
 90
        1
300
%<\AcVar ViewType \f "%tc1">% %<\AcVar ViewSectionStartId>%-%<\AcVar ViewSectionEndId>%\PVARIA %<\AcVar ViewScale \f "%sn">%
 71
     4
 62
   256
 62
   257
300
ANSI31
 40
1.0
 90
        0
290
     0
290
     0
 90
        6
 40
0.0
 40
1.570796326794896
 40
0.2617993877991494
 40
1.308996938995747
 40
-0.2617993877991494
 40
1.832595714594044
  0
ACDBSECTIONVIEWSTYLE
  5
1B2EF
102
{ACAD_XDICTIONARY
360
22164
102
}
102
{ACAD_REACTORS
330
1B2EE
102
}
330
1B2EE
100
AcDbModelDocViewStyle
 70
     0
  3
Metric50
290
     0
100
AcDbSectionViewStyle
 70
     0
 71
     0
 90
      102
 71
     1
340
11
 62
   256
 40
5.0
340
0
340
0
 62
   256
 40
5.0
300
I, O, Q, S, X, Z
 40
10.0
 90
        0
 40
2.5
 90
        0
 71
     2
340
16
 90
       25
 62
   256
340
16
 90
       50
 62
   256
 40
5.0
 40
2.5
 40
5.0
 71
     3
340
11
 62
   256
 40
5.0
 90
        0
 40
15.0
 90
        1
300
%<\AcVar ViewSectionStartId>%-%<\AcVar ViewSectionEndId>% (%<\AcVar ViewScale \f "%sn">%)
 71
     4
 62
   256
 62
   257
300
ANSI31
 40
1.0
 90
        0
290
     0
290
     0
 90
        6
 40
0.0
 40
1.570796326794896
 40
0.2617993877991494
 40
1.308996938995747
 40
-0.2617993877991494
 40
1.832595714594044
  0
TABLESTYLE
  5
31A2
102
{ACAD_XDICTIONARY
360
1B314
102
}
102
{ACAD_REACTORS
330
31A1
102
}
330
31A1
100
AcDbTableStyle
280
     0
  3
Standard
 70
     0
 71
     0
 40
1.5
 41
1.5
280
     0
281
     0
  7
STANDARD
140
4.5
170
     2
 62
     0
 63
     7
283
     0
 90
        4
 91
        0
  1

274
    -2
284
     1
 64
     0
275
    -2
285
     1
 65
     0
276
    -2
286
     1
 66
     0
277
    -2
287
     1
 67
     0
278
    -2
288
     1
 68
     0
279
    -2
289
     1
 69
     0
  7
STANDARD
140
6.0
170
     5
 62
     0
 63
     7
283
     0
 90
        4
 91
        0
  1

274
    -2
284
     1
 64
     0
275
    -2
285
     1
 65
     0
276
    -2
286
     1
 66
     0
277
    -2
287
     1
 67
     0
278
    -2
288
     1
 68
     0
279
    -2
289
     1
 69
     0
  7
STANDARD
140
4.5
170
     5
 62
     0
 63
     7
283
     0
 90
        4
 91
        0
  1

274
    -2
284
     1
 64
     0
275
    -2
285
     1
 65
     0
276
    -2
286
     1
 66
     0
277
    -2
287
     1
 67
     0
278
    -2
288
     1
 68
     0
279
    -2
289
     1
 69
     0
  0
VISUALSTYLE
  5
3195
102
{ACAD_XDICTIONARY
360
2213A
102
}
102
{ACAD_REACTORS
330
318F
102
}
330
318F
100
AcDbVisualStyle
  2

 70
     4
177
     2
291
     0
 71
     0
176
     1
 72
     2
176
     1
 73
     0
176
     1
 90
        0
176
     1
 40
0.6
176
     1
 41
30.0
176
     1
 63
     7
176
     1
 74
     1
176
     1
 91
        4
176
     1
 64
     7
176
     1
 65
   257
176
     1
 75
     1
176
     1
175
     1
176
     1
 42
1.0
176
     1
 92
        0
176
     1
 66
   257
176
     1
 43
1.0
176
     1
 76
     1
176
     1
 77
     6
176
     1
 78
     2
176
     1
 67
     7
176
     1
 79
     5
176
     1
170
     0
176
     1
171
     0
176
     1
290
     0
176
     1
 93
        1
176
     1
 44
0.0
176
     1
173
     0
176
     1
1001
ACAD
1000
AcDbSavedByObjectVersion
1070
     0
  0
VISUALSTYLE
  5
3197
102
{ACAD_XDICTIONARY
360
2213E
102
}
102
{ACAD_REACTORS
330
318F
102
}
330
318F
100
AcDbVisualStyle
  2

 70
     6
177
     2
291
     0
 71
     1
176
     1
 72
     2
176
     1
 73
     2
176
     1
 90
        0
176
     1
 40
0.6
176
     1
 41
30.0
176
     1
 63
     7
176
     1
 74
     2
176
     1
 91
        2
176
     1
 64
     7
176
     1
 65
   257
176
     1
 75
     2
176
     1
175
     1
176
     1
 42
40.0
176
     1
 92
        0
176
     1
 66
   257
176
     1
 43
1.0
176
     1
 76
     1
176
     1
 77
     6
176
     1
 78
     2
176
     1
 67
     7
176
     1
 79
     3
176
     1
170
     0
176
     1
171
     0
176
     1
290
     0
176
     1
 93
        1
176
     1
 44
0.0
176
     1
173
     0
176
     1
1001
ACAD
1000
AcDbSavedByObjectVersion
1070
     0
  0
VISUALSTYLE
  5
3196
102
{ACAD_XDICTIONARY
360
2213C
102
}
102
{ACAD_REACTORS
330
318F
102
}
330
318F
100
AcDbVisualStyle
  2

 70
     5
177
     2
291
     0
 71
     0
176
     1
 72
     2
176
     1
 73
     0
176
     1
 90
        0
176
     1
 40
0.6
176
     1
 41
30.0
176
     1
 63
     7
176
     1
 74
     1
176
     1
 91
        4
176
     1
 64
     7
176
     1
 65
   257
176
     1
 75
     1
176
     1
175
     1
176
     1
 42
1.0
176
     1
 92
        0
176
     1
 66
   257
176
     1
 43
1.0
176
     1
 76
     1
176
     1
 77
     6
176
     1
 78
     2
176
     1
 67
     7
176
     1
 79
     5
176
     1
170
     0
176
     1
171
     0
176
     1
290
     0
176
     1
 93
        1
176
     1
 44
0.0
176
     1
173
     0
176
     1
1001
ACAD
1000
AcDbSavedByObjectVersion
1070
     0
  0
VISUALSTYLE
  5
3194
102
{ACAD_XDICTIONARY
360
22138
102
}
102
{ACAD_REACTORS
330
318F
102
}
330
318F
100
AcDbVisualStyle
  2

 70
     7
177
     2
291
     1
 71
     1
176
     1
 72
     0
176
     1
 73
     1
176
     1
 90
        0
176
     1
 40
0.6
176
     1
 41
30.0
176
     1
 63
     7
176
     1
 74
     0
176
     1
 91
        4
176
     1
 64
     7
176
     1
 65
   257
176
     1
 75
     1
176
     1
175
     1
176
     1
 42
1.0
176
     1
 92
        8
176
     1
 66
     7
176
     1
 43
1.0
176
     1
 76
     1
176
     1
 77
     6
176
     1
 78
     2
176
     1
 67
     7
176
     1
 79
     5
176
     1
170
     0
176
     1
171
     0
176
     1
290
     0
176
     1
 93
        1
176
     1
 44
0.0
176
     1
173
     0
176
     1
1001
ACAD
1000
AcDbSavedByObjectVersion
1070
     0
  0
VISUALSTYLE
  5
319B
102
{ACAD_XDICTIONARY
360
22146
102
}
102
{ACAD_REACTORS
330
318F
102
}
330
318F
100
AcDbVisualStyle
  2

 70
    12
177
     2
291
     1
 71
     2
176
     1
 72
     2
176
     1
 73
     0
176
     1
 90
        0
176
     1
 40
0.6
176
     1
 41
30.0
176
     1
 63
     7
176
     1
 74
     1
176
     1
 91
        4
176
     1
 64
     7
176
     1
 65
   257
176
     1
 75
     1
176
     1
175
     1
176
     1
 42
1.0
176
     1
 92
        8
176
     1
 66
     7
176
     1
 43
1.0
176
     1
 76
     1
176
     1
 77
     6
176
     1
 78
     2
176
     1
 67
     7
176
     1
 79
     5
176
     1
170
     0
176
     1
171
     0
176
     1
290
     0
176
     1
 93
        1
176
     1
 44
50.0
176
     1
173
     0
176
     1
1001
ACAD
1000
AcDbSavedByObjectVersion
1070
     0
  0
VISUALSTYLE
  5
319F
102
{ACAD_XDICTIONARY
360
2214E
102
}
102
{ACAD_REACTORS
330
318F
102
}
330
318F
100
AcDbVisualStyle
  2

 70
    16
177
     2
291
     1
 71
     2
176
     1
 72
     2
176
     1
 73
     3
176
     1
 90
        0
176
     1
 40
0.6
176
     1
 41
30.0
176
     1
 63
     8
176
     1
 74
     1
176
     1
 91
        4
176
     1
 64
     7
176
     1
 65
   257
176
     1
 75
     1
176
     1
175
     1
176
     1
 42
1.0
176
     1
 92
        8
176
     1
 66
     8
176
     1
 43
1.0
176
     1
 76
     1
176
     1
 77
     6
176
     1
 78
     2
176
     1
 67
     7
176
     1
 79
     5
176
     1
170
     0
176
     1
171
     0
176
     1
290
     0
176
     1
 93
        1
176
     1
 44
0.0
176
     1
173
     0
176
     1
1001
ACAD
1000
AcDbSavedByObjectVersion
1070
     0
  0
VISUALSTYLE
  5
3198
102
{ACAD_XDICTIONARY
360
22140
102
}
102
{ACAD_REACTORS
330
318F
102
}
330
318F
100
AcDbVisualStyle
  2

 70
     9
177
     2
291
     0
 71
     3
176
     1
 72
     2
176
     1
 73
     0
176
     1
 90
        0
176
     1
 40
0.6
176
     1
 41
30.0
176
     1
 63
     7
176
     1
 74
     2
176
     1
 91
        2
176
     1
 64
     7
176
     1
 65
   257
176
     1
 75
     1
176
     1
175
     1
176
     1
 42
40.0
176
     1
 92
        8
176
     1
 66
     7
176
     1
 43
1.0
176
     1
 76
     1
176
     1
 77
     6
176
     1
 78
     2
176
     1
 67
     7
176
     1
 79
     3
176
     1
170
     0
176
     1
171
     0
176
     1
290
     0
176
     1
 93
        1
176
     1
 44
0.0
176
     1
173
     0
176
     1
1001
ACAD
1000
AcDbSavedByObjectVersion
1070
     0
  0
VISUALSTYLE
  5
319A
102
{ACAD_XDICTIONARY
360
22144
102
}
102
{ACAD_REACTORS
330
318F
102
}
330
318F
100
AcDbVisualStyle
  2

 70
    11
177
     2
291
     1
 71
     2
176
     1
 72
     2
176
     1
 73
     0
176
     1
 90
        0
176
     1
 40
0.6
176
     1
 41
30.0
176
     1
 63
     7
176
     1
 74
     1
176
     1
 91
        4
176
     1
 64
     7
176
     1
 65
   257
176
     1
 75
     1
176
     1
175
     1
176
     1
 42
1.0
176
     1
 92
        8
176
     1
 66
     7
176
     1
 43
1.0
176
     1
 76
     1
176
     1
 77
     6
176
     1
 78
     2
176
     1
 67
     7
176
     1
 79
     5
176
     1
170
     0
176
     1
171
     0
176
     1
290
     0
176
     1
 93
        1
176
     1
 44
-50.0
176
     1
173
     0
176
     1
1001
ACAD
1000
AcDbSavedByObjectVersion
1070
     0
  0
VISUALSTYLE
  5
1B2EC
102
{ACAD_XDICTIONARY
360
22162
102
}
102
{ACAD_REACTORS
330
318F
102
}
330
318F
100
AcDbVisualStyle
  2

 70
    22
177
     2
291
     1
 71
     2
176
     0
 72
     2
176
     0
 73
     0
176
     0
 90
        0
176
     0
 40
0.6
176
     0
 41
30.0
176
     0
 63
     7
176
     0
 74
     1
176
     0
 91
        4
176
     0
 64
     7
176
     0
 65
   257
176
     0
 75
     1
176
     0
175
     1
176
     0
 42
1.0
176
     0
 92
        8
176
     2
 66
     7
176
     0
 43
1.0
176
     0
 76
     1
176
     0
 77
     6
176
     0
 78
     2
176
     0
 67
     7
176
     0
 79
     5
176
     0
170
     0
176
     0
171
     0
176
     0
290
     0
176
     0
 93
        1
176
     0
 44
0.0
176
     0
173
     0
176
     0
1001
ACAD
1000
AcDbSavedByObjectVersion
1070
     0
  0
VISUALSTYLE
  5
319E
102
{ACAD_XDICTIONARY
360
2214C
102
}
102
{ACAD_REACTORS
330
318F
102
}
330
318F
100
AcDbVisualStyle
  2

 70
    15
177
     2
291
     1
 71
     2
176
     1
 72
     2
176
     1
 73
     0
176
     1
 90
        0
176
     1
 40
0.6
176
     1
 41
30.0
176
     1
 63
     7
176
     1
 74
     1
176
     1
 91
        4
176
     1
 64
     7
176
     1
 65
   257
176
     1
 75
     1
176
     1
175
     1
176
     1
 42
1.0
176
     1
 92
        8
176
     1
 66
     7
176
     1
 43
1.0
176
     1
 76
     1
176
     1
 77
     6
176
     1
 78
     2
176
     1
 67
     7
176
     1
 79
     5
176
     1
170
     0
176
     1
171
     0
176
     1
290
     0
176
     1
 93
        1
176
     1
 44
0.0
176
     1
173
     0
176
     1
1001
ACAD
1000
AcDbSavedByObjectVersion
1070
     0
  0
VISUALSTYLE
  5
3190
102
{ACAD_XDICTIONARY
360
22130
102
}
102
{ACAD_REACTORS
330
318F
102
}
330
318F
100
AcDbVisualStyle
  2

 70
     0
177
     2
291
     1
 71
     2
176
     1
 72
     1
176
     1
 73
     1
176
     1
 90
        2
176
     1
 40
0.6
176
     1
 41
30.0
176
     1
 63
     7
176
     1
 74
     0
176
     1
 91
        4
176
     1
 64
     7
176
     1
 65
   257
176
     1
 75
     1
176
     1
175
     1
176
     1
 42
1.0
176
     1
 92
        8
176
     1
 66
     7
176
     1
 43
1.0
176
     1
 76
     1
176
     1
 77
     6
176
     1
 78
     2
176
     1
 67
     7
176
     1
 79
     5
176
     1
170
     0
176
     1
171
     0
176
     1
290
     0
176
     1
 93
       13
176
     1
 44
0.0
176
     1
173
     0
176
     1
1001
ACAD
1000
AcDbSavedByObjectVersion
1070
     0
  0
VISUALSTYLE
  5
3191
102
{ACAD_XDICTIONARY
360
22132
102
}
102
{ACAD_REACTORS
330
318F
102
}
330
318F
100
AcDbVisualStyle
  2

 70
     1
177
     2
291
     1
 71
     2
176
     1
 72
     1
176
     1
 73
     1
176
     1
 90
        2
176
     1
 40
0.6
176
     1
 41
30.0
176
     1
 63
     7
176
     1
 74
     1
176
     1
 91
        4
176
     1
 64
     7
176
     1
 65
   257
176
     1
 75
     1
176
     1
175
     1
176
     1
 42
1.0
176
     1
 92
        0
176
     1
 66
   257
176
     1
 43
1.0
176
     1
 76
     1
176
     1
 77
     6
176
     1
 78
     2
176
     1
 67
     7
176
     1
 79
     5
176
     1
170
     0
176
     1
171
     0
176
     1
290
     0
176
     1
 93
       13
176
     1
 44
0.0
176
     1
173
     0
176
     1
1001
ACAD
1000
AcDbSavedByObjectVersion
1070
     0
  0
VISUALSTYLE
  5
3192
102
{ACAD_XDICTIONARY
360
22134
102
}
102
{ACAD_REACTORS
330
318F
102
}
330
318F
100
AcDbVisualStyle
  2

 70
     2
177
     2
291
     1
 71
     2
176
     1
 72
     2
176
     1
 73
     1
176
     1
 90
        2
176
     1
 40
0.6
176
     1
 41
30.0
176
     1
 63
     7
176
     1
 74
     0
176
     1
 91
        4
176
     1
 64
     7
176
     1
 65
   257
176
     1
 75
     1
176
     1
175
     1
176
     1
 42
1.0
176
     1
 92
        0
176
     1
 66
     7
176
     1
 43
1.0
176
     1
 76
     1
176
     1
 77
     6
176
     1
 78
     2
176
     1
 67
     7
176
     1
 79
     5
176
     1
170
     0
176
     1
171
     0
176
     1
290
     0
176
     1
 93
       13
176
     1
 44
0.0
176
     1
173
     0
176
     1
1001
ACAD
1000
AcDbSavedByObjectVersion
1070
     0
  0
VISUALSTYLE
  5
3193
102
{ACAD_XDICTIONARY
360
22136
102
}
102
{ACAD_REACTORS
330
318F
102
}
330
318F
100
AcDbVisualStyle
  2

 70
     3
177
     2
291
     1
 71
     2
176
     1
 72
     2
176
     1
 73
     1
176
     1
 90
        2
176
     1
 40
0.6
176
     1
 41
30.0
176
     1
 63
     7
176
     1
 74
     1
176
     1
 91
        4
176
     1
 64
     7
176
     1
 65
   257
176
     1
 75
     1
176
     1
175
     1
176
     1
 42
1.0
176
     1
 92
        0
176
     1
 66
   257
176
     1
 43
1.0
176
     1
 76
     1
176
     1
 77
     6
176
     1
 78
     2
176
     1
 67
     7
176
     1
 79
     5
176
     1
170
     0
176
     1
171
     0
176
     1
290
     0
176
     1
 93
       13
176
     1
 44
0.0
176
     1
173
     0
176
     1
1001
ACAD
1000
AcDbSavedByObjectVersion
1070
     0
  0
VISUALSTYLE
  5
1B2E4
102
{ACAD_XDICTIONARY
360
22152
102
}
102
{ACAD_REACTORS
330
318F
102
}
330
318F
100
AcDbVisualStyle
  2

 70
     6
177
     2
291
     0
 71
     1
176
     1
 72
     2
176
     1
 73
     2
176
     1
 90
        0
176
     1
 40
0.6
176
     1
 41
30.0
176
     1
 63
     7
176
     1
 74
     2
176
     1
 91
        2
176
     1
 64
     7
176
     1
 65
   257
176
     1
 75
     2
176
     1
175
     1
176
     1
 42
40.0
176
     1
 92
        0
176
     1
 66
   257
176
     1
 43
1.0
176
     1
 76
     1
176
     1
 77
     6
176
     1
 78
     2
176
     1
 67
     7
176
     1
 79
     3
176
     1
170
     0
176
     1
171
     0
176
     1
290
     0
176
     1
 93
        1
176
     1
 44
0.0
176
     1
173
     0
176
     1
1001
ACAD
1000
AcDbSavedByObjectVersion
1070
     0
  0
VISUALSTYLE
  5
1B2EA
102
{ACAD_XDICTIONARY
360
2215E
102
}
102
{ACAD_REACTORS
330
318F
102
}
330
318F
100
AcDbVisualStyle
  2

 70
    20
177
     2
291
     1
 71
     2
176
     0
 72
     2
176
     0
 73
     0
176
     0
 90
        0
176
     0
 40
0.6
176
     0
 41
30.0
176
     0
 63
     7
176
     0
 74
     1
176
     0
 91
        4
176
     0
 64
     7
176
     0
 65
   257
176
     0
 75
     1
176
     0
175
     1
176
     0
 42
1.0
176
     0
 92
       10
176
     2
 66
     7
176
     0
 43
1.0
176
     0
 76
     1
176
     0
 77
     6
176
     0
 78
     2
176
     0
 67
     7
176
     0
 79
     5
176
     0
170
     0
176
     0
171
     0
176
     0
290
     0
176
     0
 93
        1
176
     0
 44
0.0
176
     0
173
     0
176
     0
1001
ACAD
1000
AcDbSavedByObjectVersion
1070
     0
  0
VISUALSTYLE
  5
319D
102
{ACAD_XDICTIONARY
360
2214A
102
}
102
{ACAD_REACTORS
330
318F
102
}
330
318F
100
AcDbVisualStyle
  2

 70
    14
177
     2
291
     1
 71
     2
176
     1
 72
     2
176
     1
 73
     0
176
     1
 90
        0
176
     1
 40
0.6
176
     1
 41
30.0
176
     1
 63
     7
176
     1
 74
     1
176
     1
 91
        4
176
     1
 64
     7
176
     1
 65
   257
176
     1
 75
     7
176
     1
175
     7
176
     1
 42
1.0
176
     1
 92
        8
176
     1
 66
     7
176
     1
 43
1.0
176
     1
 76
     1
176
     1
 77
     6
176
     1
 78
     2
176
     1
 67
     7
176
     1
 79
     5
176
     1
170
     0
176
     1
171
     0
176
     1
290
     0
176
     1
 93
        1
176
     1
 44
0.0
176
     1
173
     0
176
     1
1001
ACAD
1000
AcDbSavedByObjectVersion
1070
     0
  0
VISUALSTYLE
  5
1B2EB
102
{ACAD_XDICTIONARY
360
22160
102
}
102
{ACAD_REACTORS
330
318F
102
}
330
318F
100
AcDbVisualStyle
  2

 70
    21
177
     2
291
     1
 71
     2
176
     0
 72
     2
176
     0
 73
     0
176
     0
 90
        0
176
     0
 40
0.6
176
     0
 41
30.0
176
     0
 63
     7
176
     0
 74
     1
176
     0
 91
        4
176
     0
 64
     7
176
     0
 65
   257
176
     0
 75
     1
176
     0
175
     1
176
     0
 42
1.0
176
     0
 92
        9
176
     2
 66
     7
176
     0
 43
1.0
176
     0
 76
     1
176
     0
 77
     6
176
     0
 78
     2
176
     0
 67
     7
176
     0
 79
     5
176
     0
170
     0
176
     0
171
     0
176
     0
290
     0
176
     0
 93
        1
176
     0
 44
0.0
176
     0
173
     0
176
     0
1001
ACAD
1000
AcDbSavedByObjectVersion
1070
     0
  0
VISUALSTYLE
  5
3199
102
{ACAD_XDICTIONARY
360
22142
102
}
102
{ACAD_REACTORS
330
318F
102
}
330
318F
100
AcDbVisualStyle
  2

 70
     8
177
     2
291
     0
 71
     2
176
     1
 72
     2
176
     1
 73
     0
176
     1
 90
        0
176
     1
 40
0.6
176
     1
 41
30.0
176
     1
 63
     7
176
     1
 74
     1
176
     1
 91
        0
176
     1
 64
     7
176
     1
 65
   257
176
     1
 75
     1
176
     1
175
     1
176
     1
 42
1.0
176
     1
 92
        8
176
     1
 66
     8
176
     1
 43
1.0
176
     1
 76
     1
176
     1
 77
     6
176
     1
 78
     2
176
     1
 67
     7
176
     1
 79
     5
176
     1
170
     0
176
     1
171
     0
176
     1
290
     0
176
     1
 93
       13
176
     1
 44
0.0
176
     1
173
     0
176
     1
1001
ACAD
1000
AcDbSavedByObjectVersion
1070
     0
  0
VISUALSTYLE
  5
1B2E9
102
{ACAD_XDICTIONARY
360
2215C
102
}
102
{ACAD_REACTORS
330
318F
102
}
330
318F
100
AcDbVisualStyle
  2

 70
    27
177
     2
291
     0
 71
     2
176
     1
 72
     2
176
     1
 73
     1
176
     1
 90
        2
176
     1
 40
0.6
176
     1
 41
30.0
176
     1
 63
     7
176
     1
 74
     0
176
     1
 91
        4
176
     1
 64
     7
176
     1
 65
   257
176
     1
 75
     1
176
     1
175
     1
176
     1
 42
1.0
176
     1
 92
        8
176
     1
 66
   257
176
     1
 43
1.0
176
     1
 76
     1
176
     1
 77
     6
176
     1
 78
     2
176
     1
 67
     8
176
     1
 79
     3
176
     1
170
     0
176
     1
171
     0
176
     1
290
     0
176
     1
 93
        5
176
     1
 44
0.0
176
     1
173
     0
176
     1
1001
ACAD
1000
AcDbSavedByObjectVersion
1070
     0
  0
VISUALSTYLE
  5
1B2E8
102
{ACAD_XDICTIONARY
360
2215A
102
}
102
{ACAD_REACTORS
330
318F
102
}
330
318F
100
AcDbVisualStyle
  2

 70
    26
177
     2
291
     0
 71
     2
176
     1
 72
     2
176
     1
 73
     1
176
     1
 90
        2
176
     1
 40
0.6
176
     1
 41
30.0
176
     1
 63
     7
176
     1
 74
     1
176
     1
 91
       10
176
     1
 64
     7
176
     1
 65
   257
176
     1
 75
     2
176
     1
175
     1
176
     1
 42
1.0
176
     1
 92
        8
176
     1
 66
   257
176
     1
 43
1.0
176
     1
 76
     1
176
     1
 77
     6
176
     1
 78
     2
176
     1
 67
     7
176
     1
 79
     3
176
     1
170
     0
176
     1
171
     0
176
     1
290
     0
176
     1
 93
        5
176
     1
 44
0.0
176
     1
173
     0
176
     1
1001
ACAD
1000
AcDbSavedByObjectVersion
1070
     0
  0
VISUALSTYLE
  5
1B2E5
102
{ACAD_XDICTIONARY
360
22154
102
}
102
{ACAD_REACTORS
330
318F
102
}
330
318F
100
AcDbVisualStyle
  2

 70
    23
177
     2
291
     0
 71
     2
176
     1
 72
     2
176
     1
 73
     3
176
     1
 90
        0
176
     1
 40
0.6
176
     1
 41
30.0
176
     1
 63
     7
176
     1
 74
     2
176
     1
 91
        2
176
     1
 64
     7
176
     1
 65
     7
176
     1
 75
     1
176
     1
175
     1
176
     1
 42
40.0
176
     1
 92
        8
176
     1
 66
     7
176
     1
 43
1.0
176
     1
 76
     1
176
     1
 77
     6
176
     1
 78
     2
176
     1
 67
     7
176
     1
 79
     3
176
     1
170
     0
176
     1
171
     0
176
     1
290
     0
176
     1
 93
        1
176
     1
 44
0.0
176
     1
173
     0
176
     1
1001
ACAD
1000
AcDbSavedByObjectVersion
1070
     0
  0
VISUALSTYLE
  5
1B2E6
102
{ACAD_XDICTIONARY
360
22156
102
}
102
{ACAD_REACTORS
330
318F
102
}
330
318F
100
AcDbVisualStyle
  2

 70
    24
177
     2
291
     0
 71
     1
176
     1
 72
     2
176
     1
 73
     2
176
     1
 90
        0
176
     1
 40
0.6
176
     1
 41
30.0
176
     1
 63
     7
176
     1
 74
     2
176
     1
 91
        2
176
     1
 64
     7
176
     1
 65
     7
176
     1
 75
     1
176
     1
175
     1
176
     1
 42
40.0
176
     1
 92
       11
176
     1
 66
     7
176
     1
 43
1.0
176
     1
 76
     1
176
     1
 77
     6
176
     1
 78
     2
176
     1
 67
     7
176
     1
 79
     6
176
     1
170
     0
176
     1
171
     0
176
     1
290
     0
176
     1
 93
        1
176
     1
 44
0.0
176
     1
173
     0
176
     1
1001
ACAD
1000
AcDbSavedByObjectVersion
1070
     0
  0
VISUALSTYLE
  5
319C
102
{ACAD_XDICTIONARY
360
22148
102
}
102
{ACAD_REACTORS
330
318F
102
}
330
318F
100
AcDbVisualStyle
  2

 70
    13
177
     2
291
     1
 71
     2
176
     1
 72
     2
176
     1
 73
     0
176
     1
 90
        0
176
     1
 40
0.6
176
     1
 41
30.0
176
     1
 63
     7
176
     1
 74
     1
176
     1
 91
        4
176
     1
 64
     7
176
     1
 65
   257
176
     1
 75
     1
176
     1
175
     1
176
     1
 42
1.0
176
     1
 92
       12
176
     1
 66
     7
176
     1
 43
1.0
176
     1
 76
     1
176
     1
 77
     6
176
     1
 78
     2
176
     1
 67
     7
176
     1
 79
     5
176
     1
170
     0
176
     1
171
     0
176
     1
290
     0
176
     1
 93
        1
176
     1
 44
0.0
176
     1
173
     0
176
     1
1001
ACAD
1000
AcDbSavedByObjectVersion
1070
     0
  0
VISUALSTYLE
  5
1B2E3
102
{ACAD_XDICTIONARY
360
22150
102
}
102
{ACAD_REACTORS
330
318F
102
}
330
318F
100
AcDbVisualStyle
  2

 70
     5
177
     2
291
     0
 71
     0
176
     1
 72
     2
176
     1
 73
     0
176
     1
 90
        0
176
     1
 40
0.6
176
     1
 41
30.0
176
     1
 63
     7
176
     1
 74
     1
176
     1
 91
        4
176
     1
 64
     7
176
     1
 65
   257
176
     1
 75
     1
176
     1
175
     1
176
     1
 42
1.0
176
     1
 92
        0
176
     1
 66
   257
176
     1
 43
1.0
176
     1
 76
     1
176
     1
 77
     6
176
     1
 78
     2
176
     1
 67
     7
176
     1
 79
     3
176
     1
170
     0
176
     1
171
     0
176
     1
290
     0
176
     1
 93
        1
176
     1
 44
0.0
176
     1
173
     0
176
     1
1001
ACAD
1000
AcDbSavedByObjectVersion
1070
     0
  0
VISUALSTYLE
  5
1B2E7
102
{ACAD_XDICTIONARY
360
22158
102
}
102
{ACAD_REACTORS
330
318F
102
}
330
318F
100
AcDbVisualStyle
  2

 70
    25
177
     2
291
     0
 71
     2
176
     1
 72
     2
176
     1
 73
     1
176
     1
 90
        1
176
     1
 40
0.5
176
     1
 41
30.0
176
     1
 63
     7
176
     1
 74
     1
176
     1
 91
        0
176
     1
 64
     7
176
     1
 65
   257
176
     1
 75
     1
176
     1
175
     1
176
     1
 42
1.0
176
     1
 92
        8
176
     1
 66
     7
176
     1
 43
1.0
176
     1
 76
     1
176
     1
 77
     6
176
     1
 78
     2
176
     1
 67
     7
176
     1
 79
     3
176
     1
170
     0
176
     1
171
     0
176
     1
290
     0
176
     1
 93
       13
176
     1
 44
0.0
176
     1
173
     0
176
     1
1001
ACAD
1000
AcDbSavedByObjectVersion
1070
     0
  0
DICTIONARYVAR
  5
1B222
102
{ACAD_REACTORS
330
33A3
102
}
330
33A3
100
DictionaryVariables
280
     0
  1
1:1
  0
DICTIONARYVAR
  5
1B30F
102
{ACAD_REACTORS
330
33A3
102
}
330
33A3
100
DictionaryVariables
280
     0
  1
STANDARD
  0
DICTIONARYVAR
  5
33A4
102
{ACAD_REACTORS
330
33A3
102
}
330
33A3
100
DictionaryVariables
280
     0
  1
STANDARD
  0
DICTIONARYVAR
  5
1B310
102
{ACAD_REACTORS
330
33A3
102
}
330
33A3
100
DictionaryVariables
280
     0
  1
Metric50
  0
DICTIONARYVAR
  5
1B311
102
{ACAD_REACTORS
330
33A3
102
}
330
33A3
100
DictionaryVariables
280
     0
  1
Metric50
  0
DICTIONARYVAR
  5
9BE8
102
{ACAD_REACTORS
330
33A3
102
}
330
33A3
100
DictionaryVariables
280
     0
  1
1
  0
DICTIONARYVAR
  5
9BE7
102
{ACAD_REACTORS
330
33A3
102
}
330
33A3
100
DictionaryVariables
280
     0
  1
0
  0
DICTIONARYVAR
  5
20993
102
{ACAD_REACTORS
330
33A3
102
}
330
33A3
100
DictionaryVariables
280
     0
  1
1
  0
DICTIONARYVAR
  5
20994
102
{ACAD_REACTORS
330
33A3
102
}
330
33A3
100
DictionaryVariables
280
     0
  1
15
  0
DICTIONARYVAR
  5
20992
102
{ACAD_REACTORS
330
33A3
102
}
330
33A3
100
DictionaryVariables
280
     0
  1
0
  0
DICTIONARYVAR
  5
20991
102
{ACAD_REACTORS
330
33A3
102
}
330
33A3
100
DictionaryVariables
280
     0
  1
0
  0
DICTIONARYVAR
  5
9BE6
102
{ACAD_REACTORS
330
33A3
102
}
330
33A3
100
DictionaryVariables
280
     0
  1
127
  0
DICTIONARY
  5
2216A
330
20CB3
100
AcDbDictionary
280
     1
281
     1
  3
ACAD_XREC_ROUNDTRIP
360
2216B
  0
DICTIONARY
  5
22166
330
1B2F1
100
AcDbDictionary
280
     1
281
     1
  3
ACAD_XREC_ROUNDTRIP
360
22167
  0
DICTIONARY
  5
1B22B
330
318D
100
AcDbDictionary
280
     1
281
     1
  3
ACAD_XREC_ROUNDTRIP
360
1B22C
  0
DICTIONARY
  5
1B22D
330
318C
100
AcDbDictionary
280
     1
281
     1
  3
ACAD_XREC_ROUNDTRIP
360
1B22E
  0
DICTIONARY
  5
1B22F
330
318E
100
AcDbDictionary
280
     1
281
     1
  3
ACAD_XREC_ROUNDTRIP
360
1B230
  0
DICTIONARY
  5
22168
330
20CB1
100
AcDbDictionary
280
     1
281
     1
  3
ACAD_XREC_ROUNDTRIP
360
22169
  0
DICTIONARY
  5
22164
330
1B2EF
100
AcDbDictionary
280
     1
281
     1
  3
ACAD_XREC_ROUNDTRIP
360
22165
  0
DICTIONARY
  5
1B314
330
31A2
100
AcDbDictionary
280
     1
281
     1
  3
ACAD_ROUNDTRIP_2008_TABLESTYLE_CELLSTYLEMAP
360
2212E
  0
DICTIONARY
  5
2213A
330
3195
100
AcDbDictionary
280
     1
281
     1
  3
ACAD_XREC_ROUNDTRIP
360
2213B
  0
DICTIONARY
  5
2213E
330
3197
100
AcDbDictionary
280
     1
281
     1
  3
ACAD_XREC_ROUNDTRIP
360
2213F
  0
DICTIONARY
  5
2213C
330
3196
100
AcDbDictionary
280
     1
281
     1
  3
ACAD_XREC_ROUNDTRIP
360
2213D
  0
DICTIONARY
  5
22138
330
3194
100
AcDbDictionary
280
     1
281
     1
  3
ACAD_XREC_ROUNDTRIP
360
22139
  0
DICTIONARY
  5
22146
330
319B
100
AcDbDictionary
280
     1
281
     1
  3
ACAD_XREC_ROUNDTRIP
360
22147
  0
DICTIONARY
  5
2214E
330
319F
100
AcDbDictionary
280
     1
281
     1
  3
ACAD_XREC_ROUNDTRIP
360
2214F
  0
DICTIONARY
  5
22140
330
3198
100
AcDbDictionary
280
     1
281
     1
  3
ACAD_XREC_ROUNDTRIP
360
22141
  0
DICTIONARY
  5
22144
330
319A
100
AcDbDictionary
280
     1
281
     1
  3
ACAD_XREC_ROUNDTRIP
360
22145
  0
DICTIONARY
  5
22162
330
1B2EC
100
AcDbDictionary
280
     1
281
     1
  3
ACAD_XREC_ROUNDTRIP
360
22163
  0
DICTIONARY
  5
2214C
330
319E
100
AcDbDictionary
280
     1
281
     1
  3
ACAD_XREC_ROUNDTRIP
360
2214D
  0
DICTIONARY
  5
22130
330
3190
100
AcDbDictionary
280
     1
281
     1
  3
ACAD_XREC_ROUNDTRIP
360
22131
  0
DICTIONARY
  5
22132
330
3191
100
AcDbDictionary
280
     1
281
     1
  3
ACAD_XREC_ROUNDTRIP
360
22133
  0
DICTIONARY
  5
22134
330
3192
100
AcDbDictionary
280
     1
281
     1
  3
ACAD_XREC_ROUNDTRIP
360
22135
  0
DICTIONARY
  5
22136
330
3193
100
AcDbDictionary
280
     1
281
     1
  3
ACAD_XREC_ROUNDTRIP
360
22137
  0
DICTIONARY
  5
22152
330
1B2E4
100
AcDbDictionary
280
     1
281
     1
  3
ACAD_XREC_ROUNDTRIP
360
22153
  0
DICTIONARY
  5
2215E
330
1B2EA
100
AcDbDictionary
280
     1
281
     1
  3
ACAD_XREC_ROUNDTRIP
360
2215F
  0
DICTIONARY
  5
2214A
330
319D
100
AcDbDictionary
280
     1
281
     1
  3
ACAD_XREC_ROUNDTRIP
360
2214B
  0
DICTIONARY
  5
22160
330
1B2EB
100
AcDbDictionary
280
     1
281
     1
  3
ACAD_XREC_ROUNDTRIP
360
22161
  0
DICTIONARY
  5
22142
330
3199
100
AcDbDictionary
280
     1
281
     1
  3
ACAD_XREC_ROUNDTRIP
360
22143
  0
DICTIONARY
  5
2215C
330
1B2E9
100
AcDbDictionary
280
     1
281
     1
  3
ACAD_XREC_ROUNDTRIP
360
2215D
  0
DICTIONARY
  5
2215A
330
1B2E8
100
AcDbDictionary
280
     1
281
     1
  3
ACAD_XREC_ROUNDTRIP
360
2215B
  0
DICTIONARY
  5
22154
330
1B2E5
100
AcDbDictionary
280
     1
281
     1
  3
ACAD_XREC_ROUNDTRIP
360
22155
  0
DICTIONARY
  5
22156
330
1B2E6
100
AcDbDictionary
280
     1
281
     1
  3
ACAD_XREC_ROUNDTRIP
360
22157
  0
DICTIONARY
  5
22148
330
319C
100
AcDbDictionary
280
     1
281
     1
  3
ACAD_XREC_ROUNDTRIP
360
22149
  0
DICTIONARY
  5
22150
330
1B2E3
100
AcDbDictionary
280
     1
281
     1
  3
ACAD_XREC_ROUNDTRIP
360
22151
  0
DICTIONARY
  5
22158
330
1B2E7
100
AcDbDictionary
280
     1
281
     1
  3
ACAD_XREC_ROUNDTRIP
360
22159
  0
XRECORD
  5
2216B
102
{ACAD_REACTORS
330
2216A
102
}
330
2216A
100
AcDbXrecord
280
     1
102
DISPLAYNAME
  1
Imperial24
102
FLAGS
 90
        0
  0
XRECORD
  5
22167
102
{ACAD_REACTORS
330
22166
102
}
330
22166
100
AcDbXrecord
280
     1
102
DISPLAYNAME
  1
Metric50
102
FLAGS
 90
        0
  0
XRECORD
  5
1B22C
102
{ACAD_REACTORS
330
1B22B
102
}
330
1B22B
100
AcDbXrecord
280
     1
102
MATERIAL
148
0.0
149
0.0
149
0.0
 93
        0
 94
      127
282
     0
 72
     1
 77
     1
171
     1
175
     1
179
     1
273
     0
  0
XRECORD
  5
1B22E
102
{ACAD_REACTORS
330
1B22D
102
}
330
1B22D
100
AcDbXrecord
280
     1
102
MATERIAL
148
0.0
149
0.0
149
0.0
 93
        0
 94
      127
282
     0
 72
     1
 77
     1
171
     1
175
     1
179
     1
273
     0
  0
XRECORD
  5
1B230
102
{ACAD_REACTORS
330
1B22F
102
}
330
1B22F
100
AcDbXrecord
280
     1
102
MATERIAL
148
0.0
149
0.0
149
0.0
 93
        0
 94
      127
282
     0
 72
     1
 77
     1
171
     1
175
     1
179
     1
273
     0
  0
XRECORD
  5
22169
102
{ACAD_REACTORS
330
22168
102
}
330
22168
100
AcDbXrecord
280
     1
102
DISPLAYNAME
  1
Imperial24
102
FLAGS
 90
        0
  0
XRECORD
  5
22165
102
{ACAD_REACTORS
330
22164
102
}
330
22164
100
AcDbXrecord
280
     1
102
DISPLAYNAME
  1
Metric50
102
FLAGS
 90
        0
  0
CELLSTYLEMAP
  5
2212E
102
{ACAD_REACTORS
330
1B314
102
}
330
1B314
100
AcDbCellStyleMap
 90
        3
300
CELLSTYLE
  1
TABLEFORMAT_BEGIN
 90
        5
170
     1
 91
        0
 92
    32768
 62
   257
 93
        1
300
CONTENTFORMAT
  1
CONTENTFORMAT_BEGIN
 90
        0
 91
        0
 92
        4
 93
        0
300

 40
0.0
140
1.0
 94
        5
 62
     0
340
11
144
6.0
309
CONTENTFORMAT_END
171
     1
301
MARGIN
  1
CELLMARGIN_BEGIN
 40
1.5
 40
1.5
 40
1.5
 40
1.5
 40
0.18
 40
0.18
309
CELLMARGIN_END
 94
        6
 95
        1
302
GRIDFORMAT
  1
GRIDFORMAT_BEGIN
 90
        0
 91
        1
 62
     0
 92
       -2
340
0
 93
        0
 40
0.045
309
GRIDFORMAT_END
 95
        2
302
GRIDFORMAT
  1
GRIDFORMAT_BEGIN
 90
        0
 91
        1
 62
     0
 92
       -2
340
0
 93
        0
 40
0.045
309
GRIDFORMAT_END
 95
        4
302
GRIDFORMAT
  1
GRIDFORMAT_BEGIN
 90
        0
 91
        1
 62
     0
 92
       -2
340
0
 93
        0
 40
0.045
309
GRIDFORMAT_END
 95
        8
302
GRIDFORMAT
  1
GRIDFORMAT_BEGIN
 90
        0
 91
        1
 62
     0
 92
       -2
340
0
 93
        0
 40
0.045
309
GRIDFORMAT_END
 95
       16
302
GRIDFORMAT
  1
GRIDFORMAT_BEGIN
 90
        0
 91
        1
 62
     0
 92
       -2
340
0
 93
        0
 40
0.045
309
GRIDFORMAT_END
 95
       32
302
GRIDFORMAT
  1
GRIDFORMAT_BEGIN
 90
        0
 91
        1
 62
     0
 92
       -2
340
0
 93
        0
 40
0.045
309
GRIDFORMAT_END
309
TABLEFORMAT_END
  1
CELLSTYLE_BEGIN
 90
        1
 91
        1
300
_TITLE
309
CELLSTYLE_END
300
CELLSTYLE
  1
TABLEFORMAT_BEGIN
 90
        5
170
     1
 91
        0
 92
        0
 62
   257
 93
        1
300
CONTENTFORMAT
  1
CONTENTFORMAT_BEGIN
 90
        0
 91
        0
 92
        4
 93
        0
300

 40
0.0
140
1.0
 94
        5
 62
     0
340
11
144
4.5
309
CONTENTFORMAT_END
171
     1
301
MARGIN
  1
CELLMARGIN_BEGIN
 40
1.5
 40
1.5
 40
1.5
 40
1.5
 40
0.18
 40
0.18
309
CELLMARGIN_END
 94
        6
 95
        1
302
GRIDFORMAT
  1
GRIDFORMAT_BEGIN
 90
        0
 91
        1
 62
     0
 92
       -2
340
0
 93
        0
 40
0.045
309
GRIDFORMAT_END
 95
        2
302
GRIDFORMAT
  1
GRIDFORMAT_BEGIN
 90
        0
 91
        1
 62
     0
 92
       -2
340
0
 93
        0
 40
0.045
309
GRIDFORMAT_END
 95
        4
302
GRIDFORMAT
  1
GRIDFORMAT_BEGIN
 90
        0
 91
        1
 62
     0
 92
       -2
340
0
 93
        0
 40
0.045
309
GRIDFORMAT_END
 95
        8
302
GRIDFORMAT
  1
GRIDFORMAT_BEGIN
 90
        0
 91
        1
 62
     0
 92
       -2
340
0
 93
        0
 40
0.045
309
GRIDFORMAT_END
 95
       16
302
GRIDFORMAT
  1
GRIDFORMAT_BEGIN
 90
        0
 91
        1
 62
     0
 92
       -2
340
0
 93
        0
 40
0.045
309
GRIDFORMAT_END
 95
       32
302
GRIDFORMAT
  1
GRIDFORMAT_BEGIN
 90
        0
 91
        1
 62
     0
 92
       -2
340
0
 93
        0
 40
0.045
309
GRIDFORMAT_END
309
TABLEFORMAT_END
  1
CELLSTYLE_BEGIN
 90
        2
 91
        1
300
_HEADER
309
CELLSTYLE_END
300
CELLSTYLE
  1
TABLEFORMAT_BEGIN
 90
        5
170
     1
 91
        0
 92
        0
 62
   257
 93
        1
300
CONTENTFORMAT
  1
CONTENTFORMAT_BEGIN
 90
        0
 91
        0
 92
        4
 93
        0
300

 40
0.0
140
1.0
 94
        2
 62
     0
340
11
144
4.5
309
CONTENTFORMAT_END
171
     1
301
MARGIN
  1
CELLMARGIN_BEGIN
 40
1.5
 40
1.5
 40
1.5
 40
1.5
 40
0.18
 40
0.18
309
CELLMARGIN_END
 94
        6
 95
        1
302
GRIDFORMAT
  1
GRIDFORMAT_BEGIN
 90
        0
 91
        1
 62
     0
 92
       -2
340
0
 93
        0
 40
0.045
309
GRIDFORMAT_END
 95
        2
302
GRIDFORMAT
  1
GRIDFORMAT_BEGIN
 90
        0
 91
        1
 62
     0
 92
       -2
340
0
 93
        0
 40
0.045
309
GRIDFORMAT_END
 95
        4
302
GRIDFORMAT
  1
GRIDFORMAT_BEGIN
 90
        0
 91
        1
 62
     0
 92
       -2
340
0
 93
        0
 40
0.045
309
GRIDFORMAT_END
 95
        8
302
GRIDFORMAT
  1
GRIDFORMAT_BEGIN
 90
        0
 91
        1
 62
     0
 92
       -2
340
0
 93
        0
 40
0.045
309
GRIDFORMAT_END
 95
       16
302
GRIDFORMAT
  1
GRIDFORMAT_BEGIN
 90
        0
 91
        1
 62
     0
 92
       -2
340
0
 93
        0
 40
0.045
309
GRIDFORMAT_END
 95
       32
302
GRIDFORMAT
  1
GRIDFORMAT_BEGIN
 90
        0
 91
        1
 62
     0
 92
       -2
340
0
 93
        0
 40
0.045
309
GRIDFORMAT_END
309
TABLEFORMAT_END
  1
CELLSTYLE_BEGIN
 90
        3
 91
        2
300
_DATA
309
CELLSTYLE_END
  0
XRECORD
  5
2213B
102
{ACAD_REACTORS
330
2213A
102
}
330
2213A
100
AcDbXrecord
280
     1
102
RTVSPost2010Prop28
280
     1
102
RTVSPost2010PropOp28
 70
     1
102
RTVSPost2010Prop29
280
     1
102
RTVSPost2010PropOp29
 70
     1
102
RTVSPost2010Prop30
280
     0
102
RTVSPost2010PropOp30
 70
     1
102
RTVSPost2010Prop31
280
     0
102
RTVSPost2010PropOp31
 70
     1
102
RTVSPost2010Prop32
280
     0
102
RTVSPost2010PropOp32
 70
     1
102
RTVSPost2010Prop33
280
     0
102
RTVSPost2010PropOp33
 70
     1
102
RTVSPost2010Prop34
280
     0
102
RTVSPost2010PropOp34
 70
     1
102
RTVSPost2010Prop35
280
     0
102
RTVSPost2010PropOp35
 70
     1
102
RTVSPost2010Prop36
280
     0
102
RTVSPost2010PropOp36
 70
     1
102
RTVSPost2010Prop37
 90
       50
102
RTVSPost2010PropOp37
 70
     1
102
RTVSPost2010Prop38
140
0.0
102
RTVSPost2010PropOp38
 70
     1
102
RTVSPost2010Prop39
140
1.0
102
RTVSPost2010PropOp39
 70
     1
102
RTVSPost2010Prop40
 90
        0
102
RTVSPost2010PropOp40
 70
     1
102
RTVSPost2010Prop41ColorIndex
 90
       18
102
RTVSPost2010Prop41ColorRGB
 90
        0
102
RTVSPost2010PropOp41
 70
     1
102
RTVSPost2010Prop42
 90
       50
102
RTVSPost2010PropOp42
 70
     1
102
RTVSPost2010Prop43
 90
        3
102
RTVSPost2010PropOp43
 70
     1
102
RTVSPost2010Prop44ColorIndex
 90
        5
102
RTVSPost2010Prop44ColorRGB
 90
      255
102
RTVSPost2010PropOp44
 70
     1
102
RTVSPost2010Prop45
280
     0
102
RTVSPost2010PropOp45
 70
     1
102
RTVSPost2010Prop46
 90
       50
102
RTVSPost2010PropOp46
 70
     1
102
RTVSPost2010Prop47
 90
       50
102
RTVSPost2010PropOp47
 70
     1
102
RTVSPost2010Prop48
 90
       50
102
RTVSPost2010PropOp48
 70
     1
102
RTVSPost2010Prop49
280
     0
102
RTVSPost2010PropOp49
 70
     1
102
RTVSPost2010Prop50
 90
       50
102
RTVSPost2010PropOp50
 70
     1
102
RTVSPost2010Prop51ColorIndex
 90
      256
102
RTVSPost2010Prop51ColorRGB
 90
-16777216
102
RTVSPost2010PropOp51
 70
     0
102
RTVSPost2010Prop52
140
1.0
102
RTVSPost2010PropOp52
 70
     0
102
RTVSPost2010Prop53
 90
        2
102
RTVSPost2010PropOp53
 70
     1
102
RTVSPost2010Prop54
  1
strokes_ogs.tif
102
RTVSPost2010PropOp54
 70
     1
102
RTVSPost2010Prop55
280
     0
102
RTVSPost2010PropOp55
 70
     1
102
RTVSPost2010Prop56
140
1.0
102
RTVSPost2010PropOp56
 70
     1
102
RTVSPost2010Prop57
140
1.0
102
RTVSPost2010PropOp57
 70
     1
  0
XRECORD
  5
2213F
102
{ACAD_REACTORS
330
2213E
102
}
330
2213E
100
AcDbXrecord
280
     1
102
RTVSPost2010Prop28
280
     0
102
RTVSPost2010PropOp28
 70
     1
102
RTVSPost2010Prop29
280
     1
102
RTVSPost2010PropOp29
 70
     1
102
RTVSPost2010Prop30
280
     1
102
RTVSPost2010PropOp30
 70
     1
102
RTVSPost2010Prop31
280
     0
102
RTVSPost2010PropOp31
 70
     1
102
RTVSPost2010Prop32
280
     0
102
RTVSPost2010PropOp32
 70
     1
102
RTVSPost2010Prop33
280
     0
102
RTVSPost2010PropOp33
 70
     1
102
RTVSPost2010Prop34
280
     0
102
RTVSPost2010PropOp34
 70
     1
102
RTVSPost2010Prop35
280
     0
102
RTVSPost2010PropOp35
 70
     1
102
RTVSPost2010Prop36
280
     0
102
RTVSPost2010PropOp36
 70
     1
102
RTVSPost2010Prop37
 90
       50
102
RTVSPost2010PropOp37
 70
     1
102
RTVSPost2010Prop38
140
0.0
102
RTVSPost2010PropOp38
 70
     1
102
RTVSPost2010Prop39
140
1.0
102
RTVSPost2010PropOp39
 70
     1
102
RTVSPost2010Prop40
 90
        0
102
RTVSPost2010PropOp40
 70
     1
102
RTVSPost2010Prop41ColorIndex
 90
       18
102
RTVSPost2010Prop41ColorRGB
 90
        0
102
RTVSPost2010PropOp41
 70
     1
102
RTVSPost2010Prop42
 90
       50
102
RTVSPost2010PropOp42
 70
     1
102
RTVSPost2010Prop43
 90
        3
102
RTVSPost2010PropOp43
 70
     1
102
RTVSPost2010Prop44ColorIndex
 90
        5
102
RTVSPost2010Prop44ColorRGB
 90
      255
102
RTVSPost2010PropOp44
 70
     1
102
RTVSPost2010Prop45
280
     0
102
RTVSPost2010PropOp45
 70
     1
102
RTVSPost2010Prop46
 90
       50
102
RTVSPost2010PropOp46
 70
     1
102
RTVSPost2010Prop47
 90
       50
102
RTVSPost2010PropOp47
 70
     1
102
RTVSPost2010Prop48
 90
       50
102
RTVSPost2010PropOp48
 70
     1
102
RTVSPost2010Prop49
280
     0
102
RTVSPost2010PropOp49
 70
     1
102
RTVSPost2010Prop50
 90
       50
102
RTVSPost2010PropOp50
 70
     1
102
RTVSPost2010Prop51ColorIndex
 90
      256
102
RTVSPost2010Prop51ColorRGB
 90
-16777216
102
RTVSPost2010PropOp51
 70
     0
102
RTVSPost2010Prop52
140
1.0
102
RTVSPost2010PropOp52
 70
     0
102
RTVSPost2010Prop53
 90
        2
102
RTVSPost2010PropOp53
 70
     1
102
RTVSPost2010Prop54
  1
strokes_ogs.tif
102
RTVSPost2010PropOp54
 70
     1
102
RTVSPost2010Prop55
280
     0
102
RTVSPost2010PropOp55
 70
     1
102
RTVSPost2010Prop56
140
1.0
102
RTVSPost2010PropOp56
 70
     1
102
RTVSPost2010Prop57
140
1.0
102
RTVSPost2010PropOp57
 70
     1
  0
XRECORD
  5
2213D
102
{ACAD_REACTORS
330
2213C
102
}
330
2213C
100
AcDbXrecord
280
     1
102
RTVSPost2010Prop28
280
     0
102
RTVSPost2010PropOp28
 70
     1
102
RTVSPost2010Prop29
280
     1
102
RTVSPost2010PropOp29
 70
     1
102
RTVSPost2010Prop30
280
     1
102
RTVSPost2010PropOp30
 70
     1
102
RTVSPost2010Prop31
280
     0
102
RTVSPost2010PropOp31
 70
     1
102
RTVSPost2010Prop32
280
     0
102
RTVSPost2010PropOp32
 70
     1
102
RTVSPost2010Prop33
280
     0
102
RTVSPost2010PropOp33
 70
     1
102
RTVSPost2010Prop34
280
     0
102
RTVSPost2010PropOp34
 70
     1
102
RTVSPost2010Prop35
280
     0
102
RTVSPost2010PropOp35
 70
     1
102
RTVSPost2010Prop36
280
     0
102
RTVSPost2010PropOp36
 70
     1
102
RTVSPost2010Prop37
 90
       50
102
RTVSPost2010PropOp37
 70
     1
102
RTVSPost2010Prop38
140
0.0
102
RTVSPost2010PropOp38
 70
     1
102
RTVSPost2010Prop39
140
1.0
102
RTVSPost2010PropOp39
 70
     1
102
RTVSPost2010Prop40
 90
        0
102
RTVSPost2010PropOp40
 70
     1
102
RTVSPost2010Prop41ColorIndex
 90
       18
102
RTVSPost2010Prop41ColorRGB
 90
        0
102
RTVSPost2010PropOp41
 70
     1
102
RTVSPost2010Prop42
 90
       50
102
RTVSPost2010PropOp42
 70
     1
102
RTVSPost2010Prop43
 90
        3
102
RTVSPost2010PropOp43
 70
     1
102
RTVSPost2010Prop44ColorIndex
 90
        5
102
RTVSPost2010Prop44ColorRGB
 90
      255
102
RTVSPost2010PropOp44
 70
     1
102
RTVSPost2010Prop45
280
     0
102
RTVSPost2010PropOp45
 70
     1
102
RTVSPost2010Prop46
 90
       50
102
RTVSPost2010PropOp46
 70
     1
102
RTVSPost2010Prop47
 90
       50
102
RTVSPost2010PropOp47
 70
     1
102
RTVSPost2010Prop48
 90
       50
102
RTVSPost2010PropOp48
 70
     1
102
RTVSPost2010Prop49
280
     0
102
RTVSPost2010PropOp49
 70
     1
102
RTVSPost2010Prop50
 90
       50
102
RTVSPost2010PropOp50
 70
     1
102
RTVSPost2010Prop51ColorIndex
 90
      256
102
RTVSPost2010Prop51ColorRGB
 90
-16777216
102
RTVSPost2010PropOp51
 70
     0
102
RTVSPost2010Prop52
140
1.0
102
RTVSPost2010PropOp52
 70
     0
102
RTVSPost2010Prop53
 90
        2
102
RTVSPost2010PropOp53
 70
     1
102
RTVSPost2010Prop54
  1
strokes_ogs.tif
102
RTVSPost2010PropOp54
 70
     1
102
RTVSPost2010Prop55
280
     0
102
RTVSPost2010PropOp55
 70
     1
102
RTVSPost2010Prop56
140
1.0
102
RTVSPost2010PropOp56
 70
     1
102
RTVSPost2010Prop57
140
1.0
102
RTVSPost2010PropOp57
 70
     1
  0
XRECORD
  5
22139
102
{ACAD_REACTORS
330
22138
102
}
330
22138
100
AcDbXrecord
280
     1
102
RTVSPost2010Prop28
280
     0
102
RTVSPost2010PropOp28
 70
     1
102
RTVSPost2010Prop29
280
     1
102
RTVSPost2010PropOp29
 70
     1
102
RTVSPost2010Prop30
280
     1
102
RTVSPost2010PropOp30
 70
     1
102
RTVSPost2010Prop31
280
     0
102
RTVSPost2010PropOp31
 70
     1
102
RTVSPost2010Prop32
280
     0
102
RTVSPost2010PropOp32
 70
     1
102
RTVSPost2010Prop33
280
     0
102
RTVSPost2010PropOp33
 70
     1
102
RTVSPost2010Prop34
280
     0
102
RTVSPost2010PropOp34
 70
     1
102
RTVSPost2010Prop35
280
     0
102
RTVSPost2010PropOp35
 70
     1
102
RTVSPost2010Prop36
280
     0
102
RTVSPost2010PropOp36
 70
     1
102
RTVSPost2010Prop37
 90
       50
102
RTVSPost2010PropOp37
 70
     1
102
RTVSPost2010Prop38
140
0.0
102
RTVSPost2010PropOp38
 70
     1
102
RTVSPost2010Prop39
140
1.0
102
RTVSPost2010PropOp39
 70
     1
102
RTVSPost2010Prop40
 90
        0
102
RTVSPost2010PropOp40
 70
     1
102
RTVSPost2010Prop41ColorIndex
 90
       18
102
RTVSPost2010Prop41ColorRGB
 90
        0
102
RTVSPost2010PropOp41
 70
     1
102
RTVSPost2010Prop42
 90
       50
102
RTVSPost2010PropOp42
 70
     1
102
RTVSPost2010Prop43
 90
        3
102
RTVSPost2010PropOp43
 70
     1
102
RTVSPost2010Prop44ColorIndex
 90
        5
102
RTVSPost2010Prop44ColorRGB
 90
      255
102
RTVSPost2010PropOp44
 70
     1
102
RTVSPost2010Prop45
280
     0
102
RTVSPost2010PropOp45
 70
     1
102
RTVSPost2010Prop46
 90
       50
102
RTVSPost2010PropOp46
 70
     1
102
RTVSPost2010Prop47
 90
       50
102
RTVSPost2010PropOp47
 70
     1
102
RTVSPost2010Prop48
 90
       50
102
RTVSPost2010PropOp48
 70
     1
102
RTVSPost2010Prop49
280
     0
102
RTVSPost2010PropOp49
 70
     1
102
RTVSPost2010Prop50
 90
       50
102
RTVSPost2010PropOp50
 70
     1
102
RTVSPost2010Prop51ColorIndex
 90
      256
102
RTVSPost2010Prop51ColorRGB
 90
-16777216
102
RTVSPost2010PropOp51
 70
     0
102
RTVSPost2010Prop52
140
1.0
102
RTVSPost2010PropOp52
 70
     0
102
RTVSPost2010Prop53
 90
        2
102
RTVSPost2010PropOp53
 70
     1
102
RTVSPost2010Prop54
  1
strokes_ogs.tif
102
RTVSPost2010PropOp54
 70
     1
102
RTVSPost2010Prop55
280
     0
102
RTVSPost2010PropOp55
 70
     1
102
RTVSPost2010Prop56
140
1.0
102
RTVSPost2010PropOp56
 70
     1
102
RTVSPost2010Prop57
140
1.0
102
RTVSPost2010PropOp57
 70
     1
  0
XRECORD
  5
22147
102
{ACAD_REACTORS
330
22146
102
}
330
22146
100
AcDbXrecord
280
     1
102
RTVSPost2010Prop28
280
     0
102
RTVSPost2010PropOp28
 70
     1
102
RTVSPost2010Prop29
280
     1
102
RTVSPost2010PropOp29
 70
     1
102
RTVSPost2010Prop30
280
     1
102
RTVSPost2010PropOp30
 70
     1
102
RTVSPost2010Prop31
280
     0
102
RTVSPost2010PropOp31
 70
     1
102
RTVSPost2010Prop32
280
     0
102
RTVSPost2010PropOp32
 70
     1
102
RTVSPost2010Prop33
280
     0
102
RTVSPost2010PropOp33
 70
     1
102
RTVSPost2010Prop34
280
     0
102
RTVSPost2010PropOp34
 70
     1
102
RTVSPost2010Prop35
280
     0
102
RTVSPost2010PropOp35
 70
     1
102
RTVSPost2010Prop36
280
     0
102
RTVSPost2010PropOp36
 70
     1
102
RTVSPost2010Prop37
 90
       50
102
RTVSPost2010PropOp37
 70
     1
102
RTVSPost2010Prop38
140
0.0
102
RTVSPost2010PropOp38
 70
     1
102
RTVSPost2010Prop39
140
1.0
102
RTVSPost2010PropOp39
 70
     1
102
RTVSPost2010Prop40
 90
        0
102
RTVSPost2010PropOp40
 70
     1
102
RTVSPost2010Prop41ColorIndex
 90
       18
102
RTVSPost2010Prop41ColorRGB
 90
        0
102
RTVSPost2010PropOp41
 70
     1
102
RTVSPost2010Prop42
 90
       50
102
RTVSPost2010PropOp42
 70
     1
102
RTVSPost2010Prop43
 90
        3
102
RTVSPost2010PropOp43
 70
     1
102
RTVSPost2010Prop44ColorIndex
 90
        5
102
RTVSPost2010Prop44ColorRGB
 90
      255
102
RTVSPost2010PropOp44
 70
     1
102
RTVSPost2010Prop45
280
     0
102
RTVSPost2010PropOp45
 70
     1
102
RTVSPost2010Prop46
 90
       50
102
RTVSPost2010PropOp46
 70
     1
102
RTVSPost2010Prop47
 90
       50
102
RTVSPost2010PropOp47
 70
     1
102
RTVSPost2010Prop48
 90
       50
102
RTVSPost2010PropOp48
 70
     1
102
RTVSPost2010Prop49
280
     0
102
RTVSPost2010PropOp49
 70
     1
102
RTVSPost2010Prop50
 90
       50
102
RTVSPost2010PropOp50
 70
     1
102
RTVSPost2010Prop51ColorIndex
 90
      256
102
RTVSPost2010Prop51ColorRGB
 90
-16777216
102
RTVSPost2010PropOp51
 70
     0
102
RTVSPost2010Prop52
140
1.0
102
RTVSPost2010PropOp52
 70
     0
102
RTVSPost2010Prop53
 90
        2
102
RTVSPost2010PropOp53
 70
     1
102
RTVSPost2010Prop54
  1
strokes_ogs.tif
102
RTVSPost2010PropOp54
 70
     1
102
RTVSPost2010Prop55
280
     0
102
RTVSPost2010PropOp55
 70
     1
102
RTVSPost2010Prop56
140
1.0
102
RTVSPost2010PropOp56
 70
     1
102
RTVSPost2010Prop57
140
1.0
102
RTVSPost2010PropOp57
 70
     1
  0
XRECORD
  5
2214F
102
{ACAD_REACTORS
330
2214E
102
}
330
2214E
100
AcDbXrecord
280
     1
102
RTVSPost2010Prop28
280
     0
102
RTVSPost2010PropOp28
 70
     1
102
RTVSPost2010Prop29
280
     1
102
RTVSPost2010PropOp29
 70
     1
102
RTVSPost2010Prop30
280
     1
102
RTVSPost2010PropOp30
 70
     1
102
RTVSPost2010Prop31
280
     0
102
RTVSPost2010PropOp31
 70
     1
102
RTVSPost2010Prop32
280
     0
102
RTVSPost2010PropOp32
 70
     1
102
RTVSPost2010Prop33
280
     0
102
RTVSPost2010PropOp33
 70
     1
102
RTVSPost2010Prop34
280
     0
102
RTVSPost2010PropOp34
 70
     1
102
RTVSPost2010Prop35
280
     0
102
RTVSPost2010PropOp35
 70
     1
102
RTVSPost2010Prop36
280
     0
102
RTVSPost2010PropOp36
 70
     1
102
RTVSPost2010Prop37
 90
       50
102
RTVSPost2010PropOp37
 70
     1
102
RTVSPost2010Prop38
140
0.0
102
RTVSPost2010PropOp38
 70
     1
102
RTVSPost2010Prop39
140
1.0
102
RTVSPost2010PropOp39
 70
     1
102
RTVSPost2010Prop40
 90
        0
102
RTVSPost2010PropOp40
 70
     1
102
RTVSPost2010Prop41ColorIndex
 90
       18
102
RTVSPost2010Prop41ColorRGB
 90
        0
102
RTVSPost2010PropOp41
 70
     1
102
RTVSPost2010Prop42
 90
       50
102
RTVSPost2010PropOp42
 70
     1
102
RTVSPost2010Prop43
 90
        3
102
RTVSPost2010PropOp43
 70
     1
102
RTVSPost2010Prop44ColorIndex
 90
        5
102
RTVSPost2010Prop44ColorRGB
 90
      255
102
RTVSPost2010PropOp44
 70
     1
102
RTVSPost2010Prop45
280
     0
102
RTVSPost2010PropOp45
 70
     1
102
RTVSPost2010Prop46
 90
       50
102
RTVSPost2010PropOp46
 70
     1
102
RTVSPost2010Prop47
 90
       50
102
RTVSPost2010PropOp47
 70
     1
102
RTVSPost2010Prop48
 90
       50
102
RTVSPost2010PropOp48
 70
     1
102
RTVSPost2010Prop49
280
     0
102
RTVSPost2010PropOp49
 70
     1
102
RTVSPost2010Prop50
 90
       50
102
RTVSPost2010PropOp50
 70
     1
102
RTVSPost2010Prop51ColorIndex
 90
      256
102
RTVSPost2010Prop51ColorRGB
 90
-16777216
102
RTVSPost2010PropOp51
 70
     0
102
RTVSPost2010Prop52
140
1.0
102
RTVSPost2010PropOp52
 70
     0
102
RTVSPost2010Prop53
 90
        2
102
RTVSPost2010PropOp53
 70
     1
102
RTVSPost2010Prop54
  1
strokes_ogs.tif
102
RTVSPost2010PropOp54
 70
     1
102
RTVSPost2010Prop55
280
     0
102
RTVSPost2010PropOp55
 70
     1
102
RTVSPost2010Prop56
140
1.0
102
RTVSPost2010PropOp56
 70
     1
102
RTVSPost2010Prop57
140
1.0
102
RTVSPost2010PropOp57
 70
     1
  0
XRECORD
  5
22141
102
{ACAD_REACTORS
330
22140
102
}
330
22140
100
AcDbXrecord
280
     1
102
RTVSPost2010Prop28
280
     0
102
RTVSPost2010PropOp28
 70
     1
102
RTVSPost2010Prop29
280
     1
102
RTVSPost2010PropOp29
 70
     1
102
RTVSPost2010Prop30
280
     1
102
RTVSPost2010PropOp30
 70
     1
102
RTVSPost2010Prop31
280
     0
102
RTVSPost2010PropOp31
 70
     1
102
RTVSPost2010Prop32
280
     0
102
RTVSPost2010PropOp32
 70
     1
102
RTVSPost2010Prop33
280
     0
102
RTVSPost2010PropOp33
 70
     1
102
RTVSPost2010Prop34
280
     0
102
RTVSPost2010PropOp34
 70
     1
102
RTVSPost2010Prop35
280
     0
102
RTVSPost2010PropOp35
 70
     1
102
RTVSPost2010Prop36
280
     0
102
RTVSPost2010PropOp36
 70
     1
102
RTVSPost2010Prop37
 90
       50
102
RTVSPost2010PropOp37
 70
     1
102
RTVSPost2010Prop38
140
0.0
102
RTVSPost2010PropOp38
 70
     1
102
RTVSPost2010Prop39
140
1.0
102
RTVSPost2010PropOp39
 70
     1
102
RTVSPost2010Prop40
 90
        0
102
RTVSPost2010PropOp40
 70
     1
102
RTVSPost2010Prop41ColorIndex
 90
       18
102
RTVSPost2010Prop41ColorRGB
 90
        0
102
RTVSPost2010PropOp41
 70
     1
102
RTVSPost2010Prop42
 90
       50
102
RTVSPost2010PropOp42
 70
     1
102
RTVSPost2010Prop43
 90
        3
102
RTVSPost2010PropOp43
 70
     1
102
RTVSPost2010Prop44ColorIndex
 90
        5
102
RTVSPost2010Prop44ColorRGB
 90
      255
102
RTVSPost2010PropOp44
 70
     1
102
RTVSPost2010Prop45
280
     0
102
RTVSPost2010PropOp45
 70
     1
102
RTVSPost2010Prop46
 90
       50
102
RTVSPost2010PropOp46
 70
     1
102
RTVSPost2010Prop47
 90
       50
102
RTVSPost2010PropOp47
 70
     1
102
RTVSPost2010Prop48
 90
       50
102
RTVSPost2010PropOp48
 70
     1
102
RTVSPost2010Prop49
280
     0
102
RTVSPost2010PropOp49
 70
     1
102
RTVSPost2010Prop50
 90
       50
102
RTVSPost2010PropOp50
 70
     1
102
RTVSPost2010Prop51ColorIndex
 90
      256
102
RTVSPost2010Prop51ColorRGB
 90
-16777216
102
RTVSPost2010PropOp51
 70
     0
102
RTVSPost2010Prop52
140
1.0
102
RTVSPost2010PropOp52
 70
     0
102
RTVSPost2010Prop53
 90
        2
102
RTVSPost2010PropOp53
 70
     1
102
RTVSPost2010Prop54
  1
strokes_ogs.tif
102
RTVSPost2010PropOp54
 70
     1
102
RTVSPost2010Prop55
280
     0
102
RTVSPost2010PropOp55
 70
     1
102
RTVSPost2010Prop56
140
1.0
102
RTVSPost2010PropOp56
 70
     1
102
RTVSPost2010Prop57
140
1.0
102
RTVSPost2010PropOp57
 70
     1
  0
XRECORD
  5
22145
102
{ACAD_REACTORS
330
22144
102
}
330
22144
100
AcDbXrecord
280
     1
102
RTVSPost2010Prop28
280
     0
102
RTVSPost2010PropOp28
 70
     1
102
RTVSPost2010Prop29
280
     1
102
RTVSPost2010PropOp29
 70
     1
102
RTVSPost2010Prop30
280
     1
102
RTVSPost2010PropOp30
 70
     1
102
RTVSPost2010Prop31
280
     0
102
RTVSPost2010PropOp31
 70
     1
102
RTVSPost2010Prop32
280
     0
102
RTVSPost2010PropOp32
 70
     1
102
RTVSPost2010Prop33
280
     0
102
RTVSPost2010PropOp33
 70
     1
102
RTVSPost2010Prop34
280
     0
102
RTVSPost2010PropOp34
 70
     1
102
RTVSPost2010Prop35
280
     0
102
RTVSPost2010PropOp35
 70
     1
102
RTVSPost2010Prop36
280
     0
102
RTVSPost2010PropOp36
 70
     1
102
RTVSPost2010Prop37
 90
       50
102
RTVSPost2010PropOp37
 70
     1
102
RTVSPost2010Prop38
140
0.0
102
RTVSPost2010PropOp38
 70
     1
102
RTVSPost2010Prop39
140
1.0
102
RTVSPost2010PropOp39
 70
     1
102
RTVSPost2010Prop40
 90
        0
102
RTVSPost2010PropOp40
 70
     1
102
RTVSPost2010Prop41ColorIndex
 90
       18
102
RTVSPost2010Prop41ColorRGB
 90
        0
102
RTVSPost2010PropOp41
 70
     1
102
RTVSPost2010Prop42
 90
       50
102
RTVSPost2010PropOp42
 70
     1
102
RTVSPost2010Prop43
 90
        3
102
RTVSPost2010PropOp43
 70
     1
102
RTVSPost2010Prop44ColorIndex
 90
        5
102
RTVSPost2010Prop44ColorRGB
 90
      255
102
RTVSPost2010PropOp44
 70
     1
102
RTVSPost2010Prop45
280
     0
102
RTVSPost2010PropOp45
 70
     1
102
RTVSPost2010Prop46
 90
       50
102
RTVSPost2010PropOp46
 70
     1
102
RTVSPost2010Prop47
 90
       50
102
RTVSPost2010PropOp47
 70
     1
102
RTVSPost2010Prop48
 90
       50
102
RTVSPost2010PropOp48
 70
     1
102
RTVSPost2010Prop49
280
     0
102
RTVSPost2010PropOp49
 70
     1
102
RTVSPost2010Prop50
 90
       50
102
RTVSPost2010PropOp50
 70
     1
102
RTVSPost2010Prop51ColorIndex
 90
      256
102
RTVSPost2010Prop51ColorRGB
 90
-16777216
102
RTVSPost2010PropOp51
 70
     0
102
RTVSPost2010Prop52
140
1.0
102
RTVSPost2010PropOp52
 70
     0
102
RTVSPost2010Prop53
 90
        2
102
RTVSPost2010PropOp53
 70
     1
102
RTVSPost2010Prop54
  1
strokes_ogs.tif
102
RTVSPost2010PropOp54
 70
     1
102
RTVSPost2010Prop55
280
     0
102
RTVSPost2010PropOp55
 70
     1
102
RTVSPost2010Prop56
140
1.0
102
RTVSPost2010PropOp56
 70
     1
102
RTVSPost2010Prop57
140
1.0
102
RTVSPost2010PropOp57
 70
     1
  0
XRECORD
  5
22163
102
{ACAD_REACTORS
330
22162
102
}
330
22162
100
AcDbXrecord
280
     1
102
RTVSPost2010Prop28
280
     0
102
RTVSPost2010PropOp28
 70
     1
102
RTVSPost2010Prop29
280
     1
102
RTVSPost2010PropOp29
 70
     1
102
RTVSPost2010Prop30
280
     1
102
RTVSPost2010PropOp30
 70
     1
102
RTVSPost2010Prop31
280
     0
102
RTVSPost2010PropOp31
 70
     1
102
RTVSPost2010Prop32
280
     0
102
RTVSPost2010PropOp32
 70
     1
102
RTVSPost2010Prop33
280
     0
102
RTVSPost2010PropOp33
 70
     1
102
RTVSPost2010Prop34
280
     0
102
RTVSPost2010PropOp34
 70
     1
102
RTVSPost2010Prop35
280
     0
102
RTVSPost2010PropOp35
 70
     1
102
RTVSPost2010Prop36
280
     0
102
RTVSPost2010PropOp36
 70
     1
102
RTVSPost2010Prop37
 90
       50
102
RTVSPost2010PropOp37
 70
     0
102
RTVSPost2010Prop38
140
0.0
102
RTVSPost2010PropOp38
 70
     0
102
RTVSPost2010Prop39
140
1.0
102
RTVSPost2010PropOp39
 70
     0
102
RTVSPost2010Prop40
 90
        0
102
RTVSPost2010PropOp40
 70
     0
102
RTVSPost2010Prop41ColorIndex
 90
       18
102
RTVSPost2010Prop41ColorRGB
 90
        0
102
RTVSPost2010PropOp41
 70
     0
102
RTVSPost2010Prop42
 90
       50
102
RTVSPost2010PropOp42
 70
     0
102
RTVSPost2010Prop43
 90
        3
102
RTVSPost2010PropOp43
 70
     0
102
RTVSPost2010Prop44ColorIndex
 90
        5
102
RTVSPost2010Prop44ColorRGB
 90
      255
102
RTVSPost2010PropOp44
 70
     0
102
RTVSPost2010Prop45
280
     0
102
RTVSPost2010PropOp45
 70
     1
102
RTVSPost2010Prop46
 90
       50
102
RTVSPost2010PropOp46
 70
     0
102
RTVSPost2010Prop47
 90
       50
102
RTVSPost2010PropOp47
 70
     0
102
RTVSPost2010Prop48
 90
       50
102
RTVSPost2010PropOp48
 70
     0
102
RTVSPost2010Prop49
280
     0
102
RTVSPost2010PropOp49
 70
     1
102
RTVSPost2010Prop50
 90
       50
102
RTVSPost2010PropOp50
 70
     0
102
RTVSPost2010Prop51ColorIndex
 90
      256
102
RTVSPost2010Prop51ColorRGB
 90
-16777216
102
RTVSPost2010PropOp51
 70
     0
102
RTVSPost2010Prop52
140
1.0
102
RTVSPost2010PropOp52
 70
     0
102
RTVSPost2010Prop53
 90
        2
102
RTVSPost2010PropOp53
 70
     0
102
RTVSPost2010Prop54
  1
strokes_ogs.tif
102
RTVSPost2010PropOp54
 70
     0
102
RTVSPost2010Prop55
280
     0
102
RTVSPost2010PropOp55
 70
     1
102
RTVSPost2010Prop56
140
1.0
102
RTVSPost2010PropOp56
 70
     0
102
RTVSPost2010Prop57
140
1.0
102
RTVSPost2010PropOp57
 70
     0
  0
XRECORD
  5
2214D
102
{ACAD_REACTORS
330
2214C
102
}
330
2214C
100
AcDbXrecord
280
     1
102
RTVSPost2010Prop28
280
     0
102
RTVSPost2010PropOp28
 70
     1
102
RTVSPost2010Prop29
280
     1
102
RTVSPost2010PropOp29
 70
     1
102
RTVSPost2010Prop30
280
     1
102
RTVSPost2010PropOp30
 70
     1
102
RTVSPost2010Prop31
280
     0
102
RTVSPost2010PropOp31
 70
     1
102
RTVSPost2010Prop32
280
     0
102
RTVSPost2010PropOp32
 70
     1
102
RTVSPost2010Prop33
280
     0
102
RTVSPost2010PropOp33
 70
     1
102
RTVSPost2010Prop34
280
     0
102
RTVSPost2010PropOp34
 70
     1
102
RTVSPost2010Prop35
280
     0
102
RTVSPost2010PropOp35
 70
     1
102
RTVSPost2010Prop36
280
     0
102
RTVSPost2010PropOp36
 70
     1
102
RTVSPost2010Prop37
 90
       50
102
RTVSPost2010PropOp37
 70
     1
102
RTVSPost2010Prop38
140
0.0
102
RTVSPost2010PropOp38
 70
     1
102
RTVSPost2010Prop39
140
1.0
102
RTVSPost2010PropOp39
 70
     1
102
RTVSPost2010Prop40
 90
        0
102
RTVSPost2010PropOp40
 70
     1
102
RTVSPost2010Prop41ColorIndex
 90
       18
102
RTVSPost2010Prop41ColorRGB
 90
        0
102
RTVSPost2010PropOp41
 70
     1
102
RTVSPost2010Prop42
 90
       50
102
RTVSPost2010PropOp42
 70
     1
102
RTVSPost2010Prop43
 90
        3
102
RTVSPost2010PropOp43
 70
     1
102
RTVSPost2010Prop44ColorIndex
 90
        5
102
RTVSPost2010Prop44ColorRGB
 90
      255
102
RTVSPost2010PropOp44
 70
     1
102
RTVSPost2010Prop45
280
     0
102
RTVSPost2010PropOp45
 70
     1
102
RTVSPost2010Prop46
 90
       50
102
RTVSPost2010PropOp46
 70
     1
102
RTVSPost2010Prop47
 90
       50
102
RTVSPost2010PropOp47
 70
     1
102
RTVSPost2010Prop48
 90
       50
102
RTVSPost2010PropOp48
 70
     1
102
RTVSPost2010Prop49
280
     0
102
RTVSPost2010PropOp49
 70
     1
102
RTVSPost2010Prop50
 90
       50
102
RTVSPost2010PropOp50
 70
     1
102
RTVSPost2010Prop51ColorIndex
 90
      256
102
RTVSPost2010Prop51ColorRGB
 90
-16777216
102
RTVSPost2010PropOp51
 70
     0
102
RTVSPost2010Prop52
140
1.0
102
RTVSPost2010PropOp52
 70
     0
102
RTVSPost2010Prop53
 90
        2
102
RTVSPost2010PropOp53
 70
     1
102
RTVSPost2010Prop54
  1
strokes_ogs.tif
102
RTVSPost2010PropOp54
 70
     1
102
RTVSPost2010Prop55
280
     0
102
RTVSPost2010PropOp55
 70
     1
102
RTVSPost2010Prop56
140
1.0
102
RTVSPost2010PropOp56
 70
     1
102
RTVSPost2010Prop57
140
1.0
102
RTVSPost2010PropOp57
 70
     1
  0
XRECORD
  5
22131
102
{ACAD_REACTORS
330
22130
102
}
330
22130
100
AcDbXrecord
280
     1
102
RTVSPost2010Prop28
280
     0
102
RTVSPost2010PropOp28
 70
     1
102
RTVSPost2010Prop29
280
     1
102
RTVSPost2010PropOp29
 70
     1
102
RTVSPost2010Prop30
280
     1
102
RTVSPost2010PropOp30
 70
     1
102
RTVSPost2010Prop31
280
     0
102
RTVSPost2010PropOp31
 70
     1
102
RTVSPost2010Prop32
280
     0
102
RTVSPost2010PropOp32
 70
     1
102
RTVSPost2010Prop33
280
     0
102
RTVSPost2010PropOp33
 70
     1
102
RTVSPost2010Prop34
280
     0
102
RTVSPost2010PropOp34
 70
     1
102
RTVSPost2010Prop35
280
     0
102
RTVSPost2010PropOp35
 70
     1
102
RTVSPost2010Prop36
280
     0
102
RTVSPost2010PropOp36
 70
     1
102
RTVSPost2010Prop37
 90
       50
102
RTVSPost2010PropOp37
 70
     1
102
RTVSPost2010Prop38
140
0.0
102
RTVSPost2010PropOp38
 70
     1
102
RTVSPost2010Prop39
140
1.0
102
RTVSPost2010PropOp39
 70
     1
102
RTVSPost2010Prop40
 90
        0
102
RTVSPost2010PropOp40
 70
     1
102
RTVSPost2010Prop41ColorIndex
 90
       18
102
RTVSPost2010Prop41ColorRGB
 90
        0
102
RTVSPost2010PropOp41
 70
     1
102
RTVSPost2010Prop42
 90
       50
102
RTVSPost2010PropOp42
 70
     1
102
RTVSPost2010Prop43
 90
        3
102
RTVSPost2010PropOp43
 70
     1
102
RTVSPost2010Prop44ColorIndex
 90
        5
102
RTVSPost2010Prop44ColorRGB
 90
      255
102
RTVSPost2010PropOp44
 70
     1
102
RTVSPost2010Prop45
280
     0
102
RTVSPost2010PropOp45
 70
     1
102
RTVSPost2010Prop46
 90
       50
102
RTVSPost2010PropOp46
 70
     1
102
RTVSPost2010Prop47
 90
       50
102
RTVSPost2010PropOp47
 70
     1
102
RTVSPost2010Prop48
 90
       50
102
RTVSPost2010PropOp48
 70
     1
102
RTVSPost2010Prop49
280
     0
102
RTVSPost2010PropOp49
 70
     1
102
RTVSPost2010Prop50
 90
       50
102
RTVSPost2010PropOp50
 70
     1
102
RTVSPost2010Prop51ColorIndex
 90
      256
102
RTVSPost2010Prop51ColorRGB
 90
-16777216
102
RTVSPost2010PropOp51
 70
     0
102
RTVSPost2010Prop52
140
1.0
102
RTVSPost2010PropOp52
 70
     0
102
RTVSPost2010Prop53
 90
        2
102
RTVSPost2010PropOp53
 70
     1
102
RTVSPost2010Prop54
  1
strokes_ogs.tif
102
RTVSPost2010PropOp54
 70
     1
102
RTVSPost2010Prop55
280
     0
102
RTVSPost2010PropOp55
 70
     1
102
RTVSPost2010Prop56
140
1.0
102
RTVSPost2010PropOp56
 70
     1
102
RTVSPost2010Prop57
140
1.0
102
RTVSPost2010PropOp57
 70
     1
  0
XRECORD
  5
22133
102
{ACAD_REACTORS
330
22132
102
}
330
22132
100
AcDbXrecord
280
     1
102
RTVSPost2010Prop28
280
     0
102
RTVSPost2010PropOp28
 70
     1
102
RTVSPost2010Prop29
280
     1
102
RTVSPost2010PropOp29
 70
     1
102
RTVSPost2010Prop30
280
     1
102
RTVSPost2010PropOp30
 70
     1
102
RTVSPost2010Prop31
280
     0
102
RTVSPost2010PropOp31
 70
     1
102
RTVSPost2010Prop32
280
     0
102
RTVSPost2010PropOp32
 70
     1
102
RTVSPost2010Prop33
280
     0
102
RTVSPost2010PropOp33
 70
     1
102
RTVSPost2010Prop34
280
     0
102
RTVSPost2010PropOp34
 70
     1
102
RTVSPost2010Prop35
280
     0
102
RTVSPost2010PropOp35
 70
     1
102
RTVSPost2010Prop36
280
     0
102
RTVSPost2010PropOp36
 70
     1
102
RTVSPost2010Prop37
 90
       50
102
RTVSPost2010PropOp37
 70
     1
102
RTVSPost2010Prop38
140
0.0
102
RTVSPost2010PropOp38
 70
     1
102
RTVSPost2010Prop39
140
1.0
102
RTVSPost2010PropOp39
 70
     1
102
RTVSPost2010Prop40
 90
        0
102
RTVSPost2010PropOp40
 70
     1
102
RTVSPost2010Prop41ColorIndex
 90
       18
102
RTVSPost2010Prop41ColorRGB
 90
        0
102
RTVSPost2010PropOp41
 70
     1
102
RTVSPost2010Prop42
 90
       50
102
RTVSPost2010PropOp42
 70
     1
102
RTVSPost2010Prop43
 90
        3
102
RTVSPost2010PropOp43
 70
     1
102
RTVSPost2010Prop44ColorIndex
 90
        5
102
RTVSPost2010Prop44ColorRGB
 90
      255
102
RTVSPost2010PropOp44
 70
     1
102
RTVSPost2010Prop45
280
     0
102
RTVSPost2010PropOp45
 70
     1
102
RTVSPost2010Prop46
 90
       50
102
RTVSPost2010PropOp46
 70
     1
102
RTVSPost2010Prop47
 90
       50
102
RTVSPost2010PropOp47
 70
     1
102
RTVSPost2010Prop48
 90
       50
102
RTVSPost2010PropOp48
 70
     1
102
RTVSPost2010Prop49
280
     0
102
RTVSPost2010PropOp49
 70
     1
102
RTVSPost2010Prop50
 90
       50
102
RTVSPost2010PropOp50
 70
     1
102
RTVSPost2010Prop51ColorIndex
 90
      256
102
RTVSPost2010Prop51ColorRGB
 90
-16777216
102
RTVSPost2010PropOp51
 70
     0
102
RTVSPost2010Prop52
140
1.0
102
RTVSPost2010PropOp52
 70
     0
102
RTVSPost2010Prop53
 90
        2
102
RTVSPost2010PropOp53
 70
     1
102
RTVSPost2010Prop54
  1
strokes_ogs.tif
102
RTVSPost2010PropOp54
 70
     1
102
RTVSPost2010Prop55
280
     0
102
RTVSPost2010PropOp55
 70
     1
102
RTVSPost2010Prop56
140
1.0
102
RTVSPost2010PropOp56
 70
     1
102
RTVSPost2010Prop57
140
1.0
102
RTVSPost2010PropOp57
 70
     1
  0
XRECORD
  5
22135
102
{ACAD_REACTORS
330
22134
102
}
330
22134
100
AcDbXrecord
280
     1
102
RTVSPost2010Prop28
280
     0
102
RTVSPost2010PropOp28
 70
     1
102
RTVSPost2010Prop29
280
     1
102
RTVSPost2010PropOp29
 70
     1
102
RTVSPost2010Prop30
280
     1
102
RTVSPost2010PropOp30
 70
     1
102
RTVSPost2010Prop31
280
     0
102
RTVSPost2010PropOp31
 70
     1
102
RTVSPost2010Prop32
280
     0
102
RTVSPost2010PropOp32
 70
     1
102
RTVSPost2010Prop33
280
     0
102
RTVSPost2010PropOp33
 70
     1
102
RTVSPost2010Prop34
280
     0
102
RTVSPost2010PropOp34
 70
     1
102
RTVSPost2010Prop35
280
     0
102
RTVSPost2010PropOp35
 70
     1
102
RTVSPost2010Prop36
280
     0
102
RTVSPost2010PropOp36
 70
     1
102
RTVSPost2010Prop37
 90
       50
102
RTVSPost2010PropOp37
 70
     1
102
RTVSPost2010Prop38
140
0.0
102
RTVSPost2010PropOp38
 70
     1
102
RTVSPost2010Prop39
140
1.0
102
RTVSPost2010PropOp39
 70
     1
102
RTVSPost2010Prop40
 90
        0
102
RTVSPost2010PropOp40
 70
     1
102
RTVSPost2010Prop41ColorIndex
 90
       18
102
RTVSPost2010Prop41ColorRGB
 90
        0
102
RTVSPost2010PropOp41
 70
     1
102
RTVSPost2010Prop42
 90
       50
102
RTVSPost2010PropOp42
 70
     1
102
RTVSPost2010Prop43
 90
        3
102
RTVSPost2010PropOp43
 70
     1
102
RTVSPost2010Prop44ColorIndex
 90
        5
102
RTVSPost2010Prop44ColorRGB
 90
      255
102
RTVSPost2010PropOp44
 70
     1
102
RTVSPost2010Prop45
280
     0
102
RTVSPost2010PropOp45
 70
     1
102
RTVSPost2010Prop46
 90
       50
102
RTVSPost2010PropOp46
 70
     1
102
RTVSPost2010Prop47
 90
       50
102
RTVSPost2010PropOp47
 70
     1
102
RTVSPost2010Prop48
 90
       50
102
RTVSPost2010PropOp48
 70
     1
102
RTVSPost2010Prop49
280
     0
102
RTVSPost2010PropOp49
 70
     1
102
RTVSPost2010Prop50
 90
       50
102
RTVSPost2010PropOp50
 70
     1
102
RTVSPost2010Prop51ColorIndex
 90
      256
102
RTVSPost2010Prop51ColorRGB
 90
-16777216
102
RTVSPost2010PropOp51
 70
     0
102
RTVSPost2010Prop52
140
1.0
102
RTVSPost2010PropOp52
 70
     0
102
RTVSPost2010Prop53
 90
        2
102
RTVSPost2010PropOp53
 70
     1
102
RTVSPost2010Prop54
  1
strokes_ogs.tif
102
RTVSPost2010PropOp54
 70
     1
102
RTVSPost2010Prop55
280
     0
102
RTVSPost2010PropOp55
 70
     1
102
RTVSPost2010Prop56
140
1.0
102
RTVSPost2010PropOp56
 70
     1
102
RTVSPost2010Prop57
140
1.0
102
RTVSPost2010PropOp57
 70
     1
  0
XRECORD
  5
22137
102
{ACAD_REACTORS
330
22136
102
}
330
22136
100
AcDbXrecord
280
     1
102
RTVSPost2010Prop28
280
     0
102
RTVSPost2010PropOp28
 70
     1
102
RTVSPost2010Prop29
280
     1
102
RTVSPost2010PropOp29
 70
     1
102
RTVSPost2010Prop30
280
     1
102
RTVSPost2010PropOp30
 70
     1
102
RTVSPost2010Prop31
280
     0
102
RTVSPost2010PropOp31
 70
     1
102
RTVSPost2010Prop32
280
     0
102
RTVSPost2010PropOp32
 70
     1
102
RTVSPost2010Prop33
280
     0
102
RTVSPost2010PropOp33
 70
     1
102
RTVSPost2010Prop34
280
     0
102
RTVSPost2010PropOp34
 70
     1
102
RTVSPost2010Prop35
280
     0
102
RTVSPost2010PropOp35
 70
     1
102
RTVSPost2010Prop36
280
     0
102
RTVSPost2010PropOp36
 70
     1
102
RTVSPost2010Prop37
 90
       50
102
RTVSPost2010PropOp37
 70
     1
102
RTVSPost2010Prop38
140
0.0
102
RTVSPost2010PropOp38
 70
     1
102
RTVSPost2010Prop39
140
1.0
102
RTVSPost2010PropOp39
 70
     1
102
RTVSPost2010Prop40
 90
        0
102
RTVSPost2010PropOp40
 70
     1
102
RTVSPost2010Prop41ColorIndex
 90
       18
102
RTVSPost2010Prop41ColorRGB
 90
        0
102
RTVSPost2010PropOp41
 70
     1
102
RTVSPost2010Prop42
 90
       50
102
RTVSPost2010PropOp42
 70
     1
102
RTVSPost2010Prop43
 90
        3
102
RTVSPost2010PropOp43
 70
     1
102
RTVSPost2010Prop44ColorIndex
 90
        5
102
RTVSPost2010Prop44ColorRGB
 90
      255
102
RTVSPost2010PropOp44
 70
     1
102
RTVSPost2010Prop45
280
     0
102
RTVSPost2010PropOp45
 70
     1
102
RTVSPost2010Prop46
 90
       50
102
RTVSPost2010PropOp46
 70
     1
102
RTVSPost2010Prop47
 90
       50
102
RTVSPost2010PropOp47
 70
     1
102
RTVSPost2010Prop48
 90
       50
102
RTVSPost2010PropOp48
 70
     1
102
RTVSPost2010Prop49
280
     0
102
RTVSPost2010PropOp49
 70
     1
102
RTVSPost2010Prop50
 90
       50
102
RTVSPost2010PropOp50
 70
     1
102
RTVSPost2010Prop51ColorIndex
 90
      256
102
RTVSPost2010Prop51ColorRGB
 90
-16777216
102
RTVSPost2010PropOp51
 70
     0
102
RTVSPost2010Prop52
140
1.0
102
RTVSPost2010PropOp52
 70
     0
102
RTVSPost2010Prop53
 90
        2
102
RTVSPost2010PropOp53
 70
     1
102
RTVSPost2010Prop54
  1
strokes_ogs.tif
102
RTVSPost2010PropOp54
 70
     1
102
RTVSPost2010Prop55
280
     0
102
RTVSPost2010PropOp55
 70
     1
102
RTVSPost2010Prop56
140
1.0
102
RTVSPost2010PropOp56
 70
     1
102
RTVSPost2010Prop57
140
1.0
102
RTVSPost2010PropOp57
 70
     1
  0
XRECORD
  5
22153
102
{ACAD_REACTORS
330
22152
102
}
330
22152
100
AcDbXrecord
280
     1
102
RTVSPost2010Prop28
280
     0
102
RTVSPost2010PropOp28
 70
     1
102
RTVSPost2010Prop29
280
     1
102
RTVSPost2010PropOp29
 70
     1
102
RTVSPost2010Prop30
280
     1
102
RTVSPost2010PropOp30
 70
     1
102
RTVSPost2010Prop31
280
     0
102
RTVSPost2010PropOp31
 70
     1
102
RTVSPost2010Prop32
280
     0
102
RTVSPost2010PropOp32
 70
     1
102
RTVSPost2010Prop33
280
     0
102
RTVSPost2010PropOp33
 70
     1
102
RTVSPost2010Prop34
280
     0
102
RTVSPost2010PropOp34
 70
     1
102
RTVSPost2010Prop35
280
     0
102
RTVSPost2010PropOp35
 70
     1
102
RTVSPost2010Prop36
280
     0
102
RTVSPost2010PropOp36
 70
     1
102
RTVSPost2010Prop37
 90
       50
102
RTVSPost2010PropOp37
 70
     1
102
RTVSPost2010Prop38
140
0.0
102
RTVSPost2010PropOp38
 70
     1
102
RTVSPost2010Prop39
140
1.0
102
RTVSPost2010PropOp39
 70
     1
102
RTVSPost2010Prop40
 90
        0
102
RTVSPost2010PropOp40
 70
     1
102
RTVSPost2010Prop41ColorIndex
 90
       18
102
RTVSPost2010Prop41ColorRGB
 90
        0
102
RTVSPost2010PropOp41
 70
     1
102
RTVSPost2010Prop42
 90
       50
102
RTVSPost2010PropOp42
 70
     1
102
RTVSPost2010Prop43
 90
        3
102
RTVSPost2010PropOp43
 70
     1
102
RTVSPost2010Prop44ColorIndex
 90
        5
102
RTVSPost2010Prop44ColorRGB
 90
      255
102
RTVSPost2010PropOp44
 70
     1
102
RTVSPost2010Prop45
280
     0
102
RTVSPost2010PropOp45
 70
     1
102
RTVSPost2010Prop46
 90
       50
102
RTVSPost2010PropOp46
 70
     1
102
RTVSPost2010Prop47
 90
       50
102
RTVSPost2010PropOp47
 70
     1
102
RTVSPost2010Prop48
 90
       50
102
RTVSPost2010PropOp48
 70
     1
102
RTVSPost2010Prop49
280
     0
102
RTVSPost2010PropOp49
 70
     1
102
RTVSPost2010Prop50
 90
       50
102
RTVSPost2010PropOp50
 70
     1
102
RTVSPost2010Prop51ColorIndex
 90
      256
102
RTVSPost2010Prop51ColorRGB
 90
-16777216
102
RTVSPost2010PropOp51
 70
     0
102
RTVSPost2010Prop52
140
1.0
102
RTVSPost2010PropOp52
 70
     0
102
RTVSPost2010Prop53
 90
        2
102
RTVSPost2010PropOp53
 70
     1
102
RTVSPost2010Prop54
  1
strokes_ogs.tif
102
RTVSPost2010PropOp54
 70
     1
102
RTVSPost2010Prop55
280
     0
102
RTVSPost2010PropOp55
 70
     1
102
RTVSPost2010Prop56
140
1.0
102
RTVSPost2010PropOp56
 70
     1
102
RTVSPost2010Prop57
140
1.0
102
RTVSPost2010PropOp57
 70
     1
  0
XRECORD
  5
2215F
102
{ACAD_REACTORS
330
2215E
102
}
330
2215E
100
AcDbXrecord
280
     1
102
RTVSPost2010Prop28
280
     0
102
RTVSPost2010PropOp28
 70
     1
102
RTVSPost2010Prop29
280
     1
102
RTVSPost2010PropOp29
 70
     1
102
RTVSPost2010Prop30
280
     1
102
RTVSPost2010PropOp30
 70
     1
102
RTVSPost2010Prop31
280
     0
102
RTVSPost2010PropOp31
 70
     1
102
RTVSPost2010Prop32
280
     0
102
RTVSPost2010PropOp32
 70
     1
102
RTVSPost2010Prop33
280
     0
102
RTVSPost2010PropOp33
 70
     1
102
RTVSPost2010Prop34
280
     0
102
RTVSPost2010PropOp34
 70
     1
102
RTVSPost2010Prop35
280
     0
102
RTVSPost2010PropOp35
 70
     1
102
RTVSPost2010Prop36
280
     0
102
RTVSPost2010PropOp36
 70
     1
102
RTVSPost2010Prop37
 90
       50
102
RTVSPost2010PropOp37
 70
     0
102
RTVSPost2010Prop38
140
0.0
102
RTVSPost2010PropOp38
 70
     0
102
RTVSPost2010Prop39
140
1.0
102
RTVSPost2010PropOp39
 70
     0
102
RTVSPost2010Prop40
 90
        0
102
RTVSPost2010PropOp40
 70
     0
102
RTVSPost2010Prop41ColorIndex
 90
       18
102
RTVSPost2010Prop41ColorRGB
 90
        0
102
RTVSPost2010PropOp41
 70
     0
102
RTVSPost2010Prop42
 90
       50
102
RTVSPost2010PropOp42
 70
     0
102
RTVSPost2010Prop43
 90
        3
102
RTVSPost2010PropOp43
 70
     0
102
RTVSPost2010Prop44ColorIndex
 90
        5
102
RTVSPost2010Prop44ColorRGB
 90
      255
102
RTVSPost2010PropOp44
 70
     0
102
RTVSPost2010Prop45
280
     0
102
RTVSPost2010PropOp45
 70
     1
102
RTVSPost2010Prop46
 90
       50
102
RTVSPost2010PropOp46
 70
     0
102
RTVSPost2010Prop47
 90
       50
102
RTVSPost2010PropOp47
 70
     0
102
RTVSPost2010Prop48
 90
       50
102
RTVSPost2010PropOp48
 70
     0
102
RTVSPost2010Prop49
280
     0
102
RTVSPost2010PropOp49
 70
     1
102
RTVSPost2010Prop50
 90
       50
102
RTVSPost2010PropOp50
 70
     0
102
RTVSPost2010Prop51ColorIndex
 90
      256
102
RTVSPost2010Prop51ColorRGB
 90
-16777216
102
RTVSPost2010PropOp51
 70
     0
102
RTVSPost2010Prop52
140
1.0
102
RTVSPost2010PropOp52
 70
     0
102
RTVSPost2010Prop53
 90
        2
102
RTVSPost2010PropOp53
 70
     0
102
RTVSPost2010Prop54
  1
strokes_ogs.tif
102
RTVSPost2010PropOp54
 70
     0
102
RTVSPost2010Prop55
280
     0
102
RTVSPost2010PropOp55
 70
     1
102
RTVSPost2010Prop56
140
1.0
102
RTVSPost2010PropOp56
 70
     0
102
RTVSPost2010Prop57
140
1.0
102
RTVSPost2010PropOp57
 70
     0
  0
XRECORD
  5
2214B
102
{ACAD_REACTORS
330
2214A
102
}
330
2214A
100
AcDbXrecord
280
     1
102
RTVSPost2010Prop28
280
     0
102
RTVSPost2010PropOp28
 70
     1
102
RTVSPost2010Prop29
280
     1
102
RTVSPost2010PropOp29
 70
     1
102
RTVSPost2010Prop30
280
     1
102
RTVSPost2010PropOp30
 70
     1
102
RTVSPost2010Prop31
280
     0
102
RTVSPost2010PropOp31
 70
     1
102
RTVSPost2010Prop32
280
     0
102
RTVSPost2010PropOp32
 70
     1
102
RTVSPost2010Prop33
280
     0
102
RTVSPost2010PropOp33
 70
     1
102
RTVSPost2010Prop34
280
     0
102
RTVSPost2010PropOp34
 70
     1
102
RTVSPost2010Prop35
280
     0
102
RTVSPost2010PropOp35
 70
     1
102
RTVSPost2010Prop36
280
     0
102
RTVSPost2010PropOp36
 70
     1
102
RTVSPost2010Prop37
 90
       50
102
RTVSPost2010PropOp37
 70
     1
102
RTVSPost2010Prop38
140
0.0
102
RTVSPost2010PropOp38
 70
     1
102
RTVSPost2010Prop39
140
1.0
102
RTVSPost2010PropOp39
 70
     1
102
RTVSPost2010Prop40
 90
        0
102
RTVSPost2010PropOp40
 70
     1
102
RTVSPost2010Prop41ColorIndex
 90
       18
102
RTVSPost2010Prop41ColorRGB
 90
        0
102
RTVSPost2010PropOp41
 70
     1
102
RTVSPost2010Prop42
 90
       50
102
RTVSPost2010PropOp42
 70
     1
102
RTVSPost2010Prop43
 90
        3
102
RTVSPost2010PropOp43
 70
     1
102
RTVSPost2010Prop44ColorIndex
 90
        5
102
RTVSPost2010Prop44ColorRGB
 90
      255
102
RTVSPost2010PropOp44
 70
     1
102
RTVSPost2010Prop45
280
     0
102
RTVSPost2010PropOp45
 70
     1
102
RTVSPost2010Prop46
 90
       50
102
RTVSPost2010PropOp46
 70
     1
102
RTVSPost2010Prop47
 90
       50
102
RTVSPost2010PropOp47
 70
     1
102
RTVSPost2010Prop48
 90
       50
102
RTVSPost2010PropOp48
 70
     1
102
RTVSPost2010Prop49
280
     0
102
RTVSPost2010PropOp49
 70
     1
102
RTVSPost2010Prop50
 90
       50
102
RTVSPost2010PropOp50
 70
     1
102
RTVSPost2010Prop51ColorIndex
 90
      256
102
RTVSPost2010Prop51ColorRGB
 90
-16777216
102
RTVSPost2010PropOp51
 70
     0
102
RTVSPost2010Prop52
140
1.0
102
RTVSPost2010PropOp52
 70
     0
102
RTVSPost2010Prop53
 90
        2
102
RTVSPost2010PropOp53
 70
     1
102
RTVSPost2010Prop54
  1
strokes_ogs.tif
102
RTVSPost2010PropOp54
 70
     1
102
RTVSPost2010Prop55
280
     0
102
RTVSPost2010PropOp55
 70
     1
102
RTVSPost2010Prop56
140
1.0
102
RTVSPost2010PropOp56
 70
     1
102
RTVSPost2010Prop57
140
1.0
102
RTVSPost2010PropOp57
 70
     1
  0
XRECORD
  5
22161
102
{ACAD_REACTORS
330
22160
102
}
330
22160
100
AcDbXrecord
280
     1
102
RTVSPost2010Prop28
280
     0
102
RTVSPost2010PropOp28
 70
     1
102
RTVSPost2010Prop29
280
     1
102
RTVSPost2010PropOp29
 70
     1
102
RTVSPost2010Prop30
280
     1
102
RTVSPost2010PropOp30
 70
     1
102
RTVSPost2010Prop31
280
     0
102
RTVSPost2010PropOp31
 70
     1
102
RTVSPost2010Prop32
280
     0
102
RTVSPost2010PropOp32
 70
     1
102
RTVSPost2010Prop33
280
     0
102
RTVSPost2010PropOp33
 70
     1
102
RTVSPost2010Prop34
280
     0
102
RTVSPost2010PropOp34
 70
     1
102
RTVSPost2010Prop35
280
     0
102
RTVSPost2010PropOp35
 70
     1
102
RTVSPost2010Prop36
280
     0
102
RTVSPost2010PropOp36
 70
     1
102
RTVSPost2010Prop37
 90
       50
102
RTVSPost2010PropOp37
 70
     0
102
RTVSPost2010Prop38
140
0.0
102
RTVSPost2010PropOp38
 70
     0
102
RTVSPost2010Prop39
140
1.0
102
RTVSPost2010PropOp39
 70
     0
102
RTVSPost2010Prop40
 90
        0
102
RTVSPost2010PropOp40
 70
     0
102
RTVSPost2010Prop41ColorIndex
 90
       18
102
RTVSPost2010Prop41ColorRGB
 90
        0
102
RTVSPost2010PropOp41
 70
     0
102
RTVSPost2010Prop42
 90
       50
102
RTVSPost2010PropOp42
 70
     0
102
RTVSPost2010Prop43
 90
        3
102
RTVSPost2010PropOp43
 70
     0
102
RTVSPost2010Prop44ColorIndex
 90
        5
102
RTVSPost2010Prop44ColorRGB
 90
      255
102
RTVSPost2010PropOp44
 70
     0
102
RTVSPost2010Prop45
280
     0
102
RTVSPost2010PropOp45
 70
     1
102
RTVSPost2010Prop46
 90
       50
102
RTVSPost2010PropOp46
 70
     0
102
RTVSPost2010Prop47
 90
       50
102
RTVSPost2010PropOp47
 70
     0
102
RTVSPost2010Prop48
 90
       50
102
RTVSPost2010PropOp48
 70
     0
102
RTVSPost2010Prop49
280
     0
102
RTVSPost2010PropOp49
 70
     1
102
RTVSPost2010Prop50
 90
       50
102
RTVSPost2010PropOp50
 70
     0
102
RTVSPost2010Prop51ColorIndex
 90
      256
102
RTVSPost2010Prop51ColorRGB
 90
-16777216
102
RTVSPost2010PropOp51
 70
     0
102
RTVSPost2010Prop52
140
1.0
102
RTVSPost2010PropOp52
 70
     0
102
RTVSPost2010Prop53
 90
        2
102
RTVSPost2010PropOp53
 70
     0
102
RTVSPost2010Prop54
  1
strokes_ogs.tif
102
RTVSPost2010PropOp54
 70
     0
102
RTVSPost2010Prop55
280
     0
102
RTVSPost2010PropOp55
 70
     1
102
RTVSPost2010Prop56
140
1.0
102
RTVSPost2010PropOp56
 70
     0
102
RTVSPost2010Prop57
140
1.0
102
RTVSPost2010PropOp57
 70
     0
  0
XRECORD
  5
22143
102
{ACAD_REACTORS
330
22142
102
}
330
22142
100
AcDbXrecord
280
     1
102
RTVSPost2010Prop28
280
     0
102
RTVSPost2010PropOp28
 70
     1
102
RTVSPost2010Prop29
280
     1
102
RTVSPost2010PropOp29
 70
     1
102
RTVSPost2010Prop30
280
     1
102
RTVSPost2010PropOp30
 70
     1
102
RTVSPost2010Prop31
280
     0
102
RTVSPost2010PropOp31
 70
     1
102
RTVSPost2010Prop32
280
     0
102
RTVSPost2010PropOp32
 70
     1
102
RTVSPost2010Prop33
280
     0
102
RTVSPost2010PropOp33
 70
     1
102
RTVSPost2010Prop34
280
     0
102
RTVSPost2010PropOp34
 70
     1
102
RTVSPost2010Prop35
280
     0
102
RTVSPost2010PropOp35
 70
     1
102
RTVSPost2010Prop36
280
     0
102
RTVSPost2010PropOp36
 70
     1
102
RTVSPost2010Prop37
 90
       50
102
RTVSPost2010PropOp37
 70
     1
102
RTVSPost2010Prop38
140
0.0
102
RTVSPost2010PropOp38
 70
     1
102
RTVSPost2010Prop39
140
1.0
102
RTVSPost2010PropOp39
 70
     1
102
RTVSPost2010Prop40
 90
        0
102
RTVSPost2010PropOp40
 70
     1
102
RTVSPost2010Prop41ColorIndex
 90
       18
102
RTVSPost2010Prop41ColorRGB
 90
        0
102
RTVSPost2010PropOp41
 70
     1
102
RTVSPost2010Prop42
 90
       50
102
RTVSPost2010PropOp42
 70
     1
102
RTVSPost2010Prop43
 90
        3
102
RTVSPost2010PropOp43
 70
     1
102
RTVSPost2010Prop44ColorIndex
 90
        5
102
RTVSPost2010Prop44ColorRGB
 90
      255
102
RTVSPost2010PropOp44
 70
     1
102
RTVSPost2010Prop45
280
     0
102
RTVSPost2010PropOp45
 70
     1
102
RTVSPost2010Prop46
 90
       50
102
RTVSPost2010PropOp46
 70
     1
102
RTVSPost2010Prop47
 90
       50
102
RTVSPost2010PropOp47
 70
     1
102
RTVSPost2010Prop48
 90
       50
102
RTVSPost2010PropOp48
 70
     1
102
RTVSPost2010Prop49
280
     0
102
RTVSPost2010PropOp49
 70
     1
102
RTVSPost2010Prop50
 90
       50
102
RTVSPost2010PropOp50
 70
     1
102
RTVSPost2010Prop51ColorIndex
 90
      256
102
RTVSPost2010Prop51ColorRGB
 90
-16777216
102
RTVSPost2010PropOp51
 70
     0
102
RTVSPost2010Prop52
140
1.0
102
RTVSPost2010PropOp52
 70
     0
102
RTVSPost2010Prop53
 90
        2
102
RTVSPost2010PropOp53
 70
     1
102
RTVSPost2010Prop54
  1
strokes_ogs.tif
102
RTVSPost2010PropOp54
 70
     1
102
RTVSPost2010Prop55
280
     0
102
RTVSPost2010PropOp55
 70
     1
102
RTVSPost2010Prop56
140
1.0
102
RTVSPost2010PropOp56
 70
     1
102
RTVSPost2010Prop57
140
1.0
102
RTVSPost2010PropOp57
 70
     1
  0
XRECORD
  5
2215D
102
{ACAD_REACTORS
330
2215C
102
}
330
2215C
100
AcDbXrecord
280
     1
102
RTVSPost2010Prop28
280
     0
102
RTVSPost2010PropOp28
 70
     1
102
RTVSPost2010Prop29
280
     1
102
RTVSPost2010PropOp29
 70
     1
102
RTVSPost2010Prop30
280
     1
102
RTVSPost2010PropOp30
 70
     1
102
RTVSPost2010Prop31
280
     0
102
RTVSPost2010PropOp31
 70
     1
102
RTVSPost2010Prop32
280
     0
102
RTVSPost2010PropOp32
 70
     1
102
RTVSPost2010Prop33
280
     0
102
RTVSPost2010PropOp33
 70
     1
102
RTVSPost2010Prop34
280
     0
102
RTVSPost2010PropOp34
 70
     1
102
RTVSPost2010Prop35
280
     0
102
RTVSPost2010PropOp35
 70
     1
102
RTVSPost2010Prop36
280
     0
102
RTVSPost2010PropOp36
 70
     1
102
RTVSPost2010Prop37
 90
       50
102
RTVSPost2010PropOp37
 70
     1
102
RTVSPost2010Prop38
140
0.0
102
RTVSPost2010PropOp38
 70
     1
102
RTVSPost2010Prop39
140
1.0
102
RTVSPost2010PropOp39
 70
     1
102
RTVSPost2010Prop40
 90
        0
102
RTVSPost2010PropOp40
 70
     1
102
RTVSPost2010Prop41ColorIndex
 90
       18
102
RTVSPost2010Prop41ColorRGB
 90
        0
102
RTVSPost2010PropOp41
 70
     1
102
RTVSPost2010Prop42
 90
       50
102
RTVSPost2010PropOp42
 70
     1
102
RTVSPost2010Prop43
 90
        3
102
RTVSPost2010PropOp43
 70
     1
102
RTVSPost2010Prop44ColorIndex
 90
        5
102
RTVSPost2010Prop44ColorRGB
 90
      255
102
RTVSPost2010PropOp44
 70
     1
102
RTVSPost2010Prop45
280
     0
102
RTVSPost2010PropOp45
 70
     1
102
RTVSPost2010Prop46
 90
       50
102
RTVSPost2010PropOp46
 70
     1
102
RTVSPost2010Prop47
 90
       50
102
RTVSPost2010PropOp47
 70
     1
102
RTVSPost2010Prop48
 90
       50
102
RTVSPost2010PropOp48
 70
     1
102
RTVSPost2010Prop49
280
     0
102
RTVSPost2010PropOp49
 70
     1
102
RTVSPost2010Prop50
 90
       50
102
RTVSPost2010PropOp50
 70
     1
102
RTVSPost2010Prop51ColorIndex
 90
      256
102
RTVSPost2010Prop51ColorRGB
 90
-16777216
102
RTVSPost2010PropOp51
 70
     0
102
RTVSPost2010Prop52
140
1.0
102
RTVSPost2010PropOp52
 70
     0
102
RTVSPost2010Prop53
 90
        2
102
RTVSPost2010PropOp53
 70
     1
102
RTVSPost2010Prop54
  1
strokes_ogs.tif
102
RTVSPost2010PropOp54
 70
     1
102
RTVSPost2010Prop55
280
     0
102
RTVSPost2010PropOp55
 70
     1
102
RTVSPost2010Prop56
140
1.0
102
RTVSPost2010PropOp56
 70
     1
102
RTVSPost2010Prop57
140
1.0
102
RTVSPost2010PropOp57
 70
     1
  0
XRECORD
  5
2215B
102
{ACAD_REACTORS
330
2215A
102
}
330
2215A
100
AcDbXrecord
280
     1
102
RTVSPost2010Prop28
280
     0
102
RTVSPost2010PropOp28
 70
     1
102
RTVSPost2010Prop29
280
     1
102
RTVSPost2010PropOp29
 70
     1
102
RTVSPost2010Prop30
280
     1
102
RTVSPost2010PropOp30
 70
     1
102
RTVSPost2010Prop31
280
     0
102
RTVSPost2010PropOp31
 70
     1
102
RTVSPost2010Prop32
280
     0
102
RTVSPost2010PropOp32
 70
     1
102
RTVSPost2010Prop33
280
     0
102
RTVSPost2010PropOp33
 70
     1
102
RTVSPost2010Prop34
280
     0
102
RTVSPost2010PropOp34
 70
     1
102
RTVSPost2010Prop35
280
     0
102
RTVSPost2010PropOp35
 70
     1
102
RTVSPost2010Prop36
280
     0
102
RTVSPost2010PropOp36
 70
     1
102
RTVSPost2010Prop37
 90
       50
102
RTVSPost2010PropOp37
 70
     1
102
RTVSPost2010Prop38
140
0.0
102
RTVSPost2010PropOp38
 70
     1
102
RTVSPost2010Prop39
140
1.0
102
RTVSPost2010PropOp39
 70
     1
102
RTVSPost2010Prop40
 90
        0
102
RTVSPost2010PropOp40
 70
     1
102
RTVSPost2010Prop41ColorIndex
 90
       18
102
RTVSPost2010Prop41ColorRGB
 90
        0
102
RTVSPost2010PropOp41
 70
     1
102
RTVSPost2010Prop42
 90
       50
102
RTVSPost2010PropOp42
 70
     1
102
RTVSPost2010Prop43
 90
        3
102
RTVSPost2010PropOp43
 70
     1
102
RTVSPost2010Prop44ColorIndex
 90
        5
102
RTVSPost2010Prop44ColorRGB
 90
      255
102
RTVSPost2010PropOp44
 70
     1
102
RTVSPost2010Prop45
280
     0
102
RTVSPost2010PropOp45
 70
     1
102
RTVSPost2010Prop46
 90
       50
102
RTVSPost2010PropOp46
 70
     1
102
RTVSPost2010Prop47
 90
       50
102
RTVSPost2010PropOp47
 70
     1
102
RTVSPost2010Prop48
 90
       50
102
RTVSPost2010PropOp48
 70
     1
102
RTVSPost2010Prop49
280
     0
102
RTVSPost2010PropOp49
 70
     1
102
RTVSPost2010Prop50
 90
       50
102
RTVSPost2010PropOp50
 70
     1
102
RTVSPost2010Prop51ColorIndex
 90
      256
102
RTVSPost2010Prop51ColorRGB
 90
-16777216
102
RTVSPost2010PropOp51
 70
     0
102
RTVSPost2010Prop52
140
1.0
102
RTVSPost2010PropOp52
 70
     0
102
RTVSPost2010Prop53
 90
        2
102
RTVSPost2010PropOp53
 70
     1
102
RTVSPost2010Prop54
  1
strokes_ogs.tif
102
RTVSPost2010PropOp54
 70
     1
102
RTVSPost2010Prop55
280
     0
102
RTVSPost2010PropOp55
 70
     1
102
RTVSPost2010Prop56
140
1.0
102
RTVSPost2010PropOp56
 70
     1
102
RTVSPost2010Prop57
140
1.0
102
RTVSPost2010PropOp57
 70
     1
  0
XRECORD
  5
22155
102
{ACAD_REACTORS
330
22154
102
}
330
22154
100
AcDbXrecord
280
     1
102
RTVSPost2010Prop28
280
     0
102
RTVSPost2010PropOp28
 70
     1
102
RTVSPost2010Prop29
280
     1
102
RTVSPost2010PropOp29
 70
     1
102
RTVSPost2010Prop30
280
     1
102
RTVSPost2010PropOp30
 70
     1
102
RTVSPost2010Prop31
280
     0
102
RTVSPost2010PropOp31
 70
     1
102
RTVSPost2010Prop32
280
     0
102
RTVSPost2010PropOp32
 70
     1
102
RTVSPost2010Prop33
280
     0
102
RTVSPost2010PropOp33
 70
     1
102
RTVSPost2010Prop34
280
     0
102
RTVSPost2010PropOp34
 70
     1
102
RTVSPost2010Prop35
280
     0
102
RTVSPost2010PropOp35
 70
     1
102
RTVSPost2010Prop36
280
     0
102
RTVSPost2010PropOp36
 70
     1
102
RTVSPost2010Prop37
 90
       50
102
RTVSPost2010PropOp37
 70
     1
102
RTVSPost2010Prop38
140
0.0
102
RTVSPost2010PropOp38
 70
     1
102
RTVSPost2010Prop39
140
1.0
102
RTVSPost2010PropOp39
 70
     1
102
RTVSPost2010Prop40
 90
        0
102
RTVSPost2010PropOp40
 70
     1
102
RTVSPost2010Prop41ColorIndex
 90
       18
102
RTVSPost2010Prop41ColorRGB
 90
        0
102
RTVSPost2010PropOp41
 70
     1
102
RTVSPost2010Prop42
 90
       50
102
RTVSPost2010PropOp42
 70
     1
102
RTVSPost2010Prop43
 90
        3
102
RTVSPost2010PropOp43
 70
     1
102
RTVSPost2010Prop44ColorIndex
 90
        5
102
RTVSPost2010Prop44ColorRGB
 90
      255
102
RTVSPost2010PropOp44
 70
     1
102
RTVSPost2010Prop45
280
     0
102
RTVSPost2010PropOp45
 70
     1
102
RTVSPost2010Prop46
 90
       50
102
RTVSPost2010PropOp46
 70
     1
102
RTVSPost2010Prop47
 90
       50
102
RTVSPost2010PropOp47
 70
     1
102
RTVSPost2010Prop48
 90
       50
102
RTVSPost2010PropOp48
 70
     1
102
RTVSPost2010Prop49
280
     0
102
RTVSPost2010PropOp49
 70
     1
102
RTVSPost2010Prop50
 90
       50
102
RTVSPost2010PropOp50
 70
     1
102
RTVSPost2010Prop51ColorIndex
 90
      256
102
RTVSPost2010Prop51ColorRGB
 90
-16777216
102
RTVSPost2010PropOp51
 70
     0
102
RTVSPost2010Prop52
140
1.0
102
RTVSPost2010PropOp52
 70
     0
102
RTVSPost2010Prop53
 90
        2
102
RTVSPost2010PropOp53
 70
     1
102
RTVSPost2010Prop54
  1
strokes_ogs.tif
102
RTVSPost2010PropOp54
 70
     1
102
RTVSPost2010Prop55
280
     0
102
RTVSPost2010PropOp55
 70
     1
102
RTVSPost2010Prop56
140
1.0
102
RTVSPost2010PropOp56
 70
     1
102
RTVSPost2010Prop57
140
1.0
102
RTVSPost2010PropOp57
 70
     1
  0
XRECORD
  5
22157
102
{ACAD_REACTORS
330
22156
102
}
330
22156
100
AcDbXrecord
280
     1
102
RTVSPost2010Prop28
280
     0
102
RTVSPost2010PropOp28
 70
     1
102
RTVSPost2010Prop29
280
     1
102
RTVSPost2010PropOp29
 70
     1
102
RTVSPost2010Prop30
280
     1
102
RTVSPost2010PropOp30
 70
     1
102
RTVSPost2010Prop31
280
     0
102
RTVSPost2010PropOp31
 70
     1
102
RTVSPost2010Prop32
280
     0
102
RTVSPost2010PropOp32
 70
     1
102
RTVSPost2010Prop33
280
     0
102
RTVSPost2010PropOp33
 70
     1
102
RTVSPost2010Prop34
280
     0
102
RTVSPost2010PropOp34
 70
     1
102
RTVSPost2010Prop35
280
     0
102
RTVSPost2010PropOp35
 70
     1
102
RTVSPost2010Prop36
280
     0
102
RTVSPost2010PropOp36
 70
     1
102
RTVSPost2010Prop37
 90
       50
102
RTVSPost2010PropOp37
 70
     1
102
RTVSPost2010Prop38
140
0.0
102
RTVSPost2010PropOp38
 70
     1
102
RTVSPost2010Prop39
140
1.0
102
RTVSPost2010PropOp39
 70
     1
102
RTVSPost2010Prop40
 90
        0
102
RTVSPost2010PropOp40
 70
     1
102
RTVSPost2010Prop41ColorIndex
 90
       18
102
RTVSPost2010Prop41ColorRGB
 90
        0
102
RTVSPost2010PropOp41
 70
     1
102
RTVSPost2010Prop42
 90
       50
102
RTVSPost2010PropOp42
 70
     1
102
RTVSPost2010Prop43
 90
        3
102
RTVSPost2010PropOp43
 70
     1
102
RTVSPost2010Prop44ColorIndex
 90
        5
102
RTVSPost2010Prop44ColorRGB
 90
      255
102
RTVSPost2010PropOp44
 70
     1
102
RTVSPost2010Prop45
280
     0
102
RTVSPost2010PropOp45
 70
     1
102
RTVSPost2010Prop46
 90
       50
102
RTVSPost2010PropOp46
 70
     1
102
RTVSPost2010Prop47
 90
       50
102
RTVSPost2010PropOp47
 70
     1
102
RTVSPost2010Prop48
 90
       50
102
RTVSPost2010PropOp48
 70
     1
102
RTVSPost2010Prop49
280
     0
102
RTVSPost2010PropOp49
 70
     1
102
RTVSPost2010Prop50
 90
       50
102
RTVSPost2010PropOp50
 70
     1
102
RTVSPost2010Prop51ColorIndex
 90
      256
102
RTVSPost2010Prop51ColorRGB
 90
-16777216
102
RTVSPost2010PropOp51
 70
     0
102
RTVSPost2010Prop52
140
1.0
102
RTVSPost2010PropOp52
 70
     0
102
RTVSPost2010Prop53
 90
        2
102
RTVSPost2010PropOp53
 70
     1
102
RTVSPost2010Prop54
  1
strokes_ogs.tif
102
RTVSPost2010PropOp54
 70
     1
102
RTVSPost2010Prop55
280
     0
102
RTVSPost2010PropOp55
 70
     1
102
RTVSPost2010Prop56
140
1.0
102
RTVSPost2010PropOp56
 70
     1
102
RTVSPost2010Prop57
140
1.0
102
RTVSPost2010PropOp57
 70
     1
  0
XRECORD
  5
22149
102
{ACAD_REACTORS
330
22148
102
}
330
22148
100
AcDbXrecord
280
     1
102
RTVSPost2010Prop28
280
     0
102
RTVSPost2010PropOp28
 70
     1
102
RTVSPost2010Prop29
280
     1
102
RTVSPost2010PropOp29
 70
     1
102
RTVSPost2010Prop30
280
     1
102
RTVSPost2010PropOp30
 70
     1
102
RTVSPost2010Prop31
280
     0
102
RTVSPost2010PropOp31
 70
     1
102
RTVSPost2010Prop32
280
     0
102
RTVSPost2010PropOp32
 70
     1
102
RTVSPost2010Prop33
280
     0
102
RTVSPost2010PropOp33
 70
     1
102
RTVSPost2010Prop34
280
     0
102
RTVSPost2010PropOp34
 70
     1
102
RTVSPost2010Prop35
280
     0
102
RTVSPost2010PropOp35
 70
     1
102
RTVSPost2010Prop36
280
     0
102
RTVSPost2010PropOp36
 70
     1
102
RTVSPost2010Prop37
 90
       50
102
RTVSPost2010PropOp37
 70
     1
102
RTVSPost2010Prop38
140
0.0
102
RTVSPost2010PropOp38
 70
     1
102
RTVSPost2010Prop39
140
1.0
102
RTVSPost2010PropOp39
 70
     1
102
RTVSPost2010Prop40
 90
        0
102
RTVSPost2010PropOp40
 70
     1
102
RTVSPost2010Prop41ColorIndex
 90
       18
102
RTVSPost2010Prop41ColorRGB
 90
        0
102
RTVSPost2010PropOp41
 70
     1
102
RTVSPost2010Prop42
 90
       50
102
RTVSPost2010PropOp42
 70
     1
102
RTVSPost2010Prop43
 90
        3
102
RTVSPost2010PropOp43
 70
     1
102
RTVSPost2010Prop44ColorIndex
 90
        5
102
RTVSPost2010Prop44ColorRGB
 90
      255
102
RTVSPost2010PropOp44
 70
     1
102
RTVSPost2010Prop45
280
     0
102
RTVSPost2010PropOp45
 70
     1
102
RTVSPost2010Prop46
 90
       50
102
RTVSPost2010PropOp46
 70
     1
102
RTVSPost2010Prop47
 90
       50
102
RTVSPost2010PropOp47
 70
     1
102
RTVSPost2010Prop48
 90
       50
102
RTVSPost2010PropOp48
 70
     1
102
RTVSPost2010Prop49
280
     0
102
RTVSPost2010PropOp49
 70
     1
102
RTVSPost2010Prop50
 90
       50
102
RTVSPost2010PropOp50
 70
     1
102
RTVSPost2010Prop51ColorIndex
 90
      256
102
RTVSPost2010Prop51ColorRGB
 90
-16777216
102
RTVSPost2010PropOp51
 70
     0
102
RTVSPost2010Prop52
140
1.0
102
RTVSPost2010PropOp52
 70
     0
102
RTVSPost2010Prop53
 90
        2
102
RTVSPost2010PropOp53
 70
     1
102
RTVSPost2010Prop54
  1
strokes_ogs.tif
102
RTVSPost2010PropOp54
 70
     1
102
RTVSPost2010Prop55
280
     0
102
RTVSPost2010PropOp55
 70
     1
102
RTVSPost2010Prop56
140
1.0
102
RTVSPost2010PropOp56
 70
     1
102
RTVSPost2010Prop57
140
1.0
102
RTVSPost2010PropOp57
 70
     1
  0
XRECORD
  5
22151
102
{ACAD_REACTORS
330
22150
102
}
330
22150
100
AcDbXrecord
280
     1
102
RTVSPost2010Prop28
280
     0
102
RTVSPost2010PropOp28
 70
     1
102
RTVSPost2010Prop29
280
     1
102
RTVSPost2010PropOp29
 70
     1
102
RTVSPost2010Prop30
280
     1
102
RTVSPost2010PropOp30
 70
     1
102
RTVSPost2010Prop31
280
     0
102
RTVSPost2010PropOp31
 70
     1
102
RTVSPost2010Prop32
280
     0
102
RTVSPost2010PropOp32
 70
     1
102
RTVSPost2010Prop33
280
     0
102
RTVSPost2010PropOp33
 70
     1
102
RTVSPost2010Prop34
280
     0
102
RTVSPost2010PropOp34
 70
     1
102
RTVSPost2010Prop35
280
     0
102
RTVSPost2010PropOp35
 70
     1
102
RTVSPost2010Prop36
280
     0
102
RTVSPost2010PropOp36
 70
     1
102
RTVSPost2010Prop37
 90
       50
102
RTVSPost2010PropOp37
 70
     1
102
RTVSPost2010Prop38
140
0.0
102
RTVSPost2010PropOp38
 70
     1
102
RTVSPost2010Prop39
140
1.0
102
RTVSPost2010PropOp39
 70
     1
102
RTVSPost2010Prop40
 90
        0
102
RTVSPost2010PropOp40
 70
     1
102
RTVSPost2010Prop41ColorIndex
 90
       18
102
RTVSPost2010Prop41ColorRGB
 90
        0
102
RTVSPost2010PropOp41
 70
     1
102
RTVSPost2010Prop42
 90
       50
102
RTVSPost2010PropOp42
 70
     1
102
RTVSPost2010Prop43
 90
        3
102
RTVSPost2010PropOp43
 70
     1
102
RTVSPost2010Prop44ColorIndex
 90
        5
102
RTVSPost2010Prop44ColorRGB
 90
      255
102
RTVSPost2010PropOp44
 70
     1
102
RTVSPost2010Prop45
280
     0
102
RTVSPost2010PropOp45
 70
     1
102
RTVSPost2010Prop46
 90
       50
102
RTVSPost2010PropOp46
 70
     1
102
RTVSPost2010Prop47
 90
       50
102
RTVSPost2010PropOp47
 70
     1
102
RTVSPost2010Prop48
 90
       50
102
RTVSPost2010PropOp48
 70
     1
102
RTVSPost2010Prop49
280
     0
102
RTVSPost2010PropOp49
 70
     1
102
RTVSPost2010Prop50
 90
       50
102
RTVSPost2010PropOp50
 70
     1
102
RTVSPost2010Prop51ColorIndex
 90
      256
102
RTVSPost2010Prop51ColorRGB
 90
-16777216
102
RTVSPost2010PropOp51
 70
     0
102
RTVSPost2010Prop52
140
1.0
102
RTVSPost2010PropOp52
 70
     0
102
RTVSPost2010Prop53
 90
        2
102
RTVSPost2010PropOp53
 70
     1
102
RTVSPost2010Prop54
  1
strokes_ogs.tif
102
RTVSPost2010PropOp54
 70
     1
102
RTVSPost2010Prop55
280
     0
102
RTVSPost2010PropOp55
 70
     1
102
RTVSPost2010Prop56
140
1.0
102
RTVSPost2010PropOp56
 70
     1
102
RTVSPost2010Prop57
140
1.0
102
RTVSPost2010PropOp57
 70
     1
  0
XRECORD
  5
22159
102
{ACAD_REACTORS
330
22158
102
}
330
22158
100
AcDbXrecord
280
     1
102
RTVSPost2010Prop28
280
     0
102
RTVSPost2010PropOp28
 70
     1
102
RTVSPost2010Prop29
280
     1
102
RTVSPost2010PropOp29
 70
     1
102
RTVSPost2010Prop30
280
     1
102
RTVSPost2010PropOp30
 70
     1
102
RTVSPost2010Prop31
280
     0
102
RTVSPost2010PropOp31
 70
     1
102
RTVSPost2010Prop32
280
     0
102
RTVSPost2010PropOp32
 70
     1
102
RTVSPost2010Prop33
280
     0
102
RTVSPost2010PropOp33
 70
     1
102
RTVSPost2010Prop34
280
     0
102
RTVSPost2010PropOp34
 70
     1
102
RTVSPost2010Prop35
280
     0
102
RTVSPost2010PropOp35
 70
     1
102
RTVSPost2010Prop36
280
     0
102
RTVSPost2010PropOp36
 70
     1
102
RTVSPost2010Prop37
 90
       50
102
RTVSPost2010PropOp37
 70
     1
102
RTVSPost2010Prop38
140
0.0
102
RTVSPost2010PropOp38
 70
     1
102
RTVSPost2010Prop39
140
1.0
102
RTVSPost2010PropOp39
 70
     1
102
RTVSPost2010Prop40
 90
        0
102
RTVSPost2010PropOp40
 70
     1
102
RTVSPost2010Prop41ColorIndex
 90
       18
102
RTVSPost2010Prop41ColorRGB
 90
        0
102
RTVSPost2010PropOp41
 70
     1
102
RTVSPost2010Prop42
 90
       50
102
RTVSPost2010PropOp42
 70
     1
102
RTVSPost2010Prop43
 90
        3
102
RTVSPost2010PropOp43
 70
     1
102
RTVSPost2010Prop44ColorIndex
 90
        5
102
RTVSPost2010Prop44ColorRGB
 90
      255
102
RTVSPost2010PropOp44
 70
     1
102
RTVSPost2010Prop45
280
     0
102
RTVSPost2010PropOp45
 70
     1
102
RTVSPost2010Prop46
 90
       50
102
RTVSPost2010PropOp46
 70
     1
102
RTVSPost2010Prop47
 90
       50
102
RTVSPost2010PropOp47
 70
     1
102
RTVSPost2010Prop48
 90
       50
102
RTVSPost2010PropOp48
 70
     1
102
RTVSPost2010Prop49
280
     0
102
RTVSPost2010PropOp49
 70
     1
102
RTVSPost2010Prop50
 90
       50
102
RTVSPost2010PropOp50
 70
     1
102
RTVSPost2010Prop51ColorIndex
 90
      256
102
RTVSPost2010Prop51ColorRGB
 90
-16777216
102
RTVSPost2010PropOp51
 70
     0
102
RTVSPost2010Prop52
140
1.0
102
RTVSPost2010PropOp52
 70
     0
102
RTVSPost2010Prop53
 90
        2
102
RTVSPost2010PropOp53
 70
     1
102
RTVSPost2010Prop54
  1
strokes_ogs.tif
102
RTVSPost2010PropOp54
 70
     1
102
RTVSPost2010Prop55
280
     0
102
RTVSPost2010PropOp55
 70
     1
102
RTVSPost2010Prop56
140
1.0
102
RTVSPost2010PropOp56
 70
     1
102
RTVSPost2010Prop57
140
1.0
102
RTVSPost2010PropOp57
 70
     1
  0
ENDSEC
  0
EOF
