  0
SECTION
  2
HEADER
  9
$ACADVER
  1
AC1024
  9
$ACADMAINTVER
 70
   182
  9
$DWGCODEPAGE
  3
ANSI_1252
  9
$LASTSAVEDBY
  1
kamerka
  9
$INSBASE
 10
0.0
 20
0.0
 30
0.0
  9
$EXTMIN
 10
-131.4871207572137
 20
-58.88586953904746
 30
-0.0000000000000057
  9
$EXTMAX
 10
87.75421201688505
 20
61.66571015810802
 30
0.0000000000000104
  9
$LIMMIN
 10
0.0
 20
0.0
  9
$LIMMAX
 10
420.0
 20
297.0
  9
$ORTHOMODE
 70
     0
  9
$REGENMODE
 70
     1
  9
$FILLMODE
 70
     1
  9
$QTEXTMODE
 70
     0
  9
$MIRRTEXT
 70
     0
  9
$LTSCALE
 40
23.1
  9
$ATTMODE
 70
     1
  9
$TEXTSIZE
 40
3.5
  9
$TRACEWID
 40
0.05
  9
$TEXTSTYLE
  7
STANDARD
  9
$CLAYER
  8
0
  9
$CELTYPE
  6
BYLAYER
  9
$CECOLOR
 62
   256
  9
$CELTSCALE
 40
1.0
  9
$DISPSILH
 70
     0
  9
$DIMSCALE
 40
1.0
  9
$DIMASZ
 40
4.57
  9
$DIMEXO
 40
0.0625
  9
$DIMDLI
 40
0.38
  9
$DIMRND
 40
0.0
  9
$DIMDLE
 40
0.0
  9
$DIMEXE
 40
0.18
  9
$DIMTP
 40
0.01
  9
$DIMTM
 40
0.01
  9
$DIMTXT
 40
3.5
  9
$DIMCEN
 40
0.09
  9
$DIMTSZ
 40
0.0
  9
$DIMTOL
 70
     0
  9
$DIMLIM
 70
     0
  9
$DIMTIH
 70
     0
  9
$DIMTOH
 70
     0
  9
$DIMSE1
 70
     0
  9
$DIMSE2
 70
     0
  9
$DIMTAD
 70
     1
  9
$DIMZIN
 70
     8
  9
$DIMBLK
  1

  9
$DIMASO
 70
     1
  9
$DIMSHO
 70
     1
  9
$DIMPOST
  1

  9
$DIMAPOST
  1

  9
$DIMALT
 70
     0
  9
$DIMALTD
 70
     2
  9
$DIMALTF
 40
25.4
  9
$DIMLFAC
 40
1.0
  9
$DIMTOFL
 70
     0
  9
$DIMTVP
 40
0.0
  9
$DIMTIX
 70
     0
  9
$DIMSOXD
 70
     0
  9
$DIMSAH
 70
     0
  9
$DIMBLK1
  1

  9
$DIMBLK2
  1

  9
$DIMSTYLE
  2
STANDARD
  9
$DIMCLRD
 70
     0
  9
$DIMCLRE
 70
     0
  9
$DIMCLRT
 70
     0
  9
$DIMTFAC
 40
1.0
  9
$DIMGAP
 40
0.09
  9
$DIMJUST
 70
     0
  9
$DIMSD1
 70
     0
  9
$DIMSD2
 70
     0
  9
$DIMTOLJ
 70
     1
  9
$DIMTZIN
 70
     8
  9
$DIMALTZ
 70
     0
  9
$DIMALTTZ
 70
     0
  9
$DIMUPT
 70
     0
  9
$DIMDEC
 70
     3
  9
$DIMTDEC
 70
     3
  9
$DIMALTU
 70
     2
  9
$DIMALTTD
 70
     2
  9
$DIMTXSTY
  7
STANDARD
  9
$DIMAUNIT
 70
     0
  9
$DIMADEC
 70
     0
  9
$DIMALTRND
 40
0.0
  9
$DIMAZIN
 70
     0
  9
$DIMDSEP
 70
    46
  9
$DIMATFIT
 70
     0
  9
$DIMFRAC
 70
     0
  9
$DIMLDRBLK
  1

  9
$DIMLUNIT
 70
     2
  9
$DIMLWD
 70
    -2
  9
$DIMLWE
 70
    -2
  9
$DIMTMOVE
 70
     0
  9
$DIMFXL
 40
1.0
  9
$DIMFXLON
 70
     0
  9
$DIMJOGANG
 40
0.7853981633974483
  9
$DIMTFILL
 70
     0
  9
$DIMTFILLCLR
 70
     0
  9
$DIMARCSYM
 70
     0
  9
$DIMLTYPE
  6

  9
$DIMLTEX1
  6

  9
$DIMLTEX2
  6

  9
$DIMTXTDIRECTION
 70
     0
  9
$LUNITS
 70
     2
  9
$LUPREC
 70
     4
  9
$SKETCHINC
 40
0.1
  9
$FILLETRAD
 40
0.0
  9
$AUNITS
 70
     0
  9
$AUPREC
 70
     0
  9
$MENU
  1
.
  9
$ELEVATION
 40
0.0
  9
$PELEVATION
 40
0.0
  9
$THICKNESS
 40
0.0
  9
$LIMCHECK
 70
     0
  9
$CHAMFERA
 40
0.0
  9
$CHAMFERB
 40
0.0
  9
$CHAMFERC
 40
0.0
  9
$CHAMFERD
 40
0.0
  9
$SKPOLY
 70
     0
  9
$TDCREATE
 40
2458446.405227107
  9
$TDUCREATE
 40
2458446.321893773
  9
$TDUPDATE
 40
2458977.585880370
  9
$TDUUPDATE
 40
2458977.502547037
  9
$TDINDWG
 40
0.0289418750
  9
$TDUSRTIMER
 40
0.0289408102
  9
$USRTIMER
 70
     1
  9
$ANGBASE
 50
0.0
  9
$ANGDIR
 70
     0
  9
$PDMODE
 70
     3
  9
$PDSIZE
 40
0.3125
  9
$PLINEWID
 40
0.0
  9
$SPLFRAME
 70
     0
  9
$SPLINETYPE
 70
     6
  9
$SPLINESEGS
 70
     8
  9
$HANDSEED
  5
22116
  9
$SURFTAB1
 70
     6
  9
$SURFTAB2
 70
     6
  9
$SURFTYPE
 70
     6
  9
$SURFU
 70
     6
  9
$SURFV
 70
     6
  9
$UCSBASE
  2

  9
$UCSNAME
  2

  9
$UCSORG
 10
0.0
 20
0.0
 30
0.0
  9
$UCSXDIR
 10
1.0
 20
0.0
 30
0.0
  9
$UCSYDIR
 10
0.0
 20
1.0
 30
0.0
  9
$UCSORTHOREF
  2

  9
$UCSORTHOVIEW
 70
     0
  9
$UCSORGTOP
 10
0.0
 20
0.0
 30
0.0
  9
$UCSORGBOTTOM
 10
0.0
 20
0.0
 30
0.0
  9
$UCSORGLEFT
 10
0.0
 20
0.0
 30
0.0
  9
$UCSORGRIGHT
 10
0.0
 20
0.0
 30
0.0
  9
$UCSORGFRONT
 10
0.0
 20
0.0
 30
0.0
  9
$UCSORGBACK
 10
0.0
 20
0.0
 30
0.0
  9
$PUCSBASE
  2

  9
$PUCSNAME
  2

  9
$PUCSORG
 10
0.0
 20
0.0
 30
0.0
  9
$PUCSXDIR
 10
1.0
 20
0.0
 30
0.0
  9
$PUCSYDIR
 10
0.0
 20
1.0
 30
0.0
  9
$PUCSORTHOREF
  2

  9
$PUCSORTHOVIEW
 70
     0
  9
$PUCSORGTOP
 10
0.0
 20
0.0
 30
0.0
  9
$PUCSORGBOTTOM
 10
0.0
 20
0.0
 30
0.0
  9
$PUCSORGLEFT
 10
0.0
 20
0.0
 30
0.0
  9
$PUCSORGRIGHT
 10
0.0
 20
0.0
 30
0.0
  9
$PUCSORGFRONT
 10
0.0
 20
0.0
 30
0.0
  9
$PUCSORGBACK
 10
0.0
 20
0.0
 30
0.0
  9
$USERI1
 70
     0
  9
$USERI2
 70
     0
  9
$USERI3
 70
     0
  9
$USERI4
 70
     0
  9
$USERI5
 70
     0
  9
$USERR1
 40
0.0
  9
$USERR2
 40
0.0
  9
$USERR3
 40
0.0
  9
$USERR4
 40
0.0
  9
$USERR5
 40
0.0
  9
$WORLDVIEW
 70
     1
  9
$SHADEDGE
 70
     3
  9
$SHADEDIF
 70
    70
  9
$TILEMODE
 70
     1
  9
$MAXACTVP
 70
    64
  9
$PINSBASE
 10
0.0
 20
0.0
 30
0.0
  9
$PLIMCHECK
 70
     0
  9
$PEXTMIN
 10
28.69141678810127
 20
19.6363175392151
 30
0.0
  9
$PEXTMAX
 10
258.2227510929107
 20
176.7268578529358
 30
0.0
  9
$PLIMMIN
 10
-5.027069091796875
 20
-6.805083274841307
  9
$PLIMMAX
 10
291.9412536621094
 20
203.1682443618775
  9
$UNITMODE
 70
     0
  9
$VISRETAIN
 70
     1
  9
$PLINEGEN
 70
     0
  9
$PSLTSCALE
 70
     1
  9
$TREEDEPTH
 70
  3020
  9
$CMLSTYLE
  2
STANDARD
  9
$CMLJUST
 70
     0
  9
$CMLSCALE
 40
1.0
  9
$PROXYGRAPHICS
 70
     1
  9
$MEASUREMENT
 70
     1
  9
$CELWEIGHT
370
    -1
  9
$ENDCAPS
280
     0
  9
$JOINSTYLE
280
     0
  9
$LWDISPLAY
290
     0
  9
$INSUNITS
 70
     0
  9
$HYPERLINKBASE
  1

  9
$STYLESHEET
  1
A1-A2.CTB
  9
$XEDIT
290
     1
  9
$CEPSNTYPE
380
     0
  9
$PSTYLEMODE
290
     1
  9
$FINGERPRINTGUID
  2
{6D3BC7B5-ACA7-406D-8A0D-A7DBBE093430}
  9
$VERSIONGUID
  2
{90B12C28-CAA4-450B-B3FD-DAA1649C9506}
  9
$EXTNAMES
290
     1
  9
$PSVPSCALE
 40
0.0
  9
$OLESTARTUP
290
     0
  9
$SORTENTS
280
   127
  9
$INDEXCTL
280
     0
  9
$HIDETEXT
280
     0
  9
$XCLIPFRAME
280
     2
  9
$HALOGAP
280
     0
  9
$OBSCOLOR
 70
   257
  9
$OBSLTYPE
280
     0
  9
$INTERSECTIONDISPLAY
280
     0
  9
$INTERSECTIONCOLOR
 70
   257
  9
$DIMASSOC
280
     1
  9
$PROJECTNAME
  1

  9
$CAMERADISPLAY
290
     0
  9
$LENSLENGTH
 40
50.0
  9
$CAMERAHEIGHT
 40
0.0
  9
$STEPSPERSEC
 40
2.0
  9
$STEPSIZE
 40
6.0
  9
$3DDWFPREC
 40
2.0
  9
$PSOLWIDTH
 40
0.25
  9
$PSOLHEIGHT
 40
4.0
  9
$LOFTANG1
 40
1.570796326794896
  9
$LOFTANG2
 40
1.570796326794896
  9
$LOFTMAG1
 40
0.0
  9
$LOFTMAG2
 40
0.0
  9
$LOFTPARAM
 70
     7
  9
$LOFTNORMALS
280
     1
  9
$LATITUDE
 40
37.795
  9
$LONGITUDE
 40
-122.394
  9
$NORTHDIRECTION
 40
0.0
  9
$TIMEZONE
 70
 -8000
  9
$LIGHTGLYPHDISPLAY
280
     1
  9
$TILEMODELIGHTSYNCH
280
     1
  9
$CMATERIAL
347
318C
  9
$SOLIDHIST
280
     0
  9
$SHOWHIST
280
     1
  9
$DWFFRAME
280
     2
  9
$DGNFRAME
280
     0
  9
$REALWORLDSCALE
290
     1
  9
$INTERFERECOLOR
 62
     1
  9
$INTERFEREOBJVS
345
3199
  9
$INTERFEREVPVS
346
1B2E3
  9
$CSHADOW
280
     0
  9
$SHADOWPLANELOCATION
 40
0.0
  0
ENDSEC
  0
SECTION
  2
CLASSES
  0
CLASS
  1
ACDBDICTIONARYWDFLT
  2
AcDbDictionaryWithDefault
  3
ObjectDBX Classes
 90
        0
 91
        1
280
     0
281
     0
  0
CLASS
  1
MATERIAL
  2
AcDbMaterial
  3
ObjectDBX Classes
 90
     1153
 91
        3
280
     0
281
     0
  0
CLASS
  1
VISUALSTYLE
  2
AcDbVisualStyle
  3
ObjectDBX Classes
 90
     4095
 91
       26
280
     0
281
     0
  0
CLASS
  1
TABLESTYLE
  2
AcDbTableStyle
  3
ObjectDBX Classes
 90
     4095
 91
        1
280
     0
281
     0
  0
CLASS
  1
SORTENTSTABLE
  2
AcDbSortentsTable
  3
ObjectDBX Classes
 90
        0
 91
        2
280
     0
281
     0
  0
CLASS
  1
DICTIONARYVAR
  2
AcDbDictionaryVar
  3
ObjectDBX Classes
 90
        0
 91
       13
280
     0
281
     0
  0
CLASS
  1
EXACXREFPANELOBJECT
  2
ExAcXREFPanelObject
  3
EXAC_ESW
 90
     1025
 91
        0
280
     1
281
     0
  0
CLASS
  1
NPOCOLLECTION
  2
AcDbImpNonPersistentObjectsCollection
  3
ObjectDBX Classes
 90
     1153
 91
        0
280
     1
281
     0
  0
CLASS
  1
SCALE
  2
AcDbScale
  3
ObjectDBX Classes
 90
     1153
 91
       33
280
     0
281
     0
  0
CLASS
  1
MLEADERSTYLE
  2
AcDbMLeaderStyle
  3
ACDB_MLEADERSTYLE_CLASS
 90
     4095
 91
        1
280
     0
281
     0
  0
CLASS
  1
ACDBSECTIONVIEWSTYLE
  2
AcDbSectionViewStyle
  3
ObjectDBX Classes
 90
     1025
 91
        2
280
     0
281
     0
  0
CLASS
  1
ACDBDETAILVIEWSTYLE
  2
AcDbDetailViewStyle
  3
ObjectDBX Classes
 90
     1025
 91
        2
280
     0
281
     0
  0
CLASS
  1
CELLSTYLEMAP
  2
AcDbCellStyleMap
  3
ObjectDBX Classes
 90
     1152
 91
        2
280
     0
281
     0
  0
CLASS
  1
ACAD_EVALUATION_GRAPH
  2
AcDbEvalGraph
  3
ObjectDBX Classes
 90
     1153
 91
        0
280
     0
281
     0
  0
CLASS
  1
ACAECUSTOBJ
  2
AcAeEditorObj
  3
AcAeEditorObj
 90
     1024
 91
        0
280
     0
281
     0
  0
CLASS
  1
ACDB_DYNAMICBLOCKPURGEPREVENTER_VERSION
  2
AcDbDynamicBlockPurgePreventer
  3
ObjectDBX Classes
 90
     1153
 91
        0
280
     0
281
     0
  0
CLASS
  1
FIELD
  2
AcDbField
  3
ObjectDBX Classes
 90
     1152
 91
        0
280
     0
281
     0
  0
CLASS
  1
FIELDLIST
  2
AcDbFieldList
  3
ObjectDBX Classes
 90
     1152
 91
        1
280
     0
281
     0
  0
CLASS
  1
ACDB_ALDIMOBJECTCONTEXTDATA_CLASS
  2
AcDbAlignedDimensionObjectContextData
  3
ObjectDBX Classes
 90
     1153
 91
        0
280
     0
281
     0
  0
ENDSEC
  0
SECTION
  2
TABLES
  0
TABLE
  2
VPORT
  5
8
330
0
100
AcDbSymbolTable
 70
     1
  0
VPORT
  5
1F4
330
8
100
AcDbSymbolTableRecord
100
AcDbViewportTableRecord
  2
*ACTIVE
 70
     0
 10
0.0
 20
0.0
 11
1.0
 21
1.0
 12
-21.86645437016431
 22
1.389920309530282
 13
0.0
 23
0.0
 14
1.0
 24
1.0
 15
0.0
 25
0.0
 16
0.0
 26
0.0
 36
1.0
 17
0.0
 27
0.0
 37
0.0
 40
121.5848789517025
 41
2.698140200286123
 42
50.0
 43
0.0
 44
0.0
 50
0.0
 51
0.0
 71
     0
 72
  2000
 73
     1
 74
     1
 75
     0
 76
     0
 77
     0
 78
     0
281
     0
 65
     1
110
0.0
120
0.0
130
0.0
111
1.0
121
0.0
131
0.0
112
0.0
122
1.0
132
0.0
 79
     0
146
0.0
348
3195
 60
     3
 61
     5
292
     1
282
     1
141
0.0
142
0.0
 63
   250
421
  3355443
1001
ACAD_NAV_VCDISPLAY
1070
     3
  0
ENDTAB
  0
TABLE
  2
LTYPE
  5
5
330
0
100
AcDbSymbolTable
 70
     6
  0
LTYPE
  5
14
330
5
100
AcDbSymbolTableRecord
100
AcDbLinetypeTableRecord
  2
BYBLOCK
 70
     0
  3

 72
    65
 73
     0
 40
0.0
  0
LTYPE
  5
15
330
5
100
AcDbSymbolTableRecord
100
AcDbLinetypeTableRecord
  2
BYLAYER
 70
     0
  3

 72
    65
 73
     0
 40
0.0
  0
LTYPE
  5
16
330
5
100
AcDbSymbolTableRecord
100
AcDbLinetypeTableRecord
  2
CONTINUOUS
 70
     0
  3
Solid line
 72
    65
 73
     0
 40
0.0
  0
LTYPE
  5
9C48
330
5
100
AcDbSymbolTableRecord
100
AcDbLinetypeTableRecord
  2
CENTER
 70
     0
  3
____ _ ____ _ ____ _ ____ _ ____ _ ____ _ ____
 72
    65
 73
     4
 40
0.6
 49
0.375
 74
     0
 49
-0.075
 74
     0
 49
0.075
 74
     0
 49
-0.075
 74
     0
  0
LTYPE
  5
20A82
330
5
100
AcDbSymbolTableRecord
100
AcDbLinetypeTableRecord
  2
HIDDEN
 70
     0
  3
- - - - - - - - - - - - - - - - - - - -
 72
    65
 73
     2
 40
0.2
 49
0.1
 74
     0
 49
-0.1
 74
     0
  0
LTYPE
  5
21CB4
330
5
100
AcDbSymbolTableRecord
100
AcDbLinetypeTableRecord
  2
CENTER2
 70
     0
  3
Center (.5x) ___ _ ___ _ ___ _ ___ _ ___ _ ___
 72
    65
 73
     4
 40
28.57499999999999
 49
19.05
 74
     4
 75
     0
340
0
 46
1.0
 50
0.0
 44
0.0
 45
0.0
 49
-3.174999999999998
 74
     4
 75
     0
340
0
 46
1.0
 50
0.0
 44
0.0
 45
0.0
 49
3.174999999999998
 74
     4
 75
     0
340
0
 46
1.0
 50
0.0
 44
0.0
 45
0.0
 49
-3.174999999999998
 74
     4
 75
     0
340
0
 46
1.0
 50
0.0
 44
0.0
 45
0.0
  0
ENDTAB
  0
TABLE
  2
LAYER
  5
2
102
{ACAD_XDICTIONARY
360
422A
102
}
330
0
100
AcDbSymbolTable
 70
    16
  0
LAYER
  5
10
102
{ACAD_XDICTIONARY
360
1B2F5
102
}
330
2
100
AcDbSymbolTableRecord
100
AcDbLayerTableRecord
  2
0
 70
     0
 62
     7
  6
CONTINUOUS
370
    -3
390
318A
347
318E
  0
LAYER
  5
3F8C
102
{ACAD_XDICTIONARY
360
1B2F7
102
}
330
2
100
AcDbSymbolTableRecord
100
AcDbLayerTableRecord
  2
1
 70
     0
 62
     4
  6
BYBLOCK
370
    50
390
318A
347
318E
  0
LAYER
  5
3FA7
330
2
100
AcDbSymbolTableRecord
100
AcDbLayerTableRecord
  2
Defpoints
 70
     0
 62
     7
  6
CONTINUOUS
290
     0
370
    -3
390
318A
347
318E
  0
LAYER
  5
9C4A
102
{ACAD_XDICTIONARY
360
1B2F9
102
}
330
2
100
AcDbSymbolTableRecord
100
AcDbLayerTableRecord
  2
2
 70
     0
 62
     7
  6
BYBLOCK
370
    25
390
318A
347
318E
  0
LAYER
  5
9C4B
102
{ACAD_XDICTIONARY
360
1B2FB
102
}
330
2
100
AcDbSymbolTableRecord
100
AcDbLayerTableRecord
  2
4
 70
     0
 62
     2
  6
CENTER
370
    25
390
318A
347
318E
  0
LAYER
  5
9C4D
102
{ACAD_XDICTIONARY
360
1B2FD
102
}
330
2
100
AcDbSymbolTableRecord
100
AcDbLayerTableRecord
  2
CUT
 70
     0
 62
     1
  6
BYBLOCK
370
    25
390
318A
347
318E
  0
LAYER
  5
9C4E
102
{ACAD_XDICTIONARY
360
1B2FF
102
}
330
2
100
AcDbSymbolTableRecord
100
AcDbLayerTableRecord
  2
NOCUT
 70
     0
 62
     7
  6
BYBLOCK
370
    25
390
318A
347
318E
  0
LAYER
  5
9C4F
102
{ACAD_XDICTIONARY
360
1B301
102
}
330
2
100
AcDbSymbolTableRecord
100
AcDbLayerTableRecord
  2
SK2
 70
     0
 62
     7
  6
BYBLOCK
370
    25
390
318A
347
318E
  0
LAYER
  5
9C50
102
{ACAD_XDICTIONARY
360
1B303
102
}
330
2
100
AcDbSymbolTableRecord
100
AcDbLayerTableRecord
  2
SK1
 70
     0
 62
     4
  6
BYBLOCK
370
    50
390
318A
347
318E
  0
LAYER
  5
9C51
102
{ACAD_XDICTIONARY
360
1B305
102
}
330
2
100
AcDbSymbolTableRecord
100
AcDbLayerTableRecord
  2
SK4
 70
     0
 62
     2
  6
CENTER
370
    25
390
318A
347
318E
  0
LAYER
  5
13335
102
{ACAD_XDICTIONARY
360
1B307
102
}
330
2
100
AcDbSymbolTableRecord
100
AcDbLayerTableRecord
  2
INFTOTAL
 70
     0
 62
     9
  6
BYBLOCK
370
    18
390
318A
347
318E
1001
AcAecLayerStandard
1000

1000

  0
LAYER
  5
1686E
102
{ACAD_XDICTIONARY
360
1B309
102
}
330
2
100
AcDbSymbolTableRecord
100
AcDbLayerTableRecord
  2
SK6
 70
     0
 62
     5
  6
BYBLOCK
370
    -3
390
318A
347
318E
  0
LAYER
  5
21CB5
102
{ACAD_XDICTIONARY
360
21CB6
102
}
330
2
100
AcDbSymbolTableRecord
100
AcDbLayerTableRecord
  2
SK3
 70
     0
 62
     1
  6
HIDDEN
370
    35
390
318A
347
318E
  0
LAYER
  5
21CB7
102
{ACAD_XDICTIONARY
360
21CB8
102
}
330
2
100
AcDbSymbolTableRecord
100
AcDbLayerTableRecord
  2
SKVIEW1
 70
     0
 62
     4
  6
CONTINUOUS
370
    50
390
318A
347
318E
1001
AcAecLayerStandard
1000

1000

  0
LAYER
  5
21CB9
102
{ACAD_XDICTIONARY
360
21CBA
102
}
330
2
100
AcDbSymbolTableRecord
100
AcDbLayerTableRecord
  2
SKVIEW4
 70
     0
 62
     2
  6
CENTER2
370
    25
390
318A
347
318E
1001
AcAecLayerStandard
1000

1000

  0
ENDTAB
  0
TABLE
  2
STYLE
  5
3
330
0
100
AcDbSymbolTable
 70
     2
  0
STYLE
  5
11
330
3
100
AcDbSymbolTableRecord
100
AcDbTextStyleTableRecord
  2
STANDARD
 70
     0
 40
3.5
 41
0.8
 50
0.0
 71
     0
 42
3.5
  3
monos.ttf
  4

1001
ACAD
1000
Monospac821 BT
1071
       49
  0
ENDTAB
  0
TABLE
  2
VIEW
  5
6
330
0
100
AcDbSymbolTable
 70
     0
  0
ENDTAB
  0
TABLE
  2
UCS
  5
7
330
0
100
AcDbSymbolTable
 70
     0
  0
ENDTAB
  0
TABLE
  2
APPID
  5
9
330
0
100
AcDbSymbolTable
 70
    15
  0
APPID
  5
23B
330
9
100
AcDbSymbolTableRecord
100
AcDbRegAppTableRecord
  2
ACAD
 70
     0
  0
APPID
  5
3395
330
9
100
AcDbSymbolTableRecord
100
AcDbRegAppTableRecord
  2
ACAD_EXEMPT_FROM_CAD_STANDARDS
 70
     0
  0
APPID
  5
4229
330
9
100
AcDbSymbolTableRecord
100
AcDbRegAppTableRecord
  2
AcAecLayerStandard
 70
     0
  0
APPID
  5
9A1B
330
9
100
AcDbSymbolTableRecord
100
AcDbRegAppTableRecord
  2
ACAD_PSEXT
 70
     0
  0
APPID
  5
1B313
330
9
100
AcDbSymbolTableRecord
100
AcDbRegAppTableRecord
  2
ACAD_NAV_VCDISPLAY
 70
     0
  0
APPID
  5
1B355
330
9
100
AcDbSymbolTableRecord
100
AcDbRegAppTableRecord
  2
ACAD_MLEADERVER
 70
     0
  0
APPID
  5
1EC7F
330
9
100
AcDbSymbolTableRecord
100
AcDbRegAppTableRecord
  2
ACAUTHENVIRON
 70
     0
  0
APPID
  5
1EC82
330
9
100
AcDbSymbolTableRecord
100
AcDbRegAppTableRecord
  2
AcDbDynamicBlockTrueName
 70
     0
  0
APPID
  5
1EC83
330
9
100
AcDbSymbolTableRecord
100
AcDbRegAppTableRecord
  2
AcDbDynamicBlockGUID
 70
     0
  0
APPID
  5
20A85
330
9
100
AcDbSymbolTableRecord
100
AcDbRegAppTableRecord
  2
AcCmTransparency
 70
     0
  0
APPID
  5
20AE2
330
9
100
AcDbSymbolTableRecord
100
AcDbRegAppTableRecord
  2
ACAD_DSTYLE_DIMRADIAL_EXTENSION
 70
     0
  0
APPID
  5
20CB0
330
9
100
AcDbSymbolTableRecord
100
AcDbRegAppTableRecord
  2
AcadAnnotative
 70
     0
  0
APPID
  5
21667
330
9
100
AcDbSymbolTableRecord
100
AcDbRegAppTableRecord
  2
AcadAnnoMonitorAlertIconDisabled
 70
     0
  0
APPID
  5
21CBD
330
9
100
AcDbSymbolTableRecord
100
AcDbRegAppTableRecord
  2
ACAD_DSTYLE_DIMJAG
 70
     0
  0
APPID
  5
21CBE
330
9
100
AcDbSymbolTableRecord
100
AcDbRegAppTableRecord
  2
ACAD_DSTYLE_DIMTALN
 70
     0
  0
ENDTAB
  0
TABLE
  2
DIMSTYLE
  5
A
330
0
100
AcDbSymbolTable
 70
     3
100
AcDbDimStyleTable
 71
     1
340
243
  0
DIMSTYLE
105
243
102
{ACAD_REACTORS
330
21DF0
330
21DEF
330
21DF1
330
21DEE
330
21F06
102
}
330
A
100
AcDbSymbolTableRecord
100
AcDbDimStyleTableRecord
  2
STANDARD
 70
     0
 41
4.57
 47
0.01
 48
0.01
 73
     0
 74
     0
 77
     1
 78
     8
140
3.5
271
     3
272
     3
284
     8
289
     0
340
11
  0
ENDTAB
  0
TABLE
  2
BLOCK_RECORD
  5
1
330
0
100
AcDbSymbolTable
 70
    18
  0
BLOCK_RECORD
  5
1F
102
{ACAD_XDICTIONARY
360
339C
102
}
330
1
100
AcDbSymbolTableRecord
100
AcDbBlockTableRecord
  2
*MODEL_SPACE
340
31A6
 70
     0
280
     1
281
     0
  0
BLOCK_RECORD
  5
1B
330
1
100
AcDbSymbolTableRecord
100
AcDbBlockTableRecord
  2
*PAPER_SPACE
340
31A7
 70
     0
280
     1
281
     0
  0
BLOCK_RECORD
  5
1B3D7
102
{ACAD_XDICTIONARY
360
1DE81
102
}
330
1
100
AcDbSymbolTableRecord
100
AcDbBlockTableRecord
  2
cero_point
340
0
310
28000000200000002000000001002000000000000010000001000000010000000000000000000000302821FF302821FF302821FF302821FF302821FF302821FF302821FF302821FF302821FF302821FF302821FF302821FF302821FF302821FF302821FF302821FF302821FF302821FF302821FF302821FF302821FF302821
310
FF302821FF302821FF302821FF302821FF302821FF302821FF302821FF302821FF302821FF302821FF302821FF302821FF302821FF302821FF302821FF302821FF302821FF302821FF302821FF302821FF302821FF302821FF302821FF302821FF302821FFFFFF00FFFFFF00FFFFFF00FF302821FF302821FF302821FF3028
310
21FF302821FF302821FF302821FF302821FF302821FF302821FF302821FF302821FF302821FF302821FF302821FF302821FF302821FF302821FF302821FF302821FF302821FF302821FF302821FF302821FFFFFF00FFFFFF00FFFFFF00FFFFFF00FFFFFF00FFFFFF00FFFFFF00FF302821FFFFFF00FFFFFF00FFFFFF00FF30
310
2821FF302821FF302821FF302821FF302821FF302821FF302821FF302821FF302821FF302821FF302821FF302821FF302821FF302821FF302821FF302821FF302821FF302821FF302821FFFFFF00FFFFFF00FFFFFF00FFFFFF00FFFFFF00FFFFFF00FFFFFF00FFFFFF00FFFFFF00FF302821FF302821FF302821FF302821FF
310
FFFF00FFFFFF00FF302821FF302821FF302821FF302821FF302821FF302821FF302821FF302821FF302821FF302821FF302821FF302821FF302821FF302821FF302821FF302821FFFFFF00FFFFFF00FFFFFF00FFFFFF00FFFFFF00FFFFFF00FFFFFF00FFFFFF00FFFFFF00FFFFFF00FF302821FF302821FF302821FF302821
310
FF302821FF302821FFFFFF00FFFFFF00FF302821FF302821FF302821FF302821FF302821FF302821FF302821FF302821FF302821FF302821FF302821FF302821FF302821FFFFFF00FFFFFF00FFFFFF00FFFFFF00FFFFFF00FFFFFF00FFFFFF00FFFFFF00FFFFFF00FFFFFF00FFFFFF00FF302821FF302821FF302821FF3028
310
21FF302821FF302821FF302821FF302821FFFFFF00FF302821FF302821FF302821FF302821FF302821FF302821FF302821FF302821FF302821FF302821FF302821FFFFFF00FFFFFF00FFFFFF00FFFFFF00FFFFFF00FFFFFF00FFFFFF00FFFFFF00FFFFFF00FFFFFF00FFFFFF00FFFFFF00FF302821FF302821FF302821FF30
310
2821FF302821FF302821FF302821FF302821FF302821FFFFFF00FF302821FF302821FF302821FF302821FF302821FF302821FF302821FF302821FF302821FFFFFF00FFFFFF00FFFFFF00FFFFFF00FFFFFF00FFFFFF00FFFFFF00FFFFFF00FFFFFF00FFFFFF00FFFFFF00FFFFFF00FFFFFF00FF302821FF302821FF302821FF
310
302821FF302821FF302821FF302821FF302821FF302821FF302821FFFFFF00FF302821FF302821FF302821FF302821FF302821FF302821FF302821FFFFFF00FFFFFF00FFFFFF00FFFFFF00FFFFFF00FFFFFF00FFFFFF00FFFFFF00FFFFFF00FFFFFF00FFFFFF00FFFFFF00FFFFFF00FFFFFF00FF302821FF302821FF302821
310
FF302821FF302821FF302821FF302821FF302821FF302821FF302821FFFFFF00FF302821FF302821FF302821FF302821FF302821FF302821FF302821FFFFFF00FFFFFF00FFFFFF00FFFFFF00FFFFFF00FFFFFF00FFFFFF00FFFFFF00FFFFFF00FFFFFF00FFFFFF00FFFFFF00FFFFFF00FFFFFF00FF302821FF302821FF3028
310
21FF302821FF302821FF302821FF302821FF302821FF302821FF302821FF302821FFFFFF00FF302821FF302821FF302821FF302821FF302821FFFFFF00FFFFFF00FFFFFF00FFFFFF00FFFFFF00FFFFFF00FFFFFF00FFFFFF00FFFFFF00FFFFFF00FFFFFF00FFFFFF00FFFFFF00FFFFFF00FFFFFF00FF302821FF302821FF30
310
2821FF302821FF302821FF302821FF302821FF302821FF302821FF302821FF302821FF302821FFFFFF00FF302821FF302821FF302821FF302821FFFFFF00FFFFFF00FFFFFF00FFFFFF00FFFFFF00FFFFFF00FFFFFF00FFFFFF00FFFFFF00FFFFFF00FFFFFF00FFFFFF00FFFFFF00FFFFFF00FFFFFF00FF302821FF302821FF
310
302821FF302821FF302821FF302821FF302821FF302821FF302821FF302821FF302821FF302821FFFFFF00FF302821FF302821FF302821FF302821FFFFFF00FFFFFF00FFFFFF00FFFFFF00FFFFFF00FFFFFF00FFFFFF00FFFFFF00FFFFFF00FFFFFF00FFFFFF00FFFFFF00FFFFFF00FFFFFF00FFFFFF00FF302821FF302821
310
FF302821FF302821FF302821FF302821FF302821FF302821FF302821FF302821FF302821FF302821FFFFFF00FF302821FF302821FF302821FF302821FFFFFF00FFFFFF00FFFFFF00FFFFFF00FFFFFF00FFFFFF00FFFFFF00FFFFFF00FFFFFF00FFFFFF00FFFFFF00FFFFFF00FFFFFF00FFFFFF00FFFFFF00FF302821FF3028
310
21FF302821FF302821FF302821FF302821FF302821FF302821FF302821FF302821FF302821FF302821FFFFFF00FF302821FF302821FF302821FFFFFF00FFFFFF00FFFFFF00FFFFFF00FFFFFF00FFFFFF00FFFFFF00FFFFFF00FFFFFF00FFFFFF00FFFFFF00FFFFFF00FFFFFF00FFFFFF00FFFFFF00FFFFFF00FF302821FF30
310
2821FF302821FF302821FF302821FF302821FF302821FF302821FF302821FF302821FF302821FF302821FF302821FFFFFF00FF302821FF302821FFFFFF00FFFFFF00FFFFFF00FFFFFF00FFFFFF00FFFFFF00FFFFFF00FFFFFF00FFFFFF00FFFFFF00FFFFFF00FFFFFF00FFFFFF00FFFFFF00FFFFFF00FFFFFF00FFFFFF00FF
310
FFFF00FFFFFF00FFFFFF00FFFFFF00FFFFFF00FFFFFF00FFFFFF00FFFFFF00FFFFFF00FFFFFF00FFFFFF00FFFFFF00FFFFFF00FF302821FF302821FFFFFF00FF302821FF302821FF302821FF302821FF302821FF302821FF302821FF302821FF302821FF302821FF302821FF302821FF302821FF302821FFFFFF00FFFFFF00
310
FFFFFF00FFFFFF00FFFFFF00FFFFFF00FFFFFF00FFFFFF00FFFFFF00FFFFFF00FFFFFF00FFFFFF00FFFFFF00FFFFFF00FFFFFF00FF302821FF302821FFFFFF00FF302821FF302821FF302821FF302821FF302821FF302821FF302821FF302821FF302821FF302821FF302821FF302821FF302821FF302821FFFFFF00FFFFFF
310
00FFFFFF00FFFFFF00FFFFFF00FFFFFF00FFFFFF00FFFFFF00FFFFFF00FFFFFF00FFFFFF00FFFFFF00FFFFFF00FFFFFF00FF302821FF302821FF302821FF302821FFFFFF00FF302821FF302821FF302821FF302821FF302821FF302821FF302821FF302821FF302821FF302821FF302821FF302821FF302821FFFFFF00FFFF
310
FF00FFFFFF00FFFFFF00FFFFFF00FFFFFF00FFFFFF00FFFFFF00FFFFFF00FFFFFF00FFFFFF00FFFFFF00FFFFFF00FFFFFF00FF302821FF302821FF302821FF302821FFFFFF00FF302821FF302821FF302821FF302821FF302821FF302821FF302821FF302821FF302821FF302821FF302821FF302821FF302821FFFFFF00FF
310
FFFF00FFFFFF00FFFFFF00FFFFFF00FFFFFF00FFFFFF00FFFFFF00FFFFFF00FFFFFF00FFFFFF00FFFFFF00FFFFFF00FFFFFF00FF302821FF302821FF302821FF302821FFFFFF00FF302821FF302821FF302821FF302821FF302821FF302821FF302821FF302821FF302821FF302821FF302821FF302821FF302821FFFFFF00
310
FFFFFF00FFFFFF00FFFFFF00FFFFFF00FFFFFF00FFFFFF00FFFFFF00FFFFFF00FFFFFF00FFFFFF00FFFFFF00FFFFFF00FFFFFF00FF302821FF302821FF302821FF302821FF302821FFFFFF00FF302821FF302821FF302821FF302821FF302821FF302821FF302821FF302821FF302821FF302821FF302821FF302821FFFFFF
310
00FFFFFF00FFFFFF00FFFFFF00FFFFFF00FFFFFF00FFFFFF00FFFFFF00FFFFFF00FFFFFF00FFFFFF00FFFFFF00FFFFFF00FFFFFF00FF302821FF302821FF302821FF302821FF302821FFFFFF00FF302821FF302821FF302821FF302821FF302821FF302821FF302821FF302821FF302821FF302821FF302821FF302821FFFF
310
FF00FFFFFF00FFFFFF00FFFFFF00FFFFFF00FFFFFF00FFFFFF00FFFFFF00FFFFFF00FFFFFF00FFFFFF00FFFFFF00FFFFFF00FF302821FF302821FF302821FF302821FF302821FF302821FF302821FFFFFF00FF302821FF302821FF302821FF302821FF302821FF302821FF302821FF302821FF302821FF302821FF302821FF
310
FFFF00FFFFFF00FFFFFF00FFFFFF00FFFFFF00FFFFFF00FFFFFF00FFFFFF00FFFFFF00FFFFFF00FFFFFF00FFFFFF00FFFFFF00FF302821FF302821FF302821FF302821FF302821FF302821FF302821FFFFFF00FF302821FF302821FF302821FF302821FF302821FF302821FF302821FF302821FF302821FF302821FF302821
310
FFFFFF00FFFFFF00FFFFFF00FFFFFF00FFFFFF00FFFFFF00FFFFFF00FFFFFF00FFFFFF00FFFFFF00FFFFFF00FFFFFF00FF302821FF302821FF302821FF302821FF302821FF302821FF302821FF302821FF302821FFFFFF00FF302821FF302821FF302821FF302821FF302821FF302821FF302821FF302821FF302821FF3028
310
21FFFFFF00FFFFFF00FFFFFF00FFFFFF00FFFFFF00FFFFFF00FFFFFF00FFFFFF00FFFFFF00FFFFFF00FFFFFF00FF302821FF302821FF302821FF302821FF302821FF302821FF302821FF302821FF302821FF302821FF302821FFFFFF00FF302821FF302821FF302821FF302821FF302821FF302821FF302821FF302821FF30
310
2821FFFFFF00FFFFFF00FFFFFF00FFFFFF00FFFFFF00FFFFFF00FFFFFF00FFFFFF00FFFFFF00FFFFFF00FF302821FF302821FF302821FF302821FF302821FF302821FF302821FF302821FF302821FF302821FF302821FF302821FF302821FFFFFF00FF302821FF302821FF302821FF302821FF302821FF302821FF302821FF
310
302821FFFFFF00FFFFFF00FFFFFF00FFFFFF00FFFFFF00FFFFFF00FFFFFF00FFFFFF00FFFFFF00FF302821FF302821FF302821FF302821FF302821FF302821FF302821FF302821FF302821FF302821FF302821FF302821FF302821FF302821FF302821FFFFFF00FFFFFF00FF302821FF302821FF302821FF302821FF302821
310
FF302821FFFFFF00FFFFFF00FFFFFF00FFFFFF00FFFFFF00FFFFFF00FFFFFF00FFFFFF00FF302821FF302821FF302821FF302821FF302821FF302821FF302821FF302821FF302821FF302821FF302821FF302821FF302821FF302821FF302821FF302821FF302821FF302821FFFFFF00FFFFFF00FFFFFF00FFFFFF00FFFFFF
310
00FF302821FFFFFF00FFFFFF00FFFFFF00FFFFFF00FFFFFF00FFFFFF00FF302821FF302821FF302821FF302821FF302821FF302821FF302821FF302821FF302821FF302821FF302821FF302821FF302821FF302821FF302821FF302821FF302821FF302821FF302821FF302821FF302821FF302821FF302821FF302821FF30
310
2821FFFFFF00FFFFFF00FFFFFF00FF302821FF302821FF302821FF302821FF302821FF302821FF302821FF302821FF302821FF302821FF302821FF302821FF302821FF302821FF302821FF302821FF302821FF302821FF302821FF302821FF302821FF302821FF302821FF302821FF302821FF302821FF302821FF302821FF
310
302821FF302821FF302821FF302821FF302821FF302821FF302821FF302821FF302821FF302821FF302821FF302821FF302821FF302821FF302821FF302821FF302821FF302821FF
102
{BLKREFS
331
21DE6
102
}
 70
     0
280
     1
281
     1
  0
BLOCK_RECORD
  5
21F07
330
1
100
AcDbSymbolTableRecord
100
AcDbBlockTableRecord
  2
*D12
340
0
 70
     0
280
     1
281
     0
  0
BLOCK_RECORD
  5
21F11
330
1
100
AcDbSymbolTableRecord
100
AcDbBlockTableRecord
  2
*D13
340
0
 70
     0
280
     1
281
     0
  0
BLOCK_RECORD
  5
21F1D
330
1
100
AcDbSymbolTableRecord
100
AcDbBlockTableRecord
  2
*D14
340
0
 70
     0
280
     1
281
     0
  0
BLOCK_RECORD
  5
21F29
330
1
100
AcDbSymbolTableRecord
100
AcDbBlockTableRecord
  2
*D15
340
0
 70
     0
280
     1
281
     0
  0
BLOCK_RECORD
  5
21F37
330
1
100
AcDbSymbolTableRecord
100
AcDbBlockTableRecord
  2
*D16
340
0
 70
     0
280
     1
281
     0
  0
ENDTAB
  0
ENDSEC
  0
SECTION
  2
BLOCKS
  0
BLOCK
  5
20
330
1F
100
AcDbEntity
  8
0
100
AcDbBlockBegin
  2
*MODEL_SPACE
 70
     0
 10
0.0
 20
0.0
 30
0.0
  3
*MODEL_SPACE
  1

  0
ENDBLK
  5
21
330
1F
100
AcDbEntity
  8
0
100
AcDbBlockEnd
  0
BLOCK
  5
1C
330
1B
100
AcDbEntity
 67
     1
  8
0
100
AcDbBlockBegin
  2
*PAPER_SPACE
 70
     0
 10
0.0
 20
0.0
 30
0.0
  3
*PAPER_SPACE
  1

  0
ENDBLK
  5
1D
330
1B
100
AcDbEntity
 67
     1
  8
0
100
AcDbBlockEnd
  0
BLOCK
  5
1B3D8
330
1B3D7
100
AcDbEntity
  8
0
100
AcDbBlockBegin
  2
cero_point
 70
     0
 10
0.0
 20
0.0
 30
0.0
  3
cero_point
  1

  0
HATCH
  5
1B3DA
330
1B3D7
100
AcDbEntity
  8
1
  6
ByBlock
370
    50
100
AcDbHatch
 10
0.0
 20
0.0
 30
0.0
210
0.0
220
0.0
230
1.0
  2
SOLID
 70
     1
 71
     0
 91
        2
 92
        7
 72
     1
 73
     1
 93
        3
 10
-0.0000000000001137
 20
0.0
 42
0.0
 10
-2.950972054112752
 20
0.0
 42
0.4142135623730968
 10
-0.0000000000001137
 20
-2.950972054112583
 42
0.0
 97
        0
 92
        7
 72
     1
 73
     1
 93
        3
 10
-0.0000000000001137
 20
2.950972054112638
 42
0.0
 10
-0.0000000000001137
 20
0.0
 42
0.0
 10
2.950972054112526
 20
0.0
 42
0.4142135623730966
 97
        0
 75
     0
 76
     1
 47
0.1190009775223266
 98
        2
 10
-0.7445530588121301
 20
-0.9212244733764125
 10
1.279464601852737
 20
1.696796923046345
450
        0
451
        0
460
0.0
461
0.0
452
        0
462
0.0
453
        0
470

  0
LWPOLYLINE
  5
1B3DB
330
1B3D7
100
AcDbEntity
  8
1
  6
ByBlock
370
    50
100
AcDbPolyline
 90
        3
 70
     1
 43
0.0
 10
-0.0000000000001137
 20
0.0
 10
2.950972054112526
 20
0.0
 42
0.4142135623730966
 10
-0.0000000000001137
 20
2.950972054112638
  0
LINE
  5
1B3DC
330
1B3D7
100
AcDbEntity
  8
1
  6
ByBlock
370
    50
100
AcDbLine
 10
-0.0000000000001137
 20
-2.950972054112583
 30
0.0
 11
-0.0000000000001137
 21
2.950972054112638
 31
0.0
  0
LWPOLYLINE
  5
1B3DD
330
1B3D7
100
AcDbEntity
  8
1
  6
ByBlock
370
    50
100
AcDbPolyline
 90
        3
 70
     1
 43
0.0
 10
-0.0000000000001137
 20
-2.950972054112583
 10
-0.0000000000001137
 20
0.0
 10
-2.950972054112752
 20
0.0
 42
0.4142135623730966
  0
LINE
  5
1B3DE
330
1B3D7
100
AcDbEntity
  8
1
  6
ByBlock
370
    50
100
AcDbLine
 10
2.950972054112638
 20
0.0
 30
0.0
 11
-2.950972054112638
 21
0.0
 31
0.0
  0
CIRCLE
  5
1B3DF
330
1B3D7
100
AcDbEntity
  8
1
  6
ByBlock
370
    50
100
AcDbCircle
 10
-0.0000000000001137
 20
0.0
 30
0.0
 40
2.950972054112601
  0
ENDBLK
  5
1B3D9
330
1B3D7
100
AcDbEntity
  8
0
100
AcDbBlockEnd
  0
BLOCK
  5
21F08
330
21F07
100
AcDbEntity
  8
0
100
AcDbBlockBegin
  2
*D12
 70
     1
 10
0.0
 20
0.0
 30
0.0
  3
*D12
  1

  0
LINE
  5
220CF
330
21F07
100
AcDbEntity
  8
SK2
 62
     0
440
 16777216
370
    -2
100
AcDbLine
 10
-17.96250000000009
 20
8.800000000000146
 30
0.0
 11
-35.07786542661523
 21
8.800000000000151
 31
0.0
  0
LINE
  5
220D0
330
21F07
100
AcDbEntity
  8
SK2
 62
     0
440
 16777216
370
    -2
100
AcDbLine
 10
-17.96250000000009
 20
-8.799999999999876
 30
0.0
 11
-35.07786542661523
 21
-8.799999999999871
 31
0.0
  0
LINE
  5
220D1
330
21F07
100
AcDbEntity
  8
SK2
 62
     0
440
 16777216
370
    -2
100
AcDbLine
 10
-34.89786542661523
 20
4.230000000000152
 30
0.0
 11
-34.89786542661523
 21
-4.229999999999869
 31
0.0
  0
SOLID
  5
220D2
330
21F07
100
AcDbEntity
  8
SK2
 62
     0
440
 16777216
100
AcDbTrace
 10
-35.6595320932819
 20
4.230000000000152
 30
0.0
 11
-34.13619875994856
 21
4.230000000000152
 31
0.0
 12
-34.89786542661523
 22
8.800000000000151
 32
0.0
 13
-34.89786542661523
 23
8.800000000000151
 33
0.0
  0
SOLID
  5
220D3
330
21F07
100
AcDbEntity
  8
SK2
 62
     0
440
 16777216
100
AcDbTrace
 10
-35.6595320932819
 20
-4.229999999999869
 30
0.0
 11
-34.13619875994856
 21
-4.229999999999869
 31
0.0
 12
-34.89786542661523
 22
-8.799999999999871
 32
0.0
 13
-34.89786542661523
 23
-8.799999999999871
 33
0.0
  0
MTEXT
  5
220D4
330
21F07
100
AcDbEntity
  8
SK2
 62
     0
440
 16777216
100
AcDbMText
 10
-36.85100667749365
 20
-0.1469385065120503
 30
0.0
 40
3.5
 41
0.0
 46
0.0
 71
     5
 72
     1
  1
\A1;%%C17.6
 11
0.0000000000000001
 21
1.0
 31
0.0
 73
     1
 44
1.0
  0
POINT
  5
220D5
330
21F07
100
AcDbEntity
  8
Defpoints
 62
     0
440
 16777216
100
AcDbPoint
 10
-17.90000000000009
 20
8.800000000000146
 30
0.0
  0
POINT
  5
220D6
330
21F07
100
AcDbEntity
  8
Defpoints
 62
     0
440
 16777216
100
AcDbPoint
 10
-17.90000000000009
 20
-8.799999999999876
 30
0.0
  0
POINT
  5
220D7
330
21F07
100
AcDbEntity
  8
Defpoints
 62
     0
440
 16777216
100
AcDbPoint
 10
-34.89786542661523
 20
-8.799999999999871
 30
0.0
  0
ENDBLK
  5
21F09
330
21F07
100
AcDbEntity
  8
0
100
AcDbBlockEnd
  0
BLOCK
  5
21F12
330
21F11
100
AcDbEntity
  8
0
100
AcDbBlockBegin
  2
*D13
 70
     1
 10
0.0
 20
0.0
 30
0.0
  3
*D13
  1

  0
LINE
  5
220A9
330
21F11
100
AcDbEntity
  8
2
 62
     0
440
 16777216
370
    -2
100
AcDbLine
 10
36.38249999999732
 20
-11.95000052032636
 30
0.0
 11
54.91877868531051
 21
-11.95015483893377
 31
0.0
  0
LINE
  5
220AA
330
21F11
100
AcDbEntity
  8
2
 62
     0
440
 16777216
370
    -2
100
AcDbLine
 10
35.58249999999816
 20
11.94999947967384
 30
0.0
 11
54.91897765802514
 21
11.94983849923353
 31
0.0
  0
LINE
  5
220AB
330
21F11
100
AcDbEntity
  8
2
 62
     0
440
 16777216
370
    -2
100
AcDbLine
 10
54.73881673157446
 20
-7.380153340552456
 30
0.0
 11
54.73893961177367
 21
7.379839997931591
 31
0.0
  0
SOLID
  5
220AC
330
21F11
100
AcDbEntity
  8
2
 62
     0
440
 16777216
100
AcDbTrace
 10
53.97715006493419
 20
-7.380146999509505
 30
0.0
 11
55.50048339821473
 21
-7.380159681595408
 31
0.0
 12
54.73877868531674
 22
-11.95015334039408
 32
0.0
 13
54.73877868531674
 23
-11.95015334039408
 33
0.0
  0
SOLID
  5
220AD
330
21F11
100
AcDbEntity
  8
2
 62
     0
440
 16777216
100
AcDbTrace
 10
53.9772729451334
 20
7.379846338974542
 30
0.0
 11
55.50060627841394
 21
7.379833656888639
 31
0.0
 12
54.73897765803138
 22
11.94983999777322
 32
0.0
 13
54.73897765803138
 23
11.94983999777322
 33
0.0
  0
MTEXT
  5
220AE
330
21F11
100
AcDbEntity
  8
2
 62
     0
440
 16777216
100
AcDbMText
 10
52.83738836278427
 20
0.0000158303219601
 30
0.0
 40
3.5
 41
0.0
 46
0.0
 71
     5
 72
     1
  1
\A1;23.9
 11
0.0000083252205058
 21
0.9999999999653454
 31
0.0
 73
     1
 44
1.0
  0
POINT
  5
220AF
330
21F11
100
AcDbEntity
  8
Defpoints
 62
     0
440
 16777216
100
AcDbPoint
 10
36.31999999999948
 20
-11.95000000000008
 30
0.0
  0
POINT
  5
220B0
330
21F11
100
AcDbEntity
  8
Defpoints
 62
     0
440
 16777216
100
AcDbPoint
 10
35.52000000000032
 20
11.95000000000012
 30
0.0
  0
POINT
  5
220B1
330
21F11
100
AcDbEntity
  8
Defpoints
 62
     0
440
 16777216
100
AcDbPoint
 10
54.73897765803138
 20
11.94983999777322
 30
0.0
  0
ENDBLK
  5
21F13
330
21F11
100
AcDbEntity
  8
0
100
AcDbBlockEnd
  0
BLOCK
  5
21F1E
330
21F1D
100
AcDbEntity
  8
0
100
AcDbBlockBegin
  2
*D14
 70
     1
 10
0.0
 20
0.0
 30
0.0
  3
*D14
  1

  0
LINE
  5
220B2
330
21F1D
100
AcDbEntity
  8
2
 62
     0
440
 16777216
370
    -2
100
AcDbLine
 10
40.80000104065195
 20
0.0624999999913008
 30
0.0
 11
40.80073983177622
 21
44.43316403728391
 31
0.0
  0
LINE
  5
220B3
330
21F1D
100
AcDbEntity
  8
2
 62
     0
440
 16777216
370
    -2
100
AcDbLine
 10
0.0000010406525632
 20
21.65488499999145
 30
0.0
 11
0.0003803203554357
 21
44.43384338126327
 31
0.0
  0
LINE
  5
220B4
330
21F1D
100
AcDbEntity
  8
2
 62
     0
440
 16777216
370
    -2
100
AcDbLine
 10
36.23073683533033
 20
44.25324012982428
 30
0.0
 11
4.570377322642567
 21
44.25376728877281
 31
0.0
  0
SOLID
  5
220B5
330
21F1D
100
AcDbEntity
  8
2
 62
     0
440
 16777216
100
AcDbTrace
 10
36.23074951741624
 20
45.01490679638537
 30
0.0
 11
36.23072415324442
 21
43.4915734632632
 31
0.0
 12
40.80073683469684
 22
44.25316403730886
 32
0.0
 13
40.80073683469684
 23
44.25316403730886
 33
0.0
  0
SOLID
  5
220B6
330
21F1D
100
AcDbEntity
  8
2
 62
     0
440
 16777216
100
AcDbTrace
 10
4.57039000472847
 20
45.0154339553339
 30
0.0
 11
4.570364640556664
 21
43.49210062221173
 31
0.0
 12
0.0003773232760538
 22
44.25384338128822
 32
0.0
 13
0.0003773232760538
 23
44.25384338128822
 33
0.0
  0
MTEXT
  5
220B7
330
21F1D
100
AcDbEntity
  8
2
 62
     0
440
 16777216
100
AcDbMText
 10
20.40015602513109
 20
46.15499352649988
 30
0.0
 40
3.5
 41
0.0
 46
0.0
 71
     5
 72
     1
  1
\A1;40.8
 11
0.9999999998613814
 21
-0.000016650441011
 31
0.0
 73
     1
 44
1.0
  0
POINT
  5
220B8
330
21F1D
100
AcDbEntity
  8
Defpoints
 62
     0
440
 16777216
100
AcDbPoint
 10
40.79999999999939
 20
-0.0000000000000355
 30
0.0
  0
POINT
  5
220B9
330
21F1D
100
AcDbEntity
  8
Defpoints
 62
     0
440
 16777216
100
AcDbPoint
 10
0.0
 20
21.59238500000012
 30
0.0
  0
POINT
  5
220BA
330
21F1D
100
AcDbEntity
  8
Defpoints
 62
     0
440
 16777216
100
AcDbPoint
 10
0.0003773232760538
 20
44.25384338128822
 30
0.0
  0
ENDBLK
  5
21F1F
330
21F1D
100
AcDbEntity
  8
0
100
AcDbBlockEnd
  0
BLOCK
  5
21F2A
330
21F29
100
AcDbEntity
  8
0
100
AcDbBlockBegin
  2
*D15
 70
     1
 10
0.0
 20
0.0
 30
0.0
  3
*D15
  1

  0
LINE
  5
220BB
330
21F29
100
AcDbEntity
  8
2
 62
     0
440
 16777216
370
    -2
100
AcDbLine
 10
40.80000104065195
 20
0.0624999999913008
 30
0.0
 11
40.8005566769251
 21
33.43316403880885
 31
0.0
  0
LINE
  5
220BC
330
21F29
100
AcDbEntity
  8
2
 62
     0
440
 16777216
370
    -2
100
AcDbLine
 10
35.52000104065289
 20
21.26249999999146
 30
0.0
 11
35.52020368904047
 21
33.4332519590148
 31
0.0
  0
LINE
  5
220BD
330
21F29
100
AcDbEntity
  8
2
 62
     0
440
 16777216
370
    -2
100
AcDbLine
 10
45.37055367921223
 20
33.25308794631837
 30
0.0
 11
49.94055367857875
 21
33.25301185380296
 31
0.0
  0
LINE
  5
220BE
330
21F29
100
AcDbEntity
  8
2
 62
     0
440
 16777216
370
    -2
100
AcDbLine
 10
30.95020069259457
 20
33.25332805155517
 30
0.0
 11
16.96000392714104
 21
33.25356099450118
 31
0.0
  0
LINE
  5
220BF
330
21F29
100
AcDbEntity
  8
2
 62
     0
440
 16777216
370
    -2
100
AcDbLine
 10
40.80055367984573
 20
33.2531640388338
 30
0.0
 11
35.52020069196109
 21
33.25325195903975
 31
0.0
  0
SOLID
  5
220C0
330
21F29
100
AcDbEntity
  8
2
 62
     0
440
 16777216
100
AcDbTrace
 10
45.37056636129814
 20
34.01475461287946
 30
0.0
 11
45.37054099712633
 21
32.49142127975729
 31
0.0
 12
40.80055367984573
 22
33.2531640388338
 32
0.0
 13
40.80055367984573
 23
33.2531640388338
 33
0.0
  0
SOLID
  5
220C1
330
21F29
100
AcDbEntity
  8
2
 62
     0
440
 16777216
100
AcDbTrace
 10
30.95021337468048
 20
34.01499471811626
 30
0.0
 11
30.95018801050867
 21
32.49166138499409
 31
0.0
 12
35.52020069196109
 22
33.25325195903975
 32
0.0
 13
35.52020069196109
 23
33.25325195903975
 33
0.0
  0
MTEXT
  5
220C2
330
21F29
100
AcDbEntity
  8
2
 62
     0
440
 16777216
100
AcDbMText
 10
21.67013397082847
 20
35.15497237928233
 30
0.0
 40
3.5
 41
0.0
 46
0.0
 71
     5
 72
     1
  1
\A1;5.28
 11
0.9999999998613814
 21
-0.000016650441011
 31
0.0
 73
     1
 44
1.0
  0
POINT
  5
220C3
330
21F29
100
AcDbEntity
  8
Defpoints
 62
     0
440
 16777216
100
AcDbPoint
 10
40.79999999999939
 20
-0.0000000000000355
 30
0.0
  0
POINT
  5
220C4
330
21F29
100
AcDbEntity
  8
Defpoints
 62
     0
440
 16777216
100
AcDbPoint
 10
35.52000000000032
 20
21.20000000000013
 30
0.0
  0
POINT
  5
220C5
330
21F29
100
AcDbEntity
  8
Defpoints
 62
     0
440
 16777216
100
AcDbPoint
 10
35.52020069196109
 20
33.25325195903975
 30
0.0
  0
ENDBLK
  5
21F2B
330
21F29
100
AcDbEntity
  8
0
100
AcDbBlockEnd
  0
BLOCK
  5
21F38
330
21F37
100
AcDbEntity
  8
0
100
AcDbBlockBegin
  2
*D16
 70
     1
 10
0.0
 20
0.0
 30
0.0
  3
*D16
  1

  0
LINE
  5
220C6
330
21F37
100
AcDbEntity
  8
2
 62
     0
440
 16777216
370
    -2
100
AcDbLine
 10
34.78249999999946
 20
-21.99999999999992
 30
0.0
 11
68.91887817304137
 21
-21.99999999999993
 31
0.0
  0
LINE
  5
220C7
330
21F37
100
AcDbEntity
  8
2
 62
     0
440
 16777216
370
    -2
100
AcDbLine
 10
34.78249999999946
 20
21.99999999999997
 30
0.0
 11
68.91887817304137
 21
21.99999999999995
 31
0.0
  0
LINE
  5
220C8
330
21F37
100
AcDbEntity
  8
2
 62
     0
440
 16777216
370
    -2
100
AcDbLine
 10
68.73887817304137
 20
-17.42999999999993
 30
0.0
 11
68.73887817304137
 21
17.42999999999995
 31
0.0
  0
SOLID
  5
220C9
330
21F37
100
AcDbEntity
  8
2
 62
     0
440
 16777216
100
AcDbTrace
 10
67.9772115063747
 20
-17.42999999999993
 30
0.0
 11
69.50054483970804
 21
-17.42999999999993
 31
0.0
 12
68.73887817304137
 22
-21.99999999999993
 32
0.0
 13
68.73887817304137
 23
-21.99999999999993
 33
0.0
  0
SOLID
  5
220CA
330
21F37
100
AcDbEntity
  8
2
 62
     0
440
 16777216
100
AcDbTrace
 10
67.9772115063747
 20
17.42999999999995
 30
0.0
 11
69.50054483970804
 21
17.42999999999995
 31
0.0
 12
68.73887817304137
 22
21.99999999999995
 32
0.0
 13
68.73887817304137
 23
21.99999999999995
 33
0.0
  0
MTEXT
  5
220CB
330
21F37
100
AcDbEntity
  8
2
 62
     0
440
 16777216
100
AcDbMText
 10
66.78573692216294
 20
-0.0000507611686442
 30
0.0
 40
3.5
 41
0.0
 46
0.0
 71
     5
 72
     1
  1
\A1;%%c44
 11
0.0000000000000001
 21
1.0
 31
0.0
 73
     1
 44
1.0
  0
POINT
  5
220CC
330
21F37
100
AcDbEntity
  8
Defpoints
 62
     0
440
 16777216
100
AcDbPoint
 10
34.71999999999946
 20
-21.99999999999992
 30
0.0
  0
POINT
  5
220CD
330
21F37
100
AcDbEntity
  8
Defpoints
 62
     0
440
 16777216
100
AcDbPoint
 10
34.71999999999946
 20
21.99999999999997
 30
0.0
  0
POINT
  5
220CE
330
21F37
100
AcDbEntity
  8
Defpoints
 62
     0
440
 16777216
100
AcDbPoint
 10
68.73887817304137
 20
21.99999999999995
 30
0.0
  0
ENDBLK
  5
21F39
330
21F37
100
AcDbEntity
  8
0
100
AcDbBlockEnd
  0
ENDSEC
  0
SECTION
  2
ENTITIES
  0
MTEXT
  5
211A0
330
1F
100
AcDbEntity
  8
SK6
100
AcDbMText
 10
-1.218772041223758
 20
-36.83416091737083
 30
0.0
 40
3.5
 41
41.87058589293636
 46
0.0
 71
     2
 72
     1
  1
CD4400041YQR00
 73
     1
 44
1.0
1001
ACAD
1000
MTEXTBEGIN
1070
    73
1070
     1
1070
    44
1040
1.0
1070
    74
1070
     0
1000
MTEXTEND
  0
INSERT
  5
21DE6
330
1F
100
AcDbEntity
  8
1
100
AcDbBlockReference
  2
cero_point
 10
-0.000000000003638
 20
-0.0000000000000355
 30
0.0
  0
LINE
  5
21DEA
330
1F
100
AcDbEntity
  8
INFTOTAL
100
AcDbLine
 10
-131.4833038574779
 20
18.07028292091623
 30
0.0
 11
-131.4833038574779
 21
61.66200531715499
 31
0.0
  0
LINE
  5
21DEB
330
1F
100
AcDbEntity
  8
INFTOTAL
100
AcDbLine
 10
-131.4833038574779
 20
61.66200531715499
 30
0.0
 11
-75.07951748871892
 21
61.66200531715499
 31
0.0
  0
LINE
  5
21DEC
330
1F
100
AcDbEntity
  8
INFTOTAL
100
AcDbLine
 10
32.39030401849869
 20
-58.88023682187171
 30
0.0
 11
87.74908526958279
 21
-58.88023682187171
 31
0.0
  0
LINE
  5
21DED
330
1F
100
AcDbEntity
  8
INFTOTAL
100
AcDbLine
 10
87.74908526958279
 20
-58.88023682187171
 30
0.0
 11
87.74908526958279
 21
-18.43212062527714
 31
0.0
  0
DIMENSION
  5
21DEE
330
1F
100
AcDbEntity
  8
2
100
AcDbDimension
280
     0
  2
*D13
 10
54.73897765803138
 20
11.94983999777322
 30
0.0
 11
54.73887817297839
 21
0.0
 31
0.0
 70
   160
 71
     5
 42
23.89999333899555
 73
     0
 74
     0
 75
     0
  3
STANDARD
100
AcDbAlignedDimension
 13
36.31999999999948
 23
-11.95000000000007
 33
0.0
 14
35.52000000000032
 24
11.95000000000012
 34
0.0
 50
89.99952300000151
100
AcDbRotatedDimension
1001
ACAD
1000
DSTYLE
1002
{
1070
   172
1070
     1
1002
}
  0
DIMENSION
  5
21DEF
330
1F
100
AcDbEntity
  8
2
100
AcDbDimension
280
     0
  2
*D14
 10
0.0003773232760538
 20
44.25384338128822
 30
0.0
 11
20.40012436448717
 21
44.25350371650344
 31
0.0
 70
   160
 71
     5
 42
40.80035951707648
 73
     0
 74
     0
 75
     0
  3
STANDARD
100
AcDbAlignedDimension
 13
40.79999999999938
 23
-0.0000000000000355
 33
0.0
 14
0.0
 24
21.59238500000011
 34
0.0
 50
179.999046000003
100
AcDbRotatedDimension
1001
ACAD
1000
DSTYLE
1002
{
1070
   172
1070
     1
1002
}
  0
DIMENSION
  5
21DF0
330
1F
100
AcDbEntity
  8
2
100
AcDbDimension
280
     0
  2
*D15
 10
35.52020069196109
 20
33.25325195903975
 30
0.0
 11
21.67010231018455
 21
33.25348256928589
 31
0.0
 70
   160
 71
     5
 42
5.280352988616591
 73
     0
 74
     0
 75
     0
  3
STANDARD
100
AcDbAlignedDimension
 13
40.79999999999938
 23
-0.0000000000000355
 33
0.0
 14
35.52000000000032
 24
21.20000000000012
 34
0.0
 50
179.999046000003
100
AcDbRotatedDimension
1001
ACAD
1000
DSTYLE
1002
{
1070
   172
1070
     1
1002
}
  0
DIMENSION
  5
21DF1
330
1F
100
AcDbEntity
  8
2
100
AcDbDimension
280
     0
  2
*D16
 10
68.73887817304137
 20
21.99999999999995
 30
0.0
 11
68.73887817304137
 21
-0.0000507611686444
 31
0.0
 70
   161
  1
%%c<>
 71
     5
 42
43.99999999999988
 73
     0
 74
     0
 75
     0
  3
STANDARD
100
AcDbAlignedDimension
 13
34.71999999999946
 23
-21.99999999999992
 33
0.0
 14
34.71999999999946
 24
21.99999999999997
 34
0.0
1001
ACAD
1000
DSTYLE
1002
{
1070
   172
1070
     1
1002
}
  0
LINE
  5
21DF2
330
1F
100
AcDbEntity
  8
SK4
100
AcDbLine
 10
-21.05851499999994
 20
-0.0000000000000355
 30
0.0
 11
0.0
 21
-0.0000000000000355
 31
0.0
  0
LINE
  5
21DF6
330
1F
100
AcDbEntity
  8
1
100
AcDbLine
 10
35.52000000000032
 20
11.95000000000012
 30
0.0
 11
32.72799999999938
 21
11.95000000000012
 31
0.0
  0
LINE
  5
21DF7
330
1F
100
AcDbEntity
  8
SK3
100
AcDbLine
 10
0.0
 20
11.00000000000008
 30
0.0
 11
34.51999999999941
 21
11.00000000000008
 31
0.0
  0
LINE
  5
21DF8
330
1F
100
AcDbEntity
  8
SK3
100
AcDbLine
 10
0.0
 20
6.599999999999987
 30
0.0
 11
34.51999999999941
 21
6.599999999999987
 31
0.0
  0
LINE
  5
21DF9
330
1F
100
AcDbEntity
  8
SK3
100
AcDbLine
 10
0.0
 20
-6.599999999999944
 30
0.0
 11
34.51999999999941
 21
-6.599999999999944
 31
0.0
  0
LINE
  5
21DFA
330
1F
100
AcDbEntity
  8
SK3
100
AcDbLine
 10
0.0
 20
-11.00000000000003
 30
0.0
 11
34.51999999999941
 21
-11.00000000000003
 31
0.0
  0
LINE
  5
21DFB
330
1F
100
AcDbEntity
  8
SKVIEW1
100
AcDbLine
 10
-93.21369537635758
 20
-11.1800000000001
 30
0.0
 11
-87.45369537635736
 21
-11.1800000000001
 31
0.0
  0
LINE
  5
21DFD
330
1F
100
AcDbEntity
  8
1
100
AcDbLine
 10
19.13499999999999
 20
4.623843000000157
 30
0.0
 11
19.13499999999999
 21
5.856473999999899
 31
0.0
  0
ARC
  5
21DFE
330
1F
100
AcDbEntity
  8
1
100
AcDbCircle
 10
15.04822799999999
 20
-695.3226220000001
 30
0.0
 40
717.0726440000001
100
AcDbArc
 50
90.00208900000094
 51
91.20247700000325
  0
LINE
  5
21DFF
330
1F
100
AcDbEntity
  8
1
100
AcDbLine
 10
23.89999999999941
 20
21.75000000000008
 30
0.0
 11
15.02208200000007
 21
21.75000000000008
 31
0.0
  0
CIRCLE
  5
21E00
330
1F
100
AcDbEntity
  8
1
100
AcDbCircle
 10
29.70999999999947
 20
16.19000000000013
 30
0.0
 40
1.919999999999999
  0
ARC
  5
21E01
330
1F
100
AcDbEntity
  8
1
100
AcDbCircle
 10
46.91898499999945
 20
173.2055799999999
 30
0.0
 40
167.199917
100
AcDbArc
 50
261.2618319999975
 51
263.3201320000015
  0
SPLINE
  5
21E02
330
1F
100
AcDbEntity
  8
1
100
AcDbSpline
210
0.0
220
0.0
230
1.0
 70
     8
 71
     5
 72
    12
 73
     6
 74
     0
 42
0.000000001
 43
0.0000000001
 40
0.0
 40
0.0
 40
0.0
 40
0.0
 40
0.0
 40
0.0
 40
12.55829088368524
 40
12.55829088368524
 40
12.55829088368524
 40
12.55829088368524
 40
12.55829088368524
 40
12.55829088368524
 10
14.41232816930017
 20
7.796765649030099
 30
0.0
 10
15.81364442825611
 20
7.87939184679859
 30
0.0
 10
17.22909805877418
 20
7.925464724824642
 30
0.0
 10
18.65501008836327
 20
7.946548697182116
 30
0.0
 10
20.08420754297367
 20
7.951710004659013
 30
0.0
 10
21.51809252790008
 20
7.946368348056772
 30
0.0
  0
LINE
  5
21E03
330
1F
100
AcDbEntity
  8
1
100
AcDbLine
 10
14.40171600000008
 20
7.713966000000105
 30
0.0
 11
14.412328
 21
7.796763999999903
 31
0.0
  0
SPLINE
  5
21E04
330
1F
100
AcDbEntity
  8
1
100
AcDbSpline
210
0.0
220
0.0
230
1.0
 70
     8
 71
     5
 72
    15
 73
     9
 74
     0
 42
0.000000001
 43
0.0000000001
 40
0.0
 40
0.0
 40
0.0
 40
0.0
 40
0.0
 40
0.0
 40
9.422886995452119
 40
9.422886995452119
 40
9.422886995452119
 40
10.49744626111989
 40
10.49744626111989
 40
10.49744626111989
 40
10.49744626111989
 40
10.49744626111989
 40
10.49744626111989
 10
8.920772555565122
 20
6.449935719540199
 30
0.0
 10
9.837184231394076
 20
6.756082035623727
 30
0.0
 10
10.80287764062837
 20
7.020655679633101
 30
0.0
 10
11.78987734156453
 20
7.247834789842691
 30
0.0
 10
12.91260796345443
 20
7.46819618421042
 30
0.0
 10
14.05114693276266
 20
7.657653705762605
 30
0.0
 10
14.16785176393853
 20
7.676731084758749
 30
0.0
 10
14.28470861249627
 20
7.695499204102326
 30
0.0
 10
14.40171561150009
 20
7.713965629509822
 30
0.0
  0
ARC
  5
21E05
330
1F
100
AcDbEntity
  8
1
100
AcDbCircle
 10
28.88028899999938
 20
-888.9481420000002
 30
0.0
 40
894.8581519999997
100
AcDbArc
 50
90.09029800000236
 51
90.62398200000064
  0
LINE
  5
21E06
330
1F
100
AcDbEntity
  8
1
100
AcDbLine
 10
23.89999999999941
 20
10.37999999999996
 30
0.0
 11
23.89999999999941
 21
7.937940000000104
 31
0.0
  0
LINE
  5
21E07
330
1F
100
AcDbEntity
  8
1
100
AcDbLine
 10
21.51809300000002
 20
7.946367999999971
 30
0.0
 11
23.89999999999941
 21
7.937940000000104
 31
0.0
  0
LINE
  5
21E08
330
1F
100
AcDbEntity
  8
1
100
AcDbLine
 10
0.0
 20
21.59238500000011
 30
0.0
 11
0.0
 21
8.758992000000112
 31
0.0
  0
ARC
  5
21E09
330
1F
100
AcDbEntity
  8
1
100
AcDbCircle
 10
15.030845
 20
694.917735
 30
0.0
 40
716.6677459999997
100
AcDbArc
 50
268.7982339999969
 51
269.9992989999998
  0
ARC
  5
21E0A
330
1F
100
AcDbEntity
  8
SK1
100
AcDbCircle
 10
12.2292010000001
 20
1783.609318
 30
0.0
 40
1792.410046
100
AcDbArc
 50
269.0688210000027
 51
269.6090809999997
  0
ARC
  5
21E0B
330
1F
100
AcDbEntity
  8
SK1
100
AcDbCircle
 10
57.62809699999945
 20
80.79148399999994
 30
0.0
 40
116.356264
100
AcDbArc
 50
229.5253429999942
 51
230.1697789999975
  0
LINE
  5
21E0C
330
1F
100
AcDbEntity
  8
SK1
100
AcDbLine
 10
-17.90000000000009
 20
-6.84514400000004
 30
0.0
 11
-17.90000000000009
 21
-7.719800999999996
 31
0.0
  0
LINE
  5
21E0D
330
1F
100
AcDbEntity
  8
SK1
100
AcDbLine
 10
-17.90000000000009
 20
5.103313000000262
 30
0.0
 11
-17.90000000000009
 21
-6.84514400000004
 31
0.0
  0
LINE
  5
21E0E
330
1F
100
AcDbEntity
  8
SK1
100
AcDbLine
 10
-17.90000000000009
 20
5.103313000000262
 30
0.0
 11
-17.90000000000009
 21
5.889337000000146
 31
0.0
  0
LINE
  5
21E0F
330
1F
100
AcDbEntity
  8
SK1
100
AcDbLine
 10
-17.90000000000009
 20
7.719801000000153
 30
0.0
 11
-17.90000000000009
 21
5.889337000000146
 31
0.0
  0
LINE
  5
21E10
330
1F
100
AcDbEntity
  8
1
100
AcDbLine
 10
23.89999999999941
 20
10.47618999999994
 30
0.0
 11
23.89999999999941
 21
21.75000000000008
 31
0.0
  0
LINE
  5
21E11
330
1F
100
AcDbEntity
  8
1
100
AcDbLine
 10
23.89999999999941
 20
10.37999999999996
 30
0.0
 11
23.89999999999941
 21
10.47618999999994
 31
0.0
  0
LINE
  5
21E12
330
1F
100
AcDbEntity
  8
1
100
AcDbLine
 10
15.92785499999991
 20
21.4745490000001
 30
0.0
 11
15.02208800000005
 21
21.74999700000009
 31
0.0
  0
ARC
  5
21E13
330
1F
100
AcDbEntity
  8
SK1
100
AcDbCircle
 10
12.2292010000001
 20
-1783.609318
 30
0.0
 40
1792.410046
100
AcDbArc
 50
90.3909190000003
 51
90.93117899999729
  0
ARC
  5
21E14
330
1F
100
AcDbEntity
  8
SK1
100
AcDbCircle
 10
57.62809699999945
 20
-80.79148399999988
 30
0.0
 40
116.356264
100
AcDbArc
 50
129.8302210000024
 51
130.4746570000057
  0
LINE
  5
21E15
330
1F
100
AcDbEntity
  8
1
100
AcDbLine
 10
14.81494900000007
 20
10.47618999999994
 30
0.0
 11
23.89999999999941
 21
10.47618999999994
 31
0.0
  0
LINE
  5
21E16
330
1F
100
AcDbEntity
  8
1
100
AcDbLine
 10
15.92785300000002
 20
21.47454300000012
 30
0.0
 11
14.81494900000007
 21
10.47618999999994
 31
0.0
  0
ELLIPSE
  5
21E17
330
1F
100
AcDbEntity
  8
1
100
AcDbEllipse
 10
14.17909600000007
 20
10.47619099999993
 30
0.0
 11
0.4545748829841614
 21
4.399519920349121
 31
0.0
210
0.0
220
0.0
230
1.0
 40
0.143017
 41
4.072415323801028
 42
4.727164917447082
  0
ARC
  5
21E18
330
1F
100
AcDbEntity
  8
SK1
100
AcDbCircle
 10
-16.8154659999999
 20
13.45035200000014
 30
0.0
 40
8.417291999999997
100
AcDbArc
 50
262.5970120000015
 51
267.0228339999991
  0
ARC
  5
21E19
330
1F
100
AcDbEntity
  8
SK1
100
AcDbCircle
 10
-16.67994799999997
 20
15.66893200000012
 30
0.0
 40
10.640024
100
AcDbArc
 50
266.9145599999982
 51
268.8149499999971
  0
LINE
  5
21E1A
330
1F
100
AcDbEntity
  8
SK1
100
AcDbLine
 10
-16.89999999999997
 20
5.031175000000267
 30
0.0
 11
-13.0594779999999
 21
4.806474000000058
 31
0.0
  0
ARC
  5
21E1B
330
1F
100
AcDbEntity
  8
SK1
100
AcDbCircle
 10
-222.3261149999999
 20
-3531.767225999999
 30
0.0
 40
3542.759708
100
AcDbArc
 50
86.40203499999991
 51
86.61363500000257
  0
SPLINE
  5
21E1C
330
1F
100
AcDbEntity
  8
1
100
AcDbSpline
210
0.0
220
0.0
230
1.0
 70
     8
 71
     5
 72
    12
 73
     6
 74
     0
 42
0.000000001
 43
0.0000000001
 40
0.0
 40
0.0
 40
0.0
 40
0.0
 40
0.0
 40
0.0
 40
60.69998603972103
 40
60.69998603972103
 40
60.69998603972103
 40
60.69998603972103
 40
60.69998603972103
 40
60.69998603972103
 10
34.51999999911152
 20
2.900840296492525
 30
0.0
 10
27.5261435194825
 20
3.390204995355098
 30
0.0
 10
20.55743260737825
 20
4.218479826252597
 30
0.0
 10
13.63198621943684
 20
5.36766895354625
 30
0.0
 10
6.773744947868863
 20
6.797121109264217
 30
0.0
 10
-0.0000000004415597
 20
8.452051106600571
 30
0.0
  0
LINE
  5
21E1D
330
1F
100
AcDbEntity
  8
1
100
AcDbLine
 10
34.51999999999941
 20
2.900840000000094
 30
0.0
 11
34.51999999999941
 21
-19.08742099999986
 31
0.0
  0
LINE
  5
21E1E
330
1F
100
AcDbEntity
  8
1
100
AcDbLine
 10
34.51999999999941
 20
-19.08742099999986
 30
0.0
 11
34.51999999999941
 21
-21.21373399999985
 31
0.0
  0
LINE
  5
21E1F
330
1F
100
AcDbEntity
  8
1
100
AcDbLine
 10
23.89999999999941
 20
-21.21373399999985
 30
0.0
 11
23.89999999999941
 21
-21.75000000000004
 31
0.0
  0
LINE
  5
21E20
330
1F
100
AcDbEntity
  8
1
100
AcDbLine
 10
23.89999999999941
 20
-21.75000000000004
 30
0.0
 11
15.02208200000007
 21
-21.75000000000004
 31
0.0
  0
LINE
  5
21E21
330
1F
100
AcDbEntity
  8
1
100
AcDbLine
 10
34.51999999999941
 20
-21.21373399999985
 30
0.0
 11
23.89999999999941
 21
-21.21373399999985
 31
0.0
  0
LINE
  5
21E22
330
1F
100
AcDbEntity
  8
1
100
AcDbLine
 10
0.0
 20
-19.08742099999986
 30
0.0
 11
0.0
 21
-21.59238499999984
 31
0.0
  0
LINE
  5
21E23
330
1F
100
AcDbEntity
  8
1
100
AcDbLine
 10
0.0
 20
8.452050999999947
 30
0.0
 11
0.0
 21
-19.08742099999986
 31
0.0
  0
LINE
  5
21E24
330
1F
100
AcDbEntity
  8
SK1
100
AcDbLine
 10
-16.89999999999997
 20
-7.722726999999885
 30
0.0
 11
-16.89999999999997
 21
-8.56403700000002
 31
0.0
  0
LINE
  5
21E25
330
1F
100
AcDbEntity
  8
SK1
100
AcDbLine
 10
-16.89999999999997
 20
5.031175000000267
 30
0.0
 11
-16.89999999999997
 21
-7.722726999999885
 31
0.0
  0
CIRCLE
  5
21E26
330
1F
100
AcDbEntity
  8
1
100
AcDbCircle
 10
29.70999999999947
 20
-16.19000000000009
 30
0.0
 40
1.919999999999999
  0
CIRCLE
  5
21E27
330
1F
100
AcDbEntity
  8
1
100
AcDbCircle
 10
29.70999999999947
 20
16.19000000000013
 30
0.0
 40
2.225
  0
CIRCLE
  5
21E28
330
1F
100
AcDbEntity
  8
1
100
AcDbCircle
 10
29.70999999999947
 20
16.19000000000013
 30
0.0
 40
2.783567999999998
  0
LINE
  5
21E29
330
1F
100
AcDbEntity
  8
1
100
AcDbLine
 10
27.46999999999946
 20
10.37999999999996
 30
0.0
 11
24.69999999999948
 21
10.37999999999996
 31
0.0
  0
LINE
  5
21E2A
330
1F
100
AcDbEntity
  8
1
100
AcDbLine
 10
35.52000000000032
 20
21.20000000000012
 30
0.0
 11
35.52000000000032
 21
11.95000000000012
 31
0.0
  0
ARC
  5
21E2B
330
1F
100
AcDbEntity
  8
1
100
AcDbCircle
 10
34.72000000000037
 20
21.20000000000012
 30
0.0
 40
0.8
100
AcDbArc
 50
0.0
 51
90.0
  0
LINE
  5
21E2C
330
1F
100
AcDbEntity
  8
1
100
AcDbLine
 10
24.69999999999948
 20
21.99999999999997
 30
0.0
 11
34.72000000000037
 21
21.99999999999997
 31
0.0
  0
ARC
  5
21E2D
330
1F
100
AcDbEntity
  8
1
100
AcDbCircle
 10
24.69999999999948
 20
21.20000000000012
 30
0.0
 40
0.8
100
AcDbArc
 50
90.0
 51
180.0
  0
LINE
  5
21E2E
330
1F
100
AcDbEntity
  8
1
100
AcDbLine
 10
23.89999999999941
 20
11.18000000000014
 30
0.0
 11
23.89999999999941
 21
21.20000000000012
 31
0.0
  0
ARC
  5
21E2F
330
1F
100
AcDbEntity
  8
1
100
AcDbCircle
 10
24.69999999999948
 20
11.18000000000014
 30
0.0
 40
0.8
100
AcDbArc
 50
180.0
 51
270.0
  0
ARC
  5
21E37
330
1F
100
AcDbEntity
  8
1
100
AcDbCircle
 10
34.72000000000037
 20
-11.1800000000001
 30
0.0
 40
0.8
100
AcDbArc
 50
0.0
 51
90.0
  0
LINE
  5
21E38
330
1F
100
AcDbEntity
  8
1
100
AcDbLine
 10
35.52000000000032
 20
-21.20000000000008
 30
0.0
 11
35.52000000000032
 21
-11.1800000000001
 31
0.0
  0
ARC
  5
21E39
330
1F
100
AcDbEntity
  8
1
100
AcDbCircle
 10
34.72000000000037
 20
-21.20000000000008
 30
0.0
 40
0.8
100
AcDbArc
 50
270.0
 51
0.0
  0
LINE
  5
21E3A
330
1F
100
AcDbEntity
  8
1
100
AcDbLine
 10
24.69999999999948
 20
-21.99999999999992
 30
0.0
 11
34.72000000000037
 21
-21.99999999999992
 31
0.0
  0
ARC
  5
21E3B
330
1F
100
AcDbEntity
  8
1
100
AcDbCircle
 10
24.69999999999948
 20
-21.20000000000008
 30
0.0
 40
0.8
100
AcDbArc
 50
180.9838920000022
 51
270.0
  0
ARC
  5
21E3C
330
1F
100
AcDbEntity
  8
1
100
AcDbCircle
 10
24.69999999999948
 20
-21.20000000000008
 30
0.0
 40
0.125404
100
AcDbArc
 50
186.2874220000018
 51
270.0000010000014
  0
LINE
  5
21E3D
330
1F
100
AcDbEntity
  8
1
100
AcDbLine
 10
24.69999999999948
 20
-21.32540399999986
 30
0.0
 11
34.72000000000037
 21
-21.32540399999986
 31
0.0
  0
ARC
  5
21E3E
330
1F
100
AcDbEntity
  8
1
100
AcDbCircle
 10
34.72000000000037
 20
-21.20000000000008
 30
0.0
 40
0.125404
100
AcDbArc
 50
270.0
 51
0.0000010000014034
  0
LINE
  5
21E3F
330
1F
100
AcDbEntity
  8
1
100
AcDbLine
 10
34.84540399999946
 20
-21.20000000000008
 30
0.0
 11
34.84540399999946
 21
-11.1800000000001
 31
0.0
  0
ARC
  5
21E40
330
1F
100
AcDbEntity
  8
1
100
AcDbCircle
 10
34.72000000000037
 20
-11.1800000000001
 30
0.0
 40
0.125404
100
AcDbArc
 50
0.0000010000014034
 51
89.9999989999986
  0
LINE
  5
21E41
330
1F
100
AcDbEntity
  8
1
100
AcDbLine
 10
34.72000000000037
 20
-11.05459599999987
 30
0.0
 11
34.51999999999941
 21
-11.05459599999987
 31
0.0
  0
LINE
  5
21E42
330
1F
100
AcDbEntity
  8
1
100
AcDbLine
 10
34.72000000000037
 20
-11.05459599999987
 30
0.0
 11
34.72000000000037
 21
-10.37999999999992
 31
0.0
  0
LINE
  5
21E43
330
1F
100
AcDbEntity
  8
1
100
AcDbLine
 10
34.84540399999946
 20
-11.1800000000001
 30
0.0
 11
35.52000000000032
 21
-11.1800000000001
 31
0.0
  0
LINE
  5
21E44
330
1F
100
AcDbEntity
  8
1
100
AcDbLine
 10
34.84540399999946
 20
-21.20000000000008
 30
0.0
 11
35.52000000000032
 21
-21.20000000000008
 31
0.0
  0
LINE
  5
21E45
330
1F
100
AcDbEntity
  8
1
100
AcDbLine
 10
34.72000000000037
 20
-21.32540399999986
 30
0.0
 11
34.72000000000037
 21
-21.99999999999992
 31
0.0
  0
LINE
  5
21E46
330
1F
100
AcDbEntity
  8
1
100
AcDbLine
 10
24.69999999999948
 20
-21.32540399999986
 30
0.0
 11
24.69999999999948
 21
-21.99999999999992
 31
0.0
  0
ARC
  5
21E47
330
1F
100
AcDbEntity
  8
1
100
AcDbCircle
 10
34.72000000000037
 20
-21.20000000000008
 30
0.0
 40
0.8
100
AcDbArc
 50
270.0
 51
0.0
  0
LINE
  5
21E48
330
1F
100
AcDbEntity
  8
1
100
AcDbLine
 10
34.72000000000037
 20
-21.99999999999992
 30
0.0
 11
24.69999999999948
 21
-21.99999999999992
 31
0.0
  0
ARC
  5
21E49
330
1F
100
AcDbEntity
  8
1
100
AcDbCircle
 10
24.69999999999948
 20
-21.20000000000008
 30
0.0
 40
0.8
100
AcDbArc
 50
180.9838920000022
 51
270.0
  0
LINE
  5
21E4A
330
1F
100
AcDbEntity
  8
1
100
AcDbLine
 10
34.51999999999941
 20
-10.37999999999992
 30
0.0
 11
34.72000000000037
 21
-10.37999999999992
 31
0.0
  0
ARC
  5
21E4B
330
1F
100
AcDbEntity
  8
1
100
AcDbCircle
 10
34.72000000000037
 20
-11.1800000000001
 30
0.0
 40
0.8
100
AcDbArc
 50
0.0
 51
90.0
  0
LINE
  5
21E4C
330
1F
100
AcDbEntity
  8
1
100
AcDbLine
 10
35.52000000000032
 20
-11.1800000000001
 30
0.0
 11
35.52000000000032
 21
-21.20000000000008
 31
0.0
  0
LINE
  5
21E4D
330
1F
100
AcDbEntity
  8
1
100
AcDbLine
 10
19.13499999999999
 20
5.856761999999967
 30
0.0
 11
19.13499999999999
 21
4.623788999999952
 31
0.0
  0
ARC
  5
21E50
330
1F
100
AcDbEntity
  8
1
100
AcDbCircle
 10
31.59102099999939
 20
8.886156000000106
 30
0.0
 40
7.297778999999997
100
AcDbArc
 50
293.6626989999984
 51
295.6138109999984
  0
LINE
  5
21E51
330
1F
100
AcDbEntity
  8
1
100
AcDbLine
 10
34.7458709999994
 20
2.305546999999897
 30
0.0
 11
34.51999999999941
 21
2.331820000000071
 31
0.0
  0
ARC
  5
21E52
330
1F
100
AcDbEntity
  8
1
100
AcDbCircle
 10
-233.2711059999999
 20
-38.80839200000007
 30
0.0
 40
274.34787
100
AcDbArc
 50
8.951456000000986
 51
9.917065999998403
  0
LINE
  5
21E53
330
1F
100
AcDbEntity
  8
1
100
AcDbLine
 10
36.97817899999939
 20
8.440612999999949
 30
0.0
 11
36.32000000000039
 21
8.934519000000101
 31
0.0
  0
ARC
  5
21E54
330
1F
100
AcDbEntity
  8
1
100
AcDbCircle
 10
-3.012677999999937
 20
-211.8517889999997
 30
0.0
 40
224.262442
100
AcDbArc
 50
79.8988310000006
 51
80.82967599999898
  0
ARC
  5
21E55
330
1F
100
AcDbEntity
  8
1
100
AcDbCircle
 10
46.01274599999942
 20
-108.1798499999998
 30
0.0
 40
118.471569
100
AcDbArc
 50
96.43838400000307
 51
99.00473900000307
  0
ARC
  5
21E56
330
1F
100
AcDbEntity
  8
1
100
AcDbCircle
 10
15.80086200000005
 20
41.92507399999995
 30
0.0
 40
43.915781
100
AcDbArc
 50
295.5558919999989
 51
299.9641109999988
  0
LINE
  5
21E57
330
1F
100
AcDbEntity
  8
1
100
AcDbLine
 10
32.72799999999938
 20
9.544320000000048
 30
0.0
 11
32.72799999999938
 21
11.95000000000012
 31
0.0
  0
LINE
  5
21E58
330
1F
100
AcDbEntity
  8
1
100
AcDbLine
 10
27.46999999999946
 20
10.54112299999993
 30
0.0
 11
32.72799999999938
 21
11.95000000000012
 31
0.0
  0
LINE
  5
21E5D
330
1F
100
AcDbEntity
  8
1
100
AcDbLine
 10
34.51999999999941
 20
0.7543159999999816
 30
0.0
 11
40.60520899999949
 21
-0.2298339999999044
 31
0.0
  0
ARC
  5
21E5E
330
1F
100
AcDbEntity
  8
1
100
AcDbCircle
 10
42.28122499999938
 20
9.455846999999913
 30
0.0
 40
16.327249
100
AcDbArc
 50
241.6158519999985
 51
254.0575500000021
  0
ARC
  5
21E5F
330
1F
100
AcDbEntity
  8
1
100
AcDbCircle
 10
41.38615899999945
 20
-7.116217000000041
 30
0.0
 40
3.694058
100
AcDbArc
 50
154.1487349999979
 51
166.347643999995
  0
LINE
  5
21E60
330
1F
100
AcDbEntity
  8
1
100
AcDbLine
 10
39.21024299999942
 20
-3.152346999999885
 30
0.0
 11
38.06188499999939
 21
-5.505529000000059
 31
0.0
  0
SPLINE
  5
21E61
330
1F
100
AcDbEntity
  8
1
100
AcDbSpline
210
0.0
220
0.0
230
1.0
 70
     8
 71
     5
 72
    27
 73
    21
 74
     0
 42
0.000000001
 43
0.0000000001
 40
0.0
 40
0.0
 40
0.0
 40
0.0
 40
0.0
 40
0.0
 40
26.83813835792989
 40
26.83813835792989
 40
26.83813835792989
 40
37.32585532184185
 40
37.32585532184185
 40
37.32585532184185
 40
46.26129796053215
 40
46.26129796053215
 40
46.26129796053215
 40
49.03755521523758
 40
49.03755521523758
 40
49.03755521523758
 40
51.06188085920996
 40
51.06188085920996
 40
51.06188085920996
 40
53.63197047027043
 40
53.63197047027043
 40
53.63197047027043
 40
53.63197047027043
 40
53.63197047027043
 40
53.63197047027043
 10
40.60520898843344
 20
-0.2298335951387926
 30
0.0
 10
40.59116610637659
 20
-0.2665453405191229
 30
0.0
 10
40.57349309692051
 20
-0.3103426514879075
 30
0.0
 10
40.55158802029746
 20
-0.3618974703999029
 30
0.0
 10
40.51173256131244
 20
-0.4533893416239963
 30
0.0
 10
40.4299842368564
 20
-0.6301475172570364
 30
0.0
 10
40.40168385134643
 20
-0.6907882746345777
 30
0.0
 10
40.33891143240237
 20
-0.8240589197319323
 30
0.0
 10
40.24079490656549
 20
-1.029550445033159
 30
0.0
 10
40.18792303421344
 20
-1.139717716857411
 30
0.0
 10
40.09498717778444
 20
-1.332686163349912
 30
0.0
 10
39.94356738291049
 20
-1.645245185133639
 30
0.0
 10
39.90586058934741
 20
-1.723001471761712
 30
0.0
 10
39.8304497434325
 20
-1.87841194225124
 30
0.0
 10
39.73641057775149
 20
-2.071888183829209
 30
0.0
 10
39.69252060345445
 20
-2.16214585069148
 30
0.0
 10
39.58572363045642
 20
-2.381704534883205
 30
0.0
 10
39.46023123973748
 20
-2.639414442550368
 30
0.0
 10
39.38570630647348
 20
-2.792388904465987
 30
0.0
 10
39.30121139110145
 20
-2.965759257044318
 30
0.0
 10
39.21024275490845
 20
-3.15234691033337
 30
0.0
  0
SPLINE
  5
21E62
330
1F
100
AcDbEntity
  8
1
100
AcDbSpline
210
0.0
220
0.0
230
1.0
 70
     8
 71
     5
 72
    54
 73
    48
 74
     0
 42
0.000000001
 43
0.0000000001
 40
0.0
 40
0.0
 40
0.0
 40
0.0
 40
0.0
 40
0.0
 40
36.93644112101773
 40
36.93644112101773
 40
36.93644112101773
 40
87.10506406211802
 40
87.10506406211802
 40
87.10506406211802
 40
99.41819530823757
 40
99.41819530823757
 40
99.41819530823757
 40
111.6180168593997
 40
111.6180168593997
 40
111.6180168593997
 40
115.7229143575576
 40
115.7229143575576
 40
115.7229143575576
 40
120.2638216984984
 40
120.2638216984984
 40
120.2638216984984
 40
121.2966730199148
 40
121.2966730199148
 40
121.2966730199148
 40
122.3411957558512
 40
122.3411957558512
 40
122.3411957558512
 40
122.601454633355
 40
122.601454633355
 40
122.601454633355
 40
122.8697450554104
 40
122.8697450554104
 40
122.8697450554104
 40
123.1315536934469
 40
123.1315536934469
 40
123.1315536934469
 40
123.3933623314835
 40
123.3933623314835
 40
123.3933623314835
 40
123.6524322596007
 40
123.6524322596007
 40
123.6524322596007
 40
123.9115021877179
 40
123.9115021877179
 40
123.9115021877179
 40
124.4293956209747
 40
124.4293956209747
 40
124.4293956209747
 40
124.4293956209747
 40
124.4293956209747
 40
124.4293956209747
 10
40.60520898843344
 20
-0.2298335951387926
 30
0.0
 10
40.62453895830254
 20
-0.179300027401986
 30
0.0
 10
40.63303170100152
 20
-0.1468628863109771
 30
0.0
 10
40.64047603682342
 20
-0.1158833982592924
 30
0.0
 10
40.65059663463353
 20
-0.0514067600684385
 30
0.0
 10
40.64885932420645
 20
0.0056696325757102
 30
0.0
 10
40.64497541741047
 20
0.0373819405949334
 30
0.0
 10
40.63658214247038
 20
0.0823645232795443
 30
0.0
 10
40.61471677814836
 20
0.1471740158306929
 30
0.0
 10
40.60971555593255
 20
0.1610236385680182
 30
0.0
 10
40.5982711798905
 20
0.1909798453457014
 30
0.0
 10
40.58248126979253
 20
0.2278145422346469
 30
0.0
 10
40.5727664747344
 20
0.2492773534613306
 30
0.0
 10
40.55762537423254
 20
0.2813729203131387
 30
0.0
 10
40.53558042021347
 20
0.3241772427413352
 30
0.0
 10
40.52953780306245
 20
0.3356994545105962
 30
0.0
 10
40.51546449453247
 20
0.3620916556517031
 30
0.0
 10
40.49677235638751
 20
0.3956390842610844
 30
0.0
 10
40.48944154262438
 20
0.4084150519391514
 30
0.0
 10
40.47556249456443
 20
0.4324003706312496
 30
0.0
 10
40.45454990729843
 20
0.4671095366827203
 30
0.0
 10
40.45032328108447
 20
0.4740440901220709
 30
0.0
 10
40.44088852690038
 20
0.4893926802562519
 30
0.0
 10
40.42880361657137
 20
0.5086323028711704
 30
0.0
 10
40.42213238586646
 20
0.5191089056317751
 30
0.0
 10
40.41258902332652
 20
0.5340120859156841
 30
0.0
 10
40.3990136214885
 20
0.5546123170185738
 30
0.0
 10
40.39605839404146
 20
0.5590685521733221
 30
0.0
 10
40.38955821294655
 20
0.5688212346666078
 30
0.0
 10
40.38173982183446
 20
0.5804272351436666
 30
0.0
 10
40.37785154135554
 20
0.5861507685785555
 30
0.0
 10
40.36812930904353
 20
0.600433015753616
 30
0.0
 10
40.34966590691237
 20
0.6268226875406171
 30
0.0
 10
40.32877070087147
 20
0.6560127086557586
 30
0.0
 10
40.29883430437348
 20
0.6978685016581139
 30
0.0
 10
40.27885922757741
 20
0.7251257991630027
 30
0.0
 10
40.27249315257745
 20
0.7334094907681319
 30
0.0
 10
40.2664963833555
 20
0.7402889110271289
 30
0.0
 10
40.26590636888147
 20
0.7394431990528219
 30
0.0
 10
40.2654448721704
 20
0.7393159834716343
 30
0.0
 10
40.26112777561843
 20
0.7440551793655104
 30
0.0
 10
40.25333444316743
 20
0.7539009764689908
 30
0.0
 10
40.25015181272545
 20
0.7577769878024228
 30
0.0
 10
40.24048940363946
 20
0.7695781990957685
 30
0.0
 10
40.23160836275747
 20
0.7802325347053838
 30
0.0
 10
40.22593203172948
 20
0.7869712008718679
 30
0.0
 10
40.22047152218147
 20
0.7933868814127081
 30
0.0
 10
40.2151866957364
 20
0.7995360686388367
 30
0.0
  0
LINE
  5
21E63
330
1F
100
AcDbEntity
  8
1
100
AcDbLine
 10
40.21518699999944
 20
0.7995359999999537
 30
0.0
 11
34.51999999999941
 21
1.720608000000048
 31
0.0
  0
LINE
  5
21E64
330
1F
100
AcDbEntity
  8
1
100
AcDbLine
 10
38.06188499999939
 20
3.290403000000047
 30
0.0
 11
40.21518699999944
 21
0.7995359999999537
 31
0.0
  0
ARC
  5
21E65
330
1F
100
AcDbEntity
  8
1
100
AcDbCircle
 10
39.2515459999994
 20
4.337690999999914
 30
0.0
 40
1.584680999999999
100
AcDbArc
 50
197.7305829999993
 51
221.3582429999992
  0
LINE
  5
21E66
330
1F
100
AcDbEntity
  8
1
100
AcDbLine
 10
37.74236999999948
 20
3.855164000000137
 30
0.0
 11
37.73478699999941
 21
3.879386000000145
 31
0.0
  0
LINE
  5
21E67
330
1F
100
AcDbEntity
  8
1
100
AcDbLine
 10
37.74236999999948
 20
7.233404000000255
 30
0.0
 11
37.74236999999948
 21
3.855164000000137
 31
0.0
  0
LINE
  5
21E68
330
1F
100
AcDbEntity
  8
1
100
AcDbLine
 10
36.97817899999939
 20
11.5699999999999
 30
0.0
 11
36.97817899999939
 21
8.440612999999949
 31
0.0
  0
LINE
  5
21E69
330
1F
100
AcDbEntity
  8
1
100
AcDbLine
 10
36.32000000000039
 20
11.95000000000012
 30
0.0
 11
36.32000000000039
 21
8.934519000000101
 31
0.0
  0
LINE
  5
21E6A
330
1F
100
AcDbEntity
  8
1
100
AcDbLine
 10
37.59298199999944
 20
-8.083282000000089
 30
0.0
 11
37.74236999999948
 21
-7.233404000000099
 31
0.0
  0
LINE
  5
21E6B
330
1F
100
AcDbEntity
  8
1
100
AcDbLine
 10
37.59298199999944
 20
-8.083282000000089
 30
0.0
 11
36.97817899999939
 21
-11.56999999999986
 31
0.0
  0
LINE
  5
21E6C
330
1F
100
AcDbEntity
  8
1
100
AcDbLine
 10
36.97817899999939
 20
-11.56999999999986
 30
0.0
 11
36.32000000000039
 21
-11.95000000000007
 31
0.0
  0
LINE
  5
21E6D
330
1F
100
AcDbEntity
  8
1
100
AcDbLine
 10
36.32000000000039
 20
-11.95000000000007
 30
0.0
 11
35.52000000000032
 21
-11.95000000000007
 31
0.0
  0
LINE
  5
21E6E
330
1F
100
AcDbEntity
  8
1
100
AcDbLine
 10
38.06188499999939
 20
6.186813000000107
 30
0.0
 11
38.06188499999939
 21
3.290403000000047
 31
0.0
  0
LINE
  5
21E6F
330
1F
100
AcDbEntity
  8
1
100
AcDbLine
 10
38.06188499999939
 20
-5.505529000000059
 30
0.0
 11
38.06188499999939
 21
-6.186813000000064
 31
0.0
  0
LINE
  5
21E70
330
1F
100
AcDbEntity
  8
1
100
AcDbLine
 10
37.7963469999994
 20
-6.9695239999999
 30
0.0
 11
37.7963469999994
 21
-6.244277000000046
 31
0.0
  0
LINE
  5
21E71
330
1F
100
AcDbEntity
  8
1
100
AcDbLine
 10
37.7963469999994
 20
-6.9695239999999
 30
0.0
 11
37.77921299999946
 21
-7.050050999999861
 31
0.0
  0
LINE
  5
21E72
330
1F
100
AcDbEntity
  8
1
100
AcDbLine
 10
37.77921299999946
 20
-7.050050999999861
 30
0.0
 11
37.74236999999948
 21
-7.233404000000099
 31
0.0
  0
LINE
  5
21E73
330
1F
100
AcDbEntity
  8
1
100
AcDbLine
 10
34.51998499999945
 20
-8.083282000000089
 30
0.0
 11
37.59298199999944
 21
-8.083282000000089
 31
0.0
  0
LINE
  5
21E74
330
1F
100
AcDbEntity
  8
1
100
AcDbLine
 10
34.51998499999945
 20
-6.9695239999999
 30
0.0
 11
37.7963469999994
 21
-6.9695239999999
 31
0.0
  0
LINE
  5
21E77
330
1F
100
AcDbEntity
  8
1
100
AcDbLine
 10
40.79999999999938
 20
-0.0000000000000355
 30
0.0
 11
38.06188499999939
 21
-6.186811999999953
 31
0.0
  0
ARC
  5
21E78
330
1F
100
AcDbEntity
  8
1
100
AcDbCircle
 10
42.21438200000034
 20
-8.024595000000012
 30
0.0
 40
4.541
100
AcDbArc
 50
156.1271179999998
 51
167.6073779999986
  0
LINE
  5
21E79
330
1F
100
AcDbEntity
  8
SKVIEW4
100
AcDbLine
 10
-59.65869537635751
 20
-0.0000000000000355
 30
0.0
 11
-116.2086953763572
 21
-0.0000000000000355
 31
0.0
  0
LINE
  5
21E7A
330
1F
100
AcDbEntity
  8
SKVIEW4
100
AcDbLine
 10
-87.93369537635738
 20
28.27500000000006
 30
0.0
 11
-87.93369537635738
 21
-28.27500000000002
 31
0.0
  0
ARC
  5
21E7B
330
1F
100
AcDbEntity
  8
SKVIEW1
100
AcDbCircle
 10
-87.93369537635738
 20
-0.0000000000000355
 30
0.0
 40
6.974999999999997
100
AcDbArc
 50
7.769205999998681
 51
87.74295400000154
  0
LINE
  5
21E7C
330
1F
100
AcDbEntity
  8
SKVIEW1
100
AcDbLine
 10
-76.2202073763575
 20
-3.995044000000042
 30
0.0
 11
-76.2202073763575
 21
1.688652000000125
 31
0.0
  0
ARC
  5
21E7D
330
1F
100
AcDbEntity
  8
SKVIEW1
100
AcDbCircle
 10
-78.54460637635725
 20
-3.296043000000089
 30
0.0
 40
5.499998
100
AcDbArc
 50
65.00002500000267
 51
118.0917690000051
  0
LINE
  5
21E7E
330
1F
100
AcDbEntity
  8
SKVIEW1
100
AcDbLine
 10
-82.02740437635725
 20
-0.9035220000001018
 30
0.0
 11
-82.00109837635739
 21
-0.7105730000001032
 31
0.0
  0
LINE
  5
21E7F
330
1F
100
AcDbEntity
  8
SKVIEW1
100
AcDbLine
 10
-82.56876037635754
 20
-2.617129999999896
 30
0.0
 11
-82.56876037635754
 21
-1.930960000000062
 31
0.0
  0
SPLINE
  5
21E80
330
1F
100
AcDbEntity
  8
SKVIEW1
100
AcDbSpline
210
0.0
220
0.0
230
1.0
 70
     8
 71
     5
 72
    24
 73
    18
 74
     0
 42
0.000000001
 43
0.0000000001
 40
0.0
 40
0.0
 40
0.0
 40
0.0
 40
0.0
 40
0.0
 40
3.304265425699642
 40
3.304265425699642
 40
3.304265425699642
 40
5.739805699521807
 40
5.739805699521807
 40
5.739805699521807
 40
6.978784577625908
 40
6.978784577625908
 40
6.978784577625908
 40
9.303867584845812
 40
9.303867584845812
 40
9.303867584845812
 40
11.48891730521138
 40
11.48891730521138
 40
11.48891730521138
 40
11.48891730521138
 40
11.48891730521138
 40
11.48891730521138
 10
-76.22020552268828
 20
-3.995032750589679
 30
0.0
 10
-76.44254239772431
 20
-3.989752390149
 30
0.0
 10
-76.69369247326824
 20
-3.979555220887768
 30
0.0
 10
-76.98831380545129
 20
-3.964021108281976
 30
0.0
 10
-77.55714034708001
 20
-3.932606557315047
 30
0.0
 10
-78.20996097169438
 20
-3.907470803449804
 30
0.0
 10
-78.49734689887862
 20
-3.899895666213332
 30
0.0
 10
-78.92871799102874
 20
-3.896006343077296
 30
0.0
 10
-79.34490277341808
 20
-3.903634019659229
 30
0.0
 10
-79.47810172374602
 20
-3.907390310477275
 30
0.0
 10
-79.86648098595924
 20
-3.922198998727743
 30
0.0
 10
-80.22838137311032
 20
-3.946947985917439
 30
0.0
 10
-80.45655823897471
 20
-3.967311628587971
 30
0.0
 10
-80.85946526272062
 20
-4.010894508626314
 30
0.0
 10
-81.21415812899726
 20
-4.062189758995181
 30
0.0
 10
-81.37548236896714
 20
-4.088343225969573
 30
0.0
 10
-81.52642547791026
 20
-4.115244658874452
 30
0.0
 10
-81.66803003414178
 20
-4.142603727817039
 30
0.0
  0
LINE
  5
21E81
330
1F
100
AcDbEntity
  8
SKVIEW1
100
AcDbLine
 10
-87.93369537635738
 20
7.049825000000133
 30
0.0
 11
-87.93369537635738
 21
10.37999999999996
 31
0.0
  0
LINE
  5
21E82
330
1F
100
AcDbEntity
  8
SKVIEW1
100
AcDbLine
 10
-76.2202073763575
 20
1.688652000000125
 30
0.0
 11
-66.37800837635757
 21
-2.900840000000052
 31
0.0
  0
ARC
  5
21E83
330
1F
100
AcDbEntity
  8
SKVIEW1
100
AcDbCircle
 10
-87.93369537635738
 20
-0.0000000000000355
 30
0.0
 40
21.75
100
AcDbArc
 50
337.1325820000022
 51
77.25045699999758
  0
LINE
  5
21E84
330
1F
100
AcDbEntity
  8
SKVIEW1
100
AcDbLine
 10
-83.13369537635741
 20
10.37999999999996
 30
0.0
 11
-83.13369537635741
 21
21.2137339999999
 31
0.0
  0
LINE
  5
21E85
330
1F
100
AcDbEntity
  8
SKVIEW1
100
AcDbLine
 10
-83.13369537635741
 20
10.37999999999996
 30
0.0
 11
-87.93369537635738
 21
10.37999999999996
 31
0.0
  0
CIRCLE
  5
21E86
330
1F
100
AcDbEntity
  8
SKVIEW1
100
AcDbCircle
 10
-72.69164837635719
 20
8.799999999999918
 30
0.0
 40
2.2
  0
SPLINE
  5
21E87
330
1F
100
AcDbEntity
  8
SKVIEW1
100
AcDbSpline
210
0.0
220
0.0
230
1.0
 70
     8
 71
     5
 72
    33
 73
    27
 74
     0
 42
0.000000001
 43
0.0000000001
 40
0.0
 40
0.0
 40
0.0
 40
0.0
 40
0.0
 40
0.0
 40
3.696607534790206
 40
3.696607534790206
 40
3.696607534790206
 40
5.574911270023183
 40
5.574911270023183
 40
5.574911270023183
 40
6.866729582015216
 40
6.866729582015216
 40
6.866729582015216
 40
8.195887817412515
 40
8.195887817412515
 40
8.195887817412515
 40
9.960551494289406
 40
9.960551494289406
 40
9.960551494289406
 40
11.2710111479993
 40
11.2710111479993
 40
11.2710111479993
 40
14.73281612509708
 40
14.73281612509708
 40
14.73281612509708
 40
19.08082962587872
 40
19.08082962587872
 40
19.08082962587872
 40
19.08082962587872
 40
19.08082962587872
 40
19.08082962587872
 10
-76.22020552268828
 20
-3.995032750590361
 30
0.0
 10
-75.97134820062251
 20
-4.000942954908886
 30
0.0
 10
-75.71688713531614
 20
-4.012216873783394
 30
0.0
 10
-75.45317957937356
 20
-4.030103391814272
 30
0.0
 10
-75.04597257759428
 20
-4.06844337540523
 30
0.0
 10
-74.60865584678924
 20
-4.132811332017844
 30
0.0
 10
-74.45432623782164
 20
-4.158498020115224
 30
0.0
 10
-74.19175649396675
 20
-4.207882786776544
 30
0.0
 10
-73.91289702796473
 20
-4.272476212851792
 30
0.0
 10
-73.79600303261543
 20
-4.301785458896951
 30
0.0
 10
-73.5526265032812
 20
-4.36802344782783
 30
0.0
 10
-73.29292002772319
 20
-4.45174753267694
 30
0.0
 10
-73.15648355187306
 20
-4.499614080848949
 30
0.0
 10
-72.83319195975479
 20
-4.624056172272879
 30
0.0
 10
-72.5023991784908
 20
-4.780431971392239
 30
0.0
 10
-72.32062571844585
 20
-4.877806486825342
 30
0.0
 10
-72.02092891696054
 20
-5.058248077769384
 30
0.0
 10
-71.7649714244842
 20
-5.241484866959389
 30
0.0
 10
-71.66709530666617
 20
-5.316572412132167
 30
0.0
 10
-71.32563556395428
 20
-5.594486898406024
 30
0.0
 10
-71.06654171930824
 20
-5.858676259953689
 30
0.0
 10
-70.90260901196029
 20
-6.045064999216755
 30
0.0
 10
-70.58037629386229
 20
-6.450508869517911
 30
0.0
 10
-70.33300033519163
 20
-6.837798960518547
 30
0.0
 10
-70.21183119107615
 20
-7.047006184375312
 30
0.0
 10
-70.10030634869156
 20
-7.259198854512796
 30
0.0
 10
-69.99912459441953
 20
-7.469977568685102
 30
0.0
  0
LINE
  5
21E88
330
1F
100
AcDbEntity
  8
SKVIEW1
100
AcDbLine
 10
-69.99910537635719
 20
-7.470006000000047
 30
0.0
 11
-67.89310337635754
 21
-8.452050999999904
 31
0.0
  0
ARC
  5
21E89
330
1F
100
AcDbEntity
  8
SKVIEW1
100
AcDbCircle
 10
-80.41225137635739
 20
-22.69778299999988
 30
0.0
 40
17.669179
100
AcDbArc
 50
90.97779299999862
 51
92.89692799999578
  0
ARC
  5
21E8A
330
1F
100
AcDbEntity
  8
SKVIEW1
100
AcDbCircle
 10
-87.93369537635738
 20
-0.0000000000000355
 30
0.0
 40
8.8
100
AcDbArc
 50
325.129432999998
 51
332.8941429999972
  0
ELLIPSE
  5
21E8B
330
1F
100
AcDbEntity
  8
SKVIEW1
100
AcDbEllipse
 10
-78.8872193763574
 20
-16.54908600000002
 30
0.0
 11
11.0481948852539
 21
6.296128273010253
 31
0.0
210
0.0
220
0.0
230
1.0
 40
0.9888609999999999
 41
0.2810201571917089
 42
1.153421497559581
  0
LINE
  5
21E8C
330
1F
100
AcDbEntity
  8
SKVIEW1
100
AcDbLine
 10
-93.29863037635732
 20
2.617129999999939
 30
0.0
 11
-93.29863037635732
 21
1.930960000000105
 31
0.0
  0
LINE
  5
21E8D
330
1F
100
AcDbEntity
  8
SKVIEW1
100
AcDbLine
 10
-99.64718337635723
 20
3.995044000000085
 30
0.0
 11
-99.64718337635723
 21
-1.688652000000082
 31
0.0
  0
ARC
  5
21E8E
330
1F
100
AcDbEntity
  8
SKVIEW1
100
AcDbCircle
 10
-97.32299037635732
 20
3.296714000000143
 30
0.0
 40
5.500678999999997
100
AcDbArc
 50
245.0049259999969
 51
298.090354999997
  0
ARC
  5
21E8F
330
1F
100
AcDbEntity
  8
SKVIEW1
100
AcDbCircle
 10
-87.93369537635738
 20
-0.0000000000000355
 30
0.0
 40
6.974999999999997
100
AcDbArc
 50
187.7692059999986
 51
241.35211
  0
SPLINE
  5
21E90
330
1F
100
AcDbEntity
  8
SKVIEW1
100
AcDbSpline
210
0.0
220
0.0
230
1.0
 70
     8
 71
     5
 72
    24
 73
    18
 74
     0
 42
0.000000001
 43
0.0000000001
 40
0.0
 40
0.0
 40
0.0
 40
0.0
 40
0.0
 40
0.0
 40
3.304265476432008
 40
3.304265476432008
 40
3.304265476432008
 40
5.739805791836753
 40
5.739805791836753
 40
5.739805791836753
 40
6.97878468533272
 40
6.97878468533272
 40
6.97878468533272
 40
9.303867715239842
 40
9.303867715239842
 40
9.303867715239842
 40
11.48891746099034
 40
11.48891746099034
 40
11.48891746099034
 40
11.48891746099034
 40
11.48891746099034
 40
11.48891746099034
 10
-99.64718523002673
 20
3.995032750587903
 30
0.0
 10
-99.42484835156417
 20
3.989752390061731
 30
0.0
 10
-99.17369827171128
 20
3.9795552205671
 30
0.0
 10
-98.87907693219471
 20
3.964021107468816
 30
0.0
 10
-98.31025037781058
 20
3.932606555774633
 30
0.0
 10
-97.65742973988121
 20
3.907470802095723
 30
0.0
 10
-97.37004380702378
 20
3.899895665216114
 30
0.0
 10
-96.93867270870306
 20
3.896006343063355
 30
0.0
 10
-96.52248792210571
 20
3.903634021027038
 30
0.0
 10
-96.38928897018082
 20
3.907390312338144
 30
0.0
 10
-96.00090970663679
 20
3.922199002032549
 30
0.0
 10
-95.63900931990032
 20
3.94694799067448
 30
0.0
 10
-95.41083245238963
 20
3.967311634464941
 30
0.0
 10
-95.00792543034663
 20
4.01089451613128
 30
0.0
 10
-94.65323256641715
 20
4.062189767826531
 30
0.0
 10
-94.49190832753115
 20
4.088343235396415
 30
0.0
 10
-94.34096521973129
 20
4.115244668826754
 30
0.0
 10
-94.19936066469984
 20
4.142603738225567
 30
0.0
  0
SPLINE
  5
21E91
330
1F
100
AcDbEntity
  8
SKVIEW1
100
AcDbSpline
210
0.0
220
0.0
230
1.0
 70
     8
 71
     5
 72
    33
 73
    27
 74
     0
 42
0.000000001
 43
0.0000000001
 40
0.0
 40
0.0
 40
0.0
 40
0.0
 40
0.0
 40
0.0
 40
3.696607533352108
 40
3.696607533352108
 40
3.696607533352108
 40
5.574911269687389
 40
5.574911269687389
 40
5.574911269687389
 40
6.866729581792863
 40
6.866729581792863
 40
6.866729581792863
 40
8.195887816337968
 40
8.195887816337968
 40
8.195887816337968
 40
9.960551492242247
 40
9.960551492242247
 40
9.960551492242247
 40
11.27101114619875
 40
11.27101114619875
 40
11.27101114619875
 40
14.7328161199471
 40
14.7328161199471
 40
14.7328161199471
 40
19.08082962180472
 40
19.08082962180472
 40
19.08082962180472
 40
19.08082962180472
 40
19.08082962180472
 40
19.08082962180472
 10
-99.64718523002638
 20
3.995032750588926
 30
0.0
 10
-99.89604255198003
 20
4.000942954901766
 30
0.0
 10
-100.1505036171711
 20
4.012216873766156
 30
0.0
 10
-100.4142111737729
 20
4.030103391850126
 30
0.0
 10
-100.8214181755644
 20
4.068443375457682
 30
0.0
 10
-101.2587349063486
 20
4.132811332078595
 30
0.0
 10
-101.4130645150285
 20
4.158498020134594
 30
0.0
 10
-101.675634258934
 20
4.207882786811261
 30
0.0
 10
-101.9544937250283
 20
4.272476212921638
 30
0.0
 10
-102.071387720392
 20
4.301785458973846
 30
0.0
 10
-102.3147642496561
 20
4.368023447894834
 30
0.0
 10
-102.5744707251965
 20
4.451747532749628
 30
0.0
 10
-102.7109072009942
 20
4.499614080907655
 30
0.0
 10
-103.0341987929112
 20
4.624056172259052
 30
0.0
 10
-103.3649915739562
 20
4.780431971263816
 30
0.0
 10
-103.546765034747
 20
4.87780648709073
 30
0.0
 10
-103.8464618362483
 20
5.058248078101506
 30
0.0
 10
-104.1024193284614
 20
5.241484867129621
 30
0.0
 10
-104.2002954460728
 20
5.316572412151991
 30
0.0
 10
-104.5417551885441
 20
5.594486898241221
 30
0.0
 10
-104.8008490331323
 20
5.858676259644617
 30
0.0
 10
-104.9647817412561
 20
6.045064999851625
 30
0.0
 10
-105.2870144590322
 20
6.450508869797282
 30
0.0
 10
-105.5343904173612
 20
6.837798960274959
 30
0.0
 10
-105.655559561639
 20
7.047006184319307
 30
0.0
 10
-105.7670844039921
 20
7.259198854454403
 30
0.0
 10
-105.8682661582975
 20
7.469977568684576
 30
0.0
  0
ARC
  5
21E92
330
1F
100
AcDbEntity
  8
SKVIEW1
100
AcDbCircle
 10
-95.45513937635758
 20
22.69778300000015
 30
0.0
 40
17.669179
100
AcDbArc
 50
270.9777929999986
 51
272.8969289999984
  0
ARC
  5
21E93
330
1F
100
AcDbEntity
  8
SKVIEW1
100
AcDbCircle
 10
-87.93369537635738
 20
-0.0000000000000355
 30
0.0
 40
8.8
100
AcDbArc
 50
145.1294329999983
 51
152.8941429999972
  0
ELLIPSE
  5
21E94
330
1F
100
AcDbEntity
  8
SKVIEW1
100
AcDbEllipse
 10
-96.98015037635741
 20
16.54917899999994
 30
0.0
 11
11.04715156555175
 21
6.298096179962151
 31
0.0
210
0.0
220
0.0
230
1.0
 40
0.9888609999999999
 41
3.422439865603901
 42
4.29483786513102
  0
LINE
  5
21E95
330
1F
100
AcDbEntity
  8
SKVIEW1
100
AcDbLine
 10
-105.8682853763575
 20
7.47000600000009
 30
0.0
 11
-107.9742873763575
 21
8.452050999999947
 31
0.0
  0
ARC
  5
21E96
330
1F
100
AcDbEntity
  8
SKVIEW1
100
AcDbCircle
 10
-87.93369537635738
 20
-0.0000000000000355
 30
0.0
 40
21.75
100
AcDbArc
 50
157.1325820000026
 51
257.2504569999976
  0
LINE
  5
21E97
330
1F
100
AcDbEntity
  8
SKVIEW1
100
AcDbLine
 10
-99.64718337635723
 20
-1.688652000000082
 30
0.0
 11
-109.4893823763574
 21
2.900840000000094
 31
0.0
  0
LINE
  5
21E98
330
1F
100
AcDbEntity
  8
SKVIEW1
100
AcDbLine
 10
-87.93369537635738
 20
-8.083282999999859
 30
0.0
 11
-87.93369537635738
 21
-7.049831999999732
 31
0.0
  0
LINE
  5
21E99
330
1F
100
AcDbEntity
  8
SKVIEW1
100
AcDbLine
 10
-92.73369537635721
 20
-10.37999999999992
 30
0.0
 11
-92.73369537635721
 21
-11.05459599999987
 31
0.0
  0
LINE
  5
21E9A
330
1F
100
AcDbEntity
  8
SKVIEW1
100
AcDbLine
 10
-92.73369537635721
 20
-10.37999999999992
 30
0.0
 11
-87.93369537635738
 21
-10.37999999999992
 31
0.0
  0
CIRCLE
  5
21E9B
330
1F
100
AcDbEntity
  8
SKVIEW1
100
AcDbCircle
 10
-103.1757423763575
 20
-8.799999999999876
 30
0.0
 40
2.2
  0
LINE
  5
21E9C
330
1F
100
AcDbEntity
  8
SKVIEW1
100
AcDbLine
 10
-87.93369537635738
 20
-13.76382999999991
 30
0.0
 11
-87.93369537635738
 21
-11.95000899999994
 31
0.0
  0
LINE
  5
21E9D
330
1F
100
AcDbEntity
  8
SKVIEW1
100
AcDbLine
 10
-87.93369537635738
 20
-21.75000000000004
 30
0.0
 11
-87.93369537635738
 21
-17.79281600000005
 31
0.0
  0
LINE
  5
21E9E
330
1F
100
AcDbEntity
  8
SKVIEW1
100
AcDbLine
 10
-87.93369537635738
 20
11.18000000000014
 30
0.0
 11
-87.93369537635738
 21
10.37999999999996
 31
0.0
  0
LINE
  5
21E9F
330
1F
100
AcDbEntity
  8
SKVIEW1
100
AcDbLine
 10
-87.93369537635738
 20
21.20000000000012
 30
0.0
 11
-87.93369537635738
 21
11.18000000000014
 31
0.0
  0
LINE
  5
21EA0
330
1F
100
AcDbEntity
  8
SKVIEW1
100
AcDbLine
 10
-87.93369537635738
 20
21.20000000000012
 30
0.0
 11
-87.93369537635738
 21
21.99999999999997
 31
0.0
  0
LINE
  5
21EA1
330
1F
100
AcDbEntity
  8
SKVIEW1
100
AcDbLine
 10
-83.13369537635741
 20
21.3254039999999
 30
0.0
 11
-83.13369537635741
 21
21.20000000000012
 31
0.0
  0
LINE
  5
21EA2
330
1F
100
AcDbEntity
  8
SKVIEW1
100
AcDbLine
 10
-83.13369537635741
 20
21.20000000000012
 30
0.0
 11
-83.13369537635741
 21
11.18000000000014
 31
0.0
  0
LINE
  5
21EA3
330
1F
100
AcDbEntity
  8
SKVIEW1
100
AcDbLine
 10
-83.13369537635741
 20
11.18000000000014
 30
0.0
 11
-83.13369537635741
 21
11.05459599999991
 31
0.0
  0
LINE
  5
21EA4
330
1F
100
AcDbEntity
  8
SKVIEW1
100
AcDbLine
 10
-83.13369537635741
 20
11.05459599999991
 30
0.0
 11
-87.93369537635738
 21
10.37999999999996
 31
0.0
  0
LINE
  5
21EA5
330
1F
100
AcDbEntity
  8
SKVIEW1
100
AcDbLine
 10
-83.13369537635741
 20
11.18000000000014
 30
0.0
 11
-87.93369537635738
 21
11.18000000000014
 31
0.0
  0
LINE
  5
21EA6
330
1F
100
AcDbEntity
  8
SKVIEW1
100
AcDbLine
 10
-83.13369537635741
 20
21.20000000000012
 30
0.0
 11
-87.93369537635738
 21
21.20000000000012
 31
0.0
  0
LINE
  5
21EA7
330
1F
100
AcDbEntity
  8
SKVIEW1
100
AcDbLine
 10
-83.13369537635741
 20
21.3254039999999
 30
0.0
 11
-87.93369537635738
 21
21.99999999999997
 31
0.0
  0
LINE
  5
21EA8
330
1F
100
AcDbEntity
  8
SKVIEW1
100
AcDbLine
 10
-87.93369537635738
 20
21.99999999999997
 30
0.0
 11
-87.93369537635738
 21
21.20000000000012
 31
0.0
  0
LINE
  5
21EA9
330
1F
100
AcDbEntity
  8
SKVIEW1
100
AcDbLine
 10
-87.93369537635738
 20
11.18000000000014
 30
0.0
 11
-87.93369537635738
 21
10.37999999999996
 31
0.0
  0
LINE
  5
21EAA
330
1F
100
AcDbEntity
  8
SKVIEW1
100
AcDbLine
 10
-87.93369537635738
 20
11.18000000000014
 30
0.0
 11
-87.93369537635738
 21
21.20000000000012
 31
0.0
  0
LINE
  5
21EAB
330
1F
100
AcDbEntity
  8
SKVIEW1
100
AcDbLine
 10
-87.93369537635738
 20
-21.20000000000008
 30
0.0
 11
-87.93369537635738
 21
-11.95000099999985
 31
0.0
  0
LINE
  5
21EAC
330
1F
100
AcDbEntity
  8
SKVIEW1
100
AcDbLine
 10
-87.93369537635738
 20
-21.20000000000008
 30
0.0
 11
-87.93369537635738
 21
-21.99999999999992
 31
0.0
  0
LINE
  5
21EAD
330
1F
100
AcDbEntity
  8
SKVIEW1
100
AcDbLine
 10
-92.73369537635721
 20
-21.32540399999986
 30
0.0
 11
-92.73369537635721
 21
-21.20000000000008
 31
0.0
  0
LINE
  5
21EAE
330
1F
100
AcDbEntity
  8
SKVIEW1
100
AcDbLine
 10
-92.73369537635721
 20
-21.20000000000008
 30
0.0
 11
-92.73369537635721
 21
-11.1800000000001
 31
0.0
  0
LINE
  5
21EAF
330
1F
100
AcDbEntity
  8
SKVIEW1
100
AcDbLine
 10
-92.73369537635721
 20
-11.1800000000001
 30
0.0
 11
-92.73369537635721
 21
-11.05459599999987
 31
0.0
  0
LINE
  5
21EB0
330
1F
100
AcDbEntity
  8
SKVIEW1
100
AcDbLine
 10
-92.73369537635721
 20
-11.05459599999987
 30
0.0
 11
-87.93369537635738
 21
-10.37999999999992
 31
0.0
  0
LINE
  5
21EB1
330
1F
100
AcDbEntity
  8
SKVIEW1
100
AcDbLine
 10
-92.73369537635721
 20
-11.1800000000001
 30
0.0
 11
-87.93369537635738
 21
-11.1800000000001
 31
0.0
  0
LINE
  5
21EB2
330
1F
100
AcDbEntity
  8
SKVIEW1
100
AcDbLine
 10
-92.73369537635721
 20
-21.20000000000008
 30
0.0
 11
-87.93369537635738
 21
-21.20000000000008
 31
0.0
  0
LINE
  5
21EB3
330
1F
100
AcDbEntity
  8
SKVIEW1
100
AcDbLine
 10
-92.73369537635721
 20
-21.32540399999986
 30
0.0
 11
-87.93369537635738
 21
-21.99999999999992
 31
0.0
  0
LINE
  5
21EB4
330
1F
100
AcDbEntity
  8
SKVIEW1
100
AcDbLine
 10
-87.93369537635738
 20
-21.99999999999992
 30
0.0
 11
-87.93369537635738
 21
-21.20000000000008
 31
0.0
  0
LINE
  5
21EB5
330
1F
100
AcDbEntity
  8
SKVIEW1
100
AcDbLine
 10
-87.93369537635738
 20
-21.99999999999992
 30
0.0
 11
-87.93369537635738
 21
-21.20000000000008
 31
0.0
  0
LINE
  5
21EB6
330
1F
100
AcDbEntity
  8
SKVIEW1
100
AcDbLine
 10
-87.93369537635738
 20
-21.20000000000008
 30
0.0
 11
-87.93369537635738
 21
-17.79278999999989
 31
0.0
  0
LINE
  5
21EB7
330
1F
100
AcDbEntity
  8
SKVIEW1
100
AcDbLine
 10
-87.93369537635738
 20
-13.76387000000003
 30
0.0
 11
-87.93369537635738
 21
-11.95000899999994
 31
0.0
  0
LINE
  5
21EB8
330
1F
100
AcDbEntity
  8
SKVIEW1
100
AcDbLine
 10
-87.93369537635738
 20
-11.95000000000007
 30
0.0
 11
-87.93369537635738
 21
-21.20000000000008
 31
0.0
  0
ARC
  5
21EB9
330
1F
100
AcDbEntity
  8
SKVIEW1
100
AcDbCircle
 10
-87.93369537635738
 20
-0.0000000000000355
 30
0.0
 40
5.974999999999997
100
AcDbArc
 50
342.456737999997
 51
353.1702419999991
  0
ARC
  5
21EBA
330
1F
100
AcDbEntity
  8
SKVIEW1
100
AcDbCircle
 10
-94.28962937635754
 20
3.97491400000009
 30
0.0
 40
2.271536
100
AcDbArc
 50
286.860282999999
 51
303.8565430000011
  0
ARC
  5
21EBB
330
1F
100
AcDbEntity
  8
SKVIEW1
100
AcDbCircle
 10
-81.57776137635721
 20
-3.974914000000048
 30
0.0
 40
2.271536
100
AcDbArc
 50
106.860282999999
 51
123.8565430000014
  0
LINE
  5
21EBC
330
1F
100
AcDbEntity
  8
SKVIEW1
100
AcDbLine
 10
-80.97296337635725
 20
-0.4459109999999456
 30
0.0
 11
-81.14764737635756
 21
-0.4611940000000132
 31
0.0
  0
ARC
  5
21EBD
330
1F
100
AcDbEntity
  8
SKVIEW1
100
AcDbCircle
 10
-80.94965937635754
 20
-2.724046000000079
 30
0.0
 40
2.271497999999998
100
AcDbArc
 50
95.00035699999768
 51
117.5732200000052
  0
SPLINE
  5
21EBE
330
1F
100
AcDbEntity
  8
SKVIEW1
100
AcDbSpline
210
0.0
220
0.0
230
1.0
 70
     8
 71
     5
 72
    18
 73
    12
 74
     0
 42
0.000000001
 43
0.0000000001
 40
0.0
 40
0.0
 40
0.0
 40
0.0
 40
0.0
 40
0.0
 40
1.714261408735674
 40
1.714261408735674
 40
1.714261408735674
 40
3.347234035855441
 40
3.347234035855441
 40
3.347234035855441
 40
5.44712496492689
 40
5.44712496492689
 40
5.44712496492689
 40
5.44712496492689
 40
5.44712496492689
 40
5.44712496492689
 10
-82.78943622557006
 20
-1.047989575728855
 30
0.0
 10
-82.7243380896183
 20
-0.8877421664731528
 30
0.0
 10
-82.64402174408122
 20
-0.7408247607948298
 30
0.0
 10
-82.55201675621117
 20
-0.6128695450248998
 30
0.0
 10
-82.35830690104377
 20
-0.3984249337061456
 30
0.0
 10
-82.14571346923822
 20
-0.2473161572009204
 30
0.0
 10
-82.03910890241571
 20
-0.1869690862348889
 30
0.0
 10
-81.79250721089976
 20
-0.0773200862230752
 30
0.0
 10
-81.54312059421853
 20
-0.0254133655634306
 30
0.0
 10
-81.40427054388977
 20
-0.012020998698894
 30
0.0
 10
-81.26709339039564
 20
-0.0122566479156277
 30
0.0
 10
-81.13203924565732
 20
-0.0248487777040865
 30
0.0
  0
ARC
  5
21EBF
330
1F
100
AcDbEntity
  8
SKVIEW1
100
AcDbCircle
 10
-80.96249837635719
 20
-1.793997999999909
 30
0.0
 40
1.973356
100
AcDbArc
 50
157.7879380000012
 51
165.5109310000051
  0
SPLINE
  5
21EC0
330
1F
100
AcDbEntity
  8
SKVIEW1
100
AcDbSpline
210
0.0
220
0.0
230
1.0
 70
     8
 71
     5
 72
    12
 73
     6
 74
     0
 42
0.000000001
 43
0.0000000001
 40
0.0
 40
0.0
 40
0.0
 40
0.0
 40
0.0
 40
0.0
 40
1.671021473493358
 40
1.671021473493358
 40
1.671021473493358
 40
1.671021473493358
 40
1.671021473493358
 40
1.671021473493358
 10
-82.87306849620041
 20
-1.300279625779502
 30
0.0
 10
-82.91054399303266
 20
-1.446451714708963
 30
0.0
 10
-82.92927303249006
 20
-1.582217502167658
 30
0.0
 10
-82.93109184492335
 20
-1.702020133096347
 30
0.0
 10
-82.92235685330444
 20
-1.795855608827686
 30
0.0
 10
-82.90869984013056
 20
-1.864081586110081
 30
0.0
  0
ARC
  5
21EC1
330
1F
100
AcDbEntity
  8
SKVIEW1
100
AcDbCircle
 10
-81.35973737635721
 20
-1.532042999999852
 30
0.0
 40
1.584483
100
AcDbArc
 50
192.098914999999
 51
209.2142119999976
  0
ARC
  5
21EC2
330
1F
100
AcDbEntity
  8
SKVIEW1
100
AcDbCircle
 10
-87.93325237635725
 20
-0.0000109999998941
 30
0.0
 40
6.801258999999999
100
AcDbArc
 50
356.1118810000027
 51
359.7907600000003
  0
ARC
  5
21EC3
330
1F
100
AcDbEntity
  8
SKVIEW1
100
AcDbCircle
 10
-87.93369537635738
 20
-0.0000000000000355
 30
0.0
 40
5.974999999999997
100
AcDbArc
 50
162.4567379999969
 51
173.1702419999991
  0
SPLINE
  5
21EC4
330
1F
100
AcDbEntity
  8
SKVIEW1
100
AcDbSpline
210
0.0
220
0.0
230
1.0
 70
     8
 71
     5
 72
    18
 73
    12
 74
     0
 42
0.000000001
 43
0.0000000001
 40
0.0
 40
0.0
 40
0.0
 40
0.0
 40
0.0
 40
0.0
 40
1.714261410100044
 40
1.714261410100044
 40
1.714261410100044
 40
3.347234038466243
 40
3.347234038466243
 40
3.347234038466243
 40
5.447124969033088
 40
5.447124969033088
 40
5.447124969033088
 40
5.447124969033088
 40
5.447124969033088
 40
5.447124969033088
 10
-93.0779545271447
 20
1.047989575728898
 30
0.0
 10
-93.14305266314818
 20
0.8877421663459799
 30
0.0
 10
-93.22336900876109
 20
0.7408247605620418
 30
0.0
 10
-93.31537399667615
 20
0.6128695447980235
 30
0.0
 10
-93.50908385190155
 20
0.3984249334881369
 30
0.0
 10
-93.72167728388774
 20
0.2473161569361864
 30
0.0
 10
-93.82828185087078
 20
0.186969085972315
 30
0.0
 10
-94.07488354193834
 20
0.0773200862431267
 30
0.0
 10
-94.3242701580093
 20
0.0254133656828444
 30
0.0
 10
-94.4631202086299
 20
0.0120209986985955
 30
0.0
 10
-94.60029736222281
 20
0.0122566479068027
 30
0.0
 10
-94.73535150705732
 20
0.0248487777041291
 30
0.0
  0
ARC
  5
21EC5
330
1F
100
AcDbEntity
  8
SKVIEW1
100
AcDbCircle
 10
-94.90489237635731
 20
1.793997999999952
 30
0.0
 40
1.973356
100
AcDbArc
 50
337.7879380000012
 51
345.5109310000051
  0
SPLINE
  5
21EC6
330
1F
100
AcDbEntity
  8
SKVIEW1
100
AcDbSpline
210
0.0
220
0.0
230
1.0
 70
     8
 71
     5
 72
    12
 73
     6
 74
     0
 42
0.000000001
 43
0.0000000001
 40
0.0
 40
0.0
 40
0.0
 40
0.0
 40
0.0
 40
0.0
 40
1.671021497196995
 40
1.671021497196995
 40
1.671021497196995
 40
1.671021497196995
 40
1.671021497196995
 40
1.671021497196995
 10
-92.99432225650276
 20
1.300279625823314
 30
0.0
 10
-92.95684675923201
 20
1.446451716477746
 30
0.0
 10
-92.9381177198411
 20
1.582217505174945
 30
0.0
 10
-92.93629890754322
 20
1.702020130438619
 30
0.0
 10
-92.94503389921658
 20
1.795855607865597
 30
0.0
 10
-92.95869091258429
 20
1.864081586110124
 30
0.0
  0
ARC
  5
21EC7
330
1F
100
AcDbEntity
  8
SKVIEW1
100
AcDbCircle
 10
-94.50765337635733
 20
1.532042999999895
 30
0.0
 40
1.584483
100
AcDbArc
 50
12.09891499999907
 51
29.21421199999827
  0
ARC
  5
21EC8
330
1F
100
AcDbEntity
  8
SKVIEW1
100
AcDbCircle
 10
-94.91773137635732
 20
2.724046000000122
 30
0.0
 40
2.271497999999998
100
AcDbArc
 50
275.0003569999977
 51
297.5732200000052
  0
ARC
  5
21EC9
330
1F
100
AcDbEntity
  8
SKVIEW1
100
AcDbCircle
 10
-87.93413837635739
 20
0.0000109999999367
 30
0.0
 40
6.801258999999999
100
AcDbArc
 50
176.1118810000026
 51
179.7907600000003
  0
ARC
  5
21ECA
330
1F
100
AcDbEntity
  8
SKVIEW1
100
AcDbCircle
 10
27.9770006236414
 20
53.44549900000012
 30
0.0
 40
131.749149
100
AcDbArc
 50
199.9741000000006
 51
202.0994709999946
  0
ARC
  5
21ECB
330
1F
100
AcDbEntity
  8
SKVIEW1
100
AcDbCircle
 10
-77.86173937635737
 20
9.505785000000138
 30
0.0
 40
18.016812
100
AcDbArc
 50
181.8170039999991
 51
183.3893610000016
  0
ARC
  5
21ECC
330
1F
100
AcDbEntity
  8
SKVIEW1
100
AcDbCircle
 10
-109.4309953763573
 20
-6.652392999999882
 30
0.0
 40
18.605449
100
AcDbArc
 50
28.78200900000468
 51
34.4750279999957
  0
ARC
  5
21ECD
330
1F
100
AcDbEntity
  8
SKVIEW1
100
AcDbCircle
 10
-203.8443913763575
 20
-53.44549899999974
 30
0.0
 40
131.749149
100
AcDbArc
 50
19.97410000000066
 51
22.09947099999458
  0
ARC
  5
21ECE
330
1F
100
AcDbEntity
  8
SKVIEW1
100
AcDbCircle
 10
-98.00512837635736
 20
-9.505761000000042
 30
0.0
 40
18.016288
100
AcDbArc
 50
1.816981999999578
 51
3.389383999997161
  0
ARC
  5
21ECF
330
1F
100
AcDbEntity
  8
SKVIEW1
100
AcDbCircle
 10
-66.43639537635727
 20
6.652393000000152
 30
0.0
 40
18.605449
100
AcDbArc
 50
208.7820090000047
 51
214.4750279999957
  0
ARC
  5
21ED0
330
1F
100
AcDbEntity
  8
SKVIEW1
100
AcDbCircle
 10
-87.93369537635738
 20
-0.0000000000000355
 30
0.0
 40
6.974999999999997
100
AcDbArc
 50
356.3345890000044
 51
63.538863000001
  0
LINE
  5
21ED1
330
1F
100
AcDbEntity
  8
SKVIEW1
100
AcDbLine
 10
-81.13203937635717
 20
-0.024849000000053
 30
0.0
 11
-80.95881637635727
 21
-0.0421349999999521
 31
0.0
  0
LINE
  5
21ED2
330
1F
100
AcDbEntity
  8
SKVIEW1
100
AcDbLine
 10
-87.93369537635738
 20
11.5699999999999
 30
0.0
 11
-87.93369537635738
 21
11.95000000000012
 31
0.0
  0
LINE
  5
21ED3
330
1F
100
AcDbEntity
  8
SKVIEW1
100
AcDbLine
 10
-87.93369537635738
 20
8.083282000000131
 30
0.0
 11
-87.93369537635738
 21
11.5699999999999
 31
0.0
  0
ARC
  5
21ED4
330
1F
100
AcDbEntity
  8
SKVIEW1
100
AcDbCircle
 10
-87.63369537635743
 20
7.566555000000072
 30
0.0
 40
0.5975000000000003
100
AcDbArc
 50
120.1385060000015
 51
267.7295169999972
  0
ARC
  5
21ED5
330
1F
100
AcDbEntity
  8
SKVIEW1
100
AcDbCircle
 10
-87.93369537635738
 20
-0.0000000000000355
 30
0.0
 40
6.974999999999997
100
AcDbArc
 50
63.53887499999856
 51
87.72951699999719
  0
LINE
  5
21ED6
330
1F
100
AcDbEntity
  8
SKVIEW1
100
AcDbLine
 10
-87.55833737635738
 20
0.229833999999947
 30
0.0
 11
-82.78943637635757
 21
-1.047989999999948
 31
0.0
  0
ARC
  5
21ED7
330
1F
100
AcDbEntity
  8
SKVIEW1
100
AcDbCircle
 10
-90.57753137635732
 20
8.041513000000087
 30
0.0
 40
6.025959999999997
100
AcDbArc
 50
335.1116150000005
 51
342.6478900000043
  0
LINE
  5
21ED8
330
1F
100
AcDbEntity
  8
SKVIEW1
100
AcDbLine
 10
-86.2115603763574
 20
3.152346999999927
 30
0.0
 11
-85.11131937635742
 21
5.505529000000102
 31
0.0
  0
SPLINE
  5
21ED9
330
1F
100
AcDbEntity
  8
SKVIEW1
100
AcDbSpline
210
0.0
220
0.0
230
1.0
 70
     8
 71
     5
 72
    27
 73
    21
 74
     0
 42
0.000000001
 43
0.0000000001
 40
0.0
 40
0.0
 40
0.0
 40
0.0
 40
0.0
 40
0.0
 40
26.84702593678565
 40
26.84702593678565
 40
26.84702593678565
 40
37.3330195091142
 40
37.3330195091142
 40
37.3330195091142
 40
46.26813101669206
 40
46.26813101669206
 40
46.26813101669206
 40
49.05475193305643
 40
49.05475193305643
 40
49.05475193305643
 40
51.08464317707825
 40
51.08464317707825
 40
51.08464317707825
 40
53.63256629915495
 40
53.63256629915495
 40
53.63256629915495
 40
53.63256629915495
 40
53.63256629915495
 40
53.63256629915495
 10
-87.5583372222926
 20
0.2298335951387216
 30
0.0
 10
-87.54360540730601
 20
0.2665574852475956
 30
0.0
 10
-87.5254497446382
 20
0.3103716304678628
 30
0.0
 10
-87.50335276132398
 20
0.3618539672575807
 30
0.0
 10
-87.46366376672325
 20
0.4533427970202056
 30
0.0
 10
-87.3838518909314
 20
0.6301315024211008
 30
0.0
 10
-87.35631496738051
 20
0.6908113050445408
 30
0.0
 10
-87.2953724117308
 20
0.8240744829667718
 30
0.0
 10
-87.2007444730732
 20
1.029548123623122
 30
0.0
 10
-87.14974101530925
 20
1.139720862947761
 30
0.0
 10
-87.06022953164017
 20
1.332849508627951
 30
0.0
 10
-86.91458379281812
 20
1.645842905527011
 30
0.0
 10
-86.87816060642024
 20
1.724039900639546
 30
0.0
 10
-86.80546362150369
 20
1.880179173466409
 30
0.0
 10
-86.71462705987835
 20
2.074858029221068
 30
0.0
 10
-86.67227280547479
 20
2.165627508147245
 30
0.0
 10
-86.56997547647916
 20
2.385004181711416
 30
0.0
 10
-86.44976328260918
 20
2.642458914520794
 30
0.0
 10
-86.3785284429672
 20
2.794974957805116
 30
0.0
 10
-86.2981043288504
 20
2.967132149969494
 30
0.0
 10
-86.21156041038569
 20
3.152346910333527
 30
0.0
  0
LINE
  5
21EDA
330
1F
100
AcDbEntity
  8
SKVIEW1
100
AcDbLine
 10
-86.88163737635774
 20
-0.799535999999911
 30
0.0
 11
-82.90869937635727
 21
-1.864082000000088
 31
0.0
  0
SPLINE
  5
21EDB
330
1F
100
AcDbEntity
  8
SKVIEW1
100
AcDbSpline
210
0.0
220
0.0
230
1.0
 70
     8
 71
     5
 72
    66
 73
    60
 74
     0
 42
0.000000001
 43
0.0000000001
 40
0.0
 40
0.0
 40
0.0
 40
0.0
 40
0.0
 40
0.0
 40
24.62643060419752
 40
24.62643060419752
 40
24.62643060419752
 40
73.88115175884959
 40
73.88115175884959
 40
73.88115175884959
 40
98.71016324732309
 40
98.71016324732309
 40
98.71016324732309
 40
110.9270952386292
 40
110.9270952386292
 40
110.9270952386292
 40
116.4002446650412
 40
116.4002446650412
 40
116.4002446650412
 40
119.4366318812483
 40
119.4366318812483
 40
119.4366318812483
 40
121.2259855336602
 40
121.2259855336602
 40
121.2259855336602
 40
121.6617914527275
 40
121.6617914527275
 40
121.6617914527275
 40
121.7564944905948
 40
121.7564944905948
 40
121.7564944905948
 40
121.8040391876908
 40
121.8040391876908
 40
121.8040391876908
 40
121.851583884787
 40
121.851583884787
 40
121.851583884787
 40
121.8987734327026
 40
121.8987734327026
 40
121.8987734327026
 40
122.0402608889348
 40
122.0402608889348
 40
122.0402608889348
 40
122.171678639154
 40
122.171678639154
 40
122.171678639154
 40
122.3030963893733
 40
122.3030963893733
 40
122.3030963893733
 40
122.5057890889658
 40
122.5057890889658
 40
122.5057890889658
 40
122.607138985402
 40
122.607138985402
 40
122.607138985402
 40
122.7084888818382
 40
122.7084888818382
 40
122.7084888818382
 40
123.3346635551207
 40
123.3346635551207
 40
123.3346635551207
 40
123.3346635551207
 40
123.3346635551207
 40
123.3346635551207
 10
-87.5583372222926
 20
0.2298335951387216
 30
0.0
 10
-87.57185277501491
 20
0.1961416384666208
 30
0.0
 10
-87.5790951667542
 20
0.1704938967930829
 30
0.0
 10
-87.58436538587387
 20
0.1481113115131265
 30
0.0
 10
-87.59551902752775
 20
0.0858329282704844
 30
0.0
 10
-87.59489482286642
 20
0.0363775878331225
 30
0.0
 10
-87.59131370430679
 20
0.0038308967977727
 30
0.0
 10
-87.58180219724966
 20
-0.0460541244528159
 30
0.0
 10
-87.55854305336356
 20
-0.1096023372721575
 30
0.0
 10
-87.5489354601591
 20
-0.1322266867082718
 30
0.0
 10
-87.53040296013512
 20
-0.1721912596924895
 30
0.0
 10
-87.49792724675319
 20
-0.227865812187737
 30
0.0
 10
-87.48460598067834
 20
-0.2492102249793007
 30
0.0
 10
-87.46185917974571
 20
-0.284020566752396
 30
0.0
 10
-87.4263861620666
 20
-0.3314354303043174
 30
0.0
 10
-87.41395329299496
 20
-0.3474702641240484
 30
0.0
 10
-87.39140010981669
 20
-0.3757329879959244
 30
0.0
 10
-87.35799688888164
 20
-0.4140317643574818
 30
0.0
 10
-87.34154340936596
 20
-0.4320272171454818
 30
0.0
 10
-87.31941364387523
 20
-0.4560803307273674
 30
0.0
 10
-87.2837362758903
 20
-0.4921919757014522
 30
0.0
 10
-87.2709700000006
 20
-0.504451428069082
 30
0.0
 10
-87.2509970394641
 20
-0.5243570871754529
 30
0.0
 10
-87.21008567843318
 20
-0.5610425248550328
 30
0.0
 10
-87.20084505042155
 20
-0.5691381455601814
 30
0.0
 10
-87.18905244037626
 20
-0.5795371311212776
 30
0.0
 10
-87.17001208368618
 20
-0.5955918887062026
 30
0.0
 10
-87.16632520683118
 20
-0.5986824781319129
 30
0.0
 10
-87.16028690049359
 20
-0.6037146341006192
 30
0.0
 10
-87.15306709104073
 20
-0.6096595038928072
 30
0.0
 10
-87.15043516266234
 20
-0.6118103780420725
 30
0.0
 10
-87.14526718714353
 20
-0.6160710309918969
 30
0.0
 10
-87.13881585505669
 20
-0.6213180308462043
 30
0.0
 10
-87.1349084435227
 20
-0.6244534100281172
 30
0.0
 10
-87.12619431367192
 20
-0.6313640485283614
 30
0.0
 10
-87.11676269782822
 20
-0.6387948937433876
 30
0.0
 10
-87.11225500032924
 20
-0.6423591784838792
 30
0.0
 10
-87.09402128048202
 20
-0.6567534640358091
 30
0.0
 10
-87.07623855779354
 20
-0.6707665368457257
 30
0.0
 10
-87.06337062023465
 20
-0.6808705098356214
 30
0.0
 10
-87.04021456642852
 20
-0.698933872689203
 30
0.0
 10
-87.02106751063366
 20
-0.7135508804034672
 30
0.0
 10
-87.01288976826061
 20
-0.7196826166853399
 30
0.0
 10
-86.99942375398938
 20
-0.7295038158936578
 30
0.0
 10
-86.99096768712809
 20
-0.7350841747283213
 30
0.0
 10
-86.98790415681287
 20
-0.7368909911629445
 30
0.0
 10
-86.98239754061763
 20
-0.7396120085186695
 30
0.0
 10
-86.98034864710974
 20
-0.7395235371377922
 30
0.0
 10
-86.97915273330307
 20
-0.7394779463507249
 30
0.0
 10
-86.97557507452575
 20
-0.7409612231408929
 30
0.0
 10
-86.96942573770195
 20
-0.7446579724046743
 30
0.0
 10
-86.96709384387293
 20
-0.7461313368598113
 30
0.0
 10
-86.96202910238332
 20
-0.749420981390621
 30
0.0
 10
-86.95688133292799
 20
-0.7527831263644558
 30
0.0
 10
-86.95441715136826
 20
-0.7543712970253083
 30
0.0
 10
-86.93668646279581
 20
-0.7658094502599298
 30
0.0
 10
-86.92036458765846
 20
-0.7760598996192485
 30
0.0
 10
-86.90694399914628
 20
-0.7843356044668682
 30
0.0
 10
-86.89407599208129
 20
-0.7921283203885779
 30
0.0
 10
-86.8816377983145
 20
-0.7995360686389077
 30
0.0
  0
LINE
  5
21EDC
330
1F
100
AcDbEntity
  8
SKVIEW1
100
AcDbLine
 10
-82.69443037635722
 20
-3.290403000000004
 30
0.0
 11
-86.88163737635774
 21
-0.799535999999911
 31
0.0
  0
ARC
  5
21EDD
330
1F
100
AcDbEntity
  8
SKVIEW1
100
AcDbCircle
 10
-91.51415037635741
 20
-18.07085299999986
 30
0.0
 40
17.211966
100
AcDbArc
 50
55.68143300000073
 51
59.17482799999817
  0
LINE
  5
21EDE
330
1F
100
AcDbEntity
  8
SKVIEW1
100
AcDbLine
 10
-81.8101123763572
 20
-3.855164000000094
 30
0.0
 11
-81.7745443763572
 21
-3.879386000000103
 31
0.0
  0
LINE
  5
21EDF
330
1F
100
AcDbEntity
  8
SKVIEW1
100
AcDbLine
 10
-94.89442737635727
 20
0.4459109999999882
 30
0.0
 11
-94.71974337635742
 21
0.4611940000000559
 31
0.0
  0
LINE
  5
21EE0
330
1F
100
AcDbEntity
  8
SKVIEW1
100
AcDbLine
 10
-93.07795437635741
 20
1.047989999999991
 30
0.0
 11
-88.30905337635726
 21
-0.2298339999999044
 31
0.0
  0
LINE
  5
21EE1
330
1F
100
AcDbEntity
  8
SKVIEW1
100
AcDbLine
 10
-94.73535137635735
 20
0.0248490000000956
 30
0.0
 11
-94.90857437635737
 21
0.042134999999881
 31
0.0
  0
ARC
  5
21EE2
330
1F
100
AcDbEntity
  8
SKVIEW1
100
AcDbCircle
 10
-87.93369537635738
 20
-0.0000000000000355
 30
0.0
 40
6.974999999999997
100
AcDbArc
 50
176.3345890000044
 51
267.7295150000006
  0
ARC
  5
21EE3
330
1F
100
AcDbEntity
  8
SKVIEW1
100
AcDbCircle
 10
-85.28985937635718
 20
-8.041513000000044
 30
0.0
 40
6.025959999999997
100
AcDbArc
 50
155.1116150000005
 51
162.6478900000047
  0
LINE
  5
21EE4
330
1F
100
AcDbEntity
  8
SKVIEW1
100
AcDbLine
 10
-89.65583037635747
 20
-3.152346999999885
 30
0.0
 11
-90.75607137635756
 21
-5.505529000000059
 31
0.0
  0
SPLINE
  5
21EE5
330
1F
100
AcDbEntity
  8
SKVIEW1
100
AcDbSpline
210
0.0
220
0.0
230
1.0
 70
     8
 71
     5
 72
    27
 73
    21
 74
     0
 42
0.000000001
 43
0.0000000001
 40
0.0
 40
0.0
 40
0.0
 40
0.0
 40
0.0
 40
0.0
 40
26.84702593915496
 40
26.84702593915496
 40
26.84702593915496
 40
37.33301950800246
 40
37.33301950800246
 40
37.33301950800246
 40
46.26813101670213
 40
46.26813101670213
 40
46.26813101670213
 40
49.05475193978697
 40
49.05475193978697
 40
49.05475193978697
 40
51.08464318345318
 40
51.08464318345318
 40
51.08464318345318
 40
53.63256630481894
 40
53.63256630481894
 40
53.63256630481894
 40
53.63256630481894
 40
53.63256630481894
 40
53.63256630481894
 10
-88.30905353042203
 20
-0.2298335951387926
 30
0.0
 10
-88.32378534541055
 20
-0.2665574852513046
 30
0.0
 10
-88.34194100808019
 20
-0.3103716304773698
 30
0.0
 10
-88.36403799138031
 20
-0.3618539672311627
 30
0.0
 10
-88.40372698597594
 20
-0.453342796979463
 30
0.0
 10
-88.48353886174981
 20
-0.6301315023462522
 30
0.0
 10
-88.51107578531866
 20
-0.6908113050083458
 30
0.0
 10
-88.57201834097486
 20
-0.8240744829438781
 30
0.0
 10
-88.66664627957835
 20
-1.029548123487337
 30
0.0
 10
-88.71764973727477
 20
-1.139720862658727
 30
0.0
 10
-88.80716122095305
 20
-1.332849508368816
 30
0.0
 10
-88.9528069598407
 20
-1.64584290540089
 30
0.0
 10
-88.98923014594936
 20
-1.724039899890648
 30
0.0
 10
-89.06192713077098
 20
-1.8801791725297
 30
0.0
 10
-89.15276369262517
 20
-2.07485802876139
 30
0.0
 10
-89.19511794718074
 20
-2.165627508011574
 30
0.0
 10
-89.29741527635121
 20
-2.385004181967623
 30
0.0
 10
-89.41762747015241
 20
-2.642458914614771
 30
0.0
 10
-89.48886230980827
 20
-2.794974957926378
 30
0.0
 10
-89.56928642391369
 20
-2.967132150059832
 30
0.0
 10
-89.65583034232919
 20
-3.15234691033337
 30
0.0
  0
SPLINE
  5
21EE6
330
1F
100
AcDbEntity
  8
SKVIEW1
100
AcDbSpline
210
0.0
220
0.0
230
1.0
 70
     8
 71
     5
 72
    66
 73
    60
 74
     0
 42
0.000000001
 43
0.0000000001
 40
0.0
 40
0.0
 40
0.0
 40
0.0
 40
0.0
 40
0.0
 40
24.62643060468403
 40
24.62643060468403
 40
24.62643060468403
 40
73.88115176404001
 40
73.88115176404001
 40
73.88115176404001
 40
98.7101632508984
 40
98.7101632508984
 40
98.7101632508984
 40
110.9270952400545
 40
110.9270952400545
 40
110.9270952400545
 40
116.4002446665751
 40
116.4002446665751
 40
116.4002446665751
 40
119.4366318719653
 40
119.4366318719653
 40
119.4366318719653
 40
121.2259855276104
 40
121.2259855276104
 40
121.2259855276104
 40
121.6617914459722
 40
121.6617914459722
 40
121.6617914459722
 40
121.7564944837122
 40
121.7564944837122
 40
121.7564944837122
 40
121.804039180746
 40
121.804039180746
 40
121.804039180746
 40
121.8515838777798
 40
121.8515838777798
 40
121.8515838777798
 40
121.8987734256307
 40
121.8987734256307
 40
121.8987734256307
 40
122.0402608816691
 40
122.0402608816691
 40
122.0402608816691
 40
122.1716786318653
 40
122.1716786318653
 40
122.1716786318653
 40
122.3030963820615
 40
122.3030963820615
 40
122.3030963820615
 40
122.5057890816466
 40
122.5057890816466
 40
122.5057890816466
 40
122.6071389780791
 40
122.6071389780791
 40
122.6071389780791
 40
122.7084888745115
 40
122.7084888745115
 40
122.7084888745115
 40
123.334663547877
 40
123.334663547877
 40
123.334663547877
 40
123.334663547877
 40
123.334663547877
 40
123.334663547877
 10
-88.30905353042203
 20
-0.2298335951387926
 30
0.0
 10
-88.29553797769927
 20
-0.1961416384656687
 30
0.0
 10
-88.2882955859584
 20
-0.1704938967908802
 30
0.0
 10
-88.2830253668385
 20
-0.1481113115037616
 30
0.0
 10
-88.27187172518632
 20
-0.0858329282588457
 30
0.0
 10
-88.27249592984831
 20
-0.036377587818869
 30
0.0
 10
-88.27607704841103
 20
-0.00383089679341
 30
0.0
 10
-88.28558855546431
 20
0.0460541244596797
 30
0.0
 10
-88.3088476993563
 20
0.1096023372841373
 30
0.0
 10
-88.3184552925643
 20
0.1322266867309381
 30
0.0
 10
-88.33698779258805
 20
0.1721912597121999
 30
0.0
 10
-88.36946350597486
 20
0.2278658122089254
 30
0.0
 10
-88.38278477206177
 20
0.2492102250184516
 30
0.0
 10
-88.40553157300268
 20
0.2840205668007556
 30
0.0
 10
-88.4410045906883
 20
0.331435430356656
 30
0.0
 10
-88.45343745976379
 20
0.3474702641796838
 30
0.0
 10
-88.47599064292353
 20
0.375732988026094
 30
0.0
 10
-88.50939386382538
 20
0.4140317643468379
 30
0.0
 10
-88.5258473434826
 20
0.4320272172930899
 30
0.0
 10
-88.5479771089092
 20
0.4560803307992601
 30
0.0
 10
-88.58365447680478
 20
0.4921919756828502
 30
0.0
 10
-88.59642075269585
 20
0.5044514280501389
 30
0.0
 10
-88.61639371322326
 20
0.5243570871535539
 30
0.0
 10
-88.6573050743309
 20
0.5610425248990723
 30
0.0
 10
-88.66654570237608
 20
0.5691381456330973
 30
0.0
 10
-88.67833831241956
 20
0.579537131191124
 30
0.0
 10
-88.69737866910885
 20
0.5955918887734342
 30
0.0
 10
-88.70106554596464
 20
0.598682478200054
 30
0.0
 10
-88.70710385230371
 20
0.603714634169215
 30
0.0
 10
-88.71432366176021
 20
0.6096595039636768
 30
0.0
 10
-88.71695559013687
 20
0.6118103781115778
 30
0.0
 10
-88.72212356565581
 20
0.6160710310616296
 30
0.0
 10
-88.7285748977588
 20
0.621318030927192
 30
0.0
 10
-88.73248230930085
 20
0.6244534101151303
 30
0.0
 10
-88.74119643915719
 20
0.6313640486183303
 30
0.0
 10
-88.75062805498544
 20
0.6387948938213058
 30
0.0
 10
-88.7551357524768
 20
0.6423591785561129
 30
0.0
 10
-88.77336947229697
 20
0.6567534640866697
 30
0.0
 10
-88.79115219495805
 20
0.6707665368748721
 30
0.0
 10
-88.80402013249739
 20
0.6808705098490791
 30
0.0
 10
-88.82717618628261
 20
0.6989338726865171
 30
0.0
 10
-88.84632324206416
 20
0.7135508803905495
 30
0.0
 10
-88.85450098443675
 20
0.7196826166724222
 30
0.0
 10
-88.86796699870922
 20
0.7295038158819907
 30
0.0
 10
-88.87642306557324
 20
0.7350841747194963
 30
0.0
 10
-88.87948659589062
 20
0.7368909911557111
 30
0.0
 10
-88.88499321209076
 20
0.7396120085155289
 30
0.0
 10
-88.88704210560058
 20
0.7395235371361295
 30
0.0
 10
-88.88823801940759
 20
0.7394779463491759
 30
0.0
 10
-88.8918156781831
 20
0.7409612231380934
 30
0.0
 10
-88.89796501500404
 20
0.7446579723993736
 30
0.0
 10
-88.90029690883238
 20
0.7461313368537148
 30
0.0
 10
-88.90536165032097
 20
0.7494209813837287
 30
0.0
 10
-88.91050941977686
 20
0.7527831263582457
 30
0.0
 10
-88.91297360133648
 20
0.7543712970187571
 30
0.0
 10
-88.93070428991165
 20
0.7658094502554249
 30
0.0
 10
-88.94702616505094
 20
0.7760598996161079
 30
0.0
 10
-88.96044675356529
 20
0.7843356044650918
 30
0.0
 10
-88.97331476063186
 20
0.7921283203875973
 30
0.0
 10
-88.98575295440014
 20
0.7995360686388367
 30
0.0
  0
LINE
  5
21EE7
330
1F
100
AcDbEntity
  8
SKVIEW1
100
AcDbLine
 10
-88.98575337635724
 20
0.7995359999999537
 30
0.0
 11
-92.95869137635737
 21
1.864082000000131
 31
0.0
  0
LINE
  5
21EE8
330
1F
100
AcDbEntity
  8
SKVIEW1
100
AcDbLine
 10
-93.17296037635719
 20
3.290403000000047
 30
0.0
 11
-88.98575337635724
 21
0.7995359999999537
 31
0.0
  0
ARC
  5
21EE9
330
1F
100
AcDbEntity
  8
SKVIEW1
100
AcDbCircle
 10
-84.35324037635723
 20
18.07085299999991
 30
0.0
 40
17.211966
100
AcDbArc
 50
235.6814330000007
 51
239.1748279999982
  0
LINE
  5
21EEA
330
1F
100
AcDbEntity
  8
SKVIEW1
100
AcDbLine
 10
-94.05727837635755
 20
3.855164000000137
 30
0.0
 11
-94.09284637635755
 21
3.879386000000145
 31
0.0
  0
ARC
  5
21EEB
330
1F
100
AcDbEntity
  8
SKVIEW1
100
AcDbCircle
 10
-87.93369537635738
 20
-0.0000000000000355
 30
0.0
 40
7.236059
100
AcDbArc
 50
91.55214100000376
 51
147.8071170000049
  0
ARC
  5
21EEC
330
1F
100
AcDbEntity
  8
SKVIEW1
100
AcDbCircle
 10
-87.93369537635738
 20
-0.0000000000000355
 30
0.0
 40
11.57
100
AcDbArc
 50
90.0
 51
133.1533510000004
  0
ARC
  5
21EED
330
1F
100
AcDbEntity
  8
SKVIEW1
100
AcDbCircle
 10
-87.93369537635738
 20
-0.0000000000000355
 30
0.0
 40
11.95
100
AcDbArc
 50
90.0
 51
131.6120479999961
  0
ARC
  5
21EEE
330
1F
100
AcDbEntity
  8
SKVIEW1
100
AcDbCircle
 10
-87.93369537635738
 20
-0.0000000000000355
 30
0.0
 40
7.236059
100
AcDbArc
 50
271.5521410000037
 51
327.8071169999971
  0
ARC
  5
21EEF
330
1F
100
AcDbEntity
  8
SKVIEW1
100
AcDbCircle
 10
-88.23369537635731
 20
-7.566555000000029
 30
0.0
 40
0.5975000000000003
100
AcDbArc
 50
300.1385060000016
 51
87.72951699999719
  0
LINE
  5
21EF0
330
1F
100
AcDbEntity
  8
SKVIEW1
100
AcDbLine
 10
-87.93369537635738
 20
-8.083282000000089
 30
0.0
 11
-87.93369537635738
 21
-11.56999999999986
 31
0.0
  0
ARC
  5
21EF1
330
1F
100
AcDbEntity
  8
SKVIEW1
100
AcDbCircle
 10
-87.93369537635738
 20
-0.0000000000000355
 30
0.0
 40
11.57
100
AcDbArc
 50
270.0
 51
313.1533510000004
  0
ARC
  5
21EF2
330
1F
100
AcDbEntity
  8
SKVIEW1
100
AcDbCircle
 10
-87.93369537635738
 20
-0.0000000000000355
 30
0.0
 40
11.95
100
AcDbArc
 50
270.0
 51
311.6120479999961
  0
LINE
  5
21EF3
330
1F
100
AcDbEntity
  8
SKVIEW1
100
AcDbLine
 10
-87.93369537635738
 20
-11.56999999999986
 30
0.0
 11
-87.93369537635738
 21
-11.95000000000007
 31
0.0
  0
ARC
  5
21EF4
330
1F
100
AcDbEntity
  8
SKVIEW1
100
AcDbCircle
 10
-87.93369537635738
 20
-0.0000000000000355
 30
0.0
 40
6.186812999999999
100
AcDbArc
 50
62.85832799999639
 51
147.8700429999992
  0
ARC
  5
21EF5
330
1F
100
AcDbEntity
  8
SKVIEW1
100
AcDbCircle
 10
-87.93369537635738
 20
-0.0000000000000355
 30
0.0
 40
6.186812999999999
100
AcDbArc
 50
242.8583279999964
 51
327.8700429999992
  0
LINE
  5
21EFE
330
1F
100
AcDbEntity
  8
1
100
AcDbLine
 10
36.31999999999948
 20
11.95000000000012
 30
0.0
 11
35.52000000000032
 21
11.95000000000012
 31
0.0
  0
LINE
  5
21EFF
330
1F
100
AcDbEntity
  8
1
100
AcDbLine
 10
36.97817899999939
 20
11.5699999999999
 30
0.0
 11
36.31999999999948
 21
11.95000000000012
 31
0.0
  0
LINE
  5
21F00
330
1F
100
AcDbEntity
  8
1
100
AcDbLine
 10
37.59298199999944
 20
8.083282000000131
 30
0.0
 11
36.97817899999939
 21
11.5699999999999
 31
0.0
  0
LINE
  5
21F01
330
1F
100
AcDbEntity
  8
1
100
AcDbLine
 10
37.59298199999944
 20
8.083282000000131
 30
0.0
 11
37.74237000000039
 21
7.233404000000255
 31
0.0
  0
LINE
  5
21F02
330
1F
100
AcDbEntity
  8
1
100
AcDbLine
 10
37.77921299999946
 20
7.050050999999903
 30
0.0
 11
37.74237000000039
 21
7.233404000000255
 31
0.0
  0
ARC
  5
21F03
330
1F
100
AcDbEntity
  8
1
100
AcDbCircle
 10
42.21438199999943
 20
8.024595000000054
 30
0.0
 40
4.541
100
AcDbArc
 50
192.3926209999994
 51
203.8728820000002
  0
LINE
  5
21F04
330
1F
100
AcDbEntity
  8
1
100
AcDbLine
 10
40.79999999999938
 20
-0.0000000000000355
 30
0.0
 11
38.06188499999939
 21
6.186811999999882
 31
0.0
  0
LINE
  5
21F05
330
1F
100
AcDbEntity
  8
1
100
AcDbLine
 10
27.46999999999946
 20
10.54112299999993
 30
0.0
 11
27.46999999999946
 21
3.531501293705638
 31
0.0
  0
DIMENSION
  5
21F06
330
1F
100
AcDbEntity
  8
SK2
100
AcDbDimension
280
     0
  2
*D12
 10
-34.89786542661523
 20
-8.799999999999871
 30
0.0
 11
-34.89786542661523
 21
-0.1469385065120505
 31
0.0
 70
   160
  1
%%C<>
 71
     5
 42
17.60000000000002
 73
     0
 74
     0
 75
     0
  3
STANDARD
100
AcDbAlignedDimension
 13
-17.90000000000009
 23
8.800000000000146
 33
0.0
 14
-17.90000000000009
 24
-8.799999999999876
 34
0.0
 50
90.0
100
AcDbRotatedDimension
1001
ACAD
1000
DSTYLE
1002
{
1070
   172
1070
     1
1002
}
  0
LINE
  5
22087
330
1F
100
AcDbEntity
  8
4
100
AcDbLine
 10
0.0
 20
-0.0000000000000355
 30
0.0
 11
44.88121342015335
 21
-0.0000000000000355
 31
0.0
  0
LWPOLYLINE
  5
2208E
330
1F
100
AcDbEntity
  8
CUT
 48
0.240324
100
AcDbPolyline
 90
       18
 70
     1
 43
0.0
 10
38.06188450458558
 20
6.186812218881954
 42
-0.0501340277659534
 10
37.77918763814802
 20
7.05005307037711
 10
37.74236999999948
 20
7.233404000000255
 10
37.59298199999944
 20
8.083282000000131
 10
36.97817899999939
 20
11.5699999999999
 10
36.31999999999948
 20
11.95000000000012
 10
35.52000000000032
 20
11.95000000000012
 10
35.52000000000038
 20
21.20000000000012
 42
0.4142135623730951
 10
34.72000000000037
 20
21.99999999999997
 10
24.69999999999948
 20
22.00000000000012
 42
0.4142135623730951
 10
23.89999999999941
 20
21.20000000000012
 10
23.89999999999947
 20
11.18000000000014
 42
0.4142135623730951
 10
24.69999999999948
 20
10.37999999999996
 10
27.46999999999946
 20
10.38000000000007
 10
27.46999999999946
 20
8.831806000000106
 10
27.46999999999946
 20
3.531202000000085
 10
27.46999999999946
 20
-0.0000000000000355
 10
40.79999999999938
 20
-0.0000000000000355
  0
LWPOLYLINE
  5
220A0
330
1F
100
AcDbEntity
  8
NOCUT
100
AcDbPolyline
 90
        9
 70
     1
 43
0.0
 10
-17.90000000000009
 20
-0.0000000000000355
 10
34.51999999999941
 20
0.0000000000000782
 10
34.51999999999941
 20
10.42750500000007
 10
34.51999999999941
 20
21.75000000000008
 10
0.0
 20
21.75000000000008
 10
0.0
 20
10.42750500000007
 10
0.0
 20
8.800000000000146
 10
-17.90000000000009
 20
8.800000000000146
 10
-17.90000000000009
 20
4.218945000000381
  0
VIEWPORT
  5
9C00
330
1B
100
AcDbEntity
 67
     1
  8
0
348
3195
100
AcDbViewport
 10
108.2280559557949
 20
71.69854161746989
 30
0.0
 40
251.8950231529317
 41
201.8884082081047
 68
     1
 69
     1
 12
108.2280559557949
 22
71.69854161746989
 13
0.0
 23
0.0
 14
10.0
 24
10.0
 15
10.0
 25
10.0
 16
0.0
 26
0.0
 36
1.0
 17
0.0
 27
0.0
 37
0.0
 42
50.0
 43
0.0
 44
0.0
 45
201.8884082081047
 50
0.0
 51
0.0
 72
   100
 90
   557088
  1

281
     0
 71
     1
 74
     0
110
0.0
120
0.0
130
0.0
111
1.0
121
0.0
131
0.0
112
0.0
122
1.0
132
0.0
 79
     0
146
0.0
170
     0
 61
     5
292
     1
282
     1
141
0.0
142
0.0
 63
   250
421
  3355443
  0
VIEWPORT
  5
9C02
330
1B
100
AcDbEntity
 67
     1
  8
1
348
3195
100
AcDbViewport
 10
143.457083940506
 20
98.18158769607544
 30
0.0
 40
229.5313343048095
 41
157.0905403137207
 68
     2
 69
     2
 12
-44.37697124786255
 22
-35.12342998133886
 13
0.0
 23
0.0
 14
10.0
 24
10.0
 15
10.0
 25
10.0
 16
0.0
 26
0.0
 36
1.0
 17
0.0
 27
0.0
 37
0.0
 42
50.0
 43
0.0
 44
0.0
 45
300.3886240724386
 50
0.0
 51
0.0
 72
   100
 90
   557088
  1

281
     0
 71
     1
 74
     0
110
0.0
120
0.0
130
0.0
111
1.0
121
0.0
131
0.0
112
0.0
122
1.0
132
0.0
 79
     0
146
0.0
170
     0
 61
     5
348
3195
292
     1
282
     1
141
0.0
142
0.0
 63
   250
421
  3355443
  0
ENDSEC
  0
SECTION
  2
OBJECTS
  0
DICTIONARY
  5
3182
330
0
100
AcDbDictionary
281
     1
  3
ACAD_CIP_PREVIOUS_PRODUCT_INFO
350
1B2F4
  3
ACAD_COLOR
350
31A0
  3
ACAD_DETAILVIEWSTYLE
350
1B2F0
  3
ACAD_FIELDLIST
350
20CBF
  3
ACAD_GROUP
350
3183
  3
ACAD_LAYOUT
350
31A5
  3
ACAD_MATERIAL
350
318B
  3
ACAD_MLEADERSTYLE
350
1B221
  3
ACAD_MLINESTYLE
350
3184
  3
ACAD_PLOTSETTINGS
350
31A4
  3
ACAD_PLOTSTYLENAME
350
3189
  3
ACAD_SCALELIST
350
1B1FC
  3
ACAD_SECTIONVIEWSTYLE
350
1B2EE
  3
ACAD_TABLESTYLE
350
31A1
  3
ACAD_VISUALSTYLE
350
318F
  3
ACDB_RECOMPOSE_DATA
350
220D9
  3
AcDbVariableDictionary
350
33A3
  0
DICTIONARY
  5
422A
330
2
100
AcDbDictionary
280
     1
281
     1
  3
ACAD_LAYERFILTERS
360
1B063
  3
ACAD_LAYERSTATES
360
9A1C
  3
ACLYDICTIONARY
360
1B062
  0
DICTIONARY
  5
1B2F5
330
10
100
AcDbDictionary
280
     1
281
     1
  3
ADSK_XREC_LAYER_RECONCILED
360
21B8E
  0
DICTIONARY
  5
1B2F7
330
3F8C
100
AcDbDictionary
280
     1
281
     1
  3
ADSK_XREC_LAYER_RECONCILED
360
21B8F
  0
DICTIONARY
  5
1B2F9
330
9C4A
100
AcDbDictionary
280
     1
281
     1
  3
ADSK_XREC_LAYER_RECONCILED
360
21B90
  0
DICTIONARY
  5
1B2FB
330
9C4B
100
AcDbDictionary
280
     1
281
     1
  3
ADSK_XREC_LAYER_RECONCILED
360
21B91
  0
DICTIONARY
  5
1B2FD
330
9C4D
100
AcDbDictionary
280
     1
281
     1
  3
ADSK_XREC_LAYER_RECONCILED
360
21B92
  0
DICTIONARY
  5
1B2FF
330
9C4E
100
AcDbDictionary
280
     1
281
     1
  3
ADSK_XREC_LAYER_RECONCILED
360
21B93
  0
DICTIONARY
  5
1B301
330
9C4F
100
AcDbDictionary
280
     1
281
     1
  3
ADSK_XREC_LAYER_RECONCILED
360
21B94
  0
DICTIONARY
  5
1B303
330
9C50
100
AcDbDictionary
280
     1
281
     1
  3
ADSK_XREC_LAYER_RECONCILED
360
21B95
  0
DICTIONARY
  5
1B305
330
9C51
100
AcDbDictionary
280
     1
281
     1
  3
ADSK_XREC_LAYER_RECONCILED
360
21B96
  0
DICTIONARY
  5
1B307
330
13335
100
AcDbDictionary
280
     1
281
     1
  3
ADSK_XREC_LAYER_RECONCILED
360
21B97
  0
DICTIONARY
  5
1B309
330
1686E
100
AcDbDictionary
280
     1
281
     1
  3
ADSK_XREC_LAYER_RECONCILED
360
21B98
  0
DICTIONARY
  5
21CB6
330
21CB5
100
AcDbDictionary
280
     1
281
     1
  0
DICTIONARY
  5
21CB8
330
21CB7
100
AcDbDictionary
280
     1
281
     1
  0
DICTIONARY
  5
21CBA
330
21CB9
100
AcDbDictionary
280
     1
281
     1
  0
DICTIONARY
  5
339C
330
1F
100
AcDbDictionary
280
     1
281
     1
  3
ACAD_SORTENTS
360
339D
  0
DICTIONARY
  5
1DE81
330
1B3D7
100
AcDbDictionary
280
     1
281
     1
  0
XRECORD
  5
1B2F4
102
{ACAD_REACTORS
330
3182
102
}
330
3182
100
AcDbXrecord
280
     1
300
ACDLT
300
2015
300
ACDLT_F_S
  0
DICTIONARY
  5
31A0
102
{ACAD_REACTORS
330
3182
102
}
330
3182
100
AcDbDictionary
281
     1
  0
DICTIONARY
  5
1B2F0
102
{ACAD_REACTORS
330
3182
102
}
330
3182
100
AcDbDictionary
281
     1
  3
Imperial24
350
20CB3
  3
Metric50
350
1B2F1
  0
FIELDLIST
  5
20CBF
102
{ACAD_REACTORS
330
3182
102
}
330
3182
100
AcDbIdSet
 90
        0
100
AcDbFieldList
  0
DICTIONARY
  5
3183
102
{ACAD_REACTORS
330
3182
102
}
330
3182
100
AcDbDictionary
281
     1
  0
DICTIONARY
  5
31A5
102
{ACAD_REACTORS
330
3182
102
}
330
3182
100
AcDbDictionary
281
     1
  3
Layout1
350
31A7
  3
Model
350
31A6
  0
DICTIONARY
  5
318B
102
{ACAD_REACTORS
330
3182
102
}
330
3182
100
AcDbDictionary
281
     1
  3
ByBlock
350
318D
  3
ByLayer
350
318C
  3
Global
350
318E
  0
DICTIONARY
  5
1B221
102
{ACAD_REACTORS
330
3182
102
}
330
3182
100
AcDbDictionary
281
     1
  3
Standard
350
1B2ED
  0
DICTIONARY
  5
3184
102
{ACAD_REACTORS
330
3182
102
}
330
3182
100
AcDbDictionary
281
     1
  3
STANDARD
350
3185
  0
DICTIONARY
  5
31A4
102
{ACAD_REACTORS
330
3182
102
}
330
3182
100
AcDbDictionary
281
     1
  0
ACDBDICTIONARYWDFLT
  5
3189
102
{ACAD_REACTORS
330
3182
102
}
330
3182
100
AcDbDictionary
281
     1
  3
Normal
350
318A
100
AcDbDictionaryWithDefault
340
318A
  0
DICTIONARY
  5
1B1FC
102
{ACAD_REACTORS
330
3182
102
}
330
3182
100
AcDbDictionary
281
     1
  3
A0
350
1B1FD
  3
A1
350
1B1FE
  3
A2
350
1B1FF
  3
A3
350
1B200
  3
A4
350
1B201
  3
A5
350
1B202
  3
A6
350
1B203
  3
A7
350
1B204
  3
A8
350
1B205
  3
A9
350
1B206
  3
B0
350
1B207
  3
B1
350
1B208
  3
B2
350
1B209
  3
B3
350
1B20A
  3
B4
350
1B20B
  3
B5
350
1B20C
  3
B6
350
1B20D
  3
B7
350
1B20E
  3
B8
350
1B20F
  3
B9
350
1B210
  3
C0
350
1B211
  3
C1
350
1B212
  3
C2
350
1B213
  3
C3
350
1B214
  3
C4
350
1B215
  3
C5
350
1B216
  3
C6
350
1B217
  3
C7
350
1B218
  3
C8
350
1B219
  3
C9
350
1B21A
  3
D0
350
1B21B
  3
D1
350
1B21C
  3
D2
350
1B21D
  0
DICTIONARY
  5
1B2EE
102
{ACAD_REACTORS
330
3182
102
}
330
3182
100
AcDbDictionary
281
     1
  3
Imperial24
350
20CB1
  3
Metric50
350
1B2EF
  0
DICTIONARY
  5
31A1
102
{ACAD_REACTORS
330
3182
102
}
330
3182
100
AcDbDictionary
281
     1
  3
Standard
350
31A2
  0
DICTIONARY
  5
318F
102
{ACAD_REACTORS
330
3182
102
}
330
3182
100
AcDbDictionary
281
     1
  3
2dWireframe
350
3195
  3
3D Hidden
350
3197
  3
3dWireframe
350
3196
  3
Basic
350
3194
  3
Brighten
350
319B
  3
ColorChange
350
319F
  3
Conceptual
350
3198
  3
Dim
350
319A
  3
EdgeColorOff
350
1B2EC
  3
Facepattern
350
319E
  3
Flat
350
3190
  3
FlatWithEdges
350
3191
  3
Gouraud
350
3192
  3
GouraudWithEdges
350
3193
  3
Hidden
350
1B2E4
  3
JitterOff
350
1B2EA
  3
Linepattern
350
319D
  3
OverhangOff
350
1B2EB
  3
Realistic
350
3199
  3
Shaded
350
1B2E9
  3
Shaded with edges
350
1B2E8
  3
Shades of Gray
350
1B2E5
  3
Sketchy
350
1B2E6
  3
Thicken
350
319C
  3
Wireframe
350
1B2E3
  3
X-Ray
350
1B2E7
  0
XRECORD
  5
220D9
102
{ACAD_REACTORS
330
3182
102
}
330
3182
100
AcDbXrecord
280
     1
 90
        1
330
31A2
  0
DICTIONARY
  5
33A3
102
{ACAD_REACTORS
330
3182
102
}
330
3182
100
AcDbDictionary
281
     1
  3
CANNOSCALE
350
1B222
  3
CMLEADERSTYLE
350
1B30F
  3
CTABLESTYLE
350
33A4
  3
CVIEWDETAILSTYLE
350
1B310
  3
CVIEWSECTIONSTYLE
350
1B311
  3
DIMASSOC
350
9BE8
  3
INDEXCTL
350
9BE7
  3
LAYEREVAL
350
20993
  3
LAYERNOTIFY
350
20994
  3
LIGHTINGUNITS
350
20992
  3
MSLTSCALE
350
20991
  3
SORTENTS
350
9BE6
  0
DICTIONARY
  5
1B063
102
{ACAD_REACTORS
330
422A
102
}
330
422A
100
AcDbDictionary
281
     1
  0
DICTIONARY
  5
9A1C
102
{ACAD_REACTORS
330
422A
102
}
330
422A
100
AcDbDictionary
281
     1
  0
DICTIONARY
  5
1B062
102
{ACAD_REACTORS
330
422A
102
}
330
422A
100
AcDbDictionary
281
     1
1001
ACAD
1000
<All
  0
XRECORD
  5
21B8E
102
{ACAD_REACTORS
330
1B2F5
102
}
330
1B2F5
100
AcDbXrecord
280
     1
290
     1
  0
XRECORD
  5
21B8F
102
{ACAD_REACTORS
330
1B2F7
102
}
330
1B2F7
100
AcDbXrecord
280
     1
290
     1
  0
XRECORD
  5
21B90
102
{ACAD_REACTORS
330
1B2F9
102
}
330
1B2F9
100
AcDbXrecord
280
     1
290
     1
  0
XRECORD
  5
21B91
102
{ACAD_REACTORS
330
1B2FB
102
}
330
1B2FB
100
AcDbXrecord
280
     1
290
     1
  0
XRECORD
  5
21B92
102
{ACAD_REACTORS
330
1B2FD
102
}
330
1B2FD
100
AcDbXrecord
280
     1
290
     1
  0
XRECORD
  5
21B93
102
{ACAD_REACTORS
330
1B2FF
102
}
330
1B2FF
100
AcDbXrecord
280
     1
290
     1
  0
XRECORD
  5
21B94
102
{ACAD_REACTORS
330
1B301
102
}
330
1B301
100
AcDbXrecord
280
     1
290
     1
  0
XRECORD
  5
21B95
102
{ACAD_REACTORS
330
1B303
102
}
330
1B303
100
AcDbXrecord
280
     1
290
     1
  0
XRECORD
  5
21B96
102
{ACAD_REACTORS
330
1B305
102
}
330
1B305
100
AcDbXrecord
280
     1
290
     1
  0
XRECORD
  5
21B97
102
{ACAD_REACTORS
330
1B307
102
}
330
1B307
100
AcDbXrecord
280
     1
290
     1
  0
XRECORD
  5
21B98
102
{ACAD_REACTORS
330
1B309
102
}
330
1B309
100
AcDbXrecord
280
     1
290
     1
  0
SORTENTSTABLE
  5
339D
102
{ACAD_REACTORS
330
339C
102
}
330
339C
100
AcDbSortentsTable
330
1F
331
21ED0
  5
21EE4
331
21EC1
  5
21ED5
331
21EB2
  5
21EC6
331
21EA3
  5
21EB7
331
21E4A
  5
21E58
331
21E94
  5
21EA8
331
21E3B
  5
21E47
331
21E85
  5
21E99
331
21E2C
  5
21E38
331
21E1D
  5
21E22
331
21E67
  5
21E7B
331
21E0E
  5
21E13
331
21F00
  5
220A2
331
21DFF
  5
21E04
331
21EF1
  5
21F05
331
21EE2
  5
21EF6
331
21ECE
  5
21EE2
331
21EBF
  5
21ED3
331
21E57
  5
21E69
331
21DF0
  5
21DF0
331
21E80
  5
21E94
331
21E71
  5
21E85
331
21E18
  5
21E1D
331
21E62
  5
21E74
331
21E09
  5
21E0E
331
21EEC
  5
21F00
331
21DFA
  5
21DFE
331
21EDD
  5
21EF1
331
21EC9
  5
21EDD
331
21EBA
  5
21ECE
331
21EAB
  5
21EBF
331
21E52
  5
21E64
331
21E9C
  5
21EB0
331
21E43
  5
21E51
331
21E8D
  5
21EA1
331
21E7E
  5
21E92
331
21E25
  5
21E2A
331
21E6F
  5
21E83
331
21E16
  5
21E1B
331
21E07
  5
21E0C
331
21DEC
  5
21DEC
331
21ED8
  5
21EEC
331
21ED3
  5
21EE7
331
21EC4
  5
21ED8
331
21EB5
  5
21EC9
331
21EA6
  5
21EBA
331
21E4D
  5
21E61
331
21E97
  5
21EAB
331
21E3E
  5
21E4A
331
21E88
  5
21E9C
331
21E2F
  5
21E42
331
21E79
  5
21E8D
331
21E20
  5
21E25
331
21E6A
  5
21E7E
331
21E11
  5
21E16
331
21F03
  5
220A5
331
21E02
  5
21E07
331
21EF4
  5
2208E
331
21EE5
  5
21EF9
331
21EB0
  5
21EC4
331
21EA1
  5
21EB5
331
21E48
  5
21E56
331
21E92
  5
21EA6
331
21E39
  5
21E45
331
21E83
  5
21E97
331
21E2A
  5
21E2F
331
21E74
  5
21E89
331
21E1B
  5
21E20
331
21E65
  5
21E79
331
21E0C
  5
21E11
331
21EFE
  5
220A0
331
21DFD
  5
21E02
331
21EEF
  5
21F03
331
21EE0
  5
21EF4
331
21ECC
  5
21EE0
331
21EBD
  5
21ED1
331
21EAE
  5
21EC2
331
21E55
  5
21E67
331
21E9F
  5
21EB3
331
21E46
  5
21E54
331
21E37
  5
21E43
331
21DEF
  5
21DEF
331
21E60
  5
21E72
331
21EEA
  5
21EFE
331
21DF8
  5
21DFC
331
21EDB
  5
21EEF
331
21ED6
  5
21EEA
331
21EC7
  5
21EDB
331
21EB8
  5
21ECC
331
21E5F
  5
21E71
331
21EA9
  5
21EBD
331
21E50
  5
21E62
331
21E9A
  5
21EAE
331
21E41
  5
21E4D
331
21E8B
  5
21E9F
331
21E7C
  5
21E90
331
21E23
  5
21E28
331
21E6D
  5
21E81
331
21E14
  5
21E19
331
21F06
  5
220A8
331
21E05
  5
21E0A
331
21DF6
  5
21DFA
331
21DEA
  5
21DEA
331
21ED1
  5
21EE5
331
21EC2
  5
21ED6
331
21EB3
  5
21EC7
331
21EA4
  5
21EB8
331
21E4B
  5
21E59
331
21E95
  5
21EA9
331
21E3C
  5
21E48
331
21E86
  5
21E9A
331
21E2D
  5
21E39
331
21E77
  5
21E8B
331
21E1E
  5
21E23
331
21E68
  5
21E7C
331
21E0F
  5
21E14
331
21F01
  5
220A3
331
21E00
  5
21E05
331
21EF2
  5
21F06
331
21EE3
  5
21EF7
331
21ECF
  5
21EE3
331
21DF1
  5
21DF1
331
21E90
  5
21EA4
331
21E81
  5
21E95
331
21E28
  5
21E2D
331
21E72
  5
21E86
331
21E19
  5
21E1E
331
21E63
  5
21E75
331
21E0A
  5
21E0F
331
21EED
  5
21F01
331
21DFB
  5
21DFF
331
21EDE
  5
21EF2
331
21ECA
  5
21EDE
331
21EBB
  5
21ECF
331
21EAC
  5
21EC0
331
21E53
  5
21E65
331
21E9D
  5
21EB1
331
21E44
  5
21E52
331
21E8E
  5
21EA2
331
21E7F
  5
21E93
331
21E26
  5
21E2B
331
21E17
  5
21E1C
331
21DED
  5
21DED
331
21EE8
  5
21EFC
331
21ED9
  5
21EED
331
21ED4
  5
21EE8
331
21EC5
  5
21ED9
331
21EB6
  5
21ECA
331
21E5D
  5
21E6F
331
21EA7
  5
21EBB
331
21E98
  5
21EAC
331
21E3F
  5
21E4B
331
21E89
  5
21E9D
331
21E7A
  5
21E8E
331
21E21
  5
21E26
331
21E6B
  5
21E7F
331
21E12
  5
21E17
331
21F04
  5
220A6
331
21E03
  5
21E08
331
21EF5
  5
22097
331
21EE6
  5
21EFA
331
2208E
  5
21E8A
331
21DE6
  5
21DE6
331
21EC0
  5
21ED4
331
21EB1
  5
21EC5
331
21E58
  5
21E6E
331
21EA2
  5
21EB6
331
21E49
  5
21E57
331
21E93
  5
21EA7
331
21E3A
  5
21E46
331
21E84
  5
21E98
331
21E2B
  5
21E30
331
21E1C
  5
21E21
331
21E66
  5
21E7A
331
21E0D
  5
21E12
331
21EFF
  5
220A1
331
21DFE
  5
21E03
331
21EF0
  5
21F04
331
21EE1
  5
21EF5
331
21ECD
  5
21EE1
331
21EAF
  5
21EC3
331
21E56
  5
21E68
331
21E47
  5
21E55
331
21EBE
  5
21ED2
331
21E70
  5
21E84
331
21E61
  5
21E73
331
21E08
  5
21E0D
331
21EEB
  5
21EFF
331
21DF9
  5
21DFD
331
21EDC
  5
21EF0
331
21ED7
  5
21EEB
331
21EC8
  5
21EDC
331
21EB9
  5
21ECD
331
21EAA
  5
21EBE
331
21E51
  5
21E63
331
21E9B
  5
21EAF
331
21E42
  5
21E4E
331
21E8C
  5
21EA0
331
21E7D
  5
21E91
331
21E24
  5
21E29
331
21E6E
  5
21E82
331
21E15
  5
21E1A
331
21E06
  5
21E0B
331
21DF7
  5
21DFB
331
21DEB
  5
21DEB
331
21ED2
  5
21EE6
331
21EC3
  5
21ED7
331
21EB4
  5
21EC8
331
21EA5
  5
21EB9
331
21E4C
  5
21E5E
331
21E96
  5
21EAA
331
21E3D
  5
21E49
331
21E87
  5
21E9B
331
21E2E
  5
21E3A
331
21E78
  5
21E8C
331
21E1F
  5
21E24
331
21E69
  5
21E7D
331
21E10
  5
21E15
331
21F02
  5
220A4
331
21E01
  5
21E06
331
21EF3
  5
22087
331
21EE4
  5
21EF8
331
21DF2
  5
21DF2
331
21EA0
  5
21EB4
331
21E91
  5
21EA5
331
21E38
  5
21E44
331
21E82
  5
21E96
331
21E29
  5
21E2E
331
21E73
  5
21E87
331
21E1A
  5
21E1F
331
21E64
  5
21E78
331
21E0B
  5
21E10
331
21EEE
  5
21F02
331
21EDF
  5
21EF3
331
21ECB
  5
21EDF
331
21EBC
  5
21ED0
331
21EAD
  5
21EC1
331
21E54
  5
21E66
331
21E9E
  5
21EB2
331
21E45
  5
21E53
331
21E8F
  5
21EA3
331
21E27
  5
21E2C
331
22087
  5
21DF3
331
21DEE
  5
21DEE
331
220A0
  5
2209F
331
21EE9
  5
21EFD
331
21EDA
  5
21EEE
331
21ED5
  5
21EE9
331
21EC6
  5
21EDA
331
21EB7
  5
21ECB
331
21E5E
  5
21E70
331
21EA8
  5
21EBC
331
21E99
  5
21EAD
331
21E40
  5
21E4C
331
21E8A
  5
21E9E
331
21E7B
  5
21E8F
331
21E22
  5
21E27
331
21E6C
  5
21E80
331
21E13
  5
21E18
331
21F05
  5
220A7
331
21E04
  5
21E09
331
21EE7
  5
21EFB
331
211A0
  5
211A0
  0
ACDBDETAILVIEWSTYLE
  5
20CB3
102
{ACAD_XDICTIONARY
360
22114
102
}
102
{ACAD_REACTORS
330
1B2F0
102
}
330
1B2F0
100
AcDbModelDocViewStyle
 70
     0
  3
Imperial24
290
     0
100
AcDbDetailViewStyle
 70
     0
 71
     0
 90
        3
 71
     1
340
11
 62
   256
 40
0.24
340
0
 62
   256
 40
0.24
300

 40
0.36
280
     3
 71
     2
340
16
 90
       25
 62
   256
 71
     3
340
11
 62
   256
 40
0.24
 90
        1
 40
0.75
 90
        1
300
%<\AcVar ViewType \f "%tc1">% %<\AcVar ViewDetailId>%\PVARIA %<\AcVar ViewScale \f "%sn">%
 71
     4
340
16
 90
       25
 62
   256
340
16
 90
       25
 62
   256
280
     0
  0
ACDBDETAILVIEWSTYLE
  5
1B2F1
102
{ACAD_XDICTIONARY
360
22110
102
}
102
{ACAD_REACTORS
330
1B2F0
102
}
330
1B2F0
100
AcDbModelDocViewStyle
 70
     0
  3
Metric50
290
     0
100
AcDbDetailViewStyle
 70
     0
 71
     0
 90
        3
 71
     1
340
11
 62
   256
 40
5.0
340
0
 62
   256
 40
5.0
300

 40
0.0
280
     1
 71
     2
340
16
 90
       25
 62
   256
 71
     3
340
11
 62
   256
 40
5.0
 90
        0
 40
15.0
 90
        1
300
%<\AcVar ViewDetailId>% (%<\AcVar ViewScale \f "%sn">%)
 71
     4
340
16
 90
       25
 62
   256
340
16
 90
       25
 62
   256
280
     0
  0
LAYOUT
  5
31A7
102
{ACAD_REACTORS
330
31A5
102
}
330
31A5
100
AcDbPlotSettings
  1

  2
\\ingdc01\ITB3
  4
A4
  6

 40
6.805083274841307
 41
5.027085781097412
 42
6.805068969726562
 43
5.027069091796875
 44
209.9733276367186
 45
296.9683227539062
 46
0.0
 47
0.0
 48
0.0
 49
0.0
140
0.0
141
0.0
142
1.0
143
1.0
 70
   688
 72
     1
 73
     1
 74
     5
  7

 75
    16
147
1.0
 76
     0
 77
     2
 78
   300
148
0.0
149
0.0
100
AcDbLayout
  1
Layout1
 70
     1
 71
     1
 10
-5.027069091796875
 20
-6.805083274841307
 11
291.9412536621094
 21
203.1682443618775
 12
0.0
 22
0.0
 32
0.0
 14
28.69141678810127
 24
19.6363175392151
 34
0.0
 15
258.2227510929107
 25
176.7268578529358
 35
0.0
146
0.0
 13
0.0
 23
0.0
 33
0.0
 16
1.0
 26
0.0
 36
0.0
 17
0.0
 27
1.0
 37
0.0
 76
     0
330
1B
331
9C00
1001
ACAD_PSEXT
1000
\\ingdc01\ITB3
1000
HP LaserJet 5000 Series PCL
1000
TB
1000

1070
     0
  0
LAYOUT
  5
31A6
102
{ACAD_REACTORS
330
31A5
102
}
330
31A5
100
AcDbPlotSettings
  1

  2
\\ingdc01\ITB3
  4
A4
  6

 40
6.805083274841307
 41
5.027085781097412
 42
6.805068969726562
 43
5.027069091796875
 44
209.9733276367186
 45
296.9683227539062
 46
0.0
 47
0.0
 48
0.0
 49
0.0
140
0.0
141
0.0
142
1.0
143
1.500313223655698
 70
 11952
 72
     1
 73
     1
 74
     0
  7

 75
     0
147
0.6665274852163048
 76
     0
 77
     2
 78
   300
148
239.0155119930048
149
102.2558208723354
100
AcDbLayout
  1
Model
 70
     1
 71
     0
 10
0.0
 20
0.0
 11
12.0
 21
9.0
 12
0.0
 22
0.0
 32
0.0
 14
0.0
 24
0.0
 34
0.0
 15
0.0
 25
0.0
 35
0.0
146
0.0
 13
0.0
 23
0.0
 33
0.0
 16
1.0
 26
0.0
 36
0.0
 17
0.0
 27
1.0
 37
0.0
 76
     0
330
1F
331
1F4
1001
ACAD_PSEXT
1000
\\ingdc01\ITB3
1000
HP LaserJet 5000 Series PCL
1000
TB
1000

1070
     0
  0
MATERIAL
  5
318D
102
{ACAD_XDICTIONARY
360
1B22B
102
}
102
{ACAD_REACTORS
330
318B
102
}
330
318B
100
AcDbMaterial
  1
ByBlock
  0
MATERIAL
  5
318C
102
{ACAD_XDICTIONARY
360
1B22D
102
}
102
{ACAD_REACTORS
330
318B
102
}
330
318B
100
AcDbMaterial
  1
ByLayer
  0
MATERIAL
  5
318E
102
{ACAD_XDICTIONARY
360
1B22F
102
}
102
{ACAD_REACTORS
330
318B
102
}
330
318B
100
AcDbMaterial
  1
Global
  0
MLEADERSTYLE
  5
1B2ED
102
{ACAD_REACTORS
330
1B221
102
}
330
1B221
100
AcDbMLeaderStyle
179
     2
170
     2
171
     1
172
     0
 90
        2
 40
0.0
 41
0.0
173
     1
 91
-1056964608
340
14
 92
       -2
290
     1
 42
2.0
291
     1
 43
0.36
  3
Standard
 44
4.0
300

342
11
174
     1
178
     6
175
     1
176
     0
 93
-1056964608
 45
4.0
292
     0
297
     0
 46
4.0
 94
-1056964608
 47
1.0
 49
1.0
140
1.0
293
     1
141
0.0
294
     1
177
     0
142
1.0
295
     0
296
     0
143
0.125
271
     0
272
     9
273
     9
1001
ACAD_MLEADERVER
1070
     2
  0
MLINESTYLE
  5
3185
102
{ACAD_REACTORS
330
3184
102
}
330
3184
100
AcDbMlineStyle
  2
STANDARD
 70
     0
  3

 62
   256
 51
90.0
 52
90.0
 71
     2
 49
0.5
 62
   256
  6
BYLAYER
 49
-0.5
 62
   256
  6
BYLAYER
  0
ACDBPLACEHOLDER
  5
318A
102
{ACAD_REACTORS
330
3189
102
}
330
3189
  0
SCALE
  5
1B1FD
102
{ACAD_REACTORS
330
1B1FC
102
}
330
1B1FC
100
AcDbScale
 70
     0
300
1:1
140
1.0
141
1.0
290
     1
1001
ACAD
1000
AcRTDxfName
1000
SCALE
  0
SCALE
  5
1B1FE
102
{ACAD_REACTORS
330
1B1FC
102
}
330
1B1FC
100
AcDbScale
 70
     0
300
1:2
140
1.0
141
2.0
290
     0
1001
ACAD
1000
AcRTDxfName
1000
SCALE
  0
SCALE
  5
1B1FF
102
{ACAD_REACTORS
330
1B1FC
102
}
330
1B1FC
100
AcDbScale
 70
     0
300
1:4
140
1.0
141
4.0
290
     0
1001
ACAD
1000
AcRTDxfName
1000
SCALE
  0
SCALE
  5
1B200
102
{ACAD_REACTORS
330
1B1FC
102
}
330
1B1FC
100
AcDbScale
 70
     0
300
1:5
140
1.0
141
5.0
290
     0
1001
ACAD
1000
AcRTDxfName
1000
SCALE
  0
SCALE
  5
1B201
102
{ACAD_REACTORS
330
1B1FC
102
}
330
1B1FC
100
AcDbScale
 70
     0
300
1:8
140
1.0
141
8.0
290
     0
1001
ACAD
1000
AcRTDxfName
1000
SCALE
  0
SCALE
  5
1B202
102
{ACAD_REACTORS
330
1B1FC
102
}
330
1B1FC
100
AcDbScale
 70
     0
300
1:10
140
1.0
141
10.0
290
     0
1001
ACAD
1000
AcRTDxfName
1000
SCALE
  0
SCALE
  5
1B203
102
{ACAD_REACTORS
330
1B1FC
102
}
330
1B1FC
100
AcDbScale
 70
     0
300
1:16
140
1.0
141
16.0
290
     0
1001
ACAD
1000
AcRTDxfName
1000
SCALE
  0
SCALE
  5
1B204
102
{ACAD_REACTORS
330
1B1FC
102
}
330
1B1FC
100
AcDbScale
 70
     0
300
1:20
140
1.0
141
20.0
290
     0
1001
ACAD
1000
AcRTDxfName
1000
SCALE
  0
SCALE
  5
1B205
102
{ACAD_REACTORS
330
1B1FC
102
}
330
1B1FC
100
AcDbScale
 70
     0
300
1:30
140
1.0
141
30.0
290
     0
1001
ACAD
1000
AcRTDxfName
1000
SCALE
  0
SCALE
  5
1B206
102
{ACAD_REACTORS
330
1B1FC
102
}
330
1B1FC
100
AcDbScale
 70
     0
300
1:40
140
1.0
141
40.0
290
     0
1001
ACAD
1000
AcRTDxfName
1000
SCALE
  0
SCALE
  5
1B207
102
{ACAD_REACTORS
330
1B1FC
102
}
330
1B1FC
100
AcDbScale
 70
     0
300
1:50
140
1.0
141
50.0
290
     0
1001
ACAD
1000
AcRTDxfName
1000
SCALE
  0
SCALE
  5
1B208
102
{ACAD_REACTORS
330
1B1FC
102
}
330
1B1FC
100
AcDbScale
 70
     0
300
1:100
140
1.0
141
100.0
290
     0
1001
ACAD
1000
AcRTDxfName
1000
SCALE
  0
SCALE
  5
1B209
102
{ACAD_REACTORS
330
1B1FC
102
}
330
1B1FC
100
AcDbScale
 70
     0
300
2:1
140
2.0
141
1.0
290
     0
1001
ACAD
1000
AcRTDxfName
1000
SCALE
  0
SCALE
  5
1B20A
102
{ACAD_REACTORS
330
1B1FC
102
}
330
1B1FC
100
AcDbScale
 70
     0
300
4:1
140
4.0
141
1.0
290
     0
1001
ACAD
1000
AcRTDxfName
1000
SCALE
  0
SCALE
  5
1B20B
102
{ACAD_REACTORS
330
1B1FC
102
}
330
1B1FC
100
AcDbScale
 70
     0
300
8:1
140
8.0
141
1.0
290
     0
1001
ACAD
1000
AcRTDxfName
1000
SCALE
  0
SCALE
  5
1B20C
102
{ACAD_REACTORS
330
1B1FC
102
}
330
1B1FC
100
AcDbScale
 70
     0
300
10:1
140
10.0
141
1.0
290
     0
1001
ACAD
1000
AcRTDxfName
1000
SCALE
  0
SCALE
  5
1B20D
102
{ACAD_REACTORS
330
1B1FC
102
}
330
1B1FC
100
AcDbScale
 70
     0
300
100:1
140
100.0
141
1.0
290
     0
1001
ACAD
1000
AcRTDxfName
1000
SCALE
  0
SCALE
  5
1B20E
102
{ACAD_REACTORS
330
1B1FC
102
}
330
1B1FC
100
AcDbScale
 70
     0
300
1/128" = 1'-0"
140
0.0078125
141
12.0
290
     0
1001
ACAD
1000
AcRTDxfName
1000
SCALE
  0
SCALE
  5
1B20F
102
{ACAD_REACTORS
330
1B1FC
102
}
330
1B1FC
100
AcDbScale
 70
     0
300
1/64" = 1'-0"
140
0.015625
141
12.0
290
     0
1001
ACAD
1000
AcRTDxfName
1000
SCALE
  0
SCALE
  5
1B210
102
{ACAD_REACTORS
330
1B1FC
102
}
330
1B1FC
100
AcDbScale
 70
     0
300
1/32" = 1'-0"
140
0.03125
141
12.0
290
     0
1001
ACAD
1000
AcRTDxfName
1000
SCALE
  0
SCALE
  5
1B211
102
{ACAD_REACTORS
330
1B1FC
102
}
330
1B1FC
100
AcDbScale
 70
     0
300
1/16" = 1'-0"
140
0.0625
141
12.0
290
     0
1001
ACAD
1000
AcRTDxfName
1000
SCALE
  0
SCALE
  5
1B212
102
{ACAD_REACTORS
330
1B1FC
102
}
330
1B1FC
100
AcDbScale
 70
     0
300
3/32" = 1'-0"
140
0.09375
141
12.0
290
     0
1001
ACAD
1000
AcRTDxfName
1000
SCALE
  0
SCALE
  5
1B213
102
{ACAD_REACTORS
330
1B1FC
102
}
330
1B1FC
100
AcDbScale
 70
     0
300
1/8" = 1'-0"
140
0.125
141
12.0
290
     0
1001
ACAD
1000
AcRTDxfName
1000
SCALE
  0
SCALE
  5
1B214
102
{ACAD_REACTORS
330
1B1FC
102
}
330
1B1FC
100
AcDbScale
 70
     0
300
3/16" = 1'-0"
140
0.1875
141
12.0
290
     0
1001
ACAD
1000
AcRTDxfName
1000
SCALE
  0
SCALE
  5
1B215
102
{ACAD_REACTORS
330
1B1FC
102
}
330
1B1FC
100
AcDbScale
 70
     0
300
1/4" = 1'-0"
140
0.25
141
12.0
290
     0
1001
ACAD
1000
AcRTDxfName
1000
SCALE
  0
SCALE
  5
1B216
102
{ACAD_REACTORS
330
1B1FC
102
}
330
1B1FC
100
AcDbScale
 70
     0
300
3/8" = 1'-0"
140
0.375
141
12.0
290
     0
1001
ACAD
1000
AcRTDxfName
1000
SCALE
  0
SCALE
  5
1B217
102
{ACAD_REACTORS
330
1B1FC
102
}
330
1B1FC
100
AcDbScale
 70
     0
300
1/2" = 1'-0"
140
0.5
141
12.0
290
     0
1001
ACAD
1000
AcRTDxfName
1000
SCALE
  0
SCALE
  5
1B218
102
{ACAD_REACTORS
330
1B1FC
102
}
330
1B1FC
100
AcDbScale
 70
     0
300
3/4" = 1'-0"
140
0.75
141
12.0
290
     0
1001
ACAD
1000
AcRTDxfName
1000
SCALE
  0
SCALE
  5
1B219
102
{ACAD_REACTORS
330
1B1FC
102
}
330
1B1FC
100
AcDbScale
 70
     0
300
1" = 1'-0"
140
1.0
141
12.0
290
     0
1001
ACAD
1000
AcRTDxfName
1000
SCALE
  0
SCALE
  5
1B21A
102
{ACAD_REACTORS
330
1B1FC
102
}
330
1B1FC
100
AcDbScale
 70
     0
300
1-1/2" = 1'-0"
140
1.5
141
12.0
290
     0
1001
ACAD
1000
AcRTDxfName
1000
SCALE
  0
SCALE
  5
1B21B
102
{ACAD_REACTORS
330
1B1FC
102
}
330
1B1FC
100
AcDbScale
 70
     0
300
3" = 1'-0"
140
3.0
141
12.0
290
     0
1001
ACAD
1000
AcRTDxfName
1000
SCALE
  0
SCALE
  5
1B21C
102
{ACAD_REACTORS
330
1B1FC
102
}
330
1B1FC
100
AcDbScale
 70
     0
300
6" = 1'-0"
140
6.0
141
12.0
290
     0
1001
ACAD
1000
AcRTDxfName
1000
SCALE
  0
SCALE
  5
1B21D
102
{ACAD_REACTORS
330
1B1FC
102
}
330
1B1FC
100
AcDbScale
 70
     0
300
1'-0" = 1'-0"
140
12.0
141
12.0
290
     0
1001
ACAD
1000
AcRTDxfName
1000
SCALE
  0
ACDBSECTIONVIEWSTYLE
  5
20CB1
102
{ACAD_XDICTIONARY
360
22112
102
}
102
{ACAD_REACTORS
330
1B2EE
102
}
330
1B2EE
100
AcDbModelDocViewStyle
 70
     0
  3
Imperial24
290
     0
100
AcDbSectionViewStyle
 70
     0
 71
     0
 90
       78
 71
     1
340
11
 62
   256
 40
0.24
340
0
340
0
 62
   256
 40
0.24
300
I, O, Q, S, X, Z
 40
0.48
 90
        3
 40
0.18
 90
        1
 71
     2
340
16
 90
       25
 62
   256
340
16
 90
       50
 62
   256
 40
0.24
 40
0.0
 40
0.24
 71
     3
340
11
 62
   256
 40
0.24
 90
        1
 40
0.75
 90
        1
300
%<\AcVar ViewType \f "%tc1">% %<\AcVar ViewSectionStartId>%-%<\AcVar ViewSectionEndId>%\PVARIA %<\AcVar ViewScale \f "%sn">%
 71
     4
 62
   256
 62
   257
300
ANSI31
 40
1.0
 90
        0
290
     0
290
     0
 90
        6
 40
0.0
 40
1.570796326794896
 40
0.2617993877991494
 40
1.308996938995747
 40
-0.2617993877991494
 40
1.832595714594044
  0
ACDBSECTIONVIEWSTYLE
  5
1B2EF
102
{ACAD_XDICTIONARY
360
2210E
102
}
102
{ACAD_REACTORS
330
1B2EE
102
}
330
1B2EE
100
AcDbModelDocViewStyle
 70
     0
  3
Metric50
290
     0
100
AcDbSectionViewStyle
 70
     0
 71
     0
 90
      102
 71
     1
340
11
 62
   256
 40
5.0
340
0
340
0
 62
   256
 40
5.0
300
I, O, Q, S, X, Z
 40
10.0
 90
        0
 40
2.5
 90
        0
 71
     2
340
16
 90
       25
 62
   256
340
16
 90
       50
 62
   256
 40
5.0
 40
2.5
 40
5.0
 71
     3
340
11
 62
   256
 40
5.0
 90
        0
 40
15.0
 90
        1
300
%<\AcVar ViewSectionStartId>%-%<\AcVar ViewSectionEndId>% (%<\AcVar ViewScale \f "%sn">%)
 71
     4
 62
   256
 62
   257
300
ANSI31
 40
1.0
 90
        0
290
     0
290
     0
 90
        6
 40
0.0
 40
1.570796326794896
 40
0.2617993877991494
 40
1.308996938995747
 40
-0.2617993877991494
 40
1.832595714594044
  0
TABLESTYLE
  5
31A2
102
{ACAD_XDICTIONARY
360
1B314
102
}
102
{ACAD_REACTORS
330
31A1
102
}
330
31A1
100
AcDbTableStyle
280
     0
  3
Standard
 70
     0
 71
     0
 40
1.5
 41
1.5
280
     0
281
     0
  7
STANDARD
140
4.5
170
     2
 62
     0
 63
     7
283
     0
 90
        4
 91
        0
  1

274
    -2
284
     1
 64
     0
275
    -2
285
     1
 65
     0
276
    -2
286
     1
 66
     0
277
    -2
287
     1
 67
     0
278
    -2
288
     1
 68
     0
279
    -2
289
     1
 69
     0
  7
STANDARD
140
6.0
170
     5
 62
     0
 63
     7
283
     0
 90
        4
 91
        0
  1

274
    -2
284
     1
 64
     0
275
    -2
285
     1
 65
     0
276
    -2
286
     1
 66
     0
277
    -2
287
     1
 67
     0
278
    -2
288
     1
 68
     0
279
    -2
289
     1
 69
     0
  7
STANDARD
140
4.5
170
     5
 62
     0
 63
     7
283
     0
 90
        4
 91
        0
  1

274
    -2
284
     1
 64
     0
275
    -2
285
     1
 65
     0
276
    -2
286
     1
 66
     0
277
    -2
287
     1
 67
     0
278
    -2
288
     1
 68
     0
279
    -2
289
     1
 69
     0
  0
VISUALSTYLE
  5
3195
102
{ACAD_XDICTIONARY
360
220E4
102
}
102
{ACAD_REACTORS
330
318F
102
}
330
318F
100
AcDbVisualStyle
  2

 70
     4
177
     2
291
     0
 71
     0
176
     1
 72
     2
176
     1
 73
     0
176
     1
 90
        0
176
     1
 40
0.6
176
     1
 41
30.0
176
     1
 63
     7
176
     1
 74
     1
176
     1
 91
        4
176
     1
 64
     7
176
     1
 65
   257
176
     1
 75
     1
176
     1
175
     1
176
     1
 42
1.0
176
     1
 92
        0
176
     1
 66
   257
176
     1
 43
1.0
176
     1
 76
     1
176
     1
 77
     6
176
     1
 78
     2
176
     1
 67
     7
176
     1
 79
     5
176
     1
170
     0
176
     1
171
     0
176
     1
290
     0
176
     1
 93
        1
176
     1
 44
0.0
176
     1
173
     0
176
     1
1001
ACAD
1000
AcDbSavedByObjectVersion
1070
     0
  0
VISUALSTYLE
  5
3197
102
{ACAD_XDICTIONARY
360
220E8
102
}
102
{ACAD_REACTORS
330
318F
102
}
330
318F
100
AcDbVisualStyle
  2

 70
     6
177
     2
291
     0
 71
     1
176
     1
 72
     2
176
     1
 73
     2
176
     1
 90
        0
176
     1
 40
0.6
176
     1
 41
30.0
176
     1
 63
     7
176
     1
 74
     2
176
     1
 91
        2
176
     1
 64
     7
176
     1
 65
   257
176
     1
 75
     2
176
     1
175
     1
176
     1
 42
40.0
176
     1
 92
        0
176
     1
 66
   257
176
     1
 43
1.0
176
     1
 76
     1
176
     1
 77
     6
176
     1
 78
     2
176
     1
 67
     7
176
     1
 79
     3
176
     1
170
     0
176
     1
171
     0
176
     1
290
     0
176
     1
 93
        1
176
     1
 44
0.0
176
     1
173
     0
176
     1
1001
ACAD
1000
AcDbSavedByObjectVersion
1070
     0
  0
VISUALSTYLE
  5
3196
102
{ACAD_XDICTIONARY
360
220E6
102
}
102
{ACAD_REACTORS
330
318F
102
}
330
318F
100
AcDbVisualStyle
  2

 70
     5
177
     2
291
     0
 71
     0
176
     1
 72
     2
176
     1
 73
     0
176
     1
 90
        0
176
     1
 40
0.6
176
     1
 41
30.0
176
     1
 63
     7
176
     1
 74
     1
176
     1
 91
        4
176
     1
 64
     7
176
     1
 65
   257
176
     1
 75
     1
176
     1
175
     1
176
     1
 42
1.0
176
     1
 92
        0
176
     1
 66
   257
176
     1
 43
1.0
176
     1
 76
     1
176
     1
 77
     6
176
     1
 78
     2
176
     1
 67
     7
176
     1
 79
     5
176
     1
170
     0
176
     1
171
     0
176
     1
290
     0
176
     1
 93
        1
176
     1
 44
0.0
176
     1
173
     0
176
     1
1001
ACAD
1000
AcDbSavedByObjectVersion
1070
     0
  0
VISUALSTYLE
  5
3194
102
{ACAD_XDICTIONARY
360
220E2
102
}
102
{ACAD_REACTORS
330
318F
102
}
330
318F
100
AcDbVisualStyle
  2

 70
     7
177
     2
291
     1
 71
     1
176
     1
 72
     0
176
     1
 73
     1
176
     1
 90
        0
176
     1
 40
0.6
176
     1
 41
30.0
176
     1
 63
     7
176
     1
 74
     0
176
     1
 91
        4
176
     1
 64
     7
176
     1
 65
   257
176
     1
 75
     1
176
     1
175
     1
176
     1
 42
1.0
176
     1
 92
        8
176
     1
 66
     7
176
     1
 43
1.0
176
     1
 76
     1
176
     1
 77
     6
176
     1
 78
     2
176
     1
 67
     7
176
     1
 79
     5
176
     1
170
     0
176
     1
171
     0
176
     1
290
     0
176
     1
 93
        1
176
     1
 44
0.0
176
     1
173
     0
176
     1
1001
ACAD
1000
AcDbSavedByObjectVersion
1070
     0
  0
VISUALSTYLE
  5
319B
102
{ACAD_XDICTIONARY
360
220F0
102
}
102
{ACAD_REACTORS
330
318F
102
}
330
318F
100
AcDbVisualStyle
  2

 70
    12
177
     2
291
     1
 71
     2
176
     1
 72
     2
176
     1
 73
     0
176
     1
 90
        0
176
     1
 40
0.6
176
     1
 41
30.0
176
     1
 63
     7
176
     1
 74
     1
176
     1
 91
        4
176
     1
 64
     7
176
     1
 65
   257
176
     1
 75
     1
176
     1
175
     1
176
     1
 42
1.0
176
     1
 92
        8
176
     1
 66
     7
176
     1
 43
1.0
176
     1
 76
     1
176
     1
 77
     6
176
     1
 78
     2
176
     1
 67
     7
176
     1
 79
     5
176
     1
170
     0
176
     1
171
     0
176
     1
290
     0
176
     1
 93
        1
176
     1
 44
50.0
176
     1
173
     0
176
     1
1001
ACAD
1000
AcDbSavedByObjectVersion
1070
     0
  0
VISUALSTYLE
  5
319F
102
{ACAD_XDICTIONARY
360
220F8
102
}
102
{ACAD_REACTORS
330
318F
102
}
330
318F
100
AcDbVisualStyle
  2

 70
    16
177
     2
291
     1
 71
     2
176
     1
 72
     2
176
     1
 73
     3
176
     1
 90
        0
176
     1
 40
0.6
176
     1
 41
30.0
176
     1
 63
     8
176
     1
 74
     1
176
     1
 91
        4
176
     1
 64
     7
176
     1
 65
   257
176
     1
 75
     1
176
     1
175
     1
176
     1
 42
1.0
176
     1
 92
        8
176
     1
 66
     8
176
     1
 43
1.0
176
     1
 76
     1
176
     1
 77
     6
176
     1
 78
     2
176
     1
 67
     7
176
     1
 79
     5
176
     1
170
     0
176
     1
171
     0
176
     1
290
     0
176
     1
 93
        1
176
     1
 44
0.0
176
     1
173
     0
176
     1
1001
ACAD
1000
AcDbSavedByObjectVersion
1070
     0
  0
VISUALSTYLE
  5
3198
102
{ACAD_XDICTIONARY
360
220EA
102
}
102
{ACAD_REACTORS
330
318F
102
}
330
318F
100
AcDbVisualStyle
  2

 70
     9
177
     2
291
     0
 71
     3
176
     1
 72
     2
176
     1
 73
     0
176
     1
 90
        0
176
     1
 40
0.6
176
     1
 41
30.0
176
     1
 63
     7
176
     1
 74
     2
176
     1
 91
        2
176
     1
 64
     7
176
     1
 65
   257
176
     1
 75
     1
176
     1
175
     1
176
     1
 42
40.0
176
     1
 92
        8
176
     1
 66
     7
176
     1
 43
1.0
176
     1
 76
     1
176
     1
 77
     6
176
     1
 78
     2
176
     1
 67
     7
176
     1
 79
     3
176
     1
170
     0
176
     1
171
     0
176
     1
290
     0
176
     1
 93
        1
176
     1
 44
0.0
176
     1
173
     0
176
     1
1001
ACAD
1000
AcDbSavedByObjectVersion
1070
     0
  0
VISUALSTYLE
  5
319A
102
{ACAD_XDICTIONARY
360
220EE
102
}
102
{ACAD_REACTORS
330
318F
102
}
330
318F
100
AcDbVisualStyle
  2

 70
    11
177
     2
291
     1
 71
     2
176
     1
 72
     2
176
     1
 73
     0
176
     1
 90
        0
176
     1
 40
0.6
176
     1
 41
30.0
176
     1
 63
     7
176
     1
 74
     1
176
     1
 91
        4
176
     1
 64
     7
176
     1
 65
   257
176
     1
 75
     1
176
     1
175
     1
176
     1
 42
1.0
176
     1
 92
        8
176
     1
 66
     7
176
     1
 43
1.0
176
     1
 76
     1
176
     1
 77
     6
176
     1
 78
     2
176
     1
 67
     7
176
     1
 79
     5
176
     1
170
     0
176
     1
171
     0
176
     1
290
     0
176
     1
 93
        1
176
     1
 44
-50.0
176
     1
173
     0
176
     1
1001
ACAD
1000
AcDbSavedByObjectVersion
1070
     0
  0
VISUALSTYLE
  5
1B2EC
102
{ACAD_XDICTIONARY
360
2210C
102
}
102
{ACAD_REACTORS
330
318F
102
}
330
318F
100
AcDbVisualStyle
  2

 70
    22
177
     2
291
     1
 71
     2
176
     0
 72
     2
176
     0
 73
     0
176
     0
 90
        0
176
     0
 40
0.6
176
     0
 41
30.0
176
     0
 63
     7
176
     0
 74
     1
176
     0
 91
        4
176
     0
 64
     7
176
     0
 65
   257
176
     0
 75
     1
176
     0
175
     1
176
     0
 42
1.0
176
     0
 92
        8
176
     2
 66
     7
176
     0
 43
1.0
176
     0
 76
     1
176
     0
 77
     6
176
     0
 78
     2
176
     0
 67
     7
176
     0
 79
     5
176
     0
170
     0
176
     0
171
     0
176
     0
290
     0
176
     0
 93
        1
176
     0
 44
0.0
176
     0
173
     0
176
     0
1001
ACAD
1000
AcDbSavedByObjectVersion
1070
     0
  0
VISUALSTYLE
  5
319E
102
{ACAD_XDICTIONARY
360
220F6
102
}
102
{ACAD_REACTORS
330
318F
102
}
330
318F
100
AcDbVisualStyle
  2

 70
    15
177
     2
291
     1
 71
     2
176
     1
 72
     2
176
     1
 73
     0
176
     1
 90
        0
176
     1
 40
0.6
176
     1
 41
30.0
176
     1
 63
     7
176
     1
 74
     1
176
     1
 91
        4
176
     1
 64
     7
176
     1
 65
   257
176
     1
 75
     1
176
     1
175
     1
176
     1
 42
1.0
176
     1
 92
        8
176
     1
 66
     7
176
     1
 43
1.0
176
     1
 76
     1
176
     1
 77
     6
176
     1
 78
     2
176
     1
 67
     7
176
     1
 79
     5
176
     1
170
     0
176
     1
171
     0
176
     1
290
     0
176
     1
 93
        1
176
     1
 44
0.0
176
     1
173
     0
176
     1
1001
ACAD
1000
AcDbSavedByObjectVersion
1070
     0
  0
VISUALSTYLE
  5
3190
102
{ACAD_XDICTIONARY
360
220DA
102
}
102
{ACAD_REACTORS
330
318F
102
}
330
318F
100
AcDbVisualStyle
  2

 70
     0
177
     2
291
     1
 71
     2
176
     1
 72
     1
176
     1
 73
     1
176
     1
 90
        2
176
     1
 40
0.6
176
     1
 41
30.0
176
     1
 63
     7
176
     1
 74
     0
176
     1
 91
        4
176
     1
 64
     7
176
     1
 65
   257
176
     1
 75
     1
176
     1
175
     1
176
     1
 42
1.0
176
     1
 92
        8
176
     1
 66
     7
176
     1
 43
1.0
176
     1
 76
     1
176
     1
 77
     6
176
     1
 78
     2
176
     1
 67
     7
176
     1
 79
     5
176
     1
170
     0
176
     1
171
     0
176
     1
290
     0
176
     1
 93
       13
176
     1
 44
0.0
176
     1
173
     0
176
     1
1001
ACAD
1000
AcDbSavedByObjectVersion
1070
     0
  0
VISUALSTYLE
  5
3191
102
{ACAD_XDICTIONARY
360
220DC
102
}
102
{ACAD_REACTORS
330
318F
102
}
330
318F
100
AcDbVisualStyle
  2

 70
     1
177
     2
291
     1
 71
     2
176
     1
 72
     1
176
     1
 73
     1
176
     1
 90
        2
176
     1
 40
0.6
176
     1
 41
30.0
176
     1
 63
     7
176
     1
 74
     1
176
     1
 91
        4
176
     1
 64
     7
176
     1
 65
   257
176
     1
 75
     1
176
     1
175
     1
176
     1
 42
1.0
176
     1
 92
        0
176
     1
 66
   257
176
     1
 43
1.0
176
     1
 76
     1
176
     1
 77
     6
176
     1
 78
     2
176
     1
 67
     7
176
     1
 79
     5
176
     1
170
     0
176
     1
171
     0
176
     1
290
     0
176
     1
 93
       13
176
     1
 44
0.0
176
     1
173
     0
176
     1
1001
ACAD
1000
AcDbSavedByObjectVersion
1070
     0
  0
VISUALSTYLE
  5
3192
102
{ACAD_XDICTIONARY
360
220DE
102
}
102
{ACAD_REACTORS
330
318F
102
}
330
318F
100
AcDbVisualStyle
  2

 70
     2
177
     2
291
     1
 71
     2
176
     1
 72
     2
176
     1
 73
     1
176
     1
 90
        2
176
     1
 40
0.6
176
     1
 41
30.0
176
     1
 63
     7
176
     1
 74
     0
176
     1
 91
        4
176
     1
 64
     7
176
     1
 65
   257
176
     1
 75
     1
176
     1
175
     1
176
     1
 42
1.0
176
     1
 92
        0
176
     1
 66
     7
176
     1
 43
1.0
176
     1
 76
     1
176
     1
 77
     6
176
     1
 78
     2
176
     1
 67
     7
176
     1
 79
     5
176
     1
170
     0
176
     1
171
     0
176
     1
290
     0
176
     1
 93
       13
176
     1
 44
0.0
176
     1
173
     0
176
     1
1001
ACAD
1000
AcDbSavedByObjectVersion
1070
     0
  0
VISUALSTYLE
  5
3193
102
{ACAD_XDICTIONARY
360
220E0
102
}
102
{ACAD_REACTORS
330
318F
102
}
330
318F
100
AcDbVisualStyle
  2

 70
     3
177
     2
291
     1
 71
     2
176
     1
 72
     2
176
     1
 73
     1
176
     1
 90
        2
176
     1
 40
0.6
176
     1
 41
30.0
176
     1
 63
     7
176
     1
 74
     1
176
     1
 91
        4
176
     1
 64
     7
176
     1
 65
   257
176
     1
 75
     1
176
     1
175
     1
176
     1
 42
1.0
176
     1
 92
        0
176
     1
 66
   257
176
     1
 43
1.0
176
     1
 76
     1
176
     1
 77
     6
176
     1
 78
     2
176
     1
 67
     7
176
     1
 79
     5
176
     1
170
     0
176
     1
171
     0
176
     1
290
     0
176
     1
 93
       13
176
     1
 44
0.0
176
     1
173
     0
176
     1
1001
ACAD
1000
AcDbSavedByObjectVersion
1070
     0
  0
VISUALSTYLE
  5
1B2E4
102
{ACAD_XDICTIONARY
360
220FC
102
}
102
{ACAD_REACTORS
330
318F
102
}
330
318F
100
AcDbVisualStyle
  2

 70
     6
177
     2
291
     0
 71
     1
176
     1
 72
     2
176
     1
 73
     2
176
     1
 90
        0
176
     1
 40
0.6
176
     1
 41
30.0
176
     1
 63
     7
176
     1
 74
     2
176
     1
 91
        2
176
     1
 64
     7
176
     1
 65
   257
176
     1
 75
     2
176
     1
175
     1
176
     1
 42
40.0
176
     1
 92
        0
176
     1
 66
   257
176
     1
 43
1.0
176
     1
 76
     1
176
     1
 77
     6
176
     1
 78
     2
176
     1
 67
     7
176
     1
 79
     3
176
     1
170
     0
176
     1
171
     0
176
     1
290
     0
176
     1
 93
        1
176
     1
 44
0.0
176
     1
173
     0
176
     1
1001
ACAD
1000
AcDbSavedByObjectVersion
1070
     0
  0
VISUALSTYLE
  5
1B2EA
102
{ACAD_XDICTIONARY
360
22108
102
}
102
{ACAD_REACTORS
330
318F
102
}
330
318F
100
AcDbVisualStyle
  2

 70
    20
177
     2
291
     1
 71
     2
176
     0
 72
     2
176
     0
 73
     0
176
     0
 90
        0
176
     0
 40
0.6
176
     0
 41
30.0
176
     0
 63
     7
176
     0
 74
     1
176
     0
 91
        4
176
     0
 64
     7
176
     0
 65
   257
176
     0
 75
     1
176
     0
175
     1
176
     0
 42
1.0
176
     0
 92
       10
176
     2
 66
     7
176
     0
 43
1.0
176
     0
 76
     1
176
     0
 77
     6
176
     0
 78
     2
176
     0
 67
     7
176
     0
 79
     5
176
     0
170
     0
176
     0
171
     0
176
     0
290
     0
176
     0
 93
        1
176
     0
 44
0.0
176
     0
173
     0
176
     0
1001
ACAD
1000
AcDbSavedByObjectVersion
1070
     0
  0
VISUALSTYLE
  5
319D
102
{ACAD_XDICTIONARY
360
220F4
102
}
102
{ACAD_REACTORS
330
318F
102
}
330
318F
100
AcDbVisualStyle
  2

 70
    14
177
     2
291
     1
 71
     2
176
     1
 72
     2
176
     1
 73
     0
176
     1
 90
        0
176
     1
 40
0.6
176
     1
 41
30.0
176
     1
 63
     7
176
     1
 74
     1
176
     1
 91
        4
176
     1
 64
     7
176
     1
 65
   257
176
     1
 75
     7
176
     1
175
     7
176
     1
 42
1.0
176
     1
 92
        8
176
     1
 66
     7
176
     1
 43
1.0
176
     1
 76
     1
176
     1
 77
     6
176
     1
 78
     2
176
     1
 67
     7
176
     1
 79
     5
176
     1
170
     0
176
     1
171
     0
176
     1
290
     0
176
     1
 93
        1
176
     1
 44
0.0
176
     1
173
     0
176
     1
1001
ACAD
1000
AcDbSavedByObjectVersion
1070
     0
  0
VISUALSTYLE
  5
1B2EB
102
{ACAD_XDICTIONARY
360
2210A
102
}
102
{ACAD_REACTORS
330
318F
102
}
330
318F
100
AcDbVisualStyle
  2

 70
    21
177
     2
291
     1
 71
     2
176
     0
 72
     2
176
     0
 73
     0
176
     0
 90
        0
176
     0
 40
0.6
176
     0
 41
30.0
176
     0
 63
     7
176
     0
 74
     1
176
     0
 91
        4
176
     0
 64
     7
176
     0
 65
   257
176
     0
 75
     1
176
     0
175
     1
176
     0
 42
1.0
176
     0
 92
        9
176
     2
 66
     7
176
     0
 43
1.0
176
     0
 76
     1
176
     0
 77
     6
176
     0
 78
     2
176
     0
 67
     7
176
     0
 79
     5
176
     0
170
     0
176
     0
171
     0
176
     0
290
     0
176
     0
 93
        1
176
     0
 44
0.0
176
     0
173
     0
176
     0
1001
ACAD
1000
AcDbSavedByObjectVersion
1070
     0
  0
VISUALSTYLE
  5
3199
102
{ACAD_XDICTIONARY
360
220EC
102
}
102
{ACAD_REACTORS
330
318F
102
}
330
318F
100
AcDbVisualStyle
  2

 70
     8
177
     2
291
     0
 71
     2
176
     1
 72
     2
176
     1
 73
     0
176
     1
 90
        0
176
     1
 40
0.6
176
     1
 41
30.0
176
     1
 63
     7
176
     1
 74
     1
176
     1
 91
        0
176
     1
 64
     7
176
     1
 65
   257
176
     1
 75
     1
176
     1
175
     1
176
     1
 42
1.0
176
     1
 92
        8
176
     1
 66
     8
176
     1
 43
1.0
176
     1
 76
     1
176
     1
 77
     6
176
     1
 78
     2
176
     1
 67
     7
176
     1
 79
     5
176
     1
170
     0
176
     1
171
     0
176
     1
290
     0
176
     1
 93
       13
176
     1
 44
0.0
176
     1
173
     0
176
     1
1001
ACAD
1000
AcDbSavedByObjectVersion
1070
     0
  0
VISUALSTYLE
  5
1B2E9
102
{ACAD_XDICTIONARY
360
22106
102
}
102
{ACAD_REACTORS
330
318F
102
}
330
318F
100
AcDbVisualStyle
  2

 70
    27
177
     2
291
     0
 71
     2
176
     1
 72
     2
176
     1
 73
     1
176
     1
 90
        2
176
     1
 40
0.6
176
     1
 41
30.0
176
     1
 63
     7
176
     1
 74
     0
176
     1
 91
        4
176
     1
 64
     7
176
     1
 65
   257
176
     1
 75
     1
176
     1
175
     1
176
     1
 42
1.0
176
     1
 92
        8
176
     1
 66
   257
176
     1
 43
1.0
176
     1
 76
     1
176
     1
 77
     6
176
     1
 78
     2
176
     1
 67
     8
176
     1
 79
     3
176
     1
170
     0
176
     1
171
     0
176
     1
290
     0
176
     1
 93
        5
176
     1
 44
0.0
176
     1
173
     0
176
     1
1001
ACAD
1000
AcDbSavedByObjectVersion
1070
     0
  0
VISUALSTYLE
  5
1B2E8
102
{ACAD_XDICTIONARY
360
22104
102
}
102
{ACAD_REACTORS
330
318F
102
}
330
318F
100
AcDbVisualStyle
  2

 70
    26
177
     2
291
     0
 71
     2
176
     1
 72
     2
176
     1
 73
     1
176
     1
 90
        2
176
     1
 40
0.6
176
     1
 41
30.0
176
     1
 63
     7
176
     1
 74
     1
176
     1
 91
       10
176
     1
 64
     7
176
     1
 65
   257
176
     1
 75
     2
176
     1
175
     1
176
     1
 42
1.0
176
     1
 92
        8
176
     1
 66
   257
176
     1
 43
1.0
176
     1
 76
     1
176
     1
 77
     6
176
     1
 78
     2
176
     1
 67
     7
176
     1
 79
     3
176
     1
170
     0
176
     1
171
     0
176
     1
290
     0
176
     1
 93
        5
176
     1
 44
0.0
176
     1
173
     0
176
     1
1001
ACAD
1000
AcDbSavedByObjectVersion
1070
     0
  0
VISUALSTYLE
  5
1B2E5
102
{ACAD_XDICTIONARY
360
220FE
102
}
102
{ACAD_REACTORS
330
318F
102
}
330
318F
100
AcDbVisualStyle
  2

 70
    23
177
     2
291
     0
 71
     2
176
     1
 72
     2
176
     1
 73
     3
176
     1
 90
        0
176
     1
 40
0.6
176
     1
 41
30.0
176
     1
 63
     7
176
     1
 74
     2
176
     1
 91
        2
176
     1
 64
     7
176
     1
 65
     7
176
     1
 75
     1
176
     1
175
     1
176
     1
 42
40.0
176
     1
 92
        8
176
     1
 66
     7
176
     1
 43
1.0
176
     1
 76
     1
176
     1
 77
     6
176
     1
 78
     2
176
     1
 67
     7
176
     1
 79
     3
176
     1
170
     0
176
     1
171
     0
176
     1
290
     0
176
     1
 93
        1
176
     1
 44
0.0
176
     1
173
     0
176
     1
1001
ACAD
1000
AcDbSavedByObjectVersion
1070
     0
  0
VISUALSTYLE
  5
1B2E6
102
{ACAD_XDICTIONARY
360
22100
102
}
102
{ACAD_REACTORS
330
318F
102
}
330
318F
100
AcDbVisualStyle
  2

 70
    24
177
     2
291
     0
 71
     1
176
     1
 72
     2
176
     1
 73
     2
176
     1
 90
        0
176
     1
 40
0.6
176
     1
 41
30.0
176
     1
 63
     7
176
     1
 74
     2
176
     1
 91
        2
176
     1
 64
     7
176
     1
 65
     7
176
     1
 75
     1
176
     1
175
     1
176
     1
 42
40.0
176
     1
 92
       11
176
     1
 66
     7
176
     1
 43
1.0
176
     1
 76
     1
176
     1
 77
     6
176
     1
 78
     2
176
     1
 67
     7
176
     1
 79
     6
176
     1
170
     0
176
     1
171
     0
176
     1
290
     0
176
     1
 93
        1
176
     1
 44
0.0
176
     1
173
     0
176
     1
1001
ACAD
1000
AcDbSavedByObjectVersion
1070
     0
  0
VISUALSTYLE
  5
319C
102
{ACAD_XDICTIONARY
360
220F2
102
}
102
{ACAD_REACTORS
330
318F
102
}
330
318F
100
AcDbVisualStyle
  2

 70
    13
177
     2
291
     1
 71
     2
176
     1
 72
     2
176
     1
 73
     0
176
     1
 90
        0
176
     1
 40
0.6
176
     1
 41
30.0
176
     1
 63
     7
176
     1
 74
     1
176
     1
 91
        4
176
     1
 64
     7
176
     1
 65
   257
176
     1
 75
     1
176
     1
175
     1
176
     1
 42
1.0
176
     1
 92
       12
176
     1
 66
     7
176
     1
 43
1.0
176
     1
 76
     1
176
     1
 77
     6
176
     1
 78
     2
176
     1
 67
     7
176
     1
 79
     5
176
     1
170
     0
176
     1
171
     0
176
     1
290
     0
176
     1
 93
        1
176
     1
 44
0.0
176
     1
173
     0
176
     1
1001
ACAD
1000
AcDbSavedByObjectVersion
1070
     0
  0
VISUALSTYLE
  5
1B2E3
102
{ACAD_XDICTIONARY
360
220FA
102
}
102
{ACAD_REACTORS
330
318F
102
}
330
318F
100
AcDbVisualStyle
  2

 70
     5
177
     2
291
     0
 71
     0
176
     1
 72
     2
176
     1
 73
     0
176
     1
 90
        0
176
     1
 40
0.6
176
     1
 41
30.0
176
     1
 63
     7
176
     1
 74
     1
176
     1
 91
        4
176
     1
 64
     7
176
     1
 65
   257
176
     1
 75
     1
176
     1
175
     1
176
     1
 42
1.0
176
     1
 92
        0
176
     1
 66
   257
176
     1
 43
1.0
176
     1
 76
     1
176
     1
 77
     6
176
     1
 78
     2
176
     1
 67
     7
176
     1
 79
     3
176
     1
170
     0
176
     1
171
     0
176
     1
290
     0
176
     1
 93
        1
176
     1
 44
0.0
176
     1
173
     0
176
     1
1001
ACAD
1000
AcDbSavedByObjectVersion
1070
     0
  0
VISUALSTYLE
  5
1B2E7
102
{ACAD_XDICTIONARY
360
22102
102
}
102
{ACAD_REACTORS
330
318F
102
}
330
318F
100
AcDbVisualStyle
  2

 70
    25
177
     2
291
     0
 71
     2
176
     1
 72
     2
176
     1
 73
     1
176
     1
 90
        1
176
     1
 40
0.5
176
     1
 41
30.0
176
     1
 63
     7
176
     1
 74
     1
176
     1
 91
        0
176
     1
 64
     7
176
     1
 65
   257
176
     1
 75
     1
176
     1
175
     1
176
     1
 42
1.0
176
     1
 92
        8
176
     1
 66
     7
176
     1
 43
1.0
176
     1
 76
     1
176
     1
 77
     6
176
     1
 78
     2
176
     1
 67
     7
176
     1
 79
     3
176
     1
170
     0
176
     1
171
     0
176
     1
290
     0
176
     1
 93
       13
176
     1
 44
0.0
176
     1
173
     0
176
     1
1001
ACAD
1000
AcDbSavedByObjectVersion
1070
     0
  0
DICTIONARYVAR
  5
1B222
102
{ACAD_REACTORS
330
33A3
102
}
330
33A3
100
DictionaryVariables
280
     0
  1
1:1
  0
DICTIONARYVAR
  5
1B30F
102
{ACAD_REACTORS
330
33A3
102
}
330
33A3
100
DictionaryVariables
280
     0
  1
STANDARD
  0
DICTIONARYVAR
  5
33A4
102
{ACAD_REACTORS
330
33A3
102
}
330
33A3
100
DictionaryVariables
280
     0
  1
STANDARD
  0
DICTIONARYVAR
  5
1B310
102
{ACAD_REACTORS
330
33A3
102
}
330
33A3
100
DictionaryVariables
280
     0
  1
Metric50
  0
DICTIONARYVAR
  5
1B311
102
{ACAD_REACTORS
330
33A3
102
}
330
33A3
100
DictionaryVariables
280
     0
  1
Metric50
  0
DICTIONARYVAR
  5
9BE8
102
{ACAD_REACTORS
330
33A3
102
}
330
33A3
100
DictionaryVariables
280
     0
  1
1
  0
DICTIONARYVAR
  5
9BE7
102
{ACAD_REACTORS
330
33A3
102
}
330
33A3
100
DictionaryVariables
280
     0
  1
0
  0
DICTIONARYVAR
  5
20993
102
{ACAD_REACTORS
330
33A3
102
}
330
33A3
100
DictionaryVariables
280
     0
  1
1
  0
DICTIONARYVAR
  5
20994
102
{ACAD_REACTORS
330
33A3
102
}
330
33A3
100
DictionaryVariables
280
     0
  1
15
  0
DICTIONARYVAR
  5
20992
102
{ACAD_REACTORS
330
33A3
102
}
330
33A3
100
DictionaryVariables
280
     0
  1
0
  0
DICTIONARYVAR
  5
20991
102
{ACAD_REACTORS
330
33A3
102
}
330
33A3
100
DictionaryVariables
280
     0
  1
0
  0
DICTIONARYVAR
  5
9BE6
102
{ACAD_REACTORS
330
33A3
102
}
330
33A3
100
DictionaryVariables
280
     0
  1
127
  0
DICTIONARY
  5
22114
330
20CB3
100
AcDbDictionary
280
     1
281
     1
  3
ACAD_XREC_ROUNDTRIP
360
22115
  0
DICTIONARY
  5
22110
330
1B2F1
100
AcDbDictionary
280
     1
281
     1
  3
ACAD_XREC_ROUNDTRIP
360
22111
  0
DICTIONARY
  5
1B22B
330
318D
100
AcDbDictionary
280
     1
281
     1
  3
ACAD_XREC_ROUNDTRIP
360
1B22C
  0
DICTIONARY
  5
1B22D
330
318C
100
AcDbDictionary
280
     1
281
     1
  3
ACAD_XREC_ROUNDTRIP
360
1B22E
  0
DICTIONARY
  5
1B22F
330
318E
100
AcDbDictionary
280
     1
281
     1
  3
ACAD_XREC_ROUNDTRIP
360
1B230
  0
DICTIONARY
  5
22112
330
20CB1
100
AcDbDictionary
280
     1
281
     1
  3
ACAD_XREC_ROUNDTRIP
360
22113
  0
DICTIONARY
  5
2210E
330
1B2EF
100
AcDbDictionary
280
     1
281
     1
  3
ACAD_XREC_ROUNDTRIP
360
2210F
  0
DICTIONARY
  5
1B314
330
31A2
100
AcDbDictionary
280
     1
281
     1
  3
ACAD_ROUNDTRIP_2008_TABLESTYLE_CELLSTYLEMAP
360
220D8
  0
DICTIONARY
  5
220E4
330
3195
100
AcDbDictionary
280
     1
281
     1
  3
ACAD_XREC_ROUNDTRIP
360
220E5
  0
DICTIONARY
  5
220E8
330
3197
100
AcDbDictionary
280
     1
281
     1
  3
ACAD_XREC_ROUNDTRIP
360
220E9
  0
DICTIONARY
  5
220E6
330
3196
100
AcDbDictionary
280
     1
281
     1
  3
ACAD_XREC_ROUNDTRIP
360
220E7
  0
DICTIONARY
  5
220E2
330
3194
100
AcDbDictionary
280
     1
281
     1
  3
ACAD_XREC_ROUNDTRIP
360
220E3
  0
DICTIONARY
  5
220F0
330
319B
100
AcDbDictionary
280
     1
281
     1
  3
ACAD_XREC_ROUNDTRIP
360
220F1
  0
DICTIONARY
  5
220F8
330
319F
100
AcDbDictionary
280
     1
281
     1
  3
ACAD_XREC_ROUNDTRIP
360
220F9
  0
DICTIONARY
  5
220EA
330
3198
100
AcDbDictionary
280
     1
281
     1
  3
ACAD_XREC_ROUNDTRIP
360
220EB
  0
DICTIONARY
  5
220EE
330
319A
100
AcDbDictionary
280
     1
281
     1
  3
ACAD_XREC_ROUNDTRIP
360
220EF
  0
DICTIONARY
  5
2210C
330
1B2EC
100
AcDbDictionary
280
     1
281
     1
  3
ACAD_XREC_ROUNDTRIP
360
2210D
  0
DICTIONARY
  5
220F6
330
319E
100
AcDbDictionary
280
     1
281
     1
  3
ACAD_XREC_ROUNDTRIP
360
220F7
  0
DICTIONARY
  5
220DA
330
3190
100
AcDbDictionary
280
     1
281
     1
  3
ACAD_XREC_ROUNDTRIP
360
220DB
  0
DICTIONARY
  5
220DC
330
3191
100
AcDbDictionary
280
     1
281
     1
  3
ACAD_XREC_ROUNDTRIP
360
220DD
  0
DICTIONARY
  5
220DE
330
3192
100
AcDbDictionary
280
     1
281
     1
  3
ACAD_XREC_ROUNDTRIP
360
220DF
  0
DICTIONARY
  5
220E0
330
3193
100
AcDbDictionary
280
     1
281
     1
  3
ACAD_XREC_ROUNDTRIP
360
220E1
  0
DICTIONARY
  5
220FC
330
1B2E4
100
AcDbDictionary
280
     1
281
     1
  3
ACAD_XREC_ROUNDTRIP
360
220FD
  0
DICTIONARY
  5
22108
330
1B2EA
100
AcDbDictionary
280
     1
281
     1
  3
ACAD_XREC_ROUNDTRIP
360
22109
  0
DICTIONARY
  5
220F4
330
319D
100
AcDbDictionary
280
     1
281
     1
  3
ACAD_XREC_ROUNDTRIP
360
220F5
  0
DICTIONARY
  5
2210A
330
1B2EB
100
AcDbDictionary
280
     1
281
     1
  3
ACAD_XREC_ROUNDTRIP
360
2210B
  0
DICTIONARY
  5
220EC
330
3199
100
AcDbDictionary
280
     1
281
     1
  3
ACAD_XREC_ROUNDTRIP
360
220ED
  0
DICTIONARY
  5
22106
330
1B2E9
100
AcDbDictionary
280
     1
281
     1
  3
ACAD_XREC_ROUNDTRIP
360
22107
  0
DICTIONARY
  5
22104
330
1B2E8
100
AcDbDictionary
280
     1
281
     1
  3
ACAD_XREC_ROUNDTRIP
360
22105
  0
DICTIONARY
  5
220FE
330
1B2E5
100
AcDbDictionary
280
     1
281
     1
  3
ACAD_XREC_ROUNDTRIP
360
220FF
  0
DICTIONARY
  5
22100
330
1B2E6
100
AcDbDictionary
280
     1
281
     1
  3
ACAD_XREC_ROUNDTRIP
360
22101
  0
DICTIONARY
  5
220F2
330
319C
100
AcDbDictionary
280
     1
281
     1
  3
ACAD_XREC_ROUNDTRIP
360
220F3
  0
DICTIONARY
  5
220FA
330
1B2E3
100
AcDbDictionary
280
     1
281
     1
  3
ACAD_XREC_ROUNDTRIP
360
220FB
  0
DICTIONARY
  5
22102
330
1B2E7
100
AcDbDictionary
280
     1
281
     1
  3
ACAD_XREC_ROUNDTRIP
360
22103
  0
XRECORD
  5
22115
102
{ACAD_REACTORS
330
22114
102
}
330
22114
100
AcDbXrecord
280
     1
102
DISPLAYNAME
  1
Imperial24
102
FLAGS
 90
        0
  0
XRECORD
  5
22111
102
{ACAD_REACTORS
330
22110
102
}
330
22110
100
AcDbXrecord
280
     1
102
DISPLAYNAME
  1
Metric50
102
FLAGS
 90
        0
  0
XRECORD
  5
1B22C
102
{ACAD_REACTORS
330
1B22B
102
}
330
1B22B
100
AcDbXrecord
280
     1
102
MATERIAL
148
0.0
149
0.0
149
0.0
 93
        0
 94
      127
282
     0
 72
     1
 77
     1
171
     1
175
     1
179
     1
273
     0
  0
XRECORD
  5
1B22E
102
{ACAD_REACTORS
330
1B22D
102
}
330
1B22D
100
AcDbXrecord
280
     1
102
MATERIAL
148
0.0
149
0.0
149
0.0
 93
        0
 94
      127
282
     0
 72
     1
 77
     1
171
     1
175
     1
179
     1
273
     0
  0
XRECORD
  5
1B230
102
{ACAD_REACTORS
330
1B22F
102
}
330
1B22F
100
AcDbXrecord
280
     1
102
MATERIAL
148
0.0
149
0.0
149
0.0
 93
        0
 94
      127
282
     0
 72
     1
 77
     1
171
     1
175
     1
179
     1
273
     0
  0
XRECORD
  5
22113
102
{ACAD_REACTORS
330
22112
102
}
330
22112
100
AcDbXrecord
280
     1
102
DISPLAYNAME
  1
Imperial24
102
FLAGS
 90
        0
  0
XRECORD
  5
2210F
102
{ACAD_REACTORS
330
2210E
102
}
330
2210E
100
AcDbXrecord
280
     1
102
DISPLAYNAME
  1
Metric50
102
FLAGS
 90
        0
  0
CELLSTYLEMAP
  5
220D8
102
{ACAD_REACTORS
330
1B314
102
}
330
1B314
100
AcDbCellStyleMap
 90
        3
300
CELLSTYLE
  1
TABLEFORMAT_BEGIN
 90
        5
170
     1
 91
        0
 92
    32768
 62
   257
 93
        1
300
CONTENTFORMAT
  1
CONTENTFORMAT_BEGIN
 90
        0
 91
        0
 92
        4
 93
        0
300

 40
0.0
140
1.0
 94
        5
 62
     0
340
11
144
6.0
309
CONTENTFORMAT_END
171
     1
301
MARGIN
  1
CELLMARGIN_BEGIN
 40
1.5
 40
1.5
 40
1.5
 40
1.5
 40
0.18
 40
0.18
309
CELLMARGIN_END
 94
        6
 95
        1
302
GRIDFORMAT
  1
GRIDFORMAT_BEGIN
 90
        0
 91
        1
 62
     0
 92
       -2
340
0
 93
        0
 40
0.045
309
GRIDFORMAT_END
 95
        2
302
GRIDFORMAT
  1
GRIDFORMAT_BEGIN
 90
        0
 91
        1
 62
     0
 92
       -2
340
0
 93
        0
 40
0.045
309
GRIDFORMAT_END
 95
        4
302
GRIDFORMAT
  1
GRIDFORMAT_BEGIN
 90
        0
 91
        1
 62
     0
 92
       -2
340
0
 93
        0
 40
0.045
309
GRIDFORMAT_END
 95
        8
302
GRIDFORMAT
  1
GRIDFORMAT_BEGIN
 90
        0
 91
        1
 62
     0
 92
       -2
340
0
 93
        0
 40
0.045
309
GRIDFORMAT_END
 95
       16
302
GRIDFORMAT
  1
GRIDFORMAT_BEGIN
 90
        0
 91
        1
 62
     0
 92
       -2
340
0
 93
        0
 40
0.045
309
GRIDFORMAT_END
 95
       32
302
GRIDFORMAT
  1
GRIDFORMAT_BEGIN
 90
        0
 91
        1
 62
     0
 92
       -2
340
0
 93
        0
 40
0.045
309
GRIDFORMAT_END
309
TABLEFORMAT_END
  1
CELLSTYLE_BEGIN
 90
        1
 91
        1
300
_TITLE
309
CELLSTYLE_END
300
CELLSTYLE
  1
TABLEFORMAT_BEGIN
 90
        5
170
     1
 91
        0
 92
        0
 62
   257
 93
        1
300
CONTENTFORMAT
  1
CONTENTFORMAT_BEGIN
 90
        0
 91
        0
 92
        4
 93
        0
300

 40
0.0
140
1.0
 94
        5
 62
     0
340
11
144
4.5
309
CONTENTFORMAT_END
171
     1
301
MARGIN
  1
CELLMARGIN_BEGIN
 40
1.5
 40
1.5
 40
1.5
 40
1.5
 40
0.18
 40
0.18
309
CELLMARGIN_END
 94
        6
 95
        1
302
GRIDFORMAT
  1
GRIDFORMAT_BEGIN
 90
        0
 91
        1
 62
     0
 92
       -2
340
0
 93
        0
 40
0.045
309
GRIDFORMAT_END
 95
        2
302
GRIDFORMAT
  1
GRIDFORMAT_BEGIN
 90
        0
 91
        1
 62
     0
 92
       -2
340
0
 93
        0
 40
0.045
309
GRIDFORMAT_END
 95
        4
302
GRIDFORMAT
  1
GRIDFORMAT_BEGIN
 90
        0
 91
        1
 62
     0
 92
       -2
340
0
 93
        0
 40
0.045
309
GRIDFORMAT_END
 95
        8
302
GRIDFORMAT
  1
GRIDFORMAT_BEGIN
 90
        0
 91
        1
 62
     0
 92
       -2
340
0
 93
        0
 40
0.045
309
GRIDFORMAT_END
 95
       16
302
GRIDFORMAT
  1
GRIDFORMAT_BEGIN
 90
        0
 91
        1
 62
     0
 92
       -2
340
0
 93
        0
 40
0.045
309
GRIDFORMAT_END
 95
       32
302
GRIDFORMAT
  1
GRIDFORMAT_BEGIN
 90
        0
 91
        1
 62
     0
 92
       -2
340
0
 93
        0
 40
0.045
309
GRIDFORMAT_END
309
TABLEFORMAT_END
  1
CELLSTYLE_BEGIN
 90
        2
 91
        1
300
_HEADER
309
CELLSTYLE_END
300
CELLSTYLE
  1
TABLEFORMAT_BEGIN
 90
        5
170
     1
 91
        0
 92
        0
 62
   257
 93
        1
300
CONTENTFORMAT
  1
CONTENTFORMAT_BEGIN
 90
        0
 91
        0
 92
        4
 93
        0
300

 40
0.0
140
1.0
 94
        2
 62
     0
340
11
144
4.5
309
CONTENTFORMAT_END
171
     1
301
MARGIN
  1
CELLMARGIN_BEGIN
 40
1.5
 40
1.5
 40
1.5
 40
1.5
 40
0.18
 40
0.18
309
CELLMARGIN_END
 94
        6
 95
        1
302
GRIDFORMAT
  1
GRIDFORMAT_BEGIN
 90
        0
 91
        1
 62
     0
 92
       -2
340
0
 93
        0
 40
0.045
309
GRIDFORMAT_END
 95
        2
302
GRIDFORMAT
  1
GRIDFORMAT_BEGIN
 90
        0
 91
        1
 62
     0
 92
       -2
340
0
 93
        0
 40
0.045
309
GRIDFORMAT_END
 95
        4
302
GRIDFORMAT
  1
GRIDFORMAT_BEGIN
 90
        0
 91
        1
 62
     0
 92
       -2
340
0
 93
        0
 40
0.045
309
GRIDFORMAT_END
 95
        8
302
GRIDFORMAT
  1
GRIDFORMAT_BEGIN
 90
        0
 91
        1
 62
     0
 92
       -2
340
0
 93
        0
 40
0.045
309
GRIDFORMAT_END
 95
       16
302
GRIDFORMAT
  1
GRIDFORMAT_BEGIN
 90
        0
 91
        1
 62
     0
 92
       -2
340
0
 93
        0
 40
0.045
309
GRIDFORMAT_END
 95
       32
302
GRIDFORMAT
  1
GRIDFORMAT_BEGIN
 90
        0
 91
        1
 62
     0
 92
       -2
340
0
 93
        0
 40
0.045
309
GRIDFORMAT_END
309
TABLEFORMAT_END
  1
CELLSTYLE_BEGIN
 90
        3
 91
        2
300
_DATA
309
CELLSTYLE_END
  0
XRECORD
  5
220E5
102
{ACAD_REACTORS
330
220E4
102
}
330
220E4
100
AcDbXrecord
280
     1
102
RTVSPost2010Prop28
280
     1
102
RTVSPost2010PropOp28
 70
     1
102
RTVSPost2010Prop29
280
     1
102
RTVSPost2010PropOp29
 70
     1
102
RTVSPost2010Prop30
280
     0
102
RTVSPost2010PropOp30
 70
     1
102
RTVSPost2010Prop31
280
     0
102
RTVSPost2010PropOp31
 70
     1
102
RTVSPost2010Prop32
280
     0
102
RTVSPost2010PropOp32
 70
     1
102
RTVSPost2010Prop33
280
     0
102
RTVSPost2010PropOp33
 70
     1
102
RTVSPost2010Prop34
280
     0
102
RTVSPost2010PropOp34
 70
     1
102
RTVSPost2010Prop35
280
     0
102
RTVSPost2010PropOp35
 70
     1
102
RTVSPost2010Prop36
280
     0
102
RTVSPost2010PropOp36
 70
     1
102
RTVSPost2010Prop37
 90
       50
102
RTVSPost2010PropOp37
 70
     1
102
RTVSPost2010Prop38
140
0.0
102
RTVSPost2010PropOp38
 70
     1
102
RTVSPost2010Prop39
140
1.0
102
RTVSPost2010PropOp39
 70
     1
102
RTVSPost2010Prop40
 90
        0
102
RTVSPost2010PropOp40
 70
     1
102
RTVSPost2010Prop41ColorIndex
 90
       18
102
RTVSPost2010Prop41ColorRGB
 90
        0
102
RTVSPost2010PropOp41
 70
     1
102
RTVSPost2010Prop42
 90
       50
102
RTVSPost2010PropOp42
 70
     1
102
RTVSPost2010Prop43
 90
        3
102
RTVSPost2010PropOp43
 70
     1
102
RTVSPost2010Prop44ColorIndex
 90
        5
102
RTVSPost2010Prop44ColorRGB
 90
      255
102
RTVSPost2010PropOp44
 70
     1
102
RTVSPost2010Prop45
280
     0
102
RTVSPost2010PropOp45
 70
     1
102
RTVSPost2010Prop46
 90
       50
102
RTVSPost2010PropOp46
 70
     1
102
RTVSPost2010Prop47
 90
       50
102
RTVSPost2010PropOp47
 70
     1
102
RTVSPost2010Prop48
 90
       50
102
RTVSPost2010PropOp48
 70
     1
102
RTVSPost2010Prop49
280
     0
102
RTVSPost2010PropOp49
 70
     1
102
RTVSPost2010Prop50
 90
       50
102
RTVSPost2010PropOp50
 70
     1
102
RTVSPost2010Prop51ColorIndex
 90
      256
102
RTVSPost2010Prop51ColorRGB
 90
-16777216
102
RTVSPost2010PropOp51
 70
     0
102
RTVSPost2010Prop52
140
1.0
102
RTVSPost2010PropOp52
 70
     0
102
RTVSPost2010Prop53
 90
        2
102
RTVSPost2010PropOp53
 70
     1
102
RTVSPost2010Prop54
  1
strokes_ogs.tif
102
RTVSPost2010PropOp54
 70
     1
102
RTVSPost2010Prop55
280
     0
102
RTVSPost2010PropOp55
 70
     1
102
RTVSPost2010Prop56
140
1.0
102
RTVSPost2010PropOp56
 70
     1
102
RTVSPost2010Prop57
140
1.0
102
RTVSPost2010PropOp57
 70
     1
  0
XRECORD
  5
220E9
102
{ACAD_REACTORS
330
220E8
102
}
330
220E8
100
AcDbXrecord
280
     1
102
RTVSPost2010Prop28
280
     0
102
RTVSPost2010PropOp28
 70
     1
102
RTVSPost2010Prop29
280
     1
102
RTVSPost2010PropOp29
 70
     1
102
RTVSPost2010Prop30
280
     1
102
RTVSPost2010PropOp30
 70
     1
102
RTVSPost2010Prop31
280
     0
102
RTVSPost2010PropOp31
 70
     1
102
RTVSPost2010Prop32
280
     0
102
RTVSPost2010PropOp32
 70
     1
102
RTVSPost2010Prop33
280
     0
102
RTVSPost2010PropOp33
 70
     1
102
RTVSPost2010Prop34
280
     0
102
RTVSPost2010PropOp34
 70
     1
102
RTVSPost2010Prop35
280
     0
102
RTVSPost2010PropOp35
 70
     1
102
RTVSPost2010Prop36
280
     0
102
RTVSPost2010PropOp36
 70
     1
102
RTVSPost2010Prop37
 90
       50
102
RTVSPost2010PropOp37
 70
     1
102
RTVSPost2010Prop38
140
0.0
102
RTVSPost2010PropOp38
 70
     1
102
RTVSPost2010Prop39
140
1.0
102
RTVSPost2010PropOp39
 70
     1
102
RTVSPost2010Prop40
 90
        0
102
RTVSPost2010PropOp40
 70
     1
102
RTVSPost2010Prop41ColorIndex
 90
       18
102
RTVSPost2010Prop41ColorRGB
 90
        0
102
RTVSPost2010PropOp41
 70
     1
102
RTVSPost2010Prop42
 90
       50
102
RTVSPost2010PropOp42
 70
     1
102
RTVSPost2010Prop43
 90
        3
102
RTVSPost2010PropOp43
 70
     1
102
RTVSPost2010Prop44ColorIndex
 90
        5
102
RTVSPost2010Prop44ColorRGB
 90
      255
102
RTVSPost2010PropOp44
 70
     1
102
RTVSPost2010Prop45
280
     0
102
RTVSPost2010PropOp45
 70
     1
102
RTVSPost2010Prop46
 90
       50
102
RTVSPost2010PropOp46
 70
     1
102
RTVSPost2010Prop47
 90
       50
102
RTVSPost2010PropOp47
 70
     1
102
RTVSPost2010Prop48
 90
       50
102
RTVSPost2010PropOp48
 70
     1
102
RTVSPost2010Prop49
280
     0
102
RTVSPost2010PropOp49
 70
     1
102
RTVSPost2010Prop50
 90
       50
102
RTVSPost2010PropOp50
 70
     1
102
RTVSPost2010Prop51ColorIndex
 90
      256
102
RTVSPost2010Prop51ColorRGB
 90
-16777216
102
RTVSPost2010PropOp51
 70
     0
102
RTVSPost2010Prop52
140
1.0
102
RTVSPost2010PropOp52
 70
     0
102
RTVSPost2010Prop53
 90
        2
102
RTVSPost2010PropOp53
 70
     1
102
RTVSPost2010Prop54
  1
strokes_ogs.tif
102
RTVSPost2010PropOp54
 70
     1
102
RTVSPost2010Prop55
280
     0
102
RTVSPost2010PropOp55
 70
     1
102
RTVSPost2010Prop56
140
1.0
102
RTVSPost2010PropOp56
 70
     1
102
RTVSPost2010Prop57
140
1.0
102
RTVSPost2010PropOp57
 70
     1
  0
XRECORD
  5
220E7
102
{ACAD_REACTORS
330
220E6
102
}
330
220E6
100
AcDbXrecord
280
     1
102
RTVSPost2010Prop28
280
     0
102
RTVSPost2010PropOp28
 70
     1
102
RTVSPost2010Prop29
280
     1
102
RTVSPost2010PropOp29
 70
     1
102
RTVSPost2010Prop30
280
     1
102
RTVSPost2010PropOp30
 70
     1
102
RTVSPost2010Prop31
280
     0
102
RTVSPost2010PropOp31
 70
     1
102
RTVSPost2010Prop32
280
     0
102
RTVSPost2010PropOp32
 70
     1
102
RTVSPost2010Prop33
280
     0
102
RTVSPost2010PropOp33
 70
     1
102
RTVSPost2010Prop34
280
     0
102
RTVSPost2010PropOp34
 70
     1
102
RTVSPost2010Prop35
280
     0
102
RTVSPost2010PropOp35
 70
     1
102
RTVSPost2010Prop36
280
     0
102
RTVSPost2010PropOp36
 70
     1
102
RTVSPost2010Prop37
 90
       50
102
RTVSPost2010PropOp37
 70
     1
102
RTVSPost2010Prop38
140
0.0
102
RTVSPost2010PropOp38
 70
     1
102
RTVSPost2010Prop39
140
1.0
102
RTVSPost2010PropOp39
 70
     1
102
RTVSPost2010Prop40
 90
        0
102
RTVSPost2010PropOp40
 70
     1
102
RTVSPost2010Prop41ColorIndex
 90
       18
102
RTVSPost2010Prop41ColorRGB
 90
        0
102
RTVSPost2010PropOp41
 70
     1
102
RTVSPost2010Prop42
 90
       50
102
RTVSPost2010PropOp42
 70
     1
102
RTVSPost2010Prop43
 90
        3
102
RTVSPost2010PropOp43
 70
     1
102
RTVSPost2010Prop44ColorIndex
 90
        5
102
RTVSPost2010Prop44ColorRGB
 90
      255
102
RTVSPost2010PropOp44
 70
     1
102
RTVSPost2010Prop45
280
     0
102
RTVSPost2010PropOp45
 70
     1
102
RTVSPost2010Prop46
 90
       50
102
RTVSPost2010PropOp46
 70
     1
102
RTVSPost2010Prop47
 90
       50
102
RTVSPost2010PropOp47
 70
     1
102
RTVSPost2010Prop48
 90
       50
102
RTVSPost2010PropOp48
 70
     1
102
RTVSPost2010Prop49
280
     0
102
RTVSPost2010PropOp49
 70
     1
102
RTVSPost2010Prop50
 90
       50
102
RTVSPost2010PropOp50
 70
     1
102
RTVSPost2010Prop51ColorIndex
 90
      256
102
RTVSPost2010Prop51ColorRGB
 90
-16777216
102
RTVSPost2010PropOp51
 70
     0
102
RTVSPost2010Prop52
140
1.0
102
RTVSPost2010PropOp52
 70
     0
102
RTVSPost2010Prop53
 90
        2
102
RTVSPost2010PropOp53
 70
     1
102
RTVSPost2010Prop54
  1
strokes_ogs.tif
102
RTVSPost2010PropOp54
 70
     1
102
RTVSPost2010Prop55
280
     0
102
RTVSPost2010PropOp55
 70
     1
102
RTVSPost2010Prop56
140
1.0
102
RTVSPost2010PropOp56
 70
     1
102
RTVSPost2010Prop57
140
1.0
102
RTVSPost2010PropOp57
 70
     1
  0
XRECORD
  5
220E3
102
{ACAD_REACTORS
330
220E2
102
}
330
220E2
100
AcDbXrecord
280
     1
102
RTVSPost2010Prop28
280
     0
102
RTVSPost2010PropOp28
 70
     1
102
RTVSPost2010Prop29
280
     1
102
RTVSPost2010PropOp29
 70
     1
102
RTVSPost2010Prop30
280
     1
102
RTVSPost2010PropOp30
 70
     1
102
RTVSPost2010Prop31
280
     0
102
RTVSPost2010PropOp31
 70
     1
102
RTVSPost2010Prop32
280
     0
102
RTVSPost2010PropOp32
 70
     1
102
RTVSPost2010Prop33
280
     0
102
RTVSPost2010PropOp33
 70
     1
102
RTVSPost2010Prop34
280
     0
102
RTVSPost2010PropOp34
 70
     1
102
RTVSPost2010Prop35
280
     0
102
RTVSPost2010PropOp35
 70
     1
102
RTVSPost2010Prop36
280
     0
102
RTVSPost2010PropOp36
 70
     1
102
RTVSPost2010Prop37
 90
       50
102
RTVSPost2010PropOp37
 70
     1
102
RTVSPost2010Prop38
140
0.0
102
RTVSPost2010PropOp38
 70
     1
102
RTVSPost2010Prop39
140
1.0
102
RTVSPost2010PropOp39
 70
     1
102
RTVSPost2010Prop40
 90
        0
102
RTVSPost2010PropOp40
 70
     1
102
RTVSPost2010Prop41ColorIndex
 90
       18
102
RTVSPost2010Prop41ColorRGB
 90
        0
102
RTVSPost2010PropOp41
 70
     1
102
RTVSPost2010Prop42
 90
       50
102
RTVSPost2010PropOp42
 70
     1
102
RTVSPost2010Prop43
 90
        3
102
RTVSPost2010PropOp43
 70
     1
102
RTVSPost2010Prop44ColorIndex
 90
        5
102
RTVSPost2010Prop44ColorRGB
 90
      255
102
RTVSPost2010PropOp44
 70
     1
102
RTVSPost2010Prop45
280
     0
102
RTVSPost2010PropOp45
 70
     1
102
RTVSPost2010Prop46
 90
       50
102
RTVSPost2010PropOp46
 70
     1
102
RTVSPost2010Prop47
 90
       50
102
RTVSPost2010PropOp47
 70
     1
102
RTVSPost2010Prop48
 90
       50
102
RTVSPost2010PropOp48
 70
     1
102
RTVSPost2010Prop49
280
     0
102
RTVSPost2010PropOp49
 70
     1
102
RTVSPost2010Prop50
 90
       50
102
RTVSPost2010PropOp50
 70
     1
102
RTVSPost2010Prop51ColorIndex
 90
      256
102
RTVSPost2010Prop51ColorRGB
 90
-16777216
102
RTVSPost2010PropOp51
 70
     0
102
RTVSPost2010Prop52
140
1.0
102
RTVSPost2010PropOp52
 70
     0
102
RTVSPost2010Prop53
 90
        2
102
RTVSPost2010PropOp53
 70
     1
102
RTVSPost2010Prop54
  1
strokes_ogs.tif
102
RTVSPost2010PropOp54
 70
     1
102
RTVSPost2010Prop55
280
     0
102
RTVSPost2010PropOp55
 70
     1
102
RTVSPost2010Prop56
140
1.0
102
RTVSPost2010PropOp56
 70
     1
102
RTVSPost2010Prop57
140
1.0
102
RTVSPost2010PropOp57
 70
     1
  0
XRECORD
  5
220F1
102
{ACAD_REACTORS
330
220F0
102
}
330
220F0
100
AcDbXrecord
280
     1
102
RTVSPost2010Prop28
280
     0
102
RTVSPost2010PropOp28
 70
     1
102
RTVSPost2010Prop29
280
     1
102
RTVSPost2010PropOp29
 70
     1
102
RTVSPost2010Prop30
280
     1
102
RTVSPost2010PropOp30
 70
     1
102
RTVSPost2010Prop31
280
     0
102
RTVSPost2010PropOp31
 70
     1
102
RTVSPost2010Prop32
280
     0
102
RTVSPost2010PropOp32
 70
     1
102
RTVSPost2010Prop33
280
     0
102
RTVSPost2010PropOp33
 70
     1
102
RTVSPost2010Prop34
280
     0
102
RTVSPost2010PropOp34
 70
     1
102
RTVSPost2010Prop35
280
     0
102
RTVSPost2010PropOp35
 70
     1
102
RTVSPost2010Prop36
280
     0
102
RTVSPost2010PropOp36
 70
     1
102
RTVSPost2010Prop37
 90
       50
102
RTVSPost2010PropOp37
 70
     1
102
RTVSPost2010Prop38
140
0.0
102
RTVSPost2010PropOp38
 70
     1
102
RTVSPost2010Prop39
140
1.0
102
RTVSPost2010PropOp39
 70
     1
102
RTVSPost2010Prop40
 90
        0
102
RTVSPost2010PropOp40
 70
     1
102
RTVSPost2010Prop41ColorIndex
 90
       18
102
RTVSPost2010Prop41ColorRGB
 90
        0
102
RTVSPost2010PropOp41
 70
     1
102
RTVSPost2010Prop42
 90
       50
102
RTVSPost2010PropOp42
 70
     1
102
RTVSPost2010Prop43
 90
        3
102
RTVSPost2010PropOp43
 70
     1
102
RTVSPost2010Prop44ColorIndex
 90
        5
102
RTVSPost2010Prop44ColorRGB
 90
      255
102
RTVSPost2010PropOp44
 70
     1
102
RTVSPost2010Prop45
280
     0
102
RTVSPost2010PropOp45
 70
     1
102
RTVSPost2010Prop46
 90
       50
102
RTVSPost2010PropOp46
 70
     1
102
RTVSPost2010Prop47
 90
       50
102
RTVSPost2010PropOp47
 70
     1
102
RTVSPost2010Prop48
 90
       50
102
RTVSPost2010PropOp48
 70
     1
102
RTVSPost2010Prop49
280
     0
102
RTVSPost2010PropOp49
 70
     1
102
RTVSPost2010Prop50
 90
       50
102
RTVSPost2010PropOp50
 70
     1
102
RTVSPost2010Prop51ColorIndex
 90
      256
102
RTVSPost2010Prop51ColorRGB
 90
-16777216
102
RTVSPost2010PropOp51
 70
     0
102
RTVSPost2010Prop52
140
1.0
102
RTVSPost2010PropOp52
 70
     0
102
RTVSPost2010Prop53
 90
        2
102
RTVSPost2010PropOp53
 70
     1
102
RTVSPost2010Prop54
  1
strokes_ogs.tif
102
RTVSPost2010PropOp54
 70
     1
102
RTVSPost2010Prop55
280
     0
102
RTVSPost2010PropOp55
 70
     1
102
RTVSPost2010Prop56
140
1.0
102
RTVSPost2010PropOp56
 70
     1
102
RTVSPost2010Prop57
140
1.0
102
RTVSPost2010PropOp57
 70
     1
  0
XRECORD
  5
220F9
102
{ACAD_REACTORS
330
220F8
102
}
330
220F8
100
AcDbXrecord
280
     1
102
RTVSPost2010Prop28
280
     0
102
RTVSPost2010PropOp28
 70
     1
102
RTVSPost2010Prop29
280
     1
102
RTVSPost2010PropOp29
 70
     1
102
RTVSPost2010Prop30
280
     1
102
RTVSPost2010PropOp30
 70
     1
102
RTVSPost2010Prop31
280
     0
102
RTVSPost2010PropOp31
 70
     1
102
RTVSPost2010Prop32
280
     0
102
RTVSPost2010PropOp32
 70
     1
102
RTVSPost2010Prop33
280
     0
102
RTVSPost2010PropOp33
 70
     1
102
RTVSPost2010Prop34
280
     0
102
RTVSPost2010PropOp34
 70
     1
102
RTVSPost2010Prop35
280
     0
102
RTVSPost2010PropOp35
 70
     1
102
RTVSPost2010Prop36
280
     0
102
RTVSPost2010PropOp36
 70
     1
102
RTVSPost2010Prop37
 90
       50
102
RTVSPost2010PropOp37
 70
     1
102
RTVSPost2010Prop38
140
0.0
102
RTVSPost2010PropOp38
 70
     1
102
RTVSPost2010Prop39
140
1.0
102
RTVSPost2010PropOp39
 70
     1
102
RTVSPost2010Prop40
 90
        0
102
RTVSPost2010PropOp40
 70
     1
102
RTVSPost2010Prop41ColorIndex
 90
       18
102
RTVSPost2010Prop41ColorRGB
 90
        0
102
RTVSPost2010PropOp41
 70
     1
102
RTVSPost2010Prop42
 90
       50
102
RTVSPost2010PropOp42
 70
     1
102
RTVSPost2010Prop43
 90
        3
102
RTVSPost2010PropOp43
 70
     1
102
RTVSPost2010Prop44ColorIndex
 90
        5
102
RTVSPost2010Prop44ColorRGB
 90
      255
102
RTVSPost2010PropOp44
 70
     1
102
RTVSPost2010Prop45
280
     0
102
RTVSPost2010PropOp45
 70
     1
102
RTVSPost2010Prop46
 90
       50
102
RTVSPost2010PropOp46
 70
     1
102
RTVSPost2010Prop47
 90
       50
102
RTVSPost2010PropOp47
 70
     1
102
RTVSPost2010Prop48
 90
       50
102
RTVSPost2010PropOp48
 70
     1
102
RTVSPost2010Prop49
280
     0
102
RTVSPost2010PropOp49
 70
     1
102
RTVSPost2010Prop50
 90
       50
102
RTVSPost2010PropOp50
 70
     1
102
RTVSPost2010Prop51ColorIndex
 90
      256
102
RTVSPost2010Prop51ColorRGB
 90
-16777216
102
RTVSPost2010PropOp51
 70
     0
102
RTVSPost2010Prop52
140
1.0
102
RTVSPost2010PropOp52
 70
     0
102
RTVSPost2010Prop53
 90
        2
102
RTVSPost2010PropOp53
 70
     1
102
RTVSPost2010Prop54
  1
strokes_ogs.tif
102
RTVSPost2010PropOp54
 70
     1
102
RTVSPost2010Prop55
280
     0
102
RTVSPost2010PropOp55
 70
     1
102
RTVSPost2010Prop56
140
1.0
102
RTVSPost2010PropOp56
 70
     1
102
RTVSPost2010Prop57
140
1.0
102
RTVSPost2010PropOp57
 70
     1
  0
XRECORD
  5
220EB
102
{ACAD_REACTORS
330
220EA
102
}
330
220EA
100
AcDbXrecord
280
     1
102
RTVSPost2010Prop28
280
     0
102
RTVSPost2010PropOp28
 70
     1
102
RTVSPost2010Prop29
280
     1
102
RTVSPost2010PropOp29
 70
     1
102
RTVSPost2010Prop30
280
     1
102
RTVSPost2010PropOp30
 70
     1
102
RTVSPost2010Prop31
280
     0
102
RTVSPost2010PropOp31
 70
     1
102
RTVSPost2010Prop32
280
     0
102
RTVSPost2010PropOp32
 70
     1
102
RTVSPost2010Prop33
280
     0
102
RTVSPost2010PropOp33
 70
     1
102
RTVSPost2010Prop34
280
     0
102
RTVSPost2010PropOp34
 70
     1
102
RTVSPost2010Prop35
280
     0
102
RTVSPost2010PropOp35
 70
     1
102
RTVSPost2010Prop36
280
     0
102
RTVSPost2010PropOp36
 70
     1
102
RTVSPost2010Prop37
 90
       50
102
RTVSPost2010PropOp37
 70
     1
102
RTVSPost2010Prop38
140
0.0
102
RTVSPost2010PropOp38
 70
     1
102
RTVSPost2010Prop39
140
1.0
102
RTVSPost2010PropOp39
 70
     1
102
RTVSPost2010Prop40
 90
        0
102
RTVSPost2010PropOp40
 70
     1
102
RTVSPost2010Prop41ColorIndex
 90
       18
102
RTVSPost2010Prop41ColorRGB
 90
        0
102
RTVSPost2010PropOp41
 70
     1
102
RTVSPost2010Prop42
 90
       50
102
RTVSPost2010PropOp42
 70
     1
102
RTVSPost2010Prop43
 90
        3
102
RTVSPost2010PropOp43
 70
     1
102
RTVSPost2010Prop44ColorIndex
 90
        5
102
RTVSPost2010Prop44ColorRGB
 90
      255
102
RTVSPost2010PropOp44
 70
     1
102
RTVSPost2010Prop45
280
     0
102
RTVSPost2010PropOp45
 70
     1
102
RTVSPost2010Prop46
 90
       50
102
RTVSPost2010PropOp46
 70
     1
102
RTVSPost2010Prop47
 90
       50
102
RTVSPost2010PropOp47
 70
     1
102
RTVSPost2010Prop48
 90
       50
102
RTVSPost2010PropOp48
 70
     1
102
RTVSPost2010Prop49
280
     0
102
RTVSPost2010PropOp49
 70
     1
102
RTVSPost2010Prop50
 90
       50
102
RTVSPost2010PropOp50
 70
     1
102
RTVSPost2010Prop51ColorIndex
 90
      256
102
RTVSPost2010Prop51ColorRGB
 90
-16777216
102
RTVSPost2010PropOp51
 70
     0
102
RTVSPost2010Prop52
140
1.0
102
RTVSPost2010PropOp52
 70
     0
102
RTVSPost2010Prop53
 90
        2
102
RTVSPost2010PropOp53
 70
     1
102
RTVSPost2010Prop54
  1
strokes_ogs.tif
102
RTVSPost2010PropOp54
 70
     1
102
RTVSPost2010Prop55
280
     0
102
RTVSPost2010PropOp55
 70
     1
102
RTVSPost2010Prop56
140
1.0
102
RTVSPost2010PropOp56
 70
     1
102
RTVSPost2010Prop57
140
1.0
102
RTVSPost2010PropOp57
 70
     1
  0
XRECORD
  5
220EF
102
{ACAD_REACTORS
330
220EE
102
}
330
220EE
100
AcDbXrecord
280
     1
102
RTVSPost2010Prop28
280
     0
102
RTVSPost2010PropOp28
 70
     1
102
RTVSPost2010Prop29
280
     1
102
RTVSPost2010PropOp29
 70
     1
102
RTVSPost2010Prop30
280
     1
102
RTVSPost2010PropOp30
 70
     1
102
RTVSPost2010Prop31
280
     0
102
RTVSPost2010PropOp31
 70
     1
102
RTVSPost2010Prop32
280
     0
102
RTVSPost2010PropOp32
 70
     1
102
RTVSPost2010Prop33
280
     0
102
RTVSPost2010PropOp33
 70
     1
102
RTVSPost2010Prop34
280
     0
102
RTVSPost2010PropOp34
 70
     1
102
RTVSPost2010Prop35
280
     0
102
RTVSPost2010PropOp35
 70
     1
102
RTVSPost2010Prop36
280
     0
102
RTVSPost2010PropOp36
 70
     1
102
RTVSPost2010Prop37
 90
       50
102
RTVSPost2010PropOp37
 70
     1
102
RTVSPost2010Prop38
140
0.0
102
RTVSPost2010PropOp38
 70
     1
102
RTVSPost2010Prop39
140
1.0
102
RTVSPost2010PropOp39
 70
     1
102
RTVSPost2010Prop40
 90
        0
102
RTVSPost2010PropOp40
 70
     1
102
RTVSPost2010Prop41ColorIndex
 90
       18
102
RTVSPost2010Prop41ColorRGB
 90
        0
102
RTVSPost2010PropOp41
 70
     1
102
RTVSPost2010Prop42
 90
       50
102
RTVSPost2010PropOp42
 70
     1
102
RTVSPost2010Prop43
 90
        3
102
RTVSPost2010PropOp43
 70
     1
102
RTVSPost2010Prop44ColorIndex
 90
        5
102
RTVSPost2010Prop44ColorRGB
 90
      255
102
RTVSPost2010PropOp44
 70
     1
102
RTVSPost2010Prop45
280
     0
102
RTVSPost2010PropOp45
 70
     1
102
RTVSPost2010Prop46
 90
       50
102
RTVSPost2010PropOp46
 70
     1
102
RTVSPost2010Prop47
 90
       50
102
RTVSPost2010PropOp47
 70
     1
102
RTVSPost2010Prop48
 90
       50
102
RTVSPost2010PropOp48
 70
     1
102
RTVSPost2010Prop49
280
     0
102
RTVSPost2010PropOp49
 70
     1
102
RTVSPost2010Prop50
 90
       50
102
RTVSPost2010PropOp50
 70
     1
102
RTVSPost2010Prop51ColorIndex
 90
      256
102
RTVSPost2010Prop51ColorRGB
 90
-16777216
102
RTVSPost2010PropOp51
 70
     0
102
RTVSPost2010Prop52
140
1.0
102
RTVSPost2010PropOp52
 70
     0
102
RTVSPost2010Prop53
 90
        2
102
RTVSPost2010PropOp53
 70
     1
102
RTVSPost2010Prop54
  1
strokes_ogs.tif
102
RTVSPost2010PropOp54
 70
     1
102
RTVSPost2010Prop55
280
     0
102
RTVSPost2010PropOp55
 70
     1
102
RTVSPost2010Prop56
140
1.0
102
RTVSPost2010PropOp56
 70
     1
102
RTVSPost2010Prop57
140
1.0
102
RTVSPost2010PropOp57
 70
     1
  0
XRECORD
  5
2210D
102
{ACAD_REACTORS
330
2210C
102
}
330
2210C
100
AcDbXrecord
280
     1
102
RTVSPost2010Prop28
280
     0
102
RTVSPost2010PropOp28
 70
     1
102
RTVSPost2010Prop29
280
     1
102
RTVSPost2010PropOp29
 70
     1
102
RTVSPost2010Prop30
280
     1
102
RTVSPost2010PropOp30
 70
     1
102
RTVSPost2010Prop31
280
     0
102
RTVSPost2010PropOp31
 70
     1
102
RTVSPost2010Prop32
280
     0
102
RTVSPost2010PropOp32
 70
     1
102
RTVSPost2010Prop33
280
     0
102
RTVSPost2010PropOp33
 70
     1
102
RTVSPost2010Prop34
280
     0
102
RTVSPost2010PropOp34
 70
     1
102
RTVSPost2010Prop35
280
     0
102
RTVSPost2010PropOp35
 70
     1
102
RTVSPost2010Prop36
280
     0
102
RTVSPost2010PropOp36
 70
     1
102
RTVSPost2010Prop37
 90
       50
102
RTVSPost2010PropOp37
 70
     0
102
RTVSPost2010Prop38
140
0.0
102
RTVSPost2010PropOp38
 70
     0
102
RTVSPost2010Prop39
140
1.0
102
RTVSPost2010PropOp39
 70
     0
102
RTVSPost2010Prop40
 90
        0
102
RTVSPost2010PropOp40
 70
     0
102
RTVSPost2010Prop41ColorIndex
 90
       18
102
RTVSPost2010Prop41ColorRGB
 90
        0
102
RTVSPost2010PropOp41
 70
     0
102
RTVSPost2010Prop42
 90
       50
102
RTVSPost2010PropOp42
 70
     0
102
RTVSPost2010Prop43
 90
        3
102
RTVSPost2010PropOp43
 70
     0
102
RTVSPost2010Prop44ColorIndex
 90
        5
102
RTVSPost2010Prop44ColorRGB
 90
      255
102
RTVSPost2010PropOp44
 70
     0
102
RTVSPost2010Prop45
280
     0
102
RTVSPost2010PropOp45
 70
     1
102
RTVSPost2010Prop46
 90
       50
102
RTVSPost2010PropOp46
 70
     0
102
RTVSPost2010Prop47
 90
       50
102
RTVSPost2010PropOp47
 70
     0
102
RTVSPost2010Prop48
 90
       50
102
RTVSPost2010PropOp48
 70
     0
102
RTVSPost2010Prop49
280
     0
102
RTVSPost2010PropOp49
 70
     1
102
RTVSPost2010Prop50
 90
       50
102
RTVSPost2010PropOp50
 70
     0
102
RTVSPost2010Prop51ColorIndex
 90
      256
102
RTVSPost2010Prop51ColorRGB
 90
-16777216
102
RTVSPost2010PropOp51
 70
     0
102
RTVSPost2010Prop52
140
1.0
102
RTVSPost2010PropOp52
 70
     0
102
RTVSPost2010Prop53
 90
        2
102
RTVSPost2010PropOp53
 70
     0
102
RTVSPost2010Prop54
  1
strokes_ogs.tif
102
RTVSPost2010PropOp54
 70
     0
102
RTVSPost2010Prop55
280
     0
102
RTVSPost2010PropOp55
 70
     1
102
RTVSPost2010Prop56
140
1.0
102
RTVSPost2010PropOp56
 70
     0
102
RTVSPost2010Prop57
140
1.0
102
RTVSPost2010PropOp57
 70
     0
  0
XRECORD
  5
220F7
102
{ACAD_REACTORS
330
220F6
102
}
330
220F6
100
AcDbXrecord
280
     1
102
RTVSPost2010Prop28
280
     0
102
RTVSPost2010PropOp28
 70
     1
102
RTVSPost2010Prop29
280
     1
102
RTVSPost2010PropOp29
 70
     1
102
RTVSPost2010Prop30
280
     1
102
RTVSPost2010PropOp30
 70
     1
102
RTVSPost2010Prop31
280
     0
102
RTVSPost2010PropOp31
 70
     1
102
RTVSPost2010Prop32
280
     0
102
RTVSPost2010PropOp32
 70
     1
102
RTVSPost2010Prop33
280
     0
102
RTVSPost2010PropOp33
 70
     1
102
RTVSPost2010Prop34
280
     0
102
RTVSPost2010PropOp34
 70
     1
102
RTVSPost2010Prop35
280
     0
102
RTVSPost2010PropOp35
 70
     1
102
RTVSPost2010Prop36
280
     0
102
RTVSPost2010PropOp36
 70
     1
102
RTVSPost2010Prop37
 90
       50
102
RTVSPost2010PropOp37
 70
     1
102
RTVSPost2010Prop38
140
0.0
102
RTVSPost2010PropOp38
 70
     1
102
RTVSPost2010Prop39
140
1.0
102
RTVSPost2010PropOp39
 70
     1
102
RTVSPost2010Prop40
 90
        0
102
RTVSPost2010PropOp40
 70
     1
102
RTVSPost2010Prop41ColorIndex
 90
       18
102
RTVSPost2010Prop41ColorRGB
 90
        0
102
RTVSPost2010PropOp41
 70
     1
102
RTVSPost2010Prop42
 90
       50
102
RTVSPost2010PropOp42
 70
     1
102
RTVSPost2010Prop43
 90
        3
102
RTVSPost2010PropOp43
 70
     1
102
RTVSPost2010Prop44ColorIndex
 90
        5
102
RTVSPost2010Prop44ColorRGB
 90
      255
102
RTVSPost2010PropOp44
 70
     1
102
RTVSPost2010Prop45
280
     0
102
RTVSPost2010PropOp45
 70
     1
102
RTVSPost2010Prop46
 90
       50
102
RTVSPost2010PropOp46
 70
     1
102
RTVSPost2010Prop47
 90
       50
102
RTVSPost2010PropOp47
 70
     1
102
RTVSPost2010Prop48
 90
       50
102
RTVSPost2010PropOp48
 70
     1
102
RTVSPost2010Prop49
280
     0
102
RTVSPost2010PropOp49
 70
     1
102
RTVSPost2010Prop50
 90
       50
102
RTVSPost2010PropOp50
 70
     1
102
RTVSPost2010Prop51ColorIndex
 90
      256
102
RTVSPost2010Prop51ColorRGB
 90
-16777216
102
RTVSPost2010PropOp51
 70
     0
102
RTVSPost2010Prop52
140
1.0
102
RTVSPost2010PropOp52
 70
     0
102
RTVSPost2010Prop53
 90
        2
102
RTVSPost2010PropOp53
 70
     1
102
RTVSPost2010Prop54
  1
strokes_ogs.tif
102
RTVSPost2010PropOp54
 70
     1
102
RTVSPost2010Prop55
280
     0
102
RTVSPost2010PropOp55
 70
     1
102
RTVSPost2010Prop56
140
1.0
102
RTVSPost2010PropOp56
 70
     1
102
RTVSPost2010Prop57
140
1.0
102
RTVSPost2010PropOp57
 70
     1
  0
XRECORD
  5
220DB
102
{ACAD_REACTORS
330
220DA
102
}
330
220DA
100
AcDbXrecord
280
     1
102
RTVSPost2010Prop28
280
     0
102
RTVSPost2010PropOp28
 70
     1
102
RTVSPost2010Prop29
280
     1
102
RTVSPost2010PropOp29
 70
     1
102
RTVSPost2010Prop30
280
     1
102
RTVSPost2010PropOp30
 70
     1
102
RTVSPost2010Prop31
280
     0
102
RTVSPost2010PropOp31
 70
     1
102
RTVSPost2010Prop32
280
     0
102
RTVSPost2010PropOp32
 70
     1
102
RTVSPost2010Prop33
280
     0
102
RTVSPost2010PropOp33
 70
     1
102
RTVSPost2010Prop34
280
     0
102
RTVSPost2010PropOp34
 70
     1
102
RTVSPost2010Prop35
280
     0
102
RTVSPost2010PropOp35
 70
     1
102
RTVSPost2010Prop36
280
     0
102
RTVSPost2010PropOp36
 70
     1
102
RTVSPost2010Prop37
 90
       50
102
RTVSPost2010PropOp37
 70
     1
102
RTVSPost2010Prop38
140
0.0
102
RTVSPost2010PropOp38
 70
     1
102
RTVSPost2010Prop39
140
1.0
102
RTVSPost2010PropOp39
 70
     1
102
RTVSPost2010Prop40
 90
        0
102
RTVSPost2010PropOp40
 70
     1
102
RTVSPost2010Prop41ColorIndex
 90
       18
102
RTVSPost2010Prop41ColorRGB
 90
        0
102
RTVSPost2010PropOp41
 70
     1
102
RTVSPost2010Prop42
 90
       50
102
RTVSPost2010PropOp42
 70
     1
102
RTVSPost2010Prop43
 90
        3
102
RTVSPost2010PropOp43
 70
     1
102
RTVSPost2010Prop44ColorIndex
 90
        5
102
RTVSPost2010Prop44ColorRGB
 90
      255
102
RTVSPost2010PropOp44
 70
     1
102
RTVSPost2010Prop45
280
     0
102
RTVSPost2010PropOp45
 70
     1
102
RTVSPost2010Prop46
 90
       50
102
RTVSPost2010PropOp46
 70
     1
102
RTVSPost2010Prop47
 90
       50
102
RTVSPost2010PropOp47
 70
     1
102
RTVSPost2010Prop48
 90
       50
102
RTVSPost2010PropOp48
 70
     1
102
RTVSPost2010Prop49
280
     0
102
RTVSPost2010PropOp49
 70
     1
102
RTVSPost2010Prop50
 90
       50
102
RTVSPost2010PropOp50
 70
     1
102
RTVSPost2010Prop51ColorIndex
 90
      256
102
RTVSPost2010Prop51ColorRGB
 90
-16777216
102
RTVSPost2010PropOp51
 70
     0
102
RTVSPost2010Prop52
140
1.0
102
RTVSPost2010PropOp52
 70
     0
102
RTVSPost2010Prop53
 90
        2
102
RTVSPost2010PropOp53
 70
     1
102
RTVSPost2010Prop54
  1
strokes_ogs.tif
102
RTVSPost2010PropOp54
 70
     1
102
RTVSPost2010Prop55
280
     0
102
RTVSPost2010PropOp55
 70
     1
102
RTVSPost2010Prop56
140
1.0
102
RTVSPost2010PropOp56
 70
     1
102
RTVSPost2010Prop57
140
1.0
102
RTVSPost2010PropOp57
 70
     1
  0
XRECORD
  5
220DD
102
{ACAD_REACTORS
330
220DC
102
}
330
220DC
100
AcDbXrecord
280
     1
102
RTVSPost2010Prop28
280
     0
102
RTVSPost2010PropOp28
 70
     1
102
RTVSPost2010Prop29
280
     1
102
RTVSPost2010PropOp29
 70
     1
102
RTVSPost2010Prop30
280
     1
102
RTVSPost2010PropOp30
 70
     1
102
RTVSPost2010Prop31
280
     0
102
RTVSPost2010PropOp31
 70
     1
102
RTVSPost2010Prop32
280
     0
102
RTVSPost2010PropOp32
 70
     1
102
RTVSPost2010Prop33
280
     0
102
RTVSPost2010PropOp33
 70
     1
102
RTVSPost2010Prop34
280
     0
102
RTVSPost2010PropOp34
 70
     1
102
RTVSPost2010Prop35
280
     0
102
RTVSPost2010PropOp35
 70
     1
102
RTVSPost2010Prop36
280
     0
102
RTVSPost2010PropOp36
 70
     1
102
RTVSPost2010Prop37
 90
       50
102
RTVSPost2010PropOp37
 70
     1
102
RTVSPost2010Prop38
140
0.0
102
RTVSPost2010PropOp38
 70
     1
102
RTVSPost2010Prop39
140
1.0
102
RTVSPost2010PropOp39
 70
     1
102
RTVSPost2010Prop40
 90
        0
102
RTVSPost2010PropOp40
 70
     1
102
RTVSPost2010Prop41ColorIndex
 90
       18
102
RTVSPost2010Prop41ColorRGB
 90
        0
102
RTVSPost2010PropOp41
 70
     1
102
RTVSPost2010Prop42
 90
       50
102
RTVSPost2010PropOp42
 70
     1
102
RTVSPost2010Prop43
 90
        3
102
RTVSPost2010PropOp43
 70
     1
102
RTVSPost2010Prop44ColorIndex
 90
        5
102
RTVSPost2010Prop44ColorRGB
 90
      255
102
RTVSPost2010PropOp44
 70
     1
102
RTVSPost2010Prop45
280
     0
102
RTVSPost2010PropOp45
 70
     1
102
RTVSPost2010Prop46
 90
       50
102
RTVSPost2010PropOp46
 70
     1
102
RTVSPost2010Prop47
 90
       50
102
RTVSPost2010PropOp47
 70
     1
102
RTVSPost2010Prop48
 90
       50
102
RTVSPost2010PropOp48
 70
     1
102
RTVSPost2010Prop49
280
     0
102
RTVSPost2010PropOp49
 70
     1
102
RTVSPost2010Prop50
 90
       50
102
RTVSPost2010PropOp50
 70
     1
102
RTVSPost2010Prop51ColorIndex
 90
      256
102
RTVSPost2010Prop51ColorRGB
 90
-16777216
102
RTVSPost2010PropOp51
 70
     0
102
RTVSPost2010Prop52
140
1.0
102
RTVSPost2010PropOp52
 70
     0
102
RTVSPost2010Prop53
 90
        2
102
RTVSPost2010PropOp53
 70
     1
102
RTVSPost2010Prop54
  1
strokes_ogs.tif
102
RTVSPost2010PropOp54
 70
     1
102
RTVSPost2010Prop55
280
     0
102
RTVSPost2010PropOp55
 70
     1
102
RTVSPost2010Prop56
140
1.0
102
RTVSPost2010PropOp56
 70
     1
102
RTVSPost2010Prop57
140
1.0
102
RTVSPost2010PropOp57
 70
     1
  0
XRECORD
  5
220DF
102
{ACAD_REACTORS
330
220DE
102
}
330
220DE
100
AcDbXrecord
280
     1
102
RTVSPost2010Prop28
280
     0
102
RTVSPost2010PropOp28
 70
     1
102
RTVSPost2010Prop29
280
     1
102
RTVSPost2010PropOp29
 70
     1
102
RTVSPost2010Prop30
280
     1
102
RTVSPost2010PropOp30
 70
     1
102
RTVSPost2010Prop31
280
     0
102
RTVSPost2010PropOp31
 70
     1
102
RTVSPost2010Prop32
280
     0
102
RTVSPost2010PropOp32
 70
     1
102
RTVSPost2010Prop33
280
     0
102
RTVSPost2010PropOp33
 70
     1
102
RTVSPost2010Prop34
280
     0
102
RTVSPost2010PropOp34
 70
     1
102
RTVSPost2010Prop35
280
     0
102
RTVSPost2010PropOp35
 70
     1
102
RTVSPost2010Prop36
280
     0
102
RTVSPost2010PropOp36
 70
     1
102
RTVSPost2010Prop37
 90
       50
102
RTVSPost2010PropOp37
 70
     1
102
RTVSPost2010Prop38
140
0.0
102
RTVSPost2010PropOp38
 70
     1
102
RTVSPost2010Prop39
140
1.0
102
RTVSPost2010PropOp39
 70
     1
102
RTVSPost2010Prop40
 90
        0
102
RTVSPost2010PropOp40
 70
     1
102
RTVSPost2010Prop41ColorIndex
 90
       18
102
RTVSPost2010Prop41ColorRGB
 90
        0
102
RTVSPost2010PropOp41
 70
     1
102
RTVSPost2010Prop42
 90
       50
102
RTVSPost2010PropOp42
 70
     1
102
RTVSPost2010Prop43
 90
        3
102
RTVSPost2010PropOp43
 70
     1
102
RTVSPost2010Prop44ColorIndex
 90
        5
102
RTVSPost2010Prop44ColorRGB
 90
      255
102
RTVSPost2010PropOp44
 70
     1
102
RTVSPost2010Prop45
280
     0
102
RTVSPost2010PropOp45
 70
     1
102
RTVSPost2010Prop46
 90
       50
102
RTVSPost2010PropOp46
 70
     1
102
RTVSPost2010Prop47
 90
       50
102
RTVSPost2010PropOp47
 70
     1
102
RTVSPost2010Prop48
 90
       50
102
RTVSPost2010PropOp48
 70
     1
102
RTVSPost2010Prop49
280
     0
102
RTVSPost2010PropOp49
 70
     1
102
RTVSPost2010Prop50
 90
       50
102
RTVSPost2010PropOp50
 70
     1
102
RTVSPost2010Prop51ColorIndex
 90
      256
102
RTVSPost2010Prop51ColorRGB
 90
-16777216
102
RTVSPost2010PropOp51
 70
     0
102
RTVSPost2010Prop52
140
1.0
102
RTVSPost2010PropOp52
 70
     0
102
RTVSPost2010Prop53
 90
        2
102
RTVSPost2010PropOp53
 70
     1
102
RTVSPost2010Prop54
  1
strokes_ogs.tif
102
RTVSPost2010PropOp54
 70
     1
102
RTVSPost2010Prop55
280
     0
102
RTVSPost2010PropOp55
 70
     1
102
RTVSPost2010Prop56
140
1.0
102
RTVSPost2010PropOp56
 70
     1
102
RTVSPost2010Prop57
140
1.0
102
RTVSPost2010PropOp57
 70
     1
  0
XRECORD
  5
220E1
102
{ACAD_REACTORS
330
220E0
102
}
330
220E0
100
AcDbXrecord
280
     1
102
RTVSPost2010Prop28
280
     0
102
RTVSPost2010PropOp28
 70
     1
102
RTVSPost2010Prop29
280
     1
102
RTVSPost2010PropOp29
 70
     1
102
RTVSPost2010Prop30
280
     1
102
RTVSPost2010PropOp30
 70
     1
102
RTVSPost2010Prop31
280
     0
102
RTVSPost2010PropOp31
 70
     1
102
RTVSPost2010Prop32
280
     0
102
RTVSPost2010PropOp32
 70
     1
102
RTVSPost2010Prop33
280
     0
102
RTVSPost2010PropOp33
 70
     1
102
RTVSPost2010Prop34
280
     0
102
RTVSPost2010PropOp34
 70
     1
102
RTVSPost2010Prop35
280
     0
102
RTVSPost2010PropOp35
 70
     1
102
RTVSPost2010Prop36
280
     0
102
RTVSPost2010PropOp36
 70
     1
102
RTVSPost2010Prop37
 90
       50
102
RTVSPost2010PropOp37
 70
     1
102
RTVSPost2010Prop38
140
0.0
102
RTVSPost2010PropOp38
 70
     1
102
RTVSPost2010Prop39
140
1.0
102
RTVSPost2010PropOp39
 70
     1
102
RTVSPost2010Prop40
 90
        0
102
RTVSPost2010PropOp40
 70
     1
102
RTVSPost2010Prop41ColorIndex
 90
       18
102
RTVSPost2010Prop41ColorRGB
 90
        0
102
RTVSPost2010PropOp41
 70
     1
102
RTVSPost2010Prop42
 90
       50
102
RTVSPost2010PropOp42
 70
     1
102
RTVSPost2010Prop43
 90
        3
102
RTVSPost2010PropOp43
 70
     1
102
RTVSPost2010Prop44ColorIndex
 90
        5
102
RTVSPost2010Prop44ColorRGB
 90
      255
102
RTVSPost2010PropOp44
 70
     1
102
RTVSPost2010Prop45
280
     0
102
RTVSPost2010PropOp45
 70
     1
102
RTVSPost2010Prop46
 90
       50
102
RTVSPost2010PropOp46
 70
     1
102
RTVSPost2010Prop47
 90
       50
102
RTVSPost2010PropOp47
 70
     1
102
RTVSPost2010Prop48
 90
       50
102
RTVSPost2010PropOp48
 70
     1
102
RTVSPost2010Prop49
280
     0
102
RTVSPost2010PropOp49
 70
     1
102
RTVSPost2010Prop50
 90
       50
102
RTVSPost2010PropOp50
 70
     1
102
RTVSPost2010Prop51ColorIndex
 90
      256
102
RTVSPost2010Prop51ColorRGB
 90
-16777216
102
RTVSPost2010PropOp51
 70
     0
102
RTVSPost2010Prop52
140
1.0
102
RTVSPost2010PropOp52
 70
     0
102
RTVSPost2010Prop53
 90
        2
102
RTVSPost2010PropOp53
 70
     1
102
RTVSPost2010Prop54
  1
strokes_ogs.tif
102
RTVSPost2010PropOp54
 70
     1
102
RTVSPost2010Prop55
280
     0
102
RTVSPost2010PropOp55
 70
     1
102
RTVSPost2010Prop56
140
1.0
102
RTVSPost2010PropOp56
 70
     1
102
RTVSPost2010Prop57
140
1.0
102
RTVSPost2010PropOp57
 70
     1
  0
XRECORD
  5
220FD
102
{ACAD_REACTORS
330
220FC
102
}
330
220FC
100
AcDbXrecord
280
     1
102
RTVSPost2010Prop28
280
     0
102
RTVSPost2010PropOp28
 70
     1
102
RTVSPost2010Prop29
280
     1
102
RTVSPost2010PropOp29
 70
     1
102
RTVSPost2010Prop30
280
     1
102
RTVSPost2010PropOp30
 70
     1
102
RTVSPost2010Prop31
280
     0
102
RTVSPost2010PropOp31
 70
     1
102
RTVSPost2010Prop32
280
     0
102
RTVSPost2010PropOp32
 70
     1
102
RTVSPost2010Prop33
280
     0
102
RTVSPost2010PropOp33
 70
     1
102
RTVSPost2010Prop34
280
     0
102
RTVSPost2010PropOp34
 70
     1
102
RTVSPost2010Prop35
280
     0
102
RTVSPost2010PropOp35
 70
     1
102
RTVSPost2010Prop36
280
     0
102
RTVSPost2010PropOp36
 70
     1
102
RTVSPost2010Prop37
 90
       50
102
RTVSPost2010PropOp37
 70
     1
102
RTVSPost2010Prop38
140
0.0
102
RTVSPost2010PropOp38
 70
     1
102
RTVSPost2010Prop39
140
1.0
102
RTVSPost2010PropOp39
 70
     1
102
RTVSPost2010Prop40
 90
        0
102
RTVSPost2010PropOp40
 70
     1
102
RTVSPost2010Prop41ColorIndex
 90
       18
102
RTVSPost2010Prop41ColorRGB
 90
        0
102
RTVSPost2010PropOp41
 70
     1
102
RTVSPost2010Prop42
 90
       50
102
RTVSPost2010PropOp42
 70
     1
102
RTVSPost2010Prop43
 90
        3
102
RTVSPost2010PropOp43
 70
     1
102
RTVSPost2010Prop44ColorIndex
 90
        5
102
RTVSPost2010Prop44ColorRGB
 90
      255
102
RTVSPost2010PropOp44
 70
     1
102
RTVSPost2010Prop45
280
     0
102
RTVSPost2010PropOp45
 70
     1
102
RTVSPost2010Prop46
 90
       50
102
RTVSPost2010PropOp46
 70
     1
102
RTVSPost2010Prop47
 90
       50
102
RTVSPost2010PropOp47
 70
     1
102
RTVSPost2010Prop48
 90
       50
102
RTVSPost2010PropOp48
 70
     1
102
RTVSPost2010Prop49
280
     0
102
RTVSPost2010PropOp49
 70
     1
102
RTVSPost2010Prop50
 90
       50
102
RTVSPost2010PropOp50
 70
     1
102
RTVSPost2010Prop51ColorIndex
 90
      256
102
RTVSPost2010Prop51ColorRGB
 90
-16777216
102
RTVSPost2010PropOp51
 70
     0
102
RTVSPost2010Prop52
140
1.0
102
RTVSPost2010PropOp52
 70
     0
102
RTVSPost2010Prop53
 90
        2
102
RTVSPost2010PropOp53
 70
     1
102
RTVSPost2010Prop54
  1
strokes_ogs.tif
102
RTVSPost2010PropOp54
 70
     1
102
RTVSPost2010Prop55
280
     0
102
RTVSPost2010PropOp55
 70
     1
102
RTVSPost2010Prop56
140
1.0
102
RTVSPost2010PropOp56
 70
     1
102
RTVSPost2010Prop57
140
1.0
102
RTVSPost2010PropOp57
 70
     1
  0
XRECORD
  5
22109
102
{ACAD_REACTORS
330
22108
102
}
330
22108
100
AcDbXrecord
280
     1
102
RTVSPost2010Prop28
280
     0
102
RTVSPost2010PropOp28
 70
     1
102
RTVSPost2010Prop29
280
     1
102
RTVSPost2010PropOp29
 70
     1
102
RTVSPost2010Prop30
280
     1
102
RTVSPost2010PropOp30
 70
     1
102
RTVSPost2010Prop31
280
     0
102
RTVSPost2010PropOp31
 70
     1
102
RTVSPost2010Prop32
280
     0
102
RTVSPost2010PropOp32
 70
     1
102
RTVSPost2010Prop33
280
     0
102
RTVSPost2010PropOp33
 70
     1
102
RTVSPost2010Prop34
280
     0
102
RTVSPost2010PropOp34
 70
     1
102
RTVSPost2010Prop35
280
     0
102
RTVSPost2010PropOp35
 70
     1
102
RTVSPost2010Prop36
280
     0
102
RTVSPost2010PropOp36
 70
     1
102
RTVSPost2010Prop37
 90
       50
102
RTVSPost2010PropOp37
 70
     0
102
RTVSPost2010Prop38
140
0.0
102
RTVSPost2010PropOp38
 70
     0
102
RTVSPost2010Prop39
140
1.0
102
RTVSPost2010PropOp39
 70
     0
102
RTVSPost2010Prop40
 90
        0
102
RTVSPost2010PropOp40
 70
     0
102
RTVSPost2010Prop41ColorIndex
 90
       18
102
RTVSPost2010Prop41ColorRGB
 90
        0
102
RTVSPost2010PropOp41
 70
     0
102
RTVSPost2010Prop42
 90
       50
102
RTVSPost2010PropOp42
 70
     0
102
RTVSPost2010Prop43
 90
        3
102
RTVSPost2010PropOp43
 70
     0
102
RTVSPost2010Prop44ColorIndex
 90
        5
102
RTVSPost2010Prop44ColorRGB
 90
      255
102
RTVSPost2010PropOp44
 70
     0
102
RTVSPost2010Prop45
280
     0
102
RTVSPost2010PropOp45
 70
     1
102
RTVSPost2010Prop46
 90
       50
102
RTVSPost2010PropOp46
 70
     0
102
RTVSPost2010Prop47
 90
       50
102
RTVSPost2010PropOp47
 70
     0
102
RTVSPost2010Prop48
 90
       50
102
RTVSPost2010PropOp48
 70
     0
102
RTVSPost2010Prop49
280
     0
102
RTVSPost2010PropOp49
 70
     1
102
RTVSPost2010Prop50
 90
       50
102
RTVSPost2010PropOp50
 70
     0
102
RTVSPost2010Prop51ColorIndex
 90
      256
102
RTVSPost2010Prop51ColorRGB
 90
-16777216
102
RTVSPost2010PropOp51
 70
     0
102
RTVSPost2010Prop52
140
1.0
102
RTVSPost2010PropOp52
 70
     0
102
RTVSPost2010Prop53
 90
        2
102
RTVSPost2010PropOp53
 70
     0
102
RTVSPost2010Prop54
  1
strokes_ogs.tif
102
RTVSPost2010PropOp54
 70
     0
102
RTVSPost2010Prop55
280
     0
102
RTVSPost2010PropOp55
 70
     1
102
RTVSPost2010Prop56
140
1.0
102
RTVSPost2010PropOp56
 70
     0
102
RTVSPost2010Prop57
140
1.0
102
RTVSPost2010PropOp57
 70
     0
  0
XRECORD
  5
220F5
102
{ACAD_REACTORS
330
220F4
102
}
330
220F4
100
AcDbXrecord
280
     1
102
RTVSPost2010Prop28
280
     0
102
RTVSPost2010PropOp28
 70
     1
102
RTVSPost2010Prop29
280
     1
102
RTVSPost2010PropOp29
 70
     1
102
RTVSPost2010Prop30
280
     1
102
RTVSPost2010PropOp30
 70
     1
102
RTVSPost2010Prop31
280
     0
102
RTVSPost2010PropOp31
 70
     1
102
RTVSPost2010Prop32
280
     0
102
RTVSPost2010PropOp32
 70
     1
102
RTVSPost2010Prop33
280
     0
102
RTVSPost2010PropOp33
 70
     1
102
RTVSPost2010Prop34
280
     0
102
RTVSPost2010PropOp34
 70
     1
102
RTVSPost2010Prop35
280
     0
102
RTVSPost2010PropOp35
 70
     1
102
RTVSPost2010Prop36
280
     0
102
RTVSPost2010PropOp36
 70
     1
102
RTVSPost2010Prop37
 90
       50
102
RTVSPost2010PropOp37
 70
     1
102
RTVSPost2010Prop38
140
0.0
102
RTVSPost2010PropOp38
 70
     1
102
RTVSPost2010Prop39
140
1.0
102
RTVSPost2010PropOp39
 70
     1
102
RTVSPost2010Prop40
 90
        0
102
RTVSPost2010PropOp40
 70
     1
102
RTVSPost2010Prop41ColorIndex
 90
       18
102
RTVSPost2010Prop41ColorRGB
 90
        0
102
RTVSPost2010PropOp41
 70
     1
102
RTVSPost2010Prop42
 90
       50
102
RTVSPost2010PropOp42
 70
     1
102
RTVSPost2010Prop43
 90
        3
102
RTVSPost2010PropOp43
 70
     1
102
RTVSPost2010Prop44ColorIndex
 90
        5
102
RTVSPost2010Prop44ColorRGB
 90
      255
102
RTVSPost2010PropOp44
 70
     1
102
RTVSPost2010Prop45
280
     0
102
RTVSPost2010PropOp45
 70
     1
102
RTVSPost2010Prop46
 90
       50
102
RTVSPost2010PropOp46
 70
     1
102
RTVSPost2010Prop47
 90
       50
102
RTVSPost2010PropOp47
 70
     1
102
RTVSPost2010Prop48
 90
       50
102
RTVSPost2010PropOp48
 70
     1
102
RTVSPost2010Prop49
280
     0
102
RTVSPost2010PropOp49
 70
     1
102
RTVSPost2010Prop50
 90
       50
102
RTVSPost2010PropOp50
 70
     1
102
RTVSPost2010Prop51ColorIndex
 90
      256
102
RTVSPost2010Prop51ColorRGB
 90
-16777216
102
RTVSPost2010PropOp51
 70
     0
102
RTVSPost2010Prop52
140
1.0
102
RTVSPost2010PropOp52
 70
     0
102
RTVSPost2010Prop53
 90
        2
102
RTVSPost2010PropOp53
 70
     1
102
RTVSPost2010Prop54
  1
strokes_ogs.tif
102
RTVSPost2010PropOp54
 70
     1
102
RTVSPost2010Prop55
280
     0
102
RTVSPost2010PropOp55
 70
     1
102
RTVSPost2010Prop56
140
1.0
102
RTVSPost2010PropOp56
 70
     1
102
RTVSPost2010Prop57
140
1.0
102
RTVSPost2010PropOp57
 70
     1
  0
XRECORD
  5
2210B
102
{ACAD_REACTORS
330
2210A
102
}
330
2210A
100
AcDbXrecord
280
     1
102
RTVSPost2010Prop28
280
     0
102
RTVSPost2010PropOp28
 70
     1
102
RTVSPost2010Prop29
280
     1
102
RTVSPost2010PropOp29
 70
     1
102
RTVSPost2010Prop30
280
     1
102
RTVSPost2010PropOp30
 70
     1
102
RTVSPost2010Prop31
280
     0
102
RTVSPost2010PropOp31
 70
     1
102
RTVSPost2010Prop32
280
     0
102
RTVSPost2010PropOp32
 70
     1
102
RTVSPost2010Prop33
280
     0
102
RTVSPost2010PropOp33
 70
     1
102
RTVSPost2010Prop34
280
     0
102
RTVSPost2010PropOp34
 70
     1
102
RTVSPost2010Prop35
280
     0
102
RTVSPost2010PropOp35
 70
     1
102
RTVSPost2010Prop36
280
     0
102
RTVSPost2010PropOp36
 70
     1
102
RTVSPost2010Prop37
 90
       50
102
RTVSPost2010PropOp37
 70
     0
102
RTVSPost2010Prop38
140
0.0
102
RTVSPost2010PropOp38
 70
     0
102
RTVSPost2010Prop39
140
1.0
102
RTVSPost2010PropOp39
 70
     0
102
RTVSPost2010Prop40
 90
        0
102
RTVSPost2010PropOp40
 70
     0
102
RTVSPost2010Prop41ColorIndex
 90
       18
102
RTVSPost2010Prop41ColorRGB
 90
        0
102
RTVSPost2010PropOp41
 70
     0
102
RTVSPost2010Prop42
 90
       50
102
RTVSPost2010PropOp42
 70
     0
102
RTVSPost2010Prop43
 90
        3
102
RTVSPost2010PropOp43
 70
     0
102
RTVSPost2010Prop44ColorIndex
 90
        5
102
RTVSPost2010Prop44ColorRGB
 90
      255
102
RTVSPost2010PropOp44
 70
     0
102
RTVSPost2010Prop45
280
     0
102
RTVSPost2010PropOp45
 70
     1
102
RTVSPost2010Prop46
 90
       50
102
RTVSPost2010PropOp46
 70
     0
102
RTVSPost2010Prop47
 90
       50
102
RTVSPost2010PropOp47
 70
     0
102
RTVSPost2010Prop48
 90
       50
102
RTVSPost2010PropOp48
 70
     0
102
RTVSPost2010Prop49
280
     0
102
RTVSPost2010PropOp49
 70
     1
102
RTVSPost2010Prop50
 90
       50
102
RTVSPost2010PropOp50
 70
     0
102
RTVSPost2010Prop51ColorIndex
 90
      256
102
RTVSPost2010Prop51ColorRGB
 90
-16777216
102
RTVSPost2010PropOp51
 70
     0
102
RTVSPost2010Prop52
140
1.0
102
RTVSPost2010PropOp52
 70
     0
102
RTVSPost2010Prop53
 90
        2
102
RTVSPost2010PropOp53
 70
     0
102
RTVSPost2010Prop54
  1
strokes_ogs.tif
102
RTVSPost2010PropOp54
 70
     0
102
RTVSPost2010Prop55
280
     0
102
RTVSPost2010PropOp55
 70
     1
102
RTVSPost2010Prop56
140
1.0
102
RTVSPost2010PropOp56
 70
     0
102
RTVSPost2010Prop57
140
1.0
102
RTVSPost2010PropOp57
 70
     0
  0
XRECORD
  5
220ED
102
{ACAD_REACTORS
330
220EC
102
}
330
220EC
100
AcDbXrecord
280
     1
102
RTVSPost2010Prop28
280
     0
102
RTVSPost2010PropOp28
 70
     1
102
RTVSPost2010Prop29
280
     1
102
RTVSPost2010PropOp29
 70
     1
102
RTVSPost2010Prop30
280
     1
102
RTVSPost2010PropOp30
 70
     1
102
RTVSPost2010Prop31
280
     0
102
RTVSPost2010PropOp31
 70
     1
102
RTVSPost2010Prop32
280
     0
102
RTVSPost2010PropOp32
 70
     1
102
RTVSPost2010Prop33
280
     0
102
RTVSPost2010PropOp33
 70
     1
102
RTVSPost2010Prop34
280
     0
102
RTVSPost2010PropOp34
 70
     1
102
RTVSPost2010Prop35
280
     0
102
RTVSPost2010PropOp35
 70
     1
102
RTVSPost2010Prop36
280
     0
102
RTVSPost2010PropOp36
 70
     1
102
RTVSPost2010Prop37
 90
       50
102
RTVSPost2010PropOp37
 70
     1
102
RTVSPost2010Prop38
140
0.0
102
RTVSPost2010PropOp38
 70
     1
102
RTVSPost2010Prop39
140
1.0
102
RTVSPost2010PropOp39
 70
     1
102
RTVSPost2010Prop40
 90
        0
102
RTVSPost2010PropOp40
 70
     1
102
RTVSPost2010Prop41ColorIndex
 90
       18
102
RTVSPost2010Prop41ColorRGB
 90
        0
102
RTVSPost2010PropOp41
 70
     1
102
RTVSPost2010Prop42
 90
       50
102
RTVSPost2010PropOp42
 70
     1
102
RTVSPost2010Prop43
 90
        3
102
RTVSPost2010PropOp43
 70
     1
102
RTVSPost2010Prop44ColorIndex
 90
        5
102
RTVSPost2010Prop44ColorRGB
 90
      255
102
RTVSPost2010PropOp44
 70
     1
102
RTVSPost2010Prop45
280
     0
102
RTVSPost2010PropOp45
 70
     1
102
RTVSPost2010Prop46
 90
       50
102
RTVSPost2010PropOp46
 70
     1
102
RTVSPost2010Prop47
 90
       50
102
RTVSPost2010PropOp47
 70
     1
102
RTVSPost2010Prop48
 90
       50
102
RTVSPost2010PropOp48
 70
     1
102
RTVSPost2010Prop49
280
     0
102
RTVSPost2010PropOp49
 70
     1
102
RTVSPost2010Prop50
 90
       50
102
RTVSPost2010PropOp50
 70
     1
102
RTVSPost2010Prop51ColorIndex
 90
      256
102
RTVSPost2010Prop51ColorRGB
 90
-16777216
102
RTVSPost2010PropOp51
 70
     0
102
RTVSPost2010Prop52
140
1.0
102
RTVSPost2010PropOp52
 70
     0
102
RTVSPost2010Prop53
 90
        2
102
RTVSPost2010PropOp53
 70
     1
102
RTVSPost2010Prop54
  1
strokes_ogs.tif
102
RTVSPost2010PropOp54
 70
     1
102
RTVSPost2010Prop55
280
     0
102
RTVSPost2010PropOp55
 70
     1
102
RTVSPost2010Prop56
140
1.0
102
RTVSPost2010PropOp56
 70
     1
102
RTVSPost2010Prop57
140
1.0
102
RTVSPost2010PropOp57
 70
     1
  0
XRECORD
  5
22107
102
{ACAD_REACTORS
330
22106
102
}
330
22106
100
AcDbXrecord
280
     1
102
RTVSPost2010Prop28
280
     0
102
RTVSPost2010PropOp28
 70
     1
102
RTVSPost2010Prop29
280
     1
102
RTVSPost2010PropOp29
 70
     1
102
RTVSPost2010Prop30
280
     1
102
RTVSPost2010PropOp30
 70
     1
102
RTVSPost2010Prop31
280
     0
102
RTVSPost2010PropOp31
 70
     1
102
RTVSPost2010Prop32
280
     0
102
RTVSPost2010PropOp32
 70
     1
102
RTVSPost2010Prop33
280
     0
102
RTVSPost2010PropOp33
 70
     1
102
RTVSPost2010Prop34
280
     0
102
RTVSPost2010PropOp34
 70
     1
102
RTVSPost2010Prop35
280
     0
102
RTVSPost2010PropOp35
 70
     1
102
RTVSPost2010Prop36
280
     0
102
RTVSPost2010PropOp36
 70
     1
102
RTVSPost2010Prop37
 90
       50
102
RTVSPost2010PropOp37
 70
     1
102
RTVSPost2010Prop38
140
0.0
102
RTVSPost2010PropOp38
 70
     1
102
RTVSPost2010Prop39
140
1.0
102
RTVSPost2010PropOp39
 70
     1
102
RTVSPost2010Prop40
 90
        0
102
RTVSPost2010PropOp40
 70
     1
102
RTVSPost2010Prop41ColorIndex
 90
       18
102
RTVSPost2010Prop41ColorRGB
 90
        0
102
RTVSPost2010PropOp41
 70
     1
102
RTVSPost2010Prop42
 90
       50
102
RTVSPost2010PropOp42
 70
     1
102
RTVSPost2010Prop43
 90
        3
102
RTVSPost2010PropOp43
 70
     1
102
RTVSPost2010Prop44ColorIndex
 90
        5
102
RTVSPost2010Prop44ColorRGB
 90
      255
102
RTVSPost2010PropOp44
 70
     1
102
RTVSPost2010Prop45
280
     0
102
RTVSPost2010PropOp45
 70
     1
102
RTVSPost2010Prop46
 90
       50
102
RTVSPost2010PropOp46
 70
     1
102
RTVSPost2010Prop47
 90
       50
102
RTVSPost2010PropOp47
 70
     1
102
RTVSPost2010Prop48
 90
       50
102
RTVSPost2010PropOp48
 70
     1
102
RTVSPost2010Prop49
280
     0
102
RTVSPost2010PropOp49
 70
     1
102
RTVSPost2010Prop50
 90
       50
102
RTVSPost2010PropOp50
 70
     1
102
RTVSPost2010Prop51ColorIndex
 90
      256
102
RTVSPost2010Prop51ColorRGB
 90
-16777216
102
RTVSPost2010PropOp51
 70
     0
102
RTVSPost2010Prop52
140
1.0
102
RTVSPost2010PropOp52
 70
     0
102
RTVSPost2010Prop53
 90
        2
102
RTVSPost2010PropOp53
 70
     1
102
RTVSPost2010Prop54
  1
strokes_ogs.tif
102
RTVSPost2010PropOp54
 70
     1
102
RTVSPost2010Prop55
280
     0
102
RTVSPost2010PropOp55
 70
     1
102
RTVSPost2010Prop56
140
1.0
102
RTVSPost2010PropOp56
 70
     1
102
RTVSPost2010Prop57
140
1.0
102
RTVSPost2010PropOp57
 70
     1
  0
XRECORD
  5
22105
102
{ACAD_REACTORS
330
22104
102
}
330
22104
100
AcDbXrecord
280
     1
102
RTVSPost2010Prop28
280
     0
102
RTVSPost2010PropOp28
 70
     1
102
RTVSPost2010Prop29
280
     1
102
RTVSPost2010PropOp29
 70
     1
102
RTVSPost2010Prop30
280
     1
102
RTVSPost2010PropOp30
 70
     1
102
RTVSPost2010Prop31
280
     0
102
RTVSPost2010PropOp31
 70
     1
102
RTVSPost2010Prop32
280
     0
102
RTVSPost2010PropOp32
 70
     1
102
RTVSPost2010Prop33
280
     0
102
RTVSPost2010PropOp33
 70
     1
102
RTVSPost2010Prop34
280
     0
102
RTVSPost2010PropOp34
 70
     1
102
RTVSPost2010Prop35
280
     0
102
RTVSPost2010PropOp35
 70
     1
102
RTVSPost2010Prop36
280
     0
102
RTVSPost2010PropOp36
 70
     1
102
RTVSPost2010Prop37
 90
       50
102
RTVSPost2010PropOp37
 70
     1
102
RTVSPost2010Prop38
140
0.0
102
RTVSPost2010PropOp38
 70
     1
102
RTVSPost2010Prop39
140
1.0
102
RTVSPost2010PropOp39
 70
     1
102
RTVSPost2010Prop40
 90
        0
102
RTVSPost2010PropOp40
 70
     1
102
RTVSPost2010Prop41ColorIndex
 90
       18
102
RTVSPost2010Prop41ColorRGB
 90
        0
102
RTVSPost2010PropOp41
 70
     1
102
RTVSPost2010Prop42
 90
       50
102
RTVSPost2010PropOp42
 70
     1
102
RTVSPost2010Prop43
 90
        3
102
RTVSPost2010PropOp43
 70
     1
102
RTVSPost2010Prop44ColorIndex
 90
        5
102
RTVSPost2010Prop44ColorRGB
 90
      255
102
RTVSPost2010PropOp44
 70
     1
102
RTVSPost2010Prop45
280
     0
102
RTVSPost2010PropOp45
 70
     1
102
RTVSPost2010Prop46
 90
       50
102
RTVSPost2010PropOp46
 70
     1
102
RTVSPost2010Prop47
 90
       50
102
RTVSPost2010PropOp47
 70
     1
102
RTVSPost2010Prop48
 90
       50
102
RTVSPost2010PropOp48
 70
     1
102
RTVSPost2010Prop49
280
     0
102
RTVSPost2010PropOp49
 70
     1
102
RTVSPost2010Prop50
 90
       50
102
RTVSPost2010PropOp50
 70
     1
102
RTVSPost2010Prop51ColorIndex
 90
      256
102
RTVSPost2010Prop51ColorRGB
 90
-16777216
102
RTVSPost2010PropOp51
 70
     0
102
RTVSPost2010Prop52
140
1.0
102
RTVSPost2010PropOp52
 70
     0
102
RTVSPost2010Prop53
 90
        2
102
RTVSPost2010PropOp53
 70
     1
102
RTVSPost2010Prop54
  1
strokes_ogs.tif
102
RTVSPost2010PropOp54
 70
     1
102
RTVSPost2010Prop55
280
     0
102
RTVSPost2010PropOp55
 70
     1
102
RTVSPost2010Prop56
140
1.0
102
RTVSPost2010PropOp56
 70
     1
102
RTVSPost2010Prop57
140
1.0
102
RTVSPost2010PropOp57
 70
     1
  0
XRECORD
  5
220FF
102
{ACAD_REACTORS
330
220FE
102
}
330
220FE
100
AcDbXrecord
280
     1
102
RTVSPost2010Prop28
280
     0
102
RTVSPost2010PropOp28
 70
     1
102
RTVSPost2010Prop29
280
     1
102
RTVSPost2010PropOp29
 70
     1
102
RTVSPost2010Prop30
280
     1
102
RTVSPost2010PropOp30
 70
     1
102
RTVSPost2010Prop31
280
     0
102
RTVSPost2010PropOp31
 70
     1
102
RTVSPost2010Prop32
280
     0
102
RTVSPost2010PropOp32
 70
     1
102
RTVSPost2010Prop33
280
     0
102
RTVSPost2010PropOp33
 70
     1
102
RTVSPost2010Prop34
280
     0
102
RTVSPost2010PropOp34
 70
     1
102
RTVSPost2010Prop35
280
     0
102
RTVSPost2010PropOp35
 70
     1
102
RTVSPost2010Prop36
280
     0
102
RTVSPost2010PropOp36
 70
     1
102
RTVSPost2010Prop37
 90
       50
102
RTVSPost2010PropOp37
 70
     1
102
RTVSPost2010Prop38
140
0.0
102
RTVSPost2010PropOp38
 70
     1
102
RTVSPost2010Prop39
140
1.0
102
RTVSPost2010PropOp39
 70
     1
102
RTVSPost2010Prop40
 90
        0
102
RTVSPost2010PropOp40
 70
     1
102
RTVSPost2010Prop41ColorIndex
 90
       18
102
RTVSPost2010Prop41ColorRGB
 90
        0
102
RTVSPost2010PropOp41
 70
     1
102
RTVSPost2010Prop42
 90
       50
102
RTVSPost2010PropOp42
 70
     1
102
RTVSPost2010Prop43
 90
        3
102
RTVSPost2010PropOp43
 70
     1
102
RTVSPost2010Prop44ColorIndex
 90
        5
102
RTVSPost2010Prop44ColorRGB
 90
      255
102
RTVSPost2010PropOp44
 70
     1
102
RTVSPost2010Prop45
280
     0
102
RTVSPost2010PropOp45
 70
     1
102
RTVSPost2010Prop46
 90
       50
102
RTVSPost2010PropOp46
 70
     1
102
RTVSPost2010Prop47
 90
       50
102
RTVSPost2010PropOp47
 70
     1
102
RTVSPost2010Prop48
 90
       50
102
RTVSPost2010PropOp48
 70
     1
102
RTVSPost2010Prop49
280
     0
102
RTVSPost2010PropOp49
 70
     1
102
RTVSPost2010Prop50
 90
       50
102
RTVSPost2010PropOp50
 70
     1
102
RTVSPost2010Prop51ColorIndex
 90
      256
102
RTVSPost2010Prop51ColorRGB
 90
-16777216
102
RTVSPost2010PropOp51
 70
     0
102
RTVSPost2010Prop52
140
1.0
102
RTVSPost2010PropOp52
 70
     0
102
RTVSPost2010Prop53
 90
        2
102
RTVSPost2010PropOp53
 70
     1
102
RTVSPost2010Prop54
  1
strokes_ogs.tif
102
RTVSPost2010PropOp54
 70
     1
102
RTVSPost2010Prop55
280
     0
102
RTVSPost2010PropOp55
 70
     1
102
RTVSPost2010Prop56
140
1.0
102
RTVSPost2010PropOp56
 70
     1
102
RTVSPost2010Prop57
140
1.0
102
RTVSPost2010PropOp57
 70
     1
  0
XRECORD
  5
22101
102
{ACAD_REACTORS
330
22100
102
}
330
22100
100
AcDbXrecord
280
     1
102
RTVSPost2010Prop28
280
     0
102
RTVSPost2010PropOp28
 70
     1
102
RTVSPost2010Prop29
280
     1
102
RTVSPost2010PropOp29
 70
     1
102
RTVSPost2010Prop30
280
     1
102
RTVSPost2010PropOp30
 70
     1
102
RTVSPost2010Prop31
280
     0
102
RTVSPost2010PropOp31
 70
     1
102
RTVSPost2010Prop32
280
     0
102
RTVSPost2010PropOp32
 70
     1
102
RTVSPost2010Prop33
280
     0
102
RTVSPost2010PropOp33
 70
     1
102
RTVSPost2010Prop34
280
     0
102
RTVSPost2010PropOp34
 70
     1
102
RTVSPost2010Prop35
280
     0
102
RTVSPost2010PropOp35
 70
     1
102
RTVSPost2010Prop36
280
     0
102
RTVSPost2010PropOp36
 70
     1
102
RTVSPost2010Prop37
 90
       50
102
RTVSPost2010PropOp37
 70
     1
102
RTVSPost2010Prop38
140
0.0
102
RTVSPost2010PropOp38
 70
     1
102
RTVSPost2010Prop39
140
1.0
102
RTVSPost2010PropOp39
 70
     1
102
RTVSPost2010Prop40
 90
        0
102
RTVSPost2010PropOp40
 70
     1
102
RTVSPost2010Prop41ColorIndex
 90
       18
102
RTVSPost2010Prop41ColorRGB
 90
        0
102
RTVSPost2010PropOp41
 70
     1
102
RTVSPost2010Prop42
 90
       50
102
RTVSPost2010PropOp42
 70
     1
102
RTVSPost2010Prop43
 90
        3
102
RTVSPost2010PropOp43
 70
     1
102
RTVSPost2010Prop44ColorIndex
 90
        5
102
RTVSPost2010Prop44ColorRGB
 90
      255
102
RTVSPost2010PropOp44
 70
     1
102
RTVSPost2010Prop45
280
     0
102
RTVSPost2010PropOp45
 70
     1
102
RTVSPost2010Prop46
 90
       50
102
RTVSPost2010PropOp46
 70
     1
102
RTVSPost2010Prop47
 90
       50
102
RTVSPost2010PropOp47
 70
     1
102
RTVSPost2010Prop48
 90
       50
102
RTVSPost2010PropOp48
 70
     1
102
RTVSPost2010Prop49
280
     0
102
RTVSPost2010PropOp49
 70
     1
102
RTVSPost2010Prop50
 90
       50
102
RTVSPost2010PropOp50
 70
     1
102
RTVSPost2010Prop51ColorIndex
 90
      256
102
RTVSPost2010Prop51ColorRGB
 90
-16777216
102
RTVSPost2010PropOp51
 70
     0
102
RTVSPost2010Prop52
140
1.0
102
RTVSPost2010PropOp52
 70
     0
102
RTVSPost2010Prop53
 90
        2
102
RTVSPost2010PropOp53
 70
     1
102
RTVSPost2010Prop54
  1
strokes_ogs.tif
102
RTVSPost2010PropOp54
 70
     1
102
RTVSPost2010Prop55
280
     0
102
RTVSPost2010PropOp55
 70
     1
102
RTVSPost2010Prop56
140
1.0
102
RTVSPost2010PropOp56
 70
     1
102
RTVSPost2010Prop57
140
1.0
102
RTVSPost2010PropOp57
 70
     1
  0
XRECORD
  5
220F3
102
{ACAD_REACTORS
330
220F2
102
}
330
220F2
100
AcDbXrecord
280
     1
102
RTVSPost2010Prop28
280
     0
102
RTVSPost2010PropOp28
 70
     1
102
RTVSPost2010Prop29
280
     1
102
RTVSPost2010PropOp29
 70
     1
102
RTVSPost2010Prop30
280
     1
102
RTVSPost2010PropOp30
 70
     1
102
RTVSPost2010Prop31
280
     0
102
RTVSPost2010PropOp31
 70
     1
102
RTVSPost2010Prop32
280
     0
102
RTVSPost2010PropOp32
 70
     1
102
RTVSPost2010Prop33
280
     0
102
RTVSPost2010PropOp33
 70
     1
102
RTVSPost2010Prop34
280
     0
102
RTVSPost2010PropOp34
 70
     1
102
RTVSPost2010Prop35
280
     0
102
RTVSPost2010PropOp35
 70
     1
102
RTVSPost2010Prop36
280
     0
102
RTVSPost2010PropOp36
 70
     1
102
RTVSPost2010Prop37
 90
       50
102
RTVSPost2010PropOp37
 70
     1
102
RTVSPost2010Prop38
140
0.0
102
RTVSPost2010PropOp38
 70
     1
102
RTVSPost2010Prop39
140
1.0
102
RTVSPost2010PropOp39
 70
     1
102
RTVSPost2010Prop40
 90
        0
102
RTVSPost2010PropOp40
 70
     1
102
RTVSPost2010Prop41ColorIndex
 90
       18
102
RTVSPost2010Prop41ColorRGB
 90
        0
102
RTVSPost2010PropOp41
 70
     1
102
RTVSPost2010Prop42
 90
       50
102
RTVSPost2010PropOp42
 70
     1
102
RTVSPost2010Prop43
 90
        3
102
RTVSPost2010PropOp43
 70
     1
102
RTVSPost2010Prop44ColorIndex
 90
        5
102
RTVSPost2010Prop44ColorRGB
 90
      255
102
RTVSPost2010PropOp44
 70
     1
102
RTVSPost2010Prop45
280
     0
102
RTVSPost2010PropOp45
 70
     1
102
RTVSPost2010Prop46
 90
       50
102
RTVSPost2010PropOp46
 70
     1
102
RTVSPost2010Prop47
 90
       50
102
RTVSPost2010PropOp47
 70
     1
102
RTVSPost2010Prop48
 90
       50
102
RTVSPost2010PropOp48
 70
     1
102
RTVSPost2010Prop49
280
     0
102
RTVSPost2010PropOp49
 70
     1
102
RTVSPost2010Prop50
 90
       50
102
RTVSPost2010PropOp50
 70
     1
102
RTVSPost2010Prop51ColorIndex
 90
      256
102
RTVSPost2010Prop51ColorRGB
 90
-16777216
102
RTVSPost2010PropOp51
 70
     0
102
RTVSPost2010Prop52
140
1.0
102
RTVSPost2010PropOp52
 70
     0
102
RTVSPost2010Prop53
 90
        2
102
RTVSPost2010PropOp53
 70
     1
102
RTVSPost2010Prop54
  1
strokes_ogs.tif
102
RTVSPost2010PropOp54
 70
     1
102
RTVSPost2010Prop55
280
     0
102
RTVSPost2010PropOp55
 70
     1
102
RTVSPost2010Prop56
140
1.0
102
RTVSPost2010PropOp56
 70
     1
102
RTVSPost2010Prop57
140
1.0
102
RTVSPost2010PropOp57
 70
     1
  0
XRECORD
  5
220FB
102
{ACAD_REACTORS
330
220FA
102
}
330
220FA
100
AcDbXrecord
280
     1
102
RTVSPost2010Prop28
280
     0
102
RTVSPost2010PropOp28
 70
     1
102
RTVSPost2010Prop29
280
     1
102
RTVSPost2010PropOp29
 70
     1
102
RTVSPost2010Prop30
280
     1
102
RTVSPost2010PropOp30
 70
     1
102
RTVSPost2010Prop31
280
     0
102
RTVSPost2010PropOp31
 70
     1
102
RTVSPost2010Prop32
280
     0
102
RTVSPost2010PropOp32
 70
     1
102
RTVSPost2010Prop33
280
     0
102
RTVSPost2010PropOp33
 70
     1
102
RTVSPost2010Prop34
280
     0
102
RTVSPost2010PropOp34
 70
     1
102
RTVSPost2010Prop35
280
     0
102
RTVSPost2010PropOp35
 70
     1
102
RTVSPost2010Prop36
280
     0
102
RTVSPost2010PropOp36
 70
     1
102
RTVSPost2010Prop37
 90
       50
102
RTVSPost2010PropOp37
 70
     1
102
RTVSPost2010Prop38
140
0.0
102
RTVSPost2010PropOp38
 70
     1
102
RTVSPost2010Prop39
140
1.0
102
RTVSPost2010PropOp39
 70
     1
102
RTVSPost2010Prop40
 90
        0
102
RTVSPost2010PropOp40
 70
     1
102
RTVSPost2010Prop41ColorIndex
 90
       18
102
RTVSPost2010Prop41ColorRGB
 90
        0
102
RTVSPost2010PropOp41
 70
     1
102
RTVSPost2010Prop42
 90
       50
102
RTVSPost2010PropOp42
 70
     1
102
RTVSPost2010Prop43
 90
        3
102
RTVSPost2010PropOp43
 70
     1
102
RTVSPost2010Prop44ColorIndex
 90
        5
102
RTVSPost2010Prop44ColorRGB
 90
      255
102
RTVSPost2010PropOp44
 70
     1
102
RTVSPost2010Prop45
280
     0
102
RTVSPost2010PropOp45
 70
     1
102
RTVSPost2010Prop46
 90
       50
102
RTVSPost2010PropOp46
 70
     1
102
RTVSPost2010Prop47
 90
       50
102
RTVSPost2010PropOp47
 70
     1
102
RTVSPost2010Prop48
 90
       50
102
RTVSPost2010PropOp48
 70
     1
102
RTVSPost2010Prop49
280
     0
102
RTVSPost2010PropOp49
 70
     1
102
RTVSPost2010Prop50
 90
       50
102
RTVSPost2010PropOp50
 70
     1
102
RTVSPost2010Prop51ColorIndex
 90
      256
102
RTVSPost2010Prop51ColorRGB
 90
-16777216
102
RTVSPost2010PropOp51
 70
     0
102
RTVSPost2010Prop52
140
1.0
102
RTVSPost2010PropOp52
 70
     0
102
RTVSPost2010Prop53
 90
        2
102
RTVSPost2010PropOp53
 70
     1
102
RTVSPost2010Prop54
  1
strokes_ogs.tif
102
RTVSPost2010PropOp54
 70
     1
102
RTVSPost2010Prop55
280
     0
102
RTVSPost2010PropOp55
 70
     1
102
RTVSPost2010Prop56
140
1.0
102
RTVSPost2010PropOp56
 70
     1
102
RTVSPost2010Prop57
140
1.0
102
RTVSPost2010PropOp57
 70
     1
  0
XRECORD
  5
22103
102
{ACAD_REACTORS
330
22102
102
}
330
22102
100
AcDbXrecord
280
     1
102
RTVSPost2010Prop28
280
     0
102
RTVSPost2010PropOp28
 70
     1
102
RTVSPost2010Prop29
280
     1
102
RTVSPost2010PropOp29
 70
     1
102
RTVSPost2010Prop30
280
     1
102
RTVSPost2010PropOp30
 70
     1
102
RTVSPost2010Prop31
280
     0
102
RTVSPost2010PropOp31
 70
     1
102
RTVSPost2010Prop32
280
     0
102
RTVSPost2010PropOp32
 70
     1
102
RTVSPost2010Prop33
280
     0
102
RTVSPost2010PropOp33
 70
     1
102
RTVSPost2010Prop34
280
     0
102
RTVSPost2010PropOp34
 70
     1
102
RTVSPost2010Prop35
280
     0
102
RTVSPost2010PropOp35
 70
     1
102
RTVSPost2010Prop36
280
     0
102
RTVSPost2010PropOp36
 70
     1
102
RTVSPost2010Prop37
 90
       50
102
RTVSPost2010PropOp37
 70
     1
102
RTVSPost2010Prop38
140
0.0
102
RTVSPost2010PropOp38
 70
     1
102
RTVSPost2010Prop39
140
1.0
102
RTVSPost2010PropOp39
 70
     1
102
RTVSPost2010Prop40
 90
        0
102
RTVSPost2010PropOp40
 70
     1
102
RTVSPost2010Prop41ColorIndex
 90
       18
102
RTVSPost2010Prop41ColorRGB
 90
        0
102
RTVSPost2010PropOp41
 70
     1
102
RTVSPost2010Prop42
 90
       50
102
RTVSPost2010PropOp42
 70
     1
102
RTVSPost2010Prop43
 90
        3
102
RTVSPost2010PropOp43
 70
     1
102
RTVSPost2010Prop44ColorIndex
 90
        5
102
RTVSPost2010Prop44ColorRGB
 90
      255
102
RTVSPost2010PropOp44
 70
     1
102
RTVSPost2010Prop45
280
     0
102
RTVSPost2010PropOp45
 70
     1
102
RTVSPost2010Prop46
 90
       50
102
RTVSPost2010PropOp46
 70
     1
102
RTVSPost2010Prop47
 90
       50
102
RTVSPost2010PropOp47
 70
     1
102
RTVSPost2010Prop48
 90
       50
102
RTVSPost2010PropOp48
 70
     1
102
RTVSPost2010Prop49
280
     0
102
RTVSPost2010PropOp49
 70
     1
102
RTVSPost2010Prop50
 90
       50
102
RTVSPost2010PropOp50
 70
     1
102
RTVSPost2010Prop51ColorIndex
 90
      256
102
RTVSPost2010Prop51ColorRGB
 90
-16777216
102
RTVSPost2010PropOp51
 70
     0
102
RTVSPost2010Prop52
140
1.0
102
RTVSPost2010PropOp52
 70
     0
102
RTVSPost2010Prop53
 90
        2
102
RTVSPost2010PropOp53
 70
     1
102
RTVSPost2010Prop54
  1
strokes_ogs.tif
102
RTVSPost2010PropOp54
 70
     1
102
RTVSPost2010Prop55
280
     0
102
RTVSPost2010PropOp55
 70
     1
102
RTVSPost2010Prop56
140
1.0
102
RTVSPost2010PropOp56
 70
     1
102
RTVSPost2010Prop57
140
1.0
102
RTVSPost2010PropOp57
 70
     1
  0
ENDSEC
  0
EOF
