  0
SECTION
  2
HEADER
  9
$ACADVER
  1
AC1024
  9
$ACADMAINTVER
 70
   182
  9
$DWGCODEPAGE
  3
ANSI_1252
  9
$LASTSAVEDBY
  1
kamerka
  9
$INSBASE
 10
0.0
 20
0.0
 30
0.0
  9
$EXTMIN
 10
-126.0278708639452
 20
-58.68383454073864
 30
-0.0015258207003583
  9
$EXTMAX
 10
85.7884537310573
 20
61.24342467339033
 30
0.0000000349246037
  9
$LIMMIN
 10
0.0
 20
0.0
  9
$LIMMAX
 10
420.0
 20
297.0
  9
$ORTHOMODE
 70
     0
  9
$REGENMODE
 70
     1
  9
$FILLMODE
 70
     1
  9
$QTEXTMODE
 70
     0
  9
$MIRRTEXT
 70
     0
  9
$LTSCALE
 40
23.1
  9
$ATTMODE
 70
     1
  9
$TEXTSIZE
 40
3.5
  9
$TRACEWID
 40
0.05
  9
$TEXTSTYLE
  7
STANDARD
  9
$CLAYER
  8
0
  9
$CELTYPE
  6
BYLAYER
  9
$CECOLOR
 62
   256
  9
$CELTSCALE
 40
1.0
  9
$DISPSILH
 70
     0
  9
$DIMSCALE
 40
1.0
  9
$DIMASZ
 40
4.57
  9
$DIMEXO
 40
0.0625
  9
$DIMDLI
 40
0.38
  9
$DIMRND
 40
0.0
  9
$DIMDLE
 40
0.0
  9
$DIMEXE
 40
0.18
  9
$DIMTP
 40
0.01
  9
$DIMTM
 40
0.01
  9
$DIMTXT
 40
3.5
  9
$DIMCEN
 40
0.09
  9
$DIMTSZ
 40
0.0
  9
$DIMTOL
 70
     0
  9
$DIMLIM
 70
     0
  9
$DIMTIH
 70
     0
  9
$DIMTOH
 70
     0
  9
$DIMSE1
 70
     0
  9
$DIMSE2
 70
     0
  9
$DIMTAD
 70
     1
  9
$DIMZIN
 70
     8
  9
$DIMBLK
  1

  9
$DIMASO
 70
     1
  9
$DIMSHO
 70
     1
  9
$DIMPOST
  1

  9
$DIMAPOST
  1

  9
$DIMALT
 70
     0
  9
$DIMALTD
 70
     2
  9
$DIMALTF
 40
25.4
  9
$DIMLFAC
 40
1.0
  9
$DIMTOFL
 70
     0
  9
$DIMTVP
 40
0.0
  9
$DIMTIX
 70
     0
  9
$DIMSOXD
 70
     0
  9
$DIMSAH
 70
     0
  9
$DIMBLK1
  1

  9
$DIMBLK2
  1

  9
$DIMSTYLE
  2
STANDARD
  9
$DIMCLRD
 70
     0
  9
$DIMCLRE
 70
     0
  9
$DIMCLRT
 70
     0
  9
$DIMTFAC
 40
1.0
  9
$DIMGAP
 40
0.09
  9
$DIMJUST
 70
     0
  9
$DIMSD1
 70
     0
  9
$DIMSD2
 70
     0
  9
$DIMTOLJ
 70
     1
  9
$DIMTZIN
 70
     8
  9
$DIMALTZ
 70
     0
  9
$DIMALTTZ
 70
     0
  9
$DIMUPT
 70
     0
  9
$DIMDEC
 70
     3
  9
$DIMTDEC
 70
     3
  9
$DIMALTU
 70
     2
  9
$DIMALTTD
 70
     2
  9
$DIMTXSTY
  7
STANDARD
  9
$DIMAUNIT
 70
     0
  9
$DIMADEC
 70
     0
  9
$DIMALTRND
 40
0.0
  9
$DIMAZIN
 70
     0
  9
$DIMDSEP
 70
    46
  9
$DIMATFIT
 70
     0
  9
$DIMFRAC
 70
     0
  9
$DIMLDRBLK
  1

  9
$DIMLUNIT
 70
     2
  9
$DIMLWD
 70
    -2
  9
$DIMLWE
 70
    -2
  9
$DIMTMOVE
 70
     0
  9
$DIMFXL
 40
1.0
  9
$DIMFXLON
 70
     0
  9
$DIMJOGANG
 40
0.7853981633974483
  9
$DIMTFILL
 70
     0
  9
$DIMTFILLCLR
 70
     0
  9
$DIMARCSYM
 70
     0
  9
$DIMLTYPE
  6

  9
$DIMLTEX1
  6

  9
$DIMLTEX2
  6

  9
$DIMTXTDIRECTION
 70
     0
  9
$LUNITS
 70
     2
  9
$LUPREC
 70
     4
  9
$SKETCHINC
 40
0.1
  9
$FILLETRAD
 40
0.0
  9
$AUNITS
 70
     0
  9
$AUPREC
 70
     0
  9
$MENU
  1
.
  9
$ELEVATION
 40
0.0
  9
$PELEVATION
 40
0.0
  9
$THICKNESS
 40
0.0
  9
$LIMCHECK
 70
     0
  9
$CHAMFERA
 40
0.0
  9
$CHAMFERB
 40
0.0
  9
$CHAMFERC
 40
0.0
  9
$CHAMFERD
 40
0.0
  9
$SKPOLY
 70
     0
  9
$TDCREATE
 40
2458446.405227107
  9
$TDUCREATE
 40
2458446.321893773
  9
$TDUPDATE
 40
2458977.448740336
  9
$TDUUPDATE
 40
2458977.365407002
  9
$TDINDWG
 40
0.0296421759
  9
$TDUSRTIMER
 40
0.0296411227
  9
$USRTIMER
 70
     1
  9
$ANGBASE
 50
0.0
  9
$ANGDIR
 70
     0
  9
$PDMODE
 70
     3
  9
$PDSIZE
 40
0.3125
  9
$PLINEWID
 40
0.0
  9
$SPLFRAME
 70
     0
  9
$SPLINETYPE
 70
     6
  9
$SPLINESEGS
 70
     8
  9
$HANDSEED
  5
2212B
  9
$SURFTAB1
 70
     6
  9
$SURFTAB2
 70
     6
  9
$SURFTYPE
 70
     6
  9
$SURFU
 70
     6
  9
$SURFV
 70
     6
  9
$UCSBASE
  2

  9
$UCSNAME
  2

  9
$UCSORG
 10
0.0
 20
0.0
 30
0.0
  9
$UCSXDIR
 10
1.0
 20
0.0
 30
0.0
  9
$UCSYDIR
 10
0.0
 20
1.0
 30
0.0
  9
$UCSORTHOREF
  2

  9
$UCSORTHOVIEW
 70
     0
  9
$UCSORGTOP
 10
0.0
 20
0.0
 30
0.0
  9
$UCSORGBOTTOM
 10
0.0
 20
0.0
 30
0.0
  9
$UCSORGLEFT
 10
0.0
 20
0.0
 30
0.0
  9
$UCSORGRIGHT
 10
0.0
 20
0.0
 30
0.0
  9
$UCSORGFRONT
 10
0.0
 20
0.0
 30
0.0
  9
$UCSORGBACK
 10
0.0
 20
0.0
 30
0.0
  9
$PUCSBASE
  2

  9
$PUCSNAME
  2

  9
$PUCSORG
 10
0.0
 20
0.0
 30
0.0
  9
$PUCSXDIR
 10
1.0
 20
0.0
 30
0.0
  9
$PUCSYDIR
 10
0.0
 20
1.0
 30
0.0
  9
$PUCSORTHOREF
  2

  9
$PUCSORTHOVIEW
 70
     0
  9
$PUCSORGTOP
 10
0.0
 20
0.0
 30
0.0
  9
$PUCSORGBOTTOM
 10
0.0
 20
0.0
 30
0.0
  9
$PUCSORGLEFT
 10
0.0
 20
0.0
 30
0.0
  9
$PUCSORGRIGHT
 10
0.0
 20
0.0
 30
0.0
  9
$PUCSORGFRONT
 10
0.0
 20
0.0
 30
0.0
  9
$PUCSORGBACK
 10
0.0
 20
0.0
 30
0.0
  9
$USERI1
 70
     0
  9
$USERI2
 70
     0
  9
$USERI3
 70
     0
  9
$USERI4
 70
     0
  9
$USERI5
 70
     0
  9
$USERR1
 40
0.0
  9
$USERR2
 40
0.0
  9
$USERR3
 40
0.0
  9
$USERR4
 40
0.0
  9
$USERR5
 40
0.0
  9
$WORLDVIEW
 70
     1
  9
$SHADEDGE
 70
     3
  9
$SHADEDIF
 70
    70
  9
$TILEMODE
 70
     1
  9
$MAXACTVP
 70
    64
  9
$PINSBASE
 10
0.0
 20
0.0
 30
0.0
  9
$PLIMCHECK
 70
     0
  9
$PEXTMIN
 10
28.69141678810127
 20
19.6363175392151
 30
0.0
  9
$PEXTMAX
 10
258.2227510929107
 20
176.7268578529358
 30
0.0
  9
$PLIMMIN
 10
-5.027069091796875
 20
-6.805083274841307
  9
$PLIMMAX
 10
291.9412536621094
 20
203.1682443618775
  9
$UNITMODE
 70
     0
  9
$VISRETAIN
 70
     1
  9
$PLINEGEN
 70
     0
  9
$PSLTSCALE
 70
     1
  9
$TREEDEPTH
 70
  3020
  9
$CMLSTYLE
  2
STANDARD
  9
$CMLJUST
 70
     0
  9
$CMLSCALE
 40
1.0
  9
$PROXYGRAPHICS
 70
     1
  9
$MEASUREMENT
 70
     1
  9
$CELWEIGHT
370
    -1
  9
$ENDCAPS
280
     0
  9
$JOINSTYLE
280
     0
  9
$LWDISPLAY
290
     0
  9
$INSUNITS
 70
     0
  9
$HYPERLINKBASE
  1

  9
$STYLESHEET
  1
A1-A2.CTB
  9
$XEDIT
290
     1
  9
$CEPSNTYPE
380
     0
  9
$PSTYLEMODE
290
     1
  9
$FINGERPRINTGUID
  2
{6D3BC7B5-ACA7-406D-8A0D-A7DBBE093430}
  9
$VERSIONGUID
  2
{3D5AC666-BF9A-4E41-A255-8D646AB45E86}
  9
$EXTNAMES
290
     1
  9
$PSVPSCALE
 40
0.0
  9
$OLESTARTUP
290
     0
  9
$SORTENTS
280
   127
  9
$INDEXCTL
280
     0
  9
$HIDETEXT
280
     0
  9
$XCLIPFRAME
280
     2
  9
$HALOGAP
280
     0
  9
$OBSCOLOR
 70
   257
  9
$OBSLTYPE
280
     0
  9
$INTERSECTIONDISPLAY
280
     0
  9
$INTERSECTIONCOLOR
 70
   257
  9
$DIMASSOC
280
     1
  9
$PROJECTNAME
  1

  9
$CAMERADISPLAY
290
     0
  9
$LENSLENGTH
 40
50.0
  9
$CAMERAHEIGHT
 40
0.0
  9
$STEPSPERSEC
 40
2.0
  9
$STEPSIZE
 40
6.0
  9
$3DDWFPREC
 40
2.0
  9
$PSOLWIDTH
 40
0.25
  9
$PSOLHEIGHT
 40
4.0
  9
$LOFTANG1
 40
1.570796326794896
  9
$LOFTANG2
 40
1.570796326794896
  9
$LOFTMAG1
 40
0.0
  9
$LOFTMAG2
 40
0.0
  9
$LOFTPARAM
 70
     7
  9
$LOFTNORMALS
280
     1
  9
$LATITUDE
 40
37.795
  9
$LONGITUDE
 40
-122.394
  9
$NORTHDIRECTION
 40
0.0
  9
$TIMEZONE
 70
 -8000
  9
$LIGHTGLYPHDISPLAY
280
     1
  9
$TILEMODELIGHTSYNCH
280
     1
  9
$CMATERIAL
347
318C
  9
$SOLIDHIST
280
     0
  9
$SHOWHIST
280
     1
  9
$DWFFRAME
280
     2
  9
$DGNFRAME
280
     0
  9
$REALWORLDSCALE
290
     1
  9
$INTERFERECOLOR
 62
     1
  9
$INTERFEREOBJVS
345
3199
  9
$INTERFEREVPVS
346
1B2E3
  9
$CSHADOW
280
     0
  9
$SHADOWPLANELOCATION
 40
0.0
  0
ENDSEC
  0
SECTION
  2
CLASSES
  0
CLASS
  1
ACDBDICTIONARYWDFLT
  2
AcDbDictionaryWithDefault
  3
ObjectDBX Classes
 90
        0
 91
        1
280
     0
281
     0
  0
CLASS
  1
MATERIAL
  2
AcDbMaterial
  3
ObjectDBX Classes
 90
     1153
 91
        3
280
     0
281
     0
  0
CLASS
  1
VISUALSTYLE
  2
AcDbVisualStyle
  3
ObjectDBX Classes
 90
     4095
 91
       26
280
     0
281
     0
  0
CLASS
  1
TABLESTYLE
  2
AcDbTableStyle
  3
ObjectDBX Classes
 90
     4095
 91
        1
280
     0
281
     0
  0
CLASS
  1
SORTENTSTABLE
  2
AcDbSortentsTable
  3
ObjectDBX Classes
 90
        0
 91
        2
280
     0
281
     0
  0
CLASS
  1
DICTIONARYVAR
  2
AcDbDictionaryVar
  3
ObjectDBX Classes
 90
        0
 91
       13
280
     0
281
     0
  0
CLASS
  1
EXACXREFPANELOBJECT
  2
ExAcXREFPanelObject
  3
EXAC_ESW
 90
     1025
 91
        0
280
     1
281
     0
  0
CLASS
  1
NPOCOLLECTION
  2
AcDbImpNonPersistentObjectsCollection
  3
ObjectDBX Classes
 90
     1153
 91
        0
280
     1
281
     0
  0
CLASS
  1
SCALE
  2
AcDbScale
  3
ObjectDBX Classes
 90
     1153
 91
       33
280
     0
281
     0
  0
CLASS
  1
MLEADERSTYLE
  2
AcDbMLeaderStyle
  3
ACDB_MLEADERSTYLE_CLASS
 90
     4095
 91
        1
280
     0
281
     0
  0
CLASS
  1
ACDBSECTIONVIEWSTYLE
  2
AcDbSectionViewStyle
  3
ObjectDBX Classes
 90
     1025
 91
        2
280
     0
281
     0
  0
CLASS
  1
ACDBDETAILVIEWSTYLE
  2
AcDbDetailViewStyle
  3
ObjectDBX Classes
 90
     1025
 91
        2
280
     0
281
     0
  0
CLASS
  1
CELLSTYLEMAP
  2
AcDbCellStyleMap
  3
ObjectDBX Classes
 90
     1152
 91
        2
280
     0
281
     0
  0
CLASS
  1
ACAD_EVALUATION_GRAPH
  2
AcDbEvalGraph
  3
ObjectDBX Classes
 90
     1153
 91
        0
280
     0
281
     0
  0
CLASS
  1
ACAECUSTOBJ
  2
AcAeEditorObj
  3
AcAeEditorObj
 90
     1024
 91
        0
280
     0
281
     0
  0
CLASS
  1
ACDB_DYNAMICBLOCKPURGEPREVENTER_VERSION
  2
AcDbDynamicBlockPurgePreventer
  3
ObjectDBX Classes
 90
     1153
 91
        0
280
     0
281
     0
  0
CLASS
  1
FIELD
  2
AcDbField
  3
ObjectDBX Classes
 90
     1152
 91
        0
280
     0
281
     0
  0
CLASS
  1
FIELDLIST
  2
AcDbFieldList
  3
ObjectDBX Classes
 90
     1152
 91
        1
280
     0
281
     0
  0
CLASS
  1
ACDB_ALDIMOBJECTCONTEXTDATA_CLASS
  2
AcDbAlignedDimensionObjectContextData
  3
ObjectDBX Classes
 90
     1153
 91
        0
280
     0
281
     0
  0
ENDSEC
  0
SECTION
  2
TABLES
  0
TABLE
  2
VPORT
  5
8
330
0
100
AcDbSymbolTable
 70
     1
  0
VPORT
  5
1F4
330
8
100
AcDbSymbolTableRecord
100
AcDbViewportTableRecord
  2
*ACTIVE
 70
     0
 10
0.0
 20
0.0
 11
1.0
 21
1.0
 12
-20.11970856644396
 22
1.279795066325846
 13
0.0
 23
0.0
 14
1.0
 24
1.0
 15
0.0
 25
0.0
 16
0.0
 26
0.0
 36
1.0
 17
0.0
 27
0.0
 37
0.0
 40
120.9552071502501
 41
2.698140200286123
 42
50.0
 43
0.0
 44
0.0
 50
0.0
 51
0.0
 71
     0
 72
  2000
 73
     1
 74
     1
 75
     0
 76
     0
 77
     0
 78
     0
281
     0
 65
     1
110
0.0
120
0.0
130
0.0
111
1.0
121
0.0
131
0.0
112
0.0
122
1.0
132
0.0
 79
     0
146
0.0
348
3195
 60
     3
 61
     5
292
     1
282
     1
141
0.0
142
0.0
 63
   250
421
  3355443
1001
ACAD_NAV_VCDISPLAY
1070
     3
  0
ENDTAB
  0
TABLE
  2
LTYPE
  5
5
330
0
100
AcDbSymbolTable
 70
     6
  0
LTYPE
  5
14
330
5
100
AcDbSymbolTableRecord
100
AcDbLinetypeTableRecord
  2
BYBLOCK
 70
     0
  3

 72
    65
 73
     0
 40
0.0
  0
LTYPE
  5
15
330
5
100
AcDbSymbolTableRecord
100
AcDbLinetypeTableRecord
  2
BYLAYER
 70
     0
  3

 72
    65
 73
     0
 40
0.0
  0
LTYPE
  5
16
330
5
100
AcDbSymbolTableRecord
100
AcDbLinetypeTableRecord
  2
CONTINUOUS
 70
     0
  3
Solid line
 72
    65
 73
     0
 40
0.0
  0
LTYPE
  5
9C48
330
5
100
AcDbSymbolTableRecord
100
AcDbLinetypeTableRecord
  2
CENTER
 70
     0
  3
____ _ ____ _ ____ _ ____ _ ____ _ ____ _ ____
 72
    65
 73
     4
 40
0.6
 49
0.375
 74
     0
 49
-0.075
 74
     0
 49
0.075
 74
     0
 49
-0.075
 74
     0
  0
LTYPE
  5
20A82
330
5
100
AcDbSymbolTableRecord
100
AcDbLinetypeTableRecord
  2
HIDDEN
 70
     0
  3
- - - - - - - - - - - - - - - - - - - -
 72
    65
 73
     2
 40
0.2
 49
0.1
 74
     0
 49
-0.1
 74
     0
  0
LTYPE
  5
21CB3
330
5
100
AcDbSymbolTableRecord
100
AcDbLinetypeTableRecord
  2
CENTER2
 70
     0
  3
Center (.5x) ___ _ ___ _ ___ _ ___ _ ___ _ ___
 72
    65
 73
     4
 40
28.57499999999999
 49
19.05
 74
     4
 75
     0
340
0
 46
1.0
 50
0.0
 44
0.0
 45
0.0
 49
-3.174999999999998
 74
     4
 75
     0
340
0
 46
1.0
 50
0.0
 44
0.0
 45
0.0
 49
3.174999999999998
 74
     4
 75
     0
340
0
 46
1.0
 50
0.0
 44
0.0
 45
0.0
 49
-3.174999999999998
 74
     4
 75
     0
340
0
 46
1.0
 50
0.0
 44
0.0
 45
0.0
  0
ENDTAB
  0
TABLE
  2
LAYER
  5
2
102
{ACAD_XDICTIONARY
360
422A
102
}
330
0
100
AcDbSymbolTable
 70
    16
  0
LAYER
  5
10
102
{ACAD_XDICTIONARY
360
1B2F5
102
}
330
2
100
AcDbSymbolTableRecord
100
AcDbLayerTableRecord
  2
0
 70
     0
 62
     7
  6
CONTINUOUS
370
    -3
390
318A
347
318E
  0
LAYER
  5
3F8C
102
{ACAD_XDICTIONARY
360
1B2F7
102
}
330
2
100
AcDbSymbolTableRecord
100
AcDbLayerTableRecord
  2
1
 70
     0
 62
     4
  6
BYBLOCK
370
    50
390
318A
347
318E
  0
LAYER
  5
3FA7
330
2
100
AcDbSymbolTableRecord
100
AcDbLayerTableRecord
  2
Defpoints
 70
     0
 62
     7
  6
CONTINUOUS
290
     0
370
    -3
390
318A
347
318E
  0
LAYER
  5
9C4A
102
{ACAD_XDICTIONARY
360
1B2F9
102
}
330
2
100
AcDbSymbolTableRecord
100
AcDbLayerTableRecord
  2
2
 70
     0
 62
     7
  6
BYBLOCK
370
    25
390
318A
347
318E
  0
LAYER
  5
9C4B
102
{ACAD_XDICTIONARY
360
1B2FB
102
}
330
2
100
AcDbSymbolTableRecord
100
AcDbLayerTableRecord
  2
4
 70
     0
 62
     2
  6
CENTER
370
    25
390
318A
347
318E
  0
LAYER
  5
9C4D
102
{ACAD_XDICTIONARY
360
1B2FD
102
}
330
2
100
AcDbSymbolTableRecord
100
AcDbLayerTableRecord
  2
CUT
 70
     0
 62
     1
  6
BYBLOCK
370
    25
390
318A
347
318E
  0
LAYER
  5
9C4E
102
{ACAD_XDICTIONARY
360
1B2FF
102
}
330
2
100
AcDbSymbolTableRecord
100
AcDbLayerTableRecord
  2
NOCUT
 70
     0
 62
     7
  6
BYBLOCK
370
    25
390
318A
347
318E
  0
LAYER
  5
9C4F
102
{ACAD_XDICTIONARY
360
1B301
102
}
330
2
100
AcDbSymbolTableRecord
100
AcDbLayerTableRecord
  2
SK2
 70
     0
 62
     7
  6
BYBLOCK
370
    25
390
318A
347
318E
  0
LAYER
  5
9C50
102
{ACAD_XDICTIONARY
360
1B303
102
}
330
2
100
AcDbSymbolTableRecord
100
AcDbLayerTableRecord
  2
SK1
 70
     0
 62
     4
  6
BYBLOCK
370
    50
390
318A
347
318E
  0
LAYER
  5
9C51
102
{ACAD_XDICTIONARY
360
1B305
102
}
330
2
100
AcDbSymbolTableRecord
100
AcDbLayerTableRecord
  2
SK4
 70
     0
 62
     2
  6
CENTER
370
    25
390
318A
347
318E
  0
LAYER
  5
13335
102
{ACAD_XDICTIONARY
360
1B307
102
}
330
2
100
AcDbSymbolTableRecord
100
AcDbLayerTableRecord
  2
INFTOTAL
 70
     0
 62
     9
  6
BYBLOCK
370
    18
390
318A
347
318E
1001
AcAecLayerStandard
1000

1000

  0
LAYER
  5
1686E
102
{ACAD_XDICTIONARY
360
1B309
102
}
330
2
100
AcDbSymbolTableRecord
100
AcDbLayerTableRecord
  2
SK6
 70
     0
 62
     5
  6
BYBLOCK
370
    -3
390
318A
347
318E
  0
LAYER
  5
21CB4
330
2
100
AcDbSymbolTableRecord
100
AcDbLayerTableRecord
  2
SK3
 70
     0
 62
     1
  6
HIDDEN
370
    35
390
318A
347
318E
  0
LAYER
  5
21CB5
330
2
100
AcDbSymbolTableRecord
100
AcDbLayerTableRecord
  2
SKVIEW1
 70
     0
 62
     4
  6
CONTINUOUS
370
    50
390
318A
347
318E
1001
AcAecLayerStandard
1000

1000

  0
LAYER
  5
21CB6
330
2
100
AcDbSymbolTableRecord
100
AcDbLayerTableRecord
  2
SKVIEW4
 70
     0
 62
     2
  6
CENTER2
370
    25
390
318A
347
318E
1001
AcAecLayerStandard
1000

1000

  0
ENDTAB
  0
TABLE
  2
STYLE
  5
3
330
0
100
AcDbSymbolTable
 70
     2
  0
STYLE
  5
11
330
3
100
AcDbSymbolTableRecord
100
AcDbTextStyleTableRecord
  2
STANDARD
 70
     0
 40
3.5
 41
0.8
 50
0.0
 71
     0
 42
3.5
  3
monos.ttf
  4

1001
ACAD
1000
Monospac821 BT
1071
       49
  0
ENDTAB
  0
TABLE
  2
VIEW
  5
6
330
0
100
AcDbSymbolTable
 70
     0
  0
ENDTAB
  0
TABLE
  2
UCS
  5
7
330
0
100
AcDbSymbolTable
 70
     0
  0
ENDTAB
  0
TABLE
  2
APPID
  5
9
330
0
100
AcDbSymbolTable
 70
    19
  0
APPID
  5
23B
330
9
100
AcDbSymbolTableRecord
100
AcDbRegAppTableRecord
  2
ACAD
 70
     0
  0
APPID
  5
3395
330
9
100
AcDbSymbolTableRecord
100
AcDbRegAppTableRecord
  2
ACAD_EXEMPT_FROM_CAD_STANDARDS
 70
     0
  0
APPID
  5
4229
330
9
100
AcDbSymbolTableRecord
100
AcDbRegAppTableRecord
  2
AcAecLayerStandard
 70
     0
  0
APPID
  5
9A1B
330
9
100
AcDbSymbolTableRecord
100
AcDbRegAppTableRecord
  2
ACAD_PSEXT
 70
     0
  0
APPID
  5
1B313
330
9
100
AcDbSymbolTableRecord
100
AcDbRegAppTableRecord
  2
ACAD_NAV_VCDISPLAY
 70
     0
  0
APPID
  5
1B355
330
9
100
AcDbSymbolTableRecord
100
AcDbRegAppTableRecord
  2
ACAD_MLEADERVER
 70
     0
  0
APPID
  5
1EC7F
330
9
100
AcDbSymbolTableRecord
100
AcDbRegAppTableRecord
  2
ACAUTHENVIRON
 70
     0
  0
APPID
  5
1EC82
330
9
100
AcDbSymbolTableRecord
100
AcDbRegAppTableRecord
  2
AcDbDynamicBlockTrueName
 70
     0
  0
APPID
  5
1EC83
330
9
100
AcDbSymbolTableRecord
100
AcDbRegAppTableRecord
  2
AcDbDynamicBlockGUID
 70
     0
  0
APPID
  5
20A85
330
9
100
AcDbSymbolTableRecord
100
AcDbRegAppTableRecord
  2
AcCmTransparency
 70
     0
  0
APPID
  5
20AE2
330
9
100
AcDbSymbolTableRecord
100
AcDbRegAppTableRecord
  2
ACAD_DSTYLE_DIMRADIAL_EXTENSION
 70
     0
  0
APPID
  5
20CB0
330
9
100
AcDbSymbolTableRecord
100
AcDbRegAppTableRecord
  2
AcadAnnotative
 70
     0
  0
APPID
  5
21667
330
9
100
AcDbSymbolTableRecord
100
AcDbRegAppTableRecord
  2
AcadAnnoMonitorAlertIconDisabled
 70
     0
  0
APPID
  5
21CB9
330
9
100
AcDbSymbolTableRecord
100
AcDbRegAppTableRecord
  2
ACAD_DSTYLE_DIMJAG
 70
     0
  0
APPID
  5
21CBA
330
9
100
AcDbSymbolTableRecord
100
AcDbRegAppTableRecord
  2
ACAD_DSTYLE_DIMTALN
 70
     0
  0
APPID
  5
21CBB
330
9
100
AcDbSymbolTableRecord
100
AcDbRegAppTableRecord
  2
ACAD_DSTYLE_DIM_LINETYPE
 70
     0
  0
APPID
  5
21CBC
330
9
100
AcDbSymbolTableRecord
100
AcDbRegAppTableRecord
  2
ACAD_DSTYLE_DIM_EXT1_LINETYPE
 70
     0
  0
APPID
  5
21CBD
330
9
100
AcDbSymbolTableRecord
100
AcDbRegAppTableRecord
  2
ACAD_DSTYLE_DIM_EXT2_LINETYPE
 70
     0
  0
APPID
  5
21CBE
330
9
100
AcDbSymbolTableRecord
100
AcDbRegAppTableRecord
  2
ACAD_DSTYLE_DIMARC_LENGTH_SYMBOL
 70
     0
  0
ENDTAB
  0
TABLE
  2
DIMSTYLE
  5
A
330
0
100
AcDbSymbolTable
 70
     3
100
AcDbDimStyleTable
 71
     1
340
243
  0
DIMSTYLE
105
243
102
{ACAD_REACTORS
330
21DF3
330
21DF2
330
21DF1
330
21DF0
330
21F0A
102
}
330
A
100
AcDbSymbolTableRecord
100
AcDbDimStyleTableRecord
  2
STANDARD
 70
     0
 41
4.57
 47
0.01
 48
0.01
 73
     0
 74
     0
 77
     1
 78
     8
140
3.5
271
     3
272
     3
284
     8
289
     0
340
11
  0
ENDTAB
  0
TABLE
  2
BLOCK_RECORD
  5
1
330
0
100
AcDbSymbolTable
 70
    18
  0
BLOCK_RECORD
  5
1F
102
{ACAD_XDICTIONARY
360
339C
102
}
330
1
100
AcDbSymbolTableRecord
100
AcDbBlockTableRecord
  2
*MODEL_SPACE
340
31A6
 70
     0
280
     1
281
     0
  0
BLOCK_RECORD
  5
1B
330
1
100
AcDbSymbolTableRecord
100
AcDbBlockTableRecord
  2
*PAPER_SPACE
340
31A7
 70
     0
280
     1
281
     0
  0
BLOCK_RECORD
  5
1B3D7
102
{ACAD_XDICTIONARY
360
1DE81
102
}
330
1
100
AcDbSymbolTableRecord
100
AcDbBlockTableRecord
  2
cero_point
340
0
310
28000000200000002000000001002000000000000010000001000000010000000000000000000000302821FF302821FF302821FF302821FF302821FF302821FF302821FF302821FF302821FF302821FF302821FF302821FF302821FF302821FF302821FF302821FF302821FF302821FF302821FF302821FF302821FF302821
310
FF302821FF302821FF302821FF302821FF302821FF302821FF302821FF302821FF302821FF302821FF302821FF302821FF302821FF302821FF302821FF302821FF302821FF302821FF302821FF302821FF302821FF302821FF302821FF302821FF302821FFFFFF00FFFFFF00FFFFFF00FF302821FF302821FF302821FF3028
310
21FF302821FF302821FF302821FF302821FF302821FF302821FF302821FF302821FF302821FF302821FF302821FF302821FF302821FF302821FF302821FF302821FF302821FF302821FF302821FF302821FFFFFF00FFFFFF00FFFFFF00FFFFFF00FFFFFF00FFFFFF00FFFFFF00FF302821FFFFFF00FFFFFF00FFFFFF00FF30
310
2821FF302821FF302821FF302821FF302821FF302821FF302821FF302821FF302821FF302821FF302821FF302821FF302821FF302821FF302821FF302821FF302821FF302821FF302821FFFFFF00FFFFFF00FFFFFF00FFFFFF00FFFFFF00FFFFFF00FFFFFF00FFFFFF00FFFFFF00FF302821FF302821FF302821FF302821FF
310
FFFF00FFFFFF00FF302821FF302821FF302821FF302821FF302821FF302821FF302821FF302821FF302821FF302821FF302821FF302821FF302821FF302821FF302821FF302821FFFFFF00FFFFFF00FFFFFF00FFFFFF00FFFFFF00FFFFFF00FFFFFF00FFFFFF00FFFFFF00FFFFFF00FF302821FF302821FF302821FF302821
310
FF302821FF302821FFFFFF00FFFFFF00FF302821FF302821FF302821FF302821FF302821FF302821FF302821FF302821FF302821FF302821FF302821FF302821FF302821FFFFFF00FFFFFF00FFFFFF00FFFFFF00FFFFFF00FFFFFF00FFFFFF00FFFFFF00FFFFFF00FFFFFF00FFFFFF00FF302821FF302821FF302821FF3028
310
21FF302821FF302821FF302821FF302821FFFFFF00FF302821FF302821FF302821FF302821FF302821FF302821FF302821FF302821FF302821FF302821FF302821FFFFFF00FFFFFF00FFFFFF00FFFFFF00FFFFFF00FFFFFF00FFFFFF00FFFFFF00FFFFFF00FFFFFF00FFFFFF00FFFFFF00FF302821FF302821FF302821FF30
310
2821FF302821FF302821FF302821FF302821FF302821FFFFFF00FF302821FF302821FF302821FF302821FF302821FF302821FF302821FF302821FF302821FFFFFF00FFFFFF00FFFFFF00FFFFFF00FFFFFF00FFFFFF00FFFFFF00FFFFFF00FFFFFF00FFFFFF00FFFFFF00FFFFFF00FFFFFF00FF302821FF302821FF302821FF
310
302821FF302821FF302821FF302821FF302821FF302821FF302821FFFFFF00FF302821FF302821FF302821FF302821FF302821FF302821FF302821FFFFFF00FFFFFF00FFFFFF00FFFFFF00FFFFFF00FFFFFF00FFFFFF00FFFFFF00FFFFFF00FFFFFF00FFFFFF00FFFFFF00FFFFFF00FFFFFF00FF302821FF302821FF302821
310
FF302821FF302821FF302821FF302821FF302821FF302821FF302821FFFFFF00FF302821FF302821FF302821FF302821FF302821FF302821FF302821FFFFFF00FFFFFF00FFFFFF00FFFFFF00FFFFFF00FFFFFF00FFFFFF00FFFFFF00FFFFFF00FFFFFF00FFFFFF00FFFFFF00FFFFFF00FFFFFF00FF302821FF302821FF3028
310
21FF302821FF302821FF302821FF302821FF302821FF302821FF302821FF302821FFFFFF00FF302821FF302821FF302821FF302821FF302821FFFFFF00FFFFFF00FFFFFF00FFFFFF00FFFFFF00FFFFFF00FFFFFF00FFFFFF00FFFFFF00FFFFFF00FFFFFF00FFFFFF00FFFFFF00FFFFFF00FFFFFF00FF302821FF302821FF30
310
2821FF302821FF302821FF302821FF302821FF302821FF302821FF302821FF302821FF302821FFFFFF00FF302821FF302821FF302821FF302821FFFFFF00FFFFFF00FFFFFF00FFFFFF00FFFFFF00FFFFFF00FFFFFF00FFFFFF00FFFFFF00FFFFFF00FFFFFF00FFFFFF00FFFFFF00FFFFFF00FFFFFF00FF302821FF302821FF
310
302821FF302821FF302821FF302821FF302821FF302821FF302821FF302821FF302821FF302821FFFFFF00FF302821FF302821FF302821FF302821FFFFFF00FFFFFF00FFFFFF00FFFFFF00FFFFFF00FFFFFF00FFFFFF00FFFFFF00FFFFFF00FFFFFF00FFFFFF00FFFFFF00FFFFFF00FFFFFF00FFFFFF00FF302821FF302821
310
FF302821FF302821FF302821FF302821FF302821FF302821FF302821FF302821FF302821FF302821FFFFFF00FF302821FF302821FF302821FF302821FFFFFF00FFFFFF00FFFFFF00FFFFFF00FFFFFF00FFFFFF00FFFFFF00FFFFFF00FFFFFF00FFFFFF00FFFFFF00FFFFFF00FFFFFF00FFFFFF00FFFFFF00FF302821FF3028
310
21FF302821FF302821FF302821FF302821FF302821FF302821FF302821FF302821FF302821FF302821FFFFFF00FF302821FF302821FF302821FFFFFF00FFFFFF00FFFFFF00FFFFFF00FFFFFF00FFFFFF00FFFFFF00FFFFFF00FFFFFF00FFFFFF00FFFFFF00FFFFFF00FFFFFF00FFFFFF00FFFFFF00FFFFFF00FF302821FF30
310
2821FF302821FF302821FF302821FF302821FF302821FF302821FF302821FF302821FF302821FF302821FF302821FFFFFF00FF302821FF302821FFFFFF00FFFFFF00FFFFFF00FFFFFF00FFFFFF00FFFFFF00FFFFFF00FFFFFF00FFFFFF00FFFFFF00FFFFFF00FFFFFF00FFFFFF00FFFFFF00FFFFFF00FFFFFF00FFFFFF00FF
310
FFFF00FFFFFF00FFFFFF00FFFFFF00FFFFFF00FFFFFF00FFFFFF00FFFFFF00FFFFFF00FFFFFF00FFFFFF00FFFFFF00FFFFFF00FF302821FF302821FFFFFF00FF302821FF302821FF302821FF302821FF302821FF302821FF302821FF302821FF302821FF302821FF302821FF302821FF302821FF302821FFFFFF00FFFFFF00
310
FFFFFF00FFFFFF00FFFFFF00FFFFFF00FFFFFF00FFFFFF00FFFFFF00FFFFFF00FFFFFF00FFFFFF00FFFFFF00FFFFFF00FFFFFF00FF302821FF302821FFFFFF00FF302821FF302821FF302821FF302821FF302821FF302821FF302821FF302821FF302821FF302821FF302821FF302821FF302821FF302821FFFFFF00FFFFFF
310
00FFFFFF00FFFFFF00FFFFFF00FFFFFF00FFFFFF00FFFFFF00FFFFFF00FFFFFF00FFFFFF00FFFFFF00FFFFFF00FFFFFF00FF302821FF302821FF302821FF302821FFFFFF00FF302821FF302821FF302821FF302821FF302821FF302821FF302821FF302821FF302821FF302821FF302821FF302821FF302821FFFFFF00FFFF
310
FF00FFFFFF00FFFFFF00FFFFFF00FFFFFF00FFFFFF00FFFFFF00FFFFFF00FFFFFF00FFFFFF00FFFFFF00FFFFFF00FFFFFF00FF302821FF302821FF302821FF302821FFFFFF00FF302821FF302821FF302821FF302821FF302821FF302821FF302821FF302821FF302821FF302821FF302821FF302821FF302821FFFFFF00FF
310
FFFF00FFFFFF00FFFFFF00FFFFFF00FFFFFF00FFFFFF00FFFFFF00FFFFFF00FFFFFF00FFFFFF00FFFFFF00FFFFFF00FFFFFF00FF302821FF302821FF302821FF302821FFFFFF00FF302821FF302821FF302821FF302821FF302821FF302821FF302821FF302821FF302821FF302821FF302821FF302821FF302821FFFFFF00
310
FFFFFF00FFFFFF00FFFFFF00FFFFFF00FFFFFF00FFFFFF00FFFFFF00FFFFFF00FFFFFF00FFFFFF00FFFFFF00FFFFFF00FFFFFF00FF302821FF302821FF302821FF302821FF302821FFFFFF00FF302821FF302821FF302821FF302821FF302821FF302821FF302821FF302821FF302821FF302821FF302821FF302821FFFFFF
310
00FFFFFF00FFFFFF00FFFFFF00FFFFFF00FFFFFF00FFFFFF00FFFFFF00FFFFFF00FFFFFF00FFFFFF00FFFFFF00FFFFFF00FFFFFF00FF302821FF302821FF302821FF302821FF302821FFFFFF00FF302821FF302821FF302821FF302821FF302821FF302821FF302821FF302821FF302821FF302821FF302821FF302821FFFF
310
FF00FFFFFF00FFFFFF00FFFFFF00FFFFFF00FFFFFF00FFFFFF00FFFFFF00FFFFFF00FFFFFF00FFFFFF00FFFFFF00FFFFFF00FF302821FF302821FF302821FF302821FF302821FF302821FF302821FFFFFF00FF302821FF302821FF302821FF302821FF302821FF302821FF302821FF302821FF302821FF302821FF302821FF
310
FFFF00FFFFFF00FFFFFF00FFFFFF00FFFFFF00FFFFFF00FFFFFF00FFFFFF00FFFFFF00FFFFFF00FFFFFF00FFFFFF00FFFFFF00FF302821FF302821FF302821FF302821FF302821FF302821FF302821FFFFFF00FF302821FF302821FF302821FF302821FF302821FF302821FF302821FF302821FF302821FF302821FF302821
310
FFFFFF00FFFFFF00FFFFFF00FFFFFF00FFFFFF00FFFFFF00FFFFFF00FFFFFF00FFFFFF00FFFFFF00FFFFFF00FFFFFF00FF302821FF302821FF302821FF302821FF302821FF302821FF302821FF302821FF302821FFFFFF00FF302821FF302821FF302821FF302821FF302821FF302821FF302821FF302821FF302821FF3028
310
21FFFFFF00FFFFFF00FFFFFF00FFFFFF00FFFFFF00FFFFFF00FFFFFF00FFFFFF00FFFFFF00FFFFFF00FFFFFF00FF302821FF302821FF302821FF302821FF302821FF302821FF302821FF302821FF302821FF302821FF302821FFFFFF00FF302821FF302821FF302821FF302821FF302821FF302821FF302821FF302821FF30
310
2821FFFFFF00FFFFFF00FFFFFF00FFFFFF00FFFFFF00FFFFFF00FFFFFF00FFFFFF00FFFFFF00FFFFFF00FF302821FF302821FF302821FF302821FF302821FF302821FF302821FF302821FF302821FF302821FF302821FF302821FF302821FFFFFF00FF302821FF302821FF302821FF302821FF302821FF302821FF302821FF
310
302821FFFFFF00FFFFFF00FFFFFF00FFFFFF00FFFFFF00FFFFFF00FFFFFF00FFFFFF00FFFFFF00FF302821FF302821FF302821FF302821FF302821FF302821FF302821FF302821FF302821FF302821FF302821FF302821FF302821FF302821FF302821FFFFFF00FFFFFF00FF302821FF302821FF302821FF302821FF302821
310
FF302821FFFFFF00FFFFFF00FFFFFF00FFFFFF00FFFFFF00FFFFFF00FFFFFF00FFFFFF00FF302821FF302821FF302821FF302821FF302821FF302821FF302821FF302821FF302821FF302821FF302821FF302821FF302821FF302821FF302821FF302821FF302821FF302821FFFFFF00FFFFFF00FFFFFF00FFFFFF00FFFFFF
310
00FF302821FFFFFF00FFFFFF00FFFFFF00FFFFFF00FFFFFF00FFFFFF00FF302821FF302821FF302821FF302821FF302821FF302821FF302821FF302821FF302821FF302821FF302821FF302821FF302821FF302821FF302821FF302821FF302821FF302821FF302821FF302821FF302821FF302821FF302821FF302821FF30
310
2821FFFFFF00FFFFFF00FFFFFF00FF302821FF302821FF302821FF302821FF302821FF302821FF302821FF302821FF302821FF302821FF302821FF302821FF302821FF302821FF302821FF302821FF302821FF302821FF302821FF302821FF302821FF302821FF302821FF302821FF302821FF302821FF302821FF302821FF
310
302821FF302821FF302821FF302821FF302821FF302821FF302821FF302821FF302821FF302821FF302821FF302821FF302821FF302821FF302821FF302821FF302821FF302821FF
102
{BLKREFS
331
21DE8
102
}
 70
     0
280
     1
281
     1
  0
BLOCK_RECORD
  5
21F0B
330
1
100
AcDbSymbolTableRecord
100
AcDbBlockTableRecord
  2
*D12
340
0
 70
     0
280
     1
281
     0
  0
BLOCK_RECORD
  5
21F17
330
1
100
AcDbSymbolTableRecord
100
AcDbBlockTableRecord
  2
*D13
340
0
 70
     0
280
     1
281
     0
  0
BLOCK_RECORD
  5
21F23
330
1
100
AcDbSymbolTableRecord
100
AcDbBlockTableRecord
  2
*D14
340
0
 70
     0
280
     1
281
     0
  0
BLOCK_RECORD
  5
21F2F
330
1
100
AcDbSymbolTableRecord
100
AcDbBlockTableRecord
  2
*D15
340
0
 70
     0
280
     1
281
     0
  0
BLOCK_RECORD
  5
21F3D
330
1
100
AcDbSymbolTableRecord
100
AcDbBlockTableRecord
  2
*D16
340
0
 70
     0
280
     1
281
     0
  0
ENDTAB
  0
ENDSEC
  0
SECTION
  2
BLOCKS
  0
BLOCK
  5
20
330
1F
100
AcDbEntity
  8
0
100
AcDbBlockBegin
  2
*MODEL_SPACE
 70
     0
 10
0.0
 20
0.0
 30
0.0
  3
*MODEL_SPACE
  1

  0
ENDBLK
  5
21
330
1F
100
AcDbEntity
  8
0
100
AcDbBlockEnd
  0
BLOCK
  5
1C
330
1B
100
AcDbEntity
 67
     1
  8
0
100
AcDbBlockBegin
  2
*PAPER_SPACE
 70
     0
 10
0.0
 20
0.0
 30
0.0
  3
*PAPER_SPACE
  1

  0
ENDBLK
  5
1D
330
1B
100
AcDbEntity
 67
     1
  8
0
100
AcDbBlockEnd
  0
BLOCK
  5
1B3D8
330
1B3D7
100
AcDbEntity
  8
0
100
AcDbBlockBegin
  2
cero_point
 70
     0
 10
0.0
 20
0.0
 30
0.0
  3
cero_point
  1

  0
HATCH
  5
1B3DA
330
1B3D7
100
AcDbEntity
  8
1
  6
ByBlock
370
    50
100
AcDbHatch
 10
0.0
 20
0.0
 30
0.0
210
0.0
220
0.0
230
1.0
  2
SOLID
 70
     1
 71
     0
 91
        2
 92
        7
 72
     1
 73
     1
 93
        3
 10
-0.0000000000001137
 20
0.0
 42
0.0
 10
-2.950972054112752
 20
0.0
 42
0.4142135623730968
 10
-0.0000000000001137
 20
-2.950972054112583
 42
0.0
 97
        0
 92
        7
 72
     1
 73
     1
 93
        3
 10
-0.0000000000001137
 20
2.950972054112638
 42
0.0
 10
-0.0000000000001137
 20
0.0
 42
0.0
 10
2.950972054112526
 20
0.0
 42
0.4142135623730966
 97
        0
 75
     0
 76
     1
 47
0.1190009775223266
 98
        2
 10
-0.7445530588121301
 20
-0.9212244733764125
 10
1.279464601852737
 20
1.696796923046345
450
        0
451
        0
460
0.0
461
0.0
452
        0
462
0.0
453
        0
470

  0
LWPOLYLINE
  5
1B3DB
330
1B3D7
100
AcDbEntity
  8
1
  6
ByBlock
370
    50
100
AcDbPolyline
 90
        3
 70
     1
 43
0.0
 10
-0.0000000000001137
 20
0.0
 10
2.950972054112526
 20
0.0
 42
0.4142135623730966
 10
-0.0000000000001137
 20
2.950972054112638
  0
LINE
  5
1B3DC
330
1B3D7
100
AcDbEntity
  8
1
  6
ByBlock
370
    50
100
AcDbLine
 10
-0.0000000000001137
 20
-2.950972054112583
 30
0.0
 11
-0.0000000000001137
 21
2.950972054112638
 31
0.0
  0
LWPOLYLINE
  5
1B3DD
330
1B3D7
100
AcDbEntity
  8
1
  6
ByBlock
370
    50
100
AcDbPolyline
 90
        3
 70
     1
 43
0.0
 10
-0.0000000000001137
 20
-2.950972054112583
 10
-0.0000000000001137
 20
0.0
 10
-2.950972054112752
 20
0.0
 42
0.4142135623730966
  0
LINE
  5
1B3DE
330
1B3D7
100
AcDbEntity
  8
1
  6
ByBlock
370
    50
100
AcDbLine
 10
2.950972054112638
 20
0.0
 30
0.0
 11
-2.950972054112638
 21
0.0
 31
0.0
  0
CIRCLE
  5
1B3DF
330
1B3D7
100
AcDbEntity
  8
1
  6
ByBlock
370
    50
100
AcDbCircle
 10
-0.0000000000001137
 20
0.0
 30
0.0
 40
2.950972054112601
  0
ENDBLK
  5
1B3D9
330
1B3D7
100
AcDbEntity
  8
0
100
AcDbBlockEnd
  0
BLOCK
  5
21F0C
330
21F0B
100
AcDbEntity
  8
0
100
AcDbBlockBegin
  2
*D12
 70
     1
 10
0.0
 20
0.0
 30
0.0
  3
*D12
  1

  0
LINE
  5
220BE
330
21F0B
100
AcDbEntity
  8
2
 62
     0
440
 16777216
370
    -2
100
AcDbLine
 10
33.18249999999995
 20
20.99999999999999
 30
0.0
 11
67.70282300000042
 21
20.99999999999997
 31
0.0
  0
LINE
  5
220BF
330
21F0B
100
AcDbEntity
  8
2
 62
     0
440
 16777216
370
    -2
100
AcDbLine
 10
33.18249999999995
 20
-21.00000000000001
 30
0.0
 11
67.70282300000042
 21
-21.00000000000003
 31
0.0
  0
LINE
  5
220C0
330
21F0B
100
AcDbEntity
  8
2
 62
     0
440
 16777216
370
    -2
100
AcDbLine
 10
67.52282300000041
 20
16.42999999999997
 30
0.0
 11
67.52282300000041
 21
-16.43000000000002
 31
0.0
  0
SOLID
  5
220C1
330
21F0B
100
AcDbEntity
  8
2
 62
     0
440
 16777216
100
AcDbTrace
 10
66.76115633333374
 20
16.42999999999997
 30
0.0
 11
68.28448966666709
 21
16.42999999999997
 31
0.0
 12
67.52282300000041
 22
20.99999999999997
 32
0.0
 13
67.52282300000041
 23
20.99999999999997
 33
0.0
  0
SOLID
  5
220C2
330
21F0B
100
AcDbEntity
  8
2
 62
     0
440
 16777216
100
AcDbTrace
 10
66.76115633333374
 20
-16.43000000000002
 30
0.0
 11
68.28448966666709
 21
-16.43000000000002
 31
0.0
 12
67.52282300000041
 22
-21.00000000000003
 32
0.0
 13
67.52282300000041
 23
-21.00000000000003
 33
0.0
  0
MTEXT
  5
220C3
330
21F0B
100
AcDbEntity
  8
2
 62
     0
440
 16777216
100
AcDbMText
 10
65.56968174912198
 20
-0.000000000000014
 30
0.0
 40
3.5
 41
0.0
 46
0.0
 71
     5
 72
     1
  1
\A1;%%c42
 11
0.0000000000000001
 21
1.0
 31
0.0
 73
     1
 44
1.0
  0
POINT
  5
220C4
330
21F0B
100
AcDbEntity
  8
Defpoints
 62
     0
440
 16777216
100
AcDbPoint
 10
33.11999999999995
 20
20.99999999999999
 30
0.0
  0
POINT
  5
220C5
330
21F0B
100
AcDbEntity
  8
Defpoints
 62
     0
440
 16777216
100
AcDbPoint
 10
33.11999999999995
 20
-21.00000000000001
 30
0.0
  0
POINT
  5
220C6
330
21F0B
100
AcDbEntity
  8
Defpoints
 62
     0
440
 16777216
100
AcDbPoint
 10
67.52282300000041
 20
-21.00000000000003
 30
0.0
  0
ENDBLK
  5
21F0D
330
21F0B
100
AcDbEntity
  8
0
100
AcDbBlockEnd
  0
BLOCK
  5
21F18
330
21F17
100
AcDbEntity
  8
0
100
AcDbBlockBegin
  2
*D13
 70
     1
 10
0.0
 20
0.0
 30
0.0
  3
*D13
  1

  0
LINE
  5
220C7
330
21F17
100
AcDbEntity
  8
2
 62
     0
440
 16777216
370
    -2
100
AcDbLine
 10
34.78250000000008
 20
10.95000000000026
 30
0.0
 11
53.70282300000019
 21
10.95000000000025
 31
0.0
  0
LINE
  5
220C8
330
21F17
100
AcDbEntity
  8
2
 62
     0
440
 16777216
370
    -2
100
AcDbLine
 10
34.78250000000008
 20
-10.95000000000005
 30
0.0
 11
53.70282300000019
 21
-10.95000000000006
 31
0.0
  0
LINE
  5
220C9
330
21F17
100
AcDbEntity
  8
2
 62
     0
440
 16777216
370
    -2
100
AcDbLine
 10
53.52282300000019
 20
6.380000000000252
 30
0.0
 11
53.52282300000019
 21
-6.380000000000058
 31
0.0
  0
SOLID
  5
220CA
330
21F17
100
AcDbEntity
  8
2
 62
     0
440
 16777216
100
AcDbTrace
 10
52.76115633333351
 20
6.380000000000252
 30
0.0
 11
54.28448966666685
 21
6.380000000000251
 31
0.0
 12
53.52282300000019
 22
10.95000000000025
 32
0.0
 13
53.52282300000019
 23
10.95000000000025
 33
0.0
  0
SOLID
  5
220CB
330
21F17
100
AcDbEntity
  8
2
 62
     0
440
 16777216
100
AcDbTrace
 10
52.76115633333351
 20
-6.380000000000058
 30
0.0
 11
54.28448966666685
 21
-6.380000000000059
 31
0.0
 12
53.52282300000019
 22
-10.95000000000006
 32
0.0
 13
53.52282300000019
 23
-10.95000000000006
 33
0.0
  0
MTEXT
  5
220CC
330
21F17
100
AcDbEntity
  8
2
 62
     0
440
 16777216
100
AcDbMText
 10
51.62133318974017
 20
-0.0000000000001277
 30
0.0
 40
3.5
 41
0.0
 46
0.0
 71
     5
 72
     1
  1
\A1;21.9
 11
0.0000000000000001
 21
1.0
 31
0.0
 73
     1
 44
1.0
  0
POINT
  5
220CD
330
21F17
100
AcDbEntity
  8
Defpoints
 62
     0
440
 16777216
100
AcDbPoint
 10
34.72000000000008
 20
10.95000000000026
 30
0.0
  0
POINT
  5
220CE
330
21F17
100
AcDbEntity
  8
Defpoints
 62
     0
440
 16777216
100
AcDbPoint
 10
34.72000000000008
 20
-10.95000000000005
 30
0.0
  0
POINT
  5
220CF
330
21F17
100
AcDbEntity
  8
Defpoints
 62
     0
440
 16777216
100
AcDbPoint
 10
53.52282300000019
 20
-10.95000000000006
 30
0.0
  0
ENDBLK
  5
21F19
330
21F17
100
AcDbEntity
  8
0
100
AcDbBlockEnd
  0
BLOCK
  5
21F24
330
21F23
100
AcDbEntity
  8
0
100
AcDbBlockBegin
  2
*D14
 70
     1
 10
0.0
 20
0.0
 30
0.0
  3
*D14
  1

  0
LINE
  5
220D0
330
21F23
100
AcDbEntity
  8
2
 62
     0
440
 16777216
370
    -2
100
AcDbLine
 10
38.87000104065263
 20
0.0624999999913221
 30
0.0
 11
38.87074951124307
 21
45.0144979584954
 31
0.0
  0
LINE
  5
220D1
330
21F23
100
AcDbEntity
  8
2
 62
     0
440
 16777216
370
    -2
100
AcDbLine
 10
0.0000010406525632
 20
20.6610319999913
 30
0.0
 11
0.00040654737728
 21
45.01514516684809
 31
0.0
  0
LINE
  5
220D2
330
21F23
100
AcDbEntity
  8
2
 62
     0
440
 16777216
370
    -2
100
AcDbLine
 10
34.30074651479717
 20
44.83457405103577
 30
0.0
 11
4.570403549664411
 21
44.83506907435763
 31
0.0
  0
SOLID
  5
220D3
330
21F23
100
AcDbEntity
  8
2
 62
     0
440
 16777216
100
AcDbTrace
 10
34.30075919688307
 20
45.59624071759687
 30
0.0
 11
34.30073383271127
 21
44.07290738447469
 31
0.0
 12
38.87074651416368
 22
44.83449795852036
 32
0.0
 13
38.87074651416368
 23
44.83449795852036
 33
0.0
  0
SOLID
  5
220D4
330
21F23
100
AcDbEntity
  8
2
 62
     0
440
 16777216
100
AcDbTrace
 10
4.570416231750315
 20
45.59673574091871
 30
0.0
 11
4.570390867578508
 21
44.07340240779653
 31
0.0
 12
0.000403550297898
 22
44.83514516687304
 32
0.0
 13
0.000403550297898
 23
44.83514516687304
 33
0.0
  0
MTEXT
  5
220D5
330
21F23
100
AcDbEntity
  8
2
 62
     0
440
 16777216
100
AcDbMText
 10
19.43516570433008
 20
46.73631138003578
 30
0.0
 40
3.5
 41
0.0
 46
0.0
 71
     5
 72
     1
  1
\A1;38.9
 11
0.9999999998613814
 21
-0.000016650441011
 31
0.0
 73
     1
 44
1.0
  0
POINT
  5
220D6
330
21F23
100
AcDbEntity
  8
Defpoints
 62
     0
440
 16777216
100
AcDbPoint
 10
38.87000000000007
 20
-0.0000000000000142
 30
0.0
  0
POINT
  5
220D7
330
21F23
100
AcDbEntity
  8
Defpoints
 62
     0
440
 16777216
100
AcDbPoint
 10
0.0
 20
20.59853199999997
 30
0.0
  0
POINT
  5
220D8
330
21F23
100
AcDbEntity
  8
Defpoints
 62
     0
440
 16777216
100
AcDbPoint
 10
0.000403550297898
 20
44.83514516687304
 30
0.0
  0
ENDBLK
  5
21F25
330
21F23
100
AcDbEntity
  8
0
100
AcDbBlockEnd
  0
BLOCK
  5
21F30
330
21F2F
100
AcDbEntity
  8
0
100
AcDbBlockBegin
  2
*D15
 70
     1
 10
0.0
 20
0.0
 30
0.0
  3
*D15
  1

  0
LINE
  5
220D9
330
21F2F
100
AcDbEntity
  8
2
 62
     0
440
 16777216
370
    -2
100
AcDbLine
 10
38.87000104065263
 20
0.0624999999913221
 30
0.0
 11
38.87056635639195
 21
34.01449796002058
 31
0.0
  0
LINE
  5
220DA
330
21F2F
100
AcDbEntity
  8
2
 62
     0
440
 16777216
370
    -2
100
AcDbLine
 10
33.92000104065259
 20
20.26249999999137
 30
0.0
 11
33.92023001885585
 21
34.01458038530376
 31
0.0
  0
LINE
  5
220DB
330
21F2F
100
AcDbEntity
  8
2
 62
     0
440
 16777216
370
    -2
100
AcDbLine
 10
43.44056335867907
 20
33.83442186753011
 30
0.0
 11
48.01056335804559
 21
33.83434577501469
 31
0.0
  0
LINE
  5
220DC
330
21F2F
100
AcDbEntity
  8
2
 62
     0
440
 16777216
370
    -2
100
AcDbLine
 10
29.35022702240996
 20
33.83465647784414
 30
0.0
 11
15.36199793088446
 21
33.83488938802751
 31
0.0
  0
LINE
  5
220DD
330
21F2F
100
AcDbEntity
  8
2
 62
     0
440
 16777216
370
    -2
100
AcDbLine
 10
38.87056335931256
 20
33.83449796004553
 30
0.0
 11
33.92022702177647
 21
33.83458038532872
 31
0.0
  0
SOLID
  5
220DE
330
21F2F
100
AcDbEntity
  8
2
 62
     0
440
 16777216
100
AcDbTrace
 10
43.44057604076498
 20
34.5960885340912
 30
0.0
 11
43.44055067659318
 21
33.07275520096902
 31
0.0
 12
38.87056335931256
 22
33.83449796004553
 32
0.0
 13
38.87056335931256
 23
33.83449796004553
 33
0.0
  0
SOLID
  5
220DF
330
21F2F
100
AcDbEntity
  8
2
 62
     0
440
 16777216
100
AcDbTrace
 10
29.35023970449586
 20
34.59632314440522
 30
0.0
 11
29.35021434032405
 21
33.07298981128305
 31
0.0
 12
33.92022702177647
 22
33.83458038532872
 32
0.0
 13
33.92022702177647
 23
33.83458038532872
 33
0.0
  0
MTEXT
  5
220E0
330
21F2F
100
AcDbEntity
  8
2
 62
     0
440
 16777216
100
AcDbMText
 10
20.07114413760787
 20
35.73630078918997
 30
0.0
 40
3.5
 41
0.0
 46
0.0
 71
     5
 72
     1
  1
\A1;4.95
 11
0.9999999998613814
 21
-0.000016650441011
 31
0.0
 73
     1
 44
1.0
  0
POINT
  5
220E1
330
21F2F
100
AcDbEntity
  8
Defpoints
 62
     0
440
 16777216
100
AcDbPoint
 10
38.87000000000007
 20
-0.0000000000000142
 30
0.0
  0
POINT
  5
220E2
330
21F2F
100
AcDbEntity
  8
Defpoints
 62
     0
440
 16777216
100
AcDbPoint
 10
33.92000000000003
 20
20.20000000000003
 30
0.0
  0
POINT
  5
220E3
330
21F2F
100
AcDbEntity
  8
Defpoints
 62
     0
440
 16777216
100
AcDbPoint
 10
33.92022702177647
 20
33.83458038532872
 30
0.0
  0
ENDBLK
  5
21F31
330
21F2F
100
AcDbEntity
  8
0
100
AcDbBlockEnd
  0
BLOCK
  5
21F3E
330
21F3D
100
AcDbEntity
  8
0
100
AcDbBlockBegin
  2
*D16
 70
     1
 10
0.0
 20
0.0
 30
0.0
  3
*D16
  1

  0
LINE
  5
220E4
330
21F3D
100
AcDbEntity
  8
SK2
 62
     0
440
 16777216
370
    -2
100
AcDbLine
 10
-17.16250000000002
 20
8.399999999999963
 30
0.0
 11
-33.27222024186136
 21
8.399999999999968
 31
0.0
  0
LINE
  5
220E5
330
21F3D
100
AcDbEntity
  8
SK2
 62
     0
440
 16777216
370
    -2
100
AcDbLine
 10
-17.16250000000002
 20
-8.399999999999991
 30
0.0
 11
-33.27222024186136
 21
-8.399999999999986
 31
0.0
  0
LINE
  5
220E6
330
21F3D
100
AcDbEntity
  8
SK2
 62
     0
440
 16777216
370
    -2
100
AcDbLine
 10
-33.09222024186136
 20
3.829999999999968
 30
0.0
 11
-33.09222024186136
 21
-3.829999999999985
 31
0.0
  0
SOLID
  5
220E7
330
21F3D
100
AcDbEntity
  8
SK2
 62
     0
440
 16777216
100
AcDbTrace
 10
-33.85388690852803
 20
3.829999999999968
 30
0.0
 11
-32.33055357519468
 21
3.829999999999968
 31
0.0
 12
-33.09222024186136
 22
8.399999999999968
 32
0.0
 13
-33.09222024186136
 23
8.399999999999968
 33
0.0
  0
SOLID
  5
220E8
330
21F3D
100
AcDbEntity
  8
SK2
 62
     0
440
 16777216
100
AcDbTrace
 10
-33.85388690852803
 20
-3.829999999999985
 30
0.0
 11
-32.33055357519468
 21
-3.829999999999985
 31
0.0
 12
-33.09222024186136
 22
-8.399999999999986
 32
0.0
 13
-33.09222024186136
 23
-8.399999999999986
 33
0.0
  0
MTEXT
  5
220E9
330
21F3D
100
AcDbEntity
  8
SK2
 62
     0
440
 16777216
100
AcDbMText
 10
-35.04536149273978
 20
-0.0206204830433447
 30
0.0
 40
3.5
 41
0.0
 46
0.0
 71
     5
 72
     1
  1
\A1;%%C16.8
 11
0.0000000000000001
 21
1.0
 31
0.0
 73
     1
 44
1.0
  0
POINT
  5
220EA
330
21F3D
100
AcDbEntity
  8
Defpoints
 62
     0
440
 16777216
100
AcDbPoint
 10
-17.10000000000002
 20
8.399999999999963
 30
0.0
  0
POINT
  5
220EB
330
21F3D
100
AcDbEntity
  8
Defpoints
 62
     0
440
 16777216
100
AcDbPoint
 10
-17.10000000000002
 20
-8.399999999999991
 30
0.0
  0
POINT
  5
220EC
330
21F3D
100
AcDbEntity
  8
Defpoints
 62
     0
440
 16777216
100
AcDbPoint
 10
-33.09222024186136
 20
-8.399999999999986
 30
0.0
  0
ENDBLK
  5
21F3F
330
21F3D
100
AcDbEntity
  8
0
100
AcDbBlockEnd
  0
ENDSEC
  0
SECTION
  2
ENTITIES
  0
MTEXT
  5
211A0
330
1F
100
AcDbEntity
  8
SK6
100
AcDbMText
 10
11.63990035088301
 20
-37.3527986104305
 30
0.0
 40
3.5
 41
42.8973560220393
 46
0.0
 71
     2
 72
     1
  1
CD4200039YPR00
 73
     1
 44
1.0
1001
ACAD
1000
MTEXTBEGIN
1070
    73
1070
     1
1070
    44
1040
1.0
1070
    74
1070
     0
1000
MTEXTEND
  0
INSERT
  5
21DE8
330
1F
100
AcDbEntity
  8
1
100
AcDbBlockReference
  2
cero_point
 10
-0.000000000003638
 20
-0.0000000000000142
 30
0.0
  0
LINE
  5
21DEC
330
1F
100
AcDbEntity
  8
INFTOTAL
100
AcDbLine
 10
-125.9944819951151
 20
17.63625676933769
 30
0.0
 11
-125.9944819951151
 21
61.22797916557646
 31
0.0
  0
LINE
  5
21DED
330
1F
100
AcDbEntity
  8
INFTOTAL
100
AcDbLine
 10
-125.9944819951151
 20
61.22797916557646
 30
0.0
 11
-69.59069562635614
 21
61.22797916557646
 31
0.0
  0
LINE
  5
21DEE
330
1F
100
AcDbEntity
  8
INFTOTAL
100
AcDbLine
 10
30.42396150704008
 20
-58.66242163109383
 30
0.0
 11
85.78274275812418
 21
-58.66242163109383
 31
0.0
  0
LINE
  5
21DEF
330
1F
100
AcDbEntity
  8
INFTOTAL
100
AcDbLine
 10
85.78274275812418
 20
-58.66242163109383
 30
0.0
 11
85.78274275812418
 21
-18.21430543449926
 31
0.0
  0
DIMENSION
  5
21DF0
330
1F
100
AcDbEntity
  8
2
100
AcDbDimension
280
     0
  2
*D12
 10
67.52282300000041
 20
-21.00000000000003
 30
0.0
 11
67.52282300000041
 21
-0.0000000000000142
 31
0.0
 70
   161
  1
%%c<>
 71
     5
 42
42.0
 73
     0
 74
     0
 75
     0
  3
STANDARD
100
AcDbAlignedDimension
 13
33.11999999999995
 23
20.99999999999999
 33
0.0
 14
33.11999999999995
 24
-21.00000000000001
 34
0.0
1001
ACAD_DSTYLE_DIMARC_LENGTH_SYMBOL
1070
   379
1070
     1
1001
ACAD_DSTYLE_DIM_LINETYPE
1070
   380
1005
14
1001
ACAD_DSTYLE_DIM_EXT1_LINETYPE
1070
   381
1005
14
1001
ACAD_DSTYLE_DIM_EXT2_LINETYPE
1070
   382
1005
14
1001
ACAD
1000
DSTYLE
1002
{
1070
   172
1070
     1
1002
}
  0
DIMENSION
  5
21DF1
330
1F
100
AcDbEntity
  8
2
100
AcDbDimension
280
     0
  2
*D13
 10
53.52282300000019
 20
-10.95000000000006
 30
0.0
 11
53.52282300000019
 21
-0.0000000000001279
 31
0.0
 70
   161
 71
     5
 42
21.90000000000031
 73
     0
 74
     0
 75
     0
  3
STANDARD
100
AcDbAlignedDimension
 13
34.72000000000008
 23
10.95000000000026
 33
0.0
 14
34.72000000000008
 24
-10.95000000000005
 34
0.0
1001
ACAD_DSTYLE_DIMARC_LENGTH_SYMBOL
1070
   379
1070
     1
1001
ACAD_DSTYLE_DIM_LINETYPE
1070
   380
1005
14
1001
ACAD_DSTYLE_DIM_EXT1_LINETYPE
1070
   381
1005
14
1001
ACAD_DSTYLE_DIM_EXT2_LINETYPE
1070
   382
1005
14
1001
ACAD
1000
DSTYLE
1002
{
1070
   172
1070
     1
1002
}
  0
DIMENSION
  5
21DF2
330
1F
100
AcDbEntity
  8
2
100
AcDbDimension
280
     0
  2
*D14
 10
0.000403550297898
 20
44.83514516687304
 30
0.0
 11
19.43513404368616
 21
44.83482157003935
 31
0.0
 70
   160
  1
38.9
 71
     5
 42
38.87034296925394
 73
     0
 74
     0
 75
     0
  3
STANDARD
100
AcDbAlignedDimension
 13
38.87000000000006
 23
-0.0000000000000142
 33
0.0
 14
0.0
 24
20.59853199999996
 34
0.0
 50
179.999046000003
100
AcDbRotatedDimension
1001
ACAD_DSTYLE_DIMARC_LENGTH_SYMBOL
1070
   379
1070
     1
1001
ACAD_DSTYLE_DIM_LINETYPE
1070
   380
1005
14
1001
ACAD_DSTYLE_DIM_EXT1_LINETYPE
1070
   381
1005
14
1001
ACAD_DSTYLE_DIM_EXT2_LINETYPE
1070
   382
1005
14
1001
ACAD
1000
DSTYLE
1002
{
1070
   172
1070
     1
1002
}
  0
DIMENSION
  5
21DF3
330
1F
100
AcDbEntity
  8
2
100
AcDbDimension
280
     0
  2
*D15
 10
33.92022702177647
 20
33.83458038532872
 30
0.0
 11
20.07111247696395
 21
33.83481097919354
 31
0.0
 70
   160
 71
     5
 42
4.9503363382223
 73
     0
 74
     0
 75
     0
  3
STANDARD
100
AcDbAlignedDimension
 13
38.87000000000006
 23
-0.0000000000000142
 33
0.0
 14
33.92000000000002
 24
20.20000000000003
 34
0.0
 50
179.999046000003
100
AcDbRotatedDimension
1001
ACAD_DSTYLE_DIMARC_LENGTH_SYMBOL
1070
   379
1070
     1
1001
ACAD_DSTYLE_DIM_LINETYPE
1070
   380
1005
14
1001
ACAD_DSTYLE_DIM_EXT1_LINETYPE
1070
   381
1005
14
1001
ACAD_DSTYLE_DIM_EXT2_LINETYPE
1070
   382
1005
14
1001
ACAD
1000
DSTYLE
1002
{
1070
   172
1070
     1
1002
}
  0
LINE
  5
21DF4
330
1F
100
AcDbEntity
  8
SK4
100
AcDbLine
 10
-22.10201700000005
 20
-0.0000000000000142
 30
0.0
 11
-0.0000000000037801
 21
0.0
 31
0.0
  0
LINE
  5
21DF5
330
1F
100
AcDbEntity
  8
SK3
100
AcDbLine
 10
0.0
 20
10.74999999999998
 30
0.0
 11
32.82000000000011
 21
10.74999999999998
 31
0.0
  0
LINE
  5
21DF6
330
1F
100
AcDbEntity
  8
SK3
100
AcDbLine
 10
0.0
 20
6.450000000000258
 30
0.0
 11
32.82000000000011
 21
6.450000000000258
 31
0.0
  0
LINE
  5
21DF7
330
1F
100
AcDbEntity
  8
SK3
100
AcDbLine
 10
0.0
 20
-6.450000000000059
 30
0.0
 11
32.82000000000011
 21
-6.450000000000059
 31
0.0
  0
LINE
  5
21DF8
330
1F
100
AcDbEntity
  8
SK3
100
AcDbLine
 10
0.0
 20
-10.75000000000001
 30
0.0
 11
32.82000000000011
 21
-10.75000000000001
 31
0.0
  0
LINE
  5
21DFA
330
1F
100
AcDbEntity
  8
1
100
AcDbLine
 10
33.92000000000002
 20
10.95000000000026
 30
0.0
 11
31.50799999999998
 21
10.95000000000026
 31
0.0
  0
LINE
  5
21DFE
330
1F
100
AcDbEntity
  8
1
100
AcDbLine
 10
19.10500000000007
 20
4.294239999999931
 30
0.0
 11
19.10500000000007
 21
5.343691000000021
 31
0.0
  0
ARC
  5
21DFF
330
1F
100
AcDbEntity
  8
1
100
AcDbCircle
 10
14.41670000000005
 20
-664.1081840000005
 30
0.0
 40
684.858206
100
AcDbArc
 50
90.00209099999727
 51
91.20620200000185
  0
LINE
  5
21E00
330
1F
100
AcDbEntity
  8
1
100
AcDbLine
 10
22.29999999999984
 20
20.74999999999999
 30
0.0
 11
14.39170199999995
 21
20.74999999999999
 31
0.0
  0
CIRCLE
  5
21E01
330
1F
100
AcDbEntity
  8
1
100
AcDbCircle
 10
28.11000000000007
 20
15.19000000000004
 30
0.0
 40
1.919999999999999
  0
LINE
  5
21E02
330
1F
100
AcDbEntity
  8
1
100
AcDbLine
 10
26.69000000000006
 20
9.379999999999981
 30
0.0
 11
22.29999999999984
 21
9.379999999999981
 31
0.0
  0
ARC
  5
21E03
330
1F
100
AcDbEntity
  8
1
100
AcDbCircle
 10
44.915729
 20
165.2774149999999
 30
0.0
 40
159.600117
100
AcDbArc
 50
261.2513420000029
 51
263.4427329999974
  0
SPLINE
  5
21E04
330
1F
100
AcDbEntity
  8
1
100
AcDbSpline
210
0.0
220
0.0
230
1.0
 70
     8
 71
     5
 72
    12
 73
     6
 74
     0
 42
0.000000001
 43
0.0000000001
 40
0.0
 40
0.0
 40
0.0
 40
0.0
 40
0.0
 40
0.0
 40
12.15954399611619
 40
12.15954399611619
 40
12.15954399611619
 40
12.15954399611619
 40
12.15954399611619
 40
12.15954399611619
 10
13.76077295970009
 20
7.390972138910328
 30
0.0
 10
15.11751965292899
 20
7.469836036338264
 30
0.0
 10
16.48797142157065
 20
7.513966025825979
 30
0.0
 10
17.86849779278435
 20
7.53425114879279
 30
0.0
 10
19.2521992913293
 20
7.539255738468781
 30
0.0
 10
20.64051256250008
 20
7.534234398809857
 30
0.0
  0
LINE
  5
21E05
330
1F
100
AcDbEntity
  8
1
100
AcDbLine
 10
13.75045899999998
 20
7.310803999999947
 30
0.0
 11
13.76077300000003
 21
7.39096999999991
 31
0.0
  0
SPLINE
  5
21E06
330
1F
100
AcDbEntity
  8
1
100
AcDbSpline
210
0.0
220
0.0
230
1.0
 70
     8
 71
     5
 72
    15
 73
     9
 74
     0
 42
0.000000001
 43
0.0000000001
 40
0.0
 40
0.0
 40
0.0
 40
0.0
 40
0.0
 40
0.0
 40
7.818030615324941
 40
7.818030615324941
 40
7.818030615324941
 40
9.808904735381499
 40
9.808904735381499
 40
9.808904735381499
 40
9.808904735381499
 40
9.808904735381499
 40
9.808904735381499
 10
8.619330212165039
 20
6.150188184315751
 30
0.0
 10
9.384781859783458
 20
6.398090155483359
 30
0.0
 10
10.18376789909661
 20
6.616825553497946
 30
0.0
 10
10.99760344637212
 20
6.808278004720349
 30
0.0
 10
12.04114577222412
 20
7.021935336537794
 30
0.0
 10
13.10132532351417
 20
7.205737356606945
 30
0.0
 10
13.3171573743968
 20
7.241870994466793
 30
0.0
 10
13.53353945948703
 20
7.276875380635928
 30
0.0
 10
13.75045877399986
 20
7.310804122789917
 30
0.0
  0
ARC
  5
21E07
330
1F
100
AcDbEntity
  8
1
100
AcDbCircle
 10
28.372072
 20
-743.8581880000002
 30
0.0
 40
749.259637
100
AcDbArc
 50
90.12862800000231
 51
90.70866999999994
  0
LINE
  5
21E08
330
1F
100
AcDbEntity
  8
1
100
AcDbLine
 10
22.29999999999984
 20
9.379999999999981
 30
0.0
 11
22.29999999999984
 21
7.528452000000001
 31
0.0
  0
LINE
  5
21E09
330
1F
100
AcDbEntity
  8
1
100
AcDbLine
 10
20.64051300000011
 20
7.534233999999955
 30
0.0
 11
22.29999999999984
 21
7.528452000000001
 31
0.0
  0
LINE
  5
21E0A
330
1F
100
AcDbEntity
  8
1
100
AcDbLine
 10
0.0
 20
20.59853199999996
 30
0.0
 11
0.0
 21
8.360756999999907
 31
0.0
  0
ARC
  5
21E0B
330
1F
100
AcDbEntity
  8
1
100
AcDbCircle
 10
14.40015800000003
 20
663.7280519999998
 30
0.0
 40
684.478064
100
AcDbArc
 50
268.7945129999976
 51
269.999292000003
  0
ARC
  5
21E0C
330
1F
100
AcDbEntity
  8
SK1
100
AcDbCircle
 10
11.68785100000008
 20
1702.530383999999
 30
0.0
 40
1710.93108
100
AcDbArc
 50
269.0693979999989
 51
269.6085929999993
  0
ARC
  5
21E0D
330
1F
100
AcDbEntity
  8
SK1
100
AcDbCircle
 10
49.18558900000011
 20
70.15423799999995
 30
0.0
 40
101.968713
100
AcDbArc
 50
229.4539240000049
 51
230.1895990000021
  0
LINE
  5
21E0E
330
1F
100
AcDbEntity
  8
SK1
100
AcDbLine
 10
-17.10000000000002
 20
-6.494110999999989
 30
0.0
 11
-17.10000000000002
 21
-7.329952000000062
 31
0.0
  0
LINE
  5
21E0F
330
1F
100
AcDbEntity
  8
SK1
100
AcDbLine
 10
-17.10000000000002
 20
4.876743000000018
 30
0.0
 11
-17.10000000000002
 21
-6.494110999999989
 31
0.0
  0
LINE
  5
21E10
330
1F
100
AcDbEntity
  8
SK1
100
AcDbLine
 10
-17.10000000000002
 20
4.876743000000018
 30
0.0
 11
-17.10000000000002
 21
5.62213599999994
 31
0.0
  0
LINE
  5
21E11
330
1F
100
AcDbEntity
  8
SK1
100
AcDbLine
 10
-17.10000000000002
 20
7.329952000000034
 30
0.0
 11
-17.10000000000002
 21
5.62213599999994
 31
0.0
  0
LINE
  5
21E12
330
1F
100
AcDbEntity
  8
1
100
AcDbLine
 10
22.29999999999984
 20
9.999999999999985
 30
0.0
 11
22.29999999999984
 21
20.74999999999999
 31
0.0
  0
LINE
  5
21E13
330
1F
100
AcDbEntity
  8
1
100
AcDbLine
 10
22.29999999999984
 20
9.379999999999981
 30
0.0
 11
22.29999999999984
 21
9.999999999999985
 31
0.0
  0
LINE
  5
21E14
330
1F
100
AcDbEntity
  8
1
100
AcDbLine
 10
15.21840699999984
 20
20.49843299999996
 30
0.0
 11
14.39170800000005
 21
20.74999699999999
 31
0.0
  0
ARC
  5
21E15
330
1F
100
AcDbEntity
  8
SK1
100
AcDbCircle
 10
11.68785100000008
 20
-1702.530384
 30
0.0
 40
1710.93108
100
AcDbArc
 50
90.39140700000073
 51
90.93060200000108
  0
ARC
  5
21E16
330
1F
100
AcDbEntity
  8
SK1
100
AcDbCircle
 10
49.18558900000011
 20
-70.15423800000021
 30
0.0
 40
101.968713
100
AcDbArc
 50
129.8104009999984
 51
130.5460759999951
  0
LINE
  5
21E17
330
1F
100
AcDbEntity
  8
1
100
AcDbLine
 10
14.15608700000007
 20
9.999999999999985
 30
0.0
 11
22.29999999999984
 21
9.999999999999985
 31
0.0
  0
LINE
  5
21E18
330
1F
100
AcDbEntity
  8
1
100
AcDbLine
 10
15.21840499999985
 20
20.49842699999998
 30
0.0
 11
14.15608700000007
 21
9.999999999999985
 31
0.0
  0
ELLIPSE
  5
21E19
330
1F
100
AcDbEntity
  8
1
100
AcDbEllipse
 10
13.54913699999997
 20
9.999999999999985
 30
0.0
 11
0.4339123964309695
 21
4.199541568756102
 31
0.0
210
0.0
220
0.0
230
1.0
 40
0.143017
 41
4.056894793267766
 42
4.727164917745992
  0
ARC
  5
21E1A
330
1F
100
AcDbEntity
  8
SK1
100
AcDbCircle
 10
-16.02702300000004
 20
12.72263099999996
 30
0.0
 40
7.919027
100
AcDbArc
 50
262.2127329999993
 51
267.0467829999978
  0
ARC
  5
21E1B
330
1F
100
AcDbEntity
  8
SK1
100
AcDbCircle
 10
-15.88815999999997
 20
14.95778300000005
 30
0.0
 40
10.158498
100
AcDbArc
 50
266.9141119999988
 51
268.8050989999987
  0
LINE
  5
21E1C
330
1F
100
AcDbEntity
  8
SK1
100
AcDbLine
 10
-16.09999999999996
 20
4.801486000000053
 30
0.0
 11
-12.45156999999994
 21
4.588013000000145
 31
0.0
  0
ARC
  5
21E1D
330
1F
100
AcDbEntity
  8
SK1
100
AcDbCircle
 10
-212.1838519999999
 20
-3370.869004000002
 30
0.0
 40
3381.361162
100
AcDbArc
 50
86.40226800000309
 51
86.61364699999801
  0
SPLINE
  5
21E1E
330
1F
100
AcDbEntity
  8
1
100
AcDbSpline
210
0.0
220
0.0
230
1.0
 70
     8
 71
     5
 72
    12
 73
     6
 74
     0
 42
0.000000001
 43
0.0000000001
 40
0.0
 40
0.0
 40
0.0
 40
0.0
 40
0.0
 40
0.0
 40
57.89394003148276
 40
57.89394003148276
 40
57.89394003148276
 40
57.89394003148276
 40
57.89394003148276
 40
57.89394003148276
 10
32.91999999985632
 20
2.767821928540897
 30
0.0
 10
26.24986137360787
 20
3.240889466717348
 30
0.0
 10
19.60400066932226
 20
4.036752413185908
 30
0.0
 10
12.99947764464991
 20
5.138089075332899
 30
0.0
 10
6.45935063057783
 20
6.505991484183468
 30
0.0
 10
-0.0000000000691216
 20
8.088123225754983
 30
0.0
  0
LINE
  5
21E1F
330
1F
100
AcDbEntity
  8
1
100
AcDbLine
 10
32.92000000000002
 20
2.767822000000009
 30
0.0
 11
32.92000000000002
 21
-18.209838
 31
0.0
  0
LINE
  5
21E20
330
1F
100
AcDbEntity
  8
1
100
AcDbLine
 10
32.92000000000002
 20
-18.209838
 30
0.0
 11
32.92000000000002
 21
-20.187187
 31
0.0
  0
LINE
  5
21E21
330
1F
100
AcDbEntity
  8
1
100
AcDbLine
 10
22.29999999999984
 20
-20.187187
 30
0.0
 11
22.29999999999984
 21
-20.75000000000001
 31
0.0
  0
LINE
  5
21E22
330
1F
100
AcDbEntity
  8
1
100
AcDbLine
 10
22.29999999999984
 20
-20.75000000000001
 30
0.0
 11
14.39170199999995
 21
-20.75000000000001
 31
0.0
  0
LINE
  5
21E23
330
1F
100
AcDbEntity
  8
1
100
AcDbLine
 10
32.92000000000002
 20
-20.187187
 30
0.0
 11
22.29999999999984
 21
-20.187187
 31
0.0
  0
LINE
  5
21E24
330
1F
100
AcDbEntity
  8
1
100
AcDbLine
 10
0.0
 20
-18.209838
 30
0.0
 11
0.0
 21
-20.59853199999999
 31
0.0
  0
LINE
  5
21E25
330
1F
100
AcDbEntity
  8
1
100
AcDbLine
 10
0.0
 20
8.088122999999981
 30
0.0
 11
0.0
 21
-18.209838
 31
0.0
  0
LINE
  5
21E26
330
1F
100
AcDbEntity
  8
SK1
100
AcDbLine
 10
-16.09999999999996
 20
-7.371693999999948
 30
0.0
 11
-16.09999999999996
 21
-8.175042999999973
 31
0.0
  0
LINE
  5
21E27
330
1F
100
AcDbEntity
  8
SK1
100
AcDbLine
 10
-16.09999999999996
 20
4.801486000000053
 30
0.0
 11
-16.09999999999996
 21
-7.371693999999948
 31
0.0
  0
CIRCLE
  5
21E28
330
1F
100
AcDbEntity
  8
1
100
AcDbCircle
 10
28.11000000000007
 20
-15.18999999999984
 30
0.0
 40
1.919999999999999
  0
CIRCLE
  5
21E29
330
1F
100
AcDbEntity
  8
1
100
AcDbCircle
 10
28.11000000000007
 20
15.19000000000004
 30
0.0
 40
2.225
  0
CIRCLE
  5
21E2A
330
1F
100
AcDbEntity
  8
1
100
AcDbCircle
 10
28.11000000000007
 20
15.19000000000004
 30
0.0
 40
2.783567999999998
  0
LINE
  5
21E2B
330
1F
100
AcDbEntity
  8
1
100
AcDbLine
 10
26.69000000000006
 20
9.379999999999981
 30
0.0
 11
23.10000000000008
 21
9.379999999999981
 31
0.0
  0
LINE
  5
21E2C
330
1F
100
AcDbEntity
  8
1
100
AcDbLine
 10
33.92000000000002
 20
20.20000000000003
 30
0.0
 11
33.92000000000002
 21
10.95000000000026
 31
0.0
  0
ARC
  5
21E2D
330
1F
100
AcDbEntity
  8
1
100
AcDbCircle
 10
33.11999999999995
 20
20.20000000000003
 30
0.0
 40
0.8
100
AcDbArc
 50
0.0
 51
90.0
  0
LINE
  5
21E2E
330
1F
100
AcDbEntity
  8
1
100
AcDbLine
 10
23.10000000000008
 20
20.99999999999999
 30
0.0
 11
33.11999999999995
 21
20.99999999999999
 31
0.0
  0
ARC
  5
21E2F
330
1F
100
AcDbEntity
  8
1
100
AcDbCircle
 10
23.10000000000008
 20
20.20000000000003
 30
0.0
 40
0.8
100
AcDbArc
 50
90.0
 51
180.0
  0
LINE
  5
21E30
330
1F
100
AcDbEntity
  8
1
100
AcDbLine
 10
22.29999999999984
 20
10.18000000000027
 30
0.0
 11
22.29999999999984
 21
20.20000000000003
 31
0.0
  0
ARC
  5
21E31
330
1F
100
AcDbEntity
  8
1
100
AcDbCircle
 10
23.10000000000008
 20
10.18000000000027
 30
0.0
 40
0.8
100
AcDbArc
 50
180.0
 51
270.0
  0
ARC
  5
21E39
330
1F
100
AcDbEntity
  8
1
100
AcDbCircle
 10
33.11999999999995
 20
-10.18000000000008
 30
0.0
 40
0.8
100
AcDbArc
 50
0.0
 51
90.0
  0
LINE
  5
21E3A
330
1F
100
AcDbEntity
  8
1
100
AcDbLine
 10
33.92000000000002
 20
-20.20000000000005
 30
0.0
 11
33.92000000000002
 21
-10.18000000000008
 31
0.0
  0
ARC
  5
21E3B
330
1F
100
AcDbEntity
  8
1
100
AcDbCircle
 10
33.11999999999995
 20
-20.20000000000005
 30
0.0
 40
0.8
100
AcDbArc
 50
270.0
 51
0.0
  0
LINE
  5
21E3C
330
1F
100
AcDbEntity
  8
1
100
AcDbLine
 10
23.10000000000008
 20
-21.00000000000001
 30
0.0
 11
33.11999999999995
 21
-21.00000000000001
 31
0.0
  0
ARC
  5
21E3D
330
1F
100
AcDbEntity
  8
1
100
AcDbCircle
 10
23.10000000000008
 20
-20.20000000000005
 30
0.0
 40
0.8
100
AcDbArc
 50
180.0
 51
270.0
  0
LINE
  5
21E3E
330
1F
100
AcDbEntity
  8
1
100
AcDbLine
 10
22.29999999999984
 20
-20.18719
 30
0.0
 11
22.29999999999984
 21
-20.20000000000005
 31
0.0
  0
ARC
  5
21E3F
330
1F
100
AcDbEntity
  8
1
100
AcDbCircle
 10
23.10000000000008
 20
-20.20000000000005
 30
0.0
 40
0.125404
100
AcDbArc
 50
180.0
 51
270.0000010000014
  0
LINE
  5
21E40
330
1F
100
AcDbEntity
  8
1
100
AcDbLine
 10
23.10000000000008
 20
-20.32540399999972
 30
0.0
 11
33.11999999999995
 21
-20.32540399999972
 31
0.0
  0
ARC
  5
21E41
330
1F
100
AcDbEntity
  8
1
100
AcDbCircle
 10
33.11999999999995
 20
-20.20000000000005
 30
0.0
 40
0.125404
100
AcDbArc
 50
270.0
 51
0.0000010000014034
  0
LINE
  5
21E42
330
1F
100
AcDbEntity
  8
1
100
AcDbLine
 10
33.24540399999995
 20
-20.20000000000005
 30
0.0
 11
33.24540399999995
 21
-10.18000000000008
 31
0.0
  0
ARC
  5
21E43
330
1F
100
AcDbEntity
  8
1
100
AcDbCircle
 10
33.11999999999995
 20
-10.18000000000008
 30
0.0
 40
0.125404
100
AcDbArc
 50
0.0000010000014034
 51
89.9999989999986
  0
LINE
  5
21E44
330
1F
100
AcDbEntity
  8
1
100
AcDbLine
 10
33.11999999999995
 20
-10.05459599999995
 30
0.0
 11
32.91998999999981
 21
-10.05459599999995
 31
0.0
  0
LINE
  5
21E45
330
1F
100
AcDbEntity
  8
1
100
AcDbLine
 10
22.97459600000008
 20
-20.187187
 30
0.0
 11
22.97459600000008
 21
-20.20000000000005
 31
0.0
  0
LINE
  5
21E46
330
1F
100
AcDbEntity
  8
1
100
AcDbLine
 10
33.11999999999995
 20
-10.05459599999995
 30
0.0
 11
33.11999999999995
 21
-9.380000000000009
 31
0.0
  0
LINE
  5
21E47
330
1F
100
AcDbEntity
  8
1
100
AcDbLine
 10
33.24540399999995
 20
-10.18000000000008
 30
0.0
 11
33.92000000000002
 21
-10.18000000000008
 31
0.0
  0
LINE
  5
21E48
330
1F
100
AcDbEntity
  8
1
100
AcDbLine
 10
33.24540399999995
 20
-20.20000000000005
 30
0.0
 11
33.92000000000002
 21
-20.20000000000005
 31
0.0
  0
LINE
  5
21E49
330
1F
100
AcDbEntity
  8
1
100
AcDbLine
 10
33.11999999999995
 20
-20.32540399999972
 30
0.0
 11
33.11999999999995
 21
-21.00000000000001
 31
0.0
  0
LINE
  5
21E4A
330
1F
100
AcDbEntity
  8
1
100
AcDbLine
 10
23.10000000000008
 20
-20.32540399999972
 30
0.0
 11
23.10000000000008
 21
-21.00000000000001
 31
0.0
  0
LINE
  5
21E4B
330
1F
100
AcDbEntity
  8
1
100
AcDbLine
 10
22.97459600000008
 20
-20.20000000000005
 30
0.0
 11
22.29999999999984
 21
-20.20000000000005
 31
0.0
  0
ARC
  5
21E4C
330
1F
100
AcDbEntity
  8
1
100
AcDbCircle
 10
33.11999999999995
 20
-20.20000000000005
 30
0.0
 40
0.8
100
AcDbArc
 50
270.0
 51
0.0
  0
LINE
  5
21E4D
330
1F
100
AcDbEntity
  8
1
100
AcDbLine
 10
33.11999999999995
 20
-21.00000000000001
 30
0.0
 11
23.10000000000008
 21
-21.00000000000001
 31
0.0
  0
ARC
  5
21E4E
330
1F
100
AcDbEntity
  8
1
100
AcDbCircle
 10
23.10000000000008
 20
-20.20000000000005
 30
0.0
 40
0.8
100
AcDbArc
 50
180.0
 51
270.0
  0
LINE
  5
21E4F
330
1F
100
AcDbEntity
  8
1
100
AcDbLine
 10
32.92000000000002
 20
-9.380000000000009
 30
0.0
 11
33.11999999999995
 21
-9.380000000000009
 31
0.0
  0
ARC
  5
21E50
330
1F
100
AcDbEntity
  8
1
100
AcDbCircle
 10
33.11999999999995
 20
-10.18000000000008
 30
0.0
 40
0.8
100
AcDbArc
 50
0.0
 51
90.0
  0
LINE
  5
21E51
330
1F
100
AcDbEntity
  8
1
100
AcDbLine
 10
33.92000000000002
 20
-10.18000000000008
 30
0.0
 11
33.92000000000002
 21
-20.20000000000005
 31
0.0
  0
LINE
  5
21E52
330
1F
100
AcDbEntity
  8
1
100
AcDbLine
 10
19.10500000000007
 20
5.343905000000162
 30
0.0
 11
19.10500000000007
 21
4.294198000000037
 31
0.0
  0
LINE
  5
21E53
330
1F
100
AcDbEntity
  8
1
100
AcDbLine
 10
26.69000000000006
 20
3.324977999999973
 30
0.0
 11
25.81883000000005
 21
3.416987999999932
 31
0.0
  0
ARC
  5
21E56
330
1F
100
AcDbEntity
  8
1
100
AcDbCircle
 10
30.03857000000005
 20
9.57833499999991
 30
0.0
 40
8.213269999999999
100
AcDbArc
 50
290.5374539999971
 51
295.651467999998
  0
LINE
  5
21E57
330
1F
100
AcDbEntity
  8
1
100
AcDbLine
 10
33.59399900000011
 20
2.174658000000007
 30
0.0
 11
32.92000000000002
 21
2.252150000000014
 31
0.0
  0
LINE
  5
21E58
330
1F
100
AcDbEntity
  8
1
100
AcDbLine
 10
36.09004400000009
 20
3.492537000000183
 30
0.0
 11
36.07304300000004
 21
3.595557999999968
 31
0.0
  0
ARC
  5
21E59
330
1F
100
AcDbEntity
  8
1
100
AcDbCircle
 10
-220.912218
 20
-37.146843
 30
0.0
 40
260.195412
100
AcDbArc
 50
9.008684999998461
 51
9.939767000004156
  0
LINE
  5
21E5A
330
1F
100
AcDbEntity
  8
1
100
AcDbLine
 10
35.3781790000001
 20
7.766312999999954
 30
0.0
 11
34.72000000000008
 21
8.258058999999988
 31
0.0
  0
ARC
  5
21E5B
330
1F
100
AcDbEntity
  8
1
100
AcDbCircle
 10
-0.6430619999999295
 20
-192.4865509999999
 30
0.0
 40
203.835564
100
AcDbArc
 50
80.00930899999834
 51
80.92481499999774
  0
ARC
  5
21E5C
330
1F
100
AcDbEntity
  8
1
100
AcDbCircle
 10
43.83637099999993
 20
-99.56413399999998
 30
0.0
 40
109.060796
100
AcDbArc
 50
96.49067300000135
 51
99.0454670000026
  0
ARC
  5
21E5D
330
1F
100
AcDbEntity
  8
1
100
AcDbCircle
 10
16.16179500000004
 20
38.22552599999993
 30
0.0
 40
40.044116
100
AcDbArc
 50
295.8058400000029
 51
299.8452919999977
  0
LINE
  5
21E5E
330
1F
100
AcDbEntity
  8
1
100
AcDbLine
 10
31.50799999999998
 20
8.797422999999966
 30
0.0
 11
31.50799999999998
 21
10.95000000000026
 31
0.0
  0
LINE
  5
21E5F
330
1F
100
AcDbEntity
  8
1
100
AcDbLine
 10
26.69000000000006
 20
9.659021000000038
 30
0.0
 11
31.50799999999998
 21
10.95000000000026
 31
0.0
  0
LINE
  5
21E63
330
1F
100
AcDbEntity
  8
1
100
AcDbLine
 10
32.92000000000002
 20
0.7009450000000328
 30
0.0
 11
38.67561400000005
 21
-0.2298989999999463
 31
0.0
  0
ELLIPSE
  5
21E64
330
1F
100
AcDbEntity
  8
1
100
AcDbEllipse
 10
39.25283400000007
 20
0.0627859999999458
 30
0.0
 11
10.43496322631835
 21
-1.603819251060485
 31
0.0
210
0.0
220
0.0
230
1.0
 40
0.6074190000000002
 41
4.156642605248658
 42
4.500236651882991
  0
ARC
  5
21E65
330
1F
100
AcDbEntity
  8
1
100
AcDbCircle
 10
39.441079
 20
-6.523118999999965
 30
0.0
 40
3.415987999999998
100
AcDbArc
 50
154.237742999996
 51
167.7071170000028
  0
LINE
  5
21E66
330
1F
100
AcDbEntity
  8
1
100
AcDbLine
 10
37.29523
 20
-3.127900999999965
 30
0.0
 11
36.36476900000008
 21
-5.038471999999742
 31
0.0
  0
SPLINE
  5
21E67
330
1F
100
AcDbEntity
  8
1
100
AcDbSpline
210
0.0
220
0.0
230
1.0
 70
     8
 71
     5
 72
    27
 73
    21
 74
     0
 42
0.000000001
 43
0.0000000001
 40
0.0
 40
0.0
 40
0.0
 40
0.0
 40
0.0
 40
0.0
 40
21.47079160789082
 40
21.47079160789082
 40
21.47079160789082
 40
32.09834832346845
 40
32.09834832346845
 40
32.09834832346845
 40
37.39075685152209
 40
37.39075685152209
 40
37.39075685152209
 40
46.33074551273663
 40
46.33074551273663
 40
46.33074551273663
 40
51.09569981226325
 40
51.09569981226325
 40
51.09569981226325
 40
53.6419519095621
 40
53.6419519095621
 40
53.6419519095621
 40
53.6419519095621
 40
53.6419519095621
 40
53.6419519095621
 10
38.67561445777079
 20
-0.2298991709019589
 30
0.0
 10
38.66440208586033
 20
-0.2592641814495806
 30
0.0
 10
38.65087132289313
 20
-0.2931633523367196
 30
0.0
 10
38.63517837073885
 20
-0.3308897159474924
 30
0.0
 10
38.60442564750514
 20
-0.4026264856197628
 30
0.0
 10
38.55486431148103
 20
-0.5124692204592663
 30
0.0
 10
38.53606357817028
 20
-0.5536563644881341
 30
0.0
 10
38.50183233918659
 20
-0.6278775727149793
 30
0.0
 10
38.45468442170744
 20
-0.7285097282491649
 30
0.0
 10
38.43734638029406
 20
-0.7653701513591074
 30
0.0
 10
38.38488471879617
 20
-0.8764358563852425
 30
0.0
 10
38.31304331320422
 20
-1.027184270089961
 30
0.0
 10
38.26051142344062
 20
-1.136879210606949
 30
0.0
 10
38.1523184967885
 20
-1.361966017094587
 30
0.0
 10
37.9650602354746
 20
-1.749039347112912
 30
0.0
 10
37.88534665709432
 20
-1.91358025403214
 30
0.0
 10
37.73826500334298
 20
-2.216738707779668
 30
0.0
 10
37.53970453169581
 20
-2.625303765810272
 30
0.0
 10
37.46708030553015
 20
-2.774669003902559
 30
0.0
 10
37.38432640764433
 20
-2.944798254189223
 30
0.0
 10
37.29523048307209
 20
-3.127900940779127
 30
0.0
  0
SPLINE
  5
21E68
330
1F
100
AcDbEntity
  8
1
100
AcDbSpline
210
0.0
220
0.0
230
1.0
 70
     8
 71
     5
 72
    42
 73
    36
 74
     0
 42
0.000000001
 43
0.0000000001
 40
0.0
 40
0.0
 40
0.0
 40
0.0
 40
0.0
 40
0.0
 40
36.93577261039406
 40
36.93577261039406
 40
36.93577261039406
 40
86.83296868900894
 40
86.83296868900894
 40
86.83296868900894
 40
99.16786206164664
 40
99.16786206164664
 40
99.16786206164664
 40
111.5986895521846
 40
111.5986895521846
 40
111.5986895521846
 40
118.5785682685823
 40
118.5785682685823
 40
118.5785682685823
 40
120.2977055081491
 40
120.2977055081491
 40
120.2977055081491
 40
121.5888899083688
 40
121.5888899083688
 40
121.5888899083688
 40
122.0193377038466
 40
122.0193377038466
 40
122.0193377038466
 40
122.4523999845231
 40
122.4523999845231
 40
122.4523999845231
 40
122.8854622651996
 40
122.8854622651996
 40
122.8854622651996
 40
123.7484330821025
 40
123.7484330821025
 40
123.7484330821025
 40
123.7484330821025
 40
123.7484330821025
 40
123.7484330821025
 10
38.67561445777079
 20
-0.2298991709019589
 30
0.0
 10
38.69490562137668
 20
-0.1793759428461641
 30
0.0
 10
38.703385541557
 20
-0.1469442412620907
 30
0.0
 10
38.71086008884305
 20
-0.1157759574473545
 30
0.0
 10
38.72090012404243
 20
-0.0515565250873493
 30
0.0
 10
38.7192146231003
 20
0.0053390102216184
 30
0.0
 10
38.71519260804536
 20
0.0379467874778214
 30
0.0
 10
38.70685764185618
 20
0.0826336303793909
 30
0.0
 10
38.68512083467982
 20
0.1471818832998082
 30
0.0
 10
38.68016696081549
 20
0.1609369989704277
 30
0.0
 10
38.66873155966727
 20
0.1909066231208811
 30
0.0
 10
38.65288029992695
 20
0.2279765340556281
 30
0.0
 10
38.64367888175554
 20
0.2483489951041378
 30
0.0
 10
38.62614665601251
 20
0.285688133180642
 30
0.0
 10
38.59840826284852
 20
0.3391558141524769
 30
0.0
 10
38.5847255249501
 20
0.3643908925508725
 30
0.0
 10
38.56865639180382
 20
0.3940485820936459
 30
0.0
 10
38.53993861202975
 20
0.4427663535048936
 30
0.0
 10
38.53344693386708
 20
0.4536382346844761
 30
0.0
 10
38.52204444822536
 20
0.4724712434979069
 30
0.0
 10
38.50808116592765
 20
0.4950110517129219
 30
0.0
 10
38.50125117989859
 20
0.5059332855757788
 30
0.0
 10
38.49023225828279
 20
0.5233744715453526
 30
0.0
 10
38.47419469553728
 20
0.5479509609011615
 30
0.0
 10
38.46732444653623
 20
0.5582666077313974
 30
0.0
 10
38.46473019284514
 20
0.5624640383751825
 30
0.0
 10
38.43720249353641
 20
0.6032139561534536
 30
0.0
 10
38.40432648876589
 20
0.6497777804945457
 30
0.0
 10
38.37505393373857
 20
0.6893089995288478
 30
0.0
 10
38.35979878973552
 20
0.7089728520098646
 30
0.0
 10
38.35093663660126
 20
0.7205483414448822
 30
0.0
 10
38.33057769457463
 20
0.746428577360561
 30
0.0
 10
38.31477317515481
 20
0.7657467889302865
 30
0.0
 10
38.30455659394346
 20
0.7781111325220849
 30
0.0
 10
38.2952908635952
 20
0.78908582888333
 30
0.0
 10
38.28651107554623
 20
0.7993218792293959
 30
0.0
  0
LINE
  5
21E69
330
1F
100
AcDbEntity
  8
1
100
AcDbLine
 10
38.28651099999996
 20
0.7993219999999468
 30
0.0
 11
32.92000000000002
 21
1.667236999999985
 31
0.0
  0
LINE
  5
21E6A
330
1F
100
AcDbEntity
  8
1
100
AcDbLine
 10
36.36476900000008
 20
3.027053000000009
 30
0.0
 11
38.28651099999996
 21
0.7993219999999468
 31
0.0
  0
ARC
  5
21E6B
330
1F
100
AcDbEntity
  8
1
100
AcDbCircle
 10
37.4652650000001
 20
3.991576999999992
 30
0.0
 40
1.463149
100
AcDbArc
 50
199.9448199999951
 51
221.2328029999965
  0
LINE
  5
21E6C
330
1F
100
AcDbEntity
  8
1
100
AcDbLine
 10
36.07304300000004
 20
6.628663999999943
 30
0.0
 11
36.07304300000004
 21
3.595557999999968
 31
0.0
  0
LINE
  5
21E6D
330
1F
100
AcDbEntity
  8
1
100
AcDbLine
 10
36.36476900000008
 20
5.670164999999983
 30
0.0
 11
36.36476900000008
 21
3.027053000000009
 31
0.0
  0
LINE
  5
21E6E
330
1F
100
AcDbEntity
  8
1
100
AcDbLine
 10
35.3781790000001
 20
10.56999999999992
 30
0.0
 11
35.3781790000001
 21
7.766312999999954
 31
0.0
  0
LINE
  5
21E6F
330
1F
100
AcDbEntity
  8
1
100
AcDbLine
 10
34.72000000000008
 20
10.95000000000026
 30
0.0
 11
34.72000000000008
 21
8.258058999999988
 31
0.0
  0
LINE
  5
21E70
330
1F
100
AcDbEntity
  8
1
100
AcDbLine
 10
36.36476900000008
 20
-5.038471999999742
 30
0.0
 11
36.36476900000008
 21
-5.670165000000011
 31
0.0
  0
LINE
  5
21E71
330
1F
100
AcDbEntity
  8
1
100
AcDbLine
 10
36.10325200000005
 20
-6.469088999999954
 30
0.0
 11
36.10325200000005
 21
-5.795790000000025
 31
0.0
  0
LINE
  5
21E72
330
1F
100
AcDbEntity
  8
1
100
AcDbLine
 10
36.10325200000005
 20
-6.469088999999954
 30
0.0
 11
36.08604000000009
 21
-6.558416000000093
 31
0.0
  0
LINE
  5
21E73
330
1F
100
AcDbEntity
  8
1
100
AcDbLine
 10
36.08604000000009
 20
-6.558416000000093
 30
0.0
 11
36.07304300000004
 21
-6.628664000000085
 31
0.0
  0
LINE
  5
21E74
330
1F
100
AcDbEntity
  8
1
100
AcDbLine
 10
35.92407300000008
 20
-7.474081000000083
 30
0.0
 11
36.07304300000004
 21
-6.628664000000085
 31
0.0
  0
LINE
  5
21E75
330
1F
100
AcDbEntity
  8
1
100
AcDbLine
 10
35.92407300000008
 20
-7.474081000000083
 30
0.0
 11
35.3781790000001
 21
-10.56999999999994
 31
0.0
  0
LINE
  5
21E76
330
1F
100
AcDbEntity
  8
1
100
AcDbLine
 10
35.3781790000001
 20
-10.56999999999994
 30
0.0
 11
34.72000000000008
 21
-10.95000000000005
 31
0.0
  0
LINE
  5
21E77
330
1F
100
AcDbEntity
  8
1
100
AcDbLine
 10
34.72000000000008
 20
-10.95000000000005
 30
0.0
 11
33.92000000000002
 21
-10.95000000000005
 31
0.0
  0
LINE
  5
21E78
330
1F
100
AcDbEntity
  8
1
100
AcDbLine
 10
32.91998600000005
 20
-7.474081000000083
 30
0.0
 11
35.92407300000008
 21
-7.474081000000083
 31
0.0
  0
LINE
  5
21E79
330
1F
100
AcDbEntity
  8
1
100
AcDbLine
 10
32.91998600000005
 20
-6.469088999999954
 30
0.0
 11
36.10325200000005
 21
-6.469088999999954
 31
0.0
  0
ARC
  5
21E7B
330
1F
100
AcDbEntity
  8
1
100
AcDbCircle
 10
40.17082800000008
 20
-7.351783999999966
 30
0.0
 40
4.161
100
AcDbArc
 50
156.1628760000001
 51
169.010396000001
  0
LINE
  5
21E7D
330
1F
100
AcDbEntity
  8
1
100
AcDbLine
 10
38.87000000000006
 20
-0.0000000000000142
 30
0.0
 11
36.36476900000008
 21
-5.670165000000011
 31
0.0
  0
LINE
  5
21E7E
330
1F
100
AcDbEntity
  8
SKVIEW4
100
AcDbLine
 10
-57.59240008557992
 20
-0.0000000000000142
 30
0.0
 11
-111.5424000855799
 21
-0.0000000000000142
 31
0.0
  0
LINE
  5
21E7F
330
1F
100
AcDbEntity
  8
SKVIEW4
100
AcDbLine
 10
-84.56740008557995
 20
26.97500000000001
 30
0.0
 11
-84.56740008557995
 21
-26.97500000000004
 31
0.0
  0
ARC
  5
21E80
330
1F
100
AcDbEntity
  8
SKVIEW1
100
AcDbCircle
 10
-84.56740008557995
 20
-0.0000000000000142
 30
0.0
 40
6.474999999999997
100
AcDbArc
 50
7.61828100000154
 51
87.56527400000113
  0
LINE
  5
21E81
330
1F
100
AcDbEntity
  8
SKVIEW1
100
AcDbLine
 10
-73.38634408558016
 20
-3.800013000000049
 30
0.0
 11
-73.38634408558016
 21
1.607784000000023
 31
0.0
  0
ARC
  5
21E82
330
1F
100
AcDbEntity
  8
SKVIEW1
100
AcDbCircle
 10
-75.60508808558006
 20
-3.15033700000005
 30
0.0
 40
5.25
100
AcDbArc
 50
65.00004299999961
 51
120.1639340000012
  0
ARC
  5
21E83
330
1F
100
AcDbEntity
  8
SKVIEW1
100
AcDbCircle
 10
-84.56740008557995
 20
-0.0000000000000142
 30
0.0
 40
5.474999999999997
100
AcDbArc
 50
349.9980680000023
 51
354.3536700000015
  0
LINE
  5
21E84
330
1F
100
AcDbEntity
  8
SKVIEW1
100
AcDbLine
 10
-79.39616708557991
 20
-2.947140000000004
 30
0.0
 11
-79.39616708557991
 21
-1.563539000000005
 31
0.0
  0
SPLINE
  5
21E85
330
1F
100
AcDbEntity
  8
SKVIEW1
100
AcDbSpline
210
0.0
220
0.0
230
1.0
 70
     8
 71
     5
 72
    27
 73
    21
 74
     0
 42
0.000000001
 43
0.0000000001
 40
0.0
 40
0.0
 40
0.0
 40
0.0
 40
0.0
 40
0.0
 40
3.409231127863828
 40
3.409231127863828
 40
3.409231127863828
 40
4.65475223371787
 40
4.65475223371787
 40
4.65475223371787
 40
5.932997815802674
 40
5.932997815802674
 40
5.932997815802674
 40
7.180883513649635
 40
7.180883513649635
 40
7.180883513649635
 40
9.540792015234927
 40
9.540792015234927
 40
9.540792015234927
 40
11.75330055300529
 40
11.75330055300529
 40
11.75330055300529
 40
11.75330055300529
 40
11.75330055300529
 40
11.75330055300529
 10
-73.38634141601733
 20
-3.800000765235168
 30
0.0
 10
-73.61488414354107
 20
-3.79511168755063
 30
0.0
 10
-73.87534176121675
 20
-3.784827214340921
 30
0.0
 10
-74.18622058344033
 20
-3.768517344332408
 30
0.0
 10
-74.66000000170305
 20
-3.743279779864124
 30
0.0
 10
-75.18496539196565
 20
-3.724716332396511
 30
0.0
 10
-75.32829164751797
 20
-3.720504129562883
 30
0.0
 10
-75.62171903052768
 20
-3.714063221692541
 30
0.0
 10
-75.91627479716783
 20
-3.712529319404794
 30
0.0
 10
-76.06450880955219
 20
-3.71318948763043
 30
0.0
 10
-76.35333159882572
 20
-3.717437212051677
 30
0.0
 10
-76.63129939249308
 20
-3.727346652517113
 30
0.0
 10
-76.76944547328395
 20
-3.73379134212918
 30
0.0
 10
-77.14713088516873
 20
-3.755590749289254
 30
0.0
 10
-77.49154288001983
 20
-3.786726329384478
 30
0.0
 10
-77.70676522560177
 20
-3.810819276876614
 30
0.0
 10
-78.08641296880009
 20
-3.860811181578597
 30
0.0
 10
-78.41647630322308
 20
-3.916713548466773
 30
0.0
 10
-78.56566399331774
 20
-3.944652612501172
 30
0.0
 10
-78.70455103163891
 20
-3.972938710724989
 30
0.0
 10
-78.83430664689592
 20
-4.001334951942581
 30
0.0
  0
LINE
  5
21E86
330
1F
100
AcDbEntity
  8
SKVIEW1
100
AcDbLine
 10
-84.56740008557995
 20
6.558093999999968
 30
0.0
 11
-84.56740008557995
 21
9.379999999999981
 31
0.0
  0
LINE
  5
21E87
330
1F
100
AcDbEntity
  8
SKVIEW1
100
AcDbLine
 10
-73.38634408558016
 20
1.607784000000023
 30
0.0
 11
-64.00282708558006
 21
-2.767822000000037
 31
0.0
  0
ARC
  5
21E88
330
1F
100
AcDbEntity
  8
SKVIEW1
100
AcDbCircle
 10
-84.56740008557995
 20
-0.0000000000000142
 30
0.0
 40
20.75
100
AcDbArc
 50
337.0586249999993
 51
76.62488999999974
  0
LINE
  5
21E89
330
1F
100
AcDbEntity
  8
SKVIEW1
100
AcDbLine
 10
-79.76740008557993
 20
9.379999999999981
 30
0.0
 11
-79.76740008557993
 21
20.18718699999998
 31
0.0
  0
LINE
  5
21E8A
330
1F
100
AcDbEntity
  8
SKVIEW1
100
AcDbLine
 10
-79.76740008557993
 20
9.379999999999981
 30
0.0
 11
-84.56740008557995
 21
9.379999999999981
 31
0.0
  0
CIRCLE
  5
21E8B
330
1F
100
AcDbEntity
  8
SKVIEW1
100
AcDbCircle
 10
-70.01817308557986
 20
8.399999999999963
 30
0.0
 40
2.1
  0
SPLINE
  5
21E8C
330
1F
100
AcDbEntity
  8
SKVIEW1
100
AcDbSpline
210
0.0
220
0.0
230
1.0
 70
     8
 71
     5
 72
    33
 73
    27
 74
     0
 42
0.000000001
 43
0.0000000001
 40
0.0
 40
0.0
 40
0.0
 40
0.0
 40
0.0
 40
0.0
 40
3.603378115760586
 40
3.603378115760586
 40
3.603378115760586
 40
6.718901540119983
 40
6.718901540119983
 40
6.718901540119983
 40
8.003984854152657
 40
8.003984854152657
 40
8.003984854152657
 40
9.144608816465453
 40
9.144608816465453
 40
9.144608816465453
 40
10.44596167400199
 40
10.44596167400199
 40
10.44596167400199
 40
11.97415644217061
 40
11.97415644217061
 40
11.97415644217061
 40
17.40733768891351
 40
17.40733768891351
 40
17.40733768891351
 40
18.62537028739793
 40
18.62537028739793
 40
18.62537028739793
 40
18.62537028739793
 40
18.62537028739793
 40
18.62537028739793
 10
-73.38634141601755
 20
-3.800000765236077
 30
0.0
 10
-73.14461048804446
 20
-3.80517197018311
 30
0.0
 10
-72.89741201575975
 20
-3.815596353167521
 30
0.0
 10
-72.64117302747917
 20
-3.8325091566211
 30
0.0
 10
-72.15197314408891
 20
-3.877812477181592
 30
0.0
 10
-71.61687696323077
 20
-3.962559720656386
 30
0.0
 10
-71.36401792363869
 20
-4.011562566857278
 30
0.0
 10
-70.97485688504034
 20
-4.102011051312061
 30
0.0
 10
-70.53642066005602
 20
-4.245495237113928
 30
0.0
 10
-70.40369582438677
 20
-4.292841288410969
 30
0.0
 10
-70.14888279869592
 20
-4.392800597881674
 30
0.0
 10
-69.89078885862983
 20
-4.513206957154594
 30
0.0
 10
-69.77039482874466
 20
-4.574190846106844
 30
0.0
 10
-69.52137255314136
 20
-4.711000993964617
 30
0.0
 10
-69.29617405229288
 20
-4.855974909911324
 30
0.0
 10
-69.18739610113039
 20
-4.931938507822124
 30
0.0
 10
-68.96308445901826
 20
-5.099699077695973
 30
0.0
 10
-68.7735686142812
 20
-5.263184662816584
 30
0.0
 10
-68.67535170840915
 20
-5.354032553483548
 30
0.0
 10
-68.28269766341418
 20
-5.740033067316986
 30
0.0
 10
-68.01153348463737
 20
-6.098704904553883
 30
0.0
 10
-67.83721218532793
 20
-6.356545247818431
 30
0.0
 10
-67.64378597819285
 20
-6.684925477806373
 30
0.0
 10
-67.47960836609195
 20
-7.00838949975629
 30
0.0
 10
-67.4504607682307
 20
-7.067481149471078
 30
0.0
 10
-67.42218180551038
 20
-7.126440301317771
 30
0.0
 10
-67.39471454299587
 20
-7.185296308107936
 30
0.0
  0
LINE
  5
21E8D
330
1F
100
AcDbEntity
  8
SKVIEW1
100
AcDbLine
 10
-67.3946980855801
 20
-7.185324000000051
 30
0.0
 11
-65.45863908557993
 21
-8.08812300000001
 31
0.0
  0
ARC
  5
21E8E
330
1F
100
AcDbEntity
  8
SKVIEW1
100
AcDbCircle
 10
-77.38582808557993
 20
-21.63240100000009
 30
0.0
 40
16.833396
100
AcDbArc
 50
90.98416399999868
 51
93.80610700000024
  0
ARC
  5
21E8F
330
1F
100
AcDbEntity
  8
SKVIEW1
100
AcDbCircle
 10
-84.56740008557995
 20
-0.0000000000000142
 30
0.0
 40
8.4
100
AcDbArc
 50
325.1377459999982
 51
332.8871409999998
  0
ELLIPSE
  5
21E90
330
1F
100
AcDbEntity
  8
SKVIEW1
100
AcDbEllipse
 10
-75.93384908558011
 20
-15.79743099999997
 30
0.0
 11
10.55223751068115
 21
5.998130321502682
 31
0.0
210
0.0
220
0.0
230
1.0
 40
0.9888670000000001
 41
0.2756930370007229
 42
1.154410219698932
  0
LINE
  5
21E91
330
1F
100
AcDbEntity
  8
SKVIEW1
100
AcDbLine
 10
-89.73863308557993
 20
2.947139999999976
 30
0.0
 11
-89.73863308557993
 21
1.563538999999977
 31
0.0
  0
LINE
  5
21E92
330
1F
100
AcDbEntity
  8
SKVIEW1
100
AcDbLine
 10
-95.74845608557996
 20
3.800013000000021
 30
0.0
 11
-95.74845608557996
 21
-1.607784000000052
 31
0.0
  0
ARC
  5
21E93
330
1F
100
AcDbEntity
  8
SKVIEW1
100
AcDbCircle
 10
-93.52987808557987
 20
3.151156999999997
 30
0.0
 40
5.250822
100
AcDbArc
 50
245.0054560000012
 51
300.1609860000018
  0
ARC
  5
21E94
330
1F
100
AcDbEntity
  8
SKVIEW1
100
AcDbCircle
 10
-84.56740008557995
 20
-0.0000000000000142
 30
0.0
 40
6.474999999999997
100
AcDbArc
 50
187.6182810000015
 51
241.3521099999966
  0
SPLINE
  5
21E95
330
1F
100
AcDbEntity
  8
SKVIEW1
100
AcDbSpline
210
0.0
220
0.0
230
1.0
 70
     8
 71
     5
 72
    27
 73
    21
 74
     0
 42
0.000000001
 43
0.0000000001
 40
0.0
 40
0.0
 40
0.0
 40
0.0
 40
0.0
 40
0.0
 40
3.409062657250102
 40
3.409062657250102
 40
3.409062657250102
 40
4.654516444181258
 40
4.654516444181258
 40
4.654516444181258
 40
5.93270024450687
 40
5.93270024450687
 40
5.93270024450687
 40
7.180546609709232
 40
7.180546609709232
 40
7.180546609709232
 40
9.540346730523292
 40
9.540346730523292
 40
9.540346730523292
 40
11.75277273576623
 40
11.75277273576623
 40
11.75277273576623
 40
11.75277273576623
 40
11.75277273576623
 40
11.75277273576623
 10
-95.7484587551424
 20
3.800000765237072
 30
0.0
 10
-95.51992732127422
 20
3.79511192914741
 30
0.0
 10
-95.25948415138515
 20
3.78482823075636
 30
0.0
 10
-94.94862568561416
 20
3.768519844183387
 30
0.0
 10
-94.47487971833476
 20
3.743283994927637
 30
0.0
 10
-93.94994783219772
 20
3.724719977140452
 30
0.0
 10
-93.80663085321272
 20
3.720507427270931
 30
0.0
 10
-93.51322027258254
 20
3.714065312706551
 30
0.0
 10
-93.21867859779116
 20
3.712529316548383
 30
0.0
 10
-93.07045055653537
 20
3.713188217789351
 30
0.0
 10
-92.78163543124042
 20
3.717433163115501
 30
0.0
 10
-92.50367244758065
 20
3.727339474654954
 30
0.0
 10
-92.36553298686777
 20
3.733782290656094
 30
0.0
 10
-91.98785152706056
 20
3.755576919267454
 30
0.0
 10
-91.6434376961439
 20
3.786707991977195
 30
0.0
 10
-91.42820619651377
 20
3.810799011147409
 30
0.0
 10
-91.04855555176754
 20
3.860785979944907
 30
0.0
 10
-90.71848706356972
 20
3.916684330052007
 30
0.0
 10
-90.56929587013337
 20
3.94462180723211
 30
0.0
 10
-90.43040521027416
 20
3.972906537053958
 30
0.0
 10
-90.30064585930105
 20
4.001301615494284
 30
0.0
  0
SPLINE
  5
21E96
330
1F
100
AcDbEntity
  8
SKVIEW1
100
AcDbSpline
210
0.0
220
0.0
230
1.0
 70
     8
 71
     5
 72
    33
 73
    27
 74
     0
 42
0.000000001
 43
0.0000000001
 40
0.0
 40
0.0
 40
0.0
 40
0.0
 40
0.0
 40
0.0
 40
3.603378115280043
 40
3.603378115280043
 40
3.603378115280043
 40
6.718901539042891
 40
6.718901539042891
 40
6.718901539042891
 40
8.003984853589525
 40
8.003984853589525
 40
8.003984853589525
 40
9.144608815695944
 40
9.144608815695944
 40
9.144608815695944
 40
10.44596167454474
 40
10.44596167454474
 40
10.44596167454474
 40
11.97415644331278
 40
11.97415644331278
 40
11.97415644331278
 40
17.40733768391486
 40
17.40733768391486
 40
17.40733768391486
 40
18.62537027975168
 40
18.62537027975168
 40
18.62537027975168
 40
18.62537027975168
 40
18.62537027975168
 40
18.62537027975168
 10
-95.74845875514204
 20
3.800000765237868
 30
0.0
 10
-95.99018968313918
 20
3.805171970193768
 30
0.0
 10
-96.23738815538326
 20
3.81559635317113
 30
0.0
 10
-96.49362714381537
 20
3.832509156644945
 30
0.0
 10
-96.98282702715619
 20
3.877812477199412
 30
0.0
 10
-97.51792320793951
 20
3.962559720661587
 30
0.0
 10
-97.77078224763085
 20
4.011562566864981
 30
0.0
 10
-98.15994328647395
 20
4.102011051417534
 30
0.0
 10
-98.59837951133471
 20
4.245495237193367
 30
0.0
 10
-98.73110434702093
 20
4.292841288503822
 30
0.0
 10
-98.98591737270045
 20
4.392800597984532
 30
0.0
 10
-99.24401131286685
 20
4.513206957322594
 30
0.0
 10
-99.36440534279871
 20
4.574190846294399
 30
0.0
 10
-99.61342761803791
 20
4.711000993971865
 30
0.0
 10
-99.83862611916226
 20
4.855974910113886
 30
0.0
 10
-99.94740406954736
 20
4.931938507478079
 30
0.0
 10
-100.1717157118672
 20
5.099699077472209
 30
0.0
 10
-100.3612315567697
 20
5.263184662718899
 30
0.0
 10
-100.4594484632038
 20
5.354032553914393
 30
0.0
 10
-100.8521025078007
 20
5.740033067451676
 30
0.0
 10
-101.1232666865296
 20
6.098704904527934
 30
0.0
 10
-101.2975879865919
 20
6.356545249035875
 30
0.0
 10
-101.4910141933964
 20
6.684925478591921
 30
0.0
 10
-101.6551918052523
 20
7.008389500128359
 30
0.0
 10
-101.6843394030474
 20
7.06748114971775
 30
0.0
 10
-101.7126183657054
 20
7.126440301439842
 30
0.0
 10
-101.7400856281613
 20
7.185296308105975
 30
0.0
  0
ARC
  5
21E97
330
1F
100
AcDbEntity
  8
SKVIEW1
100
AcDbCircle
 10
-91.74897208557993
 20
21.63240099999995
 30
0.0
 40
16.833396
100
AcDbArc
 50
270.984165000001
 51
273.8064590000005
  0
ARC
  5
21E98
330
1F
100
AcDbEntity
  8
SKVIEW1
100
AcDbCircle
 10
-84.56740008557995
 20
-0.0000000000000142
 30
0.0
 40
8.4
100
AcDbArc
 50
145.1377459999995
 51
152.8871409999998
  0
ELLIPSE
  5
21E99
330
1F
100
AcDbEntity
  8
SKVIEW1
100
AcDbEllipse
 10
-93.20095108557996
 20
15.79743099999994
 30
0.0
 11
10.55223751068115
 21
5.998129844665526
 31
0.0
210
0.0
220
0.0
230
1.0
 40
0.9888670000000001
 41
3.417285721543493
 42
4.296002904838236
  0
LINE
  5
21E9A
330
1F
100
AcDbEntity
  8
SKVIEW1
100
AcDbLine
 10
-101.7401020855799
 20
7.185324000000022
 30
0.0
 11
-103.6761610855799
 21
8.088122999999981
 31
0.0
  0
ARC
  5
21E9B
330
1F
100
AcDbEntity
  8
SKVIEW1
100
AcDbCircle
 10
-84.56740008557995
 20
-0.0000000000000142
 30
0.0
 40
20.75
100
AcDbArc
 50
157.0586249999993
 51
256.6248899999997
  0
LINE
  5
21E9C
330
1F
100
AcDbEntity
  8
SKVIEW1
100
AcDbLine
 10
-95.74845608557996
 20
-1.607784000000052
 30
0.0
 11
-105.1319730855799
 21
2.767822000000009
 31
0.0
  0
LINE
  5
21E9D
330
1F
100
AcDbEntity
  8
SKVIEW1
100
AcDbLine
 10
-84.56740008557995
 20
-7.474081000000083
 30
0.0
 11
-84.56740008557995
 21
-6.558101000000092
 31
0.0
  0
LINE
  5
21E9E
330
1F
100
AcDbEntity
  8
SKVIEW1
100
AcDbLine
 10
-89.36740008557993
 20
-9.380000000000009
 30
0.0
 11
-89.36740008557993
 21
-10.05459599999995
 31
0.0
  0
LINE
  5
21E9F
330
1F
100
AcDbEntity
  8
SKVIEW1
100
AcDbLine
 10
-89.36740008557993
 20
-9.380000000000009
 30
0.0
 11
-84.56740008557995
 21
-9.380000000000009
 31
0.0
  0
CIRCLE
  5
21EA0
330
1F
100
AcDbEntity
  8
SKVIEW1
100
AcDbCircle
 10
-99.11662708557987
 20
-8.399999999999991
 30
0.0
 40
2.1
  0
LINE
  5
21EA1
330
1F
100
AcDbEntity
  8
SKVIEW1
100
AcDbLine
 10
-84.56740008557995
 20
-12.76383
 30
0.0
 11
-84.56740008557995
 21
-10.95000900000004
 31
0.0
  0
LINE
  5
21EA2
330
1F
100
AcDbEntity
  8
SKVIEW1
100
AcDbLine
 10
-84.56740008557995
 20
-20.75000000000001
 30
0.0
 11
-84.56740008557995
 21
-16.79281600000002
 31
0.0
  0
LINE
  5
21EA3
330
1F
100
AcDbEntity
  8
SKVIEW1
100
AcDbLine
 10
-84.56740008557995
 20
10.18000000000027
 30
0.0
 11
-84.56740008557995
 21
9.379999999999981
 31
0.0
  0
LINE
  5
21EA4
330
1F
100
AcDbEntity
  8
SKVIEW1
100
AcDbLine
 10
-84.56740008557995
 20
20.20000000000003
 30
0.0
 11
-84.56740008557995
 21
10.18000000000027
 31
0.0
  0
LINE
  5
21EA5
330
1F
100
AcDbEntity
  8
SKVIEW1
100
AcDbLine
 10
-84.56740008557995
 20
20.20000000000003
 30
0.0
 11
-84.56740008557995
 21
20.99999999999999
 31
0.0
  0
LINE
  5
21EA6
330
1F
100
AcDbEntity
  8
SKVIEW1
100
AcDbLine
 10
-79.76740008557993
 20
20.32540399999992
 30
0.0
 11
-79.76740008557993
 21
20.20000000000003
 31
0.0
  0
LINE
  5
21EA7
330
1F
100
AcDbEntity
  8
SKVIEW1
100
AcDbLine
 10
-79.76740008557993
 20
20.20000000000003
 30
0.0
 11
-79.76740008557993
 21
10.18000000000027
 31
0.0
  0
LINE
  5
21EA8
330
1F
100
AcDbEntity
  8
SKVIEW1
100
AcDbLine
 10
-79.76740008557993
 20
10.18000000000027
 30
0.0
 11
-79.76740008557993
 21
10.05459599999993
 31
0.0
  0
LINE
  5
21EA9
330
1F
100
AcDbEntity
  8
SKVIEW1
100
AcDbLine
 10
-79.76740008557993
 20
10.05459599999993
 30
0.0
 11
-84.56740008557995
 21
9.379999999999981
 31
0.0
  0
LINE
  5
21EAA
330
1F
100
AcDbEntity
  8
SKVIEW1
100
AcDbLine
 10
-79.76740008557993
 20
10.18000000000027
 30
0.0
 11
-84.56740008557995
 21
10.18000000000027
 31
0.0
  0
LINE
  5
21EAB
330
1F
100
AcDbEntity
  8
SKVIEW1
100
AcDbLine
 10
-79.76740008557993
 20
20.20000000000003
 30
0.0
 11
-84.56740008557995
 21
20.20000000000003
 31
0.0
  0
LINE
  5
21EAC
330
1F
100
AcDbEntity
  8
SKVIEW1
100
AcDbLine
 10
-79.76740008557993
 20
20.32540399999992
 30
0.0
 11
-84.56740008557995
 21
20.99999999999999
 31
0.0
  0
LINE
  5
21EAD
330
1F
100
AcDbEntity
  8
SKVIEW1
100
AcDbLine
 10
-84.56740008557995
 20
20.99999999999999
 30
0.0
 11
-84.56740008557995
 21
20.20000000000003
 31
0.0
  0
LINE
  5
21EAE
330
1F
100
AcDbEntity
  8
SKVIEW1
100
AcDbLine
 10
-84.56740008557995
 20
10.18000000000027
 30
0.0
 11
-84.56740008557995
 21
9.379999999999981
 31
0.0
  0
LINE
  5
21EAF
330
1F
100
AcDbEntity
  8
SKVIEW1
100
AcDbLine
 10
-84.56740008557995
 20
10.18000000000027
 30
0.0
 11
-84.56740008557995
 21
20.20000000000003
 31
0.0
  0
LINE
  5
21EB0
330
1F
100
AcDbEntity
  8
SKVIEW1
100
AcDbLine
 10
-84.56740008557995
 20
-20.20000000000005
 30
0.0
 11
-84.56740008557995
 21
-10.95000100000005
 31
0.0
  0
LINE
  5
21EB1
330
1F
100
AcDbEntity
  8
SKVIEW1
100
AcDbLine
 10
-84.56740008557995
 20
-20.20000000000005
 30
0.0
 11
-84.56740008557995
 21
-21.00000000000001
 31
0.0
  0
LINE
  5
21EB2
330
1F
100
AcDbEntity
  8
SKVIEW1
100
AcDbLine
 10
-89.36740008557993
 20
-20.32540399999972
 30
0.0
 11
-89.36740008557993
 21
-20.20000000000005
 31
0.0
  0
LINE
  5
21EB3
330
1F
100
AcDbEntity
  8
SKVIEW1
100
AcDbLine
 10
-89.36740008557993
 20
-20.20000000000005
 30
0.0
 11
-89.36740008557993
 21
-10.18000000000008
 31
0.0
  0
LINE
  5
21EB4
330
1F
100
AcDbEntity
  8
SKVIEW1
100
AcDbLine
 10
-89.36740008557993
 20
-10.18000000000008
 30
0.0
 11
-89.36740008557993
 21
-10.05459599999995
 31
0.0
  0
LINE
  5
21EB5
330
1F
100
AcDbEntity
  8
SKVIEW1
100
AcDbLine
 10
-89.36740008557993
 20
-10.05459599999995
 30
0.0
 11
-84.56740008557995
 21
-9.380000000000009
 31
0.0
  0
LINE
  5
21EB6
330
1F
100
AcDbEntity
  8
SKVIEW1
100
AcDbLine
 10
-89.36740008557993
 20
-10.18000000000008
 30
0.0
 11
-84.56740008557995
 21
-10.18000000000008
 31
0.0
  0
LINE
  5
21EB7
330
1F
100
AcDbEntity
  8
SKVIEW1
100
AcDbLine
 10
-89.36740008557993
 20
-20.20000000000005
 30
0.0
 11
-84.56740008557995
 21
-20.20000000000005
 31
0.0
  0
LINE
  5
21EB8
330
1F
100
AcDbEntity
  8
SKVIEW1
100
AcDbLine
 10
-89.36740008557993
 20
-20.32540399999972
 30
0.0
 11
-84.56740008557995
 21
-21.00000000000001
 31
0.0
  0
LINE
  5
21EB9
330
1F
100
AcDbEntity
  8
SKVIEW1
100
AcDbLine
 10
-84.56740008557995
 20
-21.00000000000001
 30
0.0
 11
-84.56740008557995
 21
-20.20000000000005
 31
0.0
  0
LINE
  5
21EBA
330
1F
100
AcDbEntity
  8
SKVIEW1
100
AcDbLine
 10
-84.56740008557995
 20
-21.00000000000001
 30
0.0
 11
-84.56740008557995
 21
-20.20000000000005
 31
0.0
  0
LINE
  5
21EBB
330
1F
100
AcDbEntity
  8
SKVIEW1
100
AcDbLine
 10
-84.56740008557995
 20
-20.20000000000005
 30
0.0
 11
-84.56740008557995
 21
-16.79278999999998
 31
0.0
  0
LINE
  5
21EBC
330
1F
100
AcDbEntity
  8
SKVIEW1
100
AcDbLine
 10
-84.56740008557995
 20
-12.76387
 30
0.0
 11
-84.56740008557995
 21
-10.95000900000004
 31
0.0
  0
LINE
  5
21EBD
330
1F
100
AcDbEntity
  8
SKVIEW1
100
AcDbLine
 10
-84.56740008557995
 20
-10.95000000000005
 30
0.0
 11
-84.56740008557995
 21
-20.20000000000005
 31
0.0
  0
ARC
  5
21EBE
330
1F
100
AcDbEntity
  8
SKVIEW1
100
AcDbCircle
 10
-84.56740008557995
 20
-0.0000000000000142
 30
0.0
 40
5.474999999999997
100
AcDbArc
 50
343.7152419999995
 51
354.3550889999981
  0
ARC
  5
21EBF
330
1F
100
AcDbEntity
  8
SKVIEW1
100
AcDbCircle
 10
-90.50417708557995
 20
3.702173999999999
 30
0.0
 40
2.271541999999999
100
AcDbArc
 50
287.4568669999998
 51
306.5601819999965
  0
ARC
  5
21EC0
330
1F
100
AcDbEntity
  8
SKVIEW1
100
AcDbCircle
 10
-78.63062308558011
 20
-3.702174000000027
 30
0.0
 40
2.271541999999999
100
AcDbArc
 50
107.4568660000003
 51
126.5601809999987
  0
LINE
  5
21EC1
330
1F
100
AcDbEntity
  8
SKVIEW1
100
AcDbLine
 10
-78.09788408558006
 20
-0.2664469999999852
 30
0.0
 11
-78.24717508557995
 21
-0.2795080000000922
 31
0.0
  0
ARC
  5
21EC2
330
1F
100
AcDbEntity
  8
SKVIEW1
100
AcDbCircle
 10
-78.04918708557995
 20
-2.542362000000039
 30
0.0
 40
2.271499
100
AcDbArc
 50
95.00036300000067
 51
118.0960179999985
  0
SPLINE
  5
21EC3
330
1F
100
AcDbEntity
  8
SKVIEW1
100
AcDbSpline
210
0.0
220
0.0
230
1.0
 70
     8
 71
     5
 72
    18
 73
    12
 74
     0
 42
0.000000001
 43
0.0000000001
 40
0.0
 40
0.0
 40
0.0
 40
0.0
 40
0.0
 40
0.0
 40
1.724300760727935
 40
1.724300760727935
 40
1.724300760727935
 40
3.365769152017113
 40
3.365769152017113
 40
3.365769152017113
 40
5.474693249096518
 40
5.474693249096518
 40
5.474693249096518
 40
5.474693249096518
 40
5.474693249096518
 40
5.474693249096518
 10
-79.90752593471689
 20
-0.9181990061740776
 30
0.0
 10
-79.84277181233323
 20
-0.7562640332215694
 30
0.0
 10
-79.76244093893519
 20
-0.607676462676082
 30
0.0
 10
-79.67009323514315
 20
-0.4783990634500839
 30
0.0
 10
-79.47541093061488
 20
-0.2621041689577765
 30
0.0
 10
-79.26142059024136
 20
-0.1102917687380938
 30
0.0
 10
-79.15410605381913
 20
-0.0498489775715285
 30
0.0
 10
-78.90607013660707
 20
0.0594665933589198
 30
0.0
 10
-78.65542993152337
 20
0.1102359660601309
 30
0.0
 10
-78.51545236070314
 20
0.1228697781503882
 30
0.0
 10
-78.37760548735065
 20
0.1216562496178852
 30
0.0
 10
-78.24191846902187
 20
0.1079515762125851
 30
0.0
  0
ARC
  5
21EC4
330
1F
100
AcDbEntity
  8
SKVIEW1
100
AcDbCircle
 10
-78.0747220855801
 20
-1.654804000000027
 30
0.0
 40
1.975263999999999
100
AcDbArc
 50
158.1047649999994
 51
165.6312089999991
  0
SPLINE
  5
21EC5
330
1F
100
AcDbEntity
  8
SKVIEW1
100
AcDbSpline
210
0.0
220
0.0
230
1.0
 70
     8
 71
     5
 72
    12
 73
     6
 74
     0
 42
0.000000001
 43
0.0000000001
 40
0.0
 40
0.0
 40
0.0
 40
0.0
 40
0.0
 40
0.0
 40
1.679575290015564
 40
1.679575290015564
 40
1.679575290015564
 40
1.679575290015564
 40
1.679575290015564
 40
1.679575290015564
 10
-79.98817387255968
 20
-1.164624262345128
 30
0.0
 10
-80.02579202097576
 20
-1.31260013259579
 30
0.0
 10
-80.04434654185587
 20
-1.45017511830828
 30
0.0
 10
-80.04560331710507
 20
-1.571661443564281
 30
0.0
 10
-80.03611681202135
 20
-1.666688863855611
 30
0.0
 10
-80.02170075366837
 20
-1.735654555229885
 30
0.0
  0
ARC
  5
21EC6
330
1F
100
AcDbEntity
  8
SKVIEW1
100
AcDbCircle
 10
-78.46925008558009
 20
-1.389011999999993
 30
0.0
 40
1.591012
100
AcDbArc
 50
192.5869340000004
 51
209.5843410000007
  0
ARC
  5
21EC7
330
1F
100
AcDbEntity
  8
SKVIEW1
100
AcDbCircle
 10
-84.56699308557995
 20
0.0000019999999807
 30
0.0
 40
6.325994999999998
100
AcDbArc
 50
357.4675959999985
 51
0.9777669999998202
  0
ARC
  5
21EC8
330
1F
100
AcDbEntity
  8
SKVIEW1
100
AcDbCircle
 10
-84.56740008557995
 20
-0.0000000000000142
 30
0.0
 40
5.474999999999997
100
AcDbArc
 50
163.7152419999996
 51
174.3550889999981
  0
SPLINE
  5
21EC9
330
1F
100
AcDbEntity
  8
SKVIEW1
100
AcDbSpline
210
0.0
220
0.0
230
1.0
 70
     8
 71
     5
 72
    18
 73
    12
 74
     0
 42
0.000000001
 43
0.0000000001
 40
0.0
 40
0.0
 40
0.0
 40
0.0
 40
0.0
 40
0.0
 40
1.724300759697515
 40
1.724300759697515
 40
1.724300759697515
 40
3.365769150019843
 40
3.365769150019843
 40
3.365769150019843
 40
5.474693244711176
 40
5.474693244711176
 40
5.474693244711176
 40
5.474693244711176
 40
5.474693244711176
 40
5.474693244711176
 10
-89.22727423644307
 20
0.9181990061743903
 30
0.0
 10
-89.29202835878788
 20
0.7562640333185158
 30
0.0
 10
-89.37235923212886
 20
0.6076764628539735
 30
0.0
 10
-89.46470693590219
 20
0.4783990635965978
 30
0.0
 10
-89.65938924042394
 20
0.262104169071435
 30
0.0
 10
-89.87337958065769
 20
0.1102917689054124
 30
0.0
 10
-89.98069411696537
 20
0.0498489777355502
 30
0.0
 10
-90.22873003445017
 20
-0.059466593359744
 30
0.0
 10
-90.47937023986836
 20
-0.1102359661131373
 30
0.0
 10
-90.61934781076876
 20
-0.1228697781475745
 30
0.0
 10
-90.7571946839629
 20
-0.1216562496021112
 30
0.0
 10
-90.89288170213803
 20
-0.1079515762126135
 30
0.0
  0
ARC
  5
21ECA
330
1F
100
AcDbEntity
  8
SKVIEW1
100
AcDbCircle
 10
-91.06007808557995
 20
1.654803999999998
 30
0.0
 40
1.975263999999999
100
AcDbArc
 50
338.1047649999995
 51
345.6312089999991
  0
SPLINE
  5
21ECB
330
1F
100
AcDbEntity
  8
SKVIEW1
100
AcDbSpline
210
0.0
220
0.0
230
1.0
 70
     8
 71
     5
 72
    12
 73
     6
 74
     0
 42
0.000000001
 43
0.0000000001
 40
0.0
 40
0.0
 40
0.0
 40
0.0
 40
0.0
 40
0.0
 40
1.67957531397386
 40
1.67957531397386
 40
1.67957531397386
 40
1.67957531397386
 40
1.67957531397386
 40
1.67957531397386
 10
-89.1466262985989
 20
1.16462426235158
 30
0.0
 10
-89.10900814973519
 20
1.312600134363023
 30
0.0
 10
-89.09045362892937
 20
1.450175121324932
 30
0.0
 10
-89.08919685378419
 20
1.571661440851116
 30
0.0
 10
-89.09868335893287
 20
1.666688862871737
 30
0.0
 10
-89.11309941749152
 20
1.735654555229857
 30
0.0
  0
ARC
  5
21ECC
330
1F
100
AcDbEntity
  8
SKVIEW1
100
AcDbCircle
 10
-90.66555008557992
 20
1.389011999999965
 30
0.0
 40
1.591012
100
AcDbArc
 50
12.58693400000044
 51
29.58434100000067
  0
ARC
  5
21ECD
330
1F
100
AcDbEntity
  8
SKVIEW1
100
AcDbCircle
 10
-91.08561308557995
 20
2.542362000000011
 30
0.0
 40
2.271499
100
AcDbArc
 50
275.0003630000006
 51
298.0960179999986
  0
ARC
  5
21ECE
330
1F
100
AcDbEntity
  8
SKVIEW1
100
AcDbCircle
 10
-84.56780708557994
 20
-0.0000020000000092
 30
0.0
 40
6.325994999999998
100
AcDbArc
 50
177.4675959999985
 51
180.9777669999998
  0
LINE
  5
21ECF
330
1F
100
AcDbEntity
  8
SKVIEW1
100
AcDbLine
 10
-90.09520808557988
 20
3.492537000000183
 30
0.0
 11
-90.13684308557992
 21
3.595557999999968
 31
0.0
  0
ARC
  5
21ED0
330
1F
100
AcDbEntity
  8
SKVIEW1
100
AcDbCircle
 10
21.58062291442008
 20
48.86299299999994
 30
0.0
 40
120.540136
100
AcDbArc
 50
199.9340209999984
 51
202.0575790000004
  0
ARC
  5
21ED1
330
1F
100
AcDbEntity
  8
SKVIEW1
100
AcDbCircle
 10
-75.30989608558008
 20
8.705062999999867
 30
0.0
 40
16.454331
100
AcDbArc
 50
181.5567080000009
 51
183.2706040000001
  0
ARC
  5
21ED2
330
1F
100
AcDbEntity
  8
SKVIEW1
100
AcDbCircle
 10
-104.2422200855799
 20
-6.15738899999998
 30
0.0
 40
17.124536
100
AcDbArc
 50
29.11496500000087
 51
34.29858499999831
  0
LINE
  5
21ED3
330
1F
100
AcDbEntity
  8
SKVIEW1
100
AcDbLine
 10
-79.03959208558018
 20
-3.492537000000098
 30
0.0
 11
-78.99795708557991
 21
-3.595557999999996
 31
0.0
  0
ARC
  5
21ED4
330
1F
100
AcDbEntity
  8
SKVIEW1
100
AcDbCircle
 10
-190.7008800855799
 20
-48.85696200000008
 30
0.0
 40
120.524401
100
AcDbArc
 50
19.93368199999663
 51
22.05751799999784
  0
ARC
  5
21ED5
330
1F
100
AcDbEntity
  8
SKVIEW1
100
AcDbCircle
 10
-93.82434908557991
 20
-8.705038999999956
 30
0.0
 40
16.453776
100
AcDbArc
 50
1.556678999998516
 51
3.270632999998838
  0
ARC
  5
21ED6
330
1F
100
AcDbEntity
  8
SKVIEW1
100
AcDbCircle
 10
-64.89258008557993
 20
6.157388999999952
 30
0.0
 40
17.124536
100
AcDbArc
 50
209.1149650000001
 51
214.2985849999983
  0
ARC
  5
21ED7
330
1F
100
AcDbEntity
  8
SKVIEW1
100
AcDbCircle
 10
-84.56740008557995
 20
-0.0000000000000142
 30
0.0
 40
6.474999999999997
100
AcDbArc
 50
357.6416070000008
 51
63.5216089999997
  0
LINE
  5
21ED8
330
1F
100
AcDbEntity
  8
SKVIEW1
100
AcDbLine
 10
-78.24191808557987
 20
0.1079520000000542
 30
0.0
 11
-78.0930480855801
 21
0.0920019999999653
 31
0.0
  0
LINE
  5
21ED9
330
1F
100
AcDbEntity
  8
SKVIEW1
100
AcDbLine
 10
-84.56740008557995
 20
10.56999999999992
 30
0.0
 11
-84.56740008557995
 21
10.95000000000026
 31
0.0
  0
LINE
  5
21EDA
330
1F
100
AcDbEntity
  8
SKVIEW1
100
AcDbLine
 10
-84.56740008557995
 20
7.474081000000282
 30
0.0
 11
-84.56740008557995
 21
10.56999999999992
 31
0.0
  0
ARC
  5
21EDB
330
1F
100
AcDbEntity
  8
SKVIEW1
100
AcDbCircle
 10
-84.26740008557988
 20
7.016088999999951
 30
0.0
 40
0.5475
100
AcDbArc
 50
123.226158999997
 51
267.5515889999996
  0
ARC
  5
21EDC
330
1F
100
AcDbEntity
  8
SKVIEW1
100
AcDbCircle
 10
-84.56740008557995
 20
-0.0000000000000142
 30
0.0
 40
6.474999999999997
100
AcDbArc
 50
63.52162000000022
 51
87.55158899999965
  0
LINE
  5
21EDD
330
1F
100
AcDbEntity
  8
SKVIEW1
100
AcDbLine
 10
-84.19228708557994
 20
0.2298989999999179
 30
0.0
 11
-79.90752608557994
 21
-0.9181989999999728
 31
0.0
  0
ARC
  5
21EDE
330
1F
100
AcDbEntity
  8
SKVIEW1
100
AcDbCircle
 10
-87.04569508557995
 20
7.387533000000175
 30
0.0
 40
5.596231999999997
100
AcDbArc
 50
335.1799899999961
 51
343.4755859999955
  0
LINE
  5
21EDF
330
1F
100
AcDbEntity
  8
SKVIEW1
100
AcDbLine
 10
-82.85862008557996
 20
3.127901000000051
 30
0.0
 11
-81.96652108557993
 21
5.038471999999941
 31
0.0
  0
SPLINE
  5
21EE0
330
1F
100
AcDbEntity
  8
SKVIEW1
100
AcDbSpline
210
0.0
220
0.0
230
1.0
 70
     8
 71
     5
 72
    27
 73
    21
 74
     0
 42
0.000000001
 43
0.0000000001
 40
0.0
 40
0.0
 40
0.0
 40
0.0
 40
0.0
 40
0.0
 40
21.47865084009363
 40
21.47865084009363
 40
21.47865084009363
 40
32.10578184554027
 40
32.10578184554027
 40
32.10578184554027
 40
37.39816063612368
 40
37.39816063612368
 40
37.39816063612368
 40
46.33829980986603
 40
46.33829980986603
 40
46.33829980986603
 40
51.11953416938557
 40
51.11953416938557
 40
51.11953416938557
 40
53.64415137433143
 40
53.64415137433143
 40
53.64415137433143
 40
53.64415137433143
 40
53.64415137433143
 40
53.64415137433143
 10
-84.19228666367605
 20
0.2298991709021578
 30
0.0
 10
-84.18051531678543
 20
0.2592749201523787
 30
0.0
 10
-84.16655572698067
 20
0.2931881470310458
 30
0.0
 10
-84.15060124049267
 20
0.3308545988843292
 30
0.0
 10
-84.11980756631738
 20
0.4025986081773994
 30
0.0
 10
-84.07098659076416
 20
0.5124663797521265
 30
0.0
 10
-84.05252184531638
 20
0.5536601885319073
 30
0.0
 10
-84.0190720761314
 20
0.6278800613674634
 30
0.0
 10
-83.97325355109837
 20
0.7285099881006403
 30
0.0
 10
-83.95643393333859
 20
0.7653704664838728
 30
0.0
 10
-83.90558555282343
 20
0.8764382693254759
 30
0.0
 10
-83.83621101703392
 20
1.027191984717077
 30
0.0
 10
-83.78554117143176
 20
1.136866827707635
 30
0.0
 10
-83.68122508310717
 20
1.362212166233561
 30
0.0
 10
-83.50092956963335
 20
1.750023939638126
 30
0.0
 10
-83.4239761595254
 20
1.915403029881403
 30
0.0
 10
-83.28250073258022
 20
2.219138942220169
 30
0.0
 10
-83.09161425762084
 20
2.628516830464818
 30
0.0
 10
-83.02227211187711
 20
2.777178025268867
 30
0.0
 10
-82.9434458964134
 20
2.946130737434359
 30
0.0
 10
-82.85862001364586
 20
3.127900940779213
 30
0.0
  0
LINE
  5
21EE1
330
1F
100
AcDbEntity
  8
SKVIEW1
100
AcDbLine
 10
-83.51614208557993
 20
-0.7993220000000889
 30
0.0
 11
-80.02170108557994
 21
-1.735654999999965
 31
0.0
  0
SPLINE
  5
21EE2
330
1F
100
AcDbEntity
  8
SKVIEW1
100
AcDbSpline
210
0.0
220
0.0
230
1.0
 70
     8
 71
     5
 72
    54
 73
    48
 74
     0
 42
0.000000001
 43
0.0000000001
 40
0.0
 40
0.0
 40
0.0
 40
0.0
 40
0.0
 40
0.0
 40
24.66995574156487
 40
24.66995574156487
 40
24.66995574156487
 40
61.67437338825445
 40
61.67437338825445
 40
61.67437338825445
 40
99.95626804153431
 40
99.95626804153431
 40
99.95626804153431
 40
112.3988710303184
 40
112.3988710303184
 40
112.3988710303184
 40
119.3858285886505
 40
119.3858285886505
 40
119.3858285886505
 40
121.10645560444
 40
121.10645560444
 40
121.10645560444
 40
122.28532365298
 40
122.28532365298
 40
122.28532365298
 40
122.8410448120617
 40
122.8410448120617
 40
122.8410448120617
 40
122.9614832864826
 40
122.9614832864826
 40
122.9614832864826
 40
123.0819217609035
 40
123.0819217609035
 40
123.0819217609035
 40
123.2018514100275
 40
123.2018514100275
 40
123.2018514100275
 40
123.3217810591515
 40
123.3217810591515
 40
123.3217810591515
 40
123.5597030511601
 40
123.5597030511601
 40
123.5597030511601
 40
123.8070186205636
 40
123.8070186205636
 40
123.8070186205636
 40
124.6716945165084
 40
124.6716945165084
 40
124.6716945165084
 40
124.6716945165084
 40
124.6716945165084
 40
124.6716945165084
 10
-84.19228666367605
 20
0.2298991709021578
 30
0.0
 10
-84.20580892511708
 20
0.1961539618248338
 30
0.0
 10
-84.21304448424171
 20
0.1704795338973639
 30
0.0
 10
-84.21831837568067
 20
0.1481204726280652
 30
0.0
 10
-84.22759034743359
 20
0.0962003485022791
 30
0.0
 10
-84.22867519143308
 20
0.0531278673288256
 30
0.0
 10
-84.22728424132946
 20
0.0284235344852135
 30
0.0
 10
-84.22092598835041
 20
-0.0221594946374495
 30
0.0
 10
-84.20465874785781
 20
-0.0784481159701187
 30
0.0
 10
-84.19430312082118
 20
-0.1059325732670828
 30
0.0
 10
-84.17602408629983
 20
-0.1520794490335362
 30
0.0
 10
-84.13180069356371
 20
-0.2280116328701212
 30
0.0
 10
-84.11915413499588
 20
-0.2483038790792449
 30
0.0
 10
-84.09483899437532
 20
-0.2856694835021614
 30
0.0
 10
-84.0545970520568
 20
-0.3391932587142179
 30
0.0
 10
-84.03493698951985
 20
-0.3635868056001215
 30
0.0
 10
-84.01139616843767
 20
-0.393092227057096
 30
0.0
 10
-83.96700368872837
 20
-0.4413755720591013
 30
0.0
 10
-83.95832292827686
 20
-0.4506442474615966
 30
0.0
 10
-83.94102026483409
 20
-0.4686742099500095
 30
0.0
 10
-83.92016935347607
 20
-0.4896097682303804
 30
0.0
 10
-83.91076484850925
 20
-0.4989289574686069
 30
0.0
 10
-83.89441481399746
 20
-0.514884148196316
 30
0.0
 10
-83.87114587350083
 20
-0.5365644809101156
 30
0.0
 10
-83.8627874429456
 20
-0.5442393309551932
 30
0.0
 10
-83.85154544746887
 20
-0.5544470862445366
 30
0.0
 10
-83.83700701483059
 20
-0.5672732374066669
 30
0.0
 10
-83.83439172594888
 20
-0.5695750569850731
 30
0.0
 10
-83.82711010386874
 20
-0.575955792627056
 30
0.0
 10
-83.81581658183563
 20
-0.5856599595305312
 30
0.0
 10
-83.80898860803155
 20
-0.5914644656620709
 30
0.0
 10
-83.79367981383813
 20
-0.6043041731791306
 30
0.0
 10
-83.77564994766206
 20
-0.6190409852379304
 30
0.0
 10
-83.76619365156068
 20
-0.6266642175845761
 30
0.0
 10
-83.74685100244198
 20
-0.6420185062686557
 30
0.0
 10
-83.72791497059376
 20
-0.6566014654357702
 30
0.0
 10
-83.71863154205788
 20
-0.6636157197650761
 30
0.0
 10
-83.69592680105297
 20
-0.6805832504553706
 30
0.0
 10
-83.68111234964487
 20
-0.6911782255396162
 30
0.0
 10
-83.66949564285738
 20
-0.6994759134271505
 30
0.0
 10
-83.65080165764656
 20
-0.7127224103927717
 30
0.0
 10
-83.63549036689091
 20
-0.7232381144310836
 30
0.0
 10
-83.6282542473789
 20
-0.7281357497640926
 30
0.0
 10
-83.59672020780488
 20
-0.7493244048821595
 30
0.0
 10
-83.57085895423967
 20
-0.7658286507376176
 30
0.0
 10
-83.55126289298468
 20
-0.7781512020410588
 30
0.0
 10
-83.53329356412416
 20
-0.7891029421999889
 30
0.0
 10
-83.51614187331369
 20
-0.799321879229197
 30
0.0
  0
LINE
  5
21EE3
330
1F
100
AcDbEntity
  8
SKVIEW1
100
AcDbLine
 10
-79.77284808557993
 20
-3.027053000000037
 30
0.0
 11
-83.51614208557993
 21
-0.7993220000000889
 31
0.0
  0
ARC
  5
21EE4
330
1F
100
AcDbEntity
  8
SKVIEW1
100
AcDbCircle
 10
-87.77710908557986
 20
-16.44260699999974
 30
0.0
 40
15.622003
100
AcDbArc
 50
55.9921439999999
 51
59.17799500000091
  0
LINE
  5
21EE5
330
1F
100
AcDbEntity
  8
SKVIEW1
100
AcDbLine
 10
-91.03691608557994
 20
0.2664469999999568
 30
0.0
 11
-90.88762508557994
 21
0.2795079999999501
 31
0.0
  0
LINE
  5
21EE6
330
1F
100
AcDbEntity
  8
SKVIEW1
100
AcDbLine
 10
-89.22727408557994
 20
0.9181989999999444
 30
0.0
 11
-84.94251308557982
 21
-0.2298989999999463
 31
0.0
  0
LINE
  5
21EE7
330
1F
100
AcDbEntity
  8
SKVIEW1
100
AcDbLine
 10
-90.89288208557992
 20
-0.1079520000000826
 30
0.0
 11
-91.04175208557993
 21
-0.0920019999999937
 31
0.0
  0
ARC
  5
21EE8
330
1F
100
AcDbEntity
  8
SKVIEW1
100
AcDbCircle
 10
-84.56740008557995
 20
-0.0000000000000142
 30
0.0
 40
6.474999999999997
100
AcDbArc
 50
177.6416070000007
 51
267.5515810000001
  0
ARC
  5
21EE9
330
1F
100
AcDbEntity
  8
SKVIEW1
100
AcDbCircle
 10
-82.08910508557995
 20
-7.38753300000009
 30
0.0
 40
5.596231999999997
100
AcDbArc
 50
155.1799899999961
 51
163.4755859999955
  0
LINE
  5
21EEA
330
1F
100
AcDbEntity
  8
SKVIEW1
100
AcDbLine
 10
-86.27618008557993
 20
-3.127900999999965
 30
0.0
 11
-87.16827908557991
 21
-5.038471999999742
 31
0.0
  0
SPLINE
  5
21EEB
330
1F
100
AcDbEntity
  8
SKVIEW1
100
AcDbSpline
210
0.0
220
0.0
230
1.0
 70
     8
 71
     5
 72
    27
 73
    21
 74
     0
 42
0.000000001
 43
0.0000000001
 40
0.0
 40
0.0
 40
0.0
 40
0.0
 40
0.0
 40
0.0
 40
21.47865084655797
 40
21.47865084655797
 40
21.47865084655797
 40
32.105781851869
 40
32.105781851869
 40
32.105781851869
 40
37.398160642425
 40
37.398160642425
 40
37.398160642425
 40
46.33829981017013
 40
46.33829981017013
 40
46.33829981017013
 40
51.11953417013364
 40
51.11953417013364
 40
51.11953417013364
 40
53.64415137527505
 40
53.64415137527505
 40
53.64415137527505
 40
53.64415137527505
 40
53.64415137527505
 40
53.64415137527505
 10
-84.94251350748385
 20
-0.2298991709019589
 30
0.0
 10
-84.95428485437839
 20
-0.2592749201615021
 30
0.0
 10
-84.96824444418667
 20
-0.2931881470514241
 30
0.0
 10
-84.98419893065937
 20
-0.3308545988628708
 30
0.0
 10
-85.01499260483484
 20
-0.4025986081610569
 30
0.0
 10
-85.06381358038026
 20
-0.5124663797173668
 30
0.0
 10
-85.08227832582116
 20
-0.5536601884835051
 30
0.0
 10
-85.11572809500171
 20
-0.6278800613091704
 30
0.0
 10
-85.16154662002788
 20
-0.7285099880260902
 30
0.0
 10
-85.17836623778896
 20
-0.7653704664110279
 30
0.0
 10
-85.22921461825893
 20
-0.8764382691584984
 30
0.0
 10
-85.29858915402963
 20
-1.027191984497804
 30
0.0
 10
-85.34925899982471
 20
-1.136866827914914
 30
0.0
 10
-85.45357508814907
 20
-1.362212166431632
 30
0.0
 10
-85.63387060155537
 20
-1.750023939693178
 30
0.0
 10
-85.7108240116686
 20
-1.915403029953964
 30
0.0
 10
-85.8522994386131
 20
-2.219138942299778
 30
0.0
 10
-86.04318591359987
 20
-2.628516830607068
 30
0.0
 10
-86.11252805929842
 20
-2.777178025286289
 30
0.0
 10
-86.19135427474025
 20
-2.946130737420631
 30
0.0
 10
-86.27618015751403
 20
-3.127900940779127
 30
0.0
  0
SPLINE
  5
21EEC
330
1F
100
AcDbEntity
  8
SKVIEW1
100
AcDbSpline
210
0.0
220
0.0
230
1.0
 70
     8
 71
     5
 72
    54
 73
    48
 74
     0
 42
0.000000001
 43
0.0000000001
 40
0.0
 40
0.0
 40
0.0
 40
0.0
 40
0.0
 40
0.0
 40
24.6699557393706
 40
24.6699557393706
 40
24.6699557393706
 40
61.67437338276874
 40
61.67437338276874
 40
61.67437338276874
 40
99.95626801725284
 40
99.95626801725284
 40
99.95626801725284
 40
112.398871005311
 40
112.398871005311
 40
112.398871005311
 40
119.3858285996649
 40
119.3858285996649
 40
119.3858285996649
 40
121.106455614246
 40
121.106455614246
 40
121.106455614246
 40
122.285323673336
 40
122.285323673336
 40
122.285323673336
 40
122.8410448346191
 40
122.8410448346191
 40
122.8410448346191
 40
122.9614833096351
 40
122.9614833096351
 40
122.9614833096351
 40
123.081921784651
 40
123.081921784651
 40
123.081921784651
 40
123.2018514343727
 40
123.2018514343727
 40
123.2018514343727
 40
123.3217810840945
 40
123.3217810840945
 40
123.3217810840945
 40
123.5597030765458
 40
123.5597030765458
 40
123.5597030765458
 40
123.8070186448079
 40
123.8070186448079
 40
123.8070186448079
 40
124.6716945445888
 40
124.6716945445888
 40
124.6716945445888
 40
124.6716945445888
 40
124.6716945445888
 40
124.6716945445888
 10
-84.94251350748385
 20
-0.2298991709019589
 30
0.0
 10
-84.92899124604418
 20
-0.1961539618278181
 30
0.0
 10
-84.92175568691846
 20
-0.1704795339028493
 30
0.0
 10
-84.91648179547741
 20
-0.1481204726189986
 30
0.0
 10
-84.90720982372607
 20
-0.0962003484949179
 30
0.0
 10
-84.90612497972731
 20
-0.0531278673315825
 30
0.0
 10
-84.90751592983219
 20
-0.0284235344868336
 30
0.0
 10
-84.91387418280533
 20
0.0221594946224144
 30
0.0
 10
-84.93014142329441
 20
0.0784481159343926
 30
0.0
 10
-84.94049705033944
 20
0.1059325732789915
 30
0.0
 10
-84.95877608486637
 20
0.1520794490350994
 30
0.0
 10
-85.00299947757168
 20
0.228011632830416
 30
0.0
 10
-85.01564603613269
 20
0.248303879029649
 30
0.0
 10
-85.03996117678866
 20
0.2856694835110005
 30
0.0
 10
-85.08020311918466
 20
0.3391932588256026
 30
0.0
 10
-85.09986318138965
 20
0.3635868052584641
 30
0.0
 10
-85.12340400254755
 20
0.3930922268414036
 30
0.0
 10
-85.16779648241323
 20
0.4413755720174635
 30
0.0
 10
-85.17647724265856
 20
0.4506442471999748
 30
0.0
 10
-85.1937799060567
 20
0.4686742096605343
 30
0.0
 10
-85.21463081725739
 20
0.4896097678044811
 30
0.0
 10
-85.22403532220886
 20
0.498928957035318
 30
0.0
 10
-85.24038535671536
 20
0.5148841477710988
 30
0.0
 10
-85.26365429728054
 20
0.5365644805612959
 30
0.0
 10
-85.27201272783418
 20
0.5442393306088747
 30
0.0
 10
-85.28325472330669
 20
0.5544470858991275
 30
0.0
 10
-85.29779315592396
 20
0.5672732370501166
 30
0.0
 10
-85.30040844475207
 20
0.5695750565819111
 30
0.0
 10
-85.30769006666242
 20
0.5759557920815582
 30
0.0
 10
-85.31898358851908
 20
0.5856599588453122
 30
0.0
 10
-85.32581156225466
 20
0.591464464926375
 30
0.0
 10
-85.34112035635576
 20
0.6043041723819301
 30
0.0
 10
-85.35915022252794
 20
0.6190409844545997
 30
0.0
 10
-85.36860651864987
 20
0.6266642168263701
 30
0.0
 10
-85.38794916784217
 20
0.6420185055855967
 30
0.0
 10
-85.40688519983508
 20
0.6566014648793584
 30
0.0
 10
-85.41616862848405
 20
0.6636157193004096
 30
0.0
 10
-85.43887336974824
 20
0.6805832501963636
 30
0.0
 10
-85.45368782123773
 20
0.6911782253424548
 30
0.0
 10
-85.46530452772492
 20
0.6994759130156894
 30
0.0
 10
-85.48399851297967
 20
0.7127224100191683
 30
0.0
 10
-85.49930980380475
 20
0.72323811411637
 30
0.0
 10
-85.50654592328555
 20
0.7281357494289154
 30
0.0
 10
-85.53807996302158
 20
0.7493244046686272
 30
0.0
 10
-85.56394121665858
 20
0.7658286505730843
 30
0.0
 10
-85.5835372780154
 20
0.7781512019433734
 30
0.0
 10
-85.60150660695972
 20
0.7891029421545995
 30
0.0
 10
-85.61865829784625
 20
0.7993218792293959
 30
0.0
  0
LINE
  5
21EED
330
1F
100
AcDbEntity
  8
SKVIEW1
100
AcDbLine
 10
-85.61865808557991
 20
0.7993219999999468
 30
0.0
 11
-89.1130990855799
 21
1.735655000000164
 31
0.0
  0
LINE
  5
21EEE
330
1F
100
AcDbEntity
  8
SKVIEW1
100
AcDbLine
 10
-89.36195208557993
 20
3.027053000000009
 30
0.0
 11
-85.61865808557991
 21
0.7993219999999468
 31
0.0
  0
ARC
  5
21EEF
330
1F
100
AcDbEntity
  8
SKVIEW1
100
AcDbCircle
 10
-81.35769108558008
 20
16.44260699999994
 30
0.0
 40
15.622003
100
AcDbArc
 50
235.9921439999999
 51
239.1779950000009
  0
ARC
  5
21EF0
330
1F
100
AcDbEntity
  8
SKVIEW1
100
AcDbCircle
 10
-84.56740008557995
 20
-0.0000000000000142
 30
0.0
 40
6.629233999999997
100
AcDbArc
 50
90.75071800000067
 51
147.1542560000002
  0
ARC
  5
21EF1
330
1F
100
AcDbEntity
  8
SKVIEW1
100
AcDbCircle
 10
-84.56740008557995
 20
-0.0000000000000142
 30
0.0
 40
5.670164999999999
100
AcDbArc
 50
62.69704000000178
 51
147.7336290000005
  0
ARC
  5
21EF2
330
1F
100
AcDbEntity
  8
SKVIEW1
100
AcDbCircle
 10
-84.56740008557995
 20
-0.0000000000000142
 30
0.0
 40
10.57
100
AcDbArc
 50
90.0
 51
132.7138580000018
  0
ARC
  5
21EF3
330
1F
100
AcDbEntity
  8
SKVIEW1
100
AcDbCircle
 10
-84.56740008557995
 20
-0.0000000000000142
 30
0.0
 40
10.95
100
AcDbArc
 50
90.0
 51
131.0479179999998
  0
ARC
  5
21EF4
330
1F
100
AcDbEntity
  8
SKVIEW1
100
AcDbCircle
 10
-84.56740008557995
 20
-0.0000000000000142
 30
0.0
 40
5.670164999999999
100
AcDbArc
 50
242.6970400000003
 51
327.7336290000005
  0
ARC
  5
21EF5
330
1F
100
AcDbEntity
  8
SKVIEW1
100
AcDbCircle
 10
-84.86740008557996
 20
-7.016088999999865
 30
0.0
 40
0.5475
100
AcDbArc
 50
303.226158999997
 51
87.55158899999965
  0
ARC
  5
21EF6
330
1F
100
AcDbEntity
  8
SKVIEW1
100
AcDbCircle
 10
-84.56740008557995
 20
-0.0000000000000142
 30
0.0
 40
6.629233999999997
100
AcDbArc
 50
270.7507180000007
 51
327.1542560000002
  0
ARC
  5
21EF7
330
1F
100
AcDbEntity
  8
SKVIEW1
100
AcDbCircle
 10
-84.56740008557995
 20
-0.0000000000000142
 30
0.0
 40
10.57
100
AcDbArc
 50
270.0
 51
312.7138580000013
  0
LINE
  5
21EF8
330
1F
100
AcDbEntity
  8
SKVIEW1
100
AcDbLine
 10
-84.56740008557995
 20
-7.474081000000083
 30
0.0
 11
-84.56740008557995
 21
-10.56999999999994
 31
0.0
  0
ARC
  5
21EF9
330
1F
100
AcDbEntity
  8
SKVIEW1
100
AcDbCircle
 10
-84.56740008557995
 20
-0.0000000000000142
 30
0.0
 40
10.95
100
AcDbArc
 50
270.0
 51
311.0479180000004
  0
LINE
  5
21EFA
330
1F
100
AcDbEntity
  8
SKVIEW1
100
AcDbLine
 10
-84.56740008557995
 20
-10.56999999999994
 30
0.0
 11
-84.56740008557995
 21
-10.95000000000005
 31
0.0
  0
LINE
  5
21F03
330
1F
100
AcDbEntity
  8
1
100
AcDbLine
 10
34.72000000000008
 20
10.95000000000026
 30
0.0
 11
33.92000000000002
 21
10.95000000000026
 31
0.0
  0
LINE
  5
21F04
330
1F
100
AcDbEntity
  8
1
100
AcDbLine
 10
35.3781790000001
 20
10.56999999999992
 30
0.0
 11
34.72000000000008
 21
10.95000000000026
 31
0.0
  0
LINE
  5
21F05
330
1F
100
AcDbEntity
  8
1
100
AcDbLine
 10
35.92407300000008
 20
7.474081000000282
 30
0.0
 11
35.3781790000001
 21
10.56999999999992
 31
0.0
  0
LINE
  5
21F06
330
1F
100
AcDbEntity
  8
1
100
AcDbLine
 10
35.92407300000008
 20
7.474081000000282
 30
0.0
 11
36.07304300000004
 21
6.628663999999943
 31
0.0
  0
ARC
  5
21F07
330
1F
100
AcDbEntity
  8
1
100
AcDbCircle
 10
40.17082800000008
 20
7.351783999999938
 30
0.0
 40
4.161
100
AcDbArc
 50
190.9895989999946
 51
203.8371239999999
  0
LINE
  5
21F08
330
1F
100
AcDbEntity
  8
1
100
AcDbLine
 10
38.87000000000006
 20
-0.0000000000000142
 30
0.0
 11
36.36476900000008
 21
5.670164999999983
 31
0.0
  0
LINE
  5
21F09
330
1F
100
AcDbEntity
  8
1
100
AcDbLine
 10
26.69000000000006
 20
9.659021000000038
 30
0.0
 11
26.69000000000006
 21
3.324977999999973
 31
0.0
  0
DIMENSION
  5
21F0A
330
1F
100
AcDbEntity
  8
SK2
100
AcDbDimension
280
     0
  2
*D16
 10
-33.09222024186136
 20
-8.399999999999986
 30
0.0
 11
-33.09222024186136
 21
-0.020620483043345
 31
0.0
 70
   160
  1
%%C<>
 71
     5
 42
16.79999999999995
 73
     0
 74
     0
 75
     0
  3
STANDARD
100
AcDbAlignedDimension
 13
-17.10000000000002
 23
8.399999999999963
 33
0.0
 14
-17.10000000000002
 24
-8.399999999999991
 34
0.0
 50
90.0
100
AcDbRotatedDimension
1001
ACAD_DSTYLE_DIMARC_LENGTH_SYMBOL
1070
   379
1070
     1
1001
ACAD_DSTYLE_DIM_LINETYPE
1070
   380
1005
14
1001
ACAD_DSTYLE_DIM_EXT1_LINETYPE
1070
   381
1005
14
1001
ACAD_DSTYLE_DIM_EXT2_LINETYPE
1070
   382
1005
14
1001
ACAD
1000
DSTYLE
1002
{
1070
   172
1070
     1
1002
}
  0
LINE
  5
2209D
330
1F
100
AcDbEntity
  8
4
100
AcDbLine
 10
0.0
 20
-0.0000000000000142
 30
0.0
 11
40.50665600000008
 21
-0.0000000000000142
 31
0.0
  0
LWPOLYLINE
  5
220A4
330
1F
100
AcDbEntity
  8
CUT
 48
0.240324
100
AcDbPolyline
 90
       17
 70
     1
 43
0.0
 10
36.36476960423016
 20
5.670165586688113
 42
-0.0561166973391987
 10
36.08613322875516
 20
6.558569258732163
 10
35.92407300000008
 20
7.474081000000282
 10
35.3781790000001
 20
10.56999999999992
 10
34.72000000000008
 20
10.95000000000026
 10
33.92000000000002
 20
10.95000000000026
 10
33.91999999999996
 20
20.20000000000003
 42
0.4142135623730951
 10
33.11999999999995
 20
20.99999999999999
 10
23.10000000000008
 20
21.00000000000003
 42
0.4142135623730951
 10
22.29999999999984
 20
20.20000000000003
 10
22.30000000000007
 20
10.18000000000027
 42
0.4142135623730951
 10
23.10000000000008
 20
9.379999999999981
 10
26.69000000000006
 20
9.379999999999981
 10
26.69000000000006
 20
8.140558000000041
 10
26.69000000000006
 20
3.3249780000002
 10
26.69000000000006
 20
-0.0000000000000142
 10
38.87000000000006
 20
-0.0000000000000142
  0
LWPOLYLINE
  5
220B5
330
1F
100
AcDbEntity
  8
NOCUT
100
AcDbPolyline
 90
        9
 70
     1
 43
0.0
 10
0.0
 20
8.399999999999963
 10
-17.10000000000002
 20
8.399999999999963
 10
-17.10000000000002
 20
4.027175000000156
 10
-17.10000000000002
 20
-0.0000000000000142
 10
32.92000000000002
 20
-0.0000000000000142
 10
32.92000000000002
 20
9.94807999999999
 10
32.92000000000002
 20
20.74999999999999
 10
0.0
 20
20.74999999999999
 10
0.0
 20
9.94807999999999
  0
VIEWPORT
  5
9C00
330
1B
100
AcDbEntity
 67
     1
  8
0
348
3195
100
AcDbViewport
 10
108.2280559557949
 20
71.69854161746989
 30
0.0
 40
251.8950231529317
 41
201.8884082081047
 68
     1
 69
     1
 12
108.2280559557949
 22
71.69854161746989
 13
0.0
 23
0.0
 14
10.0
 24
10.0
 15
10.0
 25
10.0
 16
0.0
 26
0.0
 36
1.0
 17
0.0
 27
0.0
 37
0.0
 42
50.0
 43
0.0
 44
0.0
 45
201.8884082081047
 50
0.0
 51
0.0
 72
   100
 90
   557088
  1

281
     0
 71
     1
 74
     0
110
0.0
120
0.0
130
0.0
111
1.0
121
0.0
131
0.0
112
0.0
122
1.0
132
0.0
 79
     0
146
0.0
170
     0
 61
     5
292
     1
282
     1
141
0.0
142
0.0
 63
   250
421
  3355443
  0
VIEWPORT
  5
9C02
330
1B
100
AcDbEntity
 67
     1
  8
1
348
3195
100
AcDbViewport
 10
143.457083940506
 20
98.18158769607544
 30
0.0
 40
229.5313343048095
 41
157.0905403137207
 68
     2
 69
     2
 12
-44.37697124786255
 22
-35.12342998133886
 13
0.0
 23
0.0
 14
10.0
 24
10.0
 15
10.0
 25
10.0
 16
0.0
 26
0.0
 36
1.0
 17
0.0
 27
0.0
 37
0.0
 42
50.0
 43
0.0
 44
0.0
 45
300.3886240724386
 50
0.0
 51
0.0
 72
   100
 90
   557088
  1

281
     0
 71
     1
 74
     0
110
0.0
120
0.0
130
0.0
111
1.0
121
0.0
131
0.0
112
0.0
122
1.0
132
0.0
 79
     0
146
0.0
170
     0
 61
     5
348
3195
292
     1
282
     1
141
0.0
142
0.0
 63
   250
421
  3355443
  0
ENDSEC
  0
SECTION
  2
OBJECTS
  0
DICTIONARY
  5
3182
330
0
100
AcDbDictionary
281
     1
  3
ACAD_CIP_PREVIOUS_PRODUCT_INFO
350
1B2F4
  3
ACAD_COLOR
350
31A0
  3
ACAD_DETAILVIEWSTYLE
350
1B2F0
  3
ACAD_FIELDLIST
350
20CBF
  3
ACAD_GROUP
350
3183
  3
ACAD_LAYOUT
350
31A5
  3
ACAD_MATERIAL
350
318B
  3
ACAD_MLEADERSTYLE
350
1B221
  3
ACAD_MLINESTYLE
350
3184
  3
ACAD_PLOTSETTINGS
350
31A4
  3
ACAD_PLOTSTYLENAME
350
3189
  3
ACAD_SCALELIST
350
1B1FC
  3
ACAD_SECTIONVIEWSTYLE
350
1B2EE
  3
ACAD_TABLESTYLE
350
31A1
  3
ACAD_VISUALSTYLE
350
318F
  3
ACDB_RECOMPOSE_DATA
350
220EE
  3
AcDbVariableDictionary
350
33A3
  0
DICTIONARY
  5
422A
330
2
100
AcDbDictionary
280
     1
281
     1
  3
ACAD_LAYERFILTERS
360
1B063
  3
ACAD_LAYERSTATES
360
9A1C
  3
ACLYDICTIONARY
360
1B062
  0
DICTIONARY
  5
1B2F5
330
10
100
AcDbDictionary
280
     1
281
     1
  3
ADSK_XREC_LAYER_RECONCILED
360
21B8E
  0
DICTIONARY
  5
1B2F7
330
3F8C
100
AcDbDictionary
280
     1
281
     1
  3
ADSK_XREC_LAYER_RECONCILED
360
21B8F
  0
DICTIONARY
  5
1B2F9
330
9C4A
100
AcDbDictionary
280
     1
281
     1
  3
ADSK_XREC_LAYER_RECONCILED
360
21B90
  0
DICTIONARY
  5
1B2FB
330
9C4B
100
AcDbDictionary
280
     1
281
     1
  3
ADSK_XREC_LAYER_RECONCILED
360
21B91
  0
DICTIONARY
  5
1B2FD
330
9C4D
100
AcDbDictionary
280
     1
281
     1
  3
ADSK_XREC_LAYER_RECONCILED
360
21B92
  0
DICTIONARY
  5
1B2FF
330
9C4E
100
AcDbDictionary
280
     1
281
     1
  3
ADSK_XREC_LAYER_RECONCILED
360
21B93
  0
DICTIONARY
  5
1B301
330
9C4F
100
AcDbDictionary
280
     1
281
     1
  3
ADSK_XREC_LAYER_RECONCILED
360
21B94
  0
DICTIONARY
  5
1B303
330
9C50
100
AcDbDictionary
280
     1
281
     1
  3
ADSK_XREC_LAYER_RECONCILED
360
21B95
  0
DICTIONARY
  5
1B305
330
9C51
100
AcDbDictionary
280
     1
281
     1
  3
ADSK_XREC_LAYER_RECONCILED
360
21B96
  0
DICTIONARY
  5
1B307
330
13335
100
AcDbDictionary
280
     1
281
     1
  3
ADSK_XREC_LAYER_RECONCILED
360
21B97
  0
DICTIONARY
  5
1B309
330
1686E
100
AcDbDictionary
280
     1
281
     1
  3
ADSK_XREC_LAYER_RECONCILED
360
21B98
  0
DICTIONARY
  5
339C
330
1F
100
AcDbDictionary
280
     1
281
     1
  3
ACAD_SORTENTS
360
339D
  0
DICTIONARY
  5
1DE81
330
1B3D7
100
AcDbDictionary
280
     1
281
     1
  0
XRECORD
  5
1B2F4
102
{ACAD_REACTORS
330
3182
102
}
330
3182
100
AcDbXrecord
280
     1
300
ACDLT
300
2015
300
ACDLT_F_S
  0
DICTIONARY
  5
31A0
102
{ACAD_REACTORS
330
3182
102
}
330
3182
100
AcDbDictionary
281
     1
  0
DICTIONARY
  5
1B2F0
102
{ACAD_REACTORS
330
3182
102
}
330
3182
100
AcDbDictionary
281
     1
  3
Imperial24
350
20CB3
  3
Metric50
350
1B2F1
  0
FIELDLIST
  5
20CBF
102
{ACAD_REACTORS
330
3182
102
}
330
3182
100
AcDbIdSet
 90
        0
100
AcDbFieldList
  0
DICTIONARY
  5
3183
102
{ACAD_REACTORS
330
3182
102
}
330
3182
100
AcDbDictionary
281
     1
  0
DICTIONARY
  5
31A5
102
{ACAD_REACTORS
330
3182
102
}
330
3182
100
AcDbDictionary
281
     1
  3
Layout1
350
31A7
  3
Model
350
31A6
  0
DICTIONARY
  5
318B
102
{ACAD_REACTORS
330
3182
102
}
330
3182
100
AcDbDictionary
281
     1
  3
ByBlock
350
318D
  3
ByLayer
350
318C
  3
Global
350
318E
  0
DICTIONARY
  5
1B221
102
{ACAD_REACTORS
330
3182
102
}
330
3182
100
AcDbDictionary
281
     1
  3
Standard
350
1B2ED
  0
DICTIONARY
  5
3184
102
{ACAD_REACTORS
330
3182
102
}
330
3182
100
AcDbDictionary
281
     1
  3
STANDARD
350
3185
  0
DICTIONARY
  5
31A4
102
{ACAD_REACTORS
330
3182
102
}
330
3182
100
AcDbDictionary
281
     1
  0
ACDBDICTIONARYWDFLT
  5
3189
102
{ACAD_REACTORS
330
3182
102
}
330
3182
100
AcDbDictionary
281
     1
  3
Normal
350
318A
100
AcDbDictionaryWithDefault
340
318A
  0
DICTIONARY
  5
1B1FC
102
{ACAD_REACTORS
330
3182
102
}
330
3182
100
AcDbDictionary
281
     1
  3
A0
350
1B1FD
  3
A1
350
1B1FE
  3
A2
350
1B1FF
  3
A3
350
1B200
  3
A4
350
1B201
  3
A5
350
1B202
  3
A6
350
1B203
  3
A7
350
1B204
  3
A8
350
1B205
  3
A9
350
1B206
  3
B0
350
1B207
  3
B1
350
1B208
  3
B2
350
1B209
  3
B3
350
1B20A
  3
B4
350
1B20B
  3
B5
350
1B20C
  3
B6
350
1B20D
  3
B7
350
1B20E
  3
B8
350
1B20F
  3
B9
350
1B210
  3
C0
350
1B211
  3
C1
350
1B212
  3
C2
350
1B213
  3
C3
350
1B214
  3
C4
350
1B215
  3
C5
350
1B216
  3
C6
350
1B217
  3
C7
350
1B218
  3
C8
350
1B219
  3
C9
350
1B21A
  3
D0
350
1B21B
  3
D1
350
1B21C
  3
D2
350
1B21D
  0
DICTIONARY
  5
1B2EE
102
{ACAD_REACTORS
330
3182
102
}
330
3182
100
AcDbDictionary
281
     1
  3
Imperial24
350
20CB1
  3
Metric50
350
1B2EF
  0
DICTIONARY
  5
31A1
102
{ACAD_REACTORS
330
3182
102
}
330
3182
100
AcDbDictionary
281
     1
  3
Standard
350
31A2
  0
DICTIONARY
  5
318F
102
{ACAD_REACTORS
330
3182
102
}
330
3182
100
AcDbDictionary
281
     1
  3
2dWireframe
350
3195
  3
3D Hidden
350
3197
  3
3dWireframe
350
3196
  3
Basic
350
3194
  3
Brighten
350
319B
  3
ColorChange
350
319F
  3
Conceptual
350
3198
  3
Dim
350
319A
  3
EdgeColorOff
350
1B2EC
  3
Facepattern
350
319E
  3
Flat
350
3190
  3
FlatWithEdges
350
3191
  3
Gouraud
350
3192
  3
GouraudWithEdges
350
3193
  3
Hidden
350
1B2E4
  3
JitterOff
350
1B2EA
  3
Linepattern
350
319D
  3
OverhangOff
350
1B2EB
  3
Realistic
350
3199
  3
Shaded
350
1B2E9
  3
Shaded with edges
350
1B2E8
  3
Shades of Gray
350
1B2E5
  3
Sketchy
350
1B2E6
  3
Thicken
350
319C
  3
Wireframe
350
1B2E3
  3
X-Ray
350
1B2E7
  0
XRECORD
  5
220EE
102
{ACAD_REACTORS
330
3182
102
}
330
3182
100
AcDbXrecord
280
     1
 90
        1
330
31A2
  0
DICTIONARY
  5
33A3
102
{ACAD_REACTORS
330
3182
102
}
330
3182
100
AcDbDictionary
281
     1
  3
CANNOSCALE
350
1B222
  3
CMLEADERSTYLE
350
1B30F
  3
CTABLESTYLE
350
33A4
  3
CVIEWDETAILSTYLE
350
1B310
  3
CVIEWSECTIONSTYLE
350
1B311
  3
DIMASSOC
350
9BE8
  3
INDEXCTL
350
9BE7
  3
LAYEREVAL
350
20993
  3
LAYERNOTIFY
350
20994
  3
LIGHTINGUNITS
350
20992
  3
MSLTSCALE
350
20991
  3
SORTENTS
350
9BE6
  0
DICTIONARY
  5
1B063
102
{ACAD_REACTORS
330
422A
102
}
330
422A
100
AcDbDictionary
281
     1
  0
DICTIONARY
  5
9A1C
102
{ACAD_REACTORS
330
422A
102
}
330
422A
100
AcDbDictionary
281
     1
  0
DICTIONARY
  5
1B062
102
{ACAD_REACTORS
330
422A
102
}
330
422A
100
AcDbDictionary
281
     1
1001
ACAD
1000
<All
  0
XRECORD
  5
21B8E
102
{ACAD_REACTORS
330
1B2F5
102
}
330
1B2F5
100
AcDbXrecord
280
     1
290
     1
  0
XRECORD
  5
21B8F
102
{ACAD_REACTORS
330
1B2F7
102
}
330
1B2F7
100
AcDbXrecord
280
     1
290
     1
  0
XRECORD
  5
21B90
102
{ACAD_REACTORS
330
1B2F9
102
}
330
1B2F9
100
AcDbXrecord
280
     1
290
     1
  0
XRECORD
  5
21B91
102
{ACAD_REACTORS
330
1B2FB
102
}
330
1B2FB
100
AcDbXrecord
280
     1
290
     1
  0
XRECORD
  5
21B92
102
{ACAD_REACTORS
330
1B2FD
102
}
330
1B2FD
100
AcDbXrecord
280
     1
290
     1
  0
XRECORD
  5
21B93
102
{ACAD_REACTORS
330
1B2FF
102
}
330
1B2FF
100
AcDbXrecord
280
     1
290
     1
  0
XRECORD
  5
21B94
102
{ACAD_REACTORS
330
1B301
102
}
330
1B301
100
AcDbXrecord
280
     1
290
     1
  0
XRECORD
  5
21B95
102
{ACAD_REACTORS
330
1B303
102
}
330
1B303
100
AcDbXrecord
280
     1
290
     1
  0
XRECORD
  5
21B96
102
{ACAD_REACTORS
330
1B305
102
}
330
1B305
100
AcDbXrecord
280
     1
290
     1
  0
XRECORD
  5
21B97
102
{ACAD_REACTORS
330
1B307
102
}
330
1B307
100
AcDbXrecord
280
     1
290
     1
  0
XRECORD
  5
21B98
102
{ACAD_REACTORS
330
1B309
102
}
330
1B309
100
AcDbXrecord
280
     1
290
     1
  0
SORTENTSTABLE
  5
339D
102
{ACAD_REACTORS
330
339C
102
}
330
339C
100
AcDbSortentsTable
330
1F
331
21EF8
  5
2209D
331
21E80
  5
21E93
331
21EE9
  5
21EFC
331
21E18
  5
21E1D
331
21E71
  5
21E84
331
21EDA
  5
21EED
331
21E09
  5
21E0E
331
21DFA
  5
21DFE
331
21EC9
  5
21EDC
331
21EBA
  5
21ECD
331
21EAB
  5
21EBE
331
21E52
  5
21E60
331
21F05
  5
220B8
331
21E9C
  5
21EAF
331
21E43
  5
21E4F
331
21E8D
  5
21EA0
331
21EF6
  5
21F09
331
21E25
  5
21E2A
331
21E7E
  5
21E91
331
21EE7
  5
21EFA
331
21E16
  5
21E1B
331
21E6F
  5
21E82
331
21E07
  5
21E0C
331
21DEE
  5
21DEE
331
21ED3
  5
21EE6
331
21EC4
  5
21ED7
331
21EB5
  5
21EC8
331
21E5C
  5
21E6D
331
21EA6
  5
21EB9
331
21E4D
  5
21E5B
331
21E97
  5
21EAA
331
21E3E
  5
21E4A
331
21E88
  5
21E9B
331
21E2F
  5
21E3B
331
21EF1
  5
21F04
331
21E20
  5
21E25
331
21E79
  5
21E8D
331
21EE2
  5
21EF5
331
21E6A
  5
21E7C
331
21E11
  5
21E16
331
21E02
  5
21E07
331
21DF3
  5
21DF3
331
21EB0
  5
21EC3
331
21EA1
  5
21EB4
331
21E48
  5
21E54
331
21F0A
  5
220BD
331
21E39
  5
21E45
331
21E92
  5
21EA5
331
21E83
  5
21E96
331
21E2A
  5
21E2F
331
21EEC
  5
21EFF
331
21E1B
  5
21E20
331
21E74
  5
21E87
331
21EDD
  5
21EF0
331
21E65
  5
21E76
331
21E0C
  5
21E11
331
21ECC
  5
21EDF
331
21EBD
  5
21ED0
331
21E9F
  5
21EB2
331
21E46
  5
21E52
331
21EAE
  5
21EC1
331
21ED8
  5
21EEB
331
21DF8
  5
21DF9
331
21ED6
  5
21EE9
331
21EC7
  5
21EDA
331
21EB8
  5
21ECB
331
21E5F
  5
21E73
331
21EA9
  5
21EBC
331
21E50
  5
21E5E
331
21F03
  5
220B6
331
21E9A
  5
21EAD
331
21E41
  5
21E4D
331
21E8B
  5
21E9E
331
21EF4
  5
21F07
331
21E23
  5
21E28
331
21EE5
  5
21EF8
331
21E14
  5
21E19
331
21E05
  5
21E0A
331
21E6D
  5
21E80
331
21DF6
  5
21DF7
331
21DEC
  5
21DEC
331
21ED1
  5
21EE4
331
21EC2
  5
21ED5
331
21EB3
  5
21EC6
331
21E5A
  5
21E6B
331
21EA4
  5
21EB7
331
21E4B
  5
21E59
331
21E95
  5
21EA8
331
21E3C
  5
21E48
331
21E86
  5
21E99
331
21E2D
  5
21E32
331
21EEF
  5
21F02
331
21E1E
  5
21E23
331
21E77
  5
21E8A
331
21EE0
  5
21EF3
331
21E68
  5
21E79
331
21E0F
  5
21E14
331
21E00
  5
21E05
331
21ECF
  5
21EE2
331
21DF1
  5
21DF1
331
21F08
  5
220BB
331
21E90
  5
21EA3
331
21EF9
  5
220A4
331
21E28
  5
21E2D
331
21E81
  5
21E94
331
21EEA
  5
21EFD
331
21E19
  5
21E1E
331
21E72
  5
21E85
331
21EDB
  5
21EEE
331
21E63
  5
21E74
331
21E0A
  5
21E0F
331
21ECA
  5
21EDD
331
21EBB
  5
21ECE
331
21EAC
  5
21EBF
331
21E53
  5
21E66
331
21F06
  5
220B9
331
21E9D
  5
21EB0
331
21E44
  5
21E50
331
21E8E
  5
21EA1
331
21EF7
  5
21F0A
331
21E26
  5
21E2B
331
21E7F
  5
21E92
331
21E17
  5
21E1C
331
21DEF
  5
21DEF
331
21ED4
  5
21EE7
331
21EC5
  5
21ED8
331
21EB6
  5
21EC9
331
21E5D
  5
21E6E
331
21EA7
  5
21EBA
331
21E4E
  5
21E5C
331
21E98
  5
21EAB
331
21E3F
  5
21E4B
331
21E89
  5
21E9C
331
21E30
  5
21E3C
331
21EF2
  5
21F05
331
21E21
  5
21E26
331
21EE3
  5
21EF6
331
21E12
  5
21E17
331
21E03
  5
21E08
331
21E6B
  5
21E7E
331
21DF4
  5
21DF4
331
21EC0
  5
21ED3
331
21EB1
  5
21EC4
331
21E58
  5
21E69
331
21EA2
  5
21EB5
331
21E49
  5
21E57
331
21E93
  5
21EA6
331
21E3A
  5
21E46
331
21E84
  5
21E97
331
21E2B
  5
21E30
331
21EED
  5
21F00
331
21E1C
  5
21E21
331
21E75
  5
21E88
331
21EDE
  5
21EF1
331
21E66
  5
21E77
331
21E0D
  5
21E12
331
21DFE
  5
21E03
331
21ECD
  5
21EE0
331
21EBE
  5
21ED1
331
21EAF
  5
21EC2
331
21E56
  5
21E67
331
21E47
  5
21E53
331
211A0
  5
211A0
331
21EE8
  5
21EFB
331
21E70
  5
21E83
331
21ED9
  5
21EEC
331
21E08
  5
21E0D
331
21ED7
  5
21EEA
331
21EC8
  5
21EDB
331
21EB9
  5
21ECC
331
21EAA
  5
21EBD
331
21E51
  5
21E5F
331
21F04
  5
220B7
331
21E9B
  5
21EAE
331
21E42
  5
21E4E
331
21E8C
  5
21E9F
331
21EF5
  5
21F08
331
21E24
  5
21E29
331
21E7D
  5
21E90
331
21EE6
  5
21EF9
331
21E15
  5
21E1A
331
21E6E
  5
21E81
331
21E06
  5
21E0B
331
21DF7
  5
21DF8
331
21DED
  5
21DED
331
21ED2
  5
21EE5
331
21EC3
  5
21ED6
331
21EB4
  5
21EC7
331
21E5B
  5
21E6C
331
21EA5
  5
21EB8
331
21E4C
  5
21E5A
331
21E96
  5
21EA9
331
21E3D
  5
21E49
331
21E87
  5
21E9A
331
21E2E
  5
21E3A
331
21EF0
  5
21F03
331
21E1F
  5
21E24
331
21E78
  5
21E8B
331
21EE1
  5
21EF4
331
21E69
  5
21E7A
331
21E10
  5
21E15
331
21E01
  5
21E06
331
21DF2
  5
21DF2
331
21DE8
  5
21DE8
331
21F09
  5
220BC
331
21EA0
  5
21EB3
331
21E91
  5
21EA4
331
21EFA
  5
220AD
331
21E29
  5
21E2E
331
21E82
  5
21E95
331
21EEB
  5
21EFE
331
21E1A
  5
21E1F
331
21E73
  5
21E86
331
21EDC
  5
21EEF
331
21ECB
  5
21EDE
331
220A4
  5
21E8F
331
21E64
  5
21E75
331
21E0B
  5
21E10
331
21EAD
  5
21EC0
331
21EBC
  5
21ECF
331
21F07
  5
220BA
331
21E9E
  5
21EB1
331
21E8F
  5
21EA2
331
21E27
  5
21E2C
331
21E45
  5
21E51
331
21ED5
  5
21EE8
331
21EC6
  5
21ED9
331
21EB7
  5
21ECA
331
21E5E
  5
21E6F
331
21EA8
  5
21EBB
331
21E4F
  5
21E5D
331
21E99
  5
21EAC
331
21E40
  5
21E4C
331
21E8A
  5
21E9D
331
21E31
  5
21E44
331
21EF3
  5
21F06
331
21E22
  5
21E27
331
21E7B
  5
21E8E
331
21EE4
  5
21EF7
331
21E6C
  5
21E7F
331
21E13
  5
21E18
331
21E04
  5
21E09
331
21DF5
  5
21DF6
331
2209D
  5
21DF5
331
21ED0
  5
21EE3
331
21EC1
  5
21ED4
331
21EB2
  5
21EC5
331
21E59
  5
21E6A
331
21EA3
  5
21EB6
331
21E4A
  5
21E58
331
21E94
  5
21EA7
331
21E3B
  5
21E47
331
21E85
  5
21E98
331
21E2C
  5
21E31
331
21EEE
  5
21F01
331
21E1D
  5
21E22
331
21E76
  5
21E89
331
21EDF
  5
21EF2
331
21E67
  5
21E78
331
21E0E
  5
21E13
331
21DFF
  5
21E04
331
21ECE
  5
21EE1
331
21EBF
  5
21ED2
331
21E57
  5
21E68
331
21DF0
  5
21DF0
  0
ACDBDETAILVIEWSTYLE
  5
20CB3
102
{ACAD_XDICTIONARY
360
22129
102
}
102
{ACAD_REACTORS
330
1B2F0
102
}
330
1B2F0
100
AcDbModelDocViewStyle
 70
     0
  3
Imperial24
290
     0
100
AcDbDetailViewStyle
 70
     0
 71
     0
 90
        3
 71
     1
340
11
 62
   256
 40
0.24
340
0
 62
   256
 40
0.24
300

 40
0.36
280
     3
 71
     2
340
16
 90
       25
 62
   256
 71
     3
340
11
 62
   256
 40
0.24
 90
        1
 40
0.75
 90
        1
300
%<\AcVar ViewType \f "%tc1">% %<\AcVar ViewDetailId>%\PVARIA %<\AcVar ViewScale \f "%sn">%
 71
     4
340
16
 90
       25
 62
   256
340
16
 90
       25
 62
   256
280
     0
  0
ACDBDETAILVIEWSTYLE
  5
1B2F1
102
{ACAD_XDICTIONARY
360
22125
102
}
102
{ACAD_REACTORS
330
1B2F0
102
}
330
1B2F0
100
AcDbModelDocViewStyle
 70
     0
  3
Metric50
290
     0
100
AcDbDetailViewStyle
 70
     0
 71
     0
 90
        3
 71
     1
340
11
 62
   256
 40
5.0
340
0
 62
   256
 40
5.0
300

 40
0.0
280
     1
 71
     2
340
16
 90
       25
 62
   256
 71
     3
340
11
 62
   256
 40
5.0
 90
        0
 40
15.0
 90
        1
300
%<\AcVar ViewDetailId>% (%<\AcVar ViewScale \f "%sn">%)
 71
     4
340
16
 90
       25
 62
   256
340
16
 90
       25
 62
   256
280
     0
  0
LAYOUT
  5
31A7
102
{ACAD_REACTORS
330
31A5
102
}
330
31A5
100
AcDbPlotSettings
  1

  2
\\ingdc01\ITB3
  4
A4
  6

 40
6.805083274841307
 41
5.027085781097412
 42
6.805068969726562
 43
5.027069091796875
 44
209.9733276367186
 45
296.9683227539062
 46
0.0
 47
0.0
 48
0.0
 49
0.0
140
0.0
141
0.0
142
1.0
143
1.0
 70
   688
 72
     1
 73
     1
 74
     5
  7

 75
    16
147
1.0
 76
     0
 77
     2
 78
   300
148
0.0
149
0.0
100
AcDbLayout
  1
Layout1
 70
     1
 71
     1
 10
-5.027069091796875
 20
-6.805083274841307
 11
291.9412536621094
 21
203.1682443618775
 12
0.0
 22
0.0
 32
0.0
 14
28.69141678810127
 24
19.6363175392151
 34
0.0
 15
258.2227510929107
 25
176.7268578529358
 35
0.0
146
0.0
 13
0.0
 23
0.0
 33
0.0
 16
1.0
 26
0.0
 36
0.0
 17
0.0
 27
1.0
 37
0.0
 76
     0
330
1B
331
9C00
1001
ACAD_PSEXT
1000
\\ingdc01\ITB3
1000
HP LaserJet 5000 Series PCL
1000
TB
1000

1070
     0
  0
LAYOUT
  5
31A6
102
{ACAD_REACTORS
330
31A5
102
}
330
31A5
100
AcDbPlotSettings
  1

  2
\\ingdc01\ITB3
  4
A4
  6

 40
6.805083274841307
 41
5.027085781097412
 42
6.805068969726562
 43
5.027069091796875
 44
209.9733276367186
 45
296.9683227539062
 46
0.0
 47
0.0
 48
0.0
 49
0.0
140
0.0
141
0.0
142
1.0
143
1.500313223655698
 70
 11952
 72
     1
 73
     1
 74
     0
  7

 75
     0
147
0.6665274852163048
 76
     0
 77
     2
 78
   300
148
239.0155119930048
149
102.2558208723354
100
AcDbLayout
  1
Model
 70
     1
 71
     0
 10
0.0
 20
0.0
 11
12.0
 21
9.0
 12
0.0
 22
0.0
 32
0.0
 14
0.0
 24
0.0
 34
0.0
 15
0.0
 25
0.0
 35
0.0
146
0.0
 13
0.0
 23
0.0
 33
0.0
 16
1.0
 26
0.0
 36
0.0
 17
0.0
 27
1.0
 37
0.0
 76
     0
330
1F
331
1F4
1001
ACAD_PSEXT
1000
\\ingdc01\ITB3
1000
HP LaserJet 5000 Series PCL
1000
TB
1000

1070
     0
  0
MATERIAL
  5
318D
102
{ACAD_XDICTIONARY
360
1B22B
102
}
102
{ACAD_REACTORS
330
318B
102
}
330
318B
100
AcDbMaterial
  1
ByBlock
  0
MATERIAL
  5
318C
102
{ACAD_XDICTIONARY
360
1B22D
102
}
102
{ACAD_REACTORS
330
318B
102
}
330
318B
100
AcDbMaterial
  1
ByLayer
  0
MATERIAL
  5
318E
102
{ACAD_XDICTIONARY
360
1B22F
102
}
102
{ACAD_REACTORS
330
318B
102
}
330
318B
100
AcDbMaterial
  1
Global
  0
MLEADERSTYLE
  5
1B2ED
102
{ACAD_REACTORS
330
1B221
102
}
330
1B221
100
AcDbMLeaderStyle
179
     2
170
     2
171
     1
172
     0
 90
        2
 40
0.0
 41
0.0
173
     1
 91
-1056964608
340
14
 92
       -2
290
     1
 42
2.0
291
     1
 43
0.36
  3
Standard
 44
4.0
300

342
11
174
     1
178
     6
175
     1
176
     0
 93
-1056964608
 45
4.0
292
     0
297
     0
 46
4.0
 94
-1056964608
 47
1.0
 49
1.0
140
1.0
293
     1
141
0.0
294
     1
177
     0
142
1.0
295
     0
296
     0
143
0.125
271
     0
272
     9
273
     9
1001
ACAD_MLEADERVER
1070
     2
  0
MLINESTYLE
  5
3185
102
{ACAD_REACTORS
330
3184
102
}
330
3184
100
AcDbMlineStyle
  2
STANDARD
 70
     0
  3

 62
   256
 51
90.0
 52
90.0
 71
     2
 49
0.5
 62
   256
  6
BYLAYER
 49
-0.5
 62
   256
  6
BYLAYER
  0
ACDBPLACEHOLDER
  5
318A
102
{ACAD_REACTORS
330
3189
102
}
330
3189
  0
SCALE
  5
1B1FD
102
{ACAD_REACTORS
330
1B1FC
102
}
330
1B1FC
100
AcDbScale
 70
     0
300
1:1
140
1.0
141
1.0
290
     1
1001
ACAD
1000
AcRTDxfName
1000
SCALE
  0
SCALE
  5
1B1FE
102
{ACAD_REACTORS
330
1B1FC
102
}
330
1B1FC
100
AcDbScale
 70
     0
300
1:2
140
1.0
141
2.0
290
     0
1001
ACAD
1000
AcRTDxfName
1000
SCALE
  0
SCALE
  5
1B1FF
102
{ACAD_REACTORS
330
1B1FC
102
}
330
1B1FC
100
AcDbScale
 70
     0
300
1:4
140
1.0
141
4.0
290
     0
1001
ACAD
1000
AcRTDxfName
1000
SCALE
  0
SCALE
  5
1B200
102
{ACAD_REACTORS
330
1B1FC
102
}
330
1B1FC
100
AcDbScale
 70
     0
300
1:5
140
1.0
141
5.0
290
     0
1001
ACAD
1000
AcRTDxfName
1000
SCALE
  0
SCALE
  5
1B201
102
{ACAD_REACTORS
330
1B1FC
102
}
330
1B1FC
100
AcDbScale
 70
     0
300
1:8
140
1.0
141
8.0
290
     0
1001
ACAD
1000
AcRTDxfName
1000
SCALE
  0
SCALE
  5
1B202
102
{ACAD_REACTORS
330
1B1FC
102
}
330
1B1FC
100
AcDbScale
 70
     0
300
1:10
140
1.0
141
10.0
290
     0
1001
ACAD
1000
AcRTDxfName
1000
SCALE
  0
SCALE
  5
1B203
102
{ACAD_REACTORS
330
1B1FC
102
}
330
1B1FC
100
AcDbScale
 70
     0
300
1:16
140
1.0
141
16.0
290
     0
1001
ACAD
1000
AcRTDxfName
1000
SCALE
  0
SCALE
  5
1B204
102
{ACAD_REACTORS
330
1B1FC
102
}
330
1B1FC
100
AcDbScale
 70
     0
300
1:20
140
1.0
141
20.0
290
     0
1001
ACAD
1000
AcRTDxfName
1000
SCALE
  0
SCALE
  5
1B205
102
{ACAD_REACTORS
330
1B1FC
102
}
330
1B1FC
100
AcDbScale
 70
     0
300
1:30
140
1.0
141
30.0
290
     0
1001
ACAD
1000
AcRTDxfName
1000
SCALE
  0
SCALE
  5
1B206
102
{ACAD_REACTORS
330
1B1FC
102
}
330
1B1FC
100
AcDbScale
 70
     0
300
1:40
140
1.0
141
40.0
290
     0
1001
ACAD
1000
AcRTDxfName
1000
SCALE
  0
SCALE
  5
1B207
102
{ACAD_REACTORS
330
1B1FC
102
}
330
1B1FC
100
AcDbScale
 70
     0
300
1:50
140
1.0
141
50.0
290
     0
1001
ACAD
1000
AcRTDxfName
1000
SCALE
  0
SCALE
  5
1B208
102
{ACAD_REACTORS
330
1B1FC
102
}
330
1B1FC
100
AcDbScale
 70
     0
300
1:100
140
1.0
141
100.0
290
     0
1001
ACAD
1000
AcRTDxfName
1000
SCALE
  0
SCALE
  5
1B209
102
{ACAD_REACTORS
330
1B1FC
102
}
330
1B1FC
100
AcDbScale
 70
     0
300
2:1
140
2.0
141
1.0
290
     0
1001
ACAD
1000
AcRTDxfName
1000
SCALE
  0
SCALE
  5
1B20A
102
{ACAD_REACTORS
330
1B1FC
102
}
330
1B1FC
100
AcDbScale
 70
     0
300
4:1
140
4.0
141
1.0
290
     0
1001
ACAD
1000
AcRTDxfName
1000
SCALE
  0
SCALE
  5
1B20B
102
{ACAD_REACTORS
330
1B1FC
102
}
330
1B1FC
100
AcDbScale
 70
     0
300
8:1
140
8.0
141
1.0
290
     0
1001
ACAD
1000
AcRTDxfName
1000
SCALE
  0
SCALE
  5
1B20C
102
{ACAD_REACTORS
330
1B1FC
102
}
330
1B1FC
100
AcDbScale
 70
     0
300
10:1
140
10.0
141
1.0
290
     0
1001
ACAD
1000
AcRTDxfName
1000
SCALE
  0
SCALE
  5
1B20D
102
{ACAD_REACTORS
330
1B1FC
102
}
330
1B1FC
100
AcDbScale
 70
     0
300
100:1
140
100.0
141
1.0
290
     0
1001
ACAD
1000
AcRTDxfName
1000
SCALE
  0
SCALE
  5
1B20E
102
{ACAD_REACTORS
330
1B1FC
102
}
330
1B1FC
100
AcDbScale
 70
     0
300
1/128" = 1'-0"
140
0.0078125
141
12.0
290
     0
1001
ACAD
1000
AcRTDxfName
1000
SCALE
  0
SCALE
  5
1B20F
102
{ACAD_REACTORS
330
1B1FC
102
}
330
1B1FC
100
AcDbScale
 70
     0
300
1/64" = 1'-0"
140
0.015625
141
12.0
290
     0
1001
ACAD
1000
AcRTDxfName
1000
SCALE
  0
SCALE
  5
1B210
102
{ACAD_REACTORS
330
1B1FC
102
}
330
1B1FC
100
AcDbScale
 70
     0
300
1/32" = 1'-0"
140
0.03125
141
12.0
290
     0
1001
ACAD
1000
AcRTDxfName
1000
SCALE
  0
SCALE
  5
1B211
102
{ACAD_REACTORS
330
1B1FC
102
}
330
1B1FC
100
AcDbScale
 70
     0
300
1/16" = 1'-0"
140
0.0625
141
12.0
290
     0
1001
ACAD
1000
AcRTDxfName
1000
SCALE
  0
SCALE
  5
1B212
102
{ACAD_REACTORS
330
1B1FC
102
}
330
1B1FC
100
AcDbScale
 70
     0
300
3/32" = 1'-0"
140
0.09375
141
12.0
290
     0
1001
ACAD
1000
AcRTDxfName
1000
SCALE
  0
SCALE
  5
1B213
102
{ACAD_REACTORS
330
1B1FC
102
}
330
1B1FC
100
AcDbScale
 70
     0
300
1/8" = 1'-0"
140
0.125
141
12.0
290
     0
1001
ACAD
1000
AcRTDxfName
1000
SCALE
  0
SCALE
  5
1B214
102
{ACAD_REACTORS
330
1B1FC
102
}
330
1B1FC
100
AcDbScale
 70
     0
300
3/16" = 1'-0"
140
0.1875
141
12.0
290
     0
1001
ACAD
1000
AcRTDxfName
1000
SCALE
  0
SCALE
  5
1B215
102
{ACAD_REACTORS
330
1B1FC
102
}
330
1B1FC
100
AcDbScale
 70
     0
300
1/4" = 1'-0"
140
0.25
141
12.0
290
     0
1001
ACAD
1000
AcRTDxfName
1000
SCALE
  0
SCALE
  5
1B216
102
{ACAD_REACTORS
330
1B1FC
102
}
330
1B1FC
100
AcDbScale
 70
     0
300
3/8" = 1'-0"
140
0.375
141
12.0
290
     0
1001
ACAD
1000
AcRTDxfName
1000
SCALE
  0
SCALE
  5
1B217
102
{ACAD_REACTORS
330
1B1FC
102
}
330
1B1FC
100
AcDbScale
 70
     0
300
1/2" = 1'-0"
140
0.5
141
12.0
290
     0
1001
ACAD
1000
AcRTDxfName
1000
SCALE
  0
SCALE
  5
1B218
102
{ACAD_REACTORS
330
1B1FC
102
}
330
1B1FC
100
AcDbScale
 70
     0
300
3/4" = 1'-0"
140
0.75
141
12.0
290
     0
1001
ACAD
1000
AcRTDxfName
1000
SCALE
  0
SCALE
  5
1B219
102
{ACAD_REACTORS
330
1B1FC
102
}
330
1B1FC
100
AcDbScale
 70
     0
300
1" = 1'-0"
140
1.0
141
12.0
290
     0
1001
ACAD
1000
AcRTDxfName
1000
SCALE
  0
SCALE
  5
1B21A
102
{ACAD_REACTORS
330
1B1FC
102
}
330
1B1FC
100
AcDbScale
 70
     0
300
1-1/2" = 1'-0"
140
1.5
141
12.0
290
     0
1001
ACAD
1000
AcRTDxfName
1000
SCALE
  0
SCALE
  5
1B21B
102
{ACAD_REACTORS
330
1B1FC
102
}
330
1B1FC
100
AcDbScale
 70
     0
300
3" = 1'-0"
140
3.0
141
12.0
290
     0
1001
ACAD
1000
AcRTDxfName
1000
SCALE
  0
SCALE
  5
1B21C
102
{ACAD_REACTORS
330
1B1FC
102
}
330
1B1FC
100
AcDbScale
 70
     0
300
6" = 1'-0"
140
6.0
141
12.0
290
     0
1001
ACAD
1000
AcRTDxfName
1000
SCALE
  0
SCALE
  5
1B21D
102
{ACAD_REACTORS
330
1B1FC
102
}
330
1B1FC
100
AcDbScale
 70
     0
300
1'-0" = 1'-0"
140
12.0
141
12.0
290
     0
1001
ACAD
1000
AcRTDxfName
1000
SCALE
  0
ACDBSECTIONVIEWSTYLE
  5
20CB1
102
{ACAD_XDICTIONARY
360
22127
102
}
102
{ACAD_REACTORS
330
1B2EE
102
}
330
1B2EE
100
AcDbModelDocViewStyle
 70
     0
  3
Imperial24
290
     0
100
AcDbSectionViewStyle
 70
     0
 71
     0
 90
       78
 71
     1
340
11
 62
   256
 40
0.24
340
0
340
0
 62
   256
 40
0.24
300
I, O, Q, S, X, Z
 40
0.48
 90
        3
 40
0.18
 90
        1
 71
     2
340
16
 90
       25
 62
   256
340
16
 90
       50
 62
   256
 40
0.24
 40
0.0
 40
0.24
 71
     3
340
11
 62
   256
 40
0.24
 90
        1
 40
0.75
 90
        1
300
%<\AcVar ViewType \f "%tc1">% %<\AcVar ViewSectionStartId>%-%<\AcVar ViewSectionEndId>%\PVARIA %<\AcVar ViewScale \f "%sn">%
 71
     4
 62
   256
 62
   257
300
ANSI31
 40
1.0
 90
        0
290
     0
290
     0
 90
        6
 40
0.0
 40
1.570796326794896
 40
0.2617993877991494
 40
1.308996938995747
 40
-0.2617993877991494
 40
1.832595714594044
  0
ACDBSECTIONVIEWSTYLE
  5
1B2EF
102
{ACAD_XDICTIONARY
360
22123
102
}
102
{ACAD_REACTORS
330
1B2EE
102
}
330
1B2EE
100
AcDbModelDocViewStyle
 70
     0
  3
Metric50
290
     0
100
AcDbSectionViewStyle
 70
     0
 71
     0
 90
      102
 71
     1
340
11
 62
   256
 40
5.0
340
0
340
0
 62
   256
 40
5.0
300
I, O, Q, S, X, Z
 40
10.0
 90
        0
 40
2.5
 90
        0
 71
     2
340
16
 90
       25
 62
   256
340
16
 90
       50
 62
   256
 40
5.0
 40
2.5
 40
5.0
 71
     3
340
11
 62
   256
 40
5.0
 90
        0
 40
15.0
 90
        1
300
%<\AcVar ViewSectionStartId>%-%<\AcVar ViewSectionEndId>% (%<\AcVar ViewScale \f "%sn">%)
 71
     4
 62
   256
 62
   257
300
ANSI31
 40
1.0
 90
        0
290
     0
290
     0
 90
        6
 40
0.0
 40
1.570796326794896
 40
0.2617993877991494
 40
1.308996938995747
 40
-0.2617993877991494
 40
1.832595714594044
  0
TABLESTYLE
  5
31A2
102
{ACAD_XDICTIONARY
360
1B314
102
}
102
{ACAD_REACTORS
330
31A1
102
}
330
31A1
100
AcDbTableStyle
280
     0
  3
Standard
 70
     0
 71
     0
 40
1.5
 41
1.5
280
     0
281
     0
  7
STANDARD
140
4.5
170
     2
 62
     0
 63
     7
283
     0
 90
        4
 91
        0
  1

274
    -2
284
     1
 64
     0
275
    -2
285
     1
 65
     0
276
    -2
286
     1
 66
     0
277
    -2
287
     1
 67
     0
278
    -2
288
     1
 68
     0
279
    -2
289
     1
 69
     0
  7
STANDARD
140
6.0
170
     5
 62
     0
 63
     7
283
     0
 90
        4
 91
        0
  1

274
    -2
284
     1
 64
     0
275
    -2
285
     1
 65
     0
276
    -2
286
     1
 66
     0
277
    -2
287
     1
 67
     0
278
    -2
288
     1
 68
     0
279
    -2
289
     1
 69
     0
  7
STANDARD
140
4.5
170
     5
 62
     0
 63
     7
283
     0
 90
        4
 91
        0
  1

274
    -2
284
     1
 64
     0
275
    -2
285
     1
 65
     0
276
    -2
286
     1
 66
     0
277
    -2
287
     1
 67
     0
278
    -2
288
     1
 68
     0
279
    -2
289
     1
 69
     0
  0
VISUALSTYLE
  5
3195
102
{ACAD_XDICTIONARY
360
220F9
102
}
102
{ACAD_REACTORS
330
318F
102
}
330
318F
100
AcDbVisualStyle
  2

 70
     4
177
     2
291
     0
 71
     0
176
     1
 72
     2
176
     1
 73
     0
176
     1
 90
        0
176
     1
 40
0.6
176
     1
 41
30.0
176
     1
 63
     7
176
     1
 74
     1
176
     1
 91
        4
176
     1
 64
     7
176
     1
 65
   257
176
     1
 75
     1
176
     1
175
     1
176
     1
 42
1.0
176
     1
 92
        0
176
     1
 66
   257
176
     1
 43
1.0
176
     1
 76
     1
176
     1
 77
     6
176
     1
 78
     2
176
     1
 67
     7
176
     1
 79
     5
176
     1
170
     0
176
     1
171
     0
176
     1
290
     0
176
     1
 93
        1
176
     1
 44
0.0
176
     1
173
     0
176
     1
1001
ACAD
1000
AcDbSavedByObjectVersion
1070
     0
  0
VISUALSTYLE
  5
3197
102
{ACAD_XDICTIONARY
360
220FD
102
}
102
{ACAD_REACTORS
330
318F
102
}
330
318F
100
AcDbVisualStyle
  2

 70
     6
177
     2
291
     0
 71
     1
176
     1
 72
     2
176
     1
 73
     2
176
     1
 90
        0
176
     1
 40
0.6
176
     1
 41
30.0
176
     1
 63
     7
176
     1
 74
     2
176
     1
 91
        2
176
     1
 64
     7
176
     1
 65
   257
176
     1
 75
     2
176
     1
175
     1
176
     1
 42
40.0
176
     1
 92
        0
176
     1
 66
   257
176
     1
 43
1.0
176
     1
 76
     1
176
     1
 77
     6
176
     1
 78
     2
176
     1
 67
     7
176
     1
 79
     3
176
     1
170
     0
176
     1
171
     0
176
     1
290
     0
176
     1
 93
        1
176
     1
 44
0.0
176
     1
173
     0
176
     1
1001
ACAD
1000
AcDbSavedByObjectVersion
1070
     0
  0
VISUALSTYLE
  5
3196
102
{ACAD_XDICTIONARY
360
220FB
102
}
102
{ACAD_REACTORS
330
318F
102
}
330
318F
100
AcDbVisualStyle
  2

 70
     5
177
     2
291
     0
 71
     0
176
     1
 72
     2
176
     1
 73
     0
176
     1
 90
        0
176
     1
 40
0.6
176
     1
 41
30.0
176
     1
 63
     7
176
     1
 74
     1
176
     1
 91
        4
176
     1
 64
     7
176
     1
 65
   257
176
     1
 75
     1
176
     1
175
     1
176
     1
 42
1.0
176
     1
 92
        0
176
     1
 66
   257
176
     1
 43
1.0
176
     1
 76
     1
176
     1
 77
     6
176
     1
 78
     2
176
     1
 67
     7
176
     1
 79
     5
176
     1
170
     0
176
     1
171
     0
176
     1
290
     0
176
     1
 93
        1
176
     1
 44
0.0
176
     1
173
     0
176
     1
1001
ACAD
1000
AcDbSavedByObjectVersion
1070
     0
  0
VISUALSTYLE
  5
3194
102
{ACAD_XDICTIONARY
360
220F7
102
}
102
{ACAD_REACTORS
330
318F
102
}
330
318F
100
AcDbVisualStyle
  2

 70
     7
177
     2
291
     1
 71
     1
176
     1
 72
     0
176
     1
 73
     1
176
     1
 90
        0
176
     1
 40
0.6
176
     1
 41
30.0
176
     1
 63
     7
176
     1
 74
     0
176
     1
 91
        4
176
     1
 64
     7
176
     1
 65
   257
176
     1
 75
     1
176
     1
175
     1
176
     1
 42
1.0
176
     1
 92
        8
176
     1
 66
     7
176
     1
 43
1.0
176
     1
 76
     1
176
     1
 77
     6
176
     1
 78
     2
176
     1
 67
     7
176
     1
 79
     5
176
     1
170
     0
176
     1
171
     0
176
     1
290
     0
176
     1
 93
        1
176
     1
 44
0.0
176
     1
173
     0
176
     1
1001
ACAD
1000
AcDbSavedByObjectVersion
1070
     0
  0
VISUALSTYLE
  5
319B
102
{ACAD_XDICTIONARY
360
22105
102
}
102
{ACAD_REACTORS
330
318F
102
}
330
318F
100
AcDbVisualStyle
  2

 70
    12
177
     2
291
     1
 71
     2
176
     1
 72
     2
176
     1
 73
     0
176
     1
 90
        0
176
     1
 40
0.6
176
     1
 41
30.0
176
     1
 63
     7
176
     1
 74
     1
176
     1
 91
        4
176
     1
 64
     7
176
     1
 65
   257
176
     1
 75
     1
176
     1
175
     1
176
     1
 42
1.0
176
     1
 92
        8
176
     1
 66
     7
176
     1
 43
1.0
176
     1
 76
     1
176
     1
 77
     6
176
     1
 78
     2
176
     1
 67
     7
176
     1
 79
     5
176
     1
170
     0
176
     1
171
     0
176
     1
290
     0
176
     1
 93
        1
176
     1
 44
50.0
176
     1
173
     0
176
     1
1001
ACAD
1000
AcDbSavedByObjectVersion
1070
     0
  0
VISUALSTYLE
  5
319F
102
{ACAD_XDICTIONARY
360
2210D
102
}
102
{ACAD_REACTORS
330
318F
102
}
330
318F
100
AcDbVisualStyle
  2

 70
    16
177
     2
291
     1
 71
     2
176
     1
 72
     2
176
     1
 73
     3
176
     1
 90
        0
176
     1
 40
0.6
176
     1
 41
30.0
176
     1
 63
     8
176
     1
 74
     1
176
     1
 91
        4
176
     1
 64
     7
176
     1
 65
   257
176
     1
 75
     1
176
     1
175
     1
176
     1
 42
1.0
176
     1
 92
        8
176
     1
 66
     8
176
     1
 43
1.0
176
     1
 76
     1
176
     1
 77
     6
176
     1
 78
     2
176
     1
 67
     7
176
     1
 79
     5
176
     1
170
     0
176
     1
171
     0
176
     1
290
     0
176
     1
 93
        1
176
     1
 44
0.0
176
     1
173
     0
176
     1
1001
ACAD
1000
AcDbSavedByObjectVersion
1070
     0
  0
VISUALSTYLE
  5
3198
102
{ACAD_XDICTIONARY
360
220FF
102
}
102
{ACAD_REACTORS
330
318F
102
}
330
318F
100
AcDbVisualStyle
  2

 70
     9
177
     2
291
     0
 71
     3
176
     1
 72
     2
176
     1
 73
     0
176
     1
 90
        0
176
     1
 40
0.6
176
     1
 41
30.0
176
     1
 63
     7
176
     1
 74
     2
176
     1
 91
        2
176
     1
 64
     7
176
     1
 65
   257
176
     1
 75
     1
176
     1
175
     1
176
     1
 42
40.0
176
     1
 92
        8
176
     1
 66
     7
176
     1
 43
1.0
176
     1
 76
     1
176
     1
 77
     6
176
     1
 78
     2
176
     1
 67
     7
176
     1
 79
     3
176
     1
170
     0
176
     1
171
     0
176
     1
290
     0
176
     1
 93
        1
176
     1
 44
0.0
176
     1
173
     0
176
     1
1001
ACAD
1000
AcDbSavedByObjectVersion
1070
     0
  0
VISUALSTYLE
  5
319A
102
{ACAD_XDICTIONARY
360
22103
102
}
102
{ACAD_REACTORS
330
318F
102
}
330
318F
100
AcDbVisualStyle
  2

 70
    11
177
     2
291
     1
 71
     2
176
     1
 72
     2
176
     1
 73
     0
176
     1
 90
        0
176
     1
 40
0.6
176
     1
 41
30.0
176
     1
 63
     7
176
     1
 74
     1
176
     1
 91
        4
176
     1
 64
     7
176
     1
 65
   257
176
     1
 75
     1
176
     1
175
     1
176
     1
 42
1.0
176
     1
 92
        8
176
     1
 66
     7
176
     1
 43
1.0
176
     1
 76
     1
176
     1
 77
     6
176
     1
 78
     2
176
     1
 67
     7
176
     1
 79
     5
176
     1
170
     0
176
     1
171
     0
176
     1
290
     0
176
     1
 93
        1
176
     1
 44
-50.0
176
     1
173
     0
176
     1
1001
ACAD
1000
AcDbSavedByObjectVersion
1070
     0
  0
VISUALSTYLE
  5
1B2EC
102
{ACAD_XDICTIONARY
360
22121
102
}
102
{ACAD_REACTORS
330
318F
102
}
330
318F
100
AcDbVisualStyle
  2

 70
    22
177
     2
291
     1
 71
     2
176
     0
 72
     2
176
     0
 73
     0
176
     0
 90
        0
176
     0
 40
0.6
176
     0
 41
30.0
176
     0
 63
     7
176
     0
 74
     1
176
     0
 91
        4
176
     0
 64
     7
176
     0
 65
   257
176
     0
 75
     1
176
     0
175
     1
176
     0
 42
1.0
176
     0
 92
        8
176
     2
 66
     7
176
     0
 43
1.0
176
     0
 76
     1
176
     0
 77
     6
176
     0
 78
     2
176
     0
 67
     7
176
     0
 79
     5
176
     0
170
     0
176
     0
171
     0
176
     0
290
     0
176
     0
 93
        1
176
     0
 44
0.0
176
     0
173
     0
176
     0
1001
ACAD
1000
AcDbSavedByObjectVersion
1070
     0
  0
VISUALSTYLE
  5
319E
102
{ACAD_XDICTIONARY
360
2210B
102
}
102
{ACAD_REACTORS
330
318F
102
}
330
318F
100
AcDbVisualStyle
  2

 70
    15
177
     2
291
     1
 71
     2
176
     1
 72
     2
176
     1
 73
     0
176
     1
 90
        0
176
     1
 40
0.6
176
     1
 41
30.0
176
     1
 63
     7
176
     1
 74
     1
176
     1
 91
        4
176
     1
 64
     7
176
     1
 65
   257
176
     1
 75
     1
176
     1
175
     1
176
     1
 42
1.0
176
     1
 92
        8
176
     1
 66
     7
176
     1
 43
1.0
176
     1
 76
     1
176
     1
 77
     6
176
     1
 78
     2
176
     1
 67
     7
176
     1
 79
     5
176
     1
170
     0
176
     1
171
     0
176
     1
290
     0
176
     1
 93
        1
176
     1
 44
0.0
176
     1
173
     0
176
     1
1001
ACAD
1000
AcDbSavedByObjectVersion
1070
     0
  0
VISUALSTYLE
  5
3190
102
{ACAD_XDICTIONARY
360
220EF
102
}
102
{ACAD_REACTORS
330
318F
102
}
330
318F
100
AcDbVisualStyle
  2

 70
     0
177
     2
291
     1
 71
     2
176
     1
 72
     1
176
     1
 73
     1
176
     1
 90
        2
176
     1
 40
0.6
176
     1
 41
30.0
176
     1
 63
     7
176
     1
 74
     0
176
     1
 91
        4
176
     1
 64
     7
176
     1
 65
   257
176
     1
 75
     1
176
     1
175
     1
176
     1
 42
1.0
176
     1
 92
        8
176
     1
 66
     7
176
     1
 43
1.0
176
     1
 76
     1
176
     1
 77
     6
176
     1
 78
     2
176
     1
 67
     7
176
     1
 79
     5
176
     1
170
     0
176
     1
171
     0
176
     1
290
     0
176
     1
 93
       13
176
     1
 44
0.0
176
     1
173
     0
176
     1
1001
ACAD
1000
AcDbSavedByObjectVersion
1070
     0
  0
VISUALSTYLE
  5
3191
102
{ACAD_XDICTIONARY
360
220F1
102
}
102
{ACAD_REACTORS
330
318F
102
}
330
318F
100
AcDbVisualStyle
  2

 70
     1
177
     2
291
     1
 71
     2
176
     1
 72
     1
176
     1
 73
     1
176
     1
 90
        2
176
     1
 40
0.6
176
     1
 41
30.0
176
     1
 63
     7
176
     1
 74
     1
176
     1
 91
        4
176
     1
 64
     7
176
     1
 65
   257
176
     1
 75
     1
176
     1
175
     1
176
     1
 42
1.0
176
     1
 92
        0
176
     1
 66
   257
176
     1
 43
1.0
176
     1
 76
     1
176
     1
 77
     6
176
     1
 78
     2
176
     1
 67
     7
176
     1
 79
     5
176
     1
170
     0
176
     1
171
     0
176
     1
290
     0
176
     1
 93
       13
176
     1
 44
0.0
176
     1
173
     0
176
     1
1001
ACAD
1000
AcDbSavedByObjectVersion
1070
     0
  0
VISUALSTYLE
  5
3192
102
{ACAD_XDICTIONARY
360
220F3
102
}
102
{ACAD_REACTORS
330
318F
102
}
330
318F
100
AcDbVisualStyle
  2

 70
     2
177
     2
291
     1
 71
     2
176
     1
 72
     2
176
     1
 73
     1
176
     1
 90
        2
176
     1
 40
0.6
176
     1
 41
30.0
176
     1
 63
     7
176
     1
 74
     0
176
     1
 91
        4
176
     1
 64
     7
176
     1
 65
   257
176
     1
 75
     1
176
     1
175
     1
176
     1
 42
1.0
176
     1
 92
        0
176
     1
 66
     7
176
     1
 43
1.0
176
     1
 76
     1
176
     1
 77
     6
176
     1
 78
     2
176
     1
 67
     7
176
     1
 79
     5
176
     1
170
     0
176
     1
171
     0
176
     1
290
     0
176
     1
 93
       13
176
     1
 44
0.0
176
     1
173
     0
176
     1
1001
ACAD
1000
AcDbSavedByObjectVersion
1070
     0
  0
VISUALSTYLE
  5
3193
102
{ACAD_XDICTIONARY
360
220F5
102
}
102
{ACAD_REACTORS
330
318F
102
}
330
318F
100
AcDbVisualStyle
  2

 70
     3
177
     2
291
     1
 71
     2
176
     1
 72
     2
176
     1
 73
     1
176
     1
 90
        2
176
     1
 40
0.6
176
     1
 41
30.0
176
     1
 63
     7
176
     1
 74
     1
176
     1
 91
        4
176
     1
 64
     7
176
     1
 65
   257
176
     1
 75
     1
176
     1
175
     1
176
     1
 42
1.0
176
     1
 92
        0
176
     1
 66
   257
176
     1
 43
1.0
176
     1
 76
     1
176
     1
 77
     6
176
     1
 78
     2
176
     1
 67
     7
176
     1
 79
     5
176
     1
170
     0
176
     1
171
     0
176
     1
290
     0
176
     1
 93
       13
176
     1
 44
0.0
176
     1
173
     0
176
     1
1001
ACAD
1000
AcDbSavedByObjectVersion
1070
     0
  0
VISUALSTYLE
  5
1B2E4
102
{ACAD_XDICTIONARY
360
22111
102
}
102
{ACAD_REACTORS
330
318F
102
}
330
318F
100
AcDbVisualStyle
  2

 70
     6
177
     2
291
     0
 71
     1
176
     1
 72
     2
176
     1
 73
     2
176
     1
 90
        0
176
     1
 40
0.6
176
     1
 41
30.0
176
     1
 63
     7
176
     1
 74
     2
176
     1
 91
        2
176
     1
 64
     7
176
     1
 65
   257
176
     1
 75
     2
176
     1
175
     1
176
     1
 42
40.0
176
     1
 92
        0
176
     1
 66
   257
176
     1
 43
1.0
176
     1
 76
     1
176
     1
 77
     6
176
     1
 78
     2
176
     1
 67
     7
176
     1
 79
     3
176
     1
170
     0
176
     1
171
     0
176
     1
290
     0
176
     1
 93
        1
176
     1
 44
0.0
176
     1
173
     0
176
     1
1001
ACAD
1000
AcDbSavedByObjectVersion
1070
     0
  0
VISUALSTYLE
  5
1B2EA
102
{ACAD_XDICTIONARY
360
2211D
102
}
102
{ACAD_REACTORS
330
318F
102
}
330
318F
100
AcDbVisualStyle
  2

 70
    20
177
     2
291
     1
 71
     2
176
     0
 72
     2
176
     0
 73
     0
176
     0
 90
        0
176
     0
 40
0.6
176
     0
 41
30.0
176
     0
 63
     7
176
     0
 74
     1
176
     0
 91
        4
176
     0
 64
     7
176
     0
 65
   257
176
     0
 75
     1
176
     0
175
     1
176
     0
 42
1.0
176
     0
 92
       10
176
     2
 66
     7
176
     0
 43
1.0
176
     0
 76
     1
176
     0
 77
     6
176
     0
 78
     2
176
     0
 67
     7
176
     0
 79
     5
176
     0
170
     0
176
     0
171
     0
176
     0
290
     0
176
     0
 93
        1
176
     0
 44
0.0
176
     0
173
     0
176
     0
1001
ACAD
1000
AcDbSavedByObjectVersion
1070
     0
  0
VISUALSTYLE
  5
319D
102
{ACAD_XDICTIONARY
360
22109
102
}
102
{ACAD_REACTORS
330
318F
102
}
330
318F
100
AcDbVisualStyle
  2

 70
    14
177
     2
291
     1
 71
     2
176
     1
 72
     2
176
     1
 73
     0
176
     1
 90
        0
176
     1
 40
0.6
176
     1
 41
30.0
176
     1
 63
     7
176
     1
 74
     1
176
     1
 91
        4
176
     1
 64
     7
176
     1
 65
   257
176
     1
 75
     7
176
     1
175
     7
176
     1
 42
1.0
176
     1
 92
        8
176
     1
 66
     7
176
     1
 43
1.0
176
     1
 76
     1
176
     1
 77
     6
176
     1
 78
     2
176
     1
 67
     7
176
     1
 79
     5
176
     1
170
     0
176
     1
171
     0
176
     1
290
     0
176
     1
 93
        1
176
     1
 44
0.0
176
     1
173
     0
176
     1
1001
ACAD
1000
AcDbSavedByObjectVersion
1070
     0
  0
VISUALSTYLE
  5
1B2EB
102
{ACAD_XDICTIONARY
360
2211F
102
}
102
{ACAD_REACTORS
330
318F
102
}
330
318F
100
AcDbVisualStyle
  2

 70
    21
177
     2
291
     1
 71
     2
176
     0
 72
     2
176
     0
 73
     0
176
     0
 90
        0
176
     0
 40
0.6
176
     0
 41
30.0
176
     0
 63
     7
176
     0
 74
     1
176
     0
 91
        4
176
     0
 64
     7
176
     0
 65
   257
176
     0
 75
     1
176
     0
175
     1
176
     0
 42
1.0
176
     0
 92
        9
176
     2
 66
     7
176
     0
 43
1.0
176
     0
 76
     1
176
     0
 77
     6
176
     0
 78
     2
176
     0
 67
     7
176
     0
 79
     5
176
     0
170
     0
176
     0
171
     0
176
     0
290
     0
176
     0
 93
        1
176
     0
 44
0.0
176
     0
173
     0
176
     0
1001
ACAD
1000
AcDbSavedByObjectVersion
1070
     0
  0
VISUALSTYLE
  5
3199
102
{ACAD_XDICTIONARY
360
22101
102
}
102
{ACAD_REACTORS
330
318F
102
}
330
318F
100
AcDbVisualStyle
  2

 70
     8
177
     2
291
     0
 71
     2
176
     1
 72
     2
176
     1
 73
     0
176
     1
 90
        0
176
     1
 40
0.6
176
     1
 41
30.0
176
     1
 63
     7
176
     1
 74
     1
176
     1
 91
        0
176
     1
 64
     7
176
     1
 65
   257
176
     1
 75
     1
176
     1
175
     1
176
     1
 42
1.0
176
     1
 92
        8
176
     1
 66
     8
176
     1
 43
1.0
176
     1
 76
     1
176
     1
 77
     6
176
     1
 78
     2
176
     1
 67
     7
176
     1
 79
     5
176
     1
170
     0
176
     1
171
     0
176
     1
290
     0
176
     1
 93
       13
176
     1
 44
0.0
176
     1
173
     0
176
     1
1001
ACAD
1000
AcDbSavedByObjectVersion
1070
     0
  0
VISUALSTYLE
  5
1B2E9
102
{ACAD_XDICTIONARY
360
2211B
102
}
102
{ACAD_REACTORS
330
318F
102
}
330
318F
100
AcDbVisualStyle
  2

 70
    27
177
     2
291
     0
 71
     2
176
     1
 72
     2
176
     1
 73
     1
176
     1
 90
        2
176
     1
 40
0.6
176
     1
 41
30.0
176
     1
 63
     7
176
     1
 74
     0
176
     1
 91
        4
176
     1
 64
     7
176
     1
 65
   257
176
     1
 75
     1
176
     1
175
     1
176
     1
 42
1.0
176
     1
 92
        8
176
     1
 66
   257
176
     1
 43
1.0
176
     1
 76
     1
176
     1
 77
     6
176
     1
 78
     2
176
     1
 67
     8
176
     1
 79
     3
176
     1
170
     0
176
     1
171
     0
176
     1
290
     0
176
     1
 93
        5
176
     1
 44
0.0
176
     1
173
     0
176
     1
1001
ACAD
1000
AcDbSavedByObjectVersion
1070
     0
  0
VISUALSTYLE
  5
1B2E8
102
{ACAD_XDICTIONARY
360
22119
102
}
102
{ACAD_REACTORS
330
318F
102
}
330
318F
100
AcDbVisualStyle
  2

 70
    26
177
     2
291
     0
 71
     2
176
     1
 72
     2
176
     1
 73
     1
176
     1
 90
        2
176
     1
 40
0.6
176
     1
 41
30.0
176
     1
 63
     7
176
     1
 74
     1
176
     1
 91
       10
176
     1
 64
     7
176
     1
 65
   257
176
     1
 75
     2
176
     1
175
     1
176
     1
 42
1.0
176
     1
 92
        8
176
     1
 66
   257
176
     1
 43
1.0
176
     1
 76
     1
176
     1
 77
     6
176
     1
 78
     2
176
     1
 67
     7
176
     1
 79
     3
176
     1
170
     0
176
     1
171
     0
176
     1
290
     0
176
     1
 93
        5
176
     1
 44
0.0
176
     1
173
     0
176
     1
1001
ACAD
1000
AcDbSavedByObjectVersion
1070
     0
  0
VISUALSTYLE
  5
1B2E5
102
{ACAD_XDICTIONARY
360
22113
102
}
102
{ACAD_REACTORS
330
318F
102
}
330
318F
100
AcDbVisualStyle
  2

 70
    23
177
     2
291
     0
 71
     2
176
     1
 72
     2
176
     1
 73
     3
176
     1
 90
        0
176
     1
 40
0.6
176
     1
 41
30.0
176
     1
 63
     7
176
     1
 74
     2
176
     1
 91
        2
176
     1
 64
     7
176
     1
 65
     7
176
     1
 75
     1
176
     1
175
     1
176
     1
 42
40.0
176
     1
 92
        8
176
     1
 66
     7
176
     1
 43
1.0
176
     1
 76
     1
176
     1
 77
     6
176
     1
 78
     2
176
     1
 67
     7
176
     1
 79
     3
176
     1
170
     0
176
     1
171
     0
176
     1
290
     0
176
     1
 93
        1
176
     1
 44
0.0
176
     1
173
     0
176
     1
1001
ACAD
1000
AcDbSavedByObjectVersion
1070
     0
  0
VISUALSTYLE
  5
1B2E6
102
{ACAD_XDICTIONARY
360
22115
102
}
102
{ACAD_REACTORS
330
318F
102
}
330
318F
100
AcDbVisualStyle
  2

 70
    24
177
     2
291
     0
 71
     1
176
     1
 72
     2
176
     1
 73
     2
176
     1
 90
        0
176
     1
 40
0.6
176
     1
 41
30.0
176
     1
 63
     7
176
     1
 74
     2
176
     1
 91
        2
176
     1
 64
     7
176
     1
 65
     7
176
     1
 75
     1
176
     1
175
     1
176
     1
 42
40.0
176
     1
 92
       11
176
     1
 66
     7
176
     1
 43
1.0
176
     1
 76
     1
176
     1
 77
     6
176
     1
 78
     2
176
     1
 67
     7
176
     1
 79
     6
176
     1
170
     0
176
     1
171
     0
176
     1
290
     0
176
     1
 93
        1
176
     1
 44
0.0
176
     1
173
     0
176
     1
1001
ACAD
1000
AcDbSavedByObjectVersion
1070
     0
  0
VISUALSTYLE
  5
319C
102
{ACAD_XDICTIONARY
360
22107
102
}
102
{ACAD_REACTORS
330
318F
102
}
330
318F
100
AcDbVisualStyle
  2

 70
    13
177
     2
291
     1
 71
     2
176
     1
 72
     2
176
     1
 73
     0
176
     1
 90
        0
176
     1
 40
0.6
176
     1
 41
30.0
176
     1
 63
     7
176
     1
 74
     1
176
     1
 91
        4
176
     1
 64
     7
176
     1
 65
   257
176
     1
 75
     1
176
     1
175
     1
176
     1
 42
1.0
176
     1
 92
       12
176
     1
 66
     7
176
     1
 43
1.0
176
     1
 76
     1
176
     1
 77
     6
176
     1
 78
     2
176
     1
 67
     7
176
     1
 79
     5
176
     1
170
     0
176
     1
171
     0
176
     1
290
     0
176
     1
 93
        1
176
     1
 44
0.0
176
     1
173
     0
176
     1
1001
ACAD
1000
AcDbSavedByObjectVersion
1070
     0
  0
VISUALSTYLE
  5
1B2E3
102
{ACAD_XDICTIONARY
360
2210F
102
}
102
{ACAD_REACTORS
330
318F
102
}
330
318F
100
AcDbVisualStyle
  2

 70
     5
177
     2
291
     0
 71
     0
176
     1
 72
     2
176
     1
 73
     0
176
     1
 90
        0
176
     1
 40
0.6
176
     1
 41
30.0
176
     1
 63
     7
176
     1
 74
     1
176
     1
 91
        4
176
     1
 64
     7
176
     1
 65
   257
176
     1
 75
     1
176
     1
175
     1
176
     1
 42
1.0
176
     1
 92
        0
176
     1
 66
   257
176
     1
 43
1.0
176
     1
 76
     1
176
     1
 77
     6
176
     1
 78
     2
176
     1
 67
     7
176
     1
 79
     3
176
     1
170
     0
176
     1
171
     0
176
     1
290
     0
176
     1
 93
        1
176
     1
 44
0.0
176
     1
173
     0
176
     1
1001
ACAD
1000
AcDbSavedByObjectVersion
1070
     0
  0
VISUALSTYLE
  5
1B2E7
102
{ACAD_XDICTIONARY
360
22117
102
}
102
{ACAD_REACTORS
330
318F
102
}
330
318F
100
AcDbVisualStyle
  2

 70
    25
177
     2
291
     0
 71
     2
176
     1
 72
     2
176
     1
 73
     1
176
     1
 90
        1
176
     1
 40
0.5
176
     1
 41
30.0
176
     1
 63
     7
176
     1
 74
     1
176
     1
 91
        0
176
     1
 64
     7
176
     1
 65
   257
176
     1
 75
     1
176
     1
175
     1
176
     1
 42
1.0
176
     1
 92
        8
176
     1
 66
     7
176
     1
 43
1.0
176
     1
 76
     1
176
     1
 77
     6
176
     1
 78
     2
176
     1
 67
     7
176
     1
 79
     3
176
     1
170
     0
176
     1
171
     0
176
     1
290
     0
176
     1
 93
       13
176
     1
 44
0.0
176
     1
173
     0
176
     1
1001
ACAD
1000
AcDbSavedByObjectVersion
1070
     0
  0
DICTIONARYVAR
  5
1B222
102
{ACAD_REACTORS
330
33A3
102
}
330
33A3
100
DictionaryVariables
280
     0
  1
1:1
  0
DICTIONARYVAR
  5
1B30F
102
{ACAD_REACTORS
330
33A3
102
}
330
33A3
100
DictionaryVariables
280
     0
  1
STANDARD
  0
DICTIONARYVAR
  5
33A4
102
{ACAD_REACTORS
330
33A3
102
}
330
33A3
100
DictionaryVariables
280
     0
  1
STANDARD
  0
DICTIONARYVAR
  5
1B310
102
{ACAD_REACTORS
330
33A3
102
}
330
33A3
100
DictionaryVariables
280
     0
  1
Metric50
  0
DICTIONARYVAR
  5
1B311
102
{ACAD_REACTORS
330
33A3
102
}
330
33A3
100
DictionaryVariables
280
     0
  1
Metric50
  0
DICTIONARYVAR
  5
9BE8
102
{ACAD_REACTORS
330
33A3
102
}
330
33A3
100
DictionaryVariables
280
     0
  1
1
  0
DICTIONARYVAR
  5
9BE7
102
{ACAD_REACTORS
330
33A3
102
}
330
33A3
100
DictionaryVariables
280
     0
  1
0
  0
DICTIONARYVAR
  5
20993
102
{ACAD_REACTORS
330
33A3
102
}
330
33A3
100
DictionaryVariables
280
     0
  1
1
  0
DICTIONARYVAR
  5
20994
102
{ACAD_REACTORS
330
33A3
102
}
330
33A3
100
DictionaryVariables
280
     0
  1
15
  0
DICTIONARYVAR
  5
20992
102
{ACAD_REACTORS
330
33A3
102
}
330
33A3
100
DictionaryVariables
280
     0
  1
0
  0
DICTIONARYVAR
  5
20991
102
{ACAD_REACTORS
330
33A3
102
}
330
33A3
100
DictionaryVariables
280
     0
  1
0
  0
DICTIONARYVAR
  5
9BE6
102
{ACAD_REACTORS
330
33A3
102
}
330
33A3
100
DictionaryVariables
280
     0
  1
127
  0
DICTIONARY
  5
22129
330
20CB3
100
AcDbDictionary
280
     1
281
     1
  3
ACAD_XREC_ROUNDTRIP
360
2212A
  0
DICTIONARY
  5
22125
330
1B2F1
100
AcDbDictionary
280
     1
281
     1
  3
ACAD_XREC_ROUNDTRIP
360
22126
  0
DICTIONARY
  5
1B22B
330
318D
100
AcDbDictionary
280
     1
281
     1
  3
ACAD_XREC_ROUNDTRIP
360
1B22C
  0
DICTIONARY
  5
1B22D
330
318C
100
AcDbDictionary
280
     1
281
     1
  3
ACAD_XREC_ROUNDTRIP
360
1B22E
  0
DICTIONARY
  5
1B22F
330
318E
100
AcDbDictionary
280
     1
281
     1
  3
ACAD_XREC_ROUNDTRIP
360
1B230
  0
DICTIONARY
  5
22127
330
20CB1
100
AcDbDictionary
280
     1
281
     1
  3
ACAD_XREC_ROUNDTRIP
360
22128
  0
DICTIONARY
  5
22123
330
1B2EF
100
AcDbDictionary
280
     1
281
     1
  3
ACAD_XREC_ROUNDTRIP
360
22124
  0
DICTIONARY
  5
1B314
330
31A2
100
AcDbDictionary
280
     1
281
     1
  3
ACAD_ROUNDTRIP_2008_TABLESTYLE_CELLSTYLEMAP
360
220ED
  0
DICTIONARY
  5
220F9
330
3195
100
AcDbDictionary
280
     1
281
     1
  3
ACAD_XREC_ROUNDTRIP
360
220FA
  0
DICTIONARY
  5
220FD
330
3197
100
AcDbDictionary
280
     1
281
     1
  3
ACAD_XREC_ROUNDTRIP
360
220FE
  0
DICTIONARY
  5
220FB
330
3196
100
AcDbDictionary
280
     1
281
     1
  3
ACAD_XREC_ROUNDTRIP
360
220FC
  0
DICTIONARY
  5
220F7
330
3194
100
AcDbDictionary
280
     1
281
     1
  3
ACAD_XREC_ROUNDTRIP
360
220F8
  0
DICTIONARY
  5
22105
330
319B
100
AcDbDictionary
280
     1
281
     1
  3
ACAD_XREC_ROUNDTRIP
360
22106
  0
DICTIONARY
  5
2210D
330
319F
100
AcDbDictionary
280
     1
281
     1
  3
ACAD_XREC_ROUNDTRIP
360
2210E
  0
DICTIONARY
  5
220FF
330
3198
100
AcDbDictionary
280
     1
281
     1
  3
ACAD_XREC_ROUNDTRIP
360
22100
  0
DICTIONARY
  5
22103
330
319A
100
AcDbDictionary
280
     1
281
     1
  3
ACAD_XREC_ROUNDTRIP
360
22104
  0
DICTIONARY
  5
22121
330
1B2EC
100
AcDbDictionary
280
     1
281
     1
  3
ACAD_XREC_ROUNDTRIP
360
22122
  0
DICTIONARY
  5
2210B
330
319E
100
AcDbDictionary
280
     1
281
     1
  3
ACAD_XREC_ROUNDTRIP
360
2210C
  0
DICTIONARY
  5
220EF
330
3190
100
AcDbDictionary
280
     1
281
     1
  3
ACAD_XREC_ROUNDTRIP
360
220F0
  0
DICTIONARY
  5
220F1
330
3191
100
AcDbDictionary
280
     1
281
     1
  3
ACAD_XREC_ROUNDTRIP
360
220F2
  0
DICTIONARY
  5
220F3
330
3192
100
AcDbDictionary
280
     1
281
     1
  3
ACAD_XREC_ROUNDTRIP
360
220F4
  0
DICTIONARY
  5
220F5
330
3193
100
AcDbDictionary
280
     1
281
     1
  3
ACAD_XREC_ROUNDTRIP
360
220F6
  0
DICTIONARY
  5
22111
330
1B2E4
100
AcDbDictionary
280
     1
281
     1
  3
ACAD_XREC_ROUNDTRIP
360
22112
  0
DICTIONARY
  5
2211D
330
1B2EA
100
AcDbDictionary
280
     1
281
     1
  3
ACAD_XREC_ROUNDTRIP
360
2211E
  0
DICTIONARY
  5
22109
330
319D
100
AcDbDictionary
280
     1
281
     1
  3
ACAD_XREC_ROUNDTRIP
360
2210A
  0
DICTIONARY
  5
2211F
330
1B2EB
100
AcDbDictionary
280
     1
281
     1
  3
ACAD_XREC_ROUNDTRIP
360
22120
  0
DICTIONARY
  5
22101
330
3199
100
AcDbDictionary
280
     1
281
     1
  3
ACAD_XREC_ROUNDTRIP
360
22102
  0
DICTIONARY
  5
2211B
330
1B2E9
100
AcDbDictionary
280
     1
281
     1
  3
ACAD_XREC_ROUNDTRIP
360
2211C
  0
DICTIONARY
  5
22119
330
1B2E8
100
AcDbDictionary
280
     1
281
     1
  3
ACAD_XREC_ROUNDTRIP
360
2211A
  0
DICTIONARY
  5
22113
330
1B2E5
100
AcDbDictionary
280
     1
281
     1
  3
ACAD_XREC_ROUNDTRIP
360
22114
  0
DICTIONARY
  5
22115
330
1B2E6
100
AcDbDictionary
280
     1
281
     1
  3
ACAD_XREC_ROUNDTRIP
360
22116
  0
DICTIONARY
  5
22107
330
319C
100
AcDbDictionary
280
     1
281
     1
  3
ACAD_XREC_ROUNDTRIP
360
22108
  0
DICTIONARY
  5
2210F
330
1B2E3
100
AcDbDictionary
280
     1
281
     1
  3
ACAD_XREC_ROUNDTRIP
360
22110
  0
DICTIONARY
  5
22117
330
1B2E7
100
AcDbDictionary
280
     1
281
     1
  3
ACAD_XREC_ROUNDTRIP
360
22118
  0
XRECORD
  5
2212A
102
{ACAD_REACTORS
330
22129
102
}
330
22129
100
AcDbXrecord
280
     1
102
DISPLAYNAME
  1
Imperial24
102
FLAGS
 90
        0
  0
XRECORD
  5
22126
102
{ACAD_REACTORS
330
22125
102
}
330
22125
100
AcDbXrecord
280
     1
102
DISPLAYNAME
  1
Metric50
102
FLAGS
 90
        0
  0
XRECORD
  5
1B22C
102
{ACAD_REACTORS
330
1B22B
102
}
330
1B22B
100
AcDbXrecord
280
     1
102
MATERIAL
148
0.0
149
0.0
149
0.0
 93
        0
 94
      127
282
     0
 72
     1
 77
     1
171
     1
175
     1
179
     1
273
     0
  0
XRECORD
  5
1B22E
102
{ACAD_REACTORS
330
1B22D
102
}
330
1B22D
100
AcDbXrecord
280
     1
102
MATERIAL
148
0.0
149
0.0
149
0.0
 93
        0
 94
      127
282
     0
 72
     1
 77
     1
171
     1
175
     1
179
     1
273
     0
  0
XRECORD
  5
1B230
102
{ACAD_REACTORS
330
1B22F
102
}
330
1B22F
100
AcDbXrecord
280
     1
102
MATERIAL
148
0.0
149
0.0
149
0.0
 93
        0
 94
      127
282
     0
 72
     1
 77
     1
171
     1
175
     1
179
     1
273
     0
  0
XRECORD
  5
22128
102
{ACAD_REACTORS
330
22127
102
}
330
22127
100
AcDbXrecord
280
     1
102
DISPLAYNAME
  1
Imperial24
102
FLAGS
 90
        0
  0
XRECORD
  5
22124
102
{ACAD_REACTORS
330
22123
102
}
330
22123
100
AcDbXrecord
280
     1
102
DISPLAYNAME
  1
Metric50
102
FLAGS
 90
        0
  0
CELLSTYLEMAP
  5
220ED
102
{ACAD_REACTORS
330
1B314
102
}
330
1B314
100
AcDbCellStyleMap
 90
        3
300
CELLSTYLE
  1
TABLEFORMAT_BEGIN
 90
        5
170
     1
 91
        0
 92
    32768
 62
   257
 93
        1
300
CONTENTFORMAT
  1
CONTENTFORMAT_BEGIN
 90
        0
 91
        0
 92
        4
 93
        0
300

 40
0.0
140
1.0
 94
        5
 62
     0
340
11
144
6.0
309
CONTENTFORMAT_END
171
     1
301
MARGIN
  1
CELLMARGIN_BEGIN
 40
1.5
 40
1.5
 40
1.5
 40
1.5
 40
0.18
 40
0.18
309
CELLMARGIN_END
 94
        6
 95
        1
302
GRIDFORMAT
  1
GRIDFORMAT_BEGIN
 90
        0
 91
        1
 62
     0
 92
       -2
340
0
 93
        0
 40
0.045
309
GRIDFORMAT_END
 95
        2
302
GRIDFORMAT
  1
GRIDFORMAT_BEGIN
 90
        0
 91
        1
 62
     0
 92
       -2
340
0
 93
        0
 40
0.045
309
GRIDFORMAT_END
 95
        4
302
GRIDFORMAT
  1
GRIDFORMAT_BEGIN
 90
        0
 91
        1
 62
     0
 92
       -2
340
0
 93
        0
 40
0.045
309
GRIDFORMAT_END
 95
        8
302
GRIDFORMAT
  1
GRIDFORMAT_BEGIN
 90
        0
 91
        1
 62
     0
 92
       -2
340
0
 93
        0
 40
0.045
309
GRIDFORMAT_END
 95
       16
302
GRIDFORMAT
  1
GRIDFORMAT_BEGIN
 90
        0
 91
        1
 62
     0
 92
       -2
340
0
 93
        0
 40
0.045
309
GRIDFORMAT_END
 95
       32
302
GRIDFORMAT
  1
GRIDFORMAT_BEGIN
 90
        0
 91
        1
 62
     0
 92
       -2
340
0
 93
        0
 40
0.045
309
GRIDFORMAT_END
309
TABLEFORMAT_END
  1
CELLSTYLE_BEGIN
 90
        1
 91
        1
300
_TITLE
309
CELLSTYLE_END
300
CELLSTYLE
  1
TABLEFORMAT_BEGIN
 90
        5
170
     1
 91
        0
 92
        0
 62
   257
 93
        1
300
CONTENTFORMAT
  1
CONTENTFORMAT_BEGIN
 90
        0
 91
        0
 92
        4
 93
        0
300

 40
0.0
140
1.0
 94
        5
 62
     0
340
11
144
4.5
309
CONTENTFORMAT_END
171
     1
301
MARGIN
  1
CELLMARGIN_BEGIN
 40
1.5
 40
1.5
 40
1.5
 40
1.5
 40
0.18
 40
0.18
309
CELLMARGIN_END
 94
        6
 95
        1
302
GRIDFORMAT
  1
GRIDFORMAT_BEGIN
 90
        0
 91
        1
 62
     0
 92
       -2
340
0
 93
        0
 40
0.045
309
GRIDFORMAT_END
 95
        2
302
GRIDFORMAT
  1
GRIDFORMAT_BEGIN
 90
        0
 91
        1
 62
     0
 92
       -2
340
0
 93
        0
 40
0.045
309
GRIDFORMAT_END
 95
        4
302
GRIDFORMAT
  1
GRIDFORMAT_BEGIN
 90
        0
 91
        1
 62
     0
 92
       -2
340
0
 93
        0
 40
0.045
309
GRIDFORMAT_END
 95
        8
302
GRIDFORMAT
  1
GRIDFORMAT_BEGIN
 90
        0
 91
        1
 62
     0
 92
       -2
340
0
 93
        0
 40
0.045
309
GRIDFORMAT_END
 95
       16
302
GRIDFORMAT
  1
GRIDFORMAT_BEGIN
 90
        0
 91
        1
 62
     0
 92
       -2
340
0
 93
        0
 40
0.045
309
GRIDFORMAT_END
 95
       32
302
GRIDFORMAT
  1
GRIDFORMAT_BEGIN
 90
        0
 91
        1
 62
     0
 92
       -2
340
0
 93
        0
 40
0.045
309
GRIDFORMAT_END
309
TABLEFORMAT_END
  1
CELLSTYLE_BEGIN
 90
        2
 91
        1
300
_HEADER
309
CELLSTYLE_END
300
CELLSTYLE
  1
TABLEFORMAT_BEGIN
 90
        5
170
     1
 91
        0
 92
        0
 62
   257
 93
        1
300
CONTENTFORMAT
  1
CONTENTFORMAT_BEGIN
 90
        0
 91
        0
 92
        4
 93
        0
300

 40
0.0
140
1.0
 94
        2
 62
     0
340
11
144
4.5
309
CONTENTFORMAT_END
171
     1
301
MARGIN
  1
CELLMARGIN_BEGIN
 40
1.5
 40
1.5
 40
1.5
 40
1.5
 40
0.18
 40
0.18
309
CELLMARGIN_END
 94
        6
 95
        1
302
GRIDFORMAT
  1
GRIDFORMAT_BEGIN
 90
        0
 91
        1
 62
     0
 92
       -2
340
0
 93
        0
 40
0.045
309
GRIDFORMAT_END
 95
        2
302
GRIDFORMAT
  1
GRIDFORMAT_BEGIN
 90
        0
 91
        1
 62
     0
 92
       -2
340
0
 93
        0
 40
0.045
309
GRIDFORMAT_END
 95
        4
302
GRIDFORMAT
  1
GRIDFORMAT_BEGIN
 90
        0
 91
        1
 62
     0
 92
       -2
340
0
 93
        0
 40
0.045
309
GRIDFORMAT_END
 95
        8
302
GRIDFORMAT
  1
GRIDFORMAT_BEGIN
 90
        0
 91
        1
 62
     0
 92
       -2
340
0
 93
        0
 40
0.045
309
GRIDFORMAT_END
 95
       16
302
GRIDFORMAT
  1
GRIDFORMAT_BEGIN
 90
        0
 91
        1
 62
     0
 92
       -2
340
0
 93
        0
 40
0.045
309
GRIDFORMAT_END
 95
       32
302
GRIDFORMAT
  1
GRIDFORMAT_BEGIN
 90
        0
 91
        1
 62
     0
 92
       -2
340
0
 93
        0
 40
0.045
309
GRIDFORMAT_END
309
TABLEFORMAT_END
  1
CELLSTYLE_BEGIN
 90
        3
 91
        2
300
_DATA
309
CELLSTYLE_END
  0
XRECORD
  5
220FA
102
{ACAD_REACTORS
330
220F9
102
}
330
220F9
100
AcDbXrecord
280
     1
102
RTVSPost2010Prop28
280
     1
102
RTVSPost2010PropOp28
 70
     1
102
RTVSPost2010Prop29
280
     1
102
RTVSPost2010PropOp29
 70
     1
102
RTVSPost2010Prop30
280
     0
102
RTVSPost2010PropOp30
 70
     1
102
RTVSPost2010Prop31
280
     0
102
RTVSPost2010PropOp31
 70
     1
102
RTVSPost2010Prop32
280
     0
102
RTVSPost2010PropOp32
 70
     1
102
RTVSPost2010Prop33
280
     0
102
RTVSPost2010PropOp33
 70
     1
102
RTVSPost2010Prop34
280
     0
102
RTVSPost2010PropOp34
 70
     1
102
RTVSPost2010Prop35
280
     0
102
RTVSPost2010PropOp35
 70
     1
102
RTVSPost2010Prop36
280
     0
102
RTVSPost2010PropOp36
 70
     1
102
RTVSPost2010Prop37
 90
       50
102
RTVSPost2010PropOp37
 70
     1
102
RTVSPost2010Prop38
140
0.0
102
RTVSPost2010PropOp38
 70
     1
102
RTVSPost2010Prop39
140
1.0
102
RTVSPost2010PropOp39
 70
     1
102
RTVSPost2010Prop40
 90
        0
102
RTVSPost2010PropOp40
 70
     1
102
RTVSPost2010Prop41ColorIndex
 90
       18
102
RTVSPost2010Prop41ColorRGB
 90
        0
102
RTVSPost2010PropOp41
 70
     1
102
RTVSPost2010Prop42
 90
       50
102
RTVSPost2010PropOp42
 70
     1
102
RTVSPost2010Prop43
 90
        3
102
RTVSPost2010PropOp43
 70
     1
102
RTVSPost2010Prop44ColorIndex
 90
        5
102
RTVSPost2010Prop44ColorRGB
 90
      255
102
RTVSPost2010PropOp44
 70
     1
102
RTVSPost2010Prop45
280
     0
102
RTVSPost2010PropOp45
 70
     1
102
RTVSPost2010Prop46
 90
       50
102
RTVSPost2010PropOp46
 70
     1
102
RTVSPost2010Prop47
 90
       50
102
RTVSPost2010PropOp47
 70
     1
102
RTVSPost2010Prop48
 90
       50
102
RTVSPost2010PropOp48
 70
     1
102
RTVSPost2010Prop49
280
     0
102
RTVSPost2010PropOp49
 70
     1
102
RTVSPost2010Prop50
 90
       50
102
RTVSPost2010PropOp50
 70
     1
102
RTVSPost2010Prop51ColorIndex
 90
      256
102
RTVSPost2010Prop51ColorRGB
 90
-16777216
102
RTVSPost2010PropOp51
 70
     0
102
RTVSPost2010Prop52
140
1.0
102
RTVSPost2010PropOp52
 70
     0
102
RTVSPost2010Prop53
 90
        2
102
RTVSPost2010PropOp53
 70
     1
102
RTVSPost2010Prop54
  1
strokes_ogs.tif
102
RTVSPost2010PropOp54
 70
     1
102
RTVSPost2010Prop55
280
     0
102
RTVSPost2010PropOp55
 70
     1
102
RTVSPost2010Prop56
140
1.0
102
RTVSPost2010PropOp56
 70
     1
102
RTVSPost2010Prop57
140
1.0
102
RTVSPost2010PropOp57
 70
     1
  0
XRECORD
  5
220FE
102
{ACAD_REACTORS
330
220FD
102
}
330
220FD
100
AcDbXrecord
280
     1
102
RTVSPost2010Prop28
280
     0
102
RTVSPost2010PropOp28
 70
     1
102
RTVSPost2010Prop29
280
     1
102
RTVSPost2010PropOp29
 70
     1
102
RTVSPost2010Prop30
280
     1
102
RTVSPost2010PropOp30
 70
     1
102
RTVSPost2010Prop31
280
     0
102
RTVSPost2010PropOp31
 70
     1
102
RTVSPost2010Prop32
280
     0
102
RTVSPost2010PropOp32
 70
     1
102
RTVSPost2010Prop33
280
     0
102
RTVSPost2010PropOp33
 70
     1
102
RTVSPost2010Prop34
280
     0
102
RTVSPost2010PropOp34
 70
     1
102
RTVSPost2010Prop35
280
     0
102
RTVSPost2010PropOp35
 70
     1
102
RTVSPost2010Prop36
280
     0
102
RTVSPost2010PropOp36
 70
     1
102
RTVSPost2010Prop37
 90
       50
102
RTVSPost2010PropOp37
 70
     1
102
RTVSPost2010Prop38
140
0.0
102
RTVSPost2010PropOp38
 70
     1
102
RTVSPost2010Prop39
140
1.0
102
RTVSPost2010PropOp39
 70
     1
102
RTVSPost2010Prop40
 90
        0
102
RTVSPost2010PropOp40
 70
     1
102
RTVSPost2010Prop41ColorIndex
 90
       18
102
RTVSPost2010Prop41ColorRGB
 90
        0
102
RTVSPost2010PropOp41
 70
     1
102
RTVSPost2010Prop42
 90
       50
102
RTVSPost2010PropOp42
 70
     1
102
RTVSPost2010Prop43
 90
        3
102
RTVSPost2010PropOp43
 70
     1
102
RTVSPost2010Prop44ColorIndex
 90
        5
102
RTVSPost2010Prop44ColorRGB
 90
      255
102
RTVSPost2010PropOp44
 70
     1
102
RTVSPost2010Prop45
280
     0
102
RTVSPost2010PropOp45
 70
     1
102
RTVSPost2010Prop46
 90
       50
102
RTVSPost2010PropOp46
 70
     1
102
RTVSPost2010Prop47
 90
       50
102
RTVSPost2010PropOp47
 70
     1
102
RTVSPost2010Prop48
 90
       50
102
RTVSPost2010PropOp48
 70
     1
102
RTVSPost2010Prop49
280
     0
102
RTVSPost2010PropOp49
 70
     1
102
RTVSPost2010Prop50
 90
       50
102
RTVSPost2010PropOp50
 70
     1
102
RTVSPost2010Prop51ColorIndex
 90
      256
102
RTVSPost2010Prop51ColorRGB
 90
-16777216
102
RTVSPost2010PropOp51
 70
     0
102
RTVSPost2010Prop52
140
1.0
102
RTVSPost2010PropOp52
 70
     0
102
RTVSPost2010Prop53
 90
        2
102
RTVSPost2010PropOp53
 70
     1
102
RTVSPost2010Prop54
  1
strokes_ogs.tif
102
RTVSPost2010PropOp54
 70
     1
102
RTVSPost2010Prop55
280
     0
102
RTVSPost2010PropOp55
 70
     1
102
RTVSPost2010Prop56
140
1.0
102
RTVSPost2010PropOp56
 70
     1
102
RTVSPost2010Prop57
140
1.0
102
RTVSPost2010PropOp57
 70
     1
  0
XRECORD
  5
220FC
102
{ACAD_REACTORS
330
220FB
102
}
330
220FB
100
AcDbXrecord
280
     1
102
RTVSPost2010Prop28
280
     0
102
RTVSPost2010PropOp28
 70
     1
102
RTVSPost2010Prop29
280
     1
102
RTVSPost2010PropOp29
 70
     1
102
RTVSPost2010Prop30
280
     1
102
RTVSPost2010PropOp30
 70
     1
102
RTVSPost2010Prop31
280
     0
102
RTVSPost2010PropOp31
 70
     1
102
RTVSPost2010Prop32
280
     0
102
RTVSPost2010PropOp32
 70
     1
102
RTVSPost2010Prop33
280
     0
102
RTVSPost2010PropOp33
 70
     1
102
RTVSPost2010Prop34
280
     0
102
RTVSPost2010PropOp34
 70
     1
102
RTVSPost2010Prop35
280
     0
102
RTVSPost2010PropOp35
 70
     1
102
RTVSPost2010Prop36
280
     0
102
RTVSPost2010PropOp36
 70
     1
102
RTVSPost2010Prop37
 90
       50
102
RTVSPost2010PropOp37
 70
     1
102
RTVSPost2010Prop38
140
0.0
102
RTVSPost2010PropOp38
 70
     1
102
RTVSPost2010Prop39
140
1.0
102
RTVSPost2010PropOp39
 70
     1
102
RTVSPost2010Prop40
 90
        0
102
RTVSPost2010PropOp40
 70
     1
102
RTVSPost2010Prop41ColorIndex
 90
       18
102
RTVSPost2010Prop41ColorRGB
 90
        0
102
RTVSPost2010PropOp41
 70
     1
102
RTVSPost2010Prop42
 90
       50
102
RTVSPost2010PropOp42
 70
     1
102
RTVSPost2010Prop43
 90
        3
102
RTVSPost2010PropOp43
 70
     1
102
RTVSPost2010Prop44ColorIndex
 90
        5
102
RTVSPost2010Prop44ColorRGB
 90
      255
102
RTVSPost2010PropOp44
 70
     1
102
RTVSPost2010Prop45
280
     0
102
RTVSPost2010PropOp45
 70
     1
102
RTVSPost2010Prop46
 90
       50
102
RTVSPost2010PropOp46
 70
     1
102
RTVSPost2010Prop47
 90
       50
102
RTVSPost2010PropOp47
 70
     1
102
RTVSPost2010Prop48
 90
       50
102
RTVSPost2010PropOp48
 70
     1
102
RTVSPost2010Prop49
280
     0
102
RTVSPost2010PropOp49
 70
     1
102
RTVSPost2010Prop50
 90
       50
102
RTVSPost2010PropOp50
 70
     1
102
RTVSPost2010Prop51ColorIndex
 90
      256
102
RTVSPost2010Prop51ColorRGB
 90
-16777216
102
RTVSPost2010PropOp51
 70
     0
102
RTVSPost2010Prop52
140
1.0
102
RTVSPost2010PropOp52
 70
     0
102
RTVSPost2010Prop53
 90
        2
102
RTVSPost2010PropOp53
 70
     1
102
RTVSPost2010Prop54
  1
strokes_ogs.tif
102
RTVSPost2010PropOp54
 70
     1
102
RTVSPost2010Prop55
280
     0
102
RTVSPost2010PropOp55
 70
     1
102
RTVSPost2010Prop56
140
1.0
102
RTVSPost2010PropOp56
 70
     1
102
RTVSPost2010Prop57
140
1.0
102
RTVSPost2010PropOp57
 70
     1
  0
XRECORD
  5
220F8
102
{ACAD_REACTORS
330
220F7
102
}
330
220F7
100
AcDbXrecord
280
     1
102
RTVSPost2010Prop28
280
     0
102
RTVSPost2010PropOp28
 70
     1
102
RTVSPost2010Prop29
280
     1
102
RTVSPost2010PropOp29
 70
     1
102
RTVSPost2010Prop30
280
     1
102
RTVSPost2010PropOp30
 70
     1
102
RTVSPost2010Prop31
280
     0
102
RTVSPost2010PropOp31
 70
     1
102
RTVSPost2010Prop32
280
     0
102
RTVSPost2010PropOp32
 70
     1
102
RTVSPost2010Prop33
280
     0
102
RTVSPost2010PropOp33
 70
     1
102
RTVSPost2010Prop34
280
     0
102
RTVSPost2010PropOp34
 70
     1
102
RTVSPost2010Prop35
280
     0
102
RTVSPost2010PropOp35
 70
     1
102
RTVSPost2010Prop36
280
     0
102
RTVSPost2010PropOp36
 70
     1
102
RTVSPost2010Prop37
 90
       50
102
RTVSPost2010PropOp37
 70
     1
102
RTVSPost2010Prop38
140
0.0
102
RTVSPost2010PropOp38
 70
     1
102
RTVSPost2010Prop39
140
1.0
102
RTVSPost2010PropOp39
 70
     1
102
RTVSPost2010Prop40
 90
        0
102
RTVSPost2010PropOp40
 70
     1
102
RTVSPost2010Prop41ColorIndex
 90
       18
102
RTVSPost2010Prop41ColorRGB
 90
        0
102
RTVSPost2010PropOp41
 70
     1
102
RTVSPost2010Prop42
 90
       50
102
RTVSPost2010PropOp42
 70
     1
102
RTVSPost2010Prop43
 90
        3
102
RTVSPost2010PropOp43
 70
     1
102
RTVSPost2010Prop44ColorIndex
 90
        5
102
RTVSPost2010Prop44ColorRGB
 90
      255
102
RTVSPost2010PropOp44
 70
     1
102
RTVSPost2010Prop45
280
     0
102
RTVSPost2010PropOp45
 70
     1
102
RTVSPost2010Prop46
 90
       50
102
RTVSPost2010PropOp46
 70
     1
102
RTVSPost2010Prop47
 90
       50
102
RTVSPost2010PropOp47
 70
     1
102
RTVSPost2010Prop48
 90
       50
102
RTVSPost2010PropOp48
 70
     1
102
RTVSPost2010Prop49
280
     0
102
RTVSPost2010PropOp49
 70
     1
102
RTVSPost2010Prop50
 90
       50
102
RTVSPost2010PropOp50
 70
     1
102
RTVSPost2010Prop51ColorIndex
 90
      256
102
RTVSPost2010Prop51ColorRGB
 90
-16777216
102
RTVSPost2010PropOp51
 70
     0
102
RTVSPost2010Prop52
140
1.0
102
RTVSPost2010PropOp52
 70
     0
102
RTVSPost2010Prop53
 90
        2
102
RTVSPost2010PropOp53
 70
     1
102
RTVSPost2010Prop54
  1
strokes_ogs.tif
102
RTVSPost2010PropOp54
 70
     1
102
RTVSPost2010Prop55
280
     0
102
RTVSPost2010PropOp55
 70
     1
102
RTVSPost2010Prop56
140
1.0
102
RTVSPost2010PropOp56
 70
     1
102
RTVSPost2010Prop57
140
1.0
102
RTVSPost2010PropOp57
 70
     1
  0
XRECORD
  5
22106
102
{ACAD_REACTORS
330
22105
102
}
330
22105
100
AcDbXrecord
280
     1
102
RTVSPost2010Prop28
280
     0
102
RTVSPost2010PropOp28
 70
     1
102
RTVSPost2010Prop29
280
     1
102
RTVSPost2010PropOp29
 70
     1
102
RTVSPost2010Prop30
280
     1
102
RTVSPost2010PropOp30
 70
     1
102
RTVSPost2010Prop31
280
     0
102
RTVSPost2010PropOp31
 70
     1
102
RTVSPost2010Prop32
280
     0
102
RTVSPost2010PropOp32
 70
     1
102
RTVSPost2010Prop33
280
     0
102
RTVSPost2010PropOp33
 70
     1
102
RTVSPost2010Prop34
280
     0
102
RTVSPost2010PropOp34
 70
     1
102
RTVSPost2010Prop35
280
     0
102
RTVSPost2010PropOp35
 70
     1
102
RTVSPost2010Prop36
280
     0
102
RTVSPost2010PropOp36
 70
     1
102
RTVSPost2010Prop37
 90
       50
102
RTVSPost2010PropOp37
 70
     1
102
RTVSPost2010Prop38
140
0.0
102
RTVSPost2010PropOp38
 70
     1
102
RTVSPost2010Prop39
140
1.0
102
RTVSPost2010PropOp39
 70
     1
102
RTVSPost2010Prop40
 90
        0
102
RTVSPost2010PropOp40
 70
     1
102
RTVSPost2010Prop41ColorIndex
 90
       18
102
RTVSPost2010Prop41ColorRGB
 90
        0
102
RTVSPost2010PropOp41
 70
     1
102
RTVSPost2010Prop42
 90
       50
102
RTVSPost2010PropOp42
 70
     1
102
RTVSPost2010Prop43
 90
        3
102
RTVSPost2010PropOp43
 70
     1
102
RTVSPost2010Prop44ColorIndex
 90
        5
102
RTVSPost2010Prop44ColorRGB
 90
      255
102
RTVSPost2010PropOp44
 70
     1
102
RTVSPost2010Prop45
280
     0
102
RTVSPost2010PropOp45
 70
     1
102
RTVSPost2010Prop46
 90
       50
102
RTVSPost2010PropOp46
 70
     1
102
RTVSPost2010Prop47
 90
       50
102
RTVSPost2010PropOp47
 70
     1
102
RTVSPost2010Prop48
 90
       50
102
RTVSPost2010PropOp48
 70
     1
102
RTVSPost2010Prop49
280
     0
102
RTVSPost2010PropOp49
 70
     1
102
RTVSPost2010Prop50
 90
       50
102
RTVSPost2010PropOp50
 70
     1
102
RTVSPost2010Prop51ColorIndex
 90
      256
102
RTVSPost2010Prop51ColorRGB
 90
-16777216
102
RTVSPost2010PropOp51
 70
     0
102
RTVSPost2010Prop52
140
1.0
102
RTVSPost2010PropOp52
 70
     0
102
RTVSPost2010Prop53
 90
        2
102
RTVSPost2010PropOp53
 70
     1
102
RTVSPost2010Prop54
  1
strokes_ogs.tif
102
RTVSPost2010PropOp54
 70
     1
102
RTVSPost2010Prop55
280
     0
102
RTVSPost2010PropOp55
 70
     1
102
RTVSPost2010Prop56
140
1.0
102
RTVSPost2010PropOp56
 70
     1
102
RTVSPost2010Prop57
140
1.0
102
RTVSPost2010PropOp57
 70
     1
  0
XRECORD
  5
2210E
102
{ACAD_REACTORS
330
2210D
102
}
330
2210D
100
AcDbXrecord
280
     1
102
RTVSPost2010Prop28
280
     0
102
RTVSPost2010PropOp28
 70
     1
102
RTVSPost2010Prop29
280
     1
102
RTVSPost2010PropOp29
 70
     1
102
RTVSPost2010Prop30
280
     1
102
RTVSPost2010PropOp30
 70
     1
102
RTVSPost2010Prop31
280
     0
102
RTVSPost2010PropOp31
 70
     1
102
RTVSPost2010Prop32
280
     0
102
RTVSPost2010PropOp32
 70
     1
102
RTVSPost2010Prop33
280
     0
102
RTVSPost2010PropOp33
 70
     1
102
RTVSPost2010Prop34
280
     0
102
RTVSPost2010PropOp34
 70
     1
102
RTVSPost2010Prop35
280
     0
102
RTVSPost2010PropOp35
 70
     1
102
RTVSPost2010Prop36
280
     0
102
RTVSPost2010PropOp36
 70
     1
102
RTVSPost2010Prop37
 90
       50
102
RTVSPost2010PropOp37
 70
     1
102
RTVSPost2010Prop38
140
0.0
102
RTVSPost2010PropOp38
 70
     1
102
RTVSPost2010Prop39
140
1.0
102
RTVSPost2010PropOp39
 70
     1
102
RTVSPost2010Prop40
 90
        0
102
RTVSPost2010PropOp40
 70
     1
102
RTVSPost2010Prop41ColorIndex
 90
       18
102
RTVSPost2010Prop41ColorRGB
 90
        0
102
RTVSPost2010PropOp41
 70
     1
102
RTVSPost2010Prop42
 90
       50
102
RTVSPost2010PropOp42
 70
     1
102
RTVSPost2010Prop43
 90
        3
102
RTVSPost2010PropOp43
 70
     1
102
RTVSPost2010Prop44ColorIndex
 90
        5
102
RTVSPost2010Prop44ColorRGB
 90
      255
102
RTVSPost2010PropOp44
 70
     1
102
RTVSPost2010Prop45
280
     0
102
RTVSPost2010PropOp45
 70
     1
102
RTVSPost2010Prop46
 90
       50
102
RTVSPost2010PropOp46
 70
     1
102
RTVSPost2010Prop47
 90
       50
102
RTVSPost2010PropOp47
 70
     1
102
RTVSPost2010Prop48
 90
       50
102
RTVSPost2010PropOp48
 70
     1
102
RTVSPost2010Prop49
280
     0
102
RTVSPost2010PropOp49
 70
     1
102
RTVSPost2010Prop50
 90
       50
102
RTVSPost2010PropOp50
 70
     1
102
RTVSPost2010Prop51ColorIndex
 90
      256
102
RTVSPost2010Prop51ColorRGB
 90
-16777216
102
RTVSPost2010PropOp51
 70
     0
102
RTVSPost2010Prop52
140
1.0
102
RTVSPost2010PropOp52
 70
     0
102
RTVSPost2010Prop53
 90
        2
102
RTVSPost2010PropOp53
 70
     1
102
RTVSPost2010Prop54
  1
strokes_ogs.tif
102
RTVSPost2010PropOp54
 70
     1
102
RTVSPost2010Prop55
280
     0
102
RTVSPost2010PropOp55
 70
     1
102
RTVSPost2010Prop56
140
1.0
102
RTVSPost2010PropOp56
 70
     1
102
RTVSPost2010Prop57
140
1.0
102
RTVSPost2010PropOp57
 70
     1
  0
XRECORD
  5
22100
102
{ACAD_REACTORS
330
220FF
102
}
330
220FF
100
AcDbXrecord
280
     1
102
RTVSPost2010Prop28
280
     0
102
RTVSPost2010PropOp28
 70
     1
102
RTVSPost2010Prop29
280
     1
102
RTVSPost2010PropOp29
 70
     1
102
RTVSPost2010Prop30
280
     1
102
RTVSPost2010PropOp30
 70
     1
102
RTVSPost2010Prop31
280
     0
102
RTVSPost2010PropOp31
 70
     1
102
RTVSPost2010Prop32
280
     0
102
RTVSPost2010PropOp32
 70
     1
102
RTVSPost2010Prop33
280
     0
102
RTVSPost2010PropOp33
 70
     1
102
RTVSPost2010Prop34
280
     0
102
RTVSPost2010PropOp34
 70
     1
102
RTVSPost2010Prop35
280
     0
102
RTVSPost2010PropOp35
 70
     1
102
RTVSPost2010Prop36
280
     0
102
RTVSPost2010PropOp36
 70
     1
102
RTVSPost2010Prop37
 90
       50
102
RTVSPost2010PropOp37
 70
     1
102
RTVSPost2010Prop38
140
0.0
102
RTVSPost2010PropOp38
 70
     1
102
RTVSPost2010Prop39
140
1.0
102
RTVSPost2010PropOp39
 70
     1
102
RTVSPost2010Prop40
 90
        0
102
RTVSPost2010PropOp40
 70
     1
102
RTVSPost2010Prop41ColorIndex
 90
       18
102
RTVSPost2010Prop41ColorRGB
 90
        0
102
RTVSPost2010PropOp41
 70
     1
102
RTVSPost2010Prop42
 90
       50
102
RTVSPost2010PropOp42
 70
     1
102
RTVSPost2010Prop43
 90
        3
102
RTVSPost2010PropOp43
 70
     1
102
RTVSPost2010Prop44ColorIndex
 90
        5
102
RTVSPost2010Prop44ColorRGB
 90
      255
102
RTVSPost2010PropOp44
 70
     1
102
RTVSPost2010Prop45
280
     0
102
RTVSPost2010PropOp45
 70
     1
102
RTVSPost2010Prop46
 90
       50
102
RTVSPost2010PropOp46
 70
     1
102
RTVSPost2010Prop47
 90
       50
102
RTVSPost2010PropOp47
 70
     1
102
RTVSPost2010Prop48
 90
       50
102
RTVSPost2010PropOp48
 70
     1
102
RTVSPost2010Prop49
280
     0
102
RTVSPost2010PropOp49
 70
     1
102
RTVSPost2010Prop50
 90
       50
102
RTVSPost2010PropOp50
 70
     1
102
RTVSPost2010Prop51ColorIndex
 90
      256
102
RTVSPost2010Prop51ColorRGB
 90
-16777216
102
RTVSPost2010PropOp51
 70
     0
102
RTVSPost2010Prop52
140
1.0
102
RTVSPost2010PropOp52
 70
     0
102
RTVSPost2010Prop53
 90
        2
102
RTVSPost2010PropOp53
 70
     1
102
RTVSPost2010Prop54
  1
strokes_ogs.tif
102
RTVSPost2010PropOp54
 70
     1
102
RTVSPost2010Prop55
280
     0
102
RTVSPost2010PropOp55
 70
     1
102
RTVSPost2010Prop56
140
1.0
102
RTVSPost2010PropOp56
 70
     1
102
RTVSPost2010Prop57
140
1.0
102
RTVSPost2010PropOp57
 70
     1
  0
XRECORD
  5
22104
102
{ACAD_REACTORS
330
22103
102
}
330
22103
100
AcDbXrecord
280
     1
102
RTVSPost2010Prop28
280
     0
102
RTVSPost2010PropOp28
 70
     1
102
RTVSPost2010Prop29
280
     1
102
RTVSPost2010PropOp29
 70
     1
102
RTVSPost2010Prop30
280
     1
102
RTVSPost2010PropOp30
 70
     1
102
RTVSPost2010Prop31
280
     0
102
RTVSPost2010PropOp31
 70
     1
102
RTVSPost2010Prop32
280
     0
102
RTVSPost2010PropOp32
 70
     1
102
RTVSPost2010Prop33
280
     0
102
RTVSPost2010PropOp33
 70
     1
102
RTVSPost2010Prop34
280
     0
102
RTVSPost2010PropOp34
 70
     1
102
RTVSPost2010Prop35
280
     0
102
RTVSPost2010PropOp35
 70
     1
102
RTVSPost2010Prop36
280
     0
102
RTVSPost2010PropOp36
 70
     1
102
RTVSPost2010Prop37
 90
       50
102
RTVSPost2010PropOp37
 70
     1
102
RTVSPost2010Prop38
140
0.0
102
RTVSPost2010PropOp38
 70
     1
102
RTVSPost2010Prop39
140
1.0
102
RTVSPost2010PropOp39
 70
     1
102
RTVSPost2010Prop40
 90
        0
102
RTVSPost2010PropOp40
 70
     1
102
RTVSPost2010Prop41ColorIndex
 90
       18
102
RTVSPost2010Prop41ColorRGB
 90
        0
102
RTVSPost2010PropOp41
 70
     1
102
RTVSPost2010Prop42
 90
       50
102
RTVSPost2010PropOp42
 70
     1
102
RTVSPost2010Prop43
 90
        3
102
RTVSPost2010PropOp43
 70
     1
102
RTVSPost2010Prop44ColorIndex
 90
        5
102
RTVSPost2010Prop44ColorRGB
 90
      255
102
RTVSPost2010PropOp44
 70
     1
102
RTVSPost2010Prop45
280
     0
102
RTVSPost2010PropOp45
 70
     1
102
RTVSPost2010Prop46
 90
       50
102
RTVSPost2010PropOp46
 70
     1
102
RTVSPost2010Prop47
 90
       50
102
RTVSPost2010PropOp47
 70
     1
102
RTVSPost2010Prop48
 90
       50
102
RTVSPost2010PropOp48
 70
     1
102
RTVSPost2010Prop49
280
     0
102
RTVSPost2010PropOp49
 70
     1
102
RTVSPost2010Prop50
 90
       50
102
RTVSPost2010PropOp50
 70
     1
102
RTVSPost2010Prop51ColorIndex
 90
      256
102
RTVSPost2010Prop51ColorRGB
 90
-16777216
102
RTVSPost2010PropOp51
 70
     0
102
RTVSPost2010Prop52
140
1.0
102
RTVSPost2010PropOp52
 70
     0
102
RTVSPost2010Prop53
 90
        2
102
RTVSPost2010PropOp53
 70
     1
102
RTVSPost2010Prop54
  1
strokes_ogs.tif
102
RTVSPost2010PropOp54
 70
     1
102
RTVSPost2010Prop55
280
     0
102
RTVSPost2010PropOp55
 70
     1
102
RTVSPost2010Prop56
140
1.0
102
RTVSPost2010PropOp56
 70
     1
102
RTVSPost2010Prop57
140
1.0
102
RTVSPost2010PropOp57
 70
     1
  0
XRECORD
  5
22122
102
{ACAD_REACTORS
330
22121
102
}
330
22121
100
AcDbXrecord
280
     1
102
RTVSPost2010Prop28
280
     0
102
RTVSPost2010PropOp28
 70
     1
102
RTVSPost2010Prop29
280
     1
102
RTVSPost2010PropOp29
 70
     1
102
RTVSPost2010Prop30
280
     1
102
RTVSPost2010PropOp30
 70
     1
102
RTVSPost2010Prop31
280
     0
102
RTVSPost2010PropOp31
 70
     1
102
RTVSPost2010Prop32
280
     0
102
RTVSPost2010PropOp32
 70
     1
102
RTVSPost2010Prop33
280
     0
102
RTVSPost2010PropOp33
 70
     1
102
RTVSPost2010Prop34
280
     0
102
RTVSPost2010PropOp34
 70
     1
102
RTVSPost2010Prop35
280
     0
102
RTVSPost2010PropOp35
 70
     1
102
RTVSPost2010Prop36
280
     0
102
RTVSPost2010PropOp36
 70
     1
102
RTVSPost2010Prop37
 90
       50
102
RTVSPost2010PropOp37
 70
     0
102
RTVSPost2010Prop38
140
0.0
102
RTVSPost2010PropOp38
 70
     0
102
RTVSPost2010Prop39
140
1.0
102
RTVSPost2010PropOp39
 70
     0
102
RTVSPost2010Prop40
 90
        0
102
RTVSPost2010PropOp40
 70
     0
102
RTVSPost2010Prop41ColorIndex
 90
       18
102
RTVSPost2010Prop41ColorRGB
 90
        0
102
RTVSPost2010PropOp41
 70
     0
102
RTVSPost2010Prop42
 90
       50
102
RTVSPost2010PropOp42
 70
     0
102
RTVSPost2010Prop43
 90
        3
102
RTVSPost2010PropOp43
 70
     0
102
RTVSPost2010Prop44ColorIndex
 90
        5
102
RTVSPost2010Prop44ColorRGB
 90
      255
102
RTVSPost2010PropOp44
 70
     0
102
RTVSPost2010Prop45
280
     0
102
RTVSPost2010PropOp45
 70
     1
102
RTVSPost2010Prop46
 90
       50
102
RTVSPost2010PropOp46
 70
     0
102
RTVSPost2010Prop47
 90
       50
102
RTVSPost2010PropOp47
 70
     0
102
RTVSPost2010Prop48
 90
       50
102
RTVSPost2010PropOp48
 70
     0
102
RTVSPost2010Prop49
280
     0
102
RTVSPost2010PropOp49
 70
     1
102
RTVSPost2010Prop50
 90
       50
102
RTVSPost2010PropOp50
 70
     0
102
RTVSPost2010Prop51ColorIndex
 90
      256
102
RTVSPost2010Prop51ColorRGB
 90
-16777216
102
RTVSPost2010PropOp51
 70
     0
102
RTVSPost2010Prop52
140
1.0
102
RTVSPost2010PropOp52
 70
     0
102
RTVSPost2010Prop53
 90
        2
102
RTVSPost2010PropOp53
 70
     0
102
RTVSPost2010Prop54
  1
strokes_ogs.tif
102
RTVSPost2010PropOp54
 70
     0
102
RTVSPost2010Prop55
280
     0
102
RTVSPost2010PropOp55
 70
     1
102
RTVSPost2010Prop56
140
1.0
102
RTVSPost2010PropOp56
 70
     0
102
RTVSPost2010Prop57
140
1.0
102
RTVSPost2010PropOp57
 70
     0
  0
XRECORD
  5
2210C
102
{ACAD_REACTORS
330
2210B
102
}
330
2210B
100
AcDbXrecord
280
     1
102
RTVSPost2010Prop28
280
     0
102
RTVSPost2010PropOp28
 70
     1
102
RTVSPost2010Prop29
280
     1
102
RTVSPost2010PropOp29
 70
     1
102
RTVSPost2010Prop30
280
     1
102
RTVSPost2010PropOp30
 70
     1
102
RTVSPost2010Prop31
280
     0
102
RTVSPost2010PropOp31
 70
     1
102
RTVSPost2010Prop32
280
     0
102
RTVSPost2010PropOp32
 70
     1
102
RTVSPost2010Prop33
280
     0
102
RTVSPost2010PropOp33
 70
     1
102
RTVSPost2010Prop34
280
     0
102
RTVSPost2010PropOp34
 70
     1
102
RTVSPost2010Prop35
280
     0
102
RTVSPost2010PropOp35
 70
     1
102
RTVSPost2010Prop36
280
     0
102
RTVSPost2010PropOp36
 70
     1
102
RTVSPost2010Prop37
 90
       50
102
RTVSPost2010PropOp37
 70
     1
102
RTVSPost2010Prop38
140
0.0
102
RTVSPost2010PropOp38
 70
     1
102
RTVSPost2010Prop39
140
1.0
102
RTVSPost2010PropOp39
 70
     1
102
RTVSPost2010Prop40
 90
        0
102
RTVSPost2010PropOp40
 70
     1
102
RTVSPost2010Prop41ColorIndex
 90
       18
102
RTVSPost2010Prop41ColorRGB
 90
        0
102
RTVSPost2010PropOp41
 70
     1
102
RTVSPost2010Prop42
 90
       50
102
RTVSPost2010PropOp42
 70
     1
102
RTVSPost2010Prop43
 90
        3
102
RTVSPost2010PropOp43
 70
     1
102
RTVSPost2010Prop44ColorIndex
 90
        5
102
RTVSPost2010Prop44ColorRGB
 90
      255
102
RTVSPost2010PropOp44
 70
     1
102
RTVSPost2010Prop45
280
     0
102
RTVSPost2010PropOp45
 70
     1
102
RTVSPost2010Prop46
 90
       50
102
RTVSPost2010PropOp46
 70
     1
102
RTVSPost2010Prop47
 90
       50
102
RTVSPost2010PropOp47
 70
     1
102
RTVSPost2010Prop48
 90
       50
102
RTVSPost2010PropOp48
 70
     1
102
RTVSPost2010Prop49
280
     0
102
RTVSPost2010PropOp49
 70
     1
102
RTVSPost2010Prop50
 90
       50
102
RTVSPost2010PropOp50
 70
     1
102
RTVSPost2010Prop51ColorIndex
 90
      256
102
RTVSPost2010Prop51ColorRGB
 90
-16777216
102
RTVSPost2010PropOp51
 70
     0
102
RTVSPost2010Prop52
140
1.0
102
RTVSPost2010PropOp52
 70
     0
102
RTVSPost2010Prop53
 90
        2
102
RTVSPost2010PropOp53
 70
     1
102
RTVSPost2010Prop54
  1
strokes_ogs.tif
102
RTVSPost2010PropOp54
 70
     1
102
RTVSPost2010Prop55
280
     0
102
RTVSPost2010PropOp55
 70
     1
102
RTVSPost2010Prop56
140
1.0
102
RTVSPost2010PropOp56
 70
     1
102
RTVSPost2010Prop57
140
1.0
102
RTVSPost2010PropOp57
 70
     1
  0
XRECORD
  5
220F0
102
{ACAD_REACTORS
330
220EF
102
}
330
220EF
100
AcDbXrecord
280
     1
102
RTVSPost2010Prop28
280
     0
102
RTVSPost2010PropOp28
 70
     1
102
RTVSPost2010Prop29
280
     1
102
RTVSPost2010PropOp29
 70
     1
102
RTVSPost2010Prop30
280
     1
102
RTVSPost2010PropOp30
 70
     1
102
RTVSPost2010Prop31
280
     0
102
RTVSPost2010PropOp31
 70
     1
102
RTVSPost2010Prop32
280
     0
102
RTVSPost2010PropOp32
 70
     1
102
RTVSPost2010Prop33
280
     0
102
RTVSPost2010PropOp33
 70
     1
102
RTVSPost2010Prop34
280
     0
102
RTVSPost2010PropOp34
 70
     1
102
RTVSPost2010Prop35
280
     0
102
RTVSPost2010PropOp35
 70
     1
102
RTVSPost2010Prop36
280
     0
102
RTVSPost2010PropOp36
 70
     1
102
RTVSPost2010Prop37
 90
       50
102
RTVSPost2010PropOp37
 70
     1
102
RTVSPost2010Prop38
140
0.0
102
RTVSPost2010PropOp38
 70
     1
102
RTVSPost2010Prop39
140
1.0
102
RTVSPost2010PropOp39
 70
     1
102
RTVSPost2010Prop40
 90
        0
102
RTVSPost2010PropOp40
 70
     1
102
RTVSPost2010Prop41ColorIndex
 90
       18
102
RTVSPost2010Prop41ColorRGB
 90
        0
102
RTVSPost2010PropOp41
 70
     1
102
RTVSPost2010Prop42
 90
       50
102
RTVSPost2010PropOp42
 70
     1
102
RTVSPost2010Prop43
 90
        3
102
RTVSPost2010PropOp43
 70
     1
102
RTVSPost2010Prop44ColorIndex
 90
        5
102
RTVSPost2010Prop44ColorRGB
 90
      255
102
RTVSPost2010PropOp44
 70
     1
102
RTVSPost2010Prop45
280
     0
102
RTVSPost2010PropOp45
 70
     1
102
RTVSPost2010Prop46
 90
       50
102
RTVSPost2010PropOp46
 70
     1
102
RTVSPost2010Prop47
 90
       50
102
RTVSPost2010PropOp47
 70
     1
102
RTVSPost2010Prop48
 90
       50
102
RTVSPost2010PropOp48
 70
     1
102
RTVSPost2010Prop49
280
     0
102
RTVSPost2010PropOp49
 70
     1
102
RTVSPost2010Prop50
 90
       50
102
RTVSPost2010PropOp50
 70
     1
102
RTVSPost2010Prop51ColorIndex
 90
      256
102
RTVSPost2010Prop51ColorRGB
 90
-16777216
102
RTVSPost2010PropOp51
 70
     0
102
RTVSPost2010Prop52
140
1.0
102
RTVSPost2010PropOp52
 70
     0
102
RTVSPost2010Prop53
 90
        2
102
RTVSPost2010PropOp53
 70
     1
102
RTVSPost2010Prop54
  1
strokes_ogs.tif
102
RTVSPost2010PropOp54
 70
     1
102
RTVSPost2010Prop55
280
     0
102
RTVSPost2010PropOp55
 70
     1
102
RTVSPost2010Prop56
140
1.0
102
RTVSPost2010PropOp56
 70
     1
102
RTVSPost2010Prop57
140
1.0
102
RTVSPost2010PropOp57
 70
     1
  0
XRECORD
  5
220F2
102
{ACAD_REACTORS
330
220F1
102
}
330
220F1
100
AcDbXrecord
280
     1
102
RTVSPost2010Prop28
280
     0
102
RTVSPost2010PropOp28
 70
     1
102
RTVSPost2010Prop29
280
     1
102
RTVSPost2010PropOp29
 70
     1
102
RTVSPost2010Prop30
280
     1
102
RTVSPost2010PropOp30
 70
     1
102
RTVSPost2010Prop31
280
     0
102
RTVSPost2010PropOp31
 70
     1
102
RTVSPost2010Prop32
280
     0
102
RTVSPost2010PropOp32
 70
     1
102
RTVSPost2010Prop33
280
     0
102
RTVSPost2010PropOp33
 70
     1
102
RTVSPost2010Prop34
280
     0
102
RTVSPost2010PropOp34
 70
     1
102
RTVSPost2010Prop35
280
     0
102
RTVSPost2010PropOp35
 70
     1
102
RTVSPost2010Prop36
280
     0
102
RTVSPost2010PropOp36
 70
     1
102
RTVSPost2010Prop37
 90
       50
102
RTVSPost2010PropOp37
 70
     1
102
RTVSPost2010Prop38
140
0.0
102
RTVSPost2010PropOp38
 70
     1
102
RTVSPost2010Prop39
140
1.0
102
RTVSPost2010PropOp39
 70
     1
102
RTVSPost2010Prop40
 90
        0
102
RTVSPost2010PropOp40
 70
     1
102
RTVSPost2010Prop41ColorIndex
 90
       18
102
RTVSPost2010Prop41ColorRGB
 90
        0
102
RTVSPost2010PropOp41
 70
     1
102
RTVSPost2010Prop42
 90
       50
102
RTVSPost2010PropOp42
 70
     1
102
RTVSPost2010Prop43
 90
        3
102
RTVSPost2010PropOp43
 70
     1
102
RTVSPost2010Prop44ColorIndex
 90
        5
102
RTVSPost2010Prop44ColorRGB
 90
      255
102
RTVSPost2010PropOp44
 70
     1
102
RTVSPost2010Prop45
280
     0
102
RTVSPost2010PropOp45
 70
     1
102
RTVSPost2010Prop46
 90
       50
102
RTVSPost2010PropOp46
 70
     1
102
RTVSPost2010Prop47
 90
       50
102
RTVSPost2010PropOp47
 70
     1
102
RTVSPost2010Prop48
 90
       50
102
RTVSPost2010PropOp48
 70
     1
102
RTVSPost2010Prop49
280
     0
102
RTVSPost2010PropOp49
 70
     1
102
RTVSPost2010Prop50
 90
       50
102
RTVSPost2010PropOp50
 70
     1
102
RTVSPost2010Prop51ColorIndex
 90
      256
102
RTVSPost2010Prop51ColorRGB
 90
-16777216
102
RTVSPost2010PropOp51
 70
     0
102
RTVSPost2010Prop52
140
1.0
102
RTVSPost2010PropOp52
 70
     0
102
RTVSPost2010Prop53
 90
        2
102
RTVSPost2010PropOp53
 70
     1
102
RTVSPost2010Prop54
  1
strokes_ogs.tif
102
RTVSPost2010PropOp54
 70
     1
102
RTVSPost2010Prop55
280
     0
102
RTVSPost2010PropOp55
 70
     1
102
RTVSPost2010Prop56
140
1.0
102
RTVSPost2010PropOp56
 70
     1
102
RTVSPost2010Prop57
140
1.0
102
RTVSPost2010PropOp57
 70
     1
  0
XRECORD
  5
220F4
102
{ACAD_REACTORS
330
220F3
102
}
330
220F3
100
AcDbXrecord
280
     1
102
RTVSPost2010Prop28
280
     0
102
RTVSPost2010PropOp28
 70
     1
102
RTVSPost2010Prop29
280
     1
102
RTVSPost2010PropOp29
 70
     1
102
RTVSPost2010Prop30
280
     1
102
RTVSPost2010PropOp30
 70
     1
102
RTVSPost2010Prop31
280
     0
102
RTVSPost2010PropOp31
 70
     1
102
RTVSPost2010Prop32
280
     0
102
RTVSPost2010PropOp32
 70
     1
102
RTVSPost2010Prop33
280
     0
102
RTVSPost2010PropOp33
 70
     1
102
RTVSPost2010Prop34
280
     0
102
RTVSPost2010PropOp34
 70
     1
102
RTVSPost2010Prop35
280
     0
102
RTVSPost2010PropOp35
 70
     1
102
RTVSPost2010Prop36
280
     0
102
RTVSPost2010PropOp36
 70
     1
102
RTVSPost2010Prop37
 90
       50
102
RTVSPost2010PropOp37
 70
     1
102
RTVSPost2010Prop38
140
0.0
102
RTVSPost2010PropOp38
 70
     1
102
RTVSPost2010Prop39
140
1.0
102
RTVSPost2010PropOp39
 70
     1
102
RTVSPost2010Prop40
 90
        0
102
RTVSPost2010PropOp40
 70
     1
102
RTVSPost2010Prop41ColorIndex
 90
       18
102
RTVSPost2010Prop41ColorRGB
 90
        0
102
RTVSPost2010PropOp41
 70
     1
102
RTVSPost2010Prop42
 90
       50
102
RTVSPost2010PropOp42
 70
     1
102
RTVSPost2010Prop43
 90
        3
102
RTVSPost2010PropOp43
 70
     1
102
RTVSPost2010Prop44ColorIndex
 90
        5
102
RTVSPost2010Prop44ColorRGB
 90
      255
102
RTVSPost2010PropOp44
 70
     1
102
RTVSPost2010Prop45
280
     0
102
RTVSPost2010PropOp45
 70
     1
102
RTVSPost2010Prop46
 90
       50
102
RTVSPost2010PropOp46
 70
     1
102
RTVSPost2010Prop47
 90
       50
102
RTVSPost2010PropOp47
 70
     1
102
RTVSPost2010Prop48
 90
       50
102
RTVSPost2010PropOp48
 70
     1
102
RTVSPost2010Prop49
280
     0
102
RTVSPost2010PropOp49
 70
     1
102
RTVSPost2010Prop50
 90
       50
102
RTVSPost2010PropOp50
 70
     1
102
RTVSPost2010Prop51ColorIndex
 90
      256
102
RTVSPost2010Prop51ColorRGB
 90
-16777216
102
RTVSPost2010PropOp51
 70
     0
102
RTVSPost2010Prop52
140
1.0
102
RTVSPost2010PropOp52
 70
     0
102
RTVSPost2010Prop53
 90
        2
102
RTVSPost2010PropOp53
 70
     1
102
RTVSPost2010Prop54
  1
strokes_ogs.tif
102
RTVSPost2010PropOp54
 70
     1
102
RTVSPost2010Prop55
280
     0
102
RTVSPost2010PropOp55
 70
     1
102
RTVSPost2010Prop56
140
1.0
102
RTVSPost2010PropOp56
 70
     1
102
RTVSPost2010Prop57
140
1.0
102
RTVSPost2010PropOp57
 70
     1
  0
XRECORD
  5
220F6
102
{ACAD_REACTORS
330
220F5
102
}
330
220F5
100
AcDbXrecord
280
     1
102
RTVSPost2010Prop28
280
     0
102
RTVSPost2010PropOp28
 70
     1
102
RTVSPost2010Prop29
280
     1
102
RTVSPost2010PropOp29
 70
     1
102
RTVSPost2010Prop30
280
     1
102
RTVSPost2010PropOp30
 70
     1
102
RTVSPost2010Prop31
280
     0
102
RTVSPost2010PropOp31
 70
     1
102
RTVSPost2010Prop32
280
     0
102
RTVSPost2010PropOp32
 70
     1
102
RTVSPost2010Prop33
280
     0
102
RTVSPost2010PropOp33
 70
     1
102
RTVSPost2010Prop34
280
     0
102
RTVSPost2010PropOp34
 70
     1
102
RTVSPost2010Prop35
280
     0
102
RTVSPost2010PropOp35
 70
     1
102
RTVSPost2010Prop36
280
     0
102
RTVSPost2010PropOp36
 70
     1
102
RTVSPost2010Prop37
 90
       50
102
RTVSPost2010PropOp37
 70
     1
102
RTVSPost2010Prop38
140
0.0
102
RTVSPost2010PropOp38
 70
     1
102
RTVSPost2010Prop39
140
1.0
102
RTVSPost2010PropOp39
 70
     1
102
RTVSPost2010Prop40
 90
        0
102
RTVSPost2010PropOp40
 70
     1
102
RTVSPost2010Prop41ColorIndex
 90
       18
102
RTVSPost2010Prop41ColorRGB
 90
        0
102
RTVSPost2010PropOp41
 70
     1
102
RTVSPost2010Prop42
 90
       50
102
RTVSPost2010PropOp42
 70
     1
102
RTVSPost2010Prop43
 90
        3
102
RTVSPost2010PropOp43
 70
     1
102
RTVSPost2010Prop44ColorIndex
 90
        5
102
RTVSPost2010Prop44ColorRGB
 90
      255
102
RTVSPost2010PropOp44
 70
     1
102
RTVSPost2010Prop45
280
     0
102
RTVSPost2010PropOp45
 70
     1
102
RTVSPost2010Prop46
 90
       50
102
RTVSPost2010PropOp46
 70
     1
102
RTVSPost2010Prop47
 90
       50
102
RTVSPost2010PropOp47
 70
     1
102
RTVSPost2010Prop48
 90
       50
102
RTVSPost2010PropOp48
 70
     1
102
RTVSPost2010Prop49
280
     0
102
RTVSPost2010PropOp49
 70
     1
102
RTVSPost2010Prop50
 90
       50
102
RTVSPost2010PropOp50
 70
     1
102
RTVSPost2010Prop51ColorIndex
 90
      256
102
RTVSPost2010Prop51ColorRGB
 90
-16777216
102
RTVSPost2010PropOp51
 70
     0
102
RTVSPost2010Prop52
140
1.0
102
RTVSPost2010PropOp52
 70
     0
102
RTVSPost2010Prop53
 90
        2
102
RTVSPost2010PropOp53
 70
     1
102
RTVSPost2010Prop54
  1
strokes_ogs.tif
102
RTVSPost2010PropOp54
 70
     1
102
RTVSPost2010Prop55
280
     0
102
RTVSPost2010PropOp55
 70
     1
102
RTVSPost2010Prop56
140
1.0
102
RTVSPost2010PropOp56
 70
     1
102
RTVSPost2010Prop57
140
1.0
102
RTVSPost2010PropOp57
 70
     1
  0
XRECORD
  5
22112
102
{ACAD_REACTORS
330
22111
102
}
330
22111
100
AcDbXrecord
280
     1
102
RTVSPost2010Prop28
280
     0
102
RTVSPost2010PropOp28
 70
     1
102
RTVSPost2010Prop29
280
     1
102
RTVSPost2010PropOp29
 70
     1
102
RTVSPost2010Prop30
280
     1
102
RTVSPost2010PropOp30
 70
     1
102
RTVSPost2010Prop31
280
     0
102
RTVSPost2010PropOp31
 70
     1
102
RTVSPost2010Prop32
280
     0
102
RTVSPost2010PropOp32
 70
     1
102
RTVSPost2010Prop33
280
     0
102
RTVSPost2010PropOp33
 70
     1
102
RTVSPost2010Prop34
280
     0
102
RTVSPost2010PropOp34
 70
     1
102
RTVSPost2010Prop35
280
     0
102
RTVSPost2010PropOp35
 70
     1
102
RTVSPost2010Prop36
280
     0
102
RTVSPost2010PropOp36
 70
     1
102
RTVSPost2010Prop37
 90
       50
102
RTVSPost2010PropOp37
 70
     1
102
RTVSPost2010Prop38
140
0.0
102
RTVSPost2010PropOp38
 70
     1
102
RTVSPost2010Prop39
140
1.0
102
RTVSPost2010PropOp39
 70
     1
102
RTVSPost2010Prop40
 90
        0
102
RTVSPost2010PropOp40
 70
     1
102
RTVSPost2010Prop41ColorIndex
 90
       18
102
RTVSPost2010Prop41ColorRGB
 90
        0
102
RTVSPost2010PropOp41
 70
     1
102
RTVSPost2010Prop42
 90
       50
102
RTVSPost2010PropOp42
 70
     1
102
RTVSPost2010Prop43
 90
        3
102
RTVSPost2010PropOp43
 70
     1
102
RTVSPost2010Prop44ColorIndex
 90
        5
102
RTVSPost2010Prop44ColorRGB
 90
      255
102
RTVSPost2010PropOp44
 70
     1
102
RTVSPost2010Prop45
280
     0
102
RTVSPost2010PropOp45
 70
     1
102
RTVSPost2010Prop46
 90
       50
102
RTVSPost2010PropOp46
 70
     1
102
RTVSPost2010Prop47
 90
       50
102
RTVSPost2010PropOp47
 70
     1
102
RTVSPost2010Prop48
 90
       50
102
RTVSPost2010PropOp48
 70
     1
102
RTVSPost2010Prop49
280
     0
102
RTVSPost2010PropOp49
 70
     1
102
RTVSPost2010Prop50
 90
       50
102
RTVSPost2010PropOp50
 70
     1
102
RTVSPost2010Prop51ColorIndex
 90
      256
102
RTVSPost2010Prop51ColorRGB
 90
-16777216
102
RTVSPost2010PropOp51
 70
     0
102
RTVSPost2010Prop52
140
1.0
102
RTVSPost2010PropOp52
 70
     0
102
RTVSPost2010Prop53
 90
        2
102
RTVSPost2010PropOp53
 70
     1
102
RTVSPost2010Prop54
  1
strokes_ogs.tif
102
RTVSPost2010PropOp54
 70
     1
102
RTVSPost2010Prop55
280
     0
102
RTVSPost2010PropOp55
 70
     1
102
RTVSPost2010Prop56
140
1.0
102
RTVSPost2010PropOp56
 70
     1
102
RTVSPost2010Prop57
140
1.0
102
RTVSPost2010PropOp57
 70
     1
  0
XRECORD
  5
2211E
102
{ACAD_REACTORS
330
2211D
102
}
330
2211D
100
AcDbXrecord
280
     1
102
RTVSPost2010Prop28
280
     0
102
RTVSPost2010PropOp28
 70
     1
102
RTVSPost2010Prop29
280
     1
102
RTVSPost2010PropOp29
 70
     1
102
RTVSPost2010Prop30
280
     1
102
RTVSPost2010PropOp30
 70
     1
102
RTVSPost2010Prop31
280
     0
102
RTVSPost2010PropOp31
 70
     1
102
RTVSPost2010Prop32
280
     0
102
RTVSPost2010PropOp32
 70
     1
102
RTVSPost2010Prop33
280
     0
102
RTVSPost2010PropOp33
 70
     1
102
RTVSPost2010Prop34
280
     0
102
RTVSPost2010PropOp34
 70
     1
102
RTVSPost2010Prop35
280
     0
102
RTVSPost2010PropOp35
 70
     1
102
RTVSPost2010Prop36
280
     0
102
RTVSPost2010PropOp36
 70
     1
102
RTVSPost2010Prop37
 90
       50
102
RTVSPost2010PropOp37
 70
     0
102
RTVSPost2010Prop38
140
0.0
102
RTVSPost2010PropOp38
 70
     0
102
RTVSPost2010Prop39
140
1.0
102
RTVSPost2010PropOp39
 70
     0
102
RTVSPost2010Prop40
 90
        0
102
RTVSPost2010PropOp40
 70
     0
102
RTVSPost2010Prop41ColorIndex
 90
       18
102
RTVSPost2010Prop41ColorRGB
 90
        0
102
RTVSPost2010PropOp41
 70
     0
102
RTVSPost2010Prop42
 90
       50
102
RTVSPost2010PropOp42
 70
     0
102
RTVSPost2010Prop43
 90
        3
102
RTVSPost2010PropOp43
 70
     0
102
RTVSPost2010Prop44ColorIndex
 90
        5
102
RTVSPost2010Prop44ColorRGB
 90
      255
102
RTVSPost2010PropOp44
 70
     0
102
RTVSPost2010Prop45
280
     0
102
RTVSPost2010PropOp45
 70
     1
102
RTVSPost2010Prop46
 90
       50
102
RTVSPost2010PropOp46
 70
     0
102
RTVSPost2010Prop47
 90
       50
102
RTVSPost2010PropOp47
 70
     0
102
RTVSPost2010Prop48
 90
       50
102
RTVSPost2010PropOp48
 70
     0
102
RTVSPost2010Prop49
280
     0
102
RTVSPost2010PropOp49
 70
     1
102
RTVSPost2010Prop50
 90
       50
102
RTVSPost2010PropOp50
 70
     0
102
RTVSPost2010Prop51ColorIndex
 90
      256
102
RTVSPost2010Prop51ColorRGB
 90
-16777216
102
RTVSPost2010PropOp51
 70
     0
102
RTVSPost2010Prop52
140
1.0
102
RTVSPost2010PropOp52
 70
     0
102
RTVSPost2010Prop53
 90
        2
102
RTVSPost2010PropOp53
 70
     0
102
RTVSPost2010Prop54
  1
strokes_ogs.tif
102
RTVSPost2010PropOp54
 70
     0
102
RTVSPost2010Prop55
280
     0
102
RTVSPost2010PropOp55
 70
     1
102
RTVSPost2010Prop56
140
1.0
102
RTVSPost2010PropOp56
 70
     0
102
RTVSPost2010Prop57
140
1.0
102
RTVSPost2010PropOp57
 70
     0
  0
XRECORD
  5
2210A
102
{ACAD_REACTORS
330
22109
102
}
330
22109
100
AcDbXrecord
280
     1
102
RTVSPost2010Prop28
280
     0
102
RTVSPost2010PropOp28
 70
     1
102
RTVSPost2010Prop29
280
     1
102
RTVSPost2010PropOp29
 70
     1
102
RTVSPost2010Prop30
280
     1
102
RTVSPost2010PropOp30
 70
     1
102
RTVSPost2010Prop31
280
     0
102
RTVSPost2010PropOp31
 70
     1
102
RTVSPost2010Prop32
280
     0
102
RTVSPost2010PropOp32
 70
     1
102
RTVSPost2010Prop33
280
     0
102
RTVSPost2010PropOp33
 70
     1
102
RTVSPost2010Prop34
280
     0
102
RTVSPost2010PropOp34
 70
     1
102
RTVSPost2010Prop35
280
     0
102
RTVSPost2010PropOp35
 70
     1
102
RTVSPost2010Prop36
280
     0
102
RTVSPost2010PropOp36
 70
     1
102
RTVSPost2010Prop37
 90
       50
102
RTVSPost2010PropOp37
 70
     1
102
RTVSPost2010Prop38
140
0.0
102
RTVSPost2010PropOp38
 70
     1
102
RTVSPost2010Prop39
140
1.0
102
RTVSPost2010PropOp39
 70
     1
102
RTVSPost2010Prop40
 90
        0
102
RTVSPost2010PropOp40
 70
     1
102
RTVSPost2010Prop41ColorIndex
 90
       18
102
RTVSPost2010Prop41ColorRGB
 90
        0
102
RTVSPost2010PropOp41
 70
     1
102
RTVSPost2010Prop42
 90
       50
102
RTVSPost2010PropOp42
 70
     1
102
RTVSPost2010Prop43
 90
        3
102
RTVSPost2010PropOp43
 70
     1
102
RTVSPost2010Prop44ColorIndex
 90
        5
102
RTVSPost2010Prop44ColorRGB
 90
      255
102
RTVSPost2010PropOp44
 70
     1
102
RTVSPost2010Prop45
280
     0
102
RTVSPost2010PropOp45
 70
     1
102
RTVSPost2010Prop46
 90
       50
102
RTVSPost2010PropOp46
 70
     1
102
RTVSPost2010Prop47
 90
       50
102
RTVSPost2010PropOp47
 70
     1
102
RTVSPost2010Prop48
 90
       50
102
RTVSPost2010PropOp48
 70
     1
102
RTVSPost2010Prop49
280
     0
102
RTVSPost2010PropOp49
 70
     1
102
RTVSPost2010Prop50
 90
       50
102
RTVSPost2010PropOp50
 70
     1
102
RTVSPost2010Prop51ColorIndex
 90
      256
102
RTVSPost2010Prop51ColorRGB
 90
-16777216
102
RTVSPost2010PropOp51
 70
     0
102
RTVSPost2010Prop52
140
1.0
102
RTVSPost2010PropOp52
 70
     0
102
RTVSPost2010Prop53
 90
        2
102
RTVSPost2010PropOp53
 70
     1
102
RTVSPost2010Prop54
  1
strokes_ogs.tif
102
RTVSPost2010PropOp54
 70
     1
102
RTVSPost2010Prop55
280
     0
102
RTVSPost2010PropOp55
 70
     1
102
RTVSPost2010Prop56
140
1.0
102
RTVSPost2010PropOp56
 70
     1
102
RTVSPost2010Prop57
140
1.0
102
RTVSPost2010PropOp57
 70
     1
  0
XRECORD
  5
22120
102
{ACAD_REACTORS
330
2211F
102
}
330
2211F
100
AcDbXrecord
280
     1
102
RTVSPost2010Prop28
280
     0
102
RTVSPost2010PropOp28
 70
     1
102
RTVSPost2010Prop29
280
     1
102
RTVSPost2010PropOp29
 70
     1
102
RTVSPost2010Prop30
280
     1
102
RTVSPost2010PropOp30
 70
     1
102
RTVSPost2010Prop31
280
     0
102
RTVSPost2010PropOp31
 70
     1
102
RTVSPost2010Prop32
280
     0
102
RTVSPost2010PropOp32
 70
     1
102
RTVSPost2010Prop33
280
     0
102
RTVSPost2010PropOp33
 70
     1
102
RTVSPost2010Prop34
280
     0
102
RTVSPost2010PropOp34
 70
     1
102
RTVSPost2010Prop35
280
     0
102
RTVSPost2010PropOp35
 70
     1
102
RTVSPost2010Prop36
280
     0
102
RTVSPost2010PropOp36
 70
     1
102
RTVSPost2010Prop37
 90
       50
102
RTVSPost2010PropOp37
 70
     0
102
RTVSPost2010Prop38
140
0.0
102
RTVSPost2010PropOp38
 70
     0
102
RTVSPost2010Prop39
140
1.0
102
RTVSPost2010PropOp39
 70
     0
102
RTVSPost2010Prop40
 90
        0
102
RTVSPost2010PropOp40
 70
     0
102
RTVSPost2010Prop41ColorIndex
 90
       18
102
RTVSPost2010Prop41ColorRGB
 90
        0
102
RTVSPost2010PropOp41
 70
     0
102
RTVSPost2010Prop42
 90
       50
102
RTVSPost2010PropOp42
 70
     0
102
RTVSPost2010Prop43
 90
        3
102
RTVSPost2010PropOp43
 70
     0
102
RTVSPost2010Prop44ColorIndex
 90
        5
102
RTVSPost2010Prop44ColorRGB
 90
      255
102
RTVSPost2010PropOp44
 70
     0
102
RTVSPost2010Prop45
280
     0
102
RTVSPost2010PropOp45
 70
     1
102
RTVSPost2010Prop46
 90
       50
102
RTVSPost2010PropOp46
 70
     0
102
RTVSPost2010Prop47
 90
       50
102
RTVSPost2010PropOp47
 70
     0
102
RTVSPost2010Prop48
 90
       50
102
RTVSPost2010PropOp48
 70
     0
102
RTVSPost2010Prop49
280
     0
102
RTVSPost2010PropOp49
 70
     1
102
RTVSPost2010Prop50
 90
       50
102
RTVSPost2010PropOp50
 70
     0
102
RTVSPost2010Prop51ColorIndex
 90
      256
102
RTVSPost2010Prop51ColorRGB
 90
-16777216
102
RTVSPost2010PropOp51
 70
     0
102
RTVSPost2010Prop52
140
1.0
102
RTVSPost2010PropOp52
 70
     0
102
RTVSPost2010Prop53
 90
        2
102
RTVSPost2010PropOp53
 70
     0
102
RTVSPost2010Prop54
  1
strokes_ogs.tif
102
RTVSPost2010PropOp54
 70
     0
102
RTVSPost2010Prop55
280
     0
102
RTVSPost2010PropOp55
 70
     1
102
RTVSPost2010Prop56
140
1.0
102
RTVSPost2010PropOp56
 70
     0
102
RTVSPost2010Prop57
140
1.0
102
RTVSPost2010PropOp57
 70
     0
  0
XRECORD
  5
22102
102
{ACAD_REACTORS
330
22101
102
}
330
22101
100
AcDbXrecord
280
     1
102
RTVSPost2010Prop28
280
     0
102
RTVSPost2010PropOp28
 70
     1
102
RTVSPost2010Prop29
280
     1
102
RTVSPost2010PropOp29
 70
     1
102
RTVSPost2010Prop30
280
     1
102
RTVSPost2010PropOp30
 70
     1
102
RTVSPost2010Prop31
280
     0
102
RTVSPost2010PropOp31
 70
     1
102
RTVSPost2010Prop32
280
     0
102
RTVSPost2010PropOp32
 70
     1
102
RTVSPost2010Prop33
280
     0
102
RTVSPost2010PropOp33
 70
     1
102
RTVSPost2010Prop34
280
     0
102
RTVSPost2010PropOp34
 70
     1
102
RTVSPost2010Prop35
280
     0
102
RTVSPost2010PropOp35
 70
     1
102
RTVSPost2010Prop36
280
     0
102
RTVSPost2010PropOp36
 70
     1
102
RTVSPost2010Prop37
 90
       50
102
RTVSPost2010PropOp37
 70
     1
102
RTVSPost2010Prop38
140
0.0
102
RTVSPost2010PropOp38
 70
     1
102
RTVSPost2010Prop39
140
1.0
102
RTVSPost2010PropOp39
 70
     1
102
RTVSPost2010Prop40
 90
        0
102
RTVSPost2010PropOp40
 70
     1
102
RTVSPost2010Prop41ColorIndex
 90
       18
102
RTVSPost2010Prop41ColorRGB
 90
        0
102
RTVSPost2010PropOp41
 70
     1
102
RTVSPost2010Prop42
 90
       50
102
RTVSPost2010PropOp42
 70
     1
102
RTVSPost2010Prop43
 90
        3
102
RTVSPost2010PropOp43
 70
     1
102
RTVSPost2010Prop44ColorIndex
 90
        5
102
RTVSPost2010Prop44ColorRGB
 90
      255
102
RTVSPost2010PropOp44
 70
     1
102
RTVSPost2010Prop45
280
     0
102
RTVSPost2010PropOp45
 70
     1
102
RTVSPost2010Prop46
 90
       50
102
RTVSPost2010PropOp46
 70
     1
102
RTVSPost2010Prop47
 90
       50
102
RTVSPost2010PropOp47
 70
     1
102
RTVSPost2010Prop48
 90
       50
102
RTVSPost2010PropOp48
 70
     1
102
RTVSPost2010Prop49
280
     0
102
RTVSPost2010PropOp49
 70
     1
102
RTVSPost2010Prop50
 90
       50
102
RTVSPost2010PropOp50
 70
     1
102
RTVSPost2010Prop51ColorIndex
 90
      256
102
RTVSPost2010Prop51ColorRGB
 90
-16777216
102
RTVSPost2010PropOp51
 70
     0
102
RTVSPost2010Prop52
140
1.0
102
RTVSPost2010PropOp52
 70
     0
102
RTVSPost2010Prop53
 90
        2
102
RTVSPost2010PropOp53
 70
     1
102
RTVSPost2010Prop54
  1
strokes_ogs.tif
102
RTVSPost2010PropOp54
 70
     1
102
RTVSPost2010Prop55
280
     0
102
RTVSPost2010PropOp55
 70
     1
102
RTVSPost2010Prop56
140
1.0
102
RTVSPost2010PropOp56
 70
     1
102
RTVSPost2010Prop57
140
1.0
102
RTVSPost2010PropOp57
 70
     1
  0
XRECORD
  5
2211C
102
{ACAD_REACTORS
330
2211B
102
}
330
2211B
100
AcDbXrecord
280
     1
102
RTVSPost2010Prop28
280
     0
102
RTVSPost2010PropOp28
 70
     1
102
RTVSPost2010Prop29
280
     1
102
RTVSPost2010PropOp29
 70
     1
102
RTVSPost2010Prop30
280
     1
102
RTVSPost2010PropOp30
 70
     1
102
RTVSPost2010Prop31
280
     0
102
RTVSPost2010PropOp31
 70
     1
102
RTVSPost2010Prop32
280
     0
102
RTVSPost2010PropOp32
 70
     1
102
RTVSPost2010Prop33
280
     0
102
RTVSPost2010PropOp33
 70
     1
102
RTVSPost2010Prop34
280
     0
102
RTVSPost2010PropOp34
 70
     1
102
RTVSPost2010Prop35
280
     0
102
RTVSPost2010PropOp35
 70
     1
102
RTVSPost2010Prop36
280
     0
102
RTVSPost2010PropOp36
 70
     1
102
RTVSPost2010Prop37
 90
       50
102
RTVSPost2010PropOp37
 70
     1
102
RTVSPost2010Prop38
140
0.0
102
RTVSPost2010PropOp38
 70
     1
102
RTVSPost2010Prop39
140
1.0
102
RTVSPost2010PropOp39
 70
     1
102
RTVSPost2010Prop40
 90
        0
102
RTVSPost2010PropOp40
 70
     1
102
RTVSPost2010Prop41ColorIndex
 90
       18
102
RTVSPost2010Prop41ColorRGB
 90
        0
102
RTVSPost2010PropOp41
 70
     1
102
RTVSPost2010Prop42
 90
       50
102
RTVSPost2010PropOp42
 70
     1
102
RTVSPost2010Prop43
 90
        3
102
RTVSPost2010PropOp43
 70
     1
102
RTVSPost2010Prop44ColorIndex
 90
        5
102
RTVSPost2010Prop44ColorRGB
 90
      255
102
RTVSPost2010PropOp44
 70
     1
102
RTVSPost2010Prop45
280
     0
102
RTVSPost2010PropOp45
 70
     1
102
RTVSPost2010Prop46
 90
       50
102
RTVSPost2010PropOp46
 70
     1
102
RTVSPost2010Prop47
 90
       50
102
RTVSPost2010PropOp47
 70
     1
102
RTVSPost2010Prop48
 90
       50
102
RTVSPost2010PropOp48
 70
     1
102
RTVSPost2010Prop49
280
     0
102
RTVSPost2010PropOp49
 70
     1
102
RTVSPost2010Prop50
 90
       50
102
RTVSPost2010PropOp50
 70
     1
102
RTVSPost2010Prop51ColorIndex
 90
      256
102
RTVSPost2010Prop51ColorRGB
 90
-16777216
102
RTVSPost2010PropOp51
 70
     0
102
RTVSPost2010Prop52
140
1.0
102
RTVSPost2010PropOp52
 70
     0
102
RTVSPost2010Prop53
 90
        2
102
RTVSPost2010PropOp53
 70
     1
102
RTVSPost2010Prop54
  1
strokes_ogs.tif
102
RTVSPost2010PropOp54
 70
     1
102
RTVSPost2010Prop55
280
     0
102
RTVSPost2010PropOp55
 70
     1
102
RTVSPost2010Prop56
140
1.0
102
RTVSPost2010PropOp56
 70
     1
102
RTVSPost2010Prop57
140
1.0
102
RTVSPost2010PropOp57
 70
     1
  0
XRECORD
  5
2211A
102
{ACAD_REACTORS
330
22119
102
}
330
22119
100
AcDbXrecord
280
     1
102
RTVSPost2010Prop28
280
     0
102
RTVSPost2010PropOp28
 70
     1
102
RTVSPost2010Prop29
280
     1
102
RTVSPost2010PropOp29
 70
     1
102
RTVSPost2010Prop30
280
     1
102
RTVSPost2010PropOp30
 70
     1
102
RTVSPost2010Prop31
280
     0
102
RTVSPost2010PropOp31
 70
     1
102
RTVSPost2010Prop32
280
     0
102
RTVSPost2010PropOp32
 70
     1
102
RTVSPost2010Prop33
280
     0
102
RTVSPost2010PropOp33
 70
     1
102
RTVSPost2010Prop34
280
     0
102
RTVSPost2010PropOp34
 70
     1
102
RTVSPost2010Prop35
280
     0
102
RTVSPost2010PropOp35
 70
     1
102
RTVSPost2010Prop36
280
     0
102
RTVSPost2010PropOp36
 70
     1
102
RTVSPost2010Prop37
 90
       50
102
RTVSPost2010PropOp37
 70
     1
102
RTVSPost2010Prop38
140
0.0
102
RTVSPost2010PropOp38
 70
     1
102
RTVSPost2010Prop39
140
1.0
102
RTVSPost2010PropOp39
 70
     1
102
RTVSPost2010Prop40
 90
        0
102
RTVSPost2010PropOp40
 70
     1
102
RTVSPost2010Prop41ColorIndex
 90
       18
102
RTVSPost2010Prop41ColorRGB
 90
        0
102
RTVSPost2010PropOp41
 70
     1
102
RTVSPost2010Prop42
 90
       50
102
RTVSPost2010PropOp42
 70
     1
102
RTVSPost2010Prop43
 90
        3
102
RTVSPost2010PropOp43
 70
     1
102
RTVSPost2010Prop44ColorIndex
 90
        5
102
RTVSPost2010Prop44ColorRGB
 90
      255
102
RTVSPost2010PropOp44
 70
     1
102
RTVSPost2010Prop45
280
     0
102
RTVSPost2010PropOp45
 70
     1
102
RTVSPost2010Prop46
 90
       50
102
RTVSPost2010PropOp46
 70
     1
102
RTVSPost2010Prop47
 90
       50
102
RTVSPost2010PropOp47
 70
     1
102
RTVSPost2010Prop48
 90
       50
102
RTVSPost2010PropOp48
 70
     1
102
RTVSPost2010Prop49
280
     0
102
RTVSPost2010PropOp49
 70
     1
102
RTVSPost2010Prop50
 90
       50
102
RTVSPost2010PropOp50
 70
     1
102
RTVSPost2010Prop51ColorIndex
 90
      256
102
RTVSPost2010Prop51ColorRGB
 90
-16777216
102
RTVSPost2010PropOp51
 70
     0
102
RTVSPost2010Prop52
140
1.0
102
RTVSPost2010PropOp52
 70
     0
102
RTVSPost2010Prop53
 90
        2
102
RTVSPost2010PropOp53
 70
     1
102
RTVSPost2010Prop54
  1
strokes_ogs.tif
102
RTVSPost2010PropOp54
 70
     1
102
RTVSPost2010Prop55
280
     0
102
RTVSPost2010PropOp55
 70
     1
102
RTVSPost2010Prop56
140
1.0
102
RTVSPost2010PropOp56
 70
     1
102
RTVSPost2010Prop57
140
1.0
102
RTVSPost2010PropOp57
 70
     1
  0
XRECORD
  5
22114
102
{ACAD_REACTORS
330
22113
102
}
330
22113
100
AcDbXrecord
280
     1
102
RTVSPost2010Prop28
280
     0
102
RTVSPost2010PropOp28
 70
     1
102
RTVSPost2010Prop29
280
     1
102
RTVSPost2010PropOp29
 70
     1
102
RTVSPost2010Prop30
280
     1
102
RTVSPost2010PropOp30
 70
     1
102
RTVSPost2010Prop31
280
     0
102
RTVSPost2010PropOp31
 70
     1
102
RTVSPost2010Prop32
280
     0
102
RTVSPost2010PropOp32
 70
     1
102
RTVSPost2010Prop33
280
     0
102
RTVSPost2010PropOp33
 70
     1
102
RTVSPost2010Prop34
280
     0
102
RTVSPost2010PropOp34
 70
     1
102
RTVSPost2010Prop35
280
     0
102
RTVSPost2010PropOp35
 70
     1
102
RTVSPost2010Prop36
280
     0
102
RTVSPost2010PropOp36
 70
     1
102
RTVSPost2010Prop37
 90
       50
102
RTVSPost2010PropOp37
 70
     1
102
RTVSPost2010Prop38
140
0.0
102
RTVSPost2010PropOp38
 70
     1
102
RTVSPost2010Prop39
140
1.0
102
RTVSPost2010PropOp39
 70
     1
102
RTVSPost2010Prop40
 90
        0
102
RTVSPost2010PropOp40
 70
     1
102
RTVSPost2010Prop41ColorIndex
 90
       18
102
RTVSPost2010Prop41ColorRGB
 90
        0
102
RTVSPost2010PropOp41
 70
     1
102
RTVSPost2010Prop42
 90
       50
102
RTVSPost2010PropOp42
 70
     1
102
RTVSPost2010Prop43
 90
        3
102
RTVSPost2010PropOp43
 70
     1
102
RTVSPost2010Prop44ColorIndex
 90
        5
102
RTVSPost2010Prop44ColorRGB
 90
      255
102
RTVSPost2010PropOp44
 70
     1
102
RTVSPost2010Prop45
280
     0
102
RTVSPost2010PropOp45
 70
     1
102
RTVSPost2010Prop46
 90
       50
102
RTVSPost2010PropOp46
 70
     1
102
RTVSPost2010Prop47
 90
       50
102
RTVSPost2010PropOp47
 70
     1
102
RTVSPost2010Prop48
 90
       50
102
RTVSPost2010PropOp48
 70
     1
102
RTVSPost2010Prop49
280
     0
102
RTVSPost2010PropOp49
 70
     1
102
RTVSPost2010Prop50
 90
       50
102
RTVSPost2010PropOp50
 70
     1
102
RTVSPost2010Prop51ColorIndex
 90
      256
102
RTVSPost2010Prop51ColorRGB
 90
-16777216
102
RTVSPost2010PropOp51
 70
     0
102
RTVSPost2010Prop52
140
1.0
102
RTVSPost2010PropOp52
 70
     0
102
RTVSPost2010Prop53
 90
        2
102
RTVSPost2010PropOp53
 70
     1
102
RTVSPost2010Prop54
  1
strokes_ogs.tif
102
RTVSPost2010PropOp54
 70
     1
102
RTVSPost2010Prop55
280
     0
102
RTVSPost2010PropOp55
 70
     1
102
RTVSPost2010Prop56
140
1.0
102
RTVSPost2010PropOp56
 70
     1
102
RTVSPost2010Prop57
140
1.0
102
RTVSPost2010PropOp57
 70
     1
  0
XRECORD
  5
22116
102
{ACAD_REACTORS
330
22115
102
}
330
22115
100
AcDbXrecord
280
     1
102
RTVSPost2010Prop28
280
     0
102
RTVSPost2010PropOp28
 70
     1
102
RTVSPost2010Prop29
280
     1
102
RTVSPost2010PropOp29
 70
     1
102
RTVSPost2010Prop30
280
     1
102
RTVSPost2010PropOp30
 70
     1
102
RTVSPost2010Prop31
280
     0
102
RTVSPost2010PropOp31
 70
     1
102
RTVSPost2010Prop32
280
     0
102
RTVSPost2010PropOp32
 70
     1
102
RTVSPost2010Prop33
280
     0
102
RTVSPost2010PropOp33
 70
     1
102
RTVSPost2010Prop34
280
     0
102
RTVSPost2010PropOp34
 70
     1
102
RTVSPost2010Prop35
280
     0
102
RTVSPost2010PropOp35
 70
     1
102
RTVSPost2010Prop36
280
     0
102
RTVSPost2010PropOp36
 70
     1
102
RTVSPost2010Prop37
 90
       50
102
RTVSPost2010PropOp37
 70
     1
102
RTVSPost2010Prop38
140
0.0
102
RTVSPost2010PropOp38
 70
     1
102
RTVSPost2010Prop39
140
1.0
102
RTVSPost2010PropOp39
 70
     1
102
RTVSPost2010Prop40
 90
        0
102
RTVSPost2010PropOp40
 70
     1
102
RTVSPost2010Prop41ColorIndex
 90
       18
102
RTVSPost2010Prop41ColorRGB
 90
        0
102
RTVSPost2010PropOp41
 70
     1
102
RTVSPost2010Prop42
 90
       50
102
RTVSPost2010PropOp42
 70
     1
102
RTVSPost2010Prop43
 90
        3
102
RTVSPost2010PropOp43
 70
     1
102
RTVSPost2010Prop44ColorIndex
 90
        5
102
RTVSPost2010Prop44ColorRGB
 90
      255
102
RTVSPost2010PropOp44
 70
     1
102
RTVSPost2010Prop45
280
     0
102
RTVSPost2010PropOp45
 70
     1
102
RTVSPost2010Prop46
 90
       50
102
RTVSPost2010PropOp46
 70
     1
102
RTVSPost2010Prop47
 90
       50
102
RTVSPost2010PropOp47
 70
     1
102
RTVSPost2010Prop48
 90
       50
102
RTVSPost2010PropOp48
 70
     1
102
RTVSPost2010Prop49
280
     0
102
RTVSPost2010PropOp49
 70
     1
102
RTVSPost2010Prop50
 90
       50
102
RTVSPost2010PropOp50
 70
     1
102
RTVSPost2010Prop51ColorIndex
 90
      256
102
RTVSPost2010Prop51ColorRGB
 90
-16777216
102
RTVSPost2010PropOp51
 70
     0
102
RTVSPost2010Prop52
140
1.0
102
RTVSPost2010PropOp52
 70
     0
102
RTVSPost2010Prop53
 90
        2
102
RTVSPost2010PropOp53
 70
     1
102
RTVSPost2010Prop54
  1
strokes_ogs.tif
102
RTVSPost2010PropOp54
 70
     1
102
RTVSPost2010Prop55
280
     0
102
RTVSPost2010PropOp55
 70
     1
102
RTVSPost2010Prop56
140
1.0
102
RTVSPost2010PropOp56
 70
     1
102
RTVSPost2010Prop57
140
1.0
102
RTVSPost2010PropOp57
 70
     1
  0
XRECORD
  5
22108
102
{ACAD_REACTORS
330
22107
102
}
330
22107
100
AcDbXrecord
280
     1
102
RTVSPost2010Prop28
280
     0
102
RTVSPost2010PropOp28
 70
     1
102
RTVSPost2010Prop29
280
     1
102
RTVSPost2010PropOp29
 70
     1
102
RTVSPost2010Prop30
280
     1
102
RTVSPost2010PropOp30
 70
     1
102
RTVSPost2010Prop31
280
     0
102
RTVSPost2010PropOp31
 70
     1
102
RTVSPost2010Prop32
280
     0
102
RTVSPost2010PropOp32
 70
     1
102
RTVSPost2010Prop33
280
     0
102
RTVSPost2010PropOp33
 70
     1
102
RTVSPost2010Prop34
280
     0
102
RTVSPost2010PropOp34
 70
     1
102
RTVSPost2010Prop35
280
     0
102
RTVSPost2010PropOp35
 70
     1
102
RTVSPost2010Prop36
280
     0
102
RTVSPost2010PropOp36
 70
     1
102
RTVSPost2010Prop37
 90
       50
102
RTVSPost2010PropOp37
 70
     1
102
RTVSPost2010Prop38
140
0.0
102
RTVSPost2010PropOp38
 70
     1
102
RTVSPost2010Prop39
140
1.0
102
RTVSPost2010PropOp39
 70
     1
102
RTVSPost2010Prop40
 90
        0
102
RTVSPost2010PropOp40
 70
     1
102
RTVSPost2010Prop41ColorIndex
 90
       18
102
RTVSPost2010Prop41ColorRGB
 90
        0
102
RTVSPost2010PropOp41
 70
     1
102
RTVSPost2010Prop42
 90
       50
102
RTVSPost2010PropOp42
 70
     1
102
RTVSPost2010Prop43
 90
        3
102
RTVSPost2010PropOp43
 70
     1
102
RTVSPost2010Prop44ColorIndex
 90
        5
102
RTVSPost2010Prop44ColorRGB
 90
      255
102
RTVSPost2010PropOp44
 70
     1
102
RTVSPost2010Prop45
280
     0
102
RTVSPost2010PropOp45
 70
     1
102
RTVSPost2010Prop46
 90
       50
102
RTVSPost2010PropOp46
 70
     1
102
RTVSPost2010Prop47
 90
       50
102
RTVSPost2010PropOp47
 70
     1
102
RTVSPost2010Prop48
 90
       50
102
RTVSPost2010PropOp48
 70
     1
102
RTVSPost2010Prop49
280
     0
102
RTVSPost2010PropOp49
 70
     1
102
RTVSPost2010Prop50
 90
       50
102
RTVSPost2010PropOp50
 70
     1
102
RTVSPost2010Prop51ColorIndex
 90
      256
102
RTVSPost2010Prop51ColorRGB
 90
-16777216
102
RTVSPost2010PropOp51
 70
     0
102
RTVSPost2010Prop52
140
1.0
102
RTVSPost2010PropOp52
 70
     0
102
RTVSPost2010Prop53
 90
        2
102
RTVSPost2010PropOp53
 70
     1
102
RTVSPost2010Prop54
  1
strokes_ogs.tif
102
RTVSPost2010PropOp54
 70
     1
102
RTVSPost2010Prop55
280
     0
102
RTVSPost2010PropOp55
 70
     1
102
RTVSPost2010Prop56
140
1.0
102
RTVSPost2010PropOp56
 70
     1
102
RTVSPost2010Prop57
140
1.0
102
RTVSPost2010PropOp57
 70
     1
  0
XRECORD
  5
22110
102
{ACAD_REACTORS
330
2210F
102
}
330
2210F
100
AcDbXrecord
280
     1
102
RTVSPost2010Prop28
280
     0
102
RTVSPost2010PropOp28
 70
     1
102
RTVSPost2010Prop29
280
     1
102
RTVSPost2010PropOp29
 70
     1
102
RTVSPost2010Prop30
280
     1
102
RTVSPost2010PropOp30
 70
     1
102
RTVSPost2010Prop31
280
     0
102
RTVSPost2010PropOp31
 70
     1
102
RTVSPost2010Prop32
280
     0
102
RTVSPost2010PropOp32
 70
     1
102
RTVSPost2010Prop33
280
     0
102
RTVSPost2010PropOp33
 70
     1
102
RTVSPost2010Prop34
280
     0
102
RTVSPost2010PropOp34
 70
     1
102
RTVSPost2010Prop35
280
     0
102
RTVSPost2010PropOp35
 70
     1
102
RTVSPost2010Prop36
280
     0
102
RTVSPost2010PropOp36
 70
     1
102
RTVSPost2010Prop37
 90
       50
102
RTVSPost2010PropOp37
 70
     1
102
RTVSPost2010Prop38
140
0.0
102
RTVSPost2010PropOp38
 70
     1
102
RTVSPost2010Prop39
140
1.0
102
RTVSPost2010PropOp39
 70
     1
102
RTVSPost2010Prop40
 90
        0
102
RTVSPost2010PropOp40
 70
     1
102
RTVSPost2010Prop41ColorIndex
 90
       18
102
RTVSPost2010Prop41ColorRGB
 90
        0
102
RTVSPost2010PropOp41
 70
     1
102
RTVSPost2010Prop42
 90
       50
102
RTVSPost2010PropOp42
 70
     1
102
RTVSPost2010Prop43
 90
        3
102
RTVSPost2010PropOp43
 70
     1
102
RTVSPost2010Prop44ColorIndex
 90
        5
102
RTVSPost2010Prop44ColorRGB
 90
      255
102
RTVSPost2010PropOp44
 70
     1
102
RTVSPost2010Prop45
280
     0
102
RTVSPost2010PropOp45
 70
     1
102
RTVSPost2010Prop46
 90
       50
102
RTVSPost2010PropOp46
 70
     1
102
RTVSPost2010Prop47
 90
       50
102
RTVSPost2010PropOp47
 70
     1
102
RTVSPost2010Prop48
 90
       50
102
RTVSPost2010PropOp48
 70
     1
102
RTVSPost2010Prop49
280
     0
102
RTVSPost2010PropOp49
 70
     1
102
RTVSPost2010Prop50
 90
       50
102
RTVSPost2010PropOp50
 70
     1
102
RTVSPost2010Prop51ColorIndex
 90
      256
102
RTVSPost2010Prop51ColorRGB
 90
-16777216
102
RTVSPost2010PropOp51
 70
     0
102
RTVSPost2010Prop52
140
1.0
102
RTVSPost2010PropOp52
 70
     0
102
RTVSPost2010Prop53
 90
        2
102
RTVSPost2010PropOp53
 70
     1
102
RTVSPost2010Prop54
  1
strokes_ogs.tif
102
RTVSPost2010PropOp54
 70
     1
102
RTVSPost2010Prop55
280
     0
102
RTVSPost2010PropOp55
 70
     1
102
RTVSPost2010Prop56
140
1.0
102
RTVSPost2010PropOp56
 70
     1
102
RTVSPost2010Prop57
140
1.0
102
RTVSPost2010PropOp57
 70
     1
  0
XRECORD
  5
22118
102
{ACAD_REACTORS
330
22117
102
}
330
22117
100
AcDbXrecord
280
     1
102
RTVSPost2010Prop28
280
     0
102
RTVSPost2010PropOp28
 70
     1
102
RTVSPost2010Prop29
280
     1
102
RTVSPost2010PropOp29
 70
     1
102
RTVSPost2010Prop30
280
     1
102
RTVSPost2010PropOp30
 70
     1
102
RTVSPost2010Prop31
280
     0
102
RTVSPost2010PropOp31
 70
     1
102
RTVSPost2010Prop32
280
     0
102
RTVSPost2010PropOp32
 70
     1
102
RTVSPost2010Prop33
280
     0
102
RTVSPost2010PropOp33
 70
     1
102
RTVSPost2010Prop34
280
     0
102
RTVSPost2010PropOp34
 70
     1
102
RTVSPost2010Prop35
280
     0
102
RTVSPost2010PropOp35
 70
     1
102
RTVSPost2010Prop36
280
     0
102
RTVSPost2010PropOp36
 70
     1
102
RTVSPost2010Prop37
 90
       50
102
RTVSPost2010PropOp37
 70
     1
102
RTVSPost2010Prop38
140
0.0
102
RTVSPost2010PropOp38
 70
     1
102
RTVSPost2010Prop39
140
1.0
102
RTVSPost2010PropOp39
 70
     1
102
RTVSPost2010Prop40
 90
        0
102
RTVSPost2010PropOp40
 70
     1
102
RTVSPost2010Prop41ColorIndex
 90
       18
102
RTVSPost2010Prop41ColorRGB
 90
        0
102
RTVSPost2010PropOp41
 70
     1
102
RTVSPost2010Prop42
 90
       50
102
RTVSPost2010PropOp42
 70
     1
102
RTVSPost2010Prop43
 90
        3
102
RTVSPost2010PropOp43
 70
     1
102
RTVSPost2010Prop44ColorIndex
 90
        5
102
RTVSPost2010Prop44ColorRGB
 90
      255
102
RTVSPost2010PropOp44
 70
     1
102
RTVSPost2010Prop45
280
     0
102
RTVSPost2010PropOp45
 70
     1
102
RTVSPost2010Prop46
 90
       50
102
RTVSPost2010PropOp46
 70
     1
102
RTVSPost2010Prop47
 90
       50
102
RTVSPost2010PropOp47
 70
     1
102
RTVSPost2010Prop48
 90
       50
102
RTVSPost2010PropOp48
 70
     1
102
RTVSPost2010Prop49
280
     0
102
RTVSPost2010PropOp49
 70
     1
102
RTVSPost2010Prop50
 90
       50
102
RTVSPost2010PropOp50
 70
     1
102
RTVSPost2010Prop51ColorIndex
 90
      256
102
RTVSPost2010Prop51ColorRGB
 90
-16777216
102
RTVSPost2010PropOp51
 70
     0
102
RTVSPost2010Prop52
140
1.0
102
RTVSPost2010PropOp52
 70
     0
102
RTVSPost2010Prop53
 90
        2
102
RTVSPost2010PropOp53
 70
     1
102
RTVSPost2010Prop54
  1
strokes_ogs.tif
102
RTVSPost2010PropOp54
 70
     1
102
RTVSPost2010Prop55
280
     0
102
RTVSPost2010PropOp55
 70
     1
102
RTVSPost2010Prop56
140
1.0
102
RTVSPost2010PropOp56
 70
     1
102
RTVSPost2010Prop57
140
1.0
102
RTVSPost2010PropOp57
 70
     1
  0
ENDSEC
  0
EOF
