  0
SECTION
  2
HEADER
  9
$ACADVER
  1
AC1024
  9
$ACADMAINTVER
 70
   182
  9
$DWGCODEPAGE
  3
ANSI_1252
  9
$LASTSAVEDBY
  1
kamerka
  9
$INSBASE
 10
0.0
 20
0.0
 30
0.0
  9
$EXTMIN
 10
-123.4442130330067
 20
-58.67399534847823
 30
-0.0000000000000057
  9
$EXTMAX
 10
83.01178037073908
 20
59.31298869605291
 30
0.0000000000000104
  9
$LIMMIN
 10
0.0
 20
0.0
  9
$LIMMAX
 10
420.0
 20
297.0
  9
$ORTHOMODE
 70
     0
  9
$REGENMODE
 70
     1
  9
$FILLMODE
 70
     1
  9
$QTEXTMODE
 70
     0
  9
$MIRRTEXT
 70
     0
  9
$LTSCALE
 40
23.1
  9
$ATTMODE
 70
     1
  9
$TEXTSIZE
 40
3.5
  9
$TRACEWID
 40
0.05
  9
$TEXTSTYLE
  7
STANDARD
  9
$CLAYER
  8
0
  9
$CELTYPE
  6
BYLAYER
  9
$CECOLOR
 62
   256
  9
$CELTSCALE
 40
1.0
  9
$DISPSILH
 70
     0
  9
$DIMSCALE
 40
1.0
  9
$DIMASZ
 40
4.57
  9
$DIMEXO
 40
0.0625
  9
$DIMDLI
 40
0.38
  9
$DIMRND
 40
0.0
  9
$DIMDLE
 40
0.0
  9
$DIMEXE
 40
0.18
  9
$DIMTP
 40
0.01
  9
$DIMTM
 40
0.01
  9
$DIMTXT
 40
3.5
  9
$DIMCEN
 40
0.09
  9
$DIMTSZ
 40
0.0
  9
$DIMTOL
 70
     0
  9
$DIMLIM
 70
     0
  9
$DIMTIH
 70
     0
  9
$DIMTOH
 70
     0
  9
$DIMSE1
 70
     0
  9
$DIMSE2
 70
     0
  9
$DIMTAD
 70
     1
  9
$DIMZIN
 70
     8
  9
$DIMBLK
  1

  9
$DIMASO
 70
     1
  9
$DIMSHO
 70
     1
  9
$DIMPOST
  1

  9
$DIMAPOST
  1

  9
$DIMALT
 70
     0
  9
$DIMALTD
 70
     2
  9
$DIMALTF
 40
25.4
  9
$DIMLFAC
 40
1.0
  9
$DIMTOFL
 70
     0
  9
$DIMTVP
 40
0.0
  9
$DIMTIX
 70
     0
  9
$DIMSOXD
 70
     0
  9
$DIMSAH
 70
     0
  9
$DIMBLK1
  1

  9
$DIMBLK2
  1

  9
$DIMSTYLE
  2
STANDARD
  9
$DIMCLRD
 70
     0
  9
$DIMCLRE
 70
     0
  9
$DIMCLRT
 70
     0
  9
$DIMTFAC
 40
1.0
  9
$DIMGAP
 40
0.09
  9
$DIMJUST
 70
     0
  9
$DIMSD1
 70
     0
  9
$DIMSD2
 70
     0
  9
$DIMTOLJ
 70
     1
  9
$DIMTZIN
 70
     8
  9
$DIMALTZ
 70
     0
  9
$DIMALTTZ
 70
     0
  9
$DIMUPT
 70
     0
  9
$DIMDEC
 70
     3
  9
$DIMTDEC
 70
     3
  9
$DIMALTU
 70
     2
  9
$DIMALTTD
 70
     2
  9
$DIMTXSTY
  7
STANDARD
  9
$DIMAUNIT
 70
     0
  9
$DIMADEC
 70
     0
  9
$DIMALTRND
 40
0.0
  9
$DIMAZIN
 70
     0
  9
$DIMDSEP
 70
    46
  9
$DIMATFIT
 70
     0
  9
$DIMFRAC
 70
     0
  9
$DIMLDRBLK
  1

  9
$DIMLUNIT
 70
     2
  9
$DIMLWD
 70
    -2
  9
$DIMLWE
 70
    -2
  9
$DIMTMOVE
 70
     0
  9
$DIMFXL
 40
1.0
  9
$DIMFXLON
 70
     0
  9
$DIMJOGANG
 40
0.7853981633974483
  9
$DIMTFILL
 70
     0
  9
$DIMTFILLCLR
 70
     0
  9
$DIMARCSYM
 70
     0
  9
$DIMLTYPE
  6

  9
$DIMLTEX1
  6

  9
$DIMLTEX2
  6

  9
$DIMTXTDIRECTION
 70
     0
  9
$LUNITS
 70
     2
  9
$LUPREC
 70
     4
  9
$SKETCHINC
 40
0.1
  9
$FILLETRAD
 40
0.0
  9
$AUNITS
 70
     0
  9
$AUPREC
 70
     0
  9
$MENU
  1
.
  9
$ELEVATION
 40
0.0
  9
$PELEVATION
 40
0.0
  9
$THICKNESS
 40
0.0
  9
$LIMCHECK
 70
     0
  9
$CHAMFERA
 40
0.0
  9
$CHAMFERB
 40
0.0
  9
$CHAMFERC
 40
0.0
  9
$CHAMFERD
 40
0.0
  9
$SKPOLY
 70
     0
  9
$TDCREATE
 40
2458446.405227107
  9
$TDUCREATE
 40
2458446.321893773
  9
$TDUPDATE
 40
2458977.436184352
  9
$TDUUPDATE
 40
2458977.352851019
  9
$TDINDWG
 40
0.0289560995
  9
$TDUSRTIMER
 40
0.0289550463
  9
$USRTIMER
 70
     1
  9
$ANGBASE
 50
0.0
  9
$ANGDIR
 70
     0
  9
$PDMODE
 70
     3
  9
$PDSIZE
 40
0.3125
  9
$PLINEWID
 40
0.0
  9
$SPLFRAME
 70
     0
  9
$SPLINETYPE
 70
     6
  9
$SPLINESEGS
 70
     8
  9
$HANDSEED
  5
22121
  9
$SURFTAB1
 70
     6
  9
$SURFTAB2
 70
     6
  9
$SURFTYPE
 70
     6
  9
$SURFU
 70
     6
  9
$SURFV
 70
     6
  9
$UCSBASE
  2

  9
$UCSNAME
  2

  9
$UCSORG
 10
0.0
 20
0.0
 30
0.0
  9
$UCSXDIR
 10
1.0
 20
0.0
 30
0.0
  9
$UCSYDIR
 10
0.0
 20
1.0
 30
0.0
  9
$UCSORTHOREF
  2

  9
$UCSORTHOVIEW
 70
     0
  9
$UCSORGTOP
 10
0.0
 20
0.0
 30
0.0
  9
$UCSORGBOTTOM
 10
0.0
 20
0.0
 30
0.0
  9
$UCSORGLEFT
 10
0.0
 20
0.0
 30
0.0
  9
$UCSORGRIGHT
 10
0.0
 20
0.0
 30
0.0
  9
$UCSORGFRONT
 10
0.0
 20
0.0
 30
0.0
  9
$UCSORGBACK
 10
0.0
 20
0.0
 30
0.0
  9
$PUCSBASE
  2

  9
$PUCSNAME
  2

  9
$PUCSORG
 10
0.0
 20
0.0
 30
0.0
  9
$PUCSXDIR
 10
1.0
 20
0.0
 30
0.0
  9
$PUCSYDIR
 10
0.0
 20
1.0
 30
0.0
  9
$PUCSORTHOREF
  2

  9
$PUCSORTHOVIEW
 70
     0
  9
$PUCSORGTOP
 10
0.0
 20
0.0
 30
0.0
  9
$PUCSORGBOTTOM
 10
0.0
 20
0.0
 30
0.0
  9
$PUCSORGLEFT
 10
0.0
 20
0.0
 30
0.0
  9
$PUCSORGRIGHT
 10
0.0
 20
0.0
 30
0.0
  9
$PUCSORGFRONT
 10
0.0
 20
0.0
 30
0.0
  9
$PUCSORGBACK
 10
0.0
 20
0.0
 30
0.0
  9
$USERI1
 70
     0
  9
$USERI2
 70
     0
  9
$USERI3
 70
     0
  9
$USERI4
 70
     0
  9
$USERI5
 70
     0
  9
$USERR1
 40
0.0
  9
$USERR2
 40
0.0
  9
$USERR3
 40
0.0
  9
$USERR4
 40
0.0
  9
$USERR5
 40
0.0
  9
$WORLDVIEW
 70
     1
  9
$SHADEDGE
 70
     3
  9
$SHADEDIF
 70
    70
  9
$TILEMODE
 70
     1
  9
$MAXACTVP
 70
    64
  9
$PINSBASE
 10
0.0
 20
0.0
 30
0.0
  9
$PLIMCHECK
 70
     0
  9
$PEXTMIN
 10
28.69141678810127
 20
19.6363175392151
 30
0.0
  9
$PEXTMAX
 10
258.2227510929107
 20
176.7268578529358
 30
0.0
  9
$PLIMMIN
 10
-5.027069091796875
 20
-6.805083274841307
  9
$PLIMMAX
 10
291.9412536621094
 20
203.1682443618775
  9
$UNITMODE
 70
     0
  9
$VISRETAIN
 70
     1
  9
$PLINEGEN
 70
     0
  9
$PSLTSCALE
 70
     1
  9
$TREEDEPTH
 70
  3020
  9
$CMLSTYLE
  2
STANDARD
  9
$CMLJUST
 70
     0
  9
$CMLSCALE
 40
1.0
  9
$PROXYGRAPHICS
 70
     1
  9
$MEASUREMENT
 70
     1
  9
$CELWEIGHT
370
    -1
  9
$ENDCAPS
280
     0
  9
$JOINSTYLE
280
     0
  9
$LWDISPLAY
290
     0
  9
$INSUNITS
 70
     0
  9
$HYPERLINKBASE
  1

  9
$STYLESHEET
  1
A1-A2.CTB
  9
$XEDIT
290
     1
  9
$CEPSNTYPE
380
     0
  9
$PSTYLEMODE
290
     1
  9
$FINGERPRINTGUID
  2
{6D3BC7B5-ACA7-406D-8A0D-A7DBBE093430}
  9
$VERSIONGUID
  2
{5BD8C1CD-5211-4979-B45F-1803EBF9F62D}
  9
$EXTNAMES
290
     1
  9
$PSVPSCALE
 40
0.0
  9
$OLESTARTUP
290
     0
  9
$SORTENTS
280
   127
  9
$INDEXCTL
280
     0
  9
$HIDETEXT
280
     0
  9
$XCLIPFRAME
280
     2
  9
$HALOGAP
280
     0
  9
$OBSCOLOR
 70
   257
  9
$OBSLTYPE
280
     0
  9
$INTERSECTIONDISPLAY
280
     0
  9
$INTERSECTIONCOLOR
 70
   257
  9
$DIMASSOC
280
     1
  9
$PROJECTNAME
  1

  9
$CAMERADISPLAY
290
     0
  9
$LENSLENGTH
 40
50.0
  9
$CAMERAHEIGHT
 40
0.0
  9
$STEPSPERSEC
 40
2.0
  9
$STEPSIZE
 40
6.0
  9
$3DDWFPREC
 40
2.0
  9
$PSOLWIDTH
 40
0.25
  9
$PSOLHEIGHT
 40
4.0
  9
$LOFTANG1
 40
1.570796326794896
  9
$LOFTANG2
 40
1.570796326794896
  9
$LOFTMAG1
 40
0.0
  9
$LOFTMAG2
 40
0.0
  9
$LOFTPARAM
 70
     7
  9
$LOFTNORMALS
280
     1
  9
$LATITUDE
 40
37.795
  9
$LONGITUDE
 40
-122.394
  9
$NORTHDIRECTION
 40
0.0
  9
$TIMEZONE
 70
 -8000
  9
$LIGHTGLYPHDISPLAY
280
     1
  9
$TILEMODELIGHTSYNCH
280
     1
  9
$CMATERIAL
347
318C
  9
$SOLIDHIST
280
     0
  9
$SHOWHIST
280
     1
  9
$DWFFRAME
280
     2
  9
$DGNFRAME
280
     0
  9
$REALWORLDSCALE
290
     1
  9
$INTERFERECOLOR
 62
     1
  9
$INTERFEREOBJVS
345
3199
  9
$INTERFEREVPVS
346
1B2E3
  9
$CSHADOW
280
     0
  9
$SHADOWPLANELOCATION
 40
0.0
  0
ENDSEC
  0
SECTION
  2
CLASSES
  0
CLASS
  1
ACDBDICTIONARYWDFLT
  2
AcDbDictionaryWithDefault
  3
ObjectDBX Classes
 90
        0
 91
        1
280
     0
281
     0
  0
CLASS
  1
MATERIAL
  2
AcDbMaterial
  3
ObjectDBX Classes
 90
     1153
 91
        3
280
     0
281
     0
  0
CLASS
  1
VISUALSTYLE
  2
AcDbVisualStyle
  3
ObjectDBX Classes
 90
     4095
 91
       26
280
     0
281
     0
  0
CLASS
  1
TABLESTYLE
  2
AcDbTableStyle
  3
ObjectDBX Classes
 90
     4095
 91
        1
280
     0
281
     0
  0
CLASS
  1
SORTENTSTABLE
  2
AcDbSortentsTable
  3
ObjectDBX Classes
 90
        0
 91
        2
280
     0
281
     0
  0
CLASS
  1
DICTIONARYVAR
  2
AcDbDictionaryVar
  3
ObjectDBX Classes
 90
        0
 91
       13
280
     0
281
     0
  0
CLASS
  1
EXACXREFPANELOBJECT
  2
ExAcXREFPanelObject
  3
EXAC_ESW
 90
     1025
 91
        0
280
     1
281
     0
  0
CLASS
  1
NPOCOLLECTION
  2
AcDbImpNonPersistentObjectsCollection
  3
ObjectDBX Classes
 90
     1153
 91
        0
280
     1
281
     0
  0
CLASS
  1
SCALE
  2
AcDbScale
  3
ObjectDBX Classes
 90
     1153
 91
       33
280
     0
281
     0
  0
CLASS
  1
MLEADERSTYLE
  2
AcDbMLeaderStyle
  3
ACDB_MLEADERSTYLE_CLASS
 90
     4095
 91
        1
280
     0
281
     0
  0
CLASS
  1
ACDBSECTIONVIEWSTYLE
  2
AcDbSectionViewStyle
  3
ObjectDBX Classes
 90
     1025
 91
        2
280
     0
281
     0
  0
CLASS
  1
ACDBDETAILVIEWSTYLE
  2
AcDbDetailViewStyle
  3
ObjectDBX Classes
 90
     1025
 91
        2
280
     0
281
     0
  0
CLASS
  1
CELLSTYLEMAP
  2
AcDbCellStyleMap
  3
ObjectDBX Classes
 90
     1152
 91
        2
280
     0
281
     0
  0
CLASS
  1
ACAD_EVALUATION_GRAPH
  2
AcDbEvalGraph
  3
ObjectDBX Classes
 90
     1153
 91
        0
280
     0
281
     0
  0
CLASS
  1
ACAECUSTOBJ
  2
AcAeEditorObj
  3
AcAeEditorObj
 90
     1024
 91
        0
280
     0
281
     0
  0
CLASS
  1
ACDB_DYNAMICBLOCKPURGEPREVENTER_VERSION
  2
AcDbDynamicBlockPurgePreventer
  3
ObjectDBX Classes
 90
     1153
 91
        0
280
     0
281
     0
  0
CLASS
  1
FIELD
  2
AcDbField
  3
ObjectDBX Classes
 90
     1152
 91
        0
280
     0
281
     0
  0
CLASS
  1
FIELDLIST
  2
AcDbFieldList
  3
ObjectDBX Classes
 90
     1152
 91
        1
280
     0
281
     0
  0
CLASS
  1
ACDB_ALDIMOBJECTCONTEXTDATA_CLASS
  2
AcDbAlignedDimensionObjectContextData
  3
ObjectDBX Classes
 90
     1153
 91
        0
280
     0
281
     0
  0
ENDSEC
  0
SECTION
  2
TABLES
  0
TABLE
  2
VPORT
  5
8
330
0
100
AcDbSymbolTable
 70
     1
  0
VPORT
  5
1F4
330
8
100
AcDbSymbolTableRecord
100
AcDbViewportTableRecord
  2
*ACTIVE
 70
     0
 10
0.0
 20
0.0
 11
1.0
 21
1.0
 12
-20.21621633113381
 22
0.3194966737873415
 13
0.0
 23
0.0
 14
1.0
 24
1.0
 15
0.0
 25
0.0
 16
0.0
 26
0.0
 36
1.0
 17
0.0
 27
0.0
 37
0.0
 40
118.9983010506271
 41
2.698140200286123
 42
50.0
 43
0.0
 44
0.0
 50
0.0
 51
0.0
 71
     0
 72
  2000
 73
     1
 74
     1
 75
     0
 76
     0
 77
     0
 78
     0
281
     0
 65
     1
110
0.0
120
0.0
130
0.0
111
1.0
121
0.0
131
0.0
112
0.0
122
1.0
132
0.0
 79
     0
146
0.0
348
3195
 60
     3
 61
     5
292
     1
282
     1
141
0.0
142
0.0
 63
   250
421
  3355443
1001
ACAD_NAV_VCDISPLAY
1070
     3
  0
ENDTAB
  0
TABLE
  2
LTYPE
  5
5
330
0
100
AcDbSymbolTable
 70
     6
  0
LTYPE
  5
14
330
5
100
AcDbSymbolTableRecord
100
AcDbLinetypeTableRecord
  2
BYBLOCK
 70
     0
  3

 72
    65
 73
     0
 40
0.0
  0
LTYPE
  5
15
330
5
100
AcDbSymbolTableRecord
100
AcDbLinetypeTableRecord
  2
BYLAYER
 70
     0
  3

 72
    65
 73
     0
 40
0.0
  0
LTYPE
  5
16
330
5
100
AcDbSymbolTableRecord
100
AcDbLinetypeTableRecord
  2
CONTINUOUS
 70
     0
  3
Solid line
 72
    65
 73
     0
 40
0.0
  0
LTYPE
  5
9C48
330
5
100
AcDbSymbolTableRecord
100
AcDbLinetypeTableRecord
  2
CENTER
 70
     0
  3
____ _ ____ _ ____ _ ____ _ ____ _ ____ _ ____
 72
    65
 73
     4
 40
0.6
 49
0.375
 74
     0
 49
-0.075
 74
     0
 49
0.075
 74
     0
 49
-0.075
 74
     0
  0
LTYPE
  5
20A82
330
5
100
AcDbSymbolTableRecord
100
AcDbLinetypeTableRecord
  2
HIDDEN
 70
     0
  3
- - - - - - - - - - - - - - - - - - - -
 72
    65
 73
     2
 40
0.2
 49
0.1
 74
     0
 49
-0.1
 74
     0
  0
LTYPE
  5
21CB4
330
5
100
AcDbSymbolTableRecord
100
AcDbLinetypeTableRecord
  2
CENTER2
 70
     0
  3
Center (.5x) ___ _ ___ _ ___ _ ___ _ ___ _ ___
 72
    65
 73
     4
 40
28.57499999999999
 49
19.05
 74
     4
 75
     0
340
0
 46
1.0
 50
0.0
 44
0.0
 45
0.0
 49
-3.174999999999998
 74
     4
 75
     0
340
0
 46
1.0
 50
0.0
 44
0.0
 45
0.0
 49
3.174999999999998
 74
     4
 75
     0
340
0
 46
1.0
 50
0.0
 44
0.0
 45
0.0
 49
-3.174999999999998
 74
     4
 75
     0
340
0
 46
1.0
 50
0.0
 44
0.0
 45
0.0
  0
ENDTAB
  0
TABLE
  2
LAYER
  5
2
102
{ACAD_XDICTIONARY
360
422A
102
}
330
0
100
AcDbSymbolTable
 70
    16
  0
LAYER
  5
10
102
{ACAD_XDICTIONARY
360
1B2F5
102
}
330
2
100
AcDbSymbolTableRecord
100
AcDbLayerTableRecord
  2
0
 70
     0
 62
     7
  6
CONTINUOUS
370
    -3
390
318A
347
318E
  0
LAYER
  5
3F8C
102
{ACAD_XDICTIONARY
360
1B2F7
102
}
330
2
100
AcDbSymbolTableRecord
100
AcDbLayerTableRecord
  2
1
 70
     0
 62
     4
  6
BYBLOCK
370
    50
390
318A
347
318E
  0
LAYER
  5
3FA7
330
2
100
AcDbSymbolTableRecord
100
AcDbLayerTableRecord
  2
Defpoints
 70
     0
 62
     7
  6
CONTINUOUS
290
     0
370
    -3
390
318A
347
318E
  0
LAYER
  5
9C4A
102
{ACAD_XDICTIONARY
360
1B2F9
102
}
330
2
100
AcDbSymbolTableRecord
100
AcDbLayerTableRecord
  2
2
 70
     0
 62
     7
  6
BYBLOCK
370
    25
390
318A
347
318E
  0
LAYER
  5
9C4B
102
{ACAD_XDICTIONARY
360
1B2FB
102
}
330
2
100
AcDbSymbolTableRecord
100
AcDbLayerTableRecord
  2
4
 70
     0
 62
     2
  6
CENTER
370
    25
390
318A
347
318E
  0
LAYER
  5
9C4D
102
{ACAD_XDICTIONARY
360
1B2FD
102
}
330
2
100
AcDbSymbolTableRecord
100
AcDbLayerTableRecord
  2
CUT
 70
     0
 62
     1
  6
BYBLOCK
370
    25
390
318A
347
318E
  0
LAYER
  5
9C4E
102
{ACAD_XDICTIONARY
360
1B2FF
102
}
330
2
100
AcDbSymbolTableRecord
100
AcDbLayerTableRecord
  2
NOCUT
 70
     0
 62
     7
  6
BYBLOCK
370
    25
390
318A
347
318E
  0
LAYER
  5
9C4F
102
{ACAD_XDICTIONARY
360
1B301
102
}
330
2
100
AcDbSymbolTableRecord
100
AcDbLayerTableRecord
  2
SK2
 70
     0
 62
     7
  6
BYBLOCK
370
    25
390
318A
347
318E
  0
LAYER
  5
9C50
102
{ACAD_XDICTIONARY
360
1B303
102
}
330
2
100
AcDbSymbolTableRecord
100
AcDbLayerTableRecord
  2
SK1
 70
     0
 62
     4
  6
BYBLOCK
370
    50
390
318A
347
318E
  0
LAYER
  5
9C51
102
{ACAD_XDICTIONARY
360
1B305
102
}
330
2
100
AcDbSymbolTableRecord
100
AcDbLayerTableRecord
  2
SK4
 70
     0
 62
     2
  6
CENTER
370
    25
390
318A
347
318E
  0
LAYER
  5
13335
102
{ACAD_XDICTIONARY
360
1B307
102
}
330
2
100
AcDbSymbolTableRecord
100
AcDbLayerTableRecord
  2
INFTOTAL
 70
     0
 62
     9
  6
BYBLOCK
370
    18
390
318A
347
318E
1001
AcAecLayerStandard
1000

1000

  0
LAYER
  5
1686E
102
{ACAD_XDICTIONARY
360
1B309
102
}
330
2
100
AcDbSymbolTableRecord
100
AcDbLayerTableRecord
  2
SK6
 70
     0
 62
     5
  6
BYBLOCK
370
    -3
390
318A
347
318E
  0
LAYER
  5
21CB5
102
{ACAD_XDICTIONARY
360
21CB6
102
}
330
2
100
AcDbSymbolTableRecord
100
AcDbLayerTableRecord
  2
SK3
 70
     0
 62
     1
  6
HIDDEN
370
    35
390
318A
347
318E
  0
LAYER
  5
21CB7
102
{ACAD_XDICTIONARY
360
21CB8
102
}
330
2
100
AcDbSymbolTableRecord
100
AcDbLayerTableRecord
  2
SKVIEW1
 70
     0
 62
     4
  6
CONTINUOUS
370
    50
390
318A
347
318E
1001
AcAecLayerStandard
1000

1000

  0
LAYER
  5
21CB9
102
{ACAD_XDICTIONARY
360
21CBA
102
}
330
2
100
AcDbSymbolTableRecord
100
AcDbLayerTableRecord
  2
SKVIEW4
 70
     0
 62
     2
  6
CENTER2
370
    25
390
318A
347
318E
1001
AcAecLayerStandard
1000

1000

  0
ENDTAB
  0
TABLE
  2
STYLE
  5
3
330
0
100
AcDbSymbolTable
 70
     2
  0
STYLE
  5
11
330
3
100
AcDbSymbolTableRecord
100
AcDbTextStyleTableRecord
  2
STANDARD
 70
     0
 40
3.5
 41
0.8
 50
0.0
 71
     0
 42
3.5
  3
monos.ttf
  4

1001
ACAD
1000
Monospac821 BT
1071
       49
  0
ENDTAB
  0
TABLE
  2
VIEW
  5
6
330
0
100
AcDbSymbolTable
 70
     0
  0
ENDTAB
  0
TABLE
  2
UCS
  5
7
330
0
100
AcDbSymbolTable
 70
     0
  0
ENDTAB
  0
TABLE
  2
APPID
  5
9
330
0
100
AcDbSymbolTable
 70
    15
  0
APPID
  5
23B
330
9
100
AcDbSymbolTableRecord
100
AcDbRegAppTableRecord
  2
ACAD
 70
     0
  0
APPID
  5
3395
330
9
100
AcDbSymbolTableRecord
100
AcDbRegAppTableRecord
  2
ACAD_EXEMPT_FROM_CAD_STANDARDS
 70
     0
  0
APPID
  5
4229
330
9
100
AcDbSymbolTableRecord
100
AcDbRegAppTableRecord
  2
AcAecLayerStandard
 70
     0
  0
APPID
  5
9A1B
330
9
100
AcDbSymbolTableRecord
100
AcDbRegAppTableRecord
  2
ACAD_PSEXT
 70
     0
  0
APPID
  5
1B313
330
9
100
AcDbSymbolTableRecord
100
AcDbRegAppTableRecord
  2
ACAD_NAV_VCDISPLAY
 70
     0
  0
APPID
  5
1B355
330
9
100
AcDbSymbolTableRecord
100
AcDbRegAppTableRecord
  2
ACAD_MLEADERVER
 70
     0
  0
APPID
  5
1EC7F
330
9
100
AcDbSymbolTableRecord
100
AcDbRegAppTableRecord
  2
ACAUTHENVIRON
 70
     0
  0
APPID
  5
1EC82
330
9
100
AcDbSymbolTableRecord
100
AcDbRegAppTableRecord
  2
AcDbDynamicBlockTrueName
 70
     0
  0
APPID
  5
1EC83
330
9
100
AcDbSymbolTableRecord
100
AcDbRegAppTableRecord
  2
AcDbDynamicBlockGUID
 70
     0
  0
APPID
  5
20A85
330
9
100
AcDbSymbolTableRecord
100
AcDbRegAppTableRecord
  2
AcCmTransparency
 70
     0
  0
APPID
  5
20AE2
330
9
100
AcDbSymbolTableRecord
100
AcDbRegAppTableRecord
  2
ACAD_DSTYLE_DIMRADIAL_EXTENSION
 70
     0
  0
APPID
  5
20CB0
330
9
100
AcDbSymbolTableRecord
100
AcDbRegAppTableRecord
  2
AcadAnnotative
 70
     0
  0
APPID
  5
21667
330
9
100
AcDbSymbolTableRecord
100
AcDbRegAppTableRecord
  2
AcadAnnoMonitorAlertIconDisabled
 70
     0
  0
APPID
  5
21CBD
330
9
100
AcDbSymbolTableRecord
100
AcDbRegAppTableRecord
  2
ACAD_DSTYLE_DIMJAG
 70
     0
  0
APPID
  5
21CBE
330
9
100
AcDbSymbolTableRecord
100
AcDbRegAppTableRecord
  2
ACAD_DSTYLE_DIMTALN
 70
     0
  0
ENDTAB
  0
TABLE
  2
DIMSTYLE
  5
A
330
0
100
AcDbSymbolTable
 70
     3
100
AcDbDimStyleTable
 71
     1
340
243
  0
DIMSTYLE
105
243
102
{ACAD_REACTORS
330
21DF7
330
21DF6
330
21DF5
330
21DF4
330
21F12
102
}
330
A
100
AcDbSymbolTableRecord
100
AcDbDimStyleTableRecord
  2
STANDARD
 70
     0
 41
4.57
 47
0.01
 48
0.01
 73
     0
 74
     0
 77
     1
 78
     8
140
3.5
271
     3
272
     3
284
     8
289
     0
340
11
  0
ENDTAB
  0
TABLE
  2
BLOCK_RECORD
  5
1
330
0
100
AcDbSymbolTable
 70
    18
  0
BLOCK_RECORD
  5
1F
102
{ACAD_XDICTIONARY
360
339C
102
}
330
1
100
AcDbSymbolTableRecord
100
AcDbBlockTableRecord
  2
*MODEL_SPACE
340
31A6
 70
     0
280
     1
281
     0
  0
BLOCK_RECORD
  5
1B
330
1
100
AcDbSymbolTableRecord
100
AcDbBlockTableRecord
  2
*PAPER_SPACE
340
31A7
 70
     0
280
     1
281
     0
  0
BLOCK_RECORD
  5
1B3D7
102
{ACAD_XDICTIONARY
360
1DE81
102
}
330
1
100
AcDbSymbolTableRecord
100
AcDbBlockTableRecord
  2
cero_point
340
0
310
28000000200000002000000001002000000000000010000001000000010000000000000000000000302821FF302821FF302821FF302821FF302821FF302821FF302821FF302821FF302821FF302821FF302821FF302821FF302821FF302821FF302821FF302821FF302821FF302821FF302821FF302821FF302821FF302821
310
FF302821FF302821FF302821FF302821FF302821FF302821FF302821FF302821FF302821FF302821FF302821FF302821FF302821FF302821FF302821FF302821FF302821FF302821FF302821FF302821FF302821FF302821FF302821FF302821FF302821FFFFFF00FFFFFF00FFFFFF00FF302821FF302821FF302821FF3028
310
21FF302821FF302821FF302821FF302821FF302821FF302821FF302821FF302821FF302821FF302821FF302821FF302821FF302821FF302821FF302821FF302821FF302821FF302821FF302821FF302821FFFFFF00FFFFFF00FFFFFF00FFFFFF00FFFFFF00FFFFFF00FFFFFF00FF302821FFFFFF00FFFFFF00FFFFFF00FF30
310
2821FF302821FF302821FF302821FF302821FF302821FF302821FF302821FF302821FF302821FF302821FF302821FF302821FF302821FF302821FF302821FF302821FF302821FF302821FFFFFF00FFFFFF00FFFFFF00FFFFFF00FFFFFF00FFFFFF00FFFFFF00FFFFFF00FFFFFF00FF302821FF302821FF302821FF302821FF
310
FFFF00FFFFFF00FF302821FF302821FF302821FF302821FF302821FF302821FF302821FF302821FF302821FF302821FF302821FF302821FF302821FF302821FF302821FF302821FFFFFF00FFFFFF00FFFFFF00FFFFFF00FFFFFF00FFFFFF00FFFFFF00FFFFFF00FFFFFF00FFFFFF00FF302821FF302821FF302821FF302821
310
FF302821FF302821FFFFFF00FFFFFF00FF302821FF302821FF302821FF302821FF302821FF302821FF302821FF302821FF302821FF302821FF302821FF302821FF302821FFFFFF00FFFFFF00FFFFFF00FFFFFF00FFFFFF00FFFFFF00FFFFFF00FFFFFF00FFFFFF00FFFFFF00FFFFFF00FF302821FF302821FF302821FF3028
310
21FF302821FF302821FF302821FF302821FFFFFF00FF302821FF302821FF302821FF302821FF302821FF302821FF302821FF302821FF302821FF302821FF302821FFFFFF00FFFFFF00FFFFFF00FFFFFF00FFFFFF00FFFFFF00FFFFFF00FFFFFF00FFFFFF00FFFFFF00FFFFFF00FFFFFF00FF302821FF302821FF302821FF30
310
2821FF302821FF302821FF302821FF302821FF302821FFFFFF00FF302821FF302821FF302821FF302821FF302821FF302821FF302821FF302821FF302821FFFFFF00FFFFFF00FFFFFF00FFFFFF00FFFFFF00FFFFFF00FFFFFF00FFFFFF00FFFFFF00FFFFFF00FFFFFF00FFFFFF00FFFFFF00FF302821FF302821FF302821FF
310
302821FF302821FF302821FF302821FF302821FF302821FF302821FFFFFF00FF302821FF302821FF302821FF302821FF302821FF302821FF302821FFFFFF00FFFFFF00FFFFFF00FFFFFF00FFFFFF00FFFFFF00FFFFFF00FFFFFF00FFFFFF00FFFFFF00FFFFFF00FFFFFF00FFFFFF00FFFFFF00FF302821FF302821FF302821
310
FF302821FF302821FF302821FF302821FF302821FF302821FF302821FFFFFF00FF302821FF302821FF302821FF302821FF302821FF302821FF302821FFFFFF00FFFFFF00FFFFFF00FFFFFF00FFFFFF00FFFFFF00FFFFFF00FFFFFF00FFFFFF00FFFFFF00FFFFFF00FFFFFF00FFFFFF00FFFFFF00FF302821FF302821FF3028
310
21FF302821FF302821FF302821FF302821FF302821FF302821FF302821FF302821FFFFFF00FF302821FF302821FF302821FF302821FF302821FFFFFF00FFFFFF00FFFFFF00FFFFFF00FFFFFF00FFFFFF00FFFFFF00FFFFFF00FFFFFF00FFFFFF00FFFFFF00FFFFFF00FFFFFF00FFFFFF00FFFFFF00FF302821FF302821FF30
310
2821FF302821FF302821FF302821FF302821FF302821FF302821FF302821FF302821FF302821FFFFFF00FF302821FF302821FF302821FF302821FFFFFF00FFFFFF00FFFFFF00FFFFFF00FFFFFF00FFFFFF00FFFFFF00FFFFFF00FFFFFF00FFFFFF00FFFFFF00FFFFFF00FFFFFF00FFFFFF00FFFFFF00FF302821FF302821FF
310
302821FF302821FF302821FF302821FF302821FF302821FF302821FF302821FF302821FF302821FFFFFF00FF302821FF302821FF302821FF302821FFFFFF00FFFFFF00FFFFFF00FFFFFF00FFFFFF00FFFFFF00FFFFFF00FFFFFF00FFFFFF00FFFFFF00FFFFFF00FFFFFF00FFFFFF00FFFFFF00FFFFFF00FF302821FF302821
310
FF302821FF302821FF302821FF302821FF302821FF302821FF302821FF302821FF302821FF302821FFFFFF00FF302821FF302821FF302821FF302821FFFFFF00FFFFFF00FFFFFF00FFFFFF00FFFFFF00FFFFFF00FFFFFF00FFFFFF00FFFFFF00FFFFFF00FFFFFF00FFFFFF00FFFFFF00FFFFFF00FFFFFF00FF302821FF3028
310
21FF302821FF302821FF302821FF302821FF302821FF302821FF302821FF302821FF302821FF302821FFFFFF00FF302821FF302821FF302821FFFFFF00FFFFFF00FFFFFF00FFFFFF00FFFFFF00FFFFFF00FFFFFF00FFFFFF00FFFFFF00FFFFFF00FFFFFF00FFFFFF00FFFFFF00FFFFFF00FFFFFF00FFFFFF00FF302821FF30
310
2821FF302821FF302821FF302821FF302821FF302821FF302821FF302821FF302821FF302821FF302821FF302821FFFFFF00FF302821FF302821FFFFFF00FFFFFF00FFFFFF00FFFFFF00FFFFFF00FFFFFF00FFFFFF00FFFFFF00FFFFFF00FFFFFF00FFFFFF00FFFFFF00FFFFFF00FFFFFF00FFFFFF00FFFFFF00FFFFFF00FF
310
FFFF00FFFFFF00FFFFFF00FFFFFF00FFFFFF00FFFFFF00FFFFFF00FFFFFF00FFFFFF00FFFFFF00FFFFFF00FFFFFF00FFFFFF00FF302821FF302821FFFFFF00FF302821FF302821FF302821FF302821FF302821FF302821FF302821FF302821FF302821FF302821FF302821FF302821FF302821FF302821FFFFFF00FFFFFF00
310
FFFFFF00FFFFFF00FFFFFF00FFFFFF00FFFFFF00FFFFFF00FFFFFF00FFFFFF00FFFFFF00FFFFFF00FFFFFF00FFFFFF00FFFFFF00FF302821FF302821FFFFFF00FF302821FF302821FF302821FF302821FF302821FF302821FF302821FF302821FF302821FF302821FF302821FF302821FF302821FF302821FFFFFF00FFFFFF
310
00FFFFFF00FFFFFF00FFFFFF00FFFFFF00FFFFFF00FFFFFF00FFFFFF00FFFFFF00FFFFFF00FFFFFF00FFFFFF00FFFFFF00FF302821FF302821FF302821FF302821FFFFFF00FF302821FF302821FF302821FF302821FF302821FF302821FF302821FF302821FF302821FF302821FF302821FF302821FF302821FFFFFF00FFFF
310
FF00FFFFFF00FFFFFF00FFFFFF00FFFFFF00FFFFFF00FFFFFF00FFFFFF00FFFFFF00FFFFFF00FFFFFF00FFFFFF00FFFFFF00FF302821FF302821FF302821FF302821FFFFFF00FF302821FF302821FF302821FF302821FF302821FF302821FF302821FF302821FF302821FF302821FF302821FF302821FF302821FFFFFF00FF
310
FFFF00FFFFFF00FFFFFF00FFFFFF00FFFFFF00FFFFFF00FFFFFF00FFFFFF00FFFFFF00FFFFFF00FFFFFF00FFFFFF00FFFFFF00FF302821FF302821FF302821FF302821FFFFFF00FF302821FF302821FF302821FF302821FF302821FF302821FF302821FF302821FF302821FF302821FF302821FF302821FF302821FFFFFF00
310
FFFFFF00FFFFFF00FFFFFF00FFFFFF00FFFFFF00FFFFFF00FFFFFF00FFFFFF00FFFFFF00FFFFFF00FFFFFF00FFFFFF00FFFFFF00FF302821FF302821FF302821FF302821FF302821FFFFFF00FF302821FF302821FF302821FF302821FF302821FF302821FF302821FF302821FF302821FF302821FF302821FF302821FFFFFF
310
00FFFFFF00FFFFFF00FFFFFF00FFFFFF00FFFFFF00FFFFFF00FFFFFF00FFFFFF00FFFFFF00FFFFFF00FFFFFF00FFFFFF00FFFFFF00FF302821FF302821FF302821FF302821FF302821FFFFFF00FF302821FF302821FF302821FF302821FF302821FF302821FF302821FF302821FF302821FF302821FF302821FF302821FFFF
310
FF00FFFFFF00FFFFFF00FFFFFF00FFFFFF00FFFFFF00FFFFFF00FFFFFF00FFFFFF00FFFFFF00FFFFFF00FFFFFF00FFFFFF00FF302821FF302821FF302821FF302821FF302821FF302821FF302821FFFFFF00FF302821FF302821FF302821FF302821FF302821FF302821FF302821FF302821FF302821FF302821FF302821FF
310
FFFF00FFFFFF00FFFFFF00FFFFFF00FFFFFF00FFFFFF00FFFFFF00FFFFFF00FFFFFF00FFFFFF00FFFFFF00FFFFFF00FFFFFF00FF302821FF302821FF302821FF302821FF302821FF302821FF302821FFFFFF00FF302821FF302821FF302821FF302821FF302821FF302821FF302821FF302821FF302821FF302821FF302821
310
FFFFFF00FFFFFF00FFFFFF00FFFFFF00FFFFFF00FFFFFF00FFFFFF00FFFFFF00FFFFFF00FFFFFF00FFFFFF00FFFFFF00FF302821FF302821FF302821FF302821FF302821FF302821FF302821FF302821FF302821FFFFFF00FF302821FF302821FF302821FF302821FF302821FF302821FF302821FF302821FF302821FF3028
310
21FFFFFF00FFFFFF00FFFFFF00FFFFFF00FFFFFF00FFFFFF00FFFFFF00FFFFFF00FFFFFF00FFFFFF00FFFFFF00FF302821FF302821FF302821FF302821FF302821FF302821FF302821FF302821FF302821FF302821FF302821FFFFFF00FF302821FF302821FF302821FF302821FF302821FF302821FF302821FF302821FF30
310
2821FFFFFF00FFFFFF00FFFFFF00FFFFFF00FFFFFF00FFFFFF00FFFFFF00FFFFFF00FFFFFF00FFFFFF00FF302821FF302821FF302821FF302821FF302821FF302821FF302821FF302821FF302821FF302821FF302821FF302821FF302821FFFFFF00FF302821FF302821FF302821FF302821FF302821FF302821FF302821FF
310
302821FFFFFF00FFFFFF00FFFFFF00FFFFFF00FFFFFF00FFFFFF00FFFFFF00FFFFFF00FFFFFF00FF302821FF302821FF302821FF302821FF302821FF302821FF302821FF302821FF302821FF302821FF302821FF302821FF302821FF302821FF302821FFFFFF00FFFFFF00FF302821FF302821FF302821FF302821FF302821
310
FF302821FFFFFF00FFFFFF00FFFFFF00FFFFFF00FFFFFF00FFFFFF00FFFFFF00FFFFFF00FF302821FF302821FF302821FF302821FF302821FF302821FF302821FF302821FF302821FF302821FF302821FF302821FF302821FF302821FF302821FF302821FF302821FF302821FFFFFF00FFFFFF00FFFFFF00FFFFFF00FFFFFF
310
00FF302821FFFFFF00FFFFFF00FFFFFF00FFFFFF00FFFFFF00FFFFFF00FF302821FF302821FF302821FF302821FF302821FF302821FF302821FF302821FF302821FF302821FF302821FF302821FF302821FF302821FF302821FF302821FF302821FF302821FF302821FF302821FF302821FF302821FF302821FF302821FF30
310
2821FFFFFF00FFFFFF00FFFFFF00FF302821FF302821FF302821FF302821FF302821FF302821FF302821FF302821FF302821FF302821FF302821FF302821FF302821FF302821FF302821FF302821FF302821FF302821FF302821FF302821FF302821FF302821FF302821FF302821FF302821FF302821FF302821FF302821FF
310
302821FF302821FF302821FF302821FF302821FF302821FF302821FF302821FF302821FF302821FF302821FF302821FF302821FF302821FF302821FF302821FF302821FF302821FF
102
{BLKREFS
331
21DEC
102
}
 70
     0
280
     1
281
     1
  0
BLOCK_RECORD
  5
21F13
330
1
100
AcDbSymbolTableRecord
100
AcDbBlockTableRecord
  2
*D12
340
0
 70
     0
280
     1
281
     0
  0
BLOCK_RECORD
  5
21F1F
330
1
100
AcDbSymbolTableRecord
100
AcDbBlockTableRecord
  2
*D13
340
0
 70
     0
280
     1
281
     0
  0
BLOCK_RECORD
  5
21F2B
330
1
100
AcDbSymbolTableRecord
100
AcDbBlockTableRecord
  2
*D14
340
0
 70
     0
280
     1
281
     0
  0
BLOCK_RECORD
  5
21F37
330
1
100
AcDbSymbolTableRecord
100
AcDbBlockTableRecord
  2
*D15
340
0
 70
     0
280
     1
281
     0
  0
BLOCK_RECORD
  5
21F45
330
1
100
AcDbSymbolTableRecord
100
AcDbBlockTableRecord
  2
*D16
340
0
 70
     0
280
     1
281
     0
  0
ENDTAB
  0
ENDSEC
  0
SECTION
  2
BLOCKS
  0
BLOCK
  5
20
330
1F
100
AcDbEntity
  8
0
100
AcDbBlockBegin
  2
*MODEL_SPACE
 70
     0
 10
0.0
 20
0.0
 30
0.0
  3
*MODEL_SPACE
  1

  0
ENDBLK
  5
21
330
1F
100
AcDbEntity
  8
0
100
AcDbBlockEnd
  0
BLOCK
  5
1C
330
1B
100
AcDbEntity
 67
     1
  8
0
100
AcDbBlockBegin
  2
*PAPER_SPACE
 70
     0
 10
0.0
 20
0.0
 30
0.0
  3
*PAPER_SPACE
  1

  0
ENDBLK
  5
1D
330
1B
100
AcDbEntity
 67
     1
  8
0
100
AcDbBlockEnd
  0
BLOCK
  5
1B3D8
330
1B3D7
100
AcDbEntity
  8
0
100
AcDbBlockBegin
  2
cero_point
 70
     0
 10
0.0
 20
0.0
 30
0.0
  3
cero_point
  1

  0
HATCH
  5
1B3DA
330
1B3D7
100
AcDbEntity
  8
1
  6
ByBlock
370
    50
100
AcDbHatch
 10
0.0
 20
0.0
 30
0.0
210
0.0
220
0.0
230
1.0
  2
SOLID
 70
     1
 71
     0
 91
        2
 92
        7
 72
     1
 73
     1
 93
        3
 10
-0.0000000000001137
 20
0.0
 42
0.0
 10
-2.950972054112752
 20
0.0
 42
0.4142135623730968
 10
-0.0000000000001137
 20
-2.950972054112583
 42
0.0
 97
        0
 92
        7
 72
     1
 73
     1
 93
        3
 10
-0.0000000000001137
 20
2.950972054112638
 42
0.0
 10
-0.0000000000001137
 20
0.0
 42
0.0
 10
2.950972054112526
 20
0.0
 42
0.4142135623730966
 97
        0
 75
     0
 76
     1
 47
0.1190009775223266
 98
        2
 10
-0.7445530588121301
 20
-0.9212244733764125
 10
1.279464601852737
 20
1.696796923046345
450
        0
451
        0
460
0.0
461
0.0
452
        0
462
0.0
453
        0
470

  0
LWPOLYLINE
  5
1B3DB
330
1B3D7
100
AcDbEntity
  8
1
  6
ByBlock
370
    50
100
AcDbPolyline
 90
        3
 70
     1
 43
0.0
 10
-0.0000000000001137
 20
0.0
 10
2.950972054112526
 20
0.0
 42
0.4142135623730966
 10
-0.0000000000001137
 20
2.950972054112638
  0
LINE
  5
1B3DC
330
1B3D7
100
AcDbEntity
  8
1
  6
ByBlock
370
    50
100
AcDbLine
 10
-0.0000000000001137
 20
-2.950972054112583
 30
0.0
 11
-0.0000000000001137
 21
2.950972054112638
 31
0.0
  0
LWPOLYLINE
  5
1B3DD
330
1B3D7
100
AcDbEntity
  8
1
  6
ByBlock
370
    50
100
AcDbPolyline
 90
        3
 70
     1
 43
0.0
 10
-0.0000000000001137
 20
-2.950972054112583
 10
-0.0000000000001137
 20
0.0
 10
-2.950972054112752
 20
0.0
 42
0.4142135623730966
  0
LINE
  5
1B3DE
330
1B3D7
100
AcDbEntity
  8
1
  6
ByBlock
370
    50
100
AcDbLine
 10
2.950972054112638
 20
0.0
 30
0.0
 11
-2.950972054112638
 21
0.0
 31
0.0
  0
CIRCLE
  5
1B3DF
330
1B3D7
100
AcDbEntity
  8
1
  6
ByBlock
370
    50
100
AcDbCircle
 10
-0.0000000000001137
 20
0.0
 30
0.0
 40
2.950972054112601
  0
ENDBLK
  5
1B3D9
330
1B3D7
100
AcDbEntity
  8
0
100
AcDbBlockEnd
  0
BLOCK
  5
21F14
330
21F13
100
AcDbEntity
  8
0
100
AcDbBlockBegin
  2
*D12
 70
     1
 10
0.0
 20
0.0
 30
0.0
  3
*D12
  1

  0
LINE
  5
220B4
330
21F13
100
AcDbEntity
  8
2
 62
     0
440
 16777216
370
    -2
100
AcDbLine
 10
31.58249999999998
 20
20.49999999999998
 30
0.0
 11
65.89777926159136
 21
20.49999999999997
 31
0.0
  0
LINE
  5
220B5
330
21F13
100
AcDbEntity
  8
2
 62
     0
440
 16777216
370
    -2
100
AcDbLine
 10
31.58249999999998
 20
-20.50000000000002
 30
0.0
 11
65.89777926159138
 21
-20.50000000000003
 31
0.0
  0
LINE
  5
220B6
330
21F13
100
AcDbEntity
  8
2
 62
     0
440
 16777216
370
    -2
100
AcDbLine
 10
65.71777926159137
 20
15.92999999999997
 30
0.0
 11
65.71777926159137
 21
-15.93000000000003
 31
0.0
  0
SOLID
  5
220B7
330
21F13
100
AcDbEntity
  8
2
 62
     0
440
 16777216
100
AcDbTrace
 10
64.9561125949247
 20
15.92999999999997
 30
0.0
 11
66.47944592825805
 21
15.92999999999997
 31
0.0
 12
65.71777926159137
 22
20.49999999999997
 32
0.0
 13
65.71777926159137
 23
20.49999999999997
 33
0.0
  0
SOLID
  5
220B8
330
21F13
100
AcDbEntity
  8
2
 62
     0
440
 16777216
100
AcDbTrace
 10
64.9561125949247
 20
-15.93000000000003
 30
0.0
 11
66.47944592825805
 21
-15.93000000000003
 31
0.0
 12
65.71777926159137
 22
-20.50000000000003
 32
0.0
 13
65.71777926159137
 23
-20.50000000000003
 33
0.0
  0
MTEXT
  5
220B9
330
21F13
100
AcDbEntity
  8
2
 62
     0
440
 16777216
100
AcDbMText
 10
63.76463801071295
 20
-0.0000000000000211
 30
0.0
 40
3.5
 41
0.0
 46
0.0
 71
     5
 72
     1
  1
\A1;%%c41
 11
0.0000000000000001
 21
1.0
 31
0.0
 73
     1
 44
1.0
  0
POINT
  5
220BA
330
21F13
100
AcDbEntity
  8
Defpoints
 62
     0
440
 16777216
100
AcDbPoint
 10
31.51999999999998
 20
20.49999999999998
 30
0.0
  0
POINT
  5
220BB
330
21F13
100
AcDbEntity
  8
Defpoints
 62
     0
440
 16777216
100
AcDbPoint
 10
31.51999999999998
 20
-20.50000000000002
 30
0.0
  0
POINT
  5
220BC
330
21F13
100
AcDbEntity
  8
Defpoints
 62
     0
440
 16777216
100
AcDbPoint
 10
65.71777926159137
 20
-20.50000000000003
 30
0.0
  0
ENDBLK
  5
21F15
330
21F13
100
AcDbEntity
  8
0
100
AcDbBlockEnd
  0
BLOCK
  5
21F20
330
21F1F
100
AcDbEntity
  8
0
100
AcDbBlockBegin
  2
*D13
 70
     1
 10
0.0
 20
0.0
 30
0.0
  3
*D13
  1

  0
LINE
  5
220BD
330
21F1F
100
AcDbEntity
  8
2
 62
     0
440
 16777216
370
    -2
100
AcDbLine
 10
33.18249999999995
 20
10.44999999999991
 30
0.0
 11
51.89777926159115
 21
10.4499999999999
 31
0.0
  0
LINE
  5
220BE
330
21F1F
100
AcDbEntity
  8
2
 62
     0
440
 16777216
370
    -2
100
AcDbLine
 10
33.18249999999995
 20
-10.45000000000006
 30
0.0
 11
51.89777926159115
 21
-10.45000000000006
 31
0.0
  0
LINE
  5
220BF
330
21F1F
100
AcDbEntity
  8
2
 62
     0
440
 16777216
370
    -2
100
AcDbLine
 10
51.71777926159115
 20
5.879999999999903
 30
0.0
 11
51.71777926159115
 21
-5.880000000000065
 31
0.0
  0
SOLID
  5
220C0
330
21F1F
100
AcDbEntity
  8
2
 62
     0
440
 16777216
100
AcDbTrace
 10
50.95611259492447
 20
5.879999999999903
 30
0.0
 11
52.47944592825781
 21
5.879999999999903
 31
0.0
 12
51.71777926159115
 22
10.4499999999999
 32
0.0
 13
51.71777926159115
 23
10.4499999999999
 33
0.0
  0
SOLID
  5
220C1
330
21F1F
100
AcDbEntity
  8
2
 62
     0
440
 16777216
100
AcDbTrace
 10
50.95611259492447
 20
-5.880000000000065
 30
0.0
 11
52.47944592825781
 21
-5.880000000000065
 31
0.0
 12
51.71777926159115
 22
-10.45000000000006
 32
0.0
 13
51.71777926159115
 23
-10.45000000000006
 33
0.0
  0
MTEXT
  5
220C2
330
21F1F
100
AcDbEntity
  8
2
 62
     0
440
 16777216
100
AcDbMText
 10
49.81628945133113
 20
-0.1979951920875675
 30
0.0
 40
3.5
 41
0.0
 46
0.0
 71
     5
 72
     1
  1
\A1;20.9
 11
0.0000000000000001
 21
1.0
 31
0.0
 73
     1
 44
1.0
  0
POINT
  5
220C3
330
21F1F
100
AcDbEntity
  8
Defpoints
 62
     0
440
 16777216
100
AcDbPoint
 10
33.11999999999995
 20
10.44999999999991
 30
0.0
  0
POINT
  5
220C4
330
21F1F
100
AcDbEntity
  8
Defpoints
 62
     0
440
 16777216
100
AcDbPoint
 10
33.11999999999995
 20
-10.45000000000006
 30
0.0
  0
POINT
  5
220C5
330
21F1F
100
AcDbEntity
  8
Defpoints
 62
     0
440
 16777216
100
AcDbPoint
 10
51.71777926159115
 20
-10.45000000000006
 30
0.0
  0
ENDBLK
  5
21F21
330
21F1F
100
AcDbEntity
  8
0
100
AcDbBlockEnd
  0
BLOCK
  5
21F2C
330
21F2B
100
AcDbEntity
  8
0
100
AcDbBlockBegin
  2
*D14
 70
     1
 10
0.0
 20
0.0
 30
0.0
  3
*D14
  1

  0
LINE
  5
220C6
330
21F2B
100
AcDbEntity
  8
2
 62
     0
440
 16777216
370
    -2
100
AcDbLine
 10
0.0000020813051336
 20
20.18047399996533
 30
0.0
 11
0.0007674179647737
 21
43.16294803956409
 31
0.0
  0
LINE
  5
220C7
330
21F2B
100
AcDbEntity
  8
2
 62
     0
440
 16777216
370
    -2
100
AcDbLine
 10
37.1000020813051
 20
0.0624999999653241
 30
0.0
 11
37.10143732310338
 21
43.16171255452768
 31
0.0
  0
LINE
  5
220C8
330
21F2B
100
AcDbEntity
  8
2
 62
     0
440
 16777216
370
    -2
100
AcDbLine
 10
4.570761421272042
 20
42.98279585463252
 30
0.0
 11
32.53143133147855
 21
42.98186473965885
 31
0.0
  0
SOLID
  5
220C9
330
21F2B
100
AcDbEntity
  8
2
 62
     0
440
 16777216
100
AcDbTrace
 10
4.570786785443936
 20
43.74446252087687
 30
0.0
 11
4.570736057100147
 21
42.22112918838817
 31
0.0
 12
0.000761423805989
 22
42.98294803966389
 32
0.0
 13
0.000761423805989
 23
42.98294803966389
 33
0.0
  0
SOLID
  5
220CA
330
21F2B
100
AcDbEntity
  8
2
 62
     0
440
 16777216
100
AcDbTrace
 10
32.53145669565044
 20
43.74353140590319
 30
0.0
 11
32.53140596730665
 21
42.2201980734145
 31
0.0
 12
37.10143132894459
 22
42.98171255462748
 32
0.0
 13
37.10143132894459
 23
42.98171255462748
 33
0.0
  0
MTEXT
  5
220CB
330
21F2B
100
AcDbEntity
  8
2
 62
     0
440
 16777216
100
AcDbMText
 10
18.55023544765851
 20
44.88382013712971
 30
0.0
 40
3.5
 41
0.0
 46
0.0
 71
     5
 72
     1
  1
\A1;37.101
 11
0.9999999994455256
 21
-0.0000333008821372
 31
0.0
 73
     1
 44
1.0
  0
POINT
  5
220CC
330
21F2B
100
AcDbEntity
  8
Defpoints
 62
     0
440
 16777216
100
AcDbPoint
 10
0.0
 20
20.11797399999998
 30
0.0
  0
POINT
  5
220CD
330
21F2B
100
AcDbEntity
  8
Defpoints
 62
     0
440
 16777216
100
AcDbPoint
 10
37.09999999999997
 20
-0.0000000000000213
 30
0.0
  0
POINT
  5
220CE
330
21F2B
100
AcDbEntity
  8
Defpoints
 62
     0
440
 16777216
100
AcDbPoint
 10
37.10143132894459
 20
42.98171255462748
 30
0.0
  0
ENDBLK
  5
21F2D
330
21F2B
100
AcDbEntity
  8
0
100
AcDbBlockEnd
  0
BLOCK
  5
21F38
330
21F37
100
AcDbEntity
  8
0
100
AcDbBlockBegin
  2
*D15
 70
     1
 10
0.0
 20
0.0
 30
0.0
  3
*D15
  1

  0
LINE
  5
220CF
330
21F37
100
AcDbEntity
  8
2
 62
     0
440
 16777216
370
    -2
100
AcDbLine
 10
37.10000104065252
 20
0.062499999991315
 30
0.0
 11
37.10053551184106
 21
32.16202145469304
 31
0.0
  0
LINE
  5
220D0
330
21F37
100
AcDbEntity
  8
2
 62
     0
440
 16777216
370
    -2
100
AcDbLine
 10
32.32000104065257
 20
19.76249999999125
 30
0.0
 11
32.32020749947842
 21
32.16210104926263
 31
0.0
  0
LINE
  5
220D1
330
21F37
100
AcDbEntity
  8
2
 62
     0
440
 16777216
370
    -2
100
AcDbLine
 10
41.67053251412819
 20
31.98194536220257
 30
0.0
 11
46.24053251349471
 21
31.98186926968715
 31
0.0
  0
LINE
  5
220D2
330
21F37
100
AcDbEntity
  8
2
 62
     0
440
 16777216
370
    -2
100
AcDbLine
 10
27.75020450303253
 20
31.982177141803
 30
0.0
 11
13.75016936793862
 21
31.9824102485622
 31
0.0
  0
LINE
  5
220D3
330
21F37
100
AcDbEntity
  8
2
 62
     0
440
 16777216
370
    -2
100
AcDbLine
 10
37.10053251476168
 20
31.98202145471799
 30
0.0
 11
32.32020450239904
 21
31.98210104928758
 31
0.0
  0
SOLID
  5
220D4
330
21F37
100
AcDbEntity
  8
2
 62
     0
440
 16777216
100
AcDbTrace
 10
41.6705451962141
 20
32.74361202876365
 30
0.0
 11
41.67051983204228
 21
31.22027869564148
 31
0.0
 12
37.10053251476168
 22
31.98202145471799
 32
0.0
 13
37.10053251476168
 23
31.98202145471799
 33
0.0
  0
SOLID
  5
220D5
330
21F37
100
AcDbEntity
  8
2
 62
     0
440
 16777216
100
AcDbTrace
 10
27.75021718511843
 20
32.74384380836409
 30
0.0
 11
27.75019182094663
 21
31.22051047524192
 31
0.0
 12
32.32020450239904
 22
31.98210104928758
 32
0.0
 13
32.32020450239904
 23
31.98210104928758
 33
0.0
  0
MTEXT
  5
220D6
330
21F37
100
AcDbEntity
  8
2
 62
     0
440
 16777216
100
AcDbMText
 10
18.46521859644617
 20
33.88382155143674
 30
0.0
 40
3.5
 41
0.0
 46
0.0
 71
     5
 72
     1
  1
\A1;4.78
 11
0.9999999998613814
 21
-0.000016650441011
 31
0.0
 73
     1
 44
1.0
  0
POINT
  5
220D7
330
21F37
100
AcDbEntity
  8
Defpoints
 62
     0
440
 16777216
100
AcDbPoint
 10
37.09999999999996
 20
-0.0000000000000213
 30
0.0
  0
POINT
  5
220D8
330
21F37
100
AcDbEntity
  8
Defpoints
 62
     0
440
 16777216
100
AcDbPoint
 10
32.32
 20
19.69999999999991
 30
0.0
  0
POINT
  5
220D9
330
21F37
100
AcDbEntity
  8
Defpoints
 62
     0
440
 16777216
100
AcDbPoint
 10
32.32020450239904
 20
31.98210104928758
 30
0.0
  0
ENDBLK
  5
21F39
330
21F37
100
AcDbEntity
  8
0
100
AcDbBlockEnd
  0
BLOCK
  5
21F46
330
21F45
100
AcDbEntity
  8
0
100
AcDbBlockBegin
  2
*D16
 70
     1
 10
0.0
 20
0.0
 30
0.0
  3
*D16
  1

  0
LINE
  5
220DA
330
21F45
100
AcDbEntity
  8
SK2
 62
     0
440
 16777216
370
    -2
100
AcDbLine
 10
-16.36250000000001
 20
7.999999999999978
 30
0.0
 11
-31.84722024186157
 21
7.999999999999983
 31
0.0
  0
LINE
  5
220DB
330
21F45
100
AcDbEntity
  8
SK2
 62
     0
440
 16777216
370
    -2
100
AcDbLine
 10
-16.36250000000001
 20
-8.000000000000021
 30
0.0
 11
-31.84722024186158
 21
-8.000000000000015
 31
0.0
  0
LINE
  5
220DC
330
21F45
100
AcDbEntity
  8
SK2
 62
     0
440
 16777216
370
    -2
100
AcDbLine
 10
-31.66722024186157
 20
3.429999999999982
 30
0.0
 11
-31.66722024186157
 21
-3.430000000000015
 31
0.0
  0
SOLID
  5
220DD
330
21F45
100
AcDbEntity
  8
SK2
 62
     0
440
 16777216
100
AcDbTrace
 10
-32.42888690852824
 20
3.429999999999982
 30
0.0
 11
-30.90555357519491
 21
3.429999999999982
 31
0.0
 12
-31.66722024186157
 22
7.999999999999983
 32
0.0
 13
-31.66722024186157
 23
7.999999999999983
 33
0.0
  0
SOLID
  5
220DE
330
21F45
100
AcDbEntity
  8
SK2
 62
     0
440
 16777216
100
AcDbTrace
 10
-32.42888690852824
 20
-3.430000000000015
 30
0.0
 11
-30.90555357519491
 21
-3.430000000000016
 31
0.0
 12
-31.66722024186158
 22
-8.000000000000015
 32
0.0
 13
-31.66722024186158
 23
-8.000000000000015
 33
0.0
  0
MTEXT
  5
220DF
330
21F45
100
AcDbEntity
  8
SK2
 62
     0
440
 16777216
100
AcDbMText
 10
-33.62036149274
 20
-0.1447174964360085
 30
0.0
 40
3.5
 41
0.0
 46
0.0
 71
     5
 72
     1
  1
\A1;%%C16
 11
0.0000000000000001
 21
1.0
 31
0.0
 73
     1
 44
1.0
  0
POINT
  5
220E0
330
21F45
100
AcDbEntity
  8
Defpoints
 62
     0
440
 16777216
100
AcDbPoint
 10
-16.30000000000001
 20
7.999999999999978
 30
0.0
  0
POINT
  5
220E1
330
21F45
100
AcDbEntity
  8
Defpoints
 62
     0
440
 16777216
100
AcDbPoint
 10
-16.30000000000001
 20
-8.000000000000021
 30
0.0
  0
POINT
  5
220E2
330
21F45
100
AcDbEntity
  8
Defpoints
 62
     0
440
 16777216
100
AcDbPoint
 10
-31.66722024186158
 20
-8.000000000000015
 30
0.0
  0
ENDBLK
  5
21F47
330
21F45
100
AcDbEntity
  8
0
100
AcDbBlockEnd
  0
ENDSEC
  0
SECTION
  2
ENTITIES
  0
MTEXT
  5
211A0
330
1F
100
AcDbEntity
  8
SK6
100
AcDbMText
 10
0.5232314947885471
 20
-39.59239356219032
 30
0.0
 40
3.5
 41
41.87058589293636
 46
0.0
 71
     2
 72
     1
  1
CD4100037YNR00
 73
     1
 44
1.0
1001
ACAD
1000
MTEXTBEGIN
1070
    73
1070
     1
1070
    44
1040
1.0
1070
    74
1070
     0
1000
MTEXTEND
  0
INSERT
  5
21DEC
330
1F
100
AcDbEntity
  8
1
100
AcDbBlockReference
  2
cero_point
 10
-0.000000000003638
 20
-0.0000000000000213
 30
0.0
  0
LINE
  5
21DF0
330
1F
100
AcDbEntity
  8
INFTOTAL
100
AcDbLine
 10
-123.4168505412717
 20
15.70420758956422
 30
0.0
 11
-123.4168505412717
 21
59.29592998580299
 31
0.0
  0
LINE
  5
21DF1
330
1F
100
AcDbEntity
  8
INFTOTAL
100
AcDbLine
 10
-123.4168505412717
 20
59.29592998580299
 30
0.0
 11
-67.01306417251271
 21
59.29592998580299
 31
0.0
  0
LINE
  5
21DF2
330
1F
100
AcDbEntity
  8
INFTOTAL
100
AcDbLine
 10
27.63152826528585
 20
-58.66242163109383
 30
0.0
 11
82.99030951636996
 21
-58.66242163109383
 31
0.0
  0
LINE
  5
21DF3
330
1F
100
AcDbEntity
  8
INFTOTAL
100
AcDbLine
 10
82.99030951636996
 20
-58.66242163109383
 30
0.0
 11
82.99030951636996
 21
-18.21430543449927
 31
0.0
  0
DIMENSION
  5
21DF4
330
1F
100
AcDbEntity
  8
2
100
AcDbDimension
280
     0
  2
*D12
 10
65.71777926159137
 20
-20.50000000000003
 30
0.0
 11
65.71777926159137
 21
-0.0000000000000213
 31
0.0
 70
   161
  1
%%c<>
 71
     5
 42
41.0
 73
     0
 74
     0
 75
     0
  3
STANDARD
100
AcDbAlignedDimension
 13
31.51999999999998
 23
20.49999999999998
 33
0.0
 14
31.51999999999998
 24
-20.50000000000002
 34
0.0
1001
ACAD
1000
DSTYLE
1002
{
1070
   172
1070
     1
1002
}
  0
DIMENSION
  5
21DF5
330
1F
100
AcDbEntity
  8
2
100
AcDbDimension
280
     0
  2
*D13
 10
51.71777926159115
 20
-10.45000000000006
 30
0.0
 11
51.71777926159115
 21
-0.1979951920875678
 31
0.0
 70
   161
 71
     5
 42
20.89999999999997
 73
     0
 74
     0
 75
     0
  3
STANDARD
100
AcDbAlignedDimension
 13
33.11999999999995
 23
10.44999999999991
 33
0.0
 14
33.11999999999995
 24
-10.45000000000006
 34
0.0
1001
ACAD
1000
DSTYLE
1002
{
1070
   172
1070
     1
1002
}
  0
DIMENSION
  5
21DF6
330
1F
100
AcDbEntity
  8
2
100
AcDbDimension
280
     0
  2
*D14
 10
37.10143132894459
 20
42.98171255462748
 30
0.0
 11
18.55017212637045
 21
42.98233032792403
 31
0.0
 70
   160
 71
     5
 42
37.10066992570998
 73
     0
 74
     0
 75
     0
  3
STANDARD
100
AcDbAlignedDimension
 13
0.0
 23
20.11797399999998
 33
0.0
 14
37.09999999999997
 24
-0.0000000000000213
 34
0.0
 50
359.9980919999991
100
AcDbRotatedDimension
1001
ACAD
1000
DSTYLE
1002
{
1070
   172
1070
     1
1002
}
  0
DIMENSION
  5
21DF7
330
1F
100
AcDbEntity
  8
2
100
AcDbDimension
280
     0
  2
*D15
 10
32.32020450239904
 20
31.98210104928758
 30
0.0
 11
18.46518693580225
 21
31.98233174144031
 31
0.0
 70
   160
 71
     5
 42
4.780328013025282
 73
     0
 74
     0
 75
     0
  3
STANDARD
100
AcDbAlignedDimension
 13
37.09999999999997
 23
-0.0000000000000213
 33
0.0
 14
32.31999999999999
 24
19.69999999999991
 34
0.0
 50
179.999046000003
100
AcDbRotatedDimension
1001
ACAD
1000
DSTYLE
1002
{
1070
   172
1070
     1
1002
}
  0
LINE
  5
21DF8
330
1F
100
AcDbEntity
  8
SK4
100
AcDbLine
 10
-21.06209800000002
 20
-0.0000000000000213
 30
0.0
 11
-0.0000000000037801
 21
0.0
 31
0.0
  0
LINE
  5
21DF9
330
1F
100
AcDbEntity
  8
SK3
100
AcDbLine
 10
0.0
 20
9.999999999999978
 30
0.0
 11
31.32
 21
9.999999999999978
 31
0.0
  0
LINE
  5
21DFA
330
1F
100
AcDbEntity
  8
SK3
100
AcDbLine
 10
0.0
 20
5.999999999999978
 30
0.0
 11
31.32
 21
5.999999999999978
 31
0.0
  0
LINE
  5
21DFB
330
1F
100
AcDbEntity
  8
SK3
100
AcDbLine
 10
0.0
 20
-6.000000000000021
 30
0.0
 11
31.32
 21
-6.000000000000021
 31
0.0
  0
LINE
  5
21DFC
330
1F
100
AcDbEntity
  8
SK3
100
AcDbLine
 10
0.0
 20
-10.00000000000002
 30
0.0
 11
31.32
 21
-10.00000000000002
 31
0.0
  0
LINE
  5
21E00
330
1F
100
AcDbEntity
  8
1
100
AcDbLine
 10
32.2192189999999
 20
10.44999999999991
 30
0.0
 11
30.0979999999999
 21
10.44999999999991
 31
0.0
  0
LINE
  5
21E02
330
1F
100
AcDbEntity
  8
1
100
AcDbLine
 10
18.18499999999989
 20
4.249349999999914
 30
0.0
 11
18.18499999999989
 21
5.073299999999996
 31
0.0
  0
ARC
  5
21E03
330
1F
100
AcDbEntity
  8
1
100
AcDbCircle
 10
13.29754399999999
 20
-648.2780060000002
 30
0.0
 40
668.528023
100
AcDbArc
 50
90.00180399999818
 51
91.13973300000147
  0
LINE
  5
21E04
330
1F
100
AcDbEntity
  8
1
100
AcDbLine
 10
20.69999999999999
 20
20.24999999999998
 30
0.0
 11
13.2764929999999
 21
20.24999999999998
 31
0.0
  0
CIRCLE
  5
21E05
330
1F
100
AcDbEntity
  8
1
100
AcDbCircle
 10
26.50999999999999
 20
14.68999999999992
 30
0.0
 40
1.919999999999999
  0
LINE
  5
21E06
330
1F
100
AcDbEntity
  8
1
100
AcDbLine
 10
25.5
 20
8.879999999999974
 30
0.0
 11
20.69999999999999
 21
8.879999999999974
 31
0.0
  0
ARC
  5
21E07
330
1F
100
AcDbEntity
  8
1
100
AcDbCircle
 10
44.33852299999995
 20
161.2238379999999
 30
0.0
 40
155.800879
100
AcDbArc
 50
261.0290230000003
 51
263.0551389999976
  0
SPLINE
  5
21E08
330
1F
100
AcDbEntity
  8
1
100
AcDbSpline
210
0.0
220
0.0
230
1.0
 70
     8
 71
     5
 72
    12
 73
     6
 74
     0
 42
0.000000001
 43
0.0000000001
 40
0.0
 40
0.0
 40
0.0
 40
0.0
 40
0.0
 40
0.0
 40
13.12941459892686
 40
13.12941459892686
 40
13.12941459892686
 40
13.12941459892686
 40
13.12941459892686
 40
13.12941459892686
 10
12.62385134439998
 20
7.137681330180136
 30
0.0
 10
14.08004324708182
 20
7.242150134274972
 30
0.0
 10
15.55582131866248
 20
7.300668756600863
 30
0.0
 10
17.05228548903449
 20
7.327519089960425
 30
0.0
 10
18.54521038313129
 20
7.334271114524405
 30
0.0
 10
20.04384687449999
 20
7.328799749775932
 30
0.0
  0
LINE
  5
21E09
330
1F
100
AcDbEntity
  8
1
100
AcDbLine
 10
12.61215699999999
 20
7.050395999999956
 30
0.0
 11
12.62385099999991
 21
7.137680999999908
 31
0.0
  0
SPLINE
  5
21E0A
330
1F
100
AcDbEntity
  8
1
100
AcDbSpline
210
0.0
220
0.0
230
1.0
 70
     8
 71
     5
 72
    15
 73
     9
 74
     0
 42
0.000000001
 43
0.0000000001
 40
0.0
 40
0.0
 40
0.0
 40
0.0
 40
0.0
 40
0.0
 40
7.292728120683088
 40
7.292728120683088
 40
7.292728120683088
 40
8.122747396146152
 40
8.122747396146152
 40
8.122747396146152
 40
8.122747396146152
 40
8.122747396146152
 40
8.122747396146152
 10
8.407342595751089
 20
6.021594391477698
 30
0.0
 10
9.114791327586999
 20
6.261203161734307
 30
0.0
 10
9.854910923155017
 20
6.472807439375038
 30
0.0
 10
10.6118918271849
 20
6.658484226090742
 30
0.0
 10
11.47168642249048
 20
6.841820931086523
 30
0.0
 10
12.34400603434451
 20
7.002511561643338
 30
0.0
 10
12.4332697776108
 20
7.018699642491448
 30
0.0
 10
12.52265390849348
 20
7.034659585104897
 30
0.0
 10
12.61215715479997
 20
7.050395726479884
 30
0.0
  0
ARC
  5
21E0B
330
1F
100
AcDbEntity
  8
1
100
AcDbCircle
 10
27.11919399999999
 20
-563.8332060000002
 30
0.0
 40
568.977287
100
AcDbArc
 50
90.16305199999754
 51
90.89970800000287
  0
LINE
  5
21E0C
330
1F
100
AcDbEntity
  8
1
100
AcDbLine
 10
20.69999999999999
 20
8.879999999999974
 30
0.0
 11
20.69999999999999
 21
7.326438999999915
 31
0.0
  0
LINE
  5
21E0D
330
1F
100
AcDbEntity
  8
1
100
AcDbLine
 10
20.04384699999997
 20
7.328799999999979
 30
0.0
 11
20.69999999999999
 21
7.326438999999915
 31
0.0
  0
LINE
  5
21E0E
330
1F
100
AcDbEntity
  8
1
100
AcDbLine
 10
0.0
 20
20.11797399999998
 30
0.0
 11
0.0
 21
7.978622999999949
 31
0.0
  0
ARC
  5
21E0F
330
1F
100
AcDbEntity
  8
1
100
AcDbCircle
 10
13.28345799999999
 20
647.9599739999997
 30
0.0
 40
668.2099829999997
100
AcDbArc
 50
268.860932999998
 51
269.9994030000025
  0
ARC
  5
21E10
330
1F
100
AcDbEntity
  8
SK1
100
AcDbCircle
 10
8.600299999999919
 20
1697.182298
 30
0.0
 40
1705.182622
100
AcDbArc
 50
269.1969010000009
 51
269.7110199999979
  0
ARC
  5
21E11
330
1F
100
AcDbEntity
  8
SK1
100
AcDbCircle
 10
18.30722599999996
 20
32.13198399999997
 30
0.0
 40
52.21673
100
AcDbArc
 50
228.4888779999977
 51
229.9388389999958
  0
LINE
  5
21E12
330
1F
100
AcDbEntity
  8
SK1
100
AcDbLine
 10
-16.30000000000001
 20
-6.143078000000194
 30
0.0
 11
-16.30000000000001
 21
-6.969073000000001
 31
0.0
  0
LINE
  5
21E13
330
1F
100
AcDbEntity
  8
SK1
100
AcDbLine
 10
-16.30000000000001
 20
4.734366000000001
 30
0.0
 11
-16.30000000000001
 21
-6.143078000000194
 31
0.0
  0
LINE
  5
21E14
330
1F
100
AcDbEntity
  8
SK1
100
AcDbLine
 10
-16.30000000000001
 20
4.734366000000001
 30
0.0
 11
-16.30000000000001
 21
5.467124999999988
 31
0.0
  0
LINE
  5
21E15
330
1F
100
AcDbEntity
  8
SK1
100
AcDbLine
 10
-16.30000000000001
 20
6.969072999999958
 30
0.0
 11
-16.30000000000001
 21
5.467124999999988
 31
0.0
  0
LINE
  5
21E16
330
1F
100
AcDbEntity
  8
1
100
AcDbLine
 10
20.69999999999999
 20
9.761904999999934
 30
0.0
 11
20.69999999999999
 21
20.24999999999998
 31
0.0
  0
LINE
  5
21E17
330
1F
100
AcDbEntity
  8
1
100
AcDbLine
 10
20.69999999999999
 20
8.879999999999974
 30
0.0
 11
20.69999999999999
 21
9.761904999999934
 31
0.0
  0
LINE
  5
21E18
330
1F
100
AcDbEntity
  8
1
100
AcDbLine
 10
14.06368299999991
 20
20.01037499999993
 30
0.0
 11
13.27649799999992
 21
20.24999799999998
 31
0.0
  0
ARC
  5
21E19
330
1F
100
AcDbEntity
  8
SK1
100
AcDbCircle
 10
8.600299999999919
 20
-1697.182297999999
 30
0.0
 40
1705.182622
100
AcDbArc
 50
90.28898000000213
 51
90.80309899999909
  0
ARC
  5
21E1A
330
1F
100
AcDbEntity
  8
SK1
100
AcDbCircle
 10
18.30722599999996
 20
-32.13198400000001
 30
0.0
 40
52.21673
100
AcDbArc
 50
130.0611610000029
 51
131.5111220000023
  0
LINE
  5
21E1B
330
1F
100
AcDbEntity
  8
1
100
AcDbLine
 10
13.026657
 20
9.761904999999934
 30
0.0
 11
20.69999999999999
 21
9.761904999999934
 31
0.0
  0
LINE
  5
21E1C
330
1F
100
AcDbEntity
  8
1
100
AcDbLine
 10
14.06368099999997
 20
20.01036899999995
 30
0.0
 11
13.026657
 21
9.761904999999934
 31
0.0
  0
ELLIPSE
  5
21E1D
330
1F
100
AcDbEntity
  8
1
100
AcDbEllipse
 10
12.43415799999999
 20
9.761904999999934
 30
0.0
 11
0.4235811531543733
 21
4.099552631378172
 31
0.0
210
0.0
220
0.0
230
1.0
 40
0.143017
 41
4.032595547204794
 42
4.727164917765879
  0
ARC
  5
21E1E
330
1F
100
AcDbEntity
  8
SK1
100
AcDbCircle
 10
-14.94961700000002
 20
11.82232899999994
 30
0.0
 40
7.21593
100
AcDbArc
 50
259.213407000001
 51
267.2169750000023
  0
ARC
  5
21E1F
330
1F
100
AcDbEntity
  8
SK1
100
AcDbCircle
 10
-198.165325
 20
-3241.57925
 30
0.0
 40
3251.34032
100
AcDbArc
 50
86.50572499999723
 51
86.77580899999682
  0
SPLINE
  5
21E20
330
1F
100
AcDbEntity
  8
1
100
AcDbSpline
210
0.0
220
0.0
230
1.0
 70
     8
 71
     5
 72
    12
 73
     6
 74
     0
 42
0.000000001
 43
0.0000000001
 40
0.0
 40
0.0
 40
0.0
 40
0.0
 40
0.0
 40
0.0
 40
55.12359861779642
 40
55.12359861779642
 40
55.12359861779642
 40
55.12359861779642
 40
55.12359861779642
 40
55.12359861779642
 10
31.32000000059151
 20
2.708801919706935
 30
0.0
 10
24.97257098622453
 20
3.209529488790487
 30
0.0
 10
18.65008819399168
 20
4.008521104342641
 30
0.0
 10
12.36714511786232
 20
5.08863155786296
 30
0.0
 10
6.14562001539781
 20
6.413674071521747
 30
0.0
 10
0.0000000002934826
 20
7.935743462648567
 30
0.0
  0
LINE
  5
21E21
330
1F
100
AcDbEntity
  8
1
100
AcDbLine
 10
31.32
 20
2.70880199999997
 30
0.0
 11
31.32
 21
-17.77104700000009
 31
0.0
  0
LINE
  5
21E22
330
1F
100
AcDbEntity
  8
1
100
AcDbLine
 10
31.32
 20
-17.77104700000009
 30
0.0
 11
31.32
 21
-19.67288700000008
 31
0.0
  0
LINE
  5
21E23
330
1F
100
AcDbEntity
  8
1
100
AcDbLine
 10
20.69999999999999
 20
-19.67288700000008
 30
0.0
 11
20.69999999999999
 21
-20.25000000000002
 31
0.0
  0
LINE
  5
21E24
330
1F
100
AcDbEntity
  8
1
100
AcDbLine
 10
20.69999999999999
 20
-20.25000000000002
 30
0.0
 11
13.2764929999999
 21
-20.25000000000002
 31
0.0
  0
LINE
  5
21E25
330
1F
100
AcDbEntity
  8
1
100
AcDbLine
 10
31.32
 20
-19.67288700000008
 30
0.0
 11
20.69999999999999
 21
-19.67288700000008
 31
0.0
  0
LINE
  5
21E26
330
1F
100
AcDbEntity
  8
1
100
AcDbLine
 10
0.0
 20
-17.77104700000009
 30
0.0
 11
0.0
 21
-20.11797400000002
 31
0.0
  0
LINE
  5
21E27
330
1F
100
AcDbEntity
  8
1
100
AcDbLine
 10
0.0
 20
7.93574299999998
 30
0.0
 11
0.0
 21
-17.77104700000009
 31
0.0
  0
LINE
  5
21E28
330
1F
100
AcDbEntity
  8
SK1
100
AcDbLine
 10
-15.30000000000001
 20
-7.020660000000042
 30
0.0
 11
-15.30000000000001
 21
-7.832832000000074
 31
0.0
  0
LINE
  5
21E29
330
1F
100
AcDbEntity
  8
SK1
100
AcDbLine
 10
-15.30000000000001
 20
4.614466999999969
 30
0.0
 11
-15.30000000000001
 21
-7.020660000000042
 31
0.0
  0
CIRCLE
  5
21E2A
330
1F
100
AcDbEntity
  8
1
100
AcDbCircle
 10
26.50999999999999
 20
-14.69000000000007
 30
0.0
 40
1.919999999999999
  0
CIRCLE
  5
21E2B
330
1F
100
AcDbEntity
  8
1
100
AcDbCircle
 10
26.50999999999999
 20
14.68999999999992
 30
0.0
 40
2.225
  0
CIRCLE
  5
21E2C
330
1F
100
AcDbEntity
  8
1
100
AcDbCircle
 10
26.50999999999999
 20
14.68999999999992
 30
0.0
 40
2.783567999999998
  0
LINE
  5
21E2D
330
1F
100
AcDbEntity
  8
1
100
AcDbLine
 10
25.5
 20
8.879999999999974
 30
0.0
 11
21.5
 21
8.879999999999974
 31
0.0
  0
LINE
  5
21E2E
330
1F
100
AcDbEntity
  8
1
100
AcDbLine
 10
32.31999999999999
 20
19.69999999999991
 30
0.0
 11
32.31999999999999
 21
10.44999999999991
 31
0.0
  0
ARC
  5
21E2F
330
1F
100
AcDbEntity
  8
1
100
AcDbCircle
 10
31.51999999999998
 20
19.69999999999991
 30
0.0
 40
0.8
100
AcDbArc
 50
0.0
 51
90.0
  0
LINE
  5
21E30
330
1F
100
AcDbEntity
  8
1
100
AcDbLine
 10
21.5
 20
20.49999999999998
 30
0.0
 11
31.51999999999998
 21
20.49999999999998
 31
0.0
  0
ARC
  5
21E31
330
1F
100
AcDbEntity
  8
1
100
AcDbCircle
 10
21.5
 20
19.69999999999991
 30
0.0
 40
0.8
100
AcDbArc
 50
90.0
 51
180.0
  0
LINE
  5
21E32
330
1F
100
AcDbEntity
  8
1
100
AcDbLine
 10
20.69999999999999
 20
9.679999999999928
 30
0.0
 11
20.69999999999999
 21
19.69999999999991
 31
0.0
  0
ARC
  5
21E33
330
1F
100
AcDbEntity
  8
1
100
AcDbCircle
 10
21.5
 20
9.679999999999928
 30
0.0
 40
0.8
100
AcDbArc
 50
180.0
 51
270.0
  0
ARC
  5
21E3B
330
1F
100
AcDbEntity
  8
1
100
AcDbCircle
 10
31.51999999999998
 20
-9.680000000000084
 30
0.0
 40
0.8
100
AcDbArc
 50
0.0
 51
90.0
  0
LINE
  5
21E3C
330
1F
100
AcDbEntity
  8
1
100
AcDbLine
 10
32.31999999999999
 20
-19.70000000000006
 30
0.0
 11
32.31999999999999
 21
-9.680000000000084
 31
0.0
  0
ARC
  5
21E3D
330
1F
100
AcDbEntity
  8
1
100
AcDbCircle
 10
31.51999999999998
 20
-19.70000000000006
 30
0.0
 40
0.8
100
AcDbArc
 50
270.0
 51
0.0
  0
LINE
  5
21E3E
330
1F
100
AcDbEntity
  8
1
100
AcDbLine
 10
21.5
 20
-20.50000000000002
 30
0.0
 11
31.51999999999998
 21
-20.50000000000002
 31
0.0
  0
ARC
  5
21E3F
330
1F
100
AcDbEntity
  8
1
100
AcDbCircle
 10
21.5
 20
-19.70000000000006
 30
0.0
 40
0.8
100
AcDbArc
 50
180.0
 51
270.0
  0
LINE
  5
21E40
330
1F
100
AcDbEntity
  8
1
100
AcDbLine
 10
20.69999999999999
 20
-19.67289100000007
 30
0.0
 11
20.69999999999999
 21
-19.70000000000006
 31
0.0
  0
ARC
  5
21E41
330
1F
100
AcDbEntity
  8
1
100
AcDbCircle
 10
21.5
 20
-19.70000000000006
 30
0.0
 40
0.125404
100
AcDbArc
 50
180.0
 51
270.0000010000014
  0
LINE
  5
21E42
330
1F
100
AcDbEntity
  8
1
100
AcDbLine
 10
21.5
 20
-19.82540400000007
 30
0.0
 11
31.51999999999998
 21
-19.82540400000007
 31
0.0
  0
ARC
  5
21E43
330
1F
100
AcDbEntity
  8
1
100
AcDbCircle
 10
31.51999999999998
 20
-19.70000000000006
 30
0.0
 40
0.125404
100
AcDbArc
 50
270.0
 51
0.0000010000014034
  0
LINE
  5
21E44
330
1F
100
AcDbEntity
  8
1
100
AcDbLine
 10
31.64540399999993
 20
-19.70000000000006
 30
0.0
 11
31.64540399999993
 21
-9.680000000000084
 31
0.0
  0
ARC
  5
21E45
330
1F
100
AcDbEntity
  8
1
100
AcDbCircle
 10
31.51999999999998
 20
-9.680000000000084
 30
0.0
 40
0.125404
100
AcDbArc
 50
0.0000010000014034
 51
89.9999989999986
  0
LINE
  5
21E46
330
1F
100
AcDbEntity
  8
1
100
AcDbLine
 10
31.51999999999998
 20
-9.554596000000081
 30
0.0
 11
31.3199909999999
 21
-9.554596000000081
 31
0.0
  0
LINE
  5
21E47
330
1F
100
AcDbEntity
  8
1
100
AcDbLine
 10
21.374596
 20
-19.67288700000008
 30
0.0
 11
21.374596
 21
-19.70000000000006
 31
0.0
  0
LINE
  5
21E48
330
1F
100
AcDbEntity
  8
1
100
AcDbLine
 10
31.51999999999998
 20
-9.554596000000081
 30
0.0
 11
31.51999999999998
 21
-8.880000000000016
 31
0.0
  0
LINE
  5
21E49
330
1F
100
AcDbEntity
  8
1
100
AcDbLine
 10
31.64540399999993
 20
-9.680000000000084
 30
0.0
 11
32.31999999999999
 21
-9.680000000000084
 31
0.0
  0
LINE
  5
21E4A
330
1F
100
AcDbEntity
  8
1
100
AcDbLine
 10
31.64540399999993
 20
-19.70000000000006
 30
0.0
 11
32.31999999999999
 21
-19.70000000000006
 31
0.0
  0
LINE
  5
21E4B
330
1F
100
AcDbEntity
  8
1
100
AcDbLine
 10
31.51999999999998
 20
-19.82540400000007
 30
0.0
 11
31.51999999999998
 21
-20.50000000000002
 31
0.0
  0
LINE
  5
21E4C
330
1F
100
AcDbEntity
  8
1
100
AcDbLine
 10
21.5
 20
-19.82540400000007
 30
0.0
 11
21.5
 21
-20.50000000000002
 31
0.0
  0
LINE
  5
21E4D
330
1F
100
AcDbEntity
  8
1
100
AcDbLine
 10
21.374596
 20
-19.70000000000006
 30
0.0
 11
20.69999999999999
 21
-19.70000000000006
 31
0.0
  0
ARC
  5
21E4E
330
1F
100
AcDbEntity
  8
1
100
AcDbCircle
 10
31.51999999999998
 20
-19.70000000000006
 30
0.0
 40
0.8
100
AcDbArc
 50
270.0
 51
0.0
  0
LINE
  5
21E4F
330
1F
100
AcDbEntity
  8
1
100
AcDbLine
 10
31.51999999999998
 20
-20.50000000000002
 30
0.0
 11
21.5
 21
-20.50000000000002
 31
0.0
  0
ARC
  5
21E50
330
1F
100
AcDbEntity
  8
1
100
AcDbCircle
 10
21.5
 20
-19.70000000000006
 30
0.0
 40
0.8
100
AcDbArc
 50
180.0
 51
270.0
  0
LINE
  5
21E51
330
1F
100
AcDbEntity
  8
1
100
AcDbLine
 10
31.32
 20
-8.880000000000016
 30
0.0
 11
31.51999999999998
 21
-8.880000000000016
 31
0.0
  0
ARC
  5
21E52
330
1F
100
AcDbEntity
  8
1
100
AcDbCircle
 10
31.51999999999998
 20
-9.680000000000084
 30
0.0
 40
0.8
100
AcDbArc
 50
0.0
 51
90.0
  0
LINE
  5
21E53
330
1F
100
AcDbEntity
  8
1
100
AcDbLine
 10
32.31999999999999
 20
-9.680000000000084
 30
0.0
 11
32.31999999999999
 21
-19.70000000000006
 31
0.0
  0
LINE
  5
21E54
330
1F
100
AcDbEntity
  8
1
100
AcDbLine
 10
18.18499999999989
 20
5.073395999999981
 30
0.0
 11
18.18499999999989
 21
4.249294999999939
 31
0.0
  0
ARC
  5
21E57
330
1F
100
AcDbEntity
  8
1
100
AcDbCircle
 10
28.441532
 20
9.977011999999923
 30
0.0
 40
8.72553
100
AcDbArc
 50
289.2613230000024
 51
295.6229500000016
  0
LINE
  5
21E58
330
1F
100
AcDbEntity
  8
1
100
AcDbLine
 10
32.21472699999998
 20
2.109834999999954
 30
0.0
 11
31.32
 21
2.212015999999927
 31
0.0
  0
LINE
  5
21E59
330
1F
100
AcDbEntity
  8
1
100
AcDbLine
 10
34.46877799999999
 20
3.3018589999999
 30
0.0
 11
34.43862899999994
 21
3.47589799999978
 31
0.0
  0
ARC
  5
21E5A
330
1F
100
AcDbEntity
  8
1
100
AcDbCircle
 10
-217.404555
 20
-36.63655300000007
 30
0.0
 40
255.018145
100
AcDbArc
 50
9.049798000001848
 51
9.95025200000312
  0
LINE
  5
21E5B
330
1F
100
AcDbEntity
  8
1
100
AcDbLine
 10
33.77817899999997
 20
7.428897999999982
 30
0.0
 11
33.11999999999995
 21
7.919416999999931
 31
0.0
  0
ARC
  5
21E5C
330
1F
100
AcDbEntity
  8
1
100
AcDbCircle
 10
-0.2630620000000192
 20
-182.822608
 30
0.0
 40
193.641272
100
AcDbArc
 50
80.0728199999988
 51
80.97935999999807
  0
ARC
  5
21E5D
330
1F
100
AcDbEntity
  8
1
100
AcDbCircle
 10
41.94884899999993
 20
-95.24752300000002
 30
0.0
 40
104.34653
100
AcDbArc
 50
96.52128100000252
 51
99.06973600000299
  0
ARC
  5
21E5E
330
1F
100
AcDbEntity
  8
1
100
AcDbCircle
 10
15.54021299999999
 20
36.37772299999993
 30
0.0
 40
38.109256
100
AcDbArc
 50
295.9472290000003
 51
299.7815239999984
  0
LINE
  5
21E5F
330
1F
100
AcDbEntity
  8
1
100
AcDbLine
 10
30.0979999999999
 20
8.423676999999976
 30
0.0
 11
30.0979999999999
 21
10.44999999999991
 31
0.0
  0
LINE
  5
21E60
330
1F
100
AcDbEntity
  8
1
100
AcDbLine
 10
25.5
 20
9.217969999999901
 30
0.0
 11
30.0979999999999
 21
10.44999999999991
 31
0.0
  0
LINE
  5
21E64
330
1F
100
AcDbEntity
  8
1
100
AcDbLine
 10
34.4405789999999
 20
6.313412999999947
 30
0.0
 11
34.43862899999994
 21
6.324381999999992
 31
0.0
  0
LINE
  5
21E65
330
1F
100
AcDbEntity
  8
1
100
AcDbLine
 10
31.32
 20
0.6734519999999762
 30
0.0
 11
36.90630999999991
 21
-0.2300120000000092
 31
0.0
  0
ELLIPSE
  5
21E66
330
1F
100
AcDbEntity
  8
1
100
AcDbEllipse
 10
37.39639299999993
 20
-0.0509290000000178
 30
0.0
 11
9.908073425292963
 21
-1.584353566169738
 31
0.0
210
0.0
220
0.0
230
1.0
 40
0.6021580000000001
 41
4.151748360117418
 42
4.508660091936182
  0
ARC
  5
21E67
330
1F
100
AcDbEntity
  8
1
100
AcDbCircle
 10
37.67042199999997
 20
-6.22710200000008
 30
0.0
 40
3.278633
100
AcDbArc
 50
154.3390750000045
 51
168.4965679999987
  0
LINE
  5
21E68
330
1F
100
AcDbEntity
  8
1
100
AcDbLine
 10
35.55042799999995
 20
-3.086803000000053
 30
0.0
 11
34.71531599999997
 21
-4.807387000000083
 31
0.0
  0
SPLINE
  5
21E69
330
1F
100
AcDbEntity
  8
1
100
AcDbSpline
210
0.0
220
0.0
230
1.0
 70
     8
 71
     5
 72
    27
 73
    21
 74
     0
 42
0.000000001
 43
0.0000000001
 40
0.0
 40
0.0
 40
0.0
 40
0.0
 40
0.0
 40
0.0
 40
21.46415411314255
 40
21.46415411314255
 40
21.46415411314255
 40
32.0766852113867
 40
32.0766852113867
 40
32.0766852113867
 40
37.36067486319512
 40
37.36067486319512
 40
37.36067486319512
 40
46.2827680526309
 40
46.2827680526309
 40
46.2827680526309
 40
51.0889508641796
 40
51.0889508641796
 40
51.0889508641796
 40
53.56994416341414
 40
53.56994416341414
 40
53.56994416341414
 40
53.56994416341414
 40
53.56994416341414
 40
53.56994416341414
 10
36.9063097530946
 20
-0.230011619692867
 30
0.0
 10
36.89513905902044
 20
-0.2593584647005613
 30
0.0
 10
36.88166003693374
 20
-0.2932351518285472
 30
0.0
 10
36.86612288510611
 20
-0.3306978622638539
 30
0.0
 10
36.83552491759161
 20
-0.4023260157890931
 30
0.0
 10
36.78643583214847
 20
-0.511503823079373
 30
0.0
 10
36.76785375609853
 20
-0.5523488885601396
 30
0.0
 10
36.73394668819691
 20
-0.6261276870150354
 30
0.0
 10
36.68730969088364
 20
-0.7260200805050303
 30
0.0
 10
36.67014889791966
 20
-0.7626302803636449
 30
0.0
 10
36.61839243240541
 20
-0.8725928441596337
 30
0.0
 10
36.54740670762448
 20
-1.022057790784536
 30
0.0
 10
36.49545657511948
 20
-1.130920097609667
 30
0.0
 10
36.38850647463397
 20
-1.354185876710197
 30
0.0
 10
36.20396319344519
 20
-1.736946981341496
 30
0.0
 10
36.12480858044279
 20
-1.900886248344043
 30
0.0
 10
35.98023580752789
 20
-2.19987610441651
 30
0.0
 10
35.78512140123854
 20
-2.602693269994141
 30
0.0
 10
35.71506883881756
 20
-2.747252445655384
 30
0.0
 10
35.63578024390285
 20
-2.910804432133112
 30
0.0
 10
35.55042756559164
 20
-3.08680284325694
 30
0.0
  0
SPLINE
  5
21E6A
330
1F
100
AcDbEntity
  8
1
100
AcDbSpline
210
0.0
220
0.0
230
1.0
 70
     8
 71
     5
 72
    42
 73
    36
 74
     0
 42
0.000000001
 43
0.0000000001
 40
0.0
 40
0.0
 40
0.0
 40
0.0
 40
0.0
 40
0.0
 40
36.94150359637738
 40
36.94150359637738
 40
36.94150359637738
 40
86.94543977741835
 40
86.94543977741835
 40
86.94543977741835
 40
99.29568385966693
 40
99.29568385966693
 40
99.29568385966693
 40
111.7555358455615
 40
111.7555358455615
 40
111.7555358455615
 40
117.3555416097507
 40
117.3555416097507
 40
117.3555416097507
 40
120.6534585751034
 40
120.6534585751034
 40
120.6534585751034
 40
121.5155183242917
 40
121.5155183242917
 40
121.5155183242917
 40
122.4086306257478
 40
122.4086306257478
 40
122.4086306257478
 40
122.8430323764186
 40
122.8430323764186
 40
122.8430323764186
 40
123.3153568603797
 40
123.3153568603797
 40
123.3153568603797
 40
124.1800110809264
 40
124.1800110809264
 40
124.1800110809264
 40
124.1800110809264
 40
124.1800110809264
 40
124.1800110809264
 10
36.9063097530946
 20
-0.230011619692867
 30
0.0
 10
36.92553790785445
 20
-0.1794967927981119
 30
0.0
 10
36.93399530000971
 20
-0.147071858342791
 30
0.0
 10
36.94147526961871
 20
-0.115793217607596
 30
0.0
 10
36.95148517226659
 20
-0.0515507918279568
 30
0.0
 10
36.94980903383515
 20
0.0053563276985429
 30
0.0
 10
36.94579415247978
 20
0.0378857633182648
 30
0.0
 10
36.93752028711555
 20
0.0825167469846307
 30
0.0
 10
36.91583582903417
 20
0.1471300836861715
 30
0.0
 10
36.91090417332765
 20
0.1608764695799678
 30
0.0
 10
36.89957735418619
 20
0.1906601231969276
 30
0.0
 10
36.88388576694996
 20
0.2274977000424556
 30
0.0
 10
36.87480133413152
 20
0.2477216401729052
 30
0.0
 10
36.85860428745645
 20
0.2823496078344547
 30
0.0
 10
36.83370672909558
 20
0.3307855253296807
 30
0.0
 10
36.82540959436784
 20
0.3464934813876894
 30
0.0
 10
36.81046129696034
 20
0.3741986642179214
 30
0.0
 10
36.78979180915855
 20
0.4107524874069455
 30
0.0
 10
36.77939052610913
 20
0.4288947433320587
 30
0.0
 10
36.76391871276854
 20
0.4551125944354695
 30
0.0
 10
36.74493616156764
 20
0.485983148038919
 30
0.0
 10
36.74083445415005
 20
0.4926051662340356
 30
0.0
 10
36.73183706055108
 20
0.5070466265709471
 30
0.0
 10
36.72022625230506
 20
0.5253391758644526
 30
0.0
 10
36.71419460772012
 20
0.5347081507092995
 30
0.0
 10
36.70291045429002
 20
0.5522060276709695
 30
0.0
 10
36.68425971243806
 20
0.5801084534938142
 30
0.0
 10
36.63711924841829
 20
0.6480895699089402
 30
0.0
 10
36.6051527622347
 20
0.6915146845984524
 30
0.0
 10
36.58988091323198
 20
0.7112007377035994
 30
0.0
 10
36.58423823160655
 20
0.7185793447524489
 30
0.0
 10
36.56314984304874
 20
0.7455095820026614
 30
0.0
 10
36.54672890047147
 20
0.765684452066445
 30
0.0
 10
36.53677335209369
 20
0.777734239448229
 30
0.0
 10
36.52753480294081
 20
0.7887143315857444
 30
0.0
 10
36.51878119497002
 20
0.7989547371339328
 30
0.0
  0
LINE
  5
21E6B
330
1F
100
AcDbEntity
  8
1
100
AcDbLine
 10
36.51878099999994
 20
0.7989549999999568
 30
0.0
 11
31.32
 21
1.639743999999929
 31
0.0
  0
LINE
  5
21E6C
330
1F
100
AcDbEntity
  8
1
100
AcDbLine
 10
34.71531599999997
 20
2.896872999999892
 30
0.0
 11
36.51878099999994
 21
0.7989549999999568
 31
0.0
  0
ARC
  5
21E6D
330
1F
100
AcDbEntity
  8
1
100
AcDbCircle
 10
35.77449099999995
 20
3.820216999999821
 30
0.0
 40
1.404981999999999
100
AcDbArc
 50
201.6526909999992
 51
221.0805430000037
  0
LINE
  5
21E6E
330
1F
100
AcDbEntity
  8
1
100
AcDbLine
 10
34.43862899999994
 20
6.324381999999992
 30
0.0
 11
34.43862899999994
 21
3.47589799999978
 31
0.0
  0
LINE
  5
21E6F
330
1F
100
AcDbEntity
  8
1
100
AcDbLine
 10
34.71531599999997
 20
5.413021999999934
 30
0.0
 11
34.71531599999997
 21
2.896872999999892
 31
0.0
  0
LINE
  5
21E70
330
1F
100
AcDbEntity
  8
1
100
AcDbLine
 10
33.77817899999997
 20
10.0699999999998
 30
0.0
 11
33.77817899999997
 21
7.428897999999982
 31
0.0
  0
LINE
  5
21E71
330
1F
100
AcDbEntity
  8
1
100
AcDbLine
 10
33.11999999999995
 20
10.44999999999991
 30
0.0
 11
33.11999999999995
 21
7.919416999999931
 31
0.0
  0
LINE
  5
21E72
330
1F
100
AcDbEntity
  8
1
100
AcDbLine
 10
34.71531599999997
 20
-4.807387000000083
 30
0.0
 11
34.71531599999997
 21
-5.41302200000009
 31
0.0
  0
LINE
  5
21E73
330
1F
100
AcDbEntity
  8
1
100
AcDbLine
 10
34.4574649999999
 20
-6.218844000000011
 30
0.0
 11
34.4574649999999
 21
-5.573218000000018
 31
0.0
  0
LINE
  5
21E74
330
1F
100
AcDbEntity
  8
1
100
AcDbLine
 10
34.4574649999999
 20
-6.218844000000011
 30
0.0
 11
34.4405789999999
 21
-6.313412000000106
 31
0.0
  0
LINE
  5
21E75
330
1F
100
AcDbEntity
  8
1
100
AcDbLine
 10
34.4405789999999
 20
-6.313412000000106
 30
0.0
 11
34.43862899999994
 21
-6.324382000000035
 31
0.0
  0
LINE
  5
21E76
330
1F
100
AcDbEntity
  8
1
100
AcDbLine
 10
34.28977099999992
 20
-7.168620000000053
 30
0.0
 11
34.43862899999994
 21
-6.324382000000035
 31
0.0
  0
LINE
  5
21E77
330
1F
100
AcDbEntity
  8
1
100
AcDbLine
 10
34.28977099999992
 20
-7.168620000000053
 30
0.0
 11
33.77817899999997
 21
-10.07000000000007
 31
0.0
  0
LINE
  5
21E78
330
1F
100
AcDbEntity
  8
1
100
AcDbLine
 10
33.77817899999997
 20
-10.07000000000007
 30
0.0
 11
33.11999999999995
 21
-10.45000000000006
 31
0.0
  0
LINE
  5
21E79
330
1F
100
AcDbEntity
  8
1
100
AcDbLine
 10
33.11999999999995
 20
-10.45000000000006
 30
0.0
 11
32.31999999999999
 21
-10.45000000000006
 31
0.0
  0
LINE
  5
21E7A
330
1F
100
AcDbEntity
  8
1
100
AcDbLine
 10
31.31998600000003
 20
-7.168620000000053
 30
0.0
 11
34.28977099999992
 21
-7.168620000000053
 31
0.0
  0
LINE
  5
21E7B
330
1F
100
AcDbEntity
  8
1
100
AcDbLine
 10
31.31998600000003
 20
-6.218844000000011
 30
0.0
 11
34.4574649999999
 21
-6.218844000000011
 31
0.0
  0
ARC
  5
21E7D
330
1F
100
AcDbEntity
  8
1
100
AcDbCircle
 10
38.34930099999991
 20
-7.013958000000023
 30
0.0
 40
3.971
100
AcDbArc
 50
156.2243150000013
 51
169.8389859999994
  0
LINE
  5
21E7F
330
1F
100
AcDbEntity
  8
1
100
AcDbLine
 10
37.09999999999997
 20
-0.0000000000000213
 30
0.0
 11
34.71531599999997
 21
-5.41302200000009
 31
0.0
  0
LINE
  5
21E80
330
1F
100
AcDbEntity
  8
SKVIEW4
100
AcDbLine
 10
-54.95283475131436
 20
-0.0000000000000213
 30
0.0
 11
-107.6028367513144
 21
-0.0000000000000213
 31
0.0
  0
LINE
  5
21E81
330
1F
100
AcDbEntity
  8
SKVIEW4
100
AcDbLine
 10
-81.2778357513144
 20
26.32500099999991
 30
0.0
 11
-81.2778357513144
 21
-26.32500100000008
 31
0.0
  0
ARC
  5
21E82
330
1F
100
AcDbEntity
  8
SKVIEW1
100
AcDbCircle
 10
-81.2778357513144
 20
-0.0000000000000213
 30
0.0
 40
6.224999999999997
100
AcDbArc
 50
6.9265929999956
 51
87.46555699999973
  0
LINE
  5
21E83
330
1F
100
AcDbEntity
  8
SKVIEW1
100
AcDbLine
 10
-70.36299475131437
 20
-3.56334000000006
 30
0.0
 11
-70.36299475131437
 21
1.559388999999988
 31
0.0
  0
ARC
  5
21E84
330
1F
100
AcDbEntity
  8
SKVIEW1
100
AcDbCircle
 10
-72.52891175131435
 20
-3.085444000000073
 30
0.0
 40
5.125001
100
AcDbArc
 50
65.00005000000005
 51
121.268646000005
  0
ARC
  5
21E85
330
1F
100
AcDbEntity
  8
SKVIEW1
100
AcDbCircle
 10
-81.2778357513144
 20
-0.0000000000000213
 30
0.0
 40
5.224999999999996
100
AcDbArc
 50
347.200344999997
 51
355.020977999997
  0
LINE
  5
21E86
330
1F
100
AcDbEntity
  8
SKVIEW1
100
AcDbLine
 10
-76.20214675131433
 20
-3.095107000000005
 30
0.0
 11
-76.20214675131433
 21
-1.240164000000184
 31
0.0
  0
SPLINE
  5
21E87
330
1F
100
AcDbEntity
  8
SKVIEW1
100
AcDbSpline
210
0.0
220
0.0
230
1.0
 70
     8
 71
     5
 72
    21
 73
    15
 74
     0
 42
0.000000001
 43
0.0000000001
 40
0.0
 40
0.0
 40
0.0
 40
0.0
 40
0.0
 40
0.0
 40
2.273350651534284
 40
2.273350651534284
 40
2.273350651534284
 40
6.046484043755482
 40
6.046484043755482
 40
6.046484043755482
 40
9.733069981800023
 40
9.733069981800023
 40
9.733069981800023
 40
11.98378510464247
 40
11.98378510464247
 40
11.98378510464247
 40
11.98378510464247
 40
11.98378510464247
 40
11.98378510464247
 10
-70.36299255718569
 20
-3.563326123230602
 30
0.0
 10
-70.50973709733796
 20
-3.563996177617603
 30
0.0
 10
-70.67001578179099
 20
-3.56261395947947
 30
0.0
 10
-70.84548880514057
 20
-3.559277455447066
 30
0.0
 10
-71.35956327310387
 20
-3.546044549569067
 30
0.0
 10
-71.998990395845
 20
-3.528799645510638
 30
0.0
 10
-72.44267921266078
 20
-3.521573824023583
 30
0.0
 10
-73.330915805968
 20
-3.536373893378048
 30
0.0
 10
-74.12917108330851
 20
-3.600467426319049
 30
0.0
 10
-74.489126871981
 20
-3.643686101288061
 30
0.0
 10
-74.9950143679375
 20
-3.719983008012398
 30
0.0
 10
-75.41348621625136
 20
-3.803457208179587
 30
0.0
 10
-75.56074393514328
 20
-3.835596794568822
 30
0.0
 10
-75.69707848572926
 20
-3.867679903535325
 30
0.0
 10
-75.82379138932878
 20
-3.899497100625033
 30
0.0
  0
LINE
  5
21E88
330
1F
100
AcDbEntity
  8
SKVIEW1
100
AcDbLine
 10
-81.2778357513144
 20
6.313031999999999
 30
0.0
 11
-81.2778357513144
 21
8.879999999999974
 31
0.0
  0
LINE
  5
21E89
330
1F
100
AcDbEntity
  8
SKVIEW1
100
AcDbLine
 10
-70.36299475131437
 20
1.559388999999988
 30
0.0
 11
-61.20982875131438
 21
-2.708802000000012
 31
0.0
  0
ARC
  5
21E8A
330
1F
100
AcDbEntity
  8
SKVIEW1
100
AcDbCircle
 10
-81.2778357513144
 20
-0.0000000000000213
 30
0.0
 40
20.25
100
AcDbArc
 50
336.927937
 51
76.28827000000015
  0
LINE
  5
21E8B
330
1F
100
AcDbEntity
  8
SKVIEW1
100
AcDbLine
 10
-76.47783575131436
 20
8.879999999999974
 30
0.0
 11
-76.47783575131436
 21
19.67288699999992
 31
0.0
  0
LINE
  5
21E8C
330
1F
100
AcDbEntity
  8
SKVIEW1
100
AcDbLine
 10
-76.47783575131436
 20
8.879999999999974
 30
0.0
 11
-81.2778357513144
 21
8.879999999999974
 31
0.0
  0
CIRCLE
  5
21E8D
330
1F
100
AcDbEntity
  8
SKVIEW1
100
AcDbCircle
 10
-67.07501875131427
 20
8.19999999999991
 30
0.0
 40
2.049999999999998
  0
SPLINE
  5
21E8E
330
1F
100
AcDbEntity
  8
SKVIEW1
100
AcDbSpline
210
0.0
220
0.0
230
1.0
 70
     8
 71
     5
 72
    42
 73
    36
 74
     0
 42
0.000000001
 43
0.0000000001
 40
0.0
 40
0.0
 40
0.0
 40
0.0
 40
0.0
 40
0.0
 40
4.090863289598424
 40
4.090863289598424
 40
4.090863289598424
 40
6.152712609462692
 40
6.152712609462692
 40
6.152712609462692
 40
7.570378008711253
 40
7.570378008711253
 40
7.570378008711253
 40
8.826027809137064
 40
8.826027809137064
 40
8.826027809137064
 40
9.94121406424659
 40
9.94121406424659
 40
9.94121406424659
 40
11.17608620309485
 40
11.17608620309485
 40
11.17608620309485
 40
12.64991282853729
 40
12.64991282853729
 40
12.64991282853729
 40
14.47353934689948
 40
14.47353934689948
 40
14.47353934689948
 40
16.50944403600492
 40
16.50944403600492
 40
16.50944403600492
 40
18.52261644786626
 40
18.52261644786626
 40
18.52261644786626
 40
20.91584170637632
 40
20.91584170637632
 40
20.91584170637632
 40
20.91584170637632
 40
20.91584170637632
 40
20.91584170637632
 10
-70.36299255718597
 20
-3.563326123231512
 30
0.0
 10
-70.098922819683
 20
-3.562120346953769
 30
0.0
 10
-69.82913558858027
 20
-3.566712365407305
 30
0.0
 10
-69.55399051382028
 20
-3.578226471955439
 30
0.0
 10
-69.12407032251599
 20
-3.607946570825127
 30
0.0
 10
-68.65956148299045
 20
-3.667048807418062
 30
0.0
 10
-68.49300801080969
 20
-3.691834246046049
 30
0.0
 10
-68.2149153030102
 20
-3.739840198907039
 30
0.0
 10
-67.91514281475659
 20
-3.806709721815558
 30
0.0
 10
-67.78526650495789
 20
-3.838613599469589
 30
0.0
 10
-67.53790798975638
 20
-3.905841250273759
 30
0.0
 10
-67.27137357018898
 20
-3.994017835735711
 30
0.0
 10
-67.14159841158451
 20
-4.040972951357183
 30
0.0
 10
-66.89165764869151
 20
-4.140899689404385
 30
0.0
 10
-66.64075274750328
 20
-4.261133978409951
 30
0.0
 10
-66.52606074828759
 20
-4.321043074643647
 30
0.0
 10
-66.28972487201679
 20
-4.45503812093559
 30
0.0
 10
-66.0796145758525
 20
-4.594588496702861
 30
0.0
 10
-65.97814484172585
 20
-4.66771920400847
 30
0.0
 10
-65.77293951618509
 20
-4.825652162586173
 30
0.0
 10
-65.599781762373
 20
-4.978845298970576
 30
0.0
 10
-65.51324732833288
 20
-5.060651293012845
 30
0.0
 10
-65.33418340157936
 20
-5.24015626117707
 30
0.0
 10
-65.18168588446627
 20
-5.413746358401134
 30
0.0
 10
-65.103605676342
 20
-5.508289103388527
 30
0.0
 10
-64.94969761922527
 20
-5.705559888725154
 30
0.0
 10
-64.81631099350599
 20
-5.897560250060699
 30
0.0
 10
-64.75059148375516
 20
-5.997615694464592
 30
0.0
 10
-64.62728730366819
 20
-6.195534864673412
 30
0.0
 10
-64.51718129494008
 20
-6.391446247735323
 30
0.0
 10
-64.46541092435129
 20
-6.488228947641481
 30
0.0
 10
-64.35766395683663
 20
-6.69931891752585
 30
0.0
 10
-64.261111814808
 20
-6.908947270310953
 30
0.0
 10
-64.21157710943157
 20
-7.022510128573365
 30
0.0
 10
-64.16472677477449
 20
-7.135808625874254
 30
0.0
 10
-64.12030942524649
 20
-7.248964468168445
 30
0.0
  0
LINE
  5
21E8F
330
1F
100
AcDbEntity
  8
SKVIEW1
100
AcDbLine
 10
-64.12028175131436
 20
-7.249011000000017
 30
0.0
 11
-62.64757875131437
 21
-7.935743000000023
 31
0.0
  0
ARC
  5
21E90
330
1F
100
AcDbEntity
  8
SKVIEW1
100
AcDbCircle
 10
-74.01822675131436
 20
-20.94937300000006
 30
0.0
 40
16.350963
100
AcDbArc
 50
92.53982299999844
 51
95.26962799999976
  0
ARC
  5
21E91
330
1F
100
AcDbEntity
  8
SKVIEW1
100
AcDbCircle
 10
-81.2778357513144
 20
-0.0000000000000213
 30
0.0
 40
8.0
100
AcDbArc
 50
324.7736320000016
 51
332.3175819999976
  0
ELLIPSE
  5
21E92
330
1F
100
AcDbEntity
  8
SKVIEW1
100
AcDbEllipse
 10
-72.74523275131437
 20
-15.36410700000001
 30
0.0
 11
10.25315856933593
 21
5.93990135192871
 31
0.0
210
0.0
220
0.0
230
1.0
 40
0.9888519999999999
 41
0.232372166877434
 42
1.173444405951912
  0
LINE
  5
21E93
330
1F
100
AcDbEntity
  8
SKVIEW1
100
AcDbLine
 10
-86.3535247513144
 20
3.095106999999963
 30
0.0
 11
-86.3535247513144
 21
1.240163999999914
 31
0.0
  0
LINE
  5
21E94
330
1F
100
AcDbEntity
  8
SKVIEW1
100
AcDbLine
 10
-92.19267675131442
 20
3.563339999999904
 30
0.0
 11
-92.19267675131442
 21
-1.559389000000031
 31
0.0
  0
ARC
  5
21E95
330
1F
100
AcDbEntity
  8
SKVIEW1
100
AcDbCircle
 10
-90.02690975131438
 20
3.086279999999966
 30
0.0
 40
5.125837999999999
100
AcDbArc
 50
245.0055140000012
 51
301.2652039999949
  0
ARC
  5
21E96
330
1F
100
AcDbEntity
  8
SKVIEW1
100
AcDbCircle
 10
-81.2778357513144
 20
-0.0000000000000213
 30
0.0
 40
6.224999999999997
100
AcDbArc
 50
186.9265929999956
 51
241.3521099999966
  0
SPLINE
  5
21E97
330
1F
100
AcDbEntity
  8
SKVIEW1
100
AcDbSpline
210
0.0
220
0.0
230
1.0
 70
     8
 71
     5
 72
    21
 73
    15
 74
     0
 42
0.000000001
 43
0.0000000001
 40
0.0
 40
0.0
 40
0.0
 40
0.0
 40
0.0
 40
0.0
 40
2.273244541470095
 40
2.273244541470095
 40
2.273244541470095
 40
6.046187009430267
 40
6.046187009430267
 40
6.046187009430267
 40
9.732646580803947
 40
9.732646580803947
 40
9.732646580803947
 40
11.98328296805963
 40
11.98328296805963
 40
11.98328296805963
 40
11.98328296805963
 40
11.98328296805963
 40
11.98328296805963
 10
-92.192678945443
 20
3.563326123230446
 30
0.0
 10
-92.04594125465868
 20
3.563996146335831
 30
0.0
 10
-91.8856706829896
 20
3.562614088498413
 30
0.0
 10
-91.71020709700769
 20
3.559277920772593
 30
0.0
 10
-91.19616417895295
 20
3.546046259733408
 30
0.0
 10
-90.5567815762572
 20
3.528801969837765
 30
0.0
 10
-90.11312124201486
 20
3.521574902680505
 30
0.0
 10
-89.22492104089641
 20
3.536367292385058
 30
0.0
 10
-88.42667386963347
 20
3.600450083071315
 30
0.0
 10
-88.06671703970625
 20
3.643663930102185
 30
0.0
 10
-87.56082176509119
 20
3.719954818270458
 30
0.0
 10
-87.1423394744181
 20
3.803424889345457
 30
0.0
 10
-86.99507764066817
 20
3.835563163588837
 30
0.0
 10
-86.85873894338715
 20
3.867645187084441
 30
0.0
 10
-86.73202186222511
 20
3.899461509007416
 30
0.0
  0
SPLINE
  5
21E98
330
1F
100
AcDbEntity
  8
SKVIEW1
100
AcDbSpline
210
0.0
220
0.0
230
1.0
 70
     8
 71
     5
 72
    42
 73
    36
 74
     0
 42
0.000000001
 43
0.0000000001
 40
0.0
 40
0.0
 40
0.0
 40
0.0
 40
0.0
 40
0.0
 40
4.090863288705653
 40
4.090863288705653
 40
4.090863288705653
 40
6.152712605654182
 40
6.152712605654182
 40
6.152712605654182
 40
7.570378005583782
 40
7.570378005583782
 40
7.570378005583782
 40
8.82602780719166
 40
8.82602780719166
 40
8.82602780719166
 40
9.941214061648397
 40
9.941214061648397
 40
9.941214061648397
 40
11.17608619949769
 40
11.17608619949769
 40
11.17608619949769
 40
12.64991282751213
 40
12.64991282751213
 40
12.64991282751213
 40
14.4735393447463
 40
14.4735393447463
 40
14.4735393447463
 40
16.50944403349352
 40
16.50944403349352
 40
16.50944403349352
 40
18.52261644495829
 40
18.52261644495829
 40
18.52261644495829
 40
20.91584170057172
 40
20.91584170057172
 40
20.91584170057172
 40
20.91584170057172
 40
20.91584170057172
 40
20.91584170057172
 10
-92.19267894544287
 20
3.563326123231014
 30
0.0
 10
-92.4567486828576
 20
3.562120346945768
 30
0.0
 10
-92.72653591393629
 20
3.566712365398622
 30
0.0
 10
-93.00168098867294
 20
3.578226471955396
 30
0.0
 10
-93.43160117972718
 20
3.607946570805644
 30
0.0
 10
-93.89611001890074
 20
3.667048807320021
 30
0.0
 10
-94.06266349184127
 20
3.691834246053282
 30
0.0
 10
-94.3407561996068
 20
3.739840198909384
 30
0.0
 10
-94.64052868771288
 20
3.806709721776179
 30
0.0
 10
-94.77040499715977
 20
3.838613599337215
 30
0.0
 10
-95.01776351250979
 20
3.90584125016344
 30
0.0
 10
-95.28429793221738
 20
3.994017835651426
 30
0.0
 10
-95.4140730909212
 20
4.040972951301888
 30
0.0
 10
-95.66401385389719
 20
4.140899689385129
 30
0.0
 10
-95.9149187551667
 20
4.261133978431622
 30
0.0
 10
-96.02961075439475
 20
4.321043074664181
 30
0.0
 10
-96.26594663033907
 20
4.455038120764335
 30
0.0
 10
-96.4760569262752
 20
4.594588496368466
 30
0.0
 10
-96.57752666038527
 20
4.667719203633488
 30
0.0
 10
-96.78273198613368
 20
4.825652162308507
 30
0.0
 10
-96.95588974018335
 20
4.978845298879583
 30
0.0
 10
-97.0424241744697
 20
5.060651293163893
 30
0.0
 10
-97.22148810134877
 20
5.240156261500921
 30
0.0
 10
-97.37398561843328
 20
5.413746358737263
 30
0.0
 10
-97.45206582655917
 20
5.508289103712606
 30
0.0
 10
-97.60597388357467
 20
5.705559888931567
 30
0.0
 10
-97.7393605093879
 20
5.89756025045208
 30
0.0
 10
-97.80508001929476
 20
5.997615695117794
 30
0.0
 10
-97.92838419945638
 20
6.195534865508399
 30
0.0
 10
-98.0384902080603
 20
6.391446248429566
 30
0.0
 10
-98.09026057864237
 20
6.488228948344477
 30
0.0
 10
-98.19800754605189
 20
6.699318918076279
 30
0.0
 10
-98.29455968799848
 20
6.908947270714158
 30
0.0
 10
-98.34409439331276
 20
7.022510128843443
 30
0.0
 10
-98.39094472790899
 20
7.135808626008703
 30
0.0
 10
-98.4353620773826
 20
7.248964468167493
 30
0.0
  0
ARC
  5
21E99
330
1F
100
AcDbEntity
  8
SKVIEW1
100
AcDbCircle
 10
-88.53744375131441
 20
20.94934899999996
 30
0.0
 40
16.350939
100
AcDbArc
 50
272.5398210000013
 51
275.2700750000014
  0
ARC
  5
21E9A
330
1F
100
AcDbEntity
  8
SKVIEW1
100
AcDbCircle
 10
-81.2778357513144
 20
-0.0000000000000213
 30
0.0
 40
8.0
100
AcDbArc
 50
144.7736320000022
 51
152.3175819999976
  0
ELLIPSE
  5
21E9B
330
1F
100
AcDbEntity
  8
SKVIEW1
100
AcDbEllipse
 10
-89.81043875131438
 20
15.36410699999997
 30
0.0
 11
10.25315856933593
 21
5.93990135192871
 31
0.0
210
0.0
220
0.0
230
1.0
 40
0.9888519999999999
 41
3.373964834154161
 42
4.315037073509357
  0
LINE
  5
21E9C
330
1F
100
AcDbEntity
  8
SKVIEW1
100
AcDbLine
 10
-98.43538975131441
 20
7.249010999999974
 30
0.0
 11
-99.90809275131425
 21
7.93574299999998
 31
0.0
  0
ARC
  5
21E9D
330
1F
100
AcDbEntity
  8
SKVIEW1
100
AcDbCircle
 10
-81.2778357513144
 20
-0.0000000000000213
 30
0.0
 40
20.25
100
AcDbArc
 50
156.9279370000001
 51
256.2882700000001
  0
LINE
  5
21E9E
330
1F
100
AcDbEntity
  8
SKVIEW1
100
AcDbLine
 10
-92.19267675131442
 20
-1.559389000000031
 30
0.0
 11
-101.3458427513143
 21
2.70880199999997
 31
0.0
  0
LINE
  5
21E9F
330
1F
100
AcDbEntity
  8
SKVIEW1
100
AcDbLine
 10
-81.2778357513144
 20
-7.168621000000051
 30
0.0
 11
-81.2778357513144
 21
-6.313039000000024
 31
0.0
  0
LINE
  5
21EA0
330
1F
100
AcDbEntity
  8
SKVIEW1
100
AcDbLine
 10
-86.07783575131435
 20
-8.880000000000016
 30
0.0
 11
-86.07783575131435
 21
-9.554596000000081
 31
0.0
  0
LINE
  5
21EA1
330
1F
100
AcDbEntity
  8
SKVIEW1
100
AcDbLine
 10
-86.07783575131435
 20
-8.880000000000016
 30
0.0
 11
-81.2778357513144
 21
-8.880000000000016
 31
0.0
  0
CIRCLE
  5
21EA2
330
1F
100
AcDbEntity
  8
SKVIEW1
100
AcDbCircle
 10
-95.48065275131438
 20
-8.200000000000066
 30
0.0
 40
2.049999999999998
  0
LINE
  5
21EA3
330
1F
100
AcDbEntity
  8
SKVIEW1
100
AcDbLine
 10
-81.2778357513144
 20
-12.26383
 30
0.0
 11
-81.2778357513144
 21
-10.45000900000004
 31
0.0
  0
LINE
  5
21EA4
330
1F
100
AcDbEntity
  8
SKVIEW1
100
AcDbLine
 10
-81.2778357513144
 20
-20.25000000000002
 30
0.0
 11
-81.2778357513144
 21
-16.29281600000003
 31
0.0
  0
LINE
  5
21EA5
330
1F
100
AcDbEntity
  8
SKVIEW1
100
AcDbLine
 10
-81.2778357513144
 20
9.679999999999928
 30
0.0
 11
-81.2778357513144
 21
8.879999999999974
 31
0.0
  0
LINE
  5
21EA6
330
1F
100
AcDbEntity
  8
SKVIEW1
100
AcDbLine
 10
-81.2778357513144
 20
19.69999999999991
 30
0.0
 11
-81.2778357513144
 21
9.679999999999928
 31
0.0
  0
LINE
  5
21EA7
330
1F
100
AcDbEntity
  8
SKVIEW1
100
AcDbLine
 10
-81.2778357513144
 20
19.69999999999991
 30
0.0
 11
-81.2778357513144
 21
20.49999999999998
 31
0.0
  0
LINE
  5
21EA8
330
1F
100
AcDbEntity
  8
SKVIEW1
100
AcDbLine
 10
-76.47783575131436
 20
19.82540399999991
 30
0.0
 11
-76.47783575131436
 21
19.69999999999991
 31
0.0
  0
LINE
  5
21EA9
330
1F
100
AcDbEntity
  8
SKVIEW1
100
AcDbLine
 10
-76.47783575131436
 20
19.69999999999991
 30
0.0
 11
-76.47783575131436
 21
9.679999999999928
 31
0.0
  0
LINE
  5
21EAA
330
1F
100
AcDbEntity
  8
SKVIEW1
100
AcDbLine
 10
-76.47783575131436
 20
9.679999999999928
 30
0.0
 11
-76.47783575131436
 21
9.554595999999925
 31
0.0
  0
LINE
  5
21EAB
330
1F
100
AcDbEntity
  8
SKVIEW1
100
AcDbLine
 10
-76.47783575131436
 20
9.554595999999925
 30
0.0
 11
-81.2778357513144
 21
8.879999999999974
 31
0.0
  0
LINE
  5
21EAC
330
1F
100
AcDbEntity
  8
SKVIEW1
100
AcDbLine
 10
-76.47783575131436
 20
9.679999999999928
 30
0.0
 11
-81.2778357513144
 21
9.679999999999928
 31
0.0
  0
LINE
  5
21EAD
330
1F
100
AcDbEntity
  8
SKVIEW1
100
AcDbLine
 10
-76.47783575131436
 20
19.69999999999991
 30
0.0
 11
-81.2778357513144
 21
19.69999999999991
 31
0.0
  0
LINE
  5
21EAE
330
1F
100
AcDbEntity
  8
SKVIEW1
100
AcDbLine
 10
-76.47783575131436
 20
19.82540399999991
 30
0.0
 11
-81.2778357513144
 21
20.49999999999998
 31
0.0
  0
LINE
  5
21EAF
330
1F
100
AcDbEntity
  8
SKVIEW1
100
AcDbLine
 10
-81.2778357513144
 20
20.49999999999998
 30
0.0
 11
-81.2778357513144
 21
19.69999999999991
 31
0.0
  0
LINE
  5
21EB0
330
1F
100
AcDbEntity
  8
SKVIEW1
100
AcDbLine
 10
-81.2778357513144
 20
9.679999999999928
 30
0.0
 11
-81.2778357513144
 21
8.879999999999974
 31
0.0
  0
LINE
  5
21EB1
330
1F
100
AcDbEntity
  8
SKVIEW1
100
AcDbLine
 10
-81.2778357513144
 20
9.679999999999928
 30
0.0
 11
-81.2778357513144
 21
19.69999999999991
 31
0.0
  0
LINE
  5
21EB2
330
1F
100
AcDbEntity
  8
SKVIEW1
100
AcDbLine
 10
-81.2778357513144
 20
-19.70000000000006
 30
0.0
 11
-81.2778357513144
 21
-10.45000100000006
 31
0.0
  0
LINE
  5
21EB3
330
1F
100
AcDbEntity
  8
SKVIEW1
100
AcDbLine
 10
-81.2778357513144
 20
-19.70000000000006
 30
0.0
 11
-81.2778357513144
 21
-20.50000000000002
 31
0.0
  0
LINE
  5
21EB4
330
1F
100
AcDbEntity
  8
SKVIEW1
100
AcDbLine
 10
-86.07783575131435
 20
-19.82540400000007
 30
0.0
 11
-86.07783575131435
 21
-19.70000000000006
 31
0.0
  0
LINE
  5
21EB5
330
1F
100
AcDbEntity
  8
SKVIEW1
100
AcDbLine
 10
-86.07783575131435
 20
-19.70000000000006
 30
0.0
 11
-86.07783575131435
 21
-9.680000000000084
 31
0.0
  0
LINE
  5
21EB6
330
1F
100
AcDbEntity
  8
SKVIEW1
100
AcDbLine
 10
-86.07783575131435
 20
-9.680000000000084
 30
0.0
 11
-86.07783575131435
 21
-9.554596000000081
 31
0.0
  0
LINE
  5
21EB7
330
1F
100
AcDbEntity
  8
SKVIEW1
100
AcDbLine
 10
-86.07783575131435
 20
-9.554596000000081
 30
0.0
 11
-81.2778357513144
 21
-8.880000000000016
 31
0.0
  0
LINE
  5
21EB8
330
1F
100
AcDbEntity
  8
SKVIEW1
100
AcDbLine
 10
-86.07783575131435
 20
-9.680000000000084
 30
0.0
 11
-81.2778357513144
 21
-9.680000000000084
 31
0.0
  0
LINE
  5
21EB9
330
1F
100
AcDbEntity
  8
SKVIEW1
100
AcDbLine
 10
-86.07783575131435
 20
-19.70000000000006
 30
0.0
 11
-81.2778357513144
 21
-19.70000000000006
 31
0.0
  0
LINE
  5
21EBA
330
1F
100
AcDbEntity
  8
SKVIEW1
100
AcDbLine
 10
-86.07783575131435
 20
-19.82540400000007
 30
0.0
 11
-81.2778357513144
 21
-20.50000000000002
 31
0.0
  0
LINE
  5
21EBB
330
1F
100
AcDbEntity
  8
SKVIEW1
100
AcDbLine
 10
-81.2778357513144
 20
-20.50000000000002
 30
0.0
 11
-81.2778357513144
 21
-19.70000000000006
 31
0.0
  0
LINE
  5
21EBC
330
1F
100
AcDbEntity
  8
SKVIEW1
100
AcDbLine
 10
-81.2778357513144
 20
-20.50000000000002
 30
0.0
 11
-81.2778357513144
 21
-19.70000000000006
 31
0.0
  0
LINE
  5
21EBD
330
1F
100
AcDbEntity
  8
SKVIEW1
100
AcDbLine
 10
-81.2778357513144
 20
-19.70000000000006
 30
0.0
 11
-81.2778357513144
 21
-16.2927900000001
 31
0.0
  0
LINE
  5
21EBE
330
1F
100
AcDbEntity
  8
SKVIEW1
100
AcDbLine
 10
-81.2778357513144
 20
-12.26387000000002
 30
0.0
 11
-81.2778357513144
 21
-10.45000900000004
 31
0.0
  0
LINE
  5
21EBF
330
1F
100
AcDbEntity
  8
SKVIEW1
100
AcDbLine
 10
-81.2778357513144
 20
-10.45000000000006
 30
0.0
 11
-81.2778357513144
 21
-19.70000000000006
 31
0.0
  0
ARC
  5
21EC0
330
1F
100
AcDbEntity
  8
SKVIEW1
100
AcDbCircle
 10
-81.2778357513144
 20
-0.0000000000000213
 30
0.0
 40
5.224999999999996
100
AcDbArc
 50
344.2721450000008
 51
355.0242179999994
  0
ARC
  5
21EC1
330
1F
100
AcDbEntity
  8
SKVIEW1
100
AcDbCircle
 10
-86.99547875131438
 20
3.581096999999978
 30
0.0
 40
2.271544
100
AcDbArc
 50
287.6375760000011
 51
307.5292149999981
  0
ARC
  5
21EC2
330
1F
100
AcDbEntity
  8
SKVIEW1
100
AcDbCircle
 10
-75.56019275131436
 20
-3.581097000000021
 30
0.0
 40
2.271544
100
AcDbArc
 50
107.6375760000011
 51
127.5292149999993
  0
LINE
  5
21EC3
330
1F
100
AcDbEntity
  8
SKVIEW1
100
AcDbLine
 10
-75.05534775131437
 20
-0.1768390000001077
 30
0.0
 11
-75.19052275131437
 21
-0.1886650000000358
 31
0.0
  0
ARC
  5
21EC4
330
1F
100
AcDbEntity
  8
SKVIEW1
100
AcDbCircle
 10
-74.99253375131437
 20
-2.451519000000097
 30
0.0
 40
2.271499
100
AcDbArc
 50
95.00037100000033
 51
118.3888879999978
  0
SPLINE
  5
21EC5
330
1F
100
AcDbEntity
  8
SKVIEW1
100
AcDbSpline
210
0.0
220
0.0
230
1.0
 70
     8
 71
     5
 72
    18
 73
    12
 74
     0
 42
0.000000001
 43
0.0000000001
 40
0.0
 40
0.0
 40
0.0
 40
0.0
 40
0.0
 40
0.0
 40
1.729309354610043
 40
1.729309354610043
 40
1.729309354610043
 40
3.375008613846441
 40
3.375008613846441
 40
3.375008613846441
 40
5.489051319940542
 40
5.489051319940542
 40
5.489051319940542
 40
5.489051319940542
 40
5.489051319940542
 40
5.489051319940542
 10
-76.8600703618747
 20
-0.8533261590690912
 30
0.0
 10
-76.79544547482186
 20
-0.6905778369308777
 30
0.0
 10
-76.71506579895299
 20
-0.5411978844355403
 30
0.0
 10
-76.62250931719817
 20
-0.4113170738724179
 30
0.0
 10
-76.42727913762297
 20
-0.1942265941080663
 30
0.0
 10
-76.21254791652098
 20
-0.0422114513970868
 30
0.0
 10
-76.10486165037477
 20
0.0182036963686656
 30
0.0
 10
-75.85604928011645
 20
0.1271936079786897
 30
0.0
 10
-75.6047348503302
 20
0.1772189252444392
 30
0.0
 10
-75.46432852633427
 20
0.1893606531984702
 30
0.0
 10
-75.32610454208736
 20
0.187561841219896
 30
0.0
 10
-75.19006254584437
 20
0.1731958633266473
 30
0.0
  0
ARC
  5
21EC6
330
1F
100
AcDbEntity
  8
SKVIEW1
100
AcDbCircle
 10
-75.02537475131436
 20
-1.585529000000086
 30
0.0
 40
1.975383
100
AcDbArc
 50
158.2437119999997
 51
165.7025550000019
  0
SPLINE
  5
21EC7
330
1F
100
AcDbEntity
  8
SKVIEW1
100
AcDbSpline
210
0.0
220
0.0
230
1.0
 70
     8
 71
     5
 72
    12
 73
     6
 74
     0
 42
0.000000001
 43
0.0000000001
 40
0.0
 40
0.0
 40
0.0
 40
0.0
 40
0.0
 40
0.0
 40
1.681878761469635
 40
1.681878761469635
 40
1.681878761469635
 40
1.681878761469635
 40
1.681878761469635
 40
1.681878761469635
 10
-76.93955187393308
 20
-1.097702122867097
 30
0.0
 10
-76.97714207537259
 20
-1.246331294924651
 30
0.0
 10
-76.99555788742308
 20
-1.384568060406557
 30
0.0
 10
-76.99652939688189
 20
-1.506681256878458
 30
0.0
 10
-76.98668598145508
 20
-1.602155876223854
 30
0.0
 10
-76.97191359253555
 20
-1.67140645532006
 30
0.0
  0
ARC
  5
21EC8
330
1F
100
AcDbEntity
  8
SKVIEW1
100
AcDbCircle
 10
-75.41780175131435
 20
-1.317572000000062
 30
0.0
 40
1.594214999999999
100
AcDbArc
 50
192.8262520000025
 51
209.7926419999992
  0
ARC
  5
21EC9
330
1F
100
AcDbEntity
  8
SKVIEW1
100
AcDbCircle
 10
-81.2774557513144
 20
0.000008999999956
 30
0.0
 40
6.089856
100
AcDbArc
 50
358.2245970000017
 51
1.629633000002724
  0
ARC
  5
21ECA
330
1F
100
AcDbEntity
  8
SKVIEW1
100
AcDbCircle
 10
-81.2778357513144
 20
-0.0000000000000213
 30
0.0
 40
5.224999999999996
100
AcDbArc
 50
164.2721450000008
 51
175.0242179999993
  0
SPLINE
  5
21ECB
330
1F
100
AcDbEntity
  8
SKVIEW1
100
AcDbSpline
210
0.0
220
0.0
230
1.0
 70
     8
 71
     5
 72
    18
 73
    12
 74
     0
 42
0.000000001
 43
0.0000000001
 40
0.0
 40
0.0
 40
0.0
 40
0.0
 40
0.0
 40
0.0
 40
1.729309355700761
 40
1.729309355700761
 40
1.729309355700761
 40
3.375008615963241
 40
3.375008615963241
 40
3.375008615963241
 40
5.489051324713122
 40
5.489051324713122
 40
5.489051324713122
 40
5.489051324713122
 40
5.489051324713122
 40
5.489051324713122
 10
-85.69560114075409
 20
0.8533261590689349
 30
0.0
 10
-85.7602260278473
 20
0.6905778368289717
 30
0.0
 10
-85.84060570377648
 20
0.541197884247687
 30
0.0
 10
-85.93316218554969
 20
0.4113170737200349
 30
0.0
 10
-86.12839236513082
 20
0.1942265939909262
 30
0.0
 10
-86.34312358638377
 20
0.0422114512206022
 30
0.0
 10
-86.45080985264559
 20
-0.0182036965376469
 30
0.0
 10
-86.69962222260398
 20
-0.1271936079732754
 30
0.0
 10
-86.95093665205609
 20
-0.1772189251925269
 30
0.0
 10
-87.091342975948
 20
-0.189360653203515
 30
0.0
 10
-87.22956696037096
 20
-0.1875618412381286
 30
0.0
 10
-87.3656089567844
 20
-0.1731958633269173
 30
0.0
  0
ARC
  5
21ECC
330
1F
100
AcDbEntity
  8
SKVIEW1
100
AcDbCircle
 10
-87.53029675131438
 20
1.58552899999993
 30
0.0
 40
1.975383
100
AcDbArc
 50
338.2437119999997
 51
345.7025550000019
  0
SPLINE
  5
21ECD
330
1F
100
AcDbEntity
  8
SKVIEW1
100
AcDbSpline
210
0.0
220
0.0
230
1.0
 70
     8
 71
     5
 72
    12
 73
     6
 74
     0
 42
0.000000001
 43
0.0000000001
 40
0.0
 40
0.0
 40
0.0
 40
0.0
 40
0.0
 40
0.0
 40
1.681878737346524
 40
1.681878737346524
 40
1.681878737346524
 40
1.681878737346524
 40
1.681878737346524
 40
1.681878737346524
 10
-85.61611962869747
 20
1.097702122859779
 30
0.0
 10
-85.57852942770768
 20
1.24633129313802
 30
0.0
 10
-85.56011361557777
 20
1.384568057364482
 30
0.0
 10
-85.55914210602924
 20
1.506681259614403
 30
0.0
 10
-85.56898552138568
 20
1.602155877215956
 30
0.0
 10
-85.5837579100932
 20
1.671406455319903
 30
0.0
  0
ARC
  5
21ECE
330
1F
100
AcDbEntity
  8
SKVIEW1
100
AcDbCircle
 10
-87.13786975131439
 20
1.317571999999792
 30
0.0
 40
1.594214999999999
100
AcDbArc
 50
12.82625200000259
 51
29.79264199999922
  0
ARC
  5
21ECF
330
1F
100
AcDbEntity
  8
SKVIEW1
100
AcDbCircle
 10
-87.56313775131435
 20
2.45151899999994
 30
0.0
 40
2.271499
100
AcDbArc
 50
275.0003710000004
 51
298.3888879999978
  0
ARC
  5
21ED0
330
1F
100
AcDbEntity
  8
SKVIEW1
100
AcDbCircle
 10
-81.27821575131438
 20
-0.0000089999999986
 30
0.0
 40
6.089856
100
AcDbArc
 50
178.2245970000017
 51
181.6296330000027
  0
LINE
  5
21ED1
330
1F
100
AcDbEntity
  8
SKVIEW1
100
AcDbLine
 10
-86.49131875131439
 20
3.3018589999999
 30
0.0
 11
-86.56141275131437
 21
3.47589799999978
 31
0.0
  0
ARC
  5
21ED2
330
1F
100
AcDbEntity
  8
SKVIEW1
100
AcDbCircle
 10
19.97310024868562
 20
46.56549799999991
 30
0.0
 40
114.918706
100
AcDbArc
 50
199.9109400000024
 51
202.021663999997
  0
ARC
  5
21ED3
330
1F
100
AcDbEntity
  8
SKVIEW1
100
AcDbCircle
 10
-72.42743175131437
 20
8.304665999999976
 30
0.0
 40
15.673154
100
AcDbArc
 50
181.4084810000043
 51
183.2031810000001
  0
ARC
  5
21ED4
330
1F
100
AcDbEntity
  8
SKVIEW1
100
AcDbCircle
 10
-100.0443587513144
 20
-5.91026200000001
 30
0.0
 40
16.387217
100
AcDbArc
 50
29.30235200000017
 51
34.20429200000297
  0
LINE
  5
21ED5
330
1F
100
AcDbEntity
  8
SKVIEW1
100
AcDbLine
 10
-76.06435275131437
 20
-3.301859000000057
 30
0.0
 11
-75.99425875131436
 21
-3.47589800000005
 31
0.0
  0
ARC
  5
21ED6
330
1F
100
AcDbEntity
  8
SKVIEW1
100
AcDbCircle
 10
-182.5156077513143
 20
-46.56002300000001
 30
0.0
 40
114.904456
100
AcDbArc
 50
19.91060899999988
 51
22.02159400000469
  0
ARC
  5
21ED7
330
1F
100
AcDbEntity
  8
SKVIEW1
100
AcDbCircle
 10
-90.12766875131438
 20
-8.304643000000076
 30
0.0
 40
15.672582
100
AcDbArc
 50
1.408448999996766
 51
3.203214000002021
  0
ARC
  5
21ED8
330
1F
100
AcDbEntity
  8
SKVIEW1
100
AcDbCircle
 10
-62.51131275131436
 20
5.910261999999967
 30
0.0
 40
16.387217
100
AcDbArc
 50
209.3023520000002
 51
214.2042920000029
  0
ARC
  5
21ED9
330
1F
100
AcDbEntity
  8
SKVIEW1
100
AcDbCircle
 10
-81.2778357513144
 20
-0.0000000000000213
 30
0.0
 40
6.224999999999997
100
AcDbArc
 50
358.3721310000005
 51
63.54647100000001
  0
LINE
  5
21EDA
330
1F
100
AcDbEntity
  8
SKVIEW1
100
AcDbLine
 10
-75.19006275131437
 20
0.1731959999999404
 30
0.0
 11
-75.05483975131437
 21
0.1581269999999009
 31
0.0
  0
LINE
  5
21EDB
330
1F
100
AcDbEntity
  8
SKVIEW1
100
AcDbLine
 10
-81.2778357513144
 20
10.0699999999998
 30
0.0
 11
-81.2778357513144
 21
10.44999999999991
 31
0.0
  0
LINE
  5
21EDC
330
1F
100
AcDbEntity
  8
SKVIEW1
100
AcDbLine
 10
-81.2778357513144
 20
7.168619999999897
 30
0.0
 11
-81.2778357513144
 21
10.0699999999998
 31
0.0
  0
ARC
  5
21EDD
330
1F
100
AcDbEntity
  8
SKVIEW1
100
AcDbCircle
 10
-80.97783575131439
 20
6.740827999999943
 30
0.0
 40
0.5225
100
AcDbArc
 50
125.0410150000039
 51
267.4517369999993
  0
ARC
  5
21EDE
330
1F
100
AcDbEntity
  8
SKVIEW1
100
AcDbCircle
 10
-81.2778357513144
 20
-0.0000000000000213
 30
0.0
 40
6.224999999999997
100
AcDbArc
 50
63.54648200000189
 51
87.45173699999922
  0
LINE
  5
21EDF
330
1F
100
AcDbEntity
  8
SKVIEW1
100
AcDbLine
 10
-80.90314175131439
 20
0.2300119999999666
 30
0.0
 11
-76.86007075131437
 21
-0.8533260000000595
 31
0.0
  0
ARC
  5
21EE0
330
1F
100
AcDbEntity
  8
SKVIEW1
100
AcDbCircle
 10
-83.67967575131439
 20
7.061543999999891
 30
0.0
 40
5.384513
100
AcDbArc
 50
335.2505960000007
 51
343.9545139999986
  0
LINE
  5
21EE1
330
1F
100
AcDbEntity
  8
SKVIEW1
100
AcDbLine
 10
-79.5915077513144
 20
3.086802999999783
 30
0.0
 11
-78.78989775131436
 21
4.807386999999927
 31
0.0
  0
SPLINE
  5
21EE2
330
1F
100
AcDbEntity
  8
SKVIEW1
100
AcDbSpline
210
0.0
220
0.0
230
1.0
 70
     8
 71
     5
 72
    27
 73
    21
 74
     0
 42
0.000000001
 43
0.0000000001
 40
0.0
 40
0.0
 40
0.0
 40
0.0
 40
0.0
 40
0.0
 40
21.47407369842301
 40
21.47407369842301
 40
21.47407369842301
 40
32.08633448686121
 40
32.08633448686121
 40
32.08633448686121
 40
37.37029621106153
 40
37.37029621106153
 40
37.37029621106153
 40
46.29260523937399
 40
46.29260523937399
 40
46.29260523937399
 40
51.11490583363018
 40
51.11490583363018
 40
51.11490583363018
 40
53.57489804349036
 40
53.57489804349036
 40
53.57489804349036
 40
53.57489804349036
 40
53.57489804349036
 40
53.57489804349036
 10
-80.90314199398035
 20
0.230011619692597
 30
0.0
 10
-80.89139867930748
 20
0.2593720168931455
 30
0.0
 10
-80.87747373282359
 20
0.2932664412074715
 30
0.0
 10
-80.86165058180009
 20
0.3306535753486983
 30
0.0
 10
-80.83099042212774
 20
0.4022916216558557
 30
0.0
 10
-80.78257446823199
 20
0.5115020491627789
 30
0.0
 10
-80.76429391015096
 20
0.5523512632808903
 30
0.0
 10
-80.73112014338169
 20
0.626129196852709
 30
0.0
 10
-80.68574123964351
 20
0.7260203223489512
 30
0.0
 10
-80.66907123136036
 20
0.7626305728378853
 30
0.0
 10
-80.61884976639428
 20
0.8725956687467046
 30
0.0
 10
-80.5502049174197
 20
1.022066560824534
 30
0.0
 10
-80.50004722084759
 20
1.130906070134052
 30
0.0
 10
-80.396805951701
 20
1.354426436549694
 30
0.0
 10
-80.21892179831018
 20
1.737906375935359
 30
0.0
 10
-80.14243839762926
 20
1.902635278203867
 30
0.0
 10
-80.0032256851631
 20
2.202176672681936
 30
0.0
 10
-79.81543622071092
 20
2.605793302465919
 30
0.0
 10
-79.74847055933537
 20
2.749675676131893
 30
0.0
 10
-79.67286011982998
 20
2.912092250759179
 30
0.0
 10
-79.59150767238617
 20
3.086802843256897
 30
0.0
  0
LINE
  5
21EE3
330
1F
100
AcDbEntity
  8
SKVIEW1
100
AcDbLine
 10
-80.22794775131439
 20
-0.7989549999999995
 30
0.0
 11
-76.97191375131436
 21
-1.671406000000068
 31
0.0
  0
SPLINE
  5
21EE4
330
1F
100
AcDbEntity
  8
SKVIEW1
100
AcDbSpline
210
0.0
220
0.0
230
1.0
 70
     8
 71
     5
 72
    60
 73
    54
 74
     0
 42
0.000000001
 43
0.0000000001
 40
0.0
 40
0.0
 40
0.0
 40
0.0
 40
0.0
 40
0.0
 40
24.70065814766485
 40
24.70065814766485
 40
24.70065814766485
 40
61.75112937990846
 40
61.75112937990846
 40
61.75112937990846
 40
100.4982526136432
 40
100.4982526136432
 40
100.4982526136432
 40
112.9679339078998
 40
112.9679339078998
 40
112.9679339078998
 40
118.5799234063412
 40
118.5799234063412
 40
118.5799234063412
 40
120.3236092431533
 40
120.3236092431533
 40
120.3236092431533
 40
122.0993048063291
 40
122.0993048063291
 40
122.0993048063291
 40
122.9333793146538
 40
122.9333793146538
 40
122.9333793146538
 40
123.7932518112974
 40
123.7932518112974
 40
123.7932518112974
 40
123.8686786852919
 40
123.8686786852919
 40
123.8686786852919
 40
123.9441055592864
 40
123.9441055592864
 40
123.9441055592864
 40
124.0947719664285
 40
124.0947719664285
 40
124.0947719664285
 40
124.2313814555663
 40
124.2313814555663
 40
124.2313814555663
 40
124.2997052323405
 40
124.2997052323405
 40
124.2997052323405
 40
124.3680290091146
 40
124.3680290091146
 40
124.3680290091146
 40
124.7960420868231
 40
124.7960420868231
 40
124.7960420868231
 40
125.5878220862593
 40
125.5878220862593
 40
125.5878220862593
 40
125.5878220862593
 40
125.5878220862593
 40
125.5878220862593
 10
-80.90314199398035
 20
0.230011619692597
 30
0.0
 10
-80.91665156145666
 20
0.1962352730625767
 30
0.0
 10
-80.92387360373018
 20
0.1705465677192492
 30
0.0
 10
-80.92914219776146
 20
0.1482027891114299
 30
0.0
 10
-80.93838931744029
 20
0.0962806205853681
 30
0.0
 10
-80.93945802682668
 20
0.0531681033950022
 30
0.0
 10
-80.93807176338629
 20
0.0284821204945516
 30
0.0
 10
-80.93168134371564
 20
-0.0224078758410755
 30
0.0
 10
-80.91528359800788
 20
-0.0790436423502783
 30
0.0
 10
-80.90529446379077
 20
-0.1054845144028818
 30
0.0
 10
-80.88717780374791
 20
-0.151475538111093
 30
0.0
 10
-80.84295443878867
 20
-0.2275267396617195
 30
0.0
 10
-80.83044642036989
 20
-0.2476841339230518
 30
0.0
 10
-80.80792477075021
 20
-0.2823463891299056
 30
0.0
 10
-80.771802258473
 20
-0.3308485126135778
 30
0.0
 10
-80.75972324404023
 20
-0.3464188681212121
 30
0.0
 10
-80.74137967197239
 20
-0.3693116138962509
 30
0.0
 10
-80.71663097801446
 20
-0.3982490860345464
 30
0.0
 10
-80.71030327752877
 20
-0.4055477199782658
 30
0.0
 10
-80.69629401693488
 20
-0.4214501712350725
 30
0.0
 10
-80.67885394200187
 20
-0.4404961035231949
 30
0.0
 10
-80.66985837138298
 20
-0.4501541002962526
 30
0.0
 10
-80.65302168737629
 20
-0.4677554756185814
 30
0.0
 10
-80.63361529291128
 20
-0.4872354016039467
 30
0.0
 10
-80.62710346932261
 20
-0.4936959425424661
 30
0.0
 10
-80.61277499878617
 20
-0.5077732616165563
 30
0.0
 10
-80.59414431628528
 20
-0.5255224859619361
 30
0.0
 10
-80.58427373349969
 20
-0.5347211392920812
 30
0.0
 10
-80.5708334819034
 20
-0.5471709106497187
 30
0.0
 10
-80.551296628523
 20
-0.5644694952126415
 30
0.0
 10
-80.5496778709984
 20
-0.5658988640863285
 30
0.0
 10
-80.54634579635239
 20
-0.5688325853255023
 30
0.0
 10
-80.54280340977499
 20
-0.5719328822890688
 30
0.0
 10
-80.54052845577908
 20
-0.5738892147260444
 30
0.0
 10
-80.52980153428121
 20
-0.5828695971726106
 30
0.0
 10
-80.51048886118497
 20
-0.5986718893883776
 30
0.0
 10
-80.49538586060505
 20
-0.6109460037795529
 30
0.0
 10
-80.46635368228098
 20
-0.6344277279513549
 30
0.0
 10
-80.43902916100638
 20
-0.6561612409459699
 30
0.0
 10
-80.42649117109727
 20
-0.6660142722442047
 30
0.0
 10
-80.41356034155597
 20
-0.6757442221137567
 30
0.0
 10
-80.40362149789709
 20
-0.6829792604874215
 30
0.0
 10
-80.40031258215321
 20
-0.6853989044485829
 30
0.0
 10
-80.39411321322347
 20
-0.6898915826765446
 30
0.0
 10
-80.38838221107539
 20
-0.6940061985293582
 30
0.0
 10
-80.3856106102001
 20
-0.6959875639116931
 30
0.0
 10
-80.36605106322957
 20
-0.7099165525051135
 30
0.0
 10
-80.35006319261388
 20
-0.7209516996564603
 30
0.0
 10
-80.33928185457037
 20
-0.7282934231423255
 30
0.0
 10
-80.30552150650725
 20
-0.7508791182589434
 30
0.0
 10
-80.27727546929487
 20
-0.7688742158016098
 30
0.0
 10
-80.25997383151468
 20
-0.7796552413615459
 30
0.0
 10
-80.24361916771766
 20
-0.7896114614972234
 30
0.0
 10
-80.22794773194489
 20
-0.7989547371340891
 30
0.0
  0
LINE
  5
21EE5
330
1F
100
AcDbEntity
  8
SKVIEW1
100
AcDbLine
 10
-76.70520675131436
 20
-2.896873000000049
 30
0.0
 11
-80.22794775131439
 21
-0.7989549999999995
 31
0.0
  0
ARC
  5
21EE6
330
1F
100
AcDbEntity
  8
SKVIEW1
100
AcDbCircle
 10
-84.28935375131439
 20
-15.60482000000004
 30
0.0
 40
14.799067
100
AcDbArc
 50
56.23575300000138
 51
59.17109899999839
  0
LINE
  5
21EE7
330
1F
100
AcDbEntity
  8
SKVIEW1
100
AcDbLine
 10
-87.50032375131439
 20
0.1768389999999513
 30
0.0
 11
-87.36514875131438
 21
0.1886649999999932
 31
0.0
  0
LINE
  5
21EE8
330
1F
100
AcDbEntity
  8
SKVIEW1
100
AcDbLine
 10
-85.69560075131438
 20
0.8533259999999032
 30
0.0
 11
-81.65252975131437
 21
-0.2300120000000092
 31
0.0
  0
LINE
  5
21EE9
330
1F
100
AcDbEntity
  8
SKVIEW1
100
AcDbLine
 10
-87.36560875131443
 20
-0.1731960000000967
 30
0.0
 11
-87.50083175131441
 21
-0.1581270000000572
 31
0.0
  0
ARC
  5
21EEA
330
1F
100
AcDbEntity
  8
SKVIEW1
100
AcDbCircle
 10
-81.2778357513144
 20
-0.0000000000000213
 30
0.0
 40
6.224999999999997
100
AcDbArc
 50
178.3721310000005
 51
267.4517280000008
  0
ARC
  5
21EEB
330
1F
100
AcDbEntity
  8
SKVIEW1
100
AcDbCircle
 10
-78.87599575131438
 20
-7.061544000000047
 30
0.0
 40
5.384513
100
AcDbArc
 50
155.2505960000007
 51
163.9545139999986
  0
LINE
  5
21EEC
330
1F
100
AcDbEntity
  8
SKVIEW1
100
AcDbLine
 10
-82.96416375131437
 20
-3.086803000000053
 30
0.0
 11
-83.76577375131438
 21
-4.807387000000083
 31
0.0
  0
SPLINE
  5
21EED
330
1F
100
AcDbEntity
  8
SKVIEW1
100
AcDbSpline
210
0.0
220
0.0
230
1.0
 70
     8
 71
     5
 72
    27
 73
    21
 74
     0
 42
0.000000001
 43
0.0000000001
 40
0.0
 40
0.0
 40
0.0
 40
0.0
 40
0.0
 40
0.0
 40
21.47407370402778
 40
21.47407370402778
 40
21.47407370402778
 40
32.08633449244555
 40
32.08633449244555
 40
32.08633449244555
 40
37.37029621667784
 40
37.37029621667784
 40
37.37029621667784
 40
46.29260524890133
 40
46.29260524890133
 40
46.29260524890133
 40
51.11490584307968
 40
51.11490584307968
 40
51.11490584307968
 40
53.57489805277054
 40
53.57489805277054
 40
53.57489805277054
 40
53.57489805277054
 40
53.57489805277054
 40
53.57489805277054
 10
-81.65252950864839
 20
-0.230011619692867
 30
0.0
 10
-81.66427282332477
 20
-0.2593720169012599
 30
0.0
 10
-81.67819776981259
 20
-0.2932664412258177
 30
0.0
 10
-81.69402092082476
 20
-0.3306535753344164
 30
0.0
 10
-81.7246810804977
 20
-0.4022916216486223
 30
0.0
 10
-81.7730970343848
 20
-0.5115020491330356
 30
0.0
 10
-81.79137759245879
 20
-0.5523512632379593
 30
0.0
 10
-81.8245513592239
 20
-0.6261291968000009
 30
0.0
 10
-81.86993026295548
 20
-0.7260203222814639
 30
0.0
 10
-81.8866002712364
 20
-0.7626305727668737
 30
0.0
 10
-81.93682173620368
 20
-0.8725956686780804
 30
0.0
 10
-82.00546658519639
 20
-1.022066560795927
 30
0.0
 10
-82.0556242817174
 20
-1.130906070000627
 30
0.0
 10
-82.15886555088449
 20
-1.354426436449692
 30
0.0
 10
-82.33674970429609
 20
-1.737906375897772
 30
0.0
 10
-82.41323310498557
 20
-1.902635278188107
 30
0.0
 10
-82.55244581744387
 20
-2.202176672645826
 30
0.0
 10
-82.74023528193225
 20
-2.605793302489495
 30
0.0
 10
-82.80720094329749
 20
-2.749675676146033
 30
0.0
 10
-82.88281138282528
 20
-2.912092250804242
 30
0.0
 10
-82.9641638302426
 20
-3.08680284325694
 30
0.0
  0
SPLINE
  5
21EEE
330
1F
100
AcDbEntity
  8
SKVIEW1
100
AcDbSpline
210
0.0
220
0.0
230
1.0
 70
     8
 71
     5
 72
    60
 73
    54
 74
     0
 42
0.000000001
 43
0.0000000001
 40
0.0
 40
0.0
 40
0.0
 40
0.0
 40
0.0
 40
0.0
 40
24.70065814706037
 40
24.70065814706037
 40
24.70065814706037
 40
61.7511293783972
 40
61.7511293783972
 40
61.7511293783972
 40
100.4982525744516
 40
100.4982525744516
 40
100.4982525744516
 40
112.967933869579
 40
112.967933869579
 40
112.967933869579
 40
118.5799233701792
 40
118.5799233701792
 40
118.5799233701792
 40
120.3236091808466
 40
120.3236091808466
 40
120.3236091808466
 40
122.0993047273417
 40
122.0993047273417
 40
122.0993047273417
 40
122.9333792525501
 40
122.9333792525501
 40
122.9333792525501
 40
123.7932517664489
 40
123.7932517664489
 40
123.7932517664489
 40
123.8686786415108
 40
123.8686786415108
 40
123.8686786415108
 40
123.9441055165727
 40
123.9441055165727
 40
123.9441055165727
 40
124.0947719260391
 40
124.0947719260391
 40
124.0947719260391
 40
124.2313814146278
 40
124.2313814146278
 40
124.2313814146278
 40
124.2997051911324
 40
124.2997051911324
 40
124.2997051911324
 40
124.368028967637
 40
124.368028967637
 40
124.368028967637
 40
124.7960420500228
 40
124.7960420500228
 40
124.7960420500228
 40
125.5878220670314
 40
125.5878220670314
 40
125.5878220670314
 40
125.5878220670314
 40
125.5878220670314
 40
125.5878220670314
 10
-81.65252950864839
 20
-0.230011619692867
 30
0.0
 10
-81.63901994117248
 20
-0.1962352730635288
 30
0.0
 10
-81.63179789889943
 20
-0.1705465677215656
 30
0.0
 10
-81.62652930486478
 20
-0.1482027891001039
 30
0.0
 10
-81.61728218518726
 20
-0.0962806205731326
 30
0.0
 10
-81.61621347580297
 20
-0.0531681033909521
 30
0.0
 10
-81.61759973924509
 20
-0.0284821204872046
 30
0.0
 10
-81.62399015890926
 20
0.0224078758227293
 30
0.0
 10
-81.64038790460892
 20
0.0790436423018051
 30
0.0
 10
-81.65037703886287
 20
0.105484514471506
 30
0.0
 10
-81.6684936989189
 20
0.1514755381744877
 30
0.0
 10
-81.71271706384692
 20
0.227526739671454
 30
0.0
 10
-81.72522508225876
 20
0.2476841339240323
 30
0.0
 10
-81.74774673188489
 20
0.2823463891380484
 30
0.0
 10
-81.78386924416958
 20
0.3308485126324072
 30
0.0
 10
-81.79594825852149
 20
0.3464188680369276
 30
0.0
 10
-81.81429183074271
 20
0.3693116139844292
 30
0.0
 10
-81.83904052489626
 20
0.3982490863439594
 30
0.0
 10
-81.84536822534628
 20
0.4055477202459557
 30
0.0
 10
-81.85937748586297
 20
0.4214501714154509
 30
0.0
 10
-81.87681756060909
 20
0.4404961035021202
 30
0.0
 10
-81.88581313084098
 20
0.4501540998582883
 30
0.0
 10
-81.90264981496666
 20
0.4677554753124938
 30
0.0
 10
-81.92205620873449
 20
0.4872354006408628
 30
0.0
 10
-81.9285680321458
 20
0.4936959414140816
 30
0.0
 10
-81.94289650230576
 20
0.5077732601385847
 30
0.0
 10
-81.96152718455868
 20
0.525522484281602
 30
0.0
 10
-81.97139776731379
 20
0.5347211376150441
 30
0.0
 10
-81.98483801894298
 20
0.5471709090286155
 30
0.0
 10
-82.00437487220359
 20
0.5644694935312842
 30
0.0
 10
-82.00599362970828
 20
0.5658988623911015
 30
0.0
 10
-82.00932570431078
 20
0.5688325835995798
 30
0.0
 10
-82.01286809083638
 20
0.5719328805265392
 30
0.0
 10
-82.01514304359738
 20
0.5738892119750077
 30
0.0
 10
-82.02586996242477
 20
0.5828695922985859
 30
0.0
 10
-82.04518263403668
 20
0.5986718833573619
 30
0.0
 10
-82.06028563480499
 20
0.610945997923956
 30
0.0
 10
-82.08931781309548
 20
0.6344277221207691
 30
0.0
 10
-82.11664233537096
 20
0.6561612360115774
 30
0.0
 10
-82.12918032585017
 20
0.6660142678364096
 30
0.0
 10
-82.14211115737859
 20
0.6757442194160391
 30
0.0
 10
-82.15205000123797
 20
0.682979257937042
 30
0.0
 10
-82.15535891709738
 20
0.6853989019929046
 30
0.0
 10
-82.1615582862309
 20
0.6898915803873038
 30
0.0
 10
-82.16728928852871
 20
0.6940061963631266
 30
0.0
 10
-82.17006088946789
 20
0.6959875617978711
 30
0.0
 10
-82.18962043708939
 20
0.7099165509014043
 30
0.0
 10
-82.20560830792242
 20
0.7209516982141864
 30
0.0
 10
-82.21638964525681
 20
0.7282934212509887
 30
0.0
 10
-82.25014999435009
 20
0.7508791171219187
 30
0.0
 10
-82.27839603217717
 20
0.7688742150795421
 30
0.0
 10
-82.29569767038828
 20
0.7796552409198299
 30
0.0
 10
-82.31205233456325
 20
0.7896114612895886
 30
0.0
 10
-82.32772377068389
 20
0.7989547371339328
 30
0.0
  0
LINE
  5
21EEF
330
1F
100
AcDbEntity
  8
SKVIEW1
100
AcDbLine
 10
-82.32772375131435
 20
0.7989549999999568
 30
0.0
 11
-85.58375775131437
 21
1.671405999999912
 31
0.0
  0
LINE
  5
21EF0
330
1F
100
AcDbEntity
  8
SKVIEW1
100
AcDbLine
 10
-85.85046475131438
 20
2.896872999999892
 30
0.0
 11
-82.32772375131435
 21
0.7989549999999568
 31
0.0
  0
ARC
  5
21EF1
330
1F
100
AcDbEntity
  8
SKVIEW1
100
AcDbCircle
 10
-78.26631775131438
 20
15.60481999999999
 30
0.0
 40
14.799067
100
AcDbArc
 50
236.2357530000013
 51
239.1710989999984
  0
ARC
  5
21EF2
330
1F
100
AcDbEntity
  8
SKVIEW1
100
AcDbCircle
 10
-81.2778357513144
 20
-0.0000000000000213
 30
0.0
 40
6.324400999999999
100
AcDbArc
 50
90.14098500000109
 51
146.6603529999988
  0
ARC
  5
21EF3
330
1F
100
AcDbEntity
  8
SKVIEW1
100
AcDbCircle
 10
-81.2778357513144
 20
-0.0000000000000213
 30
0.0
 40
5.413021999999998
100
AcDbArc
 50
62.63734700000282
 51
147.6447299999947
  0
ARC
  5
21EF4
330
1F
100
AcDbEntity
  8
SKVIEW1
100
AcDbCircle
 10
-81.2778357513144
 20
-0.0000000000000213
 30
0.0
 40
10.07
100
AcDbArc
 50
90.0
 51
132.4619590000012
  0
ARC
  5
21EF5
330
1F
100
AcDbEntity
  8
SKVIEW1
100
AcDbCircle
 10
-81.2778357513144
 20
-0.0000000000000213
 30
0.0
 40
10.45
100
AcDbArc
 50
90.0
 51
130.7259459999983
  0
ARC
  5
21EF6
330
1F
100
AcDbEntity
  8
SKVIEW1
100
AcDbCircle
 10
-81.2778357513144
 20
-0.0000000000000213
 30
0.0
 40
5.413021999999998
100
AcDbArc
 50
242.6373470000029
 51
327.6447299999947
  0
ARC
  5
21EF7
330
1F
100
AcDbEntity
  8
SKVIEW1
100
AcDbCircle
 10
-81.57783575131436
 20
-6.740828000000099
 30
0.0
 40
0.5225
100
AcDbArc
 50
305.0410150000035
 51
87.45173699999922
  0
ARC
  5
21EF8
330
1F
100
AcDbEntity
  8
SKVIEW1
100
AcDbCircle
 10
-81.2778357513144
 20
-0.0000000000000213
 30
0.0
 40
6.324400999999999
100
AcDbArc
 50
270.1409850000011
 51
326.6603529999988
  0
ARC
  5
21EF9
330
1F
100
AcDbEntity
  8
SKVIEW1
100
AcDbCircle
 10
-81.2778357513144
 20
-0.0000000000000213
 30
0.0
 40
10.07
100
AcDbArc
 50
270.0
 51
312.4619590000012
  0
LINE
  5
21EFA
330
1F
100
AcDbEntity
  8
SKVIEW1
100
AcDbLine
 10
-81.2778357513144
 20
-7.168620000000053
 30
0.0
 11
-81.2778357513144
 21
-10.07000000000007
 31
0.0
  0
ARC
  5
21EFB
330
1F
100
AcDbEntity
  8
SKVIEW1
100
AcDbCircle
 10
-81.2778357513144
 20
-0.0000000000000213
 30
0.0
 40
10.45
100
AcDbArc
 50
270.0
 51
310.725945999997
  0
LINE
  5
21EFC
330
1F
100
AcDbEntity
  8
SKVIEW1
100
AcDbLine
 10
-81.2778357513144
 20
-10.07000000000007
 30
0.0
 11
-81.2778357513144
 21
-10.45000000000006
 31
0.0
  0
LINE
  5
21EFD
330
1F
100
AcDbEntity
  8
SKVIEW1
100
AcDbLine
 10
-72.05986575131436
 20
-0.0000000000000213
 30
0.0
 11
-75.05283575131437
 21
-0.0000000000000213
 31
0.0
  0
LINE
  5
21EFE
330
1F
100
AcDbEntity
  8
SKVIEW1
100
AcDbLine
 10
-70.82783575131435
 20
-0.0000000000000213
 30
0.0
 11
-72.05986575131436
 21
-0.0000000000000213
 31
0.0
  0
LINE
  5
21EFF
330
1F
100
AcDbEntity
  8
SKVIEW1
100
AcDbLine
 10
-71.20783575131437
 20
-0.0000000000000213
 30
0.0
 11
-70.82783575131435
 21
-0.0000000000000213
 31
0.0
  0
LINE
  5
21F00
330
1F
100
AcDbEntity
  8
SKVIEW1
100
AcDbLine
 10
-74.95343475131438
 20
-0.0000000000000213
 30
0.0
 11
-71.20783575131437
 21
-0.0000000000000213
 31
0.0
  0
LINE
  5
21F01
330
1F
100
AcDbEntity
  8
SKVIEW1
100
AcDbLine
 10
-75.86481375131436
 20
-0.0000000000000213
 30
0.0
 11
-74.95343475131438
 21
-0.0000000000000213
 31
0.0
  0
LINE
  5
21F02
330
1F
100
AcDbEntity
  8
SKVIEW1
100
AcDbLine
 10
-81.2778357513144
 20
-0.0000000000000213
 30
0.0
 11
-75.86481375131436
 21
-0.0000000000000213
 31
0.0
  0
LINE
  5
21F0B
330
1F
100
AcDbEntity
  8
1
100
AcDbLine
 10
33.11999999999995
 20
10.44999999999991
 30
0.0
 11
32.2192189999999
 21
10.44999999999991
 31
0.0
  0
LINE
  5
21F0C
330
1F
100
AcDbEntity
  8
1
100
AcDbLine
 10
33.77817899999997
 20
10.0699999999998
 30
0.0
 11
33.11999999999995
 21
10.44999999999991
 31
0.0
  0
LINE
  5
21F0D
330
1F
100
AcDbEntity
  8
1
100
AcDbLine
 10
34.28977099999992
 20
7.168619999999897
 30
0.0
 11
33.77817899999997
 21
10.0699999999998
 31
0.0
  0
LINE
  5
21F0E
330
1F
100
AcDbEntity
  8
1
100
AcDbLine
 10
34.28977099999992
 20
7.168619999999897
 30
0.0
 11
34.43862899999994
 21
6.324381999999992
 31
0.0
  0
ARC
  5
21F0F
330
1F
100
AcDbEntity
  8
1
100
AcDbCircle
 10
38.34930099999991
 20
7.013957999999981
 30
0.0
 40
3.971
100
AcDbArc
 50
190.1610079999984
 51
203.7756849999987
  0
LINE
  5
21F10
330
1F
100
AcDbEntity
  8
1
100
AcDbLine
 10
37.09999999999997
 20
-0.0000000000000213
 30
0.0
 11
34.71531599999997
 21
5.413021999999934
 31
0.0
  0
LINE
  5
21F11
330
1F
100
AcDbEntity
  8
1
100
AcDbLine
 10
25.5
 20
9.217969999999901
 30
0.0
 11
25.5
 21
3.268116588017143
 31
0.0
  0
DIMENSION
  5
21F12
330
1F
100
AcDbEntity
  8
SK2
100
AcDbDimension
280
     0
  2
*D16
 10
-31.66722024186158
 20
-8.000000000000015
 30
0.0
 11
-31.66722024186157
 21
-0.1447174964360087
 31
0.0
 70
   160
  1
%%C<>
 71
     5
 42
16.0
 73
     0
 74
     0
 75
     0
  3
STANDARD
100
AcDbAlignedDimension
 13
-16.30000000000001
 23
7.999999999999978
 33
0.0
 14
-16.30000000000001
 24
-8.000000000000021
 34
0.0
 50
90.0
100
AcDbRotatedDimension
1001
ACAD
1000
DSTYLE
1002
{
1070
   172
1070
     1
1002
}
  0
LINE
  5
22093
330
1F
100
AcDbEntity
  8
4
100
AcDbLine
 10
-0.0000000000037801
 20
0.0
 30
0.0
 11
41.15749043631234
 21
-0.0000000000000213
 31
0.0
  0
LWPOLYLINE
  5
2209A
330
1F
100
AcDbEntity
  8
CUT
 48
0.240324
100
AcDbPolyline
 90
       17
 70
     1
 43
0.0
 10
34.44058258855267
 20
6.313414368229921
 10
34.28977099999992
 20
7.168619999999897
 10
33.77817899999997
 20
10.0699999999998
 10
33.11999999999995
 20
10.44999999999991
 10
32.32000000000011
 20
10.44999999999991
 10
32.31999999999999
 20
19.69999999999991
 42
0.4142135623730951
 10
31.51999999999998
 20
20.49999999999991
 10
21.5
 20
20.49999999999998
 42
0.4142135623730951
 10
20.69999999999999
 20
19.69999999999991
 10
20.69999999999999
 20
9.679999999999928
 42
0.4142135623730951
 10
21.5
 20
8.879999999999931
 10
25.50001499999991
 20
8.879999999999974
 10
25.5
 20
7.794565999999896
 10
25.5
 20
3.267953999999896
 10
25.5
 20
-0.0000000000000213
 10
37.09999999999997
 20
-0.0000000000000213
 10
34.71531599999997
 20
5.413021999999934
 42
-0.0570910023085115
  0
LWPOLYLINE
  5
220AB
330
1F
100
AcDbEntity
  8
NOCUT
100
AcDbPolyline
 90
        9
 70
     1
 43
0.0
 10
-0.0000000000000853
 20
7.999999999999978
 10
-16.30000000000001
 20
7.999999999999978
 10
-16.30000000000001
 20
3.83540399999979
 10
-16.30000000000001
 20
-0.0000000000000213
 10
31.32
 20
-0.0000000000000213
 10
31.32
 20
9.708366999999931
 10
31.32
 20
20.24999999999998
 10
-0.0000000000000853
 20
20.24999999999998
 10
-0.0000000000000853
 20
9.708366999999931
  0
VIEWPORT
  5
9C00
330
1B
100
AcDbEntity
 67
     1
  8
0
348
3195
100
AcDbViewport
 10
108.2280559557949
 20
71.69854161746989
 30
0.0
 40
251.8950231529317
 41
201.8884082081047
 68
     1
 69
     1
 12
108.2280559557949
 22
71.69854161746989
 13
0.0
 23
0.0
 14
10.0
 24
10.0
 15
10.0
 25
10.0
 16
0.0
 26
0.0
 36
1.0
 17
0.0
 27
0.0
 37
0.0
 42
50.0
 43
0.0
 44
0.0
 45
201.8884082081047
 50
0.0
 51
0.0
 72
   100
 90
   557088
  1

281
     0
 71
     1
 74
     0
110
0.0
120
0.0
130
0.0
111
1.0
121
0.0
131
0.0
112
0.0
122
1.0
132
0.0
 79
     0
146
0.0
170
     0
 61
     5
292
     1
282
     1
141
0.0
142
0.0
 63
   250
421
  3355443
  0
VIEWPORT
  5
9C02
330
1B
100
AcDbEntity
 67
     1
  8
1
348
3195
100
AcDbViewport
 10
143.457083940506
 20
98.18158769607544
 30
0.0
 40
229.5313343048095
 41
157.0905403137207
 68
     2
 69
     2
 12
-44.37697124786255
 22
-35.12342998133886
 13
0.0
 23
0.0
 14
10.0
 24
10.0
 15
10.0
 25
10.0
 16
0.0
 26
0.0
 36
1.0
 17
0.0
 27
0.0
 37
0.0
 42
50.0
 43
0.0
 44
0.0
 45
300.3886240724386
 50
0.0
 51
0.0
 72
   100
 90
   557088
  1

281
     0
 71
     1
 74
     0
110
0.0
120
0.0
130
0.0
111
1.0
121
0.0
131
0.0
112
0.0
122
1.0
132
0.0
 79
     0
146
0.0
170
     0
 61
     5
348
3195
292
     1
282
     1
141
0.0
142
0.0
 63
   250
421
  3355443
  0
ENDSEC
  0
SECTION
  2
OBJECTS
  0
DICTIONARY
  5
3182
330
0
100
AcDbDictionary
281
     1
  3
ACAD_CIP_PREVIOUS_PRODUCT_INFO
350
1B2F4
  3
ACAD_COLOR
350
31A0
  3
ACAD_DETAILVIEWSTYLE
350
1B2F0
  3
ACAD_FIELDLIST
350
20CBF
  3
ACAD_GROUP
350
3183
  3
ACAD_LAYOUT
350
31A5
  3
ACAD_MATERIAL
350
318B
  3
ACAD_MLEADERSTYLE
350
1B221
  3
ACAD_MLINESTYLE
350
3184
  3
ACAD_PLOTSETTINGS
350
31A4
  3
ACAD_PLOTSTYLENAME
350
3189
  3
ACAD_SCALELIST
350
1B1FC
  3
ACAD_SECTIONVIEWSTYLE
350
1B2EE
  3
ACAD_TABLESTYLE
350
31A1
  3
ACAD_VISUALSTYLE
350
318F
  3
ACDB_RECOMPOSE_DATA
350
220E4
  3
AcDbVariableDictionary
350
33A3
  0
DICTIONARY
  5
422A
330
2
100
AcDbDictionary
280
     1
281
     1
  3
ACAD_LAYERFILTERS
360
1B063
  3
ACAD_LAYERSTATES
360
9A1C
  3
ACLYDICTIONARY
360
1B062
  0
DICTIONARY
  5
1B2F5
330
10
100
AcDbDictionary
280
     1
281
     1
  3
ADSK_XREC_LAYER_RECONCILED
360
21B8E
  0
DICTIONARY
  5
1B2F7
330
3F8C
100
AcDbDictionary
280
     1
281
     1
  3
ADSK_XREC_LAYER_RECONCILED
360
21B8F
  0
DICTIONARY
  5
1B2F9
330
9C4A
100
AcDbDictionary
280
     1
281
     1
  3
ADSK_XREC_LAYER_RECONCILED
360
21B90
  0
DICTIONARY
  5
1B2FB
330
9C4B
100
AcDbDictionary
280
     1
281
     1
  3
ADSK_XREC_LAYER_RECONCILED
360
21B91
  0
DICTIONARY
  5
1B2FD
330
9C4D
100
AcDbDictionary
280
     1
281
     1
  3
ADSK_XREC_LAYER_RECONCILED
360
21B92
  0
DICTIONARY
  5
1B2FF
330
9C4E
100
AcDbDictionary
280
     1
281
     1
  3
ADSK_XREC_LAYER_RECONCILED
360
21B93
  0
DICTIONARY
  5
1B301
330
9C4F
100
AcDbDictionary
280
     1
281
     1
  3
ADSK_XREC_LAYER_RECONCILED
360
21B94
  0
DICTIONARY
  5
1B303
330
9C50
100
AcDbDictionary
280
     1
281
     1
  3
ADSK_XREC_LAYER_RECONCILED
360
21B95
  0
DICTIONARY
  5
1B305
330
9C51
100
AcDbDictionary
280
     1
281
     1
  3
ADSK_XREC_LAYER_RECONCILED
360
21B96
  0
DICTIONARY
  5
1B307
330
13335
100
AcDbDictionary
280
     1
281
     1
  3
ADSK_XREC_LAYER_RECONCILED
360
21B97
  0
DICTIONARY
  5
1B309
330
1686E
100
AcDbDictionary
280
     1
281
     1
  3
ADSK_XREC_LAYER_RECONCILED
360
21B98
  0
DICTIONARY
  5
21CB6
330
21CB5
100
AcDbDictionary
280
     1
281
     1
  0
DICTIONARY
  5
21CB8
330
21CB7
100
AcDbDictionary
280
     1
281
     1
  0
DICTIONARY
  5
21CBA
330
21CB9
100
AcDbDictionary
280
     1
281
     1
  0
DICTIONARY
  5
339C
330
1F
100
AcDbDictionary
280
     1
281
     1
  3
ACAD_SORTENTS
360
339D
  0
DICTIONARY
  5
1DE81
330
1B3D7
100
AcDbDictionary
280
     1
281
     1
  0
XRECORD
  5
1B2F4
102
{ACAD_REACTORS
330
3182
102
}
330
3182
100
AcDbXrecord
280
     1
300
ACDLT
300
2015
300
ACDLT_F_S
  0
DICTIONARY
  5
31A0
102
{ACAD_REACTORS
330
3182
102
}
330
3182
100
AcDbDictionary
281
     1
  0
DICTIONARY
  5
1B2F0
102
{ACAD_REACTORS
330
3182
102
}
330
3182
100
AcDbDictionary
281
     1
  3
Imperial24
350
20CB3
  3
Metric50
350
1B2F1
  0
FIELDLIST
  5
20CBF
102
{ACAD_REACTORS
330
3182
102
}
330
3182
100
AcDbIdSet
 90
        0
100
AcDbFieldList
  0
DICTIONARY
  5
3183
102
{ACAD_REACTORS
330
3182
102
}
330
3182
100
AcDbDictionary
281
     1
  0
DICTIONARY
  5
31A5
102
{ACAD_REACTORS
330
3182
102
}
330
3182
100
AcDbDictionary
281
     1
  3
Layout1
350
31A7
  3
Model
350
31A6
  0
DICTIONARY
  5
318B
102
{ACAD_REACTORS
330
3182
102
}
330
3182
100
AcDbDictionary
281
     1
  3
ByBlock
350
318D
  3
ByLayer
350
318C
  3
Global
350
318E
  0
DICTIONARY
  5
1B221
102
{ACAD_REACTORS
330
3182
102
}
330
3182
100
AcDbDictionary
281
     1
  3
Standard
350
1B2ED
  0
DICTIONARY
  5
3184
102
{ACAD_REACTORS
330
3182
102
}
330
3182
100
AcDbDictionary
281
     1
  3
STANDARD
350
3185
  0
DICTIONARY
  5
31A4
102
{ACAD_REACTORS
330
3182
102
}
330
3182
100
AcDbDictionary
281
     1
  0
ACDBDICTIONARYWDFLT
  5
3189
102
{ACAD_REACTORS
330
3182
102
}
330
3182
100
AcDbDictionary
281
     1
  3
Normal
350
318A
100
AcDbDictionaryWithDefault
340
318A
  0
DICTIONARY
  5
1B1FC
102
{ACAD_REACTORS
330
3182
102
}
330
3182
100
AcDbDictionary
281
     1
  3
A0
350
1B1FD
  3
A1
350
1B1FE
  3
A2
350
1B1FF
  3
A3
350
1B200
  3
A4
350
1B201
  3
A5
350
1B202
  3
A6
350
1B203
  3
A7
350
1B204
  3
A8
350
1B205
  3
A9
350
1B206
  3
B0
350
1B207
  3
B1
350
1B208
  3
B2
350
1B209
  3
B3
350
1B20A
  3
B4
350
1B20B
  3
B5
350
1B20C
  3
B6
350
1B20D
  3
B7
350
1B20E
  3
B8
350
1B20F
  3
B9
350
1B210
  3
C0
350
1B211
  3
C1
350
1B212
  3
C2
350
1B213
  3
C3
350
1B214
  3
C4
350
1B215
  3
C5
350
1B216
  3
C6
350
1B217
  3
C7
350
1B218
  3
C8
350
1B219
  3
C9
350
1B21A
  3
D0
350
1B21B
  3
D1
350
1B21C
  3
D2
350
1B21D
  0
DICTIONARY
  5
1B2EE
102
{ACAD_REACTORS
330
3182
102
}
330
3182
100
AcDbDictionary
281
     1
  3
Imperial24
350
20CB1
  3
Metric50
350
1B2EF
  0
DICTIONARY
  5
31A1
102
{ACAD_REACTORS
330
3182
102
}
330
3182
100
AcDbDictionary
281
     1
  3
Standard
350
31A2
  0
DICTIONARY
  5
318F
102
{ACAD_REACTORS
330
3182
102
}
330
3182
100
AcDbDictionary
281
     1
  3
2dWireframe
350
3195
  3
3D Hidden
350
3197
  3
3dWireframe
350
3196
  3
Basic
350
3194
  3
Brighten
350
319B
  3
ColorChange
350
319F
  3
Conceptual
350
3198
  3
Dim
350
319A
  3
EdgeColorOff
350
1B2EC
  3
Facepattern
350
319E
  3
Flat
350
3190
  3
FlatWithEdges
350
3191
  3
Gouraud
350
3192
  3
GouraudWithEdges
350
3193
  3
Hidden
350
1B2E4
  3
JitterOff
350
1B2EA
  3
Linepattern
350
319D
  3
OverhangOff
350
1B2EB
  3
Realistic
350
3199
  3
Shaded
350
1B2E9
  3
Shaded with edges
350
1B2E8
  3
Shades of Gray
350
1B2E5
  3
Sketchy
350
1B2E6
  3
Thicken
350
319C
  3
Wireframe
350
1B2E3
  3
X-Ray
350
1B2E7
  0
XRECORD
  5
220E4
102
{ACAD_REACTORS
330
3182
102
}
330
3182
100
AcDbXrecord
280
     1
 90
        1
330
31A2
  0
DICTIONARY
  5
33A3
102
{ACAD_REACTORS
330
3182
102
}
330
3182
100
AcDbDictionary
281
     1
  3
CANNOSCALE
350
1B222
  3
CMLEADERSTYLE
350
1B30F
  3
CTABLESTYLE
350
33A4
  3
CVIEWDETAILSTYLE
350
1B310
  3
CVIEWSECTIONSTYLE
350
1B311
  3
DIMASSOC
350
9BE8
  3
INDEXCTL
350
9BE7
  3
LAYEREVAL
350
20993
  3
LAYERNOTIFY
350
20994
  3
LIGHTINGUNITS
350
20992
  3
MSLTSCALE
350
20991
  3
SORTENTS
350
9BE6
  0
DICTIONARY
  5
1B063
102
{ACAD_REACTORS
330
422A
102
}
330
422A
100
AcDbDictionary
281
     1
  0
DICTIONARY
  5
9A1C
102
{ACAD_REACTORS
330
422A
102
}
330
422A
100
AcDbDictionary
281
     1
  0
DICTIONARY
  5
1B062
102
{ACAD_REACTORS
330
422A
102
}
330
422A
100
AcDbDictionary
281
     1
1001
ACAD
1000
<All
  0
XRECORD
  5
21B8E
102
{ACAD_REACTORS
330
1B2F5
102
}
330
1B2F5
100
AcDbXrecord
280
     1
290
     1
  0
XRECORD
  5
21B8F
102
{ACAD_REACTORS
330
1B2F7
102
}
330
1B2F7
100
AcDbXrecord
280
     1
290
     1
  0
XRECORD
  5
21B90
102
{ACAD_REACTORS
330
1B2F9
102
}
330
1B2F9
100
AcDbXrecord
280
     1
290
     1
  0
XRECORD
  5
21B91
102
{ACAD_REACTORS
330
1B2FB
102
}
330
1B2FB
100
AcDbXrecord
280
     1
290
     1
  0
XRECORD
  5
21B92
102
{ACAD_REACTORS
330
1B2FD
102
}
330
1B2FD
100
AcDbXrecord
280
     1
290
     1
  0
XRECORD
  5
21B93
102
{ACAD_REACTORS
330
1B2FF
102
}
330
1B2FF
100
AcDbXrecord
280
     1
290
     1
  0
XRECORD
  5
21B94
102
{ACAD_REACTORS
330
1B301
102
}
330
1B301
100
AcDbXrecord
280
     1
290
     1
  0
XRECORD
  5
21B95
102
{ACAD_REACTORS
330
1B303
102
}
330
1B303
100
AcDbXrecord
280
     1
290
     1
  0
XRECORD
  5
21B96
102
{ACAD_REACTORS
330
1B305
102
}
330
1B305
100
AcDbXrecord
280
     1
290
     1
  0
XRECORD
  5
21B97
102
{ACAD_REACTORS
330
1B307
102
}
330
1B307
100
AcDbXrecord
280
     1
290
     1
  0
XRECORD
  5
21B98
102
{ACAD_REACTORS
330
1B309
102
}
330
1B309
100
AcDbXrecord
280
     1
290
     1
  0
SORTENTSTABLE
  5
339D
102
{ACAD_REACTORS
330
339C
102
}
330
339C
100
AcDbSortentsTable
330
1F
331
21EF8
  5
21F0B
331
21E58
  5
21E69
331
21EB0
  5
21EC3
331
21EE9
  5
21EFC
331
21E49
  5
21E55
331
21EDA
  5
21EED
331
21EA1
  5
21EB4
331
21E92
  5
21EA5
331
21E83
  5
21E96
331
21E2B
  5
21E30
331
21E74
  5
21E87
331
21E1C
  5
21E21
331
21ECC
  5
21EDF
331
21E65
  5
21E76
331
21E0D
  5
21E12
331
21EF6
  5
21F09
331
21EBD
  5
21ED0
331
21EE7
  5
21EFA
331
21E47
  5
21E53
331
21E9F
  5
21EB2
331
21EAE
  5
21EC1
331
21E60
  5
21E74
331
21E08
  5
21E0D
331
21F0F
  5
220B0
331
21ED6
  5
21EE9
331
21F00
  5
22093
331
21EC7
  5
21EDA
331
21EB8
  5
21ECB
331
21EF1
  5
21F04
331
21E51
  5
21E5F
331
21EA9
  5
21EBC
331
21EE2
  5
21EF5
331
21E42
  5
21E4E
331
21E9A
  5
21EAD
331
2209A
  5
21E91
331
21E8B
  5
21E9E
331
21E33
  5
21E46
331
21E24
  5
21E29
331
21E6D
  5
21E80
331
21E15
  5
21E1A
331
21E06
  5
21E0B
331
21DF9
  5
21DFA
331
21DF7
  5
21DF7
331
21ED1
  5
21EE4
331
21EC2
  5
21ED5
331
21EFB
  5
21F0E
331
21E5B
  5
21E6C
331
21EB3
  5
21EC6
331
21EEC
  5
21EFF
331
21E4C
  5
21E5A
331
21EA4
  5
21EB7
331
21EDD
  5
21EF0
331
21E3D
  5
21E49
331
21E95
  5
21EA8
331
21E86
  5
21E99
331
21E2E
  5
21E33
331
21E77
  5
21E8A
331
21E1F
  5
21E24
331
21E68
  5
21E79
331
21E10
  5
21E15
331
21ECF
  5
21EE2
331
21DF2
  5
21DF2
331
21ED8
  5
21EEB
331
21E90
  5
21EA3
331
21E81
  5
21E94
331
21E29
  5
21E2E
331
21E72
  5
21E85
331
21E1A
  5
21E1F
331
21E0B
  5
21E10
331
21DFC
  5
21DFD
331
21F12
  5
220B3
331
21ECA
  5
21EDD
331
21EBB
  5
21ECE
331
21EF4
  5
21F07
331
21E54
  5
21E67
331
21EAC
  5
21EBF
331
21EE5
  5
21EF8
331
21E45
  5
21E51
331
21E9D
  5
21EB0
331
21E8E
  5
21EA1
331
21E7F
  5
21E92
331
21E27
  5
21E2C
331
211A0
  5
211A0
331
21F0D
  5
220AE
331
21ED4
  5
21EE7
331
21EC5
  5
21ED8
331
21EFE
  5
21F11
331
21E5E
  5
21E6F
331
21EB6
  5
21EC9
331
21EEF
  5
21F02
331
21E4F
  5
21E5D
331
21EA7
  5
21EBA
331
21EE0
  5
21EF3
331
21E40
  5
21E4C
331
21E98
  5
21EAB
331
21E89
  5
21E9C
331
21E31
  5
21E3D
331
21E7A
  5
21E8D
331
21E22
  5
21E27
331
21E6B
  5
21E7C
331
21E13
  5
21E18
331
21E04
  5
21E09
331
21DF5
  5
21DF5
331
21EC0
  5
21ED3
331
21EF9
  5
21F0C
331
21E59
  5
21E6A
331
21EB1
  5
21EC4
331
21EEA
  5
21EFD
331
21E4A
  5
21E58
331
21EA2
  5
21EB5
331
21EDB
  5
21EEE
331
21E3B
  5
21E47
331
21E93
  5
21EA6
331
21E84
  5
21E97
331
21E2C
  5
21E31
331
21E75
  5
21E88
331
21E1D
  5
21E22
331
21E66
  5
21E77
331
21E0E
  5
21E13
331
22093
  5
21DF9
331
21ECD
  5
21EE0
331
21EBE
  5
21ED1
331
21EF7
  5
21F0A
331
21E57
  5
21E68
331
21EAF
  5
21EC2
331
21DF0
  5
21DF0
331
21E70
  5
21E83
331
21E18
  5
21E1D
331
21E09
  5
21E0E
331
21F10
  5
220B1
331
21ED7
  5
21EEA
331
21F01
  5
2209A
331
21EC8
  5
21EDB
331
21EB9
  5
21ECC
331
21EF2
  5
21F05
331
21E52
  5
21E60
331
21EAA
  5
21EBD
331
21EE3
  5
21EF6
331
21E43
  5
21E4F
331
21E9B
  5
21EAE
331
21E8C
  5
21E9F
331
21E7D
  5
21E90
331
21E25
  5
21E2A
331
21E6E
  5
21E81
331
21E16
  5
21E1B
331
21E07
  5
21E0C
331
21DFA
  5
21DFB
331
21F0B
  5
220AC
331
21ED2
  5
21EE5
331
21EC3
  5
21ED6
331
21EFC
  5
21F0F
331
21E5C
  5
21E6D
331
21EB4
  5
21EC7
331
21EED
  5
21F00
331
21E4D
  5
21E5B
331
21EA5
  5
21EB8
331
21EDE
  5
21EF1
331
21E3E
  5
21E4A
331
21E96
  5
21EA9
331
21E87
  5
21E9A
331
21E2F
  5
21E34
331
21E78
  5
21E8B
331
21E20
  5
21E25
331
21E69
  5
21E7A
331
21E11
  5
21E16
331
21E02
  5
21E07
331
21DF3
  5
21DF3
331
21EE8
  5
21EFB
331
21E48
  5
21E54
331
21ED9
  5
21EEC
331
21EA0
  5
21EB3
331
21E91
  5
21EA4
331
21E82
  5
21E95
331
21E2A
  5
21E2F
331
21E73
  5
21E86
331
21E1B
  5
21E20
331
21ECB
  5
21EDE
331
21E64
  5
21E75
331
21E0C
  5
21E11
331
21EF5
  5
21F08
331
21EAD
  5
21EC0
331
21EE6
  5
21EF9
331
21E46
  5
21E52
331
21E9E
  5
21EB1
331
21E8F
  5
21EA2
331
21EBC
  5
21ECF
331
21DF8
  5
21DF8
331
21F0E
  5
220AF
331
21ED5
  5
21EE8
331
21EC6
  5
21ED9
331
21EFF
  5
21F12
331
21E5F
  5
21E70
331
21EB7
  5
21ECA
331
21EF0
  5
21F03
331
21E50
  5
21E5E
331
21EA8
  5
21EBB
331
21EE1
  5
21EF4
331
21E41
  5
21E4D
331
21E99
  5
21EAC
331
21E8A
  5
21E9D
331
21E32
  5
21E3E
331
21E7B
  5
21E8F
331
21E23
  5
21E28
331
21E6C
  5
21E7E
331
21E14
  5
21E19
331
21E05
  5
21E0A
331
21DF6
  5
21DF6
331
21DEC
  5
21DEC
331
21ED0
  5
21EE3
331
21EC1
  5
21ED4
331
21EFA
  5
21F0D
331
21E5A
  5
21E6B
331
21EB2
  5
21EC5
331
21EEB
  5
21EFE
331
21E4B
  5
21E59
331
21EA3
  5
21EB6
331
21EDC
  5
21EEF
331
21E3C
  5
21E48
331
21E94
  5
21EA7
331
21E85
  5
21E98
331
21E2D
  5
21E32
331
21E76
  5
21E89
331
21E1E
  5
21E23
331
21E67
  5
21E78
331
21E0F
  5
21E14
331
21E00
  5
21E04
331
21ECE
  5
21EE1
331
21EBF
  5
21ED2
331
21DF1
  5
21DF1
331
21E80
  5
21E93
331
21E28
  5
21E2D
331
21E71
  5
21E84
331
21E19
  5
21E1E
331
21E0A
  5
21E0F
331
21F11
  5
220B2
331
21F02
  5
220A3
331
21EC9
  5
21EDC
331
21EBA
  5
21ECD
331
21EF3
  5
21F06
331
21E53
  5
21E61
331
21EAB
  5
21EBE
331
21EE4
  5
21EF7
331
21E44
  5
21E50
331
21E9C
  5
21EAF
331
21E8D
  5
21EA0
331
21E26
  5
21E2B
331
21E6F
  5
21E82
331
21E17
  5
21E1C
331
21DFB
  5
21DFC
331
21F0C
  5
220AD
331
21ED3
  5
21EE6
331
21EC4
  5
21ED7
331
21EFD
  5
21F10
331
21E5D
  5
21E6E
331
21EB5
  5
21EC8
331
21EEE
  5
21F01
331
21E4E
  5
21E5C
331
21EA6
  5
21EB9
331
21EDF
  5
21EF2
331
21E3F
  5
21E4B
331
21E97
  5
21EAA
331
21E88
  5
21E9B
331
21E30
  5
21E3C
331
21E79
  5
21E8C
331
21E21
  5
21E26
331
21E6A
  5
21E7B
331
21E12
  5
21E17
331
21E03
  5
21E08
331
21DF4
  5
21DF4
  0
ACDBDETAILVIEWSTYLE
  5
20CB3
102
{ACAD_XDICTIONARY
360
2211F
102
}
102
{ACAD_REACTORS
330
1B2F0
102
}
330
1B2F0
100
AcDbModelDocViewStyle
 70
     0
  3
Imperial24
290
     0
100
AcDbDetailViewStyle
 70
     0
 71
     0
 90
        3
 71
     1
340
11
 62
   256
 40
0.24
340
0
 62
   256
 40
0.24
300

 40
0.36
280
     3
 71
     2
340
16
 90
       25
 62
   256
 71
     3
340
11
 62
   256
 40
0.24
 90
        1
 40
0.75
 90
        1
300
%<\AcVar ViewType \f "%tc1">% %<\AcVar ViewDetailId>%\PVARIA %<\AcVar ViewScale \f "%sn">%
 71
     4
340
16
 90
       25
 62
   256
340
16
 90
       25
 62
   256
280
     0
  0
ACDBDETAILVIEWSTYLE
  5
1B2F1
102
{ACAD_XDICTIONARY
360
2211B
102
}
102
{ACAD_REACTORS
330
1B2F0
102
}
330
1B2F0
100
AcDbModelDocViewStyle
 70
     0
  3
Metric50
290
     0
100
AcDbDetailViewStyle
 70
     0
 71
     0
 90
        3
 71
     1
340
11
 62
   256
 40
5.0
340
0
 62
   256
 40
5.0
300

 40
0.0
280
     1
 71
     2
340
16
 90
       25
 62
   256
 71
     3
340
11
 62
   256
 40
5.0
 90
        0
 40
15.0
 90
        1
300
%<\AcVar ViewDetailId>% (%<\AcVar ViewScale \f "%sn">%)
 71
     4
340
16
 90
       25
 62
   256
340
16
 90
       25
 62
   256
280
     0
  0
LAYOUT
  5
31A7
102
{ACAD_REACTORS
330
31A5
102
}
330
31A5
100
AcDbPlotSettings
  1

  2
\\ingdc01\ITB3
  4
A4
  6

 40
6.805083274841307
 41
5.027085781097412
 42
6.805068969726562
 43
5.027069091796875
 44
209.9733276367186
 45
296.9683227539062
 46
0.0
 47
0.0
 48
0.0
 49
0.0
140
0.0
141
0.0
142
1.0
143
1.0
 70
   688
 72
     1
 73
     1
 74
     5
  7

 75
    16
147
1.0
 76
     0
 77
     2
 78
   300
148
0.0
149
0.0
100
AcDbLayout
  1
Layout1
 70
     1
 71
     1
 10
-5.027069091796875
 20
-6.805083274841307
 11
291.9412536621094
 21
203.1682443618775
 12
0.0
 22
0.0
 32
0.0
 14
28.69141678810127
 24
19.6363175392151
 34
0.0
 15
258.2227510929107
 25
176.7268578529358
 35
0.0
146
0.0
 13
0.0
 23
0.0
 33
0.0
 16
1.0
 26
0.0
 36
0.0
 17
0.0
 27
1.0
 37
0.0
 76
     0
330
1B
331
9C00
1001
ACAD_PSEXT
1000
\\ingdc01\ITB3
1000
HP LaserJet 5000 Series PCL
1000
TB
1000

1070
     0
  0
LAYOUT
  5
31A6
102
{ACAD_REACTORS
330
31A5
102
}
330
31A5
100
AcDbPlotSettings
  1

  2
\\ingdc01\ITB3
  4
A4
  6

 40
6.805083274841307
 41
5.027085781097412
 42
6.805068969726562
 43
5.027069091796875
 44
209.9733276367186
 45
296.9683227539062
 46
0.0
 47
0.0
 48
0.0
 49
0.0
140
0.0
141
0.0
142
1.0
143
1.500313223655698
 70
 11952
 72
     1
 73
     1
 74
     0
  7

 75
     0
147
0.6665274852163048
 76
     0
 77
     2
 78
   300
148
239.0155119930048
149
102.2558208723354
100
AcDbLayout
  1
Model
 70
     1
 71
     0
 10
0.0
 20
0.0
 11
12.0
 21
9.0
 12
0.0
 22
0.0
 32
0.0
 14
0.0
 24
0.0
 34
0.0
 15
0.0
 25
0.0
 35
0.0
146
0.0
 13
0.0
 23
0.0
 33
0.0
 16
1.0
 26
0.0
 36
0.0
 17
0.0
 27
1.0
 37
0.0
 76
     0
330
1F
331
1F4
1001
ACAD_PSEXT
1000
\\ingdc01\ITB3
1000
HP LaserJet 5000 Series PCL
1000
TB
1000

1070
     0
  0
MATERIAL
  5
318D
102
{ACAD_XDICTIONARY
360
1B22B
102
}
102
{ACAD_REACTORS
330
318B
102
}
330
318B
100
AcDbMaterial
  1
ByBlock
  0
MATERIAL
  5
318C
102
{ACAD_XDICTIONARY
360
1B22D
102
}
102
{ACAD_REACTORS
330
318B
102
}
330
318B
100
AcDbMaterial
  1
ByLayer
  0
MATERIAL
  5
318E
102
{ACAD_XDICTIONARY
360
1B22F
102
}
102
{ACAD_REACTORS
330
318B
102
}
330
318B
100
AcDbMaterial
  1
Global
  0
MLEADERSTYLE
  5
1B2ED
102
{ACAD_REACTORS
330
1B221
102
}
330
1B221
100
AcDbMLeaderStyle
179
     2
170
     2
171
     1
172
     0
 90
        2
 40
0.0
 41
0.0
173
     1
 91
-1056964608
340
14
 92
       -2
290
     1
 42
2.0
291
     1
 43
0.36
  3
Standard
 44
4.0
300

342
11
174
     1
178
     6
175
     1
176
     0
 93
-1056964608
 45
4.0
292
     0
297
     0
 46
4.0
 94
-1056964608
 47
1.0
 49
1.0
140
1.0
293
     1
141
0.0
294
     1
177
     0
142
1.0
295
     0
296
     0
143
0.125
271
     0
272
     9
273
     9
1001
ACAD_MLEADERVER
1070
     2
  0
MLINESTYLE
  5
3185
102
{ACAD_REACTORS
330
3184
102
}
330
3184
100
AcDbMlineStyle
  2
STANDARD
 70
     0
  3

 62
   256
 51
90.0
 52
90.0
 71
     2
 49
0.5
 62
   256
  6
BYLAYER
 49
-0.5
 62
   256
  6
BYLAYER
  0
ACDBPLACEHOLDER
  5
318A
102
{ACAD_REACTORS
330
3189
102
}
330
3189
  0
SCALE
  5
1B1FD
102
{ACAD_REACTORS
330
1B1FC
102
}
330
1B1FC
100
AcDbScale
 70
     0
300
1:1
140
1.0
141
1.0
290
     1
1001
ACAD
1000
AcRTDxfName
1000
SCALE
  0
SCALE
  5
1B1FE
102
{ACAD_REACTORS
330
1B1FC
102
}
330
1B1FC
100
AcDbScale
 70
     0
300
1:2
140
1.0
141
2.0
290
     0
1001
ACAD
1000
AcRTDxfName
1000
SCALE
  0
SCALE
  5
1B1FF
102
{ACAD_REACTORS
330
1B1FC
102
}
330
1B1FC
100
AcDbScale
 70
     0
300
1:4
140
1.0
141
4.0
290
     0
1001
ACAD
1000
AcRTDxfName
1000
SCALE
  0
SCALE
  5
1B200
102
{ACAD_REACTORS
330
1B1FC
102
}
330
1B1FC
100
AcDbScale
 70
     0
300
1:5
140
1.0
141
5.0
290
     0
1001
ACAD
1000
AcRTDxfName
1000
SCALE
  0
SCALE
  5
1B201
102
{ACAD_REACTORS
330
1B1FC
102
}
330
1B1FC
100
AcDbScale
 70
     0
300
1:8
140
1.0
141
8.0
290
     0
1001
ACAD
1000
AcRTDxfName
1000
SCALE
  0
SCALE
  5
1B202
102
{ACAD_REACTORS
330
1B1FC
102
}
330
1B1FC
100
AcDbScale
 70
     0
300
1:10
140
1.0
141
10.0
290
     0
1001
ACAD
1000
AcRTDxfName
1000
SCALE
  0
SCALE
  5
1B203
102
{ACAD_REACTORS
330
1B1FC
102
}
330
1B1FC
100
AcDbScale
 70
     0
300
1:16
140
1.0
141
16.0
290
     0
1001
ACAD
1000
AcRTDxfName
1000
SCALE
  0
SCALE
  5
1B204
102
{ACAD_REACTORS
330
1B1FC
102
}
330
1B1FC
100
AcDbScale
 70
     0
300
1:20
140
1.0
141
20.0
290
     0
1001
ACAD
1000
AcRTDxfName
1000
SCALE
  0
SCALE
  5
1B205
102
{ACAD_REACTORS
330
1B1FC
102
}
330
1B1FC
100
AcDbScale
 70
     0
300
1:30
140
1.0
141
30.0
290
     0
1001
ACAD
1000
AcRTDxfName
1000
SCALE
  0
SCALE
  5
1B206
102
{ACAD_REACTORS
330
1B1FC
102
}
330
1B1FC
100
AcDbScale
 70
     0
300
1:40
140
1.0
141
40.0
290
     0
1001
ACAD
1000
AcRTDxfName
1000
SCALE
  0
SCALE
  5
1B207
102
{ACAD_REACTORS
330
1B1FC
102
}
330
1B1FC
100
AcDbScale
 70
     0
300
1:50
140
1.0
141
50.0
290
     0
1001
ACAD
1000
AcRTDxfName
1000
SCALE
  0
SCALE
  5
1B208
102
{ACAD_REACTORS
330
1B1FC
102
}
330
1B1FC
100
AcDbScale
 70
     0
300
1:100
140
1.0
141
100.0
290
     0
1001
ACAD
1000
AcRTDxfName
1000
SCALE
  0
SCALE
  5
1B209
102
{ACAD_REACTORS
330
1B1FC
102
}
330
1B1FC
100
AcDbScale
 70
     0
300
2:1
140
2.0
141
1.0
290
     0
1001
ACAD
1000
AcRTDxfName
1000
SCALE
  0
SCALE
  5
1B20A
102
{ACAD_REACTORS
330
1B1FC
102
}
330
1B1FC
100
AcDbScale
 70
     0
300
4:1
140
4.0
141
1.0
290
     0
1001
ACAD
1000
AcRTDxfName
1000
SCALE
  0
SCALE
  5
1B20B
102
{ACAD_REACTORS
330
1B1FC
102
}
330
1B1FC
100
AcDbScale
 70
     0
300
8:1
140
8.0
141
1.0
290
     0
1001
ACAD
1000
AcRTDxfName
1000
SCALE
  0
SCALE
  5
1B20C
102
{ACAD_REACTORS
330
1B1FC
102
}
330
1B1FC
100
AcDbScale
 70
     0
300
10:1
140
10.0
141
1.0
290
     0
1001
ACAD
1000
AcRTDxfName
1000
SCALE
  0
SCALE
  5
1B20D
102
{ACAD_REACTORS
330
1B1FC
102
}
330
1B1FC
100
AcDbScale
 70
     0
300
100:1
140
100.0
141
1.0
290
     0
1001
ACAD
1000
AcRTDxfName
1000
SCALE
  0
SCALE
  5
1B20E
102
{ACAD_REACTORS
330
1B1FC
102
}
330
1B1FC
100
AcDbScale
 70
     0
300
1/128" = 1'-0"
140
0.0078125
141
12.0
290
     0
1001
ACAD
1000
AcRTDxfName
1000
SCALE
  0
SCALE
  5
1B20F
102
{ACAD_REACTORS
330
1B1FC
102
}
330
1B1FC
100
AcDbScale
 70
     0
300
1/64" = 1'-0"
140
0.015625
141
12.0
290
     0
1001
ACAD
1000
AcRTDxfName
1000
SCALE
  0
SCALE
  5
1B210
102
{ACAD_REACTORS
330
1B1FC
102
}
330
1B1FC
100
AcDbScale
 70
     0
300
1/32" = 1'-0"
140
0.03125
141
12.0
290
     0
1001
ACAD
1000
AcRTDxfName
1000
SCALE
  0
SCALE
  5
1B211
102
{ACAD_REACTORS
330
1B1FC
102
}
330
1B1FC
100
AcDbScale
 70
     0
300
1/16" = 1'-0"
140
0.0625
141
12.0
290
     0
1001
ACAD
1000
AcRTDxfName
1000
SCALE
  0
SCALE
  5
1B212
102
{ACAD_REACTORS
330
1B1FC
102
}
330
1B1FC
100
AcDbScale
 70
     0
300
3/32" = 1'-0"
140
0.09375
141
12.0
290
     0
1001
ACAD
1000
AcRTDxfName
1000
SCALE
  0
SCALE
  5
1B213
102
{ACAD_REACTORS
330
1B1FC
102
}
330
1B1FC
100
AcDbScale
 70
     0
300
1/8" = 1'-0"
140
0.125
141
12.0
290
     0
1001
ACAD
1000
AcRTDxfName
1000
SCALE
  0
SCALE
  5
1B214
102
{ACAD_REACTORS
330
1B1FC
102
}
330
1B1FC
100
AcDbScale
 70
     0
300
3/16" = 1'-0"
140
0.1875
141
12.0
290
     0
1001
ACAD
1000
AcRTDxfName
1000
SCALE
  0
SCALE
  5
1B215
102
{ACAD_REACTORS
330
1B1FC
102
}
330
1B1FC
100
AcDbScale
 70
     0
300
1/4" = 1'-0"
140
0.25
141
12.0
290
     0
1001
ACAD
1000
AcRTDxfName
1000
SCALE
  0
SCALE
  5
1B216
102
{ACAD_REACTORS
330
1B1FC
102
}
330
1B1FC
100
AcDbScale
 70
     0
300
3/8" = 1'-0"
140
0.375
141
12.0
290
     0
1001
ACAD
1000
AcRTDxfName
1000
SCALE
  0
SCALE
  5
1B217
102
{ACAD_REACTORS
330
1B1FC
102
}
330
1B1FC
100
AcDbScale
 70
     0
300
1/2" = 1'-0"
140
0.5
141
12.0
290
     0
1001
ACAD
1000
AcRTDxfName
1000
SCALE
  0
SCALE
  5
1B218
102
{ACAD_REACTORS
330
1B1FC
102
}
330
1B1FC
100
AcDbScale
 70
     0
300
3/4" = 1'-0"
140
0.75
141
12.0
290
     0
1001
ACAD
1000
AcRTDxfName
1000
SCALE
  0
SCALE
  5
1B219
102
{ACAD_REACTORS
330
1B1FC
102
}
330
1B1FC
100
AcDbScale
 70
     0
300
1" = 1'-0"
140
1.0
141
12.0
290
     0
1001
ACAD
1000
AcRTDxfName
1000
SCALE
  0
SCALE
  5
1B21A
102
{ACAD_REACTORS
330
1B1FC
102
}
330
1B1FC
100
AcDbScale
 70
     0
300
1-1/2" = 1'-0"
140
1.5
141
12.0
290
     0
1001
ACAD
1000
AcRTDxfName
1000
SCALE
  0
SCALE
  5
1B21B
102
{ACAD_REACTORS
330
1B1FC
102
}
330
1B1FC
100
AcDbScale
 70
     0
300
3" = 1'-0"
140
3.0
141
12.0
290
     0
1001
ACAD
1000
AcRTDxfName
1000
SCALE
  0
SCALE
  5
1B21C
102
{ACAD_REACTORS
330
1B1FC
102
}
330
1B1FC
100
AcDbScale
 70
     0
300
6" = 1'-0"
140
6.0
141
12.0
290
     0
1001
ACAD
1000
AcRTDxfName
1000
SCALE
  0
SCALE
  5
1B21D
102
{ACAD_REACTORS
330
1B1FC
102
}
330
1B1FC
100
AcDbScale
 70
     0
300
1'-0" = 1'-0"
140
12.0
141
12.0
290
     0
1001
ACAD
1000
AcRTDxfName
1000
SCALE
  0
ACDBSECTIONVIEWSTYLE
  5
20CB1
102
{ACAD_XDICTIONARY
360
2211D
102
}
102
{ACAD_REACTORS
330
1B2EE
102
}
330
1B2EE
100
AcDbModelDocViewStyle
 70
     0
  3
Imperial24
290
     0
100
AcDbSectionViewStyle
 70
     0
 71
     0
 90
       78
 71
     1
340
11
 62
   256
 40
0.24
340
0
340
0
 62
   256
 40
0.24
300
I, O, Q, S, X, Z
 40
0.48
 90
        3
 40
0.18
 90
        1
 71
     2
340
16
 90
       25
 62
   256
340
16
 90
       50
 62
   256
 40
0.24
 40
0.0
 40
0.24
 71
     3
340
11
 62
   256
 40
0.24
 90
        1
 40
0.75
 90
        1
300
%<\AcVar ViewType \f "%tc1">% %<\AcVar ViewSectionStartId>%-%<\AcVar ViewSectionEndId>%\PVARIA %<\AcVar ViewScale \f "%sn">%
 71
     4
 62
   256
 62
   257
300
ANSI31
 40
1.0
 90
        0
290
     0
290
     0
 90
        6
 40
0.0
 40
1.570796326794896
 40
0.2617993877991494
 40
1.308996938995747
 40
-0.2617993877991494
 40
1.832595714594044
  0
ACDBSECTIONVIEWSTYLE
  5
1B2EF
102
{ACAD_XDICTIONARY
360
22119
102
}
102
{ACAD_REACTORS
330
1B2EE
102
}
330
1B2EE
100
AcDbModelDocViewStyle
 70
     0
  3
Metric50
290
     0
100
AcDbSectionViewStyle
 70
     0
 71
     0
 90
      102
 71
     1
340
11
 62
   256
 40
5.0
340
0
340
0
 62
   256
 40
5.0
300
I, O, Q, S, X, Z
 40
10.0
 90
        0
 40
2.5
 90
        0
 71
     2
340
16
 90
       25
 62
   256
340
16
 90
       50
 62
   256
 40
5.0
 40
2.5
 40
5.0
 71
     3
340
11
 62
   256
 40
5.0
 90
        0
 40
15.0
 90
        1
300
%<\AcVar ViewSectionStartId>%-%<\AcVar ViewSectionEndId>% (%<\AcVar ViewScale \f "%sn">%)
 71
     4
 62
   256
 62
   257
300
ANSI31
 40
1.0
 90
        0
290
     0
290
     0
 90
        6
 40
0.0
 40
1.570796326794896
 40
0.2617993877991494
 40
1.308996938995747
 40
-0.2617993877991494
 40
1.832595714594044
  0
TABLESTYLE
  5
31A2
102
{ACAD_XDICTIONARY
360
1B314
102
}
102
{ACAD_REACTORS
330
31A1
102
}
330
31A1
100
AcDbTableStyle
280
     0
  3
Standard
 70
     0
 71
     0
 40
1.5
 41
1.5
280
     0
281
     0
  7
STANDARD
140
4.5
170
     2
 62
     0
 63
     7
283
     0
 90
        4
 91
        0
  1

274
    -2
284
     1
 64
     0
275
    -2
285
     1
 65
     0
276
    -2
286
     1
 66
     0
277
    -2
287
     1
 67
     0
278
    -2
288
     1
 68
     0
279
    -2
289
     1
 69
     0
  7
STANDARD
140
6.0
170
     5
 62
     0
 63
     7
283
     0
 90
        4
 91
        0
  1

274
    -2
284
     1
 64
     0
275
    -2
285
     1
 65
     0
276
    -2
286
     1
 66
     0
277
    -2
287
     1
 67
     0
278
    -2
288
     1
 68
     0
279
    -2
289
     1
 69
     0
  7
STANDARD
140
4.5
170
     5
 62
     0
 63
     7
283
     0
 90
        4
 91
        0
  1

274
    -2
284
     1
 64
     0
275
    -2
285
     1
 65
     0
276
    -2
286
     1
 66
     0
277
    -2
287
     1
 67
     0
278
    -2
288
     1
 68
     0
279
    -2
289
     1
 69
     0
  0
VISUALSTYLE
  5
3195
102
{ACAD_XDICTIONARY
360
220EF
102
}
102
{ACAD_REACTORS
330
318F
102
}
330
318F
100
AcDbVisualStyle
  2

 70
     4
177
     2
291
     0
 71
     0
176
     1
 72
     2
176
     1
 73
     0
176
     1
 90
        0
176
     1
 40
0.6
176
     1
 41
30.0
176
     1
 63
     7
176
     1
 74
     1
176
     1
 91
        4
176
     1
 64
     7
176
     1
 65
   257
176
     1
 75
     1
176
     1
175
     1
176
     1
 42
1.0
176
     1
 92
        0
176
     1
 66
   257
176
     1
 43
1.0
176
     1
 76
     1
176
     1
 77
     6
176
     1
 78
     2
176
     1
 67
     7
176
     1
 79
     5
176
     1
170
     0
176
     1
171
     0
176
     1
290
     0
176
     1
 93
        1
176
     1
 44
0.0
176
     1
173
     0
176
     1
1001
ACAD
1000
AcDbSavedByObjectVersion
1070
     0
  0
VISUALSTYLE
  5
3197
102
{ACAD_XDICTIONARY
360
220F3
102
}
102
{ACAD_REACTORS
330
318F
102
}
330
318F
100
AcDbVisualStyle
  2

 70
     6
177
     2
291
     0
 71
     1
176
     1
 72
     2
176
     1
 73
     2
176
     1
 90
        0
176
     1
 40
0.6
176
     1
 41
30.0
176
     1
 63
     7
176
     1
 74
     2
176
     1
 91
        2
176
     1
 64
     7
176
     1
 65
   257
176
     1
 75
     2
176
     1
175
     1
176
     1
 42
40.0
176
     1
 92
        0
176
     1
 66
   257
176
     1
 43
1.0
176
     1
 76
     1
176
     1
 77
     6
176
     1
 78
     2
176
     1
 67
     7
176
     1
 79
     3
176
     1
170
     0
176
     1
171
     0
176
     1
290
     0
176
     1
 93
        1
176
     1
 44
0.0
176
     1
173
     0
176
     1
1001
ACAD
1000
AcDbSavedByObjectVersion
1070
     0
  0
VISUALSTYLE
  5
3196
102
{ACAD_XDICTIONARY
360
220F1
102
}
102
{ACAD_REACTORS
330
318F
102
}
330
318F
100
AcDbVisualStyle
  2

 70
     5
177
     2
291
     0
 71
     0
176
     1
 72
     2
176
     1
 73
     0
176
     1
 90
        0
176
     1
 40
0.6
176
     1
 41
30.0
176
     1
 63
     7
176
     1
 74
     1
176
     1
 91
        4
176
     1
 64
     7
176
     1
 65
   257
176
     1
 75
     1
176
     1
175
     1
176
     1
 42
1.0
176
     1
 92
        0
176
     1
 66
   257
176
     1
 43
1.0
176
     1
 76
     1
176
     1
 77
     6
176
     1
 78
     2
176
     1
 67
     7
176
     1
 79
     5
176
     1
170
     0
176
     1
171
     0
176
     1
290
     0
176
     1
 93
        1
176
     1
 44
0.0
176
     1
173
     0
176
     1
1001
ACAD
1000
AcDbSavedByObjectVersion
1070
     0
  0
VISUALSTYLE
  5
3194
102
{ACAD_XDICTIONARY
360
220ED
102
}
102
{ACAD_REACTORS
330
318F
102
}
330
318F
100
AcDbVisualStyle
  2

 70
     7
177
     2
291
     1
 71
     1
176
     1
 72
     0
176
     1
 73
     1
176
     1
 90
        0
176
     1
 40
0.6
176
     1
 41
30.0
176
     1
 63
     7
176
     1
 74
     0
176
     1
 91
        4
176
     1
 64
     7
176
     1
 65
   257
176
     1
 75
     1
176
     1
175
     1
176
     1
 42
1.0
176
     1
 92
        8
176
     1
 66
     7
176
     1
 43
1.0
176
     1
 76
     1
176
     1
 77
     6
176
     1
 78
     2
176
     1
 67
     7
176
     1
 79
     5
176
     1
170
     0
176
     1
171
     0
176
     1
290
     0
176
     1
 93
        1
176
     1
 44
0.0
176
     1
173
     0
176
     1
1001
ACAD
1000
AcDbSavedByObjectVersion
1070
     0
  0
VISUALSTYLE
  5
319B
102
{ACAD_XDICTIONARY
360
220FB
102
}
102
{ACAD_REACTORS
330
318F
102
}
330
318F
100
AcDbVisualStyle
  2

 70
    12
177
     2
291
     1
 71
     2
176
     1
 72
     2
176
     1
 73
     0
176
     1
 90
        0
176
     1
 40
0.6
176
     1
 41
30.0
176
     1
 63
     7
176
     1
 74
     1
176
     1
 91
        4
176
     1
 64
     7
176
     1
 65
   257
176
     1
 75
     1
176
     1
175
     1
176
     1
 42
1.0
176
     1
 92
        8
176
     1
 66
     7
176
     1
 43
1.0
176
     1
 76
     1
176
     1
 77
     6
176
     1
 78
     2
176
     1
 67
     7
176
     1
 79
     5
176
     1
170
     0
176
     1
171
     0
176
     1
290
     0
176
     1
 93
        1
176
     1
 44
50.0
176
     1
173
     0
176
     1
1001
ACAD
1000
AcDbSavedByObjectVersion
1070
     0
  0
VISUALSTYLE
  5
319F
102
{ACAD_XDICTIONARY
360
22103
102
}
102
{ACAD_REACTORS
330
318F
102
}
330
318F
100
AcDbVisualStyle
  2

 70
    16
177
     2
291
     1
 71
     2
176
     1
 72
     2
176
     1
 73
     3
176
     1
 90
        0
176
     1
 40
0.6
176
     1
 41
30.0
176
     1
 63
     8
176
     1
 74
     1
176
     1
 91
        4
176
     1
 64
     7
176
     1
 65
   257
176
     1
 75
     1
176
     1
175
     1
176
     1
 42
1.0
176
     1
 92
        8
176
     1
 66
     8
176
     1
 43
1.0
176
     1
 76
     1
176
     1
 77
     6
176
     1
 78
     2
176
     1
 67
     7
176
     1
 79
     5
176
     1
170
     0
176
     1
171
     0
176
     1
290
     0
176
     1
 93
        1
176
     1
 44
0.0
176
     1
173
     0
176
     1
1001
ACAD
1000
AcDbSavedByObjectVersion
1070
     0
  0
VISUALSTYLE
  5
3198
102
{ACAD_XDICTIONARY
360
220F5
102
}
102
{ACAD_REACTORS
330
318F
102
}
330
318F
100
AcDbVisualStyle
  2

 70
     9
177
     2
291
     0
 71
     3
176
     1
 72
     2
176
     1
 73
     0
176
     1
 90
        0
176
     1
 40
0.6
176
     1
 41
30.0
176
     1
 63
     7
176
     1
 74
     2
176
     1
 91
        2
176
     1
 64
     7
176
     1
 65
   257
176
     1
 75
     1
176
     1
175
     1
176
     1
 42
40.0
176
     1
 92
        8
176
     1
 66
     7
176
     1
 43
1.0
176
     1
 76
     1
176
     1
 77
     6
176
     1
 78
     2
176
     1
 67
     7
176
     1
 79
     3
176
     1
170
     0
176
     1
171
     0
176
     1
290
     0
176
     1
 93
        1
176
     1
 44
0.0
176
     1
173
     0
176
     1
1001
ACAD
1000
AcDbSavedByObjectVersion
1070
     0
  0
VISUALSTYLE
  5
319A
102
{ACAD_XDICTIONARY
360
220F9
102
}
102
{ACAD_REACTORS
330
318F
102
}
330
318F
100
AcDbVisualStyle
  2

 70
    11
177
     2
291
     1
 71
     2
176
     1
 72
     2
176
     1
 73
     0
176
     1
 90
        0
176
     1
 40
0.6
176
     1
 41
30.0
176
     1
 63
     7
176
     1
 74
     1
176
     1
 91
        4
176
     1
 64
     7
176
     1
 65
   257
176
     1
 75
     1
176
     1
175
     1
176
     1
 42
1.0
176
     1
 92
        8
176
     1
 66
     7
176
     1
 43
1.0
176
     1
 76
     1
176
     1
 77
     6
176
     1
 78
     2
176
     1
 67
     7
176
     1
 79
     5
176
     1
170
     0
176
     1
171
     0
176
     1
290
     0
176
     1
 93
        1
176
     1
 44
-50.0
176
     1
173
     0
176
     1
1001
ACAD
1000
AcDbSavedByObjectVersion
1070
     0
  0
VISUALSTYLE
  5
1B2EC
102
{ACAD_XDICTIONARY
360
22117
102
}
102
{ACAD_REACTORS
330
318F
102
}
330
318F
100
AcDbVisualStyle
  2

 70
    22
177
     2
291
     1
 71
     2
176
     0
 72
     2
176
     0
 73
     0
176
     0
 90
        0
176
     0
 40
0.6
176
     0
 41
30.0
176
     0
 63
     7
176
     0
 74
     1
176
     0
 91
        4
176
     0
 64
     7
176
     0
 65
   257
176
     0
 75
     1
176
     0
175
     1
176
     0
 42
1.0
176
     0
 92
        8
176
     2
 66
     7
176
     0
 43
1.0
176
     0
 76
     1
176
     0
 77
     6
176
     0
 78
     2
176
     0
 67
     7
176
     0
 79
     5
176
     0
170
     0
176
     0
171
     0
176
     0
290
     0
176
     0
 93
        1
176
     0
 44
0.0
176
     0
173
     0
176
     0
1001
ACAD
1000
AcDbSavedByObjectVersion
1070
     0
  0
VISUALSTYLE
  5
319E
102
{ACAD_XDICTIONARY
360
22101
102
}
102
{ACAD_REACTORS
330
318F
102
}
330
318F
100
AcDbVisualStyle
  2

 70
    15
177
     2
291
     1
 71
     2
176
     1
 72
     2
176
     1
 73
     0
176
     1
 90
        0
176
     1
 40
0.6
176
     1
 41
30.0
176
     1
 63
     7
176
     1
 74
     1
176
     1
 91
        4
176
     1
 64
     7
176
     1
 65
   257
176
     1
 75
     1
176
     1
175
     1
176
     1
 42
1.0
176
     1
 92
        8
176
     1
 66
     7
176
     1
 43
1.0
176
     1
 76
     1
176
     1
 77
     6
176
     1
 78
     2
176
     1
 67
     7
176
     1
 79
     5
176
     1
170
     0
176
     1
171
     0
176
     1
290
     0
176
     1
 93
        1
176
     1
 44
0.0
176
     1
173
     0
176
     1
1001
ACAD
1000
AcDbSavedByObjectVersion
1070
     0
  0
VISUALSTYLE
  5
3190
102
{ACAD_XDICTIONARY
360
220E5
102
}
102
{ACAD_REACTORS
330
318F
102
}
330
318F
100
AcDbVisualStyle
  2

 70
     0
177
     2
291
     1
 71
     2
176
     1
 72
     1
176
     1
 73
     1
176
     1
 90
        2
176
     1
 40
0.6
176
     1
 41
30.0
176
     1
 63
     7
176
     1
 74
     0
176
     1
 91
        4
176
     1
 64
     7
176
     1
 65
   257
176
     1
 75
     1
176
     1
175
     1
176
     1
 42
1.0
176
     1
 92
        8
176
     1
 66
     7
176
     1
 43
1.0
176
     1
 76
     1
176
     1
 77
     6
176
     1
 78
     2
176
     1
 67
     7
176
     1
 79
     5
176
     1
170
     0
176
     1
171
     0
176
     1
290
     0
176
     1
 93
       13
176
     1
 44
0.0
176
     1
173
     0
176
     1
1001
ACAD
1000
AcDbSavedByObjectVersion
1070
     0
  0
VISUALSTYLE
  5
3191
102
{ACAD_XDICTIONARY
360
220E7
102
}
102
{ACAD_REACTORS
330
318F
102
}
330
318F
100
AcDbVisualStyle
  2

 70
     1
177
     2
291
     1
 71
     2
176
     1
 72
     1
176
     1
 73
     1
176
     1
 90
        2
176
     1
 40
0.6
176
     1
 41
30.0
176
     1
 63
     7
176
     1
 74
     1
176
     1
 91
        4
176
     1
 64
     7
176
     1
 65
   257
176
     1
 75
     1
176
     1
175
     1
176
     1
 42
1.0
176
     1
 92
        0
176
     1
 66
   257
176
     1
 43
1.0
176
     1
 76
     1
176
     1
 77
     6
176
     1
 78
     2
176
     1
 67
     7
176
     1
 79
     5
176
     1
170
     0
176
     1
171
     0
176
     1
290
     0
176
     1
 93
       13
176
     1
 44
0.0
176
     1
173
     0
176
     1
1001
ACAD
1000
AcDbSavedByObjectVersion
1070
     0
  0
VISUALSTYLE
  5
3192
102
{ACAD_XDICTIONARY
360
220E9
102
}
102
{ACAD_REACTORS
330
318F
102
}
330
318F
100
AcDbVisualStyle
  2

 70
     2
177
     2
291
     1
 71
     2
176
     1
 72
     2
176
     1
 73
     1
176
     1
 90
        2
176
     1
 40
0.6
176
     1
 41
30.0
176
     1
 63
     7
176
     1
 74
     0
176
     1
 91
        4
176
     1
 64
     7
176
     1
 65
   257
176
     1
 75
     1
176
     1
175
     1
176
     1
 42
1.0
176
     1
 92
        0
176
     1
 66
     7
176
     1
 43
1.0
176
     1
 76
     1
176
     1
 77
     6
176
     1
 78
     2
176
     1
 67
     7
176
     1
 79
     5
176
     1
170
     0
176
     1
171
     0
176
     1
290
     0
176
     1
 93
       13
176
     1
 44
0.0
176
     1
173
     0
176
     1
1001
ACAD
1000
AcDbSavedByObjectVersion
1070
     0
  0
VISUALSTYLE
  5
3193
102
{ACAD_XDICTIONARY
360
220EB
102
}
102
{ACAD_REACTORS
330
318F
102
}
330
318F
100
AcDbVisualStyle
  2

 70
     3
177
     2
291
     1
 71
     2
176
     1
 72
     2
176
     1
 73
     1
176
     1
 90
        2
176
     1
 40
0.6
176
     1
 41
30.0
176
     1
 63
     7
176
     1
 74
     1
176
     1
 91
        4
176
     1
 64
     7
176
     1
 65
   257
176
     1
 75
     1
176
     1
175
     1
176
     1
 42
1.0
176
     1
 92
        0
176
     1
 66
   257
176
     1
 43
1.0
176
     1
 76
     1
176
     1
 77
     6
176
     1
 78
     2
176
     1
 67
     7
176
     1
 79
     5
176
     1
170
     0
176
     1
171
     0
176
     1
290
     0
176
     1
 93
       13
176
     1
 44
0.0
176
     1
173
     0
176
     1
1001
ACAD
1000
AcDbSavedByObjectVersion
1070
     0
  0
VISUALSTYLE
  5
1B2E4
102
{ACAD_XDICTIONARY
360
22107
102
}
102
{ACAD_REACTORS
330
318F
102
}
330
318F
100
AcDbVisualStyle
  2

 70
     6
177
     2
291
     0
 71
     1
176
     1
 72
     2
176
     1
 73
     2
176
     1
 90
        0
176
     1
 40
0.6
176
     1
 41
30.0
176
     1
 63
     7
176
     1
 74
     2
176
     1
 91
        2
176
     1
 64
     7
176
     1
 65
   257
176
     1
 75
     2
176
     1
175
     1
176
     1
 42
40.0
176
     1
 92
        0
176
     1
 66
   257
176
     1
 43
1.0
176
     1
 76
     1
176
     1
 77
     6
176
     1
 78
     2
176
     1
 67
     7
176
     1
 79
     3
176
     1
170
     0
176
     1
171
     0
176
     1
290
     0
176
     1
 93
        1
176
     1
 44
0.0
176
     1
173
     0
176
     1
1001
ACAD
1000
AcDbSavedByObjectVersion
1070
     0
  0
VISUALSTYLE
  5
1B2EA
102
{ACAD_XDICTIONARY
360
22113
102
}
102
{ACAD_REACTORS
330
318F
102
}
330
318F
100
AcDbVisualStyle
  2

 70
    20
177
     2
291
     1
 71
     2
176
     0
 72
     2
176
     0
 73
     0
176
     0
 90
        0
176
     0
 40
0.6
176
     0
 41
30.0
176
     0
 63
     7
176
     0
 74
     1
176
     0
 91
        4
176
     0
 64
     7
176
     0
 65
   257
176
     0
 75
     1
176
     0
175
     1
176
     0
 42
1.0
176
     0
 92
       10
176
     2
 66
     7
176
     0
 43
1.0
176
     0
 76
     1
176
     0
 77
     6
176
     0
 78
     2
176
     0
 67
     7
176
     0
 79
     5
176
     0
170
     0
176
     0
171
     0
176
     0
290
     0
176
     0
 93
        1
176
     0
 44
0.0
176
     0
173
     0
176
     0
1001
ACAD
1000
AcDbSavedByObjectVersion
1070
     0
  0
VISUALSTYLE
  5
319D
102
{ACAD_XDICTIONARY
360
220FF
102
}
102
{ACAD_REACTORS
330
318F
102
}
330
318F
100
AcDbVisualStyle
  2

 70
    14
177
     2
291
     1
 71
     2
176
     1
 72
     2
176
     1
 73
     0
176
     1
 90
        0
176
     1
 40
0.6
176
     1
 41
30.0
176
     1
 63
     7
176
     1
 74
     1
176
     1
 91
        4
176
     1
 64
     7
176
     1
 65
   257
176
     1
 75
     7
176
     1
175
     7
176
     1
 42
1.0
176
     1
 92
        8
176
     1
 66
     7
176
     1
 43
1.0
176
     1
 76
     1
176
     1
 77
     6
176
     1
 78
     2
176
     1
 67
     7
176
     1
 79
     5
176
     1
170
     0
176
     1
171
     0
176
     1
290
     0
176
     1
 93
        1
176
     1
 44
0.0
176
     1
173
     0
176
     1
1001
ACAD
1000
AcDbSavedByObjectVersion
1070
     0
  0
VISUALSTYLE
  5
1B2EB
102
{ACAD_XDICTIONARY
360
22115
102
}
102
{ACAD_REACTORS
330
318F
102
}
330
318F
100
AcDbVisualStyle
  2

 70
    21
177
     2
291
     1
 71
     2
176
     0
 72
     2
176
     0
 73
     0
176
     0
 90
        0
176
     0
 40
0.6
176
     0
 41
30.0
176
     0
 63
     7
176
     0
 74
     1
176
     0
 91
        4
176
     0
 64
     7
176
     0
 65
   257
176
     0
 75
     1
176
     0
175
     1
176
     0
 42
1.0
176
     0
 92
        9
176
     2
 66
     7
176
     0
 43
1.0
176
     0
 76
     1
176
     0
 77
     6
176
     0
 78
     2
176
     0
 67
     7
176
     0
 79
     5
176
     0
170
     0
176
     0
171
     0
176
     0
290
     0
176
     0
 93
        1
176
     0
 44
0.0
176
     0
173
     0
176
     0
1001
ACAD
1000
AcDbSavedByObjectVersion
1070
     0
  0
VISUALSTYLE
  5
3199
102
{ACAD_XDICTIONARY
360
220F7
102
}
102
{ACAD_REACTORS
330
318F
102
}
330
318F
100
AcDbVisualStyle
  2

 70
     8
177
     2
291
     0
 71
     2
176
     1
 72
     2
176
     1
 73
     0
176
     1
 90
        0
176
     1
 40
0.6
176
     1
 41
30.0
176
     1
 63
     7
176
     1
 74
     1
176
     1
 91
        0
176
     1
 64
     7
176
     1
 65
   257
176
     1
 75
     1
176
     1
175
     1
176
     1
 42
1.0
176
     1
 92
        8
176
     1
 66
     8
176
     1
 43
1.0
176
     1
 76
     1
176
     1
 77
     6
176
     1
 78
     2
176
     1
 67
     7
176
     1
 79
     5
176
     1
170
     0
176
     1
171
     0
176
     1
290
     0
176
     1
 93
       13
176
     1
 44
0.0
176
     1
173
     0
176
     1
1001
ACAD
1000
AcDbSavedByObjectVersion
1070
     0
  0
VISUALSTYLE
  5
1B2E9
102
{ACAD_XDICTIONARY
360
22111
102
}
102
{ACAD_REACTORS
330
318F
102
}
330
318F
100
AcDbVisualStyle
  2

 70
    27
177
     2
291
     0
 71
     2
176
     1
 72
     2
176
     1
 73
     1
176
     1
 90
        2
176
     1
 40
0.6
176
     1
 41
30.0
176
     1
 63
     7
176
     1
 74
     0
176
     1
 91
        4
176
     1
 64
     7
176
     1
 65
   257
176
     1
 75
     1
176
     1
175
     1
176
     1
 42
1.0
176
     1
 92
        8
176
     1
 66
   257
176
     1
 43
1.0
176
     1
 76
     1
176
     1
 77
     6
176
     1
 78
     2
176
     1
 67
     8
176
     1
 79
     3
176
     1
170
     0
176
     1
171
     0
176
     1
290
     0
176
     1
 93
        5
176
     1
 44
0.0
176
     1
173
     0
176
     1
1001
ACAD
1000
AcDbSavedByObjectVersion
1070
     0
  0
VISUALSTYLE
  5
1B2E8
102
{ACAD_XDICTIONARY
360
2210F
102
}
102
{ACAD_REACTORS
330
318F
102
}
330
318F
100
AcDbVisualStyle
  2

 70
    26
177
     2
291
     0
 71
     2
176
     1
 72
     2
176
     1
 73
     1
176
     1
 90
        2
176
     1
 40
0.6
176
     1
 41
30.0
176
     1
 63
     7
176
     1
 74
     1
176
     1
 91
       10
176
     1
 64
     7
176
     1
 65
   257
176
     1
 75
     2
176
     1
175
     1
176
     1
 42
1.0
176
     1
 92
        8
176
     1
 66
   257
176
     1
 43
1.0
176
     1
 76
     1
176
     1
 77
     6
176
     1
 78
     2
176
     1
 67
     7
176
     1
 79
     3
176
     1
170
     0
176
     1
171
     0
176
     1
290
     0
176
     1
 93
        5
176
     1
 44
0.0
176
     1
173
     0
176
     1
1001
ACAD
1000
AcDbSavedByObjectVersion
1070
     0
  0
VISUALSTYLE
  5
1B2E5
102
{ACAD_XDICTIONARY
360
22109
102
}
102
{ACAD_REACTORS
330
318F
102
}
330
318F
100
AcDbVisualStyle
  2

 70
    23
177
     2
291
     0
 71
     2
176
     1
 72
     2
176
     1
 73
     3
176
     1
 90
        0
176
     1
 40
0.6
176
     1
 41
30.0
176
     1
 63
     7
176
     1
 74
     2
176
     1
 91
        2
176
     1
 64
     7
176
     1
 65
     7
176
     1
 75
     1
176
     1
175
     1
176
     1
 42
40.0
176
     1
 92
        8
176
     1
 66
     7
176
     1
 43
1.0
176
     1
 76
     1
176
     1
 77
     6
176
     1
 78
     2
176
     1
 67
     7
176
     1
 79
     3
176
     1
170
     0
176
     1
171
     0
176
     1
290
     0
176
     1
 93
        1
176
     1
 44
0.0
176
     1
173
     0
176
     1
1001
ACAD
1000
AcDbSavedByObjectVersion
1070
     0
  0
VISUALSTYLE
  5
1B2E6
102
{ACAD_XDICTIONARY
360
2210B
102
}
102
{ACAD_REACTORS
330
318F
102
}
330
318F
100
AcDbVisualStyle
  2

 70
    24
177
     2
291
     0
 71
     1
176
     1
 72
     2
176
     1
 73
     2
176
     1
 90
        0
176
     1
 40
0.6
176
     1
 41
30.0
176
     1
 63
     7
176
     1
 74
     2
176
     1
 91
        2
176
     1
 64
     7
176
     1
 65
     7
176
     1
 75
     1
176
     1
175
     1
176
     1
 42
40.0
176
     1
 92
       11
176
     1
 66
     7
176
     1
 43
1.0
176
     1
 76
     1
176
     1
 77
     6
176
     1
 78
     2
176
     1
 67
     7
176
     1
 79
     6
176
     1
170
     0
176
     1
171
     0
176
     1
290
     0
176
     1
 93
        1
176
     1
 44
0.0
176
     1
173
     0
176
     1
1001
ACAD
1000
AcDbSavedByObjectVersion
1070
     0
  0
VISUALSTYLE
  5
319C
102
{ACAD_XDICTIONARY
360
220FD
102
}
102
{ACAD_REACTORS
330
318F
102
}
330
318F
100
AcDbVisualStyle
  2

 70
    13
177
     2
291
     1
 71
     2
176
     1
 72
     2
176
     1
 73
     0
176
     1
 90
        0
176
     1
 40
0.6
176
     1
 41
30.0
176
     1
 63
     7
176
     1
 74
     1
176
     1
 91
        4
176
     1
 64
     7
176
     1
 65
   257
176
     1
 75
     1
176
     1
175
     1
176
     1
 42
1.0
176
     1
 92
       12
176
     1
 66
     7
176
     1
 43
1.0
176
     1
 76
     1
176
     1
 77
     6
176
     1
 78
     2
176
     1
 67
     7
176
     1
 79
     5
176
     1
170
     0
176
     1
171
     0
176
     1
290
     0
176
     1
 93
        1
176
     1
 44
0.0
176
     1
173
     0
176
     1
1001
ACAD
1000
AcDbSavedByObjectVersion
1070
     0
  0
VISUALSTYLE
  5
1B2E3
102
{ACAD_XDICTIONARY
360
22105
102
}
102
{ACAD_REACTORS
330
318F
102
}
330
318F
100
AcDbVisualStyle
  2

 70
     5
177
     2
291
     0
 71
     0
176
     1
 72
     2
176
     1
 73
     0
176
     1
 90
        0
176
     1
 40
0.6
176
     1
 41
30.0
176
     1
 63
     7
176
     1
 74
     1
176
     1
 91
        4
176
     1
 64
     7
176
     1
 65
   257
176
     1
 75
     1
176
     1
175
     1
176
     1
 42
1.0
176
     1
 92
        0
176
     1
 66
   257
176
     1
 43
1.0
176
     1
 76
     1
176
     1
 77
     6
176
     1
 78
     2
176
     1
 67
     7
176
     1
 79
     3
176
     1
170
     0
176
     1
171
     0
176
     1
290
     0
176
     1
 93
        1
176
     1
 44
0.0
176
     1
173
     0
176
     1
1001
ACAD
1000
AcDbSavedByObjectVersion
1070
     0
  0
VISUALSTYLE
  5
1B2E7
102
{ACAD_XDICTIONARY
360
2210D
102
}
102
{ACAD_REACTORS
330
318F
102
}
330
318F
100
AcDbVisualStyle
  2

 70
    25
177
     2
291
     0
 71
     2
176
     1
 72
     2
176
     1
 73
     1
176
     1
 90
        1
176
     1
 40
0.5
176
     1
 41
30.0
176
     1
 63
     7
176
     1
 74
     1
176
     1
 91
        0
176
     1
 64
     7
176
     1
 65
   257
176
     1
 75
     1
176
     1
175
     1
176
     1
 42
1.0
176
     1
 92
        8
176
     1
 66
     7
176
     1
 43
1.0
176
     1
 76
     1
176
     1
 77
     6
176
     1
 78
     2
176
     1
 67
     7
176
     1
 79
     3
176
     1
170
     0
176
     1
171
     0
176
     1
290
     0
176
     1
 93
       13
176
     1
 44
0.0
176
     1
173
     0
176
     1
1001
ACAD
1000
AcDbSavedByObjectVersion
1070
     0
  0
DICTIONARYVAR
  5
1B222
102
{ACAD_REACTORS
330
33A3
102
}
330
33A3
100
DictionaryVariables
280
     0
  1
1:1
  0
DICTIONARYVAR
  5
1B30F
102
{ACAD_REACTORS
330
33A3
102
}
330
33A3
100
DictionaryVariables
280
     0
  1
STANDARD
  0
DICTIONARYVAR
  5
33A4
102
{ACAD_REACTORS
330
33A3
102
}
330
33A3
100
DictionaryVariables
280
     0
  1
STANDARD
  0
DICTIONARYVAR
  5
1B310
102
{ACAD_REACTORS
330
33A3
102
}
330
33A3
100
DictionaryVariables
280
     0
  1
Metric50
  0
DICTIONARYVAR
  5
1B311
102
{ACAD_REACTORS
330
33A3
102
}
330
33A3
100
DictionaryVariables
280
     0
  1
Metric50
  0
DICTIONARYVAR
  5
9BE8
102
{ACAD_REACTORS
330
33A3
102
}
330
33A3
100
DictionaryVariables
280
     0
  1
1
  0
DICTIONARYVAR
  5
9BE7
102
{ACAD_REACTORS
330
33A3
102
}
330
33A3
100
DictionaryVariables
280
     0
  1
0
  0
DICTIONARYVAR
  5
20993
102
{ACAD_REACTORS
330
33A3
102
}
330
33A3
100
DictionaryVariables
280
     0
  1
1
  0
DICTIONARYVAR
  5
20994
102
{ACAD_REACTORS
330
33A3
102
}
330
33A3
100
DictionaryVariables
280
     0
  1
15
  0
DICTIONARYVAR
  5
20992
102
{ACAD_REACTORS
330
33A3
102
}
330
33A3
100
DictionaryVariables
280
     0
  1
0
  0
DICTIONARYVAR
  5
20991
102
{ACAD_REACTORS
330
33A3
102
}
330
33A3
100
DictionaryVariables
280
     0
  1
0
  0
DICTIONARYVAR
  5
9BE6
102
{ACAD_REACTORS
330
33A3
102
}
330
33A3
100
DictionaryVariables
280
     0
  1
127
  0
DICTIONARY
  5
2211F
330
20CB3
100
AcDbDictionary
280
     1
281
     1
  3
ACAD_XREC_ROUNDTRIP
360
22120
  0
DICTIONARY
  5
2211B
330
1B2F1
100
AcDbDictionary
280
     1
281
     1
  3
ACAD_XREC_ROUNDTRIP
360
2211C
  0
DICTIONARY
  5
1B22B
330
318D
100
AcDbDictionary
280
     1
281
     1
  3
ACAD_XREC_ROUNDTRIP
360
1B22C
  0
DICTIONARY
  5
1B22D
330
318C
100
AcDbDictionary
280
     1
281
     1
  3
ACAD_XREC_ROUNDTRIP
360
1B22E
  0
DICTIONARY
  5
1B22F
330
318E
100
AcDbDictionary
280
     1
281
     1
  3
ACAD_XREC_ROUNDTRIP
360
1B230
  0
DICTIONARY
  5
2211D
330
20CB1
100
AcDbDictionary
280
     1
281
     1
  3
ACAD_XREC_ROUNDTRIP
360
2211E
  0
DICTIONARY
  5
22119
330
1B2EF
100
AcDbDictionary
280
     1
281
     1
  3
ACAD_XREC_ROUNDTRIP
360
2211A
  0
DICTIONARY
  5
1B314
330
31A2
100
AcDbDictionary
280
     1
281
     1
  3
ACAD_ROUNDTRIP_2008_TABLESTYLE_CELLSTYLEMAP
360
220E3
  0
DICTIONARY
  5
220EF
330
3195
100
AcDbDictionary
280
     1
281
     1
  3
ACAD_XREC_ROUNDTRIP
360
220F0
  0
DICTIONARY
  5
220F3
330
3197
100
AcDbDictionary
280
     1
281
     1
  3
ACAD_XREC_ROUNDTRIP
360
220F4
  0
DICTIONARY
  5
220F1
330
3196
100
AcDbDictionary
280
     1
281
     1
  3
ACAD_XREC_ROUNDTRIP
360
220F2
  0
DICTIONARY
  5
220ED
330
3194
100
AcDbDictionary
280
     1
281
     1
  3
ACAD_XREC_ROUNDTRIP
360
220EE
  0
DICTIONARY
  5
220FB
330
319B
100
AcDbDictionary
280
     1
281
     1
  3
ACAD_XREC_ROUNDTRIP
360
220FC
  0
DICTIONARY
  5
22103
330
319F
100
AcDbDictionary
280
     1
281
     1
  3
ACAD_XREC_ROUNDTRIP
360
22104
  0
DICTIONARY
  5
220F5
330
3198
100
AcDbDictionary
280
     1
281
     1
  3
ACAD_XREC_ROUNDTRIP
360
220F6
  0
DICTIONARY
  5
220F9
330
319A
100
AcDbDictionary
280
     1
281
     1
  3
ACAD_XREC_ROUNDTRIP
360
220FA
  0
DICTIONARY
  5
22117
330
1B2EC
100
AcDbDictionary
280
     1
281
     1
  3
ACAD_XREC_ROUNDTRIP
360
22118
  0
DICTIONARY
  5
22101
330
319E
100
AcDbDictionary
280
     1
281
     1
  3
ACAD_XREC_ROUNDTRIP
360
22102
  0
DICTIONARY
  5
220E5
330
3190
100
AcDbDictionary
280
     1
281
     1
  3
ACAD_XREC_ROUNDTRIP
360
220E6
  0
DICTIONARY
  5
220E7
330
3191
100
AcDbDictionary
280
     1
281
     1
  3
ACAD_XREC_ROUNDTRIP
360
220E8
  0
DICTIONARY
  5
220E9
330
3192
100
AcDbDictionary
280
     1
281
     1
  3
ACAD_XREC_ROUNDTRIP
360
220EA
  0
DICTIONARY
  5
220EB
330
3193
100
AcDbDictionary
280
     1
281
     1
  3
ACAD_XREC_ROUNDTRIP
360
220EC
  0
DICTIONARY
  5
22107
330
1B2E4
100
AcDbDictionary
280
     1
281
     1
  3
ACAD_XREC_ROUNDTRIP
360
22108
  0
DICTIONARY
  5
22113
330
1B2EA
100
AcDbDictionary
280
     1
281
     1
  3
ACAD_XREC_ROUNDTRIP
360
22114
  0
DICTIONARY
  5
220FF
330
319D
100
AcDbDictionary
280
     1
281
     1
  3
ACAD_XREC_ROUNDTRIP
360
22100
  0
DICTIONARY
  5
22115
330
1B2EB
100
AcDbDictionary
280
     1
281
     1
  3
ACAD_XREC_ROUNDTRIP
360
22116
  0
DICTIONARY
  5
220F7
330
3199
100
AcDbDictionary
280
     1
281
     1
  3
ACAD_XREC_ROUNDTRIP
360
220F8
  0
DICTIONARY
  5
22111
330
1B2E9
100
AcDbDictionary
280
     1
281
     1
  3
ACAD_XREC_ROUNDTRIP
360
22112
  0
DICTIONARY
  5
2210F
330
1B2E8
100
AcDbDictionary
280
     1
281
     1
  3
ACAD_XREC_ROUNDTRIP
360
22110
  0
DICTIONARY
  5
22109
330
1B2E5
100
AcDbDictionary
280
     1
281
     1
  3
ACAD_XREC_ROUNDTRIP
360
2210A
  0
DICTIONARY
  5
2210B
330
1B2E6
100
AcDbDictionary
280
     1
281
     1
  3
ACAD_XREC_ROUNDTRIP
360
2210C
  0
DICTIONARY
  5
220FD
330
319C
100
AcDbDictionary
280
     1
281
     1
  3
ACAD_XREC_ROUNDTRIP
360
220FE
  0
DICTIONARY
  5
22105
330
1B2E3
100
AcDbDictionary
280
     1
281
     1
  3
ACAD_XREC_ROUNDTRIP
360
22106
  0
DICTIONARY
  5
2210D
330
1B2E7
100
AcDbDictionary
280
     1
281
     1
  3
ACAD_XREC_ROUNDTRIP
360
2210E
  0
XRECORD
  5
22120
102
{ACAD_REACTORS
330
2211F
102
}
330
2211F
100
AcDbXrecord
280
     1
102
DISPLAYNAME
  1
Imperial24
102
FLAGS
 90
        0
  0
XRECORD
  5
2211C
102
{ACAD_REACTORS
330
2211B
102
}
330
2211B
100
AcDbXrecord
280
     1
102
DISPLAYNAME
  1
Metric50
102
FLAGS
 90
        0
  0
XRECORD
  5
1B22C
102
{ACAD_REACTORS
330
1B22B
102
}
330
1B22B
100
AcDbXrecord
280
     1
102
MATERIAL
148
0.0
149
0.0
149
0.0
 93
        0
 94
      127
282
     0
 72
     1
 77
     1
171
     1
175
     1
179
     1
273
     0
  0
XRECORD
  5
1B22E
102
{ACAD_REACTORS
330
1B22D
102
}
330
1B22D
100
AcDbXrecord
280
     1
102
MATERIAL
148
0.0
149
0.0
149
0.0
 93
        0
 94
      127
282
     0
 72
     1
 77
     1
171
     1
175
     1
179
     1
273
     0
  0
XRECORD
  5
1B230
102
{ACAD_REACTORS
330
1B22F
102
}
330
1B22F
100
AcDbXrecord
280
     1
102
MATERIAL
148
0.0
149
0.0
149
0.0
 93
        0
 94
      127
282
     0
 72
     1
 77
     1
171
     1
175
     1
179
     1
273
     0
  0
XRECORD
  5
2211E
102
{ACAD_REACTORS
330
2211D
102
}
330
2211D
100
AcDbXrecord
280
     1
102
DISPLAYNAME
  1
Imperial24
102
FLAGS
 90
        0
  0
XRECORD
  5
2211A
102
{ACAD_REACTORS
330
22119
102
}
330
22119
100
AcDbXrecord
280
     1
102
DISPLAYNAME
  1
Metric50
102
FLAGS
 90
        0
  0
CELLSTYLEMAP
  5
220E3
102
{ACAD_REACTORS
330
1B314
102
}
330
1B314
100
AcDbCellStyleMap
 90
        3
300
CELLSTYLE
  1
TABLEFORMAT_BEGIN
 90
        5
170
     1
 91
        0
 92
    32768
 62
   257
 93
        1
300
CONTENTFORMAT
  1
CONTENTFORMAT_BEGIN
 90
        0
 91
        0
 92
        4
 93
        0
300

 40
0.0
140
1.0
 94
        5
 62
     0
340
11
144
6.0
309
CONTENTFORMAT_END
171
     1
301
MARGIN
  1
CELLMARGIN_BEGIN
 40
1.5
 40
1.5
 40
1.5
 40
1.5
 40
0.18
 40
0.18
309
CELLMARGIN_END
 94
        6
 95
        1
302
GRIDFORMAT
  1
GRIDFORMAT_BEGIN
 90
        0
 91
        1
 62
     0
 92
       -2
340
0
 93
        0
 40
0.045
309
GRIDFORMAT_END
 95
        2
302
GRIDFORMAT
  1
GRIDFORMAT_BEGIN
 90
        0
 91
        1
 62
     0
 92
       -2
340
0
 93
        0
 40
0.045
309
GRIDFORMAT_END
 95
        4
302
GRIDFORMAT
  1
GRIDFORMAT_BEGIN
 90
        0
 91
        1
 62
     0
 92
       -2
340
0
 93
        0
 40
0.045
309
GRIDFORMAT_END
 95
        8
302
GRIDFORMAT
  1
GRIDFORMAT_BEGIN
 90
        0
 91
        1
 62
     0
 92
       -2
340
0
 93
        0
 40
0.045
309
GRIDFORMAT_END
 95
       16
302
GRIDFORMAT
  1
GRIDFORMAT_BEGIN
 90
        0
 91
        1
 62
     0
 92
       -2
340
0
 93
        0
 40
0.045
309
GRIDFORMAT_END
 95
       32
302
GRIDFORMAT
  1
GRIDFORMAT_BEGIN
 90
        0
 91
        1
 62
     0
 92
       -2
340
0
 93
        0
 40
0.045
309
GRIDFORMAT_END
309
TABLEFORMAT_END
  1
CELLSTYLE_BEGIN
 90
        1
 91
        1
300
_TITLE
309
CELLSTYLE_END
300
CELLSTYLE
  1
TABLEFORMAT_BEGIN
 90
        5
170
     1
 91
        0
 92
        0
 62
   257
 93
        1
300
CONTENTFORMAT
  1
CONTENTFORMAT_BEGIN
 90
        0
 91
        0
 92
        4
 93
        0
300

 40
0.0
140
1.0
 94
        5
 62
     0
340
11
144
4.5
309
CONTENTFORMAT_END
171
     1
301
MARGIN
  1
CELLMARGIN_BEGIN
 40
1.5
 40
1.5
 40
1.5
 40
1.5
 40
0.18
 40
0.18
309
CELLMARGIN_END
 94
        6
 95
        1
302
GRIDFORMAT
  1
GRIDFORMAT_BEGIN
 90
        0
 91
        1
 62
     0
 92
       -2
340
0
 93
        0
 40
0.045
309
GRIDFORMAT_END
 95
        2
302
GRIDFORMAT
  1
GRIDFORMAT_BEGIN
 90
        0
 91
        1
 62
     0
 92
       -2
340
0
 93
        0
 40
0.045
309
GRIDFORMAT_END
 95
        4
302
GRIDFORMAT
  1
GRIDFORMAT_BEGIN
 90
        0
 91
        1
 62
     0
 92
       -2
340
0
 93
        0
 40
0.045
309
GRIDFORMAT_END
 95
        8
302
GRIDFORMAT
  1
GRIDFORMAT_BEGIN
 90
        0
 91
        1
 62
     0
 92
       -2
340
0
 93
        0
 40
0.045
309
GRIDFORMAT_END
 95
       16
302
GRIDFORMAT
  1
GRIDFORMAT_BEGIN
 90
        0
 91
        1
 62
     0
 92
       -2
340
0
 93
        0
 40
0.045
309
GRIDFORMAT_END
 95
       32
302
GRIDFORMAT
  1
GRIDFORMAT_BEGIN
 90
        0
 91
        1
 62
     0
 92
       -2
340
0
 93
        0
 40
0.045
309
GRIDFORMAT_END
309
TABLEFORMAT_END
  1
CELLSTYLE_BEGIN
 90
        2
 91
        1
300
_HEADER
309
CELLSTYLE_END
300
CELLSTYLE
  1
TABLEFORMAT_BEGIN
 90
        5
170
     1
 91
        0
 92
        0
 62
   257
 93
        1
300
CONTENTFORMAT
  1
CONTENTFORMAT_BEGIN
 90
        0
 91
        0
 92
        4
 93
        0
300

 40
0.0
140
1.0
 94
        2
 62
     0
340
11
144
4.5
309
CONTENTFORMAT_END
171
     1
301
MARGIN
  1
CELLMARGIN_BEGIN
 40
1.5
 40
1.5
 40
1.5
 40
1.5
 40
0.18
 40
0.18
309
CELLMARGIN_END
 94
        6
 95
        1
302
GRIDFORMAT
  1
GRIDFORMAT_BEGIN
 90
        0
 91
        1
 62
     0
 92
       -2
340
0
 93
        0
 40
0.045
309
GRIDFORMAT_END
 95
        2
302
GRIDFORMAT
  1
GRIDFORMAT_BEGIN
 90
        0
 91
        1
 62
     0
 92
       -2
340
0
 93
        0
 40
0.045
309
GRIDFORMAT_END
 95
        4
302
GRIDFORMAT
  1
GRIDFORMAT_BEGIN
 90
        0
 91
        1
 62
     0
 92
       -2
340
0
 93
        0
 40
0.045
309
GRIDFORMAT_END
 95
        8
302
GRIDFORMAT
  1
GRIDFORMAT_BEGIN
 90
        0
 91
        1
 62
     0
 92
       -2
340
0
 93
        0
 40
0.045
309
GRIDFORMAT_END
 95
       16
302
GRIDFORMAT
  1
GRIDFORMAT_BEGIN
 90
        0
 91
        1
 62
     0
 92
       -2
340
0
 93
        0
 40
0.045
309
GRIDFORMAT_END
 95
       32
302
GRIDFORMAT
  1
GRIDFORMAT_BEGIN
 90
        0
 91
        1
 62
     0
 92
       -2
340
0
 93
        0
 40
0.045
309
GRIDFORMAT_END
309
TABLEFORMAT_END
  1
CELLSTYLE_BEGIN
 90
        3
 91
        2
300
_DATA
309
CELLSTYLE_END
  0
XRECORD
  5
220F0
102
{ACAD_REACTORS
330
220EF
102
}
330
220EF
100
AcDbXrecord
280
     1
102
RTVSPost2010Prop28
280
     1
102
RTVSPost2010PropOp28
 70
     1
102
RTVSPost2010Prop29
280
     1
102
RTVSPost2010PropOp29
 70
     1
102
RTVSPost2010Prop30
280
     0
102
RTVSPost2010PropOp30
 70
     1
102
RTVSPost2010Prop31
280
     0
102
RTVSPost2010PropOp31
 70
     1
102
RTVSPost2010Prop32
280
     0
102
RTVSPost2010PropOp32
 70
     1
102
RTVSPost2010Prop33
280
     0
102
RTVSPost2010PropOp33
 70
     1
102
RTVSPost2010Prop34
280
     0
102
RTVSPost2010PropOp34
 70
     1
102
RTVSPost2010Prop35
280
     0
102
RTVSPost2010PropOp35
 70
     1
102
RTVSPost2010Prop36
280
     0
102
RTVSPost2010PropOp36
 70
     1
102
RTVSPost2010Prop37
 90
       50
102
RTVSPost2010PropOp37
 70
     1
102
RTVSPost2010Prop38
140
0.0
102
RTVSPost2010PropOp38
 70
     1
102
RTVSPost2010Prop39
140
1.0
102
RTVSPost2010PropOp39
 70
     1
102
RTVSPost2010Prop40
 90
        0
102
RTVSPost2010PropOp40
 70
     1
102
RTVSPost2010Prop41ColorIndex
 90
       18
102
RTVSPost2010Prop41ColorRGB
 90
        0
102
RTVSPost2010PropOp41
 70
     1
102
RTVSPost2010Prop42
 90
       50
102
RTVSPost2010PropOp42
 70
     1
102
RTVSPost2010Prop43
 90
        3
102
RTVSPost2010PropOp43
 70
     1
102
RTVSPost2010Prop44ColorIndex
 90
        5
102
RTVSPost2010Prop44ColorRGB
 90
      255
102
RTVSPost2010PropOp44
 70
     1
102
RTVSPost2010Prop45
280
     0
102
RTVSPost2010PropOp45
 70
     1
102
RTVSPost2010Prop46
 90
       50
102
RTVSPost2010PropOp46
 70
     1
102
RTVSPost2010Prop47
 90
       50
102
RTVSPost2010PropOp47
 70
     1
102
RTVSPost2010Prop48
 90
       50
102
RTVSPost2010PropOp48
 70
     1
102
RTVSPost2010Prop49
280
     0
102
RTVSPost2010PropOp49
 70
     1
102
RTVSPost2010Prop50
 90
       50
102
RTVSPost2010PropOp50
 70
     1
102
RTVSPost2010Prop51ColorIndex
 90
      256
102
RTVSPost2010Prop51ColorRGB
 90
-16777216
102
RTVSPost2010PropOp51
 70
     0
102
RTVSPost2010Prop52
140
1.0
102
RTVSPost2010PropOp52
 70
     0
102
RTVSPost2010Prop53
 90
        2
102
RTVSPost2010PropOp53
 70
     1
102
RTVSPost2010Prop54
  1
strokes_ogs.tif
102
RTVSPost2010PropOp54
 70
     1
102
RTVSPost2010Prop55
280
     0
102
RTVSPost2010PropOp55
 70
     1
102
RTVSPost2010Prop56
140
1.0
102
RTVSPost2010PropOp56
 70
     1
102
RTVSPost2010Prop57
140
1.0
102
RTVSPost2010PropOp57
 70
     1
  0
XRECORD
  5
220F4
102
{ACAD_REACTORS
330
220F3
102
}
330
220F3
100
AcDbXrecord
280
     1
102
RTVSPost2010Prop28
280
     0
102
RTVSPost2010PropOp28
 70
     1
102
RTVSPost2010Prop29
280
     1
102
RTVSPost2010PropOp29
 70
     1
102
RTVSPost2010Prop30
280
     1
102
RTVSPost2010PropOp30
 70
     1
102
RTVSPost2010Prop31
280
     0
102
RTVSPost2010PropOp31
 70
     1
102
RTVSPost2010Prop32
280
     0
102
RTVSPost2010PropOp32
 70
     1
102
RTVSPost2010Prop33
280
     0
102
RTVSPost2010PropOp33
 70
     1
102
RTVSPost2010Prop34
280
     0
102
RTVSPost2010PropOp34
 70
     1
102
RTVSPost2010Prop35
280
     0
102
RTVSPost2010PropOp35
 70
     1
102
RTVSPost2010Prop36
280
     0
102
RTVSPost2010PropOp36
 70
     1
102
RTVSPost2010Prop37
 90
       50
102
RTVSPost2010PropOp37
 70
     1
102
RTVSPost2010Prop38
140
0.0
102
RTVSPost2010PropOp38
 70
     1
102
RTVSPost2010Prop39
140
1.0
102
RTVSPost2010PropOp39
 70
     1
102
RTVSPost2010Prop40
 90
        0
102
RTVSPost2010PropOp40
 70
     1
102
RTVSPost2010Prop41ColorIndex
 90
       18
102
RTVSPost2010Prop41ColorRGB
 90
        0
102
RTVSPost2010PropOp41
 70
     1
102
RTVSPost2010Prop42
 90
       50
102
RTVSPost2010PropOp42
 70
     1
102
RTVSPost2010Prop43
 90
        3
102
RTVSPost2010PropOp43
 70
     1
102
RTVSPost2010Prop44ColorIndex
 90
        5
102
RTVSPost2010Prop44ColorRGB
 90
      255
102
RTVSPost2010PropOp44
 70
     1
102
RTVSPost2010Prop45
280
     0
102
RTVSPost2010PropOp45
 70
     1
102
RTVSPost2010Prop46
 90
       50
102
RTVSPost2010PropOp46
 70
     1
102
RTVSPost2010Prop47
 90
       50
102
RTVSPost2010PropOp47
 70
     1
102
RTVSPost2010Prop48
 90
       50
102
RTVSPost2010PropOp48
 70
     1
102
RTVSPost2010Prop49
280
     0
102
RTVSPost2010PropOp49
 70
     1
102
RTVSPost2010Prop50
 90
       50
102
RTVSPost2010PropOp50
 70
     1
102
RTVSPost2010Prop51ColorIndex
 90
      256
102
RTVSPost2010Prop51ColorRGB
 90
-16777216
102
RTVSPost2010PropOp51
 70
     0
102
RTVSPost2010Prop52
140
1.0
102
RTVSPost2010PropOp52
 70
     0
102
RTVSPost2010Prop53
 90
        2
102
RTVSPost2010PropOp53
 70
     1
102
RTVSPost2010Prop54
  1
strokes_ogs.tif
102
RTVSPost2010PropOp54
 70
     1
102
RTVSPost2010Prop55
280
     0
102
RTVSPost2010PropOp55
 70
     1
102
RTVSPost2010Prop56
140
1.0
102
RTVSPost2010PropOp56
 70
     1
102
RTVSPost2010Prop57
140
1.0
102
RTVSPost2010PropOp57
 70
     1
  0
XRECORD
  5
220F2
102
{ACAD_REACTORS
330
220F1
102
}
330
220F1
100
AcDbXrecord
280
     1
102
RTVSPost2010Prop28
280
     0
102
RTVSPost2010PropOp28
 70
     1
102
RTVSPost2010Prop29
280
     1
102
RTVSPost2010PropOp29
 70
     1
102
RTVSPost2010Prop30
280
     1
102
RTVSPost2010PropOp30
 70
     1
102
RTVSPost2010Prop31
280
     0
102
RTVSPost2010PropOp31
 70
     1
102
RTVSPost2010Prop32
280
     0
102
RTVSPost2010PropOp32
 70
     1
102
RTVSPost2010Prop33
280
     0
102
RTVSPost2010PropOp33
 70
     1
102
RTVSPost2010Prop34
280
     0
102
RTVSPost2010PropOp34
 70
     1
102
RTVSPost2010Prop35
280
     0
102
RTVSPost2010PropOp35
 70
     1
102
RTVSPost2010Prop36
280
     0
102
RTVSPost2010PropOp36
 70
     1
102
RTVSPost2010Prop37
 90
       50
102
RTVSPost2010PropOp37
 70
     1
102
RTVSPost2010Prop38
140
0.0
102
RTVSPost2010PropOp38
 70
     1
102
RTVSPost2010Prop39
140
1.0
102
RTVSPost2010PropOp39
 70
     1
102
RTVSPost2010Prop40
 90
        0
102
RTVSPost2010PropOp40
 70
     1
102
RTVSPost2010Prop41ColorIndex
 90
       18
102
RTVSPost2010Prop41ColorRGB
 90
        0
102
RTVSPost2010PropOp41
 70
     1
102
RTVSPost2010Prop42
 90
       50
102
RTVSPost2010PropOp42
 70
     1
102
RTVSPost2010Prop43
 90
        3
102
RTVSPost2010PropOp43
 70
     1
102
RTVSPost2010Prop44ColorIndex
 90
        5
102
RTVSPost2010Prop44ColorRGB
 90
      255
102
RTVSPost2010PropOp44
 70
     1
102
RTVSPost2010Prop45
280
     0
102
RTVSPost2010PropOp45
 70
     1
102
RTVSPost2010Prop46
 90
       50
102
RTVSPost2010PropOp46
 70
     1
102
RTVSPost2010Prop47
 90
       50
102
RTVSPost2010PropOp47
 70
     1
102
RTVSPost2010Prop48
 90
       50
102
RTVSPost2010PropOp48
 70
     1
102
RTVSPost2010Prop49
280
     0
102
RTVSPost2010PropOp49
 70
     1
102
RTVSPost2010Prop50
 90
       50
102
RTVSPost2010PropOp50
 70
     1
102
RTVSPost2010Prop51ColorIndex
 90
      256
102
RTVSPost2010Prop51ColorRGB
 90
-16777216
102
RTVSPost2010PropOp51
 70
     0
102
RTVSPost2010Prop52
140
1.0
102
RTVSPost2010PropOp52
 70
     0
102
RTVSPost2010Prop53
 90
        2
102
RTVSPost2010PropOp53
 70
     1
102
RTVSPost2010Prop54
  1
strokes_ogs.tif
102
RTVSPost2010PropOp54
 70
     1
102
RTVSPost2010Prop55
280
     0
102
RTVSPost2010PropOp55
 70
     1
102
RTVSPost2010Prop56
140
1.0
102
RTVSPost2010PropOp56
 70
     1
102
RTVSPost2010Prop57
140
1.0
102
RTVSPost2010PropOp57
 70
     1
  0
XRECORD
  5
220EE
102
{ACAD_REACTORS
330
220ED
102
}
330
220ED
100
AcDbXrecord
280
     1
102
RTVSPost2010Prop28
280
     0
102
RTVSPost2010PropOp28
 70
     1
102
RTVSPost2010Prop29
280
     1
102
RTVSPost2010PropOp29
 70
     1
102
RTVSPost2010Prop30
280
     1
102
RTVSPost2010PropOp30
 70
     1
102
RTVSPost2010Prop31
280
     0
102
RTVSPost2010PropOp31
 70
     1
102
RTVSPost2010Prop32
280
     0
102
RTVSPost2010PropOp32
 70
     1
102
RTVSPost2010Prop33
280
     0
102
RTVSPost2010PropOp33
 70
     1
102
RTVSPost2010Prop34
280
     0
102
RTVSPost2010PropOp34
 70
     1
102
RTVSPost2010Prop35
280
     0
102
RTVSPost2010PropOp35
 70
     1
102
RTVSPost2010Prop36
280
     0
102
RTVSPost2010PropOp36
 70
     1
102
RTVSPost2010Prop37
 90
       50
102
RTVSPost2010PropOp37
 70
     1
102
RTVSPost2010Prop38
140
0.0
102
RTVSPost2010PropOp38
 70
     1
102
RTVSPost2010Prop39
140
1.0
102
RTVSPost2010PropOp39
 70
     1
102
RTVSPost2010Prop40
 90
        0
102
RTVSPost2010PropOp40
 70
     1
102
RTVSPost2010Prop41ColorIndex
 90
       18
102
RTVSPost2010Prop41ColorRGB
 90
        0
102
RTVSPost2010PropOp41
 70
     1
102
RTVSPost2010Prop42
 90
       50
102
RTVSPost2010PropOp42
 70
     1
102
RTVSPost2010Prop43
 90
        3
102
RTVSPost2010PropOp43
 70
     1
102
RTVSPost2010Prop44ColorIndex
 90
        5
102
RTVSPost2010Prop44ColorRGB
 90
      255
102
RTVSPost2010PropOp44
 70
     1
102
RTVSPost2010Prop45
280
     0
102
RTVSPost2010PropOp45
 70
     1
102
RTVSPost2010Prop46
 90
       50
102
RTVSPost2010PropOp46
 70
     1
102
RTVSPost2010Prop47
 90
       50
102
RTVSPost2010PropOp47
 70
     1
102
RTVSPost2010Prop48
 90
       50
102
RTVSPost2010PropOp48
 70
     1
102
RTVSPost2010Prop49
280
     0
102
RTVSPost2010PropOp49
 70
     1
102
RTVSPost2010Prop50
 90
       50
102
RTVSPost2010PropOp50
 70
     1
102
RTVSPost2010Prop51ColorIndex
 90
      256
102
RTVSPost2010Prop51ColorRGB
 90
-16777216
102
RTVSPost2010PropOp51
 70
     0
102
RTVSPost2010Prop52
140
1.0
102
RTVSPost2010PropOp52
 70
     0
102
RTVSPost2010Prop53
 90
        2
102
RTVSPost2010PropOp53
 70
     1
102
RTVSPost2010Prop54
  1
strokes_ogs.tif
102
RTVSPost2010PropOp54
 70
     1
102
RTVSPost2010Prop55
280
     0
102
RTVSPost2010PropOp55
 70
     1
102
RTVSPost2010Prop56
140
1.0
102
RTVSPost2010PropOp56
 70
     1
102
RTVSPost2010Prop57
140
1.0
102
RTVSPost2010PropOp57
 70
     1
  0
XRECORD
  5
220FC
102
{ACAD_REACTORS
330
220FB
102
}
330
220FB
100
AcDbXrecord
280
     1
102
RTVSPost2010Prop28
280
     0
102
RTVSPost2010PropOp28
 70
     1
102
RTVSPost2010Prop29
280
     1
102
RTVSPost2010PropOp29
 70
     1
102
RTVSPost2010Prop30
280
     1
102
RTVSPost2010PropOp30
 70
     1
102
RTVSPost2010Prop31
280
     0
102
RTVSPost2010PropOp31
 70
     1
102
RTVSPost2010Prop32
280
     0
102
RTVSPost2010PropOp32
 70
     1
102
RTVSPost2010Prop33
280
     0
102
RTVSPost2010PropOp33
 70
     1
102
RTVSPost2010Prop34
280
     0
102
RTVSPost2010PropOp34
 70
     1
102
RTVSPost2010Prop35
280
     0
102
RTVSPost2010PropOp35
 70
     1
102
RTVSPost2010Prop36
280
     0
102
RTVSPost2010PropOp36
 70
     1
102
RTVSPost2010Prop37
 90
       50
102
RTVSPost2010PropOp37
 70
     1
102
RTVSPost2010Prop38
140
0.0
102
RTVSPost2010PropOp38
 70
     1
102
RTVSPost2010Prop39
140
1.0
102
RTVSPost2010PropOp39
 70
     1
102
RTVSPost2010Prop40
 90
        0
102
RTVSPost2010PropOp40
 70
     1
102
RTVSPost2010Prop41ColorIndex
 90
       18
102
RTVSPost2010Prop41ColorRGB
 90
        0
102
RTVSPost2010PropOp41
 70
     1
102
RTVSPost2010Prop42
 90
       50
102
RTVSPost2010PropOp42
 70
     1
102
RTVSPost2010Prop43
 90
        3
102
RTVSPost2010PropOp43
 70
     1
102
RTVSPost2010Prop44ColorIndex
 90
        5
102
RTVSPost2010Prop44ColorRGB
 90
      255
102
RTVSPost2010PropOp44
 70
     1
102
RTVSPost2010Prop45
280
     0
102
RTVSPost2010PropOp45
 70
     1
102
RTVSPost2010Prop46
 90
       50
102
RTVSPost2010PropOp46
 70
     1
102
RTVSPost2010Prop47
 90
       50
102
RTVSPost2010PropOp47
 70
     1
102
RTVSPost2010Prop48
 90
       50
102
RTVSPost2010PropOp48
 70
     1
102
RTVSPost2010Prop49
280
     0
102
RTVSPost2010PropOp49
 70
     1
102
RTVSPost2010Prop50
 90
       50
102
RTVSPost2010PropOp50
 70
     1
102
RTVSPost2010Prop51ColorIndex
 90
      256
102
RTVSPost2010Prop51ColorRGB
 90
-16777216
102
RTVSPost2010PropOp51
 70
     0
102
RTVSPost2010Prop52
140
1.0
102
RTVSPost2010PropOp52
 70
     0
102
RTVSPost2010Prop53
 90
        2
102
RTVSPost2010PropOp53
 70
     1
102
RTVSPost2010Prop54
  1
strokes_ogs.tif
102
RTVSPost2010PropOp54
 70
     1
102
RTVSPost2010Prop55
280
     0
102
RTVSPost2010PropOp55
 70
     1
102
RTVSPost2010Prop56
140
1.0
102
RTVSPost2010PropOp56
 70
     1
102
RTVSPost2010Prop57
140
1.0
102
RTVSPost2010PropOp57
 70
     1
  0
XRECORD
  5
22104
102
{ACAD_REACTORS
330
22103
102
}
330
22103
100
AcDbXrecord
280
     1
102
RTVSPost2010Prop28
280
     0
102
RTVSPost2010PropOp28
 70
     1
102
RTVSPost2010Prop29
280
     1
102
RTVSPost2010PropOp29
 70
     1
102
RTVSPost2010Prop30
280
     1
102
RTVSPost2010PropOp30
 70
     1
102
RTVSPost2010Prop31
280
     0
102
RTVSPost2010PropOp31
 70
     1
102
RTVSPost2010Prop32
280
     0
102
RTVSPost2010PropOp32
 70
     1
102
RTVSPost2010Prop33
280
     0
102
RTVSPost2010PropOp33
 70
     1
102
RTVSPost2010Prop34
280
     0
102
RTVSPost2010PropOp34
 70
     1
102
RTVSPost2010Prop35
280
     0
102
RTVSPost2010PropOp35
 70
     1
102
RTVSPost2010Prop36
280
     0
102
RTVSPost2010PropOp36
 70
     1
102
RTVSPost2010Prop37
 90
       50
102
RTVSPost2010PropOp37
 70
     1
102
RTVSPost2010Prop38
140
0.0
102
RTVSPost2010PropOp38
 70
     1
102
RTVSPost2010Prop39
140
1.0
102
RTVSPost2010PropOp39
 70
     1
102
RTVSPost2010Prop40
 90
        0
102
RTVSPost2010PropOp40
 70
     1
102
RTVSPost2010Prop41ColorIndex
 90
       18
102
RTVSPost2010Prop41ColorRGB
 90
        0
102
RTVSPost2010PropOp41
 70
     1
102
RTVSPost2010Prop42
 90
       50
102
RTVSPost2010PropOp42
 70
     1
102
RTVSPost2010Prop43
 90
        3
102
RTVSPost2010PropOp43
 70
     1
102
RTVSPost2010Prop44ColorIndex
 90
        5
102
RTVSPost2010Prop44ColorRGB
 90
      255
102
RTVSPost2010PropOp44
 70
     1
102
RTVSPost2010Prop45
280
     0
102
RTVSPost2010PropOp45
 70
     1
102
RTVSPost2010Prop46
 90
       50
102
RTVSPost2010PropOp46
 70
     1
102
RTVSPost2010Prop47
 90
       50
102
RTVSPost2010PropOp47
 70
     1
102
RTVSPost2010Prop48
 90
       50
102
RTVSPost2010PropOp48
 70
     1
102
RTVSPost2010Prop49
280
     0
102
RTVSPost2010PropOp49
 70
     1
102
RTVSPost2010Prop50
 90
       50
102
RTVSPost2010PropOp50
 70
     1
102
RTVSPost2010Prop51ColorIndex
 90
      256
102
RTVSPost2010Prop51ColorRGB
 90
-16777216
102
RTVSPost2010PropOp51
 70
     0
102
RTVSPost2010Prop52
140
1.0
102
RTVSPost2010PropOp52
 70
     0
102
RTVSPost2010Prop53
 90
        2
102
RTVSPost2010PropOp53
 70
     1
102
RTVSPost2010Prop54
  1
strokes_ogs.tif
102
RTVSPost2010PropOp54
 70
     1
102
RTVSPost2010Prop55
280
     0
102
RTVSPost2010PropOp55
 70
     1
102
RTVSPost2010Prop56
140
1.0
102
RTVSPost2010PropOp56
 70
     1
102
RTVSPost2010Prop57
140
1.0
102
RTVSPost2010PropOp57
 70
     1
  0
XRECORD
  5
220F6
102
{ACAD_REACTORS
330
220F5
102
}
330
220F5
100
AcDbXrecord
280
     1
102
RTVSPost2010Prop28
280
     0
102
RTVSPost2010PropOp28
 70
     1
102
RTVSPost2010Prop29
280
     1
102
RTVSPost2010PropOp29
 70
     1
102
RTVSPost2010Prop30
280
     1
102
RTVSPost2010PropOp30
 70
     1
102
RTVSPost2010Prop31
280
     0
102
RTVSPost2010PropOp31
 70
     1
102
RTVSPost2010Prop32
280
     0
102
RTVSPost2010PropOp32
 70
     1
102
RTVSPost2010Prop33
280
     0
102
RTVSPost2010PropOp33
 70
     1
102
RTVSPost2010Prop34
280
     0
102
RTVSPost2010PropOp34
 70
     1
102
RTVSPost2010Prop35
280
     0
102
RTVSPost2010PropOp35
 70
     1
102
RTVSPost2010Prop36
280
     0
102
RTVSPost2010PropOp36
 70
     1
102
RTVSPost2010Prop37
 90
       50
102
RTVSPost2010PropOp37
 70
     1
102
RTVSPost2010Prop38
140
0.0
102
RTVSPost2010PropOp38
 70
     1
102
RTVSPost2010Prop39
140
1.0
102
RTVSPost2010PropOp39
 70
     1
102
RTVSPost2010Prop40
 90
        0
102
RTVSPost2010PropOp40
 70
     1
102
RTVSPost2010Prop41ColorIndex
 90
       18
102
RTVSPost2010Prop41ColorRGB
 90
        0
102
RTVSPost2010PropOp41
 70
     1
102
RTVSPost2010Prop42
 90
       50
102
RTVSPost2010PropOp42
 70
     1
102
RTVSPost2010Prop43
 90
        3
102
RTVSPost2010PropOp43
 70
     1
102
RTVSPost2010Prop44ColorIndex
 90
        5
102
RTVSPost2010Prop44ColorRGB
 90
      255
102
RTVSPost2010PropOp44
 70
     1
102
RTVSPost2010Prop45
280
     0
102
RTVSPost2010PropOp45
 70
     1
102
RTVSPost2010Prop46
 90
       50
102
RTVSPost2010PropOp46
 70
     1
102
RTVSPost2010Prop47
 90
       50
102
RTVSPost2010PropOp47
 70
     1
102
RTVSPost2010Prop48
 90
       50
102
RTVSPost2010PropOp48
 70
     1
102
RTVSPost2010Prop49
280
     0
102
RTVSPost2010PropOp49
 70
     1
102
RTVSPost2010Prop50
 90
       50
102
RTVSPost2010PropOp50
 70
     1
102
RTVSPost2010Prop51ColorIndex
 90
      256
102
RTVSPost2010Prop51ColorRGB
 90
-16777216
102
RTVSPost2010PropOp51
 70
     0
102
RTVSPost2010Prop52
140
1.0
102
RTVSPost2010PropOp52
 70
     0
102
RTVSPost2010Prop53
 90
        2
102
RTVSPost2010PropOp53
 70
     1
102
RTVSPost2010Prop54
  1
strokes_ogs.tif
102
RTVSPost2010PropOp54
 70
     1
102
RTVSPost2010Prop55
280
     0
102
RTVSPost2010PropOp55
 70
     1
102
RTVSPost2010Prop56
140
1.0
102
RTVSPost2010PropOp56
 70
     1
102
RTVSPost2010Prop57
140
1.0
102
RTVSPost2010PropOp57
 70
     1
  0
XRECORD
  5
220FA
102
{ACAD_REACTORS
330
220F9
102
}
330
220F9
100
AcDbXrecord
280
     1
102
RTVSPost2010Prop28
280
     0
102
RTVSPost2010PropOp28
 70
     1
102
RTVSPost2010Prop29
280
     1
102
RTVSPost2010PropOp29
 70
     1
102
RTVSPost2010Prop30
280
     1
102
RTVSPost2010PropOp30
 70
     1
102
RTVSPost2010Prop31
280
     0
102
RTVSPost2010PropOp31
 70
     1
102
RTVSPost2010Prop32
280
     0
102
RTVSPost2010PropOp32
 70
     1
102
RTVSPost2010Prop33
280
     0
102
RTVSPost2010PropOp33
 70
     1
102
RTVSPost2010Prop34
280
     0
102
RTVSPost2010PropOp34
 70
     1
102
RTVSPost2010Prop35
280
     0
102
RTVSPost2010PropOp35
 70
     1
102
RTVSPost2010Prop36
280
     0
102
RTVSPost2010PropOp36
 70
     1
102
RTVSPost2010Prop37
 90
       50
102
RTVSPost2010PropOp37
 70
     1
102
RTVSPost2010Prop38
140
0.0
102
RTVSPost2010PropOp38
 70
     1
102
RTVSPost2010Prop39
140
1.0
102
RTVSPost2010PropOp39
 70
     1
102
RTVSPost2010Prop40
 90
        0
102
RTVSPost2010PropOp40
 70
     1
102
RTVSPost2010Prop41ColorIndex
 90
       18
102
RTVSPost2010Prop41ColorRGB
 90
        0
102
RTVSPost2010PropOp41
 70
     1
102
RTVSPost2010Prop42
 90
       50
102
RTVSPost2010PropOp42
 70
     1
102
RTVSPost2010Prop43
 90
        3
102
RTVSPost2010PropOp43
 70
     1
102
RTVSPost2010Prop44ColorIndex
 90
        5
102
RTVSPost2010Prop44ColorRGB
 90
      255
102
RTVSPost2010PropOp44
 70
     1
102
RTVSPost2010Prop45
280
     0
102
RTVSPost2010PropOp45
 70
     1
102
RTVSPost2010Prop46
 90
       50
102
RTVSPost2010PropOp46
 70
     1
102
RTVSPost2010Prop47
 90
       50
102
RTVSPost2010PropOp47
 70
     1
102
RTVSPost2010Prop48
 90
       50
102
RTVSPost2010PropOp48
 70
     1
102
RTVSPost2010Prop49
280
     0
102
RTVSPost2010PropOp49
 70
     1
102
RTVSPost2010Prop50
 90
       50
102
RTVSPost2010PropOp50
 70
     1
102
RTVSPost2010Prop51ColorIndex
 90
      256
102
RTVSPost2010Prop51ColorRGB
 90
-16777216
102
RTVSPost2010PropOp51
 70
     0
102
RTVSPost2010Prop52
140
1.0
102
RTVSPost2010PropOp52
 70
     0
102
RTVSPost2010Prop53
 90
        2
102
RTVSPost2010PropOp53
 70
     1
102
RTVSPost2010Prop54
  1
strokes_ogs.tif
102
RTVSPost2010PropOp54
 70
     1
102
RTVSPost2010Prop55
280
     0
102
RTVSPost2010PropOp55
 70
     1
102
RTVSPost2010Prop56
140
1.0
102
RTVSPost2010PropOp56
 70
     1
102
RTVSPost2010Prop57
140
1.0
102
RTVSPost2010PropOp57
 70
     1
  0
XRECORD
  5
22118
102
{ACAD_REACTORS
330
22117
102
}
330
22117
100
AcDbXrecord
280
     1
102
RTVSPost2010Prop28
280
     0
102
RTVSPost2010PropOp28
 70
     1
102
RTVSPost2010Prop29
280
     1
102
RTVSPost2010PropOp29
 70
     1
102
RTVSPost2010Prop30
280
     1
102
RTVSPost2010PropOp30
 70
     1
102
RTVSPost2010Prop31
280
     0
102
RTVSPost2010PropOp31
 70
     1
102
RTVSPost2010Prop32
280
     0
102
RTVSPost2010PropOp32
 70
     1
102
RTVSPost2010Prop33
280
     0
102
RTVSPost2010PropOp33
 70
     1
102
RTVSPost2010Prop34
280
     0
102
RTVSPost2010PropOp34
 70
     1
102
RTVSPost2010Prop35
280
     0
102
RTVSPost2010PropOp35
 70
     1
102
RTVSPost2010Prop36
280
     0
102
RTVSPost2010PropOp36
 70
     1
102
RTVSPost2010Prop37
 90
       50
102
RTVSPost2010PropOp37
 70
     0
102
RTVSPost2010Prop38
140
0.0
102
RTVSPost2010PropOp38
 70
     0
102
RTVSPost2010Prop39
140
1.0
102
RTVSPost2010PropOp39
 70
     0
102
RTVSPost2010Prop40
 90
        0
102
RTVSPost2010PropOp40
 70
     0
102
RTVSPost2010Prop41ColorIndex
 90
       18
102
RTVSPost2010Prop41ColorRGB
 90
        0
102
RTVSPost2010PropOp41
 70
     0
102
RTVSPost2010Prop42
 90
       50
102
RTVSPost2010PropOp42
 70
     0
102
RTVSPost2010Prop43
 90
        3
102
RTVSPost2010PropOp43
 70
     0
102
RTVSPost2010Prop44ColorIndex
 90
        5
102
RTVSPost2010Prop44ColorRGB
 90
      255
102
RTVSPost2010PropOp44
 70
     0
102
RTVSPost2010Prop45
280
     0
102
RTVSPost2010PropOp45
 70
     1
102
RTVSPost2010Prop46
 90
       50
102
RTVSPost2010PropOp46
 70
     0
102
RTVSPost2010Prop47
 90
       50
102
RTVSPost2010PropOp47
 70
     0
102
RTVSPost2010Prop48
 90
       50
102
RTVSPost2010PropOp48
 70
     0
102
RTVSPost2010Prop49
280
     0
102
RTVSPost2010PropOp49
 70
     1
102
RTVSPost2010Prop50
 90
       50
102
RTVSPost2010PropOp50
 70
     0
102
RTVSPost2010Prop51ColorIndex
 90
      256
102
RTVSPost2010Prop51ColorRGB
 90
-16777216
102
RTVSPost2010PropOp51
 70
     0
102
RTVSPost2010Prop52
140
1.0
102
RTVSPost2010PropOp52
 70
     0
102
RTVSPost2010Prop53
 90
        2
102
RTVSPost2010PropOp53
 70
     0
102
RTVSPost2010Prop54
  1
strokes_ogs.tif
102
RTVSPost2010PropOp54
 70
     0
102
RTVSPost2010Prop55
280
     0
102
RTVSPost2010PropOp55
 70
     1
102
RTVSPost2010Prop56
140
1.0
102
RTVSPost2010PropOp56
 70
     0
102
RTVSPost2010Prop57
140
1.0
102
RTVSPost2010PropOp57
 70
     0
  0
XRECORD
  5
22102
102
{ACAD_REACTORS
330
22101
102
}
330
22101
100
AcDbXrecord
280
     1
102
RTVSPost2010Prop28
280
     0
102
RTVSPost2010PropOp28
 70
     1
102
RTVSPost2010Prop29
280
     1
102
RTVSPost2010PropOp29
 70
     1
102
RTVSPost2010Prop30
280
     1
102
RTVSPost2010PropOp30
 70
     1
102
RTVSPost2010Prop31
280
     0
102
RTVSPost2010PropOp31
 70
     1
102
RTVSPost2010Prop32
280
     0
102
RTVSPost2010PropOp32
 70
     1
102
RTVSPost2010Prop33
280
     0
102
RTVSPost2010PropOp33
 70
     1
102
RTVSPost2010Prop34
280
     0
102
RTVSPost2010PropOp34
 70
     1
102
RTVSPost2010Prop35
280
     0
102
RTVSPost2010PropOp35
 70
     1
102
RTVSPost2010Prop36
280
     0
102
RTVSPost2010PropOp36
 70
     1
102
RTVSPost2010Prop37
 90
       50
102
RTVSPost2010PropOp37
 70
     1
102
RTVSPost2010Prop38
140
0.0
102
RTVSPost2010PropOp38
 70
     1
102
RTVSPost2010Prop39
140
1.0
102
RTVSPost2010PropOp39
 70
     1
102
RTVSPost2010Prop40
 90
        0
102
RTVSPost2010PropOp40
 70
     1
102
RTVSPost2010Prop41ColorIndex
 90
       18
102
RTVSPost2010Prop41ColorRGB
 90
        0
102
RTVSPost2010PropOp41
 70
     1
102
RTVSPost2010Prop42
 90
       50
102
RTVSPost2010PropOp42
 70
     1
102
RTVSPost2010Prop43
 90
        3
102
RTVSPost2010PropOp43
 70
     1
102
RTVSPost2010Prop44ColorIndex
 90
        5
102
RTVSPost2010Prop44ColorRGB
 90
      255
102
RTVSPost2010PropOp44
 70
     1
102
RTVSPost2010Prop45
280
     0
102
RTVSPost2010PropOp45
 70
     1
102
RTVSPost2010Prop46
 90
       50
102
RTVSPost2010PropOp46
 70
     1
102
RTVSPost2010Prop47
 90
       50
102
RTVSPost2010PropOp47
 70
     1
102
RTVSPost2010Prop48
 90
       50
102
RTVSPost2010PropOp48
 70
     1
102
RTVSPost2010Prop49
280
     0
102
RTVSPost2010PropOp49
 70
     1
102
RTVSPost2010Prop50
 90
       50
102
RTVSPost2010PropOp50
 70
     1
102
RTVSPost2010Prop51ColorIndex
 90
      256
102
RTVSPost2010Prop51ColorRGB
 90
-16777216
102
RTVSPost2010PropOp51
 70
     0
102
RTVSPost2010Prop52
140
1.0
102
RTVSPost2010PropOp52
 70
     0
102
RTVSPost2010Prop53
 90
        2
102
RTVSPost2010PropOp53
 70
     1
102
RTVSPost2010Prop54
  1
strokes_ogs.tif
102
RTVSPost2010PropOp54
 70
     1
102
RTVSPost2010Prop55
280
     0
102
RTVSPost2010PropOp55
 70
     1
102
RTVSPost2010Prop56
140
1.0
102
RTVSPost2010PropOp56
 70
     1
102
RTVSPost2010Prop57
140
1.0
102
RTVSPost2010PropOp57
 70
     1
  0
XRECORD
  5
220E6
102
{ACAD_REACTORS
330
220E5
102
}
330
220E5
100
AcDbXrecord
280
     1
102
RTVSPost2010Prop28
280
     0
102
RTVSPost2010PropOp28
 70
     1
102
RTVSPost2010Prop29
280
     1
102
RTVSPost2010PropOp29
 70
     1
102
RTVSPost2010Prop30
280
     1
102
RTVSPost2010PropOp30
 70
     1
102
RTVSPost2010Prop31
280
     0
102
RTVSPost2010PropOp31
 70
     1
102
RTVSPost2010Prop32
280
     0
102
RTVSPost2010PropOp32
 70
     1
102
RTVSPost2010Prop33
280
     0
102
RTVSPost2010PropOp33
 70
     1
102
RTVSPost2010Prop34
280
     0
102
RTVSPost2010PropOp34
 70
     1
102
RTVSPost2010Prop35
280
     0
102
RTVSPost2010PropOp35
 70
     1
102
RTVSPost2010Prop36
280
     0
102
RTVSPost2010PropOp36
 70
     1
102
RTVSPost2010Prop37
 90
       50
102
RTVSPost2010PropOp37
 70
     1
102
RTVSPost2010Prop38
140
0.0
102
RTVSPost2010PropOp38
 70
     1
102
RTVSPost2010Prop39
140
1.0
102
RTVSPost2010PropOp39
 70
     1
102
RTVSPost2010Prop40
 90
        0
102
RTVSPost2010PropOp40
 70
     1
102
RTVSPost2010Prop41ColorIndex
 90
       18
102
RTVSPost2010Prop41ColorRGB
 90
        0
102
RTVSPost2010PropOp41
 70
     1
102
RTVSPost2010Prop42
 90
       50
102
RTVSPost2010PropOp42
 70
     1
102
RTVSPost2010Prop43
 90
        3
102
RTVSPost2010PropOp43
 70
     1
102
RTVSPost2010Prop44ColorIndex
 90
        5
102
RTVSPost2010Prop44ColorRGB
 90
      255
102
RTVSPost2010PropOp44
 70
     1
102
RTVSPost2010Prop45
280
     0
102
RTVSPost2010PropOp45
 70
     1
102
RTVSPost2010Prop46
 90
       50
102
RTVSPost2010PropOp46
 70
     1
102
RTVSPost2010Prop47
 90
       50
102
RTVSPost2010PropOp47
 70
     1
102
RTVSPost2010Prop48
 90
       50
102
RTVSPost2010PropOp48
 70
     1
102
RTVSPost2010Prop49
280
     0
102
RTVSPost2010PropOp49
 70
     1
102
RTVSPost2010Prop50
 90
       50
102
RTVSPost2010PropOp50
 70
     1
102
RTVSPost2010Prop51ColorIndex
 90
      256
102
RTVSPost2010Prop51ColorRGB
 90
-16777216
102
RTVSPost2010PropOp51
 70
     0
102
RTVSPost2010Prop52
140
1.0
102
RTVSPost2010PropOp52
 70
     0
102
RTVSPost2010Prop53
 90
        2
102
RTVSPost2010PropOp53
 70
     1
102
RTVSPost2010Prop54
  1
strokes_ogs.tif
102
RTVSPost2010PropOp54
 70
     1
102
RTVSPost2010Prop55
280
     0
102
RTVSPost2010PropOp55
 70
     1
102
RTVSPost2010Prop56
140
1.0
102
RTVSPost2010PropOp56
 70
     1
102
RTVSPost2010Prop57
140
1.0
102
RTVSPost2010PropOp57
 70
     1
  0
XRECORD
  5
220E8
102
{ACAD_REACTORS
330
220E7
102
}
330
220E7
100
AcDbXrecord
280
     1
102
RTVSPost2010Prop28
280
     0
102
RTVSPost2010PropOp28
 70
     1
102
RTVSPost2010Prop29
280
     1
102
RTVSPost2010PropOp29
 70
     1
102
RTVSPost2010Prop30
280
     1
102
RTVSPost2010PropOp30
 70
     1
102
RTVSPost2010Prop31
280
     0
102
RTVSPost2010PropOp31
 70
     1
102
RTVSPost2010Prop32
280
     0
102
RTVSPost2010PropOp32
 70
     1
102
RTVSPost2010Prop33
280
     0
102
RTVSPost2010PropOp33
 70
     1
102
RTVSPost2010Prop34
280
     0
102
RTVSPost2010PropOp34
 70
     1
102
RTVSPost2010Prop35
280
     0
102
RTVSPost2010PropOp35
 70
     1
102
RTVSPost2010Prop36
280
     0
102
RTVSPost2010PropOp36
 70
     1
102
RTVSPost2010Prop37
 90
       50
102
RTVSPost2010PropOp37
 70
     1
102
RTVSPost2010Prop38
140
0.0
102
RTVSPost2010PropOp38
 70
     1
102
RTVSPost2010Prop39
140
1.0
102
RTVSPost2010PropOp39
 70
     1
102
RTVSPost2010Prop40
 90
        0
102
RTVSPost2010PropOp40
 70
     1
102
RTVSPost2010Prop41ColorIndex
 90
       18
102
RTVSPost2010Prop41ColorRGB
 90
        0
102
RTVSPost2010PropOp41
 70
     1
102
RTVSPost2010Prop42
 90
       50
102
RTVSPost2010PropOp42
 70
     1
102
RTVSPost2010Prop43
 90
        3
102
RTVSPost2010PropOp43
 70
     1
102
RTVSPost2010Prop44ColorIndex
 90
        5
102
RTVSPost2010Prop44ColorRGB
 90
      255
102
RTVSPost2010PropOp44
 70
     1
102
RTVSPost2010Prop45
280
     0
102
RTVSPost2010PropOp45
 70
     1
102
RTVSPost2010Prop46
 90
       50
102
RTVSPost2010PropOp46
 70
     1
102
RTVSPost2010Prop47
 90
       50
102
RTVSPost2010PropOp47
 70
     1
102
RTVSPost2010Prop48
 90
       50
102
RTVSPost2010PropOp48
 70
     1
102
RTVSPost2010Prop49
280
     0
102
RTVSPost2010PropOp49
 70
     1
102
RTVSPost2010Prop50
 90
       50
102
RTVSPost2010PropOp50
 70
     1
102
RTVSPost2010Prop51ColorIndex
 90
      256
102
RTVSPost2010Prop51ColorRGB
 90
-16777216
102
RTVSPost2010PropOp51
 70
     0
102
RTVSPost2010Prop52
140
1.0
102
RTVSPost2010PropOp52
 70
     0
102
RTVSPost2010Prop53
 90
        2
102
RTVSPost2010PropOp53
 70
     1
102
RTVSPost2010Prop54
  1
strokes_ogs.tif
102
RTVSPost2010PropOp54
 70
     1
102
RTVSPost2010Prop55
280
     0
102
RTVSPost2010PropOp55
 70
     1
102
RTVSPost2010Prop56
140
1.0
102
RTVSPost2010PropOp56
 70
     1
102
RTVSPost2010Prop57
140
1.0
102
RTVSPost2010PropOp57
 70
     1
  0
XRECORD
  5
220EA
102
{ACAD_REACTORS
330
220E9
102
}
330
220E9
100
AcDbXrecord
280
     1
102
RTVSPost2010Prop28
280
     0
102
RTVSPost2010PropOp28
 70
     1
102
RTVSPost2010Prop29
280
     1
102
RTVSPost2010PropOp29
 70
     1
102
RTVSPost2010Prop30
280
     1
102
RTVSPost2010PropOp30
 70
     1
102
RTVSPost2010Prop31
280
     0
102
RTVSPost2010PropOp31
 70
     1
102
RTVSPost2010Prop32
280
     0
102
RTVSPost2010PropOp32
 70
     1
102
RTVSPost2010Prop33
280
     0
102
RTVSPost2010PropOp33
 70
     1
102
RTVSPost2010Prop34
280
     0
102
RTVSPost2010PropOp34
 70
     1
102
RTVSPost2010Prop35
280
     0
102
RTVSPost2010PropOp35
 70
     1
102
RTVSPost2010Prop36
280
     0
102
RTVSPost2010PropOp36
 70
     1
102
RTVSPost2010Prop37
 90
       50
102
RTVSPost2010PropOp37
 70
     1
102
RTVSPost2010Prop38
140
0.0
102
RTVSPost2010PropOp38
 70
     1
102
RTVSPost2010Prop39
140
1.0
102
RTVSPost2010PropOp39
 70
     1
102
RTVSPost2010Prop40
 90
        0
102
RTVSPost2010PropOp40
 70
     1
102
RTVSPost2010Prop41ColorIndex
 90
       18
102
RTVSPost2010Prop41ColorRGB
 90
        0
102
RTVSPost2010PropOp41
 70
     1
102
RTVSPost2010Prop42
 90
       50
102
RTVSPost2010PropOp42
 70
     1
102
RTVSPost2010Prop43
 90
        3
102
RTVSPost2010PropOp43
 70
     1
102
RTVSPost2010Prop44ColorIndex
 90
        5
102
RTVSPost2010Prop44ColorRGB
 90
      255
102
RTVSPost2010PropOp44
 70
     1
102
RTVSPost2010Prop45
280
     0
102
RTVSPost2010PropOp45
 70
     1
102
RTVSPost2010Prop46
 90
       50
102
RTVSPost2010PropOp46
 70
     1
102
RTVSPost2010Prop47
 90
       50
102
RTVSPost2010PropOp47
 70
     1
102
RTVSPost2010Prop48
 90
       50
102
RTVSPost2010PropOp48
 70
     1
102
RTVSPost2010Prop49
280
     0
102
RTVSPost2010PropOp49
 70
     1
102
RTVSPost2010Prop50
 90
       50
102
RTVSPost2010PropOp50
 70
     1
102
RTVSPost2010Prop51ColorIndex
 90
      256
102
RTVSPost2010Prop51ColorRGB
 90
-16777216
102
RTVSPost2010PropOp51
 70
     0
102
RTVSPost2010Prop52
140
1.0
102
RTVSPost2010PropOp52
 70
     0
102
RTVSPost2010Prop53
 90
        2
102
RTVSPost2010PropOp53
 70
     1
102
RTVSPost2010Prop54
  1
strokes_ogs.tif
102
RTVSPost2010PropOp54
 70
     1
102
RTVSPost2010Prop55
280
     0
102
RTVSPost2010PropOp55
 70
     1
102
RTVSPost2010Prop56
140
1.0
102
RTVSPost2010PropOp56
 70
     1
102
RTVSPost2010Prop57
140
1.0
102
RTVSPost2010PropOp57
 70
     1
  0
XRECORD
  5
220EC
102
{ACAD_REACTORS
330
220EB
102
}
330
220EB
100
AcDbXrecord
280
     1
102
RTVSPost2010Prop28
280
     0
102
RTVSPost2010PropOp28
 70
     1
102
RTVSPost2010Prop29
280
     1
102
RTVSPost2010PropOp29
 70
     1
102
RTVSPost2010Prop30
280
     1
102
RTVSPost2010PropOp30
 70
     1
102
RTVSPost2010Prop31
280
     0
102
RTVSPost2010PropOp31
 70
     1
102
RTVSPost2010Prop32
280
     0
102
RTVSPost2010PropOp32
 70
     1
102
RTVSPost2010Prop33
280
     0
102
RTVSPost2010PropOp33
 70
     1
102
RTVSPost2010Prop34
280
     0
102
RTVSPost2010PropOp34
 70
     1
102
RTVSPost2010Prop35
280
     0
102
RTVSPost2010PropOp35
 70
     1
102
RTVSPost2010Prop36
280
     0
102
RTVSPost2010PropOp36
 70
     1
102
RTVSPost2010Prop37
 90
       50
102
RTVSPost2010PropOp37
 70
     1
102
RTVSPost2010Prop38
140
0.0
102
RTVSPost2010PropOp38
 70
     1
102
RTVSPost2010Prop39
140
1.0
102
RTVSPost2010PropOp39
 70
     1
102
RTVSPost2010Prop40
 90
        0
102
RTVSPost2010PropOp40
 70
     1
102
RTVSPost2010Prop41ColorIndex
 90
       18
102
RTVSPost2010Prop41ColorRGB
 90
        0
102
RTVSPost2010PropOp41
 70
     1
102
RTVSPost2010Prop42
 90
       50
102
RTVSPost2010PropOp42
 70
     1
102
RTVSPost2010Prop43
 90
        3
102
RTVSPost2010PropOp43
 70
     1
102
RTVSPost2010Prop44ColorIndex
 90
        5
102
RTVSPost2010Prop44ColorRGB
 90
      255
102
RTVSPost2010PropOp44
 70
     1
102
RTVSPost2010Prop45
280
     0
102
RTVSPost2010PropOp45
 70
     1
102
RTVSPost2010Prop46
 90
       50
102
RTVSPost2010PropOp46
 70
     1
102
RTVSPost2010Prop47
 90
       50
102
RTVSPost2010PropOp47
 70
     1
102
RTVSPost2010Prop48
 90
       50
102
RTVSPost2010PropOp48
 70
     1
102
RTVSPost2010Prop49
280
     0
102
RTVSPost2010PropOp49
 70
     1
102
RTVSPost2010Prop50
 90
       50
102
RTVSPost2010PropOp50
 70
     1
102
RTVSPost2010Prop51ColorIndex
 90
      256
102
RTVSPost2010Prop51ColorRGB
 90
-16777216
102
RTVSPost2010PropOp51
 70
     0
102
RTVSPost2010Prop52
140
1.0
102
RTVSPost2010PropOp52
 70
     0
102
RTVSPost2010Prop53
 90
        2
102
RTVSPost2010PropOp53
 70
     1
102
RTVSPost2010Prop54
  1
strokes_ogs.tif
102
RTVSPost2010PropOp54
 70
     1
102
RTVSPost2010Prop55
280
     0
102
RTVSPost2010PropOp55
 70
     1
102
RTVSPost2010Prop56
140
1.0
102
RTVSPost2010PropOp56
 70
     1
102
RTVSPost2010Prop57
140
1.0
102
RTVSPost2010PropOp57
 70
     1
  0
XRECORD
  5
22108
102
{ACAD_REACTORS
330
22107
102
}
330
22107
100
AcDbXrecord
280
     1
102
RTVSPost2010Prop28
280
     0
102
RTVSPost2010PropOp28
 70
     1
102
RTVSPost2010Prop29
280
     1
102
RTVSPost2010PropOp29
 70
     1
102
RTVSPost2010Prop30
280
     1
102
RTVSPost2010PropOp30
 70
     1
102
RTVSPost2010Prop31
280
     0
102
RTVSPost2010PropOp31
 70
     1
102
RTVSPost2010Prop32
280
     0
102
RTVSPost2010PropOp32
 70
     1
102
RTVSPost2010Prop33
280
     0
102
RTVSPost2010PropOp33
 70
     1
102
RTVSPost2010Prop34
280
     0
102
RTVSPost2010PropOp34
 70
     1
102
RTVSPost2010Prop35
280
     0
102
RTVSPost2010PropOp35
 70
     1
102
RTVSPost2010Prop36
280
     0
102
RTVSPost2010PropOp36
 70
     1
102
RTVSPost2010Prop37
 90
       50
102
RTVSPost2010PropOp37
 70
     1
102
RTVSPost2010Prop38
140
0.0
102
RTVSPost2010PropOp38
 70
     1
102
RTVSPost2010Prop39
140
1.0
102
RTVSPost2010PropOp39
 70
     1
102
RTVSPost2010Prop40
 90
        0
102
RTVSPost2010PropOp40
 70
     1
102
RTVSPost2010Prop41ColorIndex
 90
       18
102
RTVSPost2010Prop41ColorRGB
 90
        0
102
RTVSPost2010PropOp41
 70
     1
102
RTVSPost2010Prop42
 90
       50
102
RTVSPost2010PropOp42
 70
     1
102
RTVSPost2010Prop43
 90
        3
102
RTVSPost2010PropOp43
 70
     1
102
RTVSPost2010Prop44ColorIndex
 90
        5
102
RTVSPost2010Prop44ColorRGB
 90
      255
102
RTVSPost2010PropOp44
 70
     1
102
RTVSPost2010Prop45
280
     0
102
RTVSPost2010PropOp45
 70
     1
102
RTVSPost2010Prop46
 90
       50
102
RTVSPost2010PropOp46
 70
     1
102
RTVSPost2010Prop47
 90
       50
102
RTVSPost2010PropOp47
 70
     1
102
RTVSPost2010Prop48
 90
       50
102
RTVSPost2010PropOp48
 70
     1
102
RTVSPost2010Prop49
280
     0
102
RTVSPost2010PropOp49
 70
     1
102
RTVSPost2010Prop50
 90
       50
102
RTVSPost2010PropOp50
 70
     1
102
RTVSPost2010Prop51ColorIndex
 90
      256
102
RTVSPost2010Prop51ColorRGB
 90
-16777216
102
RTVSPost2010PropOp51
 70
     0
102
RTVSPost2010Prop52
140
1.0
102
RTVSPost2010PropOp52
 70
     0
102
RTVSPost2010Prop53
 90
        2
102
RTVSPost2010PropOp53
 70
     1
102
RTVSPost2010Prop54
  1
strokes_ogs.tif
102
RTVSPost2010PropOp54
 70
     1
102
RTVSPost2010Prop55
280
     0
102
RTVSPost2010PropOp55
 70
     1
102
RTVSPost2010Prop56
140
1.0
102
RTVSPost2010PropOp56
 70
     1
102
RTVSPost2010Prop57
140
1.0
102
RTVSPost2010PropOp57
 70
     1
  0
XRECORD
  5
22114
102
{ACAD_REACTORS
330
22113
102
}
330
22113
100
AcDbXrecord
280
     1
102
RTVSPost2010Prop28
280
     0
102
RTVSPost2010PropOp28
 70
     1
102
RTVSPost2010Prop29
280
     1
102
RTVSPost2010PropOp29
 70
     1
102
RTVSPost2010Prop30
280
     1
102
RTVSPost2010PropOp30
 70
     1
102
RTVSPost2010Prop31
280
     0
102
RTVSPost2010PropOp31
 70
     1
102
RTVSPost2010Prop32
280
     0
102
RTVSPost2010PropOp32
 70
     1
102
RTVSPost2010Prop33
280
     0
102
RTVSPost2010PropOp33
 70
     1
102
RTVSPost2010Prop34
280
     0
102
RTVSPost2010PropOp34
 70
     1
102
RTVSPost2010Prop35
280
     0
102
RTVSPost2010PropOp35
 70
     1
102
RTVSPost2010Prop36
280
     0
102
RTVSPost2010PropOp36
 70
     1
102
RTVSPost2010Prop37
 90
       50
102
RTVSPost2010PropOp37
 70
     0
102
RTVSPost2010Prop38
140
0.0
102
RTVSPost2010PropOp38
 70
     0
102
RTVSPost2010Prop39
140
1.0
102
RTVSPost2010PropOp39
 70
     0
102
RTVSPost2010Prop40
 90
        0
102
RTVSPost2010PropOp40
 70
     0
102
RTVSPost2010Prop41ColorIndex
 90
       18
102
RTVSPost2010Prop41ColorRGB
 90
        0
102
RTVSPost2010PropOp41
 70
     0
102
RTVSPost2010Prop42
 90
       50
102
RTVSPost2010PropOp42
 70
     0
102
RTVSPost2010Prop43
 90
        3
102
RTVSPost2010PropOp43
 70
     0
102
RTVSPost2010Prop44ColorIndex
 90
        5
102
RTVSPost2010Prop44ColorRGB
 90
      255
102
RTVSPost2010PropOp44
 70
     0
102
RTVSPost2010Prop45
280
     0
102
RTVSPost2010PropOp45
 70
     1
102
RTVSPost2010Prop46
 90
       50
102
RTVSPost2010PropOp46
 70
     0
102
RTVSPost2010Prop47
 90
       50
102
RTVSPost2010PropOp47
 70
     0
102
RTVSPost2010Prop48
 90
       50
102
RTVSPost2010PropOp48
 70
     0
102
RTVSPost2010Prop49
280
     0
102
RTVSPost2010PropOp49
 70
     1
102
RTVSPost2010Prop50
 90
       50
102
RTVSPost2010PropOp50
 70
     0
102
RTVSPost2010Prop51ColorIndex
 90
      256
102
RTVSPost2010Prop51ColorRGB
 90
-16777216
102
RTVSPost2010PropOp51
 70
     0
102
RTVSPost2010Prop52
140
1.0
102
RTVSPost2010PropOp52
 70
     0
102
RTVSPost2010Prop53
 90
        2
102
RTVSPost2010PropOp53
 70
     0
102
RTVSPost2010Prop54
  1
strokes_ogs.tif
102
RTVSPost2010PropOp54
 70
     0
102
RTVSPost2010Prop55
280
     0
102
RTVSPost2010PropOp55
 70
     1
102
RTVSPost2010Prop56
140
1.0
102
RTVSPost2010PropOp56
 70
     0
102
RTVSPost2010Prop57
140
1.0
102
RTVSPost2010PropOp57
 70
     0
  0
XRECORD
  5
22100
102
{ACAD_REACTORS
330
220FF
102
}
330
220FF
100
AcDbXrecord
280
     1
102
RTVSPost2010Prop28
280
     0
102
RTVSPost2010PropOp28
 70
     1
102
RTVSPost2010Prop29
280
     1
102
RTVSPost2010PropOp29
 70
     1
102
RTVSPost2010Prop30
280
     1
102
RTVSPost2010PropOp30
 70
     1
102
RTVSPost2010Prop31
280
     0
102
RTVSPost2010PropOp31
 70
     1
102
RTVSPost2010Prop32
280
     0
102
RTVSPost2010PropOp32
 70
     1
102
RTVSPost2010Prop33
280
     0
102
RTVSPost2010PropOp33
 70
     1
102
RTVSPost2010Prop34
280
     0
102
RTVSPost2010PropOp34
 70
     1
102
RTVSPost2010Prop35
280
     0
102
RTVSPost2010PropOp35
 70
     1
102
RTVSPost2010Prop36
280
     0
102
RTVSPost2010PropOp36
 70
     1
102
RTVSPost2010Prop37
 90
       50
102
RTVSPost2010PropOp37
 70
     1
102
RTVSPost2010Prop38
140
0.0
102
RTVSPost2010PropOp38
 70
     1
102
RTVSPost2010Prop39
140
1.0
102
RTVSPost2010PropOp39
 70
     1
102
RTVSPost2010Prop40
 90
        0
102
RTVSPost2010PropOp40
 70
     1
102
RTVSPost2010Prop41ColorIndex
 90
       18
102
RTVSPost2010Prop41ColorRGB
 90
        0
102
RTVSPost2010PropOp41
 70
     1
102
RTVSPost2010Prop42
 90
       50
102
RTVSPost2010PropOp42
 70
     1
102
RTVSPost2010Prop43
 90
        3
102
RTVSPost2010PropOp43
 70
     1
102
RTVSPost2010Prop44ColorIndex
 90
        5
102
RTVSPost2010Prop44ColorRGB
 90
      255
102
RTVSPost2010PropOp44
 70
     1
102
RTVSPost2010Prop45
280
     0
102
RTVSPost2010PropOp45
 70
     1
102
RTVSPost2010Prop46
 90
       50
102
RTVSPost2010PropOp46
 70
     1
102
RTVSPost2010Prop47
 90
       50
102
RTVSPost2010PropOp47
 70
     1
102
RTVSPost2010Prop48
 90
       50
102
RTVSPost2010PropOp48
 70
     1
102
RTVSPost2010Prop49
280
     0
102
RTVSPost2010PropOp49
 70
     1
102
RTVSPost2010Prop50
 90
       50
102
RTVSPost2010PropOp50
 70
     1
102
RTVSPost2010Prop51ColorIndex
 90
      256
102
RTVSPost2010Prop51ColorRGB
 90
-16777216
102
RTVSPost2010PropOp51
 70
     0
102
RTVSPost2010Prop52
140
1.0
102
RTVSPost2010PropOp52
 70
     0
102
RTVSPost2010Prop53
 90
        2
102
RTVSPost2010PropOp53
 70
     1
102
RTVSPost2010Prop54
  1
strokes_ogs.tif
102
RTVSPost2010PropOp54
 70
     1
102
RTVSPost2010Prop55
280
     0
102
RTVSPost2010PropOp55
 70
     1
102
RTVSPost2010Prop56
140
1.0
102
RTVSPost2010PropOp56
 70
     1
102
RTVSPost2010Prop57
140
1.0
102
RTVSPost2010PropOp57
 70
     1
  0
XRECORD
  5
22116
102
{ACAD_REACTORS
330
22115
102
}
330
22115
100
AcDbXrecord
280
     1
102
RTVSPost2010Prop28
280
     0
102
RTVSPost2010PropOp28
 70
     1
102
RTVSPost2010Prop29
280
     1
102
RTVSPost2010PropOp29
 70
     1
102
RTVSPost2010Prop30
280
     1
102
RTVSPost2010PropOp30
 70
     1
102
RTVSPost2010Prop31
280
     0
102
RTVSPost2010PropOp31
 70
     1
102
RTVSPost2010Prop32
280
     0
102
RTVSPost2010PropOp32
 70
     1
102
RTVSPost2010Prop33
280
     0
102
RTVSPost2010PropOp33
 70
     1
102
RTVSPost2010Prop34
280
     0
102
RTVSPost2010PropOp34
 70
     1
102
RTVSPost2010Prop35
280
     0
102
RTVSPost2010PropOp35
 70
     1
102
RTVSPost2010Prop36
280
     0
102
RTVSPost2010PropOp36
 70
     1
102
RTVSPost2010Prop37
 90
       50
102
RTVSPost2010PropOp37
 70
     0
102
RTVSPost2010Prop38
140
0.0
102
RTVSPost2010PropOp38
 70
     0
102
RTVSPost2010Prop39
140
1.0
102
RTVSPost2010PropOp39
 70
     0
102
RTVSPost2010Prop40
 90
        0
102
RTVSPost2010PropOp40
 70
     0
102
RTVSPost2010Prop41ColorIndex
 90
       18
102
RTVSPost2010Prop41ColorRGB
 90
        0
102
RTVSPost2010PropOp41
 70
     0
102
RTVSPost2010Prop42
 90
       50
102
RTVSPost2010PropOp42
 70
     0
102
RTVSPost2010Prop43
 90
        3
102
RTVSPost2010PropOp43
 70
     0
102
RTVSPost2010Prop44ColorIndex
 90
        5
102
RTVSPost2010Prop44ColorRGB
 90
      255
102
RTVSPost2010PropOp44
 70
     0
102
RTVSPost2010Prop45
280
     0
102
RTVSPost2010PropOp45
 70
     1
102
RTVSPost2010Prop46
 90
       50
102
RTVSPost2010PropOp46
 70
     0
102
RTVSPost2010Prop47
 90
       50
102
RTVSPost2010PropOp47
 70
     0
102
RTVSPost2010Prop48
 90
       50
102
RTVSPost2010PropOp48
 70
     0
102
RTVSPost2010Prop49
280
     0
102
RTVSPost2010PropOp49
 70
     1
102
RTVSPost2010Prop50
 90
       50
102
RTVSPost2010PropOp50
 70
     0
102
RTVSPost2010Prop51ColorIndex
 90
      256
102
RTVSPost2010Prop51ColorRGB
 90
-16777216
102
RTVSPost2010PropOp51
 70
     0
102
RTVSPost2010Prop52
140
1.0
102
RTVSPost2010PropOp52
 70
     0
102
RTVSPost2010Prop53
 90
        2
102
RTVSPost2010PropOp53
 70
     0
102
RTVSPost2010Prop54
  1
strokes_ogs.tif
102
RTVSPost2010PropOp54
 70
     0
102
RTVSPost2010Prop55
280
     0
102
RTVSPost2010PropOp55
 70
     1
102
RTVSPost2010Prop56
140
1.0
102
RTVSPost2010PropOp56
 70
     0
102
RTVSPost2010Prop57
140
1.0
102
RTVSPost2010PropOp57
 70
     0
  0
XRECORD
  5
220F8
102
{ACAD_REACTORS
330
220F7
102
}
330
220F7
100
AcDbXrecord
280
     1
102
RTVSPost2010Prop28
280
     0
102
RTVSPost2010PropOp28
 70
     1
102
RTVSPost2010Prop29
280
     1
102
RTVSPost2010PropOp29
 70
     1
102
RTVSPost2010Prop30
280
     1
102
RTVSPost2010PropOp30
 70
     1
102
RTVSPost2010Prop31
280
     0
102
RTVSPost2010PropOp31
 70
     1
102
RTVSPost2010Prop32
280
     0
102
RTVSPost2010PropOp32
 70
     1
102
RTVSPost2010Prop33
280
     0
102
RTVSPost2010PropOp33
 70
     1
102
RTVSPost2010Prop34
280
     0
102
RTVSPost2010PropOp34
 70
     1
102
RTVSPost2010Prop35
280
     0
102
RTVSPost2010PropOp35
 70
     1
102
RTVSPost2010Prop36
280
     0
102
RTVSPost2010PropOp36
 70
     1
102
RTVSPost2010Prop37
 90
       50
102
RTVSPost2010PropOp37
 70
     1
102
RTVSPost2010Prop38
140
0.0
102
RTVSPost2010PropOp38
 70
     1
102
RTVSPost2010Prop39
140
1.0
102
RTVSPost2010PropOp39
 70
     1
102
RTVSPost2010Prop40
 90
        0
102
RTVSPost2010PropOp40
 70
     1
102
RTVSPost2010Prop41ColorIndex
 90
       18
102
RTVSPost2010Prop41ColorRGB
 90
        0
102
RTVSPost2010PropOp41
 70
     1
102
RTVSPost2010Prop42
 90
       50
102
RTVSPost2010PropOp42
 70
     1
102
RTVSPost2010Prop43
 90
        3
102
RTVSPost2010PropOp43
 70
     1
102
RTVSPost2010Prop44ColorIndex
 90
        5
102
RTVSPost2010Prop44ColorRGB
 90
      255
102
RTVSPost2010PropOp44
 70
     1
102
RTVSPost2010Prop45
280
     0
102
RTVSPost2010PropOp45
 70
     1
102
RTVSPost2010Prop46
 90
       50
102
RTVSPost2010PropOp46
 70
     1
102
RTVSPost2010Prop47
 90
       50
102
RTVSPost2010PropOp47
 70
     1
102
RTVSPost2010Prop48
 90
       50
102
RTVSPost2010PropOp48
 70
     1
102
RTVSPost2010Prop49
280
     0
102
RTVSPost2010PropOp49
 70
     1
102
RTVSPost2010Prop50
 90
       50
102
RTVSPost2010PropOp50
 70
     1
102
RTVSPost2010Prop51ColorIndex
 90
      256
102
RTVSPost2010Prop51ColorRGB
 90
-16777216
102
RTVSPost2010PropOp51
 70
     0
102
RTVSPost2010Prop52
140
1.0
102
RTVSPost2010PropOp52
 70
     0
102
RTVSPost2010Prop53
 90
        2
102
RTVSPost2010PropOp53
 70
     1
102
RTVSPost2010Prop54
  1
strokes_ogs.tif
102
RTVSPost2010PropOp54
 70
     1
102
RTVSPost2010Prop55
280
     0
102
RTVSPost2010PropOp55
 70
     1
102
RTVSPost2010Prop56
140
1.0
102
RTVSPost2010PropOp56
 70
     1
102
RTVSPost2010Prop57
140
1.0
102
RTVSPost2010PropOp57
 70
     1
  0
XRECORD
  5
22112
102
{ACAD_REACTORS
330
22111
102
}
330
22111
100
AcDbXrecord
280
     1
102
RTVSPost2010Prop28
280
     0
102
RTVSPost2010PropOp28
 70
     1
102
RTVSPost2010Prop29
280
     1
102
RTVSPost2010PropOp29
 70
     1
102
RTVSPost2010Prop30
280
     1
102
RTVSPost2010PropOp30
 70
     1
102
RTVSPost2010Prop31
280
     0
102
RTVSPost2010PropOp31
 70
     1
102
RTVSPost2010Prop32
280
     0
102
RTVSPost2010PropOp32
 70
     1
102
RTVSPost2010Prop33
280
     0
102
RTVSPost2010PropOp33
 70
     1
102
RTVSPost2010Prop34
280
     0
102
RTVSPost2010PropOp34
 70
     1
102
RTVSPost2010Prop35
280
     0
102
RTVSPost2010PropOp35
 70
     1
102
RTVSPost2010Prop36
280
     0
102
RTVSPost2010PropOp36
 70
     1
102
RTVSPost2010Prop37
 90
       50
102
RTVSPost2010PropOp37
 70
     1
102
RTVSPost2010Prop38
140
0.0
102
RTVSPost2010PropOp38
 70
     1
102
RTVSPost2010Prop39
140
1.0
102
RTVSPost2010PropOp39
 70
     1
102
RTVSPost2010Prop40
 90
        0
102
RTVSPost2010PropOp40
 70
     1
102
RTVSPost2010Prop41ColorIndex
 90
       18
102
RTVSPost2010Prop41ColorRGB
 90
        0
102
RTVSPost2010PropOp41
 70
     1
102
RTVSPost2010Prop42
 90
       50
102
RTVSPost2010PropOp42
 70
     1
102
RTVSPost2010Prop43
 90
        3
102
RTVSPost2010PropOp43
 70
     1
102
RTVSPost2010Prop44ColorIndex
 90
        5
102
RTVSPost2010Prop44ColorRGB
 90
      255
102
RTVSPost2010PropOp44
 70
     1
102
RTVSPost2010Prop45
280
     0
102
RTVSPost2010PropOp45
 70
     1
102
RTVSPost2010Prop46
 90
       50
102
RTVSPost2010PropOp46
 70
     1
102
RTVSPost2010Prop47
 90
       50
102
RTVSPost2010PropOp47
 70
     1
102
RTVSPost2010Prop48
 90
       50
102
RTVSPost2010PropOp48
 70
     1
102
RTVSPost2010Prop49
280
     0
102
RTVSPost2010PropOp49
 70
     1
102
RTVSPost2010Prop50
 90
       50
102
RTVSPost2010PropOp50
 70
     1
102
RTVSPost2010Prop51ColorIndex
 90
      256
102
RTVSPost2010Prop51ColorRGB
 90
-16777216
102
RTVSPost2010PropOp51
 70
     0
102
RTVSPost2010Prop52
140
1.0
102
RTVSPost2010PropOp52
 70
     0
102
RTVSPost2010Prop53
 90
        2
102
RTVSPost2010PropOp53
 70
     1
102
RTVSPost2010Prop54
  1
strokes_ogs.tif
102
RTVSPost2010PropOp54
 70
     1
102
RTVSPost2010Prop55
280
     0
102
RTVSPost2010PropOp55
 70
     1
102
RTVSPost2010Prop56
140
1.0
102
RTVSPost2010PropOp56
 70
     1
102
RTVSPost2010Prop57
140
1.0
102
RTVSPost2010PropOp57
 70
     1
  0
XRECORD
  5
22110
102
{ACAD_REACTORS
330
2210F
102
}
330
2210F
100
AcDbXrecord
280
     1
102
RTVSPost2010Prop28
280
     0
102
RTVSPost2010PropOp28
 70
     1
102
RTVSPost2010Prop29
280
     1
102
RTVSPost2010PropOp29
 70
     1
102
RTVSPost2010Prop30
280
     1
102
RTVSPost2010PropOp30
 70
     1
102
RTVSPost2010Prop31
280
     0
102
RTVSPost2010PropOp31
 70
     1
102
RTVSPost2010Prop32
280
     0
102
RTVSPost2010PropOp32
 70
     1
102
RTVSPost2010Prop33
280
     0
102
RTVSPost2010PropOp33
 70
     1
102
RTVSPost2010Prop34
280
     0
102
RTVSPost2010PropOp34
 70
     1
102
RTVSPost2010Prop35
280
     0
102
RTVSPost2010PropOp35
 70
     1
102
RTVSPost2010Prop36
280
     0
102
RTVSPost2010PropOp36
 70
     1
102
RTVSPost2010Prop37
 90
       50
102
RTVSPost2010PropOp37
 70
     1
102
RTVSPost2010Prop38
140
0.0
102
RTVSPost2010PropOp38
 70
     1
102
RTVSPost2010Prop39
140
1.0
102
RTVSPost2010PropOp39
 70
     1
102
RTVSPost2010Prop40
 90
        0
102
RTVSPost2010PropOp40
 70
     1
102
RTVSPost2010Prop41ColorIndex
 90
       18
102
RTVSPost2010Prop41ColorRGB
 90
        0
102
RTVSPost2010PropOp41
 70
     1
102
RTVSPost2010Prop42
 90
       50
102
RTVSPost2010PropOp42
 70
     1
102
RTVSPost2010Prop43
 90
        3
102
RTVSPost2010PropOp43
 70
     1
102
RTVSPost2010Prop44ColorIndex
 90
        5
102
RTVSPost2010Prop44ColorRGB
 90
      255
102
RTVSPost2010PropOp44
 70
     1
102
RTVSPost2010Prop45
280
     0
102
RTVSPost2010PropOp45
 70
     1
102
RTVSPost2010Prop46
 90
       50
102
RTVSPost2010PropOp46
 70
     1
102
RTVSPost2010Prop47
 90
       50
102
RTVSPost2010PropOp47
 70
     1
102
RTVSPost2010Prop48
 90
       50
102
RTVSPost2010PropOp48
 70
     1
102
RTVSPost2010Prop49
280
     0
102
RTVSPost2010PropOp49
 70
     1
102
RTVSPost2010Prop50
 90
       50
102
RTVSPost2010PropOp50
 70
     1
102
RTVSPost2010Prop51ColorIndex
 90
      256
102
RTVSPost2010Prop51ColorRGB
 90
-16777216
102
RTVSPost2010PropOp51
 70
     0
102
RTVSPost2010Prop52
140
1.0
102
RTVSPost2010PropOp52
 70
     0
102
RTVSPost2010Prop53
 90
        2
102
RTVSPost2010PropOp53
 70
     1
102
RTVSPost2010Prop54
  1
strokes_ogs.tif
102
RTVSPost2010PropOp54
 70
     1
102
RTVSPost2010Prop55
280
     0
102
RTVSPost2010PropOp55
 70
     1
102
RTVSPost2010Prop56
140
1.0
102
RTVSPost2010PropOp56
 70
     1
102
RTVSPost2010Prop57
140
1.0
102
RTVSPost2010PropOp57
 70
     1
  0
XRECORD
  5
2210A
102
{ACAD_REACTORS
330
22109
102
}
330
22109
100
AcDbXrecord
280
     1
102
RTVSPost2010Prop28
280
     0
102
RTVSPost2010PropOp28
 70
     1
102
RTVSPost2010Prop29
280
     1
102
RTVSPost2010PropOp29
 70
     1
102
RTVSPost2010Prop30
280
     1
102
RTVSPost2010PropOp30
 70
     1
102
RTVSPost2010Prop31
280
     0
102
RTVSPost2010PropOp31
 70
     1
102
RTVSPost2010Prop32
280
     0
102
RTVSPost2010PropOp32
 70
     1
102
RTVSPost2010Prop33
280
     0
102
RTVSPost2010PropOp33
 70
     1
102
RTVSPost2010Prop34
280
     0
102
RTVSPost2010PropOp34
 70
     1
102
RTVSPost2010Prop35
280
     0
102
RTVSPost2010PropOp35
 70
     1
102
RTVSPost2010Prop36
280
     0
102
RTVSPost2010PropOp36
 70
     1
102
RTVSPost2010Prop37
 90
       50
102
RTVSPost2010PropOp37
 70
     1
102
RTVSPost2010Prop38
140
0.0
102
RTVSPost2010PropOp38
 70
     1
102
RTVSPost2010Prop39
140
1.0
102
RTVSPost2010PropOp39
 70
     1
102
RTVSPost2010Prop40
 90
        0
102
RTVSPost2010PropOp40
 70
     1
102
RTVSPost2010Prop41ColorIndex
 90
       18
102
RTVSPost2010Prop41ColorRGB
 90
        0
102
RTVSPost2010PropOp41
 70
     1
102
RTVSPost2010Prop42
 90
       50
102
RTVSPost2010PropOp42
 70
     1
102
RTVSPost2010Prop43
 90
        3
102
RTVSPost2010PropOp43
 70
     1
102
RTVSPost2010Prop44ColorIndex
 90
        5
102
RTVSPost2010Prop44ColorRGB
 90
      255
102
RTVSPost2010PropOp44
 70
     1
102
RTVSPost2010Prop45
280
     0
102
RTVSPost2010PropOp45
 70
     1
102
RTVSPost2010Prop46
 90
       50
102
RTVSPost2010PropOp46
 70
     1
102
RTVSPost2010Prop47
 90
       50
102
RTVSPost2010PropOp47
 70
     1
102
RTVSPost2010Prop48
 90
       50
102
RTVSPost2010PropOp48
 70
     1
102
RTVSPost2010Prop49
280
     0
102
RTVSPost2010PropOp49
 70
     1
102
RTVSPost2010Prop50
 90
       50
102
RTVSPost2010PropOp50
 70
     1
102
RTVSPost2010Prop51ColorIndex
 90
      256
102
RTVSPost2010Prop51ColorRGB
 90
-16777216
102
RTVSPost2010PropOp51
 70
     0
102
RTVSPost2010Prop52
140
1.0
102
RTVSPost2010PropOp52
 70
     0
102
RTVSPost2010Prop53
 90
        2
102
RTVSPost2010PropOp53
 70
     1
102
RTVSPost2010Prop54
  1
strokes_ogs.tif
102
RTVSPost2010PropOp54
 70
     1
102
RTVSPost2010Prop55
280
     0
102
RTVSPost2010PropOp55
 70
     1
102
RTVSPost2010Prop56
140
1.0
102
RTVSPost2010PropOp56
 70
     1
102
RTVSPost2010Prop57
140
1.0
102
RTVSPost2010PropOp57
 70
     1
  0
XRECORD
  5
2210C
102
{ACAD_REACTORS
330
2210B
102
}
330
2210B
100
AcDbXrecord
280
     1
102
RTVSPost2010Prop28
280
     0
102
RTVSPost2010PropOp28
 70
     1
102
RTVSPost2010Prop29
280
     1
102
RTVSPost2010PropOp29
 70
     1
102
RTVSPost2010Prop30
280
     1
102
RTVSPost2010PropOp30
 70
     1
102
RTVSPost2010Prop31
280
     0
102
RTVSPost2010PropOp31
 70
     1
102
RTVSPost2010Prop32
280
     0
102
RTVSPost2010PropOp32
 70
     1
102
RTVSPost2010Prop33
280
     0
102
RTVSPost2010PropOp33
 70
     1
102
RTVSPost2010Prop34
280
     0
102
RTVSPost2010PropOp34
 70
     1
102
RTVSPost2010Prop35
280
     0
102
RTVSPost2010PropOp35
 70
     1
102
RTVSPost2010Prop36
280
     0
102
RTVSPost2010PropOp36
 70
     1
102
RTVSPost2010Prop37
 90
       50
102
RTVSPost2010PropOp37
 70
     1
102
RTVSPost2010Prop38
140
0.0
102
RTVSPost2010PropOp38
 70
     1
102
RTVSPost2010Prop39
140
1.0
102
RTVSPost2010PropOp39
 70
     1
102
RTVSPost2010Prop40
 90
        0
102
RTVSPost2010PropOp40
 70
     1
102
RTVSPost2010Prop41ColorIndex
 90
       18
102
RTVSPost2010Prop41ColorRGB
 90
        0
102
RTVSPost2010PropOp41
 70
     1
102
RTVSPost2010Prop42
 90
       50
102
RTVSPost2010PropOp42
 70
     1
102
RTVSPost2010Prop43
 90
        3
102
RTVSPost2010PropOp43
 70
     1
102
RTVSPost2010Prop44ColorIndex
 90
        5
102
RTVSPost2010Prop44ColorRGB
 90
      255
102
RTVSPost2010PropOp44
 70
     1
102
RTVSPost2010Prop45
280
     0
102
RTVSPost2010PropOp45
 70
     1
102
RTVSPost2010Prop46
 90
       50
102
RTVSPost2010PropOp46
 70
     1
102
RTVSPost2010Prop47
 90
       50
102
RTVSPost2010PropOp47
 70
     1
102
RTVSPost2010Prop48
 90
       50
102
RTVSPost2010PropOp48
 70
     1
102
RTVSPost2010Prop49
280
     0
102
RTVSPost2010PropOp49
 70
     1
102
RTVSPost2010Prop50
 90
       50
102
RTVSPost2010PropOp50
 70
     1
102
RTVSPost2010Prop51ColorIndex
 90
      256
102
RTVSPost2010Prop51ColorRGB
 90
-16777216
102
RTVSPost2010PropOp51
 70
     0
102
RTVSPost2010Prop52
140
1.0
102
RTVSPost2010PropOp52
 70
     0
102
RTVSPost2010Prop53
 90
        2
102
RTVSPost2010PropOp53
 70
     1
102
RTVSPost2010Prop54
  1
strokes_ogs.tif
102
RTVSPost2010PropOp54
 70
     1
102
RTVSPost2010Prop55
280
     0
102
RTVSPost2010PropOp55
 70
     1
102
RTVSPost2010Prop56
140
1.0
102
RTVSPost2010PropOp56
 70
     1
102
RTVSPost2010Prop57
140
1.0
102
RTVSPost2010PropOp57
 70
     1
  0
XRECORD
  5
220FE
102
{ACAD_REACTORS
330
220FD
102
}
330
220FD
100
AcDbXrecord
280
     1
102
RTVSPost2010Prop28
280
     0
102
RTVSPost2010PropOp28
 70
     1
102
RTVSPost2010Prop29
280
     1
102
RTVSPost2010PropOp29
 70
     1
102
RTVSPost2010Prop30
280
     1
102
RTVSPost2010PropOp30
 70
     1
102
RTVSPost2010Prop31
280
     0
102
RTVSPost2010PropOp31
 70
     1
102
RTVSPost2010Prop32
280
     0
102
RTVSPost2010PropOp32
 70
     1
102
RTVSPost2010Prop33
280
     0
102
RTVSPost2010PropOp33
 70
     1
102
RTVSPost2010Prop34
280
     0
102
RTVSPost2010PropOp34
 70
     1
102
RTVSPost2010Prop35
280
     0
102
RTVSPost2010PropOp35
 70
     1
102
RTVSPost2010Prop36
280
     0
102
RTVSPost2010PropOp36
 70
     1
102
RTVSPost2010Prop37
 90
       50
102
RTVSPost2010PropOp37
 70
     1
102
RTVSPost2010Prop38
140
0.0
102
RTVSPost2010PropOp38
 70
     1
102
RTVSPost2010Prop39
140
1.0
102
RTVSPost2010PropOp39
 70
     1
102
RTVSPost2010Prop40
 90
        0
102
RTVSPost2010PropOp40
 70
     1
102
RTVSPost2010Prop41ColorIndex
 90
       18
102
RTVSPost2010Prop41ColorRGB
 90
        0
102
RTVSPost2010PropOp41
 70
     1
102
RTVSPost2010Prop42
 90
       50
102
RTVSPost2010PropOp42
 70
     1
102
RTVSPost2010Prop43
 90
        3
102
RTVSPost2010PropOp43
 70
     1
102
RTVSPost2010Prop44ColorIndex
 90
        5
102
RTVSPost2010Prop44ColorRGB
 90
      255
102
RTVSPost2010PropOp44
 70
     1
102
RTVSPost2010Prop45
280
     0
102
RTVSPost2010PropOp45
 70
     1
102
RTVSPost2010Prop46
 90
       50
102
RTVSPost2010PropOp46
 70
     1
102
RTVSPost2010Prop47
 90
       50
102
RTVSPost2010PropOp47
 70
     1
102
RTVSPost2010Prop48
 90
       50
102
RTVSPost2010PropOp48
 70
     1
102
RTVSPost2010Prop49
280
     0
102
RTVSPost2010PropOp49
 70
     1
102
RTVSPost2010Prop50
 90
       50
102
RTVSPost2010PropOp50
 70
     1
102
RTVSPost2010Prop51ColorIndex
 90
      256
102
RTVSPost2010Prop51ColorRGB
 90
-16777216
102
RTVSPost2010PropOp51
 70
     0
102
RTVSPost2010Prop52
140
1.0
102
RTVSPost2010PropOp52
 70
     0
102
RTVSPost2010Prop53
 90
        2
102
RTVSPost2010PropOp53
 70
     1
102
RTVSPost2010Prop54
  1
strokes_ogs.tif
102
RTVSPost2010PropOp54
 70
     1
102
RTVSPost2010Prop55
280
     0
102
RTVSPost2010PropOp55
 70
     1
102
RTVSPost2010Prop56
140
1.0
102
RTVSPost2010PropOp56
 70
     1
102
RTVSPost2010Prop57
140
1.0
102
RTVSPost2010PropOp57
 70
     1
  0
XRECORD
  5
22106
102
{ACAD_REACTORS
330
22105
102
}
330
22105
100
AcDbXrecord
280
     1
102
RTVSPost2010Prop28
280
     0
102
RTVSPost2010PropOp28
 70
     1
102
RTVSPost2010Prop29
280
     1
102
RTVSPost2010PropOp29
 70
     1
102
RTVSPost2010Prop30
280
     1
102
RTVSPost2010PropOp30
 70
     1
102
RTVSPost2010Prop31
280
     0
102
RTVSPost2010PropOp31
 70
     1
102
RTVSPost2010Prop32
280
     0
102
RTVSPost2010PropOp32
 70
     1
102
RTVSPost2010Prop33
280
     0
102
RTVSPost2010PropOp33
 70
     1
102
RTVSPost2010Prop34
280
     0
102
RTVSPost2010PropOp34
 70
     1
102
RTVSPost2010Prop35
280
     0
102
RTVSPost2010PropOp35
 70
     1
102
RTVSPost2010Prop36
280
     0
102
RTVSPost2010PropOp36
 70
     1
102
RTVSPost2010Prop37
 90
       50
102
RTVSPost2010PropOp37
 70
     1
102
RTVSPost2010Prop38
140
0.0
102
RTVSPost2010PropOp38
 70
     1
102
RTVSPost2010Prop39
140
1.0
102
RTVSPost2010PropOp39
 70
     1
102
RTVSPost2010Prop40
 90
        0
102
RTVSPost2010PropOp40
 70
     1
102
RTVSPost2010Prop41ColorIndex
 90
       18
102
RTVSPost2010Prop41ColorRGB
 90
        0
102
RTVSPost2010PropOp41
 70
     1
102
RTVSPost2010Prop42
 90
       50
102
RTVSPost2010PropOp42
 70
     1
102
RTVSPost2010Prop43
 90
        3
102
RTVSPost2010PropOp43
 70
     1
102
RTVSPost2010Prop44ColorIndex
 90
        5
102
RTVSPost2010Prop44ColorRGB
 90
      255
102
RTVSPost2010PropOp44
 70
     1
102
RTVSPost2010Prop45
280
     0
102
RTVSPost2010PropOp45
 70
     1
102
RTVSPost2010Prop46
 90
       50
102
RTVSPost2010PropOp46
 70
     1
102
RTVSPost2010Prop47
 90
       50
102
RTVSPost2010PropOp47
 70
     1
102
RTVSPost2010Prop48
 90
       50
102
RTVSPost2010PropOp48
 70
     1
102
RTVSPost2010Prop49
280
     0
102
RTVSPost2010PropOp49
 70
     1
102
RTVSPost2010Prop50
 90
       50
102
RTVSPost2010PropOp50
 70
     1
102
RTVSPost2010Prop51ColorIndex
 90
      256
102
RTVSPost2010Prop51ColorRGB
 90
-16777216
102
RTVSPost2010PropOp51
 70
     0
102
RTVSPost2010Prop52
140
1.0
102
RTVSPost2010PropOp52
 70
     0
102
RTVSPost2010Prop53
 90
        2
102
RTVSPost2010PropOp53
 70
     1
102
RTVSPost2010Prop54
  1
strokes_ogs.tif
102
RTVSPost2010PropOp54
 70
     1
102
RTVSPost2010Prop55
280
     0
102
RTVSPost2010PropOp55
 70
     1
102
RTVSPost2010Prop56
140
1.0
102
RTVSPost2010PropOp56
 70
     1
102
RTVSPost2010Prop57
140
1.0
102
RTVSPost2010PropOp57
 70
     1
  0
XRECORD
  5
2210E
102
{ACAD_REACTORS
330
2210D
102
}
330
2210D
100
AcDbXrecord
280
     1
102
RTVSPost2010Prop28
280
     0
102
RTVSPost2010PropOp28
 70
     1
102
RTVSPost2010Prop29
280
     1
102
RTVSPost2010PropOp29
 70
     1
102
RTVSPost2010Prop30
280
     1
102
RTVSPost2010PropOp30
 70
     1
102
RTVSPost2010Prop31
280
     0
102
RTVSPost2010PropOp31
 70
     1
102
RTVSPost2010Prop32
280
     0
102
RTVSPost2010PropOp32
 70
     1
102
RTVSPost2010Prop33
280
     0
102
RTVSPost2010PropOp33
 70
     1
102
RTVSPost2010Prop34
280
     0
102
RTVSPost2010PropOp34
 70
     1
102
RTVSPost2010Prop35
280
     0
102
RTVSPost2010PropOp35
 70
     1
102
RTVSPost2010Prop36
280
     0
102
RTVSPost2010PropOp36
 70
     1
102
RTVSPost2010Prop37
 90
       50
102
RTVSPost2010PropOp37
 70
     1
102
RTVSPost2010Prop38
140
0.0
102
RTVSPost2010PropOp38
 70
     1
102
RTVSPost2010Prop39
140
1.0
102
RTVSPost2010PropOp39
 70
     1
102
RTVSPost2010Prop40
 90
        0
102
RTVSPost2010PropOp40
 70
     1
102
RTVSPost2010Prop41ColorIndex
 90
       18
102
RTVSPost2010Prop41ColorRGB
 90
        0
102
RTVSPost2010PropOp41
 70
     1
102
RTVSPost2010Prop42
 90
       50
102
RTVSPost2010PropOp42
 70
     1
102
RTVSPost2010Prop43
 90
        3
102
RTVSPost2010PropOp43
 70
     1
102
RTVSPost2010Prop44ColorIndex
 90
        5
102
RTVSPost2010Prop44ColorRGB
 90
      255
102
RTVSPost2010PropOp44
 70
     1
102
RTVSPost2010Prop45
280
     0
102
RTVSPost2010PropOp45
 70
     1
102
RTVSPost2010Prop46
 90
       50
102
RTVSPost2010PropOp46
 70
     1
102
RTVSPost2010Prop47
 90
       50
102
RTVSPost2010PropOp47
 70
     1
102
RTVSPost2010Prop48
 90
       50
102
RTVSPost2010PropOp48
 70
     1
102
RTVSPost2010Prop49
280
     0
102
RTVSPost2010PropOp49
 70
     1
102
RTVSPost2010Prop50
 90
       50
102
RTVSPost2010PropOp50
 70
     1
102
RTVSPost2010Prop51ColorIndex
 90
      256
102
RTVSPost2010Prop51ColorRGB
 90
-16777216
102
RTVSPost2010PropOp51
 70
     0
102
RTVSPost2010Prop52
140
1.0
102
RTVSPost2010PropOp52
 70
     0
102
RTVSPost2010Prop53
 90
        2
102
RTVSPost2010PropOp53
 70
     1
102
RTVSPost2010Prop54
  1
strokes_ogs.tif
102
RTVSPost2010PropOp54
 70
     1
102
RTVSPost2010Prop55
280
     0
102
RTVSPost2010PropOp55
 70
     1
102
RTVSPost2010Prop56
140
1.0
102
RTVSPost2010PropOp56
 70
     1
102
RTVSPost2010Prop57
140
1.0
102
RTVSPost2010PropOp57
 70
     1
  0
ENDSEC
  0
EOF
