  0
SECTION
  2
HEADER
  9
$ACADVER
  1
AC1024
  9
$ACADMAINTVER
 70
   182
  9
$DWGCODEPAGE
  3
ANSI_1252
  9
$LASTSAVEDBY
  1
kamerka
  9
$INSBASE
 10
0.0
 20
0.0
 30
0.0
  9
$EXTMIN
 10
-123.4194929316953
 20
-57.20491082139904
 30
-0.0000000000000057
  9
$EXTMAX
 10
82.16801404046021
 20
59.29987682408603
 30
0.0000000000000104
  9
$LIMMIN
 10
0.0
 20
0.0
  9
$LIMMAX
 10
420.0
 20
297.0
  9
$ORTHOMODE
 70
     0
  9
$REGENMODE
 70
     1
  9
$FILLMODE
 70
     1
  9
$QTEXTMODE
 70
     0
  9
$MIRRTEXT
 70
     0
  9
$LTSCALE
 40
23.1
  9
$ATTMODE
 70
     1
  9
$TEXTSIZE
 40
3.5
  9
$TRACEWID
 40
0.05
  9
$TEXTSTYLE
  7
STANDARD
  9
$CLAYER
  8
0
  9
$CELTYPE
  6
BYLAYER
  9
$CECOLOR
 62
   256
  9
$CELTSCALE
 40
1.0
  9
$DISPSILH
 70
     0
  9
$DIMSCALE
 40
1.0
  9
$DIMASZ
 40
4.57
  9
$DIMEXO
 40
0.0625
  9
$DIMDLI
 40
0.38
  9
$DIMRND
 40
0.0
  9
$DIMDLE
 40
0.0
  9
$DIMEXE
 40
0.18
  9
$DIMTP
 40
0.01
  9
$DIMTM
 40
0.01
  9
$DIMTXT
 40
3.5
  9
$DIMCEN
 40
0.09
  9
$DIMTSZ
 40
0.0
  9
$DIMTOL
 70
     0
  9
$DIMLIM
 70
     0
  9
$DIMTIH
 70
     0
  9
$DIMTOH
 70
     0
  9
$DIMSE1
 70
     0
  9
$DIMSE2
 70
     0
  9
$DIMTAD
 70
     1
  9
$DIMZIN
 70
     8
  9
$DIMBLK
  1

  9
$DIMASO
 70
     1
  9
$DIMSHO
 70
     1
  9
$DIMPOST
  1

  9
$DIMAPOST
  1

  9
$DIMALT
 70
     0
  9
$DIMALTD
 70
     2
  9
$DIMALTF
 40
25.4
  9
$DIMLFAC
 40
1.0
  9
$DIMTOFL
 70
     0
  9
$DIMTVP
 40
0.0
  9
$DIMTIX
 70
     0
  9
$DIMSOXD
 70
     0
  9
$DIMSAH
 70
     0
  9
$DIMBLK1
  1

  9
$DIMBLK2
  1

  9
$DIMSTYLE
  2
STANDARD
  9
$DIMCLRD
 70
     0
  9
$DIMCLRE
 70
     0
  9
$DIMCLRT
 70
     0
  9
$DIMTFAC
 40
1.0
  9
$DIMGAP
 40
0.09
  9
$DIMJUST
 70
     0
  9
$DIMSD1
 70
     0
  9
$DIMSD2
 70
     0
  9
$DIMTOLJ
 70
     1
  9
$DIMTZIN
 70
     8
  9
$DIMALTZ
 70
     0
  9
$DIMALTTZ
 70
     0
  9
$DIMUPT
 70
     0
  9
$DIMDEC
 70
     3
  9
$DIMTDEC
 70
     3
  9
$DIMALTU
 70
     2
  9
$DIMALTTD
 70
     2
  9
$DIMTXSTY
  7
STANDARD
  9
$DIMAUNIT
 70
     0
  9
$DIMADEC
 70
     0
  9
$DIMALTRND
 40
0.0
  9
$DIMAZIN
 70
     0
  9
$DIMDSEP
 70
    46
  9
$DIMATFIT
 70
     0
  9
$DIMFRAC
 70
     0
  9
$DIMLDRBLK
  1

  9
$DIMLUNIT
 70
     2
  9
$DIMLWD
 70
    -2
  9
$DIMLWE
 70
    -2
  9
$DIMTMOVE
 70
     0
  9
$DIMFXL
 40
1.0
  9
$DIMFXLON
 70
     0
  9
$DIMJOGANG
 40
0.7853981633974483
  9
$DIMTFILL
 70
     0
  9
$DIMTFILLCLR
 70
     0
  9
$DIMARCSYM
 70
     0
  9
$DIMLTYPE
  6

  9
$DIMLTEX1
  6

  9
$DIMLTEX2
  6

  9
$DIMTXTDIRECTION
 70
     0
  9
$LUNITS
 70
     2
  9
$LUPREC
 70
     4
  9
$SKETCHINC
 40
0.1
  9
$FILLETRAD
 40
0.0
  9
$AUNITS
 70
     0
  9
$AUPREC
 70
     0
  9
$MENU
  1
.
  9
$ELEVATION
 40
0.0
  9
$PELEVATION
 40
0.0
  9
$THICKNESS
 40
0.0
  9
$LIMCHECK
 70
     0
  9
$CHAMFERA
 40
0.0
  9
$CHAMFERB
 40
0.0
  9
$CHAMFERC
 40
0.0
  9
$CHAMFERD
 40
0.0
  9
$SKPOLY
 70
     0
  9
$TDCREATE
 40
2458446.405227107
  9
$TDUCREATE
 40
2458446.321893773
  9
$TDUPDATE
 40
2458977.399029745
  9
$TDUUPDATE
 40
2458977.315696412
  9
$TDINDWG
 40
0.0287720139
  9
$TDUSRTIMER
 40
0.0287709491
  9
$USRTIMER
 70
     1
  9
$ANGBASE
 50
0.0
  9
$ANGDIR
 70
     0
  9
$PDMODE
 70
     3
  9
$PDSIZE
 40
0.3125
  9
$PLINEWID
 40
0.0
  9
$SPLFRAME
 70
     0
  9
$SPLINETYPE
 70
     6
  9
$SPLINESEGS
 70
     8
  9
$HANDSEED
  5
22120
  9
$SURFTAB1
 70
     6
  9
$SURFTAB2
 70
     6
  9
$SURFTYPE
 70
     6
  9
$SURFU
 70
     6
  9
$SURFV
 70
     6
  9
$UCSBASE
  2

  9
$UCSNAME
  2

  9
$UCSORG
 10
0.0
 20
0.0
 30
0.0
  9
$UCSXDIR
 10
1.0
 20
0.0
 30
0.0
  9
$UCSYDIR
 10
0.0
 20
1.0
 30
0.0
  9
$UCSORTHOREF
  2

  9
$UCSORTHOVIEW
 70
     0
  9
$UCSORGTOP
 10
0.0
 20
0.0
 30
0.0
  9
$UCSORGBOTTOM
 10
0.0
 20
0.0
 30
0.0
  9
$UCSORGLEFT
 10
0.0
 20
0.0
 30
0.0
  9
$UCSORGRIGHT
 10
0.0
 20
0.0
 30
0.0
  9
$UCSORGFRONT
 10
0.0
 20
0.0
 30
0.0
  9
$UCSORGBACK
 10
0.0
 20
0.0
 30
0.0
  9
$PUCSBASE
  2

  9
$PUCSNAME
  2

  9
$PUCSORG
 10
0.0
 20
0.0
 30
0.0
  9
$PUCSXDIR
 10
1.0
 20
0.0
 30
0.0
  9
$PUCSYDIR
 10
0.0
 20
1.0
 30
0.0
  9
$PUCSORTHOREF
  2

  9
$PUCSORTHOVIEW
 70
     0
  9
$PUCSORGTOP
 10
0.0
 20
0.0
 30
0.0
  9
$PUCSORGBOTTOM
 10
0.0
 20
0.0
 30
0.0
  9
$PUCSORGLEFT
 10
0.0
 20
0.0
 30
0.0
  9
$PUCSORGRIGHT
 10
0.0
 20
0.0
 30
0.0
  9
$PUCSORGFRONT
 10
0.0
 20
0.0
 30
0.0
  9
$PUCSORGBACK
 10
0.0
 20
0.0
 30
0.0
  9
$USERI1
 70
     0
  9
$USERI2
 70
     0
  9
$USERI3
 70
     0
  9
$USERI4
 70
     0
  9
$USERI5
 70
     0
  9
$USERR1
 40
0.0
  9
$USERR2
 40
0.0
  9
$USERR3
 40
0.0
  9
$USERR4
 40
0.0
  9
$USERR5
 40
0.0
  9
$WORLDVIEW
 70
     1
  9
$SHADEDGE
 70
     3
  9
$SHADEDIF
 70
    70
  9
$TILEMODE
 70
     1
  9
$MAXACTVP
 70
    64
  9
$PINSBASE
 10
0.0
 20
0.0
 30
0.0
  9
$PLIMCHECK
 70
     0
  9
$PEXTMIN
 10
28.69141678810127
 20
19.6363175392151
 30
0.0
  9
$PEXTMAX
 10
258.2227510929107
 20
176.7268578529358
 30
0.0
  9
$PLIMMIN
 10
-5.027069091796875
 20
-6.805083274841307
  9
$PLIMMAX
 10
291.9412536621094
 20
203.1682443618775
  9
$UNITMODE
 70
     0
  9
$VISRETAIN
 70
     1
  9
$PLINEGEN
 70
     0
  9
$PSLTSCALE
 70
     1
  9
$TREEDEPTH
 70
  3020
  9
$CMLSTYLE
  2
STANDARD
  9
$CMLJUST
 70
     0
  9
$CMLSCALE
 40
1.0
  9
$PROXYGRAPHICS
 70
     1
  9
$MEASUREMENT
 70
     1
  9
$CELWEIGHT
370
    -1
  9
$ENDCAPS
280
     0
  9
$JOINSTYLE
280
     0
  9
$LWDISPLAY
290
     0
  9
$INSUNITS
 70
     0
  9
$HYPERLINKBASE
  1

  9
$STYLESHEET
  1
A1-A2.CTB
  9
$XEDIT
290
     1
  9
$CEPSNTYPE
380
     0
  9
$PSTYLEMODE
290
     1
  9
$FINGERPRINTGUID
  2
{6D3BC7B5-ACA7-406D-8A0D-A7DBBE093430}
  9
$VERSIONGUID
  2
{8AA66BB9-67D7-443A-ABCD-67AB7FBCADB2}
  9
$EXTNAMES
290
     1
  9
$PSVPSCALE
 40
0.0
  9
$OLESTARTUP
290
     0
  9
$SORTENTS
280
   127
  9
$INDEXCTL
280
     0
  9
$HIDETEXT
280
     0
  9
$XCLIPFRAME
280
     2
  9
$HALOGAP
280
     0
  9
$OBSCOLOR
 70
   257
  9
$OBSLTYPE
280
     0
  9
$INTERSECTIONDISPLAY
280
     0
  9
$INTERSECTIONCOLOR
 70
   257
  9
$DIMASSOC
280
     1
  9
$PROJECTNAME
  1

  9
$CAMERADISPLAY
290
     0
  9
$LENSLENGTH
 40
50.0
  9
$CAMERAHEIGHT
 40
0.0
  9
$STEPSPERSEC
 40
2.0
  9
$STEPSIZE
 40
6.0
  9
$3DDWFPREC
 40
2.0
  9
$PSOLWIDTH
 40
0.25
  9
$PSOLHEIGHT
 40
4.0
  9
$LOFTANG1
 40
1.570796326794896
  9
$LOFTANG2
 40
1.570796326794896
  9
$LOFTMAG1
 40
0.0
  9
$LOFTMAG2
 40
0.0
  9
$LOFTPARAM
 70
     7
  9
$LOFTNORMALS
280
     1
  9
$LATITUDE
 40
37.795
  9
$LONGITUDE
 40
-122.394
  9
$NORTHDIRECTION
 40
0.0
  9
$TIMEZONE
 70
 -8000
  9
$LIGHTGLYPHDISPLAY
280
     1
  9
$TILEMODELIGHTSYNCH
280
     1
  9
$CMATERIAL
347
318C
  9
$SOLIDHIST
280
     0
  9
$SHOWHIST
280
     1
  9
$DWFFRAME
280
     2
  9
$DGNFRAME
280
     0
  9
$REALWORLDSCALE
290
     1
  9
$INTERFERECOLOR
 62
     1
  9
$INTERFEREOBJVS
345
3199
  9
$INTERFEREVPVS
346
1B2E3
  9
$CSHADOW
280
     0
  9
$SHADOWPLANELOCATION
 40
0.0
  0
ENDSEC
  0
SECTION
  2
CLASSES
  0
CLASS
  1
ACDBDICTIONARYWDFLT
  2
AcDbDictionaryWithDefault
  3
ObjectDBX Classes
 90
        0
 91
        1
280
     0
281
     0
  0
CLASS
  1
MATERIAL
  2
AcDbMaterial
  3
ObjectDBX Classes
 90
     1153
 91
        3
280
     0
281
     0
  0
CLASS
  1
VISUALSTYLE
  2
AcDbVisualStyle
  3
ObjectDBX Classes
 90
     4095
 91
       26
280
     0
281
     0
  0
CLASS
  1
TABLESTYLE
  2
AcDbTableStyle
  3
ObjectDBX Classes
 90
     4095
 91
        1
280
     0
281
     0
  0
CLASS
  1
SORTENTSTABLE
  2
AcDbSortentsTable
  3
ObjectDBX Classes
 90
        0
 91
        2
280
     0
281
     0
  0
CLASS
  1
DICTIONARYVAR
  2
AcDbDictionaryVar
  3
ObjectDBX Classes
 90
        0
 91
       13
280
     0
281
     0
  0
CLASS
  1
EXACXREFPANELOBJECT
  2
ExAcXREFPanelObject
  3
EXAC_ESW
 90
     1025
 91
        0
280
     1
281
     0
  0
CLASS
  1
NPOCOLLECTION
  2
AcDbImpNonPersistentObjectsCollection
  3
ObjectDBX Classes
 90
     1153
 91
        0
280
     1
281
     0
  0
CLASS
  1
SCALE
  2
AcDbScale
  3
ObjectDBX Classes
 90
     1153
 91
       33
280
     0
281
     0
  0
CLASS
  1
MLEADERSTYLE
  2
AcDbMLeaderStyle
  3
ACDB_MLEADERSTYLE_CLASS
 90
     4095
 91
        1
280
     0
281
     0
  0
CLASS
  1
ACDBSECTIONVIEWSTYLE
  2
AcDbSectionViewStyle
  3
ObjectDBX Classes
 90
     1025
 91
        2
280
     0
281
     0
  0
CLASS
  1
ACDBDETAILVIEWSTYLE
  2
AcDbDetailViewStyle
  3
ObjectDBX Classes
 90
     1025
 91
        2
280
     0
281
     0
  0
CLASS
  1
CELLSTYLEMAP
  2
AcDbCellStyleMap
  3
ObjectDBX Classes
 90
     1152
 91
        2
280
     0
281
     0
  0
CLASS
  1
ACAD_EVALUATION_GRAPH
  2
AcDbEvalGraph
  3
ObjectDBX Classes
 90
     1153
 91
        0
280
     0
281
     0
  0
CLASS
  1
ACAECUSTOBJ
  2
AcAeEditorObj
  3
AcAeEditorObj
 90
     1024
 91
        0
280
     0
281
     0
  0
CLASS
  1
ACDB_DYNAMICBLOCKPURGEPREVENTER_VERSION
  2
AcDbDynamicBlockPurgePreventer
  3
ObjectDBX Classes
 90
     1153
 91
        0
280
     0
281
     0
  0
CLASS
  1
FIELD
  2
AcDbField
  3
ObjectDBX Classes
 90
     1152
 91
        0
280
     0
281
     0
  0
CLASS
  1
FIELDLIST
  2
AcDbFieldList
  3
ObjectDBX Classes
 90
     1152
 91
        1
280
     0
281
     0
  0
CLASS
  1
ACDB_ALDIMOBJECTCONTEXTDATA_CLASS
  2
AcDbAlignedDimensionObjectContextData
  3
ObjectDBX Classes
 90
     1153
 91
        0
280
     0
281
     0
  0
ENDSEC
  0
SECTION
  2
TABLES
  0
TABLE
  2
VPORT
  5
8
330
0
100
AcDbSymbolTable
 70
     1
  0
VPORT
  5
1F4
330
8
100
AcDbSymbolTableRecord
100
AcDbViewportTableRecord
  2
*ACTIVE
 70
     0
 10
0.0
 20
0.0
 11
1.0
 21
1.0
 12
-20.62573944561759
 22
1.047483001343493
 13
0.0
 23
0.0
 14
1.0
 24
1.0
 15
0.0
 25
0.0
 16
0.0
 26
0.0
 36
1.0
 17
0.0
 27
0.0
 37
0.0
 40
117.5034001110178
 41
2.698140200286123
 42
50.0
 43
0.0
 44
0.0
 50
0.0
 51
0.0
 71
     0
 72
  2000
 73
     1
 74
     1
 75
     0
 76
     0
 77
     0
 78
     0
281
     0
 65
     1
110
0.0
120
0.0
130
0.0
111
1.0
121
0.0
131
0.0
112
0.0
122
1.0
132
0.0
 79
     0
146
0.0
348
3195
 60
     3
 61
     5
292
     1
282
     1
141
0.0
142
0.0
 63
   250
421
  3355443
1001
ACAD_NAV_VCDISPLAY
1070
     3
  0
ENDTAB
  0
TABLE
  2
LTYPE
  5
5
330
0
100
AcDbSymbolTable
 70
     6
  0
LTYPE
  5
14
330
5
100
AcDbSymbolTableRecord
100
AcDbLinetypeTableRecord
  2
BYBLOCK
 70
     0
  3

 72
    65
 73
     0
 40
0.0
  0
LTYPE
  5
15
330
5
100
AcDbSymbolTableRecord
100
AcDbLinetypeTableRecord
  2
BYLAYER
 70
     0
  3

 72
    65
 73
     0
 40
0.0
  0
LTYPE
  5
16
330
5
100
AcDbSymbolTableRecord
100
AcDbLinetypeTableRecord
  2
CONTINUOUS
 70
     0
  3
Solid line
 72
    65
 73
     0
 40
0.0
  0
LTYPE
  5
9C48
330
5
100
AcDbSymbolTableRecord
100
AcDbLinetypeTableRecord
  2
CENTER
 70
     0
  3
____ _ ____ _ ____ _ ____ _ ____ _ ____ _ ____
 72
    65
 73
     4
 40
0.6
 49
0.375
 74
     0
 49
-0.075
 74
     0
 49
0.075
 74
     0
 49
-0.075
 74
     0
  0
LTYPE
  5
20A82
330
5
100
AcDbSymbolTableRecord
100
AcDbLinetypeTableRecord
  2
HIDDEN
 70
     0
  3
- - - - - - - - - - - - - - - - - - - -
 72
    65
 73
     2
 40
0.2
 49
0.1
 74
     0
 49
-0.1
 74
     0
  0
LTYPE
  5
21CB3
330
5
100
AcDbSymbolTableRecord
100
AcDbLinetypeTableRecord
  2
CENTER2
 70
     0
  3
Center (.5x) ___ _ ___ _ ___ _ ___ _ ___ _ ___
 72
    65
 73
     4
 40
28.57499999999999
 49
19.05
 74
     4
 75
     0
340
0
 46
1.0
 50
0.0
 44
0.0
 45
0.0
 49
-3.174999999999998
 74
     4
 75
     0
340
0
 46
1.0
 50
0.0
 44
0.0
 45
0.0
 49
3.174999999999998
 74
     4
 75
     0
340
0
 46
1.0
 50
0.0
 44
0.0
 45
0.0
 49
-3.174999999999998
 74
     4
 75
     0
340
0
 46
1.0
 50
0.0
 44
0.0
 45
0.0
  0
ENDTAB
  0
TABLE
  2
LAYER
  5
2
102
{ACAD_XDICTIONARY
360
422A
102
}
330
0
100
AcDbSymbolTable
 70
    16
  0
LAYER
  5
10
102
{ACAD_XDICTIONARY
360
1B2F5
102
}
330
2
100
AcDbSymbolTableRecord
100
AcDbLayerTableRecord
  2
0
 70
     0
 62
     7
  6
CONTINUOUS
370
    -3
390
318A
347
318E
  0
LAYER
  5
3F8C
102
{ACAD_XDICTIONARY
360
1B2F7
102
}
330
2
100
AcDbSymbolTableRecord
100
AcDbLayerTableRecord
  2
1
 70
     0
 62
     4
  6
BYBLOCK
370
    50
390
318A
347
318E
  0
LAYER
  5
3FA7
330
2
100
AcDbSymbolTableRecord
100
AcDbLayerTableRecord
  2
Defpoints
 70
     0
 62
     7
  6
CONTINUOUS
290
     0
370
    -3
390
318A
347
318E
  0
LAYER
  5
9C4A
102
{ACAD_XDICTIONARY
360
1B2F9
102
}
330
2
100
AcDbSymbolTableRecord
100
AcDbLayerTableRecord
  2
2
 70
     0
 62
     7
  6
BYBLOCK
370
    25
390
318A
347
318E
  0
LAYER
  5
9C4B
102
{ACAD_XDICTIONARY
360
1B2FB
102
}
330
2
100
AcDbSymbolTableRecord
100
AcDbLayerTableRecord
  2
4
 70
     0
 62
     2
  6
CENTER
370
    25
390
318A
347
318E
  0
LAYER
  5
9C4D
102
{ACAD_XDICTIONARY
360
1B2FD
102
}
330
2
100
AcDbSymbolTableRecord
100
AcDbLayerTableRecord
  2
CUT
 70
     0
 62
     1
  6
BYBLOCK
370
    25
390
318A
347
318E
  0
LAYER
  5
9C4E
102
{ACAD_XDICTIONARY
360
1B2FF
102
}
330
2
100
AcDbSymbolTableRecord
100
AcDbLayerTableRecord
  2
NOCUT
 70
     0
 62
     7
  6
BYBLOCK
370
    25
390
318A
347
318E
  0
LAYER
  5
9C4F
102
{ACAD_XDICTIONARY
360
1B301
102
}
330
2
100
AcDbSymbolTableRecord
100
AcDbLayerTableRecord
  2
SK2
 70
     0
 62
     7
  6
BYBLOCK
370
    25
390
318A
347
318E
  0
LAYER
  5
9C50
102
{ACAD_XDICTIONARY
360
1B303
102
}
330
2
100
AcDbSymbolTableRecord
100
AcDbLayerTableRecord
  2
SK1
 70
     0
 62
     4
  6
BYBLOCK
370
    50
390
318A
347
318E
  0
LAYER
  5
9C51
102
{ACAD_XDICTIONARY
360
1B305
102
}
330
2
100
AcDbSymbolTableRecord
100
AcDbLayerTableRecord
  2
SK4
 70
     0
 62
     2
  6
CENTER
370
    25
390
318A
347
318E
  0
LAYER
  5
13335
102
{ACAD_XDICTIONARY
360
1B307
102
}
330
2
100
AcDbSymbolTableRecord
100
AcDbLayerTableRecord
  2
INFTOTAL
 70
     0
 62
     9
  6
BYBLOCK
370
    18
390
318A
347
318E
1001
AcAecLayerStandard
1000

1000

  0
LAYER
  5
1686E
102
{ACAD_XDICTIONARY
360
1B309
102
}
330
2
100
AcDbSymbolTableRecord
100
AcDbLayerTableRecord
  2
SK6
 70
     0
 62
     5
  6
BYBLOCK
370
    -3
390
318A
347
318E
  0
LAYER
  5
21CB4
330
2
100
AcDbSymbolTableRecord
100
AcDbLayerTableRecord
  2
SK3
 70
     0
 62
     1
  6
HIDDEN
370
    35
390
318A
347
318E
  0
LAYER
  5
21CB5
330
2
100
AcDbSymbolTableRecord
100
AcDbLayerTableRecord
  2
SKVIEW1
 70
     0
 62
     4
  6
CONTINUOUS
370
    50
390
318A
347
318E
1001
AcAecLayerStandard
1000

1000

  0
LAYER
  5
21CB6
330
2
100
AcDbSymbolTableRecord
100
AcDbLayerTableRecord
  2
SKVIEW4
 70
     0
 62
     2
  6
CENTER2
370
    25
390
318A
347
318E
1001
AcAecLayerStandard
1000

1000

  0
ENDTAB
  0
TABLE
  2
STYLE
  5
3
330
0
100
AcDbSymbolTable
 70
     2
  0
STYLE
  5
11
330
3
100
AcDbSymbolTableRecord
100
AcDbTextStyleTableRecord
  2
STANDARD
 70
     0
 40
3.5
 41
0.8
 50
0.0
 71
     0
 42
3.5
  3
monos.ttf
  4

1001
ACAD
1000
Monospac821 BT
1071
       49
  0
ENDTAB
  0
TABLE
  2
VIEW
  5
6
330
0
100
AcDbSymbolTable
 70
     0
  0
ENDTAB
  0
TABLE
  2
UCS
  5
7
330
0
100
AcDbSymbolTable
 70
     0
  0
ENDTAB
  0
TABLE
  2
APPID
  5
9
330
0
100
AcDbSymbolTable
 70
    19
  0
APPID
  5
23B
330
9
100
AcDbSymbolTableRecord
100
AcDbRegAppTableRecord
  2
ACAD
 70
     0
  0
APPID
  5
3395
330
9
100
AcDbSymbolTableRecord
100
AcDbRegAppTableRecord
  2
ACAD_EXEMPT_FROM_CAD_STANDARDS
 70
     0
  0
APPID
  5
4229
330
9
100
AcDbSymbolTableRecord
100
AcDbRegAppTableRecord
  2
AcAecLayerStandard
 70
     0
  0
APPID
  5
9A1B
330
9
100
AcDbSymbolTableRecord
100
AcDbRegAppTableRecord
  2
ACAD_PSEXT
 70
     0
  0
APPID
  5
1B313
330
9
100
AcDbSymbolTableRecord
100
AcDbRegAppTableRecord
  2
ACAD_NAV_VCDISPLAY
 70
     0
  0
APPID
  5
1B355
330
9
100
AcDbSymbolTableRecord
100
AcDbRegAppTableRecord
  2
ACAD_MLEADERVER
 70
     0
  0
APPID
  5
1EC7F
330
9
100
AcDbSymbolTableRecord
100
AcDbRegAppTableRecord
  2
ACAUTHENVIRON
 70
     0
  0
APPID
  5
1EC82
330
9
100
AcDbSymbolTableRecord
100
AcDbRegAppTableRecord
  2
AcDbDynamicBlockTrueName
 70
     0
  0
APPID
  5
1EC83
330
9
100
AcDbSymbolTableRecord
100
AcDbRegAppTableRecord
  2
AcDbDynamicBlockGUID
 70
     0
  0
APPID
  5
20A85
330
9
100
AcDbSymbolTableRecord
100
AcDbRegAppTableRecord
  2
AcCmTransparency
 70
     0
  0
APPID
  5
20AE2
330
9
100
AcDbSymbolTableRecord
100
AcDbRegAppTableRecord
  2
ACAD_DSTYLE_DIMRADIAL_EXTENSION
 70
     0
  0
APPID
  5
20CB0
330
9
100
AcDbSymbolTableRecord
100
AcDbRegAppTableRecord
  2
AcadAnnotative
 70
     0
  0
APPID
  5
21667
330
9
100
AcDbSymbolTableRecord
100
AcDbRegAppTableRecord
  2
AcadAnnoMonitorAlertIconDisabled
 70
     0
  0
APPID
  5
21CB9
330
9
100
AcDbSymbolTableRecord
100
AcDbRegAppTableRecord
  2
ACAD_DSTYLE_DIMJAG
 70
     0
  0
APPID
  5
21CBA
330
9
100
AcDbSymbolTableRecord
100
AcDbRegAppTableRecord
  2
ACAD_DSTYLE_DIMTALN
 70
     0
  0
APPID
  5
21CBB
330
9
100
AcDbSymbolTableRecord
100
AcDbRegAppTableRecord
  2
ACAD_DSTYLE_DIM_LINETYPE
 70
     0
  0
APPID
  5
21CBC
330
9
100
AcDbSymbolTableRecord
100
AcDbRegAppTableRecord
  2
ACAD_DSTYLE_DIM_EXT1_LINETYPE
 70
     0
  0
APPID
  5
21CBD
330
9
100
AcDbSymbolTableRecord
100
AcDbRegAppTableRecord
  2
ACAD_DSTYLE_DIM_EXT2_LINETYPE
 70
     0
  0
APPID
  5
21CBE
330
9
100
AcDbSymbolTableRecord
100
AcDbRegAppTableRecord
  2
ACAD_DSTYLE_DIMARC_LENGTH_SYMBOL
 70
     0
  0
ENDTAB
  0
TABLE
  2
DIMSTYLE
  5
A
330
0
100
AcDbSymbolTable
 70
     3
100
AcDbDimStyleTable
 71
     1
340
243
  0
DIMSTYLE
105
243
102
{ACAD_REACTORS
330
21DF6
330
21DF5
330
21DF4
330
21DF3
330
21F10
102
}
330
A
100
AcDbSymbolTableRecord
100
AcDbDimStyleTableRecord
  2
STANDARD
 70
     0
 41
4.57
 47
0.01
 48
0.01
 73
     0
 74
     0
 77
     1
 78
     8
140
3.5
271
     3
272
     3
284
     8
289
     0
340
11
  0
ENDTAB
  0
TABLE
  2
BLOCK_RECORD
  5
1
330
0
100
AcDbSymbolTable
 70
    18
  0
BLOCK_RECORD
  5
1F
102
{ACAD_XDICTIONARY
360
339C
102
}
330
1
100
AcDbSymbolTableRecord
100
AcDbBlockTableRecord
  2
*MODEL_SPACE
340
31A6
 70
     0
280
     1
281
     0
  0
BLOCK_RECORD
  5
1B
330
1
100
AcDbSymbolTableRecord
100
AcDbBlockTableRecord
  2
*PAPER_SPACE
340
31A7
 70
     0
280
     1
281
     0
  0
BLOCK_RECORD
  5
1B3D7
102
{ACAD_XDICTIONARY
360
1DE81
102
}
330
1
100
AcDbSymbolTableRecord
100
AcDbBlockTableRecord
  2
cero_point
340
0
310
28000000200000002000000001002000000000000010000001000000010000000000000000000000302821FF302821FF302821FF302821FF302821FF302821FF302821FF302821FF302821FF302821FF302821FF302821FF302821FF302821FF302821FF302821FF302821FF302821FF302821FF302821FF302821FF302821
310
FF302821FF302821FF302821FF302821FF302821FF302821FF302821FF302821FF302821FF302821FF302821FF302821FF302821FF302821FF302821FF302821FF302821FF302821FF302821FF302821FF302821FF302821FF302821FF302821FF302821FFFFFF00FFFFFF00FFFFFF00FF302821FF302821FF302821FF3028
310
21FF302821FF302821FF302821FF302821FF302821FF302821FF302821FF302821FF302821FF302821FF302821FF302821FF302821FF302821FF302821FF302821FF302821FF302821FF302821FF302821FFFFFF00FFFFFF00FFFFFF00FFFFFF00FFFFFF00FFFFFF00FFFFFF00FF302821FFFFFF00FFFFFF00FFFFFF00FF30
310
2821FF302821FF302821FF302821FF302821FF302821FF302821FF302821FF302821FF302821FF302821FF302821FF302821FF302821FF302821FF302821FF302821FF302821FF302821FFFFFF00FFFFFF00FFFFFF00FFFFFF00FFFFFF00FFFFFF00FFFFFF00FFFFFF00FFFFFF00FF302821FF302821FF302821FF302821FF
310
FFFF00FFFFFF00FF302821FF302821FF302821FF302821FF302821FF302821FF302821FF302821FF302821FF302821FF302821FF302821FF302821FF302821FF302821FF302821FFFFFF00FFFFFF00FFFFFF00FFFFFF00FFFFFF00FFFFFF00FFFFFF00FFFFFF00FFFFFF00FFFFFF00FF302821FF302821FF302821FF302821
310
FF302821FF302821FFFFFF00FFFFFF00FF302821FF302821FF302821FF302821FF302821FF302821FF302821FF302821FF302821FF302821FF302821FF302821FF302821FFFFFF00FFFFFF00FFFFFF00FFFFFF00FFFFFF00FFFFFF00FFFFFF00FFFFFF00FFFFFF00FFFFFF00FFFFFF00FF302821FF302821FF302821FF3028
310
21FF302821FF302821FF302821FF302821FFFFFF00FF302821FF302821FF302821FF302821FF302821FF302821FF302821FF302821FF302821FF302821FF302821FFFFFF00FFFFFF00FFFFFF00FFFFFF00FFFFFF00FFFFFF00FFFFFF00FFFFFF00FFFFFF00FFFFFF00FFFFFF00FFFFFF00FF302821FF302821FF302821FF30
310
2821FF302821FF302821FF302821FF302821FF302821FFFFFF00FF302821FF302821FF302821FF302821FF302821FF302821FF302821FF302821FF302821FFFFFF00FFFFFF00FFFFFF00FFFFFF00FFFFFF00FFFFFF00FFFFFF00FFFFFF00FFFFFF00FFFFFF00FFFFFF00FFFFFF00FFFFFF00FF302821FF302821FF302821FF
310
302821FF302821FF302821FF302821FF302821FF302821FF302821FFFFFF00FF302821FF302821FF302821FF302821FF302821FF302821FF302821FFFFFF00FFFFFF00FFFFFF00FFFFFF00FFFFFF00FFFFFF00FFFFFF00FFFFFF00FFFFFF00FFFFFF00FFFFFF00FFFFFF00FFFFFF00FFFFFF00FF302821FF302821FF302821
310
FF302821FF302821FF302821FF302821FF302821FF302821FF302821FFFFFF00FF302821FF302821FF302821FF302821FF302821FF302821FF302821FFFFFF00FFFFFF00FFFFFF00FFFFFF00FFFFFF00FFFFFF00FFFFFF00FFFFFF00FFFFFF00FFFFFF00FFFFFF00FFFFFF00FFFFFF00FFFFFF00FF302821FF302821FF3028
310
21FF302821FF302821FF302821FF302821FF302821FF302821FF302821FF302821FFFFFF00FF302821FF302821FF302821FF302821FF302821FFFFFF00FFFFFF00FFFFFF00FFFFFF00FFFFFF00FFFFFF00FFFFFF00FFFFFF00FFFFFF00FFFFFF00FFFFFF00FFFFFF00FFFFFF00FFFFFF00FFFFFF00FF302821FF302821FF30
310
2821FF302821FF302821FF302821FF302821FF302821FF302821FF302821FF302821FF302821FFFFFF00FF302821FF302821FF302821FF302821FFFFFF00FFFFFF00FFFFFF00FFFFFF00FFFFFF00FFFFFF00FFFFFF00FFFFFF00FFFFFF00FFFFFF00FFFFFF00FFFFFF00FFFFFF00FFFFFF00FFFFFF00FF302821FF302821FF
310
302821FF302821FF302821FF302821FF302821FF302821FF302821FF302821FF302821FF302821FFFFFF00FF302821FF302821FF302821FF302821FFFFFF00FFFFFF00FFFFFF00FFFFFF00FFFFFF00FFFFFF00FFFFFF00FFFFFF00FFFFFF00FFFFFF00FFFFFF00FFFFFF00FFFFFF00FFFFFF00FFFFFF00FF302821FF302821
310
FF302821FF302821FF302821FF302821FF302821FF302821FF302821FF302821FF302821FF302821FFFFFF00FF302821FF302821FF302821FF302821FFFFFF00FFFFFF00FFFFFF00FFFFFF00FFFFFF00FFFFFF00FFFFFF00FFFFFF00FFFFFF00FFFFFF00FFFFFF00FFFFFF00FFFFFF00FFFFFF00FFFFFF00FF302821FF3028
310
21FF302821FF302821FF302821FF302821FF302821FF302821FF302821FF302821FF302821FF302821FFFFFF00FF302821FF302821FF302821FFFFFF00FFFFFF00FFFFFF00FFFFFF00FFFFFF00FFFFFF00FFFFFF00FFFFFF00FFFFFF00FFFFFF00FFFFFF00FFFFFF00FFFFFF00FFFFFF00FFFFFF00FFFFFF00FF302821FF30
310
2821FF302821FF302821FF302821FF302821FF302821FF302821FF302821FF302821FF302821FF302821FF302821FFFFFF00FF302821FF302821FFFFFF00FFFFFF00FFFFFF00FFFFFF00FFFFFF00FFFFFF00FFFFFF00FFFFFF00FFFFFF00FFFFFF00FFFFFF00FFFFFF00FFFFFF00FFFFFF00FFFFFF00FFFFFF00FFFFFF00FF
310
FFFF00FFFFFF00FFFFFF00FFFFFF00FFFFFF00FFFFFF00FFFFFF00FFFFFF00FFFFFF00FFFFFF00FFFFFF00FFFFFF00FFFFFF00FF302821FF302821FFFFFF00FF302821FF302821FF302821FF302821FF302821FF302821FF302821FF302821FF302821FF302821FF302821FF302821FF302821FF302821FFFFFF00FFFFFF00
310
FFFFFF00FFFFFF00FFFFFF00FFFFFF00FFFFFF00FFFFFF00FFFFFF00FFFFFF00FFFFFF00FFFFFF00FFFFFF00FFFFFF00FFFFFF00FF302821FF302821FFFFFF00FF302821FF302821FF302821FF302821FF302821FF302821FF302821FF302821FF302821FF302821FF302821FF302821FF302821FF302821FFFFFF00FFFFFF
310
00FFFFFF00FFFFFF00FFFFFF00FFFFFF00FFFFFF00FFFFFF00FFFFFF00FFFFFF00FFFFFF00FFFFFF00FFFFFF00FFFFFF00FF302821FF302821FF302821FF302821FFFFFF00FF302821FF302821FF302821FF302821FF302821FF302821FF302821FF302821FF302821FF302821FF302821FF302821FF302821FFFFFF00FFFF
310
FF00FFFFFF00FFFFFF00FFFFFF00FFFFFF00FFFFFF00FFFFFF00FFFFFF00FFFFFF00FFFFFF00FFFFFF00FFFFFF00FFFFFF00FF302821FF302821FF302821FF302821FFFFFF00FF302821FF302821FF302821FF302821FF302821FF302821FF302821FF302821FF302821FF302821FF302821FF302821FF302821FFFFFF00FF
310
FFFF00FFFFFF00FFFFFF00FFFFFF00FFFFFF00FFFFFF00FFFFFF00FFFFFF00FFFFFF00FFFFFF00FFFFFF00FFFFFF00FFFFFF00FF302821FF302821FF302821FF302821FFFFFF00FF302821FF302821FF302821FF302821FF302821FF302821FF302821FF302821FF302821FF302821FF302821FF302821FF302821FFFFFF00
310
FFFFFF00FFFFFF00FFFFFF00FFFFFF00FFFFFF00FFFFFF00FFFFFF00FFFFFF00FFFFFF00FFFFFF00FFFFFF00FFFFFF00FFFFFF00FF302821FF302821FF302821FF302821FF302821FFFFFF00FF302821FF302821FF302821FF302821FF302821FF302821FF302821FF302821FF302821FF302821FF302821FF302821FFFFFF
310
00FFFFFF00FFFFFF00FFFFFF00FFFFFF00FFFFFF00FFFFFF00FFFFFF00FFFFFF00FFFFFF00FFFFFF00FFFFFF00FFFFFF00FFFFFF00FF302821FF302821FF302821FF302821FF302821FFFFFF00FF302821FF302821FF302821FF302821FF302821FF302821FF302821FF302821FF302821FF302821FF302821FF302821FFFF
310
FF00FFFFFF00FFFFFF00FFFFFF00FFFFFF00FFFFFF00FFFFFF00FFFFFF00FFFFFF00FFFFFF00FFFFFF00FFFFFF00FFFFFF00FF302821FF302821FF302821FF302821FF302821FF302821FF302821FFFFFF00FF302821FF302821FF302821FF302821FF302821FF302821FF302821FF302821FF302821FF302821FF302821FF
310
FFFF00FFFFFF00FFFFFF00FFFFFF00FFFFFF00FFFFFF00FFFFFF00FFFFFF00FFFFFF00FFFFFF00FFFFFF00FFFFFF00FFFFFF00FF302821FF302821FF302821FF302821FF302821FF302821FF302821FFFFFF00FF302821FF302821FF302821FF302821FF302821FF302821FF302821FF302821FF302821FF302821FF302821
310
FFFFFF00FFFFFF00FFFFFF00FFFFFF00FFFFFF00FFFFFF00FFFFFF00FFFFFF00FFFFFF00FFFFFF00FFFFFF00FFFFFF00FF302821FF302821FF302821FF302821FF302821FF302821FF302821FF302821FF302821FFFFFF00FF302821FF302821FF302821FF302821FF302821FF302821FF302821FF302821FF302821FF3028
310
21FFFFFF00FFFFFF00FFFFFF00FFFFFF00FFFFFF00FFFFFF00FFFFFF00FFFFFF00FFFFFF00FFFFFF00FFFFFF00FF302821FF302821FF302821FF302821FF302821FF302821FF302821FF302821FF302821FF302821FF302821FFFFFF00FF302821FF302821FF302821FF302821FF302821FF302821FF302821FF302821FF30
310
2821FFFFFF00FFFFFF00FFFFFF00FFFFFF00FFFFFF00FFFFFF00FFFFFF00FFFFFF00FFFFFF00FFFFFF00FF302821FF302821FF302821FF302821FF302821FF302821FF302821FF302821FF302821FF302821FF302821FF302821FF302821FFFFFF00FF302821FF302821FF302821FF302821FF302821FF302821FF302821FF
310
302821FFFFFF00FFFFFF00FFFFFF00FFFFFF00FFFFFF00FFFFFF00FFFFFF00FFFFFF00FFFFFF00FF302821FF302821FF302821FF302821FF302821FF302821FF302821FF302821FF302821FF302821FF302821FF302821FF302821FF302821FF302821FFFFFF00FFFFFF00FF302821FF302821FF302821FF302821FF302821
310
FF302821FFFFFF00FFFFFF00FFFFFF00FFFFFF00FFFFFF00FFFFFF00FFFFFF00FFFFFF00FF302821FF302821FF302821FF302821FF302821FF302821FF302821FF302821FF302821FF302821FF302821FF302821FF302821FF302821FF302821FF302821FF302821FF302821FFFFFF00FFFFFF00FFFFFF00FFFFFF00FFFFFF
310
00FF302821FFFFFF00FFFFFF00FFFFFF00FFFFFF00FFFFFF00FFFFFF00FF302821FF302821FF302821FF302821FF302821FF302821FF302821FF302821FF302821FF302821FF302821FF302821FF302821FF302821FF302821FF302821FF302821FF302821FF302821FF302821FF302821FF302821FF302821FF302821FF30
310
2821FFFFFF00FFFFFF00FFFFFF00FF302821FF302821FF302821FF302821FF302821FF302821FF302821FF302821FF302821FF302821FF302821FF302821FF302821FF302821FF302821FF302821FF302821FF302821FF302821FF302821FF302821FF302821FF302821FF302821FF302821FF302821FF302821FF302821FF
310
302821FF302821FF302821FF302821FF302821FF302821FF302821FF302821FF302821FF302821FF302821FF302821FF302821FF302821FF302821FF302821FF302821FF302821FF
102
{BLKREFS
331
21DEB
102
}
 70
     0
280
     1
281
     1
  0
BLOCK_RECORD
  5
21F11
330
1
100
AcDbSymbolTableRecord
100
AcDbBlockTableRecord
  2
*D12
340
0
 70
     0
280
     1
281
     0
  0
BLOCK_RECORD
  5
21F1D
330
1
100
AcDbSymbolTableRecord
100
AcDbBlockTableRecord
  2
*D13
340
0
 70
     0
280
     1
281
     0
  0
BLOCK_RECORD
  5
21F29
330
1
100
AcDbSymbolTableRecord
100
AcDbBlockTableRecord
  2
*D14
340
0
 70
     0
280
     1
281
     0
  0
BLOCK_RECORD
  5
21F35
330
1
100
AcDbSymbolTableRecord
100
AcDbBlockTableRecord
  2
*D15
340
0
 70
     0
280
     1
281
     0
  0
BLOCK_RECORD
  5
21F43
330
1
100
AcDbSymbolTableRecord
100
AcDbBlockTableRecord
  2
*D16
340
0
 70
     0
280
     1
281
     0
  0
ENDTAB
  0
ENDSEC
  0
SECTION
  2
BLOCKS
  0
BLOCK
  5
20
330
1F
100
AcDbEntity
  8
0
100
AcDbBlockBegin
  2
*MODEL_SPACE
 70
     0
 10
0.0
 20
0.0
 30
0.0
  3
*MODEL_SPACE
  1

  0
ENDBLK
  5
21
330
1F
100
AcDbEntity
  8
0
100
AcDbBlockEnd
  0
BLOCK
  5
1C
330
1B
100
AcDbEntity
 67
     1
  8
0
100
AcDbBlockBegin
  2
*PAPER_SPACE
 70
     0
 10
0.0
 20
0.0
 30
0.0
  3
*PAPER_SPACE
  1

  0
ENDBLK
  5
1D
330
1B
100
AcDbEntity
 67
     1
  8
0
100
AcDbBlockEnd
  0
BLOCK
  5
1B3D8
330
1B3D7
100
AcDbEntity
  8
0
100
AcDbBlockBegin
  2
cero_point
 70
     0
 10
0.0
 20
0.0
 30
0.0
  3
cero_point
  1

  0
HATCH
  5
1B3DA
330
1B3D7
100
AcDbEntity
  8
1
  6
ByBlock
370
    50
100
AcDbHatch
 10
0.0
 20
0.0
 30
0.0
210
0.0
220
0.0
230
1.0
  2
SOLID
 70
     1
 71
     0
 91
        2
 92
        7
 72
     1
 73
     1
 93
        3
 10
-0.0000000000001137
 20
0.0
 42
0.0
 10
-2.950972054112752
 20
0.0
 42
0.4142135623730968
 10
-0.0000000000001137
 20
-2.950972054112583
 42
0.0
 97
        0
 92
        7
 72
     1
 73
     1
 93
        3
 10
-0.0000000000001137
 20
2.950972054112638
 42
0.0
 10
-0.0000000000001137
 20
0.0
 42
0.0
 10
2.950972054112526
 20
0.0
 42
0.4142135623730966
 97
        0
 75
     0
 76
     1
 47
0.1190009775223266
 98
        2
 10
-0.7445530588121301
 20
-0.9212244733764125
 10
1.279464601852737
 20
1.696796923046345
450
        0
451
        0
460
0.0
461
0.0
452
        0
462
0.0
453
        0
470

  0
LWPOLYLINE
  5
1B3DB
330
1B3D7
100
AcDbEntity
  8
1
  6
ByBlock
370
    50
100
AcDbPolyline
 90
        3
 70
     1
 43
0.0
 10
-0.0000000000001137
 20
0.0
 10
2.950972054112526
 20
0.0
 42
0.4142135623730966
 10
-0.0000000000001137
 20
2.950972054112638
  0
LINE
  5
1B3DC
330
1B3D7
100
AcDbEntity
  8
1
  6
ByBlock
370
    50
100
AcDbLine
 10
-0.0000000000001137
 20
-2.950972054112583
 30
0.0
 11
-0.0000000000001137
 21
2.950972054112638
 31
0.0
  0
LWPOLYLINE
  5
1B3DD
330
1B3D7
100
AcDbEntity
  8
1
  6
ByBlock
370
    50
100
AcDbPolyline
 90
        3
 70
     1
 43
0.0
 10
-0.0000000000001137
 20
-2.950972054112583
 10
-0.0000000000001137
 20
0.0
 10
-2.950972054112752
 20
0.0
 42
0.4142135623730966
  0
LINE
  5
1B3DE
330
1B3D7
100
AcDbEntity
  8
1
  6
ByBlock
370
    50
100
AcDbLine
 10
2.950972054112638
 20
0.0
 30
0.0
 11
-2.950972054112638
 21
0.0
 31
0.0
  0
CIRCLE
  5
1B3DF
330
1B3D7
100
AcDbEntity
  8
1
  6
ByBlock
370
    50
100
AcDbCircle
 10
-0.0000000000001137
 20
0.0
 30
0.0
 40
2.950972054112601
  0
ENDBLK
  5
1B3D9
330
1B3D7
100
AcDbEntity
  8
0
100
AcDbBlockEnd
  0
BLOCK
  5
21F12
330
21F11
100
AcDbEntity
  8
0
100
AcDbBlockBegin
  2
*D12
 70
     1
 10
0.0
 20
0.0
 30
0.0
  3
*D12
  1

  0
LINE
  5
220B3
330
21F11
100
AcDbEntity
  8
2
 62
     0
440
 16777216
370
    -2
100
AcDbLine
 10
29.98250000000417
 20
19.49999999999988
 30
0.0
 11
63.02425300226212
 21
19.49999999999987
 31
0.0
  0
LINE
  5
220B4
330
21F11
100
AcDbEntity
  8
2
 62
     0
440
 16777216
370
    -2
100
AcDbLine
 10
29.98250000000417
 20
-19.50000000000011
 30
0.0
 11
63.02425300226212
 21
-19.50000000000012
 31
0.0
  0
LINE
  5
220B5
330
21F11
100
AcDbEntity
  8
2
 62
     0
440
 16777216
370
    -2
100
AcDbLine
 10
62.84425300226212
 20
14.92999999999987
 30
0.0
 11
62.84425300226212
 21
-14.93000000000012
 31
0.0
  0
SOLID
  5
220B6
330
21F11
100
AcDbEntity
  8
2
 62
     0
440
 16777216
100
AcDbTrace
 10
62.08258633559545
 20
14.92999999999987
 30
0.0
 11
63.60591966892879
 21
14.92999999999987
 31
0.0
 12
62.84425300226213
 22
19.49999999999987
 32
0.0
 13
62.84425300226213
 23
19.49999999999987
 33
0.0
  0
SOLID
  5
220B7
330
21F11
100
AcDbEntity
  8
2
 62
     0
440
 16777216
100
AcDbTrace
 10
62.08258633559545
 20
-14.93000000000012
 30
0.0
 11
63.60591966892879
 21
-14.93000000000012
 31
0.0
 12
62.84425300226211
 22
-19.50000000000012
 32
0.0
 13
62.84425300226211
 23
-19.50000000000012
 33
0.0
  0
MTEXT
  5
220B8
330
21F11
100
AcDbEntity
  8
2
 62
     0
440
 16777216
100
AcDbMText
 10
60.8911117513837
 20
-0.0001312228257004
 30
0.0
 40
3.5
 41
0.0
 46
0.0
 71
     5
 72
     1
  1
\A1;%%c39
 11
0.0000000000000001
 21
1.0
 31
0.0
 73
     1
 44
1.0
  0
POINT
  5
220B9
330
21F11
100
AcDbEntity
  8
Defpoints
 62
     0
440
 16777216
100
AcDbPoint
 10
29.92000000000416
 20
19.49999999999988
 30
0.0
  0
POINT
  5
220BA
330
21F11
100
AcDbEntity
  8
Defpoints
 62
     0
440
 16777216
100
AcDbPoint
 10
29.92000000000416
 20
-19.50000000000011
 30
0.0
  0
POINT
  5
220BB
330
21F11
100
AcDbEntity
  8
Defpoints
 62
     0
440
 16777216
100
AcDbPoint
 10
62.84425300226211
 20
-19.50000000000012
 30
0.0
  0
ENDBLK
  5
21F13
330
21F11
100
AcDbEntity
  8
0
100
AcDbBlockEnd
  0
BLOCK
  5
21F1E
330
21F1D
100
AcDbEntity
  8
0
100
AcDbBlockBegin
  2
*D13
 70
     1
 10
0.0
 20
0.0
 30
0.0
  3
*D13
  1

  0
LINE
  5
220BC
330
21F1D
100
AcDbEntity
  8
2
 62
     0
440
 16777216
370
    -2
100
AcDbLine
 10
30.78249999998464
 20
9.449998439021081
 30
0.0
 11
49.02448900981335
 21
9.449542833275945
 31
0.0
  0
LINE
  5
220BD
330
21F1D
100
AcDbEntity
  8
2
 62
     0
440
 16777216
370
    -2
100
AcDbLine
 10
31.58249999998356
 20
-9.450001560978842
 30
0.0
 11
49.0240169703077
 21
-9.450437174405168
 31
0.0
  0
LINE
  5
220BE
330
21F1D
100
AcDbEntity
  8
2
 62
     0
440
 16777216
370
    -2
100
AcDbLine
 10
48.84437487109583
 20
4.879547330320384
 30
0.0
 11
48.84413110913749
 21
-4.880432680211417
 31
0.0
  0
SOLID
  5
220BF
330
21F1D
100
AcDbEntity
  8
2
 62
     0
440
 16777216
100
AcDbTrace
 10
48.08270820466673
 20
4.879566353449326
 30
0.0
 11
49.60604153752495
 21
4.87952830719144
 31
0.0
 12
48.84448900986949
 22
9.44954732889504
 32
0.0
 13
48.84448900986949
 23
9.44954732889504
 33
0.0
  0
SOLID
  5
220C0
330
21F1D
100
AcDbEntity
  8
2
 62
     0
440
 16777216
100
AcDbTrace
 10
48.08246444270839
 20
-4.880413657082475
 30
0.0
 11
49.6057977755666
 21
-4.88045170334036
 31
0.0
 12
48.84401697036384
 22
-9.450432678786073
 32
0.0
 13
48.84401697036384
 23
-9.450432678786073
 33
0.0
  0
MTEXT
  5
220C1
330
21F1D
100
AcDbEntity
  8
2
 62
     0
440
 16777216
100
AcDbMText
 10
46.94276103056117
 20
-0.0864745260785752
 30
0.0
 40
3.5
 41
0.0
 46
0.0
 71
     5
 72
     1
  1
\A1;18.9
 11
0.0000249756616314
 21
0.9999999996881081
 31
0.0
 73
     1
 44
1.0
  0
POINT
  5
220C2
330
21F1D
100
AcDbEntity
  8
Defpoints
 62
     0
440
 16777216
100
AcDbPoint
 10
30.72000000000413
 20
9.449999999999933
 30
0.0
  0
POINT
  5
220C3
330
21F1D
100
AcDbEntity
  8
Defpoints
 62
     0
440
 16777216
100
AcDbPoint
 10
31.52000000000306
 20
-9.44999999999999
 30
0.0
  0
POINT
  5
220C4
330
21F1D
100
AcDbEntity
  8
Defpoints
 62
     0
440
 16777216
100
AcDbPoint
 10
48.84401697036384
 20
-9.450432678786073
 30
0.0
  0
ENDBLK
  5
21F1F
330
21F1D
100
AcDbEntity
  8
0
100
AcDbBlockEnd
  0
BLOCK
  5
21F2A
330
21F29
100
AcDbEntity
  8
0
100
AcDbBlockBegin
  2
*D14
 70
     1
 10
0.0
 20
0.0
 30
0.0
  3
*D14
  1

  0
LINE
  5
220C5
330
21F29
100
AcDbEntity
  8
2
 62
     0
440
 16777216
370
    -2
100
AcDbLine
 10
35.18000104065569
 20
0.0624999999913364
 30
0.0
 11
35.18070300862749
 21
42.22162186588038
 31
0.0
  0
LINE
  5
220C6
330
21F29
100
AcDbEntity
  8
2
 62
     0
440
 16777216
370
    -2
100
AcDbLine
 10
0.0000010406563149
 20
19.1866529999912
 30
0.0
 11
0.0003845927999528
 21
42.22220763369699
 31
0.0
  0
LINE
  5
220C7
330
21F29
100
AcDbEntity
  8
2
 62
     0
440
 16777216
370
    -2
100
AcDbLine
 10
30.61070001218161
 20
42.04169795842075
 30
0.0
 11
4.570381595087083
 21
42.04213154120652
 31
0.0
  0
SOLID
  5
220C8
330
21F29
100
AcDbEntity
  8
2
 62
     0
440
 16777216
100
AcDbTrace
 10
30.61071269426751
 20
42.80336462498183
 30
0.0
 11
30.6106873300957
 21
41.28003129185965
 31
0.0
 12
35.18070001154811
 22
42.04162186590533
 32
0.0
 13
35.18070001154811
 23
42.04162186590533
 33
0.0
  0
SOLID
  5
220C9
330
21F29
100
AcDbEntity
  8
2
 62
     0
440
 16777216
100
AcDbTrace
 10
4.570394277172987
 20
42.80379820776761
 30
0.0
 11
4.57036891300118
 21
41.28046487464543
 31
0.0
 12
0.0003815957205708
 22
42.04220763372194
 32
0.0
 13
0.0003815957205708
 23
42.04220763372194
 33
0.0
  0
MTEXT
  5
220CA
330
21F29
100
AcDbEntity
  8
2
 62
     0
440
 16777216
100
AcDbMText
 10
17.59018812868493
 20
43.94340456620943
 30
0.0
 40
3.5
 41
0.0
 46
0.0
 71
     5
 72
     1
  1
\A1;35.18
 11
0.9999999998613814
 21
-0.000016650441011
 31
0.0
 73
     1
 44
1.0
  0
POINT
  5
220CB
330
21F29
100
AcDbEntity
  8
Defpoints
 62
     0
440
 16777216
100
AcDbPoint
 10
35.18000000000313
 20
0.0
 30
0.0
  0
POINT
  5
220CC
330
21F29
100
AcDbEntity
  8
Defpoints
 62
     0
440
 16777216
100
AcDbPoint
 10
0.0000000000037517
 20
19.12415299999986
 30
0.0
  0
POINT
  5
220CD
330
21F29
100
AcDbEntity
  8
Defpoints
 62
     0
440
 16777216
100
AcDbPoint
 10
0.0003815957205708
 20
42.04220763372194
 30
0.0
  0
ENDBLK
  5
21F2B
330
21F29
100
AcDbEntity
  8
0
100
AcDbBlockEnd
  0
BLOCK
  5
21F36
330
21F35
100
AcDbEntity
  8
0
100
AcDbBlockBegin
  2
*D15
 70
     1
 10
0.0
 20
0.0
 30
0.0
  3
*D15
  1

  0
LINE
  5
220CE
330
21F35
100
AcDbEntity
  8
2
 62
     0
440
 16777216
370
    -2
100
AcDbLine
 10
35.18000104065569
 20
0.0624999999913364
 30
0.0
 11
35.18051985377637
 21
31.22162186740502
 31
0.0
  0
LINE
  5
220CF
330
21F35
100
AcDbEntity
  8
2
 62
     0
440
 16777216
370
    -2
100
AcDbLine
 10
30.72000104065669
 20
18.76249999999126
 30
0.0
 11
30.72020849176698
 21
31.22169613355626
 31
0.0
  0
LINE
  5
220D0
330
21F35
100
AcDbEntity
  8
2
 62
     0
440
 16777216
370
    -2
100
AcDbLine
 10
39.75051685606351
 20
31.04154577491455
 30
0.0
 11
44.32051685543002
 21
31.04146968239914
 31
0.0
  0
LINE
  5
220D1
330
21F35
100
AcDbEntity
  8
2
 62
     0
440
 16777216
370
    -2
100
AcDbLine
 10
26.15020549532109
 20
31.04177222609663
 30
0.0
 11
12.12262292523465
 21
31.04200579153277
 31
0.0
  0
LINE
  5
220D2
330
21F35
100
AcDbEntity
  8
2
 62
     0
440
 16777216
370
    -2
100
AcDbLine
 10
35.18051685669699
 20
31.04162186742998
 30
0.0
 11
30.7202054946876
 21
31.04169613358121
 31
0.0
  0
SOLID
  5
220D3
330
21F35
100
AcDbEntity
  8
2
 62
     0
440
 16777216
100
AcDbTrace
 10
39.75052953814941
 20
31.80321244147564
 30
0.0
 11
39.7505041739776
 21
30.27987910835347
 31
0.0
 12
35.18051685669699
 22
31.04162186742998
 32
0.0
 13
35.18051685669699
 23
31.04162186742998
 33
0.0
  0
SOLID
  5
220D4
330
21F35
100
AcDbEntity
  8
2
 62
     0
440
 16777216
100
AcDbTrace
 10
26.15021817740699
 20
31.80343889265771
 30
0.0
 11
26.15019281323518
 21
30.28010555953554
 31
0.0
 12
30.7202054946876
 22
31.04169613358121
 32
0.0
 13
30.7202054946876
 23
31.04169613358121
 33
0.0
  0
MTEXT
  5
220D5
330
21F35
100
AcDbEntity
  8
2
 62
     0
440
 16777216
100
AcDbMText
 10
16.85144587123853
 20
32.94341686506884
 30
0.0
 40
3.5
 41
0.0
 46
0.0
 71
     5
 72
     1
  1
\A1;4.46
 11
0.9999999998613814
 21
-0.000016650441011
 31
0.0
 73
     1
 44
1.0
  0
POINT
  5
220D6
330
21F35
100
AcDbEntity
  8
Defpoints
 62
     0
440
 16777216
100
AcDbPoint
 10
35.18000000000313
 20
0.0
 30
0.0
  0
POINT
  5
220D7
330
21F35
100
AcDbEntity
  8
Defpoints
 62
     0
440
 16777216
100
AcDbPoint
 10
30.72000000000413
 20
18.69999999999993
 30
0.0
  0
POINT
  5
220D8
330
21F35
100
AcDbEntity
  8
Defpoints
 62
     0
440
 16777216
100
AcDbPoint
 10
30.7202054946876
 20
31.04169613358121
 30
0.0
  0
ENDBLK
  5
21F37
330
21F35
100
AcDbEntity
  8
0
100
AcDbBlockEnd
  0
BLOCK
  5
21F44
330
21F43
100
AcDbEntity
  8
0
100
AcDbBlockBegin
  2
*D16
 70
     1
 10
0.0
 20
0.0
 30
0.0
  3
*D16
  1

  0
LINE
  5
220D9
330
21F43
100
AcDbEntity
  8
SK2
 62
     0
440
 16777216
370
    -2
100
AcDbLine
 10
-15.56249999999625
 20
7.599999999999965
 30
0.0
 11
-31.04722024185815
 21
7.59999999999997
 31
0.0
  0
LINE
  5
220DA
330
21F43
100
AcDbEntity
  8
SK2
 62
     0
440
 16777216
370
    -2
100
AcDbLine
 10
-15.56249999999625
 20
-7.600000000000079
 30
0.0
 11
-31.04722024185815
 21
-7.600000000000075
 31
0.0
  0
LINE
  5
220DB
330
21F43
100
AcDbEntity
  8
SK2
 62
     0
440
 16777216
370
    -2
100
AcDbLine
 10
-30.86722024185815
 20
3.029999999999969
 30
0.0
 11
-30.86722024185815
 21
-3.030000000000075
 31
0.0
  0
SOLID
  5
220DC
330
21F43
100
AcDbEntity
  8
SK2
 62
     0
440
 16777216
100
AcDbTrace
 10
-31.62888690852482
 20
3.02999999999997
 30
0.0
 11
-30.10555357519149
 21
3.029999999999969
 31
0.0
 12
-30.86722024185815
 22
7.59999999999997
 32
0.0
 13
-30.86722024185815
 23
7.59999999999997
 33
0.0
  0
SOLID
  5
220DD
330
21F43
100
AcDbEntity
  8
SK2
 62
     0
440
 16777216
100
AcDbTrace
 10
-31.62888690852482
 20
-3.030000000000074
 30
0.0
 11
-30.10555357519149
 21
-3.030000000000075
 31
0.0
 12
-30.86722024185815
 22
-7.600000000000075
 32
0.0
 13
-30.86722024185815
 23
-7.600000000000075
 33
0.0
  0
MTEXT
  5
220DE
330
21F43
100
AcDbEntity
  8
SK2
 62
     0
440
 16777216
100
AcDbMText
 10
-32.82036149273658
 20
-0.000000000000014
 30
0.0
 40
3.5
 41
0.0
 46
0.0
 71
     5
 72
     1
  1
\A1;%%C15.2
 11
0.0000000000000001
 21
1.0
 31
0.0
 73
     1
 44
1.0
  0
POINT
  5
220DF
330
21F43
100
AcDbEntity
  8
Defpoints
 62
     0
440
 16777216
100
AcDbPoint
 10
-15.49999999999625
 20
7.599999999999965
 30
0.0
  0
POINT
  5
220E0
330
21F43
100
AcDbEntity
  8
Defpoints
 62
     0
440
 16777216
100
AcDbPoint
 10
-15.49999999999625
 20
-7.600000000000079
 30
0.0
  0
POINT
  5
220E1
330
21F43
100
AcDbEntity
  8
Defpoints
 62
     0
440
 16777216
100
AcDbPoint
 10
-30.86722024185815
 20
-7.600000000000075
 30
0.0
  0
ENDBLK
  5
21F45
330
21F43
100
AcDbEntity
  8
0
100
AcDbBlockEnd
  0
ENDSEC
  0
SECTION
  2
ENTITIES
  0
MTEXT
  5
211A0
330
1F
100
AcDbEntity
  8
SK6
100
AcDbMText
 10
9.610403728068433
 20
-38.19573784810831
 30
0.0
 40
3.5
 41
41.87058589293636
 46
0.0
 71
     2
 72
     1
  1
CD3900035YMR00
 73
     1
 44
1.0
1001
ACAD
1000
MTEXTBEGIN
1070
    73
1070
     1
1070
    44
1040
1.0
1070
    74
1070
     0
1000
MTEXTEND
  0
INSERT
  5
21DEB
330
1F
100
AcDbEntity
  8
1
100
AcDbBlockReference
  2
cero_point
 10
0.0000000000001137
 20
0.0
 30
0.0
  0
LINE
  5
21DEF
330
1F
100
AcDbEntity
  8
INFTOTAL
100
AcDbLine
 10
-123.4168505412679
 20
15.70420758956425
 30
0.0
 11
-123.4168505412679
 21
59.29592998580301
 31
0.0
  0
LINE
  5
21DF0
330
1F
100
AcDbEntity
  8
INFTOTAL
100
AcDbLine
 10
-123.4168505412679
 20
59.29592998580301
 30
0.0
 11
-67.01306417250896
 21
59.29592998580301
 31
0.0
  0
LINE
  5
21DF1
330
1F
100
AcDbEntity
  8
INFTOTAL
100
AcDbLine
 10
26.78490475382398
 20
-57.18173121138852
 30
0.0
 11
82.14368600490809
 21
-57.18173121138852
 31
0.0
  0
LINE
  5
21DF2
330
1F
100
AcDbEntity
  8
INFTOTAL
100
AcDbLine
 10
82.14368600490809
 20
-57.18173121138852
 30
0.0
 11
82.14368600490809
 21
-16.73361501479396
 31
0.0
  0
DIMENSION
  5
21DF3
330
1F
100
AcDbEntity
  8
2
100
AcDbDimension
280
     0
  2
*D12
 10
62.84425300226211
 20
-19.50000000000012
 30
0.0
 11
62.84425300226212
 21
-0.0001312228257007
 31
0.0
 70
   161
  1
%%c<>
 71
     5
 42
39.0
 73
     0
 74
     0
 75
     0
  3
STANDARD
100
AcDbAlignedDimension
 13
29.92000000000416
 23
19.49999999999988
 33
0.0
 14
29.92000000000416
 24
-19.50000000000011
 34
0.0
1001
ACAD_DSTYLE_DIMARC_LENGTH_SYMBOL
1070
   379
1070
     1
1001
ACAD_DSTYLE_DIM_LINETYPE
1070
   380
1005
14
1001
ACAD_DSTYLE_DIM_EXT1_LINETYPE
1070
   381
1005
14
1001
ACAD_DSTYLE_DIM_EXT2_LINETYPE
1070
   382
1005
14
1001
ACAD
1000
DSTYLE
1002
{
1070
   172
1070
     1
1002
}
  0
DIMENSION
  5
21DF4
330
1F
100
AcDbEntity
  8
2
100
AcDbDimension
280
     0
  2
*D13
 10
48.84401697036384
 20
-9.450432678786073
 30
0.0
 11
48.84425084022814
 21
-0.0865220170446719
 31
0.0
 70
   160
 71
     5
 42
18.89998001357586
 73
     0
 74
     0
 75
     0
  3
STANDARD
100
AcDbAlignedDimension
 13
30.72000000000412
 23
9.449999999999931
 33
0.0
 14
31.52000000000305
 24
-9.449999999999988
 34
0.0
 50
269.9985689999978
100
AcDbRotatedDimension
1001
ACAD_DSTYLE_DIMARC_LENGTH_SYMBOL
1070
   379
1070
     1
1001
ACAD_DSTYLE_DIM_LINETYPE
1070
   380
1005
14
1001
ACAD_DSTYLE_DIM_EXT1_LINETYPE
1070
   381
1005
14
1001
ACAD_DSTYLE_DIM_EXT2_LINETYPE
1070
   382
1005
14
1001
ACAD
1000
DSTYLE
1002
{
1070
   172
1070
     1
1002
}
  0
DIMENSION
  5
21DF5
330
1F
100
AcDbEntity
  8
2
100
AcDbDimension
280
     0
  2
*D14
 10
0.0003815957205708
 20
42.04220763372194
 30
0.0
 11
17.59015646804102
 21
42.04191475621299
 31
0.0
 70
   160
 71
     5
 42
35.18031842070419
 73
     0
 74
     0
 75
     0
  3
STANDARD
100
AcDbAlignedDimension
 13
35.18000000000313
 23
0.0
 33
0.0
 14
0.0000000000037517
 24
19.12415299999986
 34
0.0
 50
179.999046000003
100
AcDbRotatedDimension
1001
ACAD_DSTYLE_DIMARC_LENGTH_SYMBOL
1070
   379
1070
     1
1001
ACAD_DSTYLE_DIM_LINETYPE
1070
   380
1005
14
1001
ACAD_DSTYLE_DIM_EXT1_LINETYPE
1070
   381
1005
14
1001
ACAD_DSTYLE_DIM_EXT2_LINETYPE
1070
   382
1005
14
1001
ACAD
1000
DSTYLE
1002
{
1070
   172
1070
     1
1002
}
  0
DIMENSION
  5
21DF6
330
1F
100
AcDbEntity
  8
2
100
AcDbDimension
280
     0
  2
*D15
 10
30.7202054946876
 20
31.04169613358121
 30
0.0
 11
16.85141421059461
 21
31.04192705507241
 31
0.0
 70
   160
 71
     5
 42
4.460311362627674
 73
     0
 74
     0
 75
     0
  3
STANDARD
100
AcDbAlignedDimension
 13
35.18000000000313
 23
0.0
 33
0.0
 14
30.72000000000412
 24
18.69999999999993
 34
0.0
 50
179.999046000003
100
AcDbRotatedDimension
1001
ACAD_DSTYLE_DIMARC_LENGTH_SYMBOL
1070
   379
1070
     1
1001
ACAD_DSTYLE_DIM_LINETYPE
1070
   380
1005
14
1001
ACAD_DSTYLE_DIM_EXT1_LINETYPE
1070
   381
1005
14
1001
ACAD_DSTYLE_DIM_EXT2_LINETYPE
1070
   382
1005
14
1001
ACAD
1000
DSTYLE
1002
{
1070
   172
1070
     1
1002
}
  0
LINE
  5
21DF7
330
1F
100
AcDbEntity
  8
SK4
100
AcDbLine
 10
-20.02212299999633
 20
0.0
 30
0.0
 11
0.0000000000037517
 21
0.0
 31
0.0
  0
LINE
  5
21DF8
330
1F
100
AcDbEntity
  8
SK3
100
AcDbLine
 10
0.0000000000037517
 20
9.499999999999886
 30
0.0
 11
29.71000000000413
 21
9.499999999999886
 31
0.0
  0
LINE
  5
21DF9
330
1F
100
AcDbEntity
  8
SK3
100
AcDbLine
 10
0.0000000000037517
 20
5.699999999999874
 30
0.0
 11
29.71000000000413
 21
5.699999999999874
 31
0.0
  0
LINE
  5
21DFA
330
1F
100
AcDbEntity
  8
SK3
100
AcDbLine
 10
0.0000000000037517
 20
-9.500000000000056
 30
0.0
 11
29.71000000000413
 21
-9.500000000000056
 31
0.0
  0
LINE
  5
21DFB
330
1F
100
AcDbEntity
  8
SK3
100
AcDbLine
 10
0.0000000000037517
 20
-5.700000000000045
 30
0.0
 11
29.71000000000413
 21
-5.700000000000045
 31
0.0
  0
LINE
  5
21DFF
330
1F
100
AcDbEntity
  8
SKVIEW1
100
AcDbLine
 10
-77.62689999999634
 20
18.70000099999993
 30
0.0
 11
-83.38749999999619
 21
18.70000099999993
 31
0.0
  0
LINE
  5
21E00
330
1F
100
AcDbEntity
  8
SKVIEW1
100
AcDbLine
 10
-88.18694999999616
 20
-8.68000000000012
 30
0.0
 11
-82.42694999999628
 21
-8.68000000000012
 31
0.0
  0
CIRCLE
  5
21E02
330
1F
100
AcDbEntity
  8
1
100
AcDbCircle
 10
24.91000000000315
 20
13.68999999999994
 30
0.0
 40
2.225
  0
CIRCLE
  5
21E03
330
1F
100
AcDbEntity
  8
1
100
AcDbCircle
 10
24.91000000000315
 20
13.68999999999994
 30
0.0
 40
2.783567999999998
  0
LINE
  5
21E04
330
1F
100
AcDbEntity
  8
1
100
AcDbLine
 10
24.68000000000313
 20
7.879999999999938
 30
0.0
 11
19.90000000000305
 21
7.879999999999938
 31
0.0
  0
LINE
  5
21E05
330
1F
100
AcDbEntity
  8
1
100
AcDbLine
 10
30.72000000000412
 20
18.69999999999993
 30
0.0
 11
30.72000000000412
 21
9.449999999999931
 31
0.0
  0
ARC
  5
21E06
330
1F
100
AcDbEntity
  8
1
100
AcDbCircle
 10
29.92000000000416
 20
18.69999999999993
 30
0.0
 40
0.8
100
AcDbArc
 50
0.0
 51
90.0
  0
LINE
  5
21E07
330
1F
100
AcDbEntity
  8
1
100
AcDbLine
 10
19.90000000000305
 20
19.49999999999988
 30
0.0
 11
29.92000000000416
 21
19.49999999999988
 31
0.0
  0
ARC
  5
21E08
330
1F
100
AcDbEntity
  8
1
100
AcDbCircle
 10
19.90000000000305
 20
18.69999999999993
 30
0.0
 40
0.8
100
AcDbArc
 50
90.0
 51
180.0
  0
LINE
  5
21E09
330
1F
100
AcDbEntity
  8
1
100
AcDbLine
 10
19.10000000000411
 20
8.679999999999949
 30
0.0
 11
19.10000000000411
 21
18.69999999999993
 31
0.0
  0
ARC
  5
21E0A
330
1F
100
AcDbEntity
  8
1
100
AcDbCircle
 10
19.90000000000305
 20
8.679999999999949
 30
0.0
 40
0.8
100
AcDbArc
 50
180.0
 51
270.0
  0
ARC
  5
21E12
330
1F
100
AcDbEntity
  8
1
100
AcDbCircle
 10
29.92000000000416
 20
-8.68000000000012
 30
0.0
 40
0.8
100
AcDbArc
 50
0.0
 51
90.0
  0
LINE
  5
21E13
330
1F
100
AcDbEntity
  8
1
100
AcDbLine
 10
30.72000000000412
 20
-18.7000000000001
 30
0.0
 11
30.72000000000412
 21
-8.68000000000012
 31
0.0
  0
ARC
  5
21E14
330
1F
100
AcDbEntity
  8
1
100
AcDbCircle
 10
29.92000000000416
 20
-18.7000000000001
 30
0.0
 40
0.8
100
AcDbArc
 50
270.0
 51
0.0
  0
LINE
  5
21E15
330
1F
100
AcDbEntity
  8
1
100
AcDbLine
 10
19.90000000000305
 20
-19.50000000000011
 30
0.0
 11
29.92000000000416
 21
-19.50000000000011
 31
0.0
  0
ARC
  5
21E16
330
1F
100
AcDbEntity
  8
1
100
AcDbCircle
 10
19.90000000000305
 20
-18.7000000000001
 30
0.0
 40
0.8
100
AcDbArc
 50
180.0
 51
270.0
  0
LINE
  5
21E17
330
1F
100
AcDbEntity
  8
1
100
AcDbLine
 10
19.10000000000411
 20
-18.64195899999998
 30
0.0
 11
19.10000000000411
 21
-18.7000000000001
 31
0.0
  0
ARC
  5
21E18
330
1F
100
AcDbEntity
  8
1
100
AcDbCircle
 10
19.90000000000305
 20
-18.7000000000001
 30
0.0
 40
0.125404
100
AcDbArc
 50
180.0
 51
270.0000010000014
  0
LINE
  5
21E19
330
1F
100
AcDbEntity
  8
1
100
AcDbLine
 10
19.90000000000305
 20
-18.8254040000001
 30
0.0
 11
29.92000000000416
 21
-18.8254040000001
 31
0.0
  0
ARC
  5
21E1A
330
1F
100
AcDbEntity
  8
1
100
AcDbCircle
 10
29.92000000000416
 20
-18.7000000000001
 30
0.0
 40
0.125404
100
AcDbArc
 50
270.0
 51
0.0000010000014034
  0
LINE
  5
21E1B
330
1F
100
AcDbEntity
  8
1
100
AcDbLine
 10
30.04540400000315
 20
-18.7000000000001
 30
0.0
 11
30.04540400000315
 21
-8.68000000000012
 31
0.0
  0
ARC
  5
21E1C
330
1F
100
AcDbEntity
  8
1
100
AcDbCircle
 10
29.92000000000416
 20
-8.68000000000012
 30
0.0
 40
0.125404
100
AcDbArc
 50
0.0000010000014034
 51
89.9999989999986
  0
LINE
  5
21E1D
330
1F
100
AcDbEntity
  8
1
100
AcDbLine
 10
29.92000000000416
 20
-8.55459600000006
 30
0.0
 11
29.71999100000414
 21
-8.55459600000006
 31
0.0
  0
LINE
  5
21E1E
330
1F
100
AcDbEntity
  8
1
100
AcDbLine
 10
19.77459600000304
 20
-18.64195500000005
 30
0.0
 11
19.77459600000304
 21
-18.7000000000001
 31
0.0
  0
LINE
  5
21E1F
330
1F
100
AcDbEntity
  8
1
100
AcDbLine
 10
29.92000000000416
 20
-8.55459600000006
 30
0.0
 11
29.92000000000416
 21
-7.880000000000052
 31
0.0
  0
LINE
  5
21E20
330
1F
100
AcDbEntity
  8
1
100
AcDbLine
 10
30.04540400000315
 20
-8.68000000000012
 30
0.0
 11
30.72000000000412
 21
-8.68000000000012
 31
0.0
  0
LINE
  5
21E21
330
1F
100
AcDbEntity
  8
1
100
AcDbLine
 10
30.04540400000315
 20
-18.7000000000001
 30
0.0
 11
30.72000000000412
 21
-18.7000000000001
 31
0.0
  0
LINE
  5
21E22
330
1F
100
AcDbEntity
  8
1
100
AcDbLine
 10
29.92000000000416
 20
-18.8254040000001
 30
0.0
 11
29.92000000000416
 21
-19.50000000000011
 31
0.0
  0
LINE
  5
21E23
330
1F
100
AcDbEntity
  8
1
100
AcDbLine
 10
19.90000000000305
 20
-18.8254040000001
 30
0.0
 11
19.90000000000305
 21
-19.50000000000011
 31
0.0
  0
LINE
  5
21E24
330
1F
100
AcDbEntity
  8
1
100
AcDbLine
 10
19.77459600000304
 20
-18.7000000000001
 30
0.0
 11
19.10000000000411
 21
-18.7000000000001
 31
0.0
  0
ARC
  5
21E25
330
1F
100
AcDbEntity
  8
1
100
AcDbCircle
 10
29.92000000000416
 20
-18.7000000000001
 30
0.0
 40
0.8
100
AcDbArc
 50
270.0
 51
0.0
  0
LINE
  5
21E26
330
1F
100
AcDbEntity
  8
1
100
AcDbLine
 10
29.92000000000416
 20
-19.50000000000011
 30
0.0
 11
19.90000000000305
 21
-19.50000000000011
 31
0.0
  0
ARC
  5
21E27
330
1F
100
AcDbEntity
  8
1
100
AcDbCircle
 10
19.90000000000305
 20
-18.7000000000001
 30
0.0
 40
0.8
100
AcDbArc
 50
180.0
 51
270.0
  0
LINE
  5
21E28
330
1F
100
AcDbEntity
  8
1
100
AcDbLine
 10
29.71999200000312
 20
-7.880000000000052
 30
0.0
 11
29.92000000000416
 21
-7.880000000000052
 31
0.0
  0
ARC
  5
21E29
330
1F
100
AcDbEntity
  8
1
100
AcDbCircle
 10
29.92000000000416
 20
-8.68000000000012
 30
0.0
 40
0.8
100
AcDbArc
 50
0.0
 51
90.0
  0
LINE
  5
21E2A
330
1F
100
AcDbEntity
  8
1
100
AcDbLine
 10
30.72000000000412
 20
-8.68000000000012
 30
0.0
 11
30.72000000000412
 21
-18.7000000000001
 31
0.0
  0
LINE
  5
21E2B
330
1F
100
AcDbEntity
  8
1
100
AcDbLine
 10
18.06500000000415
 20
4.551277000000027
 30
0.0
 11
18.06500000000415
 21
3.92953999999986
 31
0.0
  0
ARC
  5
21E2E
330
1F
100
AcDbEntity
  8
1
100
AcDbCircle
 10
30.54359700000418
 20
-0.0658480000001305
 30
0.0
 40
1.700974
100
AcDbArc
 50
108.8681460000005
 51
118.9601170000008
  0
ARC
  5
21E2F
330
1F
100
AcDbEntity
  8
1
100
AcDbCircle
 10
27.16277200000309
 20
10.03186499999992
 30
0.0
 40
8.947019
100
AcDbArc
 50
288.4432380000027
 51
295.7877890000024
  0
LINE
  5
21E30
330
1F
100
AcDbEntity
  8
1
100
AcDbLine
 10
31.05482500000415
 20
1.976386999999931
 30
0.0
 11
29.7200000000031
 21
2.126527999999893
 31
0.0
  0
ARC
  5
21E31
330
1F
100
AcDbEntity
  8
1
100
AcDbCircle
 10
37.59427000000312
 20
4.003086999999936
 30
0.0
 40
4.886091999999996
100
AcDbArc
 50
189.0343660000008
 51
192.8053420000012
  0
ARC
  5
21E32
330
1F
100
AcDbEntity
  8
1
100
AcDbCircle
 10
-210.2249009999962
 20
-35.89917500000014
 30
0.0
 40
246.125357
100
AcDbArc
 50
9.149129000001671
 51
9.977875000001343
  0
LINE
  5
21E33
330
1F
100
AcDbEntity
  8
1
100
AcDbLine
 10
32.17817900000421
 20
6.746521000000029
 30
0.0
 11
31.52000000000305
 21
7.234200999999927
 31
0.0
  0
ARC
  5
21E34
330
1F
100
AcDbEntity
  8
1
100
AcDbCircle
 10
2.031325000003675
 20
-163.625764
 30
0.0
 40
173.385999
100
AcDbArc
 50
80.20780399999793
 51
81.10599999999779
  0
ARC
  5
21E35
330
1F
100
AcDbEntity
  8
1
100
AcDbCircle
 10
39.73541500000306
 20
-86.59229700000013
 30
0.0
 40
94.895688
100
AcDbArc
 50
96.59416099999718
 51
99.12865999999901
  0
ARC
  5
21E36
330
1F
100
AcDbEntity
  8
1
100
AcDbCircle
 10
15.92402000000368
 20
32.58009599999986
 30
0.0
 40
34.139738
100
AcDbArc
 50
296.3082890000035
 51
299.6824029999967
  0
LINE
  5
21E37
330
1F
100
AcDbEntity
  8
1
100
AcDbLine
 10
28.83800000000315
 20
7.675437999999871
 30
0.0
 11
28.83800000000315
 21
9.449999999999931
 31
0.0
  0
LINE
  5
21E38
330
1F
100
AcDbEntity
  8
1
100
AcDbLine
 10
24.68000000000313
 20
8.335867000000007
 30
0.0
 11
28.83800000000315
 21
9.449999999999931
 31
0.0
  0
LINE
  5
21E3C
330
1F
100
AcDbEntity
  8
1
100
AcDbLine
 10
29.7200000000031
 20
0.6216989999998646
 30
0.0
 11
34.98587000000418
 21
-0.2299399999999991
 31
0.0
  0
ELLIPSE
  5
21E3D
330
1F
100
AcDbEntity
  8
1
100
AcDbEllipse
 10
35.52630600000305
 20
0.0031449999999609
 30
0.0
 11
9.173869132995607
 21
-1.432717919349669
 31
0.0
210
0.0
220
0.0
230
1.0
 40
0.604563
 41
4.124824673266457
 42
4.502526452585623
  0
LINE
  5
21E3E
330
1F
100
AcDbEntity
  8
1
100
AcDbLine
 10
32.76880200000415
 20
-5.118366000000037
 30
0.0
 11
32.76799300000312
 21
-5.122878000000071
 31
0.0
  0
ARC
  5
21E3F
330
1F
100
AcDbEntity
  8
1
100
AcDbCircle
 10
35.72218600000417
 20
-5.63212100000004
 30
0.0
 40
2.997495999999998
100
AcDbArc
 50
154.3630370000047
 51
170.1318779999956
  0
LINE
  5
21E40
330
1F
100
AcDbEntity
  8
1
100
AcDbLine
 10
33.61456200000305
 20
-3.112681000000065
 30
0.0
 11
33.0199950000042
 21
-4.335304000000121
 31
0.0
  0
SPLINE
  5
21E41
330
1F
100
AcDbEntity
  8
1
100
AcDbSpline
210
0.0
220
0.0
230
1.0
 70
     8
 71
     5
 72
    30
 73
    24
 74
     0
 42
0.000000001
 43
0.0000000001
 40
0.0
 40
0.0
 40
0.0
 40
0.0
 40
0.0
 40
0.0
 40
15.87823614423941
 40
15.87823614423941
 40
15.87823614423941
 40
31.75825904431128
 40
31.75825904431128
 40
31.75825904431128
 40
42.41221977918772
 40
42.41221977918772
 40
42.41221977918772
 40
45.954764990506
 40
45.954764990506
 40
45.954764990506
 40
48.69168948895307
 40
48.69168948895307
 40
48.69168948895307
 40
50.74350382007434
 40
50.74350382007434
 40
50.74350382007434
 40
53.27281921213383
 40
53.27281921213383
 40
53.27281921213383
 40
53.27281921213383
 40
53.27281921213383
 40
53.27281921213383
 10
34.98586993644517
 20
-0.2299404889985226
 30
0.0
 10
34.97758820578019
 20
-0.2516549297016581
 30
0.0
 10
34.96804020048512
 20
-0.2758489554086623
 30
0.0
 10
34.95690287300022
 20
-0.3031898847390266
 30
0.0
 10
34.93037171531421
 20
-0.3664251540541841
 30
0.0
 10
34.89108997643211
 20
-0.4554723723067014
 30
0.0
 10
34.86805155107209
 20
-0.5066853684942317
 30
0.0
 10
34.81831368481028
 20
-0.6155566861860962
 30
0.0
 10
34.73294605933916
 20
-0.7973653866358746
 30
0.0
 10
34.69138890346517
 20
-0.8852086077044418
 30
0.0
 10
34.6211038959292
 20
-1.032923627507841
 30
0.0
 10
34.50677549194916
 20
-1.270983011166151
 30
0.0
 10
34.47496051196925
 20
-1.33712710996923
 30
0.0
 10
34.4112604837311
 20
-1.469357995885388
 30
0.0
 10
34.33104728625017
 20
-1.635468196084502
 30
0.0
 10
34.29125763426714
 20
-1.717798206740724
 30
0.0
 10
34.21550511067926
 20
-1.874374494021424
 30
0.0
 10
34.12415903400324
 20
-2.062940192813243
 30
0.0
 10
34.08215418184421
 20
-2.149609836009517
 30
0.0
 10
33.97956355650411
 20
-2.361150458648069
 30
0.0
 10
33.85585718335619
 20
-2.616004917009888
 30
0.0
 10
33.78375386200719
 20
-2.764484306560746
 30
0.0
 10
33.70225868638818
 20
-2.932231843220961
 30
0.0
 10
33.61456195646815
 20
-3.11268069443588
 30
0.0
  0
SPLINE
  5
21E42
330
1F
100
AcDbEntity
  8
1
100
AcDbSpline
210
0.0
220
0.0
230
1.0
 70
     8
 71
     5
 72
    39
 73
    33
 74
     0
 42
0.000000001
 43
0.0000000001
 40
0.0
 40
0.0
 40
0.0
 40
0.0
 40
0.0
 40
0.0
 40
36.78649159672217
 40
36.78649159672217
 40
36.78649159672217
 40
86.80724352067144
 40
86.80724352067144
 40
86.80724352067144
 40
112.1205084207909
 40
112.1205084207909
 40
112.1205084207909
 40
117.6015927955166
 40
117.6015927955166
 40
117.6015927955166
 40
121.147447246912
 40
121.147447246912
 40
121.147447246912
 40
122.0081998518068
 40
122.0081998518068
 40
122.0081998518068
 40
122.8877399299913
 40
122.8877399299913
 40
122.8877399299913
 40
123.3244900438935
 40
123.3244900438935
 40
123.3244900438935
 40
123.7612401577958
 40
123.7612401577958
 40
123.7612401577958
 40
124.6256437540514
 40
124.6256437540514
 40
124.6256437540514
 40
124.6256437540514
 40
124.6256437540514
 40
124.6256437540514
 10
34.98586993644517
 20
-0.2299404889985226
 30
0.0
 10
35.00505902383418
 20
-0.1796272975901729
 30
0.0
 10
35.01354008232522
 20
-0.1472570155080461
 30
0.0
 10
35.02108452518906
 20
-0.1157735828720661
 30
0.0
 10
35.03110255219122
 20
-0.051579902468859
 30
0.0
 10
35.02945014395425
 20
0.0052738520811886
 30
0.0
 10
35.02544221417122
 20
0.0375922260726611
 30
0.0
 10
35.01552857437128
 20
0.0912898917865164
 30
0.0
 10
34.98602517674317
 20
0.1742258313966545
 30
0.0
 10
34.97397242566012
 20
0.2031567463191664
 30
0.0
 10
34.9568935368992
 20
0.2453746631529725
 30
0.0
 10
34.91554279519608
 20
0.3260827936126702
 30
0.0
 10
34.90716556513917
 20
0.3420477600428171
 30
0.0
 10
34.89140012454516
 20
0.371439512737652
 30
0.0
 10
34.86919347366609
 20
0.4106664390202468
 30
0.0
 10
34.86035279392115
 20
0.4258637675434898
 30
0.0
 10
34.84645382868019
 20
0.4496896730676668
 30
0.0
 10
34.82555055481919
 20
0.483753137495512
 30
0.0
 10
34.82115934858507
 20
0.4908568328771708
 30
0.0
 10
34.81139624483513
 20
0.5064958720429332
 30
0.0
 10
34.79919928500726
 20
0.525638185149262
 30
0.0
 10
34.79290281634508
 20
0.5354122989493817
 30
0.0
 10
34.78156228235218
 20
0.5529407497317039
 30
0.0
 10
34.7627799578421
 20
0.5809581984400439
 30
0.0
 10
34.71744376816412
 20
0.6451598356867976
 30
0.0
 10
34.6495147124532
 20
0.7386333751302346
 30
0.0
 10
34.67738855169717
 20
0.6979505336694274
 30
0.0
 10
34.65132351157411
 20
0.7335815237350403
 30
0.0
 10
34.6352000827012
 20
0.7537913048635119
 30
0.0
 10
34.62339999478923
 20
0.7681659246522941
 30
0.0
 10
34.61538217038719
 20
0.7779596728393586
 30
0.0
 10
34.60612100030312
 20
0.7889428999773714
 30
0.0
 10
34.59734534067309
 20
0.7991869551164541
 30
0.0
  0
LINE
  5
21E43
330
1F
100
AcDbEntity
  8
1
100
AcDbLine
 10
34.59734500000422
 20
0.7991869999999608
 30
0.0
 11
29.9935060000031
 21
1.54375699999997
 31
0.0
  0
LINE
  5
21E44
330
1F
100
AcDbEntity
  8
1
100
AcDbLine
 10
33.0199950000042
 20
2.630480999999917
 30
0.0
 11
34.59734500000422
 21
0.7991869999999608
 31
0.0
  0
ARC
  5
21E45
330
1F
100
AcDbEntity
  8
1
100
AcDbCircle
 10
33.99588000000313
 20
3.479667999999946
 30
0.0
 40
1.293547
100
AcDbArc
 50
205.6315859999975
 51
221.0288430000013
  0
LINE
  5
21E46
330
1F
100
AcDbEntity
  8
1
100
AcDbLine
 10
32.76880200000415
 20
5.720412999999894
 30
0.0
 11
32.76880200000415
 21
3.235840999999879
 31
0.0
  0
LINE
  5
21E47
330
1F
100
AcDbEntity
  8
1
100
AcDbLine
 10
33.0199950000042
 20
4.894016999999962
 30
0.0
 11
33.0199950000042
 21
2.630480999999917
 31
0.0
  0
LINE
  5
21E48
330
1F
100
AcDbEntity
  8
1
100
AcDbLine
 10
32.17817900000421
 20
9.07000000000005
 30
0.0
 11
32.17817900000421
 21
6.746521000000029
 31
0.0
  0
LINE
  5
21E49
330
1F
100
AcDbEntity
  8
1
100
AcDbLine
 10
31.52000000000305
 20
9.449999999999931
 30
0.0
 11
31.52000000000305
 21
7.234200999999927
 31
0.0
  0
LINE
  5
21E4A
330
1F
100
AcDbEntity
  8
1
100
AcDbLine
 10
33.0199950000042
 20
-4.335304000000121
 30
0.0
 11
33.0199950000042
 21
-4.894017000000076
 31
0.0
  0
LINE
  5
21E4B
330
1F
100
AcDbEntity
  8
1
100
AcDbLine
 10
32.76880200000415
 20
-5.118366000000037
 30
0.0
 11
32.76880200000415
 21
-5.720412000000067
 31
0.0
  0
LINE
  5
21E4C
330
1F
100
AcDbEntity
  8
1
100
AcDbLine
 10
32.76799300000312
 20
-5.71828899999997
 30
0.0
 11
32.76799300000312
 21
-5.122878000000071
 31
0.0
  0
LINE
  5
21E4D
330
1F
100
AcDbEntity
  8
1
100
AcDbLine
 10
32.76799300000312
 20
-5.71828899999997
 30
0.0
 11
32.75068500000418
 21
-5.822957999999971
 31
0.0
  0
LINE
  5
21E4E
330
1F
100
AcDbEntity
  8
1
100
AcDbLine
 10
32.75068500000418
 20
-5.822957999999971
 30
0.0
 11
32.62159300000315
 21
-6.555277999999987
 31
0.0
  0
LINE
  5
21E4F
330
1F
100
AcDbEntity
  8
1
100
AcDbLine
 10
32.17817900000421
 20
-9.069999999999993
 30
0.0
 11
32.62159300000315
 21
-6.555277999999987
 31
0.0
  0
LINE
  5
21E50
330
1F
100
AcDbEntity
  8
1
100
AcDbLine
 10
32.17817900000421
 20
-9.069999999999993
 30
0.0
 11
31.52000000000305
 21
-9.449999999999988
 31
0.0
  0
LINE
  5
21E51
330
1F
100
AcDbEntity
  8
1
100
AcDbLine
 10
31.52000000000305
 20
-9.449999999999988
 30
0.0
 11
30.72000000000412
 21
-9.449999999999988
 31
0.0
  0
LINE
  5
21E52
330
1F
100
AcDbEntity
  8
1
100
AcDbLine
 10
29.71998700000313
 20
-6.555277999999987
 30
0.0
 11
32.62159300000315
 21
-6.555277999999987
 31
0.0
  0
LINE
  5
21E53
330
1F
100
AcDbEntity
  8
1
100
AcDbLine
 10
29.7200000000031
 20
-5.71828899999997
 30
0.0
 11
32.76799300000312
 21
-5.71828899999997
 31
0.0
  0
ARC
  5
21E56
330
1F
100
AcDbEntity
  8
1
100
AcDbCircle
 10
36.30524600000308
 20
-6.34398299999998
 30
0.0
 40
3.591
100
AcDbArc
 50
156.185433000003
 51
170.0000009999983
  0
LINE
  5
21E57
330
1F
100
AcDbEntity
  8
1
100
AcDbLine
 10
32.76880200000415
 20
-5.720412000000067
 30
0.0
 11
32.75077300000305
 21
-5.822658000000103
 31
0.0
  0
LINE
  5
21E59
330
1F
100
AcDbEntity
  8
1
100
AcDbLine
 10
35.18000000000313
 20
0.0
 30
0.0
 11
33.0199950000042
 21
-4.894017000000076
 31
0.0
  0
ARC
  5
21E5A
330
1F
100
AcDbEntity
  8
1
100
AcDbCircle
 10
12.66593300000375
 20
-617.0640050000001
 30
0.0
 40
636.314021
100
AcDbArc
 50
90.00179200000086
 51
91.14055699999989
  0
LINE
  5
21E5B
330
1F
100
AcDbEntity
  8
1
100
AcDbLine
 10
19.10000000000411
 20
19.24999999999988
 30
0.0
 11
12.64603100000374
 21
19.24999999999988
 31
0.0
  0
CIRCLE
  5
21E5C
330
1F
100
AcDbEntity
  8
1
100
AcDbCircle
 10
24.91000000000315
 20
13.68999999999994
 30
0.0
 40
1.919999999999999
  0
ARC
  5
21E5D
330
1F
100
AcDbEntity
  8
1
100
AcDbCircle
 10
42.3197970000042
 20
153.2941619999999
 30
0.0
 40
148.200821
100
AcDbArc
 50
260.9858770000002
 51
263.1640880000027
  0
LINE
  5
21E5E
330
1F
100
AcDbEntity
  8
1
100
AcDbLine
 10
19.10000000000411
 20
6.919377999999994
 30
0.0
 11
19.10000000000411
 21
6.923658999999929
 31
0.0
  0
SPLINE
  5
21E5F
330
1F
100
AcDbEntity
  8
1
100
AcDbSpline
210
0.0
220
0.0
230
1.0
 70
     8
 71
     5
 72
    12
 73
     6
 74
     0
 42
0.000000001
 43
0.0000000001
 40
0.0
 40
0.0
 40
0.0
 40
0.0
 40
0.0
 40
0.0
 40
12.61325979613935
 40
12.61325979613935
 40
12.61325979613935
 40
12.61325979613935
 40
12.61325979613935
 40
12.61325979613935
 10
11.97294500570376
 20
6.737235391749948
 30
0.0
 10
13.37174271913056
 20
6.835949751141072
 30
0.0
 10
14.78932239018559
 20
6.891705648245249
 30
0.0
 10
16.22661497372553
 20
6.917603233975796
 30
0.0
 10
17.66051986114155
 20
6.924295008326794
 30
0.0
 10
19.10000000000411
 20
6.919378410019987
 30
0.0
  0
LINE
  5
21E60
330
1F
100
AcDbEntity
  8
1
100
AcDbLine
 10
11.96105100000375
 20
6.648911999999995
 30
0.0
 11
11.97294500000373
 21
6.737234999999941
 31
0.0
  0
SPLINE
  5
21E61
330
1F
100
AcDbEntity
  8
1
100
AcDbSpline
210
0.0
220
0.0
230
1.0
 70
     8
 71
     5
 72
    15
 73
     9
 74
     0
 42
0.000000001
 43
0.0000000001
 40
0.0
 40
0.0
 40
0.0
 40
0.0
 40
0.0
 40
0.0
 40
6.696485848772736
 40
6.696485848772736
 40
6.696485848772736
 40
7.457289479895815
 40
7.457289479895815
 40
7.457289479895815
 40
7.457289479895815
 40
7.457289479895815
 40
7.457289479895815
 10
8.092878217498537
 20
5.721296604253666
 30
0.0
 10
8.747414532809784
 20
5.935416907466048
 30
0.0
 10
9.42925333569417
 20
6.12543898850015
 30
0.0
 10
10.12403079153046
 20
6.29268284905919
 30
0.0
 10
10.91416717339007
 20
6.45896867827713
 30
0.0
 10
11.71522726953821
 20
6.605325149940654
 30
0.0
 10
11.79706294020616
 20
6.620053027521862
 30
0.0
 10
11.87900467828774
 20
6.634580701079869
 30
0.0
 10
11.96105157980378
 20
6.648911980239802
 30
0.0
  0
LINE
  5
21E62
330
1F
100
AcDbEntity
  8
1
100
AcDbLine
 10
18.06500000000415
 20
3.92957599999994
 30
0.0
 11
18.06500000000415
 21
4.551397000000008
 31
0.0
  0
ARC
  5
21E63
330
1F
100
AcDbEntity
  8
1
100
AcDbCircle
 10
26.46763800000417
 20
-444.0164850000001
 30
0.0
 40
448.6472169999998
100
AcDbArc
 50
90.22829600000099
 51
91.07314699999717
  0
LINE
  5
21E64
330
1F
100
AcDbEntity
  8
1
100
AcDbLine
 10
19.10000000000411
 20
7.879999999999938
 30
0.0
 11
19.10000000000411
 21
6.923658999999929
 31
0.0
  0
LINE
  5
21E65
330
1F
100
AcDbEntity
  8
1
100
AcDbLine
 10
0.0000000000037517
 20
19.12415299999986
 30
0.0
 11
0.0000000000037517
 21
7.580308000000002
 31
0.0
  0
ARC
  5
21E66
330
1F
100
AcDbEntity
  8
1
100
AcDbCircle
 10
12.65268300000366
 20
616.7704909999998
 30
0.0
 40
636.0204989999997
100
AcDbArc
 50
268.8601099999986
 51
269.9994009999997
  0
ARC
  5
21E67
330
1F
100
AcDbEntity
  8
SK1
100
AcDbCircle
 10
8.054099000003702
 20
1616.167470999999
 30
0.0
 40
1623.767766
100
AcDbArc
 50
269.2041370000014
 51
269.7158040000008
  0
ARC
  5
21E68
330
1F
100
AcDbEntity
  8
SK1
100
AcDbCircle
 10
14.48780800000372
 20
27.05868199999986
 30
0.0
 40
45.062831
100
AcDbArc
 50
228.2814310000031
 51
229.9640560000001
  0
LINE
  5
21E69
330
1F
100
AcDbEntity
  8
SK1
100
AcDbLine
 10
-15.49999999999625
 20
-5.79204500000003
 30
0.0
 11
-15.49999999999625
 21
-6.576940999999976
 31
0.0
  0
LINE
  5
21E6A
330
1F
100
AcDbEntity
  8
SK1
100
AcDbLine
 10
-15.49999999999625
 20
4.511783999999863
 30
0.0
 11
-15.49999999999625
 21
-5.79204500000003
 31
0.0
  0
LINE
  5
21E6B
330
1F
100
AcDbEntity
  8
SK1
100
AcDbLine
 10
-15.49999999999625
 20
4.511783999999863
 30
0.0
 11
-15.49999999999625
 21
5.199923999999896
 31
0.0
  0
LINE
  5
21E6C
330
1F
100
AcDbEntity
  8
SK1
100
AcDbLine
 10
-15.49999999999625
 20
6.576940999999862
 30
0.0
 11
-15.49999999999625
 21
5.199923999999896
 31
0.0
  0
LINE
  5
21E6D
330
1F
100
AcDbEntity
  8
1
100
AcDbLine
 10
13.35423500000365
 20
19.03425799999996
 30
0.0
 11
12.64603500000373
 21
19.24999799999989
 31
0.0
  0
ARC
  5
21E6E
330
1F
100
AcDbEntity
  8
SK1
100
AcDbCircle
 10
8.054099000003702
 20
-1616.167470999999
 30
0.0
 40
1623.767766
100
AcDbArc
 50
90.28419599999921
 51
90.79586299999863
  0
ARC
  5
21E6F
330
1F
100
AcDbEntity
  8
SK1
100
AcDbCircle
 10
14.48780800000372
 20
-27.05868200000003
 30
0.0
 40
45.062831
100
AcDbArc
 50
130.0359439999999
 51
131.7185689999968
  0
LINE
  5
21E70
330
1F
100
AcDbEntity
  8
1
100
AcDbLine
 10
13.35423300000366
 20
19.03425399999986
 30
0.0
 11
12.36779500000375
 21
9.28571399999987
 31
0.0
  0
ELLIPSE
  5
21E71
330
1F
100
AcDbEntity
  8
1
100
AcDbEllipse
 10
11.8041990000039
 20
9.28571399999987
 30
0.0
 11
0.402918636798859
 21
3.899574279785154
 31
0.0
210
0.0
220
0.0
230
1.0
 40
0.143017
 41
4.015023502571106
 42
4.727164917831792
  0
ARC
  5
21E72
330
1F
100
AcDbEntity
  8
SK1
100
AcDbCircle
 10
-14.17129699999646
 20
11.04433799999987
 30
0.0
 40
6.666874
100
AcDbArc
 50
258.5030359999996
 51
267.1741710000006
  0
ARC
  5
21E73
330
1F
100
AcDbEntity
  8
SK1
100
AcDbCircle
 10
-188.286448999996
 20
-3085.100076
 30
0.0
 40
3094.369164
100
AcDbArc
 50
86.51150599999743
 51
86.78045100000252
  0
LINE
  5
21E74
330
1F
100
AcDbEntity
  8
1
100
AcDbLine
 10
19.10000000000411
 20
-18.64195500000005
 30
0.0
 11
19.10000000000411
 21
-19.25000000000006
 31
0.0
  0
LINE
  5
21E75
330
1F
100
AcDbEntity
  8
1
100
AcDbLine
 10
19.10000000000411
 20
-19.25000000000006
 30
0.0
 11
12.64603100000374
 21
-19.25000000000006
 31
0.0
  0
LINE
  5
21E76
330
1F
100
AcDbEntity
  8
1
100
AcDbLine
 10
29.7200000000031
 20
-18.64195500000005
 30
0.0
 11
19.10000000000411
 21
-18.64195500000005
 31
0.0
  0
LINE
  5
21E77
330
1F
100
AcDbEntity
  8
1
100
AcDbLine
 10
29.7200000000031
 20
-16.89346400000005
 30
0.0
 11
29.7200000000031
 21
-18.64195500000005
 31
0.0
  0
LINE
  5
21E78
330
1F
100
AcDbEntity
  8
1
100
AcDbLine
 10
0.0000000000037517
 20
-16.89346400000005
 30
0.0
 11
0.0000000000037517
 21
-19.12415300000003
 31
0.0
  0
LINE
  5
21E79
330
1F
100
AcDbEntity
  8
1
100
AcDbLine
 10
0.0000000000037517
 20
7.568337999999926
 30
0.0
 11
0.0000000000037517
 21
-16.89346400000005
 31
0.0
  0
LINE
  5
21E7A
330
1F
100
AcDbEntity
  8
SK1
100
AcDbLine
 10
-14.49999999999625
 20
-6.669627000000048
 30
0.0
 11
-14.49999999999625
 21
-7.443662000000074
 31
0.0
  0
LINE
  5
21E7B
330
1F
100
AcDbEntity
  8
SK1
100
AcDbLine
 10
-14.49999999999625
 20
4.385049999999864
 30
0.0
 11
-14.49999999999625
 21
-6.669627000000048
 31
0.0
  0
SPLINE
  5
21E7C
330
1F
100
AcDbEntity
  8
1
100
AcDbSpline
210
0.0
220
0.0
230
1.0
 70
     8
 71
     5
 72
    12
 73
     6
 74
     0
 42
0.000000001
 43
0.0000000001
 40
0.0
 40
0.0
 40
0.0
 40
0.0
 40
0.0
 40
0.0
 40
52.31680091117664
 40
52.31680091117664
 40
52.31680091117664
 40
52.31680091117664
 40
52.31680091117664
 40
52.31680091117664
 10
29.71999999947718
 20
2.576196731971776
 30
0.0
 10
23.69638243328018
 20
3.059727745509462
 30
0.0
 10
17.69678523131188
 20
3.825429324659353
 30
0.0
 10
11.73477585150385
 20
4.856877936040689
 30
0.0
 10
5.831315595565797
 20
6.119659864896277
 30
0.0
 10
0.0000000006697292
 20
7.568338199002255
 30
0.0
  0
LINE
  5
21E7D
330
1F
100
AcDbEntity
  8
1
100
AcDbLine
 10
29.7200000000031
 20
2.576196999999865
 30
0.0
 11
29.7200000000031
 21
-16.89346400000005
 31
0.0
  0
CIRCLE
  5
21E7E
330
1F
100
AcDbEntity
  8
1
100
AcDbCircle
 10
24.91000000000315
 20
-13.69000000000005
 30
0.0
 40
1.919999999999999
  0
LINE
  5
21E7F
330
1F
100
AcDbEntity
  8
SKVIEW4
100
AcDbLine
 10
-57.8819499999961
 20
0.0
 30
0.0
 11
-107.9319499999962
 21
0.0
 31
0.0
  0
LINE
  5
21E80
330
1F
100
AcDbEntity
  8
SKVIEW4
100
AcDbLine
 10
-82.90694999999619
 20
25.02499999999987
 30
0.0
 11
-82.90694999999619
 21
-25.02500000000003
 31
0.0
  0
LINE
  5
21E81
330
1F
100
AcDbEntity
  8
SKVIEW1
100
AcDbLine
 10
-82.90694999999619
 20
8.679999999999949
 30
0.0
 11
-82.90694999999619
 21
7.879999999999938
 31
0.0
  0
LINE
  5
21E82
330
1F
100
AcDbEntity
  8
SKVIEW1
100
AcDbLine
 10
-82.90694999999619
 20
18.69999999999993
 30
0.0
 11
-82.90694999999619
 21
8.679999999999949
 31
0.0
  0
LINE
  5
21E83
330
1F
100
AcDbEntity
  8
SKVIEW1
100
AcDbLine
 10
-82.90694999999619
 20
18.69999999999993
 30
0.0
 11
-82.90694999999619
 21
19.49999999999988
 31
0.0
  0
LINE
  5
21E84
330
1F
100
AcDbEntity
  8
SKVIEW1
100
AcDbLine
 10
-78.10694999999634
 20
18.82540399999988
 30
0.0
 11
-78.10694999999634
 21
18.69999999999993
 31
0.0
  0
LINE
  5
21E85
330
1F
100
AcDbEntity
  8
SKVIEW1
100
AcDbLine
 10
-78.10694999999634
 20
18.69999999999993
 30
0.0
 11
-78.10694999999634
 21
8.679999999999949
 31
0.0
  0
LINE
  5
21E86
330
1F
100
AcDbEntity
  8
SKVIEW1
100
AcDbLine
 10
-78.10694999999634
 20
8.679999999999949
 30
0.0
 11
-78.10694999999634
 21
8.554595999999946
 31
0.0
  0
LINE
  5
21E87
330
1F
100
AcDbEntity
  8
SKVIEW1
100
AcDbLine
 10
-78.10694999999634
 20
8.554595999999946
 30
0.0
 11
-82.90694999999619
 21
7.879999999999938
 31
0.0
  0
LINE
  5
21E88
330
1F
100
AcDbEntity
  8
SKVIEW1
100
AcDbLine
 10
-78.10694999999634
 20
8.679999999999949
 30
0.0
 11
-82.90694999999619
 21
8.679999999999949
 31
0.0
  0
LINE
  5
21E89
330
1F
100
AcDbEntity
  8
SKVIEW1
100
AcDbLine
 10
-78.10694999999634
 20
18.69999999999993
 30
0.0
 11
-82.90694999999619
 21
18.69999999999993
 31
0.0
  0
LINE
  5
21E8A
330
1F
100
AcDbEntity
  8
SKVIEW1
100
AcDbLine
 10
-78.10694999999634
 20
18.82540399999988
 30
0.0
 11
-82.90694999999619
 21
19.49999999999988
 31
0.0
  0
LINE
  5
21E8B
330
1F
100
AcDbEntity
  8
SKVIEW1
100
AcDbLine
 10
-82.90694999999619
 20
19.49999999999988
 30
0.0
 11
-82.90694999999619
 21
18.69999999999993
 31
0.0
  0
LINE
  5
21E8C
330
1F
100
AcDbEntity
  8
SKVIEW1
100
AcDbLine
 10
-82.90694999999619
 20
8.679999999999949
 30
0.0
 11
-82.90694999999619
 21
7.879999999999938
 31
0.0
  0
LINE
  5
21E8D
330
1F
100
AcDbEntity
  8
SKVIEW1
100
AcDbLine
 10
-82.90694999999619
 20
8.679999999999949
 30
0.0
 11
-82.90694999999619
 21
18.69999999999993
 31
0.0
  0
LINE
  5
21E8E
330
1F
100
AcDbEntity
  8
SKVIEW1
100
AcDbLine
 10
-82.90694999999619
 20
-18.7000000000001
 30
0.0
 11
-82.90694999999619
 21
-9.450000999999986
 31
0.0
  0
LINE
  5
21E8F
330
1F
100
AcDbEntity
  8
SKVIEW1
100
AcDbLine
 10
-82.90694999999619
 20
-18.7000000000001
 30
0.0
 11
-82.90694999999619
 21
-19.50000000000011
 31
0.0
  0
LINE
  5
21E90
330
1F
100
AcDbEntity
  8
SKVIEW1
100
AcDbLine
 10
-87.70694999999614
 20
-18.8254040000001
 30
0.0
 11
-87.70694999999614
 21
-18.7000000000001
 31
0.0
  0
LINE
  5
21E91
330
1F
100
AcDbEntity
  8
SKVIEW1
100
AcDbLine
 10
-87.70694999999614
 20
-18.7000000000001
 30
0.0
 11
-87.70694999999614
 21
-8.68000000000012
 31
0.0
  0
LINE
  5
21E92
330
1F
100
AcDbEntity
  8
SKVIEW1
100
AcDbLine
 10
-87.70694999999614
 20
-8.68000000000012
 30
0.0
 11
-87.70694999999614
 21
-8.55459600000006
 31
0.0
  0
LINE
  5
21E93
330
1F
100
AcDbEntity
  8
SKVIEW1
100
AcDbLine
 10
-87.70694999999614
 20
-8.55459600000006
 30
0.0
 11
-82.90694999999619
 21
-7.880000000000052
 31
0.0
  0
LINE
  5
21E94
330
1F
100
AcDbEntity
  8
SKVIEW1
100
AcDbLine
 10
-87.70694999999614
 20
-8.68000000000012
 30
0.0
 11
-82.90694999999619
 21
-8.68000000000012
 31
0.0
  0
LINE
  5
21E95
330
1F
100
AcDbEntity
  8
SKVIEW1
100
AcDbLine
 10
-87.70694999999614
 20
-18.7000000000001
 30
0.0
 11
-82.90694999999619
 21
-18.7000000000001
 31
0.0
  0
LINE
  5
21E96
330
1F
100
AcDbEntity
  8
SKVIEW1
100
AcDbLine
 10
-87.70694999999614
 20
-18.8254040000001
 30
0.0
 11
-82.90694999999619
 21
-19.50000000000011
 31
0.0
  0
LINE
  5
21E97
330
1F
100
AcDbEntity
  8
SKVIEW1
100
AcDbLine
 10
-82.90694999999619
 20
-19.50000000000011
 30
0.0
 11
-82.90694999999619
 21
-18.7000000000001
 31
0.0
  0
LINE
  5
21E98
330
1F
100
AcDbEntity
  8
SKVIEW1
100
AcDbLine
 10
-82.90694999999619
 20
-19.50000000000011
 30
0.0
 11
-82.90694999999619
 21
-18.7000000000001
 31
0.0
  0
LINE
  5
21E99
330
1F
100
AcDbEntity
  8
SKVIEW1
100
AcDbLine
 10
-82.90694999999619
 20
-18.7000000000001
 30
0.0
 11
-82.90694999999619
 21
-15.29279000000008
 31
0.0
  0
LINE
  5
21E9A
330
1F
100
AcDbEntity
  8
SKVIEW1
100
AcDbLine
 10
-82.90694999999619
 20
-11.26387000000005
 30
0.0
 11
-82.90694999999619
 21
-9.450009000000136
 31
0.0
  0
LINE
  5
21E9B
330
1F
100
AcDbEntity
  8
SKVIEW1
100
AcDbLine
 10
-82.90694999999619
 20
-9.450000999999986
 30
0.0
 11
-82.90694999999619
 21
-18.7000000000001
 31
0.0
  0
ARC
  5
21E9C
330
1F
100
AcDbEntity
  8
SKVIEW1
100
AcDbCircle
 10
-82.90694999999619
 20
0.0
 30
0.0
 40
4.724999999999996
100
AcDbArc
 50
345.8005039999984
 51
356.5525780000015
  0
ARC
  5
21E9D
330
1F
100
AcDbEntity
  8
SKVIEW1
100
AcDbCircle
 10
-88.20084999999606
 20
3.315700999999933
 30
0.0
 40
2.271549999999999
100
AcDbArc
 50
288.3002799999983
 51
309.9066450000017
  0
ARC
  5
21E9E
330
1F
100
AcDbEntity
  8
SKVIEW1
100
AcDbCircle
 10
-77.61304999999629
 20
-3.31570099999999
 30
0.0
 40
2.271549999999999
100
AcDbArc
 50
108.3002799999983
 51
129.9066450000016
  0
LINE
  5
21E9F
330
1F
100
AcDbEntity
  8
SKVIEW1
100
AcDbLine
 10
-77.18194999999628
 20
0.002076000000045
 30
0.0
 11
-77.28545999999631
 21
-0.0069800000001123
 31
0.0
  0
ARC
  5
21EA0
330
1F
100
AcDbEntity
  8
SKVIEW1
100
AcDbCircle
 10
-77.0874709999963
 20
-2.269835000000057
 30
0.0
 40
2.2715
100
AcDbArc
 50
95.00038100000333
 51
119.0514770000032
  0
SPLINE
  5
21EA1
330
1F
100
AcDbEntity
  8
SKVIEW1
100
AcDbSpline
210
0.0
220
0.0
230
1.0
 70
     8
 71
     5
 72
    18
 73
    12
 74
     0
 42
0.000000001
 43
0.0000000001
 40
0.0
 40
0.0
 40
0.0
 40
0.0
 40
0.0
 40
0.0
 40
1.744531660912715
 40
1.744531660912715
 40
1.744531660912715
 40
3.403437365515941
 40
3.403437365515941
 40
3.403437365515941
 40
5.532590197210992
 40
5.532590197210992
 40
5.532590197210992
 40
5.532590197210992
 40
5.532590197210992
 40
5.532590197210992
 10
-78.97469180573114
 20
-0.7232348982005306
 30
0.0
 10
-78.91091954455714
 20
-0.5576985681388465
 30
0.0
 10
-78.83080888282506
 20
-0.4054551420578605
 30
0.0
 10
-78.73795105045951
 20
-0.2732041812908506
 30
0.0
 10
-78.54153518802604
 20
-0.0525723292273597
 30
0.0
 10
-78.32483272463344
 20
0.1011832823000418
 30
0.0
 10
-78.21628255485348
 20
0.1619644631993538
 30
0.0
 10
-77.96537204024104
 20
0.2711693987579338
 30
0.0
 10
-77.71215168347509
 20
0.3201300186750018
 30
0.0
 10
-77.57057330215662
 20
0.3314433195326387
 30
0.0
 10
-77.43125455526627
 20
0.3285407765498576
 30
0.0
 10
-77.29416732339621
 20
0.3128484460067966
 30
0.0
  0
ARC
  5
21EA2
330
1F
100
AcDbEntity
  8
SKVIEW1
100
AcDbCircle
 10
-77.12677399999631
 20
-1.438576000000125
 30
0.0
 40
1.981522999999999
100
AcDbArc
 50
158.8382660000043
 51
165.9615780000027
  0
SPLINE
  5
21EA3
330
1F
100
AcDbEntity
  8
SKVIEW1
100
AcDbSpline
210
0.0
220
0.0
230
1.0
 70
     8
 71
     5
 72
    12
 73
     6
 74
     0
 42
0.000000001
 43
0.0000000001
 40
0.0
 40
0.0
 40
0.0
 40
0.0
 40
0.0
 40
0.0
 40
1.695731681588986
 40
1.695731681588986
 40
1.695731681588986
 40
1.695731681588986
 40
1.695731681588986
 40
1.695731681588986
 10
-79.04909522905609
 20
-0.9579175369584618
 30
0.0
 10
-79.08674802238656
 20
-1.109596067558697
 30
0.0
 10
-79.10473555424118
 20
-1.250887568238454
 30
0.0
 10
-79.10465486916314
 20
-1.375844617421307
 30
0.0
 10
-79.09348880322625
 20
-1.47328750729514
 30
0.0
 10
-79.07742175463784
 20
-1.543757090940175
 30
0.0
  0
ARC
  5
21EA4
330
1F
100
AcDbEntity
  8
SKVIEW1
100
AcDbCircle
 10
-77.51599799999633
 20
-1.165458
 30
0.0
 40
1.606921999999999
100
AcDbArc
 50
193.6191119999987
 51
210.3015180000034
  0
ARC
  5
21EA5
330
1F
100
AcDbEntity
  8
SKVIEW1
100
AcDbCircle
 10
-82.9066189999961
 20
0.0000189999998952
 30
0.0
 40
5.621163
100
AcDbArc
 50
359.9286559999968
 51
3.1902739999993
  0
ARC
  5
21EA6
330
1F
100
AcDbEntity
  8
SKVIEW1
100
AcDbCircle
 10
-82.90694999999619
 20
0.0
 30
0.0
 40
4.724999999999996
100
AcDbArc
 50
165.8005039999984
 51
176.5525780000015
  0
SPLINE
  5
21EA7
330
1F
100
AcDbEntity
  8
SKVIEW1
100
AcDbSpline
210
0.0
220
0.0
230
1.0
 70
     8
 71
     5
 72
    18
 73
    12
 74
     0
 42
0.000000001
 43
0.0000000001
 40
0.0
 40
0.0
 40
0.0
 40
0.0
 40
0.0
 40
0.0
 40
1.744531659917339
 40
1.744531659917339
 40
1.744531659917339
 40
3.403437362710531
 40
3.403437362710531
 40
3.403437362710531
 40
5.532590191694931
 40
5.532590191694931
 40
5.532590191694931
 40
5.532590191694931
 40
5.532590191694931
 40
5.532590191694931
 10
-86.83920819426147
 20
0.7232348982005306
 30
0.0
 10
-86.90298045539885
 20
0.5576985682332634
 30
0.0
 10
-86.98309111707544
 20
0.4054551422315172
 30
0.0
 10
-87.07594894942861
 20
0.2732041814249442
 30
0.0
 10
-87.27236481180625
 20
0.0525723293878286
 30
0.0
 10
-87.48906727499184
 20
-0.1011832820571499
 30
0.0
 10
-87.59761744491958
 20
-0.1619644631115307
 30
0.0
 10
-87.84852795977803
 20
-0.2711693987894819
 30
0.0
 10
-88.10174831672645
 20
-0.3201300187129732
 30
0.0
 10
-88.24332669818977
 20
-0.3314433195255333
 30
0.0
 10
-88.38264544490071
 20
-0.3285407765300761
 30
0.0
 10
-88.51973267659605
 20
-0.3128484460069671
 30
0.0
  0
ARC
  5
21EA8
330
1F
100
AcDbEntity
  8
SKVIEW1
100
AcDbCircle
 10
-88.6871259999962
 20
1.438575999999841
 30
0.0
 40
1.981522999999999
100
AcDbArc
 50
338.8382660000043
 51
345.9615780000028
  0
SPLINE
  5
21EA9
330
1F
100
AcDbEntity
  8
SKVIEW1
100
AcDbSpline
210
0.0
220
0.0
230
1.0
 70
     8
 71
     5
 72
    12
 73
     6
 74
     0
 42
0.000000001
 43
0.0000000001
 40
0.0
 40
0.0
 40
0.0
 40
0.0
 40
0.0
 40
0.0
 40
1.6957316815961
 40
1.6957316815961
 40
1.6957316815961
 40
1.6957316815961
 40
1.6957316815961
 40
1.6957316815961
 10
-86.76480477093628
 20
0.9579175369582344
 30
0.0
 10
-86.7271519776051
 20
1.109596067560687
 30
0.0
 10
-86.70916444575004
 20
1.250887568243797
 30
0.0
 10
-86.70924513082923
 20
1.375844617423297
 30
0.0
 10
-86.72041119676611
 20
1.473287507294799
 30
0.0
 10
-86.73647824535441
 20
1.543757090940175
 30
0.0
  0
ARC
  5
21EAA
330
1F
100
AcDbEntity
  8
SKVIEW1
100
AcDbCircle
 10
-88.29790199999616
 20
1.165458
 30
0.0
 40
1.606921999999999
100
AcDbArc
 50
13.61911199999876
 51
30.30151800000335
  0
ARC
  5
21EAB
330
1F
100
AcDbEntity
  8
SKVIEW1
100
AcDbCircle
 10
-88.72642899999618
 20
2.269834999999886
 30
0.0
 40
2.2715
100
AcDbArc
 50
275.0003810000033
 51
299.0514770000032
  0
ARC
  5
21EAC
330
1F
100
AcDbEntity
  8
SKVIEW1
100
AcDbCircle
 10
-82.90728099999615
 20
-0.0000190000000657
 30
0.0
 40
5.621163
100
AcDbArc
 50
179.9286560000033
 51
183.1902739999993
  0
LINE
  5
21EAD
330
1F
100
AcDbEntity
  8
SKVIEW1
100
AcDbLine
 10
-87.49766999999611
 20
2.920134000000018
 30
0.0
 11
-87.6242009999961
 21
3.235840999999879
 31
0.0
  0
ARC
  5
21EAE
330
1F
100
AcDbEntity
  8
SKVIEW1
100
AcDbCircle
 10
8.469777000003887
 20
42.06196499999987
 30
0.0
 40
103.641278
100
AcDbArc
 50
199.9223890000046
 51
202.000838999997
  0
ARC
  5
21EAF
330
1F
100
AcDbEntity
  8
SKVIEW1
100
AcDbCircle
 10
-74.87898199999631
 20
7.512887999999861
 30
0.0
 40
14.110919
100
AcDbArc
 50
181.1316510000002
 51
183.1132780000038
  0
ARC
  5
21EB0
330
1F
100
AcDbEntity
  8
SKVIEW1
100
AcDbCircle
 10
-99.88861199999611
 20
-5.451283000000046
 30
0.0
 40
14.953665
100
AcDbArc
 50
29.78301199999924
 51
34.04326899999702
  0
LINE
  5
21EB1
330
1F
100
AcDbEntity
  8
SKVIEW1
100
AcDbLine
 10
-78.31622999999627
 20
-2.920134000000075
 30
0.0
 11
-78.18969899999626
 21
-3.23584100000005
 31
0.0
  0
ARC
  5
21EB2
330
1F
100
AcDbEntity
  8
SKVIEW1
100
AcDbCircle
 10
-174.314487999996
 20
-42.07328200000012
 30
0.0
 40
103.674096
100
AcDbArc
 50
19.92246699999906
 51
22.00025900000459
  0
ARC
  5
21EB3
330
1F
100
AcDbEntity
  8
SKVIEW1
100
AcDbCircle
 10
-90.93431299999645
 20
-7.512865999999974
 30
0.0
 40
14.110314
100
AcDbArc
 50
1.131607999995179
 51
3.113320999999533
  0
ARC
  5
21EB4
330
1F
100
AcDbEntity
  8
SKVIEW1
100
AcDbCircle
 10
-65.92528799999627
 20
5.451282999999932
 30
0.0
 40
14.953665
100
AcDbArc
 50
209.7830119999993
 51
214.043268999997
  0
ARC
  5
21EB5
330
1F
100
AcDbEntity
  8
SKVIEW1
100
AcDbCircle
 10
-82.90694999999619
 20
0.0
 30
0.0
 40
5.724999999999997
100
AcDbArc
 50
0.0207760000006642
 51
63.48605699999843
  0
LINE
  5
21EB6
330
1F
100
AcDbEntity
  8
SKVIEW1
100
AcDbLine
 10
-77.29416699999626
 20
0.3128480000000309
 30
0.0
 11
-77.18983199999627
 21
0.3003869999998869
 31
0.0
  0
LINE
  5
21EB7
330
1F
100
AcDbEntity
  8
SKVIEW1
100
AcDbLine
 10
-82.90694999999619
 20
9.07000000000005
 30
0.0
 11
-82.90694999999619
 21
9.449999999999931
 31
0.0
  0
LINE
  5
21EB8
330
1F
100
AcDbEntity
  8
SKVIEW1
100
AcDbLine
 10
-82.90694999999619
 20
6.55527799999993
 30
0.0
 11
-82.90694999999619
 21
9.07000000000005
 31
0.0
  0
ARC
  5
21EB9
330
1F
100
AcDbEntity
  8
SKVIEW1
100
AcDbCircle
 10
-82.60694999999612
 20
6.190234999999859
 30
0.0
 40
0.4725
100
AcDbArc
 50
129.4140980000004
 51
267.2254209999964
  0
ARC
  5
21EBA
330
1F
100
AcDbEntity
  8
SKVIEW1
100
AcDbCircle
 10
-82.90694999999619
 20
0.0
 30
0.0
 40
5.724999999999997
100
AcDbArc
 50
63.48606600000399
 51
87.22542100000296
  0
LINE
  5
21EBB
330
1F
100
AcDbEntity
  8
SKVIEW1
100
AcDbLine
 10
-82.53199099999608
 20
0.2299399999999991
 30
0.0
 11
-78.97469199999625
 21
-0.7232350000000452
 31
0.0
  0
LINE
  5
21EBC
330
1F
100
AcDbEntity
  8
SKVIEW1
100
AcDbLine
 10
-80.35245399999633
 20
5.118365999999866
 30
0.0
 11
-80.35122199999625
 21
5.122877999999843
 31
0.0
  0
ARC
  5
21EBD
330
1F
100
AcDbEntity
  8
SKVIEW1
100
AcDbCircle
 10
-85.12646499999618
 20
6.402409999999917
 30
0.0
 40
4.943476999999997
100
AcDbArc
 50
335.2811400000018
 51
344.9456899999997
  0
LINE
  5
21EBE
330
1F
100
AcDbEntity
  8
SKVIEW1
100
AcDbLine
 10
-81.2064849999963
 20
3.112681000000009
 30
0.0
 11
-80.6361479999963
 21
4.33530399999995
 31
0.0
  0
SPLINE
  5
21EBF
330
1F
100
AcDbEntity
  8
SKVIEW1
100
AcDbSpline
210
0.0
220
0.0
230
1.0
 70
     8
 71
     5
 72
    30
 73
    24
 74
     0
 42
0.000000001
 43
0.0000000001
 40
0.0
 40
0.0
 40
0.0
 40
0.0
 40
0.0
 40
0.0
 40
15.87824100523049
 40
15.87824100523049
 40
15.87824100523049
 40
31.78531107912537
 40
31.78531107912537
 40
31.78531107912537
 40
42.43943003958867
 40
42.43943003958867
 40
42.43943003958867
 40
45.98178427285366
 40
45.98178427285366
 40
45.98178427285366
 40
48.72835126361794
 40
48.72835126361794
 40
48.72835126361794
 40
50.78659413049059
 40
50.78659413049059
 40
50.78659413049059
 40
53.295345203902
 40
53.295345203902
 40
53.295345203902
 40
53.295345203902
 40
53.295345203902
 40
53.295345203902
 10
-82.53199077923671
 20
0.2299404889983521
 30
0.0
 10
-82.52329538942808
 20
0.2516549287886391
 30
0.0
 10
-82.51340518562404
 20
0.2758489535843296
 30
0.0
 10
-82.50201035242275
 20
0.3031898796909331
 30
0.0
 10
-82.47512388886253
 20
0.3664789908006583
 30
0.0
 10
-82.43609623489385
 20
0.455624081514543
 30
0.0
 10
-82.41354252015753
 20
0.5064633628833235
 30
0.0
 10
-82.3647649512651
 20
0.6153716818925546
 30
0.0
 10
-82.28178114079719
 20
0.7973686960184523
 30
0.0
 10
-82.24153398747921
 20
0.885203356235138
 30
0.0
 10
-82.17360974049052
 20
1.032914790480162
 30
0.0
 10
-82.06346004177271
 20
1.270988999016822
 30
0.0
 10
-82.03282448204106
 20
1.337134253170063
 30
0.0
 10
-81.97141468577001
 20
1.469577137968769
 30
0.0
 10
-81.89413265159236
 20
1.636020089525345
 30
0.0
 10
-81.855682917546
 20
1.718810079289482
 30
0.0
 10
-81.78249993913892
 20
1.876181995545437
 30
0.0
 10
-81.69429359860169
 20
2.065787921633784
 30
0.0
 10
-81.65373421999062
 20
2.152957782589112
 30
0.0
 10
-81.55518354118681
 20
2.364539247716777
 30
0.0
 10
-81.43646700771649
 20
2.619340027469888
 30
0.0
 10
-81.36772616796418
 20
2.766845346350521
 30
0.0
 10
-81.29004184059647
 20
2.933484921828892
 30
0.0
 10
-81.20648478653311
 20
3.112680694435823
 30
0.0
  0
LINE
  5
21EC0
330
1F
100
AcDbEntity
  8
SKVIEW1
100
AcDbLine
 10
-81.85619499999608
 20
-0.7991870000001314
 30
0.0
 11
-79.07742199999631
 21
-1.543757000000141
 31
0.0
  0
SPLINE
  5
21EC1
330
1F
100
AcDbEntity
  8
SKVIEW1
100
AcDbSpline
210
0.0
220
0.0
230
1.0
 70
     8
 71
     5
 72
    60
 73
    54
 74
     0
 42
0.000000001
 43
0.0000000001
 40
0.0
 40
0.0
 40
0.0
 40
0.0
 40
0.0
 40
0.0
 40
24.66289032103567
 40
24.66289032103567
 40
24.66289032103567
 40
61.65671063985147
 40
61.65671063985147
 40
61.65671063985147
 40
86.31927960354472
 40
86.31927960354472
 40
86.31927960354472
 40
98.65065266242577
 40
98.65065266242577
 40
98.65065266242577
 40
111.1192861441654
 40
111.1192861441654
 40
111.1192861441654
 40
116.6004988788718
 40
116.6004988788718
 40
116.6004988788718
 40
119.9429093922176
 40
119.9429093922176
 40
119.9429093922176
 40
120.8144720908767
 40
120.8144720908767
 40
120.8144720908767
 40
121.6860347895359
 40
121.6860347895359
 40
121.6860347895359
 40
122.0140448990219
 40
122.0140448990219
 40
122.0140448990219
 40
122.0551730634988
 40
122.0551730634988
 40
122.0551730634988
 40
122.0963012279755
 40
122.0963012279755
 40
122.0963012279755
 40
122.2723912594143
 40
122.2723912594143
 40
122.2723912594143
 40
122.3205343915872
 40
122.3205343915872
 40
122.3205343915872
 40
122.3686775237602
 40
122.3686775237602
 40
122.3686775237602
 40
123.0675968035654
 40
123.0675968035654
 40
123.0675968035654
 40
123.6440230137592
 40
123.6440230137592
 40
123.6440230137592
 40
123.6440230137592
 40
123.6440230137592
 40
123.6440230137592
 10
-82.53199077923671
 20
0.2299404889983521
 30
0.0
 10
-82.54549836528315
 20
0.1962088599303797
 30
0.0
 10
-82.55272831112222
 20
0.1705421878345987
 30
0.0
 10
-82.55801310834057
 20
0.1482765508333728
 30
0.0
 10
-82.56726363968596
 20
0.0964528992107603
 30
0.0
 10
-82.56833708956481
 20
0.0532903087124623
 30
0.0
 10
-82.56698033949248
 20
0.0286810518313132
 30
0.0
 10
-82.56179663727563
 20
-0.0127624806036693
 30
0.0
 10
-82.54999141347481
 20
-0.0579784072319853
 30
0.0
 10
-82.54404185739053
 20
-0.0770554968322017
 30
0.0
 10
-82.53283256705163
 20
-0.1082575818238638
 30
0.0
 10
-82.51550673106715
 20
-0.1465103036213691
 30
0.0
 10
-82.50886091944835
 20
-0.1602652280355414
 30
0.0
 10
-82.49378903133266
 20
-0.1896404941461469
 30
0.0
 10
-82.47295147542763
 20
-0.2255674468046322
 30
0.0
 10
-82.46096063354116
 20
-0.2450725129483544
 30
0.0
 10
-82.43898008905558
 20
-0.2790392206661636
 30
0.0
 10
-82.40419375601584
 20
-0.3260822815731785
 30
0.0
 10
-82.39196539605405
 20
-0.3420471008430468
 30
0.0
 10
-82.36923432819196
 20
-0.3707758924995232
 30
0.0
 10
-82.33637561747309
 20
-0.408898123712163
 30
0.0
 10
-82.32357404603385
 20
-0.423173992731222
 30
0.0
 10
-82.30301673166616
 20
-0.4458395170619838
 30
0.0
 10
-82.27295543406626
 20
-0.4766305280469397
 30
0.0
 10
-82.26620232842401
 20
-0.4834492181672659
 30
0.0
 10
-82.25161894254666
 20
-0.4980023683166337
 30
0.0
 10
-82.2333756273905
 20
-0.5155780390178393
 30
0.0
 10
-82.22303868861979
 20
-0.5253669314536751
 30
0.0
 10
-82.20742167743754
 20
-0.5400010302060423
 30
0.0
 10
-82.18509573482549
 20
-0.5600022414251385
 30
0.0
 10
-82.17831358741205
 20
-0.5660117689100162
 30
0.0
 10
-82.16987389080236
 20
-0.5734176102186553
 30
0.0
 10
-82.15935477854134
 20
-0.5824582442871816
 30
0.0
 10
-82.15771979685905
 20
-0.5838240847728571
 30
0.0
 10
-82.15311739225013
 20
-0.5875724846212052
 30
0.0
 10
-82.14626345986415
 20
-0.5930376767100256
 30
0.0
 10
-82.14228670437888
 20
-0.5961895140082448
 30
0.0
 10
-82.12000627552653
 20
-0.6137816025207031
 30
0.0
 10
-82.09110478477885
 20
-0.6363270492940388
 30
0.0
 10
-82.06918186106362
 20
-0.6533705700316546
 30
0.0
 10
-82.0392746557786
 20
-0.6765274284006182
 30
0.0
 10
-82.01662583627205
 20
-0.693784436535168
 30
0.0
 10
-82.01208662941587
 20
-0.6972217820926403
 30
0.0
 10
-82.00481581279211
 20
-0.7026649475769773
 30
0.0
 10
-82.00050771230246
 20
-0.7057613946469701
 30
0.0
 10
-81.99903522903147
 20
-0.706773348288607
 30
0.0
 10
-81.9726370701951
 20
-0.7252684235653533
 30
0.0
 10
-81.95279448992108
 20
-0.7384803891889647
 30
0.0
 10
-81.93813846564479
 20
-0.7480419274251063
 30
0.0
 10
-81.91399847342813
 20
-0.7636338248259449
 30
0.0
 10
-81.89054013622524
 20
-0.778349814350861
 30
0.0
 10
-81.8793998273586
 20
-0.7852493297003776
 30
0.0
 10
-81.86761652953805
 20
-0.7923805537722047
 30
0.0
 10
-81.85619533134298
 20
-0.7991869551163405
 30
0.0
  0
LINE
  5
21EC2
330
1F
100
AcDbEntity
  8
SKVIEW1
100
AcDbLine
 10
-78.77996899999629
 20
-2.630480999999974
 30
0.0
 11
-81.85619499999608
 21
-0.7991870000001314
 31
0.0
  0
ARC
  5
21EC3
330
1F
100
AcDbEntity
  8
SKVIEW1
100
AcDbCircle
 10
-85.49742799999615
 20
-13.89953100000014
 30
0.0
 40
13.119309
100
AcDbArc
 50
56.81285700000025
 51
59.20091299999613
  0
LINE
  5
21EC4
330
1F
100
AcDbEntity
  8
SKVIEW1
100
AcDbLine
 10
-88.6319499999961
 20
-0.0020759999999882
 30
0.0
 11
-88.52843999999629
 21
0.0069799999999418
 31
0.0
  0
LINE
  5
21EC5
330
1F
100
AcDbEntity
  8
SKVIEW1
100
AcDbLine
 10
-86.83920799999611
 20
0.7232349999998747
 30
0.0
 11
-83.28190899999617
 21
-0.2299399999999991
 31
0.0
  0
LINE
  5
21EC6
330
1F
100
AcDbEntity
  8
SKVIEW1
100
AcDbLine
 10
-88.51973299999611
 20
-0.312847999999974
 30
0.0
 11
-88.62406799999645
 21
-0.3003870000000575
 31
0.0
  0
ARC
  5
21EC7
330
1F
100
AcDbEntity
  8
SKVIEW1
100
AcDbCircle
 10
-82.90694999999619
 20
0.0
 30
0.0
 40
5.724999999999997
100
AcDbArc
 50
180.0207760000006
 51
267.2254109999973
  0
LINE
  5
21EC8
330
1F
100
AcDbEntity
  8
SKVIEW1
100
AcDbLine
 10
-85.46144599999616
 20
-5.118366000000037
 30
0.0
 11
-85.46267799999609
 21
-5.122878000000071
 31
0.0
  0
ARC
  5
21EC9
330
1F
100
AcDbEntity
  8
SKVIEW1
100
AcDbCircle
 10
-80.6874349999963
 20
-6.402410000000031
 30
0.0
 40
4.943476999999997
100
AcDbArc
 50
155.2811400000018
 51
164.9456899999997
  0
LINE
  5
21ECA
330
1F
100
AcDbEntity
  8
SKVIEW1
100
AcDbLine
 10
-84.60741499999608
 20
-3.112681000000065
 30
0.0
 11
-85.17775199999631
 21
-4.335304000000121
 31
0.0
  0
SPLINE
  5
21ECB
330
1F
100
AcDbEntity
  8
SKVIEW1
100
AcDbSpline
210
0.0
220
0.0
230
1.0
 70
     8
 71
     5
 72
    30
 73
    24
 74
     0
 42
0.000000001
 43
0.0000000001
 40
0.0
 40
0.0
 40
0.0
 40
0.0
 40
0.0
 40
0.0
 40
15.87824100557847
 40
15.87824100557847
 40
15.87824100557847
 40
31.78531108184159
 40
31.78531108184159
 40
31.78531108184159
 40
42.43943004152742
 40
42.43943004152742
 40
42.43943004152742
 40
45.98178427488305
 40
45.98178427488305
 40
45.98178427488305
 40
48.72835125945952
 40
48.72835125945952
 40
48.72835125945952
 40
50.78659412582414
 40
50.78659412582414
 40
50.78659412582414
 40
53.2953452005892
 40
53.2953452005892
 40
53.2953452005892
 40
53.2953452005892
 40
53.2953452005892
 40
53.2953452005892
 10
-83.28190922075554
 20
-0.2299404889985226
 30
0.0
 10
-83.29060461056405
 20
-0.2516549287890371
 30
0.0
 10
-83.30049481436834
 20
-0.2758489535853528
 30
0.0
 10
-83.31188964757064
 20
-0.3031898796940595
 30
0.0
 10
-83.33877611113107
 20
-0.3664789908056605
 30
0.0
 10
-83.37780376510705
 20
-0.4556240815347224
 30
0.0
 10
-83.40035747984382
 20
-0.5064633629162359
 30
0.0
 10
-83.44913504876172
 20
-0.6153716819609372
 30
0.0
 10
-83.53211885924407
 20
-0.7973686961310591
 30
0.0
 10
-83.5723660125916
 20
-0.8852033564083399
 30
0.0
 10
-83.64029025961258
 20
-1.032914790718109
 30
0.0
 10
-83.75043995837438
 20
-1.270988999351175
 30
0.0
 10
-83.78107551811865
 20
-1.337134253532553
 30
0.0
 10
-83.84248531435707
 20
-1.469577138263218
 30
0.0
 10
-83.91976734848459
 20
-1.636020089712644
 30
0.0
 10
-83.95821708278527
 20
-1.718810080031175
 30
0.0
 10
-84.03140006125374
 20
-1.876181996401726
 30
0.0
 10
-84.11960640161613
 20
-2.06578792212116
 30
0.0
 10
-84.16016578004269
 20
-2.152957782689497
 30
0.0
 10
-84.25871645864356
 20
-2.364539247362017
 30
0.0
 10
-84.37743299217812
 20
-2.619340027255987
 30
0.0
 10
-84.44617383194316
 20
-2.766845346168963
 30
0.0
 10
-84.52385815935111
 20
-2.933484921732599
 30
0.0
 10
-84.60741521345926
 20
-3.11268069443588
 30
0.0
  0
SPLINE
  5
21ECC
330
1F
100
AcDbEntity
  8
SKVIEW1
100
AcDbSpline
210
0.0
220
0.0
230
1.0
 70
     8
 71
     5
 72
    60
 73
    54
 74
     0
 42
0.000000001
 43
0.0000000001
 40
0.0
 40
0.0
 40
0.0
 40
0.0
 40
0.0
 40
0.0
 40
24.66289044954861
 40
24.66289044954861
 40
24.66289044954861
 40
61.65671096113104
 40
61.65671096113104
 40
61.65671096113104
 40
86.31928005333755
 40
86.31928005333755
 40
86.31928005333755
 40
98.65065317647921
 40
98.65065317647921
 40
98.65065317647921
 40
111.1192867398438
 40
111.1192867398438
 40
111.1192867398438
 40
116.6004995031815
 40
116.6004995031815
 40
116.6004995031815
 40
119.9429098033
 40
119.9429098033
 40
119.9429098033
 40
120.814472408275
 40
120.814472408275
 40
120.814472408275
 40
121.6860350132499
 40
121.6860350132499
 40
121.6860350132499
 40
122.0140450590205
 40
122.0140450590205
 40
122.0140450590205
 40
122.0551732197223
 40
122.0551732197223
 40
122.0551732197223
 40
122.0963013804239
 40
122.0963013804239
 40
122.0963013804239
 40
122.272391427309
 40
122.272391427309
 40
122.272391427309
 40
122.3205345688056
 40
122.3205345688056
 40
122.3205345688056
 40
122.3686777103022
 40
122.3686777103022
 40
122.3686777103022
 40
123.0675970192775
 40
123.0675970192775
 40
123.0675970192775
 40
123.6440236684001
 40
123.6440236684001
 40
123.6440236684001
 40
123.6440236684001
 40
123.6440236684001
 40
123.6440236684001
 10
-83.28190922075554
 20
-0.2299404889985226
 30
0.0
 10
-83.26840163463897
 20
-0.1962088597546199
 30
0.0
 10
-83.26117168879557
 20
-0.1705421875685147
 30
0.0
 10
-83.25588689157052
 20
-0.1482765504919712
 30
0.0
 10
-83.24663636023808
 20
-0.0964528986567643
 30
0.0
 10
-83.24556291043041
 20
-0.0532903080261917
 30
0.0
 10
-83.24691966055524
 20
-0.0286810510171449
 30
0.0
 10
-83.25210336289069
 20
0.0127624816444723
 30
0.0
 10
-83.26390858692105
 20
0.0579784086324367
 30
0.0
 10
-83.26985814312115
 20
0.0770554984168257
 30
0.0
 10
-83.28106743369733
 20
0.1082575837762647
 30
0.0
 10
-83.29839327012996
 20
0.1465103061858599
 30
0.0
 10
-83.3050390819219
 20
0.1602652308134793
 30
0.0
 10
-83.32011097044301
 20
0.189640497444941
 30
0.0
 10
-83.34094852711166
 20
0.2255674510526546
 30
0.0
 10
-83.35293936947369
 20
0.2450725177442905
 30
0.0
 10
-83.37491991489912
 20
0.2790392265490027
 30
0.0
 10
-83.40970625016586
 20
0.3260822897758544
 30
0.0
 10
-83.42193461102784
 20
0.3420471099450424
 30
0.0
 10
-83.44466567999631
 20
0.3707759025478481
 30
0.0
 10
-83.47752439327871
 20
0.4088981359291211
 30
0.0
 10
-83.49032596531106
 20
0.4231740052332498
 30
0.0
 10
-83.51088327991362
 20
0.4458395295032461
 30
0.0
 10
-83.54094457924608
 20
0.476630541569989
 30
0.0
 10
-83.54769768499465
 20
0.4834492316647357
 30
0.0
 10
-83.5622810713736
 20
0.4980023819747999
 30
0.0
 10
-83.58052438751077
 20
0.5155780532003292
 30
0.0
 10
-83.59086132640735
 20
0.5253669456195098
 30
0.0
 10
-83.60647833821644
 20
0.5400010446238071
 30
0.0
 10
-83.62880428303538
 20
0.5600022573160004
 30
0.0
 10
-83.63558643071973
 20
0.5660117848997857
 30
0.0
 10
-83.64402612795254
 20
0.5734176265683005
 30
0.0
 10
-83.65454524161828
 20
0.5824582615987879
 30
0.0
 10
-83.65618023583341
 20
0.5838241117203893
 30
0.0
 10
-83.66078265685723
 20
0.5875725241046439
 30
0.0
 10
-83.66763660211802
 20
0.5930377259477951
 30
0.0
 10
-83.67161336199229
 20
0.5961895665338375
 30
0.0
 10
-83.69389381277244
 20
0.6137816715798295
 30
0.0
 10
-83.72279530367917
 20
0.6363271181841697
 30
0.0
 10
-83.74471822928512
 20
0.6533706401700102
 30
0.0
 10
-83.77462544043408
 20
0.6765275026873497
 30
0.0
 10
-83.7972742368977
 20
0.6937844920980183
 30
0.0
 10
-83.80181343766674
 20
0.6972218327010751
 30
0.0
 10
-83.80908423512005
 20
0.702664982867816
 30
0.0
 10
-83.81339231754109
 20
0.7057614156355499
 30
0.0
 10
-83.81486480035835
 20
0.7067733689168563
 30
0.0
 10
-83.84126295463738
 20
0.7252684403583772
 30
0.0
 10
-83.86110553044217
 20
0.7384804025973608
 30
0.0
 10
-83.87576154365229
 20
0.7480419334187332
 30
0.0
 10
-83.89990151849952
 20
0.763633819684344
 30
0.0
 10
-83.9233598428807
 20
0.7783498014612747
 30
0.0
 10
-83.93450015468976
 20
0.7852493188404992
 30
0.0
 10
-83.94628346175762
 20
0.7923805485893354
 30
0.0
 10
-83.95770466864929
 20
0.7991869551164541
 30
0.0
  0
LINE
  5
21ECD
330
1F
100
AcDbEntity
  8
SKVIEW1
100
AcDbLine
 10
-83.95770499999617
 20
0.7991869999999608
 30
0.0
 11
-86.73647799999617
 21
1.54375699999997
 31
0.0
  0
LINE
  5
21ECE
330
1F
100
AcDbEntity
  8
SKVIEW1
100
AcDbLine
 10
-87.0339309999963
 20
2.630480999999917
 30
0.0
 11
-83.95770499999617
 21
0.7991869999999608
 31
0.0
  0
ARC
  5
21ECF
330
1F
100
AcDbEntity
  8
SKVIEW1
100
AcDbCircle
 10
-80.31647199999644
 20
13.89953100000002
 30
0.0
 40
13.119309
100
AcDbArc
 50
236.8128570000003
 51
239.2009129999962
  0
ARC
  5
21ED0
330
1F
100
AcDbEntity
  8
SKVIEW1
100
AcDbCircle
 10
-82.90694999999619
 20
0.0
 30
0.0
 40
5.720412999999997
100
AcDbArc
 50
63.47694199999892
 51
145.5514760000012
  0
ARC
  5
21ED1
330
1F
100
AcDbEntity
  8
SKVIEW1
100
AcDbCircle
 10
-82.90694999999619
 20
0.0
 30
0.0
 40
4.894016999999998
100
AcDbArc
 50
62.35477200000369
 51
147.4871220000007
  0
ARC
  5
21ED2
330
1F
100
AcDbEntity
  8
SKVIEW1
100
AcDbCircle
 10
-82.90694999999619
 20
0.0
 30
0.0
 40
9.07
100
AcDbArc
 50
90.0
 51
131.9414560000016
  0
ARC
  5
21ED3
330
1F
100
AcDbEntity
  8
SKVIEW1
100
AcDbCircle
 10
-82.90694999999619
 20
0.0
 30
0.0
 40
9.449999999999999
100
AcDbArc
 50
90.0
 51
130.0463719999974
  0
ARC
  5
21ED4
330
1F
100
AcDbEntity
  8
SKVIEW1
100
AcDbCircle
 10
-82.90694999999619
 20
0.0
 30
0.0
 40
4.894016999999998
100
AcDbArc
 50
242.3547720000037
 51
327.4871220000008
  0
ARC
  5
21ED5
330
1F
100
AcDbEntity
  8
SKVIEW1
100
AcDbCircle
 10
-82.90694999999619
 20
0.0
 30
0.0
 40
5.720412999999997
100
AcDbArc
 50
243.4769419999989
 51
325.5514760000013
  0
ARC
  5
21ED6
330
1F
100
AcDbEntity
  8
SKVIEW1
100
AcDbCircle
 10
-83.20694999999615
 20
-6.190235000000029
 30
0.0
 40
0.4725
100
AcDbArc
 50
309.4140980000004
 51
87.22542100000296
  0
LINE
  5
21ED7
330
1F
100
AcDbEntity
  8
SKVIEW1
100
AcDbLine
 10
-82.90694999999619
 20
-9.069999999999993
 30
0.0
 11
-82.90694999999619
 21
-6.555277999999987
 31
0.0
  0
ARC
  5
21ED8
330
1F
100
AcDbEntity
  8
SKVIEW1
100
AcDbCircle
 10
-82.90694999999619
 20
0.0
 30
0.0
 40
9.07
100
AcDbArc
 50
270.0
 51
311.9414560000016
  0
ARC
  5
21ED9
330
1F
100
AcDbEntity
  8
SKVIEW1
100
AcDbCircle
 10
-82.90694999999619
 20
0.0
 30
0.0
 40
9.449999999999999
100
AcDbArc
 50
270.0
 51
310.0463719999973
  0
LINE
  5
21EDA
330
1F
100
AcDbEntity
  8
SKVIEW1
100
AcDbLine
 10
-82.90694999999619
 20
-9.069999999999993
 30
0.0
 11
-82.90694999999619
 21
-9.449999999999988
 31
0.0
  0
ARC
  5
21EDB
330
1F
100
AcDbEntity
  8
SKVIEW1
100
AcDbCircle
 10
-82.90694999999619
 20
0.0
 30
0.0
 40
5.724999999999997
100
AcDbArc
 50
6.471504999996843
 51
87.23911899999828
  0
LINE
  5
21EDC
330
1F
100
AcDbEntity
  8
SKVIEW1
100
AcDbLine
 10
-72.52453999999625
 20
-3.37100399999997
 30
0.0
 11
-72.52453999999625
 21
1.47808099999986
 31
0.0
  0
ARC
  5
21EDD
330
1F
100
AcDbEntity
  8
SKVIEW1
100
AcDbCircle
 10
-74.58480699999632
 20
-2.940202999999996
 30
0.0
 40
4.875027999999998
100
AcDbArc
 50
65.00013799999911
 51
123.7250509999963
  0
LINE
  5
21EDE
330
1F
100
AcDbEntity
  8
SKVIEW1
100
AcDbLine
 10
-78.01911899999629
 20
-3.660826000000042
 30
0.0
 11
-78.01911899999629
 21
-0.1982410000000527
 31
0.0
  0
SPLINE
  5
21EDF
330
1F
100
AcDbEntity
  8
SKVIEW1
100
AcDbSpline
210
0.0
220
0.0
230
1.0
 70
     8
 71
     5
 72
    21
 73
    15
 74
     0
 42
0.000000001
 43
0.0000000001
 40
0.0
 40
0.0
 40
0.0
 40
0.0
 40
0.0
 40
0.0
 40
2.363085379216264
 40
2.363085379216264
 40
2.363085379216264
 40
4.960699090374988
 40
4.960699090374988
 40
4.960699090374988
 40
7.649938757879787
 40
7.649938757879787
 40
7.649938757879787
 40
12.40218824811283
 40
12.40218824811283
 40
12.40218824811283
 40
12.40218824811283
 40
12.40218824811283
 40
12.40218824811283
 10
-72.52453825947441
 20
-3.370990417939424
 30
0.0
 10
-72.6763030198856
 20
-3.372201360380984
 30
0.0
 10
-72.84329062269614
 20
-3.371139059599045
 30
0.0
 10
-73.028129783841
 20
-3.367910504353517
 30
0.0
 10
-73.45809796819946
 20
-3.357514107721556
 30
0.0
 10
-73.97647058642224
 20
-3.345916238067445
 30
0.0
 10
-74.26198050124549
 20
-3.341509009882315
 30
0.0
 10
-74.88002238452907
 20
-3.342830572128434
 30
0.0
 10
-75.49138925288525
 20
-3.369289905216817
 30
0.0
 10
-75.77651359683421
 20
-3.389462212466185
 30
0.0
 10
-76.53803548117116
 20
-3.462386136467898
 30
0.0
 10
-77.14288195866982
 20
-3.566559206003262
 30
0.0
 10
-77.46677896959386
 20
-3.637375833286967
 30
0.0
 10
-77.7406517079379
 20
-3.706633706205366
 30
0.0
 10
-77.97448212569986
 20
-3.77290029460255
 30
0.0
  0
LINE
  5
21EE0
330
1F
100
AcDbEntity
  8
SKVIEW1
100
AcDbLine
 10
-82.90694999999619
 20
5.82510400000001
 30
0.0
 11
-82.90694999999619
 21
7.879999999999938
 31
0.0
  0
LINE
  5
21EE1
330
1F
100
AcDbEntity
  8
SKVIEW1
100
AcDbLine
 10
-72.52453999999625
 20
1.47808099999986
 30
0.0
 11
-63.83011299999612
 21
-2.576197000000036
 31
0.0
  0
ARC
  5
21EE2
330
1F
100
AcDbEntity
  8
SKVIEW1
100
AcDbCircle
 10
-82.90694999999619
 20
0.0
 30
0.0
 40
19.25
100
AcDbArc
 50
336.8487060000011
 51
75.56090999999875
  0
LINE
  5
21EE3
330
1F
100
AcDbEntity
  8
SKVIEW1
100
AcDbLine
 10
-78.10694999999634
 20
7.879999999999938
 30
0.0
 11
-78.10694999999634
 21
18.64195499999994
 31
0.0
  0
LINE
  5
21EE4
330
1F
100
AcDbEntity
  8
SKVIEW1
100
AcDbLine
 10
-78.10694999999634
 20
7.879999999999938
 30
0.0
 11
-82.90694999999619
 21
7.879999999999938
 31
0.0
  0
CIRCLE
  5
21EE5
330
1F
100
AcDbEntity
  8
SKVIEW1
100
AcDbCircle
 10
-69.3969539999963
 20
7.799999999999954
 30
0.0
 40
1.95
  0
SPLINE
  5
21EE6
330
1F
100
AcDbEntity
  8
SKVIEW1
100
AcDbSpline
210
0.0
220
0.0
230
1.0
 70
     8
 71
     5
 72
    36
 73
    30
 74
     0
 42
0.000000001
 43
0.0000000001
 40
0.0
 40
0.0
 40
0.0
 40
0.0
 40
0.0
 40
0.0
 40
3.987272426036753
 40
3.987272426036753
 40
3.987272426036753
 40
5.994883587103866
 40
5.994883587103866
 40
5.994883587103866
 40
7.379510267401091
 40
7.379510267401091
 40
7.379510267401091
 40
8.299423733226012
 40
8.299423733226012
 40
8.299423733226012
 40
9.219337199050935
 40
9.219337199050935
 40
9.219337199050935
 40
10.40854121792484
 40
10.40854121792484
 40
10.40854121792484
 40
11.86868350690815
 40
11.86868350690815
 40
11.86868350690815
 40
17.57098803372915
 40
17.57098803372915
 40
17.57098803372915
 40
20.45405640466177
 40
20.45405640466177
 40
20.45405640466177
 40
20.45405640466177
 40
20.45405640466177
 40
20.45405640466177
 10
-72.52453825947464
 20
-3.370990417940504
 30
0.0
 10
-72.26825774220481
 20
-3.368945536400985
 30
0.0
 10
-72.00644229080762
 20
-3.372564510649567
 30
0.0
 10
-71.74213439746245
 20
-3.382870625175996
 30
0.0
 10
-71.32642773217947
 20
-3.410340798721733
 30
0.0
 10
-70.87519413232826
 20
-3.466835690752475
 30
0.0
 10
-70.71252021237819
 20
-3.490795648015478
 30
0.0
 10
-70.44206203775582
 20
-3.5371986731285
 30
0.0
 10
-70.14980094624047
 20
-3.602514086128223
 30
0.0
 10
-70.02354888795981
 20
-3.633663217151024
 30
0.0
 10
-69.80976500700876
 20
-3.692215416265014
 30
0.0
 10
-69.5814719442576
 20
-3.767283371997791
 30
0.0
 10
-69.48792191390452
 20
-3.80025441134336
 30
0.0
 10
-69.29697427155645
 20
-3.872793638821462
 30
0.0
 10
-69.10131912319911
 20
-3.958920208596566
 30
0.0
 10
-69.00300548513143
 20
-4.005532222048259
 30
0.0
 10
-68.78203531640122
 20
-4.118599040407218
 30
0.0
 10
-68.57702330897064
 20
-4.241747834343527
 30
0.0
 10
-68.46902199146246
 20
-4.312771141907546
 30
0.0
 10
-68.24831912194452
 20
-4.469186427629665
 30
0.0
 10
-68.06470036295422
 20
-4.621424127270358
 30
0.0
 10
-67.97277003214015
 20
-4.703526530639635
 30
0.0
 10
-67.5578083111086
 20
-5.09894144743896
 30
0.0
 10
-67.29154089979124
 20
-5.461425057318876
 30
0.0
 10
-67.11834167360348
 20
-5.721410371240438
 30
0.0
 10
-66.88292539647034
 20
-6.13565960493338
 30
0.0
 10
-66.69369238575666
 20
-6.543631038013359
 30
0.0
 10
-66.6345126331671
 20
-6.680235061476878
 30
0.0
 10
-66.57934088056174
 20
-6.816450806235536
 30
0.0
 10
-66.52771389559745
 20
-6.952516178637154
 30
0.0
  0
LINE
  5
21EE7
330
1F
100
AcDbEntity
  8
SKVIEW1
100
AcDbLine
 10
-66.52768599999626
 20
-6.952564000000052
 30
0.0
 11
-65.20715499999631
 21
-7.568337999999982
 31
0.0
  0
ARC
  5
21EE8
330
1F
100
AcDbEntity
  8
SKVIEW1
100
AcDbCircle
 10
-82.90694999999619
 20
0.0
 30
0.0
 40
4.724999999999996
100
AcDbArc
 50
346.9952470000015
 51
356.552174000002
  0
ARC
  5
21EE9
330
1F
100
AcDbEntity
  8
SKVIEW1
100
AcDbCircle
 10
-75.98956399999645
 20
-19.86953300000005
 30
0.0
 40
15.500746
100
AcDbArc
 50
92.62539900000108
 51
96.34496300000492
  0
ARC
  5
21EEA
330
1F
100
AcDbEntity
  8
SKVIEW1
100
AcDbCircle
 10
-82.90694999999619
 20
0.0
 30
0.0
 40
7.599999999999997
100
AcDbArc
 50
324.7615689999985
 51
332.2777040000001
  0
ELLIPSE
  5
21EEB
330
1F
100
AcDbEntity
  8
SKVIEW1
100
AcDbEllipse
 10
-74.7880249999963
 20
-14.61434200000013
 30
0.0
 11
9.734926223754882
 21
5.683640956878662
 31
0.0
210
0.0
220
0.0
230
1.0
 40
0.9888379999999996
 41
0.2217666415012401
 42
1.171309352730963
  0
LINE
  5
21EEC
330
1F
100
AcDbEntity
  8
SKVIEW1
100
AcDbLine
 10
-87.7947809999963
 20
3.661050999999929
 30
0.0
 11
-87.7947809999963
 21
0.198240999999939
 31
0.0
  0
SPLINE
  5
21EED
330
1F
100
AcDbEntity
  8
SKVIEW1
100
AcDbSpline
210
0.0
220
0.0
230
1.0
 70
     8
 71
     5
 72
    36
 73
    30
 74
     0
 42
0.000000001
 43
0.0000000001
 40
0.0
 40
0.0
 40
0.0
 40
0.0
 40
0.0
 40
0.0
 40
3.987272426198356
 40
3.987272426198356
 40
3.987272426198356
 40
5.994883589880237
 40
5.994883589880237
 40
5.994883589880237
 40
7.379510270682892
 40
7.379510270682892
 40
7.379510270682892
 40
8.299423737831196
 40
8.299423737831196
 40
8.299423737831196
 40
9.219337204979504
 40
9.219337204979504
 40
9.219337204979504
 40
10.408541223508
 40
10.408541223508
 40
10.408541223508
 40
11.86868351319314
 40
11.86868351319314
 40
11.86868351319314
 40
17.57098805442552
 40
17.57098805442552
 40
17.57098805442552
 40
20.4540564261586
 40
20.4540564261586
 40
20.4540564261586
 40
20.4540564261586
 40
20.4540564261586
 40
20.4540564261586
 10
-93.28936174051751
 20
3.370990417940561
 30
0.0
 10
-93.54564225777854
 20
3.368945536393141
 30
0.0
 10
-93.80745770923544
 20
3.372564510649056
 30
0.0
 10
-94.07176560223183
 20
3.382870625162809
 30
0.0
 10
-94.48747226756109
 20
3.410340798692629
 30
0.0
 10
-94.9387058676632
 20
3.466835690742527
 30
0.0
 10
-95.10137978695263
 20
3.490795647898096
 30
0.0
 10
-95.37183796216721
 20
3.537198673104342
 30
0.0
 10
-95.66409905411626
 20
3.602514086212465
 30
0.0
 10
-95.79035111238225
 20
3.633663217241746
 30
0.0
 10
-96.00413499352406
 20
3.692215416420026
 30
0.0
 10
-96.23242805649443
 20
3.767283372254098
 30
0.0
 10
-96.32597808699564
 20
3.800254411667481
 30
0.0
 10
-96.51692572967682
 20
3.872793639318331
 30
0.0
 10
-96.7125808783917
 20
3.958920209326493
 30
0.0
 10
-96.81089451653726
 20
4.005532222858448
 30
0.0
 10
-97.03186468576951
 20
4.118599041614629
 30
0.0
 10
-97.23687669286414
 20
4.241747835481419
 30
0.0
 10
-97.34487800990041
 20
4.312771142835856
 30
0.0
 10
-97.56558087949294
 20
4.469186428737828
 30
0.0
 10
-97.74919963815262
 20
4.621424128256023
 30
0.0
 10
-97.8411299682201
 20
4.703526530974954
 30
0.0
 10
-98.25609168999415
 20
5.098941448599873
 30
0.0
 10
-98.52235910154798
 20
5.461425059143778
 30
0.0
 10
-98.69555832539072
 20
5.721410369544344
 30
0.0
 10
-98.93097460307217
 20
6.135659604021157
 30
0.0
 10
-99.12020761417261
 20
6.543631037869829
 30
0.0
 10
-99.17938736679069
 20
6.680235061385815
 30
0.0
 10
-99.23455911941355
 20
6.816450806189436
 30
0.0
 10
-99.2861861043948
 20
6.952516178636869
 30
0.0
  0
SPLINE
  5
21EEE
330
1F
100
AcDbEntity
  8
SKVIEW1
100
AcDbSpline
210
0.0
220
0.0
230
1.0
 70
     8
 71
     5
 72
    21
 73
    15
 74
     0
 42
0.000000001
 43
0.0000000001
 40
0.0
 40
0.0
 40
0.0
 40
0.0
 40
0.0
 40
0.0
 40
2.363028166680488
 40
2.363028166680488
 40
2.363028166680488
 40
4.960569604657988
 40
4.960569604657988
 40
4.960569604657988
 40
7.649753118057527
 40
7.649753118057527
 40
7.649753118057527
 40
12.40191313836561
 40
12.40191313836561
 40
12.40191313836561
 40
12.40191313836561
 40
12.40191313836561
 40
12.40191313836561
 10
-93.28936174051774
 20
3.370990417939538
 30
0.0
 10
-93.13760065445491
 20
3.372201331057453
 30
0.0
 10
-92.97061746321924
 20
3.37113911104916
 30
0.0
 10
-92.78578409598456
 20
3.3679107491688
 30
0.0
 10
-92.35583037208153
 20
3.357514892516519
 30
0.0
 10
-91.83747663908013
 20
3.345917151519245
 30
0.0
 10
-91.55197654365133
 20
3.341509648169278
 30
0.0
 10
-90.9339523131157
 20
3.342829356644017
 30
0.0
 10
-90.32259626404561
 20
3.369285036852033
 30
0.0
 10
-90.03747405991816
 20
3.389455380858237
 30
0.0
 10
-89.27595288973771
 20
3.462374108726749
 30
0.0
 10
-88.6711002570736
 20
3.566543210302825
 30
0.0
 10
-88.34719835574857
 20
3.637358280170019
 30
0.0
 10
-88.07332091333455
 20
3.706615062676576
 30
0.0
 10
-87.83948561754096
 20
3.772881096721391
 30
0.0
  0
ARC
  5
21EEF
330
1F
100
AcDbEntity
  8
SKVIEW1
100
AcDbCircle
 10
-89.82433599999614
 20
19.86952999999988
 30
0.0
 40
15.500742
100
AcDbArc
 50
272.6253990000011
 51
276.3452820000047
  0
ARC
  5
21EF0
330
1F
100
AcDbEntity
  8
SKVIEW1
100
AcDbCircle
 10
-82.90694999999619
 20
0.0
 30
0.0
 40
7.599999999999997
100
AcDbArc
 50
144.7615689999985
 51
152.2777039999994
  0
ELLIPSE
  5
21EF1
330
1F
100
AcDbEntity
  8
SKVIEW1
100
AcDbEllipse
 10
-91.02587499999629
 20
14.61434199999996
 30
0.0
 11
9.734926223754882
 21
5.683640956878662
 31
0.0
210
0.0
220
0.0
230
1.0
 40
0.9888379999999996
 41
3.363359288720451
 42
4.312901999817336
  0
LINE
  5
21EF2
330
1F
100
AcDbEntity
  8
SKVIEW1
100
AcDbLine
 10
-93.2893599999962
 20
3.37100399999997
 30
0.0
 11
-93.2893599999962
 21
-1.478081000000031
 31
0.0
  0
ARC
  5
21EF3
330
1F
100
AcDbEntity
  8
SKVIEW1
100
AcDbCircle
 10
-91.2292209999963
 20
2.940944999999942
 30
0.0
 40
4.875771
100
AcDbArc
 50
245.0051950000001
 51
303.721462999998
  0
ARC
  5
21EF4
330
1F
100
AcDbEntity
  8
SKVIEW1
100
AcDbCircle
 10
-82.90694999999619
 20
0.0
 30
0.0
 40
5.724999999999997
100
AcDbArc
 50
186.4715049999968
 51
241.352110000002
  0
LINE
  5
21EF5
330
1F
100
AcDbEntity
  8
SKVIEW1
100
AcDbLine
 10
-87.70694999999614
 20
-7.880000000000052
 30
0.0
 11
-82.90694999999619
 21
-7.880000000000052
 31
0.0
  0
LINE
  5
21EF6
330
1F
100
AcDbEntity
  8
SKVIEW1
100
AcDbLine
 10
-82.90694999999619
 20
-11.26383000000004
 30
0.0
 11
-82.90694999999619
 21
-9.450009000000136
 31
0.0
  0
LINE
  5
21EF7
330
1F
100
AcDbEntity
  8
SKVIEW1
100
AcDbLine
 10
-82.90694999999619
 20
-19.25000000000006
 30
0.0
 11
-82.90694999999619
 21
-15.29281600000007
 31
0.0
  0
ARC
  5
21EF8
330
1F
100
AcDbEntity
  8
SKVIEW1
100
AcDbCircle
 10
-82.90694999999619
 20
0.0
 30
0.0
 40
19.25
100
AcDbArc
 50
172.3091230000032
 51
255.5609099999987
  0
LINE
  5
21EF9
330
1F
100
AcDbEntity
  8
SKVIEW1
100
AcDbLine
 10
-99.28621399999634
 20
6.952563999999938
 30
0.0
 11
-100.6067449999962
 21
7.568337999999926
 31
0.0
  0
LINE
  5
21EFA
330
1F
100
AcDbEntity
  8
SKVIEW1
100
AcDbLine
 10
-82.90694999999619
 20
-6.555277999999987
 30
0.0
 11
-82.90694999999619
 21
-5.825196000000062
 31
0.0
  0
ARC
  5
21EFB
330
1F
100
AcDbEntity
  8
SKVIEW1
100
AcDbCircle
 10
-82.90694999999619
 20
0.0
 30
0.0
 40
19.25
100
AcDbArc
 50
156.848706000001
 51
172.3091230000032
  0
LINE
  5
21EFC
330
1F
100
AcDbEntity
  8
SKVIEW1
100
AcDbLine
 10
-93.2893599999962
 20
-1.478081000000031
 30
0.0
 11
-101.9837869999962
 21
2.576196999999865
 31
0.0
  0
LINE
  5
21EFD
330
1F
100
AcDbEntity
  8
SKVIEW1
100
AcDbLine
 10
-87.70694999999614
 20
-7.880000000000052
 30
0.0
 11
-87.70694999999614
 21
-8.55459600000006
 31
0.0
  0
CIRCLE
  5
21EFE
330
1F
100
AcDbEntity
  8
SKVIEW1
100
AcDbCircle
 10
-96.41694599999619
 20
-7.800000000000125
 30
0.0
 40
1.95
  0
LINE
  5
21F07
330
1F
100
AcDbEntity
  8
1
100
AcDbLine
 10
31.52000000000305
 20
9.449999999999931
 30
0.0
 11
30.72000000000412
 21
9.449999999999931
 31
0.0
  0
LINE
  5
21F08
330
1F
100
AcDbEntity
  8
1
100
AcDbLine
 10
30.72000000000412
 20
9.449999999999931
 30
0.0
 11
28.83800000000417
 21
9.449999999999931
 31
0.0
  0
LINE
  5
21F09
330
1F
100
AcDbEntity
  8
1
100
AcDbLine
 10
32.17817900000421
 20
9.07000000000005
 30
0.0
 11
31.52000000000305
 21
9.449999999999931
 31
0.0
  0
LINE
  5
21F0A
330
1F
100
AcDbEntity
  8
1
100
AcDbLine
 10
32.62159300000315
 20
6.55527799999993
 30
0.0
 11
32.17817900000421
 21
9.07000000000005
 31
0.0
  0
LINE
  5
21F0B
330
1F
100
AcDbEntity
  8
1
100
AcDbLine
 10
32.75077300000419
 20
5.822657999999876
 30
0.0
 11
32.62159300000315
 21
6.55527799999993
 31
0.0
  0
ARC
  5
21F0C
330
1F
100
AcDbEntity
  8
1
100
AcDbCircle
 10
36.30524600000308
 20
6.343982999999923
 30
0.0
 40
3.591
100
AcDbArc
 50
189.9999990000016
 51
203.8145669999962
  0
LINE
  5
21F0D
330
1F
100
AcDbEntity
  8
1
100
AcDbLine
 10
32.76880200000415
 20
5.720411999999896
 30
0.0
 11
32.75077300000419
 21
5.822657999999876
 31
0.0
  0
LINE
  5
21F0E
330
1F
100
AcDbEntity
  8
1
100
AcDbLine
 10
35.18000000000313
 20
0.0
 30
0.0
 11
33.0199950000042
 21
4.894016999999962
 31
0.0
  0
LINE
  5
21F0F
330
1F
100
AcDbEntity
  8
1
100
AcDbLine
 10
24.68000000000313
 20
8.335867000000007
 30
0.0
 11
24.68000000000313
 21
3.059771326244458
 31
0.0
  0
DIMENSION
  5
21F10
330
1F
100
AcDbEntity
  8
SK2
100
AcDbDimension
280
     0
  2
*D16
 10
-30.86722024185815
 20
-7.600000000000075
 30
0.0
 11
-30.86722024185815
 21
-0.0000000000000142
 31
0.0
 70
   160
  1
%%C<>
 71
     5
 42
15.20000000000004
 73
     0
 74
     0
 75
     0
  3
STANDARD
100
AcDbAlignedDimension
 13
-15.49999999999625
 23
7.599999999999965
 33
0.0
 14
-15.49999999999625
 24
-7.600000000000079
 34
0.0
 50
90.0
100
AcDbRotatedDimension
1001
ACAD_DSTYLE_DIMARC_LENGTH_SYMBOL
1070
   379
1070
     1
1001
ACAD_DSTYLE_DIM_LINETYPE
1070
   380
1005
14
1001
ACAD_DSTYLE_DIM_EXT1_LINETYPE
1070
   381
1005
14
1001
ACAD_DSTYLE_DIM_EXT2_LINETYPE
1070
   382
1005
14
1001
ACAD
1000
DSTYLE
1002
{
1070
   172
1070
     1
1002
}
  0
LINE
  5
22091
330
1F
100
AcDbEntity
  8
4
100
AcDbLine
 10
0.0000000000037517
 20
0.0
 30
0.0
 11
38.18561500000419
 21
0.0
 31
0.0
  0
LWPOLYLINE
  5
22098
330
1F
100
AcDbEntity
  8
CUT
 48
0.240324
100
AcDbPolyline
 90
       18
 70
     1
 43
0.0
 10
33.01999436910666
 20
4.894016544631909
 42
-0.0409209816534385
 10
32.76880200000415
 20
5.720411999999896
 10
32.75077300000305
 20
5.822657999999876
 10
32.62159300000315
 20
6.55527799999993
 10
32.17817900000421
 20
9.07000000000005
 10
31.52000000000305
 20
9.449999999999931
 10
30.72000000000412
 20
9.449999999999931
 10
30.72000000000418
 20
18.69999999999993
 42
0.4142135623730951
 10
29.92000000000416
 20
19.49999999999988
 10
19.90000000000305
 20
19.49999999999993
 42
0.4142135623730951
 10
19.10000000000411
 20
18.69999999999993
 10
19.10000000000303
 20
8.679999999999949
 42
0.4142135623730951
 10
19.90000000000305
 20
7.879999999999938
 10
24.68000000000313
 20
7.879999999999938
 10
24.68000000000313
 20
7.101663999999971
 10
24.68000000000313
 20
3.059641999999939
 10
24.68000000000416
 20
0.0
 10
35.18000000000313
 20
0.0
  0
LWPOLYLINE
  5
220AA
330
1F
100
AcDbEntity
  8
NOCUT
100
AcDbPolyline
 90
        9
 70
     1
 43
0.0
 10
-15.49999999999625
 20
0.0
 10
29.7200000000031
 20
0.0
 10
29.7200000000031
 20
9.228942000000017
 10
29.7200000000031
 20
19.24999999999988
 10
0.0000000000037517
 20
19.24999999999988
 10
0.0000000000037517
 20
9.228942000000017
 10
0.0000000000037517
 20
7.599999999999965
 10
-15.49999999999625
 20
7.599999999999965
 10
-15.49999999999625
 20
3.643633999999963
  0
VIEWPORT
  5
9C00
330
1B
100
AcDbEntity
 67
     1
  8
0
348
3195
100
AcDbViewport
 10
108.2280559557949
 20
71.69854161746989
 30
0.0
 40
251.8950231529317
 41
201.8884082081047
 68
     1
 69
     1
 12
108.2280559557949
 22
71.69854161746989
 13
0.0
 23
0.0
 14
10.0
 24
10.0
 15
10.0
 25
10.0
 16
0.0
 26
0.0
 36
1.0
 17
0.0
 27
0.0
 37
0.0
 42
50.0
 43
0.0
 44
0.0
 45
201.8884082081047
 50
0.0
 51
0.0
 72
   100
 90
   557088
  1

281
     0
 71
     1
 74
     0
110
0.0
120
0.0
130
0.0
111
1.0
121
0.0
131
0.0
112
0.0
122
1.0
132
0.0
 79
     0
146
0.0
170
     0
 61
     5
292
     1
282
     1
141
0.0
142
0.0
 63
   250
421
  3355443
  0
VIEWPORT
  5
9C02
330
1B
100
AcDbEntity
 67
     1
  8
1
348
3195
100
AcDbViewport
 10
143.457083940506
 20
98.18158769607544
 30
0.0
 40
229.5313343048095
 41
157.0905403137207
 68
     2
 69
     2
 12
-44.37697124786255
 22
-35.12342998133886
 13
0.0
 23
0.0
 14
10.0
 24
10.0
 15
10.0
 25
10.0
 16
0.0
 26
0.0
 36
1.0
 17
0.0
 27
0.0
 37
0.0
 42
50.0
 43
0.0
 44
0.0
 45
300.3886240724386
 50
0.0
 51
0.0
 72
   100
 90
   557088
  1

281
     0
 71
     1
 74
     0
110
0.0
120
0.0
130
0.0
111
1.0
121
0.0
131
0.0
112
0.0
122
1.0
132
0.0
 79
     0
146
0.0
170
     0
 61
     5
348
3195
292
     1
282
     1
141
0.0
142
0.0
 63
   250
421
  3355443
  0
ENDSEC
  0
SECTION
  2
OBJECTS
  0
DICTIONARY
  5
3182
330
0
100
AcDbDictionary
281
     1
  3
ACAD_CIP_PREVIOUS_PRODUCT_INFO
350
1B2F4
  3
ACAD_COLOR
350
31A0
  3
ACAD_DETAILVIEWSTYLE
350
1B2F0
  3
ACAD_FIELDLIST
350
20CBF
  3
ACAD_GROUP
350
3183
  3
ACAD_LAYOUT
350
31A5
  3
ACAD_MATERIAL
350
318B
  3
ACAD_MLEADERSTYLE
350
1B221
  3
ACAD_MLINESTYLE
350
3184
  3
ACAD_PLOTSETTINGS
350
31A4
  3
ACAD_PLOTSTYLENAME
350
3189
  3
ACAD_SCALELIST
350
1B1FC
  3
ACAD_SECTIONVIEWSTYLE
350
1B2EE
  3
ACAD_TABLESTYLE
350
31A1
  3
ACAD_VISUALSTYLE
350
318F
  3
ACDB_RECOMPOSE_DATA
350
220E3
  3
AcDbVariableDictionary
350
33A3
  0
DICTIONARY
  5
422A
330
2
100
AcDbDictionary
280
     1
281
     1
  3
ACAD_LAYERFILTERS
360
1B063
  3
ACAD_LAYERSTATES
360
9A1C
  3
ACLYDICTIONARY
360
1B062
  0
DICTIONARY
  5
1B2F5
330
10
100
AcDbDictionary
280
     1
281
     1
  3
ADSK_XREC_LAYER_RECONCILED
360
21B8E
  0
DICTIONARY
  5
1B2F7
330
3F8C
100
AcDbDictionary
280
     1
281
     1
  3
ADSK_XREC_LAYER_RECONCILED
360
21B8F
  0
DICTIONARY
  5
1B2F9
330
9C4A
100
AcDbDictionary
280
     1
281
     1
  3
ADSK_XREC_LAYER_RECONCILED
360
21B90
  0
DICTIONARY
  5
1B2FB
330
9C4B
100
AcDbDictionary
280
     1
281
     1
  3
ADSK_XREC_LAYER_RECONCILED
360
21B91
  0
DICTIONARY
  5
1B2FD
330
9C4D
100
AcDbDictionary
280
     1
281
     1
  3
ADSK_XREC_LAYER_RECONCILED
360
21B92
  0
DICTIONARY
  5
1B2FF
330
9C4E
100
AcDbDictionary
280
     1
281
     1
  3
ADSK_XREC_LAYER_RECONCILED
360
21B93
  0
DICTIONARY
  5
1B301
330
9C4F
100
AcDbDictionary
280
     1
281
     1
  3
ADSK_XREC_LAYER_RECONCILED
360
21B94
  0
DICTIONARY
  5
1B303
330
9C50
100
AcDbDictionary
280
     1
281
     1
  3
ADSK_XREC_LAYER_RECONCILED
360
21B95
  0
DICTIONARY
  5
1B305
330
9C51
100
AcDbDictionary
280
     1
281
     1
  3
ADSK_XREC_LAYER_RECONCILED
360
21B96
  0
DICTIONARY
  5
1B307
330
13335
100
AcDbDictionary
280
     1
281
     1
  3
ADSK_XREC_LAYER_RECONCILED
360
21B97
  0
DICTIONARY
  5
1B309
330
1686E
100
AcDbDictionary
280
     1
281
     1
  3
ADSK_XREC_LAYER_RECONCILED
360
21B98
  0
DICTIONARY
  5
339C
330
1F
100
AcDbDictionary
280
     1
281
     1
  3
ACAD_SORTENTS
360
339D
  0
DICTIONARY
  5
1DE81
330
1B3D7
100
AcDbDictionary
280
     1
281
     1
  0
XRECORD
  5
1B2F4
102
{ACAD_REACTORS
330
3182
102
}
330
3182
100
AcDbXrecord
280
     1
300
ACDLT
300
2015
300
ACDLT_F_S
  0
DICTIONARY
  5
31A0
102
{ACAD_REACTORS
330
3182
102
}
330
3182
100
AcDbDictionary
281
     1
  0
DICTIONARY
  5
1B2F0
102
{ACAD_REACTORS
330
3182
102
}
330
3182
100
AcDbDictionary
281
     1
  3
Imperial24
350
20CB3
  3
Metric50
350
1B2F1
  0
FIELDLIST
  5
20CBF
102
{ACAD_REACTORS
330
3182
102
}
330
3182
100
AcDbIdSet
 90
        0
100
AcDbFieldList
  0
DICTIONARY
  5
3183
102
{ACAD_REACTORS
330
3182
102
}
330
3182
100
AcDbDictionary
281
     1
  0
DICTIONARY
  5
31A5
102
{ACAD_REACTORS
330
3182
102
}
330
3182
100
AcDbDictionary
281
     1
  3
Layout1
350
31A7
  3
Model
350
31A6
  0
DICTIONARY
  5
318B
102
{ACAD_REACTORS
330
3182
102
}
330
3182
100
AcDbDictionary
281
     1
  3
ByBlock
350
318D
  3
ByLayer
350
318C
  3
Global
350
318E
  0
DICTIONARY
  5
1B221
102
{ACAD_REACTORS
330
3182
102
}
330
3182
100
AcDbDictionary
281
     1
  3
Standard
350
1B2ED
  0
DICTIONARY
  5
3184
102
{ACAD_REACTORS
330
3182
102
}
330
3182
100
AcDbDictionary
281
     1
  3
STANDARD
350
3185
  0
DICTIONARY
  5
31A4
102
{ACAD_REACTORS
330
3182
102
}
330
3182
100
AcDbDictionary
281
     1
  0
ACDBDICTIONARYWDFLT
  5
3189
102
{ACAD_REACTORS
330
3182
102
}
330
3182
100
AcDbDictionary
281
     1
  3
Normal
350
318A
100
AcDbDictionaryWithDefault
340
318A
  0
DICTIONARY
  5
1B1FC
102
{ACAD_REACTORS
330
3182
102
}
330
3182
100
AcDbDictionary
281
     1
  3
A0
350
1B1FD
  3
A1
350
1B1FE
  3
A2
350
1B1FF
  3
A3
350
1B200
  3
A4
350
1B201
  3
A5
350
1B202
  3
A6
350
1B203
  3
A7
350
1B204
  3
A8
350
1B205
  3
A9
350
1B206
  3
B0
350
1B207
  3
B1
350
1B208
  3
B2
350
1B209
  3
B3
350
1B20A
  3
B4
350
1B20B
  3
B5
350
1B20C
  3
B6
350
1B20D
  3
B7
350
1B20E
  3
B8
350
1B20F
  3
B9
350
1B210
  3
C0
350
1B211
  3
C1
350
1B212
  3
C2
350
1B213
  3
C3
350
1B214
  3
C4
350
1B215
  3
C5
350
1B216
  3
C6
350
1B217
  3
C7
350
1B218
  3
C8
350
1B219
  3
C9
350
1B21A
  3
D0
350
1B21B
  3
D1
350
1B21C
  3
D2
350
1B21D
  0
DICTIONARY
  5
1B2EE
102
{ACAD_REACTORS
330
3182
102
}
330
3182
100
AcDbDictionary
281
     1
  3
Imperial24
350
20CB1
  3
Metric50
350
1B2EF
  0
DICTIONARY
  5
31A1
102
{ACAD_REACTORS
330
3182
102
}
330
3182
100
AcDbDictionary
281
     1
  3
Standard
350
31A2
  0
DICTIONARY
  5
318F
102
{ACAD_REACTORS
330
3182
102
}
330
3182
100
AcDbDictionary
281
     1
  3
2dWireframe
350
3195
  3
3D Hidden
350
3197
  3
3dWireframe
350
3196
  3
Basic
350
3194
  3
Brighten
350
319B
  3
ColorChange
350
319F
  3
Conceptual
350
3198
  3
Dim
350
319A
  3
EdgeColorOff
350
1B2EC
  3
Facepattern
350
319E
  3
Flat
350
3190
  3
FlatWithEdges
350
3191
  3
Gouraud
350
3192
  3
GouraudWithEdges
350
3193
  3
Hidden
350
1B2E4
  3
JitterOff
350
1B2EA
  3
Linepattern
350
319D
  3
OverhangOff
350
1B2EB
  3
Realistic
350
3199
  3
Shaded
350
1B2E9
  3
Shaded with edges
350
1B2E8
  3
Shades of Gray
350
1B2E5
  3
Sketchy
350
1B2E6
  3
Thicken
350
319C
  3
Wireframe
350
1B2E3
  3
X-Ray
350
1B2E7
  0
XRECORD
  5
220E3
102
{ACAD_REACTORS
330
3182
102
}
330
3182
100
AcDbXrecord
280
     1
 90
        1
330
31A2
  0
DICTIONARY
  5
33A3
102
{ACAD_REACTORS
330
3182
102
}
330
3182
100
AcDbDictionary
281
     1
  3
CANNOSCALE
350
1B222
  3
CMLEADERSTYLE
350
1B30F
  3
CTABLESTYLE
350
33A4
  3
CVIEWDETAILSTYLE
350
1B310
  3
CVIEWSECTIONSTYLE
350
1B311
  3
DIMASSOC
350
9BE8
  3
INDEXCTL
350
9BE7
  3
LAYEREVAL
350
20993
  3
LAYERNOTIFY
350
20994
  3
LIGHTINGUNITS
350
20992
  3
MSLTSCALE
350
20991
  3
SORTENTS
350
9BE6
  0
DICTIONARY
  5
1B063
102
{ACAD_REACTORS
330
422A
102
}
330
422A
100
AcDbDictionary
281
     1
  0
DICTIONARY
  5
9A1C
102
{ACAD_REACTORS
330
422A
102
}
330
422A
100
AcDbDictionary
281
     1
  0
DICTIONARY
  5
1B062
102
{ACAD_REACTORS
330
422A
102
}
330
422A
100
AcDbDictionary
281
     1
1001
ACAD
1000
<All
  0
XRECORD
  5
21B8E
102
{ACAD_REACTORS
330
1B2F5
102
}
330
1B2F5
100
AcDbXrecord
280
     1
290
     1
  0
XRECORD
  5
21B8F
102
{ACAD_REACTORS
330
1B2F7
102
}
330
1B2F7
100
AcDbXrecord
280
     1
290
     1
  0
XRECORD
  5
21B90
102
{ACAD_REACTORS
330
1B2F9
102
}
330
1B2F9
100
AcDbXrecord
280
     1
290
     1
  0
XRECORD
  5
21B91
102
{ACAD_REACTORS
330
1B2FB
102
}
330
1B2FB
100
AcDbXrecord
280
     1
290
     1
  0
XRECORD
  5
21B92
102
{ACAD_REACTORS
330
1B2FD
102
}
330
1B2FD
100
AcDbXrecord
280
     1
290
     1
  0
XRECORD
  5
21B93
102
{ACAD_REACTORS
330
1B2FF
102
}
330
1B2FF
100
AcDbXrecord
280
     1
290
     1
  0
XRECORD
  5
21B94
102
{ACAD_REACTORS
330
1B301
102
}
330
1B301
100
AcDbXrecord
280
     1
290
     1
  0
XRECORD
  5
21B95
102
{ACAD_REACTORS
330
1B303
102
}
330
1B303
100
AcDbXrecord
280
     1
290
     1
  0
XRECORD
  5
21B96
102
{ACAD_REACTORS
330
1B305
102
}
330
1B305
100
AcDbXrecord
280
     1
290
     1
  0
XRECORD
  5
21B97
102
{ACAD_REACTORS
330
1B307
102
}
330
1B307
100
AcDbXrecord
280
     1
290
     1
  0
XRECORD
  5
21B98
102
{ACAD_REACTORS
330
1B309
102
}
330
1B309
100
AcDbXrecord
280
     1
290
     1
  0
SORTENTSTABLE
  5
339D
102
{ACAD_REACTORS
330
339C
102
}
330
339C
100
AcDbSortentsTable
330
1F
331
21EF8
  5
21F0C
331
21EE9
  5
21EFD
331
21EDA
  5
21EEE
331
21E59
  5
21E6D
331
21ED4
  5
21EE8
331
21E4A
  5
21E5E
331
21EC5
  5
21ED9
331
21EB6
  5
21ECA
331
21E1D
  5
21E29
331
21EA7
  5
21EBB
331
21E98
  5
21EAC
331
21DFF
  5
21E03
331
21E89
  5
21E9D
331
21E7A
  5
21E8E
331
21EF6
  5
21F0A
331
21E6B
  5
21E7F
331
21EE7
  5
21EFB
331
21E57
  5
21E6B
331
21DF0
  5
21DF0
331
21EC0
  5
21ED4
331
21EB1
  5
21EC5
331
21E18
  5
21E24
331
21EA2
  5
21EB6
331
21E09
  5
21E15
331
22091
  5
21DF8
331
21E93
  5
21EA7
331
21E84
  5
21E98
331
21E75
  5
21E89
331
21F0F
  5
220B1
331
21E66
  5
21E7A
331
21EF1
  5
21F05
331
21EE2
  5
21EF6
331
21E52
  5
21E66
331
21E43
  5
21E54
331
21ECD
  5
21EE1
331
21E34
  5
21E45
331
21EBE
  5
21ED2
331
21E25
  5
21E33
331
21EAF
  5
21EC3
331
21E16
  5
21E22
331
21E07
  5
21E13
331
21DFA
  5
21DFB
331
21E70
  5
21E84
331
21F0A
  5
220AC
331
21E61
  5
21E75
331
21EFB
  5
21F0F
331
21EEC
  5
21F00
331
21EDD
  5
21EF1
331
21E5C
  5
21E70
331
21E4D
  5
21E61
331
21ED7
  5
21EEB
331
21E3E
  5
21E4F
331
21EC8
  5
21EDC
331
21E2F
  5
21E40
331
21EB9
  5
21ECD
331
21E20
  5
21E2C
331
21EAA
  5
21EBE
331
21E9B
  5
21EAF
331
21E02
  5
21E07
331
21E8C
  5
21EA0
331
21E7D
  5
21E91
331
21E6E
  5
21E82
331
21DF3
  5
21DF3
331
21ED8
  5
21EEC
331
21ED2
  5
21EE6
331
21E48
  5
21E5C
331
21EC3
  5
21ED7
331
21E2A
  5
21E38
331
21EB4
  5
21EC8
331
21E1B
  5
21E27
331
21EA5
  5
21EB9
331
21E96
  5
21EAA
331
21E87
  5
21E9B
331
21E78
  5
21E8C
331
21EF4
  5
21F08
331
21E69
  5
21E7D
331
21EE5
  5
21EF9
331
21E46
  5
21E5A
331
21E37
  5
21E48
331
21DEF
  5
21DEF
331
21EA0
  5
21EB4
331
21E91
  5
21EA5
331
21E82
  5
21E96
331
21E73
  5
21E87
331
21F0D
  5
220AF
331
21E64
  5
21E78
331
21EFE
  5
220A0
331
21EEF
  5
21F03
331
21EE0
  5
21EF4
331
21E5F
  5
21E73
331
21E50
  5
21E64
331
21E41
  5
21E52
331
21ECB
  5
21EDF
331
21E32
  5
21E43
331
21EBC
  5
21ED0
331
21E23
  5
21E31
331
21EAD
  5
21EC1
331
21E14
  5
21E20
331
21E9E
  5
21EB2
331
21E05
  5
21E0A
331
21DF8
  5
21DF9
331
21E8F
  5
21EA3
331
21DF6
  5
21DF6
331
21F08
  5
220AA
331
21EF9
  5
21F0D
331
21EEA
  5
21EFE
331
21EDB
  5
21EEF
331
21E5A
  5
21E6E
331
21E4B
  5
21E5F
331
21ED5
  5
21EE9
331
21E3C
  5
21E4D
331
21EC6
  5
21EDA
331
21EB7
  5
21ECB
331
21E1E
  5
21E2A
331
21EA8
  5
21EBC
331
21E99
  5
21EAD
331
21E00
  5
21E04
331
21E8A
  5
21E9E
331
21E7B
  5
21E8F
331
21EF7
  5
21F0B
331
21E6C
  5
21E80
331
21DF1
  5
21DF1
331
21ED0
  5
21EE4
331
21EC1
  5
21ED5
331
21E28
  5
21E36
331
21EB2
  5
21EC6
331
21E19
  5
21E25
331
21EA3
  5
21EB7
331
21E0A
  5
21E1D
331
21E94
  5
21EA8
331
21E85
  5
21E99
331
21E76
  5
21E8A
331
21F10
  5
220B2
331
21E67
  5
21E7B
331
21EF2
  5
21F06
331
21EE3
  5
21EF7
331
21E53
  5
21E69
331
21E44
  5
21E57
331
21ECE
  5
21EE2
331
21E35
  5
21E46
331
21EBF
  5
21ED3
331
21E26
  5
21E34
331
21E17
  5
21E23
331
21DFB
  5
21DFC
331
21E80
  5
21E94
331
21E71
  5
21E85
331
21F0B
  5
220AD
331
21E62
  5
21E76
331
21EFC
  5
21F10
331
21EED
  5
21F01
331
21EDE
  5
21EF2
331
21E5D
  5
21E71
331
21E4E
  5
21E62
331
21E3F
  5
21E50
331
21EC9
  5
21EDD
331
21E30
  5
21E41
331
21EBA
  5
21ECE
331
21E21
  5
21E2F
331
21EAB
  5
21EBF
331
21E12
  5
21E1E
331
21E9C
  5
21EB0
331
21E03
  5
21E08
331
21E8D
  5
21EA1
331
21E7E
  5
21E92
331
21E6F
  5
21E83
331
21DF4
  5
21DF4
331
21EE8
  5
21EFC
331
21ED9
  5
21EED
331
21ED3
  5
21EE7
331
21E49
  5
21E5D
331
21EC4
  5
21ED8
331
21E2B
  5
21E3E
331
21EB5
  5
21EC9
331
21E1C
  5
21E28
331
21EA6
  5
21EBA
331
21E97
  5
21EAB
331
21E88
  5
21E9C
331
21E79
  5
21E8D
331
21EF5
  5
21F09
331
21EE6
  5
21EFA
331
21E56
  5
21E6A
331
21E47
  5
21E5B
331
21E6A
  5
21E7E
331
21EB0
  5
21EC4
331
21EA1
  5
21EB5
331
21E08
  5
21E14
331
21E92
  5
21EA6
331
21E83
  5
21E97
331
21DF9
  5
21DFA
331
21E74
  5
21E88
331
21F0E
  5
220B0
331
21E65
  5
21E79
331
21EF0
  5
21F04
331
21EE1
  5
21EF5
331
21E51
  5
21E65
331
21E42
  5
21E53
331
21ECC
  5
21EE0
331
21E33
  5
21E44
331
21EBD
  5
21ED1
331
21E24
  5
21E32
331
21EAE
  5
21EC2
331
21E15
  5
21E21
331
21E9F
  5
21EB3
331
21E06
  5
21E0B
331
21DF7
  5
21DF7
331
21DEB
  5
21DEB
331
21F09
  5
220AB
331
21E60
  5
21E74
331
21EFA
  5
21F0E
331
21EEB
  5
21EFF
331
21EDC
  5
21EF0
331
21E5B
  5
21E6F
331
21E4C
  5
21E60
331
21ED6
  5
21EEA
331
21E3D
  5
21E4E
331
21EC7
  5
21EDB
331
21E2E
  5
21E3F
331
21EB8
  5
21ECC
331
21E1F
  5
21E2B
331
21EA9
  5
21EBD
331
22098
  5
21E6C
331
21E9A
  5
21EAE
331
21E8B
  5
21E9F
331
21E7C
  5
21E90
331
21F07
  5
220A9
331
21E6D
  5
21E81
331
21DF2
  5
21DF2
331
21ED1
  5
21EE5
331
21E38
  5
21E4C
331
21EC2
  5
21ED6
331
21E29
  5
21E37
331
21EB3
  5
21EC7
331
21E1A
  5
21E26
331
21EA4
  5
21EB8
331
21E95
  5
21EA9
331
21E77
  5
21E8B
331
21E68
  5
21E7C
331
21E86
  5
21E9A
331
21EF3
  5
21F07
331
21EE4
  5
21EF8
331
21E45
  5
21E58
331
21ECF
  5
21EE3
331
21E36
  5
21E47
331
21E27
  5
21E35
331
211A0
  5
211A0
331
21E90
  5
21EA4
331
21E81
  5
21E95
331
21E72
  5
21E86
331
21F0C
  5
220AE
331
21E63
  5
21E77
331
21EFD
  5
22091
331
21EEE
  5
21F02
331
21EDF
  5
21EF3
331
21E5E
  5
21E72
331
21E4F
  5
21E63
331
21E40
  5
21E51
331
220AA
  5
220A8
331
21ECA
  5
21EDE
331
21E31
  5
21E42
331
21EBB
  5
21ECF
331
21E22
  5
21E30
331
21EAC
  5
21EC0
331
21E13
  5
21E1F
331
21E9D
  5
21EB1
331
21E04
  5
21E09
331
21E8E
  5
21EA2
331
21E7F
  5
21E93
331
21DF5
  5
21DF5
  0
ACDBDETAILVIEWSTYLE
  5
20CB3
102
{ACAD_XDICTIONARY
360
2211E
102
}
102
{ACAD_REACTORS
330
1B2F0
102
}
330
1B2F0
100
AcDbModelDocViewStyle
 70
     0
  3
Imperial24
290
     0
100
AcDbDetailViewStyle
 70
     0
 71
     0
 90
        3
 71
     1
340
11
 62
   256
 40
0.24
340
0
 62
   256
 40
0.24
300

 40
0.36
280
     3
 71
     2
340
16
 90
       25
 62
   256
 71
     3
340
11
 62
   256
 40
0.24
 90
        1
 40
0.75
 90
        1
300
%<\AcVar ViewType \f "%tc1">% %<\AcVar ViewDetailId>%\PVARIA %<\AcVar ViewScale \f "%sn">%
 71
     4
340
16
 90
       25
 62
   256
340
16
 90
       25
 62
   256
280
     0
  0
ACDBDETAILVIEWSTYLE
  5
1B2F1
102
{ACAD_XDICTIONARY
360
2211A
102
}
102
{ACAD_REACTORS
330
1B2F0
102
}
330
1B2F0
100
AcDbModelDocViewStyle
 70
     0
  3
Metric50
290
     0
100
AcDbDetailViewStyle
 70
     0
 71
     0
 90
        3
 71
     1
340
11
 62
   256
 40
5.0
340
0
 62
   256
 40
5.0
300

 40
0.0
280
     1
 71
     2
340
16
 90
       25
 62
   256
 71
     3
340
11
 62
   256
 40
5.0
 90
        0
 40
15.0
 90
        1
300
%<\AcVar ViewDetailId>% (%<\AcVar ViewScale \f "%sn">%)
 71
     4
340
16
 90
       25
 62
   256
340
16
 90
       25
 62
   256
280
     0
  0
LAYOUT
  5
31A7
102
{ACAD_REACTORS
330
31A5
102
}
330
31A5
100
AcDbPlotSettings
  1

  2
\\ingdc01\ITB3
  4
A4
  6

 40
6.805083274841307
 41
5.027085781097412
 42
6.805068969726562
 43
5.027069091796875
 44
209.9733276367186
 45
296.9683227539062
 46
0.0
 47
0.0
 48
0.0
 49
0.0
140
0.0
141
0.0
142
1.0
143
1.0
 70
   688
 72
     1
 73
     1
 74
     5
  7

 75
    16
147
1.0
 76
     0
 77
     2
 78
   300
148
0.0
149
0.0
100
AcDbLayout
  1
Layout1
 70
     1
 71
     1
 10
-5.027069091796875
 20
-6.805083274841307
 11
291.9412536621094
 21
203.1682443618775
 12
0.0
 22
0.0
 32
0.0
 14
28.69141678810127
 24
19.6363175392151
 34
0.0
 15
258.2227510929107
 25
176.7268578529358
 35
0.0
146
0.0
 13
0.0
 23
0.0
 33
0.0
 16
1.0
 26
0.0
 36
0.0
 17
0.0
 27
1.0
 37
0.0
 76
     0
330
1B
331
9C00
1001
ACAD_PSEXT
1000
\\ingdc01\ITB3
1000
HP LaserJet 5000 Series PCL
1000
TB
1000

1070
     0
  0
LAYOUT
  5
31A6
102
{ACAD_REACTORS
330
31A5
102
}
330
31A5
100
AcDbPlotSettings
  1

  2
\\ingdc01\ITB3
  4
A4
  6

 40
6.805083274841307
 41
5.027085781097412
 42
6.805068969726562
 43
5.027069091796875
 44
209.9733276367186
 45
296.9683227539062
 46
0.0
 47
0.0
 48
0.0
 49
0.0
140
0.0
141
0.0
142
1.0
143
1.500313223655698
 70
 11952
 72
     1
 73
     1
 74
     0
  7

 75
     0
147
0.6665274852163048
 76
     0
 77
     2
 78
   300
148
239.0155119930048
149
102.2558208723354
100
AcDbLayout
  1
Model
 70
     1
 71
     0
 10
0.0
 20
0.0
 11
12.0
 21
9.0
 12
0.0
 22
0.0
 32
0.0
 14
0.0
 24
0.0
 34
0.0
 15
0.0
 25
0.0
 35
0.0
146
0.0
 13
0.0
 23
0.0
 33
0.0
 16
1.0
 26
0.0
 36
0.0
 17
0.0
 27
1.0
 37
0.0
 76
     0
330
1F
331
1F4
1001
ACAD_PSEXT
1000
\\ingdc01\ITB3
1000
HP LaserJet 5000 Series PCL
1000
TB
1000

1070
     0
  0
MATERIAL
  5
318D
102
{ACAD_XDICTIONARY
360
1B22B
102
}
102
{ACAD_REACTORS
330
318B
102
}
330
318B
100
AcDbMaterial
  1
ByBlock
  0
MATERIAL
  5
318C
102
{ACAD_XDICTIONARY
360
1B22D
102
}
102
{ACAD_REACTORS
330
318B
102
}
330
318B
100
AcDbMaterial
  1
ByLayer
  0
MATERIAL
  5
318E
102
{ACAD_XDICTIONARY
360
1B22F
102
}
102
{ACAD_REACTORS
330
318B
102
}
330
318B
100
AcDbMaterial
  1
Global
  0
MLEADERSTYLE
  5
1B2ED
102
{ACAD_REACTORS
330
1B221
102
}
330
1B221
100
AcDbMLeaderStyle
179
     2
170
     2
171
     1
172
     0
 90
        2
 40
0.0
 41
0.0
173
     1
 91
-1056964608
340
14
 92
       -2
290
     1
 42
2.0
291
     1
 43
0.36
  3
Standard
 44
4.0
300

342
11
174
     1
178
     6
175
     1
176
     0
 93
-1056964608
 45
4.0
292
     0
297
     0
 46
4.0
 94
-1056964608
 47
1.0
 49
1.0
140
1.0
293
     1
141
0.0
294
     1
177
     0
142
1.0
295
     0
296
     0
143
0.125
271
     0
272
     9
273
     9
1001
ACAD_MLEADERVER
1070
     2
  0
MLINESTYLE
  5
3185
102
{ACAD_REACTORS
330
3184
102
}
330
3184
100
AcDbMlineStyle
  2
STANDARD
 70
     0
  3

 62
   256
 51
90.0
 52
90.0
 71
     2
 49
0.5
 62
   256
  6
BYLAYER
 49
-0.5
 62
   256
  6
BYLAYER
  0
ACDBPLACEHOLDER
  5
318A
102
{ACAD_REACTORS
330
3189
102
}
330
3189
  0
SCALE
  5
1B1FD
102
{ACAD_REACTORS
330
1B1FC
102
}
330
1B1FC
100
AcDbScale
 70
     0
300
1:1
140
1.0
141
1.0
290
     1
1001
ACAD
1000
AcRTDxfName
1000
SCALE
  0
SCALE
  5
1B1FE
102
{ACAD_REACTORS
330
1B1FC
102
}
330
1B1FC
100
AcDbScale
 70
     0
300
1:2
140
1.0
141
2.0
290
     0
1001
ACAD
1000
AcRTDxfName
1000
SCALE
  0
SCALE
  5
1B1FF
102
{ACAD_REACTORS
330
1B1FC
102
}
330
1B1FC
100
AcDbScale
 70
     0
300
1:4
140
1.0
141
4.0
290
     0
1001
ACAD
1000
AcRTDxfName
1000
SCALE
  0
SCALE
  5
1B200
102
{ACAD_REACTORS
330
1B1FC
102
}
330
1B1FC
100
AcDbScale
 70
     0
300
1:5
140
1.0
141
5.0
290
     0
1001
ACAD
1000
AcRTDxfName
1000
SCALE
  0
SCALE
  5
1B201
102
{ACAD_REACTORS
330
1B1FC
102
}
330
1B1FC
100
AcDbScale
 70
     0
300
1:8
140
1.0
141
8.0
290
     0
1001
ACAD
1000
AcRTDxfName
1000
SCALE
  0
SCALE
  5
1B202
102
{ACAD_REACTORS
330
1B1FC
102
}
330
1B1FC
100
AcDbScale
 70
     0
300
1:10
140
1.0
141
10.0
290
     0
1001
ACAD
1000
AcRTDxfName
1000
SCALE
  0
SCALE
  5
1B203
102
{ACAD_REACTORS
330
1B1FC
102
}
330
1B1FC
100
AcDbScale
 70
     0
300
1:16
140
1.0
141
16.0
290
     0
1001
ACAD
1000
AcRTDxfName
1000
SCALE
  0
SCALE
  5
1B204
102
{ACAD_REACTORS
330
1B1FC
102
}
330
1B1FC
100
AcDbScale
 70
     0
300
1:20
140
1.0
141
20.0
290
     0
1001
ACAD
1000
AcRTDxfName
1000
SCALE
  0
SCALE
  5
1B205
102
{ACAD_REACTORS
330
1B1FC
102
}
330
1B1FC
100
AcDbScale
 70
     0
300
1:30
140
1.0
141
30.0
290
     0
1001
ACAD
1000
AcRTDxfName
1000
SCALE
  0
SCALE
  5
1B206
102
{ACAD_REACTORS
330
1B1FC
102
}
330
1B1FC
100
AcDbScale
 70
     0
300
1:40
140
1.0
141
40.0
290
     0
1001
ACAD
1000
AcRTDxfName
1000
SCALE
  0
SCALE
  5
1B207
102
{ACAD_REACTORS
330
1B1FC
102
}
330
1B1FC
100
AcDbScale
 70
     0
300
1:50
140
1.0
141
50.0
290
     0
1001
ACAD
1000
AcRTDxfName
1000
SCALE
  0
SCALE
  5
1B208
102
{ACAD_REACTORS
330
1B1FC
102
}
330
1B1FC
100
AcDbScale
 70
     0
300
1:100
140
1.0
141
100.0
290
     0
1001
ACAD
1000
AcRTDxfName
1000
SCALE
  0
SCALE
  5
1B209
102
{ACAD_REACTORS
330
1B1FC
102
}
330
1B1FC
100
AcDbScale
 70
     0
300
2:1
140
2.0
141
1.0
290
     0
1001
ACAD
1000
AcRTDxfName
1000
SCALE
  0
SCALE
  5
1B20A
102
{ACAD_REACTORS
330
1B1FC
102
}
330
1B1FC
100
AcDbScale
 70
     0
300
4:1
140
4.0
141
1.0
290
     0
1001
ACAD
1000
AcRTDxfName
1000
SCALE
  0
SCALE
  5
1B20B
102
{ACAD_REACTORS
330
1B1FC
102
}
330
1B1FC
100
AcDbScale
 70
     0
300
8:1
140
8.0
141
1.0
290
     0
1001
ACAD
1000
AcRTDxfName
1000
SCALE
  0
SCALE
  5
1B20C
102
{ACAD_REACTORS
330
1B1FC
102
}
330
1B1FC
100
AcDbScale
 70
     0
300
10:1
140
10.0
141
1.0
290
     0
1001
ACAD
1000
AcRTDxfName
1000
SCALE
  0
SCALE
  5
1B20D
102
{ACAD_REACTORS
330
1B1FC
102
}
330
1B1FC
100
AcDbScale
 70
     0
300
100:1
140
100.0
141
1.0
290
     0
1001
ACAD
1000
AcRTDxfName
1000
SCALE
  0
SCALE
  5
1B20E
102
{ACAD_REACTORS
330
1B1FC
102
}
330
1B1FC
100
AcDbScale
 70
     0
300
1/128" = 1'-0"
140
0.0078125
141
12.0
290
     0
1001
ACAD
1000
AcRTDxfName
1000
SCALE
  0
SCALE
  5
1B20F
102
{ACAD_REACTORS
330
1B1FC
102
}
330
1B1FC
100
AcDbScale
 70
     0
300
1/64" = 1'-0"
140
0.015625
141
12.0
290
     0
1001
ACAD
1000
AcRTDxfName
1000
SCALE
  0
SCALE
  5
1B210
102
{ACAD_REACTORS
330
1B1FC
102
}
330
1B1FC
100
AcDbScale
 70
     0
300
1/32" = 1'-0"
140
0.03125
141
12.0
290
     0
1001
ACAD
1000
AcRTDxfName
1000
SCALE
  0
SCALE
  5
1B211
102
{ACAD_REACTORS
330
1B1FC
102
}
330
1B1FC
100
AcDbScale
 70
     0
300
1/16" = 1'-0"
140
0.0625
141
12.0
290
     0
1001
ACAD
1000
AcRTDxfName
1000
SCALE
  0
SCALE
  5
1B212
102
{ACAD_REACTORS
330
1B1FC
102
}
330
1B1FC
100
AcDbScale
 70
     0
300
3/32" = 1'-0"
140
0.09375
141
12.0
290
     0
1001
ACAD
1000
AcRTDxfName
1000
SCALE
  0
SCALE
  5
1B213
102
{ACAD_REACTORS
330
1B1FC
102
}
330
1B1FC
100
AcDbScale
 70
     0
300
1/8" = 1'-0"
140
0.125
141
12.0
290
     0
1001
ACAD
1000
AcRTDxfName
1000
SCALE
  0
SCALE
  5
1B214
102
{ACAD_REACTORS
330
1B1FC
102
}
330
1B1FC
100
AcDbScale
 70
     0
300
3/16" = 1'-0"
140
0.1875
141
12.0
290
     0
1001
ACAD
1000
AcRTDxfName
1000
SCALE
  0
SCALE
  5
1B215
102
{ACAD_REACTORS
330
1B1FC
102
}
330
1B1FC
100
AcDbScale
 70
     0
300
1/4" = 1'-0"
140
0.25
141
12.0
290
     0
1001
ACAD
1000
AcRTDxfName
1000
SCALE
  0
SCALE
  5
1B216
102
{ACAD_REACTORS
330
1B1FC
102
}
330
1B1FC
100
AcDbScale
 70
     0
300
3/8" = 1'-0"
140
0.375
141
12.0
290
     0
1001
ACAD
1000
AcRTDxfName
1000
SCALE
  0
SCALE
  5
1B217
102
{ACAD_REACTORS
330
1B1FC
102
}
330
1B1FC
100
AcDbScale
 70
     0
300
1/2" = 1'-0"
140
0.5
141
12.0
290
     0
1001
ACAD
1000
AcRTDxfName
1000
SCALE
  0
SCALE
  5
1B218
102
{ACAD_REACTORS
330
1B1FC
102
}
330
1B1FC
100
AcDbScale
 70
     0
300
3/4" = 1'-0"
140
0.75
141
12.0
290
     0
1001
ACAD
1000
AcRTDxfName
1000
SCALE
  0
SCALE
  5
1B219
102
{ACAD_REACTORS
330
1B1FC
102
}
330
1B1FC
100
AcDbScale
 70
     0
300
1" = 1'-0"
140
1.0
141
12.0
290
     0
1001
ACAD
1000
AcRTDxfName
1000
SCALE
  0
SCALE
  5
1B21A
102
{ACAD_REACTORS
330
1B1FC
102
}
330
1B1FC
100
AcDbScale
 70
     0
300
1-1/2" = 1'-0"
140
1.5
141
12.0
290
     0
1001
ACAD
1000
AcRTDxfName
1000
SCALE
  0
SCALE
  5
1B21B
102
{ACAD_REACTORS
330
1B1FC
102
}
330
1B1FC
100
AcDbScale
 70
     0
300
3" = 1'-0"
140
3.0
141
12.0
290
     0
1001
ACAD
1000
AcRTDxfName
1000
SCALE
  0
SCALE
  5
1B21C
102
{ACAD_REACTORS
330
1B1FC
102
}
330
1B1FC
100
AcDbScale
 70
     0
300
6" = 1'-0"
140
6.0
141
12.0
290
     0
1001
ACAD
1000
AcRTDxfName
1000
SCALE
  0
SCALE
  5
1B21D
102
{ACAD_REACTORS
330
1B1FC
102
}
330
1B1FC
100
AcDbScale
 70
     0
300
1'-0" = 1'-0"
140
12.0
141
12.0
290
     0
1001
ACAD
1000
AcRTDxfName
1000
SCALE
  0
ACDBSECTIONVIEWSTYLE
  5
20CB1
102
{ACAD_XDICTIONARY
360
2211C
102
}
102
{ACAD_REACTORS
330
1B2EE
102
}
330
1B2EE
100
AcDbModelDocViewStyle
 70
     0
  3
Imperial24
290
     0
100
AcDbSectionViewStyle
 70
     0
 71
     0
 90
       78
 71
     1
340
11
 62
   256
 40
0.24
340
0
340
0
 62
   256
 40
0.24
300
I, O, Q, S, X, Z
 40
0.48
 90
        3
 40
0.18
 90
        1
 71
     2
340
16
 90
       25
 62
   256
340
16
 90
       50
 62
   256
 40
0.24
 40
0.0
 40
0.24
 71
     3
340
11
 62
   256
 40
0.24
 90
        1
 40
0.75
 90
        1
300
%<\AcVar ViewType \f "%tc1">% %<\AcVar ViewSectionStartId>%-%<\AcVar ViewSectionEndId>%\PVARIA %<\AcVar ViewScale \f "%sn">%
 71
     4
 62
   256
 62
   257
300
ANSI31
 40
1.0
 90
        0
290
     0
290
     0
 90
        6
 40
0.0
 40
1.570796326794896
 40
0.2617993877991494
 40
1.308996938995747
 40
-0.2617993877991494
 40
1.832595714594044
  0
ACDBSECTIONVIEWSTYLE
  5
1B2EF
102
{ACAD_XDICTIONARY
360
22118
102
}
102
{ACAD_REACTORS
330
1B2EE
102
}
330
1B2EE
100
AcDbModelDocViewStyle
 70
     0
  3
Metric50
290
     0
100
AcDbSectionViewStyle
 70
     0
 71
     0
 90
      102
 71
     1
340
11
 62
   256
 40
5.0
340
0
340
0
 62
   256
 40
5.0
300
I, O, Q, S, X, Z
 40
10.0
 90
        0
 40
2.5
 90
        0
 71
     2
340
16
 90
       25
 62
   256
340
16
 90
       50
 62
   256
 40
5.0
 40
2.5
 40
5.0
 71
     3
340
11
 62
   256
 40
5.0
 90
        0
 40
15.0
 90
        1
300
%<\AcVar ViewSectionStartId>%-%<\AcVar ViewSectionEndId>% (%<\AcVar ViewScale \f "%sn">%)
 71
     4
 62
   256
 62
   257
300
ANSI31
 40
1.0
 90
        0
290
     0
290
     0
 90
        6
 40
0.0
 40
1.570796326794896
 40
0.2617993877991494
 40
1.308996938995747
 40
-0.2617993877991494
 40
1.832595714594044
  0
TABLESTYLE
  5
31A2
102
{ACAD_XDICTIONARY
360
1B314
102
}
102
{ACAD_REACTORS
330
31A1
102
}
330
31A1
100
AcDbTableStyle
280
     0
  3
Standard
 70
     0
 71
     0
 40
1.5
 41
1.5
280
     0
281
     0
  7
STANDARD
140
4.5
170
     2
 62
     0
 63
     7
283
     0
 90
        4
 91
        0
  1

274
    -2
284
     1
 64
     0
275
    -2
285
     1
 65
     0
276
    -2
286
     1
 66
     0
277
    -2
287
     1
 67
     0
278
    -2
288
     1
 68
     0
279
    -2
289
     1
 69
     0
  7
STANDARD
140
6.0
170
     5
 62
     0
 63
     7
283
     0
 90
        4
 91
        0
  1

274
    -2
284
     1
 64
     0
275
    -2
285
     1
 65
     0
276
    -2
286
     1
 66
     0
277
    -2
287
     1
 67
     0
278
    -2
288
     1
 68
     0
279
    -2
289
     1
 69
     0
  7
STANDARD
140
4.5
170
     5
 62
     0
 63
     7
283
     0
 90
        4
 91
        0
  1

274
    -2
284
     1
 64
     0
275
    -2
285
     1
 65
     0
276
    -2
286
     1
 66
     0
277
    -2
287
     1
 67
     0
278
    -2
288
     1
 68
     0
279
    -2
289
     1
 69
     0
  0
VISUALSTYLE
  5
3195
102
{ACAD_XDICTIONARY
360
220EE
102
}
102
{ACAD_REACTORS
330
318F
102
}
330
318F
100
AcDbVisualStyle
  2

 70
     4
177
     2
291
     0
 71
     0
176
     1
 72
     2
176
     1
 73
     0
176
     1
 90
        0
176
     1
 40
0.6
176
     1
 41
30.0
176
     1
 63
     7
176
     1
 74
     1
176
     1
 91
        4
176
     1
 64
     7
176
     1
 65
   257
176
     1
 75
     1
176
     1
175
     1
176
     1
 42
1.0
176
     1
 92
        0
176
     1
 66
   257
176
     1
 43
1.0
176
     1
 76
     1
176
     1
 77
     6
176
     1
 78
     2
176
     1
 67
     7
176
     1
 79
     5
176
     1
170
     0
176
     1
171
     0
176
     1
290
     0
176
     1
 93
        1
176
     1
 44
0.0
176
     1
173
     0
176
     1
1001
ACAD
1000
AcDbSavedByObjectVersion
1070
     0
  0
VISUALSTYLE
  5
3197
102
{ACAD_XDICTIONARY
360
220F2
102
}
102
{ACAD_REACTORS
330
318F
102
}
330
318F
100
AcDbVisualStyle
  2

 70
     6
177
     2
291
     0
 71
     1
176
     1
 72
     2
176
     1
 73
     2
176
     1
 90
        0
176
     1
 40
0.6
176
     1
 41
30.0
176
     1
 63
     7
176
     1
 74
     2
176
     1
 91
        2
176
     1
 64
     7
176
     1
 65
   257
176
     1
 75
     2
176
     1
175
     1
176
     1
 42
40.0
176
     1
 92
        0
176
     1
 66
   257
176
     1
 43
1.0
176
     1
 76
     1
176
     1
 77
     6
176
     1
 78
     2
176
     1
 67
     7
176
     1
 79
     3
176
     1
170
     0
176
     1
171
     0
176
     1
290
     0
176
     1
 93
        1
176
     1
 44
0.0
176
     1
173
     0
176
     1
1001
ACAD
1000
AcDbSavedByObjectVersion
1070
     0
  0
VISUALSTYLE
  5
3196
102
{ACAD_XDICTIONARY
360
220F0
102
}
102
{ACAD_REACTORS
330
318F
102
}
330
318F
100
AcDbVisualStyle
  2

 70
     5
177
     2
291
     0
 71
     0
176
     1
 72
     2
176
     1
 73
     0
176
     1
 90
        0
176
     1
 40
0.6
176
     1
 41
30.0
176
     1
 63
     7
176
     1
 74
     1
176
     1
 91
        4
176
     1
 64
     7
176
     1
 65
   257
176
     1
 75
     1
176
     1
175
     1
176
     1
 42
1.0
176
     1
 92
        0
176
     1
 66
   257
176
     1
 43
1.0
176
     1
 76
     1
176
     1
 77
     6
176
     1
 78
     2
176
     1
 67
     7
176
     1
 79
     5
176
     1
170
     0
176
     1
171
     0
176
     1
290
     0
176
     1
 93
        1
176
     1
 44
0.0
176
     1
173
     0
176
     1
1001
ACAD
1000
AcDbSavedByObjectVersion
1070
     0
  0
VISUALSTYLE
  5
3194
102
{ACAD_XDICTIONARY
360
220EC
102
}
102
{ACAD_REACTORS
330
318F
102
}
330
318F
100
AcDbVisualStyle
  2

 70
     7
177
     2
291
     1
 71
     1
176
     1
 72
     0
176
     1
 73
     1
176
     1
 90
        0
176
     1
 40
0.6
176
     1
 41
30.0
176
     1
 63
     7
176
     1
 74
     0
176
     1
 91
        4
176
     1
 64
     7
176
     1
 65
   257
176
     1
 75
     1
176
     1
175
     1
176
     1
 42
1.0
176
     1
 92
        8
176
     1
 66
     7
176
     1
 43
1.0
176
     1
 76
     1
176
     1
 77
     6
176
     1
 78
     2
176
     1
 67
     7
176
     1
 79
     5
176
     1
170
     0
176
     1
171
     0
176
     1
290
     0
176
     1
 93
        1
176
     1
 44
0.0
176
     1
173
     0
176
     1
1001
ACAD
1000
AcDbSavedByObjectVersion
1070
     0
  0
VISUALSTYLE
  5
319B
102
{ACAD_XDICTIONARY
360
220FA
102
}
102
{ACAD_REACTORS
330
318F
102
}
330
318F
100
AcDbVisualStyle
  2

 70
    12
177
     2
291
     1
 71
     2
176
     1
 72
     2
176
     1
 73
     0
176
     1
 90
        0
176
     1
 40
0.6
176
     1
 41
30.0
176
     1
 63
     7
176
     1
 74
     1
176
     1
 91
        4
176
     1
 64
     7
176
     1
 65
   257
176
     1
 75
     1
176
     1
175
     1
176
     1
 42
1.0
176
     1
 92
        8
176
     1
 66
     7
176
     1
 43
1.0
176
     1
 76
     1
176
     1
 77
     6
176
     1
 78
     2
176
     1
 67
     7
176
     1
 79
     5
176
     1
170
     0
176
     1
171
     0
176
     1
290
     0
176
     1
 93
        1
176
     1
 44
50.0
176
     1
173
     0
176
     1
1001
ACAD
1000
AcDbSavedByObjectVersion
1070
     0
  0
VISUALSTYLE
  5
319F
102
{ACAD_XDICTIONARY
360
22102
102
}
102
{ACAD_REACTORS
330
318F
102
}
330
318F
100
AcDbVisualStyle
  2

 70
    16
177
     2
291
     1
 71
     2
176
     1
 72
     2
176
     1
 73
     3
176
     1
 90
        0
176
     1
 40
0.6
176
     1
 41
30.0
176
     1
 63
     8
176
     1
 74
     1
176
     1
 91
        4
176
     1
 64
     7
176
     1
 65
   257
176
     1
 75
     1
176
     1
175
     1
176
     1
 42
1.0
176
     1
 92
        8
176
     1
 66
     8
176
     1
 43
1.0
176
     1
 76
     1
176
     1
 77
     6
176
     1
 78
     2
176
     1
 67
     7
176
     1
 79
     5
176
     1
170
     0
176
     1
171
     0
176
     1
290
     0
176
     1
 93
        1
176
     1
 44
0.0
176
     1
173
     0
176
     1
1001
ACAD
1000
AcDbSavedByObjectVersion
1070
     0
  0
VISUALSTYLE
  5
3198
102
{ACAD_XDICTIONARY
360
220F4
102
}
102
{ACAD_REACTORS
330
318F
102
}
330
318F
100
AcDbVisualStyle
  2

 70
     9
177
     2
291
     0
 71
     3
176
     1
 72
     2
176
     1
 73
     0
176
     1
 90
        0
176
     1
 40
0.6
176
     1
 41
30.0
176
     1
 63
     7
176
     1
 74
     2
176
     1
 91
        2
176
     1
 64
     7
176
     1
 65
   257
176
     1
 75
     1
176
     1
175
     1
176
     1
 42
40.0
176
     1
 92
        8
176
     1
 66
     7
176
     1
 43
1.0
176
     1
 76
     1
176
     1
 77
     6
176
     1
 78
     2
176
     1
 67
     7
176
     1
 79
     3
176
     1
170
     0
176
     1
171
     0
176
     1
290
     0
176
     1
 93
        1
176
     1
 44
0.0
176
     1
173
     0
176
     1
1001
ACAD
1000
AcDbSavedByObjectVersion
1070
     0
  0
VISUALSTYLE
  5
319A
102
{ACAD_XDICTIONARY
360
220F8
102
}
102
{ACAD_REACTORS
330
318F
102
}
330
318F
100
AcDbVisualStyle
  2

 70
    11
177
     2
291
     1
 71
     2
176
     1
 72
     2
176
     1
 73
     0
176
     1
 90
        0
176
     1
 40
0.6
176
     1
 41
30.0
176
     1
 63
     7
176
     1
 74
     1
176
     1
 91
        4
176
     1
 64
     7
176
     1
 65
   257
176
     1
 75
     1
176
     1
175
     1
176
     1
 42
1.0
176
     1
 92
        8
176
     1
 66
     7
176
     1
 43
1.0
176
     1
 76
     1
176
     1
 77
     6
176
     1
 78
     2
176
     1
 67
     7
176
     1
 79
     5
176
     1
170
     0
176
     1
171
     0
176
     1
290
     0
176
     1
 93
        1
176
     1
 44
-50.0
176
     1
173
     0
176
     1
1001
ACAD
1000
AcDbSavedByObjectVersion
1070
     0
  0
VISUALSTYLE
  5
1B2EC
102
{ACAD_XDICTIONARY
360
22116
102
}
102
{ACAD_REACTORS
330
318F
102
}
330
318F
100
AcDbVisualStyle
  2

 70
    22
177
     2
291
     1
 71
     2
176
     0
 72
     2
176
     0
 73
     0
176
     0
 90
        0
176
     0
 40
0.6
176
     0
 41
30.0
176
     0
 63
     7
176
     0
 74
     1
176
     0
 91
        4
176
     0
 64
     7
176
     0
 65
   257
176
     0
 75
     1
176
     0
175
     1
176
     0
 42
1.0
176
     0
 92
        8
176
     2
 66
     7
176
     0
 43
1.0
176
     0
 76
     1
176
     0
 77
     6
176
     0
 78
     2
176
     0
 67
     7
176
     0
 79
     5
176
     0
170
     0
176
     0
171
     0
176
     0
290
     0
176
     0
 93
        1
176
     0
 44
0.0
176
     0
173
     0
176
     0
1001
ACAD
1000
AcDbSavedByObjectVersion
1070
     0
  0
VISUALSTYLE
  5
319E
102
{ACAD_XDICTIONARY
360
22100
102
}
102
{ACAD_REACTORS
330
318F
102
}
330
318F
100
AcDbVisualStyle
  2

 70
    15
177
     2
291
     1
 71
     2
176
     1
 72
     2
176
     1
 73
     0
176
     1
 90
        0
176
     1
 40
0.6
176
     1
 41
30.0
176
     1
 63
     7
176
     1
 74
     1
176
     1
 91
        4
176
     1
 64
     7
176
     1
 65
   257
176
     1
 75
     1
176
     1
175
     1
176
     1
 42
1.0
176
     1
 92
        8
176
     1
 66
     7
176
     1
 43
1.0
176
     1
 76
     1
176
     1
 77
     6
176
     1
 78
     2
176
     1
 67
     7
176
     1
 79
     5
176
     1
170
     0
176
     1
171
     0
176
     1
290
     0
176
     1
 93
        1
176
     1
 44
0.0
176
     1
173
     0
176
     1
1001
ACAD
1000
AcDbSavedByObjectVersion
1070
     0
  0
VISUALSTYLE
  5
3190
102
{ACAD_XDICTIONARY
360
220E4
102
}
102
{ACAD_REACTORS
330
318F
102
}
330
318F
100
AcDbVisualStyle
  2

 70
     0
177
     2
291
     1
 71
     2
176
     1
 72
     1
176
     1
 73
     1
176
     1
 90
        2
176
     1
 40
0.6
176
     1
 41
30.0
176
     1
 63
     7
176
     1
 74
     0
176
     1
 91
        4
176
     1
 64
     7
176
     1
 65
   257
176
     1
 75
     1
176
     1
175
     1
176
     1
 42
1.0
176
     1
 92
        8
176
     1
 66
     7
176
     1
 43
1.0
176
     1
 76
     1
176
     1
 77
     6
176
     1
 78
     2
176
     1
 67
     7
176
     1
 79
     5
176
     1
170
     0
176
     1
171
     0
176
     1
290
     0
176
     1
 93
       13
176
     1
 44
0.0
176
     1
173
     0
176
     1
1001
ACAD
1000
AcDbSavedByObjectVersion
1070
     0
  0
VISUALSTYLE
  5
3191
102
{ACAD_XDICTIONARY
360
220E6
102
}
102
{ACAD_REACTORS
330
318F
102
}
330
318F
100
AcDbVisualStyle
  2

 70
     1
177
     2
291
     1
 71
     2
176
     1
 72
     1
176
     1
 73
     1
176
     1
 90
        2
176
     1
 40
0.6
176
     1
 41
30.0
176
     1
 63
     7
176
     1
 74
     1
176
     1
 91
        4
176
     1
 64
     7
176
     1
 65
   257
176
     1
 75
     1
176
     1
175
     1
176
     1
 42
1.0
176
     1
 92
        0
176
     1
 66
   257
176
     1
 43
1.0
176
     1
 76
     1
176
     1
 77
     6
176
     1
 78
     2
176
     1
 67
     7
176
     1
 79
     5
176
     1
170
     0
176
     1
171
     0
176
     1
290
     0
176
     1
 93
       13
176
     1
 44
0.0
176
     1
173
     0
176
     1
1001
ACAD
1000
AcDbSavedByObjectVersion
1070
     0
  0
VISUALSTYLE
  5
3192
102
{ACAD_XDICTIONARY
360
220E8
102
}
102
{ACAD_REACTORS
330
318F
102
}
330
318F
100
AcDbVisualStyle
  2

 70
     2
177
     2
291
     1
 71
     2
176
     1
 72
     2
176
     1
 73
     1
176
     1
 90
        2
176
     1
 40
0.6
176
     1
 41
30.0
176
     1
 63
     7
176
     1
 74
     0
176
     1
 91
        4
176
     1
 64
     7
176
     1
 65
   257
176
     1
 75
     1
176
     1
175
     1
176
     1
 42
1.0
176
     1
 92
        0
176
     1
 66
     7
176
     1
 43
1.0
176
     1
 76
     1
176
     1
 77
     6
176
     1
 78
     2
176
     1
 67
     7
176
     1
 79
     5
176
     1
170
     0
176
     1
171
     0
176
     1
290
     0
176
     1
 93
       13
176
     1
 44
0.0
176
     1
173
     0
176
     1
1001
ACAD
1000
AcDbSavedByObjectVersion
1070
     0
  0
VISUALSTYLE
  5
3193
102
{ACAD_XDICTIONARY
360
220EA
102
}
102
{ACAD_REACTORS
330
318F
102
}
330
318F
100
AcDbVisualStyle
  2

 70
     3
177
     2
291
     1
 71
     2
176
     1
 72
     2
176
     1
 73
     1
176
     1
 90
        2
176
     1
 40
0.6
176
     1
 41
30.0
176
     1
 63
     7
176
     1
 74
     1
176
     1
 91
        4
176
     1
 64
     7
176
     1
 65
   257
176
     1
 75
     1
176
     1
175
     1
176
     1
 42
1.0
176
     1
 92
        0
176
     1
 66
   257
176
     1
 43
1.0
176
     1
 76
     1
176
     1
 77
     6
176
     1
 78
     2
176
     1
 67
     7
176
     1
 79
     5
176
     1
170
     0
176
     1
171
     0
176
     1
290
     0
176
     1
 93
       13
176
     1
 44
0.0
176
     1
173
     0
176
     1
1001
ACAD
1000
AcDbSavedByObjectVersion
1070
     0
  0
VISUALSTYLE
  5
1B2E4
102
{ACAD_XDICTIONARY
360
22106
102
}
102
{ACAD_REACTORS
330
318F
102
}
330
318F
100
AcDbVisualStyle
  2

 70
     6
177
     2
291
     0
 71
     1
176
     1
 72
     2
176
     1
 73
     2
176
     1
 90
        0
176
     1
 40
0.6
176
     1
 41
30.0
176
     1
 63
     7
176
     1
 74
     2
176
     1
 91
        2
176
     1
 64
     7
176
     1
 65
   257
176
     1
 75
     2
176
     1
175
     1
176
     1
 42
40.0
176
     1
 92
        0
176
     1
 66
   257
176
     1
 43
1.0
176
     1
 76
     1
176
     1
 77
     6
176
     1
 78
     2
176
     1
 67
     7
176
     1
 79
     3
176
     1
170
     0
176
     1
171
     0
176
     1
290
     0
176
     1
 93
        1
176
     1
 44
0.0
176
     1
173
     0
176
     1
1001
ACAD
1000
AcDbSavedByObjectVersion
1070
     0
  0
VISUALSTYLE
  5
1B2EA
102
{ACAD_XDICTIONARY
360
22112
102
}
102
{ACAD_REACTORS
330
318F
102
}
330
318F
100
AcDbVisualStyle
  2

 70
    20
177
     2
291
     1
 71
     2
176
     0
 72
     2
176
     0
 73
     0
176
     0
 90
        0
176
     0
 40
0.6
176
     0
 41
30.0
176
     0
 63
     7
176
     0
 74
     1
176
     0
 91
        4
176
     0
 64
     7
176
     0
 65
   257
176
     0
 75
     1
176
     0
175
     1
176
     0
 42
1.0
176
     0
 92
       10
176
     2
 66
     7
176
     0
 43
1.0
176
     0
 76
     1
176
     0
 77
     6
176
     0
 78
     2
176
     0
 67
     7
176
     0
 79
     5
176
     0
170
     0
176
     0
171
     0
176
     0
290
     0
176
     0
 93
        1
176
     0
 44
0.0
176
     0
173
     0
176
     0
1001
ACAD
1000
AcDbSavedByObjectVersion
1070
     0
  0
VISUALSTYLE
  5
319D
102
{ACAD_XDICTIONARY
360
220FE
102
}
102
{ACAD_REACTORS
330
318F
102
}
330
318F
100
AcDbVisualStyle
  2

 70
    14
177
     2
291
     1
 71
     2
176
     1
 72
     2
176
     1
 73
     0
176
     1
 90
        0
176
     1
 40
0.6
176
     1
 41
30.0
176
     1
 63
     7
176
     1
 74
     1
176
     1
 91
        4
176
     1
 64
     7
176
     1
 65
   257
176
     1
 75
     7
176
     1
175
     7
176
     1
 42
1.0
176
     1
 92
        8
176
     1
 66
     7
176
     1
 43
1.0
176
     1
 76
     1
176
     1
 77
     6
176
     1
 78
     2
176
     1
 67
     7
176
     1
 79
     5
176
     1
170
     0
176
     1
171
     0
176
     1
290
     0
176
     1
 93
        1
176
     1
 44
0.0
176
     1
173
     0
176
     1
1001
ACAD
1000
AcDbSavedByObjectVersion
1070
     0
  0
VISUALSTYLE
  5
1B2EB
102
{ACAD_XDICTIONARY
360
22114
102
}
102
{ACAD_REACTORS
330
318F
102
}
330
318F
100
AcDbVisualStyle
  2

 70
    21
177
     2
291
     1
 71
     2
176
     0
 72
     2
176
     0
 73
     0
176
     0
 90
        0
176
     0
 40
0.6
176
     0
 41
30.0
176
     0
 63
     7
176
     0
 74
     1
176
     0
 91
        4
176
     0
 64
     7
176
     0
 65
   257
176
     0
 75
     1
176
     0
175
     1
176
     0
 42
1.0
176
     0
 92
        9
176
     2
 66
     7
176
     0
 43
1.0
176
     0
 76
     1
176
     0
 77
     6
176
     0
 78
     2
176
     0
 67
     7
176
     0
 79
     5
176
     0
170
     0
176
     0
171
     0
176
     0
290
     0
176
     0
 93
        1
176
     0
 44
0.0
176
     0
173
     0
176
     0
1001
ACAD
1000
AcDbSavedByObjectVersion
1070
     0
  0
VISUALSTYLE
  5
3199
102
{ACAD_XDICTIONARY
360
220F6
102
}
102
{ACAD_REACTORS
330
318F
102
}
330
318F
100
AcDbVisualStyle
  2

 70
     8
177
     2
291
     0
 71
     2
176
     1
 72
     2
176
     1
 73
     0
176
     1
 90
        0
176
     1
 40
0.6
176
     1
 41
30.0
176
     1
 63
     7
176
     1
 74
     1
176
     1
 91
        0
176
     1
 64
     7
176
     1
 65
   257
176
     1
 75
     1
176
     1
175
     1
176
     1
 42
1.0
176
     1
 92
        8
176
     1
 66
     8
176
     1
 43
1.0
176
     1
 76
     1
176
     1
 77
     6
176
     1
 78
     2
176
     1
 67
     7
176
     1
 79
     5
176
     1
170
     0
176
     1
171
     0
176
     1
290
     0
176
     1
 93
       13
176
     1
 44
0.0
176
     1
173
     0
176
     1
1001
ACAD
1000
AcDbSavedByObjectVersion
1070
     0
  0
VISUALSTYLE
  5
1B2E9
102
{ACAD_XDICTIONARY
360
22110
102
}
102
{ACAD_REACTORS
330
318F
102
}
330
318F
100
AcDbVisualStyle
  2

 70
    27
177
     2
291
     0
 71
     2
176
     1
 72
     2
176
     1
 73
     1
176
     1
 90
        2
176
     1
 40
0.6
176
     1
 41
30.0
176
     1
 63
     7
176
     1
 74
     0
176
     1
 91
        4
176
     1
 64
     7
176
     1
 65
   257
176
     1
 75
     1
176
     1
175
     1
176
     1
 42
1.0
176
     1
 92
        8
176
     1
 66
   257
176
     1
 43
1.0
176
     1
 76
     1
176
     1
 77
     6
176
     1
 78
     2
176
     1
 67
     8
176
     1
 79
     3
176
     1
170
     0
176
     1
171
     0
176
     1
290
     0
176
     1
 93
        5
176
     1
 44
0.0
176
     1
173
     0
176
     1
1001
ACAD
1000
AcDbSavedByObjectVersion
1070
     0
  0
VISUALSTYLE
  5
1B2E8
102
{ACAD_XDICTIONARY
360
2210E
102
}
102
{ACAD_REACTORS
330
318F
102
}
330
318F
100
AcDbVisualStyle
  2

 70
    26
177
     2
291
     0
 71
     2
176
     1
 72
     2
176
     1
 73
     1
176
     1
 90
        2
176
     1
 40
0.6
176
     1
 41
30.0
176
     1
 63
     7
176
     1
 74
     1
176
     1
 91
       10
176
     1
 64
     7
176
     1
 65
   257
176
     1
 75
     2
176
     1
175
     1
176
     1
 42
1.0
176
     1
 92
        8
176
     1
 66
   257
176
     1
 43
1.0
176
     1
 76
     1
176
     1
 77
     6
176
     1
 78
     2
176
     1
 67
     7
176
     1
 79
     3
176
     1
170
     0
176
     1
171
     0
176
     1
290
     0
176
     1
 93
        5
176
     1
 44
0.0
176
     1
173
     0
176
     1
1001
ACAD
1000
AcDbSavedByObjectVersion
1070
     0
  0
VISUALSTYLE
  5
1B2E5
102
{ACAD_XDICTIONARY
360
22108
102
}
102
{ACAD_REACTORS
330
318F
102
}
330
318F
100
AcDbVisualStyle
  2

 70
    23
177
     2
291
     0
 71
     2
176
     1
 72
     2
176
     1
 73
     3
176
     1
 90
        0
176
     1
 40
0.6
176
     1
 41
30.0
176
     1
 63
     7
176
     1
 74
     2
176
     1
 91
        2
176
     1
 64
     7
176
     1
 65
     7
176
     1
 75
     1
176
     1
175
     1
176
     1
 42
40.0
176
     1
 92
        8
176
     1
 66
     7
176
     1
 43
1.0
176
     1
 76
     1
176
     1
 77
     6
176
     1
 78
     2
176
     1
 67
     7
176
     1
 79
     3
176
     1
170
     0
176
     1
171
     0
176
     1
290
     0
176
     1
 93
        1
176
     1
 44
0.0
176
     1
173
     0
176
     1
1001
ACAD
1000
AcDbSavedByObjectVersion
1070
     0
  0
VISUALSTYLE
  5
1B2E6
102
{ACAD_XDICTIONARY
360
2210A
102
}
102
{ACAD_REACTORS
330
318F
102
}
330
318F
100
AcDbVisualStyle
  2

 70
    24
177
     2
291
     0
 71
     1
176
     1
 72
     2
176
     1
 73
     2
176
     1
 90
        0
176
     1
 40
0.6
176
     1
 41
30.0
176
     1
 63
     7
176
     1
 74
     2
176
     1
 91
        2
176
     1
 64
     7
176
     1
 65
     7
176
     1
 75
     1
176
     1
175
     1
176
     1
 42
40.0
176
     1
 92
       11
176
     1
 66
     7
176
     1
 43
1.0
176
     1
 76
     1
176
     1
 77
     6
176
     1
 78
     2
176
     1
 67
     7
176
     1
 79
     6
176
     1
170
     0
176
     1
171
     0
176
     1
290
     0
176
     1
 93
        1
176
     1
 44
0.0
176
     1
173
     0
176
     1
1001
ACAD
1000
AcDbSavedByObjectVersion
1070
     0
  0
VISUALSTYLE
  5
319C
102
{ACAD_XDICTIONARY
360
220FC
102
}
102
{ACAD_REACTORS
330
318F
102
}
330
318F
100
AcDbVisualStyle
  2

 70
    13
177
     2
291
     1
 71
     2
176
     1
 72
     2
176
     1
 73
     0
176
     1
 90
        0
176
     1
 40
0.6
176
     1
 41
30.0
176
     1
 63
     7
176
     1
 74
     1
176
     1
 91
        4
176
     1
 64
     7
176
     1
 65
   257
176
     1
 75
     1
176
     1
175
     1
176
     1
 42
1.0
176
     1
 92
       12
176
     1
 66
     7
176
     1
 43
1.0
176
     1
 76
     1
176
     1
 77
     6
176
     1
 78
     2
176
     1
 67
     7
176
     1
 79
     5
176
     1
170
     0
176
     1
171
     0
176
     1
290
     0
176
     1
 93
        1
176
     1
 44
0.0
176
     1
173
     0
176
     1
1001
ACAD
1000
AcDbSavedByObjectVersion
1070
     0
  0
VISUALSTYLE
  5
1B2E3
102
{ACAD_XDICTIONARY
360
22104
102
}
102
{ACAD_REACTORS
330
318F
102
}
330
318F
100
AcDbVisualStyle
  2

 70
     5
177
     2
291
     0
 71
     0
176
     1
 72
     2
176
     1
 73
     0
176
     1
 90
        0
176
     1
 40
0.6
176
     1
 41
30.0
176
     1
 63
     7
176
     1
 74
     1
176
     1
 91
        4
176
     1
 64
     7
176
     1
 65
   257
176
     1
 75
     1
176
     1
175
     1
176
     1
 42
1.0
176
     1
 92
        0
176
     1
 66
   257
176
     1
 43
1.0
176
     1
 76
     1
176
     1
 77
     6
176
     1
 78
     2
176
     1
 67
     7
176
     1
 79
     3
176
     1
170
     0
176
     1
171
     0
176
     1
290
     0
176
     1
 93
        1
176
     1
 44
0.0
176
     1
173
     0
176
     1
1001
ACAD
1000
AcDbSavedByObjectVersion
1070
     0
  0
VISUALSTYLE
  5
1B2E7
102
{ACAD_XDICTIONARY
360
2210C
102
}
102
{ACAD_REACTORS
330
318F
102
}
330
318F
100
AcDbVisualStyle
  2

 70
    25
177
     2
291
     0
 71
     2
176
     1
 72
     2
176
     1
 73
     1
176
     1
 90
        1
176
     1
 40
0.5
176
     1
 41
30.0
176
     1
 63
     7
176
     1
 74
     1
176
     1
 91
        0
176
     1
 64
     7
176
     1
 65
   257
176
     1
 75
     1
176
     1
175
     1
176
     1
 42
1.0
176
     1
 92
        8
176
     1
 66
     7
176
     1
 43
1.0
176
     1
 76
     1
176
     1
 77
     6
176
     1
 78
     2
176
     1
 67
     7
176
     1
 79
     3
176
     1
170
     0
176
     1
171
     0
176
     1
290
     0
176
     1
 93
       13
176
     1
 44
0.0
176
     1
173
     0
176
     1
1001
ACAD
1000
AcDbSavedByObjectVersion
1070
     0
  0
DICTIONARYVAR
  5
1B222
102
{ACAD_REACTORS
330
33A3
102
}
330
33A3
100
DictionaryVariables
280
     0
  1
1:1
  0
DICTIONARYVAR
  5
1B30F
102
{ACAD_REACTORS
330
33A3
102
}
330
33A3
100
DictionaryVariables
280
     0
  1
STANDARD
  0
DICTIONARYVAR
  5
33A4
102
{ACAD_REACTORS
330
33A3
102
}
330
33A3
100
DictionaryVariables
280
     0
  1
STANDARD
  0
DICTIONARYVAR
  5
1B310
102
{ACAD_REACTORS
330
33A3
102
}
330
33A3
100
DictionaryVariables
280
     0
  1
Metric50
  0
DICTIONARYVAR
  5
1B311
102
{ACAD_REACTORS
330
33A3
102
}
330
33A3
100
DictionaryVariables
280
     0
  1
Metric50
  0
DICTIONARYVAR
  5
9BE8
102
{ACAD_REACTORS
330
33A3
102
}
330
33A3
100
DictionaryVariables
280
     0
  1
1
  0
DICTIONARYVAR
  5
9BE7
102
{ACAD_REACTORS
330
33A3
102
}
330
33A3
100
DictionaryVariables
280
     0
  1
0
  0
DICTIONARYVAR
  5
20993
102
{ACAD_REACTORS
330
33A3
102
}
330
33A3
100
DictionaryVariables
280
     0
  1
1
  0
DICTIONARYVAR
  5
20994
102
{ACAD_REACTORS
330
33A3
102
}
330
33A3
100
DictionaryVariables
280
     0
  1
15
  0
DICTIONARYVAR
  5
20992
102
{ACAD_REACTORS
330
33A3
102
}
330
33A3
100
DictionaryVariables
280
     0
  1
0
  0
DICTIONARYVAR
  5
20991
102
{ACAD_REACTORS
330
33A3
102
}
330
33A3
100
DictionaryVariables
280
     0
  1
0
  0
DICTIONARYVAR
  5
9BE6
102
{ACAD_REACTORS
330
33A3
102
}
330
33A3
100
DictionaryVariables
280
     0
  1
127
  0
DICTIONARY
  5
2211E
330
20CB3
100
AcDbDictionary
280
     1
281
     1
  3
ACAD_XREC_ROUNDTRIP
360
2211F
  0
DICTIONARY
  5
2211A
330
1B2F1
100
AcDbDictionary
280
     1
281
     1
  3
ACAD_XREC_ROUNDTRIP
360
2211B
  0
DICTIONARY
  5
1B22B
330
318D
100
AcDbDictionary
280
     1
281
     1
  3
ACAD_XREC_ROUNDTRIP
360
1B22C
  0
DICTIONARY
  5
1B22D
330
318C
100
AcDbDictionary
280
     1
281
     1
  3
ACAD_XREC_ROUNDTRIP
360
1B22E
  0
DICTIONARY
  5
1B22F
330
318E
100
AcDbDictionary
280
     1
281
     1
  3
ACAD_XREC_ROUNDTRIP
360
1B230
  0
DICTIONARY
  5
2211C
330
20CB1
100
AcDbDictionary
280
     1
281
     1
  3
ACAD_XREC_ROUNDTRIP
360
2211D
  0
DICTIONARY
  5
22118
330
1B2EF
100
AcDbDictionary
280
     1
281
     1
  3
ACAD_XREC_ROUNDTRIP
360
22119
  0
DICTIONARY
  5
1B314
330
31A2
100
AcDbDictionary
280
     1
281
     1
  3
ACAD_ROUNDTRIP_2008_TABLESTYLE_CELLSTYLEMAP
360
220E2
  0
DICTIONARY
  5
220EE
330
3195
100
AcDbDictionary
280
     1
281
     1
  3
ACAD_XREC_ROUNDTRIP
360
220EF
  0
DICTIONARY
  5
220F2
330
3197
100
AcDbDictionary
280
     1
281
     1
  3
ACAD_XREC_ROUNDTRIP
360
220F3
  0
DICTIONARY
  5
220F0
330
3196
100
AcDbDictionary
280
     1
281
     1
  3
ACAD_XREC_ROUNDTRIP
360
220F1
  0
DICTIONARY
  5
220EC
330
3194
100
AcDbDictionary
280
     1
281
     1
  3
ACAD_XREC_ROUNDTRIP
360
220ED
  0
DICTIONARY
  5
220FA
330
319B
100
AcDbDictionary
280
     1
281
     1
  3
ACAD_XREC_ROUNDTRIP
360
220FB
  0
DICTIONARY
  5
22102
330
319F
100
AcDbDictionary
280
     1
281
     1
  3
ACAD_XREC_ROUNDTRIP
360
22103
  0
DICTIONARY
  5
220F4
330
3198
100
AcDbDictionary
280
     1
281
     1
  3
ACAD_XREC_ROUNDTRIP
360
220F5
  0
DICTIONARY
  5
220F8
330
319A
100
AcDbDictionary
280
     1
281
     1
  3
ACAD_XREC_ROUNDTRIP
360
220F9
  0
DICTIONARY
  5
22116
330
1B2EC
100
AcDbDictionary
280
     1
281
     1
  3
ACAD_XREC_ROUNDTRIP
360
22117
  0
DICTIONARY
  5
22100
330
319E
100
AcDbDictionary
280
     1
281
     1
  3
ACAD_XREC_ROUNDTRIP
360
22101
  0
DICTIONARY
  5
220E4
330
3190
100
AcDbDictionary
280
     1
281
     1
  3
ACAD_XREC_ROUNDTRIP
360
220E5
  0
DICTIONARY
  5
220E6
330
3191
100
AcDbDictionary
280
     1
281
     1
  3
ACAD_XREC_ROUNDTRIP
360
220E7
  0
DICTIONARY
  5
220E8
330
3192
100
AcDbDictionary
280
     1
281
     1
  3
ACAD_XREC_ROUNDTRIP
360
220E9
  0
DICTIONARY
  5
220EA
330
3193
100
AcDbDictionary
280
     1
281
     1
  3
ACAD_XREC_ROUNDTRIP
360
220EB
  0
DICTIONARY
  5
22106
330
1B2E4
100
AcDbDictionary
280
     1
281
     1
  3
ACAD_XREC_ROUNDTRIP
360
22107
  0
DICTIONARY
  5
22112
330
1B2EA
100
AcDbDictionary
280
     1
281
     1
  3
ACAD_XREC_ROUNDTRIP
360
22113
  0
DICTIONARY
  5
220FE
330
319D
100
AcDbDictionary
280
     1
281
     1
  3
ACAD_XREC_ROUNDTRIP
360
220FF
  0
DICTIONARY
  5
22114
330
1B2EB
100
AcDbDictionary
280
     1
281
     1
  3
ACAD_XREC_ROUNDTRIP
360
22115
  0
DICTIONARY
  5
220F6
330
3199
100
AcDbDictionary
280
     1
281
     1
  3
ACAD_XREC_ROUNDTRIP
360
220F7
  0
DICTIONARY
  5
22110
330
1B2E9
100
AcDbDictionary
280
     1
281
     1
  3
ACAD_XREC_ROUNDTRIP
360
22111
  0
DICTIONARY
  5
2210E
330
1B2E8
100
AcDbDictionary
280
     1
281
     1
  3
ACAD_XREC_ROUNDTRIP
360
2210F
  0
DICTIONARY
  5
22108
330
1B2E5
100
AcDbDictionary
280
     1
281
     1
  3
ACAD_XREC_ROUNDTRIP
360
22109
  0
DICTIONARY
  5
2210A
330
1B2E6
100
AcDbDictionary
280
     1
281
     1
  3
ACAD_XREC_ROUNDTRIP
360
2210B
  0
DICTIONARY
  5
220FC
330
319C
100
AcDbDictionary
280
     1
281
     1
  3
ACAD_XREC_ROUNDTRIP
360
220FD
  0
DICTIONARY
  5
22104
330
1B2E3
100
AcDbDictionary
280
     1
281
     1
  3
ACAD_XREC_ROUNDTRIP
360
22105
  0
DICTIONARY
  5
2210C
330
1B2E7
100
AcDbDictionary
280
     1
281
     1
  3
ACAD_XREC_ROUNDTRIP
360
2210D
  0
XRECORD
  5
2211F
102
{ACAD_REACTORS
330
2211E
102
}
330
2211E
100
AcDbXrecord
280
     1
102
DISPLAYNAME
  1
Imperial24
102
FLAGS
 90
        0
  0
XRECORD
  5
2211B
102
{ACAD_REACTORS
330
2211A
102
}
330
2211A
100
AcDbXrecord
280
     1
102
DISPLAYNAME
  1
Metric50
102
FLAGS
 90
        0
  0
XRECORD
  5
1B22C
102
{ACAD_REACTORS
330
1B22B
102
}
330
1B22B
100
AcDbXrecord
280
     1
102
MATERIAL
148
0.0
149
0.0
149
0.0
 93
        0
 94
      127
282
     0
 72
     1
 77
     1
171
     1
175
     1
179
     1
273
     0
  0
XRECORD
  5
1B22E
102
{ACAD_REACTORS
330
1B22D
102
}
330
1B22D
100
AcDbXrecord
280
     1
102
MATERIAL
148
0.0
149
0.0
149
0.0
 93
        0
 94
      127
282
     0
 72
     1
 77
     1
171
     1
175
     1
179
     1
273
     0
  0
XRECORD
  5
1B230
102
{ACAD_REACTORS
330
1B22F
102
}
330
1B22F
100
AcDbXrecord
280
     1
102
MATERIAL
148
0.0
149
0.0
149
0.0
 93
        0
 94
      127
282
     0
 72
     1
 77
     1
171
     1
175
     1
179
     1
273
     0
  0
XRECORD
  5
2211D
102
{ACAD_REACTORS
330
2211C
102
}
330
2211C
100
AcDbXrecord
280
     1
102
DISPLAYNAME
  1
Imperial24
102
FLAGS
 90
        0
  0
XRECORD
  5
22119
102
{ACAD_REACTORS
330
22118
102
}
330
22118
100
AcDbXrecord
280
     1
102
DISPLAYNAME
  1
Metric50
102
FLAGS
 90
        0
  0
CELLSTYLEMAP
  5
220E2
102
{ACAD_REACTORS
330
1B314
102
}
330
1B314
100
AcDbCellStyleMap
 90
        3
300
CELLSTYLE
  1
TABLEFORMAT_BEGIN
 90
        5
170
     1
 91
        0
 92
    32768
 62
   257
 93
        1
300
CONTENTFORMAT
  1
CONTENTFORMAT_BEGIN
 90
        0
 91
        0
 92
        4
 93
        0
300

 40
0.0
140
1.0
 94
        5
 62
     0
340
11
144
6.0
309
CONTENTFORMAT_END
171
     1
301
MARGIN
  1
CELLMARGIN_BEGIN
 40
1.5
 40
1.5
 40
1.5
 40
1.5
 40
0.18
 40
0.18
309
CELLMARGIN_END
 94
        6
 95
        1
302
GRIDFORMAT
  1
GRIDFORMAT_BEGIN
 90
        0
 91
        1
 62
     0
 92
       -2
340
0
 93
        0
 40
0.045
309
GRIDFORMAT_END
 95
        2
302
GRIDFORMAT
  1
GRIDFORMAT_BEGIN
 90
        0
 91
        1
 62
     0
 92
       -2
340
0
 93
        0
 40
0.045
309
GRIDFORMAT_END
 95
        4
302
GRIDFORMAT
  1
GRIDFORMAT_BEGIN
 90
        0
 91
        1
 62
     0
 92
       -2
340
0
 93
        0
 40
0.045
309
GRIDFORMAT_END
 95
        8
302
GRIDFORMAT
  1
GRIDFORMAT_BEGIN
 90
        0
 91
        1
 62
     0
 92
       -2
340
0
 93
        0
 40
0.045
309
GRIDFORMAT_END
 95
       16
302
GRIDFORMAT
  1
GRIDFORMAT_BEGIN
 90
        0
 91
        1
 62
     0
 92
       -2
340
0
 93
        0
 40
0.045
309
GRIDFORMAT_END
 95
       32
302
GRIDFORMAT
  1
GRIDFORMAT_BEGIN
 90
        0
 91
        1
 62
     0
 92
       -2
340
0
 93
        0
 40
0.045
309
GRIDFORMAT_END
309
TABLEFORMAT_END
  1
CELLSTYLE_BEGIN
 90
        1
 91
        1
300
_TITLE
309
CELLSTYLE_END
300
CELLSTYLE
  1
TABLEFORMAT_BEGIN
 90
        5
170
     1
 91
        0
 92
        0
 62
   257
 93
        1
300
CONTENTFORMAT
  1
CONTENTFORMAT_BEGIN
 90
        0
 91
        0
 92
        4
 93
        0
300

 40
0.0
140
1.0
 94
        5
 62
     0
340
11
144
4.5
309
CONTENTFORMAT_END
171
     1
301
MARGIN
  1
CELLMARGIN_BEGIN
 40
1.5
 40
1.5
 40
1.5
 40
1.5
 40
0.18
 40
0.18
309
CELLMARGIN_END
 94
        6
 95
        1
302
GRIDFORMAT
  1
GRIDFORMAT_BEGIN
 90
        0
 91
        1
 62
     0
 92
       -2
340
0
 93
        0
 40
0.045
309
GRIDFORMAT_END
 95
        2
302
GRIDFORMAT
  1
GRIDFORMAT_BEGIN
 90
        0
 91
        1
 62
     0
 92
       -2
340
0
 93
        0
 40
0.045
309
GRIDFORMAT_END
 95
        4
302
GRIDFORMAT
  1
GRIDFORMAT_BEGIN
 90
        0
 91
        1
 62
     0
 92
       -2
340
0
 93
        0
 40
0.045
309
GRIDFORMAT_END
 95
        8
302
GRIDFORMAT
  1
GRIDFORMAT_BEGIN
 90
        0
 91
        1
 62
     0
 92
       -2
340
0
 93
        0
 40
0.045
309
GRIDFORMAT_END
 95
       16
302
GRIDFORMAT
  1
GRIDFORMAT_BEGIN
 90
        0
 91
        1
 62
     0
 92
       -2
340
0
 93
        0
 40
0.045
309
GRIDFORMAT_END
 95
       32
302
GRIDFORMAT
  1
GRIDFORMAT_BEGIN
 90
        0
 91
        1
 62
     0
 92
       -2
340
0
 93
        0
 40
0.045
309
GRIDFORMAT_END
309
TABLEFORMAT_END
  1
CELLSTYLE_BEGIN
 90
        2
 91
        1
300
_HEADER
309
CELLSTYLE_END
300
CELLSTYLE
  1
TABLEFORMAT_BEGIN
 90
        5
170
     1
 91
        0
 92
        0
 62
   257
 93
        1
300
CONTENTFORMAT
  1
CONTENTFORMAT_BEGIN
 90
        0
 91
        0
 92
        4
 93
        0
300

 40
0.0
140
1.0
 94
        2
 62
     0
340
11
144
4.5
309
CONTENTFORMAT_END
171
     1
301
MARGIN
  1
CELLMARGIN_BEGIN
 40
1.5
 40
1.5
 40
1.5
 40
1.5
 40
0.18
 40
0.18
309
CELLMARGIN_END
 94
        6
 95
        1
302
GRIDFORMAT
  1
GRIDFORMAT_BEGIN
 90
        0
 91
        1
 62
     0
 92
       -2
340
0
 93
        0
 40
0.045
309
GRIDFORMAT_END
 95
        2
302
GRIDFORMAT
  1
GRIDFORMAT_BEGIN
 90
        0
 91
        1
 62
     0
 92
       -2
340
0
 93
        0
 40
0.045
309
GRIDFORMAT_END
 95
        4
302
GRIDFORMAT
  1
GRIDFORMAT_BEGIN
 90
        0
 91
        1
 62
     0
 92
       -2
340
0
 93
        0
 40
0.045
309
GRIDFORMAT_END
 95
        8
302
GRIDFORMAT
  1
GRIDFORMAT_BEGIN
 90
        0
 91
        1
 62
     0
 92
       -2
340
0
 93
        0
 40
0.045
309
GRIDFORMAT_END
 95
       16
302
GRIDFORMAT
  1
GRIDFORMAT_BEGIN
 90
        0
 91
        1
 62
     0
 92
       -2
340
0
 93
        0
 40
0.045
309
GRIDFORMAT_END
 95
       32
302
GRIDFORMAT
  1
GRIDFORMAT_BEGIN
 90
        0
 91
        1
 62
     0
 92
       -2
340
0
 93
        0
 40
0.045
309
GRIDFORMAT_END
309
TABLEFORMAT_END
  1
CELLSTYLE_BEGIN
 90
        3
 91
        2
300
_DATA
309
CELLSTYLE_END
  0
XRECORD
  5
220EF
102
{ACAD_REACTORS
330
220EE
102
}
330
220EE
100
AcDbXrecord
280
     1
102
RTVSPost2010Prop28
280
     1
102
RTVSPost2010PropOp28
 70
     1
102
RTVSPost2010Prop29
280
     1
102
RTVSPost2010PropOp29
 70
     1
102
RTVSPost2010Prop30
280
     0
102
RTVSPost2010PropOp30
 70
     1
102
RTVSPost2010Prop31
280
     0
102
RTVSPost2010PropOp31
 70
     1
102
RTVSPost2010Prop32
280
     0
102
RTVSPost2010PropOp32
 70
     1
102
RTVSPost2010Prop33
280
     0
102
RTVSPost2010PropOp33
 70
     1
102
RTVSPost2010Prop34
280
     0
102
RTVSPost2010PropOp34
 70
     1
102
RTVSPost2010Prop35
280
     0
102
RTVSPost2010PropOp35
 70
     1
102
RTVSPost2010Prop36
280
     0
102
RTVSPost2010PropOp36
 70
     1
102
RTVSPost2010Prop37
 90
       50
102
RTVSPost2010PropOp37
 70
     1
102
RTVSPost2010Prop38
140
0.0
102
RTVSPost2010PropOp38
 70
     1
102
RTVSPost2010Prop39
140
1.0
102
RTVSPost2010PropOp39
 70
     1
102
RTVSPost2010Prop40
 90
        0
102
RTVSPost2010PropOp40
 70
     1
102
RTVSPost2010Prop41ColorIndex
 90
       18
102
RTVSPost2010Prop41ColorRGB
 90
        0
102
RTVSPost2010PropOp41
 70
     1
102
RTVSPost2010Prop42
 90
       50
102
RTVSPost2010PropOp42
 70
     1
102
RTVSPost2010Prop43
 90
        3
102
RTVSPost2010PropOp43
 70
     1
102
RTVSPost2010Prop44ColorIndex
 90
        5
102
RTVSPost2010Prop44ColorRGB
 90
      255
102
RTVSPost2010PropOp44
 70
     1
102
RTVSPost2010Prop45
280
     0
102
RTVSPost2010PropOp45
 70
     1
102
RTVSPost2010Prop46
 90
       50
102
RTVSPost2010PropOp46
 70
     1
102
RTVSPost2010Prop47
 90
       50
102
RTVSPost2010PropOp47
 70
     1
102
RTVSPost2010Prop48
 90
       50
102
RTVSPost2010PropOp48
 70
     1
102
RTVSPost2010Prop49
280
     0
102
RTVSPost2010PropOp49
 70
     1
102
RTVSPost2010Prop50
 90
       50
102
RTVSPost2010PropOp50
 70
     1
102
RTVSPost2010Prop51ColorIndex
 90
      256
102
RTVSPost2010Prop51ColorRGB
 90
-16777216
102
RTVSPost2010PropOp51
 70
     0
102
RTVSPost2010Prop52
140
1.0
102
RTVSPost2010PropOp52
 70
     0
102
RTVSPost2010Prop53
 90
        2
102
RTVSPost2010PropOp53
 70
     1
102
RTVSPost2010Prop54
  1
strokes_ogs.tif
102
RTVSPost2010PropOp54
 70
     1
102
RTVSPost2010Prop55
280
     0
102
RTVSPost2010PropOp55
 70
     1
102
RTVSPost2010Prop56
140
1.0
102
RTVSPost2010PropOp56
 70
     1
102
RTVSPost2010Prop57
140
1.0
102
RTVSPost2010PropOp57
 70
     1
  0
XRECORD
  5
220F3
102
{ACAD_REACTORS
330
220F2
102
}
330
220F2
100
AcDbXrecord
280
     1
102
RTVSPost2010Prop28
280
     0
102
RTVSPost2010PropOp28
 70
     1
102
RTVSPost2010Prop29
280
     1
102
RTVSPost2010PropOp29
 70
     1
102
RTVSPost2010Prop30
280
     1
102
RTVSPost2010PropOp30
 70
     1
102
RTVSPost2010Prop31
280
     0
102
RTVSPost2010PropOp31
 70
     1
102
RTVSPost2010Prop32
280
     0
102
RTVSPost2010PropOp32
 70
     1
102
RTVSPost2010Prop33
280
     0
102
RTVSPost2010PropOp33
 70
     1
102
RTVSPost2010Prop34
280
     0
102
RTVSPost2010PropOp34
 70
     1
102
RTVSPost2010Prop35
280
     0
102
RTVSPost2010PropOp35
 70
     1
102
RTVSPost2010Prop36
280
     0
102
RTVSPost2010PropOp36
 70
     1
102
RTVSPost2010Prop37
 90
       50
102
RTVSPost2010PropOp37
 70
     1
102
RTVSPost2010Prop38
140
0.0
102
RTVSPost2010PropOp38
 70
     1
102
RTVSPost2010Prop39
140
1.0
102
RTVSPost2010PropOp39
 70
     1
102
RTVSPost2010Prop40
 90
        0
102
RTVSPost2010PropOp40
 70
     1
102
RTVSPost2010Prop41ColorIndex
 90
       18
102
RTVSPost2010Prop41ColorRGB
 90
        0
102
RTVSPost2010PropOp41
 70
     1
102
RTVSPost2010Prop42
 90
       50
102
RTVSPost2010PropOp42
 70
     1
102
RTVSPost2010Prop43
 90
        3
102
RTVSPost2010PropOp43
 70
     1
102
RTVSPost2010Prop44ColorIndex
 90
        5
102
RTVSPost2010Prop44ColorRGB
 90
      255
102
RTVSPost2010PropOp44
 70
     1
102
RTVSPost2010Prop45
280
     0
102
RTVSPost2010PropOp45
 70
     1
102
RTVSPost2010Prop46
 90
       50
102
RTVSPost2010PropOp46
 70
     1
102
RTVSPost2010Prop47
 90
       50
102
RTVSPost2010PropOp47
 70
     1
102
RTVSPost2010Prop48
 90
       50
102
RTVSPost2010PropOp48
 70
     1
102
RTVSPost2010Prop49
280
     0
102
RTVSPost2010PropOp49
 70
     1
102
RTVSPost2010Prop50
 90
       50
102
RTVSPost2010PropOp50
 70
     1
102
RTVSPost2010Prop51ColorIndex
 90
      256
102
RTVSPost2010Prop51ColorRGB
 90
-16777216
102
RTVSPost2010PropOp51
 70
     0
102
RTVSPost2010Prop52
140
1.0
102
RTVSPost2010PropOp52
 70
     0
102
RTVSPost2010Prop53
 90
        2
102
RTVSPost2010PropOp53
 70
     1
102
RTVSPost2010Prop54
  1
strokes_ogs.tif
102
RTVSPost2010PropOp54
 70
     1
102
RTVSPost2010Prop55
280
     0
102
RTVSPost2010PropOp55
 70
     1
102
RTVSPost2010Prop56
140
1.0
102
RTVSPost2010PropOp56
 70
     1
102
RTVSPost2010Prop57
140
1.0
102
RTVSPost2010PropOp57
 70
     1
  0
XRECORD
  5
220F1
102
{ACAD_REACTORS
330
220F0
102
}
330
220F0
100
AcDbXrecord
280
     1
102
RTVSPost2010Prop28
280
     0
102
RTVSPost2010PropOp28
 70
     1
102
RTVSPost2010Prop29
280
     1
102
RTVSPost2010PropOp29
 70
     1
102
RTVSPost2010Prop30
280
     1
102
RTVSPost2010PropOp30
 70
     1
102
RTVSPost2010Prop31
280
     0
102
RTVSPost2010PropOp31
 70
     1
102
RTVSPost2010Prop32
280
     0
102
RTVSPost2010PropOp32
 70
     1
102
RTVSPost2010Prop33
280
     0
102
RTVSPost2010PropOp33
 70
     1
102
RTVSPost2010Prop34
280
     0
102
RTVSPost2010PropOp34
 70
     1
102
RTVSPost2010Prop35
280
     0
102
RTVSPost2010PropOp35
 70
     1
102
RTVSPost2010Prop36
280
     0
102
RTVSPost2010PropOp36
 70
     1
102
RTVSPost2010Prop37
 90
       50
102
RTVSPost2010PropOp37
 70
     1
102
RTVSPost2010Prop38
140
0.0
102
RTVSPost2010PropOp38
 70
     1
102
RTVSPost2010Prop39
140
1.0
102
RTVSPost2010PropOp39
 70
     1
102
RTVSPost2010Prop40
 90
        0
102
RTVSPost2010PropOp40
 70
     1
102
RTVSPost2010Prop41ColorIndex
 90
       18
102
RTVSPost2010Prop41ColorRGB
 90
        0
102
RTVSPost2010PropOp41
 70
     1
102
RTVSPost2010Prop42
 90
       50
102
RTVSPost2010PropOp42
 70
     1
102
RTVSPost2010Prop43
 90
        3
102
RTVSPost2010PropOp43
 70
     1
102
RTVSPost2010Prop44ColorIndex
 90
        5
102
RTVSPost2010Prop44ColorRGB
 90
      255
102
RTVSPost2010PropOp44
 70
     1
102
RTVSPost2010Prop45
280
     0
102
RTVSPost2010PropOp45
 70
     1
102
RTVSPost2010Prop46
 90
       50
102
RTVSPost2010PropOp46
 70
     1
102
RTVSPost2010Prop47
 90
       50
102
RTVSPost2010PropOp47
 70
     1
102
RTVSPost2010Prop48
 90
       50
102
RTVSPost2010PropOp48
 70
     1
102
RTVSPost2010Prop49
280
     0
102
RTVSPost2010PropOp49
 70
     1
102
RTVSPost2010Prop50
 90
       50
102
RTVSPost2010PropOp50
 70
     1
102
RTVSPost2010Prop51ColorIndex
 90
      256
102
RTVSPost2010Prop51ColorRGB
 90
-16777216
102
RTVSPost2010PropOp51
 70
     0
102
RTVSPost2010Prop52
140
1.0
102
RTVSPost2010PropOp52
 70
     0
102
RTVSPost2010Prop53
 90
        2
102
RTVSPost2010PropOp53
 70
     1
102
RTVSPost2010Prop54
  1
strokes_ogs.tif
102
RTVSPost2010PropOp54
 70
     1
102
RTVSPost2010Prop55
280
     0
102
RTVSPost2010PropOp55
 70
     1
102
RTVSPost2010Prop56
140
1.0
102
RTVSPost2010PropOp56
 70
     1
102
RTVSPost2010Prop57
140
1.0
102
RTVSPost2010PropOp57
 70
     1
  0
XRECORD
  5
220ED
102
{ACAD_REACTORS
330
220EC
102
}
330
220EC
100
AcDbXrecord
280
     1
102
RTVSPost2010Prop28
280
     0
102
RTVSPost2010PropOp28
 70
     1
102
RTVSPost2010Prop29
280
     1
102
RTVSPost2010PropOp29
 70
     1
102
RTVSPost2010Prop30
280
     1
102
RTVSPost2010PropOp30
 70
     1
102
RTVSPost2010Prop31
280
     0
102
RTVSPost2010PropOp31
 70
     1
102
RTVSPost2010Prop32
280
     0
102
RTVSPost2010PropOp32
 70
     1
102
RTVSPost2010Prop33
280
     0
102
RTVSPost2010PropOp33
 70
     1
102
RTVSPost2010Prop34
280
     0
102
RTVSPost2010PropOp34
 70
     1
102
RTVSPost2010Prop35
280
     0
102
RTVSPost2010PropOp35
 70
     1
102
RTVSPost2010Prop36
280
     0
102
RTVSPost2010PropOp36
 70
     1
102
RTVSPost2010Prop37
 90
       50
102
RTVSPost2010PropOp37
 70
     1
102
RTVSPost2010Prop38
140
0.0
102
RTVSPost2010PropOp38
 70
     1
102
RTVSPost2010Prop39
140
1.0
102
RTVSPost2010PropOp39
 70
     1
102
RTVSPost2010Prop40
 90
        0
102
RTVSPost2010PropOp40
 70
     1
102
RTVSPost2010Prop41ColorIndex
 90
       18
102
RTVSPost2010Prop41ColorRGB
 90
        0
102
RTVSPost2010PropOp41
 70
     1
102
RTVSPost2010Prop42
 90
       50
102
RTVSPost2010PropOp42
 70
     1
102
RTVSPost2010Prop43
 90
        3
102
RTVSPost2010PropOp43
 70
     1
102
RTVSPost2010Prop44ColorIndex
 90
        5
102
RTVSPost2010Prop44ColorRGB
 90
      255
102
RTVSPost2010PropOp44
 70
     1
102
RTVSPost2010Prop45
280
     0
102
RTVSPost2010PropOp45
 70
     1
102
RTVSPost2010Prop46
 90
       50
102
RTVSPost2010PropOp46
 70
     1
102
RTVSPost2010Prop47
 90
       50
102
RTVSPost2010PropOp47
 70
     1
102
RTVSPost2010Prop48
 90
       50
102
RTVSPost2010PropOp48
 70
     1
102
RTVSPost2010Prop49
280
     0
102
RTVSPost2010PropOp49
 70
     1
102
RTVSPost2010Prop50
 90
       50
102
RTVSPost2010PropOp50
 70
     1
102
RTVSPost2010Prop51ColorIndex
 90
      256
102
RTVSPost2010Prop51ColorRGB
 90
-16777216
102
RTVSPost2010PropOp51
 70
     0
102
RTVSPost2010Prop52
140
1.0
102
RTVSPost2010PropOp52
 70
     0
102
RTVSPost2010Prop53
 90
        2
102
RTVSPost2010PropOp53
 70
     1
102
RTVSPost2010Prop54
  1
strokes_ogs.tif
102
RTVSPost2010PropOp54
 70
     1
102
RTVSPost2010Prop55
280
     0
102
RTVSPost2010PropOp55
 70
     1
102
RTVSPost2010Prop56
140
1.0
102
RTVSPost2010PropOp56
 70
     1
102
RTVSPost2010Prop57
140
1.0
102
RTVSPost2010PropOp57
 70
     1
  0
XRECORD
  5
220FB
102
{ACAD_REACTORS
330
220FA
102
}
330
220FA
100
AcDbXrecord
280
     1
102
RTVSPost2010Prop28
280
     0
102
RTVSPost2010PropOp28
 70
     1
102
RTVSPost2010Prop29
280
     1
102
RTVSPost2010PropOp29
 70
     1
102
RTVSPost2010Prop30
280
     1
102
RTVSPost2010PropOp30
 70
     1
102
RTVSPost2010Prop31
280
     0
102
RTVSPost2010PropOp31
 70
     1
102
RTVSPost2010Prop32
280
     0
102
RTVSPost2010PropOp32
 70
     1
102
RTVSPost2010Prop33
280
     0
102
RTVSPost2010PropOp33
 70
     1
102
RTVSPost2010Prop34
280
     0
102
RTVSPost2010PropOp34
 70
     1
102
RTVSPost2010Prop35
280
     0
102
RTVSPost2010PropOp35
 70
     1
102
RTVSPost2010Prop36
280
     0
102
RTVSPost2010PropOp36
 70
     1
102
RTVSPost2010Prop37
 90
       50
102
RTVSPost2010PropOp37
 70
     1
102
RTVSPost2010Prop38
140
0.0
102
RTVSPost2010PropOp38
 70
     1
102
RTVSPost2010Prop39
140
1.0
102
RTVSPost2010PropOp39
 70
     1
102
RTVSPost2010Prop40
 90
        0
102
RTVSPost2010PropOp40
 70
     1
102
RTVSPost2010Prop41ColorIndex
 90
       18
102
RTVSPost2010Prop41ColorRGB
 90
        0
102
RTVSPost2010PropOp41
 70
     1
102
RTVSPost2010Prop42
 90
       50
102
RTVSPost2010PropOp42
 70
     1
102
RTVSPost2010Prop43
 90
        3
102
RTVSPost2010PropOp43
 70
     1
102
RTVSPost2010Prop44ColorIndex
 90
        5
102
RTVSPost2010Prop44ColorRGB
 90
      255
102
RTVSPost2010PropOp44
 70
     1
102
RTVSPost2010Prop45
280
     0
102
RTVSPost2010PropOp45
 70
     1
102
RTVSPost2010Prop46
 90
       50
102
RTVSPost2010PropOp46
 70
     1
102
RTVSPost2010Prop47
 90
       50
102
RTVSPost2010PropOp47
 70
     1
102
RTVSPost2010Prop48
 90
       50
102
RTVSPost2010PropOp48
 70
     1
102
RTVSPost2010Prop49
280
     0
102
RTVSPost2010PropOp49
 70
     1
102
RTVSPost2010Prop50
 90
       50
102
RTVSPost2010PropOp50
 70
     1
102
RTVSPost2010Prop51ColorIndex
 90
      256
102
RTVSPost2010Prop51ColorRGB
 90
-16777216
102
RTVSPost2010PropOp51
 70
     0
102
RTVSPost2010Prop52
140
1.0
102
RTVSPost2010PropOp52
 70
     0
102
RTVSPost2010Prop53
 90
        2
102
RTVSPost2010PropOp53
 70
     1
102
RTVSPost2010Prop54
  1
strokes_ogs.tif
102
RTVSPost2010PropOp54
 70
     1
102
RTVSPost2010Prop55
280
     0
102
RTVSPost2010PropOp55
 70
     1
102
RTVSPost2010Prop56
140
1.0
102
RTVSPost2010PropOp56
 70
     1
102
RTVSPost2010Prop57
140
1.0
102
RTVSPost2010PropOp57
 70
     1
  0
XRECORD
  5
22103
102
{ACAD_REACTORS
330
22102
102
}
330
22102
100
AcDbXrecord
280
     1
102
RTVSPost2010Prop28
280
     0
102
RTVSPost2010PropOp28
 70
     1
102
RTVSPost2010Prop29
280
     1
102
RTVSPost2010PropOp29
 70
     1
102
RTVSPost2010Prop30
280
     1
102
RTVSPost2010PropOp30
 70
     1
102
RTVSPost2010Prop31
280
     0
102
RTVSPost2010PropOp31
 70
     1
102
RTVSPost2010Prop32
280
     0
102
RTVSPost2010PropOp32
 70
     1
102
RTVSPost2010Prop33
280
     0
102
RTVSPost2010PropOp33
 70
     1
102
RTVSPost2010Prop34
280
     0
102
RTVSPost2010PropOp34
 70
     1
102
RTVSPost2010Prop35
280
     0
102
RTVSPost2010PropOp35
 70
     1
102
RTVSPost2010Prop36
280
     0
102
RTVSPost2010PropOp36
 70
     1
102
RTVSPost2010Prop37
 90
       50
102
RTVSPost2010PropOp37
 70
     1
102
RTVSPost2010Prop38
140
0.0
102
RTVSPost2010PropOp38
 70
     1
102
RTVSPost2010Prop39
140
1.0
102
RTVSPost2010PropOp39
 70
     1
102
RTVSPost2010Prop40
 90
        0
102
RTVSPost2010PropOp40
 70
     1
102
RTVSPost2010Prop41ColorIndex
 90
       18
102
RTVSPost2010Prop41ColorRGB
 90
        0
102
RTVSPost2010PropOp41
 70
     1
102
RTVSPost2010Prop42
 90
       50
102
RTVSPost2010PropOp42
 70
     1
102
RTVSPost2010Prop43
 90
        3
102
RTVSPost2010PropOp43
 70
     1
102
RTVSPost2010Prop44ColorIndex
 90
        5
102
RTVSPost2010Prop44ColorRGB
 90
      255
102
RTVSPost2010PropOp44
 70
     1
102
RTVSPost2010Prop45
280
     0
102
RTVSPost2010PropOp45
 70
     1
102
RTVSPost2010Prop46
 90
       50
102
RTVSPost2010PropOp46
 70
     1
102
RTVSPost2010Prop47
 90
       50
102
RTVSPost2010PropOp47
 70
     1
102
RTVSPost2010Prop48
 90
       50
102
RTVSPost2010PropOp48
 70
     1
102
RTVSPost2010Prop49
280
     0
102
RTVSPost2010PropOp49
 70
     1
102
RTVSPost2010Prop50
 90
       50
102
RTVSPost2010PropOp50
 70
     1
102
RTVSPost2010Prop51ColorIndex
 90
      256
102
RTVSPost2010Prop51ColorRGB
 90
-16777216
102
RTVSPost2010PropOp51
 70
     0
102
RTVSPost2010Prop52
140
1.0
102
RTVSPost2010PropOp52
 70
     0
102
RTVSPost2010Prop53
 90
        2
102
RTVSPost2010PropOp53
 70
     1
102
RTVSPost2010Prop54
  1
strokes_ogs.tif
102
RTVSPost2010PropOp54
 70
     1
102
RTVSPost2010Prop55
280
     0
102
RTVSPost2010PropOp55
 70
     1
102
RTVSPost2010Prop56
140
1.0
102
RTVSPost2010PropOp56
 70
     1
102
RTVSPost2010Prop57
140
1.0
102
RTVSPost2010PropOp57
 70
     1
  0
XRECORD
  5
220F5
102
{ACAD_REACTORS
330
220F4
102
}
330
220F4
100
AcDbXrecord
280
     1
102
RTVSPost2010Prop28
280
     0
102
RTVSPost2010PropOp28
 70
     1
102
RTVSPost2010Prop29
280
     1
102
RTVSPost2010PropOp29
 70
     1
102
RTVSPost2010Prop30
280
     1
102
RTVSPost2010PropOp30
 70
     1
102
RTVSPost2010Prop31
280
     0
102
RTVSPost2010PropOp31
 70
     1
102
RTVSPost2010Prop32
280
     0
102
RTVSPost2010PropOp32
 70
     1
102
RTVSPost2010Prop33
280
     0
102
RTVSPost2010PropOp33
 70
     1
102
RTVSPost2010Prop34
280
     0
102
RTVSPost2010PropOp34
 70
     1
102
RTVSPost2010Prop35
280
     0
102
RTVSPost2010PropOp35
 70
     1
102
RTVSPost2010Prop36
280
     0
102
RTVSPost2010PropOp36
 70
     1
102
RTVSPost2010Prop37
 90
       50
102
RTVSPost2010PropOp37
 70
     1
102
RTVSPost2010Prop38
140
0.0
102
RTVSPost2010PropOp38
 70
     1
102
RTVSPost2010Prop39
140
1.0
102
RTVSPost2010PropOp39
 70
     1
102
RTVSPost2010Prop40
 90
        0
102
RTVSPost2010PropOp40
 70
     1
102
RTVSPost2010Prop41ColorIndex
 90
       18
102
RTVSPost2010Prop41ColorRGB
 90
        0
102
RTVSPost2010PropOp41
 70
     1
102
RTVSPost2010Prop42
 90
       50
102
RTVSPost2010PropOp42
 70
     1
102
RTVSPost2010Prop43
 90
        3
102
RTVSPost2010PropOp43
 70
     1
102
RTVSPost2010Prop44ColorIndex
 90
        5
102
RTVSPost2010Prop44ColorRGB
 90
      255
102
RTVSPost2010PropOp44
 70
     1
102
RTVSPost2010Prop45
280
     0
102
RTVSPost2010PropOp45
 70
     1
102
RTVSPost2010Prop46
 90
       50
102
RTVSPost2010PropOp46
 70
     1
102
RTVSPost2010Prop47
 90
       50
102
RTVSPost2010PropOp47
 70
     1
102
RTVSPost2010Prop48
 90
       50
102
RTVSPost2010PropOp48
 70
     1
102
RTVSPost2010Prop49
280
     0
102
RTVSPost2010PropOp49
 70
     1
102
RTVSPost2010Prop50
 90
       50
102
RTVSPost2010PropOp50
 70
     1
102
RTVSPost2010Prop51ColorIndex
 90
      256
102
RTVSPost2010Prop51ColorRGB
 90
-16777216
102
RTVSPost2010PropOp51
 70
     0
102
RTVSPost2010Prop52
140
1.0
102
RTVSPost2010PropOp52
 70
     0
102
RTVSPost2010Prop53
 90
        2
102
RTVSPost2010PropOp53
 70
     1
102
RTVSPost2010Prop54
  1
strokes_ogs.tif
102
RTVSPost2010PropOp54
 70
     1
102
RTVSPost2010Prop55
280
     0
102
RTVSPost2010PropOp55
 70
     1
102
RTVSPost2010Prop56
140
1.0
102
RTVSPost2010PropOp56
 70
     1
102
RTVSPost2010Prop57
140
1.0
102
RTVSPost2010PropOp57
 70
     1
  0
XRECORD
  5
220F9
102
{ACAD_REACTORS
330
220F8
102
}
330
220F8
100
AcDbXrecord
280
     1
102
RTVSPost2010Prop28
280
     0
102
RTVSPost2010PropOp28
 70
     1
102
RTVSPost2010Prop29
280
     1
102
RTVSPost2010PropOp29
 70
     1
102
RTVSPost2010Prop30
280
     1
102
RTVSPost2010PropOp30
 70
     1
102
RTVSPost2010Prop31
280
     0
102
RTVSPost2010PropOp31
 70
     1
102
RTVSPost2010Prop32
280
     0
102
RTVSPost2010PropOp32
 70
     1
102
RTVSPost2010Prop33
280
     0
102
RTVSPost2010PropOp33
 70
     1
102
RTVSPost2010Prop34
280
     0
102
RTVSPost2010PropOp34
 70
     1
102
RTVSPost2010Prop35
280
     0
102
RTVSPost2010PropOp35
 70
     1
102
RTVSPost2010Prop36
280
     0
102
RTVSPost2010PropOp36
 70
     1
102
RTVSPost2010Prop37
 90
       50
102
RTVSPost2010PropOp37
 70
     1
102
RTVSPost2010Prop38
140
0.0
102
RTVSPost2010PropOp38
 70
     1
102
RTVSPost2010Prop39
140
1.0
102
RTVSPost2010PropOp39
 70
     1
102
RTVSPost2010Prop40
 90
        0
102
RTVSPost2010PropOp40
 70
     1
102
RTVSPost2010Prop41ColorIndex
 90
       18
102
RTVSPost2010Prop41ColorRGB
 90
        0
102
RTVSPost2010PropOp41
 70
     1
102
RTVSPost2010Prop42
 90
       50
102
RTVSPost2010PropOp42
 70
     1
102
RTVSPost2010Prop43
 90
        3
102
RTVSPost2010PropOp43
 70
     1
102
RTVSPost2010Prop44ColorIndex
 90
        5
102
RTVSPost2010Prop44ColorRGB
 90
      255
102
RTVSPost2010PropOp44
 70
     1
102
RTVSPost2010Prop45
280
     0
102
RTVSPost2010PropOp45
 70
     1
102
RTVSPost2010Prop46
 90
       50
102
RTVSPost2010PropOp46
 70
     1
102
RTVSPost2010Prop47
 90
       50
102
RTVSPost2010PropOp47
 70
     1
102
RTVSPost2010Prop48
 90
       50
102
RTVSPost2010PropOp48
 70
     1
102
RTVSPost2010Prop49
280
     0
102
RTVSPost2010PropOp49
 70
     1
102
RTVSPost2010Prop50
 90
       50
102
RTVSPost2010PropOp50
 70
     1
102
RTVSPost2010Prop51ColorIndex
 90
      256
102
RTVSPost2010Prop51ColorRGB
 90
-16777216
102
RTVSPost2010PropOp51
 70
     0
102
RTVSPost2010Prop52
140
1.0
102
RTVSPost2010PropOp52
 70
     0
102
RTVSPost2010Prop53
 90
        2
102
RTVSPost2010PropOp53
 70
     1
102
RTVSPost2010Prop54
  1
strokes_ogs.tif
102
RTVSPost2010PropOp54
 70
     1
102
RTVSPost2010Prop55
280
     0
102
RTVSPost2010PropOp55
 70
     1
102
RTVSPost2010Prop56
140
1.0
102
RTVSPost2010PropOp56
 70
     1
102
RTVSPost2010Prop57
140
1.0
102
RTVSPost2010PropOp57
 70
     1
  0
XRECORD
  5
22117
102
{ACAD_REACTORS
330
22116
102
}
330
22116
100
AcDbXrecord
280
     1
102
RTVSPost2010Prop28
280
     0
102
RTVSPost2010PropOp28
 70
     1
102
RTVSPost2010Prop29
280
     1
102
RTVSPost2010PropOp29
 70
     1
102
RTVSPost2010Prop30
280
     1
102
RTVSPost2010PropOp30
 70
     1
102
RTVSPost2010Prop31
280
     0
102
RTVSPost2010PropOp31
 70
     1
102
RTVSPost2010Prop32
280
     0
102
RTVSPost2010PropOp32
 70
     1
102
RTVSPost2010Prop33
280
     0
102
RTVSPost2010PropOp33
 70
     1
102
RTVSPost2010Prop34
280
     0
102
RTVSPost2010PropOp34
 70
     1
102
RTVSPost2010Prop35
280
     0
102
RTVSPost2010PropOp35
 70
     1
102
RTVSPost2010Prop36
280
     0
102
RTVSPost2010PropOp36
 70
     1
102
RTVSPost2010Prop37
 90
       50
102
RTVSPost2010PropOp37
 70
     0
102
RTVSPost2010Prop38
140
0.0
102
RTVSPost2010PropOp38
 70
     0
102
RTVSPost2010Prop39
140
1.0
102
RTVSPost2010PropOp39
 70
     0
102
RTVSPost2010Prop40
 90
        0
102
RTVSPost2010PropOp40
 70
     0
102
RTVSPost2010Prop41ColorIndex
 90
       18
102
RTVSPost2010Prop41ColorRGB
 90
        0
102
RTVSPost2010PropOp41
 70
     0
102
RTVSPost2010Prop42
 90
       50
102
RTVSPost2010PropOp42
 70
     0
102
RTVSPost2010Prop43
 90
        3
102
RTVSPost2010PropOp43
 70
     0
102
RTVSPost2010Prop44ColorIndex
 90
        5
102
RTVSPost2010Prop44ColorRGB
 90
      255
102
RTVSPost2010PropOp44
 70
     0
102
RTVSPost2010Prop45
280
     0
102
RTVSPost2010PropOp45
 70
     1
102
RTVSPost2010Prop46
 90
       50
102
RTVSPost2010PropOp46
 70
     0
102
RTVSPost2010Prop47
 90
       50
102
RTVSPost2010PropOp47
 70
     0
102
RTVSPost2010Prop48
 90
       50
102
RTVSPost2010PropOp48
 70
     0
102
RTVSPost2010Prop49
280
     0
102
RTVSPost2010PropOp49
 70
     1
102
RTVSPost2010Prop50
 90
       50
102
RTVSPost2010PropOp50
 70
     0
102
RTVSPost2010Prop51ColorIndex
 90
      256
102
RTVSPost2010Prop51ColorRGB
 90
-16777216
102
RTVSPost2010PropOp51
 70
     0
102
RTVSPost2010Prop52
140
1.0
102
RTVSPost2010PropOp52
 70
     0
102
RTVSPost2010Prop53
 90
        2
102
RTVSPost2010PropOp53
 70
     0
102
RTVSPost2010Prop54
  1
strokes_ogs.tif
102
RTVSPost2010PropOp54
 70
     0
102
RTVSPost2010Prop55
280
     0
102
RTVSPost2010PropOp55
 70
     1
102
RTVSPost2010Prop56
140
1.0
102
RTVSPost2010PropOp56
 70
     0
102
RTVSPost2010Prop57
140
1.0
102
RTVSPost2010PropOp57
 70
     0
  0
XRECORD
  5
22101
102
{ACAD_REACTORS
330
22100
102
}
330
22100
100
AcDbXrecord
280
     1
102
RTVSPost2010Prop28
280
     0
102
RTVSPost2010PropOp28
 70
     1
102
RTVSPost2010Prop29
280
     1
102
RTVSPost2010PropOp29
 70
     1
102
RTVSPost2010Prop30
280
     1
102
RTVSPost2010PropOp30
 70
     1
102
RTVSPost2010Prop31
280
     0
102
RTVSPost2010PropOp31
 70
     1
102
RTVSPost2010Prop32
280
     0
102
RTVSPost2010PropOp32
 70
     1
102
RTVSPost2010Prop33
280
     0
102
RTVSPost2010PropOp33
 70
     1
102
RTVSPost2010Prop34
280
     0
102
RTVSPost2010PropOp34
 70
     1
102
RTVSPost2010Prop35
280
     0
102
RTVSPost2010PropOp35
 70
     1
102
RTVSPost2010Prop36
280
     0
102
RTVSPost2010PropOp36
 70
     1
102
RTVSPost2010Prop37
 90
       50
102
RTVSPost2010PropOp37
 70
     1
102
RTVSPost2010Prop38
140
0.0
102
RTVSPost2010PropOp38
 70
     1
102
RTVSPost2010Prop39
140
1.0
102
RTVSPost2010PropOp39
 70
     1
102
RTVSPost2010Prop40
 90
        0
102
RTVSPost2010PropOp40
 70
     1
102
RTVSPost2010Prop41ColorIndex
 90
       18
102
RTVSPost2010Prop41ColorRGB
 90
        0
102
RTVSPost2010PropOp41
 70
     1
102
RTVSPost2010Prop42
 90
       50
102
RTVSPost2010PropOp42
 70
     1
102
RTVSPost2010Prop43
 90
        3
102
RTVSPost2010PropOp43
 70
     1
102
RTVSPost2010Prop44ColorIndex
 90
        5
102
RTVSPost2010Prop44ColorRGB
 90
      255
102
RTVSPost2010PropOp44
 70
     1
102
RTVSPost2010Prop45
280
     0
102
RTVSPost2010PropOp45
 70
     1
102
RTVSPost2010Prop46
 90
       50
102
RTVSPost2010PropOp46
 70
     1
102
RTVSPost2010Prop47
 90
       50
102
RTVSPost2010PropOp47
 70
     1
102
RTVSPost2010Prop48
 90
       50
102
RTVSPost2010PropOp48
 70
     1
102
RTVSPost2010Prop49
280
     0
102
RTVSPost2010PropOp49
 70
     1
102
RTVSPost2010Prop50
 90
       50
102
RTVSPost2010PropOp50
 70
     1
102
RTVSPost2010Prop51ColorIndex
 90
      256
102
RTVSPost2010Prop51ColorRGB
 90
-16777216
102
RTVSPost2010PropOp51
 70
     0
102
RTVSPost2010Prop52
140
1.0
102
RTVSPost2010PropOp52
 70
     0
102
RTVSPost2010Prop53
 90
        2
102
RTVSPost2010PropOp53
 70
     1
102
RTVSPost2010Prop54
  1
strokes_ogs.tif
102
RTVSPost2010PropOp54
 70
     1
102
RTVSPost2010Prop55
280
     0
102
RTVSPost2010PropOp55
 70
     1
102
RTVSPost2010Prop56
140
1.0
102
RTVSPost2010PropOp56
 70
     1
102
RTVSPost2010Prop57
140
1.0
102
RTVSPost2010PropOp57
 70
     1
  0
XRECORD
  5
220E5
102
{ACAD_REACTORS
330
220E4
102
}
330
220E4
100
AcDbXrecord
280
     1
102
RTVSPost2010Prop28
280
     0
102
RTVSPost2010PropOp28
 70
     1
102
RTVSPost2010Prop29
280
     1
102
RTVSPost2010PropOp29
 70
     1
102
RTVSPost2010Prop30
280
     1
102
RTVSPost2010PropOp30
 70
     1
102
RTVSPost2010Prop31
280
     0
102
RTVSPost2010PropOp31
 70
     1
102
RTVSPost2010Prop32
280
     0
102
RTVSPost2010PropOp32
 70
     1
102
RTVSPost2010Prop33
280
     0
102
RTVSPost2010PropOp33
 70
     1
102
RTVSPost2010Prop34
280
     0
102
RTVSPost2010PropOp34
 70
     1
102
RTVSPost2010Prop35
280
     0
102
RTVSPost2010PropOp35
 70
     1
102
RTVSPost2010Prop36
280
     0
102
RTVSPost2010PropOp36
 70
     1
102
RTVSPost2010Prop37
 90
       50
102
RTVSPost2010PropOp37
 70
     1
102
RTVSPost2010Prop38
140
0.0
102
RTVSPost2010PropOp38
 70
     1
102
RTVSPost2010Prop39
140
1.0
102
RTVSPost2010PropOp39
 70
     1
102
RTVSPost2010Prop40
 90
        0
102
RTVSPost2010PropOp40
 70
     1
102
RTVSPost2010Prop41ColorIndex
 90
       18
102
RTVSPost2010Prop41ColorRGB
 90
        0
102
RTVSPost2010PropOp41
 70
     1
102
RTVSPost2010Prop42
 90
       50
102
RTVSPost2010PropOp42
 70
     1
102
RTVSPost2010Prop43
 90
        3
102
RTVSPost2010PropOp43
 70
     1
102
RTVSPost2010Prop44ColorIndex
 90
        5
102
RTVSPost2010Prop44ColorRGB
 90
      255
102
RTVSPost2010PropOp44
 70
     1
102
RTVSPost2010Prop45
280
     0
102
RTVSPost2010PropOp45
 70
     1
102
RTVSPost2010Prop46
 90
       50
102
RTVSPost2010PropOp46
 70
     1
102
RTVSPost2010Prop47
 90
       50
102
RTVSPost2010PropOp47
 70
     1
102
RTVSPost2010Prop48
 90
       50
102
RTVSPost2010PropOp48
 70
     1
102
RTVSPost2010Prop49
280
     0
102
RTVSPost2010PropOp49
 70
     1
102
RTVSPost2010Prop50
 90
       50
102
RTVSPost2010PropOp50
 70
     1
102
RTVSPost2010Prop51ColorIndex
 90
      256
102
RTVSPost2010Prop51ColorRGB
 90
-16777216
102
RTVSPost2010PropOp51
 70
     0
102
RTVSPost2010Prop52
140
1.0
102
RTVSPost2010PropOp52
 70
     0
102
RTVSPost2010Prop53
 90
        2
102
RTVSPost2010PropOp53
 70
     1
102
RTVSPost2010Prop54
  1
strokes_ogs.tif
102
RTVSPost2010PropOp54
 70
     1
102
RTVSPost2010Prop55
280
     0
102
RTVSPost2010PropOp55
 70
     1
102
RTVSPost2010Prop56
140
1.0
102
RTVSPost2010PropOp56
 70
     1
102
RTVSPost2010Prop57
140
1.0
102
RTVSPost2010PropOp57
 70
     1
  0
XRECORD
  5
220E7
102
{ACAD_REACTORS
330
220E6
102
}
330
220E6
100
AcDbXrecord
280
     1
102
RTVSPost2010Prop28
280
     0
102
RTVSPost2010PropOp28
 70
     1
102
RTVSPost2010Prop29
280
     1
102
RTVSPost2010PropOp29
 70
     1
102
RTVSPost2010Prop30
280
     1
102
RTVSPost2010PropOp30
 70
     1
102
RTVSPost2010Prop31
280
     0
102
RTVSPost2010PropOp31
 70
     1
102
RTVSPost2010Prop32
280
     0
102
RTVSPost2010PropOp32
 70
     1
102
RTVSPost2010Prop33
280
     0
102
RTVSPost2010PropOp33
 70
     1
102
RTVSPost2010Prop34
280
     0
102
RTVSPost2010PropOp34
 70
     1
102
RTVSPost2010Prop35
280
     0
102
RTVSPost2010PropOp35
 70
     1
102
RTVSPost2010Prop36
280
     0
102
RTVSPost2010PropOp36
 70
     1
102
RTVSPost2010Prop37
 90
       50
102
RTVSPost2010PropOp37
 70
     1
102
RTVSPost2010Prop38
140
0.0
102
RTVSPost2010PropOp38
 70
     1
102
RTVSPost2010Prop39
140
1.0
102
RTVSPost2010PropOp39
 70
     1
102
RTVSPost2010Prop40
 90
        0
102
RTVSPost2010PropOp40
 70
     1
102
RTVSPost2010Prop41ColorIndex
 90
       18
102
RTVSPost2010Prop41ColorRGB
 90
        0
102
RTVSPost2010PropOp41
 70
     1
102
RTVSPost2010Prop42
 90
       50
102
RTVSPost2010PropOp42
 70
     1
102
RTVSPost2010Prop43
 90
        3
102
RTVSPost2010PropOp43
 70
     1
102
RTVSPost2010Prop44ColorIndex
 90
        5
102
RTVSPost2010Prop44ColorRGB
 90
      255
102
RTVSPost2010PropOp44
 70
     1
102
RTVSPost2010Prop45
280
     0
102
RTVSPost2010PropOp45
 70
     1
102
RTVSPost2010Prop46
 90
       50
102
RTVSPost2010PropOp46
 70
     1
102
RTVSPost2010Prop47
 90
       50
102
RTVSPost2010PropOp47
 70
     1
102
RTVSPost2010Prop48
 90
       50
102
RTVSPost2010PropOp48
 70
     1
102
RTVSPost2010Prop49
280
     0
102
RTVSPost2010PropOp49
 70
     1
102
RTVSPost2010Prop50
 90
       50
102
RTVSPost2010PropOp50
 70
     1
102
RTVSPost2010Prop51ColorIndex
 90
      256
102
RTVSPost2010Prop51ColorRGB
 90
-16777216
102
RTVSPost2010PropOp51
 70
     0
102
RTVSPost2010Prop52
140
1.0
102
RTVSPost2010PropOp52
 70
     0
102
RTVSPost2010Prop53
 90
        2
102
RTVSPost2010PropOp53
 70
     1
102
RTVSPost2010Prop54
  1
strokes_ogs.tif
102
RTVSPost2010PropOp54
 70
     1
102
RTVSPost2010Prop55
280
     0
102
RTVSPost2010PropOp55
 70
     1
102
RTVSPost2010Prop56
140
1.0
102
RTVSPost2010PropOp56
 70
     1
102
RTVSPost2010Prop57
140
1.0
102
RTVSPost2010PropOp57
 70
     1
  0
XRECORD
  5
220E9
102
{ACAD_REACTORS
330
220E8
102
}
330
220E8
100
AcDbXrecord
280
     1
102
RTVSPost2010Prop28
280
     0
102
RTVSPost2010PropOp28
 70
     1
102
RTVSPost2010Prop29
280
     1
102
RTVSPost2010PropOp29
 70
     1
102
RTVSPost2010Prop30
280
     1
102
RTVSPost2010PropOp30
 70
     1
102
RTVSPost2010Prop31
280
     0
102
RTVSPost2010PropOp31
 70
     1
102
RTVSPost2010Prop32
280
     0
102
RTVSPost2010PropOp32
 70
     1
102
RTVSPost2010Prop33
280
     0
102
RTVSPost2010PropOp33
 70
     1
102
RTVSPost2010Prop34
280
     0
102
RTVSPost2010PropOp34
 70
     1
102
RTVSPost2010Prop35
280
     0
102
RTVSPost2010PropOp35
 70
     1
102
RTVSPost2010Prop36
280
     0
102
RTVSPost2010PropOp36
 70
     1
102
RTVSPost2010Prop37
 90
       50
102
RTVSPost2010PropOp37
 70
     1
102
RTVSPost2010Prop38
140
0.0
102
RTVSPost2010PropOp38
 70
     1
102
RTVSPost2010Prop39
140
1.0
102
RTVSPost2010PropOp39
 70
     1
102
RTVSPost2010Prop40
 90
        0
102
RTVSPost2010PropOp40
 70
     1
102
RTVSPost2010Prop41ColorIndex
 90
       18
102
RTVSPost2010Prop41ColorRGB
 90
        0
102
RTVSPost2010PropOp41
 70
     1
102
RTVSPost2010Prop42
 90
       50
102
RTVSPost2010PropOp42
 70
     1
102
RTVSPost2010Prop43
 90
        3
102
RTVSPost2010PropOp43
 70
     1
102
RTVSPost2010Prop44ColorIndex
 90
        5
102
RTVSPost2010Prop44ColorRGB
 90
      255
102
RTVSPost2010PropOp44
 70
     1
102
RTVSPost2010Prop45
280
     0
102
RTVSPost2010PropOp45
 70
     1
102
RTVSPost2010Prop46
 90
       50
102
RTVSPost2010PropOp46
 70
     1
102
RTVSPost2010Prop47
 90
       50
102
RTVSPost2010PropOp47
 70
     1
102
RTVSPost2010Prop48
 90
       50
102
RTVSPost2010PropOp48
 70
     1
102
RTVSPost2010Prop49
280
     0
102
RTVSPost2010PropOp49
 70
     1
102
RTVSPost2010Prop50
 90
       50
102
RTVSPost2010PropOp50
 70
     1
102
RTVSPost2010Prop51ColorIndex
 90
      256
102
RTVSPost2010Prop51ColorRGB
 90
-16777216
102
RTVSPost2010PropOp51
 70
     0
102
RTVSPost2010Prop52
140
1.0
102
RTVSPost2010PropOp52
 70
     0
102
RTVSPost2010Prop53
 90
        2
102
RTVSPost2010PropOp53
 70
     1
102
RTVSPost2010Prop54
  1
strokes_ogs.tif
102
RTVSPost2010PropOp54
 70
     1
102
RTVSPost2010Prop55
280
     0
102
RTVSPost2010PropOp55
 70
     1
102
RTVSPost2010Prop56
140
1.0
102
RTVSPost2010PropOp56
 70
     1
102
RTVSPost2010Prop57
140
1.0
102
RTVSPost2010PropOp57
 70
     1
  0
XRECORD
  5
220EB
102
{ACAD_REACTORS
330
220EA
102
}
330
220EA
100
AcDbXrecord
280
     1
102
RTVSPost2010Prop28
280
     0
102
RTVSPost2010PropOp28
 70
     1
102
RTVSPost2010Prop29
280
     1
102
RTVSPost2010PropOp29
 70
     1
102
RTVSPost2010Prop30
280
     1
102
RTVSPost2010PropOp30
 70
     1
102
RTVSPost2010Prop31
280
     0
102
RTVSPost2010PropOp31
 70
     1
102
RTVSPost2010Prop32
280
     0
102
RTVSPost2010PropOp32
 70
     1
102
RTVSPost2010Prop33
280
     0
102
RTVSPost2010PropOp33
 70
     1
102
RTVSPost2010Prop34
280
     0
102
RTVSPost2010PropOp34
 70
     1
102
RTVSPost2010Prop35
280
     0
102
RTVSPost2010PropOp35
 70
     1
102
RTVSPost2010Prop36
280
     0
102
RTVSPost2010PropOp36
 70
     1
102
RTVSPost2010Prop37
 90
       50
102
RTVSPost2010PropOp37
 70
     1
102
RTVSPost2010Prop38
140
0.0
102
RTVSPost2010PropOp38
 70
     1
102
RTVSPost2010Prop39
140
1.0
102
RTVSPost2010PropOp39
 70
     1
102
RTVSPost2010Prop40
 90
        0
102
RTVSPost2010PropOp40
 70
     1
102
RTVSPost2010Prop41ColorIndex
 90
       18
102
RTVSPost2010Prop41ColorRGB
 90
        0
102
RTVSPost2010PropOp41
 70
     1
102
RTVSPost2010Prop42
 90
       50
102
RTVSPost2010PropOp42
 70
     1
102
RTVSPost2010Prop43
 90
        3
102
RTVSPost2010PropOp43
 70
     1
102
RTVSPost2010Prop44ColorIndex
 90
        5
102
RTVSPost2010Prop44ColorRGB
 90
      255
102
RTVSPost2010PropOp44
 70
     1
102
RTVSPost2010Prop45
280
     0
102
RTVSPost2010PropOp45
 70
     1
102
RTVSPost2010Prop46
 90
       50
102
RTVSPost2010PropOp46
 70
     1
102
RTVSPost2010Prop47
 90
       50
102
RTVSPost2010PropOp47
 70
     1
102
RTVSPost2010Prop48
 90
       50
102
RTVSPost2010PropOp48
 70
     1
102
RTVSPost2010Prop49
280
     0
102
RTVSPost2010PropOp49
 70
     1
102
RTVSPost2010Prop50
 90
       50
102
RTVSPost2010PropOp50
 70
     1
102
RTVSPost2010Prop51ColorIndex
 90
      256
102
RTVSPost2010Prop51ColorRGB
 90
-16777216
102
RTVSPost2010PropOp51
 70
     0
102
RTVSPost2010Prop52
140
1.0
102
RTVSPost2010PropOp52
 70
     0
102
RTVSPost2010Prop53
 90
        2
102
RTVSPost2010PropOp53
 70
     1
102
RTVSPost2010Prop54
  1
strokes_ogs.tif
102
RTVSPost2010PropOp54
 70
     1
102
RTVSPost2010Prop55
280
     0
102
RTVSPost2010PropOp55
 70
     1
102
RTVSPost2010Prop56
140
1.0
102
RTVSPost2010PropOp56
 70
     1
102
RTVSPost2010Prop57
140
1.0
102
RTVSPost2010PropOp57
 70
     1
  0
XRECORD
  5
22107
102
{ACAD_REACTORS
330
22106
102
}
330
22106
100
AcDbXrecord
280
     1
102
RTVSPost2010Prop28
280
     0
102
RTVSPost2010PropOp28
 70
     1
102
RTVSPost2010Prop29
280
     1
102
RTVSPost2010PropOp29
 70
     1
102
RTVSPost2010Prop30
280
     1
102
RTVSPost2010PropOp30
 70
     1
102
RTVSPost2010Prop31
280
     0
102
RTVSPost2010PropOp31
 70
     1
102
RTVSPost2010Prop32
280
     0
102
RTVSPost2010PropOp32
 70
     1
102
RTVSPost2010Prop33
280
     0
102
RTVSPost2010PropOp33
 70
     1
102
RTVSPost2010Prop34
280
     0
102
RTVSPost2010PropOp34
 70
     1
102
RTVSPost2010Prop35
280
     0
102
RTVSPost2010PropOp35
 70
     1
102
RTVSPost2010Prop36
280
     0
102
RTVSPost2010PropOp36
 70
     1
102
RTVSPost2010Prop37
 90
       50
102
RTVSPost2010PropOp37
 70
     1
102
RTVSPost2010Prop38
140
0.0
102
RTVSPost2010PropOp38
 70
     1
102
RTVSPost2010Prop39
140
1.0
102
RTVSPost2010PropOp39
 70
     1
102
RTVSPost2010Prop40
 90
        0
102
RTVSPost2010PropOp40
 70
     1
102
RTVSPost2010Prop41ColorIndex
 90
       18
102
RTVSPost2010Prop41ColorRGB
 90
        0
102
RTVSPost2010PropOp41
 70
     1
102
RTVSPost2010Prop42
 90
       50
102
RTVSPost2010PropOp42
 70
     1
102
RTVSPost2010Prop43
 90
        3
102
RTVSPost2010PropOp43
 70
     1
102
RTVSPost2010Prop44ColorIndex
 90
        5
102
RTVSPost2010Prop44ColorRGB
 90
      255
102
RTVSPost2010PropOp44
 70
     1
102
RTVSPost2010Prop45
280
     0
102
RTVSPost2010PropOp45
 70
     1
102
RTVSPost2010Prop46
 90
       50
102
RTVSPost2010PropOp46
 70
     1
102
RTVSPost2010Prop47
 90
       50
102
RTVSPost2010PropOp47
 70
     1
102
RTVSPost2010Prop48
 90
       50
102
RTVSPost2010PropOp48
 70
     1
102
RTVSPost2010Prop49
280
     0
102
RTVSPost2010PropOp49
 70
     1
102
RTVSPost2010Prop50
 90
       50
102
RTVSPost2010PropOp50
 70
     1
102
RTVSPost2010Prop51ColorIndex
 90
      256
102
RTVSPost2010Prop51ColorRGB
 90
-16777216
102
RTVSPost2010PropOp51
 70
     0
102
RTVSPost2010Prop52
140
1.0
102
RTVSPost2010PropOp52
 70
     0
102
RTVSPost2010Prop53
 90
        2
102
RTVSPost2010PropOp53
 70
     1
102
RTVSPost2010Prop54
  1
strokes_ogs.tif
102
RTVSPost2010PropOp54
 70
     1
102
RTVSPost2010Prop55
280
     0
102
RTVSPost2010PropOp55
 70
     1
102
RTVSPost2010Prop56
140
1.0
102
RTVSPost2010PropOp56
 70
     1
102
RTVSPost2010Prop57
140
1.0
102
RTVSPost2010PropOp57
 70
     1
  0
XRECORD
  5
22113
102
{ACAD_REACTORS
330
22112
102
}
330
22112
100
AcDbXrecord
280
     1
102
RTVSPost2010Prop28
280
     0
102
RTVSPost2010PropOp28
 70
     1
102
RTVSPost2010Prop29
280
     1
102
RTVSPost2010PropOp29
 70
     1
102
RTVSPost2010Prop30
280
     1
102
RTVSPost2010PropOp30
 70
     1
102
RTVSPost2010Prop31
280
     0
102
RTVSPost2010PropOp31
 70
     1
102
RTVSPost2010Prop32
280
     0
102
RTVSPost2010PropOp32
 70
     1
102
RTVSPost2010Prop33
280
     0
102
RTVSPost2010PropOp33
 70
     1
102
RTVSPost2010Prop34
280
     0
102
RTVSPost2010PropOp34
 70
     1
102
RTVSPost2010Prop35
280
     0
102
RTVSPost2010PropOp35
 70
     1
102
RTVSPost2010Prop36
280
     0
102
RTVSPost2010PropOp36
 70
     1
102
RTVSPost2010Prop37
 90
       50
102
RTVSPost2010PropOp37
 70
     0
102
RTVSPost2010Prop38
140
0.0
102
RTVSPost2010PropOp38
 70
     0
102
RTVSPost2010Prop39
140
1.0
102
RTVSPost2010PropOp39
 70
     0
102
RTVSPost2010Prop40
 90
        0
102
RTVSPost2010PropOp40
 70
     0
102
RTVSPost2010Prop41ColorIndex
 90
       18
102
RTVSPost2010Prop41ColorRGB
 90
        0
102
RTVSPost2010PropOp41
 70
     0
102
RTVSPost2010Prop42
 90
       50
102
RTVSPost2010PropOp42
 70
     0
102
RTVSPost2010Prop43
 90
        3
102
RTVSPost2010PropOp43
 70
     0
102
RTVSPost2010Prop44ColorIndex
 90
        5
102
RTVSPost2010Prop44ColorRGB
 90
      255
102
RTVSPost2010PropOp44
 70
     0
102
RTVSPost2010Prop45
280
     0
102
RTVSPost2010PropOp45
 70
     1
102
RTVSPost2010Prop46
 90
       50
102
RTVSPost2010PropOp46
 70
     0
102
RTVSPost2010Prop47
 90
       50
102
RTVSPost2010PropOp47
 70
     0
102
RTVSPost2010Prop48
 90
       50
102
RTVSPost2010PropOp48
 70
     0
102
RTVSPost2010Prop49
280
     0
102
RTVSPost2010PropOp49
 70
     1
102
RTVSPost2010Prop50
 90
       50
102
RTVSPost2010PropOp50
 70
     0
102
RTVSPost2010Prop51ColorIndex
 90
      256
102
RTVSPost2010Prop51ColorRGB
 90
-16777216
102
RTVSPost2010PropOp51
 70
     0
102
RTVSPost2010Prop52
140
1.0
102
RTVSPost2010PropOp52
 70
     0
102
RTVSPost2010Prop53
 90
        2
102
RTVSPost2010PropOp53
 70
     0
102
RTVSPost2010Prop54
  1
strokes_ogs.tif
102
RTVSPost2010PropOp54
 70
     0
102
RTVSPost2010Prop55
280
     0
102
RTVSPost2010PropOp55
 70
     1
102
RTVSPost2010Prop56
140
1.0
102
RTVSPost2010PropOp56
 70
     0
102
RTVSPost2010Prop57
140
1.0
102
RTVSPost2010PropOp57
 70
     0
  0
XRECORD
  5
220FF
102
{ACAD_REACTORS
330
220FE
102
}
330
220FE
100
AcDbXrecord
280
     1
102
RTVSPost2010Prop28
280
     0
102
RTVSPost2010PropOp28
 70
     1
102
RTVSPost2010Prop29
280
     1
102
RTVSPost2010PropOp29
 70
     1
102
RTVSPost2010Prop30
280
     1
102
RTVSPost2010PropOp30
 70
     1
102
RTVSPost2010Prop31
280
     0
102
RTVSPost2010PropOp31
 70
     1
102
RTVSPost2010Prop32
280
     0
102
RTVSPost2010PropOp32
 70
     1
102
RTVSPost2010Prop33
280
     0
102
RTVSPost2010PropOp33
 70
     1
102
RTVSPost2010Prop34
280
     0
102
RTVSPost2010PropOp34
 70
     1
102
RTVSPost2010Prop35
280
     0
102
RTVSPost2010PropOp35
 70
     1
102
RTVSPost2010Prop36
280
     0
102
RTVSPost2010PropOp36
 70
     1
102
RTVSPost2010Prop37
 90
       50
102
RTVSPost2010PropOp37
 70
     1
102
RTVSPost2010Prop38
140
0.0
102
RTVSPost2010PropOp38
 70
     1
102
RTVSPost2010Prop39
140
1.0
102
RTVSPost2010PropOp39
 70
     1
102
RTVSPost2010Prop40
 90
        0
102
RTVSPost2010PropOp40
 70
     1
102
RTVSPost2010Prop41ColorIndex
 90
       18
102
RTVSPost2010Prop41ColorRGB
 90
        0
102
RTVSPost2010PropOp41
 70
     1
102
RTVSPost2010Prop42
 90
       50
102
RTVSPost2010PropOp42
 70
     1
102
RTVSPost2010Prop43
 90
        3
102
RTVSPost2010PropOp43
 70
     1
102
RTVSPost2010Prop44ColorIndex
 90
        5
102
RTVSPost2010Prop44ColorRGB
 90
      255
102
RTVSPost2010PropOp44
 70
     1
102
RTVSPost2010Prop45
280
     0
102
RTVSPost2010PropOp45
 70
     1
102
RTVSPost2010Prop46
 90
       50
102
RTVSPost2010PropOp46
 70
     1
102
RTVSPost2010Prop47
 90
       50
102
RTVSPost2010PropOp47
 70
     1
102
RTVSPost2010Prop48
 90
       50
102
RTVSPost2010PropOp48
 70
     1
102
RTVSPost2010Prop49
280
     0
102
RTVSPost2010PropOp49
 70
     1
102
RTVSPost2010Prop50
 90
       50
102
RTVSPost2010PropOp50
 70
     1
102
RTVSPost2010Prop51ColorIndex
 90
      256
102
RTVSPost2010Prop51ColorRGB
 90
-16777216
102
RTVSPost2010PropOp51
 70
     0
102
RTVSPost2010Prop52
140
1.0
102
RTVSPost2010PropOp52
 70
     0
102
RTVSPost2010Prop53
 90
        2
102
RTVSPost2010PropOp53
 70
     1
102
RTVSPost2010Prop54
  1
strokes_ogs.tif
102
RTVSPost2010PropOp54
 70
     1
102
RTVSPost2010Prop55
280
     0
102
RTVSPost2010PropOp55
 70
     1
102
RTVSPost2010Prop56
140
1.0
102
RTVSPost2010PropOp56
 70
     1
102
RTVSPost2010Prop57
140
1.0
102
RTVSPost2010PropOp57
 70
     1
  0
XRECORD
  5
22115
102
{ACAD_REACTORS
330
22114
102
}
330
22114
100
AcDbXrecord
280
     1
102
RTVSPost2010Prop28
280
     0
102
RTVSPost2010PropOp28
 70
     1
102
RTVSPost2010Prop29
280
     1
102
RTVSPost2010PropOp29
 70
     1
102
RTVSPost2010Prop30
280
     1
102
RTVSPost2010PropOp30
 70
     1
102
RTVSPost2010Prop31
280
     0
102
RTVSPost2010PropOp31
 70
     1
102
RTVSPost2010Prop32
280
     0
102
RTVSPost2010PropOp32
 70
     1
102
RTVSPost2010Prop33
280
     0
102
RTVSPost2010PropOp33
 70
     1
102
RTVSPost2010Prop34
280
     0
102
RTVSPost2010PropOp34
 70
     1
102
RTVSPost2010Prop35
280
     0
102
RTVSPost2010PropOp35
 70
     1
102
RTVSPost2010Prop36
280
     0
102
RTVSPost2010PropOp36
 70
     1
102
RTVSPost2010Prop37
 90
       50
102
RTVSPost2010PropOp37
 70
     0
102
RTVSPost2010Prop38
140
0.0
102
RTVSPost2010PropOp38
 70
     0
102
RTVSPost2010Prop39
140
1.0
102
RTVSPost2010PropOp39
 70
     0
102
RTVSPost2010Prop40
 90
        0
102
RTVSPost2010PropOp40
 70
     0
102
RTVSPost2010Prop41ColorIndex
 90
       18
102
RTVSPost2010Prop41ColorRGB
 90
        0
102
RTVSPost2010PropOp41
 70
     0
102
RTVSPost2010Prop42
 90
       50
102
RTVSPost2010PropOp42
 70
     0
102
RTVSPost2010Prop43
 90
        3
102
RTVSPost2010PropOp43
 70
     0
102
RTVSPost2010Prop44ColorIndex
 90
        5
102
RTVSPost2010Prop44ColorRGB
 90
      255
102
RTVSPost2010PropOp44
 70
     0
102
RTVSPost2010Prop45
280
     0
102
RTVSPost2010PropOp45
 70
     1
102
RTVSPost2010Prop46
 90
       50
102
RTVSPost2010PropOp46
 70
     0
102
RTVSPost2010Prop47
 90
       50
102
RTVSPost2010PropOp47
 70
     0
102
RTVSPost2010Prop48
 90
       50
102
RTVSPost2010PropOp48
 70
     0
102
RTVSPost2010Prop49
280
     0
102
RTVSPost2010PropOp49
 70
     1
102
RTVSPost2010Prop50
 90
       50
102
RTVSPost2010PropOp50
 70
     0
102
RTVSPost2010Prop51ColorIndex
 90
      256
102
RTVSPost2010Prop51ColorRGB
 90
-16777216
102
RTVSPost2010PropOp51
 70
     0
102
RTVSPost2010Prop52
140
1.0
102
RTVSPost2010PropOp52
 70
     0
102
RTVSPost2010Prop53
 90
        2
102
RTVSPost2010PropOp53
 70
     0
102
RTVSPost2010Prop54
  1
strokes_ogs.tif
102
RTVSPost2010PropOp54
 70
     0
102
RTVSPost2010Prop55
280
     0
102
RTVSPost2010PropOp55
 70
     1
102
RTVSPost2010Prop56
140
1.0
102
RTVSPost2010PropOp56
 70
     0
102
RTVSPost2010Prop57
140
1.0
102
RTVSPost2010PropOp57
 70
     0
  0
XRECORD
  5
220F7
102
{ACAD_REACTORS
330
220F6
102
}
330
220F6
100
AcDbXrecord
280
     1
102
RTVSPost2010Prop28
280
     0
102
RTVSPost2010PropOp28
 70
     1
102
RTVSPost2010Prop29
280
     1
102
RTVSPost2010PropOp29
 70
     1
102
RTVSPost2010Prop30
280
     1
102
RTVSPost2010PropOp30
 70
     1
102
RTVSPost2010Prop31
280
     0
102
RTVSPost2010PropOp31
 70
     1
102
RTVSPost2010Prop32
280
     0
102
RTVSPost2010PropOp32
 70
     1
102
RTVSPost2010Prop33
280
     0
102
RTVSPost2010PropOp33
 70
     1
102
RTVSPost2010Prop34
280
     0
102
RTVSPost2010PropOp34
 70
     1
102
RTVSPost2010Prop35
280
     0
102
RTVSPost2010PropOp35
 70
     1
102
RTVSPost2010Prop36
280
     0
102
RTVSPost2010PropOp36
 70
     1
102
RTVSPost2010Prop37
 90
       50
102
RTVSPost2010PropOp37
 70
     1
102
RTVSPost2010Prop38
140
0.0
102
RTVSPost2010PropOp38
 70
     1
102
RTVSPost2010Prop39
140
1.0
102
RTVSPost2010PropOp39
 70
     1
102
RTVSPost2010Prop40
 90
        0
102
RTVSPost2010PropOp40
 70
     1
102
RTVSPost2010Prop41ColorIndex
 90
       18
102
RTVSPost2010Prop41ColorRGB
 90
        0
102
RTVSPost2010PropOp41
 70
     1
102
RTVSPost2010Prop42
 90
       50
102
RTVSPost2010PropOp42
 70
     1
102
RTVSPost2010Prop43
 90
        3
102
RTVSPost2010PropOp43
 70
     1
102
RTVSPost2010Prop44ColorIndex
 90
        5
102
RTVSPost2010Prop44ColorRGB
 90
      255
102
RTVSPost2010PropOp44
 70
     1
102
RTVSPost2010Prop45
280
     0
102
RTVSPost2010PropOp45
 70
     1
102
RTVSPost2010Prop46
 90
       50
102
RTVSPost2010PropOp46
 70
     1
102
RTVSPost2010Prop47
 90
       50
102
RTVSPost2010PropOp47
 70
     1
102
RTVSPost2010Prop48
 90
       50
102
RTVSPost2010PropOp48
 70
     1
102
RTVSPost2010Prop49
280
     0
102
RTVSPost2010PropOp49
 70
     1
102
RTVSPost2010Prop50
 90
       50
102
RTVSPost2010PropOp50
 70
     1
102
RTVSPost2010Prop51ColorIndex
 90
      256
102
RTVSPost2010Prop51ColorRGB
 90
-16777216
102
RTVSPost2010PropOp51
 70
     0
102
RTVSPost2010Prop52
140
1.0
102
RTVSPost2010PropOp52
 70
     0
102
RTVSPost2010Prop53
 90
        2
102
RTVSPost2010PropOp53
 70
     1
102
RTVSPost2010Prop54
  1
strokes_ogs.tif
102
RTVSPost2010PropOp54
 70
     1
102
RTVSPost2010Prop55
280
     0
102
RTVSPost2010PropOp55
 70
     1
102
RTVSPost2010Prop56
140
1.0
102
RTVSPost2010PropOp56
 70
     1
102
RTVSPost2010Prop57
140
1.0
102
RTVSPost2010PropOp57
 70
     1
  0
XRECORD
  5
22111
102
{ACAD_REACTORS
330
22110
102
}
330
22110
100
AcDbXrecord
280
     1
102
RTVSPost2010Prop28
280
     0
102
RTVSPost2010PropOp28
 70
     1
102
RTVSPost2010Prop29
280
     1
102
RTVSPost2010PropOp29
 70
     1
102
RTVSPost2010Prop30
280
     1
102
RTVSPost2010PropOp30
 70
     1
102
RTVSPost2010Prop31
280
     0
102
RTVSPost2010PropOp31
 70
     1
102
RTVSPost2010Prop32
280
     0
102
RTVSPost2010PropOp32
 70
     1
102
RTVSPost2010Prop33
280
     0
102
RTVSPost2010PropOp33
 70
     1
102
RTVSPost2010Prop34
280
     0
102
RTVSPost2010PropOp34
 70
     1
102
RTVSPost2010Prop35
280
     0
102
RTVSPost2010PropOp35
 70
     1
102
RTVSPost2010Prop36
280
     0
102
RTVSPost2010PropOp36
 70
     1
102
RTVSPost2010Prop37
 90
       50
102
RTVSPost2010PropOp37
 70
     1
102
RTVSPost2010Prop38
140
0.0
102
RTVSPost2010PropOp38
 70
     1
102
RTVSPost2010Prop39
140
1.0
102
RTVSPost2010PropOp39
 70
     1
102
RTVSPost2010Prop40
 90
        0
102
RTVSPost2010PropOp40
 70
     1
102
RTVSPost2010Prop41ColorIndex
 90
       18
102
RTVSPost2010Prop41ColorRGB
 90
        0
102
RTVSPost2010PropOp41
 70
     1
102
RTVSPost2010Prop42
 90
       50
102
RTVSPost2010PropOp42
 70
     1
102
RTVSPost2010Prop43
 90
        3
102
RTVSPost2010PropOp43
 70
     1
102
RTVSPost2010Prop44ColorIndex
 90
        5
102
RTVSPost2010Prop44ColorRGB
 90
      255
102
RTVSPost2010PropOp44
 70
     1
102
RTVSPost2010Prop45
280
     0
102
RTVSPost2010PropOp45
 70
     1
102
RTVSPost2010Prop46
 90
       50
102
RTVSPost2010PropOp46
 70
     1
102
RTVSPost2010Prop47
 90
       50
102
RTVSPost2010PropOp47
 70
     1
102
RTVSPost2010Prop48
 90
       50
102
RTVSPost2010PropOp48
 70
     1
102
RTVSPost2010Prop49
280
     0
102
RTVSPost2010PropOp49
 70
     1
102
RTVSPost2010Prop50
 90
       50
102
RTVSPost2010PropOp50
 70
     1
102
RTVSPost2010Prop51ColorIndex
 90
      256
102
RTVSPost2010Prop51ColorRGB
 90
-16777216
102
RTVSPost2010PropOp51
 70
     0
102
RTVSPost2010Prop52
140
1.0
102
RTVSPost2010PropOp52
 70
     0
102
RTVSPost2010Prop53
 90
        2
102
RTVSPost2010PropOp53
 70
     1
102
RTVSPost2010Prop54
  1
strokes_ogs.tif
102
RTVSPost2010PropOp54
 70
     1
102
RTVSPost2010Prop55
280
     0
102
RTVSPost2010PropOp55
 70
     1
102
RTVSPost2010Prop56
140
1.0
102
RTVSPost2010PropOp56
 70
     1
102
RTVSPost2010Prop57
140
1.0
102
RTVSPost2010PropOp57
 70
     1
  0
XRECORD
  5
2210F
102
{ACAD_REACTORS
330
2210E
102
}
330
2210E
100
AcDbXrecord
280
     1
102
RTVSPost2010Prop28
280
     0
102
RTVSPost2010PropOp28
 70
     1
102
RTVSPost2010Prop29
280
     1
102
RTVSPost2010PropOp29
 70
     1
102
RTVSPost2010Prop30
280
     1
102
RTVSPost2010PropOp30
 70
     1
102
RTVSPost2010Prop31
280
     0
102
RTVSPost2010PropOp31
 70
     1
102
RTVSPost2010Prop32
280
     0
102
RTVSPost2010PropOp32
 70
     1
102
RTVSPost2010Prop33
280
     0
102
RTVSPost2010PropOp33
 70
     1
102
RTVSPost2010Prop34
280
     0
102
RTVSPost2010PropOp34
 70
     1
102
RTVSPost2010Prop35
280
     0
102
RTVSPost2010PropOp35
 70
     1
102
RTVSPost2010Prop36
280
     0
102
RTVSPost2010PropOp36
 70
     1
102
RTVSPost2010Prop37
 90
       50
102
RTVSPost2010PropOp37
 70
     1
102
RTVSPost2010Prop38
140
0.0
102
RTVSPost2010PropOp38
 70
     1
102
RTVSPost2010Prop39
140
1.0
102
RTVSPost2010PropOp39
 70
     1
102
RTVSPost2010Prop40
 90
        0
102
RTVSPost2010PropOp40
 70
     1
102
RTVSPost2010Prop41ColorIndex
 90
       18
102
RTVSPost2010Prop41ColorRGB
 90
        0
102
RTVSPost2010PropOp41
 70
     1
102
RTVSPost2010Prop42
 90
       50
102
RTVSPost2010PropOp42
 70
     1
102
RTVSPost2010Prop43
 90
        3
102
RTVSPost2010PropOp43
 70
     1
102
RTVSPost2010Prop44ColorIndex
 90
        5
102
RTVSPost2010Prop44ColorRGB
 90
      255
102
RTVSPost2010PropOp44
 70
     1
102
RTVSPost2010Prop45
280
     0
102
RTVSPost2010PropOp45
 70
     1
102
RTVSPost2010Prop46
 90
       50
102
RTVSPost2010PropOp46
 70
     1
102
RTVSPost2010Prop47
 90
       50
102
RTVSPost2010PropOp47
 70
     1
102
RTVSPost2010Prop48
 90
       50
102
RTVSPost2010PropOp48
 70
     1
102
RTVSPost2010Prop49
280
     0
102
RTVSPost2010PropOp49
 70
     1
102
RTVSPost2010Prop50
 90
       50
102
RTVSPost2010PropOp50
 70
     1
102
RTVSPost2010Prop51ColorIndex
 90
      256
102
RTVSPost2010Prop51ColorRGB
 90
-16777216
102
RTVSPost2010PropOp51
 70
     0
102
RTVSPost2010Prop52
140
1.0
102
RTVSPost2010PropOp52
 70
     0
102
RTVSPost2010Prop53
 90
        2
102
RTVSPost2010PropOp53
 70
     1
102
RTVSPost2010Prop54
  1
strokes_ogs.tif
102
RTVSPost2010PropOp54
 70
     1
102
RTVSPost2010Prop55
280
     0
102
RTVSPost2010PropOp55
 70
     1
102
RTVSPost2010Prop56
140
1.0
102
RTVSPost2010PropOp56
 70
     1
102
RTVSPost2010Prop57
140
1.0
102
RTVSPost2010PropOp57
 70
     1
  0
XRECORD
  5
22109
102
{ACAD_REACTORS
330
22108
102
}
330
22108
100
AcDbXrecord
280
     1
102
RTVSPost2010Prop28
280
     0
102
RTVSPost2010PropOp28
 70
     1
102
RTVSPost2010Prop29
280
     1
102
RTVSPost2010PropOp29
 70
     1
102
RTVSPost2010Prop30
280
     1
102
RTVSPost2010PropOp30
 70
     1
102
RTVSPost2010Prop31
280
     0
102
RTVSPost2010PropOp31
 70
     1
102
RTVSPost2010Prop32
280
     0
102
RTVSPost2010PropOp32
 70
     1
102
RTVSPost2010Prop33
280
     0
102
RTVSPost2010PropOp33
 70
     1
102
RTVSPost2010Prop34
280
     0
102
RTVSPost2010PropOp34
 70
     1
102
RTVSPost2010Prop35
280
     0
102
RTVSPost2010PropOp35
 70
     1
102
RTVSPost2010Prop36
280
     0
102
RTVSPost2010PropOp36
 70
     1
102
RTVSPost2010Prop37
 90
       50
102
RTVSPost2010PropOp37
 70
     1
102
RTVSPost2010Prop38
140
0.0
102
RTVSPost2010PropOp38
 70
     1
102
RTVSPost2010Prop39
140
1.0
102
RTVSPost2010PropOp39
 70
     1
102
RTVSPost2010Prop40
 90
        0
102
RTVSPost2010PropOp40
 70
     1
102
RTVSPost2010Prop41ColorIndex
 90
       18
102
RTVSPost2010Prop41ColorRGB
 90
        0
102
RTVSPost2010PropOp41
 70
     1
102
RTVSPost2010Prop42
 90
       50
102
RTVSPost2010PropOp42
 70
     1
102
RTVSPost2010Prop43
 90
        3
102
RTVSPost2010PropOp43
 70
     1
102
RTVSPost2010Prop44ColorIndex
 90
        5
102
RTVSPost2010Prop44ColorRGB
 90
      255
102
RTVSPost2010PropOp44
 70
     1
102
RTVSPost2010Prop45
280
     0
102
RTVSPost2010PropOp45
 70
     1
102
RTVSPost2010Prop46
 90
       50
102
RTVSPost2010PropOp46
 70
     1
102
RTVSPost2010Prop47
 90
       50
102
RTVSPost2010PropOp47
 70
     1
102
RTVSPost2010Prop48
 90
       50
102
RTVSPost2010PropOp48
 70
     1
102
RTVSPost2010Prop49
280
     0
102
RTVSPost2010PropOp49
 70
     1
102
RTVSPost2010Prop50
 90
       50
102
RTVSPost2010PropOp50
 70
     1
102
RTVSPost2010Prop51ColorIndex
 90
      256
102
RTVSPost2010Prop51ColorRGB
 90
-16777216
102
RTVSPost2010PropOp51
 70
     0
102
RTVSPost2010Prop52
140
1.0
102
RTVSPost2010PropOp52
 70
     0
102
RTVSPost2010Prop53
 90
        2
102
RTVSPost2010PropOp53
 70
     1
102
RTVSPost2010Prop54
  1
strokes_ogs.tif
102
RTVSPost2010PropOp54
 70
     1
102
RTVSPost2010Prop55
280
     0
102
RTVSPost2010PropOp55
 70
     1
102
RTVSPost2010Prop56
140
1.0
102
RTVSPost2010PropOp56
 70
     1
102
RTVSPost2010Prop57
140
1.0
102
RTVSPost2010PropOp57
 70
     1
  0
XRECORD
  5
2210B
102
{ACAD_REACTORS
330
2210A
102
}
330
2210A
100
AcDbXrecord
280
     1
102
RTVSPost2010Prop28
280
     0
102
RTVSPost2010PropOp28
 70
     1
102
RTVSPost2010Prop29
280
     1
102
RTVSPost2010PropOp29
 70
     1
102
RTVSPost2010Prop30
280
     1
102
RTVSPost2010PropOp30
 70
     1
102
RTVSPost2010Prop31
280
     0
102
RTVSPost2010PropOp31
 70
     1
102
RTVSPost2010Prop32
280
     0
102
RTVSPost2010PropOp32
 70
     1
102
RTVSPost2010Prop33
280
     0
102
RTVSPost2010PropOp33
 70
     1
102
RTVSPost2010Prop34
280
     0
102
RTVSPost2010PropOp34
 70
     1
102
RTVSPost2010Prop35
280
     0
102
RTVSPost2010PropOp35
 70
     1
102
RTVSPost2010Prop36
280
     0
102
RTVSPost2010PropOp36
 70
     1
102
RTVSPost2010Prop37
 90
       50
102
RTVSPost2010PropOp37
 70
     1
102
RTVSPost2010Prop38
140
0.0
102
RTVSPost2010PropOp38
 70
     1
102
RTVSPost2010Prop39
140
1.0
102
RTVSPost2010PropOp39
 70
     1
102
RTVSPost2010Prop40
 90
        0
102
RTVSPost2010PropOp40
 70
     1
102
RTVSPost2010Prop41ColorIndex
 90
       18
102
RTVSPost2010Prop41ColorRGB
 90
        0
102
RTVSPost2010PropOp41
 70
     1
102
RTVSPost2010Prop42
 90
       50
102
RTVSPost2010PropOp42
 70
     1
102
RTVSPost2010Prop43
 90
        3
102
RTVSPost2010PropOp43
 70
     1
102
RTVSPost2010Prop44ColorIndex
 90
        5
102
RTVSPost2010Prop44ColorRGB
 90
      255
102
RTVSPost2010PropOp44
 70
     1
102
RTVSPost2010Prop45
280
     0
102
RTVSPost2010PropOp45
 70
     1
102
RTVSPost2010Prop46
 90
       50
102
RTVSPost2010PropOp46
 70
     1
102
RTVSPost2010Prop47
 90
       50
102
RTVSPost2010PropOp47
 70
     1
102
RTVSPost2010Prop48
 90
       50
102
RTVSPost2010PropOp48
 70
     1
102
RTVSPost2010Prop49
280
     0
102
RTVSPost2010PropOp49
 70
     1
102
RTVSPost2010Prop50
 90
       50
102
RTVSPost2010PropOp50
 70
     1
102
RTVSPost2010Prop51ColorIndex
 90
      256
102
RTVSPost2010Prop51ColorRGB
 90
-16777216
102
RTVSPost2010PropOp51
 70
     0
102
RTVSPost2010Prop52
140
1.0
102
RTVSPost2010PropOp52
 70
     0
102
RTVSPost2010Prop53
 90
        2
102
RTVSPost2010PropOp53
 70
     1
102
RTVSPost2010Prop54
  1
strokes_ogs.tif
102
RTVSPost2010PropOp54
 70
     1
102
RTVSPost2010Prop55
280
     0
102
RTVSPost2010PropOp55
 70
     1
102
RTVSPost2010Prop56
140
1.0
102
RTVSPost2010PropOp56
 70
     1
102
RTVSPost2010Prop57
140
1.0
102
RTVSPost2010PropOp57
 70
     1
  0
XRECORD
  5
220FD
102
{ACAD_REACTORS
330
220FC
102
}
330
220FC
100
AcDbXrecord
280
     1
102
RTVSPost2010Prop28
280
     0
102
RTVSPost2010PropOp28
 70
     1
102
RTVSPost2010Prop29
280
     1
102
RTVSPost2010PropOp29
 70
     1
102
RTVSPost2010Prop30
280
     1
102
RTVSPost2010PropOp30
 70
     1
102
RTVSPost2010Prop31
280
     0
102
RTVSPost2010PropOp31
 70
     1
102
RTVSPost2010Prop32
280
     0
102
RTVSPost2010PropOp32
 70
     1
102
RTVSPost2010Prop33
280
     0
102
RTVSPost2010PropOp33
 70
     1
102
RTVSPost2010Prop34
280
     0
102
RTVSPost2010PropOp34
 70
     1
102
RTVSPost2010Prop35
280
     0
102
RTVSPost2010PropOp35
 70
     1
102
RTVSPost2010Prop36
280
     0
102
RTVSPost2010PropOp36
 70
     1
102
RTVSPost2010Prop37
 90
       50
102
RTVSPost2010PropOp37
 70
     1
102
RTVSPost2010Prop38
140
0.0
102
RTVSPost2010PropOp38
 70
     1
102
RTVSPost2010Prop39
140
1.0
102
RTVSPost2010PropOp39
 70
     1
102
RTVSPost2010Prop40
 90
        0
102
RTVSPost2010PropOp40
 70
     1
102
RTVSPost2010Prop41ColorIndex
 90
       18
102
RTVSPost2010Prop41ColorRGB
 90
        0
102
RTVSPost2010PropOp41
 70
     1
102
RTVSPost2010Prop42
 90
       50
102
RTVSPost2010PropOp42
 70
     1
102
RTVSPost2010Prop43
 90
        3
102
RTVSPost2010PropOp43
 70
     1
102
RTVSPost2010Prop44ColorIndex
 90
        5
102
RTVSPost2010Prop44ColorRGB
 90
      255
102
RTVSPost2010PropOp44
 70
     1
102
RTVSPost2010Prop45
280
     0
102
RTVSPost2010PropOp45
 70
     1
102
RTVSPost2010Prop46
 90
       50
102
RTVSPost2010PropOp46
 70
     1
102
RTVSPost2010Prop47
 90
       50
102
RTVSPost2010PropOp47
 70
     1
102
RTVSPost2010Prop48
 90
       50
102
RTVSPost2010PropOp48
 70
     1
102
RTVSPost2010Prop49
280
     0
102
RTVSPost2010PropOp49
 70
     1
102
RTVSPost2010Prop50
 90
       50
102
RTVSPost2010PropOp50
 70
     1
102
RTVSPost2010Prop51ColorIndex
 90
      256
102
RTVSPost2010Prop51ColorRGB
 90
-16777216
102
RTVSPost2010PropOp51
 70
     0
102
RTVSPost2010Prop52
140
1.0
102
RTVSPost2010PropOp52
 70
     0
102
RTVSPost2010Prop53
 90
        2
102
RTVSPost2010PropOp53
 70
     1
102
RTVSPost2010Prop54
  1
strokes_ogs.tif
102
RTVSPost2010PropOp54
 70
     1
102
RTVSPost2010Prop55
280
     0
102
RTVSPost2010PropOp55
 70
     1
102
RTVSPost2010Prop56
140
1.0
102
RTVSPost2010PropOp56
 70
     1
102
RTVSPost2010Prop57
140
1.0
102
RTVSPost2010PropOp57
 70
     1
  0
XRECORD
  5
22105
102
{ACAD_REACTORS
330
22104
102
}
330
22104
100
AcDbXrecord
280
     1
102
RTVSPost2010Prop28
280
     0
102
RTVSPost2010PropOp28
 70
     1
102
RTVSPost2010Prop29
280
     1
102
RTVSPost2010PropOp29
 70
     1
102
RTVSPost2010Prop30
280
     1
102
RTVSPost2010PropOp30
 70
     1
102
RTVSPost2010Prop31
280
     0
102
RTVSPost2010PropOp31
 70
     1
102
RTVSPost2010Prop32
280
     0
102
RTVSPost2010PropOp32
 70
     1
102
RTVSPost2010Prop33
280
     0
102
RTVSPost2010PropOp33
 70
     1
102
RTVSPost2010Prop34
280
     0
102
RTVSPost2010PropOp34
 70
     1
102
RTVSPost2010Prop35
280
     0
102
RTVSPost2010PropOp35
 70
     1
102
RTVSPost2010Prop36
280
     0
102
RTVSPost2010PropOp36
 70
     1
102
RTVSPost2010Prop37
 90
       50
102
RTVSPost2010PropOp37
 70
     1
102
RTVSPost2010Prop38
140
0.0
102
RTVSPost2010PropOp38
 70
     1
102
RTVSPost2010Prop39
140
1.0
102
RTVSPost2010PropOp39
 70
     1
102
RTVSPost2010Prop40
 90
        0
102
RTVSPost2010PropOp40
 70
     1
102
RTVSPost2010Prop41ColorIndex
 90
       18
102
RTVSPost2010Prop41ColorRGB
 90
        0
102
RTVSPost2010PropOp41
 70
     1
102
RTVSPost2010Prop42
 90
       50
102
RTVSPost2010PropOp42
 70
     1
102
RTVSPost2010Prop43
 90
        3
102
RTVSPost2010PropOp43
 70
     1
102
RTVSPost2010Prop44ColorIndex
 90
        5
102
RTVSPost2010Prop44ColorRGB
 90
      255
102
RTVSPost2010PropOp44
 70
     1
102
RTVSPost2010Prop45
280
     0
102
RTVSPost2010PropOp45
 70
     1
102
RTVSPost2010Prop46
 90
       50
102
RTVSPost2010PropOp46
 70
     1
102
RTVSPost2010Prop47
 90
       50
102
RTVSPost2010PropOp47
 70
     1
102
RTVSPost2010Prop48
 90
       50
102
RTVSPost2010PropOp48
 70
     1
102
RTVSPost2010Prop49
280
     0
102
RTVSPost2010PropOp49
 70
     1
102
RTVSPost2010Prop50
 90
       50
102
RTVSPost2010PropOp50
 70
     1
102
RTVSPost2010Prop51ColorIndex
 90
      256
102
RTVSPost2010Prop51ColorRGB
 90
-16777216
102
RTVSPost2010PropOp51
 70
     0
102
RTVSPost2010Prop52
140
1.0
102
RTVSPost2010PropOp52
 70
     0
102
RTVSPost2010Prop53
 90
        2
102
RTVSPost2010PropOp53
 70
     1
102
RTVSPost2010Prop54
  1
strokes_ogs.tif
102
RTVSPost2010PropOp54
 70
     1
102
RTVSPost2010Prop55
280
     0
102
RTVSPost2010PropOp55
 70
     1
102
RTVSPost2010Prop56
140
1.0
102
RTVSPost2010PropOp56
 70
     1
102
RTVSPost2010Prop57
140
1.0
102
RTVSPost2010PropOp57
 70
     1
  0
XRECORD
  5
2210D
102
{ACAD_REACTORS
330
2210C
102
}
330
2210C
100
AcDbXrecord
280
     1
102
RTVSPost2010Prop28
280
     0
102
RTVSPost2010PropOp28
 70
     1
102
RTVSPost2010Prop29
280
     1
102
RTVSPost2010PropOp29
 70
     1
102
RTVSPost2010Prop30
280
     1
102
RTVSPost2010PropOp30
 70
     1
102
RTVSPost2010Prop31
280
     0
102
RTVSPost2010PropOp31
 70
     1
102
RTVSPost2010Prop32
280
     0
102
RTVSPost2010PropOp32
 70
     1
102
RTVSPost2010Prop33
280
     0
102
RTVSPost2010PropOp33
 70
     1
102
RTVSPost2010Prop34
280
     0
102
RTVSPost2010PropOp34
 70
     1
102
RTVSPost2010Prop35
280
     0
102
RTVSPost2010PropOp35
 70
     1
102
RTVSPost2010Prop36
280
     0
102
RTVSPost2010PropOp36
 70
     1
102
RTVSPost2010Prop37
 90
       50
102
RTVSPost2010PropOp37
 70
     1
102
RTVSPost2010Prop38
140
0.0
102
RTVSPost2010PropOp38
 70
     1
102
RTVSPost2010Prop39
140
1.0
102
RTVSPost2010PropOp39
 70
     1
102
RTVSPost2010Prop40
 90
        0
102
RTVSPost2010PropOp40
 70
     1
102
RTVSPost2010Prop41ColorIndex
 90
       18
102
RTVSPost2010Prop41ColorRGB
 90
        0
102
RTVSPost2010PropOp41
 70
     1
102
RTVSPost2010Prop42
 90
       50
102
RTVSPost2010PropOp42
 70
     1
102
RTVSPost2010Prop43
 90
        3
102
RTVSPost2010PropOp43
 70
     1
102
RTVSPost2010Prop44ColorIndex
 90
        5
102
RTVSPost2010Prop44ColorRGB
 90
      255
102
RTVSPost2010PropOp44
 70
     1
102
RTVSPost2010Prop45
280
     0
102
RTVSPost2010PropOp45
 70
     1
102
RTVSPost2010Prop46
 90
       50
102
RTVSPost2010PropOp46
 70
     1
102
RTVSPost2010Prop47
 90
       50
102
RTVSPost2010PropOp47
 70
     1
102
RTVSPost2010Prop48
 90
       50
102
RTVSPost2010PropOp48
 70
     1
102
RTVSPost2010Prop49
280
     0
102
RTVSPost2010PropOp49
 70
     1
102
RTVSPost2010Prop50
 90
       50
102
RTVSPost2010PropOp50
 70
     1
102
RTVSPost2010Prop51ColorIndex
 90
      256
102
RTVSPost2010Prop51ColorRGB
 90
-16777216
102
RTVSPost2010PropOp51
 70
     0
102
RTVSPost2010Prop52
140
1.0
102
RTVSPost2010PropOp52
 70
     0
102
RTVSPost2010Prop53
 90
        2
102
RTVSPost2010PropOp53
 70
     1
102
RTVSPost2010Prop54
  1
strokes_ogs.tif
102
RTVSPost2010PropOp54
 70
     1
102
RTVSPost2010Prop55
280
     0
102
RTVSPost2010PropOp55
 70
     1
102
RTVSPost2010Prop56
140
1.0
102
RTVSPost2010PropOp56
 70
     1
102
RTVSPost2010Prop57
140
1.0
102
RTVSPost2010PropOp57
 70
     1
  0
ENDSEC
  0
EOF
