  0
SECTION
  2
HEADER
  9
$ACADVER
  1
AC1024
  9
$ACADMAINTVER
 70
   182
  9
$DWGCODEPAGE
  3
ANSI_1252
  9
$LASTSAVEDBY
  1
kamerka
  9
$INSBASE
 10
0.0
 20
0.0
 30
0.0
  9
$EXTMIN
 10
-115.6896964224167
 20
-54.69704223904603
 30
-0.0000000000000057
  9
$EXTMAX
 10
79.5190435502667
 20
57.05835809882024
 30
0.0000000000000104
  9
$LIMMIN
 10
0.0
 20
0.0
  9
$LIMMAX
 10
420.0
 20
297.0
  9
$ORTHOMODE
 70
     0
  9
$REGENMODE
 70
     1
  9
$FILLMODE
 70
     1
  9
$QTEXTMODE
 70
     0
  9
$MIRRTEXT
 70
     0
  9
$LTSCALE
 40
23.1
  9
$ATTMODE
 70
     1
  9
$TEXTSIZE
 40
3.5
  9
$TRACEWID
 40
0.05
  9
$TEXTSTYLE
  7
STANDARD
  9
$CLAYER
  8
0
  9
$CELTYPE
  6
BYLAYER
  9
$CECOLOR
 62
   256
  9
$CELTSCALE
 40
1.0
  9
$DISPSILH
 70
     0
  9
$DIMSCALE
 40
1.0
  9
$DIMASZ
 40
4.57
  9
$DIMEXO
 40
0.0625
  9
$DIMDLI
 40
0.38
  9
$DIMRND
 40
0.0
  9
$DIMDLE
 40
0.0
  9
$DIMEXE
 40
0.18
  9
$DIMTP
 40
0.01
  9
$DIMTM
 40
0.01
  9
$DIMTXT
 40
3.5
  9
$DIMCEN
 40
0.09
  9
$DIMTSZ
 40
0.0
  9
$DIMTOL
 70
     0
  9
$DIMLIM
 70
     0
  9
$DIMTIH
 70
     0
  9
$DIMTOH
 70
     0
  9
$DIMSE1
 70
     0
  9
$DIMSE2
 70
     0
  9
$DIMTAD
 70
     1
  9
$DIMZIN
 70
     8
  9
$DIMBLK
  1

  9
$DIMASO
 70
     1
  9
$DIMSHO
 70
     1
  9
$DIMPOST
  1

  9
$DIMAPOST
  1

  9
$DIMALT
 70
     0
  9
$DIMALTD
 70
     2
  9
$DIMALTF
 40
25.4
  9
$DIMLFAC
 40
1.0
  9
$DIMTOFL
 70
     0
  9
$DIMTVP
 40
0.0
  9
$DIMTIX
 70
     0
  9
$DIMSOXD
 70
     0
  9
$DIMSAH
 70
     0
  9
$DIMBLK1
  1

  9
$DIMBLK2
  1

  9
$DIMSTYLE
  2
STANDARD
  9
$DIMCLRD
 70
     0
  9
$DIMCLRE
 70
     0
  9
$DIMCLRT
 70
     0
  9
$DIMTFAC
 40
1.0
  9
$DIMGAP
 40
0.09
  9
$DIMJUST
 70
     0
  9
$DIMSD1
 70
     0
  9
$DIMSD2
 70
     0
  9
$DIMTOLJ
 70
     1
  9
$DIMTZIN
 70
     8
  9
$DIMALTZ
 70
     0
  9
$DIMALTTZ
 70
     0
  9
$DIMUPT
 70
     0
  9
$DIMDEC
 70
     3
  9
$DIMTDEC
 70
     3
  9
$DIMALTU
 70
     2
  9
$DIMALTTD
 70
     2
  9
$DIMTXSTY
  7
STANDARD
  9
$DIMAUNIT
 70
     0
  9
$DIMADEC
 70
     0
  9
$DIMALTRND
 40
0.0
  9
$DIMAZIN
 70
     0
  9
$DIMDSEP
 70
    46
  9
$DIMATFIT
 70
     0
  9
$DIMFRAC
 70
     0
  9
$DIMLDRBLK
  1

  9
$DIMLUNIT
 70
     2
  9
$DIMLWD
 70
    -2
  9
$DIMLWE
 70
    -2
  9
$DIMTMOVE
 70
     0
  9
$DIMFXL
 40
1.0
  9
$DIMFXLON
 70
     0
  9
$DIMJOGANG
 40
0.7853981633974483
  9
$DIMTFILL
 70
     0
  9
$DIMTFILLCLR
 70
     0
  9
$DIMARCSYM
 70
     0
  9
$DIMLTYPE
  6

  9
$DIMLTEX1
  6

  9
$DIMLTEX2
  6

  9
$DIMTXTDIRECTION
 70
     0
  9
$LUNITS
 70
     2
  9
$LUPREC
 70
     4
  9
$SKETCHINC
 40
0.1
  9
$FILLETRAD
 40
0.0
  9
$AUNITS
 70
     0
  9
$AUPREC
 70
     0
  9
$MENU
  1
.
  9
$ELEVATION
 40
0.0
  9
$PELEVATION
 40
0.0
  9
$THICKNESS
 40
0.0
  9
$LIMCHECK
 70
     0
  9
$CHAMFERA
 40
0.0
  9
$CHAMFERB
 40
0.0
  9
$CHAMFERC
 40
0.0
  9
$CHAMFERD
 40
0.0
  9
$SKPOLY
 70
     0
  9
$TDCREATE
 40
2458446.405227107
  9
$TDUCREATE
 40
2458446.321893773
  9
$TDUPDATE
 40
2458976.436848079
  9
$TDUUPDATE
 40
2458976.353514746
  9
$TDINDWG
 40
0.0285951273
  9
$TDUSRTIMER
 40
0.0285940625
  9
$USRTIMER
 70
     1
  9
$ANGBASE
 50
0.0
  9
$ANGDIR
 70
     0
  9
$PDMODE
 70
     3
  9
$PDSIZE
 40
0.3125
  9
$PLINEWID
 40
0.0
  9
$SPLFRAME
 70
     0
  9
$SPLINETYPE
 70
     6
  9
$SPLINESEGS
 70
     8
  9
$HANDSEED
  5
2212C
  9
$SURFTAB1
 70
     6
  9
$SURFTAB2
 70
     6
  9
$SURFTYPE
 70
     6
  9
$SURFU
 70
     6
  9
$SURFV
 70
     6
  9
$UCSBASE
  2

  9
$UCSNAME
  2

  9
$UCSORG
 10
0.0
 20
0.0
 30
0.0
  9
$UCSXDIR
 10
1.0
 20
0.0
 30
0.0
  9
$UCSYDIR
 10
0.0
 20
1.0
 30
0.0
  9
$UCSORTHOREF
  2

  9
$UCSORTHOVIEW
 70
     0
  9
$UCSORGTOP
 10
0.0
 20
0.0
 30
0.0
  9
$UCSORGBOTTOM
 10
0.0
 20
0.0
 30
0.0
  9
$UCSORGLEFT
 10
0.0
 20
0.0
 30
0.0
  9
$UCSORGRIGHT
 10
0.0
 20
0.0
 30
0.0
  9
$UCSORGFRONT
 10
0.0
 20
0.0
 30
0.0
  9
$UCSORGBACK
 10
0.0
 20
0.0
 30
0.0
  9
$PUCSBASE
  2

  9
$PUCSNAME
  2

  9
$PUCSORG
 10
0.0
 20
0.0
 30
0.0
  9
$PUCSXDIR
 10
1.0
 20
0.0
 30
0.0
  9
$PUCSYDIR
 10
0.0
 20
1.0
 30
0.0
  9
$PUCSORTHOREF
  2

  9
$PUCSORTHOVIEW
 70
     0
  9
$PUCSORGTOP
 10
0.0
 20
0.0
 30
0.0
  9
$PUCSORGBOTTOM
 10
0.0
 20
0.0
 30
0.0
  9
$PUCSORGLEFT
 10
0.0
 20
0.0
 30
0.0
  9
$PUCSORGRIGHT
 10
0.0
 20
0.0
 30
0.0
  9
$PUCSORGFRONT
 10
0.0
 20
0.0
 30
0.0
  9
$PUCSORGBACK
 10
0.0
 20
0.0
 30
0.0
  9
$USERI1
 70
     0
  9
$USERI2
 70
     0
  9
$USERI3
 70
     0
  9
$USERI4
 70
     0
  9
$USERI5
 70
     0
  9
$USERR1
 40
0.0
  9
$USERR2
 40
0.0
  9
$USERR3
 40
0.0
  9
$USERR4
 40
0.0
  9
$USERR5
 40
0.0
  9
$WORLDVIEW
 70
     1
  9
$SHADEDGE
 70
     3
  9
$SHADEDIF
 70
    70
  9
$TILEMODE
 70
     1
  9
$MAXACTVP
 70
    64
  9
$PINSBASE
 10
0.0
 20
0.0
 30
0.0
  9
$PLIMCHECK
 70
     0
  9
$PEXTMIN
 10
28.69141678810127
 20
19.6363175392151
 30
0.0
  9
$PEXTMAX
 10
258.2227510929107
 20
176.7268578529358
 30
0.0
  9
$PLIMMIN
 10
-5.027069091796875
 20
-6.805083274841307
  9
$PLIMMAX
 10
291.9412536621094
 20
203.1682443618775
  9
$UNITMODE
 70
     0
  9
$VISRETAIN
 70
     1
  9
$PLINEGEN
 70
     0
  9
$PSLTSCALE
 70
     1
  9
$TREEDEPTH
 70
  3020
  9
$CMLSTYLE
  2
STANDARD
  9
$CMLJUST
 70
     0
  9
$CMLSCALE
 40
1.0
  9
$PROXYGRAPHICS
 70
     1
  9
$MEASUREMENT
 70
     1
  9
$CELWEIGHT
370
    -1
  9
$ENDCAPS
280
     0
  9
$JOINSTYLE
280
     0
  9
$LWDISPLAY
290
     0
  9
$INSUNITS
 70
     0
  9
$HYPERLINKBASE
  1

  9
$STYLESHEET
  1
A1-A2.CTB
  9
$XEDIT
290
     1
  9
$CEPSNTYPE
380
     0
  9
$PSTYLEMODE
290
     1
  9
$FINGERPRINTGUID
  2
{6D3BC7B5-ACA7-406D-8A0D-A7DBBE093430}
  9
$VERSIONGUID
  2
{0E1DC3DB-13AD-47D2-B10D-EECBC5D87052}
  9
$EXTNAMES
290
     1
  9
$PSVPSCALE
 40
0.0
  9
$OLESTARTUP
290
     0
  9
$SORTENTS
280
   127
  9
$INDEXCTL
280
     0
  9
$HIDETEXT
280
     0
  9
$XCLIPFRAME
280
     2
  9
$HALOGAP
280
     0
  9
$OBSCOLOR
 70
   257
  9
$OBSLTYPE
280
     0
  9
$INTERSECTIONDISPLAY
280
     0
  9
$INTERSECTIONCOLOR
 70
   257
  9
$DIMASSOC
280
     1
  9
$PROJECTNAME
  1

  9
$CAMERADISPLAY
290
     0
  9
$LENSLENGTH
 40
50.0
  9
$CAMERAHEIGHT
 40
0.0
  9
$STEPSPERSEC
 40
2.0
  9
$STEPSIZE
 40
6.0
  9
$3DDWFPREC
 40
2.0
  9
$PSOLWIDTH
 40
0.25
  9
$PSOLHEIGHT
 40
4.0
  9
$LOFTANG1
 40
1.570796326794896
  9
$LOFTANG2
 40
1.570796326794896
  9
$LOFTMAG1
 40
0.0
  9
$LOFTMAG2
 40
0.0
  9
$LOFTPARAM
 70
     7
  9
$LOFTNORMALS
280
     1
  9
$LATITUDE
 40
37.795
  9
$LONGITUDE
 40
-122.394
  9
$NORTHDIRECTION
 40
0.0
  9
$TIMEZONE
 70
 -8000
  9
$LIGHTGLYPHDISPLAY
280
     1
  9
$TILEMODELIGHTSYNCH
280
     1
  9
$CMATERIAL
347
318C
  9
$SOLIDHIST
280
     0
  9
$SHOWHIST
280
     1
  9
$DWFFRAME
280
     2
  9
$DGNFRAME
280
     0
  9
$REALWORLDSCALE
290
     1
  9
$INTERFERECOLOR
 62
     1
  9
$INTERFEREOBJVS
345
3199
  9
$INTERFEREVPVS
346
1B2E3
  9
$CSHADOW
280
     0
  9
$SHADOWPLANELOCATION
 40
0.0
  0
ENDSEC
  0
SECTION
  2
CLASSES
  0
CLASS
  1
ACDBDICTIONARYWDFLT
  2
AcDbDictionaryWithDefault
  3
ObjectDBX Classes
 90
        0
 91
        1
280
     0
281
     0
  0
CLASS
  1
MATERIAL
  2
AcDbMaterial
  3
ObjectDBX Classes
 90
     1153
 91
        3
280
     0
281
     0
  0
CLASS
  1
VISUALSTYLE
  2
AcDbVisualStyle
  3
ObjectDBX Classes
 90
     4095
 91
       26
280
     0
281
     0
  0
CLASS
  1
TABLESTYLE
  2
AcDbTableStyle
  3
ObjectDBX Classes
 90
     4095
 91
        1
280
     0
281
     0
  0
CLASS
  1
SORTENTSTABLE
  2
AcDbSortentsTable
  3
ObjectDBX Classes
 90
        0
 91
        2
280
     0
281
     0
  0
CLASS
  1
DICTIONARYVAR
  2
AcDbDictionaryVar
  3
ObjectDBX Classes
 90
        0
 91
       13
280
     0
281
     0
  0
CLASS
  1
EXACXREFPANELOBJECT
  2
ExAcXREFPanelObject
  3
EXAC_ESW
 90
     1025
 91
        0
280
     1
281
     0
  0
CLASS
  1
NPOCOLLECTION
  2
AcDbImpNonPersistentObjectsCollection
  3
ObjectDBX Classes
 90
     1153
 91
        0
280
     1
281
     0
  0
CLASS
  1
SCALE
  2
AcDbScale
  3
ObjectDBX Classes
 90
     1153
 91
       33
280
     0
281
     0
  0
CLASS
  1
MLEADERSTYLE
  2
AcDbMLeaderStyle
  3
ACDB_MLEADERSTYLE_CLASS
 90
     4095
 91
        1
280
     0
281
     0
  0
CLASS
  1
ACDBSECTIONVIEWSTYLE
  2
AcDbSectionViewStyle
  3
ObjectDBX Classes
 90
     1025
 91
        2
280
     0
281
     0
  0
CLASS
  1
ACDBDETAILVIEWSTYLE
  2
AcDbDetailViewStyle
  3
ObjectDBX Classes
 90
     1025
 91
        2
280
     0
281
     0
  0
CLASS
  1
CELLSTYLEMAP
  2
AcDbCellStyleMap
  3
ObjectDBX Classes
 90
     1152
 91
        2
280
     0
281
     0
  0
CLASS
  1
ACAD_EVALUATION_GRAPH
  2
AcDbEvalGraph
  3
ObjectDBX Classes
 90
     1153
 91
        0
280
     0
281
     0
  0
CLASS
  1
ACAECUSTOBJ
  2
AcAeEditorObj
  3
AcAeEditorObj
 90
     1024
 91
        0
280
     0
281
     0
  0
CLASS
  1
ACDB_DYNAMICBLOCKPURGEPREVENTER_VERSION
  2
AcDbDynamicBlockPurgePreventer
  3
ObjectDBX Classes
 90
     1153
 91
        0
280
     0
281
     0
  0
CLASS
  1
FIELD
  2
AcDbField
  3
ObjectDBX Classes
 90
     1152
 91
        0
280
     0
281
     0
  0
CLASS
  1
FIELDLIST
  2
AcDbFieldList
  3
ObjectDBX Classes
 90
     1152
 91
        1
280
     0
281
     0
  0
CLASS
  1
ACDB_ALDIMOBJECTCONTEXTDATA_CLASS
  2
AcDbAlignedDimensionObjectContextData
  3
ObjectDBX Classes
 90
     1153
 91
        0
280
     0
281
     0
  0
ENDSEC
  0
SECTION
  2
TABLES
  0
TABLE
  2
VPORT
  5
8
330
0
100
AcDbSymbolTable
 70
     1
  0
VPORT
  5
1F4
330
8
100
AcDbSymbolTableRecord
100
AcDbViewportTableRecord
  2
*ACTIVE
 70
     0
 10
0.0
 20
0.0
 11
1.0
 21
1.0
 12
-18.08532643607506
 22
1.180657929887104
 13
0.0
 23
0.0
 14
1.0
 24
1.0
 15
0.0
 25
0.0
 16
0.0
 26
0.0
 36
1.0
 17
0.0
 27
0.0
 37
0.0
 40
112.7133037693337
 41
2.698140200286122
 42
50.0
 43
0.0
 44
0.0
 50
0.0
 51
0.0
 71
     0
 72
  2000
 73
     1
 74
     1
 75
     0
 76
     0
 77
     0
 78
     0
281
     0
 65
     1
110
0.0
120
0.0
130
0.0
111
1.0
121
0.0
131
0.0
112
0.0
122
1.0
132
0.0
 79
     0
146
0.0
348
3195
 60
     3
 61
     5
292
     1
282
     1
141
0.0
142
0.0
 63
   250
421
  3355443
1001
ACAD_NAV_VCDISPLAY
1070
     3
  0
ENDTAB
  0
TABLE
  2
LTYPE
  5
5
330
0
100
AcDbSymbolTable
 70
     6
  0
LTYPE
  5
14
330
5
100
AcDbSymbolTableRecord
100
AcDbLinetypeTableRecord
  2
BYBLOCK
 70
     0
  3

 72
    65
 73
     0
 40
0.0
  0
LTYPE
  5
15
330
5
100
AcDbSymbolTableRecord
100
AcDbLinetypeTableRecord
  2
BYLAYER
 70
     0
  3

 72
    65
 73
     0
 40
0.0
  0
LTYPE
  5
16
330
5
100
AcDbSymbolTableRecord
100
AcDbLinetypeTableRecord
  2
CONTINUOUS
 70
     0
  3
Solid line
 72
    65
 73
     0
 40
0.0
  0
LTYPE
  5
9C48
330
5
100
AcDbSymbolTableRecord
100
AcDbLinetypeTableRecord
  2
CENTER
 70
     0
  3
____ _ ____ _ ____ _ ____ _ ____ _ ____ _ ____
 72
    65
 73
     4
 40
0.6
 49
0.375
 74
     0
 49
-0.075
 74
     0
 49
0.075
 74
     0
 49
-0.075
 74
     0
  0
LTYPE
  5
20A82
330
5
100
AcDbSymbolTableRecord
100
AcDbLinetypeTableRecord
  2
HIDDEN
 70
     0
  3
- - - - - - - - - - - - - - - - - - - -
 72
    65
 73
     2
 40
0.2
 49
0.1
 74
     0
 49
-0.1
 74
     0
  0
LTYPE
  5
21CB3
330
5
100
AcDbSymbolTableRecord
100
AcDbLinetypeTableRecord
  2
CENTER2
 70
     0
  3
Center (.5x) ___ _ ___ _ ___ _ ___ _ ___ _ ___
 72
    65
 73
     4
 40
28.57499999999999
 49
19.05
 74
     4
 75
     0
340
0
 46
1.0
 50
0.0
 44
0.0
 45
0.0
 49
-3.174999999999998
 74
     4
 75
     0
340
0
 46
1.0
 50
0.0
 44
0.0
 45
0.0
 49
3.174999999999998
 74
     4
 75
     0
340
0
 46
1.0
 50
0.0
 44
0.0
 45
0.0
 49
-3.174999999999998
 74
     4
 75
     0
340
0
 46
1.0
 50
0.0
 44
0.0
 45
0.0
  0
ENDTAB
  0
TABLE
  2
LAYER
  5
2
102
{ACAD_XDICTIONARY
360
422A
102
}
330
0
100
AcDbSymbolTable
 70
    16
  0
LAYER
  5
10
102
{ACAD_XDICTIONARY
360
1B2F5
102
}
330
2
100
AcDbSymbolTableRecord
100
AcDbLayerTableRecord
  2
0
 70
     0
 62
     7
  6
CONTINUOUS
370
    -3
390
318A
347
318E
  0
LAYER
  5
3F8C
102
{ACAD_XDICTIONARY
360
1B2F7
102
}
330
2
100
AcDbSymbolTableRecord
100
AcDbLayerTableRecord
  2
1
 70
     0
 62
     4
  6
BYBLOCK
370
    50
390
318A
347
318E
  0
LAYER
  5
3FA7
330
2
100
AcDbSymbolTableRecord
100
AcDbLayerTableRecord
  2
Defpoints
 70
     0
 62
     7
  6
CONTINUOUS
290
     0
370
    -3
390
318A
347
318E
  0
LAYER
  5
9C4A
102
{ACAD_XDICTIONARY
360
1B2F9
102
}
330
2
100
AcDbSymbolTableRecord
100
AcDbLayerTableRecord
  2
2
 70
     0
 62
     7
  6
BYBLOCK
370
    25
390
318A
347
318E
  0
LAYER
  5
9C4B
102
{ACAD_XDICTIONARY
360
1B2FB
102
}
330
2
100
AcDbSymbolTableRecord
100
AcDbLayerTableRecord
  2
4
 70
     0
 62
     2
  6
CENTER
370
    25
390
318A
347
318E
  0
LAYER
  5
9C4D
102
{ACAD_XDICTIONARY
360
1B2FD
102
}
330
2
100
AcDbSymbolTableRecord
100
AcDbLayerTableRecord
  2
CUT
 70
     0
 62
     1
  6
BYBLOCK
370
    25
390
318A
347
318E
  0
LAYER
  5
9C4E
102
{ACAD_XDICTIONARY
360
1B2FF
102
}
330
2
100
AcDbSymbolTableRecord
100
AcDbLayerTableRecord
  2
NOCUT
 70
     0
 62
     7
  6
BYBLOCK
370
    25
390
318A
347
318E
  0
LAYER
  5
9C4F
102
{ACAD_XDICTIONARY
360
1B301
102
}
330
2
100
AcDbSymbolTableRecord
100
AcDbLayerTableRecord
  2
SK2
 70
     0
 62
     7
  6
BYBLOCK
370
    25
390
318A
347
318E
  0
LAYER
  5
9C50
102
{ACAD_XDICTIONARY
360
1B303
102
}
330
2
100
AcDbSymbolTableRecord
100
AcDbLayerTableRecord
  2
SK1
 70
     0
 62
     4
  6
BYBLOCK
370
    50
390
318A
347
318E
  0
LAYER
  5
13335
102
{ACAD_XDICTIONARY
360
1B307
102
}
330
2
100
AcDbSymbolTableRecord
100
AcDbLayerTableRecord
  2
INFTOTAL
 70
     0
 62
     9
  6
BYBLOCK
370
    18
390
318A
347
318E
1001
AcAecLayerStandard
1000

1000

  0
LAYER
  5
1686E
102
{ACAD_XDICTIONARY
360
1B309
102
}
330
2
100
AcDbSymbolTableRecord
100
AcDbLayerTableRecord
  2
SK6
 70
     0
 62
     5
  6
BYBLOCK
370
    -3
390
318A
347
318E
  0
LAYER
  5
21CB4
330
2
100
AcDbSymbolTableRecord
100
AcDbLayerTableRecord
  2
SK3
 70
     0
 62
     1
  6
HIDDEN
370
    35
390
318A
347
318E
  0
LAYER
  5
21CB5
330
2
100
AcDbSymbolTableRecord
100
AcDbLayerTableRecord
  2
SKVIEW1
 70
     0
 62
     4
  6
CONTINUOUS
370
    50
390
318A
347
318E
1001
AcAecLayerStandard
1000

1000

  0
LAYER
  5
21CB6
330
2
100
AcDbSymbolTableRecord
100
AcDbLayerTableRecord
  2
SKVIEW4
 70
     0
 62
     2
  6
CENTER2
370
    25
390
318A
347
318E
1001
AcAecLayerStandard
1000

1000

  0
ENDTAB
  0
TABLE
  2
STYLE
  5
3
330
0
100
AcDbSymbolTable
 70
     2
  0
STYLE
  5
11
330
3
100
AcDbSymbolTableRecord
100
AcDbTextStyleTableRecord
  2
STANDARD
 70
     0
 40
3.5
 41
0.8
 50
0.0
 71
     0
 42
3.5
  3
monos.ttf
  4

1001
ACAD
1000
Monospac821 BT
1071
       49
  0
ENDTAB
  0
TABLE
  2
VIEW
  5
6
330
0
100
AcDbSymbolTable
 70
     0
  0
ENDTAB
  0
TABLE
  2
UCS
  5
7
330
0
100
AcDbSymbolTable
 70
     0
  0
ENDTAB
  0
TABLE
  2
APPID
  5
9
330
0
100
AcDbSymbolTable
 70
    19
  0
APPID
  5
23B
330
9
100
AcDbSymbolTableRecord
100
AcDbRegAppTableRecord
  2
ACAD
 70
     0
  0
APPID
  5
3395
330
9
100
AcDbSymbolTableRecord
100
AcDbRegAppTableRecord
  2
ACAD_EXEMPT_FROM_CAD_STANDARDS
 70
     0
  0
APPID
  5
4229
330
9
100
AcDbSymbolTableRecord
100
AcDbRegAppTableRecord
  2
AcAecLayerStandard
 70
     0
  0
APPID
  5
9A1B
330
9
100
AcDbSymbolTableRecord
100
AcDbRegAppTableRecord
  2
ACAD_PSEXT
 70
     0
  0
APPID
  5
1B313
330
9
100
AcDbSymbolTableRecord
100
AcDbRegAppTableRecord
  2
ACAD_NAV_VCDISPLAY
 70
     0
  0
APPID
  5
1B355
330
9
100
AcDbSymbolTableRecord
100
AcDbRegAppTableRecord
  2
ACAD_MLEADERVER
 70
     0
  0
APPID
  5
1EC7F
330
9
100
AcDbSymbolTableRecord
100
AcDbRegAppTableRecord
  2
ACAUTHENVIRON
 70
     0
  0
APPID
  5
1EC82
330
9
100
AcDbSymbolTableRecord
100
AcDbRegAppTableRecord
  2
AcDbDynamicBlockTrueName
 70
     0
  0
APPID
  5
1EC83
330
9
100
AcDbSymbolTableRecord
100
AcDbRegAppTableRecord
  2
AcDbDynamicBlockGUID
 70
     0
  0
APPID
  5
20A85
330
9
100
AcDbSymbolTableRecord
100
AcDbRegAppTableRecord
  2
AcCmTransparency
 70
     0
  0
APPID
  5
20AE2
330
9
100
AcDbSymbolTableRecord
100
AcDbRegAppTableRecord
  2
ACAD_DSTYLE_DIMRADIAL_EXTENSION
 70
     0
  0
APPID
  5
20CB0
330
9
100
AcDbSymbolTableRecord
100
AcDbRegAppTableRecord
  2
AcadAnnotative
 70
     0
  0
APPID
  5
21667
330
9
100
AcDbSymbolTableRecord
100
AcDbRegAppTableRecord
  2
AcadAnnoMonitorAlertIconDisabled
 70
     0
  0
APPID
  5
21CB9
330
9
100
AcDbSymbolTableRecord
100
AcDbRegAppTableRecord
  2
ACAD_DSTYLE_DIMJAG
 70
     0
  0
APPID
  5
21CBA
330
9
100
AcDbSymbolTableRecord
100
AcDbRegAppTableRecord
  2
ACAD_DSTYLE_DIMTALN
 70
     0
  0
APPID
  5
21CBB
330
9
100
AcDbSymbolTableRecord
100
AcDbRegAppTableRecord
  2
ACAD_DSTYLE_DIM_LINETYPE
 70
     0
  0
APPID
  5
21CBC
330
9
100
AcDbSymbolTableRecord
100
AcDbRegAppTableRecord
  2
ACAD_DSTYLE_DIM_EXT1_LINETYPE
 70
     0
  0
APPID
  5
21CBD
330
9
100
AcDbSymbolTableRecord
100
AcDbRegAppTableRecord
  2
ACAD_DSTYLE_DIM_EXT2_LINETYPE
 70
     0
  0
APPID
  5
21CBE
330
9
100
AcDbSymbolTableRecord
100
AcDbRegAppTableRecord
  2
ACAD_DSTYLE_DIMARC_LENGTH_SYMBOL
 70
     0
  0
ENDTAB
  0
TABLE
  2
DIMSTYLE
  5
A
330
0
100
AcDbSymbolTable
 70
     3
100
AcDbDimStyleTable
 71
     1
340
243
  0
DIMSTYLE
105
243
102
{ACAD_REACTORS
330
21DFC
330
21DFB
330
21DFA
330
21DF9
330
21F1C
102
}
330
A
100
AcDbSymbolTableRecord
100
AcDbDimStyleTableRecord
  2
STANDARD
 70
     0
 41
4.57
 47
0.01
 48
0.01
 73
     0
 74
     0
 77
     1
 78
     8
140
3.5
271
     3
272
     3
284
     8
289
     0
340
11
  0
ENDTAB
  0
TABLE
  2
BLOCK_RECORD
  5
1
330
0
100
AcDbSymbolTable
 70
    18
  0
BLOCK_RECORD
  5
1F
102
{ACAD_XDICTIONARY
360
339C
102
}
330
1
100
AcDbSymbolTableRecord
100
AcDbBlockTableRecord
  2
*MODEL_SPACE
340
31A6
 70
     0
280
     1
281
     0
  0
BLOCK_RECORD
  5
1B
330
1
100
AcDbSymbolTableRecord
100
AcDbBlockTableRecord
  2
*PAPER_SPACE
340
31A7
 70
     0
280
     1
281
     0
  0
BLOCK_RECORD
  5
1B3D7
102
{ACAD_XDICTIONARY
360
1DE81
102
}
330
1
100
AcDbSymbolTableRecord
100
AcDbBlockTableRecord
  2
cero_point
340
0
310
28000000200000002000000001002000000000000010000001000000010000000000000000000000302821FF302821FF302821FF302821FF302821FF302821FF302821FF302821FF302821FF302821FF302821FF302821FF302821FF302821FF302821FF302821FF302821FF302821FF302821FF302821FF302821FF302821
310
FF302821FF302821FF302821FF302821FF302821FF302821FF302821FF302821FF302821FF302821FF302821FF302821FF302821FF302821FF302821FF302821FF302821FF302821FF302821FF302821FF302821FF302821FF302821FF302821FF302821FFFFFF00FFFFFF00FFFFFF00FF302821FF302821FF302821FF3028
310
21FF302821FF302821FF302821FF302821FF302821FF302821FF302821FF302821FF302821FF302821FF302821FF302821FF302821FF302821FF302821FF302821FF302821FF302821FF302821FF302821FFFFFF00FFFFFF00FFFFFF00FFFFFF00FFFFFF00FFFFFF00FFFFFF00FF302821FFFFFF00FFFFFF00FFFFFF00FF30
310
2821FF302821FF302821FF302821FF302821FF302821FF302821FF302821FF302821FF302821FF302821FF302821FF302821FF302821FF302821FF302821FF302821FF302821FF302821FFFFFF00FFFFFF00FFFFFF00FFFFFF00FFFFFF00FFFFFF00FFFFFF00FFFFFF00FFFFFF00FF302821FF302821FF302821FF302821FF
310
FFFF00FFFFFF00FF302821FF302821FF302821FF302821FF302821FF302821FF302821FF302821FF302821FF302821FF302821FF302821FF302821FF302821FF302821FF302821FFFFFF00FFFFFF00FFFFFF00FFFFFF00FFFFFF00FFFFFF00FFFFFF00FFFFFF00FFFFFF00FFFFFF00FF302821FF302821FF302821FF302821
310
FF302821FF302821FFFFFF00FFFFFF00FF302821FF302821FF302821FF302821FF302821FF302821FF302821FF302821FF302821FF302821FF302821FF302821FF302821FFFFFF00FFFFFF00FFFFFF00FFFFFF00FFFFFF00FFFFFF00FFFFFF00FFFFFF00FFFFFF00FFFFFF00FFFFFF00FF302821FF302821FF302821FF3028
310
21FF302821FF302821FF302821FF302821FFFFFF00FF302821FF302821FF302821FF302821FF302821FF302821FF302821FF302821FF302821FF302821FF302821FFFFFF00FFFFFF00FFFFFF00FFFFFF00FFFFFF00FFFFFF00FFFFFF00FFFFFF00FFFFFF00FFFFFF00FFFFFF00FFFFFF00FF302821FF302821FF302821FF30
310
2821FF302821FF302821FF302821FF302821FF302821FFFFFF00FF302821FF302821FF302821FF302821FF302821FF302821FF302821FF302821FF302821FFFFFF00FFFFFF00FFFFFF00FFFFFF00FFFFFF00FFFFFF00FFFFFF00FFFFFF00FFFFFF00FFFFFF00FFFFFF00FFFFFF00FFFFFF00FF302821FF302821FF302821FF
310
302821FF302821FF302821FF302821FF302821FF302821FF302821FFFFFF00FF302821FF302821FF302821FF302821FF302821FF302821FF302821FFFFFF00FFFFFF00FFFFFF00FFFFFF00FFFFFF00FFFFFF00FFFFFF00FFFFFF00FFFFFF00FFFFFF00FFFFFF00FFFFFF00FFFFFF00FFFFFF00FF302821FF302821FF302821
310
FF302821FF302821FF302821FF302821FF302821FF302821FF302821FFFFFF00FF302821FF302821FF302821FF302821FF302821FF302821FF302821FFFFFF00FFFFFF00FFFFFF00FFFFFF00FFFFFF00FFFFFF00FFFFFF00FFFFFF00FFFFFF00FFFFFF00FFFFFF00FFFFFF00FFFFFF00FFFFFF00FF302821FF302821FF3028
310
21FF302821FF302821FF302821FF302821FF302821FF302821FF302821FF302821FFFFFF00FF302821FF302821FF302821FF302821FF302821FFFFFF00FFFFFF00FFFFFF00FFFFFF00FFFFFF00FFFFFF00FFFFFF00FFFFFF00FFFFFF00FFFFFF00FFFFFF00FFFFFF00FFFFFF00FFFFFF00FFFFFF00FF302821FF302821FF30
310
2821FF302821FF302821FF302821FF302821FF302821FF302821FF302821FF302821FF302821FFFFFF00FF302821FF302821FF302821FF302821FFFFFF00FFFFFF00FFFFFF00FFFFFF00FFFFFF00FFFFFF00FFFFFF00FFFFFF00FFFFFF00FFFFFF00FFFFFF00FFFFFF00FFFFFF00FFFFFF00FFFFFF00FF302821FF302821FF
310
302821FF302821FF302821FF302821FF302821FF302821FF302821FF302821FF302821FF302821FFFFFF00FF302821FF302821FF302821FF302821FFFFFF00FFFFFF00FFFFFF00FFFFFF00FFFFFF00FFFFFF00FFFFFF00FFFFFF00FFFFFF00FFFFFF00FFFFFF00FFFFFF00FFFFFF00FFFFFF00FFFFFF00FF302821FF302821
310
FF302821FF302821FF302821FF302821FF302821FF302821FF302821FF302821FF302821FF302821FFFFFF00FF302821FF302821FF302821FF302821FFFFFF00FFFFFF00FFFFFF00FFFFFF00FFFFFF00FFFFFF00FFFFFF00FFFFFF00FFFFFF00FFFFFF00FFFFFF00FFFFFF00FFFFFF00FFFFFF00FFFFFF00FF302821FF3028
310
21FF302821FF302821FF302821FF302821FF302821FF302821FF302821FF302821FF302821FF302821FFFFFF00FF302821FF302821FF302821FFFFFF00FFFFFF00FFFFFF00FFFFFF00FFFFFF00FFFFFF00FFFFFF00FFFFFF00FFFFFF00FFFFFF00FFFFFF00FFFFFF00FFFFFF00FFFFFF00FFFFFF00FFFFFF00FF302821FF30
310
2821FF302821FF302821FF302821FF302821FF302821FF302821FF302821FF302821FF302821FF302821FF302821FFFFFF00FF302821FF302821FFFFFF00FFFFFF00FFFFFF00FFFFFF00FFFFFF00FFFFFF00FFFFFF00FFFFFF00FFFFFF00FFFFFF00FFFFFF00FFFFFF00FFFFFF00FFFFFF00FFFFFF00FFFFFF00FFFFFF00FF
310
FFFF00FFFFFF00FFFFFF00FFFFFF00FFFFFF00FFFFFF00FFFFFF00FFFFFF00FFFFFF00FFFFFF00FFFFFF00FFFFFF00FFFFFF00FF302821FF302821FFFFFF00FF302821FF302821FF302821FF302821FF302821FF302821FF302821FF302821FF302821FF302821FF302821FF302821FF302821FF302821FFFFFF00FFFFFF00
310
FFFFFF00FFFFFF00FFFFFF00FFFFFF00FFFFFF00FFFFFF00FFFFFF00FFFFFF00FFFFFF00FFFFFF00FFFFFF00FFFFFF00FFFFFF00FF302821FF302821FFFFFF00FF302821FF302821FF302821FF302821FF302821FF302821FF302821FF302821FF302821FF302821FF302821FF302821FF302821FF302821FFFFFF00FFFFFF
310
00FFFFFF00FFFFFF00FFFFFF00FFFFFF00FFFFFF00FFFFFF00FFFFFF00FFFFFF00FFFFFF00FFFFFF00FFFFFF00FFFFFF00FF302821FF302821FF302821FF302821FFFFFF00FF302821FF302821FF302821FF302821FF302821FF302821FF302821FF302821FF302821FF302821FF302821FF302821FF302821FFFFFF00FFFF
310
FF00FFFFFF00FFFFFF00FFFFFF00FFFFFF00FFFFFF00FFFFFF00FFFFFF00FFFFFF00FFFFFF00FFFFFF00FFFFFF00FFFFFF00FF302821FF302821FF302821FF302821FFFFFF00FF302821FF302821FF302821FF302821FF302821FF302821FF302821FF302821FF302821FF302821FF302821FF302821FF302821FFFFFF00FF
310
FFFF00FFFFFF00FFFFFF00FFFFFF00FFFFFF00FFFFFF00FFFFFF00FFFFFF00FFFFFF00FFFFFF00FFFFFF00FFFFFF00FFFFFF00FF302821FF302821FF302821FF302821FFFFFF00FF302821FF302821FF302821FF302821FF302821FF302821FF302821FF302821FF302821FF302821FF302821FF302821FF302821FFFFFF00
310
FFFFFF00FFFFFF00FFFFFF00FFFFFF00FFFFFF00FFFFFF00FFFFFF00FFFFFF00FFFFFF00FFFFFF00FFFFFF00FFFFFF00FFFFFF00FF302821FF302821FF302821FF302821FF302821FFFFFF00FF302821FF302821FF302821FF302821FF302821FF302821FF302821FF302821FF302821FF302821FF302821FF302821FFFFFF
310
00FFFFFF00FFFFFF00FFFFFF00FFFFFF00FFFFFF00FFFFFF00FFFFFF00FFFFFF00FFFFFF00FFFFFF00FFFFFF00FFFFFF00FFFFFF00FF302821FF302821FF302821FF302821FF302821FFFFFF00FF302821FF302821FF302821FF302821FF302821FF302821FF302821FF302821FF302821FF302821FF302821FF302821FFFF
310
FF00FFFFFF00FFFFFF00FFFFFF00FFFFFF00FFFFFF00FFFFFF00FFFFFF00FFFFFF00FFFFFF00FFFFFF00FFFFFF00FFFFFF00FF302821FF302821FF302821FF302821FF302821FF302821FF302821FFFFFF00FF302821FF302821FF302821FF302821FF302821FF302821FF302821FF302821FF302821FF302821FF302821FF
310
FFFF00FFFFFF00FFFFFF00FFFFFF00FFFFFF00FFFFFF00FFFFFF00FFFFFF00FFFFFF00FFFFFF00FFFFFF00FFFFFF00FFFFFF00FF302821FF302821FF302821FF302821FF302821FF302821FF302821FFFFFF00FF302821FF302821FF302821FF302821FF302821FF302821FF302821FF302821FF302821FF302821FF302821
310
FFFFFF00FFFFFF00FFFFFF00FFFFFF00FFFFFF00FFFFFF00FFFFFF00FFFFFF00FFFFFF00FFFFFF00FFFFFF00FFFFFF00FF302821FF302821FF302821FF302821FF302821FF302821FF302821FF302821FF302821FFFFFF00FF302821FF302821FF302821FF302821FF302821FF302821FF302821FF302821FF302821FF3028
310
21FFFFFF00FFFFFF00FFFFFF00FFFFFF00FFFFFF00FFFFFF00FFFFFF00FFFFFF00FFFFFF00FFFFFF00FFFFFF00FF302821FF302821FF302821FF302821FF302821FF302821FF302821FF302821FF302821FF302821FF302821FFFFFF00FF302821FF302821FF302821FF302821FF302821FF302821FF302821FF302821FF30
310
2821FFFFFF00FFFFFF00FFFFFF00FFFFFF00FFFFFF00FFFFFF00FFFFFF00FFFFFF00FFFFFF00FFFFFF00FF302821FF302821FF302821FF302821FF302821FF302821FF302821FF302821FF302821FF302821FF302821FF302821FF302821FFFFFF00FF302821FF302821FF302821FF302821FF302821FF302821FF302821FF
310
302821FFFFFF00FFFFFF00FFFFFF00FFFFFF00FFFFFF00FFFFFF00FFFFFF00FFFFFF00FFFFFF00FF302821FF302821FF302821FF302821FF302821FF302821FF302821FF302821FF302821FF302821FF302821FF302821FF302821FF302821FF302821FFFFFF00FFFFFF00FF302821FF302821FF302821FF302821FF302821
310
FF302821FFFFFF00FFFFFF00FFFFFF00FFFFFF00FFFFFF00FFFFFF00FFFFFF00FFFFFF00FF302821FF302821FF302821FF302821FF302821FF302821FF302821FF302821FF302821FF302821FF302821FF302821FF302821FF302821FF302821FF302821FF302821FF302821FFFFFF00FFFFFF00FFFFFF00FFFFFF00FFFFFF
310
00FF302821FFFFFF00FFFFFF00FFFFFF00FFFFFF00FFFFFF00FFFFFF00FF302821FF302821FF302821FF302821FF302821FF302821FF302821FF302821FF302821FF302821FF302821FF302821FF302821FF302821FF302821FF302821FF302821FF302821FF302821FF302821FF302821FF302821FF302821FF302821FF30
310
2821FFFFFF00FFFFFF00FFFFFF00FF302821FF302821FF302821FF302821FF302821FF302821FF302821FF302821FF302821FF302821FF302821FF302821FF302821FF302821FF302821FF302821FF302821FF302821FF302821FF302821FF302821FF302821FF302821FF302821FF302821FF302821FF302821FF302821FF
310
302821FF302821FF302821FF302821FF302821FF302821FF302821FF302821FF302821FF302821FF302821FF302821FF302821FF302821FF302821FF302821FF302821FF302821FF
102
{BLKREFS
331
21DF1
102
}
 70
     0
280
     1
281
     1
  0
BLOCK_RECORD
  5
21F1D
330
1
100
AcDbSymbolTableRecord
100
AcDbBlockTableRecord
  2
*D12
340
0
 70
     0
280
     1
281
     0
  0
BLOCK_RECORD
  5
21F29
330
1
100
AcDbSymbolTableRecord
100
AcDbBlockTableRecord
  2
*D13
340
0
 70
     0
280
     1
281
     0
  0
BLOCK_RECORD
  5
21F35
330
1
100
AcDbSymbolTableRecord
100
AcDbBlockTableRecord
  2
*D14
340
0
 70
     0
280
     1
281
     0
  0
BLOCK_RECORD
  5
21F41
330
1
100
AcDbSymbolTableRecord
100
AcDbBlockTableRecord
  2
*D15
340
0
 70
     0
280
     1
281
     0
  0
BLOCK_RECORD
  5
21F4F
330
1
100
AcDbSymbolTableRecord
100
AcDbBlockTableRecord
  2
*D16
340
0
 70
     0
280
     1
281
     0
  0
ENDTAB
  0
ENDSEC
  0
SECTION
  2
BLOCKS
  0
BLOCK
  5
20
330
1F
100
AcDbEntity
  8
0
100
AcDbBlockBegin
  2
*MODEL_SPACE
 70
     0
 10
0.0
 20
0.0
 30
0.0
  3
*MODEL_SPACE
  1

  0
ENDBLK
  5
21
330
1F
100
AcDbEntity
  8
0
100
AcDbBlockEnd
  0
BLOCK
  5
1C
330
1B
100
AcDbEntity
 67
     1
  8
0
100
AcDbBlockBegin
  2
*PAPER_SPACE
 70
     0
 10
0.0
 20
0.0
 30
0.0
  3
*PAPER_SPACE
  1

  0
ENDBLK
  5
1D
330
1B
100
AcDbEntity
 67
     1
  8
0
100
AcDbBlockEnd
  0
BLOCK
  5
1B3D8
330
1B3D7
100
AcDbEntity
  8
0
100
AcDbBlockBegin
  2
cero_point
 70
     0
 10
0.0
 20
0.0
 30
0.0
  3
cero_point
  1

  0
HATCH
  5
1B3DA
330
1B3D7
100
AcDbEntity
  8
1
  6
ByBlock
370
    50
100
AcDbHatch
 10
0.0
 20
0.0
 30
0.0
210
0.0
220
0.0
230
1.0
  2
SOLID
 70
     1
 71
     0
 91
        2
 92
        7
 72
     1
 73
     1
 93
        3
 10
-0.0000000000001137
 20
0.0
 42
0.0
 10
-2.950972054112752
 20
0.0
 42
0.4142135623730968
 10
-0.0000000000001137
 20
-2.950972054112583
 42
0.0
 97
        0
 92
        7
 72
     1
 73
     1
 93
        3
 10
-0.0000000000001137
 20
2.950972054112638
 42
0.0
 10
-0.0000000000001137
 20
0.0
 42
0.0
 10
2.950972054112526
 20
0.0
 42
0.4142135623730966
 97
        0
 75
     0
 76
     1
 47
0.1190009775223266
 98
        2
 10
-0.7445530588121301
 20
-0.9212244733764125
 10
1.279464601852737
 20
1.696796923046345
450
        0
451
        0
460
0.0
461
0.0
452
        0
462
0.0
453
        0
470

  0
LWPOLYLINE
  5
1B3DB
330
1B3D7
100
AcDbEntity
  8
1
  6
ByBlock
370
    50
100
AcDbPolyline
 90
        3
 70
     1
 43
0.0
 10
-0.0000000000001137
 20
0.0
 10
2.950972054112526
 20
0.0
 42
0.4142135623730966
 10
-0.0000000000001137
 20
2.950972054112638
  0
LINE
  5
1B3DC
330
1B3D7
100
AcDbEntity
  8
1
  6
ByBlock
370
    50
100
AcDbLine
 10
-0.0000000000001137
 20
-2.950972054112583
 30
0.0
 11
-0.0000000000001137
 21
2.950972054112638
 31
0.0
  0
LWPOLYLINE
  5
1B3DD
330
1B3D7
100
AcDbEntity
  8
1
  6
ByBlock
370
    50
100
AcDbPolyline
 90
        3
 70
     1
 43
0.0
 10
-0.0000000000001137
 20
-2.950972054112583
 10
-0.0000000000001137
 20
0.0
 10
-2.950972054112752
 20
0.0
 42
0.4142135623730966
  0
LINE
  5
1B3DE
330
1B3D7
100
AcDbEntity
  8
1
  6
ByBlock
370
    50
100
AcDbLine
 10
2.950972054112638
 20
0.0
 30
0.0
 11
-2.950972054112638
 21
0.0
 31
0.0
  0
CIRCLE
  5
1B3DF
330
1B3D7
100
AcDbEntity
  8
1
  6
ByBlock
370
    50
100
AcDbCircle
 10
-0.0000000000001137
 20
0.0
 30
0.0
 40
2.950972054112601
  0
ENDBLK
  5
1B3D9
330
1B3D7
100
AcDbEntity
  8
0
100
AcDbBlockEnd
  0
BLOCK
  5
21F1E
330
21F1D
100
AcDbEntity
  8
0
100
AcDbBlockBegin
  2
*D12
 70
     1
 10
0.0
 20
0.0
 30
0.0
  3
*D12
  1

  0
LINE
  5
220BF
330
21F1D
100
AcDbEntity
  8
2
 62
     0
440
 16777216
370
    -2
100
AcDbLine
 10
28.38250000000363
 20
-18.5
 30
0.0
 11
61.13086128260766
 21
-18.50000000000001
 31
0.0
  0
LINE
  5
220C0
330
21F1D
100
AcDbEntity
  8
2
 62
     0
440
 16777216
370
    -2
100
AcDbLine
 10
28.38250000000363
 20
18.50000000000017
 30
0.0
 11
61.13086128260766
 21
18.50000000000016
 31
0.0
  0
LINE
  5
220C1
330
21F1D
100
AcDbEntity
  8
2
 62
     0
440
 16777216
370
    -2
100
AcDbLine
 10
60.95086128260766
 20
-13.93000000000001
 30
0.0
 11
60.95086128260766
 21
13.93000000000016
 31
0.0
  0
SOLID
  5
220C2
330
21F1D
100
AcDbEntity
  8
2
 62
     0
440
 16777216
100
AcDbTrace
 10
60.18919461594099
 20
-13.93000000000001
 30
0.0
 11
61.71252794927433
 21
-13.93000000000001
 31
0.0
 12
60.95086128260765
 22
-18.50000000000001
 32
0.0
 13
60.95086128260765
 23
-18.50000000000001
 33
0.0
  0
SOLID
  5
220C3
330
21F1D
100
AcDbEntity
  8
2
 62
     0
440
 16777216
100
AcDbTrace
 10
60.18919461594099
 20
13.93000000000016
 30
0.0
 11
61.71252794927433
 21
13.93000000000016
 31
0.0
 12
60.95086128260767
 22
18.50000000000016
 32
0.0
 13
60.95086128260767
 23
18.50000000000016
 33
0.0
  0
MTEXT
  5
220C4
330
21F1D
100
AcDbEntity
  8
2
 62
     0
440
 16777216
100
AcDbMText
 10
58.99772003172923
 20
0.0000000000000002
 30
0.0
 40
3.5
 41
0.0
 46
0.0
 71
     5
 72
     1
  1
\A1;%%c37
 11
0.0000000000000001
 21
1.0
 31
0.0
 73
     1
 44
1.0
  0
POINT
  5
220C5
330
21F1D
100
AcDbEntity
  8
Defpoints
 62
     0
440
 16777216
100
AcDbPoint
 10
28.32000000000363
 20
-18.5
 30
0.0
  0
POINT
  5
220C6
330
21F1D
100
AcDbEntity
  8
Defpoints
 62
     0
440
 16777216
100
AcDbPoint
 10
28.32000000000363
 20
18.50000000000017
 30
0.0
  0
POINT
  5
220C7
330
21F1D
100
AcDbEntity
  8
Defpoints
 62
     0
440
 16777216
100
AcDbPoint
 10
60.95086128260767
 20
18.50000000000016
 30
0.0
  0
ENDBLK
  5
21F1F
330
21F1D
100
AcDbEntity
  8
0
100
AcDbBlockEnd
  0
BLOCK
  5
21F2A
330
21F29
100
AcDbEntity
  8
0
100
AcDbBlockBegin
  2
*D13
 70
     1
 10
0.0
 20
0.0
 30
0.0
  3
*D13
  1

  0
LINE
  5
220C8
330
21F29
100
AcDbEntity
  8
2
 62
     0
440
 16777216
370
    -2
100
AcDbLine
 10
29.98250000000371
 20
8.449999999999874
 30
0.0
 11
47.13086128260743
 21
8.449999999999869
 31
0.0
  0
LINE
  5
220C9
330
21F29
100
AcDbEntity
  8
2
 62
     0
440
 16777216
370
    -2
100
AcDbLine
 10
29.98250000000371
 20
-8.449999999999818
 30
0.0
 11
47.13086128260743
 21
-8.449999999999823
 31
0.0
  0
LINE
  5
220CA
330
21F29
100
AcDbEntity
  8
2
 62
     0
440
 16777216
370
    -2
100
AcDbLine
 10
46.95086128260743
 20
3.879999999999869
 30
0.0
 11
46.95086128260743
 21
-3.879999999999822
 31
0.0
  0
SOLID
  5
220CB
330
21F29
100
AcDbEntity
  8
2
 62
     0
440
 16777216
100
AcDbTrace
 10
46.18919461594076
 20
3.879999999999869
 30
0.0
 11
47.7125279492741
 21
3.879999999999869
 31
0.0
 12
46.95086128260743
 22
8.449999999999869
 32
0.0
 13
46.95086128260743
 23
8.449999999999869
 33
0.0
  0
SOLID
  5
220CC
330
21F29
100
AcDbEntity
  8
2
 62
     0
440
 16777216
100
AcDbTrace
 10
46.18919461594076
 20
-3.879999999999822
 30
0.0
 11
47.7125279492741
 21
-3.879999999999823
 31
0.0
 12
46.95086128260743
 22
-8.449999999999823
 32
0.0
 13
46.95086128260743
 23
-8.449999999999823
 33
0.0
  0
MTEXT
  5
220CD
330
21F29
100
AcDbEntity
  8
2
 62
     0
440
 16777216
100
AcDbMText
 10
45.04937147234741
 20
0.0000000000000002
 30
0.0
 40
3.5
 41
0.0
 46
0.0
 71
     5
 72
     1
  1
\A1;16.9
 11
0.0000000000000001
 21
1.0
 31
0.0
 73
     1
 44
1.0
  0
POINT
  5
220CE
330
21F29
100
AcDbEntity
  8
Defpoints
 62
     0
440
 16777216
100
AcDbPoint
 10
29.92000000000371
 20
8.449999999999874
 30
0.0
  0
POINT
  5
220CF
330
21F29
100
AcDbEntity
  8
Defpoints
 62
     0
440
 16777216
100
AcDbPoint
 10
29.92000000000371
 20
-8.449999999999818
 30
0.0
  0
POINT
  5
220D0
330
21F29
100
AcDbEntity
  8
Defpoints
 62
     0
440
 16777216
100
AcDbPoint
 10
46.95086128260743
 20
-8.449999999999823
 30
0.0
  0
ENDBLK
  5
21F2B
330
21F29
100
AcDbEntity
  8
0
100
AcDbBlockEnd
  0
BLOCK
  5
21F36
330
21F35
100
AcDbEntity
  8
0
100
AcDbBlockBegin
  2
*D14
 70
     1
 10
0.0
 20
0.0
 30
0.0
  3
*D14
  1

  0
LINE
  5
220D1
330
21F35
100
AcDbEntity
  8
2
 62
     0
440
 16777216
370
    -2
100
AcDbLine
 10
33.26000104065631
 20
0.0624999999913363
 30
0.0
 11
33.26068869206539
 21
41.36179088311473
 31
0.0
  0
LINE
  5
220D2
330
21F35
100
AcDbEntity
  8
2
 62
     0
440
 16777216
370
    -2
100
AcDbLine
 10
0.0000010406563184
 20
18.19283299999134
 30
0.0
 11
0.0003868232452013
 21
41.36234468181097
 31
0.0
  0
LINE
  5
220D3
330
21F35
100
AcDbEntity
  8
2
 62
     0
440
 16777216
370
    -2
100
AcDbLine
 10
28.69068569561949
 20
41.18186697565536
 30
0.0
 11
4.570383825532322
 21
41.18226858932025
 31
0.0
  0
SOLID
  5
220D4
330
21F35
100
AcDbEntity
  8
2
 62
     0
440
 16777216
100
AcDbTrace
 10
28.69069837770544
 20
41.94353364221645
 30
0.0
 11
28.69067301353354
 21
40.42020030909427
 31
0.0
 12
33.260685694986
 22
41.18179088313969
 32
0.0
 13
33.260685694986
 23
41.18179088313969
 33
0.0
  0
SOLID
  5
220D5
330
21F35
100
AcDbEntity
  8
2
 62
     0
440
 16777216
100
AcDbTrace
 10
4.570396507618268
 20
41.94393525588133
 30
0.0
 11
4.570371143446375
 21
40.42060192275916
 31
0.0
 12
0.0003838261658091
 22
41.18234468183593
 32
0.0
 13
0.0003838261658091
 23
41.18234468183593
 33
0.0
  0
MTEXT
  5
220D6
330
21F35
100
AcDbEntity
  8
2
 62
     0
440
 16777216
100
AcDbMText
 10
16.63017381185341
 20
43.08355759902136
 30
0.0
 40
3.5
 41
0.0
 46
0.0
 71
     5
 72
     1
  1
\A1;33.26
 11
0.9999999998613814
 21
-0.0000166504410678
 31
0.0
 73
     1
 44
1.0
  0
POINT
  5
220D7
330
21F35
100
AcDbEntity
  8
Defpoints
 62
     0
440
 16777216
100
AcDbPoint
 10
33.26000000000374
 20
0.0
 30
0.0
  0
POINT
  5
220D8
330
21F35
100
AcDbEntity
  8
Defpoints
 62
     0
440
 16777216
100
AcDbPoint
 10
0.0000000000037517
 20
18.13033300000001
 30
0.0
  0
POINT
  5
220D9
330
21F35
100
AcDbEntity
  8
Defpoints
 62
     0
440
 16777216
100
AcDbPoint
 10
0.0003838261658091
 20
41.18234468183593
 30
0.0
  0
ENDBLK
  5
21F37
330
21F35
100
AcDbEntity
  8
0
100
AcDbBlockEnd
  0
BLOCK
  5
21F42
330
21F41
100
AcDbEntity
  8
0
100
AcDbBlockBegin
  2
*D15
 70
     1
 10
0.0
 20
0.0
 30
0.0
  3
*D15
  1

  0
LINE
  5
220DA
330
21F41
100
AcDbEntity
  8
2
 62
     0
440
 16777216
370
    -2
100
AcDbLine
 10
33.26000104065631
 20
0.0624999999913363
 30
0.0
 11
33.26050553721365
 21
30.36179088463959
 31
0.0
  0
LINE
  5
220DB
330
21F41
100
AcDbEntity
  8
2
 62
     0
440
 16777216
370
    -2
100
AcDbLine
 10
29.12000104065621
 20
17.76249999999149
 30
0.0
 11
29.12021082555445
 21
30.3618598223727
 31
0.0
  0
LINE
  5
220DC
330
21F41
100
AcDbEntity
  8
2
 62
     0
440
 16777216
370
    -2
100
AcDbLine
 10
37.83050253950077
 20
30.18171479214887
 30
0.0
 11
42.40050253886728
 21
30.18163869963319
 31
0.0
  0
LINE
  5
220DD
330
21F41
100
AcDbEntity
  8
2
 62
     0
440
 16777216
370
    -2
100
AcDbLine
 10
24.55020782910855
 20
30.18193591491333
 30
0.0
 11
10.5304959547343
 21
30.18216934929972
 31
0.0
  0
LINE
  5
220DE
330
21F41
100
AcDbEntity
  8
2
 62
     0
440
 16777216
370
    -2
100
AcDbLine
 10
33.26050254013426
 20
30.18179088466454
 30
0.0
 11
29.12020782847506
 21
30.18185982239765
 31
0.0
  0
SOLID
  5
220DF
330
21F41
100
AcDbEntity
  8
2
 62
     0
440
 16777216
100
AcDbTrace
 10
37.83051522158672
 20
30.94338145870995
 30
0.0
 11
37.83048985741483
 21
29.42004812558778
 31
0.0
 12
33.26050254013426
 22
30.18179088466454
 32
0.0
 13
33.26050254013426
 23
30.18179088466454
 33
0.0
  0
SOLID
  5
220E0
330
21F41
100
AcDbEntity
  8
2
 62
     0
440
 16777216
100
AcDbTrace
 10
24.5502205111945
 20
30.94360258147442
 30
0.0
 11
24.5501951470226
 21
29.42026924835225
 31
0.0
 12
29.12020782847506
 22
30.18185982239765
 32
0.0
 13
29.12020782847506
 23
30.18185982239765
 33
0.0
  0
MTEXT
  5
220E1
330
21F41
100
AcDbEntity
  8
2
 62
     0
440
 16777216
100
AcDbMText
 10
15.25538271333958
 20
32.03315884395458
 30
0.0
 40
3.5
 41
0.0
 46
0.0
 71
     5
 72
     1
  1
\A1;4.14
 11
0.9999999998613814
 21
-0.0000166504410678
 31
0.0
 73
     1
 44
1.0
  0
POINT
  5
220E2
330
21F41
100
AcDbEntity
  8
Defpoints
 62
     0
440
 16777216
100
AcDbPoint
 10
33.26000000000374
 20
0.0
 30
0.0
  0
POINT
  5
220E3
330
21F41
100
AcDbEntity
  8
Defpoints
 62
     0
440
 16777216
100
AcDbPoint
 10
29.12000000000364
 20
17.70000000000016
 30
0.0
  0
POINT
  5
220E4
330
21F41
100
AcDbEntity
  8
Defpoints
 62
     0
440
 16777216
100
AcDbPoint
 10
29.12020782847506
 20
30.18185982239765
 30
0.0
  0
ENDBLK
  5
21F43
330
21F41
100
AcDbEntity
  8
0
100
AcDbBlockEnd
  0
BLOCK
  5
21F50
330
21F4F
100
AcDbEntity
  8
0
100
AcDbBlockBegin
  2
*D16
 70
     1
 10
0.0
 20
0.0
 30
0.0
  3
*D16
  1

  0
LINE
  5
220E5
330
21F4F
100
AcDbEntity
  8
SK2
 62
     0
440
 16777216
370
    -2
100
AcDbLine
 10
-14.76249999999629
 20
7.200000000000159
 30
0.0
 11
-30.24722024185808
 21
7.200000000000163
 31
0.0
  0
LINE
  5
220E6
330
21F4F
100
AcDbEntity
  8
SK2
 62
     0
440
 16777216
370
    -2
100
AcDbLine
 10
-14.76249999999629
 20
-7.199999999999818
 30
0.0
 11
-30.24722024185808
 21
-7.199999999999813
 31
0.0
  0
LINE
  5
220E7
330
21F4F
100
AcDbEntity
  8
SK2
 62
     0
440
 16777216
370
    -2
100
AcDbLine
 10
-30.06722024185808
 20
2.630000000000162
 30
0.0
 11
-30.06722024185808
 21
-2.629999999999813
 31
0.0
  0
SOLID
  5
220E8
330
21F4F
100
AcDbEntity
  8
SK2
 62
     0
440
 16777216
100
AcDbTrace
 10
-30.82888690852475
 20
2.630000000000162
 30
0.0
 11
-29.30555357519141
 21
2.630000000000162
 31
0.0
 12
-30.06722024185808
 22
7.200000000000163
 32
0.0
 13
-30.06722024185808
 23
7.200000000000163
 33
0.0
  0
SOLID
  5
220E9
330
21F4F
100
AcDbEntity
  8
SK2
 62
     0
440
 16777216
100
AcDbTrace
 10
-30.82888690852475
 20
-2.629999999999813
 30
0.0
 11
-29.30555357519141
 21
-2.629999999999813
 31
0.0
 12
-30.06722024185808
 22
-7.199999999999813
 32
0.0
 13
-30.06722024185808
 23
-7.199999999999813
 33
0.0
  0
MTEXT
  5
220EA
330
21F4F
100
AcDbEntity
  8
SK2
 62
     0
440
 16777216
100
AcDbMText
 10
-32.02036149273651
 20
0.0000000000002134
 30
0.0
 40
3.5
 41
0.0
 46
0.0
 71
     5
 72
     1
  1
\A1;%%C14.4
 11
0.0000000000000001
 21
1.0
 31
0.0
 73
     1
 44
1.0
  0
POINT
  5
220EB
330
21F4F
100
AcDbEntity
  8
Defpoints
 62
     0
440
 16777216
100
AcDbPoint
 10
-14.69999999999629
 20
7.200000000000159
 30
0.0
  0
POINT
  5
220EC
330
21F4F
100
AcDbEntity
  8
Defpoints
 62
     0
440
 16777216
100
AcDbPoint
 10
-14.69999999999629
 20
-7.199999999999818
 30
0.0
  0
POINT
  5
220ED
330
21F4F
100
AcDbEntity
  8
Defpoints
 62
     0
440
 16777216
100
AcDbPoint
 10
-30.06722024185808
 20
-7.199999999999813
 30
0.0
  0
ENDBLK
  5
21F51
330
21F4F
100
AcDbEntity
  8
0
100
AcDbBlockEnd
  0
ENDSEC
  0
SECTION
  2
ENTITIES
  0
MTEXT
  5
211A0
330
1F
100
AcDbEntity
  8
SK6
100
AcDbMText
 10
2.476296282856765
 20
-34.28401547778189
 30
0.0
 40
3.5
 41
41.87058589293636
 46
0.0
 71
     2
 72
     1
  1
CD3700033YLR00
 73
     1
 44
1.0
1001
ACAD
1000
MTEXTBEGIN
1070
    73
1070
     1
1070
    44
1040
1.0
1070
    74
1070
     0
1000
MTEXTEND
  0
INSERT
  5
21DF1
330
1F
100
AcDbEntity
  8
1
100
AcDbBlockReference
  2
cero_point
 10
0.0000000000001137
 20
0.0
 30
0.0
  0
LINE
  5
21DF5
330
1F
100
AcDbEntity
  8
INFTOTAL
100
AcDbLine
 10
-115.6750821386893
 20
13.46452942272208
 30
0.0
 11
-115.6750821386893
 21
57.05625181896085
 31
0.0
  0
LINE
  5
21DF6
330
1F
100
AcDbEntity
  8
INFTOTAL
100
AcDbLine
 10
-115.6750821386893
 20
57.05625181896085
 30
0.0
 11
-59.27129576993036
 21
57.05625181896085
 31
0.0
  0
LINE
  5
21DF7
330
1F
100
AcDbEntity
  8
INFTOTAL
100
AcDbLine
 10
24.13640595810568
 20
-54.6857201765979
 30
0.0
 11
79.49518720918979
 21
-54.6857201765979
 31
0.0
  0
LINE
  5
21DF8
330
1F
100
AcDbEntity
  8
INFTOTAL
100
AcDbLine
 10
79.49518720918979
 20
-54.6857201765979
 30
0.0
 11
79.49518720918979
 21
-14.23760398000333
 31
0.0
  0
DIMENSION
  5
21DF9
330
1F
100
AcDbEntity
  8
2
100
AcDbDimension
280
     0
  2
*D12
 10
60.95086128260767
 20
18.50000000000016
 30
0.0
 11
60.95086128260766
 21
0.0
 31
0.0
 70
   161
  1
%%c<>
 71
     5
 42
37.00000000000017
 73
     0
 74
     0
 75
     0
  3
STANDARD
100
AcDbAlignedDimension
 13
28.32000000000363
 23
-18.5
 33
0.0
 14
28.32000000000363
 24
18.50000000000017
 34
0.0
1001
ACAD_DSTYLE_DIMARC_LENGTH_SYMBOL
1070
   379
1070
     1
1001
ACAD_DSTYLE_DIM_LINETYPE
1070
   380
1005
14
1001
ACAD_DSTYLE_DIM_EXT1_LINETYPE
1070
   381
1005
14
1001
ACAD_DSTYLE_DIM_EXT2_LINETYPE
1070
   382
1005
14
1001
ACAD
1000
DSTYLE
1002
{
1070
   172
1070
     1
1002
}
  0
DIMENSION
  5
21DFA
330
1F
100
AcDbEntity
  8
2
100
AcDbDimension
280
     0
  2
*D13
 10
46.95086128260743
 20
-8.449999999999823
 30
0.0
 11
46.95086128260743
 21
0.0
 31
0.0
 70
   161
 71
     5
 42
16.89999999999969
 73
     0
 74
     0
 75
     0
  3
STANDARD
100
AcDbAlignedDimension
 13
29.92000000000371
 23
8.449999999999874
 33
0.0
 14
29.92000000000371
 24
-8.449999999999818
 34
0.0
1001
ACAD_DSTYLE_DIMARC_LENGTH_SYMBOL
1070
   379
1070
     1
1001
ACAD_DSTYLE_DIM_LINETYPE
1070
   380
1005
14
1001
ACAD_DSTYLE_DIM_EXT1_LINETYPE
1070
   381
1005
14
1001
ACAD_DSTYLE_DIM_EXT2_LINETYPE
1070
   382
1005
14
1001
ACAD
1000
DSTYLE
1002
{
1070
   172
1070
     1
1002
}
  0
DIMENSION
  5
21DFB
330
1F
100
AcDbEntity
  8
2
100
AcDbDimension
280
     0
  2
*D14
 10
0.0003838261658091
 20
41.18234468183593
 30
0.0
 11
16.63014215120939
 21
41.18206778902492
 31
0.0
 70
   160
 71
     5
 42
33.26030187343069
 73
     0
 74
     0
 75
     0
  3
STANDARD
100
AcDbAlignedDimension
 13
33.26000000000374
 23
0.0
 33
0.0
 14
0.0000000000037517
 24
18.130333
 34
0.0
 50
179.9990459999997
100
AcDbRotatedDimension
1001
ACAD_DSTYLE_DIMARC_LENGTH_SYMBOL
1070
   379
1070
     1
1001
ACAD_DSTYLE_DIM_LINETYPE
1070
   380
1005
14
1001
ACAD_DSTYLE_DIM_EXT1_LINETYPE
1070
   381
1005
14
1001
ACAD_DSTYLE_DIM_EXT2_LINETYPE
1070
   382
1005
14
1001
ACAD
1000
DSTYLE
1002
{
1070
   172
1070
     1
1002
}
  0
DIMENSION
  5
21DFC
330
1F
100
AcDbEntity
  8
2
100
AcDbDimension
280
     0
  2
*D15
 10
29.12020782847506
 20
30.18185982239765
 30
0.0
 11
15.25535189223817
 21
30.18209067836437
 31
0.0
 70
   160
 71
     5
 42
4.140294712233117
 73
     0
 74
     0
 75
     0
  3
STANDARD
100
AcDbAlignedDimension
 13
33.26000000000374
 23
0.0
 33
0.0
 14
29.12000000000364
 24
17.70000000000016
 34
0.0
 50
179.9990459999997
100
AcDbRotatedDimension
1001
ACAD_DSTYLE_DIMARC_LENGTH_SYMBOL
1070
   379
1070
     1
1001
ACAD_DSTYLE_DIM_LINETYPE
1070
   380
1005
14
1001
ACAD_DSTYLE_DIM_EXT1_LINETYPE
1070
   381
1005
14
1001
ACAD_DSTYLE_DIM_EXT2_LINETYPE
1070
   382
1005
14
1001
ACAD
1000
DSTYLE
1002
{
1070
   172
1070
     1
1002
}
  0
LINE
  5
21DFD
330
1F
100
AcDbEntity
  8
4
100
AcDbLine
 10
-18.98215799999627
 20
0.0
 30
0.0
 11
0.0000000000037517
 21
0.0
 31
0.0
  0
LINE
  5
21DFF
330
1F
100
AcDbEntity
  8
1
100
AcDbLine
 10
29.12000000000364
 20
8.449999999999874
 30
0.0
 11
27.67800000000375
 21
8.449999999999874
 31
0.0
  0
LINE
  5
21E02
330
1F
100
AcDbEntity
  8
SK3
100
AcDbLine
 10
0.0000000000037517
 20
9.249999999999829
 30
0.0
 11
28.12000000000364
 21
9.249999999999829
 31
0.0
  0
LINE
  5
21E03
330
1F
100
AcDbEntity
  8
SK3
100
AcDbLine
 10
0.0000000000037517
 20
5.54999999999984
 30
0.0
 11
28.12000000000364
 21
5.54999999999984
 31
0.0
  0
LINE
  5
21E04
330
1F
100
AcDbEntity
  8
SK3
100
AcDbLine
 10
0.0000000000037517
 20
-9.25
 30
0.0
 11
28.12000000000364
 21
-9.25
 31
0.0
  0
LINE
  5
21E05
330
1F
100
AcDbEntity
  8
SK3
100
AcDbLine
 10
0.0000000000037517
 20
-5.550000000000011
 30
0.0
 11
28.12000000000364
 21
-5.550000000000011
 31
0.0
  0
ARC
  5
21E07
330
1F
100
AcDbEntity
  8
1
100
AcDbCircle
 10
28.3200000000038
 20
-7.679999999999836
 30
0.0
 40
0.8
100
AcDbArc
 50
0.0
 51
90.0
  0
LINE
  5
21E08
330
1F
100
AcDbEntity
  8
1
100
AcDbLine
 10
29.12000000000364
 20
-17.69999999999999
 30
0.0
 11
29.12000000000364
 21
-7.679999999999836
 31
0.0
  0
ARC
  5
21E09
330
1F
100
AcDbEntity
  8
1
100
AcDbCircle
 10
28.3200000000038
 20
-17.69999999999999
 30
0.0
 40
0.8
100
AcDbArc
 50
270.0
 51
0.0
  0
LINE
  5
21E0A
330
1F
100
AcDbEntity
  8
1
100
AcDbLine
 10
18.3000000000037
 20
-18.5
 30
0.0
 11
28.3200000000038
 21
-18.5
 31
0.0
  0
ARC
  5
21E0B
330
1F
100
AcDbEntity
  8
1
100
AcDbCircle
 10
18.3000000000037
 20
-17.69999999999999
 30
0.0
 40
0.8
100
AcDbArc
 50
180.0
 51
270.0
  0
LINE
  5
21E0C
330
1F
100
AcDbEntity
  8
1
100
AcDbLine
 10
17.50000000000375
 20
-17.60745900000012
 30
0.0
 11
17.50000000000375
 21
-17.69999999999999
 31
0.0
  0
ARC
  5
21E0D
330
1F
100
AcDbEntity
  8
1
100
AcDbCircle
 10
18.3000000000037
 20
-17.69999999999999
 30
0.0
 40
0.125404
100
AcDbArc
 50
180.0
 51
270.0000010000014
  0
LINE
  5
21E0E
330
1F
100
AcDbEntity
  8
1
100
AcDbLine
 10
18.3000000000037
 20
-17.82540400000016
 30
0.0
 11
28.3200000000038
 21
-17.82540400000016
 31
0.0
  0
ARC
  5
21E0F
330
1F
100
AcDbEntity
  8
1
100
AcDbCircle
 10
28.3200000000038
 20
-17.69999999999999
 30
0.0
 40
0.125404
100
AcDbArc
 50
270.0
 51
0.0000010000014034
  0
LINE
  5
21E10
330
1F
100
AcDbEntity
  8
1
100
AcDbLine
 10
28.44540400000364
 20
-17.69999999999999
 30
0.0
 11
28.44540400000364
 21
-7.679999999999836
 31
0.0
  0
ARC
  5
21E11
330
1F
100
AcDbEntity
  8
1
100
AcDbCircle
 10
28.3200000000038
 20
-7.679999999999836
 30
0.0
 40
0.125404
100
AcDbArc
 50
0.0000010000014034
 51
89.9999989999986
  0
LINE
  5
21E12
330
1F
100
AcDbEntity
  8
1
100
AcDbLine
 10
28.3200000000038
 20
-7.554595999999833
 30
0.0
 11
28.11999100000378
 21
-7.554595999999833
 31
0.0
  0
LINE
  5
21E13
330
1F
100
AcDbEntity
  8
1
100
AcDbLine
 10
18.1745960000037
 20
-17.60745600000013
 30
0.0
 11
18.1745960000037
 21
-17.69999999999999
 31
0.0
  0
LINE
  5
21E14
330
1F
100
AcDbEntity
  8
1
100
AcDbLine
 10
28.3200000000038
 20
-7.554595999999833
 30
0.0
 11
28.3200000000038
 21
-6.879999999999824
 31
0.0
  0
LINE
  5
21E15
330
1F
100
AcDbEntity
  8
1
100
AcDbLine
 10
28.44540400000364
 20
-7.679999999999836
 30
0.0
 11
29.12000000000364
 21
-7.679999999999836
 31
0.0
  0
LINE
  5
21E16
330
1F
100
AcDbEntity
  8
1
100
AcDbLine
 10
28.44540400000364
 20
-17.69999999999999
 30
0.0
 11
29.12000000000364
 21
-17.69999999999999
 31
0.0
  0
LINE
  5
21E17
330
1F
100
AcDbEntity
  8
1
100
AcDbLine
 10
28.3200000000038
 20
-17.82540400000016
 30
0.0
 11
28.3200000000038
 21
-18.5
 31
0.0
  0
LINE
  5
21E18
330
1F
100
AcDbEntity
  8
1
100
AcDbLine
 10
18.3000000000037
 20
-17.82540400000016
 30
0.0
 11
18.3000000000037
 21
-18.5
 31
0.0
  0
LINE
  5
21E19
330
1F
100
AcDbEntity
  8
1
100
AcDbLine
 10
18.1745960000037
 20
-17.69999999999999
 30
0.0
 11
17.50000000000375
 21
-17.69999999999999
 31
0.0
  0
ARC
  5
21E1A
330
1F
100
AcDbEntity
  8
1
100
AcDbCircle
 10
28.3200000000038
 20
-17.69999999999999
 30
0.0
 40
0.8
100
AcDbArc
 50
270.0
 51
0.0
  0
LINE
  5
21E1B
330
1F
100
AcDbEntity
  8
1
100
AcDbLine
 10
28.3200000000038
 20
-18.5
 30
0.0
 11
18.3000000000037
 21
-18.5
 31
0.0
  0
ARC
  5
21E1C
330
1F
100
AcDbEntity
  8
1
100
AcDbCircle
 10
18.3000000000037
 20
-17.69999999999999
 30
0.0
 40
0.8
100
AcDbArc
 50
180.0
 51
270.0
  0
LINE
  5
21E1D
330
1F
100
AcDbEntity
  8
1
100
AcDbLine
 10
17.50000000000375
 20
-17.69999999999999
 30
0.0
 11
17.50000000000375
 21
-17.60745900000012
 31
0.0
  0
LINE
  5
21E1E
330
1F
100
AcDbEntity
  8
1
100
AcDbLine
 10
28.12000000000364
 20
-6.879999999999824
 30
0.0
 11
28.3200000000038
 21
-6.879999999999824
 31
0.0
  0
ARC
  5
21E1F
330
1F
100
AcDbEntity
  8
1
100
AcDbCircle
 10
28.3200000000038
 20
-7.679999999999836
 30
0.0
 40
0.8
100
AcDbArc
 50
0.0
 51
90.0
  0
LINE
  5
21E20
330
1F
100
AcDbEntity
  8
1
100
AcDbLine
 10
29.12000000000364
 20
-7.679999999999836
 30
0.0
 11
29.12000000000364
 21
-17.69999999999999
 31
0.0
  0
CIRCLE
  5
21E21
330
1F
100
AcDbEntity
  8
1
100
AcDbCircle
 10
23.31000000000364
 20
12.69
 30
0.0
 40
2.225
  0
CIRCLE
  5
21E22
330
1F
100
AcDbEntity
  8
1
100
AcDbCircle
 10
23.31000000000364
 20
12.69
 30
0.0
 40
2.783567999999998
  0
LINE
  5
21E23
330
1F
100
AcDbEntity
  8
1
100
AcDbLine
 10
23.96000000000368
 20
6.879999999999995
 30
0.0
 11
18.3000000000037
 21
6.879999999999995
 31
0.0
  0
LINE
  5
21E24
330
1F
100
AcDbEntity
  8
1
100
AcDbLine
 10
29.12000000000364
 20
17.70000000000016
 30
0.0
 11
29.12000000000364
 21
8.449999999999874
 31
0.0
  0
ARC
  5
21E25
330
1F
100
AcDbEntity
  8
1
100
AcDbCircle
 10
28.3200000000038
 20
17.70000000000016
 30
0.0
 40
0.8
100
AcDbArc
 50
0.0
 51
90.0
  0
LINE
  5
21E26
330
1F
100
AcDbEntity
  8
1
100
AcDbLine
 10
18.3000000000037
 20
18.50000000000017
 30
0.0
 11
28.3200000000038
 21
18.50000000000017
 31
0.0
  0
ARC
  5
21E27
330
1F
100
AcDbEntity
  8
1
100
AcDbCircle
 10
18.3000000000037
 20
17.70000000000016
 30
0.0
 40
0.8
100
AcDbArc
 50
90.0
 51
180.0
  0
LINE
  5
21E28
330
1F
100
AcDbEntity
  8
1
100
AcDbLine
 10
17.50000000000375
 20
7.680000000000006
 30
0.0
 11
17.50000000000375
 21
17.70000000000016
 31
0.0
  0
ARC
  5
21E29
330
1F
100
AcDbEntity
  8
1
100
AcDbCircle
 10
18.3000000000037
 20
7.680000000000006
 30
0.0
 40
0.8
100
AcDbArc
 50
180.0
 51
270.0
  0
ARC
  5
21E31
330
1F
100
AcDbEntity
  8
1
100
AcDbCircle
 10
12.03425800000372
 20
-585.8503409999992
 30
0.0
 40
604.100357
100
AcDbArc
 50
90.00177900000217
 51
91.14146199999929
  0
LINE
  5
21E32
330
1F
100
AcDbEntity
  8
1
100
AcDbLine
 10
17.50000000000375
 20
18.24999999999983
 30
0.0
 11
12.01550300000366
 21
18.24999999999983
 31
0.0
  0
CIRCLE
  5
21E33
330
1F
100
AcDbEntity
  8
1
100
AcDbCircle
 10
23.31000000000364
 20
12.69
 30
0.0
 40
1.919999999999999
  0
ARC
  5
21E34
330
1F
100
AcDbEntity
  8
1
100
AcDbCircle
 10
40.3010800000037
 20
145.3636519999999
 30
0.0
 40
140.601011
100
AcDbArc
 50
260.6672029999972
 51
263.3258250000012
  0
LINE
  5
21E35
330
1F
100
AcDbEntity
  8
1
100
AcDbLine
 10
17.50000000000375
 20
6.512882999999987
 30
0.0
 11
17.50000000000375
 21
6.623769999999865
 31
0.0
  0
SPLINE
  5
21E36
330
1F
100
AcDbEntity
  8
1
100
AcDbSpline
210
0.0
220
0.0
230
1.0
 70
     8
 71
     5
 72
    12
 73
     6
 74
     0
 42
0.000000001
 43
0.0000000001
 40
0.0
 40
0.0
 40
0.0
 40
0.0
 40
0.0
 40
0.0
 40
10.94729258295203
 40
10.94729258295203
 40
10.94729258295203
 40
10.94729258295203
 40
10.94729258295203
 40
10.94729258295203
 10
11.32242391240339
 20
6.339580406559377
 30
0.0
 10
12.53640362954121
 20
6.423529953833167
 30
0.0
 10
13.76515295310281
 20
6.474805995143697
 30
0.0
 10
15.0094555453594
 20
6.502070301214587
 30
0.0
 10
16.25269980521523
 20
6.512746399915158
 30
0.0
 10
17.50000000000375
 20
6.512883504530122
 30
0.0
  0
LINE
  5
21E37
330
1F
100
AcDbEntity
  8
1
100
AcDbLine
 10
11.31012900000365
 20
6.248735000000181
 30
0.0
 11
11.32242400000365
 21
6.339579999999841
 31
0.0
  0
SPLINE
  5
21E38
330
1F
100
AcDbEntity
  8
1
100
AcDbSpline
210
0.0
220
0.0
230
1.0
 70
     8
 71
     5
 72
    12
 73
     6
 74
     0
 42
0.000000001
 43
0.0000000001
 40
0.0
 40
0.0
 40
0.0
 40
0.0
 40
0.0
 40
0.0
 40
6.804985810725634
 40
6.804985810725634
 40
6.804985810725634
 40
6.804985810725634
 40
6.804985810725634
 40
6.804985810725634
 10
7.777663432055817
 20
5.420981428731977
 30
0.0
 10
8.446411808170921
 20
5.631612492824729
 30
0.0
 10
9.142778548729779
 20
5.816492970842659
 30
0.0
 10
9.854310721049614
 20
5.977501735272596
 30
0.0
 10
10.57789176326162
 20
6.121879144173362
 30
0.0
 10
11.31012908350374
 20
6.24873552489015
 30
0.0
  0
ARC
  5
21E39
330
1F
100
AcDbEntity
  8
1
100
AcDbCircle
 10
25.8740810000038
 20
-342.7769789999999
 30
0.0
 40
346.890298
100
AcDbArc
 50
90.3161489999986
 51
91.29323999999931
  0
LINE
  5
21E3A
330
1F
100
AcDbEntity
  8
1
100
AcDbLine
 10
17.50000000000375
 20
6.879999999999995
 30
0.0
 11
17.50000000000375
 21
6.623769999999865
 31
0.0
  0
LINE
  5
21E3B
330
1F
100
AcDbEntity
  8
1
100
AcDbLine
 10
0.0000000000037517
 20
18.130333
 30
0.0
 11
0.0000000000037517
 21
7.200878999999986
 31
0.0
  0
ARC
  5
21E3C
330
1F
100
AcDbEntity
  8
1
100
AcDbCircle
 10
12.02184200000374
 20
585.5816009999997
 30
0.0
 40
603.8316099999997
100
AcDbArc
 50
268.859208
 51
269.9993989999969
  0
ARC
  5
21E3D
330
1F
100
AcDbEntity
  8
SK1
100
AcDbCircle
 10
7.50734400000374
 20
1535.160286999999
 30
0.0
 40
1542.360553
100
AcDbArc
 50
269.212161999999
 51
269.721115000001
  0
ARC
  5
21E3E
330
1F
100
AcDbEntity
  8
SK1
100
AcDbCircle
 10
11.02951100000365
 20
22.41720099999986
 30
0.0
 40
38.471824
100
AcDbArc
 50
228.0257499999988
 51
230.0001799999975
  0
LINE
  5
21E3F
330
1F
100
AcDbEntity
  8
SK1
100
AcDbLine
 10
-14.69999999999629
 20
-5.441012
 30
0.0
 11
-14.69999999999629
 21
-6.184155999999859
 31
0.0
  0
LINE
  5
21E40
330
1F
100
AcDbEntity
  8
SK1
100
AcDbLine
 10
-14.69999999999629
 20
4.290284999999869
 30
0.0
 11
-14.69999999999629
 21
-5.441012
 31
0.0
  0
LINE
  5
21E41
330
1F
100
AcDbEntity
  8
SK1
100
AcDbLine
 10
-14.69999999999629
 20
4.290284999999869
 30
0.0
 11
-14.69999999999629
 21
4.932721999999841
 31
0.0
  0
LINE
  5
21E42
330
1F
100
AcDbEntity
  8
SK1
100
AcDbLine
 10
-14.69999999999629
 20
6.184156000000029
 30
0.0
 11
-14.69999999999629
 21
4.932721999999841
 31
0.0
  0
LINE
  5
21E43
330
1F
100
AcDbEntity
  8
1
100
AcDbLine
 10
12.6447870000037
 20
18.05814199999986
 30
0.0
 11
12.01550600000365
 21
18.24999799999983
 31
0.0
  0
ARC
  5
21E44
330
1F
100
AcDbEntity
  8
SK1
100
AcDbCircle
 10
7.50734400000374
 20
-1535.160286999999
 30
0.0
 40
1542.360553
100
AcDbArc
 50
90.27888499999896
 51
90.78783800000099
  0
ARC
  5
21E45
330
1F
100
AcDbEntity
  8
SK1
100
AcDbCircle
 10
11.02951100000365
 20
-22.41720099999986
 30
0.0
 40
38.471824
100
AcDbArc
 50
129.9998200000025
 51
131.9742500000012
  0
LINE
  5
21E46
330
1F
100
AcDbEntity
  8
1
100
AcDbLine
 10
11.70893400000375
 20
8.80952400000001
 30
0.0
 11
17.50000000000375
 21
8.80952400000001
 31
0.0
  0
LINE
  5
21E47
330
1F
100
AcDbEntity
  8
1
100
AcDbLine
 10
12.6447860000037
 20
18.05813799999998
 30
0.0
 11
11.70893400000375
 21
8.80952400000001
 31
0.0
  0
ELLIPSE
  5
21E48
330
1F
100
AcDbEntity
  8
1
100
AcDbEllipse
 10
11.1742400000038
 20
8.80952400000001
 30
0.0
 11
0.3822561502456667
 21
3.699596166610716
 31
0.0
210
0.0
220
0.0
230
1.0
 40
0.143017
 41
3.996248326744602
 42
4.727164917492455
  0
ARC
  5
21E49
330
1F
100
AcDbEntity
  8
SK1
100
AcDbCircle
 10
-13.39485699999625
 20
10.26256599999988
 30
0.0
 40
6.113898999999999
100
AcDbArc
 50
257.672756999998
 51
267.1394849999984
  0
ARC
  5
21E4A
330
1F
100
AcDbEntity
  8
SK1
100
AcDbCircle
 10
-178.4056199999962
 20
-2928.601657000001
 30
0.0
 40
2937.378737
100
AcDbArc
 50
86.51792099999688
 51
86.78560700000018
  0
LINE
  5
21E4B
330
1F
100
AcDbEntity
  8
1
100
AcDbLine
 10
17.50000000000375
 20
-17.60745600000013
 30
0.0
 11
17.50000000000375
 21
-18.25
 31
0.0
  0
LINE
  5
21E4C
330
1F
100
AcDbEntity
  8
1
100
AcDbLine
 10
17.50000000000375
 20
-18.25
 30
0.0
 11
12.01550300000366
 21
-18.25
 31
0.0
  0
LINE
  5
21E4D
330
1F
100
AcDbEntity
  8
1
100
AcDbLine
 10
28.12000000000364
 20
-17.60745600000013
 30
0.0
 11
17.50000000000375
 21
-17.60745600000013
 31
0.0
  0
LINE
  5
21E4E
330
1F
100
AcDbEntity
  8
1
100
AcDbLine
 10
28.12000000000364
 20
-16.01588199999986
 30
0.0
 11
28.12000000000364
 21
-17.60745600000013
 31
0.0
  0
LINE
  5
21E4F
330
1F
100
AcDbEntity
  8
1
100
AcDbLine
 10
0.0000000000037517
 20
-16.01588199999986
 30
0.0
 11
0.0000000000037517
 21
-18.13033299999984
 31
0.0
  0
LINE
  5
21E50
330
1F
100
AcDbEntity
  8
1
100
AcDbLine
 10
0.0000000000037517
 20
7.200878999999986
 30
0.0
 11
0.0000000000037517
 21
-16.01588199999986
 31
0.0
  0
LINE
  5
21E51
330
1F
100
AcDbEntity
  8
SK1
100
AcDbLine
 10
-13.69999999999629
 20
-6.318594000000018
 30
0.0
 11
-13.69999999999629
 21
-7.054470999999864
 31
0.0
  0
LINE
  5
21E52
330
1F
100
AcDbEntity
  8
SK1
100
AcDbLine
 10
-13.69999999999629
 20
4.155664000000172
 30
0.0
 11
-13.69999999999629
 21
-6.318594000000018
 31
0.0
  0
SPLINE
  5
21E53
330
1F
100
AcDbEntity
  8
1
100
AcDbSpline
210
0.0
220
0.0
230
1.0
 70
     8
 71
     5
 72
    12
 73
     6
 74
     0
 42
0.000000001
 43
0.0000000001
 40
0.0
 40
0.0
 40
0.0
 40
0.0
 40
0.0
 40
0.0
 40
49.51002509632737
 40
49.51002509632737
 40
49.51002509632737
 40
49.51002509632737
 40
49.51002509632737
 40
49.51002509632737
 10
28.12000000022261
 20
2.443724782005688
 30
0.0
 10
22.42020376994878
 20
2.910015146747696
 30
0.0
 10
16.74349337837731
 20
3.642383881283194
 30
0.0
 10
11.10241398261627
 20
4.625131407616379
 30
0.0
 10
5.51701481719499
 20
5.825619279516388
 30
0.0
 10
-0.0000000008204211
 20
7.200879370385223
 30
0.0
  0
LINE
  5
21E54
330
1F
100
AcDbEntity
  8
1
100
AcDbLine
 10
28.12000000000364
 20
2.443724999999858
 30
0.0
 11
28.12000000000364
 21
-16.01588199999986
 31
0.0
  0
CIRCLE
  5
21E55
330
1F
100
AcDbEntity
  8
1
100
AcDbCircle
 10
23.31000000000364
 20
-12.69
 30
0.0
 40
1.919999999999999
  0
LINE
  5
21E56
330
1F
100
AcDbEntity
  8
1
100
AcDbLine
 10
18.04500000000371
 20
4.024059000000136
 30
0.0
 11
18.04500000000371
 21
3.59734800000001
 31
0.0
  0
SPLINE
  5
21E59
330
1F
100
AcDbEntity
  8
1
100
AcDbSpline
210
0.0
220
0.0
230
1.0
 70
     8
 71
     5
 72
    15
 73
     9
 74
     0
 42
0.000000001
 43
0.0000000001
 40
0.0
 40
0.0
 40
0.0
 40
0.0
 40
0.0
 40
0.0
 40
1.58819720996654
 40
1.58819720996654
 40
1.58819720996654
 40
1.767527695681503
 40
1.767527695681503
 40
1.767527695681503
 40
1.767527695681503
 40
1.767527695681503
 40
1.767527695681503
 10
28.11999949126465
 20
0.8714375157807126
 30
0.0
 10
28.21563214862886
 20
1.005680311105038
 30
0.0
 10
28.33431070078194
 20
1.126627444092719
 30
0.0
 10
28.46983559973677
 20
1.230702109241747
 30
0.0
 10
28.63598706489495
 20
1.324606159152551
 30
0.0
 10
28.81492136337647
 20
1.394949805723115
 30
0.0
 10
28.83320593156304
 20
1.401846591805906
 30
0.0
 10
28.85160884004984
 20
1.40850232539492
 30
0.0
 10
28.87012882438376
 20
1.414920806610098
 30
0.0
  0
ARC
  5
21E5A
330
1F
100
AcDbEntity
  8
1
100
AcDbCircle
 10
26.12684800000375
 20
9.604260000000181
 30
0.0
 40
8.635894
100
AcDbArc
 50
288.5199179999998
 51
296.1275259999971
  0
LINE
  5
21E5B
330
1F
100
AcDbEntity
  8
1
100
AcDbLine
 10
29.92957100000365
 20
1.851366999999868
 30
0.0
 11
28.12000000000364
 21
2.05077000000017
 31
0.0
  0
ARC
  5
21E5C
330
1F
100
AcDbEntity
  8
1
100
AcDbCircle
 10
35.3834460000038
 20
3.700511000000005
 30
0.0
 40
4.340421
100
AcDbArc
 50
189.2066229999986
 51
195.6343520000001
  0
ARC
  5
21E5D
330
1F
100
AcDbEntity
  8
1
100
AcDbCircle
 10
-205.3403179999962
 20
-35.52212199999997
 30
0.0
 40
239.558167
100
AcDbArc
 50
9.255101000000257
 51
10.00080600000104
  0
LINE
  5
21E5E
330
1F
100
AcDbEntity
  8
1
100
AcDbLine
 10
30.57817900000373
 20
6.080098000000134
 30
0.0
 11
29.92000000000371
 21
6.564367000000004
 31
0.0
  0
ARC
  5
21E5F
330
1F
100
AcDbEntity
  8
1
100
AcDbCircle
 10
4.440760000003706
 20
-144.291979
 30
0.0
 40
152.992894
100
AcDbArc
 50
80.41336699999684
 51
81.26385099999788
  0
ARC
  5
21E60
330
1F
100
AcDbEntity
  8
1
100
AcDbCircle
 10
37.62482000000375
 20
-77.90094799999986
 30
0.0
 40
85.40821499999998
100
AcDbArc
 50
96.68797600000175
 51
99.2065430000019
  0
ARC
  5
21E61
330
1F
100
AcDbEntity
  8
1
100
AcDbCircle
 10
16.28053900000373
 20
28.98408499999988
 30
0.0
 40
30.372318
100
AcDbArc
 50
296.7045450000018
 51
299.4285380000004
  0
LINE
  5
21E62
330
1F
100
AcDbEntity
  8
1
100
AcDbLine
 10
27.67800000000375
 20
6.925919999999848
 30
0.0
 11
27.67800000000375
 21
8.449999999999874
 31
0.0
  0
LINE
  5
21E63
330
1F
100
AcDbEntity
  8
1
100
AcDbLine
 10
23.96000000000368
 20
7.453764999999862
 30
0.0
 11
27.67800000000375
 21
8.449999999999874
 31
0.0
  0
LINE
  5
21E67
330
1F
100
AcDbEntity
  8
1
100
AcDbLine
 10
28.12000000000364
 20
0.5699460000001864
 30
0.0
 11
33.06532500000372
 21
-0.2298519999999939
 31
0.0
  0
ELLIPSE
  5
21E68
330
1F
100
AcDbEntity
  8
1
100
AcDbEllipse
 10
33.54025700000375
 20
-0.0543270000000007
 30
0.0
 11
8.292604446411129
 21
-1.344188094139097
 31
0.0
210
0.0
220
0.0
230
1.0
 40
0.6018560000000003
 41
4.101347845913392
 42
4.509870127591976
  0
LINE
  5
21E69
330
1F
100
AcDbEntity
  8
1
100
AcDbLine
 10
31.09897400000375
 20
-4.566056000000003
 30
0.0
 11
31.07983000000365
 21
-4.672911999999996
 31
0.0
  0
ARC
  5
21E6A
330
1F
100
AcDbEntity
  8
1
100
AcDbCircle
 10
33.74054700000375
 20
-5.024769999999989
 30
0.0
 40
2.680884999999999
100
AcDbArc
 50
154.318895
 51
170.1487259999987
  0
LINE
  5
21E6B
330
1F
100
AcDbEntity
  8
1
100
AcDbLine
 10
31.67456900000366
 20
-3.145290000000159
 30
0.0
 11
31.32467500000365
 21
-3.863070000000163
 31
0.0
  0
SPLINE
  5
21E6C
330
1F
100
AcDbEntity
  8
1
100
AcDbSpline
210
0.0
220
0.0
230
1.0
 70
     8
 71
     5
 72
    30
 73
    24
 74
     0
 42
0.000000001
 43
0.0000000001
 40
0.0
 40
0.0
 40
0.0
 40
0.0
 40
0.0
 40
0.0
 40
27.46707585608125
 40
27.46707585608125
 40
27.46707585608125
 40
38.07744086300487
 40
38.07744086300487
 40
38.07744086300487
 40
43.40441695497726
 40
43.40441695497726
 40
43.40441695497726
 40
49.72287929974064
 40
49.72287929974064
 40
49.72287929974064
 40
51.77646940119397
 40
51.77646940119397
 40
51.77646940119397
 40
53.38805119562476
 40
53.38805119562476
 40
53.38805119562476
 40
54.32010018151247
 40
54.32010018151247
 40
54.32010018151247
 40
54.32010018151247
 40
54.32010018151247
 40
54.32010018151247
 10
33.06532542933394
 20
-0.2298524268929896
 30
0.0
 10
33.05096045421391
 20
-0.2674256612546628
 30
0.0
 10
33.03279494923652
 20
-0.3124212493166851
 30
0.0
 10
33.01187312320076
 20
-0.361547678277816
 30
0.0
 10
32.97319619862844
 20
-0.4506147364637059
 30
0.0
 10
32.89101167892335
 20
-0.6284055659073715
 30
0.0
 10
32.86357591063842
 20
-0.6872258579026039
 30
0.0
 10
32.81330030496497
 20
-0.7941165225212786
 30
0.0
 10
32.73832362214932
 20
-0.9515115775765252
 30
0.0
 10
32.71054073943413
 20
-1.009642366836601
 30
0.0
 10
32.63835792847044
 20
-1.160263622734589
 30
0.0
 10
32.53686642043931
 20
-1.370833959578703
 30
0.0
 10
32.47098421476318
 20
-1.507172128180627
 30
0.0
 10
32.35949006348085
 20
-1.737384612334608
 30
0.0
 10
32.19828257338446
 20
-2.069284193494354
 30
0.0
 10
32.15343758046476
 20
-2.161522941014709
 30
0.0
 10
32.06692016639863
 20
-2.33949919140349
 30
0.0
 10
31.9699682284778
 20
-2.538755880222026
 30
0.0
 10
31.92813337654775
 20
-2.624696247577901
 30
0.0
 10
31.85242449901847
 20
-2.780192395869221
 30
0.0
 10
31.77010408631673
 20
-2.94920237892677
 30
0.0
 10
31.73907219908443
 20
-3.012904966495909
 30
0.0
 10
31.70723517570087
 20
-3.078250977278003
 30
0.0
 10
31.67456940996834
 20
-3.145289851628774
 30
0.0
  0
SPLINE
  5
21E6D
330
1F
100
AcDbEntity
  8
1
100
AcDbSpline
210
0.0
220
0.0
230
1.0
 70
     8
 71
     5
 72
    51
 73
    45
 74
     0
 42
0.000000001
 43
0.0000000001
 40
0.0
 40
0.0
 40
0.0
 40
0.0
 40
0.0
 40
0.0
 40
24.72862227383788
 40
24.72862227383788
 40
24.72862227383788
 40
61.8210485740497
 40
61.8210485740497
 40
61.8210485740497
 40
86.54934770969825
 40
86.54934770969825
 40
86.54934770969825
 40
98.9135769495769
 40
98.9135769495769
 40
98.9135769495769
 40
111.2779949797928
 40
111.2779949797928
 40
111.2779949797928
 40
115.3999193966281
 40
115.3999193966281
 40
115.3999193966281
 40
117.4608974140047
 40
117.4608974140047
 40
117.4608974140047
 40
119.6197147243464
 40
119.6197147243464
 40
119.6197147243464
 40
120.6572097345148
 40
120.6572097345148
 40
120.6572097345148
 40
121.7295482943138
 40
121.7295482943138
 40
121.7295482943138
 40
122.2529936529372
 40
122.2529936529372
 40
122.2529936529372
 40
122.5183643518848
 40
122.5183643518848
 40
122.5183643518848
 40
122.7837350508324
 40
122.7837350508324
 40
122.7837350508324
 40
123.8070348777656
 40
123.8070348777656
 40
123.8070348777656
 40
123.8070348777656
 40
123.8070348777656
 40
123.8070348777656
 10
33.06532542933394
 20
-0.2298524268929896
 30
0.0
 10
33.07825934473795
 20
-0.1960222927912127
 30
0.0
 10
33.08633913378264
 20
-0.1703027299126347
 30
0.0
 10
33.09252160033163
 20
-0.1480605750426207
 30
0.0
 10
33.10452342047654
 20
-0.0961836235036344
 30
0.0
 10
33.10888346360895
 20
-0.0528359751100993
 30
0.0
 10
33.10957613890776
 20
-0.0282116577631086
 30
0.0
 10
33.10769403672896
 20
0.0133902480806683
 30
0.0
 10
33.09988446554076
 20
0.0589359245446985
 30
0.0
 10
33.09572383512625
 20
0.0780972735739169
 30
0.0
 10
33.08756639088813
 20
0.1094163537667327
 30
0.0
 10
33.07454427638504
 20
0.1479972135089724
 30
0.0
 10
33.06948590156026
 20
0.1620043021562196
 30
0.0
 10
33.05818215756517
 20
0.1914101076206407
 30
0.0
 10
33.04305363331849
 20
0.2267141380602311
 30
0.0
 10
33.03416681281198
 20
0.2465494366999223
 30
0.0
 10
33.01944867613031
 20
0.2779389470606475
 30
0.0
 10
32.99758646548003
 20
0.3206270168921605
 30
0.0
 10
32.99157360774774
 20
0.3321555896358745
 30
0.0
 10
32.98158415086374
 20
0.3509737650286979
 30
0.0
 10
32.96941004799493
 20
0.3731558828583843
 30
0.0
 10
32.96506812869797
 20
0.380984746097397
 30
0.0
 10
32.95548891317543
 20
0.3980644135842794
 30
0.0
 10
32.94410082830825
 20
0.4178785368276863
 30
0.0
 10
32.93912632605071
 20
0.426455709639356
 30
0.0
 10
32.92847408380294
 20
0.4445073364808536
 30
0.0
 10
32.91691296959744
 20
0.4636289541841734
 30
0.0
 10
32.91304239292776
 20
0.4699845813588582
 30
0.0
 10
32.90465202586592
 20
0.4836812910868958
 30
0.0
 10
32.89413232108291
 20
0.500557155259628
 30
0.0
 10
32.88879686882825
 20
0.5090084731851335
 30
0.0
 10
32.87837020148385
 20
0.5254635129498411
 30
0.0
 10
32.86336594965576
 20
0.5484017066725074
 30
0.0
 10
32.85776670368995
 20
0.5568850847403724
 30
0.0
 10
32.84870376136644
 20
0.5705654852778821
 30
0.0
 10
32.83458052225797
 20
0.5913186097533299
 30
0.0
 10
32.80126461337335
 20
0.6381780799301851
 30
0.0
 10
32.75634284521971
 20
0.7008052386738655
 30
0.0
 10
32.76126329034275
 20
0.6924879607769299
 30
0.0
 10
32.75013499366827
 20
0.7077067952128005
 30
0.0
 10
32.72666798681143
 20
0.7379996589089047
 30
0.0
 10
32.71021348102602
 20
0.7582690427916532
 30
0.0
 10
32.69709972058957
 20
0.7741639969256653
 30
0.0
 10
32.68599192808381
 20
0.7873377437647378
 30
0.0
 10
32.67556706553467
 20
0.799474552153697
 30
0.0
  0
LINE
  5
21E6E
330
1F
100
AcDbEntity
  8
1
100
AcDbLine
 10
32.67556700000375
 20
0.799474999999859
 30
0.0
 11
28.87012900000383
 21
1.414920999999878
 31
0.0
  0
LINE
  5
21E6F
330
1F
100
AcDbEntity
  8
1
100
AcDbLine
 10
31.32467500000365
 20
2.364062999999873
 30
0.0
 11
32.67556700000375
 21
0.799474999999859
 31
0.0
  0
ARC
  5
21E70
330
1F
100
AcDbEntity
  8
1
100
AcDbCircle
 10
32.22399500000364
 20
3.144974999999874
 30
0.0
 40
1.191027999999997
100
AcDbArc
 50
211.0444949999965
 51
220.9689639999987
  0
LINE
  5
21E71
330
1F
100
AcDbEntity
  8
1
100
AcDbLine
 10
31.09897400000375
 20
5.116423999999881
 30
0.0
 11
31.09897400000375
 21
3.006070000000136
 31
0.0
  0
LINE
  5
21E72
330
1F
100
AcDbEntity
  8
1
100
AcDbLine
 10
31.32467500000365
 20
4.375014000000021
 30
0.0
 11
31.32467500000365
 21
2.364062999999873
 31
0.0
  0
LINE
  5
21E73
330
1F
100
AcDbEntity
  8
1
100
AcDbLine
 10
30.57817900000373
 20
8.069999999999879
 30
0.0
 11
30.57817900000373
 21
6.080098000000134
 31
0.0
  0
LINE
  5
21E74
330
1F
100
AcDbEntity
  8
1
100
AcDbLine
 10
29.92000000000371
 20
8.449999999999874
 30
0.0
 11
29.92000000000371
 21
6.564367000000004
 31
0.0
  0
LINE
  5
21E75
330
1F
100
AcDbEntity
  8
1
100
AcDbLine
 10
31.32467500000365
 20
-3.863070000000163
 30
0.0
 11
31.32467500000365
 21
-4.37501399999985
 31
0.0
  0
LINE
  5
21E76
330
1F
100
AcDbEntity
  8
1
100
AcDbLine
 10
31.09897400000375
 20
-4.566056000000003
 30
0.0
 11
31.09897400000375
 21
-5.116423999999824
 31
0.0
  0
LINE
  5
21E77
330
1F
100
AcDbEntity
  8
1
100
AcDbLine
 10
31.07983000000365
 20
-5.217623000000116
 30
0.0
 11
31.07983000000365
 21
-4.672911999999996
 31
0.0
  0
LINE
  5
21E78
330
1F
100
AcDbEntity
  8
1
100
AcDbLine
 10
31.07983000000365
 20
-5.217623000000116
 30
0.0
 11
31.05922600000372
 21
-5.341886999999985
 31
0.0
  0
LINE
  5
21E79
330
1F
100
AcDbEntity
  8
1
100
AcDbLine
 10
31.05922600000372
 20
-5.341886999999985
 30
0.0
 11
30.95428000000373
 21
-5.937026000000116
 31
0.0
  0
LINE
  5
21E7A
330
1F
100
AcDbEntity
  8
1
100
AcDbLine
 10
30.57817900000373
 20
-8.069999999999822
 30
0.0
 11
30.95428000000373
 21
-5.937026000000116
 31
0.0
  0
LINE
  5
21E7B
330
1F
100
AcDbEntity
  8
1
100
AcDbLine
 10
30.57817900000373
 20
-8.069999999999822
 30
0.0
 11
29.92000000000371
 21
-8.449999999999818
 31
0.0
  0
LINE
  5
21E7C
330
1F
100
AcDbEntity
  8
1
100
AcDbLine
 10
29.92000000000371
 20
-8.449999999999818
 30
0.0
 11
29.12000000000364
 21
-8.449999999999818
 31
0.0
  0
LINE
  5
21E7D
330
1F
100
AcDbEntity
  8
1
100
AcDbLine
 10
28.11998700000373
 20
-5.937026000000116
 30
0.0
 11
30.95428000000373
 21
-5.937026000000116
 31
0.0
  0
LINE
  5
21E7E
330
1F
100
AcDbEntity
  8
1
100
AcDbLine
 10
28.12000000000364
 20
-5.217623000000116
 30
0.0
 11
31.07983000000365
 21
-5.217623000000116
 31
0.0
  0
LINE
  5
21E80
330
1F
100
AcDbEntity
  8
1
100
AcDbLine
 10
31.09897400000375
 20
5.116423999999881
 30
0.0
 11
31.05929500000366
 21
5.341459999999869
 31
0.0
  0
ARC
  5
21E81
330
1F
100
AcDbEntity
  8
1
100
AcDbCircle
 10
34.26119200000363
 20
-5.674008000000128
 30
0.0
 40
3.211
100
AcDbArc
 50
156.1373809999991
 51
170.0000000000014
  0
LINE
  5
21E82
330
1F
100
AcDbEntity
  8
1
100
AcDbLine
 10
31.09897400000375
 20
-5.116423999999824
 30
0.0
 11
31.05923700000375
 21
-5.341788999999835
 31
0.0
  0
LINE
  5
21E84
330
1F
100
AcDbEntity
  8
1
100
AcDbLine
 10
33.26000000000374
 20
0.0
 30
0.0
 11
31.32467500000365
 21
-4.37501399999985
 31
0.0
  0
LINE
  5
21E85
330
1F
100
AcDbEntity
  8
SKVIEW4
100
AcDbLine
 10
-54.40317992142388
 20
0.0
 30
0.0
 11
-101.8531799214237
 21
0.0
 31
0.0
  0
LINE
  5
21E86
330
1F
100
AcDbEntity
  8
SKVIEW4
100
AcDbLine
 10
-78.12817992142391
 20
23.72500000000002
 30
0.0
 11
-78.12817992142391
 21
-23.72499999999985
 31
0.0
  0
LINE
  5
21E87
330
1F
100
AcDbEntity
  8
SKVIEW1
100
AcDbLine
 10
-78.12817992142391
 20
-17.69999999999999
 30
0.0
 11
-78.12817992142391
 21
-8.450000999999815
 31
0.0
  0
LINE
  5
21E88
330
1F
100
AcDbEntity
  8
SKVIEW1
100
AcDbLine
 10
-78.12817992142391
 20
-17.69999999999999
 30
0.0
 11
-78.12817992142391
 21
-18.5
 31
0.0
  0
LINE
  5
21E89
330
1F
100
AcDbEntity
  8
SKVIEW1
100
AcDbLine
 10
-82.92817992142387
 20
-17.82540400000016
 30
0.0
 11
-82.92817992142387
 21
-17.69999999999999
 31
0.0
  0
LINE
  5
21E8A
330
1F
100
AcDbEntity
  8
SKVIEW1
100
AcDbLine
 10
-82.92817992142387
 20
-17.69999999999999
 30
0.0
 11
-82.92817992142387
 21
-7.679999999999836
 31
0.0
  0
LINE
  5
21E8B
330
1F
100
AcDbEntity
  8
SKVIEW1
100
AcDbLine
 10
-82.92817992142387
 20
-7.679999999999836
 30
0.0
 11
-82.92817992142387
 21
-7.554595999999833
 31
0.0
  0
LINE
  5
21E8C
330
1F
100
AcDbEntity
  8
SKVIEW1
100
AcDbLine
 10
-82.92817992142387
 20
-7.554595999999833
 30
0.0
 11
-78.12817992142391
 21
-6.879999999999824
 31
0.0
  0
LINE
  5
21E8D
330
1F
100
AcDbEntity
  8
SKVIEW1
100
AcDbLine
 10
-82.92817992142387
 20
-7.679999999999836
 30
0.0
 11
-78.12817992142391
 21
-7.679999999999836
 31
0.0
  0
LINE
  5
21E8E
330
1F
100
AcDbEntity
  8
SKVIEW1
100
AcDbLine
 10
-82.92817992142387
 20
-17.69999999999999
 30
0.0
 11
-78.12817992142391
 21
-17.69999999999999
 31
0.0
  0
LINE
  5
21E8F
330
1F
100
AcDbEntity
  8
SKVIEW1
100
AcDbLine
 10
-82.92817992142387
 20
-17.82540400000016
 30
0.0
 11
-78.12817992142391
 21
-18.5
 31
0.0
  0
LINE
  5
21E90
330
1F
100
AcDbEntity
  8
SKVIEW1
100
AcDbLine
 10
-78.12817992142391
 20
-18.5
 30
0.0
 11
-78.12817992142391
 21
-17.69999999999999
 31
0.0
  0
LINE
  5
21E91
330
1F
100
AcDbEntity
  8
SKVIEW1
100
AcDbLine
 10
-78.12817992142391
 20
-18.5
 30
0.0
 11
-78.12817992142391
 21
-17.69999999999999
 31
0.0
  0
LINE
  5
21E92
330
1F
100
AcDbEntity
  8
SKVIEW1
100
AcDbLine
 10
-78.12817992142391
 20
-17.69999999999999
 30
0.0
 11
-78.12817992142391
 21
-14.29279000000014
 31
0.0
  0
LINE
  5
21E93
330
1F
100
AcDbEntity
  8
SKVIEW1
100
AcDbLine
 10
-78.12817992142391
 20
-10.26386999999999
 30
0.0
 11
-78.12817992142391
 21
-8.450009000000136
 31
0.0
  0
LINE
  5
21E94
330
1F
100
AcDbEntity
  8
SKVIEW1
100
AcDbLine
 10
-78.12817992142391
 20
-8.449999999999818
 30
0.0
 11
-78.12817992142391
 21
-17.69999999999999
 31
0.0
  0
LINE
  5
21E95
330
1F
100
AcDbEntity
  8
SKVIEW1
100
AcDbLine
 10
-78.12817992142391
 20
7.680000000000006
 30
0.0
 11
-78.12817992142391
 21
6.879999999999995
 31
0.0
  0
LINE
  5
21E96
330
1F
100
AcDbEntity
  8
SKVIEW1
100
AcDbLine
 10
-78.12817992142391
 20
17.70000000000016
 30
0.0
 11
-78.12817992142391
 21
7.680000000000006
 31
0.0
  0
LINE
  5
21E97
330
1F
100
AcDbEntity
  8
SKVIEW1
100
AcDbLine
 10
-78.12817992142391
 20
17.70000000000016
 30
0.0
 11
-78.12817992142391
 21
18.50000000000017
 31
0.0
  0
LINE
  5
21E98
330
1F
100
AcDbEntity
  8
SKVIEW1
100
AcDbLine
 10
-73.32817992142378
 20
17.82540400000016
 30
0.0
 11
-73.32817992142378
 21
17.70000000000016
 31
0.0
  0
LINE
  5
21E99
330
1F
100
AcDbEntity
  8
SKVIEW1
100
AcDbLine
 10
-73.32817992142378
 20
17.70000000000016
 30
0.0
 11
-73.32817992142378
 21
7.680000000000006
 31
0.0
  0
LINE
  5
21E9A
330
1F
100
AcDbEntity
  8
SKVIEW1
100
AcDbLine
 10
-73.32817992142378
 20
7.680000000000006
 30
0.0
 11
-73.32817992142378
 21
7.554596000000003
 31
0.0
  0
LINE
  5
21E9B
330
1F
100
AcDbEntity
  8
SKVIEW1
100
AcDbLine
 10
-73.32817992142378
 20
7.554596000000003
 30
0.0
 11
-78.12817992142391
 21
6.879999999999995
 31
0.0
  0
LINE
  5
21E9C
330
1F
100
AcDbEntity
  8
SKVIEW1
100
AcDbLine
 10
-73.32817992142378
 20
7.680000000000006
 30
0.0
 11
-78.12817992142391
 21
7.680000000000006
 31
0.0
  0
LINE
  5
21E9D
330
1F
100
AcDbEntity
  8
SKVIEW1
100
AcDbLine
 10
-73.32817992142378
 20
17.70000000000016
 30
0.0
 11
-78.12817992142391
 21
17.70000000000016
 31
0.0
  0
LINE
  5
21E9E
330
1F
100
AcDbEntity
  8
SKVIEW1
100
AcDbLine
 10
-73.32817992142378
 20
17.82540400000016
 30
0.0
 11
-78.12817992142391
 21
18.50000000000017
 31
0.0
  0
LINE
  5
21E9F
330
1F
100
AcDbEntity
  8
SKVIEW1
100
AcDbLine
 10
-78.12817992142391
 20
18.50000000000017
 30
0.0
 11
-78.12817992142391
 21
17.70000000000016
 31
0.0
  0
LINE
  5
21EA0
330
1F
100
AcDbEntity
  8
SKVIEW1
100
AcDbLine
 10
-78.12817992142391
 20
7.680000000000006
 30
0.0
 11
-78.12817992142391
 21
6.879999999999995
 31
0.0
  0
LINE
  5
21EA1
330
1F
100
AcDbEntity
  8
SKVIEW1
100
AcDbLine
 10
-78.12817992142391
 20
7.680000000000006
 30
0.0
 11
-78.12817992142391
 21
17.70000000000016
 31
0.0
  0
ARC
  5
21EA2
330
1F
100
AcDbEntity
  8
SKVIEW1
100
AcDbCircle
 10
-78.12817992142391
 20
0.0
 30
0.0
 40
5.224999999999996
100
AcDbArc
 50
5.901739000001597
 51
86.96870300000002
  0
LINE
  5
21EA3
330
1F
100
AcDbEntity
  8
SKVIEW1
100
AcDbLine
 10
-68.27820192142382
 20
-3.178817999999864
 30
0.0
 11
-68.27820192142382
 21
1.396632000000181
 31
0.0
  0
ARC
  5
21EA4
330
1F
100
AcDbEntity
  8
SKVIEW1
100
AcDbCircle
 10
-70.23281192142388
 20
-2.795056999999985
 30
0.0
 40
4.625011999999999
100
AcDbArc
 50
65.00006900000113
 51
126.5195850000005
  0
LINE
  5
21EA5
330
1F
100
AcDbEntity
  8
SKVIEW1
100
AcDbLine
 10
-73.42275692142385
 20
-3.567649000000017
 30
0.0
 11
-73.42275692142385
 21
0.0888860000000023
 31
0.0
  0
SPLINE
  5
21EA6
330
1F
100
AcDbEntity
  8
SKVIEW1
100
AcDbSpline
210
0.0
220
0.0
230
1.0
 70
     8
 71
     5
 72
    21
 73
    15
 74
     0
 42
0.000000001
 43
0.0000000001
 40
0.0
 40
0.0
 40
0.0
 40
0.0
 40
0.0
 40
0.0
 40
2.218085534664475
 40
2.218085534664475
 40
2.218085534664475
 40
4.647327403477834
 40
4.647327403477834
 40
4.647327403477834
 40
7.174238180702297
 40
7.174238180702297
 40
7.174238180702297
 40
11.65530182032684
 40
11.65530182032684
 40
11.65530182032684
 40
11.65530182032684
 40
11.65530182032684
 40
11.65530182032684
 10
-68.27819965917069
 20
-3.178805388754256
 30
0.0
 10
-68.41986010522276
 20
-3.180465461809774
 30
0.0
 10
-68.57550428600877
 20
-3.180072714155812
 30
0.0
 10
-68.74706941654977
 20
-3.177735794805983
 30
0.0
 10
-69.14580304913926
 20
-3.169561340956192
 30
0.0
 10
-69.62599029188101
 20
-3.160156801730863
 30
0.0
 10
-69.89201118535982
 20
-3.156591122408144
 30
0.0
 10
-70.46921534934989
 20
-3.158440953816693
 30
0.0
 10
-71.04483062295219
 20
-3.183123579638902
 30
0.0
 10
-71.31820106507223
 20
-3.20218999950714
 30
0.0
 10
-72.04463598137528
 20
-3.271069438697963
 30
0.0
 10
-72.6242017200505
 20
-3.370098151070692
 30
0.0
 10
-72.9348915152533
 20
-3.437726901417363
 30
0.0
 10
-73.19797297300408
 20
-3.504017553539199
 30
0.0
 10
-73.42275644389275
 20
-3.567556417457581
 30
0.0
  0
LINE
  5
21EA7
330
1F
100
AcDbEntity
  8
SKVIEW1
100
AcDbLine
 10
-78.12817992142391
 20
5.341898000000014
 30
0.0
 11
-78.12817992142391
 21
6.879999999999995
 31
0.0
  0
LINE
  5
21EA8
330
1F
100
AcDbEntity
  8
SKVIEW1
100
AcDbLine
 10
-68.27820192142382
 20
1.396632000000181
 30
0.0
 11
-60.04253092142381
 21
-2.443724999999858
 31
0.0
  0
ARC
  5
21EA9
330
1F
100
AcDbEntity
  8
SKVIEW1
100
AcDbCircle
 10
-78.12817992142391
 20
0.0
 30
0.0
 40
18.25
100
AcDbArc
 50
336.7609200000011
 51
74.75103999999936
  0
LINE
  5
21EAA
330
1F
100
AcDbEntity
  8
SKVIEW1
100
AcDbLine
 10
-73.32817992142378
 20
6.879999999999995
 30
0.0
 11
-73.32817992142378
 21
17.60745600000001
 31
0.0
  0
LINE
  5
21EAB
330
1F
100
AcDbEntity
  8
SKVIEW1
100
AcDbLine
 10
-73.32817992142378
 20
6.879999999999995
 30
0.0
 11
-78.12817992142391
 21
6.879999999999995
 31
0.0
  0
CIRCLE
  5
21EAC
330
1F
100
AcDbEntity
  8
SKVIEW1
100
AcDbCircle
 10
-65.31100392142412
 20
7.400000000000147
 30
0.0
 40
1.85
  0
SPLINE
  5
21EAD
330
1F
100
AcDbEntity
  8
SKVIEW1
100
AcDbSpline
210
0.0
220
0.0
230
1.0
 70
     8
 71
     5
 72
    42
 73
    36
 74
     0
 42
0.000000001
 43
0.0000000001
 40
0.0
 40
0.0
 40
0.0
 40
0.0
 40
0.0
 40
0.0
 40
3.886273571012047
 40
3.886273571012047
 40
3.886273571012047
 40
5.8619563308928
 40
5.8619563308928
 40
5.8619563308928
 40
7.224429828288085
 40
7.224429828288085
 40
7.224429828288085
 40
8.111914508999793
 40
8.111914508999793
 40
8.111914508999793
 40
9.003358733455886
 40
9.003358733455886
 40
9.003358733455886
 40
10.1907000059763
 40
10.1907000059763
 40
10.1907000059763
 40
11.5945402513747
 40
11.5945402513747
 40
11.5945402513747
 40
13.27299186423031
 40
13.27299186423031
 40
13.27299186423031
 40
15.21024151090963
 40
15.21024151090963
 40
15.21024151090963
 40
17.12439103994278
 40
17.12439103994278
 40
17.12439103994278
 40
19.8700653360348
 40
19.8700653360348
 40
19.8700653360348
 40
19.8700653360348
 40
19.8700653360348
 40
19.8700653360348
 10
-68.27819965917109
 20
-3.178805388755336
 30
0.0
 10
-68.02977541539826
 20
-3.175894185200775
 30
0.0
 10
-67.7760049371704
 20
-3.178510159943016
 30
0.0
 10
-67.5203677610807
 20
-3.187670099825481
 30
0.0
 10
-67.1165865292314
 20
-3.213119054190372
 30
0.0
 10
-66.67704774538254
 20
-3.267401907018552
 30
0.0
 10
-66.52443117613109
 20
-3.289635749739147
 30
0.0
 10
-66.2576022049185
 20
-3.335155878663783
 30
0.0
 10
-65.96915733972616
 20
-3.400064832722364
 30
0.0
 10
-65.8493590815928
 20
-3.429889504260074
 30
0.0
 10
-65.63965599147292
 20
-3.488020200725088
 30
0.0
 10
-65.41523832883928
 20
-3.563285318476346
 30
0.0
 10
-65.32206349676619
 20
-3.596866872505358
 30
0.0
 10
-65.13636939126678
 20
-3.669232096699374
 30
0.0
 10
-64.94682152743689
 20
-3.755184653638366
 30
0.0
 10
-64.8519281267653
 20
-3.801613968850688
 30
0.0
 10
-64.63625726579152
 20
-3.915709793440669
 30
0.0
 10
-64.43993037133333
 20
-4.038252949734612
 30
0.0
 10
-64.33901863511522
 20
-4.107321582788074
 30
0.0
 10
-64.13277364543666
 20
-4.259303267387281
 30
0.0
 10
-63.96121021426478
 20
-4.406970079224322
 30
0.0
 10
-63.87659734007889
 20
-4.485313462950273
 30
0.0
 10
-63.70610709049362
 20
-4.653454153305574
 30
0.0
 10
-63.5623315733693
 20
-4.815565469390321
 30
0.0
 10
-63.4904197916951
 20
-4.901978790565124
 30
0.0
 10
-63.34606813958328
 20
-5.085760086781078
 30
0.0
 10
-63.22087573401422
 20
-5.265697250702828
 30
0.0
 10
-63.15847643721008
 20
-5.360919251540963
 30
0.0
 10
-63.04238411579888
 20
-5.548142935492307
 30
0.0
 10
-62.93956459148706
 20
-5.732828050531054
 30
0.0
 10
-62.89112348208232
 20
-5.824398947932934
 30
0.0
 10
-62.77924226559219
 20
-6.046529781417689
 30
0.0
 10
-62.68071562268175
 20
-6.267047860353329
 30
0.0
 10
-62.6265998669873
 20
-6.396681850218271
 30
0.0
 10
-62.57612451500609
 20
-6.526012054814145
 30
0.0
 10
-62.52887523052078
 20
-6.65525852237863
 30
0.0
  0
LINE
  5
21EAE
330
1F
100
AcDbEntity
  8
SKVIEW1
100
AcDbLine
 10
-62.52883992142386
 20
-6.65531199999998
 30
0.0
 11
-61.3588679214239
 21
-7.200878999999986
 31
0.0
  0
ARC
  5
21EAF
330
1F
100
AcDbEntity
  8
SKVIEW1
100
AcDbCircle
 10
-69.56637492142386
 20
-14.25402999999983
 30
0.0
 40
11.361001
100
AcDbArc
 50
109.8427750000014
 51
111.4530650000006
  0
ARC
  5
21EB0
330
1F
100
AcDbEntity
  8
SKVIEW1
100
AcDbCircle
 10
-78.12817992142391
 20
0.0
 30
0.0
 40
4.224999999999996
100
AcDbArc
 50
346.8705500000005
 51
358.8591410000012
  0
ARC
  5
21EB1
330
1F
100
AcDbEntity
  8
SKVIEW1
100
AcDbCircle
 10
-71.16264792142385
 20
-6.427296000000012
 30
0.0
 40
6.166237999999997
100
AcDbArc
 50
117.539023
 51
125.8696920000001
  0
ARC
  5
21EB2
330
1F
100
AcDbEntity
  8
SKVIEW1
100
AcDbCircle
 10
-71.55184192142389
 20
-18.81087500000001
 30
0.0
 40
14.671753
100
AcDbArc
 50
92.7216540000011
 51
97.6068070000015
  0
ARC
  5
21EB3
330
1F
100
AcDbEntity
  8
SKVIEW1
100
AcDbCircle
 10
-78.12817992142391
 20
0.0
 30
0.0
 40
7.2
100
AcDbArc
 50
324.74787
 51
332.2331840000006
  0
ELLIPSE
  5
21EB4
330
1F
100
AcDbEntity
  8
SKVIEW1
100
AcDbEllipse
 10
-70.42171192142387
 20
-13.86173200000013
 30
0.0
 11
9.250539779663084
 21
5.364202022552491
 31
0.0
210
0.0
220
0.0
230
1.0
 40
0.9888639999999998
 41
0.2168134688710255
 42
1.175722551564801
  0
ARC
  5
21EB5
330
1F
100
AcDbEntity
  8
SKVIEW1
100
AcDbCircle
 10
-86.68998192142387
 20
14.25402000000014
 30
0.0
 40
11.36099
100
AcDbArc
 50
289.8427750000014
 51
291.4531259999983
  0
LINE
  5
21EB6
330
1F
100
AcDbEntity
  8
SKVIEW1
100
AcDbLine
 10
-82.83360292142379
 20
3.567649000000017
 30
0.0
 11
-82.83360292142379
 21
-0.0888860000001159
 31
0.0
  0
ARC
  5
21EB7
330
1F
100
AcDbEntity
  8
SKVIEW1
100
AcDbCircle
 10
-78.12817992142391
 20
0.0
 30
0.0
 40
4.224999999999996
100
AcDbArc
 50
166.8705500000005
 51
178.8591410000012
  0
ARC
  5
21EB8
330
1F
100
AcDbEntity
  8
SKVIEW1
100
AcDbCircle
 10
-85.0937119214238
 20
6.427295999999842
 30
0.0
 40
6.166237999999997
100
AcDbArc
 50
297.539023
 51
305.8696900000013
  0
ARC
  5
21EB9
330
1F
100
AcDbEntity
  8
SKVIEW1
100
AcDbCircle
 10
-74.42817992142386
 20
-8.80952400000001
 30
0.0
 40
3.7
100
AcDbArc
 50
174.4237059999987
 51
180.0
  0
ARC
  5
21EBA
330
1F
100
AcDbEntity
  8
SKVIEW1
100
AcDbCircle
 10
-81.82817992142378
 20
8.80952400000001
 30
0.0
 40
3.7
100
AcDbArc
 50
354.4234310000001
 51
0.0
  0
SPLINE
  5
21EBB
330
1F
100
AcDbEntity
  8
SKVIEW1
100
AcDbSpline
210
0.0
220
0.0
230
1.0
 70
     8
 71
     5
 72
    42
 73
    36
 74
     0
 42
0.000000001
 43
0.0000000001
 40
0.0
 40
0.0
 40
0.0
 40
0.0
 40
0.0
 40
0.0
 40
3.886273571317868
 40
3.886273571317868
 40
3.886273571317868
 40
5.861956331297936
 40
5.861956331297936
 40
5.861956331297936
 40
7.224429828721543
 40
7.224429828721543
 40
7.224429828721543
 40
8.111914509198815
 40
8.111914509198815
 40
8.111914509198815
 40
9.003358733188962
 40
9.003358733188962
 40
9.003358733188962
 40
10.19070000361181
 40
10.19070000361181
 40
10.19070000361181
 40
11.59454024904374
 40
11.59454024904374
 40
11.59454024904374
 40
13.27299186311004
 40
13.27299186311004
 40
13.27299186311004
 40
15.21024150976998
 40
15.21024150976998
 40
15.21024150976998
 40
17.1243910388671
 40
17.1243910388671
 40
17.1243910388671
 40
19.87006533404457
 40
19.87006533404457
 40
19.87006533404457
 40
19.87006533404457
 40
19.87006533404457
 40
19.87006533404457
 10
-87.97816018367678
 20
3.178805388755449
 30
0.0
 10
-88.22658442745845
 20
3.175894185200718
 30
0.0
 10
-88.48035490569476
 20
3.178510159943641
 30
0.0
 10
-88.73599208224248
 20
3.187670099846116
 30
0.0
 10
-89.13977331431192
 20
3.213119054250341
 30
0.0
 10
-89.57931209817605
 20
3.267401907116379
 30
0.0
 10
-89.73192866744183
 20
3.289635749851299
 30
0.0
 10
-89.99875763865578
 20
3.335155878799128
 30
0.0
 10
-90.2872025039043
 20
3.400064832906423
 30
0.0
 10
-90.40700076216126
 20
3.42988950449569
 30
0.0
 10
-90.61670385230218
 20
3.488020201000892
 30
0.0
 10
-90.84112151496208
 20
3.563285318810358
 30
0.0
 10
-90.93429634689654
 20
3.596866872810551
 30
0.0
 10
-91.11999045235739
 20
3.669232097027929
 30
0.0
 10
-91.30953831611879
 20
3.755184653976357
 30
0.0
 10
-91.40443171670876
 20
3.801613969166794
 30
0.0
 10
-91.62010257742087
 20
3.915709793669691
 30
0.0
 10
-91.81642947148645
 20
4.038252949728416
 30
0.0
 10
-91.91734120861417
 20
4.107321583417899
 30
0.0
 10
-92.12358619799113
 20
4.259303267869199
 30
0.0
 10
-92.29514962889544
 20
4.40697007950888
 30
0.0
 10
-92.37976250301352
 20
4.485313463177703
 30
0.0
 10
-92.55025275264712
 20
4.653454153599682
 30
0.0
 10
-92.69402826972617
 20
4.815565469695798
 30
0.0
 10
-92.76594005134375
 20
4.901978790802559
 30
0.0
 10
-92.91029170338021
 20
5.085760086923585
 30
0.0
 10
-93.03548410900759
 20
5.265697250950722
 30
0.0
 10
-93.0978834057841
 20
5.360919251763903
 30
0.0
 10
-93.21397572718558
 20
5.548142935724513
 30
0.0
 10
-93.31679525149622
 20
5.732828050780483
 30
0.0
 10
-93.365236360896
 20
5.824398948184921
 30
0.0
 10
-93.47711757735096
 20
6.046529781618119
 30
0.0
 10
-93.57564422023711
 20
6.267047860510388
 30
0.0
 10
-93.62975997591593
 20
6.396681850330821
 30
0.0
 10
-93.68023532787901
 20
6.526012054881903
 30
0.0
 10
-93.72748461232692
 20
6.655258522378403
 30
0.0
  0
SPLINE
  5
21EBC
330
1F
100
AcDbEntity
  8
SKVIEW1
100
AcDbSpline
210
0.0
220
0.0
230
1.0
 70
     8
 71
     5
 72
    21
 73
    15
 74
     0
 42
0.000000001
 43
0.0000000001
 40
0.0
 40
0.0
 40
0.0
 40
0.0
 40
0.0
 40
0.0
 40
2.218085533413764
 40
2.218085533413764
 40
2.218085533413764
 40
4.647327405123566
 40
4.647327405123566
 40
4.647327405123566
 40
7.174238183309749
 40
7.174238183309749
 40
7.174238183309749
 40
11.65530182212879
 40
11.65530182212879
 40
11.65530182212879
 40
11.65530182212879
 40
11.65530182212879
 40
11.65530182212879
 10
-87.97816018367706
 20
3.178805388754369
 30
0.0
 10
-87.83649973770479
 20
3.180465461809944
 30
0.0
 10
-87.68085555700327
 20
3.180072714155187
 30
0.0
 10
-87.50929042601388
 20
3.177735794802458
 30
0.0
 10
-87.11055679312321
 20
3.169561340940845
 30
0.0
 10
-86.6303695502952
 20
3.160156801723871
 30
0.0
 10
-86.36434865823281
 20
3.156591122406723
 30
0.0
 10
-85.7871444937902
 20
3.158440953801743
 30
0.0
 10
-85.21152921971362
 20
3.18312357964487
 30
0.0
 10
-84.93815877805724
 20
3.202189999481106
 30
0.0
 10
-84.21172386170741
 20
3.271069438666415
 30
0.0
 10
-83.63215812288979
 20
3.370098151048352
 30
0.0
 10
-83.32146832750311
 20
3.437726901435041
 30
0.0
 10
-83.05838686980399
 20
3.50401755355017
 30
0.0
 10
-82.83360339895102
 20
3.567556417458831
 30
0.0
  0
ARC
  5
21EBD
330
1F
100
AcDbEntity
  8
SKVIEW1
100
AcDbCircle
 10
-84.70451792142382
 20
18.81087400000018
 30
0.0
 40
14.671753
100
AcDbArc
 50
272.7216540000011
 51
277.6068940000015
  0
ARC
  5
21EBE
330
1F
100
AcDbEntity
  8
SKVIEW1
100
AcDbCircle
 10
-78.12817992142391
 20
0.0
 30
0.0
 40
7.2
100
AcDbArc
 50
144.74787
 51
152.2331840000005
  0
ELLIPSE
  5
21EBF
330
1F
100
AcDbEntity
  8
SKVIEW1
100
AcDbEllipse
 10
-85.83464792142383
 20
13.86173200000019
 30
0.0
 11
9.250539779663084
 21
5.364202499389648
 31
0.0
210
0.0
220
0.0
230
1.0
 40
0.9888639999999996
 41
3.358406111666771
 42
4.317315194133803
  0
LINE
  5
21EC0
330
1F
100
AcDbEntity
  8
SKVIEW1
100
AcDbLine
 10
-87.97815792142387
 20
3.178818000000035
 30
0.0
 11
-87.97815792142387
 21
-1.396632000000124
 31
0.0
  0
ARC
  5
21EC1
330
1F
100
AcDbEntity
  8
SKVIEW1
100
AcDbCircle
 10
-86.02365292142378
 20
2.795642999999984
 30
0.0
 40
4.625599
100
AcDbArc
 50
245.0043170000007
 51
306.5163080000011
  0
ARC
  5
21EC2
330
1F
100
AcDbEntity
  8
SKVIEW1
100
AcDbCircle
 10
-78.12817992142391
 20
0.0
 30
0.0
 40
5.224999999999996
100
AcDbArc
 50
185.9017390000016
 51
241.3521099999982
  0
LINE
  5
21EC3
330
1F
100
AcDbEntity
  8
SKVIEW1
100
AcDbLine
 10
-82.92817992142387
 20
-6.879999999999824
 30
0.0
 11
-78.12817992142391
 21
-6.879999999999824
 31
0.0
  0
LINE
  5
21EC4
330
1F
100
AcDbEntity
  8
SKVIEW1
100
AcDbLine
 10
-78.12817992142391
 20
-10.26382900000015
 30
0.0
 11
-78.12817992142391
 21
-8.80952400000001
 31
0.0
  0
LINE
  5
21EC5
330
1F
100
AcDbEntity
  8
SKVIEW1
100
AcDbLine
 10
-78.12817992142391
 20
-18.25
 30
0.0
 11
-78.12817992142391
 21
-14.29281700000001
 31
0.0
  0
ARC
  5
21EC6
330
1F
100
AcDbEntity
  8
SKVIEW1
100
AcDbCircle
 10
-78.12817992142391
 20
0.0
 30
0.0
 40
18.25
100
AcDbArc
 50
172.3048250000016
 51
254.7510399999993
  0
LINE
  5
21EC7
330
1F
100
AcDbEntity
  8
SKVIEW1
100
AcDbLine
 10
-93.72751992142372
 20
6.655311999999867
 30
0.0
 11
-94.89749192142387
 21
7.200878999999986
 31
0.0
  0
LINE
  5
21EC8
330
1F
100
AcDbEntity
  8
SKVIEW1
100
AcDbLine
 10
-78.12817992142391
 20
-5.937026000000116
 30
0.0
 11
-78.12817992142391
 21
-5.342030000000136
 31
0.0
  0
ARC
  5
21EC9
330
1F
100
AcDbEntity
  8
SKVIEW1
100
AcDbCircle
 10
-78.12817992142391
 20
0.0
 30
0.0
 40
18.25
100
AcDbArc
 50
156.7609200000015
 51
172.3048250000016
  0
LINE
  5
21ECA
330
1F
100
AcDbEntity
  8
SKVIEW1
100
AcDbLine
 10
-87.97815792142387
 20
-1.396632000000124
 30
0.0
 11
-96.21382892142378
 21
2.443724999999858
 31
0.0
  0
LINE
  5
21ECB
330
1F
100
AcDbEntity
  8
SKVIEW1
100
AcDbLine
 10
-82.92817992142387
 20
-6.879999999999824
 30
0.0
 11
-82.92817992142387
 21
-7.554595999999833
 31
0.0
  0
CIRCLE
  5
21ECC
330
1F
100
AcDbEntity
  8
SKVIEW1
100
AcDbCircle
 10
-90.94535592142381
 20
-7.399999999999977
 30
0.0
 40
1.85
  0
ARC
  5
21ECD
330
1F
100
AcDbEntity
  8
SKVIEW1
100
AcDbCircle
 10
-78.12817992142391
 20
0.0
 30
0.0
 40
4.224999999999996
100
AcDbArc
 50
347.6497189999989
 51
358.4017960000014
  0
ARC
  5
21ECE
330
1F
100
AcDbEntity
  8
SKVIEW1
100
AcDbCircle
 10
-82.99833392142387
 20
3.050302999999871
 30
0.0
 40
2.271552999999999
100
AcDbArc
 50
289.0902720000012
 51
312.3463310000019
  0
ARC
  5
21ECF
330
1F
100
AcDbEntity
  8
SKVIEW1
100
AcDbCircle
 10
-73.25802592142378
 20
-3.050302999999814
 30
0.0
 40
2.271552999999999
100
AcDbArc
 50
109.0902720000012
 51
132.3463320000004
  0
LINE
  5
21ED0
330
1F
100
AcDbEntity
  8
SKVIEW1
100
AcDbLine
 10
-72.9062989214238
 20
0.1804979999998295
 30
0.0
 11
-72.9725129214238
 21
0.1747050000001877
 31
0.0
  0
ARC
  5
21ED1
330
1F
100
AcDbEntity
  8
SKVIEW1
100
AcDbCircle
 10
-72.77452392142379
 20
-2.088151000000152
 30
0.0
 40
2.271500999999999
100
AcDbArc
 50
95.000397
 51
119.8413820000006
  0
SPLINE
  5
21ED2
330
1F
100
AcDbEntity
  8
SKVIEW1
100
AcDbSpline
210
0.0
220
0.0
230
1.0
 70
     8
 71
     5
 72
    18
 73
    12
 74
     0
 42
0.000000001
 43
0.0000000001
 40
0.0
 40
0.0
 40
0.0
 40
0.0
 40
0.0
 40
0.0
 40
1.75431338018732
 40
1.75431338018732
 40
1.75431338018732
 40
3.421583271630128
 40
3.421583271630128
 40
3.421583271630128
 40
5.561677834093559
 40
5.561677834093559
 40
5.561677834093559
 40
5.561677834093559
 40
5.561677834093559
 40
5.561677834093559
 10
-74.67948641699303
 20
-0.5936641300737051
 30
0.0
 10
-74.61558278882688
 20
-0.4267808650785696
 30
0.0
 10
-74.53500618369779
 20
-0.2733469165061706
 30
0.0
 10
-74.44141601906671
 20
-0.140401578587614
 30
0.0
 10
-74.2434006405133
 20
0.0807205205516084
 30
0.0
 10
-74.02489636921973
 20
0.2336693297863235
 30
0.0
 10
-73.91552705359305
 20
0.2937723497486217
 30
0.0
 10
-73.66287236235826
 20
0.4009787429637868
 30
0.0
 10
-73.40819019029891
 20
0.4471280966793643
 30
0.0
 10
-73.26580402730468
 20
0.4567065039836962
 30
0.0
 10
-73.12567922454445
 20
0.4518867485675174
 30
0.0
 10
-72.98785163594408
 20
0.4341079799488057
 30
0.0
  0
ARC
  5
21ED3
330
1F
100
AcDbEntity
  8
SKVIEW1
100
AcDbCircle
 10
-72.83491592142382
 20
-1.303521999999986
 30
0.0
 40
1.976425
100
AcDbArc
 50
158.9514630000009
 51
166.1041559999999
  0
SPLINE
  5
21ED4
330
1F
100
AcDbEntity
  8
SKVIEW1
100
AcDbSpline
210
0.0
220
0.0
230
1.0
 70
     8
 71
     5
 72
    12
 73
     6
 74
     0
 42
0.000000001
 43
0.0000000001
 40
0.0
 40
0.0
 40
0.0
 40
0.0
 40
0.0
 40
0.0
 40
1.690652628449883
 40
1.690652628449883
 40
1.690652628449883
 40
1.690652628449883
 40
1.690652628449883
 40
1.690652628449883
 10
-74.75347817941622
 20
-0.8288733481351187
 30
0.0
 10
-74.79071118845098
 20
-0.9805049717974725
 30
0.0
 10
-74.8082868683677
 20
-1.121792812757121
 30
0.0
 10
-74.80773789064079
 20
-1.246820583420117
 30
0.0
 10
-74.7960588189749
 20
-1.344346157032987
 30
0.0
 10
-74.77947523506407
 20
-1.414920806610098
 30
0.0
  0
ARC
  5
21ED5
330
1F
100
AcDbEntity
  8
SKVIEW1
100
AcDbCircle
 10
-73.21661192142386
 20
-1.024399000000016
 30
0.0
 40
1.611256999999999
100
AcDbArc
 50
194.0295620000014
 51
210.8732889999991
  0
ARC
  5
21ED6
330
1F
100
AcDbEntity
  8
SKVIEW1
100
AcDbCircle
 10
-78.12790092142387
 20
0.0000279999998725
 30
0.0
 40
5.158345999999998
100
AcDbArc
 50
1.940578000000911
 51
4.827207000000546
  0
ARC
  5
21ED7
330
1F
100
AcDbEntity
  8
SKVIEW1
100
AcDbCircle
 10
-78.12817992142391
 20
0.0
 30
0.0
 40
4.224999999999996
100
AcDbArc
 50
167.6497189999989
 51
178.4017960000014
  0
SPLINE
  5
21ED8
330
1F
100
AcDbEntity
  8
SKVIEW1
100
AcDbSpline
210
0.0
220
0.0
230
1.0
 70
     8
 71
     5
 72
    18
 73
    12
 74
     0
 42
0.000000001
 43
0.0000000001
 40
0.0
 40
0.0
 40
0.0
 40
0.0
 40
0.0
 40
0.0
 40
1.754313380161178
 40
1.754313380161178
 40
1.754313380161178
 40
3.421583271559988
 40
3.421583271559988
 40
3.421583271559988
 40
5.561677833949723
 40
5.561677833949723
 40
5.561677833949723
 40
5.561677833949723
 40
5.561677833949723
 40
5.561677833949723
 10
-81.57687342585473
 20
0.5936641300737051
 30
0.0
 10
-81.64077705401991
 20
0.4267808650809002
 30
0.0
 10
-81.72135365914726
 20
0.2733469165106044
 30
0.0
 10
-81.81494382378009
 20
0.1404015785884667
 30
0.0
 10
-82.01295920233309
 20
-0.0807205205496189
 30
0.0
 10
-82.23146347362092
 20
-0.2336693297813213
 30
0.0
 10
-82.34083278925259
 20
-0.2937723497482807
 30
0.0
 10
-82.59348748049172
 20
-0.4009787429644121
 30
0.0
 10
-82.84816965255203
 20
-0.4471280966808422
 30
0.0
 10
-82.99055581555313
 20
-0.4567065039842646
 30
0.0
 10
-83.13068061830813
 20
-0.4518867485668921
 30
0.0
 10
-83.26850820690362
 20
-0.4341079799488057
 30
0.0
  0
ARC
  5
21ED9
330
1F
100
AcDbEntity
  8
SKVIEW1
100
AcDbCircle
 10
-83.42144392142378
 20
1.303521999999986
 30
0.0
 40
1.976425
100
AcDbArc
 50
338.951463000001
 51
346.1041559999999
  0
SPLINE
  5
21EDA
330
1F
100
AcDbEntity
  8
SKVIEW1
100
AcDbSpline
210
0.0
220
0.0
230
1.0
 70
     8
 71
     5
 72
    12
 73
     6
 74
     0
 42
0.000000001
 43
0.0000000001
 40
0.0
 40
0.0
 40
0.0
 40
0.0
 40
0.0
 40
0.0
 40
1.690652603728311
 40
1.690652603728311
 40
1.690652603728311
 40
1.690652603728311
 40
1.690652603728311
 40
1.690652603728311
 10
-81.50288166343353
 20
0.8288733481268195
 30
0.0
 10
-81.4656486548543
 20
0.9805049699320989
 30
0.0
 10
-81.4480729748339
 20
1.121792809604528
 30
0.0
 10
-81.44862195254791
 20
1.24682058626837
 30
0.0
 10
-81.46030102411533
 20
1.344346158064865
 30
0.0
 10
-81.47688460778358
 20
1.414920806610098
 30
0.0
  0
ARC
  5
21EDB
330
1F
100
AcDbEntity
  8
SKVIEW1
100
AcDbCircle
 10
-83.03974792142373
 20
1.024399000000016
 30
0.0
 40
1.611256999999999
100
AcDbArc
 50
14.02956200000148
 51
30.8732889999991
  0
ARC
  5
21EDC
330
1F
100
AcDbEntity
  8
SKVIEW1
100
AcDbCircle
 10
-83.48183592142385
 20
2.088150999999982
 30
0.0
 40
2.271500999999999
100
AcDbArc
 50
275.000396
 51
299.8413820000006
  0
ARC
  5
21EDD
330
1F
100
AcDbEntity
  8
SKVIEW1
100
AcDbCircle
 10
-78.12845892142383
 20
-0.0000279999999862
 30
0.0
 40
5.158345999999998
100
AcDbArc
 50
181.9405780000009
 51
184.8272079999989
  0
LINE
  5
21EDE
330
1F
100
AcDbEntity
  8
SKVIEW1
100
AcDbLine
 10
-82.08083892142372
 20
2.530770000000188
 30
0.0
 11
-82.26838992142388
 21
3.006070000000136
 31
0.0
  0
ARC
  5
21EDF
330
1F
100
AcDbEntity
  8
SKVIEW1
100
AcDbCircle
 10
3.554833078576109
 20
37.32253200000002
 30
0.0
 40
92.42965600000001
100
AcDbArc
 50
199.7558710000016
 51
201.7940270000001
  0
ARC
  5
21EE0
330
1F
100
AcDbEntity
  8
SKVIEW1
100
AcDbCircle
 10
-70.90088492142382
 20
6.698137000000144
 30
0.0
 40
12.54887
100
AcDbArc
 50
180.6107809999986
 51
182.8229910000001
  0
ARC
  5
21EE1
330
1F
100
AcDbEntity
  8
SKVIEW1
100
AcDbCircle
 10
-93.25409392142388
 20
-4.922035999999991
 30
0.0
 40
13.430723
100
AcDbArc
 50
30.28647700000082
 51
33.70415600000085
  0
LINE
  5
21EE2
330
1F
100
AcDbEntity
  8
SKVIEW1
100
AcDbLine
 10
-74.17552092142381
 20
-2.530770000000131
 30
0.0
 11
-73.98796992142383
 21
-3.006070000000136
 31
0.0
  0
ARC
  5
21EE3
330
1F
100
AcDbEntity
  8
SKVIEW1
100
AcDbCircle
 10
-159.8406109214238
 20
-37.33327600000001
 30
0.0
 40
92.460968
100
AcDbArc
 50
19.75597500000219
 51
21.79344000000038
  0
ARC
  5
21EE4
330
1F
100
AcDbEntity
  8
SKVIEW1
100
AcDbCircle
 10
-85.3548339214238
 20
-6.698118000000135
 30
0.0
 40
12.548229
100
AcDbArc
 50
0.6107239999990045
 51
2.823046999999029
  0
ARC
  5
21EE5
330
1F
100
AcDbEntity
  8
SKVIEW1
100
AcDbCircle
 10
-63.00226592142388
 20
4.922036000000161
 30
0.0
 40
13.430723
100
AcDbArc
 50
210.2864770000008
 51
213.7041560000005
  0
ARC
  5
21EE6
330
1F
100
AcDbEntity
  8
SKVIEW1
100
AcDbCircle
 10
-78.12817992142391
 20
0.0
 30
0.0
 40
5.224999999999996
100
AcDbArc
 50
1.979681000001235
 51
63.42340500000021
  0
LINE
  5
21EE7
330
1F
100
AcDbEntity
  8
SKVIEW1
100
AcDbLine
 10
-72.98785192142378
 20
0.4341079999999807
 30
0.0
 11
-72.92050492142386
 21
0.4251800000001822
 31
0.0
  0
LINE
  5
21EE8
330
1F
100
AcDbEntity
  8
SKVIEW1
100
AcDbLine
 10
-78.12817992142391
 20
8.069999999999879
 30
0.0
 11
-78.12817992142391
 21
8.449999999999874
 31
0.0
  0
LINE
  5
21EE9
330
1F
100
AcDbEntity
  8
SKVIEW1
100
AcDbLine
 10
-78.12817992142391
 20
5.937026000000173
 30
0.0
 11
-78.12817992142391
 21
8.069999999999879
 31
0.0
  0
ARC
  5
21EEA
330
1F
100
AcDbEntity
  8
SKVIEW1
100
AcDbCircle
 10
-77.82817992142378
 20
5.639525999999989
 30
0.0
 40
0.4225
100
AcDbArc
 50
135.2397299999997
 51
266.9549659999999
  0
ARC
  5
21EEB
330
1F
100
AcDbEntity
  8
SKVIEW1
100
AcDbCircle
 10
-78.12817992142391
 20
0.0
 30
0.0
 40
5.224999999999996
100
AcDbArc
 50
63.4234150000012
 51
86.954966
  0
LINE
  5
21EEC
330
1F
100
AcDbEntity
  8
SKVIEW1
100
AcDbLine
 10
-77.75289192142378
 20
0.2298519999998803
 30
0.0
 11
-74.67948592142386
 21
-0.5936639999999898
 31
0.0
  0
LINE
  5
21EED
330
1F
100
AcDbEntity
  8
SKVIEW1
100
AcDbLine
 10
-75.81973492142378
 20
4.566056000000003
 30
0.0
 11
-75.79054792142381
 21
4.672911999999882
 31
0.0
  0
ARC
  5
21EEE
330
1F
100
AcDbEntity
  8
SKVIEW1
100
AcDbCircle
 10
-80.08905892142383
 20
5.713481999999999
 30
0.0
 40
4.420644999999998
100
AcDbArc
 50
335.2536069999993
 51
344.9566370000005
  0
LINE
  5
21EEF
330
1F
100
AcDbEntity
  8
SKVIEW1
100
AcDbLine
 10
-76.40989992142386
 20
3.145289999999988
 30
0.0
 11
-76.07453992142388
 21
3.863070000000163
 31
0.0
  0
SPLINE
  5
21EF0
330
1F
100
AcDbEntity
  8
SKVIEW1
100
AcDbSpline
210
0.0
220
0.0
230
1.0
 70
     8
 71
     5
 72
    30
 73
    24
 74
     0
 42
0.000000001
 43
0.0000000001
 40
0.0
 40
0.0
 40
0.0
 40
0.0
 40
0.0
 40
0.0
 40
27.46890791900197
 40
27.46890791900197
 40
27.46890791900197
 40
38.07893557398753
 40
38.07893557398753
 40
38.07893557398753
 40
43.40645323895073
 40
43.40645323895073
 40
43.40645323895073
 40
49.7351182792694
 40
49.7351182792694
 40
49.7351182792694
 40
51.78944324206803
 40
51.78944324206803
 40
51.78944324206803
 40
53.40576490036049
 40
53.40576490036049
 40
53.40576490036049
 40
54.31140019280714
 40
54.31140019280714
 40
54.31140019280714
 40
54.31140019280714
 40
54.31140019280714
 40
54.31140019280714
 10
-77.75289204846484
 20
0.2298524268929896
 30
0.0
 10
-77.73782320303922
 20
0.2674281545220083
 30
0.0
 10
-77.71917099345194
 20
0.3124272216995223
 30
0.0
 10
-77.69809628997705
 20
0.3615391759955173
 30
0.0
 10
-77.65957218839975
 20
0.4506051716875277
 30
0.0
 10
-77.57925043064026
 20
0.6284026994632086
 30
0.0
 10
-77.55254315675606
 20
0.6872298068064993
 30
0.0
 10
-77.50375441930862
 20
0.7941230067386869
 30
0.0
 10
-77.43131410776152
 20
0.9515251625476821
 30
0.0
 10
-77.4044928310148
 20
1.009627259835497
 30
0.0
 10
-77.33484919756148
 20
1.16038897048088
 30
0.0
 10
-77.23709982970063
 20
1.371223552421326
 30
0.0
 10
-77.17358439204957
 20
1.507910104093866
 30
0.0
 10
-77.06622193110121
 20
1.738681842861467
 30
0.0
 10
-76.91096949135772
 20
2.071757552089991
 30
0.0
 10
-76.86707542879907
 20
2.165690910137698
 30
0.0
 10
-76.78378570524199
 20
2.344437603345113
 30
0.0
 10
-76.69039570315828
 20
2.544614524696498
 30
0.0
 10
-76.64985391374688
 20
2.631432485927916
 30
0.0
 10
-76.57756461952477
 20
2.786268181567322
 30
0.0
 10
-76.49905321190942
 20
2.95440220609413
 30
0.0
 10
-76.47007525881145
 20
3.016455624317188
 30
0.0
 10
-76.44036406203395
 20
3.080069560395202
 30
0.0
 10
-76.40990024419284
 20
3.145289851631844
 30
0.0
  0
LINE
  5
21EF1
330
1F
100
AcDbEntity
  8
SKVIEW1
100
AcDbLine
 10
-77.0763519214238
 20
-0.7994749999999727
 30
0.0
 11
-74.7794749214238
 21
-1.414920999999822
 31
0.0
  0
SPLINE
  5
21EF2
330
1F
100
AcDbEntity
  8
SKVIEW1
100
AcDbSpline
210
0.0
220
0.0
230
1.0
 70
     8
 71
     5
 72
    57
 73
    51
 74
     0
 42
0.000000001
 43
0.0000000001
 40
0.0
 40
0.0
 40
0.0
 40
0.0
 40
0.0
 40
0.0
 40
24.72862772093421
 40
24.72862772093421
 40
24.72862772093421
 40
61.82105273432865
 40
61.82105273432865
 40
61.82105273432865
 40
86.5493593923421
 40
86.5493593923421
 40
86.5493593923421
 40
98.91360281701441
 40
98.91360281701441
 40
98.91360281701441
 40
111.2780730486465
 40
111.2780730486465
 40
111.2780730486465
 40
118.5545750181114
 40
118.5545750181114
 40
118.5545750181114
 40
120.1575536532695
 40
120.1575536532695
 40
120.1575536532695
 40
121.4852127419106
 40
121.4852127419106
 40
121.4852127419106
 40
122.3651045244989
 40
122.3651045244989
 40
122.3651045244989
 40
122.4234374393187
 40
122.4234374393187
 40
122.4234374393187
 40
122.4817703541384
 40
122.4817703541384
 40
122.4817703541384
 40
122.5962182820432
 40
122.5962182820432
 40
122.5962182820432
 40
122.674889342142
 40
122.674889342142
 40
122.674889342142
 40
122.714227621705
 40
122.714227621705
 40
122.714227621705
 40
123.0529526567849
 40
123.0529526567849
 40
123.0529526567849
 40
124.0079913896912
 40
124.0079913896912
 40
124.0079913896912
 40
124.0079913896912
 40
124.0079913896912
 40
124.0079913896912
 10
-77.75289204846484
 20
0.2298524268929896
 30
0.0
 10
-77.76645881167104
 20
0.1960222969368601
 30
0.0
 10
-77.77370279532016
 20
0.1703027044106875
 30
0.0
 10
-77.77901315573655
 20
0.1480605471898571
 30
0.0
 10
-77.78825770097899
 20
0.0961835866498859
 30
0.0
 10
-77.78927282204751
 20
0.0528359385349973
 30
0.0
 10
-77.7879271014138
 20
0.0282116209608603
 30
0.0
 10
-77.78240119744538
 20
-0.0133902875778063
 30
0.0
 10
-77.77040313875642
 20
-0.0589359596692702
 30
0.0
 10
-77.76444509237518
 20
-0.0780973104741065
 30
0.0
 10
-77.75324893511982
 20
-0.1094164027092006
 30
0.0
 10
-77.73572704293105
 20
-0.1479972433522789
 30
0.0
 10
-77.72892893040864
 20
-0.1620043293675053
 30
0.0
 10
-77.71368543631303
 20
-0.1914101599911646
 30
0.0
 10
-77.69307627167609
 20
-0.2267141500903449
 30
0.0
 10
-77.68087834524573
 20
-0.2465494371923
 30
0.0
 10
-77.65660662949989
 20
-0.2839451804708801
 30
0.0
 10
-77.61659907384506
 20
-0.3373754907801754
 30
0.0
 10
-77.60025200940629
 20
-0.3579044173735042
 30
0.0
 10
-77.57568366235824
 20
-0.388725488893499
 30
0.0
 10
-77.53221482961112
 20
-0.436389024127891
 30
0.0
 10
-77.5233583836096
 20
-0.4459148540736351
 30
0.0
 10
-77.50732272249724
 20
-0.4628080136975541
 30
0.0
 10
-77.48859558353922
 20
-0.481858927371377
 30
0.0
 10
-77.47913272484391
 20
-0.4913512027881666
 30
0.0
 10
-77.46017732538883
 20
-0.5100777023933461
 30
0.0
 10
-77.43134316096251
 20
-0.5370515594366339
 30
0.0
 10
-77.42101987072726
 20
-0.5462957044240966
 30
0.0
 10
-77.40749516580064
 20
-0.5588749476451085
 30
0.0
 10
-77.38133261480476
 20
-0.5813858611708725
 30
0.0
 10
-77.38008158835668
 20
-0.5824943531656004
 30
0.0
 10
-77.37489445401377
 20
-0.5868065431341734
 30
0.0
 10
-77.36531069127733
 20
-0.5945335616210059
 30
0.0
 10
-77.35945087196523
 20
-0.5992252958139943
 30
0.0
 10
-77.341256869623
 20
-0.6137423647595029
 30
0.0
 10
-77.32033399697172
 20
-0.6303185447221154
 30
0.0
 10
-77.30648663109178
 20
-0.6412568514626856
 30
0.0
 10
-77.28312489522608
 20
-0.6596462779757531
 30
0.0
 10
-77.26321779991462
 20
-0.6751104550411356
 30
0.0
 10
-77.25546020549728
 20
-0.6810799179482956
 30
0.0
 10
-77.24855051320765
 20
-0.6862144595957603
 30
0.0
 10
-77.24357268080615
 20
-0.689786203242079
 30
0.0
 10
-77.24180307048533
 20
-0.6910663149645302
 30
0.0
 10
-77.22563506826606
 20
-0.7026904894238442
 30
0.0
 10
-77.21256505420007
 20
-0.7118151333921788
 30
0.0
 10
-77.20148756021041
 20
-0.7194673751795336
 30
0.0
 10
-77.16237274334293
 20
-0.7460934945047484
 30
0.0
 10
-77.1327017176414
 20
-0.7649834828738449
 30
0.0
 10
-77.11524348660759
 20
-0.7760100485958788
 30
0.0
 10
-77.09529984919413
 20
-0.7881885718661579
 30
0.0
 10
-77.07635192601376
 20
-0.799474552153697
 30
0.0
  0
LINE
  5
21EF3
330
1F
100
AcDbEntity
  8
SKVIEW1
100
AcDbLine
 10
-74.44688192142383
 20
-2.364062999999987
 30
0.0
 11
-77.0763519214238
 21
-0.7994749999999727
 31
0.0
  0
ARC
  5
21EF4
330
1F
100
AcDbEntity
  8
SKVIEW1
100
AcDbCircle
 10
-80.27137692142378
 20
-12.14851199999998
 30
0.0
 40
11.386848
100
AcDbArc
 50
57.63292599999939
 51
59.23547499999814
  0
LINE
  5
21EF5
330
1F
100
AcDbEntity
  8
SKVIEW1
100
AcDbLine
 10
-83.35006092142378
 20
-0.180498
 30
0.0
 11
-83.28384692142376
 21
-0.1747050000000172
 31
0.0
  0
LINE
  5
21EF6
330
1F
100
AcDbEntity
  8
SKVIEW1
100
AcDbLine
 10
-81.57687392142369
 20
0.5936639999999898
 30
0.0
 11
-78.50346792142381
 21
-0.2298519999999939
 31
0.0
  0
LINE
  5
21EF7
330
1F
100
AcDbEntity
  8
SKVIEW1
100
AcDbLine
 10
-83.26850792142385
 20
-0.4341080000001512
 30
0.0
 11
-83.33585492142379
 21
-0.4251800000000117
 31
0.0
  0
ARC
  5
21EF8
330
1F
100
AcDbEntity
  8
SKVIEW1
100
AcDbCircle
 10
-78.12817992142391
 20
0.0
 30
0.0
 40
5.224999999999996
100
AcDbArc
 50
181.9796810000012
 51
266.9549559999985
  0
LINE
  5
21EF9
330
1F
100
AcDbEntity
  8
SKVIEW1
100
AcDbLine
 10
-80.43662492142379
 20
-4.566056000000003
 30
0.0
 11
-80.46581192142378
 21
-4.672911999999996
 31
0.0
  0
ARC
  5
21EFA
330
1F
100
AcDbEntity
  8
SKVIEW1
100
AcDbCircle
 10
-76.16730092142379
 20
-5.713481999999999
 30
0.0
 40
4.420644999999998
100
AcDbArc
 50
155.2536069999992
 51
164.9566370000005
  0
LINE
  5
21EFB
330
1F
100
AcDbEntity
  8
SKVIEW1
100
AcDbLine
 10
-79.84645992142379
 20
-3.145290000000159
 30
0.0
 11
-80.18181992142382
 21
-3.863070000000163
 31
0.0
  0
SPLINE
  5
21EFC
330
1F
100
AcDbEntity
  8
SKVIEW1
100
AcDbSpline
210
0.0
220
0.0
230
1.0
 70
     8
 71
     5
 72
    30
 73
    24
 74
     0
 42
0.000000001
 43
0.0000000001
 40
0.0
 40
0.0
 40
0.0
 40
0.0
 40
0.0
 40
0.0
 40
27.46890787819352
 40
27.46890787819352
 40
27.46890787819352
 40
38.07893553191076
 40
38.07893553191076
 40
38.07893553191076
 40
43.40645319715878
 40
43.40645319715878
 40
43.40645319715878
 40
49.73511823805431
 40
49.73511823805431
 40
49.73511823805431
 40
51.78944320099215
 40
51.78944320099215
 40
51.78944320099215
 40
53.40576485843856
 40
53.40576485843856
 40
53.40576485843856
 40
54.31140015090413
 40
54.31140015090413
 40
54.31140015090413
 40
54.31140015090413
 40
54.31140015090413
 40
54.31140015090413
 10
-78.50346779438291
 20
-0.2298524268929896
 30
0.0
 10
-78.51853663978608
 20
-0.2674281544661881
 30
0.0
 10
-78.5371888493427
 20
-0.312427221567134
 30
0.0
 10
-78.55826355291725
 20
-0.3615391760988018
 30
0.0
 10
-78.5967876545293
 20
-0.4506051718581148
 30
0.0
 10
-78.67710941221606
 20
-0.6284026994826491
 30
0.0
 10
-78.703816686099
 20
-0.6872298068183227
 30
0.0
 10
-78.75260542354226
 20
-0.7941230067485776
 30
0.0
 10
-78.82504573509078
 20
-0.9515251625530822
 30
0.0
 10
-78.85186701181755
 20
-1.009627259796843
 30
0.0
 10
-78.92151064529286
 20
-1.160388970489805
 30
0.0
 10
-79.01926001315757
 20
-1.371223552441108
 30
0.0
 10
-79.08277545079255
 20
-1.507910104074767
 30
0.0
 10
-79.19013791172244
 20
-1.738681842814344
 30
0.0
 10
-79.3453903514769
 20
-2.071757552067083
 30
0.0
 10
-79.38928441409638
 20
-2.165690910242005
 30
0.0
 10
-79.4725741377041
 20
-2.344437603563392
 30
0.0
 10
-79.56596413978491
 20
-2.544614524906023
 30
0.0
 10
-79.60650592911753
 20
-2.631432485969071
 30
0.0
 10
-79.6787952233401
 20
-2.786268181596142
 30
0.0
 10
-79.7573066309439
 20
-2.954402206089753
 30
0.0
 10
-79.7862845840445
 20
-3.01645562431679
 30
0.0
 10
-79.81599578082068
 20
-3.080069560393155
 30
0.0
 10
-79.8464595986612
 20
-3.145289851628774
 30
0.0
  0
SPLINE
  5
21EFD
330
1F
100
AcDbEntity
  8
SKVIEW1
100
AcDbSpline
210
0.0
220
0.0
230
1.0
 70
     8
 71
     5
 72
    57
 73
    51
 74
     0
 42
0.000000001
 43
0.0000000001
 40
0.0
 40
0.0
 40
0.0
 40
0.0
 40
0.0
 40
0.0
 40
24.7286277453748
 40
24.7286277453748
 40
24.7286277453748
 40
61.8210527954297
 40
61.8210527954297
 40
61.8210527954297
 40
86.54935947788381
 40
86.54935947788381
 40
86.54935947788381
 40
98.91360291477717
 40
98.91360291477717
 40
98.91360291477717
 40
111.2780731586323
 40
111.2780731586323
 40
111.2780731586323
 40
118.5545751245098
 40
118.5545751245098
 40
118.5545751245098
 40
120.1575537424125
 40
120.1575537424125
 40
120.1575537424125
 40
121.4852129589463
 40
121.4852129589463
 40
121.4852129589463
 40
122.3651046583887
 40
122.3651046583887
 40
122.3651046583887
 40
122.4234375690366
 40
122.4234375690366
 40
122.4234375690366
 40
122.4817704796846
 40
122.4817704796846
 40
122.4817704796846
 40
122.5962183987453
 40
122.5962183987453
 40
122.5962183987453
 40
122.6748894604638
 40
122.6748894604638
 40
122.6748894604638
 40
122.7142277408341
 40
122.7142277408341
 40
122.7142277408341
 40
123.0529527913867
 40
123.0529527913867
 40
123.0529527913867
 40
124.0079914901107
 40
124.0079914901107
 40
124.0079914901107
 40
124.0079914901107
 40
124.0079914901107
 40
124.0079914901107
 10
-78.50346779438291
 20
-0.2298524268929896
 30
0.0
 10
-78.48990103116313
 20
-0.1960222969036067
 30
0.0
 10
-78.48265704751208
 20
-0.1703027043591305
 30
0.0
 10
-78.47734668709842
 20
-0.1480605471439844
 30
0.0
 10
-78.4681021418595
 20
-0.0961835865658714
 30
0.0
 10
-78.4670870207978
 20
-0.0528359384161945
 30
0.0
 10
-78.46843274144379
 20
-0.0282116208231855
 30
0.0
 10
-78.47395864543381
 20
0.01339028776016
 30
0.0
 10
-78.48595670416319
 20
0.0589359599183581
 30
0.0
 10
-78.49191475056511
 20
0.0780973107569025
 30
0.0
 10
-78.50311090786272
 20
0.1094164030588445
 30
0.0
 10
-78.52063280013528
 20
0.1479972438164054
 30
0.0
 10
-78.52743091269423
 20
0.1620043298781866
 30
0.0
 10
-78.54267440684203
 20
0.1914101605601672
 30
0.0
 10
-78.56328357157088
 20
0.2267141507617794
 30
0.0
 10
-78.5754814980736
 20
0.246549437943429
 30
0.0
 10
-78.59975321400321
 20
0.283945181434035
 30
0.0
 10
-78.63976077003633
 20
0.3373754921228169
 30
0.0
 10
-78.6561078345938
 20
0.3579044187895874
 30
0.0
 10
-78.68067618174222
 20
0.3887254904067276
 30
0.0
 10
-78.72414501515556
 20
0.4363890262073369
 30
0.0
 10
-78.73300146127388
 20
0.4459148562357314
 30
0.0
 10
-78.74903712210908
 20
0.4628080155678731
 30
0.0
 10
-78.76776426030852
 20
0.4818589284366795
 30
0.0
 10
-78.77722711939805
 20
0.4913512042151638
 30
0.0
 10
-78.79618251936301
 20
0.5100777042798655
 30
0.0
 10
-78.82501668596541
 20
0.5370515631798867
 30
0.0
 10
-78.83533997778574
 20
0.5462957096121386
 30
0.0
 10
-78.84886468261573
 20
0.5588749525916228
 30
0.0
 10
-78.87502723335922
 20
0.5813858657366496
 30
0.0
 10
-78.87627826048401
 20
0.582494358260874
 30
0.0
 10
-78.88146540039179
 20
0.5868065525478983
 30
0.0
 10
-78.89104916713853
 20
0.5945335741121767
 30
0.0
 10
-78.89690898715179
 20
0.5992253088201096
 30
0.0
 10
-78.91510299092101
 20
0.6137423788034653
 30
0.0
 10
-78.93602586226427
 20
0.6303185576776969
 30
0.0
 10
-78.94987322709727
 20
0.6412568635572029
 30
0.0
 10
-78.97323496158662
 20
0.6596462889164059
 30
0.0
 10
-78.99314205375839
 20
0.6751104633999035
 30
0.0
 10
-79.00089964672059
 20
0.6810799250824858
 30
0.0
 10
-79.00780933497571
 20
0.6862144634494598
 30
0.0
 10
-79.01278716723351
 20
0.6897862069737358
 30
0.0
 10
-79.01455677767279
 20
0.6910663187886144
 30
0.0
 10
-79.03072477973205
 20
0.7026904930577871
 30
0.0
 10
-79.04379479385653
 20
0.7118151370102055
 30
0.0
 10
-79.0548722881021
 20
0.7194673789408057
 30
0.0
 10
-79.09398710304924
 20
0.7460934967778031
 30
0.0
 10
-79.1236581282144
 20
0.7649834847672424
 30
0.0
 10
-79.14111635766954
 20
0.7760100494693348
 30
0.0
 10
-79.16105999433273
 20
0.7881885722708831
 30
0.0
 10
-79.18000791683386
 20
0.799474552153697
 30
0.0
  0
LINE
  5
21EFE
330
1F
100
AcDbEntity
  8
SKVIEW1
100
AcDbLine
 10
-79.18000792142379
 20
0.799474999999859
 30
0.0
 11
-81.47688492142378
 21
1.414920999999878
 31
0.0
  0
LINE
  5
21EFF
330
1F
100
AcDbEntity
  8
SKVIEW1
100
AcDbLine
 10
-81.80947792142388
 20
2.364062999999873
 30
0.0
 11
-79.18000792142379
 21
0.799474999999859
 31
0.0
  0
ARC
  5
21F00
330
1F
100
AcDbEntity
  8
SKVIEW1
100
AcDbCircle
 10
-75.9849829214238
 20
12.14851199999987
 30
0.0
 40
11.386848
100
AcDbArc
 50
237.6329259999994
 51
239.235475000002
  0
ARC
  5
21F01
330
1F
100
AcDbEntity
  8
SKVIEW1
100
AcDbCircle
 10
-78.12817992142391
 20
0.0
 30
0.0
 40
5.116423999999998
100
AcDbArc
 50
63.18036500000046
 51
144.0178359999997
  0
ARC
  5
21F02
330
1F
100
AcDbEntity
  8
SKVIEW1
100
AcDbCircle
 10
-78.12817992142391
 20
0.0
 30
0.0
 40
4.375014
100
AcDbArc
 50
62.00452399999909
 51
147.2921570000012
  0
ARC
  5
21F03
330
1F
100
AcDbEntity
  8
SKVIEW1
100
AcDbCircle
 10
-78.12817992142391
 20
0.0
 30
0.0
 40
8.07
100
AcDbArc
 50
90.0
 51
131.1125090000011
  0
ARC
  5
21F04
330
1F
100
AcDbEntity
  8
SKVIEW1
100
AcDbCircle
 10
-78.12817992142391
 20
0.0
 30
0.0
 40
8.449999999999999
100
AcDbArc
 50
90.0
 51
129.0271069999991
  0
ARC
  5
21F05
330
1F
100
AcDbEntity
  8
SKVIEW1
100
AcDbCircle
 10
-78.12817992142391
 20
0.0
 30
0.0
 40
4.375014
100
AcDbArc
 50
242.004523999999
 51
327.2921570000012
  0
ARC
  5
21F06
330
1F
100
AcDbEntity
  8
SKVIEW1
100
AcDbCircle
 10
-78.12817992142391
 20
0.0
 30
0.0
 40
5.116423999999998
100
AcDbArc
 50
243.1803650000004
 51
324.0178359999998
  0
ARC
  5
21F07
330
1F
100
AcDbEntity
  8
SKVIEW1
100
AcDbCircle
 10
-78.42817992142386
 20
-5.639525999999818
 30
0.0
 40
0.4225
100
AcDbArc
 50
315.2397299999997
 51
86.954966
  0
LINE
  5
21F08
330
1F
100
AcDbEntity
  8
SKVIEW1
100
AcDbLine
 10
-78.12817992142391
 20
-8.069999999999822
 30
0.0
 11
-78.12817992142391
 21
-5.937026000000116
 31
0.0
  0
ARC
  5
21F09
330
1F
100
AcDbEntity
  8
SKVIEW1
100
AcDbCircle
 10
-78.12817992142391
 20
0.0
 30
0.0
 40
8.07
100
AcDbArc
 50
270.0
 51
311.1125090000011
  0
ARC
  5
21F0A
330
1F
100
AcDbEntity
  8
SKVIEW1
100
AcDbCircle
 10
-78.12817992142391
 20
0.0
 30
0.0
 40
8.449999999999999
100
AcDbArc
 50
270.0
 51
309.0271069999992
  0
LINE
  5
21F0B
330
1F
100
AcDbEntity
  8
SKVIEW1
100
AcDbLine
 10
-78.12817992142391
 20
-8.069999999999822
 30
0.0
 11
-78.12817992142391
 21
-8.449999999999818
 31
0.0
  0
LINE
  5
21F14
330
1F
100
AcDbEntity
  8
1
100
AcDbLine
 10
29.92000000000371
 20
8.449999999999874
 30
0.0
 11
29.12000000000364
 21
8.449999999999874
 31
0.0
  0
LINE
  5
21F15
330
1F
100
AcDbEntity
  8
1
100
AcDbLine
 10
30.57817900000373
 20
8.069999999999879
 30
0.0
 11
29.92000000000371
 21
8.449999999999874
 31
0.0
  0
LINE
  5
21F16
330
1F
100
AcDbEntity
  8
1
100
AcDbLine
 10
30.95428000000373
 20
5.937026000000173
 30
0.0
 11
30.57817900000373
 21
8.069999999999879
 31
0.0
  0
LINE
  5
21F17
330
1F
100
AcDbEntity
  8
1
100
AcDbLine
 10
31.05929500000366
 20
5.341459999999869
 30
0.0
 11
30.95428000000373
 21
5.937026000000173
 31
0.0
  0
ARC
  5
21F18
330
1F
100
AcDbEntity
  8
1
100
AcDbCircle
 10
34.26119200000363
 20
5.674008000000014
 30
0.0
 40
3.211
100
AcDbArc
 50
189.9999999999986
 51
203.8626190000035
  0
LINE
  5
21F19
330
1F
100
AcDbEntity
  8
1
100
AcDbLine
 10
33.26000000000374
 20
0.0
 30
0.0
 11
31.32467500000365
 21
4.375014000000021
 31
0.0
  0
LINE
  5
21F1A
330
1F
100
AcDbEntity
  8
1
100
AcDbLine
 10
23.96000000000368
 20
7.453764999999862
 30
0.0
 11
23.96000000000368
 21
2.840795223681709
 31
0.0
  0
DIMENSION
  5
21F1C
330
1F
100
AcDbEntity
  8
SK2
100
AcDbDimension
280
     0
  2
*D16
 10
-30.06722024185808
 20
-7.199999999999813
 30
0.0
 11
-30.06722024185808
 21
0.0000000000002132
 31
0.0
 70
   160
  1
%%C<>
 71
     5
 42
14.39999999999997
 73
     0
 74
     0
 75
     0
  3
STANDARD
100
AcDbAlignedDimension
 13
-14.69999999999629
 23
7.200000000000159
 33
0.0
 14
-14.69999999999629
 24
-7.199999999999818
 34
0.0
 50
90.0
100
AcDbRotatedDimension
1001
ACAD_DSTYLE_DIMARC_LENGTH_SYMBOL
1070
   379
1070
     1
1001
ACAD_DSTYLE_DIM_LINETYPE
1070
   380
1005
14
1001
ACAD_DSTYLE_DIM_EXT1_LINETYPE
1070
   381
1005
14
1001
ACAD_DSTYLE_DIM_EXT2_LINETYPE
1070
   382
1005
14
1001
ACAD
1000
DSTYLE
1002
{
1070
   172
1070
     1
1002
}
  0
LINE
  5
2209D
330
1F
100
AcDbEntity
  8
4
100
AcDbLine
 10
0.0000000000037517
 20
0.0
 30
0.0
 11
35.67118100000369
 21
0.0
 31
0.0
  0
LWPOLYLINE
  5
220A4
330
1F
100
AcDbEntity
  8
CUT
 48
0.240324
100
AcDbPolyline
 90
       19
 70
     0
 43
0.0
 10
31.09897343314475
 20
5.116423935530008
 10
31.05929443314483
 20
5.341459935530167
 10
30.95428000000373
 20
5.937026000000173
 10
30.57817900000373
 20
8.069999999999879
 10
29.92000000000371
 20
8.449999999999874
 10
29.12000000000364
 20
8.449999999999874
 10
29.12000000000381
 20
17.70000000000016
 42
0.4142135623730951
 10
28.3200000000038
 20
18.50000000000017
 10
18.3000000000037
 20
18.50000000000015
 42
0.4142135623730951
 10
17.50000000000375
 20
17.70000000000016
 10
17.50000000000369
 20
7.680000000000006
 42
0.4142135623730951
 10
18.3000000000037
 20
6.879999999999995
 10
23.96000000000373
 20
6.879999999999881
 10
23.96000000000368
 20
6.407192000000009
 10
23.96000000000368
 20
2.840723000000139
 10
23.96000000000368
 20
0.0
 10
33.26000000000374
 20
0.0
 10
31.32467443314459
 20
4.375013935530063
 42
-0.0605609620260563
 10
31.09897430508141
 20
5.116423701511578
  0
LWPOLYLINE
  5
220B6
330
1F
100
AcDbEntity
  8
NOCUT
370
    18
100
AcDbPolyline
 90
        9
 70
     1
 43
0.0
 10
0.000000000003638
 20
7.199999999999988
 10
-14.69999999999635
 20
7.199999999999988
 10
-14.69999999999635
 20
3.451864
 10
-14.69999999999629
 20
0.0
 10
28.12000000000364
 20
0.0
 10
28.12000000000364
 20
8.749516000000141
 10
28.12000000000364
 20
18.25
 10
0.000000000003638
 20
18.25
 10
0.000000000003638
 20
8.749516000000141
  0
VIEWPORT
  5
9C00
330
1B
100
AcDbEntity
 67
     1
  8
0
348
3195
100
AcDbViewport
 10
108.2280559557949
 20
71.69854161746989
 30
0.0
 40
251.8950231529317
 41
201.8884082081047
 68
     1
 69
     1
 12
108.2280559557949
 22
71.69854161746989
 13
0.0
 23
0.0
 14
10.0
 24
10.0
 15
10.0
 25
10.0
 16
0.0
 26
0.0
 36
1.0
 17
0.0
 27
0.0
 37
0.0
 42
50.0
 43
0.0
 44
0.0
 45
201.8884082081047
 50
0.0
 51
0.0
 72
   100
 90
   557088
  1

281
     0
 71
     1
 74
     0
110
0.0
120
0.0
130
0.0
111
1.0
121
0.0
131
0.0
112
0.0
122
1.0
132
0.0
 79
     0
146
0.0
170
     0
 61
     5
292
     1
282
     1
141
0.0
142
0.0
 63
   250
421
  3355443
  0
VIEWPORT
  5
9C02
330
1B
100
AcDbEntity
 67
     1
  8
1
348
3195
100
AcDbViewport
 10
143.457083940506
 20
98.18158769607544
 30
0.0
 40
229.5313343048095
 41
157.0905403137207
 68
     2
 69
     2
 12
-44.37697124786255
 22
-35.12342998133886
 13
0.0
 23
0.0
 14
10.0
 24
10.0
 15
10.0
 25
10.0
 16
0.0
 26
0.0
 36
1.0
 17
0.0
 27
0.0
 37
0.0
 42
50.0
 43
0.0
 44
0.0
 45
300.3886240724386
 50
0.0
 51
0.0
 72
   100
 90
   557088
  1

281
     0
 71
     1
 74
     0
110
0.0
120
0.0
130
0.0
111
1.0
121
0.0
131
0.0
112
0.0
122
1.0
132
0.0
 79
     0
146
0.0
170
     0
 61
     5
348
3195
292
     1
282
     1
141
0.0
142
0.0
 63
   250
421
  3355443
  0
ENDSEC
  0
SECTION
  2
OBJECTS
  0
DICTIONARY
  5
3182
330
0
100
AcDbDictionary
281
     1
  3
ACAD_CIP_PREVIOUS_PRODUCT_INFO
350
1B2F4
  3
ACAD_COLOR
350
31A0
  3
ACAD_DETAILVIEWSTYLE
350
1B2F0
  3
ACAD_FIELDLIST
350
20CBF
  3
ACAD_GROUP
350
3183
  3
ACAD_LAYOUT
350
31A5
  3
ACAD_MATERIAL
350
318B
  3
ACAD_MLEADERSTYLE
350
1B221
  3
ACAD_MLINESTYLE
350
3184
  3
ACAD_PLOTSETTINGS
350
31A4
  3
ACAD_PLOTSTYLENAME
350
3189
  3
ACAD_SCALELIST
350
1B1FC
  3
ACAD_SECTIONVIEWSTYLE
350
1B2EE
  3
ACAD_TABLESTYLE
350
31A1
  3
ACAD_VISUALSTYLE
350
318F
  3
ACDB_RECOMPOSE_DATA
350
220EF
  3
AcDbVariableDictionary
350
33A3
  0
DICTIONARY
  5
422A
330
2
100
AcDbDictionary
280
     1
281
     1
  3
ACAD_LAYERFILTERS
360
1B063
  3
ACAD_LAYERSTATES
360
9A1C
  3
ACLYDICTIONARY
360
1B062
  0
DICTIONARY
  5
1B2F5
330
10
100
AcDbDictionary
280
     1
281
     1
  3
ADSK_XREC_LAYER_RECONCILED
360
21B8E
  0
DICTIONARY
  5
1B2F7
330
3F8C
100
AcDbDictionary
280
     1
281
     1
  3
ADSK_XREC_LAYER_RECONCILED
360
21B8F
  0
DICTIONARY
  5
1B2F9
330
9C4A
100
AcDbDictionary
280
     1
281
     1
  3
ADSK_XREC_LAYER_RECONCILED
360
21B90
  0
DICTIONARY
  5
1B2FB
330
9C4B
100
AcDbDictionary
280
     1
281
     1
  3
ADSK_XREC_LAYER_RECONCILED
360
21B91
  0
DICTIONARY
  5
1B2FD
330
9C4D
100
AcDbDictionary
280
     1
281
     1
  3
ADSK_XREC_LAYER_RECONCILED
360
21B92
  0
DICTIONARY
  5
1B2FF
330
9C4E
100
AcDbDictionary
280
     1
281
     1
  3
ADSK_XREC_LAYER_RECONCILED
360
21B93
  0
DICTIONARY
  5
1B301
330
9C4F
100
AcDbDictionary
280
     1
281
     1
  3
ADSK_XREC_LAYER_RECONCILED
360
21B94
  0
DICTIONARY
  5
1B303
330
9C50
100
AcDbDictionary
280
     1
281
     1
  3
ADSK_XREC_LAYER_RECONCILED
360
21B95
  0
DICTIONARY
  5
1B307
330
13335
100
AcDbDictionary
280
     1
281
     1
  3
ADSK_XREC_LAYER_RECONCILED
360
21B97
  0
DICTIONARY
  5
1B309
330
1686E
100
AcDbDictionary
280
     1
281
     1
  3
ADSK_XREC_LAYER_RECONCILED
360
21B98
  0
DICTIONARY
  5
339C
330
1F
100
AcDbDictionary
280
     1
281
     1
  3
ACAD_SORTENTS
360
339D
  0
DICTIONARY
  5
1DE81
330
1B3D7
100
AcDbDictionary
280
     1
281
     1
  0
XRECORD
  5
1B2F4
102
{ACAD_REACTORS
330
3182
102
}
330
3182
100
AcDbXrecord
280
     1
300
ACDLT
300
2015
300
ACDLT_F_S
  0
DICTIONARY
  5
31A0
102
{ACAD_REACTORS
330
3182
102
}
330
3182
100
AcDbDictionary
281
     1
  0
DICTIONARY
  5
1B2F0
102
{ACAD_REACTORS
330
3182
102
}
330
3182
100
AcDbDictionary
281
     1
  3
Imperial24
350
20CB3
  3
Metric50
350
1B2F1
  0
FIELDLIST
  5
20CBF
102
{ACAD_REACTORS
330
3182
102
}
330
3182
100
AcDbIdSet
 90
        0
100
AcDbFieldList
  0
DICTIONARY
  5
3183
102
{ACAD_REACTORS
330
3182
102
}
330
3182
100
AcDbDictionary
281
     1
  0
DICTIONARY
  5
31A5
102
{ACAD_REACTORS
330
3182
102
}
330
3182
100
AcDbDictionary
281
     1
  3
Layout1
350
31A7
  3
Model
350
31A6
  0
DICTIONARY
  5
318B
102
{ACAD_REACTORS
330
3182
102
}
330
3182
100
AcDbDictionary
281
     1
  3
ByBlock
350
318D
  3
ByLayer
350
318C
  3
Global
350
318E
  0
DICTIONARY
  5
1B221
102
{ACAD_REACTORS
330
3182
102
}
330
3182
100
AcDbDictionary
281
     1
  3
Standard
350
1B2ED
  0
DICTIONARY
  5
3184
102
{ACAD_REACTORS
330
3182
102
}
330
3182
100
AcDbDictionary
281
     1
  3
STANDARD
350
3185
  0
DICTIONARY
  5
31A4
102
{ACAD_REACTORS
330
3182
102
}
330
3182
100
AcDbDictionary
281
     1
  0
ACDBDICTIONARYWDFLT
  5
3189
102
{ACAD_REACTORS
330
3182
102
}
330
3182
100
AcDbDictionary
281
     1
  3
Normal
350
318A
100
AcDbDictionaryWithDefault
340
318A
  0
DICTIONARY
  5
1B1FC
102
{ACAD_REACTORS
330
3182
102
}
330
3182
100
AcDbDictionary
281
     1
  3
A0
350
1B1FD
  3
A1
350
1B1FE
  3
A2
350
1B1FF
  3
A3
350
1B200
  3
A4
350
1B201
  3
A5
350
1B202
  3
A6
350
1B203
  3
A7
350
1B204
  3
A8
350
1B205
  3
A9
350
1B206
  3
B0
350
1B207
  3
B1
350
1B208
  3
B2
350
1B209
  3
B3
350
1B20A
  3
B4
350
1B20B
  3
B5
350
1B20C
  3
B6
350
1B20D
  3
B7
350
1B20E
  3
B8
350
1B20F
  3
B9
350
1B210
  3
C0
350
1B211
  3
C1
350
1B212
  3
C2
350
1B213
  3
C3
350
1B214
  3
C4
350
1B215
  3
C5
350
1B216
  3
C6
350
1B217
  3
C7
350
1B218
  3
C8
350
1B219
  3
C9
350
1B21A
  3
D0
350
1B21B
  3
D1
350
1B21C
  3
D2
350
1B21D
  0
DICTIONARY
  5
1B2EE
102
{ACAD_REACTORS
330
3182
102
}
330
3182
100
AcDbDictionary
281
     1
  3
Imperial24
350
20CB1
  3
Metric50
350
1B2EF
  0
DICTIONARY
  5
31A1
102
{ACAD_REACTORS
330
3182
102
}
330
3182
100
AcDbDictionary
281
     1
  3
Standard
350
31A2
  0
DICTIONARY
  5
318F
102
{ACAD_REACTORS
330
3182
102
}
330
3182
100
AcDbDictionary
281
     1
  3
2dWireframe
350
3195
  3
3D Hidden
350
3197
  3
3dWireframe
350
3196
  3
Basic
350
3194
  3
Brighten
350
319B
  3
ColorChange
350
319F
  3
Conceptual
350
3198
  3
Dim
350
319A
  3
EdgeColorOff
350
1B2EC
  3
Facepattern
350
319E
  3
Flat
350
3190
  3
FlatWithEdges
350
3191
  3
Gouraud
350
3192
  3
GouraudWithEdges
350
3193
  3
Hidden
350
1B2E4
  3
JitterOff
350
1B2EA
  3
Linepattern
350
319D
  3
OverhangOff
350
1B2EB
  3
Realistic
350
3199
  3
Shaded
350
1B2E9
  3
Shaded with edges
350
1B2E8
  3
Shades of Gray
350
1B2E5
  3
Sketchy
350
1B2E6
  3
Thicken
350
319C
  3
Wireframe
350
1B2E3
  3
X-Ray
350
1B2E7
  0
XRECORD
  5
220EF
102
{ACAD_REACTORS
330
3182
102
}
330
3182
100
AcDbXrecord
280
     1
 90
        1
330
31A2
  0
DICTIONARY
  5
33A3
102
{ACAD_REACTORS
330
3182
102
}
330
3182
100
AcDbDictionary
281
     1
  3
CANNOSCALE
350
1B222
  3
CMLEADERSTYLE
350
1B30F
  3
CTABLESTYLE
350
33A4
  3
CVIEWDETAILSTYLE
350
1B310
  3
CVIEWSECTIONSTYLE
350
1B311
  3
DIMASSOC
350
9BE8
  3
INDEXCTL
350
9BE7
  3
LAYEREVAL
350
20993
  3
LAYERNOTIFY
350
20994
  3
LIGHTINGUNITS
350
20992
  3
MSLTSCALE
350
20991
  3
SORTENTS
350
9BE6
  0
DICTIONARY
  5
1B063
102
{ACAD_REACTORS
330
422A
102
}
330
422A
100
AcDbDictionary
281
     1
  0
DICTIONARY
  5
9A1C
102
{ACAD_REACTORS
330
422A
102
}
330
422A
100
AcDbDictionary
281
     1
  0
DICTIONARY
  5
1B062
102
{ACAD_REACTORS
330
422A
102
}
330
422A
100
AcDbDictionary
281
     1
1001
ACAD
1000
<All
  0
XRECORD
  5
21B8E
102
{ACAD_REACTORS
330
1B2F5
102
}
330
1B2F5
100
AcDbXrecord
280
     1
290
     1
  0
XRECORD
  5
21B8F
102
{ACAD_REACTORS
330
1B2F7
102
}
330
1B2F7
100
AcDbXrecord
280
     1
290
     1
  0
XRECORD
  5
21B90
102
{ACAD_REACTORS
330
1B2F9
102
}
330
1B2F9
100
AcDbXrecord
280
     1
290
     1
  0
XRECORD
  5
21B91
102
{ACAD_REACTORS
330
1B2FB
102
}
330
1B2FB
100
AcDbXrecord
280
     1
290
     1
  0
XRECORD
  5
21B92
102
{ACAD_REACTORS
330
1B2FD
102
}
330
1B2FD
100
AcDbXrecord
280
     1
290
     1
  0
XRECORD
  5
21B93
102
{ACAD_REACTORS
330
1B2FF
102
}
330
1B2FF
100
AcDbXrecord
280
     1
290
     1
  0
XRECORD
  5
21B94
102
{ACAD_REACTORS
330
1B301
102
}
330
1B301
100
AcDbXrecord
280
     1
290
     1
  0
XRECORD
  5
21B95
102
{ACAD_REACTORS
330
1B303
102
}
330
1B303
100
AcDbXrecord
280
     1
290
     1
  0
XRECORD
  5
21B97
102
{ACAD_REACTORS
330
1B307
102
}
330
1B307
100
AcDbXrecord
280
     1
290
     1
  0
XRECORD
  5
21B98
102
{ACAD_REACTORS
330
1B309
102
}
330
1B309
100
AcDbXrecord
280
     1
290
     1
  0
SORTENTSTABLE
  5
339D
102
{ACAD_REACTORS
330
339C
102
}
330
339C
100
AcDbSortentsTable
330
1F
331
21F08
  5
21F1B
331
21EF9
  5
21F0C
331
21E60
  5
21E71
331
21EEA
  5
21EFD
331
21EDB
  5
21EEE
331
21ED6
  5
21EE9
331
21E5E
  5
21E6F
331
21EC7
  5
21EDA
331
21E4F
  5
21E5D
331
21EB8
  5
21ECB
331
21E40
  5
21E4C
331
21EA9
  5
21EBC
331
21E31
  5
21E3D
331
21E9A
  5
21EAD
331
21E22
  5
21E27
331
21E8B
  5
21E9E
331
21E13
  5
21E18
331
21F15
  5
220B7
331
21E7C
  5
21E8F
331
21E04
  5
21E08
331
21F06
  5
21F19
331
21E6D
  5
21E7E
331
21EF7
  5
21F0A
331
21DF5
  5
21DF5
331
21ED1
  5
21EE4
331
21E59
  5
21E6A
331
21EC2
  5
21ED5
331
21E4A
  5
21E56
331
21EB3
  5
21EC6
331
21E3B
  5
21E47
331
21EA4
  5
21EB7
331
21E95
  5
21EA8
331
21E1D
  5
21E22
331
21E86
  5
21E99
331
21E0E
  5
21E13
331
21E77
  5
21E8A
331
21F01
  5
21F14
331
21E68
  5
21E79
331
21DFF
  5
21E03
331
21EE3
  5
21EF6
331
21ECF
  5
21EE2
331
21EF2
  5
21F05
331
21E90
  5
21EA3
331
21E18
  5
21E1D
331
21F1A
  5
220BC
331
21E81
  5
21E94
331
21E09
  5
21E0E
331
21F0B
  5
220AD
331
21E72
  5
21E85
331
21EFC
  5
21F0F
331
21E63
  5
21E77
331
21EED
  5
21F00
331
21EDE
  5
21EF1
331
21ECA
  5
21EDD
331
21E52
  5
21E60
331
21EBB
  5
21ECE
331
21E43
  5
21E4F
331
21EAC
  5
21EBF
331
21E34
  5
21E40
331
21E9D
  5
21EB0
331
21E25
  5
21E2A
331
21E8E
  5
21EA1
331
21E16
  5
21E1B
331
21E07
  5
21E0C
331
21DFA
  5
21DFA
331
21EE8
  5
21EFB
331
21ED9
  5
21EEC
331
21ED4
  5
21EE7
331
21E5C
  5
21E6D
331
21EC5
  5
21ED8
331
21E4D
  5
21E5B
331
21EB6
  5
21EC9
331
21E3E
  5
21E4A
331
21EA7
  5
21EBA
331
21E98
  5
21EAB
331
21E20
  5
21E25
331
21E89
  5
21E9C
331
21E11
  5
21E16
331
21E7A
  5
21E8D
331
21F04
  5
21F17
331
21E6B
  5
21E7C
331
21EF5
  5
21F08
331
21E02
  5
21E06
331
21EE6
  5
21EF9
331
21EC0
  5
21ED3
331
21E48
  5
21E54
331
21EB1
  5
21EC4
331
21E39
  5
21E45
331
21EA2
  5
21EB5
331
220A4
  5
220BD
331
21E93
  5
21EA6
331
21E1B
  5
21E20
331
21E84
  5
21E97
331
21E0C
  5
21E11
331
21EFF
  5
21F12
331
21E75
  5
21E88
331
21EF0
  5
21F03
331
21EE1
  5
21EF4
331
21ECD
  5
21EE0
331
21E55
  5
21E63
331
21EBE
  5
21ED1
331
21E46
  5
21E52
331
21EAF
  5
21EC2
331
21E37
  5
21E43
331
21DFD
  5
21DFD
331
21F18
  5
220BA
331
21F09
  5
2209D
331
21E70
  5
21E82
331
21EFA
  5
21F0D
331
21E61
  5
21E72
331
21EEB
  5
21EFE
331
21EDC
  5
21EEF
331
21ED7
  5
21EEA
331
21E5F
  5
21E70
331
21EC8
  5
21EDB
331
21E50
  5
21E5E
331
21EB9
  5
21ECC
331
21E41
  5
21E4D
331
21EAA
  5
21EBD
331
21E32
  5
21E3E
331
21E9B
  5
21EAE
331
21E23
  5
21E28
331
21E8C
  5
21E9F
331
21E14
  5
21E19
331
21F16
  5
220B8
331
21E7D
  5
21E90
331
21E05
  5
21E09
331
2209D
  5
21DFE
331
21DF8
  5
21DF8
331
21F07
  5
21F1A
331
21E6E
  5
21E7F
331
21DF6
  5
21DF6
331
21ED2
  5
21EE5
331
21E5A
  5
21E6B
331
21EC3
  5
21ED6
331
21E4B
  5
21E57
331
21EB4
  5
21EC7
331
21E3C
  5
21E48
331
220B6
  5
220B5
331
21EA5
  5
21EB8
331
21E96
  5
21EA9
331
21E1E
  5
21E23
331
21E87
  5
21E9A
331
21E0F
  5
21E14
331
21E78
  5
21E8B
331
21F02
  5
21F15
331
21E69
  5
21E7A
331
21EF3
  5
21F06
331
21EE4
  5
21EF7
331
21DF1
  5
21DF1
331
21EA0
  5
21EB3
331
21E28
  5
21E34
331
21E91
  5
21EA4
331
21E19
  5
21E1E
331
21E82
  5
21E96
331
21E0A
  5
21E0F
331
21EFD
  5
21F10
331
21E73
  5
21E86
331
21EEE
  5
21F01
331
21EDF
  5
21EF2
331
21ECB
  5
21EDE
331
21E53
  5
21E61
331
21EBC
  5
21ECF
331
21E44
  5
21E50
331
21EAD
  5
21EC0
331
21E35
  5
21E41
331
21E9E
  5
21EB1
331
21E26
  5
21E32
331
21E8F
  5
21EA2
331
21E17
  5
21E1C
331
21DFB
  5
21DFB
331
21EF8
  5
21F0B
331
21EE9
  5
21EFC
331
21EDA
  5
21EED
331
21ED5
  5
21EE8
331
21E5D
  5
21E6E
331
21EC6
  5
21ED9
331
21E4E
  5
21E5C
331
21EB7
  5
21ECA
331
21E3F
  5
21E4B
331
21EA8
  5
21EBB
331
21E99
  5
21EAC
331
21E21
  5
21E26
331
21E8A
  5
21E9D
331
21E12
  5
21E17
331
21F14
  5
220B6
331
21E7B
  5
21E8E
331
21F05
  5
21F18
331
21E6C
  5
21E7D
331
21EF6
  5
21F09
331
21E03
  5
21E07
331
21EE7
  5
21EFA
331
21ED0
  5
21EE3
331
21EC1
  5
21ED4
331
21E49
  5
21E55
331
21EB2
  5
21EC5
331
21E3A
  5
21E46
331
21EA3
  5
21EB6
331
21E94
  5
21EA7
331
21E1C
  5
21E21
331
21E85
  5
21E98
331
21E0D
  5
21E12
331
21E76
  5
21E89
331
21F00
  5
21F13
331
21E67
  5
21E78
331
21EF1
  5
21F04
331
21EE2
  5
21EF5
331
21ECE
  5
21EE1
331
21E56
  5
21E69
331
21EBF
  5
21ED2
331
21E47
  5
21E53
331
211A0
  5
211A0
331
21F19
  5
220BB
331
21E80
  5
21E93
331
21E08
  5
21E0D
331
21F0A
  5
220A4
331
21E71
  5
21E83
331
21EFB
  5
21F0E
331
21E62
  5
21E73
331
21EEC
  5
21EFF
331
21EDD
  5
21EF0
331
21EC9
  5
21EDC
331
21E51
  5
21E5F
331
21EBA
  5
21ECD
331
21E42
  5
21E4E
331
21EAB
  5
21EBE
331
21E33
  5
21E3F
331
21E9C
  5
21EAF
331
21E24
  5
21E29
331
21E8D
  5
21EA0
331
21E15
  5
21E1A
331
21F17
  5
220B9
331
21E7E
  5
21E92
331
21DF9
  5
21DF9
331
21E6F
  5
21E81
331
21DF7
  5
21DF7
331
21ED8
  5
21EEB
331
21ED3
  5
21EE6
331
21E5B
  5
21E6C
331
21EC4
  5
21ED7
331
21E4C
  5
21E5A
331
21EB5
  5
21EC8
331
21E3D
  5
21E49
331
21EA6
  5
21EB9
331
21E97
  5
21EAA
331
21E1F
  5
21E24
331
21E88
  5
21E9B
331
21E10
  5
21E15
331
21E79
  5
21E8C
331
21F03
  5
21F16
331
21EF4
  5
21F07
331
21E6A
  5
21E7B
331
21EE5
  5
21EF8
331
21EB0
  5
21EC3
331
21E38
  5
21E44
331
21EA1
  5
21EB4
331
21E29
  5
21E3C
331
21E92
  5
21EA5
331
21E1A
  5
21E1F
331
21F1C
  5
220BE
331
21E0B
  5
21E10
331
21EFE
  5
21F11
331
21E74
  5
21E87
331
21EEF
  5
21F02
331
21EE0
  5
21EF3
331
21ECC
  5
21EDF
331
21E54
  5
21E62
331
21EBD
  5
21ED0
331
21E45
  5
21E51
331
21EAE
  5
21EC1
331
21E36
  5
21E42
331
21E9F
  5
21EB2
331
21E27
  5
21E33
331
21DFC
  5
21DFC
  0
ACDBDETAILVIEWSTYLE
  5
20CB3
102
{ACAD_XDICTIONARY
360
2212A
102
}
102
{ACAD_REACTORS
330
1B2F0
102
}
330
1B2F0
100
AcDbModelDocViewStyle
 70
     0
  3
Imperial24
290
     0
100
AcDbDetailViewStyle
 70
     0
 71
     0
 90
        3
 71
     1
340
11
 62
   256
 40
0.24
340
0
 62
   256
 40
0.24
300

 40
0.36
280
     3
 71
     2
340
16
 90
       25
 62
   256
 71
     3
340
11
 62
   256
 40
0.24
 90
        1
 40
0.75
 90
        1
300
%<\AcVar ViewType \f "%tc1">% %<\AcVar ViewDetailId>%\PVARIA %<\AcVar ViewScale \f "%sn">%
 71
     4
340
16
 90
       25
 62
   256
340
16
 90
       25
 62
   256
280
     0
  0
ACDBDETAILVIEWSTYLE
  5
1B2F1
102
{ACAD_XDICTIONARY
360
22126
102
}
102
{ACAD_REACTORS
330
1B2F0
102
}
330
1B2F0
100
AcDbModelDocViewStyle
 70
     0
  3
Metric50
290
     0
100
AcDbDetailViewStyle
 70
     0
 71
     0
 90
        3
 71
     1
340
11
 62
   256
 40
5.0
340
0
 62
   256
 40
5.0
300

 40
0.0
280
     1
 71
     2
340
16
 90
       25
 62
   256
 71
     3
340
11
 62
   256
 40
5.0
 90
        0
 40
15.0
 90
        1
300
%<\AcVar ViewDetailId>% (%<\AcVar ViewScale \f "%sn">%)
 71
     4
340
16
 90
       25
 62
   256
340
16
 90
       25
 62
   256
280
     0
  0
LAYOUT
  5
31A7
102
{ACAD_REACTORS
330
31A5
102
}
330
31A5
100
AcDbPlotSettings
  1

  2
\\ingdc01\ITB3
  4
A4
  6

 40
6.805083274841307
 41
5.027085781097412
 42
6.805068969726562
 43
5.027069091796875
 44
209.9733276367186
 45
296.9683227539062
 46
0.0
 47
0.0
 48
0.0
 49
0.0
140
0.0
141
0.0
142
1.0
143
1.0
 70
   688
 72
     1
 73
     1
 74
     5
  7

 75
    16
147
1.0
 76
     0
 77
     2
 78
   300
148
0.0
149
0.0
100
AcDbLayout
  1
Layout1
 70
     1
 71
     1
 10
-5.027069091796875
 20
-6.805083274841307
 11
291.9412536621094
 21
203.1682443618775
 12
0.0
 22
0.0
 32
0.0
 14
28.69141678810127
 24
19.6363175392151
 34
0.0
 15
258.2227510929107
 25
176.7268578529358
 35
0.0
146
0.0
 13
0.0
 23
0.0
 33
0.0
 16
1.0
 26
0.0
 36
0.0
 17
0.0
 27
1.0
 37
0.0
 76
     0
330
1B
331
9C00
1001
ACAD_PSEXT
1000
\\ingdc01\ITB3
1000
HP LaserJet 5000 Series PCL
1000
TB
1000

1070
     0
  0
LAYOUT
  5
31A6
102
{ACAD_REACTORS
330
31A5
102
}
330
31A5
100
AcDbPlotSettings
  1

  2
\\ingdc01\ITB3
  4
A4
  6

 40
6.805083274841307
 41
5.027085781097412
 42
6.805068969726562
 43
5.027069091796875
 44
209.9733276367186
 45
296.9683227539062
 46
0.0
 47
0.0
 48
0.0
 49
0.0
140
0.0
141
0.0
142
1.0
143
1.500313223655698
 70
 11952
 72
     1
 73
     1
 74
     0
  7

 75
     0
147
0.6665274852163048
 76
     0
 77
     2
 78
   300
148
239.0155119930048
149
102.2558208723354
100
AcDbLayout
  1
Model
 70
     1
 71
     0
 10
0.0
 20
0.0
 11
12.0
 21
9.0
 12
0.0
 22
0.0
 32
0.0
 14
0.0
 24
0.0
 34
0.0
 15
0.0
 25
0.0
 35
0.0
146
0.0
 13
0.0
 23
0.0
 33
0.0
 16
1.0
 26
0.0
 36
0.0
 17
0.0
 27
1.0
 37
0.0
 76
     0
330
1F
331
1F4
1001
ACAD_PSEXT
1000
\\ingdc01\ITB3
1000
HP LaserJet 5000 Series PCL
1000
TB
1000

1070
     0
  0
MATERIAL
  5
318D
102
{ACAD_XDICTIONARY
360
1B22B
102
}
102
{ACAD_REACTORS
330
318B
102
}
330
318B
100
AcDbMaterial
  1
ByBlock
  0
MATERIAL
  5
318C
102
{ACAD_XDICTIONARY
360
1B22D
102
}
102
{ACAD_REACTORS
330
318B
102
}
330
318B
100
AcDbMaterial
  1
ByLayer
  0
MATERIAL
  5
318E
102
{ACAD_XDICTIONARY
360
1B22F
102
}
102
{ACAD_REACTORS
330
318B
102
}
330
318B
100
AcDbMaterial
  1
Global
  0
MLEADERSTYLE
  5
1B2ED
102
{ACAD_REACTORS
330
1B221
102
}
330
1B221
100
AcDbMLeaderStyle
179
     2
170
     2
171
     1
172
     0
 90
        2
 40
0.0
 41
0.0
173
     1
 91
-1056964608
340
14
 92
       -2
290
     1
 42
2.0
291
     1
 43
0.36
  3
Standard
 44
4.0
300

342
11
174
     1
178
     6
175
     1
176
     0
 93
-1056964608
 45
4.0
292
     0
297
     0
 46
4.0
 94
-1056964608
 47
1.0
 49
1.0
140
1.0
293
     1
141
0.0
294
     1
177
     0
142
1.0
295
     0
296
     0
143
0.125
271
     0
272
     9
273
     9
1001
ACAD_MLEADERVER
1070
     2
  0
MLINESTYLE
  5
3185
102
{ACAD_REACTORS
330
3184
102
}
330
3184
100
AcDbMlineStyle
  2
STANDARD
 70
     0
  3

 62
   256
 51
90.0
 52
90.0
 71
     2
 49
0.5
 62
   256
  6
BYLAYER
 49
-0.5
 62
   256
  6
BYLAYER
  0
ACDBPLACEHOLDER
  5
318A
102
{ACAD_REACTORS
330
3189
102
}
330
3189
  0
SCALE
  5
1B1FD
102
{ACAD_REACTORS
330
1B1FC
102
}
330
1B1FC
100
AcDbScale
 70
     0
300
1:1
140
1.0
141
1.0
290
     1
1001
ACAD
1000
AcRTDxfName
1000
SCALE
  0
SCALE
  5
1B1FE
102
{ACAD_REACTORS
330
1B1FC
102
}
330
1B1FC
100
AcDbScale
 70
     0
300
1:2
140
1.0
141
2.0
290
     0
1001
ACAD
1000
AcRTDxfName
1000
SCALE
  0
SCALE
  5
1B1FF
102
{ACAD_REACTORS
330
1B1FC
102
}
330
1B1FC
100
AcDbScale
 70
     0
300
1:4
140
1.0
141
4.0
290
     0
1001
ACAD
1000
AcRTDxfName
1000
SCALE
  0
SCALE
  5
1B200
102
{ACAD_REACTORS
330
1B1FC
102
}
330
1B1FC
100
AcDbScale
 70
     0
300
1:5
140
1.0
141
5.0
290
     0
1001
ACAD
1000
AcRTDxfName
1000
SCALE
  0
SCALE
  5
1B201
102
{ACAD_REACTORS
330
1B1FC
102
}
330
1B1FC
100
AcDbScale
 70
     0
300
1:8
140
1.0
141
8.0
290
     0
1001
ACAD
1000
AcRTDxfName
1000
SCALE
  0
SCALE
  5
1B202
102
{ACAD_REACTORS
330
1B1FC
102
}
330
1B1FC
100
AcDbScale
 70
     0
300
1:10
140
1.0
141
10.0
290
     0
1001
ACAD
1000
AcRTDxfName
1000
SCALE
  0
SCALE
  5
1B203
102
{ACAD_REACTORS
330
1B1FC
102
}
330
1B1FC
100
AcDbScale
 70
     0
300
1:16
140
1.0
141
16.0
290
     0
1001
ACAD
1000
AcRTDxfName
1000
SCALE
  0
SCALE
  5
1B204
102
{ACAD_REACTORS
330
1B1FC
102
}
330
1B1FC
100
AcDbScale
 70
     0
300
1:20
140
1.0
141
20.0
290
     0
1001
ACAD
1000
AcRTDxfName
1000
SCALE
  0
SCALE
  5
1B205
102
{ACAD_REACTORS
330
1B1FC
102
}
330
1B1FC
100
AcDbScale
 70
     0
300
1:30
140
1.0
141
30.0
290
     0
1001
ACAD
1000
AcRTDxfName
1000
SCALE
  0
SCALE
  5
1B206
102
{ACAD_REACTORS
330
1B1FC
102
}
330
1B1FC
100
AcDbScale
 70
     0
300
1:40
140
1.0
141
40.0
290
     0
1001
ACAD
1000
AcRTDxfName
1000
SCALE
  0
SCALE
  5
1B207
102
{ACAD_REACTORS
330
1B1FC
102
}
330
1B1FC
100
AcDbScale
 70
     0
300
1:50
140
1.0
141
50.0
290
     0
1001
ACAD
1000
AcRTDxfName
1000
SCALE
  0
SCALE
  5
1B208
102
{ACAD_REACTORS
330
1B1FC
102
}
330
1B1FC
100
AcDbScale
 70
     0
300
1:100
140
1.0
141
100.0
290
     0
1001
ACAD
1000
AcRTDxfName
1000
SCALE
  0
SCALE
  5
1B209
102
{ACAD_REACTORS
330
1B1FC
102
}
330
1B1FC
100
AcDbScale
 70
     0
300
2:1
140
2.0
141
1.0
290
     0
1001
ACAD
1000
AcRTDxfName
1000
SCALE
  0
SCALE
  5
1B20A
102
{ACAD_REACTORS
330
1B1FC
102
}
330
1B1FC
100
AcDbScale
 70
     0
300
4:1
140
4.0
141
1.0
290
     0
1001
ACAD
1000
AcRTDxfName
1000
SCALE
  0
SCALE
  5
1B20B
102
{ACAD_REACTORS
330
1B1FC
102
}
330
1B1FC
100
AcDbScale
 70
     0
300
8:1
140
8.0
141
1.0
290
     0
1001
ACAD
1000
AcRTDxfName
1000
SCALE
  0
SCALE
  5
1B20C
102
{ACAD_REACTORS
330
1B1FC
102
}
330
1B1FC
100
AcDbScale
 70
     0
300
10:1
140
10.0
141
1.0
290
     0
1001
ACAD
1000
AcRTDxfName
1000
SCALE
  0
SCALE
  5
1B20D
102
{ACAD_REACTORS
330
1B1FC
102
}
330
1B1FC
100
AcDbScale
 70
     0
300
100:1
140
100.0
141
1.0
290
     0
1001
ACAD
1000
AcRTDxfName
1000
SCALE
  0
SCALE
  5
1B20E
102
{ACAD_REACTORS
330
1B1FC
102
}
330
1B1FC
100
AcDbScale
 70
     0
300
1/128" = 1'-0"
140
0.0078125
141
12.0
290
     0
1001
ACAD
1000
AcRTDxfName
1000
SCALE
  0
SCALE
  5
1B20F
102
{ACAD_REACTORS
330
1B1FC
102
}
330
1B1FC
100
AcDbScale
 70
     0
300
1/64" = 1'-0"
140
0.015625
141
12.0
290
     0
1001
ACAD
1000
AcRTDxfName
1000
SCALE
  0
SCALE
  5
1B210
102
{ACAD_REACTORS
330
1B1FC
102
}
330
1B1FC
100
AcDbScale
 70
     0
300
1/32" = 1'-0"
140
0.03125
141
12.0
290
     0
1001
ACAD
1000
AcRTDxfName
1000
SCALE
  0
SCALE
  5
1B211
102
{ACAD_REACTORS
330
1B1FC
102
}
330
1B1FC
100
AcDbScale
 70
     0
300
1/16" = 1'-0"
140
0.0625
141
12.0
290
     0
1001
ACAD
1000
AcRTDxfName
1000
SCALE
  0
SCALE
  5
1B212
102
{ACAD_REACTORS
330
1B1FC
102
}
330
1B1FC
100
AcDbScale
 70
     0
300
3/32" = 1'-0"
140
0.09375
141
12.0
290
     0
1001
ACAD
1000
AcRTDxfName
1000
SCALE
  0
SCALE
  5
1B213
102
{ACAD_REACTORS
330
1B1FC
102
}
330
1B1FC
100
AcDbScale
 70
     0
300
1/8" = 1'-0"
140
0.125
141
12.0
290
     0
1001
ACAD
1000
AcRTDxfName
1000
SCALE
  0
SCALE
  5
1B214
102
{ACAD_REACTORS
330
1B1FC
102
}
330
1B1FC
100
AcDbScale
 70
     0
300
3/16" = 1'-0"
140
0.1875
141
12.0
290
     0
1001
ACAD
1000
AcRTDxfName
1000
SCALE
  0
SCALE
  5
1B215
102
{ACAD_REACTORS
330
1B1FC
102
}
330
1B1FC
100
AcDbScale
 70
     0
300
1/4" = 1'-0"
140
0.25
141
12.0
290
     0
1001
ACAD
1000
AcRTDxfName
1000
SCALE
  0
SCALE
  5
1B216
102
{ACAD_REACTORS
330
1B1FC
102
}
330
1B1FC
100
AcDbScale
 70
     0
300
3/8" = 1'-0"
140
0.375
141
12.0
290
     0
1001
ACAD
1000
AcRTDxfName
1000
SCALE
  0
SCALE
  5
1B217
102
{ACAD_REACTORS
330
1B1FC
102
}
330
1B1FC
100
AcDbScale
 70
     0
300
1/2" = 1'-0"
140
0.5
141
12.0
290
     0
1001
ACAD
1000
AcRTDxfName
1000
SCALE
  0
SCALE
  5
1B218
102
{ACAD_REACTORS
330
1B1FC
102
}
330
1B1FC
100
AcDbScale
 70
     0
300
3/4" = 1'-0"
140
0.75
141
12.0
290
     0
1001
ACAD
1000
AcRTDxfName
1000
SCALE
  0
SCALE
  5
1B219
102
{ACAD_REACTORS
330
1B1FC
102
}
330
1B1FC
100
AcDbScale
 70
     0
300
1" = 1'-0"
140
1.0
141
12.0
290
     0
1001
ACAD
1000
AcRTDxfName
1000
SCALE
  0
SCALE
  5
1B21A
102
{ACAD_REACTORS
330
1B1FC
102
}
330
1B1FC
100
AcDbScale
 70
     0
300
1-1/2" = 1'-0"
140
1.5
141
12.0
290
     0
1001
ACAD
1000
AcRTDxfName
1000
SCALE
  0
SCALE
  5
1B21B
102
{ACAD_REACTORS
330
1B1FC
102
}
330
1B1FC
100
AcDbScale
 70
     0
300
3" = 1'-0"
140
3.0
141
12.0
290
     0
1001
ACAD
1000
AcRTDxfName
1000
SCALE
  0
SCALE
  5
1B21C
102
{ACAD_REACTORS
330
1B1FC
102
}
330
1B1FC
100
AcDbScale
 70
     0
300
6" = 1'-0"
140
6.0
141
12.0
290
     0
1001
ACAD
1000
AcRTDxfName
1000
SCALE
  0
SCALE
  5
1B21D
102
{ACAD_REACTORS
330
1B1FC
102
}
330
1B1FC
100
AcDbScale
 70
     0
300
1'-0" = 1'-0"
140
12.0
141
12.0
290
     0
1001
ACAD
1000
AcRTDxfName
1000
SCALE
  0
ACDBSECTIONVIEWSTYLE
  5
20CB1
102
{ACAD_XDICTIONARY
360
22128
102
}
102
{ACAD_REACTORS
330
1B2EE
102
}
330
1B2EE
100
AcDbModelDocViewStyle
 70
     0
  3
Imperial24
290
     0
100
AcDbSectionViewStyle
 70
     0
 71
     0
 90
       78
 71
     1
340
11
 62
   256
 40
0.24
340
0
340
0
 62
   256
 40
0.24
300
I, O, Q, S, X, Z
 40
0.48
 90
        3
 40
0.18
 90
        1
 71
     2
340
16
 90
       25
 62
   256
340
16
 90
       50
 62
   256
 40
0.24
 40
0.0
 40
0.24
 71
     3
340
11
 62
   256
 40
0.24
 90
        1
 40
0.75
 90
        1
300
%<\AcVar ViewType \f "%tc1">% %<\AcVar ViewSectionStartId>%-%<\AcVar ViewSectionEndId>%\PVARIA %<\AcVar ViewScale \f "%sn">%
 71
     4
 62
   256
 62
   257
300
ANSI31
 40
1.0
 90
        0
290
     0
290
     0
 90
        6
 40
0.0
 40
1.570796326794896
 40
0.2617993877991494
 40
1.308996938995747
 40
-0.2617993877991494
 40
1.832595714594044
  0
ACDBSECTIONVIEWSTYLE
  5
1B2EF
102
{ACAD_XDICTIONARY
360
22124
102
}
102
{ACAD_REACTORS
330
1B2EE
102
}
330
1B2EE
100
AcDbModelDocViewStyle
 70
     0
  3
Metric50
290
     0
100
AcDbSectionViewStyle
 70
     0
 71
     0
 90
      102
 71
     1
340
11
 62
   256
 40
5.0
340
0
340
0
 62
   256
 40
5.0
300
I, O, Q, S, X, Z
 40
10.0
 90
        0
 40
2.5
 90
        0
 71
     2
340
16
 90
       25
 62
   256
340
16
 90
       50
 62
   256
 40
5.0
 40
2.5
 40
5.0
 71
     3
340
11
 62
   256
 40
5.0
 90
        0
 40
15.0
 90
        1
300
%<\AcVar ViewSectionStartId>%-%<\AcVar ViewSectionEndId>% (%<\AcVar ViewScale \f "%sn">%)
 71
     4
 62
   256
 62
   257
300
ANSI31
 40
1.0
 90
        0
290
     0
290
     0
 90
        6
 40
0.0
 40
1.570796326794896
 40
0.2617993877991494
 40
1.308996938995747
 40
-0.2617993877991494
 40
1.832595714594044
  0
TABLESTYLE
  5
31A2
102
{ACAD_XDICTIONARY
360
1B314
102
}
102
{ACAD_REACTORS
330
31A1
102
}
330
31A1
100
AcDbTableStyle
280
     0
  3
Standard
 70
     0
 71
     0
 40
1.5
 41
1.5
280
     0
281
     0
  7
STANDARD
140
4.5
170
     2
 62
     0
 63
     7
283
     0
 90
        4
 91
        0
  1

274
    -2
284
     1
 64
     0
275
    -2
285
     1
 65
     0
276
    -2
286
     1
 66
     0
277
    -2
287
     1
 67
     0
278
    -2
288
     1
 68
     0
279
    -2
289
     1
 69
     0
  7
STANDARD
140
6.0
170
     5
 62
     0
 63
     7
283
     0
 90
        4
 91
        0
  1

274
    -2
284
     1
 64
     0
275
    -2
285
     1
 65
     0
276
    -2
286
     1
 66
     0
277
    -2
287
     1
 67
     0
278
    -2
288
     1
 68
     0
279
    -2
289
     1
 69
     0
  7
STANDARD
140
4.5
170
     5
 62
     0
 63
     7
283
     0
 90
        4
 91
        0
  1

274
    -2
284
     1
 64
     0
275
    -2
285
     1
 65
     0
276
    -2
286
     1
 66
     0
277
    -2
287
     1
 67
     0
278
    -2
288
     1
 68
     0
279
    -2
289
     1
 69
     0
  0
VISUALSTYLE
  5
3195
102
{ACAD_XDICTIONARY
360
220FA
102
}
102
{ACAD_REACTORS
330
318F
102
}
330
318F
100
AcDbVisualStyle
  2

 70
     4
177
     2
291
     0
 71
     0
176
     1
 72
     2
176
     1
 73
     0
176
     1
 90
        0
176
     1
 40
0.6
176
     1
 41
30.0
176
     1
 63
     7
176
     1
 74
     1
176
     1
 91
        4
176
     1
 64
     7
176
     1
 65
   257
176
     1
 75
     1
176
     1
175
     1
176
     1
 42
1.0
176
     1
 92
        0
176
     1
 66
   257
176
     1
 43
1.0
176
     1
 76
     1
176
     1
 77
     6
176
     1
 78
     2
176
     1
 67
     7
176
     1
 79
     5
176
     1
170
     0
176
     1
171
     0
176
     1
290
     0
176
     1
 93
        1
176
     1
 44
0.0
176
     1
173
     0
176
     1
1001
ACAD
1000
AcDbSavedByObjectVersion
1070
     0
  0
VISUALSTYLE
  5
3197
102
{ACAD_XDICTIONARY
360
220FE
102
}
102
{ACAD_REACTORS
330
318F
102
}
330
318F
100
AcDbVisualStyle
  2

 70
     6
177
     2
291
     0
 71
     1
176
     1
 72
     2
176
     1
 73
     2
176
     1
 90
        0
176
     1
 40
0.6
176
     1
 41
30.0
176
     1
 63
     7
176
     1
 74
     2
176
     1
 91
        2
176
     1
 64
     7
176
     1
 65
   257
176
     1
 75
     2
176
     1
175
     1
176
     1
 42
40.0
176
     1
 92
        0
176
     1
 66
   257
176
     1
 43
1.0
176
     1
 76
     1
176
     1
 77
     6
176
     1
 78
     2
176
     1
 67
     7
176
     1
 79
     3
176
     1
170
     0
176
     1
171
     0
176
     1
290
     0
176
     1
 93
        1
176
     1
 44
0.0
176
     1
173
     0
176
     1
1001
ACAD
1000
AcDbSavedByObjectVersion
1070
     0
  0
VISUALSTYLE
  5
3196
102
{ACAD_XDICTIONARY
360
220FC
102
}
102
{ACAD_REACTORS
330
318F
102
}
330
318F
100
AcDbVisualStyle
  2

 70
     5
177
     2
291
     0
 71
     0
176
     1
 72
     2
176
     1
 73
     0
176
     1
 90
        0
176
     1
 40
0.6
176
     1
 41
30.0
176
     1
 63
     7
176
     1
 74
     1
176
     1
 91
        4
176
     1
 64
     7
176
     1
 65
   257
176
     1
 75
     1
176
     1
175
     1
176
     1
 42
1.0
176
     1
 92
        0
176
     1
 66
   257
176
     1
 43
1.0
176
     1
 76
     1
176
     1
 77
     6
176
     1
 78
     2
176
     1
 67
     7
176
     1
 79
     5
176
     1
170
     0
176
     1
171
     0
176
     1
290
     0
176
     1
 93
        1
176
     1
 44
0.0
176
     1
173
     0
176
     1
1001
ACAD
1000
AcDbSavedByObjectVersion
1070
     0
  0
VISUALSTYLE
  5
3194
102
{ACAD_XDICTIONARY
360
220F8
102
}
102
{ACAD_REACTORS
330
318F
102
}
330
318F
100
AcDbVisualStyle
  2

 70
     7
177
     2
291
     1
 71
     1
176
     1
 72
     0
176
     1
 73
     1
176
     1
 90
        0
176
     1
 40
0.6
176
     1
 41
30.0
176
     1
 63
     7
176
     1
 74
     0
176
     1
 91
        4
176
     1
 64
     7
176
     1
 65
   257
176
     1
 75
     1
176
     1
175
     1
176
     1
 42
1.0
176
     1
 92
        8
176
     1
 66
     7
176
     1
 43
1.0
176
     1
 76
     1
176
     1
 77
     6
176
     1
 78
     2
176
     1
 67
     7
176
     1
 79
     5
176
     1
170
     0
176
     1
171
     0
176
     1
290
     0
176
     1
 93
        1
176
     1
 44
0.0
176
     1
173
     0
176
     1
1001
ACAD
1000
AcDbSavedByObjectVersion
1070
     0
  0
VISUALSTYLE
  5
319B
102
{ACAD_XDICTIONARY
360
22106
102
}
102
{ACAD_REACTORS
330
318F
102
}
330
318F
100
AcDbVisualStyle
  2

 70
    12
177
     2
291
     1
 71
     2
176
     1
 72
     2
176
     1
 73
     0
176
     1
 90
        0
176
     1
 40
0.6
176
     1
 41
30.0
176
     1
 63
     7
176
     1
 74
     1
176
     1
 91
        4
176
     1
 64
     7
176
     1
 65
   257
176
     1
 75
     1
176
     1
175
     1
176
     1
 42
1.0
176
     1
 92
        8
176
     1
 66
     7
176
     1
 43
1.0
176
     1
 76
     1
176
     1
 77
     6
176
     1
 78
     2
176
     1
 67
     7
176
     1
 79
     5
176
     1
170
     0
176
     1
171
     0
176
     1
290
     0
176
     1
 93
        1
176
     1
 44
50.0
176
     1
173
     0
176
     1
1001
ACAD
1000
AcDbSavedByObjectVersion
1070
     0
  0
VISUALSTYLE
  5
319F
102
{ACAD_XDICTIONARY
360
2210E
102
}
102
{ACAD_REACTORS
330
318F
102
}
330
318F
100
AcDbVisualStyle
  2

 70
    16
177
     2
291
     1
 71
     2
176
     1
 72
     2
176
     1
 73
     3
176
     1
 90
        0
176
     1
 40
0.6
176
     1
 41
30.0
176
     1
 63
     8
176
     1
 74
     1
176
     1
 91
        4
176
     1
 64
     7
176
     1
 65
   257
176
     1
 75
     1
176
     1
175
     1
176
     1
 42
1.0
176
     1
 92
        8
176
     1
 66
     8
176
     1
 43
1.0
176
     1
 76
     1
176
     1
 77
     6
176
     1
 78
     2
176
     1
 67
     7
176
     1
 79
     5
176
     1
170
     0
176
     1
171
     0
176
     1
290
     0
176
     1
 93
        1
176
     1
 44
0.0
176
     1
173
     0
176
     1
1001
ACAD
1000
AcDbSavedByObjectVersion
1070
     0
  0
VISUALSTYLE
  5
3198
102
{ACAD_XDICTIONARY
360
22100
102
}
102
{ACAD_REACTORS
330
318F
102
}
330
318F
100
AcDbVisualStyle
  2

 70
     9
177
     2
291
     0
 71
     3
176
     1
 72
     2
176
     1
 73
     0
176
     1
 90
        0
176
     1
 40
0.6
176
     1
 41
30.0
176
     1
 63
     7
176
     1
 74
     2
176
     1
 91
        2
176
     1
 64
     7
176
     1
 65
   257
176
     1
 75
     1
176
     1
175
     1
176
     1
 42
40.0
176
     1
 92
        8
176
     1
 66
     7
176
     1
 43
1.0
176
     1
 76
     1
176
     1
 77
     6
176
     1
 78
     2
176
     1
 67
     7
176
     1
 79
     3
176
     1
170
     0
176
     1
171
     0
176
     1
290
     0
176
     1
 93
        1
176
     1
 44
0.0
176
     1
173
     0
176
     1
1001
ACAD
1000
AcDbSavedByObjectVersion
1070
     0
  0
VISUALSTYLE
  5
319A
102
{ACAD_XDICTIONARY
360
22104
102
}
102
{ACAD_REACTORS
330
318F
102
}
330
318F
100
AcDbVisualStyle
  2

 70
    11
177
     2
291
     1
 71
     2
176
     1
 72
     2
176
     1
 73
     0
176
     1
 90
        0
176
     1
 40
0.6
176
     1
 41
30.0
176
     1
 63
     7
176
     1
 74
     1
176
     1
 91
        4
176
     1
 64
     7
176
     1
 65
   257
176
     1
 75
     1
176
     1
175
     1
176
     1
 42
1.0
176
     1
 92
        8
176
     1
 66
     7
176
     1
 43
1.0
176
     1
 76
     1
176
     1
 77
     6
176
     1
 78
     2
176
     1
 67
     7
176
     1
 79
     5
176
     1
170
     0
176
     1
171
     0
176
     1
290
     0
176
     1
 93
        1
176
     1
 44
-50.0
176
     1
173
     0
176
     1
1001
ACAD
1000
AcDbSavedByObjectVersion
1070
     0
  0
VISUALSTYLE
  5
1B2EC
102
{ACAD_XDICTIONARY
360
22122
102
}
102
{ACAD_REACTORS
330
318F
102
}
330
318F
100
AcDbVisualStyle
  2

 70
    22
177
     2
291
     1
 71
     2
176
     0
 72
     2
176
     0
 73
     0
176
     0
 90
        0
176
     0
 40
0.6
176
     0
 41
30.0
176
     0
 63
     7
176
     0
 74
     1
176
     0
 91
        4
176
     0
 64
     7
176
     0
 65
   257
176
     0
 75
     1
176
     0
175
     1
176
     0
 42
1.0
176
     0
 92
        8
176
     2
 66
     7
176
     0
 43
1.0
176
     0
 76
     1
176
     0
 77
     6
176
     0
 78
     2
176
     0
 67
     7
176
     0
 79
     5
176
     0
170
     0
176
     0
171
     0
176
     0
290
     0
176
     0
 93
        1
176
     0
 44
0.0
176
     0
173
     0
176
     0
1001
ACAD
1000
AcDbSavedByObjectVersion
1070
     0
  0
VISUALSTYLE
  5
319E
102
{ACAD_XDICTIONARY
360
2210C
102
}
102
{ACAD_REACTORS
330
318F
102
}
330
318F
100
AcDbVisualStyle
  2

 70
    15
177
     2
291
     1
 71
     2
176
     1
 72
     2
176
     1
 73
     0
176
     1
 90
        0
176
     1
 40
0.6
176
     1
 41
30.0
176
     1
 63
     7
176
     1
 74
     1
176
     1
 91
        4
176
     1
 64
     7
176
     1
 65
   257
176
     1
 75
     1
176
     1
175
     1
176
     1
 42
1.0
176
     1
 92
        8
176
     1
 66
     7
176
     1
 43
1.0
176
     1
 76
     1
176
     1
 77
     6
176
     1
 78
     2
176
     1
 67
     7
176
     1
 79
     5
176
     1
170
     0
176
     1
171
     0
176
     1
290
     0
176
     1
 93
        1
176
     1
 44
0.0
176
     1
173
     0
176
     1
1001
ACAD
1000
AcDbSavedByObjectVersion
1070
     0
  0
VISUALSTYLE
  5
3190
102
{ACAD_XDICTIONARY
360
220F0
102
}
102
{ACAD_REACTORS
330
318F
102
}
330
318F
100
AcDbVisualStyle
  2

 70
     0
177
     2
291
     1
 71
     2
176
     1
 72
     1
176
     1
 73
     1
176
     1
 90
        2
176
     1
 40
0.6
176
     1
 41
30.0
176
     1
 63
     7
176
     1
 74
     0
176
     1
 91
        4
176
     1
 64
     7
176
     1
 65
   257
176
     1
 75
     1
176
     1
175
     1
176
     1
 42
1.0
176
     1
 92
        8
176
     1
 66
     7
176
     1
 43
1.0
176
     1
 76
     1
176
     1
 77
     6
176
     1
 78
     2
176
     1
 67
     7
176
     1
 79
     5
176
     1
170
     0
176
     1
171
     0
176
     1
290
     0
176
     1
 93
       13
176
     1
 44
0.0
176
     1
173
     0
176
     1
1001
ACAD
1000
AcDbSavedByObjectVersion
1070
     0
  0
VISUALSTYLE
  5
3191
102
{ACAD_XDICTIONARY
360
220F2
102
}
102
{ACAD_REACTORS
330
318F
102
}
330
318F
100
AcDbVisualStyle
  2

 70
     1
177
     2
291
     1
 71
     2
176
     1
 72
     1
176
     1
 73
     1
176
     1
 90
        2
176
     1
 40
0.6
176
     1
 41
30.0
176
     1
 63
     7
176
     1
 74
     1
176
     1
 91
        4
176
     1
 64
     7
176
     1
 65
   257
176
     1
 75
     1
176
     1
175
     1
176
     1
 42
1.0
176
     1
 92
        0
176
     1
 66
   257
176
     1
 43
1.0
176
     1
 76
     1
176
     1
 77
     6
176
     1
 78
     2
176
     1
 67
     7
176
     1
 79
     5
176
     1
170
     0
176
     1
171
     0
176
     1
290
     0
176
     1
 93
       13
176
     1
 44
0.0
176
     1
173
     0
176
     1
1001
ACAD
1000
AcDbSavedByObjectVersion
1070
     0
  0
VISUALSTYLE
  5
3192
102
{ACAD_XDICTIONARY
360
220F4
102
}
102
{ACAD_REACTORS
330
318F
102
}
330
318F
100
AcDbVisualStyle
  2

 70
     2
177
     2
291
     1
 71
     2
176
     1
 72
     2
176
     1
 73
     1
176
     1
 90
        2
176
     1
 40
0.6
176
     1
 41
30.0
176
     1
 63
     7
176
     1
 74
     0
176
     1
 91
        4
176
     1
 64
     7
176
     1
 65
   257
176
     1
 75
     1
176
     1
175
     1
176
     1
 42
1.0
176
     1
 92
        0
176
     1
 66
     7
176
     1
 43
1.0
176
     1
 76
     1
176
     1
 77
     6
176
     1
 78
     2
176
     1
 67
     7
176
     1
 79
     5
176
     1
170
     0
176
     1
171
     0
176
     1
290
     0
176
     1
 93
       13
176
     1
 44
0.0
176
     1
173
     0
176
     1
1001
ACAD
1000
AcDbSavedByObjectVersion
1070
     0
  0
VISUALSTYLE
  5
3193
102
{ACAD_XDICTIONARY
360
220F6
102
}
102
{ACAD_REACTORS
330
318F
102
}
330
318F
100
AcDbVisualStyle
  2

 70
     3
177
     2
291
     1
 71
     2
176
     1
 72
     2
176
     1
 73
     1
176
     1
 90
        2
176
     1
 40
0.6
176
     1
 41
30.0
176
     1
 63
     7
176
     1
 74
     1
176
     1
 91
        4
176
     1
 64
     7
176
     1
 65
   257
176
     1
 75
     1
176
     1
175
     1
176
     1
 42
1.0
176
     1
 92
        0
176
     1
 66
   257
176
     1
 43
1.0
176
     1
 76
     1
176
     1
 77
     6
176
     1
 78
     2
176
     1
 67
     7
176
     1
 79
     5
176
     1
170
     0
176
     1
171
     0
176
     1
290
     0
176
     1
 93
       13
176
     1
 44
0.0
176
     1
173
     0
176
     1
1001
ACAD
1000
AcDbSavedByObjectVersion
1070
     0
  0
VISUALSTYLE
  5
1B2E4
102
{ACAD_XDICTIONARY
360
22112
102
}
102
{ACAD_REACTORS
330
318F
102
}
330
318F
100
AcDbVisualStyle
  2

 70
     6
177
     2
291
     0
 71
     1
176
     1
 72
     2
176
     1
 73
     2
176
     1
 90
        0
176
     1
 40
0.6
176
     1
 41
30.0
176
     1
 63
     7
176
     1
 74
     2
176
     1
 91
        2
176
     1
 64
     7
176
     1
 65
   257
176
     1
 75
     2
176
     1
175
     1
176
     1
 42
40.0
176
     1
 92
        0
176
     1
 66
   257
176
     1
 43
1.0
176
     1
 76
     1
176
     1
 77
     6
176
     1
 78
     2
176
     1
 67
     7
176
     1
 79
     3
176
     1
170
     0
176
     1
171
     0
176
     1
290
     0
176
     1
 93
        1
176
     1
 44
0.0
176
     1
173
     0
176
     1
1001
ACAD
1000
AcDbSavedByObjectVersion
1070
     0
  0
VISUALSTYLE
  5
1B2EA
102
{ACAD_XDICTIONARY
360
2211E
102
}
102
{ACAD_REACTORS
330
318F
102
}
330
318F
100
AcDbVisualStyle
  2

 70
    20
177
     2
291
     1
 71
     2
176
     0
 72
     2
176
     0
 73
     0
176
     0
 90
        0
176
     0
 40
0.6
176
     0
 41
30.0
176
     0
 63
     7
176
     0
 74
     1
176
     0
 91
        4
176
     0
 64
     7
176
     0
 65
   257
176
     0
 75
     1
176
     0
175
     1
176
     0
 42
1.0
176
     0
 92
       10
176
     2
 66
     7
176
     0
 43
1.0
176
     0
 76
     1
176
     0
 77
     6
176
     0
 78
     2
176
     0
 67
     7
176
     0
 79
     5
176
     0
170
     0
176
     0
171
     0
176
     0
290
     0
176
     0
 93
        1
176
     0
 44
0.0
176
     0
173
     0
176
     0
1001
ACAD
1000
AcDbSavedByObjectVersion
1070
     0
  0
VISUALSTYLE
  5
319D
102
{ACAD_XDICTIONARY
360
2210A
102
}
102
{ACAD_REACTORS
330
318F
102
}
330
318F
100
AcDbVisualStyle
  2

 70
    14
177
     2
291
     1
 71
     2
176
     1
 72
     2
176
     1
 73
     0
176
     1
 90
        0
176
     1
 40
0.6
176
     1
 41
30.0
176
     1
 63
     7
176
     1
 74
     1
176
     1
 91
        4
176
     1
 64
     7
176
     1
 65
   257
176
     1
 75
     7
176
     1
175
     7
176
     1
 42
1.0
176
     1
 92
        8
176
     1
 66
     7
176
     1
 43
1.0
176
     1
 76
     1
176
     1
 77
     6
176
     1
 78
     2
176
     1
 67
     7
176
     1
 79
     5
176
     1
170
     0
176
     1
171
     0
176
     1
290
     0
176
     1
 93
        1
176
     1
 44
0.0
176
     1
173
     0
176
     1
1001
ACAD
1000
AcDbSavedByObjectVersion
1070
     0
  0
VISUALSTYLE
  5
1B2EB
102
{ACAD_XDICTIONARY
360
22120
102
}
102
{ACAD_REACTORS
330
318F
102
}
330
318F
100
AcDbVisualStyle
  2

 70
    21
177
     2
291
     1
 71
     2
176
     0
 72
     2
176
     0
 73
     0
176
     0
 90
        0
176
     0
 40
0.6
176
     0
 41
30.0
176
     0
 63
     7
176
     0
 74
     1
176
     0
 91
        4
176
     0
 64
     7
176
     0
 65
   257
176
     0
 75
     1
176
     0
175
     1
176
     0
 42
1.0
176
     0
 92
        9
176
     2
 66
     7
176
     0
 43
1.0
176
     0
 76
     1
176
     0
 77
     6
176
     0
 78
     2
176
     0
 67
     7
176
     0
 79
     5
176
     0
170
     0
176
     0
171
     0
176
     0
290
     0
176
     0
 93
        1
176
     0
 44
0.0
176
     0
173
     0
176
     0
1001
ACAD
1000
AcDbSavedByObjectVersion
1070
     0
  0
VISUALSTYLE
  5
3199
102
{ACAD_XDICTIONARY
360
22102
102
}
102
{ACAD_REACTORS
330
318F
102
}
330
318F
100
AcDbVisualStyle
  2

 70
     8
177
     2
291
     0
 71
     2
176
     1
 72
     2
176
     1
 73
     0
176
     1
 90
        0
176
     1
 40
0.6
176
     1
 41
30.0
176
     1
 63
     7
176
     1
 74
     1
176
     1
 91
        0
176
     1
 64
     7
176
     1
 65
   257
176
     1
 75
     1
176
     1
175
     1
176
     1
 42
1.0
176
     1
 92
        8
176
     1
 66
     8
176
     1
 43
1.0
176
     1
 76
     1
176
     1
 77
     6
176
     1
 78
     2
176
     1
 67
     7
176
     1
 79
     5
176
     1
170
     0
176
     1
171
     0
176
     1
290
     0
176
     1
 93
       13
176
     1
 44
0.0
176
     1
173
     0
176
     1
1001
ACAD
1000
AcDbSavedByObjectVersion
1070
     0
  0
VISUALSTYLE
  5
1B2E9
102
{ACAD_XDICTIONARY
360
2211C
102
}
102
{ACAD_REACTORS
330
318F
102
}
330
318F
100
AcDbVisualStyle
  2

 70
    27
177
     2
291
     0
 71
     2
176
     1
 72
     2
176
     1
 73
     1
176
     1
 90
        2
176
     1
 40
0.6
176
     1
 41
30.0
176
     1
 63
     7
176
     1
 74
     0
176
     1
 91
        4
176
     1
 64
     7
176
     1
 65
   257
176
     1
 75
     1
176
     1
175
     1
176
     1
 42
1.0
176
     1
 92
        8
176
     1
 66
   257
176
     1
 43
1.0
176
     1
 76
     1
176
     1
 77
     6
176
     1
 78
     2
176
     1
 67
     8
176
     1
 79
     3
176
     1
170
     0
176
     1
171
     0
176
     1
290
     0
176
     1
 93
        5
176
     1
 44
0.0
176
     1
173
     0
176
     1
1001
ACAD
1000
AcDbSavedByObjectVersion
1070
     0
  0
VISUALSTYLE
  5
1B2E8
102
{ACAD_XDICTIONARY
360
2211A
102
}
102
{ACAD_REACTORS
330
318F
102
}
330
318F
100
AcDbVisualStyle
  2

 70
    26
177
     2
291
     0
 71
     2
176
     1
 72
     2
176
     1
 73
     1
176
     1
 90
        2
176
     1
 40
0.6
176
     1
 41
30.0
176
     1
 63
     7
176
     1
 74
     1
176
     1
 91
       10
176
     1
 64
     7
176
     1
 65
   257
176
     1
 75
     2
176
     1
175
     1
176
     1
 42
1.0
176
     1
 92
        8
176
     1
 66
   257
176
     1
 43
1.0
176
     1
 76
     1
176
     1
 77
     6
176
     1
 78
     2
176
     1
 67
     7
176
     1
 79
     3
176
     1
170
     0
176
     1
171
     0
176
     1
290
     0
176
     1
 93
        5
176
     1
 44
0.0
176
     1
173
     0
176
     1
1001
ACAD
1000
AcDbSavedByObjectVersion
1070
     0
  0
VISUALSTYLE
  5
1B2E5
102
{ACAD_XDICTIONARY
360
22114
102
}
102
{ACAD_REACTORS
330
318F
102
}
330
318F
100
AcDbVisualStyle
  2

 70
    23
177
     2
291
     0
 71
     2
176
     1
 72
     2
176
     1
 73
     3
176
     1
 90
        0
176
     1
 40
0.6
176
     1
 41
30.0
176
     1
 63
     7
176
     1
 74
     2
176
     1
 91
        2
176
     1
 64
     7
176
     1
 65
     7
176
     1
 75
     1
176
     1
175
     1
176
     1
 42
40.0
176
     1
 92
        8
176
     1
 66
     7
176
     1
 43
1.0
176
     1
 76
     1
176
     1
 77
     6
176
     1
 78
     2
176
     1
 67
     7
176
     1
 79
     3
176
     1
170
     0
176
     1
171
     0
176
     1
290
     0
176
     1
 93
        1
176
     1
 44
0.0
176
     1
173
     0
176
     1
1001
ACAD
1000
AcDbSavedByObjectVersion
1070
     0
  0
VISUALSTYLE
  5
1B2E6
102
{ACAD_XDICTIONARY
360
22116
102
}
102
{ACAD_REACTORS
330
318F
102
}
330
318F
100
AcDbVisualStyle
  2

 70
    24
177
     2
291
     0
 71
     1
176
     1
 72
     2
176
     1
 73
     2
176
     1
 90
        0
176
     1
 40
0.6
176
     1
 41
30.0
176
     1
 63
     7
176
     1
 74
     2
176
     1
 91
        2
176
     1
 64
     7
176
     1
 65
     7
176
     1
 75
     1
176
     1
175
     1
176
     1
 42
40.0
176
     1
 92
       11
176
     1
 66
     7
176
     1
 43
1.0
176
     1
 76
     1
176
     1
 77
     6
176
     1
 78
     2
176
     1
 67
     7
176
     1
 79
     6
176
     1
170
     0
176
     1
171
     0
176
     1
290
     0
176
     1
 93
        1
176
     1
 44
0.0
176
     1
173
     0
176
     1
1001
ACAD
1000
AcDbSavedByObjectVersion
1070
     0
  0
VISUALSTYLE
  5
319C
102
{ACAD_XDICTIONARY
360
22108
102
}
102
{ACAD_REACTORS
330
318F
102
}
330
318F
100
AcDbVisualStyle
  2

 70
    13
177
     2
291
     1
 71
     2
176
     1
 72
     2
176
     1
 73
     0
176
     1
 90
        0
176
     1
 40
0.6
176
     1
 41
30.0
176
     1
 63
     7
176
     1
 74
     1
176
     1
 91
        4
176
     1
 64
     7
176
     1
 65
   257
176
     1
 75
     1
176
     1
175
     1
176
     1
 42
1.0
176
     1
 92
       12
176
     1
 66
     7
176
     1
 43
1.0
176
     1
 76
     1
176
     1
 77
     6
176
     1
 78
     2
176
     1
 67
     7
176
     1
 79
     5
176
     1
170
     0
176
     1
171
     0
176
     1
290
     0
176
     1
 93
        1
176
     1
 44
0.0
176
     1
173
     0
176
     1
1001
ACAD
1000
AcDbSavedByObjectVersion
1070
     0
  0
VISUALSTYLE
  5
1B2E3
102
{ACAD_XDICTIONARY
360
22110
102
}
102
{ACAD_REACTORS
330
318F
102
}
330
318F
100
AcDbVisualStyle
  2

 70
     5
177
     2
291
     0
 71
     0
176
     1
 72
     2
176
     1
 73
     0
176
     1
 90
        0
176
     1
 40
0.6
176
     1
 41
30.0
176
     1
 63
     7
176
     1
 74
     1
176
     1
 91
        4
176
     1
 64
     7
176
     1
 65
   257
176
     1
 75
     1
176
     1
175
     1
176
     1
 42
1.0
176
     1
 92
        0
176
     1
 66
   257
176
     1
 43
1.0
176
     1
 76
     1
176
     1
 77
     6
176
     1
 78
     2
176
     1
 67
     7
176
     1
 79
     3
176
     1
170
     0
176
     1
171
     0
176
     1
290
     0
176
     1
 93
        1
176
     1
 44
0.0
176
     1
173
     0
176
     1
1001
ACAD
1000
AcDbSavedByObjectVersion
1070
     0
  0
VISUALSTYLE
  5
1B2E7
102
{ACAD_XDICTIONARY
360
22118
102
}
102
{ACAD_REACTORS
330
318F
102
}
330
318F
100
AcDbVisualStyle
  2

 70
    25
177
     2
291
     0
 71
     2
176
     1
 72
     2
176
     1
 73
     1
176
     1
 90
        1
176
     1
 40
0.5
176
     1
 41
30.0
176
     1
 63
     7
176
     1
 74
     1
176
     1
 91
        0
176
     1
 64
     7
176
     1
 65
   257
176
     1
 75
     1
176
     1
175
     1
176
     1
 42
1.0
176
     1
 92
        8
176
     1
 66
     7
176
     1
 43
1.0
176
     1
 76
     1
176
     1
 77
     6
176
     1
 78
     2
176
     1
 67
     7
176
     1
 79
     3
176
     1
170
     0
176
     1
171
     0
176
     1
290
     0
176
     1
 93
       13
176
     1
 44
0.0
176
     1
173
     0
176
     1
1001
ACAD
1000
AcDbSavedByObjectVersion
1070
     0
  0
DICTIONARYVAR
  5
1B222
102
{ACAD_REACTORS
330
33A3
102
}
330
33A3
100
DictionaryVariables
280
     0
  1
1:1
  0
DICTIONARYVAR
  5
1B30F
102
{ACAD_REACTORS
330
33A3
102
}
330
33A3
100
DictionaryVariables
280
     0
  1
STANDARD
  0
DICTIONARYVAR
  5
33A4
102
{ACAD_REACTORS
330
33A3
102
}
330
33A3
100
DictionaryVariables
280
     0
  1
STANDARD
  0
DICTIONARYVAR
  5
1B310
102
{ACAD_REACTORS
330
33A3
102
}
330
33A3
100
DictionaryVariables
280
     0
  1
Metric50
  0
DICTIONARYVAR
  5
1B311
102
{ACAD_REACTORS
330
33A3
102
}
330
33A3
100
DictionaryVariables
280
     0
  1
Metric50
  0
DICTIONARYVAR
  5
9BE8
102
{ACAD_REACTORS
330
33A3
102
}
330
33A3
100
DictionaryVariables
280
     0
  1
1
  0
DICTIONARYVAR
  5
9BE7
102
{ACAD_REACTORS
330
33A3
102
}
330
33A3
100
DictionaryVariables
280
     0
  1
0
  0
DICTIONARYVAR
  5
20993
102
{ACAD_REACTORS
330
33A3
102
}
330
33A3
100
DictionaryVariables
280
     0
  1
1
  0
DICTIONARYVAR
  5
20994
102
{ACAD_REACTORS
330
33A3
102
}
330
33A3
100
DictionaryVariables
280
     0
  1
15
  0
DICTIONARYVAR
  5
20992
102
{ACAD_REACTORS
330
33A3
102
}
330
33A3
100
DictionaryVariables
280
     0
  1
0
  0
DICTIONARYVAR
  5
20991
102
{ACAD_REACTORS
330
33A3
102
}
330
33A3
100
DictionaryVariables
280
     0
  1
0
  0
DICTIONARYVAR
  5
9BE6
102
{ACAD_REACTORS
330
33A3
102
}
330
33A3
100
DictionaryVariables
280
     0
  1
127
  0
DICTIONARY
  5
2212A
330
20CB3
100
AcDbDictionary
280
     1
281
     1
  3
ACAD_XREC_ROUNDTRIP
360
2212B
  0
DICTIONARY
  5
22126
330
1B2F1
100
AcDbDictionary
280
     1
281
     1
  3
ACAD_XREC_ROUNDTRIP
360
22127
  0
DICTIONARY
  5
1B22B
330
318D
100
AcDbDictionary
280
     1
281
     1
  3
ACAD_XREC_ROUNDTRIP
360
1B22C
  0
DICTIONARY
  5
1B22D
330
318C
100
AcDbDictionary
280
     1
281
     1
  3
ACAD_XREC_ROUNDTRIP
360
1B22E
  0
DICTIONARY
  5
1B22F
330
318E
100
AcDbDictionary
280
     1
281
     1
  3
ACAD_XREC_ROUNDTRIP
360
1B230
  0
DICTIONARY
  5
22128
330
20CB1
100
AcDbDictionary
280
     1
281
     1
  3
ACAD_XREC_ROUNDTRIP
360
22129
  0
DICTIONARY
  5
22124
330
1B2EF
100
AcDbDictionary
280
     1
281
     1
  3
ACAD_XREC_ROUNDTRIP
360
22125
  0
DICTIONARY
  5
1B314
330
31A2
100
AcDbDictionary
280
     1
281
     1
  3
ACAD_ROUNDTRIP_2008_TABLESTYLE_CELLSTYLEMAP
360
220EE
  0
DICTIONARY
  5
220FA
330
3195
100
AcDbDictionary
280
     1
281
     1
  3
ACAD_XREC_ROUNDTRIP
360
220FB
  0
DICTIONARY
  5
220FE
330
3197
100
AcDbDictionary
280
     1
281
     1
  3
ACAD_XREC_ROUNDTRIP
360
220FF
  0
DICTIONARY
  5
220FC
330
3196
100
AcDbDictionary
280
     1
281
     1
  3
ACAD_XREC_ROUNDTRIP
360
220FD
  0
DICTIONARY
  5
220F8
330
3194
100
AcDbDictionary
280
     1
281
     1
  3
ACAD_XREC_ROUNDTRIP
360
220F9
  0
DICTIONARY
  5
22106
330
319B
100
AcDbDictionary
280
     1
281
     1
  3
ACAD_XREC_ROUNDTRIP
360
22107
  0
DICTIONARY
  5
2210E
330
319F
100
AcDbDictionary
280
     1
281
     1
  3
ACAD_XREC_ROUNDTRIP
360
2210F
  0
DICTIONARY
  5
22100
330
3198
100
AcDbDictionary
280
     1
281
     1
  3
ACAD_XREC_ROUNDTRIP
360
22101
  0
DICTIONARY
  5
22104
330
319A
100
AcDbDictionary
280
     1
281
     1
  3
ACAD_XREC_ROUNDTRIP
360
22105
  0
DICTIONARY
  5
22122
330
1B2EC
100
AcDbDictionary
280
     1
281
     1
  3
ACAD_XREC_ROUNDTRIP
360
22123
  0
DICTIONARY
  5
2210C
330
319E
100
AcDbDictionary
280
     1
281
     1
  3
ACAD_XREC_ROUNDTRIP
360
2210D
  0
DICTIONARY
  5
220F0
330
3190
100
AcDbDictionary
280
     1
281
     1
  3
ACAD_XREC_ROUNDTRIP
360
220F1
  0
DICTIONARY
  5
220F2
330
3191
100
AcDbDictionary
280
     1
281
     1
  3
ACAD_XREC_ROUNDTRIP
360
220F3
  0
DICTIONARY
  5
220F4
330
3192
100
AcDbDictionary
280
     1
281
     1
  3
ACAD_XREC_ROUNDTRIP
360
220F5
  0
DICTIONARY
  5
220F6
330
3193
100
AcDbDictionary
280
     1
281
     1
  3
ACAD_XREC_ROUNDTRIP
360
220F7
  0
DICTIONARY
  5
22112
330
1B2E4
100
AcDbDictionary
280
     1
281
     1
  3
ACAD_XREC_ROUNDTRIP
360
22113
  0
DICTIONARY
  5
2211E
330
1B2EA
100
AcDbDictionary
280
     1
281
     1
  3
ACAD_XREC_ROUNDTRIP
360
2211F
  0
DICTIONARY
  5
2210A
330
319D
100
AcDbDictionary
280
     1
281
     1
  3
ACAD_XREC_ROUNDTRIP
360
2210B
  0
DICTIONARY
  5
22120
330
1B2EB
100
AcDbDictionary
280
     1
281
     1
  3
ACAD_XREC_ROUNDTRIP
360
22121
  0
DICTIONARY
  5
22102
330
3199
100
AcDbDictionary
280
     1
281
     1
  3
ACAD_XREC_ROUNDTRIP
360
22103
  0
DICTIONARY
  5
2211C
330
1B2E9
100
AcDbDictionary
280
     1
281
     1
  3
ACAD_XREC_ROUNDTRIP
360
2211D
  0
DICTIONARY
  5
2211A
330
1B2E8
100
AcDbDictionary
280
     1
281
     1
  3
ACAD_XREC_ROUNDTRIP
360
2211B
  0
DICTIONARY
  5
22114
330
1B2E5
100
AcDbDictionary
280
     1
281
     1
  3
ACAD_XREC_ROUNDTRIP
360
22115
  0
DICTIONARY
  5
22116
330
1B2E6
100
AcDbDictionary
280
     1
281
     1
  3
ACAD_XREC_ROUNDTRIP
360
22117
  0
DICTIONARY
  5
22108
330
319C
100
AcDbDictionary
280
     1
281
     1
  3
ACAD_XREC_ROUNDTRIP
360
22109
  0
DICTIONARY
  5
22110
330
1B2E3
100
AcDbDictionary
280
     1
281
     1
  3
ACAD_XREC_ROUNDTRIP
360
22111
  0
DICTIONARY
  5
22118
330
1B2E7
100
AcDbDictionary
280
     1
281
     1
  3
ACAD_XREC_ROUNDTRIP
360
22119
  0
XRECORD
  5
2212B
102
{ACAD_REACTORS
330
2212A
102
}
330
2212A
100
AcDbXrecord
280
     1
102
DISPLAYNAME
  1
Imperial24
102
FLAGS
 90
        0
  0
XRECORD
  5
22127
102
{ACAD_REACTORS
330
22126
102
}
330
22126
100
AcDbXrecord
280
     1
102
DISPLAYNAME
  1
Metric50
102
FLAGS
 90
        0
  0
XRECORD
  5
1B22C
102
{ACAD_REACTORS
330
1B22B
102
}
330
1B22B
100
AcDbXrecord
280
     1
102
MATERIAL
148
0.0
149
0.0
149
0.0
 93
        0
 94
      127
282
     0
 72
     1
 77
     1
171
     1
175
     1
179
     1
273
     0
  0
XRECORD
  5
1B22E
102
{ACAD_REACTORS
330
1B22D
102
}
330
1B22D
100
AcDbXrecord
280
     1
102
MATERIAL
148
0.0
149
0.0
149
0.0
 93
        0
 94
      127
282
     0
 72
     1
 77
     1
171
     1
175
     1
179
     1
273
     0
  0
XRECORD
  5
1B230
102
{ACAD_REACTORS
330
1B22F
102
}
330
1B22F
100
AcDbXrecord
280
     1
102
MATERIAL
148
0.0
149
0.0
149
0.0
 93
        0
 94
      127
282
     0
 72
     1
 77
     1
171
     1
175
     1
179
     1
273
     0
  0
XRECORD
  5
22129
102
{ACAD_REACTORS
330
22128
102
}
330
22128
100
AcDbXrecord
280
     1
102
DISPLAYNAME
  1
Imperial24
102
FLAGS
 90
        0
  0
XRECORD
  5
22125
102
{ACAD_REACTORS
330
22124
102
}
330
22124
100
AcDbXrecord
280
     1
102
DISPLAYNAME
  1
Metric50
102
FLAGS
 90
        0
  0
CELLSTYLEMAP
  5
220EE
102
{ACAD_REACTORS
330
1B314
102
}
330
1B314
100
AcDbCellStyleMap
 90
        3
300
CELLSTYLE
  1
TABLEFORMAT_BEGIN
 90
        5
170
     1
 91
        0
 92
    32768
 62
   257
 93
        1
300
CONTENTFORMAT
  1
CONTENTFORMAT_BEGIN
 90
        0
 91
        0
 92
        4
 93
        0
300

 40
0.0
140
1.0
 94
        5
 62
     0
340
11
144
6.0
309
CONTENTFORMAT_END
171
     1
301
MARGIN
  1
CELLMARGIN_BEGIN
 40
1.5
 40
1.5
 40
1.5
 40
1.5
 40
0.18
 40
0.18
309
CELLMARGIN_END
 94
        6
 95
        1
302
GRIDFORMAT
  1
GRIDFORMAT_BEGIN
 90
        0
 91
        1
 62
     0
 92
       -2
340
0
 93
        0
 40
0.045
309
GRIDFORMAT_END
 95
        2
302
GRIDFORMAT
  1
GRIDFORMAT_BEGIN
 90
        0
 91
        1
 62
     0
 92
       -2
340
0
 93
        0
 40
0.045
309
GRIDFORMAT_END
 95
        4
302
GRIDFORMAT
  1
GRIDFORMAT_BEGIN
 90
        0
 91
        1
 62
     0
 92
       -2
340
0
 93
        0
 40
0.045
309
GRIDFORMAT_END
 95
        8
302
GRIDFORMAT
  1
GRIDFORMAT_BEGIN
 90
        0
 91
        1
 62
     0
 92
       -2
340
0
 93
        0
 40
0.045
309
GRIDFORMAT_END
 95
       16
302
GRIDFORMAT
  1
GRIDFORMAT_BEGIN
 90
        0
 91
        1
 62
     0
 92
       -2
340
0
 93
        0
 40
0.045
309
GRIDFORMAT_END
 95
       32
302
GRIDFORMAT
  1
GRIDFORMAT_BEGIN
 90
        0
 91
        1
 62
     0
 92
       -2
340
0
 93
        0
 40
0.045
309
GRIDFORMAT_END
309
TABLEFORMAT_END
  1
CELLSTYLE_BEGIN
 90
        1
 91
        1
300
_TITLE
309
CELLSTYLE_END
300
CELLSTYLE
  1
TABLEFORMAT_BEGIN
 90
        5
170
     1
 91
        0
 92
        0
 62
   257
 93
        1
300
CONTENTFORMAT
  1
CONTENTFORMAT_BEGIN
 90
        0
 91
        0
 92
        4
 93
        0
300

 40
0.0
140
1.0
 94
        5
 62
     0
340
11
144
4.5
309
CONTENTFORMAT_END
171
     1
301
MARGIN
  1
CELLMARGIN_BEGIN
 40
1.5
 40
1.5
 40
1.5
 40
1.5
 40
0.18
 40
0.18
309
CELLMARGIN_END
 94
        6
 95
        1
302
GRIDFORMAT
  1
GRIDFORMAT_BEGIN
 90
        0
 91
        1
 62
     0
 92
       -2
340
0
 93
        0
 40
0.045
309
GRIDFORMAT_END
 95
        2
302
GRIDFORMAT
  1
GRIDFORMAT_BEGIN
 90
        0
 91
        1
 62
     0
 92
       -2
340
0
 93
        0
 40
0.045
309
GRIDFORMAT_END
 95
        4
302
GRIDFORMAT
  1
GRIDFORMAT_BEGIN
 90
        0
 91
        1
 62
     0
 92
       -2
340
0
 93
        0
 40
0.045
309
GRIDFORMAT_END
 95
        8
302
GRIDFORMAT
  1
GRIDFORMAT_BEGIN
 90
        0
 91
        1
 62
     0
 92
       -2
340
0
 93
        0
 40
0.045
309
GRIDFORMAT_END
 95
       16
302
GRIDFORMAT
  1
GRIDFORMAT_BEGIN
 90
        0
 91
        1
 62
     0
 92
       -2
340
0
 93
        0
 40
0.045
309
GRIDFORMAT_END
 95
       32
302
GRIDFORMAT
  1
GRIDFORMAT_BEGIN
 90
        0
 91
        1
 62
     0
 92
       -2
340
0
 93
        0
 40
0.045
309
GRIDFORMAT_END
309
TABLEFORMAT_END
  1
CELLSTYLE_BEGIN
 90
        2
 91
        1
300
_HEADER
309
CELLSTYLE_END
300
CELLSTYLE
  1
TABLEFORMAT_BEGIN
 90
        5
170
     1
 91
        0
 92
        0
 62
   257
 93
        1
300
CONTENTFORMAT
  1
CONTENTFORMAT_BEGIN
 90
        0
 91
        0
 92
        4
 93
        0
300

 40
0.0
140
1.0
 94
        2
 62
     0
340
11
144
4.5
309
CONTENTFORMAT_END
171
     1
301
MARGIN
  1
CELLMARGIN_BEGIN
 40
1.5
 40
1.5
 40
1.5
 40
1.5
 40
0.18
 40
0.18
309
CELLMARGIN_END
 94
        6
 95
        1
302
GRIDFORMAT
  1
GRIDFORMAT_BEGIN
 90
        0
 91
        1
 62
     0
 92
       -2
340
0
 93
        0
 40
0.045
309
GRIDFORMAT_END
 95
        2
302
GRIDFORMAT
  1
GRIDFORMAT_BEGIN
 90
        0
 91
        1
 62
     0
 92
       -2
340
0
 93
        0
 40
0.045
309
GRIDFORMAT_END
 95
        4
302
GRIDFORMAT
  1
GRIDFORMAT_BEGIN
 90
        0
 91
        1
 62
     0
 92
       -2
340
0
 93
        0
 40
0.045
309
GRIDFORMAT_END
 95
        8
302
GRIDFORMAT
  1
GRIDFORMAT_BEGIN
 90
        0
 91
        1
 62
     0
 92
       -2
340
0
 93
        0
 40
0.045
309
GRIDFORMAT_END
 95
       16
302
GRIDFORMAT
  1
GRIDFORMAT_BEGIN
 90
        0
 91
        1
 62
     0
 92
       -2
340
0
 93
        0
 40
0.045
309
GRIDFORMAT_END
 95
       32
302
GRIDFORMAT
  1
GRIDFORMAT_BEGIN
 90
        0
 91
        1
 62
     0
 92
       -2
340
0
 93
        0
 40
0.045
309
GRIDFORMAT_END
309
TABLEFORMAT_END
  1
CELLSTYLE_BEGIN
 90
        3
 91
        2
300
_DATA
309
CELLSTYLE_END
  0
XRECORD
  5
220FB
102
{ACAD_REACTORS
330
220FA
102
}
330
220FA
100
AcDbXrecord
280
     1
102
RTVSPost2010Prop28
280
     1
102
RTVSPost2010PropOp28
 70
     1
102
RTVSPost2010Prop29
280
     1
102
RTVSPost2010PropOp29
 70
     1
102
RTVSPost2010Prop30
280
     0
102
RTVSPost2010PropOp30
 70
     1
102
RTVSPost2010Prop31
280
     0
102
RTVSPost2010PropOp31
 70
     1
102
RTVSPost2010Prop32
280
     0
102
RTVSPost2010PropOp32
 70
     1
102
RTVSPost2010Prop33
280
     0
102
RTVSPost2010PropOp33
 70
     1
102
RTVSPost2010Prop34
280
     0
102
RTVSPost2010PropOp34
 70
     1
102
RTVSPost2010Prop35
280
     0
102
RTVSPost2010PropOp35
 70
     1
102
RTVSPost2010Prop36
280
     0
102
RTVSPost2010PropOp36
 70
     1
102
RTVSPost2010Prop37
 90
       50
102
RTVSPost2010PropOp37
 70
     1
102
RTVSPost2010Prop38
140
0.0
102
RTVSPost2010PropOp38
 70
     1
102
RTVSPost2010Prop39
140
1.0
102
RTVSPost2010PropOp39
 70
     1
102
RTVSPost2010Prop40
 90
        0
102
RTVSPost2010PropOp40
 70
     1
102
RTVSPost2010Prop41ColorIndex
 90
       18
102
RTVSPost2010Prop41ColorRGB
 90
        0
102
RTVSPost2010PropOp41
 70
     1
102
RTVSPost2010Prop42
 90
       50
102
RTVSPost2010PropOp42
 70
     1
102
RTVSPost2010Prop43
 90
        3
102
RTVSPost2010PropOp43
 70
     1
102
RTVSPost2010Prop44ColorIndex
 90
        5
102
RTVSPost2010Prop44ColorRGB
 90
      255
102
RTVSPost2010PropOp44
 70
     1
102
RTVSPost2010Prop45
280
     0
102
RTVSPost2010PropOp45
 70
     1
102
RTVSPost2010Prop46
 90
       50
102
RTVSPost2010PropOp46
 70
     1
102
RTVSPost2010Prop47
 90
       50
102
RTVSPost2010PropOp47
 70
     1
102
RTVSPost2010Prop48
 90
       50
102
RTVSPost2010PropOp48
 70
     1
102
RTVSPost2010Prop49
280
     0
102
RTVSPost2010PropOp49
 70
     1
102
RTVSPost2010Prop50
 90
       50
102
RTVSPost2010PropOp50
 70
     1
102
RTVSPost2010Prop51ColorIndex
 90
      256
102
RTVSPost2010Prop51ColorRGB
 90
-16777216
102
RTVSPost2010PropOp51
 70
     0
102
RTVSPost2010Prop52
140
1.0
102
RTVSPost2010PropOp52
 70
     0
102
RTVSPost2010Prop53
 90
        2
102
RTVSPost2010PropOp53
 70
     1
102
RTVSPost2010Prop54
  1
strokes_ogs.tif
102
RTVSPost2010PropOp54
 70
     1
102
RTVSPost2010Prop55
280
     0
102
RTVSPost2010PropOp55
 70
     1
102
RTVSPost2010Prop56
140
1.0
102
RTVSPost2010PropOp56
 70
     1
102
RTVSPost2010Prop57
140
1.0
102
RTVSPost2010PropOp57
 70
     1
  0
XRECORD
  5
220FF
102
{ACAD_REACTORS
330
220FE
102
}
330
220FE
100
AcDbXrecord
280
     1
102
RTVSPost2010Prop28
280
     0
102
RTVSPost2010PropOp28
 70
     1
102
RTVSPost2010Prop29
280
     1
102
RTVSPost2010PropOp29
 70
     1
102
RTVSPost2010Prop30
280
     1
102
RTVSPost2010PropOp30
 70
     1
102
RTVSPost2010Prop31
280
     0
102
RTVSPost2010PropOp31
 70
     1
102
RTVSPost2010Prop32
280
     0
102
RTVSPost2010PropOp32
 70
     1
102
RTVSPost2010Prop33
280
     0
102
RTVSPost2010PropOp33
 70
     1
102
RTVSPost2010Prop34
280
     0
102
RTVSPost2010PropOp34
 70
     1
102
RTVSPost2010Prop35
280
     0
102
RTVSPost2010PropOp35
 70
     1
102
RTVSPost2010Prop36
280
     0
102
RTVSPost2010PropOp36
 70
     1
102
RTVSPost2010Prop37
 90
       50
102
RTVSPost2010PropOp37
 70
     1
102
RTVSPost2010Prop38
140
0.0
102
RTVSPost2010PropOp38
 70
     1
102
RTVSPost2010Prop39
140
1.0
102
RTVSPost2010PropOp39
 70
     1
102
RTVSPost2010Prop40
 90
        0
102
RTVSPost2010PropOp40
 70
     1
102
RTVSPost2010Prop41ColorIndex
 90
       18
102
RTVSPost2010Prop41ColorRGB
 90
        0
102
RTVSPost2010PropOp41
 70
     1
102
RTVSPost2010Prop42
 90
       50
102
RTVSPost2010PropOp42
 70
     1
102
RTVSPost2010Prop43
 90
        3
102
RTVSPost2010PropOp43
 70
     1
102
RTVSPost2010Prop44ColorIndex
 90
        5
102
RTVSPost2010Prop44ColorRGB
 90
      255
102
RTVSPost2010PropOp44
 70
     1
102
RTVSPost2010Prop45
280
     0
102
RTVSPost2010PropOp45
 70
     1
102
RTVSPost2010Prop46
 90
       50
102
RTVSPost2010PropOp46
 70
     1
102
RTVSPost2010Prop47
 90
       50
102
RTVSPost2010PropOp47
 70
     1
102
RTVSPost2010Prop48
 90
       50
102
RTVSPost2010PropOp48
 70
     1
102
RTVSPost2010Prop49
280
     0
102
RTVSPost2010PropOp49
 70
     1
102
RTVSPost2010Prop50
 90
       50
102
RTVSPost2010PropOp50
 70
     1
102
RTVSPost2010Prop51ColorIndex
 90
      256
102
RTVSPost2010Prop51ColorRGB
 90
-16777216
102
RTVSPost2010PropOp51
 70
     0
102
RTVSPost2010Prop52
140
1.0
102
RTVSPost2010PropOp52
 70
     0
102
RTVSPost2010Prop53
 90
        2
102
RTVSPost2010PropOp53
 70
     1
102
RTVSPost2010Prop54
  1
strokes_ogs.tif
102
RTVSPost2010PropOp54
 70
     1
102
RTVSPost2010Prop55
280
     0
102
RTVSPost2010PropOp55
 70
     1
102
RTVSPost2010Prop56
140
1.0
102
RTVSPost2010PropOp56
 70
     1
102
RTVSPost2010Prop57
140
1.0
102
RTVSPost2010PropOp57
 70
     1
  0
XRECORD
  5
220FD
102
{ACAD_REACTORS
330
220FC
102
}
330
220FC
100
AcDbXrecord
280
     1
102
RTVSPost2010Prop28
280
     0
102
RTVSPost2010PropOp28
 70
     1
102
RTVSPost2010Prop29
280
     1
102
RTVSPost2010PropOp29
 70
     1
102
RTVSPost2010Prop30
280
     1
102
RTVSPost2010PropOp30
 70
     1
102
RTVSPost2010Prop31
280
     0
102
RTVSPost2010PropOp31
 70
     1
102
RTVSPost2010Prop32
280
     0
102
RTVSPost2010PropOp32
 70
     1
102
RTVSPost2010Prop33
280
     0
102
RTVSPost2010PropOp33
 70
     1
102
RTVSPost2010Prop34
280
     0
102
RTVSPost2010PropOp34
 70
     1
102
RTVSPost2010Prop35
280
     0
102
RTVSPost2010PropOp35
 70
     1
102
RTVSPost2010Prop36
280
     0
102
RTVSPost2010PropOp36
 70
     1
102
RTVSPost2010Prop37
 90
       50
102
RTVSPost2010PropOp37
 70
     1
102
RTVSPost2010Prop38
140
0.0
102
RTVSPost2010PropOp38
 70
     1
102
RTVSPost2010Prop39
140
1.0
102
RTVSPost2010PropOp39
 70
     1
102
RTVSPost2010Prop40
 90
        0
102
RTVSPost2010PropOp40
 70
     1
102
RTVSPost2010Prop41ColorIndex
 90
       18
102
RTVSPost2010Prop41ColorRGB
 90
        0
102
RTVSPost2010PropOp41
 70
     1
102
RTVSPost2010Prop42
 90
       50
102
RTVSPost2010PropOp42
 70
     1
102
RTVSPost2010Prop43
 90
        3
102
RTVSPost2010PropOp43
 70
     1
102
RTVSPost2010Prop44ColorIndex
 90
        5
102
RTVSPost2010Prop44ColorRGB
 90
      255
102
RTVSPost2010PropOp44
 70
     1
102
RTVSPost2010Prop45
280
     0
102
RTVSPost2010PropOp45
 70
     1
102
RTVSPost2010Prop46
 90
       50
102
RTVSPost2010PropOp46
 70
     1
102
RTVSPost2010Prop47
 90
       50
102
RTVSPost2010PropOp47
 70
     1
102
RTVSPost2010Prop48
 90
       50
102
RTVSPost2010PropOp48
 70
     1
102
RTVSPost2010Prop49
280
     0
102
RTVSPost2010PropOp49
 70
     1
102
RTVSPost2010Prop50
 90
       50
102
RTVSPost2010PropOp50
 70
     1
102
RTVSPost2010Prop51ColorIndex
 90
      256
102
RTVSPost2010Prop51ColorRGB
 90
-16777216
102
RTVSPost2010PropOp51
 70
     0
102
RTVSPost2010Prop52
140
1.0
102
RTVSPost2010PropOp52
 70
     0
102
RTVSPost2010Prop53
 90
        2
102
RTVSPost2010PropOp53
 70
     1
102
RTVSPost2010Prop54
  1
strokes_ogs.tif
102
RTVSPost2010PropOp54
 70
     1
102
RTVSPost2010Prop55
280
     0
102
RTVSPost2010PropOp55
 70
     1
102
RTVSPost2010Prop56
140
1.0
102
RTVSPost2010PropOp56
 70
     1
102
RTVSPost2010Prop57
140
1.0
102
RTVSPost2010PropOp57
 70
     1
  0
XRECORD
  5
220F9
102
{ACAD_REACTORS
330
220F8
102
}
330
220F8
100
AcDbXrecord
280
     1
102
RTVSPost2010Prop28
280
     0
102
RTVSPost2010PropOp28
 70
     1
102
RTVSPost2010Prop29
280
     1
102
RTVSPost2010PropOp29
 70
     1
102
RTVSPost2010Prop30
280
     1
102
RTVSPost2010PropOp30
 70
     1
102
RTVSPost2010Prop31
280
     0
102
RTVSPost2010PropOp31
 70
     1
102
RTVSPost2010Prop32
280
     0
102
RTVSPost2010PropOp32
 70
     1
102
RTVSPost2010Prop33
280
     0
102
RTVSPost2010PropOp33
 70
     1
102
RTVSPost2010Prop34
280
     0
102
RTVSPost2010PropOp34
 70
     1
102
RTVSPost2010Prop35
280
     0
102
RTVSPost2010PropOp35
 70
     1
102
RTVSPost2010Prop36
280
     0
102
RTVSPost2010PropOp36
 70
     1
102
RTVSPost2010Prop37
 90
       50
102
RTVSPost2010PropOp37
 70
     1
102
RTVSPost2010Prop38
140
0.0
102
RTVSPost2010PropOp38
 70
     1
102
RTVSPost2010Prop39
140
1.0
102
RTVSPost2010PropOp39
 70
     1
102
RTVSPost2010Prop40
 90
        0
102
RTVSPost2010PropOp40
 70
     1
102
RTVSPost2010Prop41ColorIndex
 90
       18
102
RTVSPost2010Prop41ColorRGB
 90
        0
102
RTVSPost2010PropOp41
 70
     1
102
RTVSPost2010Prop42
 90
       50
102
RTVSPost2010PropOp42
 70
     1
102
RTVSPost2010Prop43
 90
        3
102
RTVSPost2010PropOp43
 70
     1
102
RTVSPost2010Prop44ColorIndex
 90
        5
102
RTVSPost2010Prop44ColorRGB
 90
      255
102
RTVSPost2010PropOp44
 70
     1
102
RTVSPost2010Prop45
280
     0
102
RTVSPost2010PropOp45
 70
     1
102
RTVSPost2010Prop46
 90
       50
102
RTVSPost2010PropOp46
 70
     1
102
RTVSPost2010Prop47
 90
       50
102
RTVSPost2010PropOp47
 70
     1
102
RTVSPost2010Prop48
 90
       50
102
RTVSPost2010PropOp48
 70
     1
102
RTVSPost2010Prop49
280
     0
102
RTVSPost2010PropOp49
 70
     1
102
RTVSPost2010Prop50
 90
       50
102
RTVSPost2010PropOp50
 70
     1
102
RTVSPost2010Prop51ColorIndex
 90
      256
102
RTVSPost2010Prop51ColorRGB
 90
-16777216
102
RTVSPost2010PropOp51
 70
     0
102
RTVSPost2010Prop52
140
1.0
102
RTVSPost2010PropOp52
 70
     0
102
RTVSPost2010Prop53
 90
        2
102
RTVSPost2010PropOp53
 70
     1
102
RTVSPost2010Prop54
  1
strokes_ogs.tif
102
RTVSPost2010PropOp54
 70
     1
102
RTVSPost2010Prop55
280
     0
102
RTVSPost2010PropOp55
 70
     1
102
RTVSPost2010Prop56
140
1.0
102
RTVSPost2010PropOp56
 70
     1
102
RTVSPost2010Prop57
140
1.0
102
RTVSPost2010PropOp57
 70
     1
  0
XRECORD
  5
22107
102
{ACAD_REACTORS
330
22106
102
}
330
22106
100
AcDbXrecord
280
     1
102
RTVSPost2010Prop28
280
     0
102
RTVSPost2010PropOp28
 70
     1
102
RTVSPost2010Prop29
280
     1
102
RTVSPost2010PropOp29
 70
     1
102
RTVSPost2010Prop30
280
     1
102
RTVSPost2010PropOp30
 70
     1
102
RTVSPost2010Prop31
280
     0
102
RTVSPost2010PropOp31
 70
     1
102
RTVSPost2010Prop32
280
     0
102
RTVSPost2010PropOp32
 70
     1
102
RTVSPost2010Prop33
280
     0
102
RTVSPost2010PropOp33
 70
     1
102
RTVSPost2010Prop34
280
     0
102
RTVSPost2010PropOp34
 70
     1
102
RTVSPost2010Prop35
280
     0
102
RTVSPost2010PropOp35
 70
     1
102
RTVSPost2010Prop36
280
     0
102
RTVSPost2010PropOp36
 70
     1
102
RTVSPost2010Prop37
 90
       50
102
RTVSPost2010PropOp37
 70
     1
102
RTVSPost2010Prop38
140
0.0
102
RTVSPost2010PropOp38
 70
     1
102
RTVSPost2010Prop39
140
1.0
102
RTVSPost2010PropOp39
 70
     1
102
RTVSPost2010Prop40
 90
        0
102
RTVSPost2010PropOp40
 70
     1
102
RTVSPost2010Prop41ColorIndex
 90
       18
102
RTVSPost2010Prop41ColorRGB
 90
        0
102
RTVSPost2010PropOp41
 70
     1
102
RTVSPost2010Prop42
 90
       50
102
RTVSPost2010PropOp42
 70
     1
102
RTVSPost2010Prop43
 90
        3
102
RTVSPost2010PropOp43
 70
     1
102
RTVSPost2010Prop44ColorIndex
 90
        5
102
RTVSPost2010Prop44ColorRGB
 90
      255
102
RTVSPost2010PropOp44
 70
     1
102
RTVSPost2010Prop45
280
     0
102
RTVSPost2010PropOp45
 70
     1
102
RTVSPost2010Prop46
 90
       50
102
RTVSPost2010PropOp46
 70
     1
102
RTVSPost2010Prop47
 90
       50
102
RTVSPost2010PropOp47
 70
     1
102
RTVSPost2010Prop48
 90
       50
102
RTVSPost2010PropOp48
 70
     1
102
RTVSPost2010Prop49
280
     0
102
RTVSPost2010PropOp49
 70
     1
102
RTVSPost2010Prop50
 90
       50
102
RTVSPost2010PropOp50
 70
     1
102
RTVSPost2010Prop51ColorIndex
 90
      256
102
RTVSPost2010Prop51ColorRGB
 90
-16777216
102
RTVSPost2010PropOp51
 70
     0
102
RTVSPost2010Prop52
140
1.0
102
RTVSPost2010PropOp52
 70
     0
102
RTVSPost2010Prop53
 90
        2
102
RTVSPost2010PropOp53
 70
     1
102
RTVSPost2010Prop54
  1
strokes_ogs.tif
102
RTVSPost2010PropOp54
 70
     1
102
RTVSPost2010Prop55
280
     0
102
RTVSPost2010PropOp55
 70
     1
102
RTVSPost2010Prop56
140
1.0
102
RTVSPost2010PropOp56
 70
     1
102
RTVSPost2010Prop57
140
1.0
102
RTVSPost2010PropOp57
 70
     1
  0
XRECORD
  5
2210F
102
{ACAD_REACTORS
330
2210E
102
}
330
2210E
100
AcDbXrecord
280
     1
102
RTVSPost2010Prop28
280
     0
102
RTVSPost2010PropOp28
 70
     1
102
RTVSPost2010Prop29
280
     1
102
RTVSPost2010PropOp29
 70
     1
102
RTVSPost2010Prop30
280
     1
102
RTVSPost2010PropOp30
 70
     1
102
RTVSPost2010Prop31
280
     0
102
RTVSPost2010PropOp31
 70
     1
102
RTVSPost2010Prop32
280
     0
102
RTVSPost2010PropOp32
 70
     1
102
RTVSPost2010Prop33
280
     0
102
RTVSPost2010PropOp33
 70
     1
102
RTVSPost2010Prop34
280
     0
102
RTVSPost2010PropOp34
 70
     1
102
RTVSPost2010Prop35
280
     0
102
RTVSPost2010PropOp35
 70
     1
102
RTVSPost2010Prop36
280
     0
102
RTVSPost2010PropOp36
 70
     1
102
RTVSPost2010Prop37
 90
       50
102
RTVSPost2010PropOp37
 70
     1
102
RTVSPost2010Prop38
140
0.0
102
RTVSPost2010PropOp38
 70
     1
102
RTVSPost2010Prop39
140
1.0
102
RTVSPost2010PropOp39
 70
     1
102
RTVSPost2010Prop40
 90
        0
102
RTVSPost2010PropOp40
 70
     1
102
RTVSPost2010Prop41ColorIndex
 90
       18
102
RTVSPost2010Prop41ColorRGB
 90
        0
102
RTVSPost2010PropOp41
 70
     1
102
RTVSPost2010Prop42
 90
       50
102
RTVSPost2010PropOp42
 70
     1
102
RTVSPost2010Prop43
 90
        3
102
RTVSPost2010PropOp43
 70
     1
102
RTVSPost2010Prop44ColorIndex
 90
        5
102
RTVSPost2010Prop44ColorRGB
 90
      255
102
RTVSPost2010PropOp44
 70
     1
102
RTVSPost2010Prop45
280
     0
102
RTVSPost2010PropOp45
 70
     1
102
RTVSPost2010Prop46
 90
       50
102
RTVSPost2010PropOp46
 70
     1
102
RTVSPost2010Prop47
 90
       50
102
RTVSPost2010PropOp47
 70
     1
102
RTVSPost2010Prop48
 90
       50
102
RTVSPost2010PropOp48
 70
     1
102
RTVSPost2010Prop49
280
     0
102
RTVSPost2010PropOp49
 70
     1
102
RTVSPost2010Prop50
 90
       50
102
RTVSPost2010PropOp50
 70
     1
102
RTVSPost2010Prop51ColorIndex
 90
      256
102
RTVSPost2010Prop51ColorRGB
 90
-16777216
102
RTVSPost2010PropOp51
 70
     0
102
RTVSPost2010Prop52
140
1.0
102
RTVSPost2010PropOp52
 70
     0
102
RTVSPost2010Prop53
 90
        2
102
RTVSPost2010PropOp53
 70
     1
102
RTVSPost2010Prop54
  1
strokes_ogs.tif
102
RTVSPost2010PropOp54
 70
     1
102
RTVSPost2010Prop55
280
     0
102
RTVSPost2010PropOp55
 70
     1
102
RTVSPost2010Prop56
140
1.0
102
RTVSPost2010PropOp56
 70
     1
102
RTVSPost2010Prop57
140
1.0
102
RTVSPost2010PropOp57
 70
     1
  0
XRECORD
  5
22101
102
{ACAD_REACTORS
330
22100
102
}
330
22100
100
AcDbXrecord
280
     1
102
RTVSPost2010Prop28
280
     0
102
RTVSPost2010PropOp28
 70
     1
102
RTVSPost2010Prop29
280
     1
102
RTVSPost2010PropOp29
 70
     1
102
RTVSPost2010Prop30
280
     1
102
RTVSPost2010PropOp30
 70
     1
102
RTVSPost2010Prop31
280
     0
102
RTVSPost2010PropOp31
 70
     1
102
RTVSPost2010Prop32
280
     0
102
RTVSPost2010PropOp32
 70
     1
102
RTVSPost2010Prop33
280
     0
102
RTVSPost2010PropOp33
 70
     1
102
RTVSPost2010Prop34
280
     0
102
RTVSPost2010PropOp34
 70
     1
102
RTVSPost2010Prop35
280
     0
102
RTVSPost2010PropOp35
 70
     1
102
RTVSPost2010Prop36
280
     0
102
RTVSPost2010PropOp36
 70
     1
102
RTVSPost2010Prop37
 90
       50
102
RTVSPost2010PropOp37
 70
     1
102
RTVSPost2010Prop38
140
0.0
102
RTVSPost2010PropOp38
 70
     1
102
RTVSPost2010Prop39
140
1.0
102
RTVSPost2010PropOp39
 70
     1
102
RTVSPost2010Prop40
 90
        0
102
RTVSPost2010PropOp40
 70
     1
102
RTVSPost2010Prop41ColorIndex
 90
       18
102
RTVSPost2010Prop41ColorRGB
 90
        0
102
RTVSPost2010PropOp41
 70
     1
102
RTVSPost2010Prop42
 90
       50
102
RTVSPost2010PropOp42
 70
     1
102
RTVSPost2010Prop43
 90
        3
102
RTVSPost2010PropOp43
 70
     1
102
RTVSPost2010Prop44ColorIndex
 90
        5
102
RTVSPost2010Prop44ColorRGB
 90
      255
102
RTVSPost2010PropOp44
 70
     1
102
RTVSPost2010Prop45
280
     0
102
RTVSPost2010PropOp45
 70
     1
102
RTVSPost2010Prop46
 90
       50
102
RTVSPost2010PropOp46
 70
     1
102
RTVSPost2010Prop47
 90
       50
102
RTVSPost2010PropOp47
 70
     1
102
RTVSPost2010Prop48
 90
       50
102
RTVSPost2010PropOp48
 70
     1
102
RTVSPost2010Prop49
280
     0
102
RTVSPost2010PropOp49
 70
     1
102
RTVSPost2010Prop50
 90
       50
102
RTVSPost2010PropOp50
 70
     1
102
RTVSPost2010Prop51ColorIndex
 90
      256
102
RTVSPost2010Prop51ColorRGB
 90
-16777216
102
RTVSPost2010PropOp51
 70
     0
102
RTVSPost2010Prop52
140
1.0
102
RTVSPost2010PropOp52
 70
     0
102
RTVSPost2010Prop53
 90
        2
102
RTVSPost2010PropOp53
 70
     1
102
RTVSPost2010Prop54
  1
strokes_ogs.tif
102
RTVSPost2010PropOp54
 70
     1
102
RTVSPost2010Prop55
280
     0
102
RTVSPost2010PropOp55
 70
     1
102
RTVSPost2010Prop56
140
1.0
102
RTVSPost2010PropOp56
 70
     1
102
RTVSPost2010Prop57
140
1.0
102
RTVSPost2010PropOp57
 70
     1
  0
XRECORD
  5
22105
102
{ACAD_REACTORS
330
22104
102
}
330
22104
100
AcDbXrecord
280
     1
102
RTVSPost2010Prop28
280
     0
102
RTVSPost2010PropOp28
 70
     1
102
RTVSPost2010Prop29
280
     1
102
RTVSPost2010PropOp29
 70
     1
102
RTVSPost2010Prop30
280
     1
102
RTVSPost2010PropOp30
 70
     1
102
RTVSPost2010Prop31
280
     0
102
RTVSPost2010PropOp31
 70
     1
102
RTVSPost2010Prop32
280
     0
102
RTVSPost2010PropOp32
 70
     1
102
RTVSPost2010Prop33
280
     0
102
RTVSPost2010PropOp33
 70
     1
102
RTVSPost2010Prop34
280
     0
102
RTVSPost2010PropOp34
 70
     1
102
RTVSPost2010Prop35
280
     0
102
RTVSPost2010PropOp35
 70
     1
102
RTVSPost2010Prop36
280
     0
102
RTVSPost2010PropOp36
 70
     1
102
RTVSPost2010Prop37
 90
       50
102
RTVSPost2010PropOp37
 70
     1
102
RTVSPost2010Prop38
140
0.0
102
RTVSPost2010PropOp38
 70
     1
102
RTVSPost2010Prop39
140
1.0
102
RTVSPost2010PropOp39
 70
     1
102
RTVSPost2010Prop40
 90
        0
102
RTVSPost2010PropOp40
 70
     1
102
RTVSPost2010Prop41ColorIndex
 90
       18
102
RTVSPost2010Prop41ColorRGB
 90
        0
102
RTVSPost2010PropOp41
 70
     1
102
RTVSPost2010Prop42
 90
       50
102
RTVSPost2010PropOp42
 70
     1
102
RTVSPost2010Prop43
 90
        3
102
RTVSPost2010PropOp43
 70
     1
102
RTVSPost2010Prop44ColorIndex
 90
        5
102
RTVSPost2010Prop44ColorRGB
 90
      255
102
RTVSPost2010PropOp44
 70
     1
102
RTVSPost2010Prop45
280
     0
102
RTVSPost2010PropOp45
 70
     1
102
RTVSPost2010Prop46
 90
       50
102
RTVSPost2010PropOp46
 70
     1
102
RTVSPost2010Prop47
 90
       50
102
RTVSPost2010PropOp47
 70
     1
102
RTVSPost2010Prop48
 90
       50
102
RTVSPost2010PropOp48
 70
     1
102
RTVSPost2010Prop49
280
     0
102
RTVSPost2010PropOp49
 70
     1
102
RTVSPost2010Prop50
 90
       50
102
RTVSPost2010PropOp50
 70
     1
102
RTVSPost2010Prop51ColorIndex
 90
      256
102
RTVSPost2010Prop51ColorRGB
 90
-16777216
102
RTVSPost2010PropOp51
 70
     0
102
RTVSPost2010Prop52
140
1.0
102
RTVSPost2010PropOp52
 70
     0
102
RTVSPost2010Prop53
 90
        2
102
RTVSPost2010PropOp53
 70
     1
102
RTVSPost2010Prop54
  1
strokes_ogs.tif
102
RTVSPost2010PropOp54
 70
     1
102
RTVSPost2010Prop55
280
     0
102
RTVSPost2010PropOp55
 70
     1
102
RTVSPost2010Prop56
140
1.0
102
RTVSPost2010PropOp56
 70
     1
102
RTVSPost2010Prop57
140
1.0
102
RTVSPost2010PropOp57
 70
     1
  0
XRECORD
  5
22123
102
{ACAD_REACTORS
330
22122
102
}
330
22122
100
AcDbXrecord
280
     1
102
RTVSPost2010Prop28
280
     0
102
RTVSPost2010PropOp28
 70
     1
102
RTVSPost2010Prop29
280
     1
102
RTVSPost2010PropOp29
 70
     1
102
RTVSPost2010Prop30
280
     1
102
RTVSPost2010PropOp30
 70
     1
102
RTVSPost2010Prop31
280
     0
102
RTVSPost2010PropOp31
 70
     1
102
RTVSPost2010Prop32
280
     0
102
RTVSPost2010PropOp32
 70
     1
102
RTVSPost2010Prop33
280
     0
102
RTVSPost2010PropOp33
 70
     1
102
RTVSPost2010Prop34
280
     0
102
RTVSPost2010PropOp34
 70
     1
102
RTVSPost2010Prop35
280
     0
102
RTVSPost2010PropOp35
 70
     1
102
RTVSPost2010Prop36
280
     0
102
RTVSPost2010PropOp36
 70
     1
102
RTVSPost2010Prop37
 90
       50
102
RTVSPost2010PropOp37
 70
     0
102
RTVSPost2010Prop38
140
0.0
102
RTVSPost2010PropOp38
 70
     0
102
RTVSPost2010Prop39
140
1.0
102
RTVSPost2010PropOp39
 70
     0
102
RTVSPost2010Prop40
 90
        0
102
RTVSPost2010PropOp40
 70
     0
102
RTVSPost2010Prop41ColorIndex
 90
       18
102
RTVSPost2010Prop41ColorRGB
 90
        0
102
RTVSPost2010PropOp41
 70
     0
102
RTVSPost2010Prop42
 90
       50
102
RTVSPost2010PropOp42
 70
     0
102
RTVSPost2010Prop43
 90
        3
102
RTVSPost2010PropOp43
 70
     0
102
RTVSPost2010Prop44ColorIndex
 90
        5
102
RTVSPost2010Prop44ColorRGB
 90
      255
102
RTVSPost2010PropOp44
 70
     0
102
RTVSPost2010Prop45
280
     0
102
RTVSPost2010PropOp45
 70
     1
102
RTVSPost2010Prop46
 90
       50
102
RTVSPost2010PropOp46
 70
     0
102
RTVSPost2010Prop47
 90
       50
102
RTVSPost2010PropOp47
 70
     0
102
RTVSPost2010Prop48
 90
       50
102
RTVSPost2010PropOp48
 70
     0
102
RTVSPost2010Prop49
280
     0
102
RTVSPost2010PropOp49
 70
     1
102
RTVSPost2010Prop50
 90
       50
102
RTVSPost2010PropOp50
 70
     0
102
RTVSPost2010Prop51ColorIndex
 90
      256
102
RTVSPost2010Prop51ColorRGB
 90
-16777216
102
RTVSPost2010PropOp51
 70
     0
102
RTVSPost2010Prop52
140
1.0
102
RTVSPost2010PropOp52
 70
     0
102
RTVSPost2010Prop53
 90
        2
102
RTVSPost2010PropOp53
 70
     0
102
RTVSPost2010Prop54
  1
strokes_ogs.tif
102
RTVSPost2010PropOp54
 70
     0
102
RTVSPost2010Prop55
280
     0
102
RTVSPost2010PropOp55
 70
     1
102
RTVSPost2010Prop56
140
1.0
102
RTVSPost2010PropOp56
 70
     0
102
RTVSPost2010Prop57
140
1.0
102
RTVSPost2010PropOp57
 70
     0
  0
XRECORD
  5
2210D
102
{ACAD_REACTORS
330
2210C
102
}
330
2210C
100
AcDbXrecord
280
     1
102
RTVSPost2010Prop28
280
     0
102
RTVSPost2010PropOp28
 70
     1
102
RTVSPost2010Prop29
280
     1
102
RTVSPost2010PropOp29
 70
     1
102
RTVSPost2010Prop30
280
     1
102
RTVSPost2010PropOp30
 70
     1
102
RTVSPost2010Prop31
280
     0
102
RTVSPost2010PropOp31
 70
     1
102
RTVSPost2010Prop32
280
     0
102
RTVSPost2010PropOp32
 70
     1
102
RTVSPost2010Prop33
280
     0
102
RTVSPost2010PropOp33
 70
     1
102
RTVSPost2010Prop34
280
     0
102
RTVSPost2010PropOp34
 70
     1
102
RTVSPost2010Prop35
280
     0
102
RTVSPost2010PropOp35
 70
     1
102
RTVSPost2010Prop36
280
     0
102
RTVSPost2010PropOp36
 70
     1
102
RTVSPost2010Prop37
 90
       50
102
RTVSPost2010PropOp37
 70
     1
102
RTVSPost2010Prop38
140
0.0
102
RTVSPost2010PropOp38
 70
     1
102
RTVSPost2010Prop39
140
1.0
102
RTVSPost2010PropOp39
 70
     1
102
RTVSPost2010Prop40
 90
        0
102
RTVSPost2010PropOp40
 70
     1
102
RTVSPost2010Prop41ColorIndex
 90
       18
102
RTVSPost2010Prop41ColorRGB
 90
        0
102
RTVSPost2010PropOp41
 70
     1
102
RTVSPost2010Prop42
 90
       50
102
RTVSPost2010PropOp42
 70
     1
102
RTVSPost2010Prop43
 90
        3
102
RTVSPost2010PropOp43
 70
     1
102
RTVSPost2010Prop44ColorIndex
 90
        5
102
RTVSPost2010Prop44ColorRGB
 90
      255
102
RTVSPost2010PropOp44
 70
     1
102
RTVSPost2010Prop45
280
     0
102
RTVSPost2010PropOp45
 70
     1
102
RTVSPost2010Prop46
 90
       50
102
RTVSPost2010PropOp46
 70
     1
102
RTVSPost2010Prop47
 90
       50
102
RTVSPost2010PropOp47
 70
     1
102
RTVSPost2010Prop48
 90
       50
102
RTVSPost2010PropOp48
 70
     1
102
RTVSPost2010Prop49
280
     0
102
RTVSPost2010PropOp49
 70
     1
102
RTVSPost2010Prop50
 90
       50
102
RTVSPost2010PropOp50
 70
     1
102
RTVSPost2010Prop51ColorIndex
 90
      256
102
RTVSPost2010Prop51ColorRGB
 90
-16777216
102
RTVSPost2010PropOp51
 70
     0
102
RTVSPost2010Prop52
140
1.0
102
RTVSPost2010PropOp52
 70
     0
102
RTVSPost2010Prop53
 90
        2
102
RTVSPost2010PropOp53
 70
     1
102
RTVSPost2010Prop54
  1
strokes_ogs.tif
102
RTVSPost2010PropOp54
 70
     1
102
RTVSPost2010Prop55
280
     0
102
RTVSPost2010PropOp55
 70
     1
102
RTVSPost2010Prop56
140
1.0
102
RTVSPost2010PropOp56
 70
     1
102
RTVSPost2010Prop57
140
1.0
102
RTVSPost2010PropOp57
 70
     1
  0
XRECORD
  5
220F1
102
{ACAD_REACTORS
330
220F0
102
}
330
220F0
100
AcDbXrecord
280
     1
102
RTVSPost2010Prop28
280
     0
102
RTVSPost2010PropOp28
 70
     1
102
RTVSPost2010Prop29
280
     1
102
RTVSPost2010PropOp29
 70
     1
102
RTVSPost2010Prop30
280
     1
102
RTVSPost2010PropOp30
 70
     1
102
RTVSPost2010Prop31
280
     0
102
RTVSPost2010PropOp31
 70
     1
102
RTVSPost2010Prop32
280
     0
102
RTVSPost2010PropOp32
 70
     1
102
RTVSPost2010Prop33
280
     0
102
RTVSPost2010PropOp33
 70
     1
102
RTVSPost2010Prop34
280
     0
102
RTVSPost2010PropOp34
 70
     1
102
RTVSPost2010Prop35
280
     0
102
RTVSPost2010PropOp35
 70
     1
102
RTVSPost2010Prop36
280
     0
102
RTVSPost2010PropOp36
 70
     1
102
RTVSPost2010Prop37
 90
       50
102
RTVSPost2010PropOp37
 70
     1
102
RTVSPost2010Prop38
140
0.0
102
RTVSPost2010PropOp38
 70
     1
102
RTVSPost2010Prop39
140
1.0
102
RTVSPost2010PropOp39
 70
     1
102
RTVSPost2010Prop40
 90
        0
102
RTVSPost2010PropOp40
 70
     1
102
RTVSPost2010Prop41ColorIndex
 90
       18
102
RTVSPost2010Prop41ColorRGB
 90
        0
102
RTVSPost2010PropOp41
 70
     1
102
RTVSPost2010Prop42
 90
       50
102
RTVSPost2010PropOp42
 70
     1
102
RTVSPost2010Prop43
 90
        3
102
RTVSPost2010PropOp43
 70
     1
102
RTVSPost2010Prop44ColorIndex
 90
        5
102
RTVSPost2010Prop44ColorRGB
 90
      255
102
RTVSPost2010PropOp44
 70
     1
102
RTVSPost2010Prop45
280
     0
102
RTVSPost2010PropOp45
 70
     1
102
RTVSPost2010Prop46
 90
       50
102
RTVSPost2010PropOp46
 70
     1
102
RTVSPost2010Prop47
 90
       50
102
RTVSPost2010PropOp47
 70
     1
102
RTVSPost2010Prop48
 90
       50
102
RTVSPost2010PropOp48
 70
     1
102
RTVSPost2010Prop49
280
     0
102
RTVSPost2010PropOp49
 70
     1
102
RTVSPost2010Prop50
 90
       50
102
RTVSPost2010PropOp50
 70
     1
102
RTVSPost2010Prop51ColorIndex
 90
      256
102
RTVSPost2010Prop51ColorRGB
 90
-16777216
102
RTVSPost2010PropOp51
 70
     0
102
RTVSPost2010Prop52
140
1.0
102
RTVSPost2010PropOp52
 70
     0
102
RTVSPost2010Prop53
 90
        2
102
RTVSPost2010PropOp53
 70
     1
102
RTVSPost2010Prop54
  1
strokes_ogs.tif
102
RTVSPost2010PropOp54
 70
     1
102
RTVSPost2010Prop55
280
     0
102
RTVSPost2010PropOp55
 70
     1
102
RTVSPost2010Prop56
140
1.0
102
RTVSPost2010PropOp56
 70
     1
102
RTVSPost2010Prop57
140
1.0
102
RTVSPost2010PropOp57
 70
     1
  0
XRECORD
  5
220F3
102
{ACAD_REACTORS
330
220F2
102
}
330
220F2
100
AcDbXrecord
280
     1
102
RTVSPost2010Prop28
280
     0
102
RTVSPost2010PropOp28
 70
     1
102
RTVSPost2010Prop29
280
     1
102
RTVSPost2010PropOp29
 70
     1
102
RTVSPost2010Prop30
280
     1
102
RTVSPost2010PropOp30
 70
     1
102
RTVSPost2010Prop31
280
     0
102
RTVSPost2010PropOp31
 70
     1
102
RTVSPost2010Prop32
280
     0
102
RTVSPost2010PropOp32
 70
     1
102
RTVSPost2010Prop33
280
     0
102
RTVSPost2010PropOp33
 70
     1
102
RTVSPost2010Prop34
280
     0
102
RTVSPost2010PropOp34
 70
     1
102
RTVSPost2010Prop35
280
     0
102
RTVSPost2010PropOp35
 70
     1
102
RTVSPost2010Prop36
280
     0
102
RTVSPost2010PropOp36
 70
     1
102
RTVSPost2010Prop37
 90
       50
102
RTVSPost2010PropOp37
 70
     1
102
RTVSPost2010Prop38
140
0.0
102
RTVSPost2010PropOp38
 70
     1
102
RTVSPost2010Prop39
140
1.0
102
RTVSPost2010PropOp39
 70
     1
102
RTVSPost2010Prop40
 90
        0
102
RTVSPost2010PropOp40
 70
     1
102
RTVSPost2010Prop41ColorIndex
 90
       18
102
RTVSPost2010Prop41ColorRGB
 90
        0
102
RTVSPost2010PropOp41
 70
     1
102
RTVSPost2010Prop42
 90
       50
102
RTVSPost2010PropOp42
 70
     1
102
RTVSPost2010Prop43
 90
        3
102
RTVSPost2010PropOp43
 70
     1
102
RTVSPost2010Prop44ColorIndex
 90
        5
102
RTVSPost2010Prop44ColorRGB
 90
      255
102
RTVSPost2010PropOp44
 70
     1
102
RTVSPost2010Prop45
280
     0
102
RTVSPost2010PropOp45
 70
     1
102
RTVSPost2010Prop46
 90
       50
102
RTVSPost2010PropOp46
 70
     1
102
RTVSPost2010Prop47
 90
       50
102
RTVSPost2010PropOp47
 70
     1
102
RTVSPost2010Prop48
 90
       50
102
RTVSPost2010PropOp48
 70
     1
102
RTVSPost2010Prop49
280
     0
102
RTVSPost2010PropOp49
 70
     1
102
RTVSPost2010Prop50
 90
       50
102
RTVSPost2010PropOp50
 70
     1
102
RTVSPost2010Prop51ColorIndex
 90
      256
102
RTVSPost2010Prop51ColorRGB
 90
-16777216
102
RTVSPost2010PropOp51
 70
     0
102
RTVSPost2010Prop52
140
1.0
102
RTVSPost2010PropOp52
 70
     0
102
RTVSPost2010Prop53
 90
        2
102
RTVSPost2010PropOp53
 70
     1
102
RTVSPost2010Prop54
  1
strokes_ogs.tif
102
RTVSPost2010PropOp54
 70
     1
102
RTVSPost2010Prop55
280
     0
102
RTVSPost2010PropOp55
 70
     1
102
RTVSPost2010Prop56
140
1.0
102
RTVSPost2010PropOp56
 70
     1
102
RTVSPost2010Prop57
140
1.0
102
RTVSPost2010PropOp57
 70
     1
  0
XRECORD
  5
220F5
102
{ACAD_REACTORS
330
220F4
102
}
330
220F4
100
AcDbXrecord
280
     1
102
RTVSPost2010Prop28
280
     0
102
RTVSPost2010PropOp28
 70
     1
102
RTVSPost2010Prop29
280
     1
102
RTVSPost2010PropOp29
 70
     1
102
RTVSPost2010Prop30
280
     1
102
RTVSPost2010PropOp30
 70
     1
102
RTVSPost2010Prop31
280
     0
102
RTVSPost2010PropOp31
 70
     1
102
RTVSPost2010Prop32
280
     0
102
RTVSPost2010PropOp32
 70
     1
102
RTVSPost2010Prop33
280
     0
102
RTVSPost2010PropOp33
 70
     1
102
RTVSPost2010Prop34
280
     0
102
RTVSPost2010PropOp34
 70
     1
102
RTVSPost2010Prop35
280
     0
102
RTVSPost2010PropOp35
 70
     1
102
RTVSPost2010Prop36
280
     0
102
RTVSPost2010PropOp36
 70
     1
102
RTVSPost2010Prop37
 90
       50
102
RTVSPost2010PropOp37
 70
     1
102
RTVSPost2010Prop38
140
0.0
102
RTVSPost2010PropOp38
 70
     1
102
RTVSPost2010Prop39
140
1.0
102
RTVSPost2010PropOp39
 70
     1
102
RTVSPost2010Prop40
 90
        0
102
RTVSPost2010PropOp40
 70
     1
102
RTVSPost2010Prop41ColorIndex
 90
       18
102
RTVSPost2010Prop41ColorRGB
 90
        0
102
RTVSPost2010PropOp41
 70
     1
102
RTVSPost2010Prop42
 90
       50
102
RTVSPost2010PropOp42
 70
     1
102
RTVSPost2010Prop43
 90
        3
102
RTVSPost2010PropOp43
 70
     1
102
RTVSPost2010Prop44ColorIndex
 90
        5
102
RTVSPost2010Prop44ColorRGB
 90
      255
102
RTVSPost2010PropOp44
 70
     1
102
RTVSPost2010Prop45
280
     0
102
RTVSPost2010PropOp45
 70
     1
102
RTVSPost2010Prop46
 90
       50
102
RTVSPost2010PropOp46
 70
     1
102
RTVSPost2010Prop47
 90
       50
102
RTVSPost2010PropOp47
 70
     1
102
RTVSPost2010Prop48
 90
       50
102
RTVSPost2010PropOp48
 70
     1
102
RTVSPost2010Prop49
280
     0
102
RTVSPost2010PropOp49
 70
     1
102
RTVSPost2010Prop50
 90
       50
102
RTVSPost2010PropOp50
 70
     1
102
RTVSPost2010Prop51ColorIndex
 90
      256
102
RTVSPost2010Prop51ColorRGB
 90
-16777216
102
RTVSPost2010PropOp51
 70
     0
102
RTVSPost2010Prop52
140
1.0
102
RTVSPost2010PropOp52
 70
     0
102
RTVSPost2010Prop53
 90
        2
102
RTVSPost2010PropOp53
 70
     1
102
RTVSPost2010Prop54
  1
strokes_ogs.tif
102
RTVSPost2010PropOp54
 70
     1
102
RTVSPost2010Prop55
280
     0
102
RTVSPost2010PropOp55
 70
     1
102
RTVSPost2010Prop56
140
1.0
102
RTVSPost2010PropOp56
 70
     1
102
RTVSPost2010Prop57
140
1.0
102
RTVSPost2010PropOp57
 70
     1
  0
XRECORD
  5
220F7
102
{ACAD_REACTORS
330
220F6
102
}
330
220F6
100
AcDbXrecord
280
     1
102
RTVSPost2010Prop28
280
     0
102
RTVSPost2010PropOp28
 70
     1
102
RTVSPost2010Prop29
280
     1
102
RTVSPost2010PropOp29
 70
     1
102
RTVSPost2010Prop30
280
     1
102
RTVSPost2010PropOp30
 70
     1
102
RTVSPost2010Prop31
280
     0
102
RTVSPost2010PropOp31
 70
     1
102
RTVSPost2010Prop32
280
     0
102
RTVSPost2010PropOp32
 70
     1
102
RTVSPost2010Prop33
280
     0
102
RTVSPost2010PropOp33
 70
     1
102
RTVSPost2010Prop34
280
     0
102
RTVSPost2010PropOp34
 70
     1
102
RTVSPost2010Prop35
280
     0
102
RTVSPost2010PropOp35
 70
     1
102
RTVSPost2010Prop36
280
     0
102
RTVSPost2010PropOp36
 70
     1
102
RTVSPost2010Prop37
 90
       50
102
RTVSPost2010PropOp37
 70
     1
102
RTVSPost2010Prop38
140
0.0
102
RTVSPost2010PropOp38
 70
     1
102
RTVSPost2010Prop39
140
1.0
102
RTVSPost2010PropOp39
 70
     1
102
RTVSPost2010Prop40
 90
        0
102
RTVSPost2010PropOp40
 70
     1
102
RTVSPost2010Prop41ColorIndex
 90
       18
102
RTVSPost2010Prop41ColorRGB
 90
        0
102
RTVSPost2010PropOp41
 70
     1
102
RTVSPost2010Prop42
 90
       50
102
RTVSPost2010PropOp42
 70
     1
102
RTVSPost2010Prop43
 90
        3
102
RTVSPost2010PropOp43
 70
     1
102
RTVSPost2010Prop44ColorIndex
 90
        5
102
RTVSPost2010Prop44ColorRGB
 90
      255
102
RTVSPost2010PropOp44
 70
     1
102
RTVSPost2010Prop45
280
     0
102
RTVSPost2010PropOp45
 70
     1
102
RTVSPost2010Prop46
 90
       50
102
RTVSPost2010PropOp46
 70
     1
102
RTVSPost2010Prop47
 90
       50
102
RTVSPost2010PropOp47
 70
     1
102
RTVSPost2010Prop48
 90
       50
102
RTVSPost2010PropOp48
 70
     1
102
RTVSPost2010Prop49
280
     0
102
RTVSPost2010PropOp49
 70
     1
102
RTVSPost2010Prop50
 90
       50
102
RTVSPost2010PropOp50
 70
     1
102
RTVSPost2010Prop51ColorIndex
 90
      256
102
RTVSPost2010Prop51ColorRGB
 90
-16777216
102
RTVSPost2010PropOp51
 70
     0
102
RTVSPost2010Prop52
140
1.0
102
RTVSPost2010PropOp52
 70
     0
102
RTVSPost2010Prop53
 90
        2
102
RTVSPost2010PropOp53
 70
     1
102
RTVSPost2010Prop54
  1
strokes_ogs.tif
102
RTVSPost2010PropOp54
 70
     1
102
RTVSPost2010Prop55
280
     0
102
RTVSPost2010PropOp55
 70
     1
102
RTVSPost2010Prop56
140
1.0
102
RTVSPost2010PropOp56
 70
     1
102
RTVSPost2010Prop57
140
1.0
102
RTVSPost2010PropOp57
 70
     1
  0
XRECORD
  5
22113
102
{ACAD_REACTORS
330
22112
102
}
330
22112
100
AcDbXrecord
280
     1
102
RTVSPost2010Prop28
280
     0
102
RTVSPost2010PropOp28
 70
     1
102
RTVSPost2010Prop29
280
     1
102
RTVSPost2010PropOp29
 70
     1
102
RTVSPost2010Prop30
280
     1
102
RTVSPost2010PropOp30
 70
     1
102
RTVSPost2010Prop31
280
     0
102
RTVSPost2010PropOp31
 70
     1
102
RTVSPost2010Prop32
280
     0
102
RTVSPost2010PropOp32
 70
     1
102
RTVSPost2010Prop33
280
     0
102
RTVSPost2010PropOp33
 70
     1
102
RTVSPost2010Prop34
280
     0
102
RTVSPost2010PropOp34
 70
     1
102
RTVSPost2010Prop35
280
     0
102
RTVSPost2010PropOp35
 70
     1
102
RTVSPost2010Prop36
280
     0
102
RTVSPost2010PropOp36
 70
     1
102
RTVSPost2010Prop37
 90
       50
102
RTVSPost2010PropOp37
 70
     1
102
RTVSPost2010Prop38
140
0.0
102
RTVSPost2010PropOp38
 70
     1
102
RTVSPost2010Prop39
140
1.0
102
RTVSPost2010PropOp39
 70
     1
102
RTVSPost2010Prop40
 90
        0
102
RTVSPost2010PropOp40
 70
     1
102
RTVSPost2010Prop41ColorIndex
 90
       18
102
RTVSPost2010Prop41ColorRGB
 90
        0
102
RTVSPost2010PropOp41
 70
     1
102
RTVSPost2010Prop42
 90
       50
102
RTVSPost2010PropOp42
 70
     1
102
RTVSPost2010Prop43
 90
        3
102
RTVSPost2010PropOp43
 70
     1
102
RTVSPost2010Prop44ColorIndex
 90
        5
102
RTVSPost2010Prop44ColorRGB
 90
      255
102
RTVSPost2010PropOp44
 70
     1
102
RTVSPost2010Prop45
280
     0
102
RTVSPost2010PropOp45
 70
     1
102
RTVSPost2010Prop46
 90
       50
102
RTVSPost2010PropOp46
 70
     1
102
RTVSPost2010Prop47
 90
       50
102
RTVSPost2010PropOp47
 70
     1
102
RTVSPost2010Prop48
 90
       50
102
RTVSPost2010PropOp48
 70
     1
102
RTVSPost2010Prop49
280
     0
102
RTVSPost2010PropOp49
 70
     1
102
RTVSPost2010Prop50
 90
       50
102
RTVSPost2010PropOp50
 70
     1
102
RTVSPost2010Prop51ColorIndex
 90
      256
102
RTVSPost2010Prop51ColorRGB
 90
-16777216
102
RTVSPost2010PropOp51
 70
     0
102
RTVSPost2010Prop52
140
1.0
102
RTVSPost2010PropOp52
 70
     0
102
RTVSPost2010Prop53
 90
        2
102
RTVSPost2010PropOp53
 70
     1
102
RTVSPost2010Prop54
  1
strokes_ogs.tif
102
RTVSPost2010PropOp54
 70
     1
102
RTVSPost2010Prop55
280
     0
102
RTVSPost2010PropOp55
 70
     1
102
RTVSPost2010Prop56
140
1.0
102
RTVSPost2010PropOp56
 70
     1
102
RTVSPost2010Prop57
140
1.0
102
RTVSPost2010PropOp57
 70
     1
  0
XRECORD
  5
2211F
102
{ACAD_REACTORS
330
2211E
102
}
330
2211E
100
AcDbXrecord
280
     1
102
RTVSPost2010Prop28
280
     0
102
RTVSPost2010PropOp28
 70
     1
102
RTVSPost2010Prop29
280
     1
102
RTVSPost2010PropOp29
 70
     1
102
RTVSPost2010Prop30
280
     1
102
RTVSPost2010PropOp30
 70
     1
102
RTVSPost2010Prop31
280
     0
102
RTVSPost2010PropOp31
 70
     1
102
RTVSPost2010Prop32
280
     0
102
RTVSPost2010PropOp32
 70
     1
102
RTVSPost2010Prop33
280
     0
102
RTVSPost2010PropOp33
 70
     1
102
RTVSPost2010Prop34
280
     0
102
RTVSPost2010PropOp34
 70
     1
102
RTVSPost2010Prop35
280
     0
102
RTVSPost2010PropOp35
 70
     1
102
RTVSPost2010Prop36
280
     0
102
RTVSPost2010PropOp36
 70
     1
102
RTVSPost2010Prop37
 90
       50
102
RTVSPost2010PropOp37
 70
     0
102
RTVSPost2010Prop38
140
0.0
102
RTVSPost2010PropOp38
 70
     0
102
RTVSPost2010Prop39
140
1.0
102
RTVSPost2010PropOp39
 70
     0
102
RTVSPost2010Prop40
 90
        0
102
RTVSPost2010PropOp40
 70
     0
102
RTVSPost2010Prop41ColorIndex
 90
       18
102
RTVSPost2010Prop41ColorRGB
 90
        0
102
RTVSPost2010PropOp41
 70
     0
102
RTVSPost2010Prop42
 90
       50
102
RTVSPost2010PropOp42
 70
     0
102
RTVSPost2010Prop43
 90
        3
102
RTVSPost2010PropOp43
 70
     0
102
RTVSPost2010Prop44ColorIndex
 90
        5
102
RTVSPost2010Prop44ColorRGB
 90
      255
102
RTVSPost2010PropOp44
 70
     0
102
RTVSPost2010Prop45
280
     0
102
RTVSPost2010PropOp45
 70
     1
102
RTVSPost2010Prop46
 90
       50
102
RTVSPost2010PropOp46
 70
     0
102
RTVSPost2010Prop47
 90
       50
102
RTVSPost2010PropOp47
 70
     0
102
RTVSPost2010Prop48
 90
       50
102
RTVSPost2010PropOp48
 70
     0
102
RTVSPost2010Prop49
280
     0
102
RTVSPost2010PropOp49
 70
     1
102
RTVSPost2010Prop50
 90
       50
102
RTVSPost2010PropOp50
 70
     0
102
RTVSPost2010Prop51ColorIndex
 90
      256
102
RTVSPost2010Prop51ColorRGB
 90
-16777216
102
RTVSPost2010PropOp51
 70
     0
102
RTVSPost2010Prop52
140
1.0
102
RTVSPost2010PropOp52
 70
     0
102
RTVSPost2010Prop53
 90
        2
102
RTVSPost2010PropOp53
 70
     0
102
RTVSPost2010Prop54
  1
strokes_ogs.tif
102
RTVSPost2010PropOp54
 70
     0
102
RTVSPost2010Prop55
280
     0
102
RTVSPost2010PropOp55
 70
     1
102
RTVSPost2010Prop56
140
1.0
102
RTVSPost2010PropOp56
 70
     0
102
RTVSPost2010Prop57
140
1.0
102
RTVSPost2010PropOp57
 70
     0
  0
XRECORD
  5
2210B
102
{ACAD_REACTORS
330
2210A
102
}
330
2210A
100
AcDbXrecord
280
     1
102
RTVSPost2010Prop28
280
     0
102
RTVSPost2010PropOp28
 70
     1
102
RTVSPost2010Prop29
280
     1
102
RTVSPost2010PropOp29
 70
     1
102
RTVSPost2010Prop30
280
     1
102
RTVSPost2010PropOp30
 70
     1
102
RTVSPost2010Prop31
280
     0
102
RTVSPost2010PropOp31
 70
     1
102
RTVSPost2010Prop32
280
     0
102
RTVSPost2010PropOp32
 70
     1
102
RTVSPost2010Prop33
280
     0
102
RTVSPost2010PropOp33
 70
     1
102
RTVSPost2010Prop34
280
     0
102
RTVSPost2010PropOp34
 70
     1
102
RTVSPost2010Prop35
280
     0
102
RTVSPost2010PropOp35
 70
     1
102
RTVSPost2010Prop36
280
     0
102
RTVSPost2010PropOp36
 70
     1
102
RTVSPost2010Prop37
 90
       50
102
RTVSPost2010PropOp37
 70
     1
102
RTVSPost2010Prop38
140
0.0
102
RTVSPost2010PropOp38
 70
     1
102
RTVSPost2010Prop39
140
1.0
102
RTVSPost2010PropOp39
 70
     1
102
RTVSPost2010Prop40
 90
        0
102
RTVSPost2010PropOp40
 70
     1
102
RTVSPost2010Prop41ColorIndex
 90
       18
102
RTVSPost2010Prop41ColorRGB
 90
        0
102
RTVSPost2010PropOp41
 70
     1
102
RTVSPost2010Prop42
 90
       50
102
RTVSPost2010PropOp42
 70
     1
102
RTVSPost2010Prop43
 90
        3
102
RTVSPost2010PropOp43
 70
     1
102
RTVSPost2010Prop44ColorIndex
 90
        5
102
RTVSPost2010Prop44ColorRGB
 90
      255
102
RTVSPost2010PropOp44
 70
     1
102
RTVSPost2010Prop45
280
     0
102
RTVSPost2010PropOp45
 70
     1
102
RTVSPost2010Prop46
 90
       50
102
RTVSPost2010PropOp46
 70
     1
102
RTVSPost2010Prop47
 90
       50
102
RTVSPost2010PropOp47
 70
     1
102
RTVSPost2010Prop48
 90
       50
102
RTVSPost2010PropOp48
 70
     1
102
RTVSPost2010Prop49
280
     0
102
RTVSPost2010PropOp49
 70
     1
102
RTVSPost2010Prop50
 90
       50
102
RTVSPost2010PropOp50
 70
     1
102
RTVSPost2010Prop51ColorIndex
 90
      256
102
RTVSPost2010Prop51ColorRGB
 90
-16777216
102
RTVSPost2010PropOp51
 70
     0
102
RTVSPost2010Prop52
140
1.0
102
RTVSPost2010PropOp52
 70
     0
102
RTVSPost2010Prop53
 90
        2
102
RTVSPost2010PropOp53
 70
     1
102
RTVSPost2010Prop54
  1
strokes_ogs.tif
102
RTVSPost2010PropOp54
 70
     1
102
RTVSPost2010Prop55
280
     0
102
RTVSPost2010PropOp55
 70
     1
102
RTVSPost2010Prop56
140
1.0
102
RTVSPost2010PropOp56
 70
     1
102
RTVSPost2010Prop57
140
1.0
102
RTVSPost2010PropOp57
 70
     1
  0
XRECORD
  5
22121
102
{ACAD_REACTORS
330
22120
102
}
330
22120
100
AcDbXrecord
280
     1
102
RTVSPost2010Prop28
280
     0
102
RTVSPost2010PropOp28
 70
     1
102
RTVSPost2010Prop29
280
     1
102
RTVSPost2010PropOp29
 70
     1
102
RTVSPost2010Prop30
280
     1
102
RTVSPost2010PropOp30
 70
     1
102
RTVSPost2010Prop31
280
     0
102
RTVSPost2010PropOp31
 70
     1
102
RTVSPost2010Prop32
280
     0
102
RTVSPost2010PropOp32
 70
     1
102
RTVSPost2010Prop33
280
     0
102
RTVSPost2010PropOp33
 70
     1
102
RTVSPost2010Prop34
280
     0
102
RTVSPost2010PropOp34
 70
     1
102
RTVSPost2010Prop35
280
     0
102
RTVSPost2010PropOp35
 70
     1
102
RTVSPost2010Prop36
280
     0
102
RTVSPost2010PropOp36
 70
     1
102
RTVSPost2010Prop37
 90
       50
102
RTVSPost2010PropOp37
 70
     0
102
RTVSPost2010Prop38
140
0.0
102
RTVSPost2010PropOp38
 70
     0
102
RTVSPost2010Prop39
140
1.0
102
RTVSPost2010PropOp39
 70
     0
102
RTVSPost2010Prop40
 90
        0
102
RTVSPost2010PropOp40
 70
     0
102
RTVSPost2010Prop41ColorIndex
 90
       18
102
RTVSPost2010Prop41ColorRGB
 90
        0
102
RTVSPost2010PropOp41
 70
     0
102
RTVSPost2010Prop42
 90
       50
102
RTVSPost2010PropOp42
 70
     0
102
RTVSPost2010Prop43
 90
        3
102
RTVSPost2010PropOp43
 70
     0
102
RTVSPost2010Prop44ColorIndex
 90
        5
102
RTVSPost2010Prop44ColorRGB
 90
      255
102
RTVSPost2010PropOp44
 70
     0
102
RTVSPost2010Prop45
280
     0
102
RTVSPost2010PropOp45
 70
     1
102
RTVSPost2010Prop46
 90
       50
102
RTVSPost2010PropOp46
 70
     0
102
RTVSPost2010Prop47
 90
       50
102
RTVSPost2010PropOp47
 70
     0
102
RTVSPost2010Prop48
 90
       50
102
RTVSPost2010PropOp48
 70
     0
102
RTVSPost2010Prop49
280
     0
102
RTVSPost2010PropOp49
 70
     1
102
RTVSPost2010Prop50
 90
       50
102
RTVSPost2010PropOp50
 70
     0
102
RTVSPost2010Prop51ColorIndex
 90
      256
102
RTVSPost2010Prop51ColorRGB
 90
-16777216
102
RTVSPost2010PropOp51
 70
     0
102
RTVSPost2010Prop52
140
1.0
102
RTVSPost2010PropOp52
 70
     0
102
RTVSPost2010Prop53
 90
        2
102
RTVSPost2010PropOp53
 70
     0
102
RTVSPost2010Prop54
  1
strokes_ogs.tif
102
RTVSPost2010PropOp54
 70
     0
102
RTVSPost2010Prop55
280
     0
102
RTVSPost2010PropOp55
 70
     1
102
RTVSPost2010Prop56
140
1.0
102
RTVSPost2010PropOp56
 70
     0
102
RTVSPost2010Prop57
140
1.0
102
RTVSPost2010PropOp57
 70
     0
  0
XRECORD
  5
22103
102
{ACAD_REACTORS
330
22102
102
}
330
22102
100
AcDbXrecord
280
     1
102
RTVSPost2010Prop28
280
     0
102
RTVSPost2010PropOp28
 70
     1
102
RTVSPost2010Prop29
280
     1
102
RTVSPost2010PropOp29
 70
     1
102
RTVSPost2010Prop30
280
     1
102
RTVSPost2010PropOp30
 70
     1
102
RTVSPost2010Prop31
280
     0
102
RTVSPost2010PropOp31
 70
     1
102
RTVSPost2010Prop32
280
     0
102
RTVSPost2010PropOp32
 70
     1
102
RTVSPost2010Prop33
280
     0
102
RTVSPost2010PropOp33
 70
     1
102
RTVSPost2010Prop34
280
     0
102
RTVSPost2010PropOp34
 70
     1
102
RTVSPost2010Prop35
280
     0
102
RTVSPost2010PropOp35
 70
     1
102
RTVSPost2010Prop36
280
     0
102
RTVSPost2010PropOp36
 70
     1
102
RTVSPost2010Prop37
 90
       50
102
RTVSPost2010PropOp37
 70
     1
102
RTVSPost2010Prop38
140
0.0
102
RTVSPost2010PropOp38
 70
     1
102
RTVSPost2010Prop39
140
1.0
102
RTVSPost2010PropOp39
 70
     1
102
RTVSPost2010Prop40
 90
        0
102
RTVSPost2010PropOp40
 70
     1
102
RTVSPost2010Prop41ColorIndex
 90
       18
102
RTVSPost2010Prop41ColorRGB
 90
        0
102
RTVSPost2010PropOp41
 70
     1
102
RTVSPost2010Prop42
 90
       50
102
RTVSPost2010PropOp42
 70
     1
102
RTVSPost2010Prop43
 90
        3
102
RTVSPost2010PropOp43
 70
     1
102
RTVSPost2010Prop44ColorIndex
 90
        5
102
RTVSPost2010Prop44ColorRGB
 90
      255
102
RTVSPost2010PropOp44
 70
     1
102
RTVSPost2010Prop45
280
     0
102
RTVSPost2010PropOp45
 70
     1
102
RTVSPost2010Prop46
 90
       50
102
RTVSPost2010PropOp46
 70
     1
102
RTVSPost2010Prop47
 90
       50
102
RTVSPost2010PropOp47
 70
     1
102
RTVSPost2010Prop48
 90
       50
102
RTVSPost2010PropOp48
 70
     1
102
RTVSPost2010Prop49
280
     0
102
RTVSPost2010PropOp49
 70
     1
102
RTVSPost2010Prop50
 90
       50
102
RTVSPost2010PropOp50
 70
     1
102
RTVSPost2010Prop51ColorIndex
 90
      256
102
RTVSPost2010Prop51ColorRGB
 90
-16777216
102
RTVSPost2010PropOp51
 70
     0
102
RTVSPost2010Prop52
140
1.0
102
RTVSPost2010PropOp52
 70
     0
102
RTVSPost2010Prop53
 90
        2
102
RTVSPost2010PropOp53
 70
     1
102
RTVSPost2010Prop54
  1
strokes_ogs.tif
102
RTVSPost2010PropOp54
 70
     1
102
RTVSPost2010Prop55
280
     0
102
RTVSPost2010PropOp55
 70
     1
102
RTVSPost2010Prop56
140
1.0
102
RTVSPost2010PropOp56
 70
     1
102
RTVSPost2010Prop57
140
1.0
102
RTVSPost2010PropOp57
 70
     1
  0
XRECORD
  5
2211D
102
{ACAD_REACTORS
330
2211C
102
}
330
2211C
100
AcDbXrecord
280
     1
102
RTVSPost2010Prop28
280
     0
102
RTVSPost2010PropOp28
 70
     1
102
RTVSPost2010Prop29
280
     1
102
RTVSPost2010PropOp29
 70
     1
102
RTVSPost2010Prop30
280
     1
102
RTVSPost2010PropOp30
 70
     1
102
RTVSPost2010Prop31
280
     0
102
RTVSPost2010PropOp31
 70
     1
102
RTVSPost2010Prop32
280
     0
102
RTVSPost2010PropOp32
 70
     1
102
RTVSPost2010Prop33
280
     0
102
RTVSPost2010PropOp33
 70
     1
102
RTVSPost2010Prop34
280
     0
102
RTVSPost2010PropOp34
 70
     1
102
RTVSPost2010Prop35
280
     0
102
RTVSPost2010PropOp35
 70
     1
102
RTVSPost2010Prop36
280
     0
102
RTVSPost2010PropOp36
 70
     1
102
RTVSPost2010Prop37
 90
       50
102
RTVSPost2010PropOp37
 70
     1
102
RTVSPost2010Prop38
140
0.0
102
RTVSPost2010PropOp38
 70
     1
102
RTVSPost2010Prop39
140
1.0
102
RTVSPost2010PropOp39
 70
     1
102
RTVSPost2010Prop40
 90
        0
102
RTVSPost2010PropOp40
 70
     1
102
RTVSPost2010Prop41ColorIndex
 90
       18
102
RTVSPost2010Prop41ColorRGB
 90
        0
102
RTVSPost2010PropOp41
 70
     1
102
RTVSPost2010Prop42
 90
       50
102
RTVSPost2010PropOp42
 70
     1
102
RTVSPost2010Prop43
 90
        3
102
RTVSPost2010PropOp43
 70
     1
102
RTVSPost2010Prop44ColorIndex
 90
        5
102
RTVSPost2010Prop44ColorRGB
 90
      255
102
RTVSPost2010PropOp44
 70
     1
102
RTVSPost2010Prop45
280
     0
102
RTVSPost2010PropOp45
 70
     1
102
RTVSPost2010Prop46
 90
       50
102
RTVSPost2010PropOp46
 70
     1
102
RTVSPost2010Prop47
 90
       50
102
RTVSPost2010PropOp47
 70
     1
102
RTVSPost2010Prop48
 90
       50
102
RTVSPost2010PropOp48
 70
     1
102
RTVSPost2010Prop49
280
     0
102
RTVSPost2010PropOp49
 70
     1
102
RTVSPost2010Prop50
 90
       50
102
RTVSPost2010PropOp50
 70
     1
102
RTVSPost2010Prop51ColorIndex
 90
      256
102
RTVSPost2010Prop51ColorRGB
 90
-16777216
102
RTVSPost2010PropOp51
 70
     0
102
RTVSPost2010Prop52
140
1.0
102
RTVSPost2010PropOp52
 70
     0
102
RTVSPost2010Prop53
 90
        2
102
RTVSPost2010PropOp53
 70
     1
102
RTVSPost2010Prop54
  1
strokes_ogs.tif
102
RTVSPost2010PropOp54
 70
     1
102
RTVSPost2010Prop55
280
     0
102
RTVSPost2010PropOp55
 70
     1
102
RTVSPost2010Prop56
140
1.0
102
RTVSPost2010PropOp56
 70
     1
102
RTVSPost2010Prop57
140
1.0
102
RTVSPost2010PropOp57
 70
     1
  0
XRECORD
  5
2211B
102
{ACAD_REACTORS
330
2211A
102
}
330
2211A
100
AcDbXrecord
280
     1
102
RTVSPost2010Prop28
280
     0
102
RTVSPost2010PropOp28
 70
     1
102
RTVSPost2010Prop29
280
     1
102
RTVSPost2010PropOp29
 70
     1
102
RTVSPost2010Prop30
280
     1
102
RTVSPost2010PropOp30
 70
     1
102
RTVSPost2010Prop31
280
     0
102
RTVSPost2010PropOp31
 70
     1
102
RTVSPost2010Prop32
280
     0
102
RTVSPost2010PropOp32
 70
     1
102
RTVSPost2010Prop33
280
     0
102
RTVSPost2010PropOp33
 70
     1
102
RTVSPost2010Prop34
280
     0
102
RTVSPost2010PropOp34
 70
     1
102
RTVSPost2010Prop35
280
     0
102
RTVSPost2010PropOp35
 70
     1
102
RTVSPost2010Prop36
280
     0
102
RTVSPost2010PropOp36
 70
     1
102
RTVSPost2010Prop37
 90
       50
102
RTVSPost2010PropOp37
 70
     1
102
RTVSPost2010Prop38
140
0.0
102
RTVSPost2010PropOp38
 70
     1
102
RTVSPost2010Prop39
140
1.0
102
RTVSPost2010PropOp39
 70
     1
102
RTVSPost2010Prop40
 90
        0
102
RTVSPost2010PropOp40
 70
     1
102
RTVSPost2010Prop41ColorIndex
 90
       18
102
RTVSPost2010Prop41ColorRGB
 90
        0
102
RTVSPost2010PropOp41
 70
     1
102
RTVSPost2010Prop42
 90
       50
102
RTVSPost2010PropOp42
 70
     1
102
RTVSPost2010Prop43
 90
        3
102
RTVSPost2010PropOp43
 70
     1
102
RTVSPost2010Prop44ColorIndex
 90
        5
102
RTVSPost2010Prop44ColorRGB
 90
      255
102
RTVSPost2010PropOp44
 70
     1
102
RTVSPost2010Prop45
280
     0
102
RTVSPost2010PropOp45
 70
     1
102
RTVSPost2010Prop46
 90
       50
102
RTVSPost2010PropOp46
 70
     1
102
RTVSPost2010Prop47
 90
       50
102
RTVSPost2010PropOp47
 70
     1
102
RTVSPost2010Prop48
 90
       50
102
RTVSPost2010PropOp48
 70
     1
102
RTVSPost2010Prop49
280
     0
102
RTVSPost2010PropOp49
 70
     1
102
RTVSPost2010Prop50
 90
       50
102
RTVSPost2010PropOp50
 70
     1
102
RTVSPost2010Prop51ColorIndex
 90
      256
102
RTVSPost2010Prop51ColorRGB
 90
-16777216
102
RTVSPost2010PropOp51
 70
     0
102
RTVSPost2010Prop52
140
1.0
102
RTVSPost2010PropOp52
 70
     0
102
RTVSPost2010Prop53
 90
        2
102
RTVSPost2010PropOp53
 70
     1
102
RTVSPost2010Prop54
  1
strokes_ogs.tif
102
RTVSPost2010PropOp54
 70
     1
102
RTVSPost2010Prop55
280
     0
102
RTVSPost2010PropOp55
 70
     1
102
RTVSPost2010Prop56
140
1.0
102
RTVSPost2010PropOp56
 70
     1
102
RTVSPost2010Prop57
140
1.0
102
RTVSPost2010PropOp57
 70
     1
  0
XRECORD
  5
22115
102
{ACAD_REACTORS
330
22114
102
}
330
22114
100
AcDbXrecord
280
     1
102
RTVSPost2010Prop28
280
     0
102
RTVSPost2010PropOp28
 70
     1
102
RTVSPost2010Prop29
280
     1
102
RTVSPost2010PropOp29
 70
     1
102
RTVSPost2010Prop30
280
     1
102
RTVSPost2010PropOp30
 70
     1
102
RTVSPost2010Prop31
280
     0
102
RTVSPost2010PropOp31
 70
     1
102
RTVSPost2010Prop32
280
     0
102
RTVSPost2010PropOp32
 70
     1
102
RTVSPost2010Prop33
280
     0
102
RTVSPost2010PropOp33
 70
     1
102
RTVSPost2010Prop34
280
     0
102
RTVSPost2010PropOp34
 70
     1
102
RTVSPost2010Prop35
280
     0
102
RTVSPost2010PropOp35
 70
     1
102
RTVSPost2010Prop36
280
     0
102
RTVSPost2010PropOp36
 70
     1
102
RTVSPost2010Prop37
 90
       50
102
RTVSPost2010PropOp37
 70
     1
102
RTVSPost2010Prop38
140
0.0
102
RTVSPost2010PropOp38
 70
     1
102
RTVSPost2010Prop39
140
1.0
102
RTVSPost2010PropOp39
 70
     1
102
RTVSPost2010Prop40
 90
        0
102
RTVSPost2010PropOp40
 70
     1
102
RTVSPost2010Prop41ColorIndex
 90
       18
102
RTVSPost2010Prop41ColorRGB
 90
        0
102
RTVSPost2010PropOp41
 70
     1
102
RTVSPost2010Prop42
 90
       50
102
RTVSPost2010PropOp42
 70
     1
102
RTVSPost2010Prop43
 90
        3
102
RTVSPost2010PropOp43
 70
     1
102
RTVSPost2010Prop44ColorIndex
 90
        5
102
RTVSPost2010Prop44ColorRGB
 90
      255
102
RTVSPost2010PropOp44
 70
     1
102
RTVSPost2010Prop45
280
     0
102
RTVSPost2010PropOp45
 70
     1
102
RTVSPost2010Prop46
 90
       50
102
RTVSPost2010PropOp46
 70
     1
102
RTVSPost2010Prop47
 90
       50
102
RTVSPost2010PropOp47
 70
     1
102
RTVSPost2010Prop48
 90
       50
102
RTVSPost2010PropOp48
 70
     1
102
RTVSPost2010Prop49
280
     0
102
RTVSPost2010PropOp49
 70
     1
102
RTVSPost2010Prop50
 90
       50
102
RTVSPost2010PropOp50
 70
     1
102
RTVSPost2010Prop51ColorIndex
 90
      256
102
RTVSPost2010Prop51ColorRGB
 90
-16777216
102
RTVSPost2010PropOp51
 70
     0
102
RTVSPost2010Prop52
140
1.0
102
RTVSPost2010PropOp52
 70
     0
102
RTVSPost2010Prop53
 90
        2
102
RTVSPost2010PropOp53
 70
     1
102
RTVSPost2010Prop54
  1
strokes_ogs.tif
102
RTVSPost2010PropOp54
 70
     1
102
RTVSPost2010Prop55
280
     0
102
RTVSPost2010PropOp55
 70
     1
102
RTVSPost2010Prop56
140
1.0
102
RTVSPost2010PropOp56
 70
     1
102
RTVSPost2010Prop57
140
1.0
102
RTVSPost2010PropOp57
 70
     1
  0
XRECORD
  5
22117
102
{ACAD_REACTORS
330
22116
102
}
330
22116
100
AcDbXrecord
280
     1
102
RTVSPost2010Prop28
280
     0
102
RTVSPost2010PropOp28
 70
     1
102
RTVSPost2010Prop29
280
     1
102
RTVSPost2010PropOp29
 70
     1
102
RTVSPost2010Prop30
280
     1
102
RTVSPost2010PropOp30
 70
     1
102
RTVSPost2010Prop31
280
     0
102
RTVSPost2010PropOp31
 70
     1
102
RTVSPost2010Prop32
280
     0
102
RTVSPost2010PropOp32
 70
     1
102
RTVSPost2010Prop33
280
     0
102
RTVSPost2010PropOp33
 70
     1
102
RTVSPost2010Prop34
280
     0
102
RTVSPost2010PropOp34
 70
     1
102
RTVSPost2010Prop35
280
     0
102
RTVSPost2010PropOp35
 70
     1
102
RTVSPost2010Prop36
280
     0
102
RTVSPost2010PropOp36
 70
     1
102
RTVSPost2010Prop37
 90
       50
102
RTVSPost2010PropOp37
 70
     1
102
RTVSPost2010Prop38
140
0.0
102
RTVSPost2010PropOp38
 70
     1
102
RTVSPost2010Prop39
140
1.0
102
RTVSPost2010PropOp39
 70
     1
102
RTVSPost2010Prop40
 90
        0
102
RTVSPost2010PropOp40
 70
     1
102
RTVSPost2010Prop41ColorIndex
 90
       18
102
RTVSPost2010Prop41ColorRGB
 90
        0
102
RTVSPost2010PropOp41
 70
     1
102
RTVSPost2010Prop42
 90
       50
102
RTVSPost2010PropOp42
 70
     1
102
RTVSPost2010Prop43
 90
        3
102
RTVSPost2010PropOp43
 70
     1
102
RTVSPost2010Prop44ColorIndex
 90
        5
102
RTVSPost2010Prop44ColorRGB
 90
      255
102
RTVSPost2010PropOp44
 70
     1
102
RTVSPost2010Prop45
280
     0
102
RTVSPost2010PropOp45
 70
     1
102
RTVSPost2010Prop46
 90
       50
102
RTVSPost2010PropOp46
 70
     1
102
RTVSPost2010Prop47
 90
       50
102
RTVSPost2010PropOp47
 70
     1
102
RTVSPost2010Prop48
 90
       50
102
RTVSPost2010PropOp48
 70
     1
102
RTVSPost2010Prop49
280
     0
102
RTVSPost2010PropOp49
 70
     1
102
RTVSPost2010Prop50
 90
       50
102
RTVSPost2010PropOp50
 70
     1
102
RTVSPost2010Prop51ColorIndex
 90
      256
102
RTVSPost2010Prop51ColorRGB
 90
-16777216
102
RTVSPost2010PropOp51
 70
     0
102
RTVSPost2010Prop52
140
1.0
102
RTVSPost2010PropOp52
 70
     0
102
RTVSPost2010Prop53
 90
        2
102
RTVSPost2010PropOp53
 70
     1
102
RTVSPost2010Prop54
  1
strokes_ogs.tif
102
RTVSPost2010PropOp54
 70
     1
102
RTVSPost2010Prop55
280
     0
102
RTVSPost2010PropOp55
 70
     1
102
RTVSPost2010Prop56
140
1.0
102
RTVSPost2010PropOp56
 70
     1
102
RTVSPost2010Prop57
140
1.0
102
RTVSPost2010PropOp57
 70
     1
  0
XRECORD
  5
22109
102
{ACAD_REACTORS
330
22108
102
}
330
22108
100
AcDbXrecord
280
     1
102
RTVSPost2010Prop28
280
     0
102
RTVSPost2010PropOp28
 70
     1
102
RTVSPost2010Prop29
280
     1
102
RTVSPost2010PropOp29
 70
     1
102
RTVSPost2010Prop30
280
     1
102
RTVSPost2010PropOp30
 70
     1
102
RTVSPost2010Prop31
280
     0
102
RTVSPost2010PropOp31
 70
     1
102
RTVSPost2010Prop32
280
     0
102
RTVSPost2010PropOp32
 70
     1
102
RTVSPost2010Prop33
280
     0
102
RTVSPost2010PropOp33
 70
     1
102
RTVSPost2010Prop34
280
     0
102
RTVSPost2010PropOp34
 70
     1
102
RTVSPost2010Prop35
280
     0
102
RTVSPost2010PropOp35
 70
     1
102
RTVSPost2010Prop36
280
     0
102
RTVSPost2010PropOp36
 70
     1
102
RTVSPost2010Prop37
 90
       50
102
RTVSPost2010PropOp37
 70
     1
102
RTVSPost2010Prop38
140
0.0
102
RTVSPost2010PropOp38
 70
     1
102
RTVSPost2010Prop39
140
1.0
102
RTVSPost2010PropOp39
 70
     1
102
RTVSPost2010Prop40
 90
        0
102
RTVSPost2010PropOp40
 70
     1
102
RTVSPost2010Prop41ColorIndex
 90
       18
102
RTVSPost2010Prop41ColorRGB
 90
        0
102
RTVSPost2010PropOp41
 70
     1
102
RTVSPost2010Prop42
 90
       50
102
RTVSPost2010PropOp42
 70
     1
102
RTVSPost2010Prop43
 90
        3
102
RTVSPost2010PropOp43
 70
     1
102
RTVSPost2010Prop44ColorIndex
 90
        5
102
RTVSPost2010Prop44ColorRGB
 90
      255
102
RTVSPost2010PropOp44
 70
     1
102
RTVSPost2010Prop45
280
     0
102
RTVSPost2010PropOp45
 70
     1
102
RTVSPost2010Prop46
 90
       50
102
RTVSPost2010PropOp46
 70
     1
102
RTVSPost2010Prop47
 90
       50
102
RTVSPost2010PropOp47
 70
     1
102
RTVSPost2010Prop48
 90
       50
102
RTVSPost2010PropOp48
 70
     1
102
RTVSPost2010Prop49
280
     0
102
RTVSPost2010PropOp49
 70
     1
102
RTVSPost2010Prop50
 90
       50
102
RTVSPost2010PropOp50
 70
     1
102
RTVSPost2010Prop51ColorIndex
 90
      256
102
RTVSPost2010Prop51ColorRGB
 90
-16777216
102
RTVSPost2010PropOp51
 70
     0
102
RTVSPost2010Prop52
140
1.0
102
RTVSPost2010PropOp52
 70
     0
102
RTVSPost2010Prop53
 90
        2
102
RTVSPost2010PropOp53
 70
     1
102
RTVSPost2010Prop54
  1
strokes_ogs.tif
102
RTVSPost2010PropOp54
 70
     1
102
RTVSPost2010Prop55
280
     0
102
RTVSPost2010PropOp55
 70
     1
102
RTVSPost2010Prop56
140
1.0
102
RTVSPost2010PropOp56
 70
     1
102
RTVSPost2010Prop57
140
1.0
102
RTVSPost2010PropOp57
 70
     1
  0
XRECORD
  5
22111
102
{ACAD_REACTORS
330
22110
102
}
330
22110
100
AcDbXrecord
280
     1
102
RTVSPost2010Prop28
280
     0
102
RTVSPost2010PropOp28
 70
     1
102
RTVSPost2010Prop29
280
     1
102
RTVSPost2010PropOp29
 70
     1
102
RTVSPost2010Prop30
280
     1
102
RTVSPost2010PropOp30
 70
     1
102
RTVSPost2010Prop31
280
     0
102
RTVSPost2010PropOp31
 70
     1
102
RTVSPost2010Prop32
280
     0
102
RTVSPost2010PropOp32
 70
     1
102
RTVSPost2010Prop33
280
     0
102
RTVSPost2010PropOp33
 70
     1
102
RTVSPost2010Prop34
280
     0
102
RTVSPost2010PropOp34
 70
     1
102
RTVSPost2010Prop35
280
     0
102
RTVSPost2010PropOp35
 70
     1
102
RTVSPost2010Prop36
280
     0
102
RTVSPost2010PropOp36
 70
     1
102
RTVSPost2010Prop37
 90
       50
102
RTVSPost2010PropOp37
 70
     1
102
RTVSPost2010Prop38
140
0.0
102
RTVSPost2010PropOp38
 70
     1
102
RTVSPost2010Prop39
140
1.0
102
RTVSPost2010PropOp39
 70
     1
102
RTVSPost2010Prop40
 90
        0
102
RTVSPost2010PropOp40
 70
     1
102
RTVSPost2010Prop41ColorIndex
 90
       18
102
RTVSPost2010Prop41ColorRGB
 90
        0
102
RTVSPost2010PropOp41
 70
     1
102
RTVSPost2010Prop42
 90
       50
102
RTVSPost2010PropOp42
 70
     1
102
RTVSPost2010Prop43
 90
        3
102
RTVSPost2010PropOp43
 70
     1
102
RTVSPost2010Prop44ColorIndex
 90
        5
102
RTVSPost2010Prop44ColorRGB
 90
      255
102
RTVSPost2010PropOp44
 70
     1
102
RTVSPost2010Prop45
280
     0
102
RTVSPost2010PropOp45
 70
     1
102
RTVSPost2010Prop46
 90
       50
102
RTVSPost2010PropOp46
 70
     1
102
RTVSPost2010Prop47
 90
       50
102
RTVSPost2010PropOp47
 70
     1
102
RTVSPost2010Prop48
 90
       50
102
RTVSPost2010PropOp48
 70
     1
102
RTVSPost2010Prop49
280
     0
102
RTVSPost2010PropOp49
 70
     1
102
RTVSPost2010Prop50
 90
       50
102
RTVSPost2010PropOp50
 70
     1
102
RTVSPost2010Prop51ColorIndex
 90
      256
102
RTVSPost2010Prop51ColorRGB
 90
-16777216
102
RTVSPost2010PropOp51
 70
     0
102
RTVSPost2010Prop52
140
1.0
102
RTVSPost2010PropOp52
 70
     0
102
RTVSPost2010Prop53
 90
        2
102
RTVSPost2010PropOp53
 70
     1
102
RTVSPost2010Prop54
  1
strokes_ogs.tif
102
RTVSPost2010PropOp54
 70
     1
102
RTVSPost2010Prop55
280
     0
102
RTVSPost2010PropOp55
 70
     1
102
RTVSPost2010Prop56
140
1.0
102
RTVSPost2010PropOp56
 70
     1
102
RTVSPost2010Prop57
140
1.0
102
RTVSPost2010PropOp57
 70
     1
  0
XRECORD
  5
22119
102
{ACAD_REACTORS
330
22118
102
}
330
22118
100
AcDbXrecord
280
     1
102
RTVSPost2010Prop28
280
     0
102
RTVSPost2010PropOp28
 70
     1
102
RTVSPost2010Prop29
280
     1
102
RTVSPost2010PropOp29
 70
     1
102
RTVSPost2010Prop30
280
     1
102
RTVSPost2010PropOp30
 70
     1
102
RTVSPost2010Prop31
280
     0
102
RTVSPost2010PropOp31
 70
     1
102
RTVSPost2010Prop32
280
     0
102
RTVSPost2010PropOp32
 70
     1
102
RTVSPost2010Prop33
280
     0
102
RTVSPost2010PropOp33
 70
     1
102
RTVSPost2010Prop34
280
     0
102
RTVSPost2010PropOp34
 70
     1
102
RTVSPost2010Prop35
280
     0
102
RTVSPost2010PropOp35
 70
     1
102
RTVSPost2010Prop36
280
     0
102
RTVSPost2010PropOp36
 70
     1
102
RTVSPost2010Prop37
 90
       50
102
RTVSPost2010PropOp37
 70
     1
102
RTVSPost2010Prop38
140
0.0
102
RTVSPost2010PropOp38
 70
     1
102
RTVSPost2010Prop39
140
1.0
102
RTVSPost2010PropOp39
 70
     1
102
RTVSPost2010Prop40
 90
        0
102
RTVSPost2010PropOp40
 70
     1
102
RTVSPost2010Prop41ColorIndex
 90
       18
102
RTVSPost2010Prop41ColorRGB
 90
        0
102
RTVSPost2010PropOp41
 70
     1
102
RTVSPost2010Prop42
 90
       50
102
RTVSPost2010PropOp42
 70
     1
102
RTVSPost2010Prop43
 90
        3
102
RTVSPost2010PropOp43
 70
     1
102
RTVSPost2010Prop44ColorIndex
 90
        5
102
RTVSPost2010Prop44ColorRGB
 90
      255
102
RTVSPost2010PropOp44
 70
     1
102
RTVSPost2010Prop45
280
     0
102
RTVSPost2010PropOp45
 70
     1
102
RTVSPost2010Prop46
 90
       50
102
RTVSPost2010PropOp46
 70
     1
102
RTVSPost2010Prop47
 90
       50
102
RTVSPost2010PropOp47
 70
     1
102
RTVSPost2010Prop48
 90
       50
102
RTVSPost2010PropOp48
 70
     1
102
RTVSPost2010Prop49
280
     0
102
RTVSPost2010PropOp49
 70
     1
102
RTVSPost2010Prop50
 90
       50
102
RTVSPost2010PropOp50
 70
     1
102
RTVSPost2010Prop51ColorIndex
 90
      256
102
RTVSPost2010Prop51ColorRGB
 90
-16777216
102
RTVSPost2010PropOp51
 70
     0
102
RTVSPost2010Prop52
140
1.0
102
RTVSPost2010PropOp52
 70
     0
102
RTVSPost2010Prop53
 90
        2
102
RTVSPost2010PropOp53
 70
     1
102
RTVSPost2010Prop54
  1
strokes_ogs.tif
102
RTVSPost2010PropOp54
 70
     1
102
RTVSPost2010Prop55
280
     0
102
RTVSPost2010PropOp55
 70
     1
102
RTVSPost2010Prop56
140
1.0
102
RTVSPost2010PropOp56
 70
     1
102
RTVSPost2010Prop57
140
1.0
102
RTVSPost2010PropOp57
 70
     1
  0
ENDSEC
  0
EOF
