  0
SECTION
  2
HEADER
  9
$ACADVER
  1
AC1024
  9
$ACADMAINTVER
 70
   182
  9
$DWGCODEPAGE
  3
ANSI_1252
  9
$LASTSAVEDBY
  1
kamerka
  9
$INSBASE
 10
0.0
 20
0.0
 30
0.0
  9
$EXTMIN
 10
-112.1218683553533
 20
-54.69712293243628
 30
-0.0000000000112498
  9
$EXTMAX
 10
77.51876172043058
 20
54.06836902816905
 30
0.0000000000002956
  9
$LIMMIN
 10
0.0
 20
0.0
  9
$LIMMAX
 10
420.0
 20
297.0
  9
$ORTHOMODE
 70
     0
  9
$REGENMODE
 70
     1
  9
$FILLMODE
 70
     1
  9
$QTEXTMODE
 70
     0
  9
$MIRRTEXT
 70
     0
  9
$LTSCALE
 40
23.1
  9
$ATTMODE
 70
     1
  9
$TEXTSIZE
 40
3.5
  9
$TRACEWID
 40
0.05
  9
$TEXTSTYLE
  7
STANDARD
  9
$CLAYER
  8
0
  9
$CELTYPE
  6
BYLAYER
  9
$CECOLOR
 62
   256
  9
$CELTSCALE
 40
1.0
  9
$DISPSILH
 70
     0
  9
$DIMSCALE
 40
1.0
  9
$DIMASZ
 40
4.57
  9
$DIMEXO
 40
0.0625
  9
$DIMDLI
 40
0.38
  9
$DIMRND
 40
0.0
  9
$DIMDLE
 40
0.0
  9
$DIMEXE
 40
0.18
  9
$DIMTP
 40
0.01
  9
$DIMTM
 40
0.01
  9
$DIMTXT
 40
3.5
  9
$DIMCEN
 40
0.09
  9
$DIMTSZ
 40
0.0
  9
$DIMTOL
 70
     0
  9
$DIMLIM
 70
     0
  9
$DIMTIH
 70
     0
  9
$DIMTOH
 70
     0
  9
$DIMSE1
 70
     0
  9
$DIMSE2
 70
     0
  9
$DIMTAD
 70
     1
  9
$DIMZIN
 70
     8
  9
$DIMBLK
  1

  9
$DIMASO
 70
     1
  9
$DIMSHO
 70
     1
  9
$DIMPOST
  1

  9
$DIMAPOST
  1

  9
$DIMALT
 70
     0
  9
$DIMALTD
 70
     2
  9
$DIMALTF
 40
25.4
  9
$DIMLFAC
 40
1.0
  9
$DIMTOFL
 70
     0
  9
$DIMTVP
 40
0.0
  9
$DIMTIX
 70
     0
  9
$DIMSOXD
 70
     0
  9
$DIMSAH
 70
     0
  9
$DIMBLK1
  1

  9
$DIMBLK2
  1

  9
$DIMSTYLE
  2
STANDARD
  9
$DIMCLRD
 70
     0
  9
$DIMCLRE
 70
     0
  9
$DIMCLRT
 70
     0
  9
$DIMTFAC
 40
1.0
  9
$DIMGAP
 40
0.09
  9
$DIMJUST
 70
     0
  9
$DIMSD1
 70
     0
  9
$DIMSD2
 70
     0
  9
$DIMTOLJ
 70
     1
  9
$DIMTZIN
 70
     8
  9
$DIMALTZ
 70
     0
  9
$DIMALTTZ
 70
     0
  9
$DIMUPT
 70
     0
  9
$DIMDEC
 70
     3
  9
$DIMTDEC
 70
     3
  9
$DIMALTU
 70
     2
  9
$DIMALTTD
 70
     2
  9
$DIMTXSTY
  7
STANDARD
  9
$DIMAUNIT
 70
     0
  9
$DIMADEC
 70
     0
  9
$DIMALTRND
 40
0.0
  9
$DIMAZIN
 70
     0
  9
$DIMDSEP
 70
    46
  9
$DIMATFIT
 70
     0
  9
$DIMFRAC
 70
     0
  9
$DIMLDRBLK
  1

  9
$DIMLUNIT
 70
     2
  9
$DIMLWD
 70
    -2
  9
$DIMLWE
 70
    -2
  9
$DIMTMOVE
 70
     0
  9
$DIMFXL
 40
1.0
  9
$DIMFXLON
 70
     0
  9
$DIMJOGANG
 40
0.7853981633974483
  9
$DIMTFILL
 70
     0
  9
$DIMTFILLCLR
 70
     0
  9
$DIMARCSYM
 70
     0
  9
$DIMLTYPE
  6

  9
$DIMLTEX1
  6

  9
$DIMLTEX2
  6

  9
$DIMTXTDIRECTION
 70
     0
  9
$LUNITS
 70
     2
  9
$LUPREC
 70
     4
  9
$SKETCHINC
 40
0.1
  9
$FILLETRAD
 40
0.0
  9
$AUNITS
 70
     0
  9
$AUPREC
 70
     0
  9
$MENU
  1
.
  9
$ELEVATION
 40
0.0
  9
$PELEVATION
 40
0.0
  9
$THICKNESS
 40
0.0
  9
$LIMCHECK
 70
     0
  9
$CHAMFERA
 40
0.0
  9
$CHAMFERB
 40
0.0
  9
$CHAMFERC
 40
0.0
  9
$CHAMFERD
 40
0.0
  9
$SKPOLY
 70
     0
  9
$TDCREATE
 40
2458446.405227107
  9
$TDUCREATE
 40
2458446.321893773
  9
$TDUPDATE
 40
2458976.403565648
  9
$TDUUPDATE
 40
2458976.320232315
  9
$TDINDWG
 40
0.0292862384
  9
$TDUSRTIMER
 40
0.0292851852
  9
$USRTIMER
 70
     1
  9
$ANGBASE
 50
0.0
  9
$ANGDIR
 70
     0
  9
$PDMODE
 70
     3
  9
$PDSIZE
 40
0.3125
  9
$PLINEWID
 40
0.0
  9
$SPLFRAME
 70
     0
  9
$SPLINETYPE
 70
     6
  9
$SPLINESEGS
 70
     8
  9
$HANDSEED
  5
2211E
  9
$SURFTAB1
 70
     6
  9
$SURFTAB2
 70
     6
  9
$SURFTYPE
 70
     6
  9
$SURFU
 70
     6
  9
$SURFV
 70
     6
  9
$UCSBASE
  2

  9
$UCSNAME
  2

  9
$UCSORG
 10
0.0
 20
0.0
 30
0.0
  9
$UCSXDIR
 10
1.0
 20
0.0
 30
0.0
  9
$UCSYDIR
 10
0.0
 20
1.0
 30
0.0
  9
$UCSORTHOREF
  2

  9
$UCSORTHOVIEW
 70
     0
  9
$UCSORGTOP
 10
0.0
 20
0.0
 30
0.0
  9
$UCSORGBOTTOM
 10
0.0
 20
0.0
 30
0.0
  9
$UCSORGLEFT
 10
0.0
 20
0.0
 30
0.0
  9
$UCSORGRIGHT
 10
0.0
 20
0.0
 30
0.0
  9
$UCSORGFRONT
 10
0.0
 20
0.0
 30
0.0
  9
$UCSORGBACK
 10
0.0
 20
0.0
 30
0.0
  9
$PUCSBASE
  2

  9
$PUCSNAME
  2

  9
$PUCSORG
 10
0.0
 20
0.0
 30
0.0
  9
$PUCSXDIR
 10
1.0
 20
0.0
 30
0.0
  9
$PUCSYDIR
 10
0.0
 20
1.0
 30
0.0
  9
$PUCSORTHOREF
  2

  9
$PUCSORTHOVIEW
 70
     0
  9
$PUCSORGTOP
 10
0.0
 20
0.0
 30
0.0
  9
$PUCSORGBOTTOM
 10
0.0
 20
0.0
 30
0.0
  9
$PUCSORGLEFT
 10
0.0
 20
0.0
 30
0.0
  9
$PUCSORGRIGHT
 10
0.0
 20
0.0
 30
0.0
  9
$PUCSORGFRONT
 10
0.0
 20
0.0
 30
0.0
  9
$PUCSORGBACK
 10
0.0
 20
0.0
 30
0.0
  9
$USERI1
 70
     0
  9
$USERI2
 70
     0
  9
$USERI3
 70
     0
  9
$USERI4
 70
     0
  9
$USERI5
 70
     0
  9
$USERR1
 40
0.0
  9
$USERR2
 40
0.0
  9
$USERR3
 40
0.0
  9
$USERR4
 40
0.0
  9
$USERR5
 40
0.0
  9
$WORLDVIEW
 70
     1
  9
$SHADEDGE
 70
     3
  9
$SHADEDIF
 70
    70
  9
$TILEMODE
 70
     1
  9
$MAXACTVP
 70
    64
  9
$PINSBASE
 10
0.0
 20
0.0
 30
0.0
  9
$PLIMCHECK
 70
     0
  9
$PEXTMIN
 10
28.69141678810127
 20
19.6363175392151
 30
0.0
  9
$PEXTMAX
 10
258.2227510929107
 20
176.7268578529358
 30
0.0
  9
$PLIMMIN
 10
-5.027069091796875
 20
-6.805083274841307
  9
$PLIMMAX
 10
291.9412536621094
 20
203.1682443618775
  9
$UNITMODE
 70
     0
  9
$VISRETAIN
 70
     1
  9
$PLINEGEN
 70
     0
  9
$PSLTSCALE
 70
     1
  9
$TREEDEPTH
 70
  3020
  9
$CMLSTYLE
  2
STANDARD
  9
$CMLJUST
 70
     0
  9
$CMLSCALE
 40
1.0
  9
$PROXYGRAPHICS
 70
     1
  9
$MEASUREMENT
 70
     1
  9
$CELWEIGHT
370
    -1
  9
$ENDCAPS
280
     0
  9
$JOINSTYLE
280
     0
  9
$LWDISPLAY
290
     0
  9
$INSUNITS
 70
     0
  9
$HYPERLINKBASE
  1

  9
$STYLESHEET
  1
A1-A2.CTB
  9
$XEDIT
290
     1
  9
$CEPSNTYPE
380
     0
  9
$PSTYLEMODE
290
     1
  9
$FINGERPRINTGUID
  2
{6D3BC7B5-ACA7-406D-8A0D-A7DBBE093430}
  9
$VERSIONGUID
  2
{FB0DA9B7-12C8-41BD-B824-5DFF3F20944E}
  9
$EXTNAMES
290
     1
  9
$PSVPSCALE
 40
0.0
  9
$OLESTARTUP
290
     0
  9
$SORTENTS
280
   127
  9
$INDEXCTL
280
     0
  9
$HIDETEXT
280
     0
  9
$XCLIPFRAME
280
     2
  9
$HALOGAP
280
     0
  9
$OBSCOLOR
 70
   257
  9
$OBSLTYPE
280
     0
  9
$INTERSECTIONDISPLAY
280
     0
  9
$INTERSECTIONCOLOR
 70
   257
  9
$DIMASSOC
280
     1
  9
$PROJECTNAME
  1

  9
$CAMERADISPLAY
290
     0
  9
$LENSLENGTH
 40
50.0
  9
$CAMERAHEIGHT
 40
0.0
  9
$STEPSPERSEC
 40
2.0
  9
$STEPSIZE
 40
6.0
  9
$3DDWFPREC
 40
2.0
  9
$PSOLWIDTH
 40
0.25
  9
$PSOLHEIGHT
 40
4.0
  9
$LOFTANG1
 40
1.570796326794896
  9
$LOFTANG2
 40
1.570796326794896
  9
$LOFTMAG1
 40
0.0
  9
$LOFTMAG2
 40
0.0
  9
$LOFTPARAM
 70
     7
  9
$LOFTNORMALS
280
     1
  9
$LATITUDE
 40
37.795
  9
$LONGITUDE
 40
-122.394
  9
$NORTHDIRECTION
 40
0.0
  9
$TIMEZONE
 70
 -8000
  9
$LIGHTGLYPHDISPLAY
280
     1
  9
$TILEMODELIGHTSYNCH
280
     1
  9
$CMATERIAL
347
318C
  9
$SOLIDHIST
280
     0
  9
$SHOWHIST
280
     1
  9
$DWFFRAME
280
     2
  9
$DGNFRAME
280
     0
  9
$REALWORLDSCALE
290
     1
  9
$INTERFERECOLOR
 62
     1
  9
$INTERFEREOBJVS
345
3199
  9
$INTERFEREVPVS
346
1B2E3
  9
$CSHADOW
280
     0
  9
$SHADOWPLANELOCATION
 40
0.0
  0
ENDSEC
  0
SECTION
  2
CLASSES
  0
CLASS
  1
ACDBDICTIONARYWDFLT
  2
AcDbDictionaryWithDefault
  3
ObjectDBX Classes
 90
        0
 91
        1
280
     0
281
     0
  0
CLASS
  1
MATERIAL
  2
AcDbMaterial
  3
ObjectDBX Classes
 90
     1153
 91
        3
280
     0
281
     0
  0
CLASS
  1
VISUALSTYLE
  2
AcDbVisualStyle
  3
ObjectDBX Classes
 90
     4095
 91
       26
280
     0
281
     0
  0
CLASS
  1
TABLESTYLE
  2
AcDbTableStyle
  3
ObjectDBX Classes
 90
     4095
 91
        1
280
     0
281
     0
  0
CLASS
  1
SORTENTSTABLE
  2
AcDbSortentsTable
  3
ObjectDBX Classes
 90
        0
 91
        2
280
     0
281
     0
  0
CLASS
  1
DICTIONARYVAR
  2
AcDbDictionaryVar
  3
ObjectDBX Classes
 90
        0
 91
       13
280
     0
281
     0
  0
CLASS
  1
EXACXREFPANELOBJECT
  2
ExAcXREFPanelObject
  3
EXAC_ESW
 90
     1025
 91
        0
280
     1
281
     0
  0
CLASS
  1
NPOCOLLECTION
  2
AcDbImpNonPersistentObjectsCollection
  3
ObjectDBX Classes
 90
     1153
 91
        0
280
     1
281
     0
  0
CLASS
  1
SCALE
  2
AcDbScale
  3
ObjectDBX Classes
 90
     1153
 91
       33
280
     0
281
     0
  0
CLASS
  1
MLEADERSTYLE
  2
AcDbMLeaderStyle
  3
ACDB_MLEADERSTYLE_CLASS
 90
     4095
 91
        1
280
     0
281
     0
  0
CLASS
  1
ACDBSECTIONVIEWSTYLE
  2
AcDbSectionViewStyle
  3
ObjectDBX Classes
 90
     1025
 91
        2
280
     0
281
     0
  0
CLASS
  1
ACDBDETAILVIEWSTYLE
  2
AcDbDetailViewStyle
  3
ObjectDBX Classes
 90
     1025
 91
        2
280
     0
281
     0
  0
CLASS
  1
CELLSTYLEMAP
  2
AcDbCellStyleMap
  3
ObjectDBX Classes
 90
     1152
 91
        2
280
     0
281
     0
  0
CLASS
  1
ACAD_EVALUATION_GRAPH
  2
AcDbEvalGraph
  3
ObjectDBX Classes
 90
     1153
 91
        0
280
     0
281
     0
  0
CLASS
  1
ACAECUSTOBJ
  2
AcAeEditorObj
  3
AcAeEditorObj
 90
     1024
 91
        0
280
     0
281
     0
  0
CLASS
  1
ACDB_DYNAMICBLOCKPURGEPREVENTER_VERSION
  2
AcDbDynamicBlockPurgePreventer
  3
ObjectDBX Classes
 90
     1153
 91
        0
280
     0
281
     0
  0
CLASS
  1
FIELD
  2
AcDbField
  3
ObjectDBX Classes
 90
     1152
 91
        0
280
     0
281
     0
  0
CLASS
  1
FIELDLIST
  2
AcDbFieldList
  3
ObjectDBX Classes
 90
     1152
 91
        1
280
     0
281
     0
  0
CLASS
  1
ACDB_ALDIMOBJECTCONTEXTDATA_CLASS
  2
AcDbAlignedDimensionObjectContextData
  3
ObjectDBX Classes
 90
     1153
 91
        0
280
     0
281
     0
  0
ENDSEC
  0
SECTION
  2
TABLES
  0
TABLE
  2
VPORT
  5
8
330
0
100
AcDbSymbolTable
 70
     1
  0
VPORT
  5
1F4
330
8
100
AcDbSymbolTableRecord
100
AcDbViewportTableRecord
  2
*ACTIVE
 70
     0
 10
0.0
 20
0.0
 11
1.0
 21
1.0
 12
-17.30155331746135
 22
-0.3143769521336139
 13
0.0
 23
0.0
 14
1.0
 24
1.0
 15
0.0
 25
0.0
 16
0.0
 26
0.0
 36
1.0
 17
0.0
 27
0.0
 37
0.0
 40
109.6977676059819
 41
2.698140200286123
 42
50.0
 43
0.0
 44
0.0
 50
0.0
 51
0.0
 71
     0
 72
  2000
 73
     1
 74
     1
 75
     0
 76
     0
 77
     0
 78
     0
281
     0
 65
     1
110
0.0
120
0.0
130
0.0
111
1.0
121
0.0
131
0.0
112
0.0
122
1.0
132
0.0
 79
     0
146
0.0
348
3195
 60
     3
 61
     5
292
     1
282
     1
141
0.0
142
0.0
 63
   250
421
  3355443
1001
ACAD_NAV_VCDISPLAY
1070
     3
  0
ENDTAB
  0
TABLE
  2
LTYPE
  5
5
330
0
100
AcDbSymbolTable
 70
     6
  0
LTYPE
  5
14
330
5
100
AcDbSymbolTableRecord
100
AcDbLinetypeTableRecord
  2
BYBLOCK
 70
     0
  3

 72
    65
 73
     0
 40
0.0
  0
LTYPE
  5
15
330
5
100
AcDbSymbolTableRecord
100
AcDbLinetypeTableRecord
  2
BYLAYER
 70
     0
  3

 72
    65
 73
     0
 40
0.0
  0
LTYPE
  5
16
330
5
100
AcDbSymbolTableRecord
100
AcDbLinetypeTableRecord
  2
CONTINUOUS
 70
     0
  3
Solid line
 72
    65
 73
     0
 40
0.0
  0
LTYPE
  5
9C48
330
5
100
AcDbSymbolTableRecord
100
AcDbLinetypeTableRecord
  2
CENTER
 70
     0
  3
____ _ ____ _ ____ _ ____ _ ____ _ ____ _ ____
 72
    65
 73
     4
 40
0.6
 49
0.375
 74
     0
 49
-0.075
 74
     0
 49
0.075
 74
     0
 49
-0.075
 74
     0
  0
LTYPE
  5
20A82
330
5
100
AcDbSymbolTableRecord
100
AcDbLinetypeTableRecord
  2
HIDDEN
 70
     0
  3
- - - - - - - - - - - - - - - - - - - -
 72
    65
 73
     2
 40
0.2
 49
0.1
 74
     0
 49
-0.1
 74
     0
  0
LTYPE
  5
21CB3
330
5
100
AcDbSymbolTableRecord
100
AcDbLinetypeTableRecord
  2
CENTER2
 70
     0
  3
Center (.5x) ___ _ ___ _ ___ _ ___ _ ___ _ ___
 72
    65
 73
     4
 40
28.57499999999999
 49
19.05
 74
     4
 75
     0
340
0
 46
1.0
 50
0.0
 44
0.0
 45
0.0
 49
-3.174999999999998
 74
     4
 75
     0
340
0
 46
1.0
 50
0.0
 44
0.0
 45
0.0
 49
3.174999999999998
 74
     4
 75
     0
340
0
 46
1.0
 50
0.0
 44
0.0
 45
0.0
 49
-3.174999999999998
 74
     4
 75
     0
340
0
 46
1.0
 50
0.0
 44
0.0
 45
0.0
  0
ENDTAB
  0
TABLE
  2
LAYER
  5
2
102
{ACAD_XDICTIONARY
360
422A
102
}
330
0
100
AcDbSymbolTable
 70
    16
  0
LAYER
  5
10
102
{ACAD_XDICTIONARY
360
1B2F5
102
}
330
2
100
AcDbSymbolTableRecord
100
AcDbLayerTableRecord
  2
0
 70
     0
 62
     7
  6
CONTINUOUS
370
    -3
390
318A
347
318E
  0
LAYER
  5
3F8C
102
{ACAD_XDICTIONARY
360
1B2F7
102
}
330
2
100
AcDbSymbolTableRecord
100
AcDbLayerTableRecord
  2
1
 70
     0
 62
     4
  6
BYBLOCK
370
    50
390
318A
347
318E
  0
LAYER
  5
3FA7
330
2
100
AcDbSymbolTableRecord
100
AcDbLayerTableRecord
  2
Defpoints
 70
     0
 62
     7
  6
CONTINUOUS
290
     0
370
    -3
390
318A
347
318E
  0
LAYER
  5
9C4A
102
{ACAD_XDICTIONARY
360
1B2F9
102
}
330
2
100
AcDbSymbolTableRecord
100
AcDbLayerTableRecord
  2
2
 70
     0
 62
     7
  6
BYBLOCK
370
    25
390
318A
347
318E
  0
LAYER
  5
9C4B
102
{ACAD_XDICTIONARY
360
1B2FB
102
}
330
2
100
AcDbSymbolTableRecord
100
AcDbLayerTableRecord
  2
4
 70
     0
 62
     2
  6
CENTER
370
    25
390
318A
347
318E
  0
LAYER
  5
9C4D
102
{ACAD_XDICTIONARY
360
1B2FD
102
}
330
2
100
AcDbSymbolTableRecord
100
AcDbLayerTableRecord
  2
CUT
 70
     0
 62
     1
  6
BYBLOCK
370
    25
390
318A
347
318E
  0
LAYER
  5
9C4E
102
{ACAD_XDICTIONARY
360
1B2FF
102
}
330
2
100
AcDbSymbolTableRecord
100
AcDbLayerTableRecord
  2
NOCUT
 70
     0
 62
     7
  6
BYBLOCK
370
    25
390
318A
347
318E
  0
LAYER
  5
9C4F
102
{ACAD_XDICTIONARY
360
1B301
102
}
330
2
100
AcDbSymbolTableRecord
100
AcDbLayerTableRecord
  2
SK2
 70
     0
 62
     7
  6
BYBLOCK
370
    25
390
318A
347
318E
  0
LAYER
  5
9C50
102
{ACAD_XDICTIONARY
360
1B303
102
}
330
2
100
AcDbSymbolTableRecord
100
AcDbLayerTableRecord
  2
SK1
 70
     0
 62
     4
  6
BYBLOCK
370
    50
390
318A
347
318E
  0
LAYER
  5
9C51
102
{ACAD_XDICTIONARY
360
1B305
102
}
330
2
100
AcDbSymbolTableRecord
100
AcDbLayerTableRecord
  2
SK4
 70
     0
 62
     2
  6
CENTER
370
    25
390
318A
347
318E
  0
LAYER
  5
13335
102
{ACAD_XDICTIONARY
360
1B307
102
}
330
2
100
AcDbSymbolTableRecord
100
AcDbLayerTableRecord
  2
INFTOTAL
 70
     0
 62
     9
  6
BYBLOCK
370
    18
390
318A
347
318E
1001
AcAecLayerStandard
1000

1000

  0
LAYER
  5
1686E
102
{ACAD_XDICTIONARY
360
1B309
102
}
330
2
100
AcDbSymbolTableRecord
100
AcDbLayerTableRecord
  2
SK6
 70
     0
 62
     5
  6
BYBLOCK
370
    -3
390
318A
347
318E
  0
LAYER
  5
21CB4
330
2
100
AcDbSymbolTableRecord
100
AcDbLayerTableRecord
  2
SK3
 70
     0
 62
     1
  6
HIDDEN
370
    35
390
318A
347
318E
  0
LAYER
  5
21CB5
330
2
100
AcDbSymbolTableRecord
100
AcDbLayerTableRecord
  2
SKVIEW1
 70
     0
 62
     4
  6
CONTINUOUS
370
    50
390
318A
347
318E
1001
AcAecLayerStandard
1000

1000

  0
LAYER
  5
21CB6
330
2
100
AcDbSymbolTableRecord
100
AcDbLayerTableRecord
  2
SKVIEW4
 70
     0
 62
     2
  6
CENTER2
370
    25
390
318A
347
318E
1001
AcAecLayerStandard
1000

1000

  0
ENDTAB
  0
TABLE
  2
STYLE
  5
3
330
0
100
AcDbSymbolTable
 70
     2
  0
STYLE
  5
11
330
3
100
AcDbSymbolTableRecord
100
AcDbTextStyleTableRecord
  2
STANDARD
 70
     0
 40
3.5
 41
0.8
 50
0.0
 71
     0
 42
3.5
  3
monos.ttf
  4

1001
ACAD
1000
Monospac821 BT
1071
       49
  0
ENDTAB
  0
TABLE
  2
VIEW
  5
6
330
0
100
AcDbSymbolTable
 70
     0
  0
ENDTAB
  0
TABLE
  2
UCS
  5
7
330
0
100
AcDbSymbolTable
 70
     0
  0
ENDTAB
  0
TABLE
  2
APPID
  5
9
330
0
100
AcDbSymbolTable
 70
    19
  0
APPID
  5
23B
330
9
100
AcDbSymbolTableRecord
100
AcDbRegAppTableRecord
  2
ACAD
 70
     0
  0
APPID
  5
3395
330
9
100
AcDbSymbolTableRecord
100
AcDbRegAppTableRecord
  2
ACAD_EXEMPT_FROM_CAD_STANDARDS
 70
     0
  0
APPID
  5
4229
330
9
100
AcDbSymbolTableRecord
100
AcDbRegAppTableRecord
  2
AcAecLayerStandard
 70
     0
  0
APPID
  5
9A1B
330
9
100
AcDbSymbolTableRecord
100
AcDbRegAppTableRecord
  2
ACAD_PSEXT
 70
     0
  0
APPID
  5
1B313
330
9
100
AcDbSymbolTableRecord
100
AcDbRegAppTableRecord
  2
ACAD_NAV_VCDISPLAY
 70
     0
  0
APPID
  5
1B355
330
9
100
AcDbSymbolTableRecord
100
AcDbRegAppTableRecord
  2
ACAD_MLEADERVER
 70
     0
  0
APPID
  5
1EC7F
330
9
100
AcDbSymbolTableRecord
100
AcDbRegAppTableRecord
  2
ACAUTHENVIRON
 70
     0
  0
APPID
  5
1EC82
330
9
100
AcDbSymbolTableRecord
100
AcDbRegAppTableRecord
  2
AcDbDynamicBlockTrueName
 70
     0
  0
APPID
  5
1EC83
330
9
100
AcDbSymbolTableRecord
100
AcDbRegAppTableRecord
  2
AcDbDynamicBlockGUID
 70
     0
  0
APPID
  5
20A85
330
9
100
AcDbSymbolTableRecord
100
AcDbRegAppTableRecord
  2
AcCmTransparency
 70
     0
  0
APPID
  5
20AE2
330
9
100
AcDbSymbolTableRecord
100
AcDbRegAppTableRecord
  2
ACAD_DSTYLE_DIMRADIAL_EXTENSION
 70
     0
  0
APPID
  5
20CB0
330
9
100
AcDbSymbolTableRecord
100
AcDbRegAppTableRecord
  2
AcadAnnotative
 70
     0
  0
APPID
  5
21667
330
9
100
AcDbSymbolTableRecord
100
AcDbRegAppTableRecord
  2
AcadAnnoMonitorAlertIconDisabled
 70
     0
  0
APPID
  5
21CB9
330
9
100
AcDbSymbolTableRecord
100
AcDbRegAppTableRecord
  2
ACAD_DSTYLE_DIMJAG
 70
     0
  0
APPID
  5
21CBA
330
9
100
AcDbSymbolTableRecord
100
AcDbRegAppTableRecord
  2
ACAD_DSTYLE_DIMTALN
 70
     0
  0
APPID
  5
21CBB
330
9
100
AcDbSymbolTableRecord
100
AcDbRegAppTableRecord
  2
ACAD_DSTYLE_DIM_LINETYPE
 70
     0
  0
APPID
  5
21CBC
330
9
100
AcDbSymbolTableRecord
100
AcDbRegAppTableRecord
  2
ACAD_DSTYLE_DIM_EXT1_LINETYPE
 70
     0
  0
APPID
  5
21CBD
330
9
100
AcDbSymbolTableRecord
100
AcDbRegAppTableRecord
  2
ACAD_DSTYLE_DIM_EXT2_LINETYPE
 70
     0
  0
APPID
  5
21CBE
330
9
100
AcDbSymbolTableRecord
100
AcDbRegAppTableRecord
  2
ACAD_DSTYLE_DIMARC_LENGTH_SYMBOL
 70
     0
  0
ENDTAB
  0
TABLE
  2
DIMSTYLE
  5
A
330
0
100
AcDbSymbolTable
 70
     3
100
AcDbDimStyleTable
 71
     1
340
243
  0
DIMSTYLE
105
243
102
{ACAD_REACTORS
330
21DF5
330
21DF4
330
21DF6
330
21DF3
330
21F0E
102
}
330
A
100
AcDbSymbolTableRecord
100
AcDbDimStyleTableRecord
  2
STANDARD
 70
     0
 41
4.57
 47
0.01
 48
0.01
 73
     0
 74
     0
 77
     1
 78
     8
140
3.5
271
     3
272
     3
284
     8
289
     0
340
11
  0
ENDTAB
  0
TABLE
  2
BLOCK_RECORD
  5
1
330
0
100
AcDbSymbolTable
 70
    18
  0
BLOCK_RECORD
  5
1F
102
{ACAD_XDICTIONARY
360
339C
102
}
330
1
100
AcDbSymbolTableRecord
100
AcDbBlockTableRecord
  2
*MODEL_SPACE
340
31A6
 70
     0
280
     1
281
     0
  0
BLOCK_RECORD
  5
1B
330
1
100
AcDbSymbolTableRecord
100
AcDbBlockTableRecord
  2
*PAPER_SPACE
340
31A7
 70
     0
280
     1
281
     0
  0
BLOCK_RECORD
  5
1B3D7
102
{ACAD_XDICTIONARY
360
1DE81
102
}
330
1
100
AcDbSymbolTableRecord
100
AcDbBlockTableRecord
  2
cero_point
340
0
310
28000000200000002000000001002000000000000010000001000000010000000000000000000000302821FF302821FF302821FF302821FF302821FF302821FF302821FF302821FF302821FF302821FF302821FF302821FF302821FF302821FF302821FF302821FF302821FF302821FF302821FF302821FF302821FF302821
310
FF302821FF302821FF302821FF302821FF302821FF302821FF302821FF302821FF302821FF302821FF302821FF302821FF302821FF302821FF302821FF302821FF302821FF302821FF302821FF302821FF302821FF302821FF302821FF302821FF302821FFFFFF00FFFFFF00FFFFFF00FF302821FF302821FF302821FF3028
310
21FF302821FF302821FF302821FF302821FF302821FF302821FF302821FF302821FF302821FF302821FF302821FF302821FF302821FF302821FF302821FF302821FF302821FF302821FF302821FF302821FFFFFF00FFFFFF00FFFFFF00FFFFFF00FFFFFF00FFFFFF00FFFFFF00FF302821FFFFFF00FFFFFF00FFFFFF00FF30
310
2821FF302821FF302821FF302821FF302821FF302821FF302821FF302821FF302821FF302821FF302821FF302821FF302821FF302821FF302821FF302821FF302821FF302821FF302821FFFFFF00FFFFFF00FFFFFF00FFFFFF00FFFFFF00FFFFFF00FFFFFF00FFFFFF00FFFFFF00FF302821FF302821FF302821FF302821FF
310
FFFF00FFFFFF00FF302821FF302821FF302821FF302821FF302821FF302821FF302821FF302821FF302821FF302821FF302821FF302821FF302821FF302821FF302821FF302821FFFFFF00FFFFFF00FFFFFF00FFFFFF00FFFFFF00FFFFFF00FFFFFF00FFFFFF00FFFFFF00FFFFFF00FF302821FF302821FF302821FF302821
310
FF302821FF302821FFFFFF00FFFFFF00FF302821FF302821FF302821FF302821FF302821FF302821FF302821FF302821FF302821FF302821FF302821FF302821FF302821FFFFFF00FFFFFF00FFFFFF00FFFFFF00FFFFFF00FFFFFF00FFFFFF00FFFFFF00FFFFFF00FFFFFF00FFFFFF00FF302821FF302821FF302821FF3028
310
21FF302821FF302821FF302821FF302821FFFFFF00FF302821FF302821FF302821FF302821FF302821FF302821FF302821FF302821FF302821FF302821FF302821FFFFFF00FFFFFF00FFFFFF00FFFFFF00FFFFFF00FFFFFF00FFFFFF00FFFFFF00FFFFFF00FFFFFF00FFFFFF00FFFFFF00FF302821FF302821FF302821FF30
310
2821FF302821FF302821FF302821FF302821FF302821FFFFFF00FF302821FF302821FF302821FF302821FF302821FF302821FF302821FF302821FF302821FFFFFF00FFFFFF00FFFFFF00FFFFFF00FFFFFF00FFFFFF00FFFFFF00FFFFFF00FFFFFF00FFFFFF00FFFFFF00FFFFFF00FFFFFF00FF302821FF302821FF302821FF
310
302821FF302821FF302821FF302821FF302821FF302821FF302821FFFFFF00FF302821FF302821FF302821FF302821FF302821FF302821FF302821FFFFFF00FFFFFF00FFFFFF00FFFFFF00FFFFFF00FFFFFF00FFFFFF00FFFFFF00FFFFFF00FFFFFF00FFFFFF00FFFFFF00FFFFFF00FFFFFF00FF302821FF302821FF302821
310
FF302821FF302821FF302821FF302821FF302821FF302821FF302821FFFFFF00FF302821FF302821FF302821FF302821FF302821FF302821FF302821FFFFFF00FFFFFF00FFFFFF00FFFFFF00FFFFFF00FFFFFF00FFFFFF00FFFFFF00FFFFFF00FFFFFF00FFFFFF00FFFFFF00FFFFFF00FFFFFF00FF302821FF302821FF3028
310
21FF302821FF302821FF302821FF302821FF302821FF302821FF302821FF302821FFFFFF00FF302821FF302821FF302821FF302821FF302821FFFFFF00FFFFFF00FFFFFF00FFFFFF00FFFFFF00FFFFFF00FFFFFF00FFFFFF00FFFFFF00FFFFFF00FFFFFF00FFFFFF00FFFFFF00FFFFFF00FFFFFF00FF302821FF302821FF30
310
2821FF302821FF302821FF302821FF302821FF302821FF302821FF302821FF302821FF302821FFFFFF00FF302821FF302821FF302821FF302821FFFFFF00FFFFFF00FFFFFF00FFFFFF00FFFFFF00FFFFFF00FFFFFF00FFFFFF00FFFFFF00FFFFFF00FFFFFF00FFFFFF00FFFFFF00FFFFFF00FFFFFF00FF302821FF302821FF
310
302821FF302821FF302821FF302821FF302821FF302821FF302821FF302821FF302821FF302821FFFFFF00FF302821FF302821FF302821FF302821FFFFFF00FFFFFF00FFFFFF00FFFFFF00FFFFFF00FFFFFF00FFFFFF00FFFFFF00FFFFFF00FFFFFF00FFFFFF00FFFFFF00FFFFFF00FFFFFF00FFFFFF00FF302821FF302821
310
FF302821FF302821FF302821FF302821FF302821FF302821FF302821FF302821FF302821FF302821FFFFFF00FF302821FF302821FF302821FF302821FFFFFF00FFFFFF00FFFFFF00FFFFFF00FFFFFF00FFFFFF00FFFFFF00FFFFFF00FFFFFF00FFFFFF00FFFFFF00FFFFFF00FFFFFF00FFFFFF00FFFFFF00FF302821FF3028
310
21FF302821FF302821FF302821FF302821FF302821FF302821FF302821FF302821FF302821FF302821FFFFFF00FF302821FF302821FF302821FFFFFF00FFFFFF00FFFFFF00FFFFFF00FFFFFF00FFFFFF00FFFFFF00FFFFFF00FFFFFF00FFFFFF00FFFFFF00FFFFFF00FFFFFF00FFFFFF00FFFFFF00FFFFFF00FF302821FF30
310
2821FF302821FF302821FF302821FF302821FF302821FF302821FF302821FF302821FF302821FF302821FF302821FFFFFF00FF302821FF302821FFFFFF00FFFFFF00FFFFFF00FFFFFF00FFFFFF00FFFFFF00FFFFFF00FFFFFF00FFFFFF00FFFFFF00FFFFFF00FFFFFF00FFFFFF00FFFFFF00FFFFFF00FFFFFF00FFFFFF00FF
310
FFFF00FFFFFF00FFFFFF00FFFFFF00FFFFFF00FFFFFF00FFFFFF00FFFFFF00FFFFFF00FFFFFF00FFFFFF00FFFFFF00FFFFFF00FF302821FF302821FFFFFF00FF302821FF302821FF302821FF302821FF302821FF302821FF302821FF302821FF302821FF302821FF302821FF302821FF302821FF302821FFFFFF00FFFFFF00
310
FFFFFF00FFFFFF00FFFFFF00FFFFFF00FFFFFF00FFFFFF00FFFFFF00FFFFFF00FFFFFF00FFFFFF00FFFFFF00FFFFFF00FFFFFF00FF302821FF302821FFFFFF00FF302821FF302821FF302821FF302821FF302821FF302821FF302821FF302821FF302821FF302821FF302821FF302821FF302821FF302821FFFFFF00FFFFFF
310
00FFFFFF00FFFFFF00FFFFFF00FFFFFF00FFFFFF00FFFFFF00FFFFFF00FFFFFF00FFFFFF00FFFFFF00FFFFFF00FFFFFF00FF302821FF302821FF302821FF302821FFFFFF00FF302821FF302821FF302821FF302821FF302821FF302821FF302821FF302821FF302821FF302821FF302821FF302821FF302821FFFFFF00FFFF
310
FF00FFFFFF00FFFFFF00FFFFFF00FFFFFF00FFFFFF00FFFFFF00FFFFFF00FFFFFF00FFFFFF00FFFFFF00FFFFFF00FFFFFF00FF302821FF302821FF302821FF302821FFFFFF00FF302821FF302821FF302821FF302821FF302821FF302821FF302821FF302821FF302821FF302821FF302821FF302821FF302821FFFFFF00FF
310
FFFF00FFFFFF00FFFFFF00FFFFFF00FFFFFF00FFFFFF00FFFFFF00FFFFFF00FFFFFF00FFFFFF00FFFFFF00FFFFFF00FFFFFF00FF302821FF302821FF302821FF302821FFFFFF00FF302821FF302821FF302821FF302821FF302821FF302821FF302821FF302821FF302821FF302821FF302821FF302821FF302821FFFFFF00
310
FFFFFF00FFFFFF00FFFFFF00FFFFFF00FFFFFF00FFFFFF00FFFFFF00FFFFFF00FFFFFF00FFFFFF00FFFFFF00FFFFFF00FFFFFF00FF302821FF302821FF302821FF302821FF302821FFFFFF00FF302821FF302821FF302821FF302821FF302821FF302821FF302821FF302821FF302821FF302821FF302821FF302821FFFFFF
310
00FFFFFF00FFFFFF00FFFFFF00FFFFFF00FFFFFF00FFFFFF00FFFFFF00FFFFFF00FFFFFF00FFFFFF00FFFFFF00FFFFFF00FFFFFF00FF302821FF302821FF302821FF302821FF302821FFFFFF00FF302821FF302821FF302821FF302821FF302821FF302821FF302821FF302821FF302821FF302821FF302821FF302821FFFF
310
FF00FFFFFF00FFFFFF00FFFFFF00FFFFFF00FFFFFF00FFFFFF00FFFFFF00FFFFFF00FFFFFF00FFFFFF00FFFFFF00FFFFFF00FF302821FF302821FF302821FF302821FF302821FF302821FF302821FFFFFF00FF302821FF302821FF302821FF302821FF302821FF302821FF302821FF302821FF302821FF302821FF302821FF
310
FFFF00FFFFFF00FFFFFF00FFFFFF00FFFFFF00FFFFFF00FFFFFF00FFFFFF00FFFFFF00FFFFFF00FFFFFF00FFFFFF00FFFFFF00FF302821FF302821FF302821FF302821FF302821FF302821FF302821FFFFFF00FF302821FF302821FF302821FF302821FF302821FF302821FF302821FF302821FF302821FF302821FF302821
310
FFFFFF00FFFFFF00FFFFFF00FFFFFF00FFFFFF00FFFFFF00FFFFFF00FFFFFF00FFFFFF00FFFFFF00FFFFFF00FFFFFF00FF302821FF302821FF302821FF302821FF302821FF302821FF302821FF302821FF302821FFFFFF00FF302821FF302821FF302821FF302821FF302821FF302821FF302821FF302821FF302821FF3028
310
21FFFFFF00FFFFFF00FFFFFF00FFFFFF00FFFFFF00FFFFFF00FFFFFF00FFFFFF00FFFFFF00FFFFFF00FFFFFF00FF302821FF302821FF302821FF302821FF302821FF302821FF302821FF302821FF302821FF302821FF302821FFFFFF00FF302821FF302821FF302821FF302821FF302821FF302821FF302821FF302821FF30
310
2821FFFFFF00FFFFFF00FFFFFF00FFFFFF00FFFFFF00FFFFFF00FFFFFF00FFFFFF00FFFFFF00FFFFFF00FF302821FF302821FF302821FF302821FF302821FF302821FF302821FF302821FF302821FF302821FF302821FF302821FF302821FFFFFF00FF302821FF302821FF302821FF302821FF302821FF302821FF302821FF
310
302821FFFFFF00FFFFFF00FFFFFF00FFFFFF00FFFFFF00FFFFFF00FFFFFF00FFFFFF00FFFFFF00FF302821FF302821FF302821FF302821FF302821FF302821FF302821FF302821FF302821FF302821FF302821FF302821FF302821FF302821FF302821FFFFFF00FFFFFF00FF302821FF302821FF302821FF302821FF302821
310
FF302821FFFFFF00FFFFFF00FFFFFF00FFFFFF00FFFFFF00FFFFFF00FFFFFF00FFFFFF00FF302821FF302821FF302821FF302821FF302821FF302821FF302821FF302821FF302821FF302821FF302821FF302821FF302821FF302821FF302821FF302821FF302821FF302821FFFFFF00FFFFFF00FFFFFF00FFFFFF00FFFFFF
310
00FF302821FFFFFF00FFFFFF00FFFFFF00FFFFFF00FFFFFF00FFFFFF00FF302821FF302821FF302821FF302821FF302821FF302821FF302821FF302821FF302821FF302821FF302821FF302821FF302821FF302821FF302821FF302821FF302821FF302821FF302821FF302821FF302821FF302821FF302821FF302821FF30
310
2821FFFFFF00FFFFFF00FFFFFF00FF302821FF302821FF302821FF302821FF302821FF302821FF302821FF302821FF302821FF302821FF302821FF302821FF302821FF302821FF302821FF302821FF302821FF302821FF302821FF302821FF302821FF302821FF302821FF302821FF302821FF302821FF302821FF302821FF
310
302821FF302821FF302821FF302821FF302821FF302821FF302821FF302821FF302821FF302821FF302821FF302821FF302821FF302821FF302821FF302821FF302821FF302821FF
102
{BLKREFS
331
21DEA
102
}
 70
     0
280
     1
281
     1
  0
BLOCK_RECORD
  5
21F0F
330
1
100
AcDbSymbolTableRecord
100
AcDbBlockTableRecord
  2
*D12
340
0
 70
     0
280
     1
281
     0
  0
BLOCK_RECORD
  5
21F19
330
1
100
AcDbSymbolTableRecord
100
AcDbBlockTableRecord
  2
*D13
340
0
 70
     0
280
     1
281
     0
  0
BLOCK_RECORD
  5
21F25
330
1
100
AcDbSymbolTableRecord
100
AcDbBlockTableRecord
  2
*D14
340
0
 70
     0
280
     1
281
     0
  0
BLOCK_RECORD
  5
21F31
330
1
100
AcDbSymbolTableRecord
100
AcDbBlockTableRecord
  2
*D15
340
0
 70
     0
280
     1
281
     0
  0
BLOCK_RECORD
  5
21F3F
330
1
100
AcDbSymbolTableRecord
100
AcDbBlockTableRecord
  2
*D16
340
0
 70
     0
280
     1
281
     0
  0
ENDTAB
  0
ENDSEC
  0
SECTION
  2
BLOCKS
  0
BLOCK
  5
20
330
1F
100
AcDbEntity
  8
0
100
AcDbBlockBegin
  2
*MODEL_SPACE
 70
     0
 10
0.0
 20
0.0
 30
0.0
  3
*MODEL_SPACE
  1

  0
ENDBLK
  5
21
330
1F
100
AcDbEntity
  8
0
100
AcDbBlockEnd
  0
BLOCK
  5
1C
330
1B
100
AcDbEntity
 67
     1
  8
0
100
AcDbBlockBegin
  2
*PAPER_SPACE
 70
     0
 10
0.0
 20
0.0
 30
0.0
  3
*PAPER_SPACE
  1

  0
ENDBLK
  5
1D
330
1B
100
AcDbEntity
 67
     1
  8
0
100
AcDbBlockEnd
  0
BLOCK
  5
1B3D8
330
1B3D7
100
AcDbEntity
  8
0
100
AcDbBlockBegin
  2
cero_point
 70
     0
 10
0.0
 20
0.0
 30
0.0
  3
cero_point
  1

  0
HATCH
  5
1B3DA
330
1B3D7
100
AcDbEntity
  8
1
  6
ByBlock
370
    50
100
AcDbHatch
 10
0.0
 20
0.0
 30
0.0
210
0.0
220
0.0
230
1.0
  2
SOLID
 70
     1
 71
     0
 91
        2
 92
        7
 72
     1
 73
     1
 93
        3
 10
-0.0000000000001137
 20
0.0
 42
0.0
 10
-2.950972054112752
 20
0.0
 42
0.4142135623730968
 10
-0.0000000000001137
 20
-2.950972054112583
 42
0.0
 97
        0
 92
        7
 72
     1
 73
     1
 93
        3
 10
-0.0000000000001137
 20
2.950972054112638
 42
0.0
 10
-0.0000000000001137
 20
0.0
 42
0.0
 10
2.950972054112526
 20
0.0
 42
0.4142135623730966
 97
        0
 75
     0
 76
     1
 47
0.1190009775223266
 98
        2
 10
-0.7445530588121301
 20
-0.9212244733764125
 10
1.279464601852737
 20
1.696796923046345
450
        0
451
        0
460
0.0
461
0.0
452
        0
462
0.0
453
        0
470

  0
LWPOLYLINE
  5
1B3DB
330
1B3D7
100
AcDbEntity
  8
1
  6
ByBlock
370
    50
100
AcDbPolyline
 90
        3
 70
     1
 43
0.0
 10
-0.0000000000001137
 20
0.0
 10
2.950972054112526
 20
0.0
 42
0.4142135623730966
 10
-0.0000000000001137
 20
2.950972054112638
  0
LINE
  5
1B3DC
330
1B3D7
100
AcDbEntity
  8
1
  6
ByBlock
370
    50
100
AcDbLine
 10
-0.0000000000001137
 20
-2.950972054112583
 30
0.0
 11
-0.0000000000001137
 21
2.950972054112638
 31
0.0
  0
LWPOLYLINE
  5
1B3DD
330
1B3D7
100
AcDbEntity
  8
1
  6
ByBlock
370
    50
100
AcDbPolyline
 90
        3
 70
     1
 43
0.0
 10
-0.0000000000001137
 20
-2.950972054112583
 10
-0.0000000000001137
 20
0.0
 10
-2.950972054112752
 20
0.0
 42
0.4142135623730966
  0
LINE
  5
1B3DE
330
1B3D7
100
AcDbEntity
  8
1
  6
ByBlock
370
    50
100
AcDbLine
 10
2.950972054112638
 20
0.0
 30
0.0
 11
-2.950972054112638
 21
0.0
 31
0.0
  0
CIRCLE
  5
1B3DF
330
1B3D7
100
AcDbEntity
  8
1
  6
ByBlock
370
    50
100
AcDbCircle
 10
-0.0000000000001137
 20
0.0
 30
0.0
 40
2.950972054112601
  0
ENDBLK
  5
1B3D9
330
1B3D7
100
AcDbEntity
  8
0
100
AcDbBlockEnd
  0
BLOCK
  5
21F10
330
21F0F
100
AcDbEntity
  8
0
100
AcDbBlockBegin
  2
*D12
 70
     1
 10
0.0
 20
0.0
 30
0.0
  3
*D12
  1

  0
LINE
  5
220D7
330
21F0F
100
AcDbEntity
  8
SK2
 62
     0
440
 16777216
370
    -2
100
AcDbLine
 10
-13.86249999999995
 20
6.800000000000011
 30
0.0
 11
-28.5305030302349
 21
6.800000000000015
 31
0.0
  0
LINE
  5
220D8
330
21F0F
100
AcDbEntity
  8
SK2
 62
     0
440
 16777216
370
    -2
100
AcDbLine
 10
-13.86249999999995
 20
-6.800000000000068
 30
0.0
 11
-28.5305030302349
 21
-6.800000000000063
 31
0.0
  0
LINE
  5
220D9
330
21F0F
100
AcDbEntity
  8
SK2
 62
     0
440
 16777216
370
    -2
100
AcDbLine
 10
-28.35050303023491
 20
2.230000000000015
 30
0.0
 11
-28.35050303023491
 21
-2.230000000000063
 31
0.0
  0
SOLID
  5
220DA
330
21F0F
100
AcDbEntity
  8
SK2
 62
     0
440
 16777216
100
AcDbTrace
 10
-29.11216969690157
 20
2.230000000000015
 30
0.0
 11
-27.58883636356824
 21
2.230000000000015
 31
0.0
 12
-28.35050303023491
 22
6.800000000000015
 32
0.0
 13
-28.35050303023491
 23
6.800000000000015
 33
0.0
  0
SOLID
  5
220DB
330
21F0F
100
AcDbEntity
  8
SK2
 62
     0
440
 16777216
100
AcDbTrace
 10
-29.11216969690157
 20
-2.230000000000063
 30
0.0
 11
-27.58883636356824
 21
-2.230000000000063
 31
0.0
 12
-28.35050303023491
 22
-6.800000000000063
 32
0.0
 13
-28.35050303023491
 23
-6.800000000000063
 33
0.0
  0
MTEXT
  5
220DC
330
21F0F
100
AcDbEntity
  8
SK2
 62
     0
440
 16777216
100
AcDbMText
 10
-30.30364428111333
 20
-1.663495048993809
 30
0.0
 40
3.5
 41
0.0
 46
0.0
 71
     5
 72
     1
  1
\A1;%%C13.6
 11
0.0000000000000001
 21
1.0
 31
0.0
 73
     1
 44
1.0
  0
POINT
  5
220DD
330
21F0F
100
AcDbEntity
  8
Defpoints
 62
     0
440
 16777216
100
AcDbPoint
 10
-13.79999999999995
 20
6.800000000000011
 30
0.0
  0
POINT
  5
220DE
330
21F0F
100
AcDbEntity
  8
Defpoints
 62
     0
440
 16777216
100
AcDbPoint
 10
-13.79999999999995
 20
-6.800000000000068
 30
0.0
  0
POINT
  5
220DF
330
21F0F
100
AcDbEntity
  8
Defpoints
 62
     0
440
 16777216
100
AcDbPoint
 10
-28.35050303023491
 20
-6.800000000000063
 30
0.0
  0
ENDBLK
  5
21F11
330
21F0F
100
AcDbEntity
  8
0
100
AcDbBlockEnd
  0
BLOCK
  5
21F1A
330
21F19
100
AcDbEntity
  8
0
100
AcDbBlockBegin
  2
*D13
 70
     1
 10
0.0
 20
0.0
 30
0.0
  3
*D13
  1

  0
LINE
  5
220B1
330
21F19
100
AcDbEntity
  8
2
 62
     0
440
 16777216
370
    -2
100
AcDbLine
 10
27.52249999997941
 20
8.949998439021131
 30
0.0
 11
46.39456318551537
 21
8.949527096754431
 31
0.0
  0
LINE
  5
220B2
330
21F19
100
AcDbEntity
  8
2
 62
     0
440
 16777216
370
    -2
100
AcDbLine
 10
28.3224999999796
 20
-8.950001560978849
 30
0.0
 11
46.3941161216693
 21
-8.950452911550431
 31
0.0
  0
LINE
  5
220B3
330
21F19
100
AcDbEntity
  8
2
 62
     0
440
 16777216
370
    -2
100
AcDbLine
 10
46.21444904679734
 20
4.379531593798889
 30
0.0
 11
46.21423026049963
 21
-4.380448417356663
 31
0.0
  0
SOLID
  5
220B4
330
21F19
100
AcDbEntity
  8
2
 62
     0
440
 16777216
100
AcDbTrace
 10
45.45278238036822
 20
4.379550616927917
 30
0.0
 11
46.97611571322645
 21
4.379512570669859
 31
0.0
 12
46.21456318557151
 22
8.949531592373544
 32
0.0
 13
46.21456318557151
 23
8.949531592373544
 33
0.0
  0
SOLID
  5
220B5
330
21F19
100
AcDbEntity
  8
2
 62
     0
440
 16777216
100
AcDbTrace
 10
45.4525635940705
 20
-4.380429394227634
 30
0.0
 11
46.97589692692874
 21
-4.380467440485692
 31
0.0
 12
46.21411612172544
 22
-8.950448415931319
 32
0.0
 13
46.21411612172544
 23
-8.950448415931319
 33
0.0
  0
MTEXT
  5
220B6
330
21F19
100
AcDbEntity
  8
2
 62
     0
440
 16777216
100
AcDbMText
 10
44.31284447257623
 20
-0.2154765051280417
 30
0.0
 40
3.5
 41
0.0
 46
0.0
 71
     5
 72
     1
  1
\A1;17.9
 11
0.0000249756617451
 21
0.9999999996881081
 31
0.0
 73
     1
 44
1.0
  0
POINT
  5
220B7
330
21F19
100
AcDbEntity
  8
Defpoints
 62
     0
440
 16777216
100
AcDbPoint
 10
27.4599999999989
 20
8.94999999999999
 30
0.0
  0
POINT
  5
220B8
330
21F19
100
AcDbEntity
  8
Defpoints
 62
     0
440
 16777216
100
AcDbPoint
 10
28.25999999999909
 20
-8.94999999999999
 30
0.0
  0
POINT
  5
220B9
330
21F19
100
AcDbEntity
  8
Defpoints
 62
     0
440
 16777216
100
AcDbPoint
 10
46.21411612172544
 20
-8.950448415931319
 30
0.0
  0
ENDBLK
  5
21F1B
330
21F19
100
AcDbEntity
  8
0
100
AcDbBlockEnd
  0
BLOCK
  5
21F26
330
21F25
100
AcDbEntity
  8
0
100
AcDbBlockBegin
  2
*D14
 70
     1
 10
0.0
 20
0.0
 30
0.0
  3
*D14
  1

  0
LINE
  5
220BA
330
21F25
100
AcDbEntity
  8
2
 62
     0
440
 16777216
370
    -2
100
AcDbLine
 10
31.76000104065165
 20
0.0624999999913363
 30
0.0
 11
31.76065247774551
 21
39.18681468609602
 31
0.0
  0
LINE
  5
220BB
330
21F25
100
AcDbEntity
  8
2
 62
     0
440
 16777216
370
    -2
100
AcDbLine
 10
0.0000010406525632
 20
17.20020599999134
 30
0.0
 11
0.0003671361887066
 21
39.18734350885367
 31
0.0
  0
LINE
  5
220BC
330
21F25
100
AcDbEntity
  8
2
 62
     0
440
 16777216
370
    -2
100
AcDbLine
 10
27.19064948129962
 20
39.00689077863639
 30
0.0
 11
4.570364138475838
 21
39.00726741636319
 31
0.0
  0
SOLID
  5
220BD
330
21F25
100
AcDbEntity
  8
2
 62
     0
440
 16777216
100
AcDbTrace
 10
27.19066216338552
 20
39.76855744519748
 30
0.0
 11
27.19063679921372
 21
38.24522411207531
 31
0.0
 12
31.76064948066613
 22
39.00681468612097
 32
0.0
 13
31.76064948066613
 23
39.00681468612097
 33
0.0
  0
SOLID
  5
220BE
330
21F25
100
AcDbEntity
  8
2
 62
     0
440
 16777216
100
AcDbTrace
 10
4.570376820561741
 20
39.76893408292428
 30
0.0
 11
4.570351456389934
 21
38.24560074980211
 31
0.0
 12
0.0003641391093246
 22
39.00734350887861
 32
0.0
 13
0.0003641391093246
 23
39.00734350887861
 33
0.0
  0
MTEXT
  5
220BF
330
21F25
100
AcDbEntity
  8
2
 62
     0
440
 16777216
100
AcDbMText
 10
15.880119672496
 20
40.9085689144694
 30
0.0
 40
3.5
 41
0.0
 46
0.0
 71
     5
 72
     1
  1
\A1;31.76
 11
0.9999999998613814
 21
-0.000016650441011
 31
0.0
 73
     1
 44
1.0
  0
POINT
  5
220C0
330
21F25
100
AcDbEntity
  8
Defpoints
 62
     0
440
 16777216
100
AcDbPoint
 10
31.75999999999908
 20
0.0
 30
0.0
  0
POINT
  5
220C1
330
21F25
100
AcDbEntity
  8
Defpoints
 62
     0
440
 16777216
100
AcDbPoint
 10
0.0
 20
17.13770600000001
 30
0.0
  0
POINT
  5
220C2
330
21F25
100
AcDbEntity
  8
Defpoints
 62
     0
440
 16777216
100
AcDbPoint
 10
0.0003641391093246
 20
39.00734350887861
 30
0.0
  0
ENDBLK
  5
21F27
330
21F25
100
AcDbEntity
  8
0
100
AcDbBlockEnd
  0
BLOCK
  5
21F32
330
21F31
100
AcDbEntity
  8
0
100
AcDbBlockBegin
  2
*D15
 70
     1
 10
0.0
 20
0.0
 30
0.0
  3
*D15
  1

  0
LINE
  5
220C3
330
21F31
100
AcDbEntity
  8
2
 62
     0
440
 16777216
370
    -2
100
AcDbLine
 10
31.76000104065165
 20
0.0624999999913363
 30
0.0
 11
31.76046932289439
 21
28.18681468762082
 31
0.0
  0
LINE
  5
220C4
330
21F31
100
AcDbEntity
  8
2
 62
     0
440
 16777216
370
    -2
100
AcDbLine
 10
27.46000104065146
 20
16.76249999999132
 30
0.0
 11
27.46019126172149
 21
28.18688628914702
 31
0.0
  0
LINE
  5
220C5
330
21F31
100
AcDbEntity
  8
2
 62
     0
440
 16777216
370
    -2
100
AcDbLine
 10
36.33046632518152
 20
28.00673859513035
 30
0.0
 11
40.90046632454804
 21
28.00666250261493
 31
0.0
  0
LINE
  5
220C6
330
21F31
100
AcDbEntity
  8
2
 62
     0
440
 16777216
370
    -2
100
AcDbLine
 10
22.89018826527559
 20
28.00696238168739
 30
0.0
 11
11.33990717060119
 21
28.00715469896145
 31
0.0
  0
LINE
  5
220C7
330
21F31
100
AcDbEntity
  8
2
 62
     0
440
 16777216
370
    -2
100
AcDbLine
 10
31.76046632581501
 20
28.00681468764577
 30
0.0
 11
27.4601882646421
 21
28.00688628917197
 31
0.0
  0
SOLID
  5
220C8
330
21F31
100
AcDbEntity
  8
2
 62
     0
440
 16777216
100
AcDbTrace
 10
36.33047900726742
 20
28.76840526169144
 30
0.0
 11
36.33045364309562
 21
27.24507192856927
 31
0.0
 12
31.76046632581501
 22
28.00681468764577
 32
0.0
 13
31.76046632581501
 23
28.00681468764577
 33
0.0
  0
SOLID
  5
220C9
330
21F31
100
AcDbEntity
  8
2
 62
     0
440
 16777216
100
AcDbTrace
 10
22.89020094736149
 20
28.76862904824847
 30
0.0
 11
22.89017558318969
 21
27.2452957151263
 31
0.0
 12
27.4601882646421
 22
28.00688628917197
 32
0.0
 13
27.4601882646421
 23
28.00688628917197
 33
0.0
  0
MTEXT
  5
220CA
330
21F31
100
AcDbEntity
  8
2
 62
     0
440
 16777216
100
AcDbMText
 10
14.83007937889905
 20
29.90858639657856
 30
0.0
 40
3.5
 41
0.0
 46
0.0
 71
     5
 72
     1
  1
\A1;4.3
 11
0.9999999998613814
 21
-0.000016650441011
 31
0.0
 73
     1
 44
1.0
  0
POINT
  5
220CB
330
21F31
100
AcDbEntity
  8
Defpoints
 62
     0
440
 16777216
100
AcDbPoint
 10
31.75999999999908
 20
0.0
 30
0.0
  0
POINT
  5
220CC
330
21F31
100
AcDbEntity
  8
Defpoints
 62
     0
440
 16777216
100
AcDbPoint
 10
27.4599999999989
 20
16.69999999999999
 30
0.0
  0
POINT
  5
220CD
330
21F31
100
AcDbEntity
  8
Defpoints
 62
     0
440
 16777216
100
AcDbPoint
 10
27.4601882646421
 20
28.00688628917197
 30
0.0
  0
ENDBLK
  5
21F33
330
21F31
100
AcDbEntity
  8
0
100
AcDbBlockEnd
  0
BLOCK
  5
21F40
330
21F3F
100
AcDbEntity
  8
0
100
AcDbBlockBegin
  2
*D16
 70
     1
 10
0.0
 20
0.0
 30
0.0
  3
*D16
  1

  0
LINE
  5
220CE
330
21F3F
100
AcDbEntity
  8
2
 62
     0
440
 16777216
370
    -2
100
AcDbLine
 10
26.72249999999895
 20
-17.49999999999991
 30
0.0
 11
60.39433966807512
 21
-17.49999999999992
 31
0.0
  0
LINE
  5
220CF
330
21F3F
100
AcDbEntity
  8
2
 62
     0
440
 16777216
370
    -2
100
AcDbLine
 10
26.72249999999895
 20
17.5
 30
0.0
 11
60.39433966807512
 21
17.49999999999999
 31
0.0
  0
LINE
  5
220D0
330
21F3F
100
AcDbEntity
  8
2
 62
     0
440
 16777216
370
    -2
100
AcDbLine
 10
60.21433966807513
 20
-12.92999999999992
 30
0.0
 11
60.21433966807513
 21
12.92999999999999
 31
0.0
  0
SOLID
  5
220D1
330
21F3F
100
AcDbEntity
  8
2
 62
     0
440
 16777216
100
AcDbTrace
 10
59.45267300140845
 20
-12.92999999999991
 30
0.0
 11
60.97600633474179
 21
-12.92999999999992
 31
0.0
 12
60.21433966807512
 22
-17.49999999999992
 32
0.0
 13
60.21433966807512
 23
-17.49999999999992
 33
0.0
  0
SOLID
  5
220D2
330
21F3F
100
AcDbEntity
  8
2
 62
     0
440
 16777216
100
AcDbTrace
 10
59.45267300140845
 20
12.92999999999999
 30
0.0
 11
60.97600633474179
 21
12.92999999999999
 31
0.0
 12
60.21433966807514
 22
17.49999999999999
 32
0.0
 13
60.21433966807514
 23
17.49999999999999
 33
0.0
  0
MTEXT
  5
220D3
330
21F3F
100
AcDbEntity
  8
2
 62
     0
440
 16777216
100
AcDbMText
 10
58.2611984171967
 20
-0.0000556099507205
 30
0.0
 40
3.5
 41
0.0
 46
0.0
 71
     5
 72
     1
  1
\A1;%%c35
 11
0.0000000000000001
 21
1.0
 31
0.0
 73
     1
 44
1.0
  0
POINT
  5
220D4
330
21F3F
100
AcDbEntity
  8
Defpoints
 62
     0
440
 16777216
100
AcDbPoint
 10
26.65999999999895
 20
-17.49999999999991
 30
0.0
  0
POINT
  5
220D5
330
21F3F
100
AcDbEntity
  8
Defpoints
 62
     0
440
 16777216
100
AcDbPoint
 10
26.65999999999895
 20
17.5
 30
0.0
  0
POINT
  5
220D6
330
21F3F
100
AcDbEntity
  8
Defpoints
 62
     0
440
 16777216
100
AcDbPoint
 10
60.21433966807514
 20
17.49999999999999
 30
0.0
  0
ENDBLK
  5
21F41
330
21F3F
100
AcDbEntity
  8
0
100
AcDbBlockEnd
  0
ENDSEC
  0
SECTION
  2
ENTITIES
  0
MTEXT
  5
211A0
330
1F
100
AcDbEntity
  8
SK6
100
AcDbMText
 10
11.80727989802369
 20
-34.53464030592517
 30
0.0
 40
3.5
 41
41.87058589293636
 46
0.0
 71
     2
 72
     1
  1
CD3500032YKR00
 73
     1
 44
1.0
1001
ACAD
1000
MTEXTBEGIN
1070
    73
1070
     1
1070
    44
1040
1.0
1070
    74
1070
     0
1000
MTEXTEND
  0
INSERT
  5
21DEA
330
1F
100
AcDbEntity
  8
1
100
AcDbBlockReference
  2
cero_point
 10
-0.000000000003638
 20
0.0
 30
0.0
  0
LINE
  5
21DEE
330
1F
100
AcDbEntity
  8
INFTOTAL
100
AcDbLine
 10
-112.1044129953143
 20
10.47642603590384
 30
0.0
 11
-112.1044129953143
 21
54.0681484321426
 31
0.0
  0
LINE
  5
21DEF
330
1F
100
AcDbEntity
  8
INFTOTAL
100
AcDbLine
 10
-112.1044129953143
 20
54.0681484321426
 30
0.0
 11
-55.70062662655527
 21
54.0681484321426
 31
0.0
  0
LINE
  5
21DF0
330
1F
100
AcDbEntity
  8
INFTOTAL
100
AcDbLine
 10
22.15381020301538
 20
-54.6857201765979
 30
0.0
 11
77.51259145409949
 21
-54.6857201765979
 31
0.0
  0
LINE
  5
21DF1
330
1F
100
AcDbEntity
  8
INFTOTAL
100
AcDbLine
 10
77.51259145409949
 20
-54.6857201765979
 30
0.0
 11
77.51259145409949
 21
-14.23760398000333
 31
0.0
  0
LINE
  5
21DF2
330
1F
100
AcDbEntity
  8
1
100
AcDbLine
 10
63.46648114598327
 20
-16.6082951304358
 30
0.0
 11
63.46648114598327
 21
-16.5969511304358
 31
0.0
  0
DIMENSION
  5
21DF3
330
1F
100
AcDbEntity
  8
2
100
AcDbDimension
280
     0
  2
*D13
 10
46.21411612172544
 20
-8.950448415931319
 30
0.0
 11
46.21433428224318
 21
-0.2155239960943547
 31
0.0
 70
   160
 71
     5
 42
17.89998001388772
 73
     0
 74
     0
 75
     0
  3
STANDARD
100
AcDbAlignedDimension
 13
27.4599999999989
 23
8.949999999999988
 33
0.0
 14
28.25999999999908
 24
-8.949999999999988
 34
0.0
 50
269.9985689999913
100
AcDbRotatedDimension
1001
ACAD_DSTYLE_DIMARC_LENGTH_SYMBOL
1070
   379
1070
     1
1001
ACAD_DSTYLE_DIM_LINETYPE
1070
   380
1005
14
1001
ACAD_DSTYLE_DIM_EXT1_LINETYPE
1070
   381
1005
14
1001
ACAD_DSTYLE_DIM_EXT2_LINETYPE
1070
   382
1005
14
1001
ACAD
1000
DSTYLE
1002
{
1070
   172
1070
     1
1002
}
  0
DIMENSION
  5
21DF4
330
1F
100
AcDbEntity
  8
2
100
AcDbDimension
280
     0
  2
*D14
 10
0.0003641391093246
 20
39.00734350887861
 30
0.0
 11
15.88008801185208
 21
39.00707910447297
 31
0.0
 70
   160
 71
     5
 42
31.76028534595937
 73
     0
 74
     0
 75
     0
  3
STANDARD
100
AcDbAlignedDimension
 13
31.75999999999908
 23
0.0
 33
0.0
 14
0.0
 24
17.13770600000001
 34
0.0
 50
179.999046000003
100
AcDbRotatedDimension
1001
ACAD_DSTYLE_DIMARC_LENGTH_SYMBOL
1070
   379
1070
     1
1001
ACAD_DSTYLE_DIM_LINETYPE
1070
   380
1005
14
1001
ACAD_DSTYLE_DIM_EXT1_LINETYPE
1070
   381
1005
14
1001
ACAD_DSTYLE_DIM_EXT2_LINETYPE
1070
   382
1005
14
1001
ACAD
1000
DSTYLE
1002
{
1070
   172
1070
     1
1002
}
  0
DIMENSION
  5
21DF5
330
1F
100
AcDbEntity
  8
2
100
AcDbDimension
280
     0
  2
*D15
 10
27.4601882646421
 20
28.00688628917197
 30
0.0
 11
14.83004771825513
 21
28.00709658658213
 31
0.0
 70
   160
 71
     5
 42
4.300278061769006
 73
     0
 74
     0
 75
     0
  3
STANDARD
100
AcDbAlignedDimension
 13
31.75999999999908
 23
0.0
 33
0.0
 14
27.4599999999989
 24
16.69999999999999
 34
0.0
 50
179.999046000003
100
AcDbRotatedDimension
1001
ACAD_DSTYLE_DIMARC_LENGTH_SYMBOL
1070
   379
1070
     1
1001
ACAD_DSTYLE_DIM_LINETYPE
1070
   380
1005
14
1001
ACAD_DSTYLE_DIM_EXT1_LINETYPE
1070
   381
1005
14
1001
ACAD_DSTYLE_DIM_EXT2_LINETYPE
1070
   382
1005
14
1001
ACAD
1000
DSTYLE
1002
{
1070
   172
1070
     1
1002
}
  0
DIMENSION
  5
21DF6
330
1F
100
AcDbEntity
  8
2
100
AcDbDimension
280
     0
  2
*D16
 10
60.21433966807514
 20
17.49999999999999
 30
0.0
 11
60.21433966807513
 21
-0.0000556099507207
 31
0.0
 70
   161
  1
%%c<>
 71
     5
 42
34.99999999999991
 73
     0
 74
     0
 75
     0
  3
STANDARD
100
AcDbAlignedDimension
 13
26.65999999999895
 23
-17.49999999999991
 33
0.0
 14
26.65999999999895
 24
17.5
 34
0.0
1001
ACAD_DSTYLE_DIMARC_LENGTH_SYMBOL
1070
   379
1070
     1
1001
ACAD_DSTYLE_DIM_LINETYPE
1070
   380
1005
14
1001
ACAD_DSTYLE_DIM_EXT1_LINETYPE
1070
   381
1005
14
1001
ACAD_DSTYLE_DIM_EXT2_LINETYPE
1070
   382
1005
14
1001
ACAD
1000
DSTYLE
1002
{
1070
   172
1070
     1
1002
}
  0
LINE
  5
21DF7
330
1F
100
AcDbEntity
  8
1
100
AcDbLine
 10
-0.0570320000010725
 20
6.831762000000082
 30
0.0
 11
0.0
 21
6.831762000000082
 31
0.0
  0
LINE
  5
21DF8
330
1F
100
AcDbEntity
  8
SK3
100
AcDbLine
 10
0.0
 20
8.5
 30
0.0
 11
26.4599999999989
 21
8.5
 31
0.0
  0
LINE
  5
21DF9
330
1F
100
AcDbEntity
  8
SK3
100
AcDbLine
 10
0.0
 20
5.100000000000079
 30
0.0
 11
26.4599999999989
 21
5.100000000000079
 31
0.0
  0
LINE
  5
21DFA
330
1F
100
AcDbEntity
  8
SK3
100
AcDbLine
 10
0.0
 20
-8.5
 30
0.0
 11
26.4599999999989
 21
-8.5
 31
0.0
  0
LINE
  5
21DFB
330
1F
100
AcDbEntity
  8
SK3
100
AcDbLine
 10
0.0
 20
-5.099999999999994
 30
0.0
 11
26.4599999999989
 21
-5.099999999999994
 31
0.0
  0
LINE
  5
21DFE
330
1F
100
AcDbEntity
  8
1
100
AcDbLine
 10
28.25999999999908
 20
8.949999999999988
 30
0.0
 11
27.4599999999989
 21
8.949999999999988
 31
0.0
  0
LINE
  5
21DFF
330
1F
100
AcDbEntity
  8
1
100
AcDbLine
 10
27.4599999999989
 20
8.949999999999988
 30
0.0
 11
25.79799999999909
 21
8.949999999999988
 31
0.0
  0
LINE
  5
21E01
330
1F
100
AcDbEntity
  8
1
100
AcDbLine
 10
15.59500000000002
 20
4.335536999999987
 30
0.0
 11
15.59500000000002
 21
3.569284000000067
 31
0.0
  0
ARC
  5
21E02
330
1F
100
AcDbEntity
  8
1
100
AcDbCircle
 10
-14.71300899999983
 20
-354.7305569999999
 30
0.0
 40
359.496628
100
AcDbArc
 50
84.16097399999435
 51
84.94771399999834
  0
ARC
  5
21E05
330
1F
100
AcDbEntity
  8
1
100
AcDbCircle
 10
27.48611400000005
 20
-0.0466749999999934
 30
0.0
 40
1.610069
100
AcDbArc
 50
108.622377000002
 51
129.5978639999944
  0
ARC
  5
21E06
330
1F
100
AcDbEntity
  8
1
100
AcDbCircle
 10
24.18171200000006
 20
9.827349999999995
 30
0.0
 40
8.801283999999997
100
AcDbArc
 50
288.4813069999932
 51
295.9463550000061
  0
LINE
  5
21E07
330
1F
100
AcDbEntity
  8
1
100
AcDbLine
 10
28.03227300000003
 20
1.913735000000002
 30
0.0
 11
26.46000000000004
 21
2.088889999999992
 31
0.0
  0
ARC
  5
21E08
330
1F
100
AcDbEntity
  8
1
100
AcDbCircle
 10
34.029978999999
 20
3.852327000000002
 30
0.0
 40
4.614364
100
AcDbArc
 50
189.1138869999982
 51
194.1442179999975
  0
ARC
  5
21E09
330
1F
100
AcDbEntity
  8
1
100
AcDbCircle
 10
-209.9097470000004
 20
-35.64971799999998
 30
0.0
 40
242.503411
100
AcDbArc
 50
9.199873000000101
 51
9.988701000001228
  0
LINE
  5
21E0A
330
1F
100
AcDbEntity
  8
1
100
AcDbLine
 10
28.9181789999991
 20
6.413531000000062
 30
0.0
 11
28.25999999999999
 21
6.89959500000009
 31
0.0
  0
ARC
  5
21E0B
330
1F
100
AcDbEntity
  8
1
100
AcDbCircle
 10
0.7790919999999915
 20
-153.946848
 30
0.0
 40
163.177126
100
AcDbArc
 50
80.30452600000527
 51
81.18041400000114
  0
ARC
  5
21E0C
330
1F
100
AcDbEntity
  8
1
100
AcDbCircle
 10
36.21970899999997
 20
-82.25182100000004
 30
0.0
 40
90.15722099999999
100
AcDbArc
 50
96.6379469999943
 51
99.16474700000495
  0
ARC
  5
21E0D
330
1F
100
AcDbEntity
  8
1
100
AcDbCircle
 10
13.64452800000004
 20
30.77792199999999
 30
0.0
 40
32.251265
100
AcDbArc
 50
296.4945820000004
 51
299.5606620000032
  0
LINE
  5
21E0E
330
1F
100
AcDbEntity
  8
1
100
AcDbLine
 10
25.798
 20
7.300864999999987
 30
0.0
 11
25.798
 21
8.949999999999988
 31
0.0
  0
LINE
  5
21E0F
330
1F
100
AcDbEntity
  8
1
100
AcDbLine
 10
21.86000000000013
 20
7.894815999999991
 30
0.0
 11
25.798
 21
8.949999999999988
 31
0.0
  0
LINE
  5
21E13
330
1F
100
AcDbEntity
  8
1
100
AcDbLine
 10
26.46000000000004
 20
0.5958220000000836
 30
0.0
 11
31.56561299999999
 21
-0.229898999999989
 31
0.0
  0
ELLIPSE
  5
21E14
330
1F
100
AcDbEntity
  8
1
100
AcDbEllipse
 10
32.09561899999903
 20
0.0139389999999935
 30
0.0
 11
8.771372795104978
 21
-1.378817677497863
 31
0.0
210
0.0
220
0.0
230
1.0
 40
0.6056110000000002
 41
4.113311708350193
 42
4.503989375509791
  0
LINE
  5
21E15
330
1F
100
AcDbEntity
  8
1
100
AcDbLine
 10
29.47388799999999
 20
-4.84223
 30
0.0
 11
29.46391100000005
 21
-4.897896000000002
 31
0.0
  0
ARC
  5
21E16
330
1F
100
AcDbEntity
  8
1
100
AcDbCircle
 10
32.271342
 20
-5.328462999999914
 30
0.0
 40
2.839166999999997
100
AcDbArc
 50
154.3420839999962
 51
170.1397890000001
  0
LINE
  5
21E17
330
1F
100
AcDbEntity
  8
1
100
AcDbLine
 10
30.18517599999905
 20
-3.127990000000011
 30
0.0
 11
29.71233499999903
 21
-4.099209999999999
 31
0.0
  0
SPLINE
  5
21E18
330
1F
100
AcDbEntity
  8
1
100
AcDbSpline
210
0.0
220
0.0
230
1.0
 70
     8
 71
     5
 72
    27
 73
    21
 74
     0
 42
0.000000001
 43
0.0000000001
 40
0.0
 40
0.0
 40
0.0
 40
0.0
 40
0.0
 40
0.0
 40
15.88662164981226
 40
15.88662164981226
 40
15.88662164981226
 40
31.75386469929456
 40
31.75386469929456
 40
31.75386469929456
 40
42.39996423937741
 40
42.39996423937741
 40
42.39996423937741
 40
48.69813900038025
 40
48.69813900038025
 40
48.69813900038025
 40
52.33459756187225
 40
52.33459756187225
 40
52.33459756187225
 40
53.20921424835702
 40
53.20921424835702
 40
53.20921424835702
 40
53.20921424835702
 40
53.20921424835702
 40
53.20921424835702
 10
31.56561297423105
 20
-0.2298989309804256
 30
0.0
 10
31.55731628539411
 20
-0.2516276736902228
 30
0.0
 10
31.54775019585418
 20
-0.2758390061713101
 30
0.0
 10
31.53655400613707
 20
-0.3032778656375967
 30
0.0
 10
31.51005723204207
 20
-0.3663739565241997
 30
0.0
 10
31.4706385235022
 20
-0.4556096923982978
 30
0.0
 10
31.44737001831209
 20
-0.507283538128803
 30
0.0
 10
31.39767018419502
 20
-0.6159095149978385
 30
0.0
 10
31.312060257854
 20
-0.7980224652627897
 30
0.0
 10
31.27034664908706
 20
-0.8860725461283038
 30
0.0
 10
31.18562791922113
 20
-1.063897393202097
 30
0.0
 10
31.03824606199601
 20
-1.370078938077739
 30
0.0
 10
30.97095033445203
 20
-1.50952946474851
 30
0.0
 10
30.83896269276124
 20
-1.782432309329408
 30
0.0
 10
30.63603423714312
 20
-2.200638137694824
 30
0.0
 10
30.54508340257212
 20
-2.387923123734026
 30
0.0
 10
30.42010679802797
 20
-2.64504915598701
 30
0.0
 10
30.27439369573517
 20
-2.944616291817879
 30
0.0
 10
30.24537756781024
 20
-3.004262312615509
 30
0.0
 10
30.21564427331305
 20
-3.065374358670908
 30
0.0
 10
30.18517604534395
 20
-3.127989732289933
 30
0.0
  0
SPLINE
  5
21E19
330
1F
100
AcDbEntity
  8
1
100
AcDbSpline
210
0.0
220
0.0
230
1.0
 70
     8
 71
     5
 72
    54
 73
    48
 74
     0
 42
0.000000001
 43
0.0000000001
 40
0.0
 40
0.0
 40
0.0
 40
0.0
 40
0.0
 40
0.0
 40
24.72657414750065
 40
24.72657414750065
 40
24.72657414750065
 40
61.8159283762478
 40
61.8159283762478
 40
61.8159283762478
 40
86.54217940060844
 40
86.54217940060844
 40
86.54217940060844
 40
98.90538449493099
 40
98.90538449493099
 40
98.90538449493099
 40
111.4026395428247
 40
111.4026395428247
 40
111.4026395428247
 40
115.5242306752969
 40
115.5242306752969
 40
115.5242306752969
 40
117.5850416038604
 40
117.5850416038604
 40
117.5850416038604
 40
119.6458525324239
 40
119.6458525324239
 40
119.6458525324239
 40
120.6828619852903
 40
120.6828619852903
 40
120.6828619852903
 40
121.7482557292337
 40
121.7482557292337
 40
121.7482557292337
 40
122.0086236957213
 40
122.0086236957213
 40
122.0086236957213
 40
122.2689916622088
 40
122.2689916622088
 40
122.2689916622088
 40
122.53051929987
 40
122.53051929987
 40
122.53051929987
 40
122.7920469375313
 40
122.7920469375313
 40
122.7920469375313
 40
123.8915492208305
 40
123.8915492208305
 40
123.8915492208305
 40
123.8915492208305
 40
123.8915492208305
 40
123.8915492208305
 10
31.56561297423105
 20
-0.2298989309804256
 30
0.0
 10
31.57852753694806
 20
-0.1960761354102374
 30
0.0
 10
31.58659690174591
 20
-0.1703612306904176
 30
0.0
 10
31.59277578489014
 20
-0.1480870833879919
 30
0.0
 10
31.60477003016217
 20
-0.0961828213353044
 30
0.0
 10
31.60912476178192
 20
-0.0529007803993977
 30
0.0
 10
31.60981884740909
 20
-0.0282689939210172
 30
0.0
 10
31.60792524278213
 20
0.0133289902994136
 30
0.0
 10
31.6001443353
 20
0.0588184989251772
 30
0.0
 10
31.596000413394
 20
0.0779867962060052
 30
0.0
 10
31.58786092547507
 20
0.1093261177041995
 30
0.0
 10
31.57487457797515
 20
0.1478782666975746
 30
0.0
 10
31.56985468456606
 20
0.1617951725683895
 30
0.0
 10
31.5585388694451
 20
0.1913375507804176
 30
0.0
 10
31.54314522567597
 20
0.2273123998585049
 30
0.0
 10
31.53437925147796
 20
0.2468403677555955
 30
0.0
 10
31.51952811264095
 20
0.2785501943444899
 30
0.0
 10
31.49733230187121
 20
0.3218679146851002
 30
0.0
 10
31.491284523383
 20
0.3334678896385981
 30
0.0
 10
31.48121036835301
 20
0.3524372081645879
 30
0.0
 10
31.46890678007799
 20
0.3748418569190903
 30
0.0
 10
31.46451418884294
 20
0.3827565149797749
 30
0.0
 10
31.45504839368505
 20
0.3996253968787755
 30
0.0
 10
31.44380190143011
 20
0.4191863015562092
 30
0.0
 10
31.43744625410704
 20
0.4300953860342816
 30
0.0
 10
31.42761387325118
 20
0.4467481372416558
 30
0.0
 10
31.41580816527403
 20
0.4662835389482894
 30
0.0
 10
31.41155127943012
 20
0.4732767288664946
 30
0.0
 10
31.40202065231211
 20
0.4888062568600163
 30
0.0
 10
31.38983876730299
 20
0.5082384287416915
 30
0.0
 10
31.3835605218801
 20
0.5181062261844147
 30
0.0
 10
31.37391517919491
 20
0.5332004140572053
 30
0.0
 10
31.36019604791795
 20
0.5540630111100029
 30
0.0
 10
31.35729834979907
 20
0.5584473748384085
 30
0.0
 10
31.35102912505613
 20
0.5678836745692025
 30
0.0
 10
31.3433090131191
 20
0.5793585773669748
 30
0.0
 10
31.34128124546692
 20
0.5822874220666848
 30
0.0
 10
31.32860552858415
 20
0.6012058400488911
 30
0.0
 10
31.29896161089096
 20
0.6434514033622634
 30
0.0
 10
31.28371481003114
 20
0.6640473681634092
 30
0.0
 10
31.26708608416016
 20
0.68644431742851
 30
0.0
 10
31.25596570823314
 20
0.7010321421472839
 30
0.0
 10
31.25068333950003
 20
0.7079270674907719
 30
0.0
 10
31.2258601134231
 20
0.7400258675021121
 30
0.0
 10
31.21000837577913
 20
0.7593199819299059
 30
0.0
 10
31.19965486801607
 20
0.7720555738605129
 30
0.0
 10
31.18768693189009
 20
0.7862875656990127
 30
0.0
 10
31.17650623062514
 20
0.7993226627795025
 30
0.0
  0
LINE
  5
21E1A
330
1F
100
AcDbEntity
  8
1
100
AcDbLine
 10
31.17650600000002
 20
0.7993229999999869
 30
0.0
 11
26.97189399999911
 21
1.479327000000068
 31
0.0
  0
LINE
  5
21E1B
330
1F
100
AcDbEntity
  8
1
100
AcDbLine
 10
29.71233499999903
 20
2.497275999999999
 30
0.0
 11
31.17650600000002
 21
0.7993229999999869
 31
0.0
  0
ARC
  5
21E1C
330
1F
100
AcDbEntity
  8
1
100
AcDbCircle
 10
30.64937499999905
 20
3.311720000000008
 30
0.0
 40
1.24147
100
AcDbArc
 50
208.2180139999982
 51
220.9960829999931
  0
LINE
  5
21E1D
330
1F
100
AcDbEntity
  8
1
100
AcDbLine
 10
29.47388799999999
 20
5.418418000000002
 30
0.0
 11
29.47388799999999
 21
3.121427000000011
 31
0.0
  0
LINE
  5
21E1E
330
1F
100
AcDbEntity
  8
1
100
AcDbLine
 10
29.71233499999903
 20
4.634514999999993
 30
0.0
 11
29.71233499999903
 21
2.497275999999999
 31
0.0
  0
LINE
  5
21E1F
330
1F
100
AcDbEntity
  8
1
100
AcDbLine
 10
28.9181789999991
 20
8.569999999999993
 30
0.0
 11
28.9181789999991
 21
6.413531000000062
 31
0.0
  0
LINE
  5
21E20
330
1F
100
AcDbEntity
  8
1
100
AcDbLine
 10
28.25999999999999
 20
8.949999999999988
 30
0.0
 11
28.25999999999999
 21
6.89959500000009
 31
0.0
  0
LINE
  5
21E21
330
1F
100
AcDbEntity
  8
1
100
AcDbLine
 10
29.71233499999903
 20
-4.099209999999999
 30
0.0
 11
29.71233499999903
 21
-4.634514999999993
 31
0.0
  0
LINE
  5
21E22
330
1F
100
AcDbEntity
  8
1
100
AcDbLine
 10
29.47388799999999
 20
-4.84223
 30
0.0
 11
29.47388799999999
 21
-5.418418000000002
 31
0.0
  0
LINE
  5
21E23
330
1F
100
AcDbEntity
  8
1
100
AcDbLine
 10
29.46391100000005
 20
-5.467971000000005
 30
0.0
 11
29.46391100000005
 21
-4.897896000000002
 31
0.0
  0
LINE
  5
21E24
330
1F
100
AcDbEntity
  8
1
100
AcDbLine
 10
29.46391100000005
 20
-5.467971000000005
 30
0.0
 11
29.44504400000005
 21
-5.581885999999997
 31
0.0
  0
LINE
  5
21E25
330
1F
100
AcDbEntity
  8
1
100
AcDbLine
 10
29.44504400000005
 20
-5.581885999999997
 30
0.0
 11
29.32779600000003
 21
-6.246946000000008
 31
0.0
  0
LINE
  5
21E26
330
1F
100
AcDbEntity
  8
1
100
AcDbLine
 10
28.9181789999991
 20
-8.569999999999993
 30
0.0
 11
29.32779600000003
 21
-6.246946000000008
 31
0.0
  0
LINE
  5
21E27
330
1F
100
AcDbEntity
  8
1
100
AcDbLine
 10
28.9181789999991
 20
-8.569999999999993
 30
0.0
 11
28.25999999999999
 21
-8.949999999999988
 31
0.0
  0
LINE
  5
21E28
330
1F
100
AcDbEntity
  8
1
100
AcDbLine
 10
28.25999999999999
 20
-8.949999999999988
 30
0.0
 11
27.46000000000004
 21
-8.949999999999988
 31
0.0
  0
LINE
  5
21E29
330
1F
100
AcDbEntity
  8
1
100
AcDbLine
 10
26.45998800000007
 20
-6.246946000000008
 30
0.0
 11
29.32779600000003
 21
-6.246946000000008
 31
0.0
  0
LINE
  5
21E2A
330
1F
100
AcDbEntity
  8
1
100
AcDbLine
 10
26.45998800000007
 20
-5.467971000000005
 30
0.0
 11
29.46391100000005
 21
-5.467971000000005
 31
0.0
  0
ARC
  5
21E2D
330
1F
100
AcDbEntity
  8
1
100
AcDbCircle
 10
32.82321900000011
 20
-6.008995999999996
 30
0.0
 40
3.401
100
AcDbArc
 50
156.1627449999969
 51
170.0000010000006
  0
LINE
  5
21E2E
330
1F
100
AcDbEntity
  8
1
100
AcDbLine
 10
29.47388799999999
 20
-5.418418000000002
 30
0.0
 11
29.44514400000003
 21
-5.581434000000001
 31
0.0
  0
LINE
  5
21E30
330
1F
100
AcDbEntity
  8
1
100
AcDbLine
 10
31.75999999999999
 20
0.0
 30
0.0
 11
29.71233499999903
 21
-4.634514999999993
 31
0.0
  0
LINE
  5
21E31
330
1F
100
AcDbEntity
  8
1
100
AcDbLine
 10
26.66000000000008
 20
-7.589999999999918
 30
0.0
 11
26.46000000000004
 21
-7.589999999999918
 31
0.0
  0
ARC
  5
21E32
330
1F
100
AcDbEntity
  8
1
100
AcDbCircle
 10
26.66000000000008
 20
-8.389999999999929
 30
0.0
 40
0.8
100
AcDbArc
 50
0.0
 51
90.0
  0
LINE
  5
21E33
330
1F
100
AcDbEntity
  8
1
100
AcDbLine
 10
27.46000000000004
 20
-16.69999999999993
 30
0.0
 11
27.46000000000004
 21
-8.389999999999929
 31
0.0
  0
ARC
  5
21E34
330
1F
100
AcDbEntity
  8
1
100
AcDbCircle
 10
26.66000000000008
 20
-16.69999999999993
 30
0.0
 40
0.8
100
AcDbArc
 50
270.0
 51
0.0
  0
LINE
  5
21E35
330
1F
100
AcDbEntity
  8
1
100
AcDbLine
 10
18.349999999999
 20
-17.49999999999991
 30
0.0
 11
26.66000000000008
 21
-17.49999999999991
 31
0.0
  0
ARC
  5
21E36
330
1F
100
AcDbEntity
  8
1
100
AcDbCircle
 10
18.349999999999
 20
-16.69999999999993
 30
0.0
 40
0.8
100
AcDbArc
 50
180.0
 51
270.0
  0
ARC
  5
21E37
330
1F
100
AcDbEntity
  8
1
100
AcDbCircle
 10
18.349999999999
 20
-16.69999999999993
 30
0.0
 40
0.195674
100
AcDbArc
 50
179.9999990000002
 51
270.0000009999949
  0
LINE
  5
21E38
330
1F
100
AcDbEntity
  8
1
100
AcDbLine
 10
18.349999999999
 20
-16.89567400000001
 30
0.0
 11
26.66000000000008
 21
-16.89567400000001
 31
0.0
  0
ARC
  5
21E39
330
1F
100
AcDbEntity
  8
1
100
AcDbCircle
 10
26.66000000000008
 20
-16.69999999999993
 30
0.0
 40
0.195674
100
AcDbArc
 50
270.0
 51
0.0
  0
LINE
  5
21E3A
330
1F
100
AcDbEntity
  8
1
100
AcDbLine
 10
26.855673999999
 20
-16.69999999999993
 30
0.0
 11
26.855673999999
 21
-8.389999999999929
 31
0.0
  0
ARC
  5
21E3B
330
1F
100
AcDbEntity
  8
1
100
AcDbCircle
 10
26.66000000000008
 20
-8.389999999999929
 30
0.0
 40
0.195674
100
AcDbArc
 50
359.9999990000002
 51
90.0
  0
LINE
  5
21E3C
330
1F
100
AcDbEntity
  8
1
100
AcDbLine
 10
26.66000000000008
 20
-8.194325999999989
 30
0.0
 11
26.45999200000006
 21
-8.194325999999989
 31
0.0
  0
LINE
  5
21E3D
330
1F
100
AcDbEntity
  8
1
100
AcDbLine
 10
26.66000000000008
 20
-8.194325999999989
 30
0.0
 11
26.66000000000008
 21
-7.589999999999918
 31
0.0
  0
LINE
  5
21E3E
330
1F
100
AcDbEntity
  8
1
100
AcDbLine
 10
26.855673999999
 20
-8.389999999999929
 30
0.0
 11
27.46000000000004
 21
-8.389999999999929
 31
0.0
  0
LINE
  5
21E3F
330
1F
100
AcDbEntity
  8
1
100
AcDbLine
 10
26.855673999999
 20
-16.69999999999993
 30
0.0
 11
27.46000000000004
 21
-16.69999999999993
 31
0.0
  0
LINE
  5
21E40
330
1F
100
AcDbEntity
  8
1
100
AcDbLine
 10
26.66000000000008
 20
-16.89567400000001
 30
0.0
 11
26.66000000000008
 21
-17.49999999999991
 31
0.0
  0
LINE
  5
21E41
330
1F
100
AcDbEntity
  8
1
100
AcDbLine
 10
18.349999999999
 20
-16.89567400000001
 30
0.0
 11
18.349999999999
 21
-17.49999999999991
 31
0.0
  0
ARC
  5
21E42
330
1F
100
AcDbEntity
  8
1
100
AcDbCircle
 10
26.66000000000008
 20
-16.69999999999993
 30
0.0
 40
0.8
100
AcDbArc
 50
270.0
 51
0.0
  0
LINE
  5
21E43
330
1F
100
AcDbEntity
  8
1
100
AcDbLine
 10
26.66000000000008
 20
-17.49999999999991
 30
0.0
 11
18.349999999999
 21
-17.49999999999991
 31
0.0
  0
ARC
  5
21E44
330
1F
100
AcDbEntity
  8
1
100
AcDbCircle
 10
18.349999999999
 20
-16.69999999999993
 30
0.0
 40
0.8
100
AcDbArc
 50
180.0
 51
270.0
  0
LINE
  5
21E45
330
1F
100
AcDbEntity
  8
1
100
AcDbLine
 10
26.46000000000004
 20
-7.589999999999918
 30
0.0
 11
26.66000000000008
 21
-7.589999999999918
 31
0.0
  0
ARC
  5
21E46
330
1F
100
AcDbEntity
  8
1
100
AcDbCircle
 10
26.66000000000008
 20
-8.389999999999929
 30
0.0
 40
0.8
100
AcDbArc
 50
0.0
 51
90.0
  0
LINE
  5
21E47
330
1F
100
AcDbEntity
  8
1
100
AcDbLine
 10
27.46000000000004
 20
-8.389999999999929
 30
0.0
 11
27.46000000000004
 21
-16.69999999999993
 31
0.0
  0
CIRCLE
  5
21E48
330
1F
100
AcDbEntity
  8
1
100
AcDbCircle
 10
22.50500000000011
 20
12.54499999999999
 30
0.0
 40
2.024999999999999
  0
CIRCLE
  5
21E49
330
1F
100
AcDbEntity
  8
1
100
AcDbCircle
 10
22.50500699999907
 20
12.545006
 30
0.0
 40
2.552629
  0
LINE
  5
21E4A
330
1F
100
AcDbEntity
  8
1
100
AcDbLine
 10
21.86000000000013
 20
7.590000000000003
 30
0.0
 11
18.349999999999
 21
7.590000000000003
 31
0.0
  0
LINE
  5
21E4B
330
1F
100
AcDbEntity
  8
1
100
AcDbLine
 10
27.46000000000004
 20
16.69999999999999
 30
0.0
 11
27.46000000000004
 21
8.949999999999988
 31
0.0
  0
ARC
  5
21E4C
330
1F
100
AcDbEntity
  8
1
100
AcDbCircle
 10
26.66000000000008
 20
16.69999999999999
 30
0.0
 40
0.8
100
AcDbArc
 50
0.0
 51
90.0
  0
LINE
  5
21E4D
330
1F
100
AcDbEntity
  8
1
100
AcDbLine
 10
18.349999999999
 20
17.5
 30
0.0
 11
26.66000000000008
 21
17.5
 31
0.0
  0
ARC
  5
21E4E
330
1F
100
AcDbEntity
  8
1
100
AcDbCircle
 10
18.349999999999
 20
16.69999999999999
 30
0.0
 40
0.8
100
AcDbArc
 50
90.0
 51
180.0
  0
LINE
  5
21E4F
330
1F
100
AcDbEntity
  8
1
100
AcDbLine
 10
17.55000000000018
 20
8.389999999999986
 30
0.0
 11
17.55000000000018
 21
16.69999999999999
 31
0.0
  0
ARC
  5
21E50
330
1F
100
AcDbEntity
  8
1
100
AcDbCircle
 10
18.349999999999
 20
8.389999999999986
 30
0.0
 40
0.8
100
AcDbArc
 50
180.0
 51
270.0
  0
LINE
  5
21E53
330
1F
100
AcDbEntity
  8
4
100
AcDbLine
 10
37.6570205595981
 20
0.0
 30
0.0
 11
0.0
 21
0.0
 31
0.0
  0
ARC
  5
21E59
330
1F
100
AcDbEntity
  8
1
100
AcDbCircle
 10
11.34221200000002
 20
-554.625044
 30
0.0
 40
571.8750589999997
100
AcDbArc
 50
90.00173500000553
 51
91.13644299999524
  0
LINE
  5
21E5A
330
1F
100
AcDbEntity
  8
1
100
AcDbLine
 10
17.55000000000018
 20
17.25
 30
0.0
 11
11.32489800000007
 21
17.25
 31
0.0
  0
CIRCLE
  5
21E5B
330
1F
100
AcDbEntity
  8
1
100
AcDbCircle
 10
22.50500000000011
 20
12.54499999999999
 30
0.0
 40
1.719999999999999
  0
LINE
  5
21E5C
330
1F
100
AcDbEntity
  8
1
100
AcDbLine
 10
17.55000000000018
 20
7.590000000000003
 30
0.0
 11
17.55000000000018
 21
6.103995999999995
 31
0.0
  0
LINE
  5
21E5D
330
1F
100
AcDbEntity
  8
1
100
AcDbLine
 10
16.85495900000001
 20
6.106227999999987
 30
0.0
 11
17.55000000000018
 21
6.103995999999995
 31
0.0
  0
ARC
  5
21E5E
330
1F
100
AcDbEntity
  8
1
100
AcDbCircle
 10
37.58402000000001
 20
137.4816379999999
 30
0.0
 40
133.000723
100
AcDbArc
 50
261.0335109999987
 51
263.210322000001
  0
LINE
  5
21E5F
330
1F
100
AcDbEntity
  8
1
100
AcDbLine
 10
10.60677499999997
 20
5.883410999999995
 30
0.0
 11
10.61836300000004
 21
5.970648000000011
 31
0.0
  0
SPLINE
  5
21E60
330
1F
100
AcDbEntity
  8
1
100
AcDbSpline
210
0.0
220
0.0
230
1.0
 70
     8
 71
     5
 72
    12
 73
     6
 74
     0
 42
0.000000001
 43
0.0000000001
 40
0.0
 40
0.0
 40
0.0
 40
0.0
 40
0.0
 40
0.0
 40
6.823674054327699
 40
6.823674054327699
 40
6.823674054327699
 40
6.823674054327699
 40
6.823674054327699
 40
6.823674054327699
 10
7.028367776439154
 20
5.109654213434794
 30
0.0
 10
7.708893881725998
 20
5.307868451841272
 30
0.0
 10
8.414924381115042
 20
5.481205621397009
 30
0.0
 10
9.13627636379806
 20
5.631811125704274
 30
0.0
 10
9.867582027597109
 20
5.76593403574958
 30
0.0
 10
10.60677517099998
 20
5.883410858540003
 30
0.0
  0
LINE
  5
21E61
330
1F
100
AcDbEntity
  8
1
100
AcDbLine
 10
15.59500000000002
 20
3.569292999999987
 30
0.0
 11
15.59500000000002
 21
4.335592999999988
 31
0.0
  0
ARC
  5
21E62
330
1F
100
AcDbEntity
  8
1
100
AcDbCircle
 10
23.16347300000007
 20
-525.262296
 30
0.0
 40
529.6524289999998
100
AcDbArc
 50
90.14100499999853
 51
90.81875699999701
  0
SPLINE
  5
21E63
330
1F
100
AcDbEntity
  8
1
100
AcDbSpline
210
0.0
220
0.0
230
1.0
 70
     8
 71
     5
 72
    12
 73
     6
 74
     0
 42
0.000000001
 43
0.0000000001
 40
0.0
 40
0.0
 40
0.0
 40
0.0
 40
0.0
 40
0.0
 40
11.02885131415618
 40
11.02885131415618
 40
11.02885131415618
 40
11.02885131415618
 40
11.02885131415618
 40
11.02885131415618
 10
10.61836258700009
 20
5.970648563130197
 30
0.0
 10
11.84552584183393
 20
6.043952553782929
 30
0.0
 10
13.08694637586109
 20
6.085700962295504
 30
0.0
 10
14.34275993169513
 20
6.105365102329784
 30
0.0
 10
15.59653651725125
 20
6.110342325777082
 30
0.0
 10
16.85495921339998
 20
6.106227588199999
 30
0.0
  0
LINE
  5
21E64
330
1F
100
AcDbEntity
  8
1
100
AcDbLine
 10
0.0
 20
17.13770600000006
 30
0.0
 11
0.0
 21
6.783933999999987
 31
0.0
  0
ARC
  5
21E65
330
1F
100
AcDbEntity
  8
1
100
AcDbCircle
 10
11.33082800000011
 20
554.380684
 30
0.0
 40
571.6306910000001
100
AcDbArc
 50
268.8642120000058
 51
269.9994060000001
  0
ARC
  5
21E66
330
1F
100
AcDbEntity
  8
SK1
100
AcDbCircle
 10
6.897967000000107
 20
1453.932496
 30
0.0
 40
1460.732726
100
AcDbArc
 50
269.2273440000026
 51
269.7294329999989
  0
ARC
  5
21E67
330
1F
100
AcDbEntity
  8
SK1
100
AcDbCircle
 10
7.892462999998997
 20
18.000506
 30
0.0
 40
32.196845
100
AcDbArc
 50
227.6423029999978
 51
230.0087060000007
  0
LINE
  5
21E68
330
1F
100
AcDbEntity
  8
SK1
100
AcDbLine
 10
-13.79999999999995
 20
-5.089978999999999
 30
0.0
 11
-13.79999999999995
 21
-5.79102499999999
 31
0.0
  0
LINE
  5
21E69
330
1F
100
AcDbEntity
  8
SK1
100
AcDbLine
 10
-13.79999999999995
 20
4.063490000000086
 30
0.0
 11
-13.79999999999995
 21
-5.089978999999999
 31
0.0
  0
LINE
  5
21E6A
330
1F
100
AcDbEntity
  8
SK1
100
AcDbLine
 10
-13.79999999999995
 20
4.063490000000086
 30
0.0
 11
-13.79999999999995
 21
4.662614999999988
 31
0.0
  0
LINE
  5
21E6B
330
1F
100
AcDbEntity
  8
SK1
100
AcDbLine
 10
-13.79999999999995
 20
5.79102499999999
 30
0.0
 11
-13.79999999999995
 21
4.662614999999988
 31
0.0
  0
LINE
  5
21E6C
330
1F
100
AcDbEntity
  8
1
100
AcDbLine
 10
17.55000000000018
 20
7.590000000000003
 30
0.0
 11
17.55000000000018
 21
8.33333300000001
 31
0.0
  0
LINE
  5
21E6D
330
1F
100
AcDbEntity
  8
1
100
AcDbLine
 10
11.87533899999903
 20
17.08202600000007
 30
0.0
 11
11.32489800000007
 21
17.249999
 31
0.0
  0
ARC
  5
21E6E
330
1F
100
AcDbEntity
  8
SK1
100
AcDbCircle
 10
6.897967000000107
 20
-1453.932496
 30
0.0
 40
1460.732726
100
AcDbArc
 50
90.27056700000102
 51
90.77265599999737
  0
ARC
  5
21E6F
330
1F
100
AcDbEntity
  8
SK1
100
AcDbCircle
 10
7.892462999998997
 20
-18.000506
 30
0.0
 40
32.196845
100
AcDbArc
 50
129.9912939999992
 51
132.3576970000022
  0
LINE
  5
21E70
330
1F
100
AcDbEntity
  8
1
100
AcDbLine
 10
11.87533800000005
 20
17.08202299999999
 30
0.0
 11
10.99007299999903
 21
8.33333300000001
 31
0.0
  0
ELLIPSE
  5
21E71
330
1F
100
AcDbEntity
  8
1
100
AcDbEllipse
 10
10.48428200000012
 20
8.33333300000001
 30
0.0
 11
0.3615936636924744
 21
3.499617815017701
 31
0.0
210
0.0
220
0.0
230
1.0
 40
0.143017
 41
3.986128523466258
 42
4.727164917578846
  0
ARC
  5
21E72
330
1F
100
AcDbEntity
  8
SK1
100
AcDbCircle
 10
-12.51025099999992
 20
9.454538000000013
 30
0.0
 40
5.544003
100
AcDbArc
 50
256.5454999999962
 51
267.0045639999935
  0
ARC
  5
21E73
330
1F
100
AcDbEntity
  8
SK1
100
AcDbCircle
 10
-168.87815
 20
-2777.120421
 30
0.0
 40
2785.414123
100
AcDbArc
 50
86.5240560000012
 51
86.78780099999981
  0
LINE
  5
21E74
330
1F
100
AcDbEntity
  8
1
100
AcDbLine
 10
17.55000000000018
 20
-17.2499999999999
 30
0.0
 11
11.32489800000007
 21
-17.2499999999999
 31
0.0
  0
LINE
  5
21E75
330
1F
100
AcDbEntity
  8
1
100
AcDbLine
 10
17.55000000000018
 20
-16.70546300000001
 30
0.0
 11
17.55000000000018
 21
-17.2499999999999
 31
0.0
  0
LINE
  5
21E76
330
1F
100
AcDbEntity
  8
1
100
AcDbLine
 10
26.46000000000004
 20
-16.70546300000001
 30
0.0
 11
17.55000000000018
 21
-16.70546300000001
 31
0.0
  0
LINE
  5
21E77
330
1F
100
AcDbEntity
  8
1
100
AcDbLine
 10
26.46000000000004
 20
-15.13829899999999
 30
0.0
 11
26.46000000000004
 21
-16.70546300000001
 31
0.0
  0
LINE
  5
21E78
330
1F
100
AcDbEntity
  8
1
100
AcDbLine
 10
0.0
 20
-15.13829899999999
 30
0.0
 11
0.0
 21
-17.13770600000001
 31
0.0
  0
LINE
  5
21E79
330
1F
100
AcDbEntity
  8
1
100
AcDbLine
 10
0.0
 20
6.70198400000001
 30
0.0
 11
0.0
 21
-15.13829899999999
 31
0.0
  0
LINE
  5
21E7A
330
1F
100
AcDbEntity
  8
SK1
100
AcDbLine
 10
-12.79999999999995
 20
-5.967560999999932
 30
0.0
 11
-12.79999999999995
 21
-6.667421999999987
 31
0.0
  0
LINE
  5
21E7B
330
1F
100
AcDbEntity
  8
SK1
100
AcDbLine
 10
-12.79999999999995
 20
3.917352999999991
 30
0.0
 11
-12.79999999999995
 21
-5.967560999999932
 31
0.0
  0
SPLINE
  5
21E7C
330
1F
100
AcDbEntity
  8
1
100
AcDbSpline
210
0.0
220
0.0
230
1.0
 70
     8
 71
     5
 72
    12
 73
     6
 74
     0
 42
0.000000001
 43
0.0000000001
 40
0.0
 40
0.0
 40
0.0
 40
0.0
 40
0.0
 40
0.0
 40
46.56202528757389
 40
46.56202528757389
 40
46.56202528757389
 40
46.56202528757389
 40
46.56202528757389
 40
46.56202528757389
 10
26.46000000087906
 20
2.306848205765675
 30
0.0
 10
21.09848300271597
 20
2.73021563786969
 30
0.0
 10
15.75789041888811
 20
3.402839164875615
 30
0.0
 10
10.45038265785706
 20
4.310502027213772
 30
0.0
 10
5.193701989860073
 20
5.423352855332922
 30
0.0
 10
-0.0000000000147793
 20
6.701983949033888
 30
0.0
  0
LINE
  5
21E7D
330
1F
100
AcDbEntity
  8
1
100
AcDbLine
 10
26.46000000000004
 20
2.306848000000002
 30
0.0
 11
26.46000000000004
 21
-15.13829899999999
 31
0.0
  0
CIRCLE
  5
21E7E
330
1F
100
AcDbEntity
  8
1
100
AcDbCircle
 10
22.50500000000011
 20
-12.54499999999993
 30
0.0
 40
1.719999999999999
  0
LINE
  5
21E87
330
1F
100
AcDbEntity
  8
SKVIEW4
100
AcDbLine
 10
-48.50353162369697
 20
0.0
 30
0.0
 11
-93.35352962369688
 21
0.0
 31
0.0
  0
LINE
  5
21E88
330
1F
100
AcDbEntity
  8
SKVIEW4
100
AcDbLine
 10
-70.92853062369704
 20
22.42499900000007
 30
0.0
 11
-70.92853062369704
 21
-22.42499900000002
 31
0.0
  0
ARC
  5
21E89
330
1F
100
AcDbEntity
  8
SKVIEW1
100
AcDbCircle
 10
-70.92853062369704
 20
0.0
 30
0.0
 40
4.474999999999996
100
AcDbArc
 50
346.678917
 51
357.4309889999993
  0
ARC
  5
21E8A
330
1F
100
AcDbEntity
  8
SKVIEW1
100
AcDbCircle
 10
-76.01055762369583
 20
3.183003000000013
 30
0.0
 40
2.271552
100
AcDbArc
 50
288.6771510000065
 51
311.1424140000031
  0
ARC
  5
21E8B
330
1F
100
AcDbEntity
  8
SKVIEW1
100
AcDbCircle
 10
-65.84650362369689
 20
-3.183003000000013
 30
0.0
 40
2.271552
100
AcDbArc
 50
108.6771510000065
 51
131.1424140000031
  0
LINE
  5
21E8C
330
1F
100
AcDbEntity
  8
SKVIEW1
100
AcDbLine
 10
-65.45429262369703
 20
0.0913569999999879
 30
0.0
 11
-65.53995262369586
 21
0.0838620000000674
 31
0.0
  0
ARC
  5
21E8D
330
1F
100
AcDbEntity
  8
SKVIEW1
100
AcDbCircle
 10
-65.34196262369687
 20
-2.178992999999934
 30
0.0
 40
2.271500999999999
100
AcDbArc
 50
95.00038800000004
 51
119.4283029999981
  0
SPLINE
  5
21E8E
330
1F
100
AcDbEntity
  8
SKVIEW1
100
AcDbSpline
210
0.0
220
0.0
230
1.0
 70
     8
 71
     5
 72
    18
 73
    12
 74
     0
 42
0.000000001
 43
0.0000000001
 40
0.0
 40
0.0
 40
0.0
 40
0.0
 40
0.0
 40
0.0
 40
1.7491460157319
 40
1.7491460157319
 40
1.7491460157319
 40
3.411994413814785
 40
3.411994413814785
 40
3.411994413814785
 40
5.54628547375764
 40
5.54628547375764
 40
5.54628547375764
 40
5.54628547375764
 40
5.54628547375764
 40
5.54628547375764
 10
-67.23804198068387
 20
-0.6584529421903938
 30
0.0
 10
-67.17421068676594
 20
-0.4922808778760839
 30
0.0
 10
-67.09388349716596
 20
-0.3394743931278867
 30
0.0
 10
-67.00068314504801
 20
-0.206891904741326
 30
0.0
 10
-66.80351725785294
 20
0.0139804737079317
 30
0.0
 10
-66.58596671815985
 20
0.1673663778057914
 30
0.0
 10
-66.47702761828191
 20
0.2278344667170984
 30
0.0
 10
-66.22529103400302
 20
0.3361077401364128
 30
0.0
 10
-65.97137941102096
 20
0.3837502184439074
 30
0.0
 10
-65.82941381359887
 20
0.3942498103120044
 30
0.0
 10
-65.6897141181189
 20
0.3904471996106054
 30
0.0
 10
-65.55227656968691
 20
0.373775181489691
 30
0.0
  0
ARC
  5
21E8F
330
1F
100
AcDbEntity
  8
SKVIEW1
100
AcDbCircle
 10
-65.39168062369594
 20
-1.371170000000006
 30
0.0
 40
1.979124999999999
100
AcDbArc
 50
158.8928279999968
 51
166.0288590000009
  0
SPLINE
  5
21E90
330
1F
100
AcDbEntity
  8
SKVIEW1
100
AcDbSpline
210
0.0
220
0.0
230
1.0
 70
     8
 71
     5
 72
    12
 73
     6
 74
     0
 42
0.000000001
 43
0.0000000001
 40
0.0
 40
0.0
 40
0.0
 40
0.0
 40
0.0
 40
0.0
 40
1.693390277658501
 40
1.693390277658501
 40
1.693390277658501
 40
1.693390277658501
 40
1.693390277658501
 40
1.693390277658501
 10
-67.31223763650792
 20
-0.8933487338064196
 30
0.0
 10
-67.34969452850987
 20
-1.045014018537216
 30
0.0
 10
-67.36748839274401
 20
-1.186313360560234
 30
0.0
 10
-67.36718539019489
 20
-1.311312979983114
 30
0.0
 10
-67.35577431812998
 20
-1.408802776509332
 30
0.0
 10
-67.33946033032885
 20
-1.47932657689023
 30
0.0
  0
ARC
  5
21E91
330
1F
100
AcDbEntity
  8
SKVIEW1
100
AcDbCircle
 10
-65.77748962369582
 20
-1.095263999999929
 30
0.0
 40
1.608828
100
AcDbArc
 50
193.8140389999965
 51
210.5731379999991
  0
ARC
  5
21E92
330
1F
100
AcDbEntity
  8
SKVIEW1
100
AcDbCircle
 10
-70.9282246236969
 20
0.0000239999999962
 30
0.0
 40
5.388923999999997
100
AcDbArc
 50
0.8914159999992433
 51
3.976966000000949
  0
ARC
  5
21E93
330
1F
100
AcDbEntity
  8
SKVIEW1
100
AcDbCircle
 10
-70.92853062369704
 20
0.0
 30
0.0
 40
4.474999999999996
100
AcDbArc
 50
166.6789169999999
 51
177.4309889999993
  0
SPLINE
  5
21E94
330
1F
100
AcDbEntity
  8
SKVIEW1
100
AcDbSpline
210
0.0
220
0.0
230
1.0
 70
     8
 71
     5
 72
    18
 73
    12
 74
     0
 42
0.000000001
 43
0.0000000001
 40
0.0
 40
0.0
 40
0.0
 40
0.0
 40
0.0
 40
0.0
 40
1.749146015301884
 40
1.749146015301884
 40
1.749146015301884
 40
3.411994412645971
 40
3.411994412645971
 40
3.411994412645971
 40
5.546285471672987
 40
5.546285471672987
 40
5.546285471672987
 40
5.546285471672987
 40
5.546285471672987
 40
5.546285471672987
 10
-74.61901926670906
 20
0.6584529421905075
 30
0.0
 10
-74.68285056061086
 20
0.4922808779174091
 30
0.0
 10
-74.76317775018697
 20
0.3394743932036874
 30
0.0
 10
-74.85637810227784
 20
0.2068919048375051
 30
0.0
 10
-75.05354398939289
 20
-0.0139804735627252
 30
0.0
 10
-75.27109452900095
 20
-0.1673663776545027
 30
0.0
 10
-75.38003362895506
 20
-0.2278344666467262
 30
0.0
 10
-75.63177021339197
 20
-0.3361077401539205
 30
0.0
 10
-75.88568183649001
 20
-0.3837502184732102
 30
0.0
 10
-76.02764743391481
 20
-0.3942498103089065
 30
0.0
 10
-76.1673471293318
 20
-0.3904471996034147
 30
0.0
 10
-76.30478467770581
 20
-0.3737751814896058
 30
0.0
  0
ARC
  5
21E95
330
1F
100
AcDbEntity
  8
SKVIEW1
100
AcDbCircle
 10
-76.46538062369586
 20
1.371170000000006
 30
0.0
 40
1.979124999999999
100
AcDbArc
 50
338.8928279999968
 51
346.0288589999993
  0
SPLINE
  5
21E96
330
1F
100
AcDbEntity
  8
SKVIEW1
100
AcDbSpline
210
0.0
220
0.0
230
1.0
 70
     8
 71
     5
 72
    12
 73
     6
 74
     0
 42
0.000000001
 43
0.0000000001
 40
0.0
 40
0.0
 40
0.0
 40
0.0
 40
0.0
 40
0.0
 40
1.693390277689869
 40
1.693390277689869
 40
1.693390277689869
 40
1.693390277689869
 40
1.693390277689869
 40
1.693390277689869
 10
-74.54482361088503
 20
0.8933487338066754
 30
0.0
 10
-74.50736671888307
 20
1.045014018537301
 30
0.0
 10
-74.48957285464984
 20
1.186313360557591
 30
0.0
 10
-74.48987585719692
 20
1.311312979968988
 30
0.0
 10
-74.50128692926205
 20
1.408802776507997
 30
0.0
 10
-74.51760091706387
 20
1.479326576890173
 30
0.0
  0
ARC
  5
21E97
330
1F
100
AcDbEntity
  8
SKVIEW1
100
AcDbCircle
 10
-76.07957162369689
 20
1.095263999999986
 30
0.0
 40
1.608828
100
AcDbArc
 50
13.8140389999965
 51
30.57313799999914
  0
ARC
  5
21E98
330
1F
100
AcDbEntity
  8
SKVIEW1
100
AcDbCircle
 10
-76.51509862369583
 20
2.178992999999991
 30
0.0
 40
2.271500999999999
100
AcDbArc
 50
275.000388
 51
299.4283029999981
  0
ARC
  5
21E99
330
1F
100
AcDbEntity
  8
SKVIEW1
100
AcDbCircle
 10
-70.92883662369581
 20
-0.000023999999911
 30
0.0
 40
5.388923999999997
100
AcDbArc
 50
180.8914159999992
 51
183.9769660000009
  0
LINE
  5
21E9A
330
1F
100
AcDbEntity
  8
SKVIEW1
100
AcDbLine
 10
-75.1997036236969
 20
2.724739999999997
 30
0.0
 11
-75.35752062369692
 21
3.121427000000011
 31
0.0
  0
ARC
  5
21E9B
330
1F
100
AcDbEntity
  8
SKVIEW1
100
AcDbCircle
 10
15.59894937630406
 20
39.69128200000009
 30
0.0
 40
98.032795
100
AcDbArc
 50
199.8436949999998
 51
201.9030299999977
  0
ARC
  5
21E9C
330
1F
100
AcDbEntity
  8
SKVIEW1
100
AcDbCircle
 10
-63.30095962369592
 20
7.105557000000004
 30
0.0
 40
13.32987
100
AcDbArc
 50
180.8853179999996
 51
182.9758739999996
  0
ARC
  5
21E9D
330
1F
100
AcDbEntity
  8
SKVIEW1
100
AcDbCircle
 10
-86.98162962369586
 20
-5.186340999999998
 30
0.0
 40
14.191418
100
AcDbArc
 50
30.0205799999965
 51
33.87974499999779
  0
LINE
  5
21E9E
330
1F
100
AcDbEntity
  8
SKVIEW1
100
AcDbLine
 10
-66.65735762369582
 20
-2.724739999999911
 30
0.0
 11
-66.49954062369693
 21
-3.121427000000011
 31
0.0
  0
ARC
  5
21E9F
330
1F
100
AcDbEntity
  8
SKVIEW1
100
AcDbCircle
 10
-157.4861836236959
 20
-39.70233599999998
 30
0.0
 40
98.064923
100
AcDbArc
 50
19.84378500000383
 51
21.90244600000395
  0
ARC
  5
21EA0
330
1F
100
AcDbEntity
  8
SKVIEW1
100
AcDbCircle
 10
-78.55547862369689
 20
-7.105536
 30
0.0
 40
13.329247
100
AcDbArc
 50
0.8852699999998691
 51
2.975922999999413
  0
ARC
  5
21EA1
330
1F
100
AcDbEntity
  8
SKVIEW1
100
AcDbCircle
 10
-54.87543162369707
 20
5.186341000000084
 30
0.0
 40
14.191418
100
AcDbArc
 50
210.0205799999965
 51
213.8797449999969
  0
ARC
  5
21EA2
330
1F
100
AcDbEntity
  8
SKVIEW1
100
AcDbCircle
 10
-70.92853062369704
 20
0.0
 30
0.0
 40
5.474999999999997
100
AcDbArc
 50
0.956088999999841
 51
63.456163999994
  0
LINE
  5
21EA3
330
1F
100
AcDbEntity
  8
SKVIEW1
100
AcDbLine
 10
-65.55227662369588
 20
0.3737749999999949
 30
0.0
 11
-65.46556562369687
 21
0.3628789999999924
 31
0.0
  0
LINE
  5
21EA4
330
1F
100
AcDbEntity
  8
SKVIEW1
100
AcDbLine
 10
-70.92853062369704
 20
8.569999999999993
 30
0.0
 11
-70.92853062369704
 21
8.949999999999988
 31
0.0
  0
LINE
  5
21EA5
330
1F
100
AcDbEntity
  8
SKVIEW1
100
AcDbLine
 10
-70.92853062369704
 20
6.246946000000008
 30
0.0
 11
-70.92853062369704
 21
8.569999999999993
 31
0.0
  0
ARC
  5
21EA6
330
1F
100
AcDbEntity
  8
SKVIEW1
100
AcDbCircle
 10
-70.62853062369595
 20
5.914896999999996
 30
0.0
 40
0.4475
100
AcDbArc
 50
132.0972539999944
 51
267.0964810000058
  0
ARC
  5
21EA7
330
1F
100
AcDbEntity
  8
SKVIEW1
100
AcDbCircle
 10
-70.92853062369704
 20
0.0
 30
0.0
 40
5.474999999999997
100
AcDbArc
 50
63.45617299999952
 51
87.09648100000579
  0
LINE
  5
21EA8
330
1F
100
AcDbEntity
  8
SKVIEW1
100
AcDbLine
 10
-70.55341662369688
 20
0.229898999999989
 30
0.0
 11
-67.23804162369583
 21
-0.6584530000000087
 31
0.0
  0
LINE
  5
21EA9
330
1F
100
AcDbEntity
  8
SKVIEW1
100
AcDbLine
 10
-68.49705662369706
 20
4.84223
 30
0.0
 11
-68.48185062369589
 21
4.897896000000002
 31
0.0
  0
ARC
  5
21EAA
330
1F
100
AcDbEntity
  8
SKVIEW1
100
AcDbCircle
 10
-73.01868462369589
 20
6.057956999999987
 30
0.0
 40
4.682020999999997
100
AcDbArc
 50
335.2680730000027
 51
344.950830999998
  0
LINE
  5
21EAB
330
1F
100
AcDbEntity
  8
SKVIEW1
100
AcDbLine
 10
-69.21970162369689
 20
3.127990000000011
 30
0.0
 11
-68.76630662369689
 21
4.099209999999999
 31
0.0
  0
SPLINE
  5
21EAC
330
1F
100
AcDbEntity
  8
SKVIEW1
100
AcDbSpline
210
0.0
220
0.0
230
1.0
 70
     8
 71
     5
 72
    27
 73
    21
 74
     0
 42
0.000000001
 43
0.0000000001
 40
0.0
 40
0.0
 40
0.0
 40
0.0
 40
0.0
 40
0.0
 40
15.88662644506499
 40
15.88662644506499
 40
15.88662644506499
 40
31.76294590163696
 40
31.76294590163696
 40
31.76294590163696
 40
42.40961309674996
 40
42.40961309674996
 40
42.40961309674996
 40
48.72016429884133
 40
48.72016429884133
 40
48.72016429884133
 40
52.36639570085449
 40
52.36639570085449
 40
52.36639570085449
 40
53.21656944479997
 40
53.21656944479997
 40
53.21656944479997
 40
53.21656944479997
 40
53.21656944479997
 40
53.21656944479997
 10
-70.55341630635303
 20
0.2298989309804824
 30
0.0
 10
-70.54470920687299
 20
0.2516276727386071
 30
0.0
 10
-70.53480484292094
 20
0.2758390042814938
 30
0.0
 10
-70.52334884262496
 20
0.3032778602788824
 30
0.0
 10
-70.49653664245989
 20
0.3663919738694119
 30
0.0
 10
-70.45740589391994
 20
0.4556607244846589
 30
0.0
 10
-70.43455391124394
 20
0.5072090458763796
 30
0.0
 10
-70.38581365746995
 20
0.6158491590204278
 30
0.0
 10
-70.30270453180083
 20
0.7980314299993836
 30
0.0
 10
-70.26230570310985
 20
0.8860585306082953
 30
0.0
 10
-70.18042131935681
 20
1.064012307159003
 30
0.0
 10
-70.03839209446687
 20
1.3705464199424
 30
0.0
 10
-69.97356044468393
 20
1.510192033890916
 30
0.0
 10
-69.84634688722303
 20
1.783917438090782
 30
0.0
 10
-69.65056004791382
 20
2.204201522713191
 30
0.0
 10
-69.56278541583606
 20
2.392553679108914
 30
0.0
 10
-69.44277728182782
 20
2.649873577124679
 30
0.0
 10
-69.30302767486001
 20
2.949418570920897
 30
0.0
 10
-69.27591097856884
 20
3.007537899715003
 30
0.0
 10
-69.248140616407
 20
3.067050068766519
 30
0.0
 10
-69.219702044732
 20
3.127989732305792
 30
0.0
  0
LINE
  5
21EAD
330
1F
100
AcDbEntity
  8
SKVIEW1
100
AcDbLine
 10
-69.87726962369584
 20
-0.7993229999999301
 30
0.0
 11
-67.33946062369705
 21
-1.479327000000012
 31
0.0
  0
SPLINE
  5
21EAE
330
1F
100
AcDbEntity
  8
SKVIEW1
100
AcDbSpline
210
0.0
220
0.0
230
1.0
 70
     8
 71
     5
 72
    60
 73
    54
 74
     0
 42
0.000000001
 43
0.0000000001
 40
0.0
 40
0.0
 40
0.0
 40
0.0
 40
0.0
 40
0.0
 40
24.726579666182
 40
24.726579666182
 40
24.726579666182
 40
61.81593264955818
 40
61.81593264955818
 40
61.81593264955818
 40
86.54219119921277
 40
86.54219119921277
 40
86.54219119921277
 40
98.9054104582912
 40
98.9054104582912
 40
98.9054104582912
 40
111.4054844024336
 40
111.4054844024336
 40
111.4054844024336
 40
116.9008788209065
 40
116.9008788209065
 40
116.9008788209065
 40
120.2756624386518
 40
120.2756624386518
 40
120.2756624386518
 40
121.1881522431042
 40
121.1881522431042
 40
121.1881522431042
 40
122.1275706381133
 40
122.1275706381133
 40
122.1275706381133
 40
122.3818193067793
 40
122.3818193067793
 40
122.3818193067793
 40
122.466667543911
 40
122.466667543911
 40
122.466667543911
 40
122.5517791855256
 40
122.5517791855256
 40
122.5517791855256
 40
122.6368908271402
 40
122.6368908271402
 40
122.6368908271402
 40
122.7220861862781
 40
122.7220861862781
 40
122.7220861862781
 40
122.8072815454158
 40
122.8072815454158
 40
122.8072815454158
 40
123.2058653582145
 40
123.2058653582145
 40
123.2058653582145
 40
124.0801494976153
 40
124.0801494976153
 40
124.0801494976153
 40
124.0801494976153
 40
124.0801494976153
 40
124.0801494976153
 10
-70.55341630635303
 20
0.2298989309804824
 30
0.0
 10
-70.56696971008796
 20
0.1960761395538952
 30
0.0
 10
-70.57420752497796
 20
0.1703612051467758
 30
0.0
 10
-70.57950617521806
 20
0.1480870553863838
 30
0.0
 10
-70.58875058817193
 20
0.0961827843500203
 30
0.0
 10
-70.58977753301793
 20
0.0529007437110067
 30
0.0
 10
-70.588424125448
 20
0.0282689567406749
 30
0.0
 10
-70.58286276560489
 20
-0.0133290299537237
 30
0.0
 10
-70.57089255751998
 20
-0.0588185343671057
 30
0.0
 10
-70.56495521181705
 20
-0.0779868335106926
 30
0.0
 10
-70.5537811914578
 20
-0.1093261670959009
 30
0.0
 10
-70.53629529185378
 20
-0.147878297157888
 30
0.0
 10
-70.52953935997698
 20
-0.1617952004793892
 30
0.0
 10
-70.514279089929
 20
-0.1913408928583067
 30
0.0
 10
-70.49329415116381
 20
-0.2273204166247922
 30
0.0
 10
-70.48124090565579
 20
-0.2468297971167317
 30
0.0
 10
-70.45896977891198
 20
-0.2811641631292332
 30
0.0
 10
-70.42329586964979
 20
-0.3291077443305994
 30
0.0
 10
-70.41074135650797
 20
-0.3454044426628116
 30
0.0
 10
-70.38725088620208
 20
-0.3748933999202393
 30
0.0
 10
-70.35286349054897
 20
-0.4144519684622879
 30
0.0
 10
-70.34098908470309
 20
-0.4275851547670016
 30
0.0
 10
-70.32138854603997
 20
-0.4490595309548838
 30
0.0
 10
-70.29154392553483
 20
-0.4794916843529791
 30
0.0
 10
-70.28457665875089
 20
-0.4865084460734295
 30
0.0
 10
-70.26875726434287
 20
-0.5022077014073148
 30
0.0
 10
-70.24833415340094
 20
-0.5217580224203005
 30
0.0
 10
-70.2377047049979
 20
-0.5316573502275901
 30
0.0
 10
-70.22146859313602
 20
-0.5468038823584039
 30
0.0
 10
-70.19540776225404
 20
-0.5697547030988233
 30
0.0
 10
-70.18925173774596
 20
-0.5751229790703292
 30
0.0
 10
-70.18019004543498
 20
-0.582956184674913
 30
0.0
 10
-70.16860003116608
 20
-0.5927671298089195
 30
0.0
 10
-70.16501334029499
 20
-0.5958043631287069
 30
0.0
 10
-70.15568235941282
 20
-0.6036591892338948
 30
0.0
 10
-70.14331570679587
 20
-0.6138781974345875
 30
0.0
 10
-70.13653245763999
 20
-0.6194176845174014
 30
0.0
 10
-70.12240241140694
 20
-0.6307787700500854
 30
0.0
 10
-70.10757093037591
 20
-0.6423569732559998
 30
0.0
 10
-70.10026392315308
 20
-0.64794660979112
 30
0.0
 10
-70.08465251175403
 20
-0.659961734824492
 30
0.0
 10
-70.07230018472592
 20
-0.6692877105652997
 30
0.0
 10
-70.06801194561194
 20
-0.6724007351689921
 30
0.0
 10
-70.05886737597188
 20
-0.6791325437910132
 30
0.0
 10
-70.05033769746592
 20
-0.6853801195391043
 30
0.0
 10
-70.04655371297895
 20
-0.6881111600962129
 30
0.0
 10
-70.0254794432858
 20
-0.7033000821173232
 30
0.0
 10
-70.00924712699884
 20
-0.7145776187938396
 30
0.0
 10
-69.99934402055192
 20
-0.7214197409628298
 30
0.0
 10
-69.9621562901591
 20
-0.7465807594840897
 30
0.0
 10
-69.93254350940787
 20
-0.765488322165794
 30
0.0
 10
-69.91277089989103
 20
-0.7779201421728033
 30
0.0
 10
-69.8946031452349
 20
-0.7889953248659936
 30
0.0
 10
-69.87726948715499
 20
-0.7993226627795025
 30
0.0
  0
LINE
  5
21EAF
330
1F
100
AcDbEntity
  8
SKVIEW1
100
AcDbLine
 10
-67.02438562369707
 20
-2.497275999999914
 30
0.0
 11
-69.87726962369584
 21
-0.7993229999999301
 31
0.0
  0
ARC
  5
21EB0
330
1F
100
AcDbEntity
  8
SKVIEW1
100
AcDbCircle
 10
-73.29595762369581
 20
-13.02551500000001
 30
0.0
 40
12.254661
100
AcDbArc
 50
57.19919999999922
 51
59.21814500000183
  0
LINE
  5
21EB1
330
1F
100
AcDbEntity
  8
SKVIEW1
100
AcDbLine
 10
-76.40276862369706
 20
-0.0913569999999311
 30
0.0
 11
-76.31710862369596
 21
-0.0838620000000106
 31
0.0
  0
LINE
  5
21EB2
330
1F
100
AcDbEntity
  8
SKVIEW1
100
AcDbLine
 10
-74.61901962369688
 20
0.6584530000000087
 30
0.0
 11
-71.30364462369584
 21
-0.229898999999989
 31
0.0
  0
LINE
  5
21EB3
330
1F
100
AcDbEntity
  8
SKVIEW1
100
AcDbLine
 10
-76.30478462369592
 20
-0.3737749999999949
 30
0.0
 11
-76.39149562369585
 21
-0.3628789999999924
 31
0.0
  0
ARC
  5
21EB4
330
1F
100
AcDbEntity
  8
SKVIEW1
100
AcDbCircle
 10
-70.92853062369704
 20
0.0
 30
0.0
 40
5.474999999999997
100
AcDbArc
 50
180.9560889999998
 51
267.0964709999994
  0
LINE
  5
21EB5
330
1F
100
AcDbEntity
  8
SKVIEW1
100
AcDbLine
 10
-73.36000462369589
 20
-4.84223
 30
0.0
 11
-73.37521062369592
 21
-4.897896000000002
 31
0.0
  0
ARC
  5
21EB6
330
1F
100
AcDbEntity
  8
SKVIEW1
100
AcDbCircle
 10
-68.83837662369592
 20
-6.05795699999993
 30
0.0
 40
4.682020999999997
100
AcDbArc
 50
155.2680730000027
 51
164.9508309999979
  0
LINE
  5
21EB7
330
1F
100
AcDbEntity
  8
SKVIEW1
100
AcDbLine
 10
-72.63735962369583
 20
-3.127990000000011
 30
0.0
 11
-73.09075462369697
 21
-4.099209999999999
 31
0.0
  0
SPLINE
  5
21EB8
330
1F
100
AcDbEntity
  8
SKVIEW1
100
AcDbSpline
210
0.0
220
0.0
230
1.0
 70
     8
 71
     5
 72
    27
 73
    21
 74
     0
 42
0.000000001
 43
0.0000000001
 40
0.0
 40
0.0
 40
0.0
 40
0.0
 40
0.0
 40
0.0
 40
15.88662644530217
 40
15.88662644530217
 40
15.88662644530217
 40
31.76294590216445
 40
31.76294590216445
 40
31.76294590216445
 40
42.40961309635949
 40
42.40961309635949
 40
42.40961309635949
 40
48.72016430006831
 40
48.72016430006831
 40
48.72016430006831
 40
52.36639570363088
 40
52.36639570363088
 40
52.36639570363088
 40
53.21656944784893
 40
53.21656944784893
 40
53.21656944784893
 40
53.21656944784893
 40
53.21656944784893
 40
53.21656944784893
 10
-71.30364494103878
 20
-0.2298989309804256
 30
0.0
 10
-71.31235204052109
 20
-0.251627672739005
 30
0.0
 10
-71.322256404472
 20
-0.2758390042819201
 30
0.0
 10
-71.3337124047689
 20
-0.303277860279394
 30
0.0
 10
-71.36052460493283
 20
-0.366391973871913
 30
0.0
 10
-71.39965535347392
 20
-0.4556607244873021
 30
0.0
 10
-71.42250733613876
 20
-0.5072090458557171
 30
0.0
 10
-71.47124758990391
 20
-0.6158491589785058
 30
0.0
 10
-71.55435671556301
 20
-0.7980314299375096
 30
0.0
 10
-71.5947555442558
 20
-0.8860585305485813
 30
0.0
 10
-71.67663992803205
 20
-1.064012307153319
 30
0.0
 10
-71.81866915292494
 20
-1.370546419937511
 30
0.0
 10
-71.88350080263308
 20
-1.510192033730589
 30
0.0
 10
-72.01071436010899
 20
-1.783917437958223
 30
0.0
 10
-72.20650119944298
 20
-2.204201522650606
 30
0.0
 10
-72.29427583144502
 20
-2.39255367886642
 30
0.0
 10
-72.41428396547394
 20
-2.649873576933714
 30
0.0
 10
-72.55403357248292
 20
-2.949418570824803
 30
0.0
 10
-72.5811502687809
 20
-3.007537899635593
 30
0.0
 10
-72.60892063095593
 20
-3.06705006871121
 30
0.0
 10
-72.63735920265185
 20
-3.127989732289933
 30
0.0
  0
SPLINE
  5
21EB9
330
1F
100
AcDbEntity
  8
SKVIEW1
100
AcDbSpline
210
0.0
220
0.0
230
1.0
 70
     8
 71
     5
 72
    60
 73
    54
 74
     0
 42
0.000000001
 43
0.0000000001
 40
0.0
 40
0.0
 40
0.0
 40
0.0
 40
0.0
 40
0.0
 40
24.72657966788358
 40
24.72657966788358
 40
24.72657966788358
 40
61.815932653812
 40
61.815932653812
 40
61.815932653812
 40
86.5421912051682
 40
86.5421912051682
 40
86.5421912051682
 40
98.9054104650976
 40
98.9054104650976
 40
98.9054104650976
 40
111.4054844090764
 40
111.4054844090764
 40
111.4054844090764
 40
116.9008788279325
 40
116.9008788279325
 40
116.9008788279325
 40
120.2756624898033
 40
120.2756624898033
 40
120.2756624898033
 40
121.1881523226394
 40
121.1881523226394
 40
121.1881523226394
 40
122.1275707450402
 40
122.1275707450402
 40
122.1275707450402
 40
122.3818194053537
 40
122.3818194053537
 40
122.3818194053537
 40
122.4666676398036
 40
122.4666676398036
 40
122.4666676398036
 40
122.551779278679
 40
122.551779278679
 40
122.551779278679
 40
122.6368909175545
 40
122.6368909175545
 40
122.6368909175545
 40
122.7220862739285
 40
122.7220862739285
 40
122.7220862739285
 40
122.8072816303026
 40
122.8072816303026
 40
122.8072816303026
 40
123.2058654591523
 40
123.2058654591523
 40
123.2058654591523
 40
124.0801495589323
 40
124.0801495589323
 40
124.0801495589323
 40
124.0801495589323
 40
124.0801495589323
 40
124.0801495589323
 10
-71.30364494103878
 20
-0.2298989309804256
 30
0.0
 10
-71.29009153730407
 20
-0.1960761395515078
 30
0.0
 10
-71.28285372241498
 20
-0.1703612051447294
 30
0.0
 10
-71.27755507217194
 20
-0.1480870553691034
 30
0.0
 10
-71.26831065921783
 20
-0.0961827843300967
 30
0.0
 10
-71.26728371437685
 20
-0.0529007436930158
 30
0.0
 10
-71.2686371219479
 20
-0.0282689567187049
 30
0.0
 10
-71.27419848179194
 20
0.0133290299769158
 30
0.0
 10
-71.28616868988297
 20
0.0588185343986822
 30
0.0
 10
-71.29210603558703
 20
0.0779868335499998
 30
0.0
 10
-71.30328005595581
 20
0.109326167144701
 30
0.0
 10
-71.32076595556893
 20
0.1478782972200747
 30
0.0
 10
-71.3275218874478
 20
0.1617952005392738
 30
0.0
 10
-71.34278215755078
 20
0.1913408929960951
 30
0.0
 10
-71.36376709640899
 20
0.2273204169068776
 30
0.0
 10
-71.37582034196703
 20
0.2468297974779148
 30
0.0
 10
-71.39809146877293
 20
0.2811641635575199
 30
0.0
 10
-71.43376537817791
 20
0.3291077449041779
 30
0.0
 10
-71.44631989138111
 20
0.3454044432957914
 30
0.0
 10
-71.46981036191893
 20
0.3748934008121978
 30
0.0
 10
-71.50419775804994
 20
0.4144519698319869
 30
0.0
 10
-71.51607216334807
 20
0.4275851554742758
 30
0.0
 10
-71.53567270137499
 20
0.4490595310126082
 30
0.0
 10
-71.56551732178787
 20
0.4794916842966757
 30
0.0
 10
-71.57248458870913
 20
0.4865084461505092
 30
0.0
 10
-71.58830398357395
 20
0.5022077019279721
 30
0.0
 10
-71.60872709537693
 20
0.5217580237388973
 30
0.0
 10
-71.6193565444439
 20
0.5316573521329815
 30
0.0
 10
-71.63559265670392
 20
0.5468038846276216
 30
0.0
 10
-71.66165348956496
 20
0.5697547069729865
 30
0.0
 10
-71.66780951426405
 20
0.5751229830799219
 30
0.0
 10
-71.67687120691403
 20
0.5829561889277671
 30
0.0
 10
-71.68846122190894
 20
0.5927671346045998
 30
0.0
 10
-71.69204791475476
 20
0.5958043695967774
 30
0.0
 10
-71.70137889804505
 20
0.6036591976397574
 30
0.0
 10
-71.71374555207897
 20
0.6138782068433102
 30
0.0
 10
-71.72052880158708
 20
0.6194176941091883
 30
0.0
 10
-71.73465884815596
 20
0.6307787796834817
 30
0.0
 10
-71.74949032885684
 20
0.6423569824136735
 30
0.0
 10
-71.7567973364039
 20
0.6479466191616155
 30
0.0
 10
-71.77240874665585
 20
0.6599617432636933
 30
0.0
 10
-71.7847610700328
 20
0.6692877160324997
 30
0.0
 10
-71.78904930767294
 20
0.6724007394635123
 30
0.0
 10
-71.79819387774294
 20
0.6791325484835796
 30
0.0
 10
-71.80672355459295
 20
0.6853801228987777
 30
0.0
 10
-71.81050753904992
 20
0.6881111634491788
 30
0.0
 10
-71.83158180837494
 20
0.7033000851219243
 30
0.0
 10
-71.84781412479788
 20
0.7145776218558808
 30
0.0
 10
-71.85771723199787
 20
0.7214197444952788
 30
0.0
 10
-71.89490496058692
 20
0.7465807616366931
 30
0.0
 10
-71.92451774066693
 20
0.7654883238519972
 30
0.0
 10
-71.94429034914583
 20
0.7779201431748959
 30
0.0
 10
-71.96245810294205
 20
0.7889953253329907
 30
0.0
 10
-71.97979176023888
 20
0.7993226627795025
 30
0.0
  0
LINE
  5
21EBA
330
1F
100
AcDbEntity
  8
SKVIEW1
100
AcDbLine
 10
-71.97979162369687
 20
0.7993229999999869
 30
0.0
 11
-74.51760062369591
 21
1.479327000000068
 31
0.0
  0
LINE
  5
21EBB
330
1F
100
AcDbEntity
  8
SKVIEW1
100
AcDbLine
 10
-74.83267562369701
 20
2.497275999999999
 30
0.0
 11
-71.97979162369687
 21
0.7993229999999869
 31
0.0
  0
ARC
  5
21EBC
330
1F
100
AcDbEntity
  8
SKVIEW1
100
AcDbCircle
 10
-68.5611036236969
 20
13.02551500000001
 30
0.0
 40
12.254661
100
AcDbArc
 50
237.199199999999
 51
239.2181450000018
  0
ARC
  5
21EBD
330
1F
100
AcDbEntity
  8
SKVIEW1
100
AcDbCircle
 10
-70.92853062369704
 20
0.0
 30
0.0
 40
5.418417999999999
100
AcDbArc
 50
63.33697900000231
 51
144.8249060000028
  0
ARC
  5
21EBE
330
1F
100
AcDbEntity
  8
SKVIEW1
100
AcDbCircle
 10
-70.92853062369704
 20
0.0
 30
0.0
 40
4.634515
100
AcDbArc
 50
62.18954199999686
 51
147.3950929999955
  0
ARC
  5
21EBF
330
1F
100
AcDbEntity
  8
SKVIEW1
100
AcDbCircle
 10
-70.92853062369704
 20
0.0
 30
0.0
 40
8.57
100
AcDbArc
 50
90.0
 51
131.5506240000043
  0
ARC
  5
21EC0
330
1F
100
AcDbEntity
  8
SKVIEW1
100
AcDbCircle
 10
-70.92853062369704
 20
0.0
 30
0.0
 40
8.949999999999997
100
AcDbArc
 50
90.0
 51
129.564817000006
  0
ARC
  5
21EC1
330
1F
100
AcDbEntity
  8
SKVIEW1
100
AcDbCircle
 10
-70.92853062369704
 20
0.0
 30
0.0
 40
4.634515
100
AcDbArc
 50
242.1895419999969
 51
327.3950929999955
  0
ARC
  5
21EC2
330
1F
100
AcDbEntity
  8
SKVIEW1
100
AcDbCircle
 10
-70.92853062369704
 20
0.0
 30
0.0
 40
5.418417999999999
100
AcDbArc
 50
243.3369790000023
 51
324.8249060000035
  0
ARC
  5
21EC3
330
1F
100
AcDbEntity
  8
SKVIEW1
100
AcDbCircle
 10
-71.22853062369586
 20
-5.914896999999911
 30
0.0
 40
0.4475
100
AcDbArc
 50
312.0972539999944
 51
87.09648100000579
  0
LINE
  5
21EC4
330
1F
100
AcDbEntity
  8
SKVIEW1
100
AcDbLine
 10
-70.92853062369704
 20
-8.569999999999993
 30
0.0
 11
-70.92853062369704
 21
-6.246946000000008
 31
0.0
  0
ARC
  5
21EC5
330
1F
100
AcDbEntity
  8
SKVIEW1
100
AcDbCircle
 10
-70.92853062369704
 20
0.0
 30
0.0
 40
8.57
100
AcDbArc
 50
270.0
 51
311.5506240000043
  0
ARC
  5
21EC6
330
1F
100
AcDbEntity
  8
SKVIEW1
100
AcDbCircle
 10
-70.92853062369704
 20
0.0
 30
0.0
 40
8.949999999999997
100
AcDbArc
 50
270.0
 51
309.564817000006
  0
LINE
  5
21EC7
330
1F
100
AcDbEntity
  8
SKVIEW1
100
AcDbLine
 10
-70.92853062369704
 20
-8.569999999999993
 30
0.0
 11
-70.92853062369704
 21
-8.949999999999988
 31
0.0
  0
LINE
  5
21EC8
330
1F
100
AcDbEntity
  8
SKVIEW1
100
AcDbLine
 10
-70.92853062369704
 20
-16.69999999999993
 30
0.0
 11
-70.92853062369704
 21
-8.950000999999986
 31
0.0
  0
LINE
  5
21EC9
330
1F
100
AcDbEntity
  8
SKVIEW1
100
AcDbLine
 10
-70.92853062369704
 20
-16.69999999999993
 30
0.0
 11
-70.92853062369704
 21
-17.49999999999991
 31
0.0
  0
LINE
  5
21ECA
330
1F
100
AcDbEntity
  8
SKVIEW1
100
AcDbLine
 10
-75.22853062369586
 20
-16.89567400000001
 30
0.0
 11
-75.22853062369586
 21
-16.69999999999993
 31
0.0
  0
LINE
  5
21ECB
330
1F
100
AcDbEntity
  8
SKVIEW1
100
AcDbLine
 10
-75.22853062369586
 20
-16.69999999999993
 30
0.0
 11
-75.22853062369586
 21
-8.389999999999929
 31
0.0
  0
LINE
  5
21ECC
330
1F
100
AcDbEntity
  8
SKVIEW1
100
AcDbLine
 10
-75.22853062369586
 20
-8.389999999999929
 30
0.0
 11
-75.22853062369586
 21
-8.194325999999989
 31
0.0
  0
LINE
  5
21ECD
330
1F
100
AcDbEntity
  8
SKVIEW1
100
AcDbLine
 10
-75.22853062369586
 20
-8.194325999999989
 30
0.0
 11
-70.92853062369704
 21
-7.589999999999918
 31
0.0
  0
LINE
  5
21ECE
330
1F
100
AcDbEntity
  8
SKVIEW1
100
AcDbLine
 10
-75.22853062369586
 20
-8.389999999999929
 30
0.0
 11
-70.92853062369704
 21
-8.389999999999929
 31
0.0
  0
LINE
  5
21ECF
330
1F
100
AcDbEntity
  8
SKVIEW1
100
AcDbLine
 10
-75.22853062369586
 20
-16.69999999999993
 30
0.0
 11
-70.92853062369704
 21
-16.69999999999993
 31
0.0
  0
LINE
  5
21ED0
330
1F
100
AcDbEntity
  8
SKVIEW1
100
AcDbLine
 10
-75.22853062369586
 20
-16.89567400000001
 30
0.0
 11
-70.92853062369704
 21
-17.49999999999991
 31
0.0
  0
LINE
  5
21ED1
330
1F
100
AcDbEntity
  8
SKVIEW1
100
AcDbLine
 10
-70.92853062369704
 20
-17.49999999999991
 30
0.0
 11
-70.92853062369704
 21
-16.69999999999993
 31
0.0
  0
LINE
  5
21ED2
330
1F
100
AcDbEntity
  8
SKVIEW1
100
AcDbLine
 10
-70.92853062369704
 20
-17.49999999999991
 30
0.0
 11
-70.92853062369704
 21
-16.69999999999993
 31
0.0
  0
LINE
  5
21ED3
330
1F
100
AcDbEntity
  8
SKVIEW1
100
AcDbLine
 10
-70.92853062369704
 20
-16.69999999999993
 30
0.0
 11
-70.92853062369704
 21
-15.097633
 31
0.0
  0
LINE
  5
21ED4
330
1F
100
AcDbEntity
  8
SKVIEW1
100
AcDbLine
 10
-70.92853062369704
 20
-14.98188400000001
 30
0.0
 11
-70.92853062369704
 21
-8.950007999999996
 31
0.0
  0
LINE
  5
21ED5
330
1F
100
AcDbEntity
  8
SKVIEW1
100
AcDbLine
 10
-70.92853062369704
 20
-8.950000999999986
 30
0.0
 11
-70.92853062369704
 21
-16.69999999999993
 31
0.0
  0
LINE
  5
21ED6
330
1F
100
AcDbEntity
  8
SKVIEW1
100
AcDbLine
 10
-70.92853062369704
 20
8.389999999999986
 30
0.0
 11
-70.92853062369704
 21
7.590000000000003
 31
0.0
  0
LINE
  5
21ED7
330
1F
100
AcDbEntity
  8
SKVIEW1
100
AcDbLine
 10
-70.92853062369704
 20
16.69999999999999
 30
0.0
 11
-70.92853062369704
 21
8.389999999999986
 31
0.0
  0
LINE
  5
21ED8
330
1F
100
AcDbEntity
  8
SKVIEW1
100
AcDbLine
 10
-70.92853062369704
 20
16.69999999999999
 30
0.0
 11
-70.92853062369704
 21
17.5
 31
0.0
  0
LINE
  5
21ED9
330
1F
100
AcDbEntity
  8
SKVIEW1
100
AcDbLine
 10
-66.62853062369709
 20
16.89567400000001
 30
0.0
 11
-66.62853062369709
 21
16.69999999999999
 31
0.0
  0
LINE
  5
21EDA
330
1F
100
AcDbEntity
  8
SKVIEW1
100
AcDbLine
 10
-66.62853062369709
 20
16.69999999999999
 30
0.0
 11
-66.62853062369709
 21
8.389999999999986
 31
0.0
  0
LINE
  5
21EDB
330
1F
100
AcDbEntity
  8
SKVIEW1
100
AcDbLine
 10
-66.62853062369709
 20
8.389999999999986
 30
0.0
 11
-66.62853062369709
 21
8.194325999999989
 31
0.0
  0
LINE
  5
21EDC
330
1F
100
AcDbEntity
  8
SKVIEW1
100
AcDbLine
 10
-66.62853062369709
 20
8.194325999999989
 30
0.0
 11
-70.92853062369704
 21
7.590000000000003
 31
0.0
  0
LINE
  5
21EDD
330
1F
100
AcDbEntity
  8
SKVIEW1
100
AcDbLine
 10
-66.62853062369709
 20
8.389999999999986
 30
0.0
 11
-70.92853062369704
 21
8.389999999999986
 31
0.0
  0
LINE
  5
21EDE
330
1F
100
AcDbEntity
  8
SKVIEW1
100
AcDbLine
 10
-66.62853062369709
 20
16.69999999999999
 30
0.0
 11
-70.92853062369704
 21
16.69999999999999
 31
0.0
  0
LINE
  5
21EDF
330
1F
100
AcDbEntity
  8
SKVIEW1
100
AcDbLine
 10
-66.62853062369709
 20
16.89567400000001
 30
0.0
 11
-70.92853062369704
 21
17.5
 31
0.0
  0
LINE
  5
21EE0
330
1F
100
AcDbEntity
  8
SKVIEW1
100
AcDbLine
 10
-70.92853062369704
 20
17.5
 30
0.0
 11
-70.92853062369704
 21
16.69999999999999
 31
0.0
  0
LINE
  5
21EE1
330
1F
100
AcDbEntity
  8
SKVIEW1
100
AcDbLine
 10
-70.92853062369704
 20
8.389999999999986
 30
0.0
 11
-70.92853062369704
 21
7.590000000000003
 31
0.0
  0
LINE
  5
21EE2
330
1F
100
AcDbEntity
  8
SKVIEW1
100
AcDbLine
 10
-70.92853062369704
 20
8.389999999999986
 30
0.0
 11
-70.92853062369704
 21
16.69999999999999
 31
0.0
  0
ARC
  5
21EE3
330
1F
100
AcDbEntity
  8
SKVIEW1
100
AcDbCircle
 10
-70.92853062369704
 20
0.0
 30
0.0
 40
5.474999999999997
100
AcDbArc
 50
7.928144000000552
 51
87.11033299999405
  0
LINE
  5
21EE4
330
1F
100
AcDbEntity
  8
SKVIEW1
100
AcDbLine
 10
-61.6109836236958
 20
-3.056972999999914
 30
0.0
 11
-61.6109836236958
 21
1.319863999999995
 31
0.0
  0
ARC
  5
21EE5
330
1F
100
AcDbEntity
  8
SKVIEW1
100
AcDbCircle
 10
-63.45993762369585
 20
-2.645244999999931
 30
0.0
 40
4.375009999999996
100
AcDbArc
 50
65.00007599999637
 51
119.0198490000025
  0
LINE
  5
21EE6
330
1F
100
AcDbEntity
  8
SKVIEW1
100
AcDbLine
 10
-66.39815162369586
 20
-3.365095999999994
 30
0.0
 11
-66.39815162369586
 21
-0.1680849999999907
 31
0.0
  0
SPLINE
  5
21EE7
330
1F
100
AcDbEntity
  8
SKVIEW1
100
AcDbSpline
210
0.0
220
0.0
230
1.0
 70
     8
 71
     5
 72
    21
 73
    15
 74
     0
 42
0.000000001
 43
0.0000000001
 40
0.0
 40
0.0
 40
0.0
 40
0.0
 40
0.0
 40
0.0
 40
2.041856470788423
 40
2.041856470788423
 40
2.041856470788423
 40
4.275148697336691
 40
4.275148697336691
 40
4.275148697336691
 40
6.590456079444392
 40
6.590456079444392
 40
6.590456079444392
 40
10.72150156740007
 40
10.72150156740007
 40
10.72150156740007
 40
10.72150156740007
 40
10.72150156740007
 40
10.72150156740007
 10
-61.610981521246
 20
-3.056961055020479
 30
0.0
 10
-61.74324600790896
 20
-3.057153327014503
 30
0.0
 10
-61.88838997089601
 20
-3.055366204169729
 30
0.0
 10
-62.04835187668891
 20
-3.051687662936217
 30
0.0
 10
-62.41884107846295
 20
-3.040747955667598
 30
0.0
 10
-62.862220840188
 20
-3.028121256951607
 30
0.0
 10
-63.10833476680682
 20
-3.022612310591597
 30
0.0
 10
-63.63824608978394
 20
-3.019242087395525
 30
0.0
 10
-64.1659612927051
 20
-3.035997557257729
 30
0.0
 10
-64.42088167326301
 20
-3.050610847497836
 30
0.0
 10
-65.09446034728398
 20
-3.105694061114917
 30
0.0
 10
-65.63734021218488
 20
-3.189951871986721
 30
0.0
 10
-65.93220681507978
 20
-3.249174711555895
 30
0.0
 10
-66.18286322418885
 20
-3.308031880843572
 30
0.0
 10
-66.39815193491995
 20
-3.365096525931591
 30
0.0
  0
LINE
  5
21EE8
330
1F
100
AcDbEntity
  8
SKVIEW1
100
AcDbLine
 10
-70.92853062369704
 20
5.582793000000009
 30
0.0
 11
-70.92853062369704
 21
7.590000000000003
 31
0.0
  0
LINE
  5
21EE9
330
1F
100
AcDbEntity
  8
SKVIEW1
100
AcDbLine
 10
-61.6109836236958
 20
1.319863999999995
 30
0.0
 11
-53.83347462369602
 21
-2.306848000000002
 31
0.0
  0
ARC
  5
21EEA
330
1F
100
AcDbEntity
  8
SKVIEW1
100
AcDbCircle
 10
-70.92853062369704
 20
0.0
 30
0.0
 40
17.25
100
AcDbArc
 50
337.1375090000004
 51
75.56536400000545
  0
LINE
  5
21EEB
330
1F
100
AcDbEntity
  8
SKVIEW1
100
AcDbLine
 10
-66.62853062369709
 20
7.590000000000003
 30
0.0
 11
-66.62853062369709
 21
16.70546300000001
 31
0.0
  0
LINE
  5
21EEC
330
1F
100
AcDbEntity
  8
SKVIEW1
100
AcDbLine
 10
-66.62853062369709
 20
7.590000000000003
 30
0.0
 11
-70.92853062369704
 21
7.590000000000003
 31
0.0
  0
CIRCLE
  5
21EED
330
1F
100
AcDbEntity
  8
SKVIEW1
100
AcDbCircle
 10
-58.80417462369587
 20
7.0
 30
0.0
 40
1.75
  0
SPLINE
  5
21EEE
330
1F
100
AcDbEntity
  8
SKVIEW1
100
AcDbSpline
210
0.0
220
0.0
230
1.0
 70
     8
 71
     5
 72
    36
 73
    30
 74
     0
 42
0.000000001
 43
0.0000000001
 40
0.0
 40
0.0
 40
0.0
 40
0.0
 40
0.0
 40
0.0
 40
3.371547989681997
 40
3.371547989681997
 40
3.371547989681997
 40
6.285270115152387
 40
6.285270115152387
 40
6.285270115152387
 40
7.473342977067241
 40
7.473342977067241
 40
7.473342977067241
 40
8.499597945636518
 40
8.499597945636518
 40
8.499597945636518
 40
9.637701567861382
 40
9.637701567861382
 40
9.637701567861382
 40
11.01997619819405
 40
11.01997619819405
 40
11.01997619819405
 40
12.73411109256975
 40
12.73411109256975
 40
12.73411109256975
 40
14.40443151706323
 40
14.40443151706323
 40
14.40443151706323
 40
17.30636085099513
 40
17.30636085099513
 40
17.30636085099513
 40
17.30636085099513
 40
17.30636085099513
 40
17.30636085099513
 10
-61.610981521246
 20
-3.056961055021389
 30
0.0
 10
-61.39239459086502
 20
-3.05664329667141
 30
0.0
 10
-61.16912575964398
 20
-3.061037002656405
 30
0.0
 10
-60.94402586558499
 20
-3.070959703108911
 30
0.0
 10
-60.50664070217408
 20
-3.101591279334598
 30
0.0
 10
-60.02382278951086
 20
-3.168142211617748
 30
0.0
 10
-59.79929371805406
 20
-3.207656621177477
 30
0.0
 10
-59.44919282341198
 20
-3.281967981133078
 30
0.0
 10
-59.04297224386096
 20
-3.411691111815713
 30
0.0
 10
-58.91876888158981
 20
-3.455480494269721
 30
0.0
 10
-58.68544007385299
 20
-3.547433068968075
 30
0.0
 10
-58.45012047177306
 20
-3.660416595340421
 30
0.0
 10
-58.34149748535788
 20
-3.717735491543237
 30
0.0
 10
-58.12598089937296
 20
-3.842033523984781
 30
0.0
 10
-57.93682344251192
 20
-3.971070956118808
 30
0.0
 10
-57.84796540687398
 20
-4.037036357756505
 30
0.0
 10
-57.66369077281296
 20
-4.1833748193188
 30
0.0
 10
-57.51036661458397
 20
-4.324305670374911
 30
0.0
 10
-57.4343624912808
 20
-4.399090895839435
 30
0.0
 10
-57.27491981907883
 20
-4.565883842393418
 30
0.0
 10
-57.14000523221102
 20
-4.727115745670005
 30
0.0
 10
-57.07236844131102
 20
-4.813369482052308
 30
0.0
 10
-56.94721868562101
 20
-4.982481590066981
 30
0.0
 10
-56.8382464596948
 20
-5.14717792939632
 30
0.0
 10
-56.78749900174807
 20
-5.227901019122498
 30
0.0
 10
-56.65523276592603
 20
-5.448924629269981
 30
0.0
 10
-56.53978829188599
 20
-5.669737573586303
 30
0.0
 10
-56.47157850831786
 20
-5.811197703745733
 30
0.0
 10
-56.40997525744092
 20
-5.94918004272111
 30
0.0
 10
-56.35288484278089
 20
-6.086810260611486
 30
0.0
  0
LINE
  5
21EEF
330
1F
100
AcDbEntity
  8
SKVIEW1
100
AcDbLine
 10
-56.35286262369686
 20
-6.08684500000001
 30
0.0
 11
-55.03369162369586
 21
-6.70198400000001
 31
0.0
  0
ARC
  5
21EF0
330
1F
100
AcDbEntity
  8
SKVIEW1
100
AcDbCircle
 10
-70.92853062369704
 20
0.0
 30
0.0
 40
4.474999999999996
100
AcDbArc
 50
349.4343949999991
 51
357.4303029999994
  0
ARC
  5
21EF1
330
1F
100
AcDbEntity
  8
SKVIEW1
100
AcDbCircle
 10
-64.66281462369602
 20
-17.77184299999999
 30
0.0
 40
13.872529
100
AcDbArc
 50
92.92313800000247
 51
96.19070200000326
  0
ARC
  5
21EF2
330
1F
100
AcDbEntity
  8
SKVIEW1
100
AcDbCircle
 10
-70.92853062369704
 20
0.0
 30
0.0
 40
6.799999999999998
100
AcDbArc
 50
324.8246050000003
 51
332.2178160000024
  0
ELLIPSE
  5
21EF3
330
1F
100
AcDbEntity
  8
SKVIEW1
100
AcDbEllipse
 10
-63.62711362369691
 20
-13.10526300000001
 30
0.0
 11
8.756305694580074
 21
5.063044071197507
 31
0.0
210
0.0
220
0.0
230
1.0
 40
0.9888559999999998
 41
0.2458847503152814
 42
1.179162820567362
  0
LINE
  5
21EF4
330
1F
100
AcDbEntity
  8
SKVIEW1
100
AcDbLine
 10
-75.45890262369583
 20
3.365185999999994
 30
0.0
 11
-75.45890262369583
 21
0.1680880000000116
 31
0.0
  0
SPLINE
  5
21EF5
330
1F
100
AcDbEntity
  8
SKVIEW1
100
AcDbSpline
210
0.0
220
0.0
230
1.0
 70
     8
 71
     5
 72
    36
 73
    30
 74
     0
 42
0.000000001
 43
0.0000000001
 40
0.0
 40
0.0
 40
0.0
 40
0.0
 40
0.0
 40
0.0
 40
3.371547987094158
 40
3.371547987094158
 40
3.371547987094158
 40
6.285270111804774
 40
6.285270111804774
 40
6.285270111804774
 40
7.473342975747407
 40
7.473342975747407
 40
7.473342975747407
 40
8.499597943085897
 40
8.499597943085897
 40
8.499597943085897
 40
9.637701568187726
 40
9.637701568187726
 40
9.637701568187726
 40
11.01997619825707
 40
11.01997619825707
 40
11.01997619825707
 40
12.73411108853458
 40
12.73411108853458
 40
12.73411108853458
 40
14.404431512722
 40
14.404431512722
 40
14.404431512722
 40
17.30636084254721
 40
17.30636084254721
 40
17.30636084254721
 40
17.30636084254721
 40
17.30636084254721
 40
17.30636084254721
 10
-80.24607972614695
 20
3.056961055021588
 30
0.0
 10
-80.46466665637105
 20
3.056643296672888
 30
0.0
 10
-80.68793548742087
 20
3.061037002650493
 30
0.0
 10
-80.91303538098395
 20
3.070959703071906
 30
0.0
 10
-81.35042054383687
 20
3.101591279215199
 30
0.0
 10
-81.83323845616792
 20
3.168142211337595
 30
0.0
 10
-82.05776752680094
 20
3.207656620683593
 30
0.0
 10
-82.40786842130388
 20
3.281967980480203
 30
0.0
 10
-82.81408900067097
 20
3.411691110836898
 30
0.0
 10
-82.93829236282091
 20
3.455480493157068
 30
0.0
 10
-83.17162117054181
 20
3.547433067668407
 30
0.0
 10
-83.40694077276792
 20
3.660416593899014
 30
0.0
 10
-83.51556375958876
 20
3.717735490215176
 30
0.0
 10
-83.731080345995
 20
3.842033522698415
 30
0.0
 10
-83.92023780331692
 20
3.971070954972503
 30
0.0
 10
-84.00909583903809
 20
4.037036356607899
 30
0.0
 10
-84.19337047345379
 20
4.183374818342088
 30
0.0
 10
-84.34669463197087
 20
4.324305669585982
 30
0.0
 10
-84.42269875500597
 20
4.399090894733205
 30
0.0
 10
-84.58214142706607
 20
4.5658838410165
 30
0.0
 10
-84.71705601399683
 20
4.727115744191166
 30
0.0
 10
-84.78469280550688
 20
4.813369481270171
 30
0.0
 10
-84.90984256166303
 20
4.982481589872094
 30
0.0
 10
-85.01881478815583
 20
5.147177930085604
 30
0.0
 10
-85.06956224638292
 20
5.227901020303761
 30
0.0
 10
-85.20182848245395
 20
5.448924631020503
 30
0.0
 10
-85.31727295603401
 20
5.669737574710779
 30
0.0
 10
-85.38548273923789
 20
5.811197704119109
 30
0.0
 10
-85.44708599003298
 20
5.9491800429129
 30
0.0
 10
-85.50417640461182
 20
6.086810260611599
 30
0.0
  0
SPLINE
  5
21EF6
330
1F
100
AcDbEntity
  8
SKVIEW1
100
AcDbSpline
210
0.0
220
0.0
230
1.0
 70
     8
 71
     5
 72
    21
 73
    15
 74
     0
 42
0.000000001
 43
0.0000000001
 40
0.0
 40
0.0
 40
0.0
 40
0.0
 40
0.0
 40
0.0
 40
2.041856469832632
 40
2.041856469832632
 40
2.041856469832632
 40
4.275148695908066
 40
4.275148695908066
 40
4.275148695908066
 40
6.590456072438859
 40
6.590456072438859
 40
6.590456072438859
 40
10.72150155974053
 40
10.72150155974053
 40
10.72150155974053
 40
10.72150155974053
 40
10.72150155974053
 40
10.72150155974053
 10
-80.24607972614695
 20
3.056961055020678
 30
0.0
 10
-80.11381523954993
 20
3.057153327013594
 30
0.0
 10
-79.96867127664586
 20
3.055366204171178
 30
0.0
 10
-79.80870937065901
 20
3.051687662936586
 30
0.0
 10
-79.43822016890796
 20
3.040747955666489
 30
0.0
 10
-78.99484040750805
 20
3.028121256961782
 30
0.0
 10
-78.74872648152086
 20
3.02261231061459
 30
0.0
 10
-78.21881515886001
 20
3.019242087363892
 30
0.0
 10
-77.69109995554301
 20
3.035997557222515
 30
0.0
 10
-77.43617957253879
 20
3.050610847624881
 30
0.0
 10
-76.76260089944593
 20
3.10569406121769
 30
0.0
 10
-76.21972103519306
 20
3.189951871995589
 30
0.0
 10
-75.92485443222199
 20
3.249174711576927
 30
0.0
 10
-75.67419802315885
 20
3.308031880856162
 30
0.0
 10
-75.45890931247299
 20
3.365096525931704
 30
0.0
  0
ARC
  5
21EF7
330
1F
100
AcDbEntity
  8
SKVIEW1
100
AcDbCircle
 10
-77.1942426236958
 20
17.77179100000006
 30
0.0
 40
13.872477
100
AcDbArc
 50
272.9231340000032
 51
276.191512999994
  0
ARC
  5
21EF8
330
1F
100
AcDbEntity
  8
SKVIEW1
100
AcDbCircle
 10
-70.92853062369704
 20
0.0
 30
0.0
 40
6.799999999999998
100
AcDbArc
 50
144.8246050000006
 51
152.2178160000024
  0
ELLIPSE
  5
21EF9
330
1F
100
AcDbEntity
  8
SKVIEW1
100
AcDbEllipse
 10
-78.22994762369694
 20
13.10526300000006
 30
0.0
 11
8.756305694580074
 21
5.063044071197507
 31
0.0
210
0.0
220
0.0
230
1.0
 40
0.9888559999999998
 41
3.387477400724133
 42
4.320755470913105
  0
LINE
  5
21EFA
330
1F
100
AcDbEntity
  8
SKVIEW1
100
AcDbLine
 10
-80.24607762369692
 20
3.056972999999999
 30
0.0
 11
-80.24607762369692
 21
-1.319863999999995
 31
0.0
  0
ARC
  5
21EFB
330
1F
100
AcDbEntity
  8
SKVIEW1
100
AcDbCircle
 10
-78.39720662369588
 20
2.645812000000006
 30
0.0
 40
4.375575
100
AcDbArc
 50
245.0041999999958
 51
299.0171999999948
  0
ARC
  5
21EFC
330
1F
100
AcDbEntity
  8
SKVIEW1
100
AcDbCircle
 10
-70.92853062369704
 20
0.0
 30
0.0
 40
5.474999999999997
100
AcDbArc
 50
187.9281440000005
 51
241.3521099999945
  0
LINE
  5
21EFD
330
1F
100
AcDbEntity
  8
SKVIEW1
100
AcDbLine
 10
-70.92853062369704
 20
-14.98188200000001
 30
0.0
 11
-70.92853062369704
 21
-8.950007999999996
 31
0.0
  0
LINE
  5
21EFE
330
1F
100
AcDbEntity
  8
SKVIEW1
100
AcDbLine
 10
-70.92853062369704
 20
-17.2499999999999
 30
0.0
 11
-70.92853062369704
 21
-15.097633
 31
0.0
  0
ARC
  5
21EFF
330
1F
100
AcDbEntity
  8
SKVIEW1
100
AcDbCircle
 10
-70.92853062369704
 20
0.0
 30
0.0
 40
17.25
100
AcDbArc
 50
172.3147930000003
 51
255.5653640000054
  0
LINE
  5
21F00
330
1F
100
AcDbEntity
  8
SKVIEW1
100
AcDbLine
 10
-85.50419862369698
 20
6.08684500000001
 30
0.0
 11
-86.82336962369708
 21
6.70198400000001
 31
0.0
  0
LINE
  5
21F01
330
1F
100
AcDbEntity
  8
SKVIEW1
100
AcDbLine
 10
-70.92853062369704
 20
-6.246946000000008
 30
0.0
 11
-70.92853062369704
 21
-5.582852000000002
 31
0.0
  0
LINE
  5
21F02
330
1F
100
AcDbEntity
  8
SKVIEW1
100
AcDbLine
 10
-75.22853062369586
 20
-7.589999999999918
 30
0.0
 11
-70.92853062369704
 21
-7.589999999999918
 31
0.0
  0
ARC
  5
21F03
330
1F
100
AcDbEntity
  8
SKVIEW1
100
AcDbCircle
 10
-70.92853062369704
 20
0.0
 30
0.0
 40
17.25
100
AcDbArc
 50
157.1375090000003
 51
172.3147930000003
  0
LINE
  5
21F04
330
1F
100
AcDbEntity
  8
SKVIEW1
100
AcDbLine
 10
-80.24607762369692
 20
-1.319863999999995
 30
0.0
 11
-88.02358662369694
 21
2.306848000000002
 31
0.0
  0
LINE
  5
21F05
330
1F
100
AcDbEntity
  8
SKVIEW1
100
AcDbLine
 10
-75.22853062369586
 20
-7.589999999999918
 30
0.0
 11
-75.22853062369586
 21
-8.194325999999989
 31
0.0
  0
CIRCLE
  5
21F06
330
1F
100
AcDbEntity
  8
SKVIEW1
100
AcDbCircle
 10
-83.05288662369708
 20
-6.999999999999914
 30
0.0
 40
1.75
  0
LINE
  5
21F07
330
1F
100
AcDbEntity
  8
1
100
AcDbLine
 10
28.9181789999991
 20
8.569999999999993
 30
0.0
 11
28.25999999999999
 21
8.950000000000073
 31
0.0
  0
LINE
  5
21F08
330
1F
100
AcDbEntity
  8
1
100
AcDbLine
 10
29.32779600000003
 20
6.246946000000008
 30
0.0
 11
28.9181789999991
 21
8.569999999999993
 31
0.0
  0
LINE
  5
21F09
330
1F
100
AcDbEntity
  8
1
100
AcDbLine
 10
29.44518400000016
 20
5.581209000000001
 30
0.0
 11
29.32779600000003
 21
6.246946000000008
 31
0.0
  0
ARC
  5
21F0A
330
1F
100
AcDbEntity
  8
1
100
AcDbCircle
 10
32.82321900000011
 20
6.008995999999996
 30
0.0
 40
3.401
100
AcDbArc
 50
189.9999990000012
 51
203.8372550000045
  0
LINE
  5
21F0B
330
1F
100
AcDbEntity
  8
1
100
AcDbLine
 10
29.47388799999999
 20
5.418418000000002
 30
0.0
 11
29.44518400000016
 21
5.581209000000001
 31
0.0
  0
LINE
  5
21F0C
330
1F
100
AcDbEntity
  8
1
100
AcDbLine
 10
31.75999999999999
 20
0.0
 30
0.0
 11
29.71233499999903
 21
4.634514999999993
 31
0.0
  0
DIMENSION
  5
21F0E
330
1F
100
AcDbEntity
  8
SK2
100
AcDbDimension
280
     0
  2
*D12
 10
-28.35050303023491
 20
-6.800000000000063
 30
0.0
 11
-28.35050303023491
 21
-1.663495048993809
 31
0.0
 70
   160
  1
%%C<>
 71
     5
 42
13.60000000000008
 73
     0
 74
     0
 75
     0
  3
STANDARD
100
AcDbAlignedDimension
 13
-13.79999999999995
 23
6.800000000000011
 33
0.0
 14
-13.79999999999995
 24
-6.800000000000068
 34
0.0
 50
90.0
100
AcDbRotatedDimension
1001
ACAD_DSTYLE_DIMARC_LENGTH_SYMBOL
1070
   379
1070
     1
1001
ACAD_DSTYLE_DIM_LINETYPE
1070
   380
1005
14
1001
ACAD_DSTYLE_DIM_EXT1_LINETYPE
1070
   381
1005
14
1001
ACAD_DSTYLE_DIM_EXT2_LINETYPE
1070
   382
1005
14
1001
ACAD
1000
DSTYLE
1002
{
1070
   172
1070
     1
1002
}
  0
LINE
  5
2208F
330
1F
100
AcDbEntity
  8
SK4
100
AcDbLine
 10
0.0
 20
0.0
 30
0.0
 11
-20.01689248951198
 21
0.0
 31
0.0
  0
LWPOLYLINE
  5
22096
330
1F
100
AcDbEntity
  8
CUT
100
AcDbPolyline
 90
       18
 70
     1
 43
0.0
 10
29.71233423005458
 20
4.634515389688999
 42
-0.0604498899199839
 10
29.47388782169807
 20
5.418418606211652
 10
29.44518400000016
 20
5.581209000000001
 10
29.32779600000003
 20
6.246946000000008
 10
28.9181789999991
 20
8.569999999999993
 10
28.25999999999999
 20
8.949999999999988
 10
27.46000000000004
 20
8.949999999999988
 10
27.46000000000009
 20
16.69999999999999
 42
0.4142135623730951
 10
26.66000000000008
 20
17.5
 10
18.349999999999
 20
17.49999999999998
 42
0.4142135623730951
 10
17.55000000000018
 20
16.69999999999999
 10
17.54999999999899
 20
8.389999999999986
 42
0.4142135623730951
 10
18.349999999999
 20
7.590000000000003
 10
21.86001799999894
 20
7.590000000000003
 10
21.86000000000013
 20
6.75465500000007
 10
21.85999999999899
 20
2.900924000000088
 10
21.85999999999899
 20
0.0
 10
31.75999999999999
 20
0.0
  0
LWPOLYLINE
  5
220A8
330
1F
100
AcDbEntity
  8
NOCUT
100
AcDbPolyline
 90
        9
 70
     1
 43
0.0
 10
26.4599999999989
 20
0.0
 10
26.46000000000004
 20
8.270091000000064
 10
26.46000000000004
 20
17.25
 10
0.0
 20
17.25
 10
0.0
 20
8.270091000000064
 10
0.0
 20
6.800000000000011
 10
-13.79999999999995
 20
6.800000000000011
 10
-13.79999999999995
 20
3.260094000000009
 10
-13.79999999999995
 20
0.0
  0
VIEWPORT
  5
9C00
330
1B
100
AcDbEntity
 67
     1
  8
0
348
3195
100
AcDbViewport
 10
108.2280559557949
 20
71.69854161746989
 30
0.0
 40
251.8950231529317
 41
201.8884082081047
 68
     1
 69
     1
 12
108.2280559557949
 22
71.69854161746989
 13
0.0
 23
0.0
 14
10.0
 24
10.0
 15
10.0
 25
10.0
 16
0.0
 26
0.0
 36
1.0
 17
0.0
 27
0.0
 37
0.0
 42
50.0
 43
0.0
 44
0.0
 45
201.8884082081047
 50
0.0
 51
0.0
 72
   100
 90
   557088
  1

281
     0
 71
     1
 74
     0
110
0.0
120
0.0
130
0.0
111
1.0
121
0.0
131
0.0
112
0.0
122
1.0
132
0.0
 79
     0
146
0.0
170
     0
 61
     5
292
     1
282
     1
141
0.0
142
0.0
 63
   250
421
  3355443
  0
VIEWPORT
  5
9C02
330
1B
100
AcDbEntity
 67
     1
  8
1
348
3195
100
AcDbViewport
 10
143.457083940506
 20
98.18158769607544
 30
0.0
 40
229.5313343048095
 41
157.0905403137207
 68
     2
 69
     2
 12
-44.37697124786255
 22
-35.12342998133886
 13
0.0
 23
0.0
 14
10.0
 24
10.0
 15
10.0
 25
10.0
 16
0.0
 26
0.0
 36
1.0
 17
0.0
 27
0.0
 37
0.0
 42
50.0
 43
0.0
 44
0.0
 45
300.3886240724386
 50
0.0
 51
0.0
 72
   100
 90
   557088
  1

281
     0
 71
     1
 74
     0
110
0.0
120
0.0
130
0.0
111
1.0
121
0.0
131
0.0
112
0.0
122
1.0
132
0.0
 79
     0
146
0.0
170
     0
 61
     5
348
3195
292
     1
282
     1
141
0.0
142
0.0
 63
   250
421
  3355443
  0
ENDSEC
  0
SECTION
  2
OBJECTS
  0
DICTIONARY
  5
3182
330
0
100
AcDbDictionary
281
     1
  3
ACAD_CIP_PREVIOUS_PRODUCT_INFO
350
1B2F4
  3
ACAD_COLOR
350
31A0
  3
ACAD_DETAILVIEWSTYLE
350
1B2F0
  3
ACAD_FIELDLIST
350
20CBF
  3
ACAD_GROUP
350
3183
  3
ACAD_LAYOUT
350
31A5
  3
ACAD_MATERIAL
350
318B
  3
ACAD_MLEADERSTYLE
350
1B221
  3
ACAD_MLINESTYLE
350
3184
  3
ACAD_PLOTSETTINGS
350
31A4
  3
ACAD_PLOTSTYLENAME
350
3189
  3
ACAD_SCALELIST
350
1B1FC
  3
ACAD_SECTIONVIEWSTYLE
350
1B2EE
  3
ACAD_TABLESTYLE
350
31A1
  3
ACAD_VISUALSTYLE
350
318F
  3
ACDB_RECOMPOSE_DATA
350
220E1
  3
AcDbVariableDictionary
350
33A3
  0
DICTIONARY
  5
422A
330
2
100
AcDbDictionary
280
     1
281
     1
  3
ACAD_LAYERFILTERS
360
1B063
  3
ACAD_LAYERSTATES
360
9A1C
  3
ACLYDICTIONARY
360
1B062
  0
DICTIONARY
  5
1B2F5
330
10
100
AcDbDictionary
280
     1
281
     1
  3
ADSK_XREC_LAYER_RECONCILED
360
21B8E
  0
DICTIONARY
  5
1B2F7
330
3F8C
100
AcDbDictionary
280
     1
281
     1
  3
ADSK_XREC_LAYER_RECONCILED
360
21B8F
  0
DICTIONARY
  5
1B2F9
330
9C4A
100
AcDbDictionary
280
     1
281
     1
  3
ADSK_XREC_LAYER_RECONCILED
360
21B90
  0
DICTIONARY
  5
1B2FB
330
9C4B
100
AcDbDictionary
280
     1
281
     1
  3
ADSK_XREC_LAYER_RECONCILED
360
21B91
  0
DICTIONARY
  5
1B2FD
330
9C4D
100
AcDbDictionary
280
     1
281
     1
  3
ADSK_XREC_LAYER_RECONCILED
360
21B92
  0
DICTIONARY
  5
1B2FF
330
9C4E
100
AcDbDictionary
280
     1
281
     1
  3
ADSK_XREC_LAYER_RECONCILED
360
21B93
  0
DICTIONARY
  5
1B301
330
9C4F
100
AcDbDictionary
280
     1
281
     1
  3
ADSK_XREC_LAYER_RECONCILED
360
21B94
  0
DICTIONARY
  5
1B303
330
9C50
100
AcDbDictionary
280
     1
281
     1
  3
ADSK_XREC_LAYER_RECONCILED
360
21B95
  0
DICTIONARY
  5
1B305
330
9C51
100
AcDbDictionary
280
     1
281
     1
  3
ADSK_XREC_LAYER_RECONCILED
360
21B96
  0
DICTIONARY
  5
1B307
330
13335
100
AcDbDictionary
280
     1
281
     1
  3
ADSK_XREC_LAYER_RECONCILED
360
21B97
  0
DICTIONARY
  5
1B309
330
1686E
100
AcDbDictionary
280
     1
281
     1
  3
ADSK_XREC_LAYER_RECONCILED
360
21B98
  0
DICTIONARY
  5
339C
330
1F
100
AcDbDictionary
280
     1
281
     1
  3
ACAD_SORTENTS
360
339D
  0
DICTIONARY
  5
1DE81
330
1B3D7
100
AcDbDictionary
280
     1
281
     1
  0
XRECORD
  5
1B2F4
102
{ACAD_REACTORS
330
3182
102
}
330
3182
100
AcDbXrecord
280
     1
300
ACDLT
300
2015
300
ACDLT_F_S
  0
DICTIONARY
  5
31A0
102
{ACAD_REACTORS
330
3182
102
}
330
3182
100
AcDbDictionary
281
     1
  0
DICTIONARY
  5
1B2F0
102
{ACAD_REACTORS
330
3182
102
}
330
3182
100
AcDbDictionary
281
     1
  3
Imperial24
350
20CB3
  3
Metric50
350
1B2F1
  0
FIELDLIST
  5
20CBF
102
{ACAD_REACTORS
330
3182
102
}
330
3182
100
AcDbIdSet
 90
        0
100
AcDbFieldList
  0
DICTIONARY
  5
3183
102
{ACAD_REACTORS
330
3182
102
}
330
3182
100
AcDbDictionary
281
     1
  0
DICTIONARY
  5
31A5
102
{ACAD_REACTORS
330
3182
102
}
330
3182
100
AcDbDictionary
281
     1
  3
Layout1
350
31A7
  3
Model
350
31A6
  0
DICTIONARY
  5
318B
102
{ACAD_REACTORS
330
3182
102
}
330
3182
100
AcDbDictionary
281
     1
  3
ByBlock
350
318D
  3
ByLayer
350
318C
  3
Global
350
318E
  0
DICTIONARY
  5
1B221
102
{ACAD_REACTORS
330
3182
102
}
330
3182
100
AcDbDictionary
281
     1
  3
Standard
350
1B2ED
  0
DICTIONARY
  5
3184
102
{ACAD_REACTORS
330
3182
102
}
330
3182
100
AcDbDictionary
281
     1
  3
STANDARD
350
3185
  0
DICTIONARY
  5
31A4
102
{ACAD_REACTORS
330
3182
102
}
330
3182
100
AcDbDictionary
281
     1
  0
ACDBDICTIONARYWDFLT
  5
3189
102
{ACAD_REACTORS
330
3182
102
}
330
3182
100
AcDbDictionary
281
     1
  3
Normal
350
318A
100
AcDbDictionaryWithDefault
340
318A
  0
DICTIONARY
  5
1B1FC
102
{ACAD_REACTORS
330
3182
102
}
330
3182
100
AcDbDictionary
281
     1
  3
A0
350
1B1FD
  3
A1
350
1B1FE
  3
A2
350
1B1FF
  3
A3
350
1B200
  3
A4
350
1B201
  3
A5
350
1B202
  3
A6
350
1B203
  3
A7
350
1B204
  3
A8
350
1B205
  3
A9
350
1B206
  3
B0
350
1B207
  3
B1
350
1B208
  3
B2
350
1B209
  3
B3
350
1B20A
  3
B4
350
1B20B
  3
B5
350
1B20C
  3
B6
350
1B20D
  3
B7
350
1B20E
  3
B8
350
1B20F
  3
B9
350
1B210
  3
C0
350
1B211
  3
C1
350
1B212
  3
C2
350
1B213
  3
C3
350
1B214
  3
C4
350
1B215
  3
C5
350
1B216
  3
C6
350
1B217
  3
C7
350
1B218
  3
C8
350
1B219
  3
C9
350
1B21A
  3
D0
350
1B21B
  3
D1
350
1B21C
  3
D2
350
1B21D
  0
DICTIONARY
  5
1B2EE
102
{ACAD_REACTORS
330
3182
102
}
330
3182
100
AcDbDictionary
281
     1
  3
Imperial24
350
20CB1
  3
Metric50
350
1B2EF
  0
DICTIONARY
  5
31A1
102
{ACAD_REACTORS
330
3182
102
}
330
3182
100
AcDbDictionary
281
     1
  3
Standard
350
31A2
  0
DICTIONARY
  5
318F
102
{ACAD_REACTORS
330
3182
102
}
330
3182
100
AcDbDictionary
281
     1
  3
2dWireframe
350
3195
  3
3D Hidden
350
3197
  3
3dWireframe
350
3196
  3
Basic
350
3194
  3
Brighten
350
319B
  3
ColorChange
350
319F
  3
Conceptual
350
3198
  3
Dim
350
319A
  3
EdgeColorOff
350
1B2EC
  3
Facepattern
350
319E
  3
Flat
350
3190
  3
FlatWithEdges
350
3191
  3
Gouraud
350
3192
  3
GouraudWithEdges
350
3193
  3
Hidden
350
1B2E4
  3
JitterOff
350
1B2EA
  3
Linepattern
350
319D
  3
OverhangOff
350
1B2EB
  3
Realistic
350
3199
  3
Shaded
350
1B2E9
  3
Shaded with edges
350
1B2E8
  3
Shades of Gray
350
1B2E5
  3
Sketchy
350
1B2E6
  3
Thicken
350
319C
  3
Wireframe
350
1B2E3
  3
X-Ray
350
1B2E7
  0
XRECORD
  5
220E1
102
{ACAD_REACTORS
330
3182
102
}
330
3182
100
AcDbXrecord
280
     1
 90
        1
330
31A2
  0
DICTIONARY
  5
33A3
102
{ACAD_REACTORS
330
3182
102
}
330
3182
100
AcDbDictionary
281
     1
  3
CANNOSCALE
350
1B222
  3
CMLEADERSTYLE
350
1B30F
  3
CTABLESTYLE
350
33A4
  3
CVIEWDETAILSTYLE
350
1B310
  3
CVIEWSECTIONSTYLE
350
1B311
  3
DIMASSOC
350
9BE8
  3
INDEXCTL
350
9BE7
  3
LAYEREVAL
350
20993
  3
LAYERNOTIFY
350
20994
  3
LIGHTINGUNITS
350
20992
  3
MSLTSCALE
350
20991
  3
SORTENTS
350
9BE6
  0
DICTIONARY
  5
1B063
102
{ACAD_REACTORS
330
422A
102
}
330
422A
100
AcDbDictionary
281
     1
  0
DICTIONARY
  5
9A1C
102
{ACAD_REACTORS
330
422A
102
}
330
422A
100
AcDbDictionary
281
     1
  0
DICTIONARY
  5
1B062
102
{ACAD_REACTORS
330
422A
102
}
330
422A
100
AcDbDictionary
281
     1
1001
ACAD
1000
<All
  0
XRECORD
  5
21B8E
102
{ACAD_REACTORS
330
1B2F5
102
}
330
1B2F5
100
AcDbXrecord
280
     1
290
     1
  0
XRECORD
  5
21B8F
102
{ACAD_REACTORS
330
1B2F7
102
}
330
1B2F7
100
AcDbXrecord
280
     1
290
     1
  0
XRECORD
  5
21B90
102
{ACAD_REACTORS
330
1B2F9
102
}
330
1B2F9
100
AcDbXrecord
280
     1
290
     1
  0
XRECORD
  5
21B91
102
{ACAD_REACTORS
330
1B2FB
102
}
330
1B2FB
100
AcDbXrecord
280
     1
290
     1
  0
XRECORD
  5
21B92
102
{ACAD_REACTORS
330
1B2FD
102
}
330
1B2FD
100
AcDbXrecord
280
     1
290
     1
  0
XRECORD
  5
21B93
102
{ACAD_REACTORS
330
1B2FF
102
}
330
1B2FF
100
AcDbXrecord
280
     1
290
     1
  0
XRECORD
  5
21B94
102
{ACAD_REACTORS
330
1B301
102
}
330
1B301
100
AcDbXrecord
280
     1
290
     1
  0
XRECORD
  5
21B95
102
{ACAD_REACTORS
330
1B303
102
}
330
1B303
100
AcDbXrecord
280
     1
290
     1
  0
XRECORD
  5
21B96
102
{ACAD_REACTORS
330
1B305
102
}
330
1B305
100
AcDbXrecord
280
     1
290
     1
  0
XRECORD
  5
21B97
102
{ACAD_REACTORS
330
1B307
102
}
330
1B307
100
AcDbXrecord
280
     1
290
     1
  0
XRECORD
  5
21B98
102
{ACAD_REACTORS
330
1B309
102
}
330
1B309
100
AcDbXrecord
280
     1
290
     1
  0
SORTENTSTABLE
  5
339D
102
{ACAD_REACTORS
330
339C
102
}
330
339C
100
AcDbSortentsTable
330
1F
331
21ED4
  5
21EEF
331
21E5B
  5
21E6E
331
21EC5
  5
21EE0
331
21E4C
  5
21E5E
331
21EB6
  5
21ED1
331
21E3D
  5
21E48
331
21EA7
  5
21EC2
331
21E2E
  5
21E3A
331
21E98
  5
21EB3
331
21E1F
  5
21E27
331
21F02
  5
220A4
331
21E01
  5
21E06
331
21E89
  5
21EA4
331
21E7A
  5
21E8D
331
21EF3
  5
2208F
331
21EE4
  5
21EFF
331
21E6B
  5
21E7E
331
2208F
  5
21E6B
331
21DF2
  5
21DF2
331
21EC0
  5
21EDB
331
21EB1
  5
21ECC
331
21E38
  5
21E43
331
21EA2
  5
21EBD
331
21E29
  5
21E34
331
21E93
  5
21EAE
331
21E1A
  5
21E22
331
21F0C
  5
220AE
331
21E0B
  5
21E13
331
21EEE
  5
21F09
331
21E75
  5
21E88
331
21EFD
  5
2209F
331
21EDF
  5
21EFA
331
21ECD
  5
21EE8
331
21EBE
  5
21ED9
331
21E45
  5
21E50
331
220A8
  5
21EA1
331
21EAF
  5
21ECA
331
21E36
  5
21E41
331
21E27
  5
21E32
331
21E66
  5
21E79
331
21EF8
  5
2209A
331
21EE9
  5
21F04
331
21E70
  5
21E83
331
21EDA
  5
21EF5
331
21E61
  5
21E74
331
21ED7
  5
21EF2
331
21E5E
  5
21E71
331
21EC8
  5
21EE3
331
21E4F
  5
21E61
331
21EB9
  5
21ED4
331
21E40
  5
21E4B
331
21EAA
  5
21EC5
331
21E31
  5
21E3C
331
21E9B
  5
21EB6
331
21E22
  5
21E2A
331
21F05
  5
220A7
331
21E8C
  5
21EA7
331
21E13
  5
21E1B
331
21E7D
  5
21E90
331
21EF6
  5
22098
331
21EE7
  5
21F02
331
21E6E
  5
21E81
331
21DF5
  5
21DF5
331
21ED2
  5
21EED
331
21E59
  5
21E6C
331
21EC3
  5
21EDE
331
21E4A
  5
21E5C
331
21EB4
  5
21ECF
331
21E3B
  5
21E46
331
21E96
  5
21EB1
331
21E1D
  5
21E25
331
21EA5
  5
21EC0
331
21E87
  5
21EA2
331
21E0E
  5
21E16
331
21F00
  5
220A2
331
21E78
  5
21E8B
331
21DFF
  5
21E01
331
21EF1
  5
21F0C
331
21EE2
  5
21EFD
331
21E69
  5
21E7C
331
21DF0
  5
21DF0
331
21EA0
  5
21EBB
331
21E91
  5
21EAC
331
21E18
  5
21E20
331
21F0A
  5
220AC
331
21E09
  5
21E0E
331
21EFB
  5
2209D
331
21EEC
  5
21F07
331
21E73
  5
21E86
331
21EDD
  5
21EF8
331
21E64
  5
21E77
331
21DFA
  5
21DFA
331
21ECB
  5
21EE6
331
21EBC
  5
21ED7
331
21E43
  5
21E4E
331
21EAD
  5
21EC8
331
21E34
  5
21E3F
331
21E9E
  5
21EB9
331
21E25
  5
21E30
331
21E8F
  5
21EAA
331
21E16
  5
21E1E
331
21E07
  5
21E0C
331
21DEF
  5
21DEF
331
21ED8
  5
21EF3
331
21ED5
  5
21EF0
331
21E5C
  5
21E6F
331
21EC6
  5
21EE1
331
21E4D
  5
21E5F
331
21EB7
  5
21ED2
331
21E3E
  5
21E49
331
21E99
  5
21EB4
331
21E20
  5
21E28
331
21EA8
  5
21EC3
331
21F03
  5
220A5
331
21E02
  5
21E09
331
21E8A
  5
21EA5
331
21E7B
  5
21E8E
331
21EF4
  5
22096
331
21EE5
  5
21F00
331
21E6C
  5
21E7F
331
21DF3
  5
21DF3
331
21DEA
  5
21DEA
331
21ED0
  5
21EEB
331
21EC1
  5
21EDC
331
21E48
  5
21E5A
331
21EB2
  5
21ECD
331
21E39
  5
21E44
331
21EA3
  5
21EBE
331
21E2A
  5
21E37
331
21E94
  5
21EAF
331
21E1B
  5
21E23
331
21EFE
  5
220A0
331
21E0C
  5
21E14
331
21EEF
  5
21F0A
331
21E76
  5
21E89
331
21EE0
  5
21EFB
331
21ECE
  5
21EE9
331
21EBF
  5
21EDA
331
21E46
  5
21E53
331
21E37
  5
21E42
331
21E67
  5
21E7A
331
21F08
  5
220AA
331
21EF9
  5
2209B
331
21EEA
  5
21F05
331
21E71
  5
21E84
331
21EDB
  5
21EF6
331
21E62
  5
21E75
331
21E5F
  5
21E72
331
21EC9
  5
21EE4
331
21E50
  5
21E64
331
21EBA
  5
21ED5
331
21E41
  5
21E4C
331
21EAB
  5
21EC6
331
21E32
  5
21E3D
331
21E9C
  5
21EB7
331
21E23
  5
21E2D
331
21E8D
  5
21EA8
331
21E14
  5
21E1C
331
21F06
  5
220A8
331
21E05
  5
21E0A
331
21E7E
  5
21E99
331
21DF8
  5
21DF8
331
21EF7
  5
22099
331
21E6F
  5
21E82
331
21DF6
  5
21DF6
331
21ED3
  5
21EEE
331
21E5A
  5
21E6D
331
21EC4
  5
21EDF
331
21E4B
  5
21E5D
331
21EB5
  5
21ED0
331
21E3C
  5
21E47
331
21EA6
  5
21EC1
331
21E2D
  5
21E38
331
21E97
  5
21EB2
331
21E1E
  5
21E26
331
21E88
  5
21EA3
331
21E0F
  5
21E1A
331
21F01
  5
220A3
331
21E79
  5
21E8C
331
21EF2
  5
21F0D
331
21EE3
  5
21EFE
331
21E6A
  5
21E7D
331
21DF1
  5
21DF1
331
211A0
  5
211A0
331
21EB0
  5
21ECB
331
21EA1
  5
21EBC
331
21E28
  5
21E33
331
21E92
  5
21EAD
331
21E19
  5
21E21
331
21F0B
  5
220AD
331
21E0A
  5
21E0F
331
21EFC
  5
2209E
331
21EED
  5
21F08
331
21E74
  5
21E87
331
21EDE
  5
21EF9
331
21E65
  5
21E78
331
21ECC
  5
21EE7
331
21E53
  5
21E65
331
21EBD
  5
21ED8
331
21E44
  5
21E4F
331
21EAE
  5
21EC9
331
21E35
  5
21E40
331
21E9F
  5
21EBA
331
21E26
  5
21E31
331
21E17
  5
21E1F
331
21DFB
  5
21DFB
331
21EE8
  5
21F03
331
21ED9
  5
21EF4
331
21E60
  5
21E73
331
21ED6
  5
21EF1
331
21E5D
  5
21E70
331
21EC7
  5
21EE2
331
21E4E
  5
21E60
331
21EB8
  5
21ED3
331
21E3F
  5
21E4A
331
21EA9
  5
21EC4
331
21E30
  5
21E3B
331
21E9A
  5
21EB5
331
21E21
  5
21E29
331
21F04
  5
220A6
331
21E7C
  5
21E8F
331
21E8B
  5
21EA6
331
21EF5
  5
22097
331
21EE6
  5
21F01
331
21E6D
  5
21E80
331
21DF4
  5
21DF4
331
21ED1
  5
21EEC
331
21EC2
  5
21EDD
331
21E49
  5
21E5B
331
21EB3
  5
21ECE
331
21E3A
  5
21E45
331
21E95
  5
21EB0
331
21E1C
  5
21E24
331
21EA4
  5
21EBF
331
21F0E
  5
220B0
331
21E0D
  5
21E15
331
21EFF
  5
220A1
331
21EF0
  5
21F0B
331
21E77
  5
21E8A
331
21DFE
  5
21E00
331
21EE1
  5
21EFC
331
21E68
  5
21E7B
331
21ECF
  5
21EEA
331
21E47
  5
21E54
331
21E90
  5
21EAB
331
21F09
  5
220AB
331
21E08
  5
21E0D
331
21EFA
  5
2209C
331
21EEB
  5
21F06
331
21E72
  5
21E85
331
21EDC
  5
21EF7
331
21E63
  5
21E76
331
21DF9
  5
21DF9
331
22096
  5
220AF
331
21ECA
  5
21EE5
331
21EBB
  5
21ED6
331
21E42
  5
21E4D
331
21EAC
  5
21EC7
331
21E33
  5
21E3E
331
21E9D
  5
21EB8
331
21E24
  5
21E2E
331
21E8E
  5
21EA9
331
21E15
  5
21E1D
331
21F07
  5
220A9
331
21E06
  5
21E0B
331
21DF7
  5
21DF7
331
21DEE
  5
21DEE
  0
ACDBDETAILVIEWSTYLE
  5
20CB3
102
{ACAD_XDICTIONARY
360
2211C
102
}
102
{ACAD_REACTORS
330
1B2F0
102
}
330
1B2F0
100
AcDbModelDocViewStyle
 70
     0
  3
Imperial24
290
     0
100
AcDbDetailViewStyle
 70
     0
 71
     0
 90
        3
 71
     1
340
11
 62
   256
 40
0.24
340
0
 62
   256
 40
0.24
300

 40
0.36
280
     3
 71
     2
340
16
 90
       25
 62
   256
 71
     3
340
11
 62
   256
 40
0.24
 90
        1
 40
0.75
 90
        1
300
%<\AcVar ViewType \f "%tc1">% %<\AcVar ViewDetailId>%\PVARIA %<\AcVar ViewScale \f "%sn">%
 71
     4
340
16
 90
       25
 62
   256
340
16
 90
       25
 62
   256
280
     0
  0
ACDBDETAILVIEWSTYLE
  5
1B2F1
102
{ACAD_XDICTIONARY
360
22118
102
}
102
{ACAD_REACTORS
330
1B2F0
102
}
330
1B2F0
100
AcDbModelDocViewStyle
 70
     0
  3
Metric50
290
     0
100
AcDbDetailViewStyle
 70
     0
 71
     0
 90
        3
 71
     1
340
11
 62
   256
 40
5.0
340
0
 62
   256
 40
5.0
300

 40
0.0
280
     1
 71
     2
340
16
 90
       25
 62
   256
 71
     3
340
11
 62
   256
 40
5.0
 90
        0
 40
15.0
 90
        1
300
%<\AcVar ViewDetailId>% (%<\AcVar ViewScale \f "%sn">%)
 71
     4
340
16
 90
       25
 62
   256
340
16
 90
       25
 62
   256
280
     0
  0
LAYOUT
  5
31A7
102
{ACAD_REACTORS
330
31A5
102
}
330
31A5
100
AcDbPlotSettings
  1

  2
\\ingdc01\ITB3
  4
A4
  6

 40
6.805083274841307
 41
5.027085781097412
 42
6.805068969726562
 43
5.027069091796875
 44
209.9733276367186
 45
296.9683227539062
 46
0.0
 47
0.0
 48
0.0
 49
0.0
140
0.0
141
0.0
142
1.0
143
1.0
 70
   688
 72
     1
 73
     1
 74
     5
  7

 75
    16
147
1.0
 76
     0
 77
     2
 78
   300
148
0.0
149
0.0
100
AcDbLayout
  1
Layout1
 70
     1
 71
     1
 10
-5.027069091796875
 20
-6.805083274841307
 11
291.9412536621094
 21
203.1682443618775
 12
0.0
 22
0.0
 32
0.0
 14
28.69141678810127
 24
19.6363175392151
 34
0.0
 15
258.2227510929107
 25
176.7268578529358
 35
0.0
146
0.0
 13
0.0
 23
0.0
 33
0.0
 16
1.0
 26
0.0
 36
0.0
 17
0.0
 27
1.0
 37
0.0
 76
     0
330
1B
331
9C00
1001
ACAD_PSEXT
1000
\\ingdc01\ITB3
1000
HP LaserJet 5000 Series PCL
1000
TB
1000

1070
     0
  0
LAYOUT
  5
31A6
102
{ACAD_REACTORS
330
31A5
102
}
330
31A5
100
AcDbPlotSettings
  1

  2
\\ingdc01\ITB3
  4
A4
  6

 40
6.805083274841307
 41
5.027085781097412
 42
6.805068969726562
 43
5.027069091796875
 44
209.9733276367186
 45
296.9683227539062
 46
0.0
 47
0.0
 48
0.0
 49
0.0
140
0.0
141
0.0
142
1.0
143
1.500313223655698
 70
 11952
 72
     1
 73
     1
 74
     0
  7

 75
     0
147
0.6665274852163048
 76
     0
 77
     2
 78
   300
148
239.0155119930048
149
102.2558208723354
100
AcDbLayout
  1
Model
 70
     1
 71
     0
 10
0.0
 20
0.0
 11
12.0
 21
9.0
 12
0.0
 22
0.0
 32
0.0
 14
0.0
 24
0.0
 34
0.0
 15
0.0
 25
0.0
 35
0.0
146
0.0
 13
0.0
 23
0.0
 33
0.0
 16
1.0
 26
0.0
 36
0.0
 17
0.0
 27
1.0
 37
0.0
 76
     0
330
1F
331
1F4
1001
ACAD_PSEXT
1000
\\ingdc01\ITB3
1000
HP LaserJet 5000 Series PCL
1000
TB
1000

1070
     0
  0
MATERIAL
  5
318D
102
{ACAD_XDICTIONARY
360
1B22B
102
}
102
{ACAD_REACTORS
330
318B
102
}
330
318B
100
AcDbMaterial
  1
ByBlock
  0
MATERIAL
  5
318C
102
{ACAD_XDICTIONARY
360
1B22D
102
}
102
{ACAD_REACTORS
330
318B
102
}
330
318B
100
AcDbMaterial
  1
ByLayer
  0
MATERIAL
  5
318E
102
{ACAD_XDICTIONARY
360
1B22F
102
}
102
{ACAD_REACTORS
330
318B
102
}
330
318B
100
AcDbMaterial
  1
Global
  0
MLEADERSTYLE
  5
1B2ED
102
{ACAD_REACTORS
330
1B221
102
}
330
1B221
100
AcDbMLeaderStyle
179
     2
170
     2
171
     1
172
     0
 90
        2
 40
0.0
 41
0.0
173
     1
 91
-1056964608
340
14
 92
       -2
290
     1
 42
2.0
291
     1
 43
0.36
  3
Standard
 44
4.0
300

342
11
174
     1
178
     6
175
     1
176
     0
 93
-1056964608
 45
4.0
292
     0
297
     0
 46
4.0
 94
-1056964608
 47
1.0
 49
1.0
140
1.0
293
     1
141
0.0
294
     1
177
     0
142
1.0
295
     0
296
     0
143
0.125
271
     0
272
     9
273
     9
1001
ACAD_MLEADERVER
1070
     2
  0
MLINESTYLE
  5
3185
102
{ACAD_REACTORS
330
3184
102
}
330
3184
100
AcDbMlineStyle
  2
STANDARD
 70
     0
  3

 62
   256
 51
90.0
 52
90.0
 71
     2
 49
0.5
 62
   256
  6
BYLAYER
 49
-0.5
 62
   256
  6
BYLAYER
  0
ACDBPLACEHOLDER
  5
318A
102
{ACAD_REACTORS
330
3189
102
}
330
3189
  0
SCALE
  5
1B1FD
102
{ACAD_REACTORS
330
1B1FC
102
}
330
1B1FC
100
AcDbScale
 70
     0
300
1:1
140
1.0
141
1.0
290
     1
1001
ACAD
1000
AcRTDxfName
1000
SCALE
  0
SCALE
  5
1B1FE
102
{ACAD_REACTORS
330
1B1FC
102
}
330
1B1FC
100
AcDbScale
 70
     0
300
1:2
140
1.0
141
2.0
290
     0
1001
ACAD
1000
AcRTDxfName
1000
SCALE
  0
SCALE
  5
1B1FF
102
{ACAD_REACTORS
330
1B1FC
102
}
330
1B1FC
100
AcDbScale
 70
     0
300
1:4
140
1.0
141
4.0
290
     0
1001
ACAD
1000
AcRTDxfName
1000
SCALE
  0
SCALE
  5
1B200
102
{ACAD_REACTORS
330
1B1FC
102
}
330
1B1FC
100
AcDbScale
 70
     0
300
1:5
140
1.0
141
5.0
290
     0
1001
ACAD
1000
AcRTDxfName
1000
SCALE
  0
SCALE
  5
1B201
102
{ACAD_REACTORS
330
1B1FC
102
}
330
1B1FC
100
AcDbScale
 70
     0
300
1:8
140
1.0
141
8.0
290
     0
1001
ACAD
1000
AcRTDxfName
1000
SCALE
  0
SCALE
  5
1B202
102
{ACAD_REACTORS
330
1B1FC
102
}
330
1B1FC
100
AcDbScale
 70
     0
300
1:10
140
1.0
141
10.0
290
     0
1001
ACAD
1000
AcRTDxfName
1000
SCALE
  0
SCALE
  5
1B203
102
{ACAD_REACTORS
330
1B1FC
102
}
330
1B1FC
100
AcDbScale
 70
     0
300
1:16
140
1.0
141
16.0
290
     0
1001
ACAD
1000
AcRTDxfName
1000
SCALE
  0
SCALE
  5
1B204
102
{ACAD_REACTORS
330
1B1FC
102
}
330
1B1FC
100
AcDbScale
 70
     0
300
1:20
140
1.0
141
20.0
290
     0
1001
ACAD
1000
AcRTDxfName
1000
SCALE
  0
SCALE
  5
1B205
102
{ACAD_REACTORS
330
1B1FC
102
}
330
1B1FC
100
AcDbScale
 70
     0
300
1:30
140
1.0
141
30.0
290
     0
1001
ACAD
1000
AcRTDxfName
1000
SCALE
  0
SCALE
  5
1B206
102
{ACAD_REACTORS
330
1B1FC
102
}
330
1B1FC
100
AcDbScale
 70
     0
300
1:40
140
1.0
141
40.0
290
     0
1001
ACAD
1000
AcRTDxfName
1000
SCALE
  0
SCALE
  5
1B207
102
{ACAD_REACTORS
330
1B1FC
102
}
330
1B1FC
100
AcDbScale
 70
     0
300
1:50
140
1.0
141
50.0
290
     0
1001
ACAD
1000
AcRTDxfName
1000
SCALE
  0
SCALE
  5
1B208
102
{ACAD_REACTORS
330
1B1FC
102
}
330
1B1FC
100
AcDbScale
 70
     0
300
1:100
140
1.0
141
100.0
290
     0
1001
ACAD
1000
AcRTDxfName
1000
SCALE
  0
SCALE
  5
1B209
102
{ACAD_REACTORS
330
1B1FC
102
}
330
1B1FC
100
AcDbScale
 70
     0
300
2:1
140
2.0
141
1.0
290
     0
1001
ACAD
1000
AcRTDxfName
1000
SCALE
  0
SCALE
  5
1B20A
102
{ACAD_REACTORS
330
1B1FC
102
}
330
1B1FC
100
AcDbScale
 70
     0
300
4:1
140
4.0
141
1.0
290
     0
1001
ACAD
1000
AcRTDxfName
1000
SCALE
  0
SCALE
  5
1B20B
102
{ACAD_REACTORS
330
1B1FC
102
}
330
1B1FC
100
AcDbScale
 70
     0
300
8:1
140
8.0
141
1.0
290
     0
1001
ACAD
1000
AcRTDxfName
1000
SCALE
  0
SCALE
  5
1B20C
102
{ACAD_REACTORS
330
1B1FC
102
}
330
1B1FC
100
AcDbScale
 70
     0
300
10:1
140
10.0
141
1.0
290
     0
1001
ACAD
1000
AcRTDxfName
1000
SCALE
  0
SCALE
  5
1B20D
102
{ACAD_REACTORS
330
1B1FC
102
}
330
1B1FC
100
AcDbScale
 70
     0
300
100:1
140
100.0
141
1.0
290
     0
1001
ACAD
1000
AcRTDxfName
1000
SCALE
  0
SCALE
  5
1B20E
102
{ACAD_REACTORS
330
1B1FC
102
}
330
1B1FC
100
AcDbScale
 70
     0
300
1/128" = 1'-0"
140
0.0078125
141
12.0
290
     0
1001
ACAD
1000
AcRTDxfName
1000
SCALE
  0
SCALE
  5
1B20F
102
{ACAD_REACTORS
330
1B1FC
102
}
330
1B1FC
100
AcDbScale
 70
     0
300
1/64" = 1'-0"
140
0.015625
141
12.0
290
     0
1001
ACAD
1000
AcRTDxfName
1000
SCALE
  0
SCALE
  5
1B210
102
{ACAD_REACTORS
330
1B1FC
102
}
330
1B1FC
100
AcDbScale
 70
     0
300
1/32" = 1'-0"
140
0.03125
141
12.0
290
     0
1001
ACAD
1000
AcRTDxfName
1000
SCALE
  0
SCALE
  5
1B211
102
{ACAD_REACTORS
330
1B1FC
102
}
330
1B1FC
100
AcDbScale
 70
     0
300
1/16" = 1'-0"
140
0.0625
141
12.0
290
     0
1001
ACAD
1000
AcRTDxfName
1000
SCALE
  0
SCALE
  5
1B212
102
{ACAD_REACTORS
330
1B1FC
102
}
330
1B1FC
100
AcDbScale
 70
     0
300
3/32" = 1'-0"
140
0.09375
141
12.0
290
     0
1001
ACAD
1000
AcRTDxfName
1000
SCALE
  0
SCALE
  5
1B213
102
{ACAD_REACTORS
330
1B1FC
102
}
330
1B1FC
100
AcDbScale
 70
     0
300
1/8" = 1'-0"
140
0.125
141
12.0
290
     0
1001
ACAD
1000
AcRTDxfName
1000
SCALE
  0
SCALE
  5
1B214
102
{ACAD_REACTORS
330
1B1FC
102
}
330
1B1FC
100
AcDbScale
 70
     0
300
3/16" = 1'-0"
140
0.1875
141
12.0
290
     0
1001
ACAD
1000
AcRTDxfName
1000
SCALE
  0
SCALE
  5
1B215
102
{ACAD_REACTORS
330
1B1FC
102
}
330
1B1FC
100
AcDbScale
 70
     0
300
1/4" = 1'-0"
140
0.25
141
12.0
290
     0
1001
ACAD
1000
AcRTDxfName
1000
SCALE
  0
SCALE
  5
1B216
102
{ACAD_REACTORS
330
1B1FC
102
}
330
1B1FC
100
AcDbScale
 70
     0
300
3/8" = 1'-0"
140
0.375
141
12.0
290
     0
1001
ACAD
1000
AcRTDxfName
1000
SCALE
  0
SCALE
  5
1B217
102
{ACAD_REACTORS
330
1B1FC
102
}
330
1B1FC
100
AcDbScale
 70
     0
300
1/2" = 1'-0"
140
0.5
141
12.0
290
     0
1001
ACAD
1000
AcRTDxfName
1000
SCALE
  0
SCALE
  5
1B218
102
{ACAD_REACTORS
330
1B1FC
102
}
330
1B1FC
100
AcDbScale
 70
     0
300
3/4" = 1'-0"
140
0.75
141
12.0
290
     0
1001
ACAD
1000
AcRTDxfName
1000
SCALE
  0
SCALE
  5
1B219
102
{ACAD_REACTORS
330
1B1FC
102
}
330
1B1FC
100
AcDbScale
 70
     0
300
1" = 1'-0"
140
1.0
141
12.0
290
     0
1001
ACAD
1000
AcRTDxfName
1000
SCALE
  0
SCALE
  5
1B21A
102
{ACAD_REACTORS
330
1B1FC
102
}
330
1B1FC
100
AcDbScale
 70
     0
300
1-1/2" = 1'-0"
140
1.5
141
12.0
290
     0
1001
ACAD
1000
AcRTDxfName
1000
SCALE
  0
SCALE
  5
1B21B
102
{ACAD_REACTORS
330
1B1FC
102
}
330
1B1FC
100
AcDbScale
 70
     0
300
3" = 1'-0"
140
3.0
141
12.0
290
     0
1001
ACAD
1000
AcRTDxfName
1000
SCALE
  0
SCALE
  5
1B21C
102
{ACAD_REACTORS
330
1B1FC
102
}
330
1B1FC
100
AcDbScale
 70
     0
300
6" = 1'-0"
140
6.0
141
12.0
290
     0
1001
ACAD
1000
AcRTDxfName
1000
SCALE
  0
SCALE
  5
1B21D
102
{ACAD_REACTORS
330
1B1FC
102
}
330
1B1FC
100
AcDbScale
 70
     0
300
1'-0" = 1'-0"
140
12.0
141
12.0
290
     0
1001
ACAD
1000
AcRTDxfName
1000
SCALE
  0
ACDBSECTIONVIEWSTYLE
  5
20CB1
102
{ACAD_XDICTIONARY
360
2211A
102
}
102
{ACAD_REACTORS
330
1B2EE
102
}
330
1B2EE
100
AcDbModelDocViewStyle
 70
     0
  3
Imperial24
290
     0
100
AcDbSectionViewStyle
 70
     0
 71
     0
 90
       78
 71
     1
340
11
 62
   256
 40
0.24
340
0
340
0
 62
   256
 40
0.24
300
I, O, Q, S, X, Z
 40
0.48
 90
        3
 40
0.18
 90
        1
 71
     2
340
16
 90
       25
 62
   256
340
16
 90
       50
 62
   256
 40
0.24
 40
0.0
 40
0.24
 71
     3
340
11
 62
   256
 40
0.24
 90
        1
 40
0.75
 90
        1
300
%<\AcVar ViewType \f "%tc1">% %<\AcVar ViewSectionStartId>%-%<\AcVar ViewSectionEndId>%\PVARIA %<\AcVar ViewScale \f "%sn">%
 71
     4
 62
   256
 62
   257
300
ANSI31
 40
1.0
 90
        0
290
     0
290
     0
 90
        6
 40
0.0
 40
1.570796326794896
 40
0.2617993877991494
 40
1.308996938995747
 40
-0.2617993877991494
 40
1.832595714594044
  0
ACDBSECTIONVIEWSTYLE
  5
1B2EF
102
{ACAD_XDICTIONARY
360
22116
102
}
102
{ACAD_REACTORS
330
1B2EE
102
}
330
1B2EE
100
AcDbModelDocViewStyle
 70
     0
  3
Metric50
290
     0
100
AcDbSectionViewStyle
 70
     0
 71
     0
 90
      102
 71
     1
340
11
 62
   256
 40
5.0
340
0
340
0
 62
   256
 40
5.0
300
I, O, Q, S, X, Z
 40
10.0
 90
        0
 40
2.5
 90
        0
 71
     2
340
16
 90
       25
 62
   256
340
16
 90
       50
 62
   256
 40
5.0
 40
2.5
 40
5.0
 71
     3
340
11
 62
   256
 40
5.0
 90
        0
 40
15.0
 90
        1
300
%<\AcVar ViewSectionStartId>%-%<\AcVar ViewSectionEndId>% (%<\AcVar ViewScale \f "%sn">%)
 71
     4
 62
   256
 62
   257
300
ANSI31
 40
1.0
 90
        0
290
     0
290
     0
 90
        6
 40
0.0
 40
1.570796326794896
 40
0.2617993877991494
 40
1.308996938995747
 40
-0.2617993877991494
 40
1.832595714594044
  0
TABLESTYLE
  5
31A2
102
{ACAD_XDICTIONARY
360
1B314
102
}
102
{ACAD_REACTORS
330
31A1
102
}
330
31A1
100
AcDbTableStyle
280
     0
  3
Standard
 70
     0
 71
     0
 40
1.5
 41
1.5
280
     0
281
     0
  7
STANDARD
140
4.5
170
     2
 62
     0
 63
     7
283
     0
 90
        4
 91
        0
  1

274
    -2
284
     1
 64
     0
275
    -2
285
     1
 65
     0
276
    -2
286
     1
 66
     0
277
    -2
287
     1
 67
     0
278
    -2
288
     1
 68
     0
279
    -2
289
     1
 69
     0
  7
STANDARD
140
6.0
170
     5
 62
     0
 63
     7
283
     0
 90
        4
 91
        0
  1

274
    -2
284
     1
 64
     0
275
    -2
285
     1
 65
     0
276
    -2
286
     1
 66
     0
277
    -2
287
     1
 67
     0
278
    -2
288
     1
 68
     0
279
    -2
289
     1
 69
     0
  7
STANDARD
140
4.5
170
     5
 62
     0
 63
     7
283
     0
 90
        4
 91
        0
  1

274
    -2
284
     1
 64
     0
275
    -2
285
     1
 65
     0
276
    -2
286
     1
 66
     0
277
    -2
287
     1
 67
     0
278
    -2
288
     1
 68
     0
279
    -2
289
     1
 69
     0
  0
VISUALSTYLE
  5
3195
102
{ACAD_XDICTIONARY
360
220EC
102
}
102
{ACAD_REACTORS
330
318F
102
}
330
318F
100
AcDbVisualStyle
  2

 70
     4
177
     2
291
     0
 71
     0
176
     1
 72
     2
176
     1
 73
     0
176
     1
 90
        0
176
     1
 40
0.6
176
     1
 41
30.0
176
     1
 63
     7
176
     1
 74
     1
176
     1
 91
        4
176
     1
 64
     7
176
     1
 65
   257
176
     1
 75
     1
176
     1
175
     1
176
     1
 42
1.0
176
     1
 92
        0
176
     1
 66
   257
176
     1
 43
1.0
176
     1
 76
     1
176
     1
 77
     6
176
     1
 78
     2
176
     1
 67
     7
176
     1
 79
     5
176
     1
170
     0
176
     1
171
     0
176
     1
290
     0
176
     1
 93
        1
176
     1
 44
0.0
176
     1
173
     0
176
     1
1001
ACAD
1000
AcDbSavedByObjectVersion
1070
     0
  0
VISUALSTYLE
  5
3197
102
{ACAD_XDICTIONARY
360
220F0
102
}
102
{ACAD_REACTORS
330
318F
102
}
330
318F
100
AcDbVisualStyle
  2

 70
     6
177
     2
291
     0
 71
     1
176
     1
 72
     2
176
     1
 73
     2
176
     1
 90
        0
176
     1
 40
0.6
176
     1
 41
30.0
176
     1
 63
     7
176
     1
 74
     2
176
     1
 91
        2
176
     1
 64
     7
176
     1
 65
   257
176
     1
 75
     2
176
     1
175
     1
176
     1
 42
40.0
176
     1
 92
        0
176
     1
 66
   257
176
     1
 43
1.0
176
     1
 76
     1
176
     1
 77
     6
176
     1
 78
     2
176
     1
 67
     7
176
     1
 79
     3
176
     1
170
     0
176
     1
171
     0
176
     1
290
     0
176
     1
 93
        1
176
     1
 44
0.0
176
     1
173
     0
176
     1
1001
ACAD
1000
AcDbSavedByObjectVersion
1070
     0
  0
VISUALSTYLE
  5
3196
102
{ACAD_XDICTIONARY
360
220EE
102
}
102
{ACAD_REACTORS
330
318F
102
}
330
318F
100
AcDbVisualStyle
  2

 70
     5
177
     2
291
     0
 71
     0
176
     1
 72
     2
176
     1
 73
     0
176
     1
 90
        0
176
     1
 40
0.6
176
     1
 41
30.0
176
     1
 63
     7
176
     1
 74
     1
176
     1
 91
        4
176
     1
 64
     7
176
     1
 65
   257
176
     1
 75
     1
176
     1
175
     1
176
     1
 42
1.0
176
     1
 92
        0
176
     1
 66
   257
176
     1
 43
1.0
176
     1
 76
     1
176
     1
 77
     6
176
     1
 78
     2
176
     1
 67
     7
176
     1
 79
     5
176
     1
170
     0
176
     1
171
     0
176
     1
290
     0
176
     1
 93
        1
176
     1
 44
0.0
176
     1
173
     0
176
     1
1001
ACAD
1000
AcDbSavedByObjectVersion
1070
     0
  0
VISUALSTYLE
  5
3194
102
{ACAD_XDICTIONARY
360
220EA
102
}
102
{ACAD_REACTORS
330
318F
102
}
330
318F
100
AcDbVisualStyle
  2

 70
     7
177
     2
291
     1
 71
     1
176
     1
 72
     0
176
     1
 73
     1
176
     1
 90
        0
176
     1
 40
0.6
176
     1
 41
30.0
176
     1
 63
     7
176
     1
 74
     0
176
     1
 91
        4
176
     1
 64
     7
176
     1
 65
   257
176
     1
 75
     1
176
     1
175
     1
176
     1
 42
1.0
176
     1
 92
        8
176
     1
 66
     7
176
     1
 43
1.0
176
     1
 76
     1
176
     1
 77
     6
176
     1
 78
     2
176
     1
 67
     7
176
     1
 79
     5
176
     1
170
     0
176
     1
171
     0
176
     1
290
     0
176
     1
 93
        1
176
     1
 44
0.0
176
     1
173
     0
176
     1
1001
ACAD
1000
AcDbSavedByObjectVersion
1070
     0
  0
VISUALSTYLE
  5
319B
102
{ACAD_XDICTIONARY
360
220F8
102
}
102
{ACAD_REACTORS
330
318F
102
}
330
318F
100
AcDbVisualStyle
  2

 70
    12
177
     2
291
     1
 71
     2
176
     1
 72
     2
176
     1
 73
     0
176
     1
 90
        0
176
     1
 40
0.6
176
     1
 41
30.0
176
     1
 63
     7
176
     1
 74
     1
176
     1
 91
        4
176
     1
 64
     7
176
     1
 65
   257
176
     1
 75
     1
176
     1
175
     1
176
     1
 42
1.0
176
     1
 92
        8
176
     1
 66
     7
176
     1
 43
1.0
176
     1
 76
     1
176
     1
 77
     6
176
     1
 78
     2
176
     1
 67
     7
176
     1
 79
     5
176
     1
170
     0
176
     1
171
     0
176
     1
290
     0
176
     1
 93
        1
176
     1
 44
50.0
176
     1
173
     0
176
     1
1001
ACAD
1000
AcDbSavedByObjectVersion
1070
     0
  0
VISUALSTYLE
  5
319F
102
{ACAD_XDICTIONARY
360
22100
102
}
102
{ACAD_REACTORS
330
318F
102
}
330
318F
100
AcDbVisualStyle
  2

 70
    16
177
     2
291
     1
 71
     2
176
     1
 72
     2
176
     1
 73
     3
176
     1
 90
        0
176
     1
 40
0.6
176
     1
 41
30.0
176
     1
 63
     8
176
     1
 74
     1
176
     1
 91
        4
176
     1
 64
     7
176
     1
 65
   257
176
     1
 75
     1
176
     1
175
     1
176
     1
 42
1.0
176
     1
 92
        8
176
     1
 66
     8
176
     1
 43
1.0
176
     1
 76
     1
176
     1
 77
     6
176
     1
 78
     2
176
     1
 67
     7
176
     1
 79
     5
176
     1
170
     0
176
     1
171
     0
176
     1
290
     0
176
     1
 93
        1
176
     1
 44
0.0
176
     1
173
     0
176
     1
1001
ACAD
1000
AcDbSavedByObjectVersion
1070
     0
  0
VISUALSTYLE
  5
3198
102
{ACAD_XDICTIONARY
360
220F2
102
}
102
{ACAD_REACTORS
330
318F
102
}
330
318F
100
AcDbVisualStyle
  2

 70
     9
177
     2
291
     0
 71
     3
176
     1
 72
     2
176
     1
 73
     0
176
     1
 90
        0
176
     1
 40
0.6
176
     1
 41
30.0
176
     1
 63
     7
176
     1
 74
     2
176
     1
 91
        2
176
     1
 64
     7
176
     1
 65
   257
176
     1
 75
     1
176
     1
175
     1
176
     1
 42
40.0
176
     1
 92
        8
176
     1
 66
     7
176
     1
 43
1.0
176
     1
 76
     1
176
     1
 77
     6
176
     1
 78
     2
176
     1
 67
     7
176
     1
 79
     3
176
     1
170
     0
176
     1
171
     0
176
     1
290
     0
176
     1
 93
        1
176
     1
 44
0.0
176
     1
173
     0
176
     1
1001
ACAD
1000
AcDbSavedByObjectVersion
1070
     0
  0
VISUALSTYLE
  5
319A
102
{ACAD_XDICTIONARY
360
220F6
102
}
102
{ACAD_REACTORS
330
318F
102
}
330
318F
100
AcDbVisualStyle
  2

 70
    11
177
     2
291
     1
 71
     2
176
     1
 72
     2
176
     1
 73
     0
176
     1
 90
        0
176
     1
 40
0.6
176
     1
 41
30.0
176
     1
 63
     7
176
     1
 74
     1
176
     1
 91
        4
176
     1
 64
     7
176
     1
 65
   257
176
     1
 75
     1
176
     1
175
     1
176
     1
 42
1.0
176
     1
 92
        8
176
     1
 66
     7
176
     1
 43
1.0
176
     1
 76
     1
176
     1
 77
     6
176
     1
 78
     2
176
     1
 67
     7
176
     1
 79
     5
176
     1
170
     0
176
     1
171
     0
176
     1
290
     0
176
     1
 93
        1
176
     1
 44
-50.0
176
     1
173
     0
176
     1
1001
ACAD
1000
AcDbSavedByObjectVersion
1070
     0
  0
VISUALSTYLE
  5
1B2EC
102
{ACAD_XDICTIONARY
360
22114
102
}
102
{ACAD_REACTORS
330
318F
102
}
330
318F
100
AcDbVisualStyle
  2

 70
    22
177
     2
291
     1
 71
     2
176
     0
 72
     2
176
     0
 73
     0
176
     0
 90
        0
176
     0
 40
0.6
176
     0
 41
30.0
176
     0
 63
     7
176
     0
 74
     1
176
     0
 91
        4
176
     0
 64
     7
176
     0
 65
   257
176
     0
 75
     1
176
     0
175
     1
176
     0
 42
1.0
176
     0
 92
        8
176
     2
 66
     7
176
     0
 43
1.0
176
     0
 76
     1
176
     0
 77
     6
176
     0
 78
     2
176
     0
 67
     7
176
     0
 79
     5
176
     0
170
     0
176
     0
171
     0
176
     0
290
     0
176
     0
 93
        1
176
     0
 44
0.0
176
     0
173
     0
176
     0
1001
ACAD
1000
AcDbSavedByObjectVersion
1070
     0
  0
VISUALSTYLE
  5
319E
102
{ACAD_XDICTIONARY
360
220FE
102
}
102
{ACAD_REACTORS
330
318F
102
}
330
318F
100
AcDbVisualStyle
  2

 70
    15
177
     2
291
     1
 71
     2
176
     1
 72
     2
176
     1
 73
     0
176
     1
 90
        0
176
     1
 40
0.6
176
     1
 41
30.0
176
     1
 63
     7
176
     1
 74
     1
176
     1
 91
        4
176
     1
 64
     7
176
     1
 65
   257
176
     1
 75
     1
176
     1
175
     1
176
     1
 42
1.0
176
     1
 92
        8
176
     1
 66
     7
176
     1
 43
1.0
176
     1
 76
     1
176
     1
 77
     6
176
     1
 78
     2
176
     1
 67
     7
176
     1
 79
     5
176
     1
170
     0
176
     1
171
     0
176
     1
290
     0
176
     1
 93
        1
176
     1
 44
0.0
176
     1
173
     0
176
     1
1001
ACAD
1000
AcDbSavedByObjectVersion
1070
     0
  0
VISUALSTYLE
  5
3190
102
{ACAD_XDICTIONARY
360
220E2
102
}
102
{ACAD_REACTORS
330
318F
102
}
330
318F
100
AcDbVisualStyle
  2

 70
     0
177
     2
291
     1
 71
     2
176
     1
 72
     1
176
     1
 73
     1
176
     1
 90
        2
176
     1
 40
0.6
176
     1
 41
30.0
176
     1
 63
     7
176
     1
 74
     0
176
     1
 91
        4
176
     1
 64
     7
176
     1
 65
   257
176
     1
 75
     1
176
     1
175
     1
176
     1
 42
1.0
176
     1
 92
        8
176
     1
 66
     7
176
     1
 43
1.0
176
     1
 76
     1
176
     1
 77
     6
176
     1
 78
     2
176
     1
 67
     7
176
     1
 79
     5
176
     1
170
     0
176
     1
171
     0
176
     1
290
     0
176
     1
 93
       13
176
     1
 44
0.0
176
     1
173
     0
176
     1
1001
ACAD
1000
AcDbSavedByObjectVersion
1070
     0
  0
VISUALSTYLE
  5
3191
102
{ACAD_XDICTIONARY
360
220E4
102
}
102
{ACAD_REACTORS
330
318F
102
}
330
318F
100
AcDbVisualStyle
  2

 70
     1
177
     2
291
     1
 71
     2
176
     1
 72
     1
176
     1
 73
     1
176
     1
 90
        2
176
     1
 40
0.6
176
     1
 41
30.0
176
     1
 63
     7
176
     1
 74
     1
176
     1
 91
        4
176
     1
 64
     7
176
     1
 65
   257
176
     1
 75
     1
176
     1
175
     1
176
     1
 42
1.0
176
     1
 92
        0
176
     1
 66
   257
176
     1
 43
1.0
176
     1
 76
     1
176
     1
 77
     6
176
     1
 78
     2
176
     1
 67
     7
176
     1
 79
     5
176
     1
170
     0
176
     1
171
     0
176
     1
290
     0
176
     1
 93
       13
176
     1
 44
0.0
176
     1
173
     0
176
     1
1001
ACAD
1000
AcDbSavedByObjectVersion
1070
     0
  0
VISUALSTYLE
  5
3192
102
{ACAD_XDICTIONARY
360
220E6
102
}
102
{ACAD_REACTORS
330
318F
102
}
330
318F
100
AcDbVisualStyle
  2

 70
     2
177
     2
291
     1
 71
     2
176
     1
 72
     2
176
     1
 73
     1
176
     1
 90
        2
176
     1
 40
0.6
176
     1
 41
30.0
176
     1
 63
     7
176
     1
 74
     0
176
     1
 91
        4
176
     1
 64
     7
176
     1
 65
   257
176
     1
 75
     1
176
     1
175
     1
176
     1
 42
1.0
176
     1
 92
        0
176
     1
 66
     7
176
     1
 43
1.0
176
     1
 76
     1
176
     1
 77
     6
176
     1
 78
     2
176
     1
 67
     7
176
     1
 79
     5
176
     1
170
     0
176
     1
171
     0
176
     1
290
     0
176
     1
 93
       13
176
     1
 44
0.0
176
     1
173
     0
176
     1
1001
ACAD
1000
AcDbSavedByObjectVersion
1070
     0
  0
VISUALSTYLE
  5
3193
102
{ACAD_XDICTIONARY
360
220E8
102
}
102
{ACAD_REACTORS
330
318F
102
}
330
318F
100
AcDbVisualStyle
  2

 70
     3
177
     2
291
     1
 71
     2
176
     1
 72
     2
176
     1
 73
     1
176
     1
 90
        2
176
     1
 40
0.6
176
     1
 41
30.0
176
     1
 63
     7
176
     1
 74
     1
176
     1
 91
        4
176
     1
 64
     7
176
     1
 65
   257
176
     1
 75
     1
176
     1
175
     1
176
     1
 42
1.0
176
     1
 92
        0
176
     1
 66
   257
176
     1
 43
1.0
176
     1
 76
     1
176
     1
 77
     6
176
     1
 78
     2
176
     1
 67
     7
176
     1
 79
     5
176
     1
170
     0
176
     1
171
     0
176
     1
290
     0
176
     1
 93
       13
176
     1
 44
0.0
176
     1
173
     0
176
     1
1001
ACAD
1000
AcDbSavedByObjectVersion
1070
     0
  0
VISUALSTYLE
  5
1B2E4
102
{ACAD_XDICTIONARY
360
22104
102
}
102
{ACAD_REACTORS
330
318F
102
}
330
318F
100
AcDbVisualStyle
  2

 70
     6
177
     2
291
     0
 71
     1
176
     1
 72
     2
176
     1
 73
     2
176
     1
 90
        0
176
     1
 40
0.6
176
     1
 41
30.0
176
     1
 63
     7
176
     1
 74
     2
176
     1
 91
        2
176
     1
 64
     7
176
     1
 65
   257
176
     1
 75
     2
176
     1
175
     1
176
     1
 42
40.0
176
     1
 92
        0
176
     1
 66
   257
176
     1
 43
1.0
176
     1
 76
     1
176
     1
 77
     6
176
     1
 78
     2
176
     1
 67
     7
176
     1
 79
     3
176
     1
170
     0
176
     1
171
     0
176
     1
290
     0
176
     1
 93
        1
176
     1
 44
0.0
176
     1
173
     0
176
     1
1001
ACAD
1000
AcDbSavedByObjectVersion
1070
     0
  0
VISUALSTYLE
  5
1B2EA
102
{ACAD_XDICTIONARY
360
22110
102
}
102
{ACAD_REACTORS
330
318F
102
}
330
318F
100
AcDbVisualStyle
  2

 70
    20
177
     2
291
     1
 71
     2
176
     0
 72
     2
176
     0
 73
     0
176
     0
 90
        0
176
     0
 40
0.6
176
     0
 41
30.0
176
     0
 63
     7
176
     0
 74
     1
176
     0
 91
        4
176
     0
 64
     7
176
     0
 65
   257
176
     0
 75
     1
176
     0
175
     1
176
     0
 42
1.0
176
     0
 92
       10
176
     2
 66
     7
176
     0
 43
1.0
176
     0
 76
     1
176
     0
 77
     6
176
     0
 78
     2
176
     0
 67
     7
176
     0
 79
     5
176
     0
170
     0
176
     0
171
     0
176
     0
290
     0
176
     0
 93
        1
176
     0
 44
0.0
176
     0
173
     0
176
     0
1001
ACAD
1000
AcDbSavedByObjectVersion
1070
     0
  0
VISUALSTYLE
  5
319D
102
{ACAD_XDICTIONARY
360
220FC
102
}
102
{ACAD_REACTORS
330
318F
102
}
330
318F
100
AcDbVisualStyle
  2

 70
    14
177
     2
291
     1
 71
     2
176
     1
 72
     2
176
     1
 73
     0
176
     1
 90
        0
176
     1
 40
0.6
176
     1
 41
30.0
176
     1
 63
     7
176
     1
 74
     1
176
     1
 91
        4
176
     1
 64
     7
176
     1
 65
   257
176
     1
 75
     7
176
     1
175
     7
176
     1
 42
1.0
176
     1
 92
        8
176
     1
 66
     7
176
     1
 43
1.0
176
     1
 76
     1
176
     1
 77
     6
176
     1
 78
     2
176
     1
 67
     7
176
     1
 79
     5
176
     1
170
     0
176
     1
171
     0
176
     1
290
     0
176
     1
 93
        1
176
     1
 44
0.0
176
     1
173
     0
176
     1
1001
ACAD
1000
AcDbSavedByObjectVersion
1070
     0
  0
VISUALSTYLE
  5
1B2EB
102
{ACAD_XDICTIONARY
360
22112
102
}
102
{ACAD_REACTORS
330
318F
102
}
330
318F
100
AcDbVisualStyle
  2

 70
    21
177
     2
291
     1
 71
     2
176
     0
 72
     2
176
     0
 73
     0
176
     0
 90
        0
176
     0
 40
0.6
176
     0
 41
30.0
176
     0
 63
     7
176
     0
 74
     1
176
     0
 91
        4
176
     0
 64
     7
176
     0
 65
   257
176
     0
 75
     1
176
     0
175
     1
176
     0
 42
1.0
176
     0
 92
        9
176
     2
 66
     7
176
     0
 43
1.0
176
     0
 76
     1
176
     0
 77
     6
176
     0
 78
     2
176
     0
 67
     7
176
     0
 79
     5
176
     0
170
     0
176
     0
171
     0
176
     0
290
     0
176
     0
 93
        1
176
     0
 44
0.0
176
     0
173
     0
176
     0
1001
ACAD
1000
AcDbSavedByObjectVersion
1070
     0
  0
VISUALSTYLE
  5
3199
102
{ACAD_XDICTIONARY
360
220F4
102
}
102
{ACAD_REACTORS
330
318F
102
}
330
318F
100
AcDbVisualStyle
  2

 70
     8
177
     2
291
     0
 71
     2
176
     1
 72
     2
176
     1
 73
     0
176
     1
 90
        0
176
     1
 40
0.6
176
     1
 41
30.0
176
     1
 63
     7
176
     1
 74
     1
176
     1
 91
        0
176
     1
 64
     7
176
     1
 65
   257
176
     1
 75
     1
176
     1
175
     1
176
     1
 42
1.0
176
     1
 92
        8
176
     1
 66
     8
176
     1
 43
1.0
176
     1
 76
     1
176
     1
 77
     6
176
     1
 78
     2
176
     1
 67
     7
176
     1
 79
     5
176
     1
170
     0
176
     1
171
     0
176
     1
290
     0
176
     1
 93
       13
176
     1
 44
0.0
176
     1
173
     0
176
     1
1001
ACAD
1000
AcDbSavedByObjectVersion
1070
     0
  0
VISUALSTYLE
  5
1B2E9
102
{ACAD_XDICTIONARY
360
2210E
102
}
102
{ACAD_REACTORS
330
318F
102
}
330
318F
100
AcDbVisualStyle
  2

 70
    27
177
     2
291
     0
 71
     2
176
     1
 72
     2
176
     1
 73
     1
176
     1
 90
        2
176
     1
 40
0.6
176
     1
 41
30.0
176
     1
 63
     7
176
     1
 74
     0
176
     1
 91
        4
176
     1
 64
     7
176
     1
 65
   257
176
     1
 75
     1
176
     1
175
     1
176
     1
 42
1.0
176
     1
 92
        8
176
     1
 66
   257
176
     1
 43
1.0
176
     1
 76
     1
176
     1
 77
     6
176
     1
 78
     2
176
     1
 67
     8
176
     1
 79
     3
176
     1
170
     0
176
     1
171
     0
176
     1
290
     0
176
     1
 93
        5
176
     1
 44
0.0
176
     1
173
     0
176
     1
1001
ACAD
1000
AcDbSavedByObjectVersion
1070
     0
  0
VISUALSTYLE
  5
1B2E8
102
{ACAD_XDICTIONARY
360
2210C
102
}
102
{ACAD_REACTORS
330
318F
102
}
330
318F
100
AcDbVisualStyle
  2

 70
    26
177
     2
291
     0
 71
     2
176
     1
 72
     2
176
     1
 73
     1
176
     1
 90
        2
176
     1
 40
0.6
176
     1
 41
30.0
176
     1
 63
     7
176
     1
 74
     1
176
     1
 91
       10
176
     1
 64
     7
176
     1
 65
   257
176
     1
 75
     2
176
     1
175
     1
176
     1
 42
1.0
176
     1
 92
        8
176
     1
 66
   257
176
     1
 43
1.0
176
     1
 76
     1
176
     1
 77
     6
176
     1
 78
     2
176
     1
 67
     7
176
     1
 79
     3
176
     1
170
     0
176
     1
171
     0
176
     1
290
     0
176
     1
 93
        5
176
     1
 44
0.0
176
     1
173
     0
176
     1
1001
ACAD
1000
AcDbSavedByObjectVersion
1070
     0
  0
VISUALSTYLE
  5
1B2E5
102
{ACAD_XDICTIONARY
360
22106
102
}
102
{ACAD_REACTORS
330
318F
102
}
330
318F
100
AcDbVisualStyle
  2

 70
    23
177
     2
291
     0
 71
     2
176
     1
 72
     2
176
     1
 73
     3
176
     1
 90
        0
176
     1
 40
0.6
176
     1
 41
30.0
176
     1
 63
     7
176
     1
 74
     2
176
     1
 91
        2
176
     1
 64
     7
176
     1
 65
     7
176
     1
 75
     1
176
     1
175
     1
176
     1
 42
40.0
176
     1
 92
        8
176
     1
 66
     7
176
     1
 43
1.0
176
     1
 76
     1
176
     1
 77
     6
176
     1
 78
     2
176
     1
 67
     7
176
     1
 79
     3
176
     1
170
     0
176
     1
171
     0
176
     1
290
     0
176
     1
 93
        1
176
     1
 44
0.0
176
     1
173
     0
176
     1
1001
ACAD
1000
AcDbSavedByObjectVersion
1070
     0
  0
VISUALSTYLE
  5
1B2E6
102
{ACAD_XDICTIONARY
360
22108
102
}
102
{ACAD_REACTORS
330
318F
102
}
330
318F
100
AcDbVisualStyle
  2

 70
    24
177
     2
291
     0
 71
     1
176
     1
 72
     2
176
     1
 73
     2
176
     1
 90
        0
176
     1
 40
0.6
176
     1
 41
30.0
176
     1
 63
     7
176
     1
 74
     2
176
     1
 91
        2
176
     1
 64
     7
176
     1
 65
     7
176
     1
 75
     1
176
     1
175
     1
176
     1
 42
40.0
176
     1
 92
       11
176
     1
 66
     7
176
     1
 43
1.0
176
     1
 76
     1
176
     1
 77
     6
176
     1
 78
     2
176
     1
 67
     7
176
     1
 79
     6
176
     1
170
     0
176
     1
171
     0
176
     1
290
     0
176
     1
 93
        1
176
     1
 44
0.0
176
     1
173
     0
176
     1
1001
ACAD
1000
AcDbSavedByObjectVersion
1070
     0
  0
VISUALSTYLE
  5
319C
102
{ACAD_XDICTIONARY
360
220FA
102
}
102
{ACAD_REACTORS
330
318F
102
}
330
318F
100
AcDbVisualStyle
  2

 70
    13
177
     2
291
     1
 71
     2
176
     1
 72
     2
176
     1
 73
     0
176
     1
 90
        0
176
     1
 40
0.6
176
     1
 41
30.0
176
     1
 63
     7
176
     1
 74
     1
176
     1
 91
        4
176
     1
 64
     7
176
     1
 65
   257
176
     1
 75
     1
176
     1
175
     1
176
     1
 42
1.0
176
     1
 92
       12
176
     1
 66
     7
176
     1
 43
1.0
176
     1
 76
     1
176
     1
 77
     6
176
     1
 78
     2
176
     1
 67
     7
176
     1
 79
     5
176
     1
170
     0
176
     1
171
     0
176
     1
290
     0
176
     1
 93
        1
176
     1
 44
0.0
176
     1
173
     0
176
     1
1001
ACAD
1000
AcDbSavedByObjectVersion
1070
     0
  0
VISUALSTYLE
  5
1B2E3
102
{ACAD_XDICTIONARY
360
22102
102
}
102
{ACAD_REACTORS
330
318F
102
}
330
318F
100
AcDbVisualStyle
  2

 70
     5
177
     2
291
     0
 71
     0
176
     1
 72
     2
176
     1
 73
     0
176
     1
 90
        0
176
     1
 40
0.6
176
     1
 41
30.0
176
     1
 63
     7
176
     1
 74
     1
176
     1
 91
        4
176
     1
 64
     7
176
     1
 65
   257
176
     1
 75
     1
176
     1
175
     1
176
     1
 42
1.0
176
     1
 92
        0
176
     1
 66
   257
176
     1
 43
1.0
176
     1
 76
     1
176
     1
 77
     6
176
     1
 78
     2
176
     1
 67
     7
176
     1
 79
     3
176
     1
170
     0
176
     1
171
     0
176
     1
290
     0
176
     1
 93
        1
176
     1
 44
0.0
176
     1
173
     0
176
     1
1001
ACAD
1000
AcDbSavedByObjectVersion
1070
     0
  0
VISUALSTYLE
  5
1B2E7
102
{ACAD_XDICTIONARY
360
2210A
102
}
102
{ACAD_REACTORS
330
318F
102
}
330
318F
100
AcDbVisualStyle
  2

 70
    25
177
     2
291
     0
 71
     2
176
     1
 72
     2
176
     1
 73
     1
176
     1
 90
        1
176
     1
 40
0.5
176
     1
 41
30.0
176
     1
 63
     7
176
     1
 74
     1
176
     1
 91
        0
176
     1
 64
     7
176
     1
 65
   257
176
     1
 75
     1
176
     1
175
     1
176
     1
 42
1.0
176
     1
 92
        8
176
     1
 66
     7
176
     1
 43
1.0
176
     1
 76
     1
176
     1
 77
     6
176
     1
 78
     2
176
     1
 67
     7
176
     1
 79
     3
176
     1
170
     0
176
     1
171
     0
176
     1
290
     0
176
     1
 93
       13
176
     1
 44
0.0
176
     1
173
     0
176
     1
1001
ACAD
1000
AcDbSavedByObjectVersion
1070
     0
  0
DICTIONARYVAR
  5
1B222
102
{ACAD_REACTORS
330
33A3
102
}
330
33A3
100
DictionaryVariables
280
     0
  1
1:1
  0
DICTIONARYVAR
  5
1B30F
102
{ACAD_REACTORS
330
33A3
102
}
330
33A3
100
DictionaryVariables
280
     0
  1
STANDARD
  0
DICTIONARYVAR
  5
33A4
102
{ACAD_REACTORS
330
33A3
102
}
330
33A3
100
DictionaryVariables
280
     0
  1
STANDARD
  0
DICTIONARYVAR
  5
1B310
102
{ACAD_REACTORS
330
33A3
102
}
330
33A3
100
DictionaryVariables
280
     0
  1
Metric50
  0
DICTIONARYVAR
  5
1B311
102
{ACAD_REACTORS
330
33A3
102
}
330
33A3
100
DictionaryVariables
280
     0
  1
Metric50
  0
DICTIONARYVAR
  5
9BE8
102
{ACAD_REACTORS
330
33A3
102
}
330
33A3
100
DictionaryVariables
280
     0
  1
1
  0
DICTIONARYVAR
  5
9BE7
102
{ACAD_REACTORS
330
33A3
102
}
330
33A3
100
DictionaryVariables
280
     0
  1
0
  0
DICTIONARYVAR
  5
20993
102
{ACAD_REACTORS
330
33A3
102
}
330
33A3
100
DictionaryVariables
280
     0
  1
1
  0
DICTIONARYVAR
  5
20994
102
{ACAD_REACTORS
330
33A3
102
}
330
33A3
100
DictionaryVariables
280
     0
  1
15
  0
DICTIONARYVAR
  5
20992
102
{ACAD_REACTORS
330
33A3
102
}
330
33A3
100
DictionaryVariables
280
     0
  1
0
  0
DICTIONARYVAR
  5
20991
102
{ACAD_REACTORS
330
33A3
102
}
330
33A3
100
DictionaryVariables
280
     0
  1
0
  0
DICTIONARYVAR
  5
9BE6
102
{ACAD_REACTORS
330
33A3
102
}
330
33A3
100
DictionaryVariables
280
     0
  1
127
  0
DICTIONARY
  5
2211C
330
20CB3
100
AcDbDictionary
280
     1
281
     1
  3
ACAD_XREC_ROUNDTRIP
360
2211D
  0
DICTIONARY
  5
22118
330
1B2F1
100
AcDbDictionary
280
     1
281
     1
  3
ACAD_XREC_ROUNDTRIP
360
22119
  0
DICTIONARY
  5
1B22B
330
318D
100
AcDbDictionary
280
     1
281
     1
  3
ACAD_XREC_ROUNDTRIP
360
1B22C
  0
DICTIONARY
  5
1B22D
330
318C
100
AcDbDictionary
280
     1
281
     1
  3
ACAD_XREC_ROUNDTRIP
360
1B22E
  0
DICTIONARY
  5
1B22F
330
318E
100
AcDbDictionary
280
     1
281
     1
  3
ACAD_XREC_ROUNDTRIP
360
1B230
  0
DICTIONARY
  5
2211A
330
20CB1
100
AcDbDictionary
280
     1
281
     1
  3
ACAD_XREC_ROUNDTRIP
360
2211B
  0
DICTIONARY
  5
22116
330
1B2EF
100
AcDbDictionary
280
     1
281
     1
  3
ACAD_XREC_ROUNDTRIP
360
22117
  0
DICTIONARY
  5
1B314
330
31A2
100
AcDbDictionary
280
     1
281
     1
  3
ACAD_ROUNDTRIP_2008_TABLESTYLE_CELLSTYLEMAP
360
220E0
  0
DICTIONARY
  5
220EC
330
3195
100
AcDbDictionary
280
     1
281
     1
  3
ACAD_XREC_ROUNDTRIP
360
220ED
  0
DICTIONARY
  5
220F0
330
3197
100
AcDbDictionary
280
     1
281
     1
  3
ACAD_XREC_ROUNDTRIP
360
220F1
  0
DICTIONARY
  5
220EE
330
3196
100
AcDbDictionary
280
     1
281
     1
  3
ACAD_XREC_ROUNDTRIP
360
220EF
  0
DICTIONARY
  5
220EA
330
3194
100
AcDbDictionary
280
     1
281
     1
  3
ACAD_XREC_ROUNDTRIP
360
220EB
  0
DICTIONARY
  5
220F8
330
319B
100
AcDbDictionary
280
     1
281
     1
  3
ACAD_XREC_ROUNDTRIP
360
220F9
  0
DICTIONARY
  5
22100
330
319F
100
AcDbDictionary
280
     1
281
     1
  3
ACAD_XREC_ROUNDTRIP
360
22101
  0
DICTIONARY
  5
220F2
330
3198
100
AcDbDictionary
280
     1
281
     1
  3
ACAD_XREC_ROUNDTRIP
360
220F3
  0
DICTIONARY
  5
220F6
330
319A
100
AcDbDictionary
280
     1
281
     1
  3
ACAD_XREC_ROUNDTRIP
360
220F7
  0
DICTIONARY
  5
22114
330
1B2EC
100
AcDbDictionary
280
     1
281
     1
  3
ACAD_XREC_ROUNDTRIP
360
22115
  0
DICTIONARY
  5
220FE
330
319E
100
AcDbDictionary
280
     1
281
     1
  3
ACAD_XREC_ROUNDTRIP
360
220FF
  0
DICTIONARY
  5
220E2
330
3190
100
AcDbDictionary
280
     1
281
     1
  3
ACAD_XREC_ROUNDTRIP
360
220E3
  0
DICTIONARY
  5
220E4
330
3191
100
AcDbDictionary
280
     1
281
     1
  3
ACAD_XREC_ROUNDTRIP
360
220E5
  0
DICTIONARY
  5
220E6
330
3192
100
AcDbDictionary
280
     1
281
     1
  3
ACAD_XREC_ROUNDTRIP
360
220E7
  0
DICTIONARY
  5
220E8
330
3193
100
AcDbDictionary
280
     1
281
     1
  3
ACAD_XREC_ROUNDTRIP
360
220E9
  0
DICTIONARY
  5
22104
330
1B2E4
100
AcDbDictionary
280
     1
281
     1
  3
ACAD_XREC_ROUNDTRIP
360
22105
  0
DICTIONARY
  5
22110
330
1B2EA
100
AcDbDictionary
280
     1
281
     1
  3
ACAD_XREC_ROUNDTRIP
360
22111
  0
DICTIONARY
  5
220FC
330
319D
100
AcDbDictionary
280
     1
281
     1
  3
ACAD_XREC_ROUNDTRIP
360
220FD
  0
DICTIONARY
  5
22112
330
1B2EB
100
AcDbDictionary
280
     1
281
     1
  3
ACAD_XREC_ROUNDTRIP
360
22113
  0
DICTIONARY
  5
220F4
330
3199
100
AcDbDictionary
280
     1
281
     1
  3
ACAD_XREC_ROUNDTRIP
360
220F5
  0
DICTIONARY
  5
2210E
330
1B2E9
100
AcDbDictionary
280
     1
281
     1
  3
ACAD_XREC_ROUNDTRIP
360
2210F
  0
DICTIONARY
  5
2210C
330
1B2E8
100
AcDbDictionary
280
     1
281
     1
  3
ACAD_XREC_ROUNDTRIP
360
2210D
  0
DICTIONARY
  5
22106
330
1B2E5
100
AcDbDictionary
280
     1
281
     1
  3
ACAD_XREC_ROUNDTRIP
360
22107
  0
DICTIONARY
  5
22108
330
1B2E6
100
AcDbDictionary
280
     1
281
     1
  3
ACAD_XREC_ROUNDTRIP
360
22109
  0
DICTIONARY
  5
220FA
330
319C
100
AcDbDictionary
280
     1
281
     1
  3
ACAD_XREC_ROUNDTRIP
360
220FB
  0
DICTIONARY
  5
22102
330
1B2E3
100
AcDbDictionary
280
     1
281
     1
  3
ACAD_XREC_ROUNDTRIP
360
22103
  0
DICTIONARY
  5
2210A
330
1B2E7
100
AcDbDictionary
280
     1
281
     1
  3
ACAD_XREC_ROUNDTRIP
360
2210B
  0
XRECORD
  5
2211D
102
{ACAD_REACTORS
330
2211C
102
}
330
2211C
100
AcDbXrecord
280
     1
102
DISPLAYNAME
  1
Imperial24
102
FLAGS
 90
        0
  0
XRECORD
  5
22119
102
{ACAD_REACTORS
330
22118
102
}
330
22118
100
AcDbXrecord
280
     1
102
DISPLAYNAME
  1
Metric50
102
FLAGS
 90
        0
  0
XRECORD
  5
1B22C
102
{ACAD_REACTORS
330
1B22B
102
}
330
1B22B
100
AcDbXrecord
280
     1
102
MATERIAL
148
0.0
149
0.0
149
0.0
 93
        0
 94
      127
282
     0
 72
     1
 77
     1
171
     1
175
     1
179
     1
273
     0
  0
XRECORD
  5
1B22E
102
{ACAD_REACTORS
330
1B22D
102
}
330
1B22D
100
AcDbXrecord
280
     1
102
MATERIAL
148
0.0
149
0.0
149
0.0
 93
        0
 94
      127
282
     0
 72
     1
 77
     1
171
     1
175
     1
179
     1
273
     0
  0
XRECORD
  5
1B230
102
{ACAD_REACTORS
330
1B22F
102
}
330
1B22F
100
AcDbXrecord
280
     1
102
MATERIAL
148
0.0
149
0.0
149
0.0
 93
        0
 94
      127
282
     0
 72
     1
 77
     1
171
     1
175
     1
179
     1
273
     0
  0
XRECORD
  5
2211B
102
{ACAD_REACTORS
330
2211A
102
}
330
2211A
100
AcDbXrecord
280
     1
102
DISPLAYNAME
  1
Imperial24
102
FLAGS
 90
        0
  0
XRECORD
  5
22117
102
{ACAD_REACTORS
330
22116
102
}
330
22116
100
AcDbXrecord
280
     1
102
DISPLAYNAME
  1
Metric50
102
FLAGS
 90
        0
  0
CELLSTYLEMAP
  5
220E0
102
{ACAD_REACTORS
330
1B314
102
}
330
1B314
100
AcDbCellStyleMap
 90
        3
300
CELLSTYLE
  1
TABLEFORMAT_BEGIN
 90
        5
170
     1
 91
        0
 92
    32768
 62
   257
 93
        1
300
CONTENTFORMAT
  1
CONTENTFORMAT_BEGIN
 90
        0
 91
        0
 92
        4
 93
        0
300

 40
0.0
140
1.0
 94
        5
 62
     0
340
11
144
6.0
309
CONTENTFORMAT_END
171
     1
301
MARGIN
  1
CELLMARGIN_BEGIN
 40
1.5
 40
1.5
 40
1.5
 40
1.5
 40
0.18
 40
0.18
309
CELLMARGIN_END
 94
        6
 95
        1
302
GRIDFORMAT
  1
GRIDFORMAT_BEGIN
 90
        0
 91
        1
 62
     0
 92
       -2
340
0
 93
        0
 40
0.045
309
GRIDFORMAT_END
 95
        2
302
GRIDFORMAT
  1
GRIDFORMAT_BEGIN
 90
        0
 91
        1
 62
     0
 92
       -2
340
0
 93
        0
 40
0.045
309
GRIDFORMAT_END
 95
        4
302
GRIDFORMAT
  1
GRIDFORMAT_BEGIN
 90
        0
 91
        1
 62
     0
 92
       -2
340
0
 93
        0
 40
0.045
309
GRIDFORMAT_END
 95
        8
302
GRIDFORMAT
  1
GRIDFORMAT_BEGIN
 90
        0
 91
        1
 62
     0
 92
       -2
340
0
 93
        0
 40
0.045
309
GRIDFORMAT_END
 95
       16
302
GRIDFORMAT
  1
GRIDFORMAT_BEGIN
 90
        0
 91
        1
 62
     0
 92
       -2
340
0
 93
        0
 40
0.045
309
GRIDFORMAT_END
 95
       32
302
GRIDFORMAT
  1
GRIDFORMAT_BEGIN
 90
        0
 91
        1
 62
     0
 92
       -2
340
0
 93
        0
 40
0.045
309
GRIDFORMAT_END
309
TABLEFORMAT_END
  1
CELLSTYLE_BEGIN
 90
        1
 91
        1
300
_TITLE
309
CELLSTYLE_END
300
CELLSTYLE
  1
TABLEFORMAT_BEGIN
 90
        5
170
     1
 91
        0
 92
        0
 62
   257
 93
        1
300
CONTENTFORMAT
  1
CONTENTFORMAT_BEGIN
 90
        0
 91
        0
 92
        4
 93
        0
300

 40
0.0
140
1.0
 94
        5
 62
     0
340
11
144
4.5
309
CONTENTFORMAT_END
171
     1
301
MARGIN
  1
CELLMARGIN_BEGIN
 40
1.5
 40
1.5
 40
1.5
 40
1.5
 40
0.18
 40
0.18
309
CELLMARGIN_END
 94
        6
 95
        1
302
GRIDFORMAT
  1
GRIDFORMAT_BEGIN
 90
        0
 91
        1
 62
     0
 92
       -2
340
0
 93
        0
 40
0.045
309
GRIDFORMAT_END
 95
        2
302
GRIDFORMAT
  1
GRIDFORMAT_BEGIN
 90
        0
 91
        1
 62
     0
 92
       -2
340
0
 93
        0
 40
0.045
309
GRIDFORMAT_END
 95
        4
302
GRIDFORMAT
  1
GRIDFORMAT_BEGIN
 90
        0
 91
        1
 62
     0
 92
       -2
340
0
 93
        0
 40
0.045
309
GRIDFORMAT_END
 95
        8
302
GRIDFORMAT
  1
GRIDFORMAT_BEGIN
 90
        0
 91
        1
 62
     0
 92
       -2
340
0
 93
        0
 40
0.045
309
GRIDFORMAT_END
 95
       16
302
GRIDFORMAT
  1
GRIDFORMAT_BEGIN
 90
        0
 91
        1
 62
     0
 92
       -2
340
0
 93
        0
 40
0.045
309
GRIDFORMAT_END
 95
       32
302
GRIDFORMAT
  1
GRIDFORMAT_BEGIN
 90
        0
 91
        1
 62
     0
 92
       -2
340
0
 93
        0
 40
0.045
309
GRIDFORMAT_END
309
TABLEFORMAT_END
  1
CELLSTYLE_BEGIN
 90
        2
 91
        1
300
_HEADER
309
CELLSTYLE_END
300
CELLSTYLE
  1
TABLEFORMAT_BEGIN
 90
        5
170
     1
 91
        0
 92
        0
 62
   257
 93
        1
300
CONTENTFORMAT
  1
CONTENTFORMAT_BEGIN
 90
        0
 91
        0
 92
        4
 93
        0
300

 40
0.0
140
1.0
 94
        2
 62
     0
340
11
144
4.5
309
CONTENTFORMAT_END
171
     1
301
MARGIN
  1
CELLMARGIN_BEGIN
 40
1.5
 40
1.5
 40
1.5
 40
1.5
 40
0.18
 40
0.18
309
CELLMARGIN_END
 94
        6
 95
        1
302
GRIDFORMAT
  1
GRIDFORMAT_BEGIN
 90
        0
 91
        1
 62
     0
 92
       -2
340
0
 93
        0
 40
0.045
309
GRIDFORMAT_END
 95
        2
302
GRIDFORMAT
  1
GRIDFORMAT_BEGIN
 90
        0
 91
        1
 62
     0
 92
       -2
340
0
 93
        0
 40
0.045
309
GRIDFORMAT_END
 95
        4
302
GRIDFORMAT
  1
GRIDFORMAT_BEGIN
 90
        0
 91
        1
 62
     0
 92
       -2
340
0
 93
        0
 40
0.045
309
GRIDFORMAT_END
 95
        8
302
GRIDFORMAT
  1
GRIDFORMAT_BEGIN
 90
        0
 91
        1
 62
     0
 92
       -2
340
0
 93
        0
 40
0.045
309
GRIDFORMAT_END
 95
       16
302
GRIDFORMAT
  1
GRIDFORMAT_BEGIN
 90
        0
 91
        1
 62
     0
 92
       -2
340
0
 93
        0
 40
0.045
309
GRIDFORMAT_END
 95
       32
302
GRIDFORMAT
  1
GRIDFORMAT_BEGIN
 90
        0
 91
        1
 62
     0
 92
       -2
340
0
 93
        0
 40
0.045
309
GRIDFORMAT_END
309
TABLEFORMAT_END
  1
CELLSTYLE_BEGIN
 90
        3
 91
        2
300
_DATA
309
CELLSTYLE_END
  0
XRECORD
  5
220ED
102
{ACAD_REACTORS
330
220EC
102
}
330
220EC
100
AcDbXrecord
280
     1
102
RTVSPost2010Prop28
280
     1
102
RTVSPost2010PropOp28
 70
     1
102
RTVSPost2010Prop29
280
     1
102
RTVSPost2010PropOp29
 70
     1
102
RTVSPost2010Prop30
280
     0
102
RTVSPost2010PropOp30
 70
     1
102
RTVSPost2010Prop31
280
     0
102
RTVSPost2010PropOp31
 70
     1
102
RTVSPost2010Prop32
280
     0
102
RTVSPost2010PropOp32
 70
     1
102
RTVSPost2010Prop33
280
     0
102
RTVSPost2010PropOp33
 70
     1
102
RTVSPost2010Prop34
280
     0
102
RTVSPost2010PropOp34
 70
     1
102
RTVSPost2010Prop35
280
     0
102
RTVSPost2010PropOp35
 70
     1
102
RTVSPost2010Prop36
280
     0
102
RTVSPost2010PropOp36
 70
     1
102
RTVSPost2010Prop37
 90
       50
102
RTVSPost2010PropOp37
 70
     1
102
RTVSPost2010Prop38
140
0.0
102
RTVSPost2010PropOp38
 70
     1
102
RTVSPost2010Prop39
140
1.0
102
RTVSPost2010PropOp39
 70
     1
102
RTVSPost2010Prop40
 90
        0
102
RTVSPost2010PropOp40
 70
     1
102
RTVSPost2010Prop41ColorIndex
 90
       18
102
RTVSPost2010Prop41ColorRGB
 90
        0
102
RTVSPost2010PropOp41
 70
     1
102
RTVSPost2010Prop42
 90
       50
102
RTVSPost2010PropOp42
 70
     1
102
RTVSPost2010Prop43
 90
        3
102
RTVSPost2010PropOp43
 70
     1
102
RTVSPost2010Prop44ColorIndex
 90
        5
102
RTVSPost2010Prop44ColorRGB
 90
      255
102
RTVSPost2010PropOp44
 70
     1
102
RTVSPost2010Prop45
280
     0
102
RTVSPost2010PropOp45
 70
     1
102
RTVSPost2010Prop46
 90
       50
102
RTVSPost2010PropOp46
 70
     1
102
RTVSPost2010Prop47
 90
       50
102
RTVSPost2010PropOp47
 70
     1
102
RTVSPost2010Prop48
 90
       50
102
RTVSPost2010PropOp48
 70
     1
102
RTVSPost2010Prop49
280
     0
102
RTVSPost2010PropOp49
 70
     1
102
RTVSPost2010Prop50
 90
       50
102
RTVSPost2010PropOp50
 70
     1
102
RTVSPost2010Prop51ColorIndex
 90
      256
102
RTVSPost2010Prop51ColorRGB
 90
-16777216
102
RTVSPost2010PropOp51
 70
     0
102
RTVSPost2010Prop52
140
1.0
102
RTVSPost2010PropOp52
 70
     0
102
RTVSPost2010Prop53
 90
        2
102
RTVSPost2010PropOp53
 70
     1
102
RTVSPost2010Prop54
  1
strokes_ogs.tif
102
RTVSPost2010PropOp54
 70
     1
102
RTVSPost2010Prop55
280
     0
102
RTVSPost2010PropOp55
 70
     1
102
RTVSPost2010Prop56
140
1.0
102
RTVSPost2010PropOp56
 70
     1
102
RTVSPost2010Prop57
140
1.0
102
RTVSPost2010PropOp57
 70
     1
  0
XRECORD
  5
220F1
102
{ACAD_REACTORS
330
220F0
102
}
330
220F0
100
AcDbXrecord
280
     1
102
RTVSPost2010Prop28
280
     0
102
RTVSPost2010PropOp28
 70
     1
102
RTVSPost2010Prop29
280
     1
102
RTVSPost2010PropOp29
 70
     1
102
RTVSPost2010Prop30
280
     1
102
RTVSPost2010PropOp30
 70
     1
102
RTVSPost2010Prop31
280
     0
102
RTVSPost2010PropOp31
 70
     1
102
RTVSPost2010Prop32
280
     0
102
RTVSPost2010PropOp32
 70
     1
102
RTVSPost2010Prop33
280
     0
102
RTVSPost2010PropOp33
 70
     1
102
RTVSPost2010Prop34
280
     0
102
RTVSPost2010PropOp34
 70
     1
102
RTVSPost2010Prop35
280
     0
102
RTVSPost2010PropOp35
 70
     1
102
RTVSPost2010Prop36
280
     0
102
RTVSPost2010PropOp36
 70
     1
102
RTVSPost2010Prop37
 90
       50
102
RTVSPost2010PropOp37
 70
     1
102
RTVSPost2010Prop38
140
0.0
102
RTVSPost2010PropOp38
 70
     1
102
RTVSPost2010Prop39
140
1.0
102
RTVSPost2010PropOp39
 70
     1
102
RTVSPost2010Prop40
 90
        0
102
RTVSPost2010PropOp40
 70
     1
102
RTVSPost2010Prop41ColorIndex
 90
       18
102
RTVSPost2010Prop41ColorRGB
 90
        0
102
RTVSPost2010PropOp41
 70
     1
102
RTVSPost2010Prop42
 90
       50
102
RTVSPost2010PropOp42
 70
     1
102
RTVSPost2010Prop43
 90
        3
102
RTVSPost2010PropOp43
 70
     1
102
RTVSPost2010Prop44ColorIndex
 90
        5
102
RTVSPost2010Prop44ColorRGB
 90
      255
102
RTVSPost2010PropOp44
 70
     1
102
RTVSPost2010Prop45
280
     0
102
RTVSPost2010PropOp45
 70
     1
102
RTVSPost2010Prop46
 90
       50
102
RTVSPost2010PropOp46
 70
     1
102
RTVSPost2010Prop47
 90
       50
102
RTVSPost2010PropOp47
 70
     1
102
RTVSPost2010Prop48
 90
       50
102
RTVSPost2010PropOp48
 70
     1
102
RTVSPost2010Prop49
280
     0
102
RTVSPost2010PropOp49
 70
     1
102
RTVSPost2010Prop50
 90
       50
102
RTVSPost2010PropOp50
 70
     1
102
RTVSPost2010Prop51ColorIndex
 90
      256
102
RTVSPost2010Prop51ColorRGB
 90
-16777216
102
RTVSPost2010PropOp51
 70
     0
102
RTVSPost2010Prop52
140
1.0
102
RTVSPost2010PropOp52
 70
     0
102
RTVSPost2010Prop53
 90
        2
102
RTVSPost2010PropOp53
 70
     1
102
RTVSPost2010Prop54
  1
strokes_ogs.tif
102
RTVSPost2010PropOp54
 70
     1
102
RTVSPost2010Prop55
280
     0
102
RTVSPost2010PropOp55
 70
     1
102
RTVSPost2010Prop56
140
1.0
102
RTVSPost2010PropOp56
 70
     1
102
RTVSPost2010Prop57
140
1.0
102
RTVSPost2010PropOp57
 70
     1
  0
XRECORD
  5
220EF
102
{ACAD_REACTORS
330
220EE
102
}
330
220EE
100
AcDbXrecord
280
     1
102
RTVSPost2010Prop28
280
     0
102
RTVSPost2010PropOp28
 70
     1
102
RTVSPost2010Prop29
280
     1
102
RTVSPost2010PropOp29
 70
     1
102
RTVSPost2010Prop30
280
     1
102
RTVSPost2010PropOp30
 70
     1
102
RTVSPost2010Prop31
280
     0
102
RTVSPost2010PropOp31
 70
     1
102
RTVSPost2010Prop32
280
     0
102
RTVSPost2010PropOp32
 70
     1
102
RTVSPost2010Prop33
280
     0
102
RTVSPost2010PropOp33
 70
     1
102
RTVSPost2010Prop34
280
     0
102
RTVSPost2010PropOp34
 70
     1
102
RTVSPost2010Prop35
280
     0
102
RTVSPost2010PropOp35
 70
     1
102
RTVSPost2010Prop36
280
     0
102
RTVSPost2010PropOp36
 70
     1
102
RTVSPost2010Prop37
 90
       50
102
RTVSPost2010PropOp37
 70
     1
102
RTVSPost2010Prop38
140
0.0
102
RTVSPost2010PropOp38
 70
     1
102
RTVSPost2010Prop39
140
1.0
102
RTVSPost2010PropOp39
 70
     1
102
RTVSPost2010Prop40
 90
        0
102
RTVSPost2010PropOp40
 70
     1
102
RTVSPost2010Prop41ColorIndex
 90
       18
102
RTVSPost2010Prop41ColorRGB
 90
        0
102
RTVSPost2010PropOp41
 70
     1
102
RTVSPost2010Prop42
 90
       50
102
RTVSPost2010PropOp42
 70
     1
102
RTVSPost2010Prop43
 90
        3
102
RTVSPost2010PropOp43
 70
     1
102
RTVSPost2010Prop44ColorIndex
 90
        5
102
RTVSPost2010Prop44ColorRGB
 90
      255
102
RTVSPost2010PropOp44
 70
     1
102
RTVSPost2010Prop45
280
     0
102
RTVSPost2010PropOp45
 70
     1
102
RTVSPost2010Prop46
 90
       50
102
RTVSPost2010PropOp46
 70
     1
102
RTVSPost2010Prop47
 90
       50
102
RTVSPost2010PropOp47
 70
     1
102
RTVSPost2010Prop48
 90
       50
102
RTVSPost2010PropOp48
 70
     1
102
RTVSPost2010Prop49
280
     0
102
RTVSPost2010PropOp49
 70
     1
102
RTVSPost2010Prop50
 90
       50
102
RTVSPost2010PropOp50
 70
     1
102
RTVSPost2010Prop51ColorIndex
 90
      256
102
RTVSPost2010Prop51ColorRGB
 90
-16777216
102
RTVSPost2010PropOp51
 70
     0
102
RTVSPost2010Prop52
140
1.0
102
RTVSPost2010PropOp52
 70
     0
102
RTVSPost2010Prop53
 90
        2
102
RTVSPost2010PropOp53
 70
     1
102
RTVSPost2010Prop54
  1
strokes_ogs.tif
102
RTVSPost2010PropOp54
 70
     1
102
RTVSPost2010Prop55
280
     0
102
RTVSPost2010PropOp55
 70
     1
102
RTVSPost2010Prop56
140
1.0
102
RTVSPost2010PropOp56
 70
     1
102
RTVSPost2010Prop57
140
1.0
102
RTVSPost2010PropOp57
 70
     1
  0
XRECORD
  5
220EB
102
{ACAD_REACTORS
330
220EA
102
}
330
220EA
100
AcDbXrecord
280
     1
102
RTVSPost2010Prop28
280
     0
102
RTVSPost2010PropOp28
 70
     1
102
RTVSPost2010Prop29
280
     1
102
RTVSPost2010PropOp29
 70
     1
102
RTVSPost2010Prop30
280
     1
102
RTVSPost2010PropOp30
 70
     1
102
RTVSPost2010Prop31
280
     0
102
RTVSPost2010PropOp31
 70
     1
102
RTVSPost2010Prop32
280
     0
102
RTVSPost2010PropOp32
 70
     1
102
RTVSPost2010Prop33
280
     0
102
RTVSPost2010PropOp33
 70
     1
102
RTVSPost2010Prop34
280
     0
102
RTVSPost2010PropOp34
 70
     1
102
RTVSPost2010Prop35
280
     0
102
RTVSPost2010PropOp35
 70
     1
102
RTVSPost2010Prop36
280
     0
102
RTVSPost2010PropOp36
 70
     1
102
RTVSPost2010Prop37
 90
       50
102
RTVSPost2010PropOp37
 70
     1
102
RTVSPost2010Prop38
140
0.0
102
RTVSPost2010PropOp38
 70
     1
102
RTVSPost2010Prop39
140
1.0
102
RTVSPost2010PropOp39
 70
     1
102
RTVSPost2010Prop40
 90
        0
102
RTVSPost2010PropOp40
 70
     1
102
RTVSPost2010Prop41ColorIndex
 90
       18
102
RTVSPost2010Prop41ColorRGB
 90
        0
102
RTVSPost2010PropOp41
 70
     1
102
RTVSPost2010Prop42
 90
       50
102
RTVSPost2010PropOp42
 70
     1
102
RTVSPost2010Prop43
 90
        3
102
RTVSPost2010PropOp43
 70
     1
102
RTVSPost2010Prop44ColorIndex
 90
        5
102
RTVSPost2010Prop44ColorRGB
 90
      255
102
RTVSPost2010PropOp44
 70
     1
102
RTVSPost2010Prop45
280
     0
102
RTVSPost2010PropOp45
 70
     1
102
RTVSPost2010Prop46
 90
       50
102
RTVSPost2010PropOp46
 70
     1
102
RTVSPost2010Prop47
 90
       50
102
RTVSPost2010PropOp47
 70
     1
102
RTVSPost2010Prop48
 90
       50
102
RTVSPost2010PropOp48
 70
     1
102
RTVSPost2010Prop49
280
     0
102
RTVSPost2010PropOp49
 70
     1
102
RTVSPost2010Prop50
 90
       50
102
RTVSPost2010PropOp50
 70
     1
102
RTVSPost2010Prop51ColorIndex
 90
      256
102
RTVSPost2010Prop51ColorRGB
 90
-16777216
102
RTVSPost2010PropOp51
 70
     0
102
RTVSPost2010Prop52
140
1.0
102
RTVSPost2010PropOp52
 70
     0
102
RTVSPost2010Prop53
 90
        2
102
RTVSPost2010PropOp53
 70
     1
102
RTVSPost2010Prop54
  1
strokes_ogs.tif
102
RTVSPost2010PropOp54
 70
     1
102
RTVSPost2010Prop55
280
     0
102
RTVSPost2010PropOp55
 70
     1
102
RTVSPost2010Prop56
140
1.0
102
RTVSPost2010PropOp56
 70
     1
102
RTVSPost2010Prop57
140
1.0
102
RTVSPost2010PropOp57
 70
     1
  0
XRECORD
  5
220F9
102
{ACAD_REACTORS
330
220F8
102
}
330
220F8
100
AcDbXrecord
280
     1
102
RTVSPost2010Prop28
280
     0
102
RTVSPost2010PropOp28
 70
     1
102
RTVSPost2010Prop29
280
     1
102
RTVSPost2010PropOp29
 70
     1
102
RTVSPost2010Prop30
280
     1
102
RTVSPost2010PropOp30
 70
     1
102
RTVSPost2010Prop31
280
     0
102
RTVSPost2010PropOp31
 70
     1
102
RTVSPost2010Prop32
280
     0
102
RTVSPost2010PropOp32
 70
     1
102
RTVSPost2010Prop33
280
     0
102
RTVSPost2010PropOp33
 70
     1
102
RTVSPost2010Prop34
280
     0
102
RTVSPost2010PropOp34
 70
     1
102
RTVSPost2010Prop35
280
     0
102
RTVSPost2010PropOp35
 70
     1
102
RTVSPost2010Prop36
280
     0
102
RTVSPost2010PropOp36
 70
     1
102
RTVSPost2010Prop37
 90
       50
102
RTVSPost2010PropOp37
 70
     1
102
RTVSPost2010Prop38
140
0.0
102
RTVSPost2010PropOp38
 70
     1
102
RTVSPost2010Prop39
140
1.0
102
RTVSPost2010PropOp39
 70
     1
102
RTVSPost2010Prop40
 90
        0
102
RTVSPost2010PropOp40
 70
     1
102
RTVSPost2010Prop41ColorIndex
 90
       18
102
RTVSPost2010Prop41ColorRGB
 90
        0
102
RTVSPost2010PropOp41
 70
     1
102
RTVSPost2010Prop42
 90
       50
102
RTVSPost2010PropOp42
 70
     1
102
RTVSPost2010Prop43
 90
        3
102
RTVSPost2010PropOp43
 70
     1
102
RTVSPost2010Prop44ColorIndex
 90
        5
102
RTVSPost2010Prop44ColorRGB
 90
      255
102
RTVSPost2010PropOp44
 70
     1
102
RTVSPost2010Prop45
280
     0
102
RTVSPost2010PropOp45
 70
     1
102
RTVSPost2010Prop46
 90
       50
102
RTVSPost2010PropOp46
 70
     1
102
RTVSPost2010Prop47
 90
       50
102
RTVSPost2010PropOp47
 70
     1
102
RTVSPost2010Prop48
 90
       50
102
RTVSPost2010PropOp48
 70
     1
102
RTVSPost2010Prop49
280
     0
102
RTVSPost2010PropOp49
 70
     1
102
RTVSPost2010Prop50
 90
       50
102
RTVSPost2010PropOp50
 70
     1
102
RTVSPost2010Prop51ColorIndex
 90
      256
102
RTVSPost2010Prop51ColorRGB
 90
-16777216
102
RTVSPost2010PropOp51
 70
     0
102
RTVSPost2010Prop52
140
1.0
102
RTVSPost2010PropOp52
 70
     0
102
RTVSPost2010Prop53
 90
        2
102
RTVSPost2010PropOp53
 70
     1
102
RTVSPost2010Prop54
  1
strokes_ogs.tif
102
RTVSPost2010PropOp54
 70
     1
102
RTVSPost2010Prop55
280
     0
102
RTVSPost2010PropOp55
 70
     1
102
RTVSPost2010Prop56
140
1.0
102
RTVSPost2010PropOp56
 70
     1
102
RTVSPost2010Prop57
140
1.0
102
RTVSPost2010PropOp57
 70
     1
  0
XRECORD
  5
22101
102
{ACAD_REACTORS
330
22100
102
}
330
22100
100
AcDbXrecord
280
     1
102
RTVSPost2010Prop28
280
     0
102
RTVSPost2010PropOp28
 70
     1
102
RTVSPost2010Prop29
280
     1
102
RTVSPost2010PropOp29
 70
     1
102
RTVSPost2010Prop30
280
     1
102
RTVSPost2010PropOp30
 70
     1
102
RTVSPost2010Prop31
280
     0
102
RTVSPost2010PropOp31
 70
     1
102
RTVSPost2010Prop32
280
     0
102
RTVSPost2010PropOp32
 70
     1
102
RTVSPost2010Prop33
280
     0
102
RTVSPost2010PropOp33
 70
     1
102
RTVSPost2010Prop34
280
     0
102
RTVSPost2010PropOp34
 70
     1
102
RTVSPost2010Prop35
280
     0
102
RTVSPost2010PropOp35
 70
     1
102
RTVSPost2010Prop36
280
     0
102
RTVSPost2010PropOp36
 70
     1
102
RTVSPost2010Prop37
 90
       50
102
RTVSPost2010PropOp37
 70
     1
102
RTVSPost2010Prop38
140
0.0
102
RTVSPost2010PropOp38
 70
     1
102
RTVSPost2010Prop39
140
1.0
102
RTVSPost2010PropOp39
 70
     1
102
RTVSPost2010Prop40
 90
        0
102
RTVSPost2010PropOp40
 70
     1
102
RTVSPost2010Prop41ColorIndex
 90
       18
102
RTVSPost2010Prop41ColorRGB
 90
        0
102
RTVSPost2010PropOp41
 70
     1
102
RTVSPost2010Prop42
 90
       50
102
RTVSPost2010PropOp42
 70
     1
102
RTVSPost2010Prop43
 90
        3
102
RTVSPost2010PropOp43
 70
     1
102
RTVSPost2010Prop44ColorIndex
 90
        5
102
RTVSPost2010Prop44ColorRGB
 90
      255
102
RTVSPost2010PropOp44
 70
     1
102
RTVSPost2010Prop45
280
     0
102
RTVSPost2010PropOp45
 70
     1
102
RTVSPost2010Prop46
 90
       50
102
RTVSPost2010PropOp46
 70
     1
102
RTVSPost2010Prop47
 90
       50
102
RTVSPost2010PropOp47
 70
     1
102
RTVSPost2010Prop48
 90
       50
102
RTVSPost2010PropOp48
 70
     1
102
RTVSPost2010Prop49
280
     0
102
RTVSPost2010PropOp49
 70
     1
102
RTVSPost2010Prop50
 90
       50
102
RTVSPost2010PropOp50
 70
     1
102
RTVSPost2010Prop51ColorIndex
 90
      256
102
RTVSPost2010Prop51ColorRGB
 90
-16777216
102
RTVSPost2010PropOp51
 70
     0
102
RTVSPost2010Prop52
140
1.0
102
RTVSPost2010PropOp52
 70
     0
102
RTVSPost2010Prop53
 90
        2
102
RTVSPost2010PropOp53
 70
     1
102
RTVSPost2010Prop54
  1
strokes_ogs.tif
102
RTVSPost2010PropOp54
 70
     1
102
RTVSPost2010Prop55
280
     0
102
RTVSPost2010PropOp55
 70
     1
102
RTVSPost2010Prop56
140
1.0
102
RTVSPost2010PropOp56
 70
     1
102
RTVSPost2010Prop57
140
1.0
102
RTVSPost2010PropOp57
 70
     1
  0
XRECORD
  5
220F3
102
{ACAD_REACTORS
330
220F2
102
}
330
220F2
100
AcDbXrecord
280
     1
102
RTVSPost2010Prop28
280
     0
102
RTVSPost2010PropOp28
 70
     1
102
RTVSPost2010Prop29
280
     1
102
RTVSPost2010PropOp29
 70
     1
102
RTVSPost2010Prop30
280
     1
102
RTVSPost2010PropOp30
 70
     1
102
RTVSPost2010Prop31
280
     0
102
RTVSPost2010PropOp31
 70
     1
102
RTVSPost2010Prop32
280
     0
102
RTVSPost2010PropOp32
 70
     1
102
RTVSPost2010Prop33
280
     0
102
RTVSPost2010PropOp33
 70
     1
102
RTVSPost2010Prop34
280
     0
102
RTVSPost2010PropOp34
 70
     1
102
RTVSPost2010Prop35
280
     0
102
RTVSPost2010PropOp35
 70
     1
102
RTVSPost2010Prop36
280
     0
102
RTVSPost2010PropOp36
 70
     1
102
RTVSPost2010Prop37
 90
       50
102
RTVSPost2010PropOp37
 70
     1
102
RTVSPost2010Prop38
140
0.0
102
RTVSPost2010PropOp38
 70
     1
102
RTVSPost2010Prop39
140
1.0
102
RTVSPost2010PropOp39
 70
     1
102
RTVSPost2010Prop40
 90
        0
102
RTVSPost2010PropOp40
 70
     1
102
RTVSPost2010Prop41ColorIndex
 90
       18
102
RTVSPost2010Prop41ColorRGB
 90
        0
102
RTVSPost2010PropOp41
 70
     1
102
RTVSPost2010Prop42
 90
       50
102
RTVSPost2010PropOp42
 70
     1
102
RTVSPost2010Prop43
 90
        3
102
RTVSPost2010PropOp43
 70
     1
102
RTVSPost2010Prop44ColorIndex
 90
        5
102
RTVSPost2010Prop44ColorRGB
 90
      255
102
RTVSPost2010PropOp44
 70
     1
102
RTVSPost2010Prop45
280
     0
102
RTVSPost2010PropOp45
 70
     1
102
RTVSPost2010Prop46
 90
       50
102
RTVSPost2010PropOp46
 70
     1
102
RTVSPost2010Prop47
 90
       50
102
RTVSPost2010PropOp47
 70
     1
102
RTVSPost2010Prop48
 90
       50
102
RTVSPost2010PropOp48
 70
     1
102
RTVSPost2010Prop49
280
     0
102
RTVSPost2010PropOp49
 70
     1
102
RTVSPost2010Prop50
 90
       50
102
RTVSPost2010PropOp50
 70
     1
102
RTVSPost2010Prop51ColorIndex
 90
      256
102
RTVSPost2010Prop51ColorRGB
 90
-16777216
102
RTVSPost2010PropOp51
 70
     0
102
RTVSPost2010Prop52
140
1.0
102
RTVSPost2010PropOp52
 70
     0
102
RTVSPost2010Prop53
 90
        2
102
RTVSPost2010PropOp53
 70
     1
102
RTVSPost2010Prop54
  1
strokes_ogs.tif
102
RTVSPost2010PropOp54
 70
     1
102
RTVSPost2010Prop55
280
     0
102
RTVSPost2010PropOp55
 70
     1
102
RTVSPost2010Prop56
140
1.0
102
RTVSPost2010PropOp56
 70
     1
102
RTVSPost2010Prop57
140
1.0
102
RTVSPost2010PropOp57
 70
     1
  0
XRECORD
  5
220F7
102
{ACAD_REACTORS
330
220F6
102
}
330
220F6
100
AcDbXrecord
280
     1
102
RTVSPost2010Prop28
280
     0
102
RTVSPost2010PropOp28
 70
     1
102
RTVSPost2010Prop29
280
     1
102
RTVSPost2010PropOp29
 70
     1
102
RTVSPost2010Prop30
280
     1
102
RTVSPost2010PropOp30
 70
     1
102
RTVSPost2010Prop31
280
     0
102
RTVSPost2010PropOp31
 70
     1
102
RTVSPost2010Prop32
280
     0
102
RTVSPost2010PropOp32
 70
     1
102
RTVSPost2010Prop33
280
     0
102
RTVSPost2010PropOp33
 70
     1
102
RTVSPost2010Prop34
280
     0
102
RTVSPost2010PropOp34
 70
     1
102
RTVSPost2010Prop35
280
     0
102
RTVSPost2010PropOp35
 70
     1
102
RTVSPost2010Prop36
280
     0
102
RTVSPost2010PropOp36
 70
     1
102
RTVSPost2010Prop37
 90
       50
102
RTVSPost2010PropOp37
 70
     1
102
RTVSPost2010Prop38
140
0.0
102
RTVSPost2010PropOp38
 70
     1
102
RTVSPost2010Prop39
140
1.0
102
RTVSPost2010PropOp39
 70
     1
102
RTVSPost2010Prop40
 90
        0
102
RTVSPost2010PropOp40
 70
     1
102
RTVSPost2010Prop41ColorIndex
 90
       18
102
RTVSPost2010Prop41ColorRGB
 90
        0
102
RTVSPost2010PropOp41
 70
     1
102
RTVSPost2010Prop42
 90
       50
102
RTVSPost2010PropOp42
 70
     1
102
RTVSPost2010Prop43
 90
        3
102
RTVSPost2010PropOp43
 70
     1
102
RTVSPost2010Prop44ColorIndex
 90
        5
102
RTVSPost2010Prop44ColorRGB
 90
      255
102
RTVSPost2010PropOp44
 70
     1
102
RTVSPost2010Prop45
280
     0
102
RTVSPost2010PropOp45
 70
     1
102
RTVSPost2010Prop46
 90
       50
102
RTVSPost2010PropOp46
 70
     1
102
RTVSPost2010Prop47
 90
       50
102
RTVSPost2010PropOp47
 70
     1
102
RTVSPost2010Prop48
 90
       50
102
RTVSPost2010PropOp48
 70
     1
102
RTVSPost2010Prop49
280
     0
102
RTVSPost2010PropOp49
 70
     1
102
RTVSPost2010Prop50
 90
       50
102
RTVSPost2010PropOp50
 70
     1
102
RTVSPost2010Prop51ColorIndex
 90
      256
102
RTVSPost2010Prop51ColorRGB
 90
-16777216
102
RTVSPost2010PropOp51
 70
     0
102
RTVSPost2010Prop52
140
1.0
102
RTVSPost2010PropOp52
 70
     0
102
RTVSPost2010Prop53
 90
        2
102
RTVSPost2010PropOp53
 70
     1
102
RTVSPost2010Prop54
  1
strokes_ogs.tif
102
RTVSPost2010PropOp54
 70
     1
102
RTVSPost2010Prop55
280
     0
102
RTVSPost2010PropOp55
 70
     1
102
RTVSPost2010Prop56
140
1.0
102
RTVSPost2010PropOp56
 70
     1
102
RTVSPost2010Prop57
140
1.0
102
RTVSPost2010PropOp57
 70
     1
  0
XRECORD
  5
22115
102
{ACAD_REACTORS
330
22114
102
}
330
22114
100
AcDbXrecord
280
     1
102
RTVSPost2010Prop28
280
     0
102
RTVSPost2010PropOp28
 70
     1
102
RTVSPost2010Prop29
280
     1
102
RTVSPost2010PropOp29
 70
     1
102
RTVSPost2010Prop30
280
     1
102
RTVSPost2010PropOp30
 70
     1
102
RTVSPost2010Prop31
280
     0
102
RTVSPost2010PropOp31
 70
     1
102
RTVSPost2010Prop32
280
     0
102
RTVSPost2010PropOp32
 70
     1
102
RTVSPost2010Prop33
280
     0
102
RTVSPost2010PropOp33
 70
     1
102
RTVSPost2010Prop34
280
     0
102
RTVSPost2010PropOp34
 70
     1
102
RTVSPost2010Prop35
280
     0
102
RTVSPost2010PropOp35
 70
     1
102
RTVSPost2010Prop36
280
     0
102
RTVSPost2010PropOp36
 70
     1
102
RTVSPost2010Prop37
 90
       50
102
RTVSPost2010PropOp37
 70
     0
102
RTVSPost2010Prop38
140
0.0
102
RTVSPost2010PropOp38
 70
     0
102
RTVSPost2010Prop39
140
1.0
102
RTVSPost2010PropOp39
 70
     0
102
RTVSPost2010Prop40
 90
        0
102
RTVSPost2010PropOp40
 70
     0
102
RTVSPost2010Prop41ColorIndex
 90
       18
102
RTVSPost2010Prop41ColorRGB
 90
        0
102
RTVSPost2010PropOp41
 70
     0
102
RTVSPost2010Prop42
 90
       50
102
RTVSPost2010PropOp42
 70
     0
102
RTVSPost2010Prop43
 90
        3
102
RTVSPost2010PropOp43
 70
     0
102
RTVSPost2010Prop44ColorIndex
 90
        5
102
RTVSPost2010Prop44ColorRGB
 90
      255
102
RTVSPost2010PropOp44
 70
     0
102
RTVSPost2010Prop45
280
     0
102
RTVSPost2010PropOp45
 70
     1
102
RTVSPost2010Prop46
 90
       50
102
RTVSPost2010PropOp46
 70
     0
102
RTVSPost2010Prop47
 90
       50
102
RTVSPost2010PropOp47
 70
     0
102
RTVSPost2010Prop48
 90
       50
102
RTVSPost2010PropOp48
 70
     0
102
RTVSPost2010Prop49
280
     0
102
RTVSPost2010PropOp49
 70
     1
102
RTVSPost2010Prop50
 90
       50
102
RTVSPost2010PropOp50
 70
     0
102
RTVSPost2010Prop51ColorIndex
 90
      256
102
RTVSPost2010Prop51ColorRGB
 90
-16777216
102
RTVSPost2010PropOp51
 70
     0
102
RTVSPost2010Prop52
140
1.0
102
RTVSPost2010PropOp52
 70
     0
102
RTVSPost2010Prop53
 90
        2
102
RTVSPost2010PropOp53
 70
     0
102
RTVSPost2010Prop54
  1
strokes_ogs.tif
102
RTVSPost2010PropOp54
 70
     0
102
RTVSPost2010Prop55
280
     0
102
RTVSPost2010PropOp55
 70
     1
102
RTVSPost2010Prop56
140
1.0
102
RTVSPost2010PropOp56
 70
     0
102
RTVSPost2010Prop57
140
1.0
102
RTVSPost2010PropOp57
 70
     0
  0
XRECORD
  5
220FF
102
{ACAD_REACTORS
330
220FE
102
}
330
220FE
100
AcDbXrecord
280
     1
102
RTVSPost2010Prop28
280
     0
102
RTVSPost2010PropOp28
 70
     1
102
RTVSPost2010Prop29
280
     1
102
RTVSPost2010PropOp29
 70
     1
102
RTVSPost2010Prop30
280
     1
102
RTVSPost2010PropOp30
 70
     1
102
RTVSPost2010Prop31
280
     0
102
RTVSPost2010PropOp31
 70
     1
102
RTVSPost2010Prop32
280
     0
102
RTVSPost2010PropOp32
 70
     1
102
RTVSPost2010Prop33
280
     0
102
RTVSPost2010PropOp33
 70
     1
102
RTVSPost2010Prop34
280
     0
102
RTVSPost2010PropOp34
 70
     1
102
RTVSPost2010Prop35
280
     0
102
RTVSPost2010PropOp35
 70
     1
102
RTVSPost2010Prop36
280
     0
102
RTVSPost2010PropOp36
 70
     1
102
RTVSPost2010Prop37
 90
       50
102
RTVSPost2010PropOp37
 70
     1
102
RTVSPost2010Prop38
140
0.0
102
RTVSPost2010PropOp38
 70
     1
102
RTVSPost2010Prop39
140
1.0
102
RTVSPost2010PropOp39
 70
     1
102
RTVSPost2010Prop40
 90
        0
102
RTVSPost2010PropOp40
 70
     1
102
RTVSPost2010Prop41ColorIndex
 90
       18
102
RTVSPost2010Prop41ColorRGB
 90
        0
102
RTVSPost2010PropOp41
 70
     1
102
RTVSPost2010Prop42
 90
       50
102
RTVSPost2010PropOp42
 70
     1
102
RTVSPost2010Prop43
 90
        3
102
RTVSPost2010PropOp43
 70
     1
102
RTVSPost2010Prop44ColorIndex
 90
        5
102
RTVSPost2010Prop44ColorRGB
 90
      255
102
RTVSPost2010PropOp44
 70
     1
102
RTVSPost2010Prop45
280
     0
102
RTVSPost2010PropOp45
 70
     1
102
RTVSPost2010Prop46
 90
       50
102
RTVSPost2010PropOp46
 70
     1
102
RTVSPost2010Prop47
 90
       50
102
RTVSPost2010PropOp47
 70
     1
102
RTVSPost2010Prop48
 90
       50
102
RTVSPost2010PropOp48
 70
     1
102
RTVSPost2010Prop49
280
     0
102
RTVSPost2010PropOp49
 70
     1
102
RTVSPost2010Prop50
 90
       50
102
RTVSPost2010PropOp50
 70
     1
102
RTVSPost2010Prop51ColorIndex
 90
      256
102
RTVSPost2010Prop51ColorRGB
 90
-16777216
102
RTVSPost2010PropOp51
 70
     0
102
RTVSPost2010Prop52
140
1.0
102
RTVSPost2010PropOp52
 70
     0
102
RTVSPost2010Prop53
 90
        2
102
RTVSPost2010PropOp53
 70
     1
102
RTVSPost2010Prop54
  1
strokes_ogs.tif
102
RTVSPost2010PropOp54
 70
     1
102
RTVSPost2010Prop55
280
     0
102
RTVSPost2010PropOp55
 70
     1
102
RTVSPost2010Prop56
140
1.0
102
RTVSPost2010PropOp56
 70
     1
102
RTVSPost2010Prop57
140
1.0
102
RTVSPost2010PropOp57
 70
     1
  0
XRECORD
  5
220E3
102
{ACAD_REACTORS
330
220E2
102
}
330
220E2
100
AcDbXrecord
280
     1
102
RTVSPost2010Prop28
280
     0
102
RTVSPost2010PropOp28
 70
     1
102
RTVSPost2010Prop29
280
     1
102
RTVSPost2010PropOp29
 70
     1
102
RTVSPost2010Prop30
280
     1
102
RTVSPost2010PropOp30
 70
     1
102
RTVSPost2010Prop31
280
     0
102
RTVSPost2010PropOp31
 70
     1
102
RTVSPost2010Prop32
280
     0
102
RTVSPost2010PropOp32
 70
     1
102
RTVSPost2010Prop33
280
     0
102
RTVSPost2010PropOp33
 70
     1
102
RTVSPost2010Prop34
280
     0
102
RTVSPost2010PropOp34
 70
     1
102
RTVSPost2010Prop35
280
     0
102
RTVSPost2010PropOp35
 70
     1
102
RTVSPost2010Prop36
280
     0
102
RTVSPost2010PropOp36
 70
     1
102
RTVSPost2010Prop37
 90
       50
102
RTVSPost2010PropOp37
 70
     1
102
RTVSPost2010Prop38
140
0.0
102
RTVSPost2010PropOp38
 70
     1
102
RTVSPost2010Prop39
140
1.0
102
RTVSPost2010PropOp39
 70
     1
102
RTVSPost2010Prop40
 90
        0
102
RTVSPost2010PropOp40
 70
     1
102
RTVSPost2010Prop41ColorIndex
 90
       18
102
RTVSPost2010Prop41ColorRGB
 90
        0
102
RTVSPost2010PropOp41
 70
     1
102
RTVSPost2010Prop42
 90
       50
102
RTVSPost2010PropOp42
 70
     1
102
RTVSPost2010Prop43
 90
        3
102
RTVSPost2010PropOp43
 70
     1
102
RTVSPost2010Prop44ColorIndex
 90
        5
102
RTVSPost2010Prop44ColorRGB
 90
      255
102
RTVSPost2010PropOp44
 70
     1
102
RTVSPost2010Prop45
280
     0
102
RTVSPost2010PropOp45
 70
     1
102
RTVSPost2010Prop46
 90
       50
102
RTVSPost2010PropOp46
 70
     1
102
RTVSPost2010Prop47
 90
       50
102
RTVSPost2010PropOp47
 70
     1
102
RTVSPost2010Prop48
 90
       50
102
RTVSPost2010PropOp48
 70
     1
102
RTVSPost2010Prop49
280
     0
102
RTVSPost2010PropOp49
 70
     1
102
RTVSPost2010Prop50
 90
       50
102
RTVSPost2010PropOp50
 70
     1
102
RTVSPost2010Prop51ColorIndex
 90
      256
102
RTVSPost2010Prop51ColorRGB
 90
-16777216
102
RTVSPost2010PropOp51
 70
     0
102
RTVSPost2010Prop52
140
1.0
102
RTVSPost2010PropOp52
 70
     0
102
RTVSPost2010Prop53
 90
        2
102
RTVSPost2010PropOp53
 70
     1
102
RTVSPost2010Prop54
  1
strokes_ogs.tif
102
RTVSPost2010PropOp54
 70
     1
102
RTVSPost2010Prop55
280
     0
102
RTVSPost2010PropOp55
 70
     1
102
RTVSPost2010Prop56
140
1.0
102
RTVSPost2010PropOp56
 70
     1
102
RTVSPost2010Prop57
140
1.0
102
RTVSPost2010PropOp57
 70
     1
  0
XRECORD
  5
220E5
102
{ACAD_REACTORS
330
220E4
102
}
330
220E4
100
AcDbXrecord
280
     1
102
RTVSPost2010Prop28
280
     0
102
RTVSPost2010PropOp28
 70
     1
102
RTVSPost2010Prop29
280
     1
102
RTVSPost2010PropOp29
 70
     1
102
RTVSPost2010Prop30
280
     1
102
RTVSPost2010PropOp30
 70
     1
102
RTVSPost2010Prop31
280
     0
102
RTVSPost2010PropOp31
 70
     1
102
RTVSPost2010Prop32
280
     0
102
RTVSPost2010PropOp32
 70
     1
102
RTVSPost2010Prop33
280
     0
102
RTVSPost2010PropOp33
 70
     1
102
RTVSPost2010Prop34
280
     0
102
RTVSPost2010PropOp34
 70
     1
102
RTVSPost2010Prop35
280
     0
102
RTVSPost2010PropOp35
 70
     1
102
RTVSPost2010Prop36
280
     0
102
RTVSPost2010PropOp36
 70
     1
102
RTVSPost2010Prop37
 90
       50
102
RTVSPost2010PropOp37
 70
     1
102
RTVSPost2010Prop38
140
0.0
102
RTVSPost2010PropOp38
 70
     1
102
RTVSPost2010Prop39
140
1.0
102
RTVSPost2010PropOp39
 70
     1
102
RTVSPost2010Prop40
 90
        0
102
RTVSPost2010PropOp40
 70
     1
102
RTVSPost2010Prop41ColorIndex
 90
       18
102
RTVSPost2010Prop41ColorRGB
 90
        0
102
RTVSPost2010PropOp41
 70
     1
102
RTVSPost2010Prop42
 90
       50
102
RTVSPost2010PropOp42
 70
     1
102
RTVSPost2010Prop43
 90
        3
102
RTVSPost2010PropOp43
 70
     1
102
RTVSPost2010Prop44ColorIndex
 90
        5
102
RTVSPost2010Prop44ColorRGB
 90
      255
102
RTVSPost2010PropOp44
 70
     1
102
RTVSPost2010Prop45
280
     0
102
RTVSPost2010PropOp45
 70
     1
102
RTVSPost2010Prop46
 90
       50
102
RTVSPost2010PropOp46
 70
     1
102
RTVSPost2010Prop47
 90
       50
102
RTVSPost2010PropOp47
 70
     1
102
RTVSPost2010Prop48
 90
       50
102
RTVSPost2010PropOp48
 70
     1
102
RTVSPost2010Prop49
280
     0
102
RTVSPost2010PropOp49
 70
     1
102
RTVSPost2010Prop50
 90
       50
102
RTVSPost2010PropOp50
 70
     1
102
RTVSPost2010Prop51ColorIndex
 90
      256
102
RTVSPost2010Prop51ColorRGB
 90
-16777216
102
RTVSPost2010PropOp51
 70
     0
102
RTVSPost2010Prop52
140
1.0
102
RTVSPost2010PropOp52
 70
     0
102
RTVSPost2010Prop53
 90
        2
102
RTVSPost2010PropOp53
 70
     1
102
RTVSPost2010Prop54
  1
strokes_ogs.tif
102
RTVSPost2010PropOp54
 70
     1
102
RTVSPost2010Prop55
280
     0
102
RTVSPost2010PropOp55
 70
     1
102
RTVSPost2010Prop56
140
1.0
102
RTVSPost2010PropOp56
 70
     1
102
RTVSPost2010Prop57
140
1.0
102
RTVSPost2010PropOp57
 70
     1
  0
XRECORD
  5
220E7
102
{ACAD_REACTORS
330
220E6
102
}
330
220E6
100
AcDbXrecord
280
     1
102
RTVSPost2010Prop28
280
     0
102
RTVSPost2010PropOp28
 70
     1
102
RTVSPost2010Prop29
280
     1
102
RTVSPost2010PropOp29
 70
     1
102
RTVSPost2010Prop30
280
     1
102
RTVSPost2010PropOp30
 70
     1
102
RTVSPost2010Prop31
280
     0
102
RTVSPost2010PropOp31
 70
     1
102
RTVSPost2010Prop32
280
     0
102
RTVSPost2010PropOp32
 70
     1
102
RTVSPost2010Prop33
280
     0
102
RTVSPost2010PropOp33
 70
     1
102
RTVSPost2010Prop34
280
     0
102
RTVSPost2010PropOp34
 70
     1
102
RTVSPost2010Prop35
280
     0
102
RTVSPost2010PropOp35
 70
     1
102
RTVSPost2010Prop36
280
     0
102
RTVSPost2010PropOp36
 70
     1
102
RTVSPost2010Prop37
 90
       50
102
RTVSPost2010PropOp37
 70
     1
102
RTVSPost2010Prop38
140
0.0
102
RTVSPost2010PropOp38
 70
     1
102
RTVSPost2010Prop39
140
1.0
102
RTVSPost2010PropOp39
 70
     1
102
RTVSPost2010Prop40
 90
        0
102
RTVSPost2010PropOp40
 70
     1
102
RTVSPost2010Prop41ColorIndex
 90
       18
102
RTVSPost2010Prop41ColorRGB
 90
        0
102
RTVSPost2010PropOp41
 70
     1
102
RTVSPost2010Prop42
 90
       50
102
RTVSPost2010PropOp42
 70
     1
102
RTVSPost2010Prop43
 90
        3
102
RTVSPost2010PropOp43
 70
     1
102
RTVSPost2010Prop44ColorIndex
 90
        5
102
RTVSPost2010Prop44ColorRGB
 90
      255
102
RTVSPost2010PropOp44
 70
     1
102
RTVSPost2010Prop45
280
     0
102
RTVSPost2010PropOp45
 70
     1
102
RTVSPost2010Prop46
 90
       50
102
RTVSPost2010PropOp46
 70
     1
102
RTVSPost2010Prop47
 90
       50
102
RTVSPost2010PropOp47
 70
     1
102
RTVSPost2010Prop48
 90
       50
102
RTVSPost2010PropOp48
 70
     1
102
RTVSPost2010Prop49
280
     0
102
RTVSPost2010PropOp49
 70
     1
102
RTVSPost2010Prop50
 90
       50
102
RTVSPost2010PropOp50
 70
     1
102
RTVSPost2010Prop51ColorIndex
 90
      256
102
RTVSPost2010Prop51ColorRGB
 90
-16777216
102
RTVSPost2010PropOp51
 70
     0
102
RTVSPost2010Prop52
140
1.0
102
RTVSPost2010PropOp52
 70
     0
102
RTVSPost2010Prop53
 90
        2
102
RTVSPost2010PropOp53
 70
     1
102
RTVSPost2010Prop54
  1
strokes_ogs.tif
102
RTVSPost2010PropOp54
 70
     1
102
RTVSPost2010Prop55
280
     0
102
RTVSPost2010PropOp55
 70
     1
102
RTVSPost2010Prop56
140
1.0
102
RTVSPost2010PropOp56
 70
     1
102
RTVSPost2010Prop57
140
1.0
102
RTVSPost2010PropOp57
 70
     1
  0
XRECORD
  5
220E9
102
{ACAD_REACTORS
330
220E8
102
}
330
220E8
100
AcDbXrecord
280
     1
102
RTVSPost2010Prop28
280
     0
102
RTVSPost2010PropOp28
 70
     1
102
RTVSPost2010Prop29
280
     1
102
RTVSPost2010PropOp29
 70
     1
102
RTVSPost2010Prop30
280
     1
102
RTVSPost2010PropOp30
 70
     1
102
RTVSPost2010Prop31
280
     0
102
RTVSPost2010PropOp31
 70
     1
102
RTVSPost2010Prop32
280
     0
102
RTVSPost2010PropOp32
 70
     1
102
RTVSPost2010Prop33
280
     0
102
RTVSPost2010PropOp33
 70
     1
102
RTVSPost2010Prop34
280
     0
102
RTVSPost2010PropOp34
 70
     1
102
RTVSPost2010Prop35
280
     0
102
RTVSPost2010PropOp35
 70
     1
102
RTVSPost2010Prop36
280
     0
102
RTVSPost2010PropOp36
 70
     1
102
RTVSPost2010Prop37
 90
       50
102
RTVSPost2010PropOp37
 70
     1
102
RTVSPost2010Prop38
140
0.0
102
RTVSPost2010PropOp38
 70
     1
102
RTVSPost2010Prop39
140
1.0
102
RTVSPost2010PropOp39
 70
     1
102
RTVSPost2010Prop40
 90
        0
102
RTVSPost2010PropOp40
 70
     1
102
RTVSPost2010Prop41ColorIndex
 90
       18
102
RTVSPost2010Prop41ColorRGB
 90
        0
102
RTVSPost2010PropOp41
 70
     1
102
RTVSPost2010Prop42
 90
       50
102
RTVSPost2010PropOp42
 70
     1
102
RTVSPost2010Prop43
 90
        3
102
RTVSPost2010PropOp43
 70
     1
102
RTVSPost2010Prop44ColorIndex
 90
        5
102
RTVSPost2010Prop44ColorRGB
 90
      255
102
RTVSPost2010PropOp44
 70
     1
102
RTVSPost2010Prop45
280
     0
102
RTVSPost2010PropOp45
 70
     1
102
RTVSPost2010Prop46
 90
       50
102
RTVSPost2010PropOp46
 70
     1
102
RTVSPost2010Prop47
 90
       50
102
RTVSPost2010PropOp47
 70
     1
102
RTVSPost2010Prop48
 90
       50
102
RTVSPost2010PropOp48
 70
     1
102
RTVSPost2010Prop49
280
     0
102
RTVSPost2010PropOp49
 70
     1
102
RTVSPost2010Prop50
 90
       50
102
RTVSPost2010PropOp50
 70
     1
102
RTVSPost2010Prop51ColorIndex
 90
      256
102
RTVSPost2010Prop51ColorRGB
 90
-16777216
102
RTVSPost2010PropOp51
 70
     0
102
RTVSPost2010Prop52
140
1.0
102
RTVSPost2010PropOp52
 70
     0
102
RTVSPost2010Prop53
 90
        2
102
RTVSPost2010PropOp53
 70
     1
102
RTVSPost2010Prop54
  1
strokes_ogs.tif
102
RTVSPost2010PropOp54
 70
     1
102
RTVSPost2010Prop55
280
     0
102
RTVSPost2010PropOp55
 70
     1
102
RTVSPost2010Prop56
140
1.0
102
RTVSPost2010PropOp56
 70
     1
102
RTVSPost2010Prop57
140
1.0
102
RTVSPost2010PropOp57
 70
     1
  0
XRECORD
  5
22105
102
{ACAD_REACTORS
330
22104
102
}
330
22104
100
AcDbXrecord
280
     1
102
RTVSPost2010Prop28
280
     0
102
RTVSPost2010PropOp28
 70
     1
102
RTVSPost2010Prop29
280
     1
102
RTVSPost2010PropOp29
 70
     1
102
RTVSPost2010Prop30
280
     1
102
RTVSPost2010PropOp30
 70
     1
102
RTVSPost2010Prop31
280
     0
102
RTVSPost2010PropOp31
 70
     1
102
RTVSPost2010Prop32
280
     0
102
RTVSPost2010PropOp32
 70
     1
102
RTVSPost2010Prop33
280
     0
102
RTVSPost2010PropOp33
 70
     1
102
RTVSPost2010Prop34
280
     0
102
RTVSPost2010PropOp34
 70
     1
102
RTVSPost2010Prop35
280
     0
102
RTVSPost2010PropOp35
 70
     1
102
RTVSPost2010Prop36
280
     0
102
RTVSPost2010PropOp36
 70
     1
102
RTVSPost2010Prop37
 90
       50
102
RTVSPost2010PropOp37
 70
     1
102
RTVSPost2010Prop38
140
0.0
102
RTVSPost2010PropOp38
 70
     1
102
RTVSPost2010Prop39
140
1.0
102
RTVSPost2010PropOp39
 70
     1
102
RTVSPost2010Prop40
 90
        0
102
RTVSPost2010PropOp40
 70
     1
102
RTVSPost2010Prop41ColorIndex
 90
       18
102
RTVSPost2010Prop41ColorRGB
 90
        0
102
RTVSPost2010PropOp41
 70
     1
102
RTVSPost2010Prop42
 90
       50
102
RTVSPost2010PropOp42
 70
     1
102
RTVSPost2010Prop43
 90
        3
102
RTVSPost2010PropOp43
 70
     1
102
RTVSPost2010Prop44ColorIndex
 90
        5
102
RTVSPost2010Prop44ColorRGB
 90
      255
102
RTVSPost2010PropOp44
 70
     1
102
RTVSPost2010Prop45
280
     0
102
RTVSPost2010PropOp45
 70
     1
102
RTVSPost2010Prop46
 90
       50
102
RTVSPost2010PropOp46
 70
     1
102
RTVSPost2010Prop47
 90
       50
102
RTVSPost2010PropOp47
 70
     1
102
RTVSPost2010Prop48
 90
       50
102
RTVSPost2010PropOp48
 70
     1
102
RTVSPost2010Prop49
280
     0
102
RTVSPost2010PropOp49
 70
     1
102
RTVSPost2010Prop50
 90
       50
102
RTVSPost2010PropOp50
 70
     1
102
RTVSPost2010Prop51ColorIndex
 90
      256
102
RTVSPost2010Prop51ColorRGB
 90
-16777216
102
RTVSPost2010PropOp51
 70
     0
102
RTVSPost2010Prop52
140
1.0
102
RTVSPost2010PropOp52
 70
     0
102
RTVSPost2010Prop53
 90
        2
102
RTVSPost2010PropOp53
 70
     1
102
RTVSPost2010Prop54
  1
strokes_ogs.tif
102
RTVSPost2010PropOp54
 70
     1
102
RTVSPost2010Prop55
280
     0
102
RTVSPost2010PropOp55
 70
     1
102
RTVSPost2010Prop56
140
1.0
102
RTVSPost2010PropOp56
 70
     1
102
RTVSPost2010Prop57
140
1.0
102
RTVSPost2010PropOp57
 70
     1
  0
XRECORD
  5
22111
102
{ACAD_REACTORS
330
22110
102
}
330
22110
100
AcDbXrecord
280
     1
102
RTVSPost2010Prop28
280
     0
102
RTVSPost2010PropOp28
 70
     1
102
RTVSPost2010Prop29
280
     1
102
RTVSPost2010PropOp29
 70
     1
102
RTVSPost2010Prop30
280
     1
102
RTVSPost2010PropOp30
 70
     1
102
RTVSPost2010Prop31
280
     0
102
RTVSPost2010PropOp31
 70
     1
102
RTVSPost2010Prop32
280
     0
102
RTVSPost2010PropOp32
 70
     1
102
RTVSPost2010Prop33
280
     0
102
RTVSPost2010PropOp33
 70
     1
102
RTVSPost2010Prop34
280
     0
102
RTVSPost2010PropOp34
 70
     1
102
RTVSPost2010Prop35
280
     0
102
RTVSPost2010PropOp35
 70
     1
102
RTVSPost2010Prop36
280
     0
102
RTVSPost2010PropOp36
 70
     1
102
RTVSPost2010Prop37
 90
       50
102
RTVSPost2010PropOp37
 70
     0
102
RTVSPost2010Prop38
140
0.0
102
RTVSPost2010PropOp38
 70
     0
102
RTVSPost2010Prop39
140
1.0
102
RTVSPost2010PropOp39
 70
     0
102
RTVSPost2010Prop40
 90
        0
102
RTVSPost2010PropOp40
 70
     0
102
RTVSPost2010Prop41ColorIndex
 90
       18
102
RTVSPost2010Prop41ColorRGB
 90
        0
102
RTVSPost2010PropOp41
 70
     0
102
RTVSPost2010Prop42
 90
       50
102
RTVSPost2010PropOp42
 70
     0
102
RTVSPost2010Prop43
 90
        3
102
RTVSPost2010PropOp43
 70
     0
102
RTVSPost2010Prop44ColorIndex
 90
        5
102
RTVSPost2010Prop44ColorRGB
 90
      255
102
RTVSPost2010PropOp44
 70
     0
102
RTVSPost2010Prop45
280
     0
102
RTVSPost2010PropOp45
 70
     1
102
RTVSPost2010Prop46
 90
       50
102
RTVSPost2010PropOp46
 70
     0
102
RTVSPost2010Prop47
 90
       50
102
RTVSPost2010PropOp47
 70
     0
102
RTVSPost2010Prop48
 90
       50
102
RTVSPost2010PropOp48
 70
     0
102
RTVSPost2010Prop49
280
     0
102
RTVSPost2010PropOp49
 70
     1
102
RTVSPost2010Prop50
 90
       50
102
RTVSPost2010PropOp50
 70
     0
102
RTVSPost2010Prop51ColorIndex
 90
      256
102
RTVSPost2010Prop51ColorRGB
 90
-16777216
102
RTVSPost2010PropOp51
 70
     0
102
RTVSPost2010Prop52
140
1.0
102
RTVSPost2010PropOp52
 70
     0
102
RTVSPost2010Prop53
 90
        2
102
RTVSPost2010PropOp53
 70
     0
102
RTVSPost2010Prop54
  1
strokes_ogs.tif
102
RTVSPost2010PropOp54
 70
     0
102
RTVSPost2010Prop55
280
     0
102
RTVSPost2010PropOp55
 70
     1
102
RTVSPost2010Prop56
140
1.0
102
RTVSPost2010PropOp56
 70
     0
102
RTVSPost2010Prop57
140
1.0
102
RTVSPost2010PropOp57
 70
     0
  0
XRECORD
  5
220FD
102
{ACAD_REACTORS
330
220FC
102
}
330
220FC
100
AcDbXrecord
280
     1
102
RTVSPost2010Prop28
280
     0
102
RTVSPost2010PropOp28
 70
     1
102
RTVSPost2010Prop29
280
     1
102
RTVSPost2010PropOp29
 70
     1
102
RTVSPost2010Prop30
280
     1
102
RTVSPost2010PropOp30
 70
     1
102
RTVSPost2010Prop31
280
     0
102
RTVSPost2010PropOp31
 70
     1
102
RTVSPost2010Prop32
280
     0
102
RTVSPost2010PropOp32
 70
     1
102
RTVSPost2010Prop33
280
     0
102
RTVSPost2010PropOp33
 70
     1
102
RTVSPost2010Prop34
280
     0
102
RTVSPost2010PropOp34
 70
     1
102
RTVSPost2010Prop35
280
     0
102
RTVSPost2010PropOp35
 70
     1
102
RTVSPost2010Prop36
280
     0
102
RTVSPost2010PropOp36
 70
     1
102
RTVSPost2010Prop37
 90
       50
102
RTVSPost2010PropOp37
 70
     1
102
RTVSPost2010Prop38
140
0.0
102
RTVSPost2010PropOp38
 70
     1
102
RTVSPost2010Prop39
140
1.0
102
RTVSPost2010PropOp39
 70
     1
102
RTVSPost2010Prop40
 90
        0
102
RTVSPost2010PropOp40
 70
     1
102
RTVSPost2010Prop41ColorIndex
 90
       18
102
RTVSPost2010Prop41ColorRGB
 90
        0
102
RTVSPost2010PropOp41
 70
     1
102
RTVSPost2010Prop42
 90
       50
102
RTVSPost2010PropOp42
 70
     1
102
RTVSPost2010Prop43
 90
        3
102
RTVSPost2010PropOp43
 70
     1
102
RTVSPost2010Prop44ColorIndex
 90
        5
102
RTVSPost2010Prop44ColorRGB
 90
      255
102
RTVSPost2010PropOp44
 70
     1
102
RTVSPost2010Prop45
280
     0
102
RTVSPost2010PropOp45
 70
     1
102
RTVSPost2010Prop46
 90
       50
102
RTVSPost2010PropOp46
 70
     1
102
RTVSPost2010Prop47
 90
       50
102
RTVSPost2010PropOp47
 70
     1
102
RTVSPost2010Prop48
 90
       50
102
RTVSPost2010PropOp48
 70
     1
102
RTVSPost2010Prop49
280
     0
102
RTVSPost2010PropOp49
 70
     1
102
RTVSPost2010Prop50
 90
       50
102
RTVSPost2010PropOp50
 70
     1
102
RTVSPost2010Prop51ColorIndex
 90
      256
102
RTVSPost2010Prop51ColorRGB
 90
-16777216
102
RTVSPost2010PropOp51
 70
     0
102
RTVSPost2010Prop52
140
1.0
102
RTVSPost2010PropOp52
 70
     0
102
RTVSPost2010Prop53
 90
        2
102
RTVSPost2010PropOp53
 70
     1
102
RTVSPost2010Prop54
  1
strokes_ogs.tif
102
RTVSPost2010PropOp54
 70
     1
102
RTVSPost2010Prop55
280
     0
102
RTVSPost2010PropOp55
 70
     1
102
RTVSPost2010Prop56
140
1.0
102
RTVSPost2010PropOp56
 70
     1
102
RTVSPost2010Prop57
140
1.0
102
RTVSPost2010PropOp57
 70
     1
  0
XRECORD
  5
22113
102
{ACAD_REACTORS
330
22112
102
}
330
22112
100
AcDbXrecord
280
     1
102
RTVSPost2010Prop28
280
     0
102
RTVSPost2010PropOp28
 70
     1
102
RTVSPost2010Prop29
280
     1
102
RTVSPost2010PropOp29
 70
     1
102
RTVSPost2010Prop30
280
     1
102
RTVSPost2010PropOp30
 70
     1
102
RTVSPost2010Prop31
280
     0
102
RTVSPost2010PropOp31
 70
     1
102
RTVSPost2010Prop32
280
     0
102
RTVSPost2010PropOp32
 70
     1
102
RTVSPost2010Prop33
280
     0
102
RTVSPost2010PropOp33
 70
     1
102
RTVSPost2010Prop34
280
     0
102
RTVSPost2010PropOp34
 70
     1
102
RTVSPost2010Prop35
280
     0
102
RTVSPost2010PropOp35
 70
     1
102
RTVSPost2010Prop36
280
     0
102
RTVSPost2010PropOp36
 70
     1
102
RTVSPost2010Prop37
 90
       50
102
RTVSPost2010PropOp37
 70
     0
102
RTVSPost2010Prop38
140
0.0
102
RTVSPost2010PropOp38
 70
     0
102
RTVSPost2010Prop39
140
1.0
102
RTVSPost2010PropOp39
 70
     0
102
RTVSPost2010Prop40
 90
        0
102
RTVSPost2010PropOp40
 70
     0
102
RTVSPost2010Prop41ColorIndex
 90
       18
102
RTVSPost2010Prop41ColorRGB
 90
        0
102
RTVSPost2010PropOp41
 70
     0
102
RTVSPost2010Prop42
 90
       50
102
RTVSPost2010PropOp42
 70
     0
102
RTVSPost2010Prop43
 90
        3
102
RTVSPost2010PropOp43
 70
     0
102
RTVSPost2010Prop44ColorIndex
 90
        5
102
RTVSPost2010Prop44ColorRGB
 90
      255
102
RTVSPost2010PropOp44
 70
     0
102
RTVSPost2010Prop45
280
     0
102
RTVSPost2010PropOp45
 70
     1
102
RTVSPost2010Prop46
 90
       50
102
RTVSPost2010PropOp46
 70
     0
102
RTVSPost2010Prop47
 90
       50
102
RTVSPost2010PropOp47
 70
     0
102
RTVSPost2010Prop48
 90
       50
102
RTVSPost2010PropOp48
 70
     0
102
RTVSPost2010Prop49
280
     0
102
RTVSPost2010PropOp49
 70
     1
102
RTVSPost2010Prop50
 90
       50
102
RTVSPost2010PropOp50
 70
     0
102
RTVSPost2010Prop51ColorIndex
 90
      256
102
RTVSPost2010Prop51ColorRGB
 90
-16777216
102
RTVSPost2010PropOp51
 70
     0
102
RTVSPost2010Prop52
140
1.0
102
RTVSPost2010PropOp52
 70
     0
102
RTVSPost2010Prop53
 90
        2
102
RTVSPost2010PropOp53
 70
     0
102
RTVSPost2010Prop54
  1
strokes_ogs.tif
102
RTVSPost2010PropOp54
 70
     0
102
RTVSPost2010Prop55
280
     0
102
RTVSPost2010PropOp55
 70
     1
102
RTVSPost2010Prop56
140
1.0
102
RTVSPost2010PropOp56
 70
     0
102
RTVSPost2010Prop57
140
1.0
102
RTVSPost2010PropOp57
 70
     0
  0
XRECORD
  5
220F5
102
{ACAD_REACTORS
330
220F4
102
}
330
220F4
100
AcDbXrecord
280
     1
102
RTVSPost2010Prop28
280
     0
102
RTVSPost2010PropOp28
 70
     1
102
RTVSPost2010Prop29
280
     1
102
RTVSPost2010PropOp29
 70
     1
102
RTVSPost2010Prop30
280
     1
102
RTVSPost2010PropOp30
 70
     1
102
RTVSPost2010Prop31
280
     0
102
RTVSPost2010PropOp31
 70
     1
102
RTVSPost2010Prop32
280
     0
102
RTVSPost2010PropOp32
 70
     1
102
RTVSPost2010Prop33
280
     0
102
RTVSPost2010PropOp33
 70
     1
102
RTVSPost2010Prop34
280
     0
102
RTVSPost2010PropOp34
 70
     1
102
RTVSPost2010Prop35
280
     0
102
RTVSPost2010PropOp35
 70
     1
102
RTVSPost2010Prop36
280
     0
102
RTVSPost2010PropOp36
 70
     1
102
RTVSPost2010Prop37
 90
       50
102
RTVSPost2010PropOp37
 70
     1
102
RTVSPost2010Prop38
140
0.0
102
RTVSPost2010PropOp38
 70
     1
102
RTVSPost2010Prop39
140
1.0
102
RTVSPost2010PropOp39
 70
     1
102
RTVSPost2010Prop40
 90
        0
102
RTVSPost2010PropOp40
 70
     1
102
RTVSPost2010Prop41ColorIndex
 90
       18
102
RTVSPost2010Prop41ColorRGB
 90
        0
102
RTVSPost2010PropOp41
 70
     1
102
RTVSPost2010Prop42
 90
       50
102
RTVSPost2010PropOp42
 70
     1
102
RTVSPost2010Prop43
 90
        3
102
RTVSPost2010PropOp43
 70
     1
102
RTVSPost2010Prop44ColorIndex
 90
        5
102
RTVSPost2010Prop44ColorRGB
 90
      255
102
RTVSPost2010PropOp44
 70
     1
102
RTVSPost2010Prop45
280
     0
102
RTVSPost2010PropOp45
 70
     1
102
RTVSPost2010Prop46
 90
       50
102
RTVSPost2010PropOp46
 70
     1
102
RTVSPost2010Prop47
 90
       50
102
RTVSPost2010PropOp47
 70
     1
102
RTVSPost2010Prop48
 90
       50
102
RTVSPost2010PropOp48
 70
     1
102
RTVSPost2010Prop49
280
     0
102
RTVSPost2010PropOp49
 70
     1
102
RTVSPost2010Prop50
 90
       50
102
RTVSPost2010PropOp50
 70
     1
102
RTVSPost2010Prop51ColorIndex
 90
      256
102
RTVSPost2010Prop51ColorRGB
 90
-16777216
102
RTVSPost2010PropOp51
 70
     0
102
RTVSPost2010Prop52
140
1.0
102
RTVSPost2010PropOp52
 70
     0
102
RTVSPost2010Prop53
 90
        2
102
RTVSPost2010PropOp53
 70
     1
102
RTVSPost2010Prop54
  1
strokes_ogs.tif
102
RTVSPost2010PropOp54
 70
     1
102
RTVSPost2010Prop55
280
     0
102
RTVSPost2010PropOp55
 70
     1
102
RTVSPost2010Prop56
140
1.0
102
RTVSPost2010PropOp56
 70
     1
102
RTVSPost2010Prop57
140
1.0
102
RTVSPost2010PropOp57
 70
     1
  0
XRECORD
  5
2210F
102
{ACAD_REACTORS
330
2210E
102
}
330
2210E
100
AcDbXrecord
280
     1
102
RTVSPost2010Prop28
280
     0
102
RTVSPost2010PropOp28
 70
     1
102
RTVSPost2010Prop29
280
     1
102
RTVSPost2010PropOp29
 70
     1
102
RTVSPost2010Prop30
280
     1
102
RTVSPost2010PropOp30
 70
     1
102
RTVSPost2010Prop31
280
     0
102
RTVSPost2010PropOp31
 70
     1
102
RTVSPost2010Prop32
280
     0
102
RTVSPost2010PropOp32
 70
     1
102
RTVSPost2010Prop33
280
     0
102
RTVSPost2010PropOp33
 70
     1
102
RTVSPost2010Prop34
280
     0
102
RTVSPost2010PropOp34
 70
     1
102
RTVSPost2010Prop35
280
     0
102
RTVSPost2010PropOp35
 70
     1
102
RTVSPost2010Prop36
280
     0
102
RTVSPost2010PropOp36
 70
     1
102
RTVSPost2010Prop37
 90
       50
102
RTVSPost2010PropOp37
 70
     1
102
RTVSPost2010Prop38
140
0.0
102
RTVSPost2010PropOp38
 70
     1
102
RTVSPost2010Prop39
140
1.0
102
RTVSPost2010PropOp39
 70
     1
102
RTVSPost2010Prop40
 90
        0
102
RTVSPost2010PropOp40
 70
     1
102
RTVSPost2010Prop41ColorIndex
 90
       18
102
RTVSPost2010Prop41ColorRGB
 90
        0
102
RTVSPost2010PropOp41
 70
     1
102
RTVSPost2010Prop42
 90
       50
102
RTVSPost2010PropOp42
 70
     1
102
RTVSPost2010Prop43
 90
        3
102
RTVSPost2010PropOp43
 70
     1
102
RTVSPost2010Prop44ColorIndex
 90
        5
102
RTVSPost2010Prop44ColorRGB
 90
      255
102
RTVSPost2010PropOp44
 70
     1
102
RTVSPost2010Prop45
280
     0
102
RTVSPost2010PropOp45
 70
     1
102
RTVSPost2010Prop46
 90
       50
102
RTVSPost2010PropOp46
 70
     1
102
RTVSPost2010Prop47
 90
       50
102
RTVSPost2010PropOp47
 70
     1
102
RTVSPost2010Prop48
 90
       50
102
RTVSPost2010PropOp48
 70
     1
102
RTVSPost2010Prop49
280
     0
102
RTVSPost2010PropOp49
 70
     1
102
RTVSPost2010Prop50
 90
       50
102
RTVSPost2010PropOp50
 70
     1
102
RTVSPost2010Prop51ColorIndex
 90
      256
102
RTVSPost2010Prop51ColorRGB
 90
-16777216
102
RTVSPost2010PropOp51
 70
     0
102
RTVSPost2010Prop52
140
1.0
102
RTVSPost2010PropOp52
 70
     0
102
RTVSPost2010Prop53
 90
        2
102
RTVSPost2010PropOp53
 70
     1
102
RTVSPost2010Prop54
  1
strokes_ogs.tif
102
RTVSPost2010PropOp54
 70
     1
102
RTVSPost2010Prop55
280
     0
102
RTVSPost2010PropOp55
 70
     1
102
RTVSPost2010Prop56
140
1.0
102
RTVSPost2010PropOp56
 70
     1
102
RTVSPost2010Prop57
140
1.0
102
RTVSPost2010PropOp57
 70
     1
  0
XRECORD
  5
2210D
102
{ACAD_REACTORS
330
2210C
102
}
330
2210C
100
AcDbXrecord
280
     1
102
RTVSPost2010Prop28
280
     0
102
RTVSPost2010PropOp28
 70
     1
102
RTVSPost2010Prop29
280
     1
102
RTVSPost2010PropOp29
 70
     1
102
RTVSPost2010Prop30
280
     1
102
RTVSPost2010PropOp30
 70
     1
102
RTVSPost2010Prop31
280
     0
102
RTVSPost2010PropOp31
 70
     1
102
RTVSPost2010Prop32
280
     0
102
RTVSPost2010PropOp32
 70
     1
102
RTVSPost2010Prop33
280
     0
102
RTVSPost2010PropOp33
 70
     1
102
RTVSPost2010Prop34
280
     0
102
RTVSPost2010PropOp34
 70
     1
102
RTVSPost2010Prop35
280
     0
102
RTVSPost2010PropOp35
 70
     1
102
RTVSPost2010Prop36
280
     0
102
RTVSPost2010PropOp36
 70
     1
102
RTVSPost2010Prop37
 90
       50
102
RTVSPost2010PropOp37
 70
     1
102
RTVSPost2010Prop38
140
0.0
102
RTVSPost2010PropOp38
 70
     1
102
RTVSPost2010Prop39
140
1.0
102
RTVSPost2010PropOp39
 70
     1
102
RTVSPost2010Prop40
 90
        0
102
RTVSPost2010PropOp40
 70
     1
102
RTVSPost2010Prop41ColorIndex
 90
       18
102
RTVSPost2010Prop41ColorRGB
 90
        0
102
RTVSPost2010PropOp41
 70
     1
102
RTVSPost2010Prop42
 90
       50
102
RTVSPost2010PropOp42
 70
     1
102
RTVSPost2010Prop43
 90
        3
102
RTVSPost2010PropOp43
 70
     1
102
RTVSPost2010Prop44ColorIndex
 90
        5
102
RTVSPost2010Prop44ColorRGB
 90
      255
102
RTVSPost2010PropOp44
 70
     1
102
RTVSPost2010Prop45
280
     0
102
RTVSPost2010PropOp45
 70
     1
102
RTVSPost2010Prop46
 90
       50
102
RTVSPost2010PropOp46
 70
     1
102
RTVSPost2010Prop47
 90
       50
102
RTVSPost2010PropOp47
 70
     1
102
RTVSPost2010Prop48
 90
       50
102
RTVSPost2010PropOp48
 70
     1
102
RTVSPost2010Prop49
280
     0
102
RTVSPost2010PropOp49
 70
     1
102
RTVSPost2010Prop50
 90
       50
102
RTVSPost2010PropOp50
 70
     1
102
RTVSPost2010Prop51ColorIndex
 90
      256
102
RTVSPost2010Prop51ColorRGB
 90
-16777216
102
RTVSPost2010PropOp51
 70
     0
102
RTVSPost2010Prop52
140
1.0
102
RTVSPost2010PropOp52
 70
     0
102
RTVSPost2010Prop53
 90
        2
102
RTVSPost2010PropOp53
 70
     1
102
RTVSPost2010Prop54
  1
strokes_ogs.tif
102
RTVSPost2010PropOp54
 70
     1
102
RTVSPost2010Prop55
280
     0
102
RTVSPost2010PropOp55
 70
     1
102
RTVSPost2010Prop56
140
1.0
102
RTVSPost2010PropOp56
 70
     1
102
RTVSPost2010Prop57
140
1.0
102
RTVSPost2010PropOp57
 70
     1
  0
XRECORD
  5
22107
102
{ACAD_REACTORS
330
22106
102
}
330
22106
100
AcDbXrecord
280
     1
102
RTVSPost2010Prop28
280
     0
102
RTVSPost2010PropOp28
 70
     1
102
RTVSPost2010Prop29
280
     1
102
RTVSPost2010PropOp29
 70
     1
102
RTVSPost2010Prop30
280
     1
102
RTVSPost2010PropOp30
 70
     1
102
RTVSPost2010Prop31
280
     0
102
RTVSPost2010PropOp31
 70
     1
102
RTVSPost2010Prop32
280
     0
102
RTVSPost2010PropOp32
 70
     1
102
RTVSPost2010Prop33
280
     0
102
RTVSPost2010PropOp33
 70
     1
102
RTVSPost2010Prop34
280
     0
102
RTVSPost2010PropOp34
 70
     1
102
RTVSPost2010Prop35
280
     0
102
RTVSPost2010PropOp35
 70
     1
102
RTVSPost2010Prop36
280
     0
102
RTVSPost2010PropOp36
 70
     1
102
RTVSPost2010Prop37
 90
       50
102
RTVSPost2010PropOp37
 70
     1
102
RTVSPost2010Prop38
140
0.0
102
RTVSPost2010PropOp38
 70
     1
102
RTVSPost2010Prop39
140
1.0
102
RTVSPost2010PropOp39
 70
     1
102
RTVSPost2010Prop40
 90
        0
102
RTVSPost2010PropOp40
 70
     1
102
RTVSPost2010Prop41ColorIndex
 90
       18
102
RTVSPost2010Prop41ColorRGB
 90
        0
102
RTVSPost2010PropOp41
 70
     1
102
RTVSPost2010Prop42
 90
       50
102
RTVSPost2010PropOp42
 70
     1
102
RTVSPost2010Prop43
 90
        3
102
RTVSPost2010PropOp43
 70
     1
102
RTVSPost2010Prop44ColorIndex
 90
        5
102
RTVSPost2010Prop44ColorRGB
 90
      255
102
RTVSPost2010PropOp44
 70
     1
102
RTVSPost2010Prop45
280
     0
102
RTVSPost2010PropOp45
 70
     1
102
RTVSPost2010Prop46
 90
       50
102
RTVSPost2010PropOp46
 70
     1
102
RTVSPost2010Prop47
 90
       50
102
RTVSPost2010PropOp47
 70
     1
102
RTVSPost2010Prop48
 90
       50
102
RTVSPost2010PropOp48
 70
     1
102
RTVSPost2010Prop49
280
     0
102
RTVSPost2010PropOp49
 70
     1
102
RTVSPost2010Prop50
 90
       50
102
RTVSPost2010PropOp50
 70
     1
102
RTVSPost2010Prop51ColorIndex
 90
      256
102
RTVSPost2010Prop51ColorRGB
 90
-16777216
102
RTVSPost2010PropOp51
 70
     0
102
RTVSPost2010Prop52
140
1.0
102
RTVSPost2010PropOp52
 70
     0
102
RTVSPost2010Prop53
 90
        2
102
RTVSPost2010PropOp53
 70
     1
102
RTVSPost2010Prop54
  1
strokes_ogs.tif
102
RTVSPost2010PropOp54
 70
     1
102
RTVSPost2010Prop55
280
     0
102
RTVSPost2010PropOp55
 70
     1
102
RTVSPost2010Prop56
140
1.0
102
RTVSPost2010PropOp56
 70
     1
102
RTVSPost2010Prop57
140
1.0
102
RTVSPost2010PropOp57
 70
     1
  0
XRECORD
  5
22109
102
{ACAD_REACTORS
330
22108
102
}
330
22108
100
AcDbXrecord
280
     1
102
RTVSPost2010Prop28
280
     0
102
RTVSPost2010PropOp28
 70
     1
102
RTVSPost2010Prop29
280
     1
102
RTVSPost2010PropOp29
 70
     1
102
RTVSPost2010Prop30
280
     1
102
RTVSPost2010PropOp30
 70
     1
102
RTVSPost2010Prop31
280
     0
102
RTVSPost2010PropOp31
 70
     1
102
RTVSPost2010Prop32
280
     0
102
RTVSPost2010PropOp32
 70
     1
102
RTVSPost2010Prop33
280
     0
102
RTVSPost2010PropOp33
 70
     1
102
RTVSPost2010Prop34
280
     0
102
RTVSPost2010PropOp34
 70
     1
102
RTVSPost2010Prop35
280
     0
102
RTVSPost2010PropOp35
 70
     1
102
RTVSPost2010Prop36
280
     0
102
RTVSPost2010PropOp36
 70
     1
102
RTVSPost2010Prop37
 90
       50
102
RTVSPost2010PropOp37
 70
     1
102
RTVSPost2010Prop38
140
0.0
102
RTVSPost2010PropOp38
 70
     1
102
RTVSPost2010Prop39
140
1.0
102
RTVSPost2010PropOp39
 70
     1
102
RTVSPost2010Prop40
 90
        0
102
RTVSPost2010PropOp40
 70
     1
102
RTVSPost2010Prop41ColorIndex
 90
       18
102
RTVSPost2010Prop41ColorRGB
 90
        0
102
RTVSPost2010PropOp41
 70
     1
102
RTVSPost2010Prop42
 90
       50
102
RTVSPost2010PropOp42
 70
     1
102
RTVSPost2010Prop43
 90
        3
102
RTVSPost2010PropOp43
 70
     1
102
RTVSPost2010Prop44ColorIndex
 90
        5
102
RTVSPost2010Prop44ColorRGB
 90
      255
102
RTVSPost2010PropOp44
 70
     1
102
RTVSPost2010Prop45
280
     0
102
RTVSPost2010PropOp45
 70
     1
102
RTVSPost2010Prop46
 90
       50
102
RTVSPost2010PropOp46
 70
     1
102
RTVSPost2010Prop47
 90
       50
102
RTVSPost2010PropOp47
 70
     1
102
RTVSPost2010Prop48
 90
       50
102
RTVSPost2010PropOp48
 70
     1
102
RTVSPost2010Prop49
280
     0
102
RTVSPost2010PropOp49
 70
     1
102
RTVSPost2010Prop50
 90
       50
102
RTVSPost2010PropOp50
 70
     1
102
RTVSPost2010Prop51ColorIndex
 90
      256
102
RTVSPost2010Prop51ColorRGB
 90
-16777216
102
RTVSPost2010PropOp51
 70
     0
102
RTVSPost2010Prop52
140
1.0
102
RTVSPost2010PropOp52
 70
     0
102
RTVSPost2010Prop53
 90
        2
102
RTVSPost2010PropOp53
 70
     1
102
RTVSPost2010Prop54
  1
strokes_ogs.tif
102
RTVSPost2010PropOp54
 70
     1
102
RTVSPost2010Prop55
280
     0
102
RTVSPost2010PropOp55
 70
     1
102
RTVSPost2010Prop56
140
1.0
102
RTVSPost2010PropOp56
 70
     1
102
RTVSPost2010Prop57
140
1.0
102
RTVSPost2010PropOp57
 70
     1
  0
XRECORD
  5
220FB
102
{ACAD_REACTORS
330
220FA
102
}
330
220FA
100
AcDbXrecord
280
     1
102
RTVSPost2010Prop28
280
     0
102
RTVSPost2010PropOp28
 70
     1
102
RTVSPost2010Prop29
280
     1
102
RTVSPost2010PropOp29
 70
     1
102
RTVSPost2010Prop30
280
     1
102
RTVSPost2010PropOp30
 70
     1
102
RTVSPost2010Prop31
280
     0
102
RTVSPost2010PropOp31
 70
     1
102
RTVSPost2010Prop32
280
     0
102
RTVSPost2010PropOp32
 70
     1
102
RTVSPost2010Prop33
280
     0
102
RTVSPost2010PropOp33
 70
     1
102
RTVSPost2010Prop34
280
     0
102
RTVSPost2010PropOp34
 70
     1
102
RTVSPost2010Prop35
280
     0
102
RTVSPost2010PropOp35
 70
     1
102
RTVSPost2010Prop36
280
     0
102
RTVSPost2010PropOp36
 70
     1
102
RTVSPost2010Prop37
 90
       50
102
RTVSPost2010PropOp37
 70
     1
102
RTVSPost2010Prop38
140
0.0
102
RTVSPost2010PropOp38
 70
     1
102
RTVSPost2010Prop39
140
1.0
102
RTVSPost2010PropOp39
 70
     1
102
RTVSPost2010Prop40
 90
        0
102
RTVSPost2010PropOp40
 70
     1
102
RTVSPost2010Prop41ColorIndex
 90
       18
102
RTVSPost2010Prop41ColorRGB
 90
        0
102
RTVSPost2010PropOp41
 70
     1
102
RTVSPost2010Prop42
 90
       50
102
RTVSPost2010PropOp42
 70
     1
102
RTVSPost2010Prop43
 90
        3
102
RTVSPost2010PropOp43
 70
     1
102
RTVSPost2010Prop44ColorIndex
 90
        5
102
RTVSPost2010Prop44ColorRGB
 90
      255
102
RTVSPost2010PropOp44
 70
     1
102
RTVSPost2010Prop45
280
     0
102
RTVSPost2010PropOp45
 70
     1
102
RTVSPost2010Prop46
 90
       50
102
RTVSPost2010PropOp46
 70
     1
102
RTVSPost2010Prop47
 90
       50
102
RTVSPost2010PropOp47
 70
     1
102
RTVSPost2010Prop48
 90
       50
102
RTVSPost2010PropOp48
 70
     1
102
RTVSPost2010Prop49
280
     0
102
RTVSPost2010PropOp49
 70
     1
102
RTVSPost2010Prop50
 90
       50
102
RTVSPost2010PropOp50
 70
     1
102
RTVSPost2010Prop51ColorIndex
 90
      256
102
RTVSPost2010Prop51ColorRGB
 90
-16777216
102
RTVSPost2010PropOp51
 70
     0
102
RTVSPost2010Prop52
140
1.0
102
RTVSPost2010PropOp52
 70
     0
102
RTVSPost2010Prop53
 90
        2
102
RTVSPost2010PropOp53
 70
     1
102
RTVSPost2010Prop54
  1
strokes_ogs.tif
102
RTVSPost2010PropOp54
 70
     1
102
RTVSPost2010Prop55
280
     0
102
RTVSPost2010PropOp55
 70
     1
102
RTVSPost2010Prop56
140
1.0
102
RTVSPost2010PropOp56
 70
     1
102
RTVSPost2010Prop57
140
1.0
102
RTVSPost2010PropOp57
 70
     1
  0
XRECORD
  5
22103
102
{ACAD_REACTORS
330
22102
102
}
330
22102
100
AcDbXrecord
280
     1
102
RTVSPost2010Prop28
280
     0
102
RTVSPost2010PropOp28
 70
     1
102
RTVSPost2010Prop29
280
     1
102
RTVSPost2010PropOp29
 70
     1
102
RTVSPost2010Prop30
280
     1
102
RTVSPost2010PropOp30
 70
     1
102
RTVSPost2010Prop31
280
     0
102
RTVSPost2010PropOp31
 70
     1
102
RTVSPost2010Prop32
280
     0
102
RTVSPost2010PropOp32
 70
     1
102
RTVSPost2010Prop33
280
     0
102
RTVSPost2010PropOp33
 70
     1
102
RTVSPost2010Prop34
280
     0
102
RTVSPost2010PropOp34
 70
     1
102
RTVSPost2010Prop35
280
     0
102
RTVSPost2010PropOp35
 70
     1
102
RTVSPost2010Prop36
280
     0
102
RTVSPost2010PropOp36
 70
     1
102
RTVSPost2010Prop37
 90
       50
102
RTVSPost2010PropOp37
 70
     1
102
RTVSPost2010Prop38
140
0.0
102
RTVSPost2010PropOp38
 70
     1
102
RTVSPost2010Prop39
140
1.0
102
RTVSPost2010PropOp39
 70
     1
102
RTVSPost2010Prop40
 90
        0
102
RTVSPost2010PropOp40
 70
     1
102
RTVSPost2010Prop41ColorIndex
 90
       18
102
RTVSPost2010Prop41ColorRGB
 90
        0
102
RTVSPost2010PropOp41
 70
     1
102
RTVSPost2010Prop42
 90
       50
102
RTVSPost2010PropOp42
 70
     1
102
RTVSPost2010Prop43
 90
        3
102
RTVSPost2010PropOp43
 70
     1
102
RTVSPost2010Prop44ColorIndex
 90
        5
102
RTVSPost2010Prop44ColorRGB
 90
      255
102
RTVSPost2010PropOp44
 70
     1
102
RTVSPost2010Prop45
280
     0
102
RTVSPost2010PropOp45
 70
     1
102
RTVSPost2010Prop46
 90
       50
102
RTVSPost2010PropOp46
 70
     1
102
RTVSPost2010Prop47
 90
       50
102
RTVSPost2010PropOp47
 70
     1
102
RTVSPost2010Prop48
 90
       50
102
RTVSPost2010PropOp48
 70
     1
102
RTVSPost2010Prop49
280
     0
102
RTVSPost2010PropOp49
 70
     1
102
RTVSPost2010Prop50
 90
       50
102
RTVSPost2010PropOp50
 70
     1
102
RTVSPost2010Prop51ColorIndex
 90
      256
102
RTVSPost2010Prop51ColorRGB
 90
-16777216
102
RTVSPost2010PropOp51
 70
     0
102
RTVSPost2010Prop52
140
1.0
102
RTVSPost2010PropOp52
 70
     0
102
RTVSPost2010Prop53
 90
        2
102
RTVSPost2010PropOp53
 70
     1
102
RTVSPost2010Prop54
  1
strokes_ogs.tif
102
RTVSPost2010PropOp54
 70
     1
102
RTVSPost2010Prop55
280
     0
102
RTVSPost2010PropOp55
 70
     1
102
RTVSPost2010Prop56
140
1.0
102
RTVSPost2010PropOp56
 70
     1
102
RTVSPost2010Prop57
140
1.0
102
RTVSPost2010PropOp57
 70
     1
  0
XRECORD
  5
2210B
102
{ACAD_REACTORS
330
2210A
102
}
330
2210A
100
AcDbXrecord
280
     1
102
RTVSPost2010Prop28
280
     0
102
RTVSPost2010PropOp28
 70
     1
102
RTVSPost2010Prop29
280
     1
102
RTVSPost2010PropOp29
 70
     1
102
RTVSPost2010Prop30
280
     1
102
RTVSPost2010PropOp30
 70
     1
102
RTVSPost2010Prop31
280
     0
102
RTVSPost2010PropOp31
 70
     1
102
RTVSPost2010Prop32
280
     0
102
RTVSPost2010PropOp32
 70
     1
102
RTVSPost2010Prop33
280
     0
102
RTVSPost2010PropOp33
 70
     1
102
RTVSPost2010Prop34
280
     0
102
RTVSPost2010PropOp34
 70
     1
102
RTVSPost2010Prop35
280
     0
102
RTVSPost2010PropOp35
 70
     1
102
RTVSPost2010Prop36
280
     0
102
RTVSPost2010PropOp36
 70
     1
102
RTVSPost2010Prop37
 90
       50
102
RTVSPost2010PropOp37
 70
     1
102
RTVSPost2010Prop38
140
0.0
102
RTVSPost2010PropOp38
 70
     1
102
RTVSPost2010Prop39
140
1.0
102
RTVSPost2010PropOp39
 70
     1
102
RTVSPost2010Prop40
 90
        0
102
RTVSPost2010PropOp40
 70
     1
102
RTVSPost2010Prop41ColorIndex
 90
       18
102
RTVSPost2010Prop41ColorRGB
 90
        0
102
RTVSPost2010PropOp41
 70
     1
102
RTVSPost2010Prop42
 90
       50
102
RTVSPost2010PropOp42
 70
     1
102
RTVSPost2010Prop43
 90
        3
102
RTVSPost2010PropOp43
 70
     1
102
RTVSPost2010Prop44ColorIndex
 90
        5
102
RTVSPost2010Prop44ColorRGB
 90
      255
102
RTVSPost2010PropOp44
 70
     1
102
RTVSPost2010Prop45
280
     0
102
RTVSPost2010PropOp45
 70
     1
102
RTVSPost2010Prop46
 90
       50
102
RTVSPost2010PropOp46
 70
     1
102
RTVSPost2010Prop47
 90
       50
102
RTVSPost2010PropOp47
 70
     1
102
RTVSPost2010Prop48
 90
       50
102
RTVSPost2010PropOp48
 70
     1
102
RTVSPost2010Prop49
280
     0
102
RTVSPost2010PropOp49
 70
     1
102
RTVSPost2010Prop50
 90
       50
102
RTVSPost2010PropOp50
 70
     1
102
RTVSPost2010Prop51ColorIndex
 90
      256
102
RTVSPost2010Prop51ColorRGB
 90
-16777216
102
RTVSPost2010PropOp51
 70
     0
102
RTVSPost2010Prop52
140
1.0
102
RTVSPost2010PropOp52
 70
     0
102
RTVSPost2010Prop53
 90
        2
102
RTVSPost2010PropOp53
 70
     1
102
RTVSPost2010Prop54
  1
strokes_ogs.tif
102
RTVSPost2010PropOp54
 70
     1
102
RTVSPost2010Prop55
280
     0
102
RTVSPost2010PropOp55
 70
     1
102
RTVSPost2010Prop56
140
1.0
102
RTVSPost2010PropOp56
 70
     1
102
RTVSPost2010Prop57
140
1.0
102
RTVSPost2010PropOp57
 70
     1
  0
ENDSEC
  0
EOF
