  0
SECTION
  2
HEADER
  9
$ACADVER
  1
AC1024
  9
$ACADMAINTVER
 70
   182
  9
$DWGCODEPAGE
  3
ANSI_1252
  9
$LASTSAVEDBY
  1
kamerka
  9
$INSBASE
 10
0.0
 20
0.0
 30
0.0
  9
$EXTMIN
 10
-112.1247497632414
 20
-54.70006131508637
 30
-0.0000000000000052
  9
$EXTMAX
 10
77.54283480270328
 20
54.07591965657991
 30
0.00000000000001
  9
$LIMMIN
 10
0.0
 20
0.0
  9
$LIMMAX
 10
420.0
 20
297.0
  9
$ORTHOMODE
 70
     0
  9
$REGENMODE
 70
     1
  9
$FILLMODE
 70
     1
  9
$QTEXTMODE
 70
     0
  9
$MIRRTEXT
 70
     0
  9
$LTSCALE
 40
23.1
  9
$ATTMODE
 70
     1
  9
$TEXTSIZE
 40
3.5
  9
$TRACEWID
 40
0.05
  9
$TEXTSTYLE
  7
STANDARD
  9
$CLAYER
  8
0
  9
$CELTYPE
  6
BYLAYER
  9
$CECOLOR
 62
   256
  9
$CELTSCALE
 40
1.0
  9
$DISPSILH
 70
     0
  9
$DIMSCALE
 40
1.0
  9
$DIMASZ
 40
4.57
  9
$DIMEXO
 40
0.0625
  9
$DIMDLI
 40
0.38
  9
$DIMRND
 40
0.0
  9
$DIMDLE
 40
0.0
  9
$DIMEXE
 40
0.18
  9
$DIMTP
 40
0.01
  9
$DIMTM
 40
0.01
  9
$DIMTXT
 40
3.5
  9
$DIMCEN
 40
0.09
  9
$DIMTSZ
 40
0.0
  9
$DIMTOL
 70
     0
  9
$DIMLIM
 70
     0
  9
$DIMTIH
 70
     0
  9
$DIMTOH
 70
     0
  9
$DIMSE1
 70
     0
  9
$DIMSE2
 70
     0
  9
$DIMTAD
 70
     1
  9
$DIMZIN
 70
     8
  9
$DIMBLK
  1

  9
$DIMASO
 70
     1
  9
$DIMSHO
 70
     1
  9
$DIMPOST
  1

  9
$DIMAPOST
  1

  9
$DIMALT
 70
     0
  9
$DIMALTD
 70
     2
  9
$DIMALTF
 40
25.4
  9
$DIMLFAC
 40
1.0
  9
$DIMTOFL
 70
     0
  9
$DIMTVP
 40
0.0
  9
$DIMTIX
 70
     0
  9
$DIMSOXD
 70
     0
  9
$DIMSAH
 70
     0
  9
$DIMBLK1
  1

  9
$DIMBLK2
  1

  9
$DIMSTYLE
  2
STANDARD
  9
$DIMCLRD
 70
     0
  9
$DIMCLRE
 70
     0
  9
$DIMCLRT
 70
     0
  9
$DIMTFAC
 40
1.0
  9
$DIMGAP
 40
0.09
  9
$DIMJUST
 70
     0
  9
$DIMSD1
 70
     0
  9
$DIMSD2
 70
     0
  9
$DIMTOLJ
 70
     1
  9
$DIMTZIN
 70
     8
  9
$DIMALTZ
 70
     0
  9
$DIMALTTZ
 70
     0
  9
$DIMUPT
 70
     0
  9
$DIMDEC
 70
     3
  9
$DIMTDEC
 70
     3
  9
$DIMALTU
 70
     2
  9
$DIMALTTD
 70
     2
  9
$DIMTXSTY
  7
STANDARD
  9
$DIMAUNIT
 70
     0
  9
$DIMADEC
 70
     0
  9
$DIMALTRND
 40
0.0
  9
$DIMAZIN
 70
     0
  9
$DIMDSEP
 70
    46
  9
$DIMATFIT
 70
     0
  9
$DIMFRAC
 70
     0
  9
$DIMLDRBLK
  1

  9
$DIMLUNIT
 70
     2
  9
$DIMLWD
 70
    -2
  9
$DIMLWE
 70
    -2
  9
$DIMTMOVE
 70
     0
  9
$DIMFXL
 40
1.0
  9
$DIMFXLON
 70
     0
  9
$DIMJOGANG
 40
0.7853981633974483
  9
$DIMTFILL
 70
     0
  9
$DIMTFILLCLR
 70
     0
  9
$DIMARCSYM
 70
     0
  9
$DIMLTYPE
  6

  9
$DIMLTEX1
  6

  9
$DIMLTEX2
  6

  9
$DIMTXTDIRECTION
 70
     0
  9
$LUNITS
 70
     2
  9
$LUPREC
 70
     4
  9
$SKETCHINC
 40
0.1
  9
$FILLETRAD
 40
0.0
  9
$AUNITS
 70
     0
  9
$AUPREC
 70
     0
  9
$MENU
  1
.
  9
$ELEVATION
 40
0.0
  9
$PELEVATION
 40
0.0
  9
$THICKNESS
 40
0.0
  9
$LIMCHECK
 70
     0
  9
$CHAMFERA
 40
0.0
  9
$CHAMFERB
 40
0.0
  9
$CHAMFERC
 40
0.0
  9
$CHAMFERD
 40
0.0
  9
$SKPOLY
 70
     0
  9
$TDCREATE
 40
2458446.405227107
  9
$TDUCREATE
 40
2458446.321893773
  9
$TDUPDATE
 40
2458976.440840058
  9
$TDUUPDATE
 40
2458976.357506724
  9
$TDINDWG
 40
0.0307586806
  9
$TDUSRTIMER
 40
0.0307576042
  9
$USRTIMER
 70
     1
  9
$ANGBASE
 50
0.0
  9
$ANGDIR
 70
     0
  9
$PDMODE
 70
     3
  9
$PDSIZE
 40
0.3125
  9
$PLINEWID
 40
0.0
  9
$SPLFRAME
 70
     0
  9
$SPLINETYPE
 70
     6
  9
$SPLINESEGS
 70
     8
  9
$HANDSEED
  5
221F6
  9
$SURFTAB1
 70
     6
  9
$SURFTAB2
 70
     6
  9
$SURFTYPE
 70
     6
  9
$SURFU
 70
     6
  9
$SURFV
 70
     6
  9
$UCSBASE
  2

  9
$UCSNAME
  2

  9
$UCSORG
 10
0.0
 20
0.0
 30
0.0
  9
$UCSXDIR
 10
1.0
 20
0.0
 30
0.0
  9
$UCSYDIR
 10
0.0
 20
1.0
 30
0.0
  9
$UCSORTHOREF
  2

  9
$UCSORTHOVIEW
 70
     0
  9
$UCSORGTOP
 10
0.0
 20
0.0
 30
0.0
  9
$UCSORGBOTTOM
 10
0.0
 20
0.0
 30
0.0
  9
$UCSORGLEFT
 10
0.0
 20
0.0
 30
0.0
  9
$UCSORGRIGHT
 10
0.0
 20
0.0
 30
0.0
  9
$UCSORGFRONT
 10
0.0
 20
0.0
 30
0.0
  9
$UCSORGBACK
 10
0.0
 20
0.0
 30
0.0
  9
$PUCSBASE
  2

  9
$PUCSNAME
  2

  9
$PUCSORG
 10
0.0
 20
0.0
 30
0.0
  9
$PUCSXDIR
 10
1.0
 20
0.0
 30
0.0
  9
$PUCSYDIR
 10
0.0
 20
1.0
 30
0.0
  9
$PUCSORTHOREF
  2

  9
$PUCSORTHOVIEW
 70
     0
  9
$PUCSORGTOP
 10
0.0
 20
0.0
 30
0.0
  9
$PUCSORGBOTTOM
 10
0.0
 20
0.0
 30
0.0
  9
$PUCSORGLEFT
 10
0.0
 20
0.0
 30
0.0
  9
$PUCSORGRIGHT
 10
0.0
 20
0.0
 30
0.0
  9
$PUCSORGFRONT
 10
0.0
 20
0.0
 30
0.0
  9
$PUCSORGBACK
 10
0.0
 20
0.0
 30
0.0
  9
$USERI1
 70
     0
  9
$USERI2
 70
     0
  9
$USERI3
 70
     0
  9
$USERI4
 70
     0
  9
$USERI5
 70
     0
  9
$USERR1
 40
0.0
  9
$USERR2
 40
0.0
  9
$USERR3
 40
0.0
  9
$USERR4
 40
0.0
  9
$USERR5
 40
0.0
  9
$WORLDVIEW
 70
     1
  9
$SHADEDGE
 70
     3
  9
$SHADEDIF
 70
    70
  9
$TILEMODE
 70
     1
  9
$MAXACTVP
 70
    64
  9
$PINSBASE
 10
0.0
 20
0.0
 30
0.0
  9
$PLIMCHECK
 70
     0
  9
$PEXTMIN
 10
28.69141678810127
 20
19.6363175392151
 30
0.0
  9
$PEXTMAX
 10
258.2227510929107
 20
176.7268578529358
 30
0.0
  9
$PLIMMIN
 10
-5.027069091796875
 20
-6.805083274841307
  9
$PLIMMAX
 10
291.9412536621094
 20
203.1682443618775
  9
$UNITMODE
 70
     0
  9
$VISRETAIN
 70
     1
  9
$PLINEGEN
 70
     0
  9
$PSLTSCALE
 70
     1
  9
$TREEDEPTH
 70
  3020
  9
$CMLSTYLE
  2
STANDARD
  9
$CMLJUST
 70
     0
  9
$CMLSCALE
 40
1.0
  9
$PROXYGRAPHICS
 70
     1
  9
$MEASUREMENT
 70
     1
  9
$CELWEIGHT
370
    -1
  9
$ENDCAPS
280
     0
  9
$JOINSTYLE
280
     0
  9
$LWDISPLAY
290
     0
  9
$INSUNITS
 70
     0
  9
$HYPERLINKBASE
  1

  9
$STYLESHEET
  1
A1-A2.CTB
  9
$XEDIT
290
     1
  9
$CEPSNTYPE
380
     0
  9
$PSTYLEMODE
290
     1
  9
$FINGERPRINTGUID
  2
{6D3BC7B5-ACA7-406D-8A0D-A7DBBE093430}
  9
$VERSIONGUID
  2
{86B05248-4606-4CEE-BA46-9041E4C98265}
  9
$EXTNAMES
290
     1
  9
$PSVPSCALE
 40
0.0
  9
$OLESTARTUP
290
     0
  9
$SORTENTS
280
   127
  9
$INDEXCTL
280
     0
  9
$HIDETEXT
280
     0
  9
$XCLIPFRAME
280
     2
  9
$HALOGAP
280
     0
  9
$OBSCOLOR
 70
   257
  9
$OBSLTYPE
280
     0
  9
$INTERSECTIONDISPLAY
280
     0
  9
$INTERSECTIONCOLOR
 70
   257
  9
$DIMASSOC
280
     1
  9
$PROJECTNAME
  1

  9
$CAMERADISPLAY
290
     0
  9
$LENSLENGTH
 40
50.0
  9
$CAMERAHEIGHT
 40
0.0
  9
$STEPSPERSEC
 40
2.0
  9
$STEPSIZE
 40
6.0
  9
$3DDWFPREC
 40
2.0
  9
$PSOLWIDTH
 40
0.25
  9
$PSOLHEIGHT
 40
4.0
  9
$LOFTANG1
 40
1.570796326794896
  9
$LOFTANG2
 40
1.570796326794896
  9
$LOFTMAG1
 40
0.0
  9
$LOFTMAG2
 40
0.0
  9
$LOFTPARAM
 70
     7
  9
$LOFTNORMALS
280
     1
  9
$LATITUDE
 40
37.795
  9
$LONGITUDE
 40
-122.394
  9
$NORTHDIRECTION
 40
0.0
  9
$TIMEZONE
 70
 -8000
  9
$LIGHTGLYPHDISPLAY
280
     1
  9
$TILEMODELIGHTSYNCH
280
     1
  9
$CMATERIAL
347
318C
  9
$SOLIDHIST
280
     0
  9
$SHOWHIST
280
     1
  9
$DWFFRAME
280
     2
  9
$DGNFRAME
280
     0
  9
$REALWORLDSCALE
290
     1
  9
$INTERFERECOLOR
 62
     1
  9
$INTERFEREOBJVS
345
3199
  9
$INTERFEREVPVS
346
1B2E3
  9
$CSHADOW
280
     0
  9
$SHADOWPLANELOCATION
 40
0.0
  0
ENDSEC
  0
SECTION
  2
CLASSES
  0
CLASS
  1
ACDBDICTIONARYWDFLT
  2
AcDbDictionaryWithDefault
  3
ObjectDBX Classes
 90
        0
 91
        1
280
     0
281
     0
  0
CLASS
  1
MATERIAL
  2
AcDbMaterial
  3
ObjectDBX Classes
 90
     1153
 91
        3
280
     0
281
     0
  0
CLASS
  1
VISUALSTYLE
  2
AcDbVisualStyle
  3
ObjectDBX Classes
 90
     4095
 91
       26
280
     0
281
     0
  0
CLASS
  1
TABLESTYLE
  2
AcDbTableStyle
  3
ObjectDBX Classes
 90
     4095
 91
        1
280
     0
281
     0
  0
CLASS
  1
SORTENTSTABLE
  2
AcDbSortentsTable
  3
ObjectDBX Classes
 90
        0
 91
        1
280
     0
281
     0
  0
CLASS
  1
DICTIONARYVAR
  2
AcDbDictionaryVar
  3
ObjectDBX Classes
 90
        0
 91
       12
280
     0
281
     0
  0
CLASS
  1
EXACXREFPANELOBJECT
  2
ExAcXREFPanelObject
  3
EXAC_ESW
 90
     1025
 91
        0
280
     1
281
     0
  0
CLASS
  1
NPOCOLLECTION
  2
AcDbImpNonPersistentObjectsCollection
  3
ObjectDBX Classes
 90
     1153
 91
        0
280
     1
281
     0
  0
CLASS
  1
SCALE
  2
AcDbScale
  3
ObjectDBX Classes
 90
     1153
 91
       33
280
     0
281
     0
  0
CLASS
  1
MLEADERSTYLE
  2
AcDbMLeaderStyle
  3
ACDB_MLEADERSTYLE_CLASS
 90
     4095
 91
        1
280
     0
281
     0
  0
CLASS
  1
ACDBSECTIONVIEWSTYLE
  2
AcDbSectionViewStyle
  3
ObjectDBX Classes
 90
     1025
 91
        2
280
     0
281
     0
  0
CLASS
  1
ACDBDETAILVIEWSTYLE
  2
AcDbDetailViewStyle
  3
ObjectDBX Classes
 90
     1025
 91
        2
280
     0
281
     0
  0
CLASS
  1
CELLSTYLEMAP
  2
AcDbCellStyleMap
  3
ObjectDBX Classes
 90
     1152
 91
        2
280
     0
281
     0
  0
CLASS
  1
ACAD_EVALUATION_GRAPH
  2
AcDbEvalGraph
  3
ObjectDBX Classes
 90
     1153
 91
        0
280
     0
281
     0
  0
CLASS
  1
ACAECUSTOBJ
  2
AcAeEditorObj
  3
AcAeEditorObj
 90
     1024
 91
        0
280
     0
281
     0
  0
CLASS
  1
ACDB_DYNAMICBLOCKPURGEPREVENTER_VERSION
  2
AcDbDynamicBlockPurgePreventer
  3
ObjectDBX Classes
 90
     1153
 91
        0
280
     0
281
     0
  0
CLASS
  1
FIELD
  2
AcDbField
  3
ObjectDBX Classes
 90
     1152
 91
        0
280
     0
281
     0
  0
CLASS
  1
FIELDLIST
  2
AcDbFieldList
  3
ObjectDBX Classes
 90
     1152
 91
        1
280
     0
281
     0
  0
CLASS
  1
ACDB_ALDIMOBJECTCONTEXTDATA_CLASS
  2
AcDbAlignedDimensionObjectContextData
  3
ObjectDBX Classes
 90
     1153
 91
        0
280
     0
281
     0
  0
ENDSEC
  0
SECTION
  2
TABLES
  0
TABLE
  2
VPORT
  5
8
330
0
100
AcDbSymbolTable
 70
     1
  0
VPORT
  5
1F4
330
8
100
AcDbSymbolTableRecord
100
AcDbViewportTableRecord
  2
*ACTIVE
 70
     0
 10
0.0
 20
0.0
 11
1.0
 21
1.0
 12
-17.29095748026908
 22
-0.3120708292532299
 13
0.0
 23
0.0
 14
1.0
 24
1.0
 15
0.0
 25
0.0
 16
0.0
 26
0.0
 36
1.0
 17
0.0
 27
0.0
 37
0.0
 40
109.708346522852
 41
2.698140200286123
 42
50.0
 43
0.0
 44
0.0
 50
0.0
 51
0.0
 71
     0
 72
  2000
 73
     1
 74
     1
 75
     0
 76
     0
 77
     0
 78
     0
281
     0
 65
     1
110
0.0
120
0.0
130
0.0
111
1.0
121
0.0
131
0.0
112
0.0
122
1.0
132
0.0
 79
     0
146
0.0
348
3195
 60
     3
 61
     5
292
     1
282
     1
141
0.0
142
0.0
 63
   250
421
  3355443
1001
ACAD_NAV_VCDISPLAY
1070
     3
  0
ENDTAB
  0
TABLE
  2
LTYPE
  5
5
330
0
100
AcDbSymbolTable
 70
     5
  0
LTYPE
  5
14
330
5
100
AcDbSymbolTableRecord
100
AcDbLinetypeTableRecord
  2
BYBLOCK
 70
     0
  3

 72
    65
 73
     0
 40
0.0
  0
LTYPE
  5
15
330
5
100
AcDbSymbolTableRecord
100
AcDbLinetypeTableRecord
  2
BYLAYER
 70
     0
  3

 72
    65
 73
     0
 40
0.0
  0
LTYPE
  5
16
330
5
100
AcDbSymbolTableRecord
100
AcDbLinetypeTableRecord
  2
CONTINUOUS
 70
     0
  3
Solid line
 72
    65
 73
     0
 40
0.0
  0
LTYPE
  5
9C48
330
5
100
AcDbSymbolTableRecord
100
AcDbLinetypeTableRecord
  2
CENTER
 70
     0
  3
____ _ ____ _ ____ _ ____ _ ____ _ ____ _ ____
 72
    65
 73
     4
 40
0.6
 49
0.375
 74
     0
 49
-0.075
 74
     0
 49
0.075
 74
     0
 49
-0.075
 74
     0
  0
LTYPE
  5
20A82
330
5
100
AcDbSymbolTableRecord
100
AcDbLinetypeTableRecord
  2
HIDDEN
 70
     0
  3
- - - - - - - - - - - - - - - - - - - -
 72
    65
 73
     2
 40
0.2
 49
0.1
 74
     0
 49
-0.1
 74
     0
  0
LTYPE
  5
21CB9
330
5
100
AcDbSymbolTableRecord
100
AcDbLinetypeTableRecord
  2
CENTER2
 70
     0
  3
Center (.5x) ___ _ ___ _ ___ _ ___ _ ___ _ ___
 72
    65
 73
     4
 40
28.57499999999999
 49
19.05
 74
     4
 75
     0
340
0
 46
1.0
 50
0.0
 44
0.0
 45
0.0
 49
-3.174999999999998
 74
     4
 75
     0
340
0
 46
1.0
 50
0.0
 44
0.0
 45
0.0
 49
3.174999999999998
 74
     4
 75
     0
340
0
 46
1.0
 50
0.0
 44
0.0
 45
0.0
 49
-3.174999999999998
 74
     4
 75
     0
340
0
 46
1.0
 50
0.0
 44
0.0
 45
0.0
  0
LTYPE
  5
21CBA
330
5
100
AcDbSymbolTableRecord
100
AcDbLinetypeTableRecord
  2
DASHDOT
 70
     0
  3
 __ . __ . __ . __ . __ . __ . __ . 
 72
    65
 73
     4
 40
18.5
 49
12.0
 74
     0
 49
-3.0
 74
     0
 49
0.5
 74
     0
 49
-3.0
 74
     0
  0
ENDTAB
  0
TABLE
  2
LAYER
  5
2
102
{ACAD_XDICTIONARY
360
422A
102
}
330
0
100
AcDbSymbolTable
 70
    15
  0
LAYER
  5
10
102
{ACAD_XDICTIONARY
360
1B2F5
102
}
330
2
100
AcDbSymbolTableRecord
100
AcDbLayerTableRecord
  2
0
 70
     0
 62
     7
  6
CONTINUOUS
370
    -3
390
318A
347
318E
  0
LAYER
  5
3F8C
102
{ACAD_XDICTIONARY
360
1B2F7
102
}
330
2
100
AcDbSymbolTableRecord
100
AcDbLayerTableRecord
  2
1
 70
     0
 62
     4
  6
BYBLOCK
370
    50
390
318A
347
318E
  0
LAYER
  5
3FA7
330
2
100
AcDbSymbolTableRecord
100
AcDbLayerTableRecord
  2
Defpoints
 70
     0
 62
     7
  6
CONTINUOUS
290
     0
370
    -3
390
318A
347
318E
  0
LAYER
  5
9C4A
102
{ACAD_XDICTIONARY
360
1B2F9
102
}
330
2
100
AcDbSymbolTableRecord
100
AcDbLayerTableRecord
  2
2
 70
     0
 62
     7
  6
BYBLOCK
370
    25
390
318A
347
318E
  0
LAYER
  5
9C4B
102
{ACAD_XDICTIONARY
360
1B2FB
102
}
330
2
100
AcDbSymbolTableRecord
100
AcDbLayerTableRecord
  2
4
 70
     0
 62
     2
  6
CENTER
370
    25
390
318A
347
318E
  0
LAYER
  5
9C4D
102
{ACAD_XDICTIONARY
360
1B2FD
102
}
330
2
100
AcDbSymbolTableRecord
100
AcDbLayerTableRecord
  2
CUT
 70
     0
 62
     1
  6
BYBLOCK
370
    25
390
318A
347
318E
  0
LAYER
  5
9C4E
102
{ACAD_XDICTIONARY
360
1B2FF
102
}
330
2
100
AcDbSymbolTableRecord
100
AcDbLayerTableRecord
  2
NOCUT
 70
     0
 62
     7
  6
BYBLOCK
370
    25
390
318A
347
318E
  0
LAYER
  5
9C4F
102
{ACAD_XDICTIONARY
360
1B301
102
}
330
2
100
AcDbSymbolTableRecord
100
AcDbLayerTableRecord
  2
SK2
 70
     0
 62
     7
  6
BYBLOCK
370
    25
390
318A
347
318E
  0
LAYER
  5
9C50
102
{ACAD_XDICTIONARY
360
1B303
102
}
330
2
100
AcDbSymbolTableRecord
100
AcDbLayerTableRecord
  2
SK1
 70
     0
 62
     4
  6
BYBLOCK
370
    50
390
318A
347
318E
  0
LAYER
  5
9C51
102
{ACAD_XDICTIONARY
360
1B305
102
}
330
2
100
AcDbSymbolTableRecord
100
AcDbLayerTableRecord
  2
SK4
 70
     0
 62
     2
  6
CENTER
370
    25
390
318A
347
318E
  0
LAYER
  5
13335
102
{ACAD_XDICTIONARY
360
1B307
102
}
330
2
100
AcDbSymbolTableRecord
100
AcDbLayerTableRecord
  2
INFTOTAL
 70
     0
 62
     9
  6
BYBLOCK
370
    18
390
318A
347
318E
1001
AcAecLayerStandard
1000

1000

  0
LAYER
  5
1686E
102
{ACAD_XDICTIONARY
360
1B309
102
}
330
2
100
AcDbSymbolTableRecord
100
AcDbLayerTableRecord
  2
SK6
 70
     0
 62
     5
  6
BYBLOCK
370
    -3
390
318A
347
318E
  0
LAYER
  5
21CBB
102
{ACAD_XDICTIONARY
360
21CBC
102
}
330
2
100
AcDbSymbolTableRecord
100
AcDbLayerTableRecord
  2
SK3
 70
     0
 62
     1
  6
HIDDEN
370
    35
390
318A
347
318E
  0
LAYER
  5
21CBD
102
{ACAD_XDICTIONARY
360
21CBE
102
}
330
2
100
AcDbSymbolTableRecord
100
AcDbLayerTableRecord
  2
SKVIEW1
 70
     0
 62
     4
  6
CONTINUOUS
370
    50
390
318A
347
318E
1001
AcAecLayerStandard
1000

1000

  0
LAYER
  5
21CBF
102
{ACAD_XDICTIONARY
360
21CC0
102
}
330
2
100
AcDbSymbolTableRecord
100
AcDbLayerTableRecord
  2
SKVIEW4
 70
     0
 62
     2
  6
CENTER2
370
    25
390
318A
347
318E
1001
AcAecLayerStandard
1000

1000

  0
ENDTAB
  0
TABLE
  2
STYLE
  5
3
330
0
100
AcDbSymbolTable
 70
     1
  0
STYLE
  5
11
330
3
100
AcDbSymbolTableRecord
100
AcDbTextStyleTableRecord
  2
STANDARD
 70
     0
 40
3.5
 41
0.8
 50
0.0
 71
     0
 42
3.5
  3
monos.ttf
  4

1001
ACAD
1000
Monospac821 BT
1071
       49
  0
ENDTAB
  0
TABLE
  2
VIEW
  5
6
330
0
100
AcDbSymbolTable
 70
     0
  0
ENDTAB
  0
TABLE
  2
UCS
  5
7
330
0
100
AcDbSymbolTable
 70
     0
  0
ENDTAB
  0
TABLE
  2
APPID
  5
9
330
0
100
AcDbSymbolTable
 70
    15
  0
APPID
  5
23B
330
9
100
AcDbSymbolTableRecord
100
AcDbRegAppTableRecord
  2
ACAD
 70
     0
  0
APPID
  5
3395
330
9
100
AcDbSymbolTableRecord
100
AcDbRegAppTableRecord
  2
ACAD_EXEMPT_FROM_CAD_STANDARDS
 70
     0
  0
APPID
  5
4229
330
9
100
AcDbSymbolTableRecord
100
AcDbRegAppTableRecord
  2
AcAecLayerStandard
 70
     0
  0
APPID
  5
9A1B
330
9
100
AcDbSymbolTableRecord
100
AcDbRegAppTableRecord
  2
ACAD_PSEXT
 70
     0
  0
APPID
  5
1B313
330
9
100
AcDbSymbolTableRecord
100
AcDbRegAppTableRecord
  2
ACAD_NAV_VCDISPLAY
 70
     0
  0
APPID
  5
1B355
330
9
100
AcDbSymbolTableRecord
100
AcDbRegAppTableRecord
  2
ACAD_MLEADERVER
 70
     0
  0
APPID
  5
1EC7F
330
9
100
AcDbSymbolTableRecord
100
AcDbRegAppTableRecord
  2
ACAUTHENVIRON
 70
     0
  0
APPID
  5
1EC82
330
9
100
AcDbSymbolTableRecord
100
AcDbRegAppTableRecord
  2
AcDbDynamicBlockTrueName
 70
     0
  0
APPID
  5
1EC83
330
9
100
AcDbSymbolTableRecord
100
AcDbRegAppTableRecord
  2
AcDbDynamicBlockGUID
 70
     0
  0
APPID
  5
20A85
330
9
100
AcDbSymbolTableRecord
100
AcDbRegAppTableRecord
  2
AcCmTransparency
 70
     0
  0
APPID
  5
20AE2
330
9
100
AcDbSymbolTableRecord
100
AcDbRegAppTableRecord
  2
ACAD_DSTYLE_DIMRADIAL_EXTENSION
 70
     0
  0
APPID
  5
20CB0
330
9
100
AcDbSymbolTableRecord
100
AcDbRegAppTableRecord
  2
AcadAnnotative
 70
     0
  0
APPID
  5
21667
330
9
100
AcDbSymbolTableRecord
100
AcDbRegAppTableRecord
  2
AcadAnnoMonitorAlertIconDisabled
 70
     0
  0
APPID
  5
21CC3
330
9
100
AcDbSymbolTableRecord
100
AcDbRegAppTableRecord
  2
ACAD_DSTYLE_DIMJAG
 70
     0
  0
APPID
  5
21CC4
330
9
100
AcDbSymbolTableRecord
100
AcDbRegAppTableRecord
  2
ACAD_DSTYLE_DIMTALN
 70
     0
  0
ENDTAB
  0
TABLE
  2
DIMSTYLE
  5
A
330
0
100
AcDbSymbolTable
 70
     1
100
AcDbDimStyleTable
 71
     1
340
243
  0
DIMSTYLE
105
243
102
{ACAD_REACTORS
330
21E07
330
21E06
330
21E08
330
21E05
330
21F2E
102
}
330
A
100
AcDbSymbolTableRecord
100
AcDbDimStyleTableRecord
  2
STANDARD
 70
     0
 41
4.57
 47
0.01
 48
0.01
 73
     0
 74
     0
 77
     1
 78
     8
140
3.5
271
     3
272
     3
284
     8
289
     0
340
11
  0
ENDTAB
  0
TABLE
  2
BLOCK_RECORD
  5
1
330
0
100
AcDbSymbolTable
 70
     7
  0
BLOCK_RECORD
  5
1F
102
{ACAD_XDICTIONARY
360
339C
102
}
330
1
100
AcDbSymbolTableRecord
100
AcDbBlockTableRecord
  2
*MODEL_SPACE
340
31A6
 70
     0
280
     1
281
     0
  0
BLOCK_RECORD
  5
1B
330
1
100
AcDbSymbolTableRecord
100
AcDbBlockTableRecord
  2
*PAPER_SPACE
340
31A7
 70
     0
280
     1
281
     0
  0
BLOCK_RECORD
  5
1B3D7
102
{ACAD_XDICTIONARY
360
1DE81
102
}
330
1
100
AcDbSymbolTableRecord
100
AcDbBlockTableRecord
  2
cero_point
340
0
310
28000000200000002000000001002000000000000010000001000000010000000000000000000000302821FF302821FF302821FF302821FF302821FF302821FF302821FF302821FF302821FF302821FF302821FF302821FF302821FF302821FF302821FF302821FF302821FF302821FF302821FF302821FF302821FF302821
310
FF302821FF302821FF302821FF302821FF302821FF302821FF302821FF302821FF302821FF302821FF302821FF302821FF302821FF302821FF302821FF302821FF302821FF302821FF302821FF302821FF302821FF302821FF302821FF302821FF302821FFFFFF00FFFFFF00FFFFFF00FF302821FF302821FF302821FF3028
310
21FF302821FF302821FF302821FF302821FF302821FF302821FF302821FF302821FF302821FF302821FF302821FF302821FF302821FF302821FF302821FF302821FF302821FF302821FF302821FF302821FFFFFF00FFFFFF00FFFFFF00FFFFFF00FFFFFF00FFFFFF00FFFFFF00FF302821FFFFFF00FFFFFF00FFFFFF00FF30
310
2821FF302821FF302821FF302821FF302821FF302821FF302821FF302821FF302821FF302821FF302821FF302821FF302821FF302821FF302821FF302821FF302821FF302821FF302821FFFFFF00FFFFFF00FFFFFF00FFFFFF00FFFFFF00FFFFFF00FFFFFF00FFFFFF00FFFFFF00FF302821FF302821FF302821FF302821FF
310
FFFF00FFFFFF00FF302821FF302821FF302821FF302821FF302821FF302821FF302821FF302821FF302821FF302821FF302821FF302821FF302821FF302821FF302821FF302821FFFFFF00FFFFFF00FFFFFF00FFFFFF00FFFFFF00FFFFFF00FFFFFF00FFFFFF00FFFFFF00FFFFFF00FF302821FF302821FF302821FF302821
310
FF302821FF302821FFFFFF00FFFFFF00FF302821FF302821FF302821FF302821FF302821FF302821FF302821FF302821FF302821FF302821FF302821FF302821FF302821FFFFFF00FFFFFF00FFFFFF00FFFFFF00FFFFFF00FFFFFF00FFFFFF00FFFFFF00FFFFFF00FFFFFF00FFFFFF00FF302821FF302821FF302821FF3028
310
21FF302821FF302821FF302821FF302821FFFFFF00FF302821FF302821FF302821FF302821FF302821FF302821FF302821FF302821FF302821FF302821FF302821FFFFFF00FFFFFF00FFFFFF00FFFFFF00FFFFFF00FFFFFF00FFFFFF00FFFFFF00FFFFFF00FFFFFF00FFFFFF00FFFFFF00FF302821FF302821FF302821FF30
310
2821FF302821FF302821FF302821FF302821FF302821FFFFFF00FF302821FF302821FF302821FF302821FF302821FF302821FF302821FF302821FF302821FFFFFF00FFFFFF00FFFFFF00FFFFFF00FFFFFF00FFFFFF00FFFFFF00FFFFFF00FFFFFF00FFFFFF00FFFFFF00FFFFFF00FFFFFF00FF302821FF302821FF302821FF
310
302821FF302821FF302821FF302821FF302821FF302821FF302821FFFFFF00FF302821FF302821FF302821FF302821FF302821FF302821FF302821FFFFFF00FFFFFF00FFFFFF00FFFFFF00FFFFFF00FFFFFF00FFFFFF00FFFFFF00FFFFFF00FFFFFF00FFFFFF00FFFFFF00FFFFFF00FFFFFF00FF302821FF302821FF302821
310
FF302821FF302821FF302821FF302821FF302821FF302821FF302821FFFFFF00FF302821FF302821FF302821FF302821FF302821FF302821FF302821FFFFFF00FFFFFF00FFFFFF00FFFFFF00FFFFFF00FFFFFF00FFFFFF00FFFFFF00FFFFFF00FFFFFF00FFFFFF00FFFFFF00FFFFFF00FFFFFF00FF302821FF302821FF3028
310
21FF302821FF302821FF302821FF302821FF302821FF302821FF302821FF302821FFFFFF00FF302821FF302821FF302821FF302821FF302821FFFFFF00FFFFFF00FFFFFF00FFFFFF00FFFFFF00FFFFFF00FFFFFF00FFFFFF00FFFFFF00FFFFFF00FFFFFF00FFFFFF00FFFFFF00FFFFFF00FFFFFF00FF302821FF302821FF30
310
2821FF302821FF302821FF302821FF302821FF302821FF302821FF302821FF302821FF302821FFFFFF00FF302821FF302821FF302821FF302821FFFFFF00FFFFFF00FFFFFF00FFFFFF00FFFFFF00FFFFFF00FFFFFF00FFFFFF00FFFFFF00FFFFFF00FFFFFF00FFFFFF00FFFFFF00FFFFFF00FFFFFF00FF302821FF302821FF
310
302821FF302821FF302821FF302821FF302821FF302821FF302821FF302821FF302821FF302821FFFFFF00FF302821FF302821FF302821FF302821FFFFFF00FFFFFF00FFFFFF00FFFFFF00FFFFFF00FFFFFF00FFFFFF00FFFFFF00FFFFFF00FFFFFF00FFFFFF00FFFFFF00FFFFFF00FFFFFF00FFFFFF00FF302821FF302821
310
FF302821FF302821FF302821FF302821FF302821FF302821FF302821FF302821FF302821FF302821FFFFFF00FF302821FF302821FF302821FF302821FFFFFF00FFFFFF00FFFFFF00FFFFFF00FFFFFF00FFFFFF00FFFFFF00FFFFFF00FFFFFF00FFFFFF00FFFFFF00FFFFFF00FFFFFF00FFFFFF00FFFFFF00FF302821FF3028
310
21FF302821FF302821FF302821FF302821FF302821FF302821FF302821FF302821FF302821FF302821FFFFFF00FF302821FF302821FF302821FFFFFF00FFFFFF00FFFFFF00FFFFFF00FFFFFF00FFFFFF00FFFFFF00FFFFFF00FFFFFF00FFFFFF00FFFFFF00FFFFFF00FFFFFF00FFFFFF00FFFFFF00FFFFFF00FF302821FF30
310
2821FF302821FF302821FF302821FF302821FF302821FF302821FF302821FF302821FF302821FF302821FF302821FFFFFF00FF302821FF302821FFFFFF00FFFFFF00FFFFFF00FFFFFF00FFFFFF00FFFFFF00FFFFFF00FFFFFF00FFFFFF00FFFFFF00FFFFFF00FFFFFF00FFFFFF00FFFFFF00FFFFFF00FFFFFF00FFFFFF00FF
310
FFFF00FFFFFF00FFFFFF00FFFFFF00FFFFFF00FFFFFF00FFFFFF00FFFFFF00FFFFFF00FFFFFF00FFFFFF00FFFFFF00FFFFFF00FF302821FF302821FFFFFF00FF302821FF302821FF302821FF302821FF302821FF302821FF302821FF302821FF302821FF302821FF302821FF302821FF302821FF302821FFFFFF00FFFFFF00
310
FFFFFF00FFFFFF00FFFFFF00FFFFFF00FFFFFF00FFFFFF00FFFFFF00FFFFFF00FFFFFF00FFFFFF00FFFFFF00FFFFFF00FFFFFF00FF302821FF302821FFFFFF00FF302821FF302821FF302821FF302821FF302821FF302821FF302821FF302821FF302821FF302821FF302821FF302821FF302821FF302821FFFFFF00FFFFFF
310
00FFFFFF00FFFFFF00FFFFFF00FFFFFF00FFFFFF00FFFFFF00FFFFFF00FFFFFF00FFFFFF00FFFFFF00FFFFFF00FFFFFF00FF302821FF302821FF302821FF302821FFFFFF00FF302821FF302821FF302821FF302821FF302821FF302821FF302821FF302821FF302821FF302821FF302821FF302821FF302821FFFFFF00FFFF
310
FF00FFFFFF00FFFFFF00FFFFFF00FFFFFF00FFFFFF00FFFFFF00FFFFFF00FFFFFF00FFFFFF00FFFFFF00FFFFFF00FFFFFF00FF302821FF302821FF302821FF302821FFFFFF00FF302821FF302821FF302821FF302821FF302821FF302821FF302821FF302821FF302821FF302821FF302821FF302821FF302821FFFFFF00FF
310
FFFF00FFFFFF00FFFFFF00FFFFFF00FFFFFF00FFFFFF00FFFFFF00FFFFFF00FFFFFF00FFFFFF00FFFFFF00FFFFFF00FFFFFF00FF302821FF302821FF302821FF302821FFFFFF00FF302821FF302821FF302821FF302821FF302821FF302821FF302821FF302821FF302821FF302821FF302821FF302821FF302821FFFFFF00
310
FFFFFF00FFFFFF00FFFFFF00FFFFFF00FFFFFF00FFFFFF00FFFFFF00FFFFFF00FFFFFF00FFFFFF00FFFFFF00FFFFFF00FFFFFF00FF302821FF302821FF302821FF302821FF302821FFFFFF00FF302821FF302821FF302821FF302821FF302821FF302821FF302821FF302821FF302821FF302821FF302821FF302821FFFFFF
310
00FFFFFF00FFFFFF00FFFFFF00FFFFFF00FFFFFF00FFFFFF00FFFFFF00FFFFFF00FFFFFF00FFFFFF00FFFFFF00FFFFFF00FFFFFF00FF302821FF302821FF302821FF302821FF302821FFFFFF00FF302821FF302821FF302821FF302821FF302821FF302821FF302821FF302821FF302821FF302821FF302821FF302821FFFF
310
FF00FFFFFF00FFFFFF00FFFFFF00FFFFFF00FFFFFF00FFFFFF00FFFFFF00FFFFFF00FFFFFF00FFFFFF00FFFFFF00FFFFFF00FF302821FF302821FF302821FF302821FF302821FF302821FF302821FFFFFF00FF302821FF302821FF302821FF302821FF302821FF302821FF302821FF302821FF302821FF302821FF302821FF
310
FFFF00FFFFFF00FFFFFF00FFFFFF00FFFFFF00FFFFFF00FFFFFF00FFFFFF00FFFFFF00FFFFFF00FFFFFF00FFFFFF00FFFFFF00FF302821FF302821FF302821FF302821FF302821FF302821FF302821FFFFFF00FF302821FF302821FF302821FF302821FF302821FF302821FF302821FF302821FF302821FF302821FF302821
310
FFFFFF00FFFFFF00FFFFFF00FFFFFF00FFFFFF00FFFFFF00FFFFFF00FFFFFF00FFFFFF00FFFFFF00FFFFFF00FFFFFF00FF302821FF302821FF302821FF302821FF302821FF302821FF302821FF302821FF302821FFFFFF00FF302821FF302821FF302821FF302821FF302821FF302821FF302821FF302821FF302821FF3028
310
21FFFFFF00FFFFFF00FFFFFF00FFFFFF00FFFFFF00FFFFFF00FFFFFF00FFFFFF00FFFFFF00FFFFFF00FFFFFF00FF302821FF302821FF302821FF302821FF302821FF302821FF302821FF302821FF302821FF302821FF302821FFFFFF00FF302821FF302821FF302821FF302821FF302821FF302821FF302821FF302821FF30
310
2821FFFFFF00FFFFFF00FFFFFF00FFFFFF00FFFFFF00FFFFFF00FFFFFF00FFFFFF00FFFFFF00FFFFFF00FF302821FF302821FF302821FF302821FF302821FF302821FF302821FF302821FF302821FF302821FF302821FF302821FF302821FFFFFF00FF302821FF302821FF302821FF302821FF302821FF302821FF302821FF
310
302821FFFFFF00FFFFFF00FFFFFF00FFFFFF00FFFFFF00FFFFFF00FFFFFF00FFFFFF00FFFFFF00FF302821FF302821FF302821FF302821FF302821FF302821FF302821FF302821FF302821FF302821FF302821FF302821FF302821FF302821FF302821FFFFFF00FFFFFF00FF302821FF302821FF302821FF302821FF302821
310
FF302821FFFFFF00FFFFFF00FFFFFF00FFFFFF00FFFFFF00FFFFFF00FFFFFF00FFFFFF00FF302821FF302821FF302821FF302821FF302821FF302821FF302821FF302821FF302821FF302821FF302821FF302821FF302821FF302821FF302821FF302821FF302821FF302821FFFFFF00FFFFFF00FFFFFF00FFFFFF00FFFFFF
310
00FF302821FFFFFF00FFFFFF00FFFFFF00FFFFFF00FFFFFF00FFFFFF00FF302821FF302821FF302821FF302821FF302821FF302821FF302821FF302821FF302821FF302821FF302821FF302821FF302821FF302821FF302821FF302821FF302821FF302821FF302821FF302821FF302821FF302821FF302821FF302821FF30
310
2821FFFFFF00FFFFFF00FFFFFF00FF302821FF302821FF302821FF302821FF302821FF302821FF302821FF302821FF302821FF302821FF302821FF302821FF302821FF302821FF302821FF302821FF302821FF302821FF302821FF302821FF302821FF302821FF302821FF302821FF302821FF302821FF302821FF302821FF
310
302821FF302821FF302821FF302821FF302821FF302821FF302821FF302821FF302821FF302821FF302821FF302821FF302821FF302821FF302821FF302821FF302821FF302821FF
102
{BLKREFS
331
21DFD
102
}
 70
     0
280
     1
281
     1
  0
BLOCK_RECORD
  5
21C78
330
1
100
AcDbSymbolTableRecord
100
AcDbBlockTableRecord
  2
BLOCK81
340
0
 70
     0
280
     1
281
     0
  0
BLOCK_RECORD
  5
21F2F
330
1
100
AcDbSymbolTableRecord
100
AcDbBlockTableRecord
  2
*D2
340
0
 70
     0
280
     1
281
     0
  0
BLOCK_RECORD
  5
21F39
330
1
100
AcDbSymbolTableRecord
100
AcDbBlockTableRecord
  2
*D3
340
0
 70
     0
280
     1
281
     0
  0
BLOCK_RECORD
  5
21F45
330
1
100
AcDbSymbolTableRecord
100
AcDbBlockTableRecord
  2
*D4
340
0
 70
     0
280
     1
281
     0
  0
BLOCK_RECORD
  5
21F51
330
1
100
AcDbSymbolTableRecord
100
AcDbBlockTableRecord
  2
*D5
340
0
 70
     0
280
     1
281
     0
  0
BLOCK_RECORD
  5
21F5F
330
1
100
AcDbSymbolTableRecord
100
AcDbBlockTableRecord
  2
*D6
340
0
 70
     0
280
     1
281
     0
  0
ENDTAB
  0
ENDSEC
  0
SECTION
  2
BLOCKS
  0
BLOCK
  5
20
330
1F
100
AcDbEntity
  8
0
100
AcDbBlockBegin
  2
*MODEL_SPACE
 70
     0
 10
0.0
 20
0.0
 30
0.0
  3
*MODEL_SPACE
  1

  0
ENDBLK
  5
21
330
1F
100
AcDbEntity
  8
0
100
AcDbBlockEnd
  0
BLOCK
  5
1C
330
1B
100
AcDbEntity
 67
     1
  8
0
100
AcDbBlockBegin
  2
*PAPER_SPACE
 70
     0
 10
0.0
 20
0.0
 30
0.0
  3
*PAPER_SPACE
  1

  0
ENDBLK
  5
1D
330
1B
100
AcDbEntity
 67
     1
  8
0
100
AcDbBlockEnd
  0
BLOCK
  5
1B3D8
330
1B3D7
100
AcDbEntity
  8
0
100
AcDbBlockBegin
  2
cero_point
 70
     0
 10
0.0
 20
0.0
 30
0.0
  3
cero_point
  1

  0
HATCH
  5
1B3DA
330
1B3D7
100
AcDbEntity
  8
1
  6
ByBlock
370
    50
100
AcDbHatch
 10
0.0
 20
0.0
 30
0.0
210
0.0
220
0.0
230
1.0
  2
SOLID
 70
     1
 71
     0
 91
        2
 92
        7
 72
     1
 73
     1
 93
        3
 10
-0.0000000000001137
 20
0.0
 42
0.0
 10
-2.950972054112752
 20
0.0
 42
0.4142135623730968
 10
-0.0000000000001137
 20
-2.950972054112583
 42
0.0
 97
        0
 92
        7
 72
     1
 73
     1
 93
        3
 10
-0.0000000000001137
 20
2.950972054112638
 42
0.0
 10
-0.0000000000001137
 20
0.0
 42
0.0
 10
2.950972054112526
 20
0.0
 42
0.4142135623730966
 97
        0
 75
     0
 76
     1
 47
0.1190009775223266
 98
        2
 10
-0.7445530588121301
 20
-0.9212244733764125
 10
1.279464601852737
 20
1.696796923046345
450
        0
451
        0
460
0.0
461
0.0
452
        0
462
0.0
453
        0
470

  0
LWPOLYLINE
  5
1B3DB
330
1B3D7
100
AcDbEntity
  8
1
  6
ByBlock
370
    50
100
AcDbPolyline
 90
        3
 70
     1
 43
0.0
 10
-0.0000000000001137
 20
0.0
 10
2.950972054112526
 20
0.0
 42
0.4142135623730966
 10
-0.0000000000001137
 20
2.950972054112638
  0
LINE
  5
1B3DC
330
1B3D7
100
AcDbEntity
  8
1
  6
ByBlock
370
    50
100
AcDbLine
 10
-0.0000000000001137
 20
-2.950972054112583
 30
0.0
 11
-0.0000000000001137
 21
2.950972054112638
 31
0.0
  0
LWPOLYLINE
  5
1B3DD
330
1B3D7
100
AcDbEntity
  8
1
  6
ByBlock
370
    50
100
AcDbPolyline
 90
        3
 70
     1
 43
0.0
 10
-0.0000000000001137
 20
-2.950972054112583
 10
-0.0000000000001137
 20
0.0
 10
-2.950972054112752
 20
0.0
 42
0.4142135623730966
  0
LINE
  5
1B3DE
330
1B3D7
100
AcDbEntity
  8
1
  6
ByBlock
370
    50
100
AcDbLine
 10
2.950972054112638
 20
0.0
 30
0.0
 11
-2.950972054112638
 21
0.0
 31
0.0
  0
CIRCLE
  5
1B3DF
330
1B3D7
100
AcDbEntity
  8
1
  6
ByBlock
370
    50
100
AcDbCircle
 10
-0.0000000000001137
 20
0.0
 30
0.0
 40
2.950972054112601
  0
ENDBLK
  5
1B3D9
330
1B3D7
100
AcDbEntity
  8
0
100
AcDbBlockEnd
  0
BLOCK
  5
21C79
330
21C78
100
AcDbEntity
  8
0
370
     0
100
AcDbBlockBegin
  2
BLOCK81
 70
     0
 10
0.0
 20
0.0
 30
0.0
  3
BLOCK81
  1

  0
LINE
  5
21C7A
330
21C78
100
AcDbEntity
  8
0
  6
DASHDOT
 62
     7
 48
0.1118
370
    13
100
AcDbLine
 10
24.740999
 20
-12.045
 30
0.0
 11
20.268999
 21
-12.045
 31
0.0
  0
LINE
  5
21C7B
330
21C78
100
AcDbEntity
  8
0
  6
DASHDOT
 62
     7
 48
0.1118
370
    13
100
AcDbLine
 10
22.504999
 20
-9.808999999999999
 30
0.0
 11
22.504999
 21
-14.281
 31
0.0
  0
ENDBLK
  5
21C7C
330
21C78
100
AcDbEntity
  8
0
100
AcDbBlockEnd
  0
BLOCK
  5
21F30
330
21F2F
100
AcDbEntity
  8
0
100
AcDbBlockBegin
  2
*D2
 70
     1
 10
0.0
 20
0.0
 30
0.0
  3
*D2
  1

  0
LINE
  5
220F9
330
21F2F
100
AcDbEntity
  8
SK2
 62
     0
440
 16777216
370
    -2
100
AcDbLine
 10
-13.86249999999973
 20
6.800000000000096
 30
0.0
 11
-27.93703526026245
 21
6.800000000000101
 31
0.0
  0
LINE
  5
220FA
330
21F2F
100
AcDbEntity
  8
SK2
 62
     0
440
 16777216
370
    -2
100
AcDbLine
 10
-13.86249999999973
 20
-6.800000000000013
 30
0.0
 11
-27.93703526026245
 21
-6.800000000000006
 31
0.0
  0
LINE
  5
220FB
330
21F2F
100
AcDbEntity
  8
SK2
 62
     0
440
 16777216
370
    -2
100
AcDbLine
 10
-27.75703526026247
 20
2.2300000000001
 30
0.0
 11
-27.75703526026247
 21
-2.230000000000004
 31
0.0
  0
SOLID
  5
220FC
330
21F2F
100
AcDbEntity
  8
SK2
 62
     0
440
 16777216
100
AcDbTrace
 10
-28.51870192692912
 20
2.2300000000001
 30
0.0
 11
-26.99536859359579
 21
2.2300000000001
 31
0.0
 12
-27.75703526026247
 22
6.800000000000101
 32
0.0
 13
-27.75703526026247
 23
6.800000000000101
 33
0.0
  0
SOLID
  5
220FD
330
21F2F
100
AcDbEntity
  8
SK2
 62
     0
440
 16777216
100
AcDbTrace
 10
-28.51870192692912
 20
-2.230000000000004
 30
0.0
 11
-26.99536859359579
 21
-2.230000000000005
 31
0.0
 12
-27.75703526026247
 22
-6.800000000000006
 32
0.0
 13
-27.75703526026247
 23
-6.800000000000006
 33
0.0
  0
MTEXT
  5
220FE
330
21F2F
100
AcDbEntity
  8
SK2
 62
     0
440
 16777216
100
AcDbMText
 10
-29.71017651114088
 20
-1.631203501507513
 30
0.0
 40
3.5
 41
0.0
 46
0.0
 71
     5
 72
     1
  1
\A1;%%C13.6
 11
0.0000000000000001
 21
1.0
 31
0.0
 73
     1
 44
1.0
  0
POINT
  5
220FF
330
21F2F
100
AcDbEntity
  8
Defpoints
 62
     0
440
 16777216
100
AcDbPoint
 10
-13.79999999999973
 20
6.800000000000096
 30
0.0
  0
POINT
  5
22100
330
21F2F
100
AcDbEntity
  8
Defpoints
 62
     0
440
 16777216
100
AcDbPoint
 10
-13.79999999999973
 20
-6.800000000000013
 30
0.0
  0
POINT
  5
22101
330
21F2F
100
AcDbEntity
  8
Defpoints
 62
     0
440
 16777216
100
AcDbPoint
 10
-27.75703526026247
 20
-6.800000000000006
 30
0.0
  0
ENDBLK
  5
21F31
330
21F2F
100
AcDbEntity
  8
0
100
AcDbBlockEnd
  0
BLOCK
  5
21F3A
330
21F39
100
AcDbEntity
  8
0
100
AcDbBlockBegin
  2
*D3
 70
     1
 10
0.0
 20
0.0
 30
0.0
  3
*D3
  1

  0
LINE
  5
220D3
330
21F39
100
AcDbEntity
  8
2
 62
     0
440
 16777216
370
    -2
100
AcDbLine
 10
28.32249999999999
 20
8.450000000000102
 30
0.0
 11
45.96429265554028
 21
8.450000000000096
 31
0.0
  0
LINE
  5
220D4
330
21F39
100
AcDbEntity
  8
2
 62
     0
440
 16777216
370
    -2
100
AcDbLine
 10
28.32249999999999
 20
-8.449999999999901
 30
0.0
 11
45.96429265554028
 21
-8.449999999999905
 31
0.0
  0
LINE
  5
220D5
330
21F39
100
AcDbEntity
  8
2
 62
     0
440
 16777216
370
    -2
100
AcDbLine
 10
45.78429265554028
 20
3.880000000000095
 30
0.0
 11
45.78429265554028
 21
-3.879999999999908
 31
0.0
  0
SOLID
  5
220D6
330
21F39
100
AcDbEntity
  8
2
 62
     0
440
 16777216
100
AcDbTrace
 10
45.02262598887361
 20
3.880000000000095
 30
0.0
 11
46.54595932220696
 21
3.880000000000095
 31
0.0
 12
45.78429265554028
 22
8.450000000000096
 32
0.0
 13
45.78429265554028
 23
8.450000000000096
 33
0.0
  0
SOLID
  5
220D7
330
21F39
100
AcDbEntity
  8
2
 62
     0
440
 16777216
100
AcDbTrace
 10
45.02262598887361
 20
-3.879999999999908
 30
0.0
 11
46.54595932220696
 21
-3.879999999999908
 31
0.0
 12
45.78429265554028
 22
-8.449999999999905
 32
0.0
 13
45.78429265554028
 23
-8.449999999999905
 33
0.0
  0
MTEXT
  5
220D8
330
21F39
100
AcDbEntity
  8
2
 62
     0
440
 16777216
100
AcDbMText
 10
43.88280284528028
 20
0.2763113467123051
 30
0.0
 40
3.5
 41
0.0
 46
0.0
 71
     5
 72
     1
  1
\A1;16.9
 11
0.0000000000000001
 21
1.0
 31
0.0
 73
     1
 44
1.0
  0
POINT
  5
220D9
330
21F39
100
AcDbEntity
  8
Defpoints
 62
     0
440
 16777216
100
AcDbPoint
 10
28.25999999999999
 20
8.450000000000102
 30
0.0
  0
POINT
  5
220DA
330
21F39
100
AcDbEntity
  8
Defpoints
 62
     0
440
 16777216
100
AcDbPoint
 10
28.25999999999999
 20
-8.449999999999901
 30
0.0
  0
POINT
  5
220DB
330
21F39
100
AcDbEntity
  8
Defpoints
 62
     0
440
 16777216
100
AcDbPoint
 10
45.78429265554028
 20
-8.449999999999905
 30
0.0
  0
ENDBLK
  5
21F3B
330
21F39
100
AcDbEntity
  8
0
100
AcDbBlockEnd
  0
BLOCK
  5
21F46
330
21F45
100
AcDbEntity
  8
0
100
AcDbBlockBegin
  2
*D4
 70
     1
 10
0.0
 20
0.0
 30
0.0
  3
*D4
  1

  0
LINE
  5
220DC
330
21F45
100
AcDbEntity
  8
2
 62
     0
440
 16777216
370
    -2
100
AcDbLine
 10
31.60000104065247
 20
0.0624999999913364
 30
0.0
 11
31.60065216133946
 21
39.167811772998
 31
0.0
  0
LINE
  5
220DD
330
21F45
100
AcDbEntity
  8
2
 62
     0
440
 16777216
370
    -2
100
AcDbLine
 10
0.0000010406525632
 20
16.68687099999144
 30
0.0
 11
0.0003753669916002
 21
39.16833793154277
 31
0.0
  0
LINE
  5
220DE
330
21F45
100
AcDbEntity
  8
2
 62
     0
440
 16777216
370
    -2
100
AcDbLine
 10
27.03064916489357
 20
38.98788786553837
 30
0.0
 11
4.570372369278731
 21
38.98826183905229
 31
0.0
  0
SOLID
  5
220DF
330
21F45
100
AcDbEntity
  8
2
 62
     0
440
 16777216
100
AcDbTrace
 10
27.03066184697947
 20
39.74955453209945
 30
0.0
 11
27.03063648280766
 21
38.22622119897729
 31
0.0
 12
31.60064916426008
 22
38.98781177302296
 32
0.0
 13
31.60064916426008
 23
38.98781177302296
 33
0.0
  0
SOLID
  5
220E0
330
21F45
100
AcDbEntity
  8
2
 62
     0
440
 16777216
100
AcDbTrace
 10
4.570385051364634
 20
39.74992850561338
 30
0.0
 11
4.570359687192826
 21
38.22659517249121
 31
0.0
 12
0.0003723699122182
 22
38.98833793156772
 32
0.0
 13
0.0003723699122182
 23
38.98833793156772
 33
0.0
  0
MTEXT
  5
220E1
330
21F45
100
AcDbEntity
  8
2
 62
     0
440
 16777216
100
AcDbMText
 10
15.80011935606718
 20
40.88956466933609
 30
0.0
 40
3.5
 41
0.0
 46
0.0
 71
     5
 72
     1
  1
\A1;31.6
 11
0.9999999998613814
 21
-0.000016650441011
 31
0.0
 73
     1
 44
1.0
  0
POINT
  5
220E2
330
21F45
100
AcDbEntity
  8
Defpoints
 62
     0
440
 16777216
100
AcDbPoint
 10
31.59999999999991
 20
0.0
 30
0.0
  0
POINT
  5
220E3
330
21F45
100
AcDbEntity
  8
Defpoints
 62
     0
440
 16777216
100
AcDbPoint
 10
0.0
 20
16.62437100000011
 30
0.0
  0
POINT
  5
220E4
330
21F45
100
AcDbEntity
  8
Defpoints
 62
     0
440
 16777216
100
AcDbPoint
 10
0.0003723699122182
 20
38.98833793156772
 30
0.0
  0
ENDBLK
  5
21F47
330
21F45
100
AcDbEntity
  8
0
100
AcDbBlockEnd
  0
BLOCK
  5
21F52
330
21F51
100
AcDbEntity
  8
0
100
AcDbBlockBegin
  2
*D5
 70
     1
 10
0.0
 20
0.0
 30
0.0
  3
*D5
  1

  0
LINE
  5
220E5
330
21F51
100
AcDbEntity
  8
2
 62
     0
440
 16777216
370
    -2
100
AcDbLine
 10
31.60000104065247
 20
0.0624999999913364
 30
0.0
 11
31.60046900648834
 21
28.16781177452297
 31
0.0
  0
LINE
  5
220E6
330
21F51
100
AcDbEntity
  8
2
 62
     0
440
 16777216
370
    -2
100
AcDbLine
 10
27.46000104065249
 20
16.26249999999133
 30
0.0
 11
27.46019927049177
 21
28.16788071183999
 31
0.0
  0
LINE
  5
220E7
330
21F51
100
AcDbEntity
  8
2
 62
     0
440
 16777216
370
    -2
100
AcDbLine
 10
36.17046600877547
 20
27.98773568203252
 30
0.0
 11
40.74046600814197
 21
27.98765958951709
 31
0.0
  0
LINE
  5
220E8
330
21F51
100
AcDbEntity
  8
2
 62
     0
440
 16777216
370
    -2
100
AcDbLine
 10
22.89019627404587
 20
27.98795680438037
 30
0.0
 11
8.870484399671477
 21
27.98819023876595
 31
0.0
  0
LINE
  5
220E9
330
21F51
100
AcDbEntity
  8
2
 62
     0
440
 16777216
370
    -2
100
AcDbLine
 10
31.60046600940896
 20
27.98781177454793
 30
0.0
 11
27.46019627341239
 21
27.98788071186495
 31
0.0
  0
SOLID
  5
220EA
330
21F51
100
AcDbEntity
  8
2
 62
     0
440
 16777216
100
AcDbTrace
 10
36.17047869086138
 20
28.74940234859359
 30
0.0
 11
36.17045332668958
 21
27.22606901547142
 31
0.0
 12
31.60046600940896
 22
27.98781177454793
 32
0.0
 13
31.60046600940896
 23
27.98781177454793
 33
0.0
  0
SOLID
  5
220EB
330
21F51
100
AcDbEntity
  8
2
 62
     0
440
 16777216
100
AcDbTrace
 10
22.89020895613179
 20
28.74962347094145
 30
0.0
 11
22.89018359195997
 21
27.22629013781928
 31
0.0
 12
27.46019627341239
 22
27.98788071186495
 32
0.0
 13
27.46019627341239
 23
27.98788071186495
 33
0.0
  0
MTEXT
  5
220EC
330
21F51
100
AcDbEntity
  8
2
 62
     0
440
 16777216
100
AcDbMText
 10
13.59537115827665
 20
29.83917973342108
 30
0.0
 40
3.5
 41
0.0
 46
0.0
 71
     5
 72
     1
  1
\A1;4.14
 11
0.9999999998613814
 21
-0.000016650441011
 31
0.0
 73
     1
 44
1.0
  0
POINT
  5
220ED
330
21F51
100
AcDbEntity
  8
Defpoints
 62
     0
440
 16777216
100
AcDbPoint
 10
31.59999999999991
 20
0.0
 30
0.0
  0
POINT
  5
220EE
330
21F51
100
AcDbEntity
  8
Defpoints
 62
     0
440
 16777216
100
AcDbPoint
 10
27.45999999999992
 20
16.19999999999999
 30
0.0
  0
POINT
  5
220EF
330
21F51
100
AcDbEntity
  8
Defpoints
 62
     0
440
 16777216
100
AcDbPoint
 10
27.46019627341239
 20
27.98788071186495
 30
0.0
  0
ENDBLK
  5
21F53
330
21F51
100
AcDbEntity
  8
0
100
AcDbBlockEnd
  0
BLOCK
  5
21F60
330
21F5F
100
AcDbEntity
  8
0
100
AcDbBlockBegin
  2
*D6
 70
     1
 10
0.0
 20
0.0
 30
0.0
  3
*D6
  1

  0
LINE
  5
220F0
330
21F5F
100
AcDbEntity
  8
2
 62
     0
440
 16777216
370
    -2
100
AcDbLine
 10
26.72249999999997
 20
-17.0
 30
0.0
 11
59.9642926555403
 21
-17.00000000000001
 31
0.0
  0
LINE
  5
220F1
330
21F5F
100
AcDbEntity
  8
2
 62
     0
440
 16777216
370
    -2
100
AcDbLine
 10
26.72249999999997
 20
17.00000000000011
 30
0.0
 11
59.9642926555403
 21
17.0000000000001
 31
0.0
  0
LINE
  5
220F2
330
21F5F
100
AcDbEntity
  8
2
 62
     0
440
 16777216
370
    -2
100
AcDbLine
 10
59.78429265554028
 20
-12.43000000000001
 30
0.0
 11
59.78429265554028
 21
12.4300000000001
 31
0.0
  0
SOLID
  5
220F3
330
21F5F
100
AcDbEntity
  8
2
 62
     0
440
 16777216
100
AcDbTrace
 10
59.02262598887364
 20
-12.43000000000001
 30
0.0
 11
60.54595932220696
 21
-12.43000000000001
 31
0.0
 12
59.78429265554028
 22
-17.00000000000001
 32
0.0
 13
59.78429265554028
 23
-17.00000000000001
 33
0.0
  0
SOLID
  5
220F4
330
21F5F
100
AcDbEntity
  8
2
 62
     0
440
 16777216
100
AcDbTrace
 10
59.02262598887364
 20
12.4300000000001
 30
0.0
 11
60.54595932220696
 21
12.4300000000001
 31
0.0
 12
59.78429265554028
 22
17.0000000000001
 32
0.0
 13
59.78429265554028
 23
17.0000000000001
 33
0.0
  0
MTEXT
  5
220F5
330
21F5F
100
AcDbEntity
  8
2
 62
     0
440
 16777216
100
AcDbMText
 10
57.83115140466185
 20
0.0000000000000002
 30
0.0
 40
3.5
 41
0.0
 46
0.0
 71
     5
 72
     1
  1
\A1;%%c34
 11
0.0000000000000001
 21
1.0
 31
0.0
 73
     1
 44
1.0
  0
POINT
  5
220F6
330
21F5F
100
AcDbEntity
  8
Defpoints
 62
     0
440
 16777216
100
AcDbPoint
 10
26.65999999999997
 20
-17.0
 30
0.0
  0
POINT
  5
220F7
330
21F5F
100
AcDbEntity
  8
Defpoints
 62
     0
440
 16777216
100
AcDbPoint
 10
26.65999999999997
 20
17.00000000000011
 30
0.0
  0
POINT
  5
220F8
330
21F5F
100
AcDbEntity
  8
Defpoints
 62
     0
440
 16777216
100
AcDbPoint
 10
59.78429265554028
 20
17.0000000000001
 30
0.0
  0
ENDBLK
  5
21F61
330
21F5F
100
AcDbEntity
  8
0
100
AcDbBlockEnd
  0
ENDSEC
  0
SECTION
  2
ENTITIES
  0
MTEXT
  5
211A0
330
1F
100
AcDbEntity
  8
SK6
100
AcDbMText
 10
-2.352914815380811
 20
-36.38399869826857
 30
0.0
 40
3.5
 41
41.87058589293636
 46
0.0
 71
     2
 72
     1
  1
CD3400032YKR00
 73
     1
 44
1.0
1001
ACAD
1000
MTEXTBEGIN
1070
    73
1070
     1
1070
    44
1040
1.0
1070
    74
1070
     0
1000
MTEXTEND
  0
INSERT
  5
21DFD
330
1F
100
AcDbEntity
  8
1
100
AcDbBlockReference
  2
cero_point
 10
-0.000000000003638
 20
0.0
 30
0.0
  0
LINE
  5
21E01
330
1F
100
AcDbEntity
  8
INFTOTAL
100
AcDbLine
 10
-112.1044129953143
 20
10.47642603590384
 30
0.0
 11
-112.1044129953143
 21
54.06814843214259
 31
0.0
  0
LINE
  5
21E02
330
1F
100
AcDbEntity
  8
INFTOTAL
100
AcDbLine
 10
-112.1044129953143
 20
54.06814843214259
 30
0.0
 11
-55.70062662655526
 21
54.06814843214259
 31
0.0
  0
LINE
  5
21E03
330
1F
100
AcDbEntity
  8
INFTOTAL
100
AcDbLine
 10
22.15381020301538
 20
-54.6857201765979
 30
0.0
 11
77.51259145409948
 21
-54.6857201765979
 31
0.0
  0
LINE
  5
21E04
330
1F
100
AcDbEntity
  8
INFTOTAL
100
AcDbLine
 10
77.51259145409948
 20
-54.6857201765979
 30
0.0
 11
77.51259145409948
 21
-14.23760398000333
 31
0.0
  0
DIMENSION
  5
21E05
330
1F
100
AcDbEntity
  8
2
100
AcDbDimension
280
     0
  2
*D3
 10
45.78429265554028
 20
-8.449999999999905
 30
0.0
 11
45.78429265554028
 21
0.2763113467123048
 31
0.0
 70
   161
 71
     5
 42
16.9
 73
     0
 74
     0
 75
     0
  3
STANDARD
100
AcDbAlignedDimension
 13
28.25999999999999
 23
8.450000000000102
 33
0.0
 14
28.25999999999999
 24
-8.449999999999901
 34
0.0
1001
ACAD
1000
DSTYLE
1002
{
1070
   172
1070
     1
1002
}
  0
DIMENSION
  5
21E06
330
1F
100
AcDbEntity
  8
2
100
AcDbDimension
280
     0
  2
*D4
 10
0.0003723699122182
 20
38.98833793156772
 30
0.0
 11
15.80008769542326
 21
38.98807485933966
 31
0.0
 70
   160
 71
     5
 42
31.60027679872824
 73
     0
 74
     0
 75
     0
  3
STANDARD
100
AcDbAlignedDimension
 13
31.59999999999991
 23
0.0
 33
0.0
 14
0.0
 24
16.62437100000011
 34
0.0
 50
179.999046000003
100
AcDbRotatedDimension
1001
ACAD
1000
DSTYLE
1002
{
1070
   172
1070
     1
1002
}
  0
DIMENSION
  5
21E07
330
1F
100
AcDbEntity
  8
2
100
AcDbDimension
280
     0
  2
*D5
 10
27.46019627341239
 20
27.98788071186495
 30
0.0
 11
13.59534033717534
 21
27.98811156783088
 31
0.0
 70
   160
 71
     5
 42
4.140269736570482
 73
     0
 74
     0
 75
     0
  3
STANDARD
100
AcDbAlignedDimension
 13
31.59999999999991
 23
0.0
 33
0.0
 14
27.45999999999992
 24
16.19999999999999
 34
0.0
 50
179.999046000003
100
AcDbRotatedDimension
1001
ACAD
1000
DSTYLE
1002
{
1070
   172
1070
     1
1002
}
  0
DIMENSION
  5
21E08
330
1F
100
AcDbEntity
  8
2
100
AcDbDimension
280
     0
  2
*D6
 10
59.78429265554028
 20
17.0000000000001
 30
0.0
 11
59.78429265554028
 21
0.0
 31
0.0
 70
   161
  1
%%c<>
 71
     5
 42
34.00000000000011
 73
     0
 74
     0
 75
     0
  3
STANDARD
100
AcDbAlignedDimension
 13
26.65999999999997
 23
-17.0
 33
0.0
 14
26.65999999999997
 24
17.00000000000011
 34
0.0
1001
ACAD
1000
DSTYLE
1002
{
1070
   172
1070
     1
1002
}
  0
LINE
  5
21E09
330
1F
100
AcDbEntity
  8
SK4
100
AcDbLine
 10
-17.826054
 20
0.0
 30
0.0
 11
0.0
 21
0.0
 31
0.0
  0
LINE
  5
21E0A
330
1F
100
AcDbEntity
  8
1
100
AcDbLine
 10
-0.0570330000000468
 20
6.83176200000011
 30
0.0
 11
0.0
 21
6.83176200000011
 31
0.0
  0
LINE
  5
21E0C
330
1F
100
AcDbEntity
  8
1
100
AcDbLine
 10
27.45999999999992
 20
8.450000000000102
 30
0.0
 11
26.01799999999992
 21
8.450000000000102
 31
0.0
  0
LINE
  5
21E0F
330
1F
100
AcDbEntity
  8
SK3
100
AcDbLine
 10
0.0
 20
8.5
 30
0.0
 11
26.45999999999981
 21
8.5
 31
0.0
  0
LINE
  5
21E10
330
1F
100
AcDbEntity
  8
SK3
100
AcDbLine
 10
0.0
 20
5.100000000000108
 30
0.0
 11
26.45999999999981
 21
5.100000000000108
 31
0.0
  0
LINE
  5
21E11
330
1F
100
AcDbEntity
  8
SK3
100
AcDbLine
 10
0.0
 20
-8.5
 30
0.0
 11
26.45999999999981
 21
-8.5
 31
0.0
  0
LINE
  5
21E12
330
1F
100
AcDbEntity
  8
SK3
100
AcDbLine
 10
0.0
 20
-5.099999999999994
 30
0.0
 11
26.45999999999981
 21
-5.099999999999994
 31
0.0
  0
LINE
  5
21E15
330
1F
100
AcDbEntity
  8
1
100
AcDbLine
 10
16.38499999999999
 20
3.334363999999993
 30
0.0
 11
16.38499999999999
 21
3.305185000000106
 31
0.0
  0
LINE
  5
21E16
330
1F
100
AcDbEntity
  8
1
100
AcDbLine
 10
16.38499999999999
 20
4.086467000000111
 30
0.0
 11
16.38499999999999
 21
3.334363999999993
 31
0.0
  0
ARC
  5
21E17
330
1F
100
AcDbEntity
  8
1
100
AcDbCircle
 10
-10.55566400000009
 20
-322.7337719999998
 30
0.0
 40
327.179298
100
AcDbArc
 50
84.23658899999738
 51
85.27679000000089
  0
SPLINE
  5
21E1A
330
1F
100
AcDbEntity
  8
1
100
AcDbSpline
210
0.0
220
0.0
230
1.0
 70
     8
 71
     5
 72
    15
 73
     9
 74
     0
 42
0.000000001
 43
0.0000000001
 40
0.0
 40
0.0
 40
0.0
 40
0.0
 40
0.0
 40
0.0
 40
1.588197061628362
 40
1.588197061628362
 40
1.588197061628362
 40
1.767527530341128
 40
1.767527530341128
 40
1.767527530341128
 40
1.767527530341128
 40
1.767527530341128
 40
1.767527530341128
 10
26.45999954118281
 20
0.8714375858573076
 30
0.0
 10
26.5556321992392
 20
1.005680363091187
 30
0.0
 10
26.67431074576791
 20
1.126627479245684
 30
0.0
 10
26.80983563517236
 20
1.230702130155322
 30
0.0
 10
26.9759870864749
 20
1.324606168371502
 30
0.0
 10
27.15492136857359
 20
1.39494980768481
 30
0.0
 10
27.17320593504883
 20
1.401846593067998
 30
0.0
 10
27.19160884180201
 20
1.408502326003399
 30
0.0
 10
27.21012882438015
 20
1.414920806610098
 30
0.0
  0
ARC
  5
21E1B
330
1F
100
AcDbEntity
  8
1
100
AcDbCircle
 10
24.46684800000026
 20
9.604259999999982
 30
0.0
 40
8.635894
100
AcDbArc
 50
288.5199179999998
 51
296.1275259999971
  0
LINE
  5
21E1C
330
1F
100
AcDbEntity
  8
1
100
AcDbLine
 10
28.26957099999993
 20
1.851367000000093
 30
0.0
 11
26.46000000000026
 21
2.050769999999999
 31
0.0
  0
ARC
  5
21E1D
330
1F
100
AcDbEntity
  8
1
100
AcDbCircle
 10
33.72344599999997
 20
3.700511000000118
 30
0.0
 40
4.340421
100
AcDbArc
 50
189.206623
 51
195.6343520000024
  0
ARC
  5
21E1E
330
1F
100
AcDbEntity
  8
1
100
AcDbCircle
 10
-207.000318
 20
-35.52212199999991
 30
0.0
 40
239.558167
100
AcDbArc
 50
9.255101000000255
 51
10.00080599999996
  0
LINE
  5
21E1F
330
1F
100
AcDbEntity
  8
1
100
AcDbLine
 10
28.9181789999999
 20
6.080098000000106
 30
0.0
 11
28.25999999999999
 21
6.564367000000002
 31
0.0
  0
ARC
  5
21E20
330
1F
100
AcDbEntity
  8
1
100
AcDbCircle
 10
2.780759999999985
 20
-144.2919789999998
 30
0.0
 40
152.992894
100
AcDbArc
 50
80.41336699999684
 51
81.26385099999787
  0
ARC
  5
21E21
330
1F
100
AcDbEntity
  8
1
100
AcDbCircle
 10
35.96481999999993
 20
-77.9009479999999
 30
0.0
 40
85.40821499999998
100
AcDbArc
 50
96.68797600000177
 51
99.2065430000019
  0
ARC
  5
21E22
330
1F
100
AcDbEntity
  8
1
100
AcDbCircle
 10
14.62053899999989
 20
28.98408500000011
 30
0.0
 40
30.372318
100
AcDbArc
 50
296.7045450000018
 51
299.4285380000005
  0
LINE
  5
21E23
330
1F
100
AcDbEntity
  8
1
100
AcDbLine
 10
26.01799999999992
 20
6.925920000000102
 30
0.0
 11
26.01799999999992
 21
8.450000000000102
 31
0.0
  0
LINE
  5
21E24
330
1F
100
AcDbEntity
  8
1
100
AcDbLine
 10
22.29999999999995
 20
7.453765000000115
 30
0.0
 11
26.01799999999992
 21
8.450000000000102
 31
0.0
  0
LINE
  5
21E28
330
1F
100
AcDbEntity
  8
1
100
AcDbLine
 10
26.46000000000026
 20
0.5699460000001011
 30
0.0
 11
31.40532499999995
 21
-0.2298519999998803
 31
0.0
  0
ELLIPSE
  5
21E29
330
1F
100
AcDbEntity
  8
1
100
AcDbEllipse
 10
31.88025499999993
 20
-0.054326999999887
 30
0.0
 11
8.292604446411132
 21
-1.344188094139099
 31
0.0
210
0.0
220
0.0
230
0.9999999999999998
 40
0.6018560000000001
 41
4.101347859662591
 42
4.509870127564751
  0
LINE
  5
21E2A
330
1F
100
AcDbEntity
  8
1
100
AcDbLine
 10
29.43897400000026
 20
-4.566056000000003
 30
0.0
 11
29.41983000000027
 21
-4.672911999999882
 31
0.0
  0
ARC
  5
21E2B
330
1F
100
AcDbEntity
  8
1
100
AcDbCircle
 10
32.08054700000025
 20
-5.024769999999903
 30
0.0
 40
2.680884999999999
100
AcDbArc
 50
154.3188950000018
 51
170.1487260000003
  0
LINE
  5
21E2C
330
1F
100
AcDbEntity
  8
1
100
AcDbLine
 10
30.01456899999994
 20
-3.145289999999903
 30
0.0
 11
29.66467499999999
 21
-3.863069999999879
 31
0.0
  0
SPLINE
  5
21E2D
330
1F
100
AcDbEntity
  8
1
100
AcDbSpline
210
0.0
220
0.0
230
1.0
 70
     8
 71
     5
 72
    30
 73
    24
 74
     0
 42
0.000000001
 43
0.0000000001
 40
0.0
 40
0.0
 40
0.0
 40
0.0
 40
0.0
 40
0.0
 40
27.46707560712112
 40
27.46707560712112
 40
27.46707560712112
 40
38.07744061408617
 40
38.07744061408617
 40
38.07744061408617
 40
43.40441670604824
 40
43.40441670604824
 40
43.40441670604824
 40
49.72287905076952
 40
49.72287905076952
 40
49.72287905076952
 40
51.77646915220399
 40
51.77646915220399
 40
51.77646915220399
 40
53.38805094652995
 40
53.38805094652995
 40
53.38805094652995
 40
54.32009993241766
 40
54.32009993241766
 40
54.32009993241766
 40
54.32009993241766
 40
54.32009993241766
 40
54.32009993241766
 10
31.40532542933045
 20
-0.229852426893018
 30
0.0
 10
31.39096045434042
 20
-0.2674256609138865
 30
0.0
 10
31.37279494956215
 20
-0.3124212485008968
 30
0.0
 10
31.35187312269148
 20
-0.3615476794450956
 30
0.0
 10
31.31319619808744
 20
-0.4506147376252161
 30
0.0
 10
31.23101167891946
 20
-0.6284055659080252
 30
0.0
 10
31.20357591063521
 20
-0.6872258579020071
 30
0.0
 10
31.15330030496148
 20
-0.7941165225207955
 30
0.0
 10
31.07832362214583
 20
-0.9515115775762975
 30
0.0
 10
31.05054073943052
 20
-1.009642366836827
 30
0.0
 10
30.97835792846718
 20
-1.16026362273419
 30
0.0
 10
30.8768664204365
 20
-1.370833959577197
 30
0.0
 10
30.81098421475838
 20
-1.507172128182785
 30
0.0
 10
30.69949006347679
 20
-1.737384612335601
 30
0.0
 10
30.53828257338159
 20
-2.069284193492819
 30
0.0
 10
30.49343758046041
 20
-2.161522941016499
 30
0.0
 10
30.40692016639719
 20
-2.339499191399198
 30
0.0
 10
30.30996822847953
 20
-2.538755880210516
 30
0.0
 10
30.26813337653789
 20
-2.624696247590803
 30
0.0
 10
30.19242449901162
 20
-2.780192395876099
 30
0.0
 10
30.11010408631307
 20
-2.949202378926825
 30
0.0
 10
30.07907219908077
 20
-3.012904966495824
 30
0.0
 10
30.04723517569755
 20
-3.078250977277917
 30
0.0
 10
30.01456940996502
 20
-3.145289851628575
 30
0.0
  0
SPLINE
  5
21E2E
330
1F
100
AcDbEntity
  8
1
100
AcDbSpline
210
0.0
220
0.0
230
1.0
 70
     8
 71
     5
 72
    51
 73
    45
 74
     0
 42
0.000000001
 43
0.0000000001
 40
0.0
 40
0.0
 40
0.0
 40
0.0
 40
0.0
 40
0.0
 40
24.72862227383788
 40
24.72862227383788
 40
24.72862227383788
 40
61.82104857404971
 40
61.82104857404971
 40
61.82104857404971
 40
86.54934770969829
 40
86.54934770969829
 40
86.54934770969829
 40
98.9135769495769
 40
98.9135769495769
 40
98.9135769495769
 40
111.2779949797928
 40
111.2779949797928
 40
111.2779949797928
 40
115.3999193966281
 40
115.3999193966281
 40
115.3999193966281
 40
117.4608974140047
 40
117.4608974140047
 40
117.4608974140047
 40
119.6197146662565
 40
119.6197146662565
 40
119.6197146662565
 40
120.6572096764249
 40
120.6572096764249
 40
120.6572096764249
 40
121.7295482361702
 40
121.7295482361702
 40
121.7295482361702
 40
122.2529935947936
 40
122.2529935947936
 40
122.2529935947936
 40
122.5183642937412
 40
122.5183642937412
 40
122.5183642937412
 40
122.7837349926888
 40
122.7837349926888
 40
122.7837349926888
 40
123.8070348154749
 40
123.8070348154749
 40
123.8070348154749
 40
123.8070348154749
 40
123.8070348154749
 40
123.8070348154749
 10
31.40532542933045
 20
-0.229852426893018
 30
0.0
 10
31.41825934473445
 20
-0.196022292791099
 30
0.0
 10
31.42633913377892
 20
-0.1703027299126063
 30
0.0
 10
31.43252160032796
 20
-0.148060575042706
 30
0.0
 10
31.44452342047293
 20
-0.0961836235035776
 30
0.0
 10
31.4488834636054
 20
-0.0528359751100993
 30
0.0
 10
31.44957613890426
 20
-0.0282116577633076
 30
0.0
 10
31.44769403672547
 20
0.0133902480808104
 30
0.0
 10
31.43988446553726
 20
0.0589359245446701
 30
0.0
 10
31.43572383512276
 20
0.0780972735739169
 30
0.0
 10
31.42756639088452
 20
0.109416353766818
 30
0.0
 10
31.41454427638166
 20
0.1479972135089724
 30
0.0
 10
31.40948590155677
 20
0.1620043021559923
 30
0.0
 10
31.39818215756156
 20
0.1914101076210954
 30
0.0
 10
31.38305363331517
 20
0.2267141380598048
 30
0.0
 10
31.37416681280843
 20
0.2465494366998939
 30
0.0
 10
31.35944867612693
 20
0.2779389470607043
 30
0.0
 10
31.33758646547653
 20
0.3206270168923027
 30
0.0
 10
31.33157360774419
 20
0.3321555896359314
 30
0.0
 10
31.32158415085996
 20
0.3509737650287832
 30
0.0
 10
31.30941004799149
 20
0.373155882858299
 30
0.0
 10
31.3050681286943
 20
0.3809847460975959
 30
0.0
 10
31.29548891330364
 20
0.3980644133492888
 30
0.0
 10
31.28410082861797
 20
0.4178785362820748
 30
0.0
 10
31.27912632565994
 20
0.4264557102954143
 30
0.0
 10
31.26847408358913
 20
0.4445073368284798
 30
0.0
 10
31.25691296959371
 20
0.4636289541842872
 30
0.0
 10
31.25304239292404
 20
0.4699845813590289
 30
0.0
 10
31.24465202586236
 20
0.4836812910864979
 30
0.0
 10
31.23413232107998
 20
0.5005571552588322
 30
0.0
 10
31.22879686882391
 20
0.5090084731861852
 30
0.0
 10
31.21837020147973
 20
0.5254635129506938
 30
0.0
 10
31.20336594965193
 20
0.5484017066725074
 30
0.0
 10
31.19776670368617
 20
0.5568850847405999
 30
0.0
 10
31.18870376136283
 20
0.5705654852779958
 30
0.0
 10
31.17458052225448
 20
0.5913186097534151
 30
0.0
 10
31.14126461337003
 20
0.6381780799302989
 30
0.0
 10
31.09634284521644
 20
0.7008052386738939
 30
0.0
 10
31.10126329033915
 20
0.6924879607770153
 30
0.0
 10
31.09013499366483
 20
0.7077067952128857
 30
0.0
 10
31.0666679868832
 20
0.7379996588114182
 30
0.0
 10
31.05021348112849
 20
0.7582690426611976
 30
0.0
 10
31.03709972049603
 20
0.7741639970325878
 30
0.0
 10
31.02599192803803
 20
0.7873377438138789
 30
0.0
 10
31.01556706553129
 20
0.7994745521538107
 30
0.0
  0
LINE
  5
21E2F
330
1F
100
AcDbEntity
  8
1
100
AcDbLine
 10
31.01556699999993
 20
0.7994750000001149
 30
0.0
 11
27.21012900000028
 21
1.414921000000106
 31
0.0
  0
LINE
  5
21E30
330
1F
100
AcDbEntity
  8
1
100
AcDbLine
 10
29.66467499999999
 20
2.364062999999985
 30
0.0
 11
31.01556699999993
 21
0.7994750000001149
 31
0.0
  0
ARC
  5
21E31
330
1F
100
AcDbEntity
  8
1
100
AcDbCircle
 10
30.56399499999998
 20
3.144975000000101
 30
0.0
 40
1.191027999999997
100
AcDbArc
 50
211.0444949999974
 51
220.9689639999976
  0
LINE
  5
21E32
330
1F
100
AcDbEntity
  8
1
100
AcDbLine
 10
29.43897400000026
 20
5.116424000000108
 30
0.0
 11
29.43897400000026
 21
3.006069999999993
 31
0.0
  0
LINE
  5
21E33
330
1F
100
AcDbEntity
  8
1
100
AcDbLine
 10
29.66467499999999
 20
4.375014000000106
 30
0.0
 11
29.66467499999999
 21
2.364062999999985
 31
0.0
  0
LINE
  5
21E34
330
1F
100
AcDbEntity
  8
1
100
AcDbLine
 10
28.9181789999999
 20
8.070000000000106
 30
0.0
 11
28.9181789999999
 21
6.080098000000106
 31
0.0
  0
LINE
  5
21E35
330
1F
100
AcDbEntity
  8
1
100
AcDbLine
 10
28.25999999999999
 20
8.450000000000102
 30
0.0
 11
28.25999999999999
 21
6.564367000000002
 31
0.0
  0
LINE
  5
21E36
330
1F
100
AcDbEntity
  8
1
100
AcDbLine
 10
29.66467499999999
 20
-3.863069999999879
 30
0.0
 11
29.66467499999999
 21
-4.375013999999879
 31
0.0
  0
LINE
  5
21E37
330
1F
100
AcDbEntity
  8
1
100
AcDbLine
 10
29.43897400000026
 20
-4.566056000000003
 30
0.0
 11
29.43897400000026
 21
-5.116423999999879
 31
0.0
  0
LINE
  5
21E38
330
1F
100
AcDbEntity
  8
1
100
AcDbLine
 10
29.41983000000027
 20
-5.217622999999887
 30
0.0
 11
29.41983000000027
 21
-4.672911999999882
 31
0.0
  0
LINE
  5
21E39
330
1F
100
AcDbEntity
  8
1
100
AcDbLine
 10
29.41983000000027
 20
-5.217622999999887
 30
0.0
 11
29.39922600000023
 21
-5.3418869999999
 31
0.0
  0
LINE
  5
21E3A
330
1F
100
AcDbEntity
  8
1
100
AcDbLine
 10
29.39922600000023
 20
-5.3418869999999
 30
0.0
 11
29.29427999999996
 21
-5.937025999999889
 31
0.0
  0
LINE
  5
21E3B
330
1F
100
AcDbEntity
  8
1
100
AcDbLine
 10
28.9181789999999
 20
-8.069999999999877
 30
0.0
 11
29.29427999999996
 21
-5.937025999999889
 31
0.0
  0
LINE
  5
21E3C
330
1F
100
AcDbEntity
  8
1
100
AcDbLine
 10
28.9181789999999
 20
-8.069999999999877
 30
0.0
 11
28.25999999999999
 21
-8.449999999999901
 31
0.0
  0
LINE
  5
21E3D
330
1F
100
AcDbEntity
  8
1
100
AcDbLine
 10
28.25999999999999
 20
-8.449999999999901
 30
0.0
 11
27.46000000000027
 21
-8.449999999999901
 31
0.0
  0
LINE
  5
21E3E
330
1F
100
AcDbEntity
  8
1
100
AcDbLine
 10
26.45998899999995
 20
-5.937025999999889
 30
0.0
 11
29.29427999999996
 21
-5.937025999999889
 31
0.0
  0
LINE
  5
21E3F
330
1F
100
AcDbEntity
  8
1
100
AcDbLine
 10
26.45998899999995
 20
-5.217622999999887
 30
0.0
 11
29.41983000000027
 21
-5.217622999999887
 31
0.0
  0
ARC
  5
21E42
330
1F
100
AcDbEntity
  8
1
100
AcDbCircle
 10
32.60119199999997
 20
-5.674008000000013
 30
0.0
 40
3.211
100
AcDbArc
 50
156.1373809999991
 51
169.9999999999998
  0
LINE
  5
21E43
330
1F
100
AcDbEntity
  8
1
100
AcDbLine
 10
29.43897400000026
 20
-5.116423999999879
 30
0.0
 11
29.39923699999997
 21
-5.341789000000003
 31
0.0
  0
LINE
  5
21E45
330
1F
100
AcDbEntity
  8
1
100
AcDbLine
 10
31.59999999999991
 20
0.0
 30
0.0
 11
29.66467499999999
 21
-4.375013999999879
 31
0.0
  0
LINE
  5
21E46
330
1F
100
AcDbEntity
  8
1
100
AcDbLine
 10
26.65999999999997
 20
-7.090000000000002
 30
0.0
 11
26.45999299999994
 21
-7.090000000000002
 31
0.0
  0
ARC
  5
21E47
330
1F
100
AcDbEntity
  8
1
100
AcDbCircle
 10
26.65999999999997
 20
-7.889999999999901
 30
0.0
 40
0.8
100
AcDbArc
 50
0.0
 51
90.0
  0
LINE
  5
21E48
330
1F
100
AcDbEntity
  8
1
100
AcDbLine
 10
27.46000000000027
 20
-16.20000000000002
 30
0.0
 11
27.46000000000027
 21
-7.889999999999901
 31
0.0
  0
ARC
  5
21E49
330
1F
100
AcDbEntity
  8
1
100
AcDbCircle
 10
26.65999999999997
 20
-16.20000000000002
 30
0.0
 40
0.8
100
AcDbArc
 50
270.0
 51
0.0
  0
LINE
  5
21E4A
330
1F
100
AcDbEntity
  8
1
100
AcDbLine
 10
18.34999999999991
 20
-17.0
 30
0.0
 11
26.65999999999997
 21
-17.0
 31
0.0
  0
ARC
  5
21E4B
330
1F
100
AcDbEntity
  8
1
100
AcDbCircle
 10
18.34999999999991
 20
-16.20000000000002
 30
0.0
 40
0.8
100
AcDbArc
 50
180.0
 51
270.0
  0
LINE
  5
21E4C
330
1F
100
AcDbEntity
  8
1
100
AcDbLine
 10
17.54999999999995
 20
-16.18865600000001
 30
0.0
 11
17.54999999999995
 21
-16.20000000000002
 31
0.0
  0
ARC
  5
21E4D
330
1F
100
AcDbEntity
  8
1
100
AcDbCircle
 10
18.34999999999991
 20
-16.20000000000002
 30
0.0
 40
0.195674
100
AcDbArc
 50
179.9999990000002
 51
270.0000010000014
  0
LINE
  5
21E4E
330
1F
100
AcDbEntity
  8
1
100
AcDbLine
 10
18.34999999999991
 20
-16.3956739999999
 30
0.0
 11
26.65999999999997
 21
-16.3956739999999
 31
0.0
  0
ARC
  5
21E4F
330
1F
100
AcDbEntity
  8
1
100
AcDbCircle
 10
26.65999999999997
 20
-16.20000000000002
 30
0.0
 40
0.195674
100
AcDbArc
 50
270.0
 51
0.0
  0
LINE
  5
21E50
330
1F
100
AcDbEntity
  8
1
100
AcDbLine
 10
26.85567399999991
 20
-16.20000000000002
 30
0.0
 11
26.85567399999991
 21
-7.889999999999901
 31
0.0
  0
ARC
  5
21E51
330
1F
100
AcDbEntity
  8
1
100
AcDbCircle
 10
26.65999999999997
 20
-7.889999999999901
 30
0.0
 40
0.195674
100
AcDbArc
 50
359.9999990000002
 51
90.0
  0
LINE
  5
21E52
330
1F
100
AcDbEntity
  8
1
100
AcDbLine
 10
26.65999999999997
 20
-7.694325999999902
 30
0.0
 11
26.45999199999994
 21
-7.694325999999902
 31
0.0
  0
LINE
  5
21E53
330
1F
100
AcDbEntity
  8
1
100
AcDbLine
 10
18.15432599999997
 20
-16.1886529999999
 30
0.0
 11
18.15432599999997
 21
-16.20000000000002
 31
0.0
  0
LINE
  5
21E54
330
1F
100
AcDbEntity
  8
1
100
AcDbLine
 10
26.65999999999997
 20
-7.694325999999902
 30
0.0
 11
26.65999999999997
 21
-7.090000000000002
 31
0.0
  0
LINE
  5
21E55
330
1F
100
AcDbEntity
  8
1
100
AcDbLine
 10
26.85567399999991
 20
-7.889999999999901
 30
0.0
 11
27.46000000000027
 21
-7.889999999999901
 31
0.0
  0
LINE
  5
21E56
330
1F
100
AcDbEntity
  8
1
100
AcDbLine
 10
26.85567399999991
 20
-16.20000000000002
 30
0.0
 11
27.46000000000027
 21
-16.20000000000002
 31
0.0
  0
LINE
  5
21E57
330
1F
100
AcDbEntity
  8
1
100
AcDbLine
 10
26.65999999999997
 20
-16.3956739999999
 30
0.0
 11
26.65999999999997
 21
-17.0
 31
0.0
  0
LINE
  5
21E58
330
1F
100
AcDbEntity
  8
1
100
AcDbLine
 10
18.34999999999991
 20
-16.3956739999999
 30
0.0
 11
18.34999999999991
 21
-17.0
 31
0.0
  0
LINE
  5
21E59
330
1F
100
AcDbEntity
  8
1
100
AcDbLine
 10
18.15432599999997
 20
-16.20000000000002
 30
0.0
 11
17.54999999999995
 21
-16.20000000000002
 31
0.0
  0
ARC
  5
21E5A
330
1F
100
AcDbEntity
  8
1
100
AcDbCircle
 10
26.65999999999997
 20
-16.20000000000002
 30
0.0
 40
0.8
100
AcDbArc
 50
270.0
 51
0.0
  0
LINE
  5
21E5B
330
1F
100
AcDbEntity
  8
1
100
AcDbLine
 10
26.65999999999997
 20
-17.0
 30
0.0
 11
18.34999999999991
 21
-17.0
 31
0.0
  0
ARC
  5
21E5C
330
1F
100
AcDbEntity
  8
1
100
AcDbCircle
 10
18.34999999999991
 20
-16.20000000000002
 30
0.0
 40
0.8
100
AcDbArc
 50
180.0
 51
270.0
  0
LINE
  5
21E5E
330
1F
100
AcDbEntity
  8
1
100
AcDbLine
 10
26.45999299999994
 20
-7.090000000000002
 30
0.0
 11
26.65999999999997
 21
-7.090000000000002
 31
0.0
  0
ARC
  5
21E5F
330
1F
100
AcDbEntity
  8
1
100
AcDbCircle
 10
26.65999999999997
 20
-7.889999999999901
 30
0.0
 40
0.8
100
AcDbArc
 50
0.0
 51
90.0
  0
LINE
  5
21E60
330
1F
100
AcDbEntity
  8
1
100
AcDbLine
 10
27.46000000000027
 20
-7.889999999999901
 30
0.0
 11
27.46000000000027
 21
-16.20000000000002
 31
0.0
  0
CIRCLE
  5
21E61
330
1F
100
AcDbEntity
  8
1
100
AcDbCircle
 10
22.50500000000022
 20
12.04499999999999
 30
0.0
 40
2.024999999999999
  0
CIRCLE
  5
21E62
330
1F
100
AcDbEntity
  8
1
100
AcDbCircle
 10
22.50500699999998
 20
12.045006
 30
0.0
 40
2.552629
  0
LINE
  5
21E63
330
1F
100
AcDbEntity
  8
1
100
AcDbLine
 10
22.29999999999995
 20
7.090000000000117
 30
0.0
 11
18.34999999999991
 21
7.090000000000117
 31
0.0
  0
LINE
  5
21E64
330
1F
100
AcDbEntity
  8
1
100
AcDbLine
 10
27.46000000000027
 20
16.19999999999999
 30
0.0
 11
27.46000000000027
 21
8.450000000000102
 31
0.0
  0
ARC
  5
21E65
330
1F
100
AcDbEntity
  8
1
100
AcDbCircle
 10
26.65999999999997
 20
16.19999999999999
 30
0.0
 40
0.8
100
AcDbArc
 50
0.0
 51
90.0
  0
LINE
  5
21E66
330
1F
100
AcDbEntity
  8
1
100
AcDbLine
 10
18.34999999999991
 20
17.00000000000011
 30
0.0
 11
26.65999999999997
 21
17.00000000000011
 31
0.0
  0
ARC
  5
21E67
330
1F
100
AcDbEntity
  8
1
100
AcDbCircle
 10
18.34999999999991
 20
16.19999999999999
 30
0.0
 40
0.8
100
AcDbArc
 50
90.0
 51
180.0
  0
LINE
  5
21E68
330
1F
100
AcDbEntity
  8
1
100
AcDbLine
 10
17.54999999999995
 20
7.889999999999987
 30
0.0
 11
17.54999999999995
 21
16.19999999999999
 31
0.0
  0
ARC
  5
21E69
330
1F
100
AcDbEntity
  8
1
100
AcDbCircle
 10
18.34999999999991
 20
7.889999999999987
 30
0.0
 40
0.8
100
AcDbArc
 50
180.0
 51
270.0
  0
LINE
  5
21E6F
330
1F
100
AcDbEntity
  8
1
100
AcDbLine
 10
18.34999999999991
 20
7.090000000000117
 30
0.0
 11
22.30001699999991
 21
7.090000000000117
 31
0.0
  0
ARC
  5
21E71
330
1F
100
AcDbEntity
  8
1
100
AcDbCircle
 10
11.82963899999993
 20
-539.2414409999997
 30
0.0
 40
555.991461
100
AcDbArc
 50
90.00206899999893
 51
91.2191550000009
  0
LINE
  5
21E72
330
1F
100
AcDbEntity
  8
1
100
AcDbLine
 10
17.54999999999995
 20
16.75
 30
0.0
 11
11.80956199999991
 21
16.75
 31
0.0
  0
CIRCLE
  5
21E73
330
1F
100
AcDbEntity
  8
1
100
AcDbCircle
 10
22.50500000000022
 20
12.04499999999999
 30
0.0
 40
1.719999999999999
  0
LINE
  5
21E75
330
1F
100
AcDbEntity
  8
1
100
AcDbLine
 10
17.54999999999995
 20
7.090000000000117
 30
0.0
 11
17.54999999999995
 21
5.9012120000001
 31
0.0
  0
LINE
  5
21E76
330
1F
100
AcDbEntity
  8
1
100
AcDbLine
 10
16.51636999999993
 20
5.90434800000011
 30
0.0
 11
17.54999999999995
 21
5.9012120000001
 31
0.0
  0
ARC
  5
21E77
330
1F
100
AcDbEntity
  8
1
100
AcDbCircle
 10
36.15756999999997
 20
133.602485
 30
0.0
 40
129.199811
100
AcDbArc
 50
261.2558829999986
 51
263.8427890000021
  0
LINE
  5
21E78
330
1F
100
AcDbEntity
  8
1
100
AcDbLine
 10
11.093209
 20
5.737683000000115
 30
0.0
 11
11.1030659999999
 21
5.815165000000092
 31
0.0
  0
SPLINE
  5
21E79
330
1F
100
AcDbEntity
  8
1
100
AcDbSpline
210
0.0
220
0.0
230
1.0
 70
     8
 71
     5
 72
    15
 73
     9
 74
     0
 42
0.000000001
 43
0.0000000001
 40
0.0
 40
0.0
 40
0.0
 40
0.0
 40
0.0
 40
0.0
 40
6.24532598018917
 40
6.24532598018917
 40
6.24532598018917
 40
7.832365803814847
 40
7.832365803814847
 40
7.832365803814847
 40
7.832365803814847
 40
7.832365803814847
 40
7.832365803814847
 10
6.931167935143548
 20
4.938741207373993
 30
0.0
 10
7.563739917917471
 20
5.106676338726058
 30
0.0
 10
8.214796229252897
 20
5.255937985066593
 30
0.0
 10
8.879901180307911
 20
5.388216776921068
 30
0.0
 10
9.720926208071999
 20
5.535882840746096
 30
0.0
 10
10.57293753198644
 20
5.664237408978975
 30
0.0
 10
10.74599948487923
 20
5.689477095528161
 30
0.0
 10
10.9194380487869
 20
5.713960063525062
 30
0.0
 10
11.09320858219996
 20
5.7376826225304
 30
0.0
  0
LINE
  5
21E7A
330
1F
100
AcDbEntity
  8
1
100
AcDbLine
 10
16.38499999999999
 20
3.305204000000116
 30
0.0
 11
16.38499999999999
 21
4.086578000000116
 31
0.0
  0
ARC
  5
21E7B
330
1F
100
AcDbEntity
  8
1
100
AcDbCircle
 10
23.82358099999999
 20
-568.1096859999997
 30
0.0
 40
572.2449719999997
100
AcDbArc
 50
90.1525480000024
 51
90.7448060000016
  0
SPLINE
  5
21E7C
330
1F
100
AcDbEntity
  8
1
100
AcDbSpline
210
0.0
220
0.0
230
1.0
 70
     8
 71
     5
 72
    12
 73
     6
 74
     0
 42
0.000000001
 43
0.0000000001
 40
0.0
 40
0.0
 40
0.0
 40
0.0
 40
0.0
 40
0.0
 40
9.559892715058447
 40
9.559892715058447
 40
9.559892715058447
 40
9.559892715058447
 40
9.559892715058447
 40
9.559892715058447
 10
11.10306648949995
 20
5.815166164079897
 30
0.0
 10
12.17329147285716
 20
5.863607714417667
 30
0.0
 10
13.25250277148859
 20
5.891366539548472
 30
0.0
 10
14.3379017423648
 20
5.904536046483485
 30
0.0
 10
15.42537281480292
 20
5.907753334011486
 30
0.0
 10
16.51636961019994
 20
5.904347865214417
 30
0.0
  0
LINE
  5
21E7D
330
1F
100
AcDbEntity
  8
1
100
AcDbLine
 10
0.0
 20
16.62437100000011
 30
0.0
 11
0.0
 21
6.768225000000112
 31
0.0
  0
ARC
  5
21E7E
330
1F
100
AcDbEntity
  8
1
100
AcDbCircle
 10
11.81668900000022
 20
538.961698
 30
0.0
 40
555.711707
100
AcDbArc
 50
268.7815670000019
 51
269.9992649999976
  0
ARC
  5
21E7F
330
1F
100
AcDbEntity
  8
SK1
100
AcDbCircle
 10
9.459467999999899
 20
1377.940559999999
 30
0.0
 40
1384.741108
100
AcDbArc
 50
269.078941000002
 51
269.6085970000005
  0
ARC
  5
21E80
330
1F
100
AcDbEntity
  8
SK1
100
AcDbCircle
 10
22.12091099999998
 20
35.42635700000011
 30
0.0
 40
54.65747499999999
100
AcDbArc
 50
228.912951999997
 51
230.2903299999989
  0
LINE
  5
21E81
330
1F
100
AcDbEntity
  8
SK1
100
AcDbLine
 10
-13.79999999999973
 20
-5.089978999999885
 30
0.0
 11
-13.79999999999973
 21
-5.769351
 31
0.0
  0
LINE
  5
21E82
330
1F
100
AcDbEntity
  8
SK1
100
AcDbLine
 10
-13.79999999999973
 20
3.968319000000093
 30
0.0
 11
-13.79999999999973
 21
-5.089978999999885
 31
0.0
  0
LINE
  5
21E83
330
1F
100
AcDbEntity
  8
SK1
100
AcDbLine
 10
-13.79999999999973
 20
3.968319000000093
 30
0.0
 11
-13.79999999999973
 21
4.55051499999999
 31
0.0
  0
LINE
  5
21E84
330
1F
100
AcDbEntity
  8
SK1
100
AcDbLine
 10
-13.79999999999973
 20
5.769351
 30
0.0
 11
-13.79999999999973
 21
4.55051499999999
 31
0.0
  0
LINE
  5
21E85
330
1F
100
AcDbEntity
  8
1
100
AcDbLine
 10
17.54999999999995
 20
7.090000000000117
 30
0.0
 11
17.54999999999995
 21
8.095238000000106
 31
0.0
  0
LINE
  5
21E86
330
1F
100
AcDbEntity
  8
1
100
AcDbLine
 10
12.32061499999997
 20
16.5939680000001
 30
0.0
 11
11.80956199999991
 21
16.749999
 31
0.0
  0
ARC
  5
21E87
330
1F
100
AcDbEntity
  8
SK1
100
AcDbCircle
 10
9.459467999999899
 20
-1377.940559999999
 30
0.0
 40
1384.741108
100
AcDbArc
 50
90.39140299999953
 51
90.92105899999799
  0
ARC
  5
21E88
330
1F
100
AcDbEntity
  8
SK1
100
AcDbCircle
 10
22.12091099999998
 20
-35.42635699999988
 30
0.0
 40
54.65747499999999
100
AcDbArc
 50
129.7096700000011
 51
131.087048000003
  0
LINE
  5
21E89
330
1F
100
AcDbEntity
  8
1
100
AcDbLine
 10
11.46064200000023
 20
8.095238000000106
 30
0.0
 11
17.54999999999995
 21
8.095238000000106
 31
0.0
  0
LINE
  5
21E8A
330
1F
100
AcDbEntity
  8
1
100
AcDbLine
 10
12.32061399999998
 20
16.59396500000011
 30
0.0
 11
11.46064200000023
 21
8.095238000000106
 31
0.0
  0
ELLIPSE
  5
21E8B
330
1F
100
AcDbEntity
  8
1
100
AcDbEllipse
 10
10.96930199999997
 20
8.095238000000106
 30
0.0
 11
0.3512624204158783
 21
3.39962887763977
 31
0.0
210
0.0
220
0.0
230
1.0
 40
0.143017
 41
3.992134515703328
 42
4.727164917594971
  0
ARC
  5
21E8C
330
1F
100
AcDbEntity
  8
SK1
100
AcDbCircle
 10
-12.76529600000003
 20
9.7747930000001
 30
0.0
 40
5.898223
100
AcDbArc
 50
259.8960440000025
 51
267.2290269999996
  0
LINE
  5
21E8D
330
1F
100
AcDbEntity
  8
SK1
100
AcDbLine
 10
-13.05045000000007
 20
3.8832230000001
 30
0.0
 11
-12.79999999999972
 21
3.873449999999991
 31
0.0
  0
LINE
  5
21E8E
330
1F
100
AcDbEntity
  8
SK1
100
AcDbLine
 10
-12.79999999999972
 20
3.873449999999991
 30
0.0
 11
-10.07870000000002
 21
3.714093999999988
 31
0.0
  0
ARC
  5
21E8F
330
1F
100
AcDbEntity
  8
SK1
100
AcDbCircle
 10
-171.7658039999999
 20
-2728.780117
 30
0.0
 40
2737.273736000001
100
AcDbArc
 50
86.40228700000074
 51
86.61364399999918
  0
LINE
  5
21E90
330
1F
100
AcDbEntity
  8
1
100
AcDbLine
 10
17.54999999999995
 20
-16.75
 30
0.0
 11
11.80956199999991
 21
-16.75
 31
0.0
  0
LINE
  5
21E91
330
1F
100
AcDbEntity
  8
1
100
AcDbLine
 10
17.54999999999995
 20
-16.1886529999999
 30
0.0
 11
17.54999999999995
 21
-16.75
 31
0.0
  0
LINE
  5
21E92
330
1F
100
AcDbEntity
  8
1
100
AcDbLine
 10
26.46000000000026
 20
-16.1886529999999
 30
0.0
 11
17.54999999999995
 21
-16.1886529999999
 31
0.0
  0
LINE
  5
21E93
330
1F
100
AcDbEntity
  8
1
100
AcDbLine
 10
26.46000000000026
 20
-14.69950800000001
 30
0.0
 11
26.46000000000026
 21
-16.1886529999999
 31
0.0
  0
LINE
  5
21E94
330
1F
100
AcDbEntity
  8
1
100
AcDbLine
 10
0.0
 20
-14.69950800000001
 30
0.0
 11
0.0
 21
-16.62437099999988
 31
0.0
  0
LINE
  5
21E95
330
1F
100
AcDbEntity
  8
1
100
AcDbLine
 10
0.0
 20
6.489474000000112
 30
0.0
 11
0.0
 21
-14.69950800000001
 31
0.0
  0
LINE
  5
21E96
330
1F
100
AcDbEntity
  8
SK1
100
AcDbLine
 10
-12.79999999999972
 20
-5.967560999999902
 30
0.0
 11
-12.79999999999972
 21
-6.621642000000008
 31
0.0
  0
LINE
  5
21E97
330
1F
100
AcDbEntity
  8
SK1
100
AcDbLine
 10
-12.79999999999972
 20
3.873449999999991
 30
0.0
 11
-12.79999999999972
 21
-5.967560999999902
 31
0.0
  0
SPLINE
  5
21E98
330
1F
100
AcDbEntity
  8
1
100
AcDbSpline
210
0.0
220
0.0
230
1.0
 70
     8
 71
     5
 72
    12
 73
     6
 74
     0
 42
0.000000001
 43
0.0000000001
 40
0.0
 40
0.0
 40
0.0
 40
0.0
 40
0.0
 40
0.0
 40
46.5266179686954
 40
46.5266179686954
 40
46.5266179686954
 40
46.5266179686954
 40
46.5266179686954
 40
46.5266179686954
 10
26.46000000087963
 20
2.231682817983311
 30
0.0
 10
21.09950205990594
 20
2.611372369501423
 30
0.0
 10
15.75841374228798
 20
3.248595530243903
 30
0.0
 10
10.45027268931892
 20
4.129638304921598
 30
0.0
 10
5.193094422141255
 20
5.223705463537894
 30
0.0
 10
-0.0000000000144382
 20
6.489474175326987
 30
0.0
  0
LINE
  5
21E99
330
1F
100
AcDbEntity
  8
1
100
AcDbLine
 10
26.46000000000026
 20
2.231683000000115
 30
0.0
 11
26.46000000000026
 21
-14.69950800000001
 31
0.0
  0
CIRCLE
  5
21E9A
330
1F
100
AcDbEntity
  8
1
100
AcDbCircle
 10
22.50500000000022
 20
-12.0449999999999
 30
0.0
 40
1.719999999999999
  0
LINE
  5
21EA3
330
1F
100
AcDbEntity
  8
SKVIEW4
100
AcDbLine
 10
-51.12611394567114
 20
0.0
 30
0.0
 11
-94.67611394567098
 21
0.0
 31
0.0
  0
LINE
  5
21EA4
330
1F
100
AcDbEntity
  8
SKVIEW4
100
AcDbLine
 10
-72.90111394567111
 20
21.77500000000012
 30
0.0
 11
-72.90111394567111
 21
-21.77499999999989
 31
0.0
  0
ARC
  5
21EA5
330
1F
100
AcDbEntity
  8
SKVIEW1
100
AcDbCircle
 10
-72.90111394567111
 20
0.0
 30
0.0
 40
4.224999999999996
100
AcDbArc
 50
347.6497189999997
 51
358.4017959999997
  0
ARC
  5
21EA6
330
1F
100
AcDbEntity
  8
SKVIEW1
100
AcDbCircle
 10
-77.77126794567118
 20
3.050303000000098
 30
0.0
 40
2.271552999999999
100
AcDbArc
 50
289.0902719999977
 51
312.3463450000016
  0
ARC
  5
21EA7
330
1F
100
AcDbEntity
  8
SKVIEW1
100
AcDbCircle
 10
-68.03095994567114
 20
-3.0503029999999
 30
0.0
 40
2.271552999999999
100
AcDbArc
 50
109.0902719999977
 51
132.3463460000002
  0
LINE
  5
21EA8
330
1F
100
AcDbEntity
  8
SKVIEW1
100
AcDbLine
 10
-67.67923294567082
 20
0.1804980000001137
 30
0.0
 11
-67.74544694567111
 21
0.1747049999999888
 31
0.0
  0
ARC
  5
21EA9
330
1F
100
AcDbEntity
  8
SKVIEW1
100
AcDbCircle
 10
-67.54745794567134
 20
-2.088150999999895
 30
0.0
 40
2.271500999999999
100
AcDbArc
 50
95.00039699999673
 51
119.8413819999969
  0
SPLINE
  5
21EAA
330
1F
100
AcDbEntity
  8
SKVIEW1
100
AcDbSpline
210
0.0
220
0.0
230
1.0
 70
     8
 71
     5
 72
    18
 73
    12
 74
     0
 42
0.000000001
 43
0.0000000001
 40
0.0
 40
0.0
 40
0.0
 40
0.0
 40
0.0
 40
0.0
 40
1.75431338018732
 40
1.75431338018732
 40
1.75431338018732
 40
3.421583271630128
 40
3.421583271630128
 40
3.421583271630128
 40
5.561677834093559
 40
5.561677834093559
 40
5.561677834093559
 40
5.561677834093559
 40
5.561677834093559
 40
5.561677834093559
 10
-69.45242044124029
 20
-0.5936641300737051
 30
0.0
 10
-69.38851681307403
 20
-0.426780865078513
 30
0.0
 10
-69.30794020794497
 20
-0.273346916506199
 30
0.0
 10
-69.21435004331407
 20
-0.1404015785875856
 30
0.0
 10
-69.01633466476027
 20
0.0807205205516653
 30
0.0
 10
-68.79783039346704
 20
0.233669329786494
 30
0.0
 10
-68.68846107784031
 20
0.2937723497486786
 30
0.0
 10
-68.43580638660522
 20
0.4009787429638152
 30
0.0
 10
-68.1811242145461
 20
0.4471280966794211
 30
0.0
 10
-68.03873805155172
 20
0.4567065039837816
 30
0.0
 10
-67.89861324879166
 20
0.4518867485675744
 30
0.0
 10
-67.76078566019112
 20
0.4341079799489195
 30
0.0
  0
ARC
  5
21EAB
330
1F
100
AcDbEntity
  8
SKVIEW1
100
AcDbCircle
 10
-67.60784994567109
 20
-1.303521999999899
 30
0.0
 40
1.976425
100
AcDbArc
 50
158.9514629999991
 51
166.1041559999991
  0
SPLINE
  5
21EAC
330
1F
100
AcDbEntity
  8
SKVIEW1
100
AcDbSpline
210
0.0
220
0.0
230
1.0
 70
     8
 71
     5
 72
    12
 73
     6
 74
     0
 42
0.000000001
 43
0.0000000001
 40
0.0
 40
0.0
 40
0.0
 40
0.0
 40
0.0
 40
0.0
 40
1.690652628449883
 40
1.690652628449883
 40
1.690652628449883
 40
1.690652628449883
 40
1.690652628449883
 40
1.690652628449883
 10
-69.52641220366354
 20
-0.8288733481352037
 30
0.0
 10
-69.56364521269813
 20
-0.980504971797302
 30
0.0
 10
-69.58122089261497
 20
-1.121792812756893
 30
0.0
 10
-69.58067191488805
 20
-1.246820583420003
 30
0.0
 10
-69.56899284322208
 20
-1.344346157032902
 30
0.0
 10
-69.55240925931114
 20
-1.414920806610012
 30
0.0
  0
ARC
  5
21EAD
330
1F
100
AcDbEntity
  8
SKVIEW1
100
AcDbCircle
 10
-67.98954594567113
 20
-1.024398999999903
 30
0.0
 40
1.611256999999999
100
AcDbArc
 50
194.0295620000011
 51
210.8732889999999
  0
ARC
  5
21EAE
330
1F
100
AcDbEntity
  8
SKVIEW1
100
AcDbCircle
 10
-72.90083494567113
 20
0.0000279999999862
 30
0.0
 40
5.158345999999998
100
AcDbArc
 50
1.940577999999336
 51
4.827207000000544
  0
ARC
  5
21EAF
330
1F
100
AcDbEntity
  8
SKVIEW1
100
AcDbCircle
 10
-72.90111394567111
 20
0.0
 30
0.0
 40
4.224999999999996
100
AcDbArc
 50
167.6497189999997
 51
178.4017959999997
  0
SPLINE
  5
21EB0
330
1F
100
AcDbEntity
  8
SKVIEW1
100
AcDbSpline
210
0.0
220
0.0
230
1.0
 70
     8
 71
     5
 72
    18
 73
    12
 74
     0
 42
0.000000001
 43
0.0000000001
 40
0.0
 40
0.0
 40
0.0
 40
0.0
 40
0.0
 40
0.0
 40
1.754313380161178
 40
1.754313380161178
 40
1.754313380161178
 40
3.421583271559988
 40
3.421583271559988
 40
3.421583271559988
 40
5.561677833949723
 40
5.561677833949723
 40
5.561677833949723
 40
5.561677833949723
 40
5.561677833949723
 40
5.561677833949723
 10
-76.34980745010193
 20
0.5936641300738188
 30
0.0
 10
-76.41371107826706
 20
0.426780865081014
 30
0.0
 10
-76.49428768339453
 20
0.273346916510576
 30
0.0
 10
-76.58787784802735
 20
0.1404015785885804
 30
0.0
 10
-76.78589322658012
 20
-0.0807205205495052
 30
0.0
 10
-77.00439749786823
 20
-0.2336693297814349
 30
0.0
 10
-77.11376681349964
 20
-0.2937723497481954
 30
0.0
 10
-77.36642150473892
 20
-0.4009787429643268
 30
0.0
 10
-77.62110367679941
 20
-0.4471280966808139
 30
0.0
 10
-77.76348983980017
 20
-0.4567065039841796
 30
0.0
 10
-77.90361464255511
 20
-0.4518867485668923
 30
0.0
 10
-78.04144223115088
 20
-0.4341079799488057
 30
0.0
  0
ARC
  5
21EB1
330
1F
100
AcDbEntity
  8
SKVIEW1
100
AcDbCircle
 10
-78.19437794567114
 20
1.303521999999985
 30
0.0
 40
1.976425
100
AcDbArc
 50
338.9514629999991
 51
346.1041559999991
  0
SPLINE
  5
21EB2
330
1F
100
AcDbEntity
  8
SKVIEW1
100
AcDbSpline
210
0.0
220
0.0
230
1.0
 70
     8
 71
     5
 72
    12
 73
     6
 74
     0
 42
0.000000001
 43
0.0000000001
 40
0.0
 40
0.0
 40
0.0
 40
0.0
 40
0.0
 40
0.0
 40
1.690652603728311
 40
1.690652603728311
 40
1.690652603728311
 40
1.690652603728311
 40
1.690652603728311
 40
1.690652603728311
 10
-76.27581568768085
 20
0.8288733481269048
 30
0.0
 10
-76.23858267910145
 20
0.9805049699322124
 30
0.0
 10
-76.2210069990807
 20
1.12179280960447
 30
0.0
 10
-76.22155597679522
 20
1.246820586268484
 30
0.0
 10
-76.23323504836263
 20
1.344346158064978
 30
0.0
 10
-76.24981863203071
 20
1.414920806610098
 30
0.0
  0
ARC
  5
21EB3
330
1F
100
AcDbEntity
  8
SKVIEW1
100
AcDbCircle
 10
-77.81268194567108
 20
1.024399000000099
 30
0.0
 40
1.611256999999999
100
AcDbArc
 50
14.02956200000109
 51
30.87328899999993
  0
ARC
  5
21EB4
330
1F
100
AcDbEntity
  8
SKVIEW1
100
AcDbCircle
 10
-78.25476994567111
 20
2.088151000000094
 30
0.0
 40
2.271500999999999
100
AcDbArc
 50
275.000396
 51
299.8413819999969
  0
ARC
  5
21EB5
330
1F
100
AcDbEntity
  8
SKVIEW1
100
AcDbCircle
 10
-72.90139294567109
 20
-0.0000279999999009
 30
0.0
 40
5.158345999999998
100
AcDbArc
 50
181.9405779999993
 51
184.8272080000006
  0
LINE
  5
21EB6
330
1F
100
AcDbEntity
  8
SKVIEW1
100
AcDbLine
 10
-76.85377294567115
 20
2.530769999999989
 30
0.0
 11
-77.04132394567114
 21
3.006069999999993
 31
0.0
  0
ARC
  5
21EB7
330
1F
100
AcDbEntity
  8
SKVIEW1
100
AcDbCircle
 10
8.781899054328846
 20
37.32253200000011
 30
0.0
 40
92.42965599999999
100
AcDbArc
 50
199.7558709999971
 51
201.7940270000007
  0
ARC
  5
21EB8
330
1F
100
AcDbEntity
  8
SKVIEW1
100
AcDbCircle
 10
-65.67381894567109
 20
6.698137000000115
 30
0.0
 40
12.54887
100
AcDbArc
 50
180.6107810000002
 51
182.8229910000002
  0
ARC
  5
21EB9
330
1F
100
AcDbEntity
  8
SKVIEW1
100
AcDbCircle
 10
-88.02702794567093
 20
-4.922035999999906
 30
0.0
 40
13.430723
100
AcDbArc
 50
30.28647700000034
 51
33.70415599999983
  0
LINE
  5
21EBA
330
1F
100
AcDbEntity
  8
SKVIEW1
100
AcDbLine
 10
-68.94845494567096
 20
-2.530770000000018
 30
0.0
 11
-68.76090394567086
 21
-3.006069999999993
 31
0.0
  0
ARC
  5
21EBB
330
1F
100
AcDbEntity
  8
SKVIEW1
100
AcDbCircle
 10
-154.6135449456711
 20
-37.3332759999999
 30
0.0
 40
92.460968
100
AcDbArc
 50
19.7559750000001
 51
21.79343999999984
  0
ARC
  5
21EBC
330
1F
100
AcDbEntity
  8
SKVIEW1
100
AcDbCircle
 10
-80.12776794567114
 20
-6.698117999999992
 30
0.0
 40
12.548229
100
AcDbArc
 50
0.6107240000006328
 51
2.823047000000656
  0
ARC
  5
21EBD
330
1F
100
AcDbEntity
  8
SKVIEW1
100
AcDbCircle
 10
-57.77519994567114
 20
4.922035999999991
 30
0.0
 40
13.430723
100
AcDbArc
 50
210.286477
 51
213.7041559999998
  0
ARC
  5
21EBE
330
1F
100
AcDbEntity
  8
SKVIEW1
100
AcDbCircle
 10
-72.90111394567111
 20
0.0
 30
0.0
 40
5.224999999999996
100
AcDbArc
 50
1.979680999999608
 51
63.42340499999657
  0
LINE
  5
21EBF
330
1F
100
AcDbEntity
  8
SKVIEW1
100
AcDbLine
 10
-67.76078594567116
 20
0.4341080000000943
 30
0.0
 11
-67.69343894567121
 21
0.4251800000000971
 31
0.0
  0
LINE
  5
21EC0
330
1F
100
AcDbEntity
  8
SKVIEW1
100
AcDbLine
 10
-72.90111394567111
 20
8.070000000000106
 30
0.0
 11
-72.90111394567111
 21
8.450000000000102
 31
0.0
  0
LINE
  5
21EC1
330
1F
100
AcDbEntity
  8
SKVIEW1
100
AcDbLine
 10
-72.90111394567111
 20
5.937026000000115
 30
0.0
 11
-72.90111394567111
 21
8.070000000000106
 31
0.0
  0
ARC
  5
21EC2
330
1F
100
AcDbEntity
  8
SKVIEW1
100
AcDbCircle
 10
-72.60111394567116
 20
5.639525999999986
 30
0.0
 40
0.4225
100
AcDbArc
 50
135.2397299999962
 51
266.9549659999999
  0
ARC
  5
21EC3
330
1F
100
AcDbEntity
  8
SKVIEW1
100
AcDbCircle
 10
-72.90111394567111
 20
0.0
 30
0.0
 40
5.224999999999996
100
AcDbArc
 50
63.42341500000139
 51
86.954966
  0
LINE
  5
21EC4
330
1F
100
AcDbEntity
  8
SKVIEW1
100
AcDbLine
 10
-72.52582594567115
 20
0.2298519999999939
 30
0.0
 11
-69.45241994567084
 21
-0.5936639999999045
 31
0.0
  0
LINE
  5
21EC5
330
1F
100
AcDbEntity
  8
SKVIEW1
100
AcDbLine
 10
-70.59266894567087
 20
4.566056000000116
 30
0.0
 11
-70.56348194567113
 21
4.67291200000011
 31
0.0
  0
ARC
  5
21EC6
330
1F
100
AcDbEntity
  8
SKVIEW1
100
AcDbCircle
 10
-74.86199294567109
 20
5.71348200000011
 30
0.0
 40
4.420644999999998
100
AcDbArc
 50
335.2536070000003
 51
344.9566370000002
  0
LINE
  5
21EC7
330
1F
100
AcDbEntity
  8
SKVIEW1
100
AcDbLine
 10
-71.18283394567119
 20
3.145290000000101
 30
0.0
 11
-70.84747394567114
 21
3.863070000000106
 31
0.0
  0
SPLINE
  5
21EC8
330
1F
100
AcDbEntity
  8
SKVIEW1
100
AcDbSpline
210
0.0
220
0.0
230
1.0
 70
     8
 71
     5
 72
    30
 73
    24
 74
     0
 42
0.000000001
 43
0.0000000001
 40
0.0
 40
0.0
 40
0.0
 40
0.0
 40
0.0
 40
0.0
 40
27.46890791900197
 40
27.46890791900197
 40
27.46890791900197
 40
38.07893557398753
 40
38.07893557398753
 40
38.07893557398753
 40
43.40645323895073
 40
43.40645323895073
 40
43.40645323895073
 40
49.7351182792694
 40
49.7351182792694
 40
49.7351182792694
 40
51.78944324206803
 40
51.78944324206803
 40
51.78944324206803
 40
53.40576490036049
 40
53.40576490036049
 40
53.40576490036049
 40
54.31140019280714
 40
54.31140019280714
 40
54.31140019280714
 40
54.31140019280714
 40
54.31140019280714
 40
54.31140019280714
 10
-72.52582607271198
 20
0.2298524268930748
 30
0.0
 10
-72.51075722728661
 20
0.2674281545220936
 30
0.0
 10
-72.49210501769937
 20
0.3124272216995791
 30
0.0
 10
-72.47103031422409
 20
0.3615391759955173
 30
0.0
 10
-72.43250621264701
 20
0.450605171687414
 30
0.0
 10
-72.35218445488761
 20
0.6284026994632939
 30
0.0
 10
-72.32547718100306
 20
0.6872298068065846
 30
0.0
 10
-72.27668844355616
 20
0.7941230067388007
 30
0.0
 10
-72.20424813200861
 20
0.951525162547824
 30
0.0
 10
-72.17742685526205
 20
1.009627259835694
 30
0.0
 10
-72.10778322180861
 20
1.160388970480793
 30
0.0
 10
-72.01003385394766
 20
1.371223552421497
 30
0.0
 10
-71.94651841629672
 20
1.507910104094063
 30
0.0
 10
-71.8391559553486
 20
1.738681842861581
 30
0.0
 10
-71.68390351560494
 20
2.07175755208999
 30
0.0
 10
-71.64000945304633
 20
2.165690910137698
 30
0.0
 10
-71.55671972948937
 20
2.344437603345113
 30
0.0
 10
-71.46332972740561
 20
2.54461452469661
 30
0.0
 10
-71.42278793799412
 20
2.631432485928002
 30
0.0
 10
-71.35049864377186
 20
2.786268181567292
 30
0.0
 10
-71.27198723615662
 20
2.954402206094187
 30
0.0
 10
-71.24300928305898
 20
3.016455624317075
 30
0.0
 10
-71.21329808628137
 20
3.080069560395427
 30
0.0
 10
-71.18283426844005
 20
3.145289851631986
 30
0.0
  0
LINE
  5
21EC9
330
1F
100
AcDbEntity
  8
SKVIEW1
100
AcDbLine
 10
-71.84928594567134
 20
-0.7994750000000011
 30
0.0
 11
-69.5524089456711
 21
-1.414920999999907
 31
0.0
  0
SPLINE
  5
21ECA
330
1F
100
AcDbEntity
  8
SKVIEW1
100
AcDbSpline
210
0.0
220
0.0
230
1.0
 70
     8
 71
     5
 72
    57
 73
    51
 74
     0
 42
0.000000001
 43
0.0000000001
 40
0.0
 40
0.0
 40
0.0
 40
0.0
 40
0.0
 40
0.0
 40
24.72862772093421
 40
24.72862772093421
 40
24.72862772093421
 40
61.82105273432865
 40
61.82105273432865
 40
61.82105273432865
 40
86.5493593923421
 40
86.5493593923421
 40
86.5493593923421
 40
98.91360281701441
 40
98.91360281701441
 40
98.91360281701441
 40
111.2780730486465
 40
111.2780730486465
 40
111.2780730486465
 40
118.5545750181114
 40
118.5545750181114
 40
118.5545750181114
 40
120.1575536532695
 40
120.1575536532695
 40
120.1575536532695
 40
121.4852127419106
 40
121.4852127419106
 40
121.4852127419106
 40
122.3651045244989
 40
122.3651045244989
 40
122.3651045244989
 40
122.4234374393187
 40
122.4234374393187
 40
122.4234374393187
 40
122.4817703541384
 40
122.4817703541384
 40
122.4817703541384
 40
122.5962182820432
 40
122.5962182820432
 40
122.5962182820432
 40
122.674889342142
 40
122.674889342142
 40
122.674889342142
 40
122.714227621705
 40
122.714227621705
 40
122.714227621705
 40
123.0529526567849
 40
123.0529526567849
 40
123.0529526567849
 40
124.0079913896912
 40
124.0079913896912
 40
124.0079913896912
 40
124.0079913896912
 40
124.0079913896912
 40
124.0079913896912
 10
-72.52582607271198
 20
0.2298524268930748
 30
0.0
 10
-72.53939283591866
 20
0.1960222969369738
 30
0.0
 10
-72.5466368195672
 20
0.1703027044105738
 30
0.0
 10
-72.55194717998356
 20
0.1480605471900844
 30
0.0
 10
-72.56119172522608
 20
0.0961835866499996
 30
0.0
 10
-72.56220684629477
 20
0.0528359385351109
 30
0.0
 10
-72.56086112566106
 20
0.0282116209608034
 30
0.0
 10
-72.55533522169276
 20
-0.0133902875776642
 30
0.0
 10
-72.54333716300379
 20
-0.0589359596694124
 30
0.0
 10
-72.53737911662256
 20
-0.0780973104741065
 30
0.0
 10
-72.52618295936712
 20
-0.1094164027092006
 30
0.0
 10
-72.50866106717808
 20
-0.1479972433521652
 30
0.0
 10
-72.50186295465595
 20
-0.16200432936742
 30
0.0
 10
-72.4866194605604
 20
-0.1914101599909941
 30
0.0
 10
-72.46601029592352
 20
-0.2267141500902881
 30
0.0
 10
-72.45381236949299
 20
-0.2465494371921864
 30
0.0
 10
-72.42954065374703
 20
-0.2839451804708801
 30
0.0
 10
-72.38953309809222
 20
-0.3373754907801185
 30
0.0
 10
-72.37318603365361
 20
-0.3579044173735042
 30
0.0
 10
-72.34861768660528
 20
-0.3887254888933285
 30
0.0
 10
-72.30514885385843
 20
-0.4363890241278058
 30
0.0
 10
-72.29629240785664
 20
-0.445914854073493
 30
0.0
 10
-72.28025674674461
 20
-0.4628080136976678
 30
0.0
 10
-72.26152960778666
 20
-0.481858927371178
 30
0.0
 10
-72.25206674909111
 20
-0.4913512027880246
 30
0.0
 10
-72.23311134963592
 20
-0.5100777023933178
 30
0.0
 10
-72.20427718520989
 20
-0.537051559436577
 30
0.0
 10
-72.19395389497456
 20
-0.5462957044239829
 30
0.0
 10
-72.18042919004767
 20
-0.5588749476449948
 30
0.0
 10
-72.15426663905202
 20
-0.5813858611708156
 30
0.0
 10
-72.15301561260412
 20
-0.5824943531656004
 30
0.0
 10
-72.14782847826096
 20
-0.586806543134003
 30
0.0
 10
-72.13824471552448
 20
-0.5945335616209208
 30
0.0
 10
-72.13238489621222
 20
-0.5992252958137954
 30
0.0
 10
-72.11419089387016
 20
-0.613742364759503
 30
0.0
 10
-72.09326802121882
 20
-0.6303185447220017
 30
0.0
 10
-72.07942065533893
 20
-0.6412568514626003
 30
0.0
 10
-72.05605891947334
 20
-0.6596462779758099
 30
0.0
 10
-72.03615182416172
 20
-0.6751104550410787
 30
0.0
 10
-72.02839422974465
 20
-0.6810799179484377
 30
0.0
 10
-72.02148453745474
 20
-0.6862144595957888
 30
0.0
 10
-72.01650670505319
 20
-0.6897862032419937
 30
0.0
 10
-72.01473709473259
 20
-0.6910663149645018
 30
0.0
 10
-71.99856909251329
 20
-0.702690489423901
 30
0.0
 10
-71.98549907844699
 20
-0.7118151333921789
 30
0.0
 10
-71.97442158445756
 20
-0.7194673751793062
 30
0.0
 10
-71.93530676759019
 20
-0.7460934945048338
 30
0.0
 10
-71.90563574188866
 20
-0.7649834828739871
 30
0.0
 10
-71.88817751085503
 20
-0.7760100485960209
 30
0.0
 10
-71.86823387344124
 20
-0.7881885718661863
 30
0.0
 10
-71.84928595026111
 20
-0.7994745521536686
 30
0.0
  0
LINE
  5
21ECB
330
1F
100
AcDbEntity
  8
SKVIEW1
100
AcDbLine
 10
-69.21981594567114
 20
-2.364062999999902
 30
0.0
 11
-71.84928594567134
 21
-0.7994750000000011
 31
0.0
  0
ARC
  5
21ECC
330
1F
100
AcDbEntity
  8
SKVIEW1
100
AcDbCircle
 10
-75.04431094567109
 20
-12.14851200000001
 30
0.0
 40
11.386848
100
AcDbArc
 50
57.63292600000323
 51
59.23547500000179
  0
LINE
  5
21ECD
330
1F
100
AcDbEntity
  8
SKVIEW1
100
AcDbLine
 10
-78.12299494567117
 20
-0.1804979999998863
 30
0.0
 11
-78.0567809456711
 21
-0.1747049999999035
 31
0.0
  0
LINE
  5
21ECE
330
1F
100
AcDbEntity
  8
SKVIEW1
100
AcDbLine
 10
-76.34980794567116
 20
0.5936640000001036
 30
0.0
 11
-73.27640194567095
 21
-0.2298519999998803
 31
0.0
  0
LINE
  5
21ECF
330
1F
100
AcDbEntity
  8
SKVIEW1
100
AcDbLine
 10
-78.04144194567095
 20
-0.4341080000000093
 30
0.0
 11
-78.10878894567109
 21
-0.4251800000000119
 31
0.0
  0
ARC
  5
21ED0
330
1F
100
AcDbEntity
  8
SKVIEW1
100
AcDbCircle
 10
-72.90111394567111
 20
0.0
 30
0.0
 40
5.224999999999996
100
AcDbArc
 50
181.9796809999995
 51
266.9549560000017
  0
LINE
  5
21ED1
330
1F
100
AcDbEntity
  8
SKVIEW1
100
AcDbLine
 10
-75.20955894567113
 20
-4.566056000000003
 30
0.0
 11
-75.23874594567098
 21
-4.672911999999882
 31
0.0
  0
ARC
  5
21ED2
330
1F
100
AcDbEntity
  8
SKVIEW1
100
AcDbCircle
 10
-70.94023494567114
 20
-5.713481999999999
 30
0.0
 40
4.420644999999998
100
AcDbArc
 50
155.2536070000003
 51
164.9566370000001
  0
LINE
  5
21ED3
330
1F
100
AcDbEntity
  8
SKVIEW1
100
AcDbLine
 10
-74.61939394567116
 20
-3.145289999999903
 30
0.0
 11
-74.95475394567086
 21
-3.863069999999879
 31
0.0
  0
SPLINE
  5
21ED4
330
1F
100
AcDbEntity
  8
SKVIEW1
100
AcDbSpline
210
0.0
220
0.0
230
1.0
 70
     8
 71
     5
 72
    30
 73
    24
 74
     0
 42
0.000000001
 43
0.0000000001
 40
0.0
 40
0.0
 40
0.0
 40
0.0
 40
0.0
 40
0.0
 40
27.46890787819352
 40
27.46890787819352
 40
27.46890787819352
 40
38.07893553191076
 40
38.07893553191076
 40
38.07893553191076
 40
43.40645319715878
 40
43.40645319715878
 40
43.40645319715878
 40
49.73511823805431
 40
49.73511823805431
 40
49.73511823805431
 40
51.78944320099215
 40
51.78944320099215
 40
51.78944320099215
 40
53.40576485843856
 40
53.40576485843856
 40
53.40576485843856
 40
54.31140015090413
 40
54.31140015090413
 40
54.31140015090413
 40
54.31140015090413
 40
54.31140015090413
 40
54.31140015090413
 10
-73.27640181863012
 20
-0.229852426893018
 30
0.0
 10
-73.29147066403312
 20
-0.2674281544661028
 30
0.0
 10
-73.31012287358999
 20
-0.3124272215670771
 30
0.0
 10
-73.33119757716452
 20
-0.3615391760986881
 30
0.0
 10
-73.3697216787765
 20
-0.4506051718579159
 30
0.0
 10
-73.45004343646337
 20
-0.6284026994825071
 30
0.0
 10
-73.47675071034609
 20
-0.687229806818209
 30
0.0
 10
-73.52553944778946
 20
-0.7941230067484071
 30
0.0
 10
-73.59797975933782
 20
-0.951525162552997
 30
0.0
 10
-73.62480103606469
 20
-1.009627259796785
 30
0.0
 10
-73.69444466953996
 20
-1.160388970489889
 30
0.0
 10
-73.79219403740501
 20
-1.371223552441192
 30
0.0
 10
-73.85570947503961
 20
-1.507910104074823
 30
0.0
 10
-73.96307193596976
 20
-1.738681842814171
 30
0.0
 10
-74.1183243757241
 20
-2.071757552067083
 30
0.0
 10
-74.16221843834353
 20
-2.16569091024189
 30
0.0
 10
-74.24550816195155
 20
-2.344437603563503
 30
0.0
 10
-74.33889816403222
 20
-2.54461452490608
 30
0.0
 10
-74.37943995336457
 20
-2.631432485969098
 30
0.0
 10
-74.45172924758731
 20
-2.786268181596
 30
0.0
 10
-74.53024065519094
 20
-2.954402206089838
 30
0.0
 10
-74.55921860829187
 20
-3.016455624316788
 30
0.0
 10
-74.58892980506812
 20
-3.080069560393098
 30
0.0
 10
-74.61939362290855
 20
-3.145289851628575
 30
0.0
  0
SPLINE
  5
21ED5
330
1F
100
AcDbEntity
  8
SKVIEW1
100
AcDbSpline
210
0.0
220
0.0
230
1.0
 70
     8
 71
     5
 72
    57
 73
    51
 74
     0
 42
0.000000001
 43
0.0000000001
 40
0.0
 40
0.0
 40
0.0
 40
0.0
 40
0.0
 40
0.0
 40
24.7286277453748
 40
24.7286277453748
 40
24.7286277453748
 40
61.8210527954297
 40
61.8210527954297
 40
61.8210527954297
 40
86.54935947788381
 40
86.54935947788381
 40
86.54935947788381
 40
98.91360291477717
 40
98.91360291477717
 40
98.91360291477717
 40
111.2780731586323
 40
111.2780731586323
 40
111.2780731586323
 40
118.5545751245098
 40
118.5545751245098
 40
118.5545751245098
 40
120.1575537424125
 40
120.1575537424125
 40
120.1575537424125
 40
121.4852129589463
 40
121.4852129589463
 40
121.4852129589463
 40
122.3651046583887
 40
122.3651046583887
 40
122.3651046583887
 40
122.4234375690366
 40
122.4234375690366
 40
122.4234375690366
 40
122.4817704796846
 40
122.4817704796846
 40
122.4817704796846
 40
122.5962183987453
 40
122.5962183987453
 40
122.5962183987453
 40
122.6748894604638
 40
122.6748894604638
 40
122.6748894604638
 40
122.7142277408341
 40
122.7142277408341
 40
122.7142277408341
 40
123.0529527913867
 40
123.0529527913867
 40
123.0529527913867
 40
124.0079914901107
 40
124.0079914901107
 40
124.0079914901107
 40
124.0079914901107
 40
124.0079914901107
 40
124.0079914901107
 10
-73.27640181863012
 20
-0.229852426893018
 30
0.0
 10
-73.26283505541039
 20
-0.1960222969033793
 30
0.0
 10
-73.25559107175923
 20
-0.1703027043591021
 30
0.0
 10
-73.25028071134555
 20
-0.1480605471438992
 30
0.0
 10
-73.2410361661066
 20
-0.0961835865655871
 30
0.0
 10
-73.24002104504505
 20
-0.0528359384163082
 30
0.0
 10
-73.24136676569117
 20
-0.0282116208231003
 30
0.0
 10
-73.24689266968096
 20
0.0133902877601884
 30
0.0
 10
-73.25889072841028
 20
0.0589359599185002
 30
0.0
 10
-73.2648487748122
 20
0.0780973107569878
 30
0.0
 10
-73.27604493210991
 20
0.1094164030588161
 30
0.0
 10
-73.29356682438242
 20
0.1479972438164054
 30
0.0
 10
-73.30036493694159
 20
0.1620043298779876
 30
0.0
 10
-73.31560843108935
 20
0.1914101605599967
 30
0.0
 10
-73.33621759581808
 20
0.2267141507618362
 30
0.0
 10
-73.34841552232091
 20
0.2465494379434858
 30
0.0
 10
-73.37268723825045
 20
0.2839451814340919
 30
0.0
 10
-73.41269479428354
 20
0.3373754921227885
 30
0.0
 10
-73.42904185884084
 20
0.3579044187897011
 30
0.0
 10
-73.45361020598955
 20
0.388725490406614
 30
0.0
 10
-73.49707903940281
 20
0.4363890262075075
 30
0.0
 10
-73.50593548552115
 20
0.4459148562356745
 30
0.0
 10
-73.52197114635623
 20
0.4628080155679868
 30
0.0
 10
-73.5406982845559
 20
0.4818589284365089
 30
0.0
 10
-73.55016114364525
 20
0.4913512042153061
 30
0.0
 10
-73.56911654361034
 20
0.5100777042798939
 30
0.0
 10
-73.59795071021278
 20
0.5370515631798014
 30
0.0
 10
-73.608274002033
 20
0.5462957096120819
 30
0.0
 10
-73.62179870686304
 20
0.5588749525917081
 30
0.0
 10
-73.64796125760666
 20
0.5813858657366211
 30
0.0
 10
-73.64921228473099
 20
0.5824943582609876
 30
0.0
 10
-73.654399424639
 20
0.5868065525478983
 30
0.0
 10
-73.66398319138601
 20
0.5945335741122051
 30
0.0
 10
-73.66984301139893
 20
0.5992253088201949
 30
0.0
 10
-73.68803701516809
 20
0.613742378803579
 30
0.0
 10
-73.7089598865116
 20
0.6303185576776686
 30
0.0
 10
-73.72280725134453
 20
0.6412568635572029
 30
0.0
 10
-73.74616898583361
 20
0.6596462889163776
 30
0.0
 10
-73.76607607800576
 20
0.6751104633999036
 30
0.0
 10
-73.77383367096775
 20
0.6810799250825711
 30
0.0
 10
-73.78074335922327
 20
0.6862144634495735
 30
0.0
 10
-73.78572119148066
 20
0.6897862069736789
 30
0.0
 10
-73.78749080192005
 20
0.6910663187886712
 30
0.0
 10
-73.80365880397926
 20
0.7026904930580145
 30
0.0
 10
-73.81672881810368
 20
0.7118151370102908
 30
0.0
 10
-73.82780631234959
 20
0.7194673789406921
 30
0.0
 10
-73.8669211272963
 20
0.7460934967779167
 30
0.0
 10
-73.89659215246172
 20
0.7649834847671002
 30
0.0
 10
-73.91405038191681
 20
0.7760100494691642
 30
0.0
 10
-73.93399401857968
 20
0.7881885722709116
 30
0.0
 10
-73.95294194108112
 20
0.7994745521538107
 30
0.0
  0
LINE
  5
21ED6
330
1F
100
AcDbEntity
  8
SKVIEW1
100
AcDbLine
 10
-73.95294194567111
 20
0.7994750000001149
 30
0.0
 11
-76.24981894567111
 21
1.414921000000106
 31
0.0
  0
LINE
  5
21ED7
330
1F
100
AcDbEntity
  8
SKVIEW1
100
AcDbLine
 10
-76.58241194567096
 20
2.364062999999985
 30
0.0
 11
-73.95294194567111
 21
0.7994750000001149
 31
0.0
  0
ARC
  5
21ED8
330
1F
100
AcDbEntity
  8
SKVIEW1
100
AcDbCircle
 10
-70.75791694567112
 20
12.1485120000001
 30
0.0
 40
11.386848
100
AcDbArc
 50
237.6329260000032
 51
239.2354750000017
  0
ARC
  5
21ED9
330
1F
100
AcDbEntity
  8
SKVIEW1
100
AcDbCircle
 10
-72.90111394567111
 20
0.0
 30
0.0
 40
5.116423999999998
100
AcDbArc
 50
63.18036499999681
 51
144.0178359999984
  0
ARC
  5
21EDA
330
1F
100
AcDbEntity
  8
SKVIEW1
100
AcDbCircle
 10
-72.90111394567111
 20
0.0
 30
0.0
 40
4.375014
100
AcDbArc
 50
62.00452400000272
 51
147.2921570000005
  0
ARC
  5
21EDB
330
1F
100
AcDbEntity
  8
SKVIEW1
100
AcDbCircle
 10
-72.90111394567111
 20
0.0
 30
0.0
 40
8.07
100
AcDbArc
 50
90.0
 51
131.1125089999968
  0
ARC
  5
21EDC
330
1F
100
AcDbEntity
  8
SKVIEW1
100
AcDbCircle
 10
-72.90111394567111
 20
0.0
 30
0.0
 40
8.449999999999999
100
AcDbArc
 50
90.0
 51
129.0271069999994
  0
ARC
  5
21EDD
330
1F
100
AcDbEntity
  8
SKVIEW1
100
AcDbCircle
 10
-72.90111394567111
 20
0.0
 30
0.0
 40
4.375014
100
AcDbArc
 50
242.0045240000027
 51
327.2921570000001
  0
ARC
  5
21EDE
330
1F
100
AcDbEntity
  8
SKVIEW1
100
AcDbCircle
 10
-72.90111394567111
 20
0.0
 30
0.0
 40
5.116423999999998
100
AcDbArc
 50
243.1803649999968
 51
324.0178359999983
  0
ARC
  5
21EDF
330
1F
100
AcDbEntity
  8
SKVIEW1
100
AcDbCircle
 10
-73.20111394567118
 20
-5.639525999999902
 30
0.0
 40
0.4225
100
AcDbArc
 50
315.2397299999963
 51
86.954966
  0
LINE
  5
21EE0
330
1F
100
AcDbEntity
  8
SKVIEW1
100
AcDbLine
 10
-72.90111394567111
 20
-8.069999999999877
 30
0.0
 11
-72.90111394567111
 21
-5.937025999999889
 31
0.0
  0
ARC
  5
21EE1
330
1F
100
AcDbEntity
  8
SKVIEW1
100
AcDbCircle
 10
-72.90111394567111
 20
0.0
 30
0.0
 40
8.07
100
AcDbArc
 50
270.0
 51
311.1125089999971
  0
ARC
  5
21EE2
330
1F
100
AcDbEntity
  8
SKVIEW1
100
AcDbCircle
 10
-72.90111394567111
 20
0.0
 30
0.0
 40
8.449999999999999
100
AcDbArc
 50
270.0
 51
309.0271069999994
  0
LINE
  5
21EE3
330
1F
100
AcDbEntity
  8
SKVIEW1
100
AcDbLine
 10
-72.90111394567111
 20
-8.069999999999877
 30
0.0
 11
-72.90111394567111
 21
-8.449999999999901
 31
0.0
  0
LINE
  5
21EE4
330
1F
100
AcDbEntity
  8
SKVIEW1
100
AcDbLine
 10
-72.90111394567111
 20
-16.20000000000002
 30
0.0
 11
-72.90111394567111
 21
-8.450000999999899
 31
0.0
  0
LINE
  5
21EE5
330
1F
100
AcDbEntity
  8
SKVIEW1
100
AcDbLine
 10
-72.90111394567111
 20
-16.20000000000002
 30
0.0
 11
-72.90111394567111
 21
-17.0
 31
0.0
  0
LINE
  5
21EE6
330
1F
100
AcDbEntity
  8
SKVIEW1
100
AcDbLine
 10
-77.20111394567084
 20
-16.3956739999999
 30
0.0
 11
-77.20111394567084
 21
-16.20000000000002
 31
0.0
  0
LINE
  5
21EE7
330
1F
100
AcDbEntity
  8
SKVIEW1
100
AcDbLine
 10
-77.20111394567084
 20
-16.20000000000002
 30
0.0
 11
-77.20111394567084
 21
-7.889999999999901
 31
0.0
  0
LINE
  5
21EE8
330
1F
100
AcDbEntity
  8
SKVIEW1
100
AcDbLine
 10
-77.20111394567084
 20
-7.889999999999901
 30
0.0
 11
-77.20111394567084
 21
-7.694325999999902
 31
0.0
  0
LINE
  5
21EE9
330
1F
100
AcDbEntity
  8
SKVIEW1
100
AcDbLine
 10
-77.20111394567084
 20
-7.694325999999902
 30
0.0
 11
-72.90111394567111
 21
-7.090000000000002
 31
0.0
  0
LINE
  5
21EEA
330
1F
100
AcDbEntity
  8
SKVIEW1
100
AcDbLine
 10
-77.20111394567084
 20
-7.889999999999901
 30
0.0
 11
-72.90111394567111
 21
-7.889999999999901
 31
0.0
  0
LINE
  5
21EEB
330
1F
100
AcDbEntity
  8
SKVIEW1
100
AcDbLine
 10
-77.20111394567084
 20
-16.20000000000002
 30
0.0
 11
-72.90111394567111
 21
-16.20000000000002
 31
0.0
  0
LINE
  5
21EEC
330
1F
100
AcDbEntity
  8
SKVIEW1
100
AcDbLine
 10
-77.20111394567084
 20
-16.3956739999999
 30
0.0
 11
-72.90111394567111
 21
-17.0
 31
0.0
  0
LINE
  5
21EED
330
1F
100
AcDbEntity
  8
SKVIEW1
100
AcDbLine
 10
-72.90111394567111
 20
-17.0
 30
0.0
 11
-72.90111394567111
 21
-16.20000000000002
 31
0.0
  0
LINE
  5
21EEE
330
1F
100
AcDbEntity
  8
SKVIEW1
100
AcDbLine
 10
-72.90111394567111
 20
-17.0
 30
0.0
 11
-72.90111394567111
 21
-16.20000000000002
 31
0.0
  0
LINE
  5
21EEF
330
1F
100
AcDbEntity
  8
SKVIEW1
100
AcDbLine
 10
-72.90111394567111
 20
-16.20000000000002
 30
0.0
 11
-72.90111394567111
 21
-14.59763299999989
 31
0.0
  0
LINE
  5
21EF0
330
1F
100
AcDbEntity
  8
SKVIEW1
100
AcDbLine
 10
-72.90111394567111
 20
-14.48188400000001
 30
0.0
 11
-72.90111394567111
 21
-8.450007999999883
 31
0.0
  0
LINE
  5
21EF1
330
1F
100
AcDbEntity
  8
SKVIEW1
100
AcDbLine
 10
-72.90111394567111
 20
-8.449999999999901
 30
0.0
 11
-72.90111394567111
 21
-16.20000000000002
 31
0.0
  0
LINE
  5
21EF2
330
1F
100
AcDbEntity
  8
SKVIEW1
100
AcDbLine
 10
-72.90111394567111
 20
7.889999999999987
 30
0.0
 11
-72.90111394567111
 21
7.090000000000117
 31
0.0
  0
LINE
  5
21EF3
330
1F
100
AcDbEntity
  8
SKVIEW1
100
AcDbLine
 10
-72.90111394567111
 20
16.19999999999999
 30
0.0
 11
-72.90111394567111
 21
7.889999999999987
 31
0.0
  0
LINE
  5
21EF4
330
1F
100
AcDbEntity
  8
SKVIEW1
100
AcDbLine
 10
-72.90111394567111
 20
16.19999999999999
 30
0.0
 11
-72.90111394567111
 21
17.00000000000011
 31
0.0
  0
LINE
  5
21EF5
330
1F
100
AcDbEntity
  8
SKVIEW1
100
AcDbLine
 10
-68.60111394567116
 20
16.3956740000001
 30
0.0
 11
-68.60111394567116
 21
16.19999999999999
 31
0.0
  0
LINE
  5
21EF6
330
1F
100
AcDbEntity
  8
SKVIEW1
100
AcDbLine
 10
-68.60111394567116
 20
16.19999999999999
 30
0.0
 11
-68.60111394567116
 21
7.889999999999987
 31
0.0
  0
LINE
  5
21EF7
330
1F
100
AcDbEntity
  8
SKVIEW1
100
AcDbLine
 10
-68.60111394567116
 20
7.889999999999987
 30
0.0
 11
-68.60111394567116
 21
7.694326000000102
 31
0.0
  0
LINE
  5
21EF8
330
1F
100
AcDbEntity
  8
SKVIEW1
100
AcDbLine
 10
-68.60111394567116
 20
7.694326000000102
 30
0.0
 11
-72.90111394567111
 21
7.090000000000117
 31
0.0
  0
LINE
  5
21EF9
330
1F
100
AcDbEntity
  8
SKVIEW1
100
AcDbLine
 10
-68.60111394567116
 20
7.889999999999987
 30
0.0
 11
-72.90111394567111
 21
7.889999999999987
 31
0.0
  0
LINE
  5
21EFA
330
1F
100
AcDbEntity
  8
SKVIEW1
100
AcDbLine
 10
-68.60111394567116
 20
16.19999999999999
 30
0.0
 11
-72.90111394567111
 21
16.19999999999999
 31
0.0
  0
LINE
  5
21EFB
330
1F
100
AcDbEntity
  8
SKVIEW1
100
AcDbLine
 10
-68.60111394567116
 20
16.3956740000001
 30
0.0
 11
-72.90111394567111
 21
17.00000000000011
 31
0.0
  0
LINE
  5
21EFC
330
1F
100
AcDbEntity
  8
SKVIEW1
100
AcDbLine
 10
-72.90111394567111
 20
17.00000000000011
 30
0.0
 11
-72.90111394567111
 21
16.19999999999999
 31
0.0
  0
LINE
  5
21EFD
330
1F
100
AcDbEntity
  8
SKVIEW1
100
AcDbLine
 10
-72.90111394567111
 20
7.889999999999987
 30
0.0
 11
-72.90111394567111
 21
7.090000000000117
 31
0.0
  0
LINE
  5
21EFE
330
1F
100
AcDbEntity
  8
SKVIEW1
100
AcDbLine
 10
-72.90111394567111
 20
7.889999999999987
 30
0.0
 11
-72.90111394567111
 21
16.19999999999999
 31
0.0
  0
ARC
  5
21EFF
330
1F
100
AcDbEntity
  8
SKVIEW1
100
AcDbCircle
 10
-72.90111394567111
 20
0.0
 30
0.0
 40
5.224999999999996
100
AcDbArc
 50
8.352834000000187
 51
86.96870300000002
  0
LINE
  5
21F00
330
1F
100
AcDbEntity
  8
SKVIEW1
100
AcDbLine
 10
-63.84978294567111
 20
-3.100097000000004
 30
0.0
 11
-63.84978294567111
 21
1.288628999999985
 31
0.0
  0
ARC
  5
21F01
330
1F
100
AcDbEntity
  8
SKVIEW1
100
AcDbCircle
 10
-65.64590894567118
 20
-2.563191999999899
 30
0.0
 40
4.250010999999997
100
AcDbArc
 50
65.00008300000202
 51
120.3611080000021
  0
LINE
  5
21F02
330
1F
100
AcDbEntity
  8
SKVIEW1
100
AcDbLine
 10
-68.45462994567094
 20
-3.290249999999898
 30
0.0
 11
-68.45462994567094
 21
-0.0058150000000126
 31
0.0
  0
SPLINE
  5
21F03
330
1F
100
AcDbEntity
  8
SKVIEW1
100
AcDbSpline
210
0.0
220
0.0
230
1.0
 70
     8
 71
     5
 72
    24
 73
    18
 74
     0
 42
0.000000001
 43
0.0000000001
 40
0.0
 40
0.0
 40
0.0
 40
0.0
 40
0.0
 40
0.0
 40
1.967184577591495
 40
1.967184577591495
 40
1.967184577591495
 40
4.13932162749595
 40
4.13932162749595
 40
4.13932162749595
 40
5.256500996393801
 40
5.256500996393801
 40
5.256500996393801
 40
6.338306510168642
 40
6.338306510168642
 40
6.338306510168642
 40
10.28149491360124
 40
10.28149491360124
 40
10.28149491360124
 40
10.28149491360124
 40
10.28149491360124
 40
10.28149491360124
 10
-63.84978105848755
 20
-3.100089149373102
 30
0.0
 10
-63.98257880077153
 20
-3.096560118327801
 30
0.0
 10
-64.12867262068949
 20
-3.09073757379258
 30
0.0
 10
-64.29166242808843
 20
-3.082601913195929
 30
0.0
 10
-64.66792810147786
 20
-3.061849873455513
 30
0.0
 10
-65.11392594235804
 20
-3.039129768161586
 30
0.0
 10
-65.35584752658997
 20
-3.028813561603186
 30
0.0
 10
-65.74268468927527
 20
-3.019249577892081
 30
0.0
 10
-66.12095568597078
 20
-3.021189552642113
 30
0.0
 10
-66.24750454970911
 20
-3.023278196860701
 30
0.0
 10
-66.49042097844369
 20
-3.030104913550983
 30
0.0
 10
-66.72114330791306
 20
-3.041973579300303
 30
0.0
 10
-66.83163149636357
 20
-3.048992218556918
 30
0.0
 10
-67.32439167969824
 20
-3.086004281810687
 30
0.0
 10
-67.73645229869543
 20
-3.141755011403802
 30
0.0
 10
-68.01121748881121
 20
-3.190655561042403
 30
0.0
 10
-68.24898474232566
 20
-3.240831662144811
 30
0.0
 10
-68.4546310059826
 20
-3.290247303912165
 30
0.0
  0
LINE
  5
21F04
330
1F
100
AcDbEntity
  8
SKVIEW1
100
AcDbLine
 10
-72.90111394567111
 20
5.341898000000098
 30
0.0
 11
-72.90111394567111
 21
7.090000000000117
 31
0.0
  0
LINE
  5
21F05
330
1F
100
AcDbEntity
  8
SKVIEW1
100
AcDbLine
 10
-63.84978294567111
 20
1.288628999999985
 30
0.0
 11
-56.30044894567117
 21
-2.23168299999989
 31
0.0
  0
ARC
  5
21F06
330
1F
100
AcDbEntity
  8
SKVIEW1
100
AcDbCircle
 10
-72.90111394567111
 20
0.0
 30
0.0
 40
16.75
100
AcDbArc
 50
337.2052389999969
 51
75.12468500000257
  0
LINE
  5
21F07
330
1F
100
AcDbEntity
  8
SKVIEW1
100
AcDbLine
 10
-68.60111394567116
 20
7.090000000000117
 30
0.0
 11
-68.60111394567116
 21
16.18865299999999
 31
0.0
  0
LINE
  5
21F08
330
1F
100
AcDbEntity
  8
SKVIEW1
100
AcDbLine
 10
-68.60111394567116
 20
7.090000000000117
 30
0.0
 11
-72.90111394567111
 21
7.090000000000117
 31
0.0
  0
CIRCLE
  5
21F09
330
1F
100
AcDbEntity
  8
SKVIEW1
100
AcDbCircle
 10
-61.12316894567118
 20
6.800000000000096
 30
0.0
 40
1.7
  0
SPLINE
  5
21F0A
330
1F
100
AcDbEntity
  8
SKVIEW1
100
AcDbSpline
210
0.0
220
0.0
230
1.0
 70
     8
 71
     5
 72
    36
 73
    30
 74
     0
 42
0.000000001
 43
0.0000000001
 40
0.0
 40
0.0
 40
0.0
 40
0.0
 40
0.0
 40
0.0
 40
2.797740265786538
 40
2.797740265786538
 40
2.797740265786538
 40
4.221326628055106
 40
4.221326628055106
 40
4.221326628055106
 40
5.684682428786807
 40
5.684682428786807
 40
5.684682428786807
 40
6.464951132750374
 40
6.464951132750374
 40
6.464951132750374
 40
7.244314703066637
 40
7.244314703066637
 40
7.244314703066637
 40
8.319448594807088
 40
8.319448594807088
 40
8.319448594807088
 40
9.711120876385184
 40
9.711120876385184
 40
9.711120876385184
 40
12.52286556288943
 40
12.52286556288943
 40
12.52286556288943
 40
14.41396904212714
 40
14.41396904212714
 40
14.41396904212714
 40
14.41396904212714
 40
14.41396904212714
 40
14.41396904212714
 10
-63.84978105848801
 20
-3.100089149374012
 30
0.0
 10
-63.66067023031565
 20
-3.105114671436325
 30
0.0
 10
-63.46730669618318
 20
-3.114193149764473
 30
0.0
 10
-63.27148289808258
 20
-3.127965318728796
 30
0.0
 10
-62.96444969341371
 20
-3.157292624027689
 30
0.0
 10
-62.63328937572147
 20
-3.206130169296811
 30
0.0
 10
-62.51836472248554
 20
-3.225233153382502
 30
0.0
 10
-62.2794249894871
 20
-3.269969531428982
 30
0.0
 10
-62.02364970017097
 20
-3.330684459147988
 30
0.0
 10
-61.88824255011787
 20
-3.366653068470211
 30
0.0
 10
-61.67153939112188
 20
-3.431667940386318
 30
0.0
 10
-61.44080001575947
 20
-3.516333029890688
 30
0.0
 10
-61.3588697954616
 20
-3.548445491063801
 30
0.0
 10
-61.19350262638704
 20
-3.617976519080513
 30
0.0
 10
-61.02835336421414
 20
-3.697463880624098
 30
0.0
 10
-60.94617773285119
 20
-3.7398053239921
 30
0.0
 10
-60.75728259769653
 20
-3.843939363203701
 30
0.0
 10
-60.58513196872059
 20
-3.954058426601617
 30
0.0
 10
-60.49564302822592
 20
-4.016260431138817
 30
0.0
 10
-60.29960375519067
 20
-4.162244091606195
 30
0.0
 10
-60.13521370911951
 20
-4.305063752804612
 30
0.0
 10
-60.05136356945559
 20
-4.383664299315086
 30
0.0
 10
-59.81878550451789
 20
-4.616369041900611
 30
0.0
 10
-59.63774894664346
 20
-4.837648952062693
 30
0.0
 10
-59.53122129365989
 20
-4.981320795668182
 30
0.0
 10
-59.37083427929859
 20
-5.218880775947495
 30
0.0
 10
-59.2351888135704
 20
-5.451532586099089
 30
0.0
 10
-59.18398726704253
 20
-5.544508089728592
 30
0.0
 10
-59.13585167244605
 20
-5.636891314309023
 30
0.0
 10
-59.09037943348017
 20
-5.728882465034102
 30
0.0
  0
LINE
  5
21F0B
330
1F
100
AcDbEntity
  8
SKVIEW1
100
AcDbLine
 10
-59.09037694567111
 20
-5.728896999999902
 30
0.0
 11
-57.45931294567117
 21
-6.489473999999887
 31
0.0
  0
LINE
  5
21F0C
330
1F
100
AcDbEntity
  8
SKVIEW1
100
AcDbLine
 10
-68.62575694567111
 20
-3.346080999999883
 30
0.0
 11
-68.45463094567117
 21
-3.290246999999879
 31
0.0
  0
ARC
  5
21F0D
330
1F
100
AcDbEntity
  8
SKVIEW1
100
AcDbCircle
 10
-72.90111394567111
 20
0.0
 30
0.0
 40
4.224999999999996
100
AcDbArc
 50
351.2550879999995
 51
358.4009520000006
  0
ARC
  5
21F0E
330
1F
100
AcDbEntity
  8
SKVIEW1
100
AcDbCircle
 10
-67.04991394567116
 20
-17.4100479999999
 30
0.0
 40
13.539131
100
AcDbArc
 50
91.10986699999685
 51
95.69803099999884
  0
ARC
  5
21F0F
330
1F
100
AcDbEntity
  8
SKVIEW1
100
AcDbCircle
 10
-72.90111394567111
 20
0.0
 30
0.0
 40
6.799999999999998
100
AcDbArc
 50
325.2759159999994
 51
332.8865750000015
  0
ELLIPSE
  5
21F10
330
1F
100
AcDbEntity
  8
SKVIEW1
100
AcDbEllipse
 10
-65.91238694567119
 20
-12.7887859999999
 30
0.0
 11
8.538176536560056
 21
4.863522529602049
 31
0.0
210
0.0
220
0.0
230
0.9999999999999998
 40
0.988854
 41
0.2877862504382582
 42
1.153482441670278
  0
LINE
  5
21F11
330
1F
100
AcDbEntity
  8
SKVIEW1
100
AcDbLine
 10
-77.17648294567118
 20
3.346077000000093
 30
0.0
 11
-77.34759694567083
 21
3.290247000000106
 31
0.0
  0
LINE
  5
21F12
330
1F
100
AcDbEntity
  8
SKVIEW1
100
AcDbLine
 10
-77.34759294567083
 20
3.290350000000103
 30
0.0
 11
-77.34759294567083
 21
0.0058160000000953
 31
0.0
  0
SPLINE
  5
21F13
330
1F
100
AcDbEntity
  8
SKVIEW1
100
AcDbSpline
210
0.0
220
0.0
230
1.0
 70
     8
 71
     5
 72
    36
 73
    30
 74
     0
 42
0.000000001
 43
0.0000000001
 40
0.0
 40
0.0
 40
0.0
 40
0.0
 40
0.0
 40
0.0
 40
2.797740266238849
 40
2.797740266238849
 40
2.797740266238849
 40
4.221326628742068
 40
4.221326628742068
 40
4.221326628742068
 40
5.684682429765357
 40
5.684682429765357
 40
5.684682429765357
 40
6.464951133836832
 40
6.464951133836832
 40
6.464951133836832
 40
7.244314704523412
 40
7.244314704523412
 40
7.244314704523412
 40
8.319448596769428
 40
8.319448596769428
 40
8.319448596769428
 40
9.711120878900803
 40
9.711120878900803
 40
9.711120878900803
 40
12.52286556094066
 40
12.52286556094066
 40
12.52286556094066
 40
14.41396904057506
 40
14.41396904057506
 40
14.41396904057506
 40
14.41396904057506
 40
14.41396904057506
 40
14.41396904057506
 10
-81.95244683290093
 20
3.100089149382312
 30
0.0
 10
-82.14155766109456
 20
3.105114671446187
 30
0.0
 10
-82.33492119524603
 20
3.114193149774592
 30
0.0
 10
-82.53074499305183
 20
3.127965318717286
 30
0.0
 10
-82.837778197495
 20
3.157292623978491
 30
0.0
 10
-83.16893851518988
 20
3.206130169228884
 30
0.0
 10
-83.28386316844079
 20
3.225233153311421
 30
0.0
 10
-83.52280290145211
 20
3.269969531343292
 30
0.0
 10
-83.77857819078506
 20
3.33068445904658
 30
0.0
 10
-83.91398534088557
 20
3.366653068375681
 30
0.0
 10
-84.13068849986121
 20
3.431667940266976
 30
0.0
 10
-84.36142787521964
 20
3.516333029755883
 30
0.0
 10
-84.44335809555651
 20
3.5484454909394
 30
0.0
 10
-84.60872526473748
 20
3.617976518986921
 30
0.0
 10
-84.77387452699804
 20
3.69746388055708
 30
0.0
 10
-84.85605015826648
 20
3.739805323869318
 30
0.0
 10
-85.04494529350404
 20
3.84393936311531
 30
0.0
 10
-85.21709592255081
 20
3.954058426552421
 30
0.0
 10
-85.30658486296829
 20
4.016260431029508
 30
0.0
 10
-85.502624136108
 20
4.162244091560694
 30
0.0
 10
-85.66701418227717
 20
4.305063752842698
 30
0.0
 10
-85.75086432199009
 20
4.383664299397992
 30
0.0
 10
-85.98344238664308
 20
4.616369041728886
 30
0.0
 10
-86.16447894433461
 20
4.83764895165717
 30
0.0
 10
-86.27100659796212
 20
4.981320796070887
 30
0.0
 10
-86.43139361215618
 20
5.21888077612769
 30
0.0
 10
-86.56703907775522
 20
5.451532586061317
 30
0.0
 10
-86.618240624289
 20
5.544508089703413
 30
0.0
 10
-86.66637621889142
 20
5.636891314296293
 30
0.0
 10
-86.71184845786184
 20
5.728882465034331
 30
0.0
  0
SPLINE
  5
21F14
330
1F
100
AcDbEntity
  8
SKVIEW1
100
AcDbSpline
210
0.0
220
0.0
230
1.0
 70
     8
 71
     5
 72
    24
 73
    18
 74
     0
 42
0.000000001
 43
0.0000000001
 40
0.0
 40
0.0
 40
0.0
 40
0.0
 40
0.0
 40
0.0
 40
1.967184577481991
 40
1.967184577481991
 40
1.967184577481991
 40
4.139321620729813
 40
4.139321620729813
 40
4.139321620729813
 40
5.256500989513103
 40
5.256500989513103
 40
5.256500989513103
 40
6.338306503219834
 40
6.338306503219834
 40
6.338306503219834
 40
10.28149490660271
 40
10.28149490660271
 40
10.28149490660271
 40
10.28149490660271
 40
10.28149490660271
 40
10.28149490660271
 10
-81.9524468328543
 20
3.100089149373189
 30
0.0
 10
-81.81964909058271
 20
3.096560118328881
 30
0.0
 10
-81.67355527067048
 20
3.090737573793603
 30
0.0
 10
-81.51056546325504
 20
3.082601913193682
 30
0.0
 10
-81.13429979063424
 20
3.061849873500903
 30
0.0
 10
-80.6883019504221
 20
3.039129768230708
 30
0.0
 10
-80.44638036298772
 20
3.028813561558477
 30
0.0
 10
-80.05954320114687
 20
3.019249577895323
 30
0.0
 10
-79.68127220527684
 20
3.021189552644301
 30
0.0
 10
-79.5547233415574
 20
3.023278196862661
 30
0.0
 10
-79.31180691284658
 20
3.030104913553486
 30
0.0
 10
-79.08108458341314
 20
3.04197357930218
 30
0.0
 10
-78.97059639498174
 20
3.04899221855831
 30
0.0
 10
-78.47783621170434
 20
3.086004281803383
 30
0.0
 10
-78.06577559267555
 20
3.141755011403488
 30
0.0
 10
-77.79101040253158
 20
3.190655561040782
 30
0.0
 10
-77.55324314900973
 20
3.24083166214649
 30
0.0
 10
-77.34759688535952
 20
3.290247303912309
 30
0.0
  0
ARC
  5
21F15
330
1F
100
AcDbEntity
  8
SKVIEW1
100
AcDbCircle
 10
-78.75231394567093
 20
17.41005500000011
 30
0.0
 40
13.539138
100
AcDbArc
 50
271.1098679999969
 51
275.6983529999982
  0
ARC
  5
21F16
330
1F
100
AcDbEntity
  8
SKVIEW1
100
AcDbCircle
 10
-72.90111394567111
 20
0.0
 30
0.0
 40
6.799999999999998
100
AcDbArc
 50
145.2759159999994
 51
152.8865750000014
  0
ELLIPSE
  5
21F17
330
1F
100
AcDbEntity
  8
SKVIEW1
100
AcDbEllipse
 10
-79.88984094567115
 20
12.78878599999998
 30
0.0
 11
8.538176536560056
 21
4.863522529602049
 31
0.0
210
0.0
220
0.0
230
0.9999999999999998
 40
0.988854
 41
3.429378913623328
 42
4.29507510503747
  0
LINE
  5
21F18
330
1F
100
AcDbEntity
  8
SKVIEW1
100
AcDbLine
 10
-81.95244494567123
 20
3.100097000000004
 30
0.0
 11
-81.95244494567123
 21
-1.288628999999899
 31
0.0
  0
ARC
  5
21F19
330
1F
100
AcDbEntity
  8
SKVIEW1
100
AcDbCircle
 10
-80.15638994567098
 20
2.5637210000001
 30
0.0
 40
4.250537999999997
100
AcDbArc
 50
245.0039659999968
 51
300.3583320000006
  0
ARC
  5
21F1A
330
1F
100
AcDbEntity
  8
SKVIEW1
100
AcDbCircle
 10
-72.90111394567111
 20
0.0
 30
0.0
 40
5.224999999999996
100
AcDbArc
 50
188.3528340000001
 51
241.352110000002
  0
LINE
  5
21F1B
330
1F
100
AcDbEntity
  8
SKVIEW1
100
AcDbLine
 10
-72.90111394567111
 20
-14.4818819999999
 30
0.0
 11
-72.90111394567111
 21
-8.450007999999883
 31
0.0
  0
LINE
  5
21F1C
330
1F
100
AcDbEntity
  8
SKVIEW1
100
AcDbLine
 10
-72.90111394567111
 20
-16.75
 30
0.0
 11
-72.90111394567111
 21
-14.59763299999989
 31
0.0
  0
ARC
  5
21F1D
330
1F
100
AcDbEntity
  8
SKVIEW1
100
AcDbCircle
 10
-72.90111394567111
 20
0.0
 30
0.0
 40
16.75
100
AcDbArc
 50
172.3434410000002
 51
255.1246850000025
  0
LINE
  5
21F1E
330
1F
100
AcDbEntity
  8
SKVIEW1
100
AcDbLine
 10
-86.71185094567112
 20
5.728897000000102
 30
0.0
 11
-88.34291494567116
 21
6.489474000000112
 31
0.0
  0
LINE
  5
21F1F
330
1F
100
AcDbEntity
  8
SKVIEW1
100
AcDbLine
 10
-72.90111394567111
 20
-5.937025999999889
 30
0.0
 11
-72.90111394567111
 21
-5.342029999999994
 31
0.0
  0
LINE
  5
21F20
330
1F
100
AcDbEntity
  8
SKVIEW1
100
AcDbLine
 10
-77.20111394567084
 20
-7.090000000000002
 30
0.0
 11
-72.90111394567111
 21
-7.090000000000002
 31
0.0
  0
ARC
  5
21F21
330
1F
100
AcDbEntity
  8
SKVIEW1
100
AcDbCircle
 10
-72.90111394567111
 20
0.0
 30
0.0
 40
16.75
100
AcDbArc
 50
157.2052389999969
 51
172.3434410000002
  0
LINE
  5
21F22
330
1F
100
AcDbEntity
  8
SKVIEW1
100
AcDbLine
 10
-81.95244494567123
 20
-1.288628999999899
 30
0.0
 11
-89.50177894567117
 21
2.231683000000115
 31
0.0
  0
LINE
  5
21F23
330
1F
100
AcDbEntity
  8
SKVIEW1
100
AcDbLine
 10
-77.20111394567084
 20
-7.090000000000002
 30
0.0
 11
-77.20111394567084
 21
-7.694325999999902
 31
0.0
  0
CIRCLE
  5
21F24
330
1F
100
AcDbEntity
  8
SKVIEW1
100
AcDbCircle
 10
-84.67905894567115
 20
-6.800000000000013
 30
0.0
 40
1.7
  0
LINE
  5
21F25
330
1F
100
AcDbEntity
  8
1
100
AcDbLine
 10
63.46648114598327
 20
-16.6082951304358
 30
0.0
 11
63.46648114598327
 21
-16.5969511304358
 31
0.0
  0
LINE
  5
21F26
330
1F
100
AcDbEntity
  8
1
100
AcDbLine
 10
28.25999999999999
 20
8.450000000000102
 30
0.0
 11
27.45999999999992
 21
8.450000000000102
 31
0.0
  0
LINE
  5
21F27
330
1F
100
AcDbEntity
  8
1
100
AcDbLine
 10
22.29999999999995
 20
6.407192000000094
 30
0.0
 11
22.29999999999995
 21
2.791749000000095
 31
0.0
  0
LINE
  5
21F28
330
1F
100
AcDbEntity
  8
1
100
AcDbLine
 10
22.29999999999995
 20
6.407192000000094
 30
0.0
 11
22.29999999999995
 21
7.453765000000002
 31
0.0
  0
LINE
  5
21F29
330
1F
100
AcDbEntity
  8
1
100
AcDbLine
 10
28.9181789999999
 20
8.069999999999991
 30
0.0
 11
28.25999999999999
 21
8.450000000000102
 31
0.0
  0
LINE
  5
21F2A
330
1F
100
AcDbEntity
  8
1
100
AcDbLine
 10
29.29427999999996
 20
5.937026000000115
 30
0.0
 11
28.9181789999999
 21
8.069999999999991
 31
0.0
  0
LINE
  5
21F2B
330
1F
100
AcDbEntity
  8
1
100
AcDbLine
 10
29.39929500000028
 20
5.341459999999983
 30
0.0
 11
29.29427999999996
 21
5.937026000000115
 31
0.0
  0
ARC
  5
21F2C
330
1F
100
AcDbEntity
  8
1
100
AcDbCircle
 10
32.60119199999997
 20
5.674007999999987
 30
0.0
 40
3.211
100
AcDbArc
 50
189.999999999997
 51
203.8626190000042
  0
LINE
  5
21F2D
330
1F
100
AcDbEntity
  8
1
100
AcDbLine
 10
29.43897400000026
 20
5.116424000000108
 30
0.0
 11
29.39929500000028
 21
5.341459999999983
 31
0.0
  0
DIMENSION
  5
21F2E
330
1F
100
AcDbEntity
  8
SK2
100
AcDbDimension
280
     0
  2
*D2
 10
-27.75703526026247
 20
-6.800000000000006
 30
0.0
 11
-27.75703526026247
 21
-1.631203501507513
 31
0.0
 70
   160
  1
%%C<>
 71
     5
 42
13.60000000000011
 73
     0
 74
     0
 75
     0
  3
STANDARD
100
AcDbAlignedDimension
 13
-13.79999999999973
 23
6.800000000000096
 33
0.0
 14
-13.79999999999973
 24
-6.800000000000013
 34
0.0
 50
90.0
100
AcDbRotatedDimension
1001
ACAD
1000
DSTYLE
1002
{
1070
   172
1070
     1
1002
}
  0
LINE
  5
220AF
330
1F
100
AcDbEntity
  8
4
100
AcDbLine
 10
-0.0000000000037517
 20
0.0
 30
0.0
 11
34.25828100000024
 21
0.0
 31
0.0
  0
LINE
  5
220B6
330
1F
100
AcDbEntity
  8
4
 48
0.1118
100
AcDbLine
 10
24.74099899999999
 20
-12.045
 30
0.0
 11
20.26899900000001
 21
-12.045
 31
0.0
  0
LINE
  5
220B7
330
1F
100
AcDbEntity
  8
4
 48
0.1118
100
AcDbLine
 10
22.504999
 20
-9.808999999999995
 30
0.0
 11
22.504999
 21
-14.281
 31
0.0
  0
LWPOLYLINE
  5
220CA
330
1F
100
AcDbEntity
  8
NOCUT
100
AcDbPolyline
 90
        9
 70
     1
 43
0.0
 10
0.0000000000002274
 20
6.800000000000096
 10
-13.79999999999973
 20
6.800000000000096
 10
-13.79999999999973
 20
3.260094000000092
 10
-13.79999999999973
 20
0.0
 10
26.46000000000038
 20
0.0
 10
26.46000000000026
 20
8.030378000000098
 10
26.46000000000026
 20
16.75
 10
0.0000000000002274
 20
16.75
 10
0.0000000000002274
 20
8.030378000000098
  0
LWPOLYLINE
  5
22160
330
1F
100
AcDbEntity
  8
CUT
 48
0.240324
100
AcDbPolyline
 90
       18
 70
     1
 43
0.0
 10
29.43897430507774
 20
5.116423701511588
 42
0.0050769950490872
 10
29.66467443314093
 20
4.375013935530141
 10
31.59999999999991
 20
0.0
 10
22.29999999999995
 20
0.0
 10
22.29999999999995
 20
2.791749000000095
 10
22.29999999999995
 20
6.407192000000094
 10
22.29999999999995
 20
7.090000000000117
 10
18.34999999999991
 20
7.089999999999986
 42
-0.4142135623730948
 10
17.54999999999995
 20
7.889999999999987
 10
17.5499999999999
 20
16.19999999999999
 42
-0.4142135623730965
 10
18.34999999999991
 20
17.00000000000011
 10
26.65999999999997
 20
16.99999999999998
 42
-0.4142135623730951
 10
27.46000000000027
 20
16.19999999999999
 10
27.45999999999992
 20
8.450000000000102
 10
28.25999999999999
 20
8.450000000000102
 10
28.9181789999999
 20
8.070000000000106
 10
29.29427999999996
 20
5.937026000000115
 10
29.39929500000028
 20
5.341460000000096
  0
VIEWPORT
  5
9C00
330
1B
100
AcDbEntity
 67
     1
  8
0
348
3195
100
AcDbViewport
 10
108.2280559557949
 20
71.69854161746989
 30
0.0
 40
251.8950231529317
 41
201.8884082081047
 68
     1
 69
     1
 12
108.2280559557949
 22
71.69854161746989
 13
0.0
 23
0.0
 14
10.0
 24
10.0
 15
10.0
 25
10.0
 16
0.0
 26
0.0
 36
1.0
 17
0.0
 27
0.0
 37
0.0
 42
50.0
 43
0.0
 44
0.0
 45
201.8884082081047
 50
0.0
 51
0.0
 72
   100
 90
   557088
  1

281
     0
 71
     1
 74
     0
110
0.0
120
0.0
130
0.0
111
1.0
121
0.0
131
0.0
112
0.0
122
1.0
132
0.0
 79
     0
146
0.0
170
     0
 61
     5
292
     1
282
     1
141
0.0
142
0.0
 63
   250
421
  3355443
  0
VIEWPORT
  5
9C02
330
1B
100
AcDbEntity
 67
     1
  8
1
348
3195
100
AcDbViewport
 10
143.457083940506
 20
98.18158769607544
 30
0.0
 40
229.5313343048095
 41
157.0905403137207
 68
     2
 69
     2
 12
-44.37697124786255
 22
-35.12342998133886
 13
0.0
 23
0.0
 14
10.0
 24
10.0
 15
10.0
 25
10.0
 16
0.0
 26
0.0
 36
1.0
 17
0.0
 27
0.0
 37
0.0
 42
50.0
 43
0.0
 44
0.0
 45
300.3886240724386
 50
0.0
 51
0.0
 72
   100
 90
   557088
  1

281
     0
 71
     1
 74
     0
110
0.0
120
0.0
130
0.0
111
1.0
121
0.0
131
0.0
112
0.0
122
1.0
132
0.0
 79
     0
146
0.0
170
     0
 61
     5
292
     1
282
     1
141
0.0
142
0.0
 63
   250
421
  3355443
  0
ENDSEC
  0
SECTION
  2
OBJECTS
  0
DICTIONARY
  5
3182
330
0
100
AcDbDictionary
281
     1
  3
ACAD_CIP_PREVIOUS_PRODUCT_INFO
350
1B2F4
  3
ACAD_COLOR
350
31A0
  3
ACAD_DETAILVIEWSTYLE
350
1B2F0
  3
ACAD_FIELDLIST
350
20CBF
  3
ACAD_GROUP
350
3183
  3
ACAD_LAYOUT
350
31A5
  3
ACAD_MATERIAL
350
318B
  3
ACAD_MLEADERSTYLE
350
1B221
  3
ACAD_MLINESTYLE
350
3184
  3
ACAD_PLOTSETTINGS
350
31A4
  3
ACAD_PLOTSTYLENAME
350
3189
  3
ACAD_SCALELIST
350
1B1FC
  3
ACAD_SECTIONVIEWSTYLE
350
1B2EE
  3
ACAD_TABLESTYLE
350
31A1
  3
ACAD_VISUALSTYLE
350
318F
  3
ACDB_RECOMPOSE_DATA
350
221B9
  3
AcDbVariableDictionary
350
33A3
  0
DICTIONARY
  5
422A
330
2
100
AcDbDictionary
280
     1
281
     1
  3
ACAD_LAYERFILTERS
360
1B063
  3
ACAD_LAYERSTATES
360
9A1C
  3
ACLYDICTIONARY
360
1B062
  0
DICTIONARY
  5
1B2F5
330
10
100
AcDbDictionary
280
     1
281
     1
  3
ADSK_XREC_LAYER_RECONCILED
360
21B8E
  0
DICTIONARY
  5
1B2F7
330
3F8C
100
AcDbDictionary
280
     1
281
     1
  3
ADSK_XREC_LAYER_RECONCILED
360
21B8F
  0
DICTIONARY
  5
1B2F9
330
9C4A
100
AcDbDictionary
280
     1
281
     1
  3
ADSK_XREC_LAYER_RECONCILED
360
21B90
  0
DICTIONARY
  5
1B2FB
330
9C4B
100
AcDbDictionary
280
     1
281
     1
  3
ADSK_XREC_LAYER_RECONCILED
360
21B91
  0
DICTIONARY
  5
1B2FD
330
9C4D
100
AcDbDictionary
280
     1
281
     1
  3
ADSK_XREC_LAYER_RECONCILED
360
21B92
  0
DICTIONARY
  5
1B2FF
330
9C4E
100
AcDbDictionary
280
     1
281
     1
  3
ADSK_XREC_LAYER_RECONCILED
360
21B93
  0
DICTIONARY
  5
1B301
330
9C4F
100
AcDbDictionary
280
     1
281
     1
  3
ADSK_XREC_LAYER_RECONCILED
360
21B94
  0
DICTIONARY
  5
1B303
330
9C50
100
AcDbDictionary
280
     1
281
     1
  3
ADSK_XREC_LAYER_RECONCILED
360
21B95
  0
DICTIONARY
  5
1B305
330
9C51
100
AcDbDictionary
280
     1
281
     1
  3
ADSK_XREC_LAYER_RECONCILED
360
21B96
  0
DICTIONARY
  5
1B307
330
13335
100
AcDbDictionary
280
     1
281
     1
  3
ADSK_XREC_LAYER_RECONCILED
360
21B97
  0
DICTIONARY
  5
1B309
330
1686E
100
AcDbDictionary
280
     1
281
     1
  3
ADSK_XREC_LAYER_RECONCILED
360
21B98
  0
DICTIONARY
  5
21CBC
330
21CBB
100
AcDbDictionary
280
     1
281
     1
  0
DICTIONARY
  5
21CBE
330
21CBD
100
AcDbDictionary
280
     1
281
     1
  0
DICTIONARY
  5
21CC0
330
21CBF
100
AcDbDictionary
280
     1
281
     1
  0
DICTIONARY
  5
339C
330
1F
100
AcDbDictionary
280
     1
281
     1
  3
ACAD_SORTENTS
360
339D
  0
DICTIONARY
  5
1DE81
330
1B3D7
100
AcDbDictionary
280
     1
281
     1
  0
XRECORD
  5
1B2F4
102
{ACAD_REACTORS
330
3182
102
}
330
3182
100
AcDbXrecord
280
     1
300
ACDLT
300
2015
300
ACDLT_F_S
  0
DICTIONARY
  5
31A0
102
{ACAD_REACTORS
330
3182
102
}
330
3182
100
AcDbDictionary
281
     1
  0
DICTIONARY
  5
1B2F0
102
{ACAD_REACTORS
330
3182
102
}
330
3182
100
AcDbDictionary
281
     1
  3
Imperial24
350
20CB3
  3
Metric50
350
1B2F1
  0
FIELDLIST
  5
20CBF
102
{ACAD_REACTORS
330
3182
102
}
330
3182
100
AcDbIdSet
 90
        0
100
AcDbFieldList
  0
DICTIONARY
  5
3183
102
{ACAD_REACTORS
330
3182
102
}
330
3182
100
AcDbDictionary
281
     1
  0
DICTIONARY
  5
31A5
102
{ACAD_REACTORS
330
3182
102
}
330
3182
100
AcDbDictionary
281
     1
  3
Layout1
350
31A7
  3
Model
350
31A6
  0
DICTIONARY
  5
318B
102
{ACAD_REACTORS
330
3182
102
}
330
3182
100
AcDbDictionary
281
     1
  3
ByBlock
350
318D
  3
ByLayer
350
318C
  3
Global
350
318E
  0
DICTIONARY
  5
1B221
102
{ACAD_REACTORS
330
3182
102
}
330
3182
100
AcDbDictionary
281
     1
  3
Standard
350
1B2ED
  0
DICTIONARY
  5
3184
102
{ACAD_REACTORS
330
3182
102
}
330
3182
100
AcDbDictionary
281
     1
  3
STANDARD
350
3185
  0
DICTIONARY
  5
31A4
102
{ACAD_REACTORS
330
3182
102
}
330
3182
100
AcDbDictionary
281
     1
  0
ACDBDICTIONARYWDFLT
  5
3189
102
{ACAD_REACTORS
330
3182
102
}
330
3182
100
AcDbDictionary
281
     1
  3
Normal
350
318A
100
AcDbDictionaryWithDefault
340
318A
  0
DICTIONARY
  5
1B1FC
102
{ACAD_REACTORS
330
3182
102
}
330
3182
100
AcDbDictionary
281
     1
  3
A0
350
1B1FD
  3
A1
350
1B1FE
  3
A2
350
1B1FF
  3
A3
350
1B200
  3
A4
350
1B201
  3
A5
350
1B202
  3
A6
350
1B203
  3
A7
350
1B204
  3
A8
350
1B205
  3
A9
350
1B206
  3
B0
350
1B207
  3
B1
350
1B208
  3
B2
350
1B209
  3
B3
350
1B20A
  3
B4
350
1B20B
  3
B5
350
1B20C
  3
B6
350
1B20D
  3
B7
350
1B20E
  3
B8
350
1B20F
  3
B9
350
1B210
  3
C0
350
1B211
  3
C1
350
1B212
  3
C2
350
1B213
  3
C3
350
1B214
  3
C4
350
1B215
  3
C5
350
1B216
  3
C6
350
1B217
  3
C7
350
1B218
  3
C8
350
1B219
  3
C9
350
1B21A
  3
D0
350
1B21B
  3
D1
350
1B21C
  3
D2
350
1B21D
  0
DICTIONARY
  5
1B2EE
102
{ACAD_REACTORS
330
3182
102
}
330
3182
100
AcDbDictionary
281
     1
  3
Imperial24
350
20CB1
  3
Metric50
350
1B2EF
  0
DICTIONARY
  5
31A1
102
{ACAD_REACTORS
330
3182
102
}
330
3182
100
AcDbDictionary
281
     1
  3
Standard
350
31A2
  0
DICTIONARY
  5
318F
102
{ACAD_REACTORS
330
3182
102
}
330
3182
100
AcDbDictionary
281
     1
  3
2dWireframe
350
3195
  3
3D Hidden
350
3197
  3
3dWireframe
350
3196
  3
Basic
350
3194
  3
Brighten
350
319B
  3
ColorChange
350
319F
  3
Conceptual
350
3198
  3
Dim
350
319A
  3
EdgeColorOff
350
1B2EC
  3
Facepattern
350
319E
  3
Flat
350
3190
  3
FlatWithEdges
350
3191
  3
Gouraud
350
3192
  3
GouraudWithEdges
350
3193
  3
Hidden
350
1B2E4
  3
JitterOff
350
1B2EA
  3
Linepattern
350
319D
  3
OverhangOff
350
1B2EB
  3
Realistic
350
3199
  3
Shaded
350
1B2E9
  3
Shaded with edges
350
1B2E8
  3
Shades of Gray
350
1B2E5
  3
Sketchy
350
1B2E6
  3
Thicken
350
319C
  3
Wireframe
350
1B2E3
  3
X-Ray
350
1B2E7
  0
XRECORD
  5
221B9
102
{ACAD_REACTORS
330
3182
102
}
330
3182
100
AcDbXrecord
280
     1
 90
        1
330
31A2
  0
DICTIONARY
  5
33A3
102
{ACAD_REACTORS
330
3182
102
}
330
3182
100
AcDbDictionary
281
     1
  3
CANNOSCALE
350
1B222
  3
CMLEADERSTYLE
350
1B30F
  3
CTABLESTYLE
350
33A4
  3
CVIEWDETAILSTYLE
350
1B310
  3
CVIEWSECTIONSTYLE
350
1B311
  3
DIMASSOC
350
9BE8
  3
INDEXCTL
350
9BE7
  3
LAYEREVAL
350
20993
  3
LAYERNOTIFY
350
20994
  3
LIGHTINGUNITS
350
20992
  3
MSLTSCALE
350
20991
  3
SORTENTS
350
9BE6
  0
DICTIONARY
  5
1B063
102
{ACAD_REACTORS
330
422A
102
}
330
422A
100
AcDbDictionary
281
     1
  0
DICTIONARY
  5
9A1C
102
{ACAD_REACTORS
330
422A
102
}
330
422A
100
AcDbDictionary
281
     1
  0
DICTIONARY
  5
1B062
102
{ACAD_REACTORS
330
422A
102
}
330
422A
100
AcDbDictionary
281
     1
1001
ACAD
1000
<All
  0
XRECORD
  5
21B8E
102
{ACAD_REACTORS
330
1B2F5
102
}
330
1B2F5
100
AcDbXrecord
280
     1
290
     1
  0
XRECORD
  5
21B8F
102
{ACAD_REACTORS
330
1B2F7
102
}
330
1B2F7
100
AcDbXrecord
280
     1
290
     1
  0
XRECORD
  5
21B90
102
{ACAD_REACTORS
330
1B2F9
102
}
330
1B2F9
100
AcDbXrecord
280
     1
290
     1
  0
XRECORD
  5
21B91
102
{ACAD_REACTORS
330
1B2FB
102
}
330
1B2FB
100
AcDbXrecord
280
     1
290
     1
  0
XRECORD
  5
21B92
102
{ACAD_REACTORS
330
1B2FD
102
}
330
1B2FD
100
AcDbXrecord
280
     1
290
     1
  0
XRECORD
  5
21B93
102
{ACAD_REACTORS
330
1B2FF
102
}
330
1B2FF
100
AcDbXrecord
280
     1
290
     1
  0
XRECORD
  5
21B94
102
{ACAD_REACTORS
330
1B301
102
}
330
1B301
100
AcDbXrecord
280
     1
290
     1
  0
XRECORD
  5
21B95
102
{ACAD_REACTORS
330
1B303
102
}
330
1B303
100
AcDbXrecord
280
     1
290
     1
  0
XRECORD
  5
21B96
102
{ACAD_REACTORS
330
1B305
102
}
330
1B305
100
AcDbXrecord
280
     1
290
     1
  0
XRECORD
  5
21B97
102
{ACAD_REACTORS
330
1B307
102
}
330
1B307
100
AcDbXrecord
280
     1
290
     1
  0
XRECORD
  5
21B98
102
{ACAD_REACTORS
330
1B309
102
}
330
1B309
100
AcDbXrecord
280
     1
290
     1
  0
SORTENTSTABLE
  5
339D
102
{ACAD_REACTORS
330
339C
102
}
330
339C
100
AcDbSortentsTable
330
1F
331
21E46
  5
21E55
331
21EBC
  5
21EFE
331
21E42
  5
21E51
331
21E7D
  5
21EC6
331
21EB8
  5
21EFA
331
21EF7
  5
220BF
331
21E3E
  5
21E4D
331
21E3A
  5
21E49
331
21E79
  5
21EC2
331
21EB4
  5
21EF6
331
21EF3
  5
220BB
331
21EB0
  5
21EF2
331
220B7
  5
21E1D
331
220AF
  5
21E0A
331
21EEF
  5
220B7
331
21E36
  5
21E42
331
21E75
  5
21EAF
331
21EEB
  5
21F2D
331
21E32
  5
21E3E
331
21E71
  5
21E87
331
21EAC
  5
21EEE
331
21EA8
  5
21EEA
331
21EE7
  5
21F29
331
21E2E
  5
21E3A
331
21E2A
  5
21E36
331
21E69
  5
21E84
331
21EA4
  5
21EE6
331
21EE3
  5
21F25
331
21F27
  5
2216A
331
21F23
  5
22166
331
21F1F
  5
22162
331
21F1B
  5
2215E
331
21F2E
  5
22171
331
21F2A
  5
2216D
331
21E65
  5
21E7B
331
21EDF
  5
21F21
331
21EDB
  5
21F1D
331
21E22
  5
21E2E
331
21E61
  5
21E76
331
21E98
  5
21EE1
331
21ED7
  5
21F19
331
21E1E
  5
21E27
331
21E59
  5
21E68
331
21E94
  5
21EDD
331
21ED3
  5
21F15
331
21E1A
  5
21E23
331
21E90
  5
21ED9
331
21F17
  5
2215A
331
21F13
  5
22156
331
21F0F
  5
22152
331
21F0B
  5
2214E
331
21E0A
  5
21E0B
331
21E06
  5
21E06
331
21E02
  5
21E02
331
21E16
  5
21E1F
331
21E55
  5
21E64
331
21ECF
  5
21F11
331
21ECB
  5
21F0D
331
21E12
  5
21E17
331
21E51
  5
21E60
331
21E8C
  5
21ED5
331
21E88
  5
21ED1
331
21EC7
  5
21F09
331
21E4D
  5
21E5C
331
21E49
  5
21E58
331
21E84
  5
21ECD
331
21EC3
  5
21F05
331
21E80
  5
21EC9
331
21F07
  5
220CF
331
21F03
  5
220CB
331
21EFF
  5
220C7
331
21EFB
  5
220C3
331
220CA
  5
21EE4
331
21E45
  5
21E54
331
21EBF
  5
21F01
331
21EBB
  5
21EFD
331
21E7C
  5
21EC5
331
21EB7
  5
21EF9
331
21EF6
  5
220BE
331
21E3D
  5
21E4C
331
21E39
  5
21E48
331
21E78
  5
21EC1
331
21EB3
  5
21EF5
331
21EF2
  5
220BA
331
220B6
  5
21E1A
331
21DFD
  5
21DFD
331
21EEE
  5
220B6
331
21E35
  5
21E41
331
21EAF
  5
21EF1
331
21EAB
  5
21EED
331
21EEA
  5
21F2C
331
21E31
  5
21E3D
331
21EA7
  5
21EE9
331
21EE6
  5
21F28
331
21E2D
  5
21E39
331
21E29
  5
21E35
331
21E68
  5
21E7E
331
21EA3
  5
21EE5
331
21EE2
  5
21F24
331
21F26
  5
22169
331
21F22
  5
22165
331
21F1E
  5
22161
331
21F1A
  5
2215D
331
21F2D
  5
22170
331
21F29
  5
2216C
331
21EDE
  5
21F20
331
21E64
  5
21E7A
331
21EDA
  5
21F1C
331
21E21
  5
21E2D
331
21E60
  5
21E75
331
21E5C
  5
21E6B
331
21E97
  5
21EE0
331
21ED6
  5
21F18
331
21E1D
  5
21E26
331
21E58
  5
21E67
331
21E93
  5
21EDC
331
21ED2
  5
21F14
331
21F16
  5
22159
331
21F12
  5
22155
331
21F0E
  5
22151
331
21F0A
  5
220D2
331
21E09
  5
21E09
331
21E05
  5
21E05
331
21E01
  5
21E01
331
21E15
  5
21E1E
331
21E54
  5
21E63
331
21E8F
  5
21ED8
331
21ECE
  5
21F10
331
21ECA
  5
21F0C
331
21E11
  5
21E16
331
21E50
  5
21E5F
331
21E8B
  5
21ED4
331
21E4C
  5
21E5B
331
21E87
  5
21ED0
331
21EC6
  5
21F08
331
21E48
  5
21E57
331
21E83
  5
21ECC
331
21EC2
  5
21F04
331
21F06
  5
220CE
331
21F02
  5
220CA
331
21EFE
  5
220C6
331
21EFA
  5
220C2
331
21EBE
  5
21F00
331
21E7F
  5
21EC8
331
21EBA
  5
21EFC
331
21E7B
  5
21EC4
331
21EB6
  5
21EF8
331
21EF5
  5
220BD
331
21E3C
  5
21E4B
331
21E38
  5
21E46
331
21EB2
  5
21EF4
331
21EF1
  5
220B9
331
21E77
  5
21EC0
331
21EED
  5
220AF
331
21E34
  5
21E40
331
21E73
  5
21E89
331
21EAE
  5
21EF0
331
21EAA
  5
21EEC
331
21EE9
  5
21F2B
331
21E30
  5
21E3C
331
21E6F
  5
21E86
331
21EA6
  5
21EE8
331
21EE5
  5
21F27
331
21E2C
  5
21E38
331
21E28
  5
21E34
331
21EE1
  5
21F23
331
21F25
  5
22168
331
21F21
  5
22164
331
21F1D
  5
22160
331
21F19
  5
2215C
331
21F2C
  5
2216F
331
21F28
  5
2216B
331
21E67
  5
21E7D
331
21EDD
  5
21F1F
331
21E24
  5
21E33
331
21E63
  5
21E79
331
21E9A
  5
21EE3
331
21ED9
  5
21F1B
331
21E20
  5
21E2C
331
21E5F
  5
21E74
331
21E5B
  5
21E6A
331
21E96
  5
21EDF
331
21ED5
  5
21F17
331
21E1C
  5
21E25
331
21E92
  5
21EDB
331
21ED1
  5
21F13
331
21F15
  5
22158
331
21F11
  5
22154
331
21F0D
  5
22150
331
21F09
  5
220D1
331
21E0C
  5
21E10
331
21E08
  5
21E08
331
21E04
  5
21E04
331
21E57
  5
21E66
331
21ECD
  5
21F0F
331
21E53
  5
21E62
331
21E8E
  5
21ED7
331
21EC9
  5
21F0B
331
21E10
  5
21E14
331
21E4F
  5
21E5E
331
21E8A
  5
21ED3
331
21E4B
  5
21E5A
331
21E86
  5
21ECF
331
21EC5
  5
21F07
331
211A0
  5
211A0
331
21E82
  5
21ECB
331
21EC1
  5
21F03
331
21F05
  5
220CD
331
22160
  5
21EAE
331
21F01
  5
220C9
331
21EFD
  5
220C5
331
21EF9
  5
220C1
331
21E47
  5
21E56
331
21E43
  5
21E53
331
21EBD
  5
21EFF
331
21E7E
  5
21EC7
331
21EB9
  5
21EFB
331
21E3F
  5
21E50
331
21E3B
  5
21E4A
331
21E7A
  5
21EC3
331
21EB5
  5
21EF7
331
21EF4
  5
220BC
331
21EB1
  5
21EF3
331
21EF0
  5
220B8
331
21E37
  5
21E45
331
21E76
  5
21EB8
331
21EEC
  5
21F2E
331
21E33
  5
21E3F
331
21E72
  5
21E88
331
21EAD
  5
21EEF
331
21EA9
  5
21EEB
331
21EE8
  5
21F2A
331
21E2F
  5
21E3B
331
21EA5
  5
21EE7
331
21EE4
  5
21F26
331
21E2B
  5
21E37
331
21EE0
  5
21F22
331
21F24
  5
22167
331
21F20
  5
22163
331
21F1C
  5
2215F
331
21F18
  5
2215B
331
21F2B
  5
2216E
331
21E66
  5
21E7C
331
21EDC
  5
21F1E
331
21E23
  5
21E2F
331
21E62
  5
21E78
331
21E99
  5
21EE2
331
21ED8
  5
21F1A
331
21E1F
  5
21E2B
331
21E5E
  5
21E72
331
21E5A
  5
21E69
331
21E95
  5
21EDE
331
21ED4
  5
21F16
331
21E1B
  5
21E24
331
21E91
  5
21EDA
331
21ED0
  5
21F12
331
21F14
  5
22157
331
21F10
  5
22153
331
21F0C
  5
2214F
331
21F08
  5
220D0
331
21E0F
  5
21E13
331
21E07
  5
21E07
331
21E03
  5
21E03
331
21E17
  5
21E22
331
21E56
  5
21E65
331
21ECC
  5
21F0E
331
21E52
  5
21E61
331
21E8D
  5
21ED6
331
21E89
  5
21ED2
331
21EC8
  5
21F0A
331
21E4E
  5
21E5D
331
21E4A
  5
21E59
331
21E85
  5
21ECE
331
21EC4
  5
21F06
331
21E81
  5
21ECA
331
21EC0
  5
21F02
331
21F04
  5
220CC
331
21F00
  5
220C8
331
21EFC
  5
220C4
331
21EF8
  5
220C0
  0
ACDBDETAILVIEWSTYLE
  5
20CB3
102
{ACAD_XDICTIONARY
360
221F4
102
}
102
{ACAD_REACTORS
330
1B2F0
102
}
330
1B2F0
100
AcDbModelDocViewStyle
 70
     0
  3
Imperial24
290
     0
100
AcDbDetailViewStyle
 70
     0
 71
     0
 90
        3
 71
     1
340
11
 62
   256
 40
0.24
340
0
 62
   256
 40
0.24
300

 40
0.36
280
     3
 71
     2
340
16
 90
       25
 62
   256
 71
     3
340
11
 62
   256
 40
0.24
 90
        1
 40
0.75
 90
        1
300
%<\AcVar ViewType \f "%tc1">% %<\AcVar ViewDetailId>%\PVARIA %<\AcVar ViewScale \f "%sn">%
 71
     4
340
16
 90
       25
 62
   256
340
16
 90
       25
 62
   256
280
     0
  0
ACDBDETAILVIEWSTYLE
  5
1B2F1
102
{ACAD_XDICTIONARY
360
221F0
102
}
102
{ACAD_REACTORS
330
1B2F0
102
}
330
1B2F0
100
AcDbModelDocViewStyle
 70
     0
  3
Metric50
290
     0
100
AcDbDetailViewStyle
 70
     0
 71
     0
 90
        3
 71
     1
340
11
 62
   256
 40
5.0
340
0
 62
   256
 40
5.0
300

 40
0.0
280
     1
 71
     2
340
16
 90
       25
 62
   256
 71
     3
340
11
 62
   256
 40
5.0
 90
        0
 40
15.0
 90
        1
300
%<\AcVar ViewDetailId>% (%<\AcVar ViewScale \f "%sn">%)
 71
     4
340
16
 90
       25
 62
   256
340
16
 90
       25
 62
   256
280
     0
  0
LAYOUT
  5
31A7
102
{ACAD_REACTORS
330
31A5
102
}
330
31A5
100
AcDbPlotSettings
  1

  2
\\ingdc01\ITB3
  4
A4
  6

 40
6.805083274841307
 41
5.027085781097412
 42
6.805068969726562
 43
5.027069091796875
 44
209.9733276367186
 45
296.9683227539062
 46
0.0
 47
0.0
 48
0.0
 49
0.0
140
0.0
141
0.0
142
1.0
143
1.0
 70
   688
 72
     1
 73
     1
 74
     5
  7

 75
    16
147
1.0
 76
     0
 77
     2
 78
   300
148
0.0
149
0.0
100
AcDbLayout
  1
Layout1
 70
     1
 71
     1
 10
-5.027069091796875
 20
-6.805083274841307
 11
291.9412536621094
 21
203.1682443618775
 12
0.0
 22
0.0
 32
0.0
 14
28.69141678810127
 24
19.6363175392151
 34
0.0
 15
258.2227510929107
 25
176.7268578529358
 35
0.0
146
0.0
 13
0.0
 23
0.0
 33
0.0
 16
1.0
 26
0.0
 36
0.0
 17
0.0
 27
1.0
 37
0.0
 76
     0
330
1B
331
9C00
1001
ACAD_PSEXT
1000
\\ingdc01\ITB3
1000
HP LaserJet 5000 Series PCL
1000
TB
1000

1070
     0
  0
LAYOUT
  5
31A6
102
{ACAD_REACTORS
330
31A5
102
}
330
31A5
100
AcDbPlotSettings
  1

  2
\\ingdc01\ITB3
  4
A4
  6

 40
6.805083274841307
 41
5.027085781097412
 42
6.805068969726562
 43
5.027069091796875
 44
209.9733276367186
 45
296.9683227539062
 46
0.0
 47
0.0
 48
0.0
 49
0.0
140
0.0
141
0.0
142
1.0
143
1.500313223655698
 70
 11952
 72
     1
 73
     1
 74
     0
  7

 75
     0
147
0.6665274852163048
 76
     0
 77
     2
 78
   300
148
239.0155119930048
149
102.2558208723354
100
AcDbLayout
  1
Model
 70
     1
 71
     0
 10
0.0
 20
0.0
 11
12.0
 21
9.0
 12
0.0
 22
0.0
 32
0.0
 14
0.0
 24
0.0
 34
0.0
 15
0.0
 25
0.0
 35
0.0
146
0.0
 13
0.0
 23
0.0
 33
0.0
 16
1.0
 26
0.0
 36
0.0
 17
0.0
 27
1.0
 37
0.0
 76
     0
330
1F
331
1F4
1001
ACAD_PSEXT
1000
\\ingdc01\ITB3
1000
HP LaserJet 5000 Series PCL
1000
TB
1000

1070
     0
  0
MATERIAL
  5
318D
102
{ACAD_XDICTIONARY
360
1B22B
102
}
102
{ACAD_REACTORS
330
318B
102
}
330
318B
100
AcDbMaterial
  1
ByBlock
  0
MATERIAL
  5
318C
102
{ACAD_XDICTIONARY
360
1B22D
102
}
102
{ACAD_REACTORS
330
318B
102
}
330
318B
100
AcDbMaterial
  1
ByLayer
  0
MATERIAL
  5
318E
102
{ACAD_XDICTIONARY
360
1B22F
102
}
102
{ACAD_REACTORS
330
318B
102
}
330
318B
100
AcDbMaterial
  1
Global
  0
MLEADERSTYLE
  5
1B2ED
102
{ACAD_REACTORS
330
1B221
102
}
330
1B221
100
AcDbMLeaderStyle
179
     2
170
     2
171
     1
172
     0
 90
        2
 40
0.0
 41
0.0
173
     1
 91
-1056964608
340
14
 92
       -2
290
     1
 42
2.0
291
     1
 43
0.36
  3
Standard
 44
4.0
300

342
11
174
     1
178
     6
175
     1
176
     0
 93
-1056964608
 45
4.0
292
     0
297
     0
 46
4.0
 94
-1056964608
 47
1.0
 49
1.0
140
1.0
293
     1
141
0.0
294
     1
177
     0
142
1.0
295
     0
296
     0
143
0.125
271
     0
272
     9
273
     9
1001
ACAD_MLEADERVER
1070
     2
  0
MLINESTYLE
  5
3185
102
{ACAD_REACTORS
330
3184
102
}
330
3184
100
AcDbMlineStyle
  2
STANDARD
 70
     0
  3

 62
   256
 51
90.0
 52
90.0
 71
     2
 49
0.5
 62
   256
  6
BYLAYER
 49
-0.5
 62
   256
  6
BYLAYER
  0
ACDBPLACEHOLDER
  5
318A
102
{ACAD_REACTORS
330
3189
102
}
330
3189
  0
SCALE
  5
1B1FD
102
{ACAD_REACTORS
330
1B1FC
102
}
330
1B1FC
100
AcDbScale
 70
     0
300
1:1
140
1.0
141
1.0
290
     1
1001
ACAD
1000
AcRTDxfName
1000
SCALE
  0
SCALE
  5
1B1FE
102
{ACAD_REACTORS
330
1B1FC
102
}
330
1B1FC
100
AcDbScale
 70
     0
300
1:2
140
1.0
141
2.0
290
     0
1001
ACAD
1000
AcRTDxfName
1000
SCALE
  0
SCALE
  5
1B1FF
102
{ACAD_REACTORS
330
1B1FC
102
}
330
1B1FC
100
AcDbScale
 70
     0
300
1:4
140
1.0
141
4.0
290
     0
1001
ACAD
1000
AcRTDxfName
1000
SCALE
  0
SCALE
  5
1B200
102
{ACAD_REACTORS
330
1B1FC
102
}
330
1B1FC
100
AcDbScale
 70
     0
300
1:5
140
1.0
141
5.0
290
     0
1001
ACAD
1000
AcRTDxfName
1000
SCALE
  0
SCALE
  5
1B201
102
{ACAD_REACTORS
330
1B1FC
102
}
330
1B1FC
100
AcDbScale
 70
     0
300
1:8
140
1.0
141
8.0
290
     0
1001
ACAD
1000
AcRTDxfName
1000
SCALE
  0
SCALE
  5
1B202
102
{ACAD_REACTORS
330
1B1FC
102
}
330
1B1FC
100
AcDbScale
 70
     0
300
1:10
140
1.0
141
10.0
290
     0
1001
ACAD
1000
AcRTDxfName
1000
SCALE
  0
SCALE
  5
1B203
102
{ACAD_REACTORS
330
1B1FC
102
}
330
1B1FC
100
AcDbScale
 70
     0
300
1:16
140
1.0
141
16.0
290
     0
1001
ACAD
1000
AcRTDxfName
1000
SCALE
  0
SCALE
  5
1B204
102
{ACAD_REACTORS
330
1B1FC
102
}
330
1B1FC
100
AcDbScale
 70
     0
300
1:20
140
1.0
141
20.0
290
     0
1001
ACAD
1000
AcRTDxfName
1000
SCALE
  0
SCALE
  5
1B205
102
{ACAD_REACTORS
330
1B1FC
102
}
330
1B1FC
100
AcDbScale
 70
     0
300
1:30
140
1.0
141
30.0
290
     0
1001
ACAD
1000
AcRTDxfName
1000
SCALE
  0
SCALE
  5
1B206
102
{ACAD_REACTORS
330
1B1FC
102
}
330
1B1FC
100
AcDbScale
 70
     0
300
1:40
140
1.0
141
40.0
290
     0
1001
ACAD
1000
AcRTDxfName
1000
SCALE
  0
SCALE
  5
1B207
102
{ACAD_REACTORS
330
1B1FC
102
}
330
1B1FC
100
AcDbScale
 70
     0
300
1:50
140
1.0
141
50.0
290
     0
1001
ACAD
1000
AcRTDxfName
1000
SCALE
  0
SCALE
  5
1B208
102
{ACAD_REACTORS
330
1B1FC
102
}
330
1B1FC
100
AcDbScale
 70
     0
300
1:100
140
1.0
141
100.0
290
     0
1001
ACAD
1000
AcRTDxfName
1000
SCALE
  0
SCALE
  5
1B209
102
{ACAD_REACTORS
330
1B1FC
102
}
330
1B1FC
100
AcDbScale
 70
     0
300
2:1
140
2.0
141
1.0
290
     0
1001
ACAD
1000
AcRTDxfName
1000
SCALE
  0
SCALE
  5
1B20A
102
{ACAD_REACTORS
330
1B1FC
102
}
330
1B1FC
100
AcDbScale
 70
     0
300
4:1
140
4.0
141
1.0
290
     0
1001
ACAD
1000
AcRTDxfName
1000
SCALE
  0
SCALE
  5
1B20B
102
{ACAD_REACTORS
330
1B1FC
102
}
330
1B1FC
100
AcDbScale
 70
     0
300
8:1
140
8.0
141
1.0
290
     0
1001
ACAD
1000
AcRTDxfName
1000
SCALE
  0
SCALE
  5
1B20C
102
{ACAD_REACTORS
330
1B1FC
102
}
330
1B1FC
100
AcDbScale
 70
     0
300
10:1
140
10.0
141
1.0
290
     0
1001
ACAD
1000
AcRTDxfName
1000
SCALE
  0
SCALE
  5
1B20D
102
{ACAD_REACTORS
330
1B1FC
102
}
330
1B1FC
100
AcDbScale
 70
     0
300
100:1
140
100.0
141
1.0
290
     0
1001
ACAD
1000
AcRTDxfName
1000
SCALE
  0
SCALE
  5
1B20E
102
{ACAD_REACTORS
330
1B1FC
102
}
330
1B1FC
100
AcDbScale
 70
     0
300
1/128" = 1'-0"
140
0.0078125
141
12.0
290
     0
1001
ACAD
1000
AcRTDxfName
1000
SCALE
  0
SCALE
  5
1B20F
102
{ACAD_REACTORS
330
1B1FC
102
}
330
1B1FC
100
AcDbScale
 70
     0
300
1/64" = 1'-0"
140
0.015625
141
12.0
290
     0
1001
ACAD
1000
AcRTDxfName
1000
SCALE
  0
SCALE
  5
1B210
102
{ACAD_REACTORS
330
1B1FC
102
}
330
1B1FC
100
AcDbScale
 70
     0
300
1/32" = 1'-0"
140
0.03125
141
12.0
290
     0
1001
ACAD
1000
AcRTDxfName
1000
SCALE
  0
SCALE
  5
1B211
102
{ACAD_REACTORS
330
1B1FC
102
}
330
1B1FC
100
AcDbScale
 70
     0
300
1/16" = 1'-0"
140
0.0625
141
12.0
290
     0
1001
ACAD
1000
AcRTDxfName
1000
SCALE
  0
SCALE
  5
1B212
102
{ACAD_REACTORS
330
1B1FC
102
}
330
1B1FC
100
AcDbScale
 70
     0
300
3/32" = 1'-0"
140
0.09375
141
12.0
290
     0
1001
ACAD
1000
AcRTDxfName
1000
SCALE
  0
SCALE
  5
1B213
102
{ACAD_REACTORS
330
1B1FC
102
}
330
1B1FC
100
AcDbScale
 70
     0
300
1/8" = 1'-0"
140
0.125
141
12.0
290
     0
1001
ACAD
1000
AcRTDxfName
1000
SCALE
  0
SCALE
  5
1B214
102
{ACAD_REACTORS
330
1B1FC
102
}
330
1B1FC
100
AcDbScale
 70
     0
300
3/16" = 1'-0"
140
0.1875
141
12.0
290
     0
1001
ACAD
1000
AcRTDxfName
1000
SCALE
  0
SCALE
  5
1B215
102
{ACAD_REACTORS
330
1B1FC
102
}
330
1B1FC
100
AcDbScale
 70
     0
300
1/4" = 1'-0"
140
0.25
141
12.0
290
     0
1001
ACAD
1000
AcRTDxfName
1000
SCALE
  0
SCALE
  5
1B216
102
{ACAD_REACTORS
330
1B1FC
102
}
330
1B1FC
100
AcDbScale
 70
     0
300
3/8" = 1'-0"
140
0.375
141
12.0
290
     0
1001
ACAD
1000
AcRTDxfName
1000
SCALE
  0
SCALE
  5
1B217
102
{ACAD_REACTORS
330
1B1FC
102
}
330
1B1FC
100
AcDbScale
 70
     0
300
1/2" = 1'-0"
140
0.5
141
12.0
290
     0
1001
ACAD
1000
AcRTDxfName
1000
SCALE
  0
SCALE
  5
1B218
102
{ACAD_REACTORS
330
1B1FC
102
}
330
1B1FC
100
AcDbScale
 70
     0
300
3/4" = 1'-0"
140
0.75
141
12.0
290
     0
1001
ACAD
1000
AcRTDxfName
1000
SCALE
  0
SCALE
  5
1B219
102
{ACAD_REACTORS
330
1B1FC
102
}
330
1B1FC
100
AcDbScale
 70
     0
300
1" = 1'-0"
140
1.0
141
12.0
290
     0
1001
ACAD
1000
AcRTDxfName
1000
SCALE
  0
SCALE
  5
1B21A
102
{ACAD_REACTORS
330
1B1FC
102
}
330
1B1FC
100
AcDbScale
 70
     0
300
1-1/2" = 1'-0"
140
1.5
141
12.0
290
     0
1001
ACAD
1000
AcRTDxfName
1000
SCALE
  0
SCALE
  5
1B21B
102
{ACAD_REACTORS
330
1B1FC
102
}
330
1B1FC
100
AcDbScale
 70
     0
300
3" = 1'-0"
140
3.0
141
12.0
290
     0
1001
ACAD
1000
AcRTDxfName
1000
SCALE
  0
SCALE
  5
1B21C
102
{ACAD_REACTORS
330
1B1FC
102
}
330
1B1FC
100
AcDbScale
 70
     0
300
6" = 1'-0"
140
6.0
141
12.0
290
     0
1001
ACAD
1000
AcRTDxfName
1000
SCALE
  0
SCALE
  5
1B21D
102
{ACAD_REACTORS
330
1B1FC
102
}
330
1B1FC
100
AcDbScale
 70
     0
300
1'-0" = 1'-0"
140
12.0
141
12.0
290
     0
1001
ACAD
1000
AcRTDxfName
1000
SCALE
  0
ACDBSECTIONVIEWSTYLE
  5
20CB1
102
{ACAD_XDICTIONARY
360
221F2
102
}
102
{ACAD_REACTORS
330
1B2EE
102
}
330
1B2EE
100
AcDbModelDocViewStyle
 70
     0
  3
Imperial24
290
     0
100
AcDbSectionViewStyle
 70
     0
 71
     0
 90
       78
 71
     1
340
11
 62
   256
 40
0.24
340
0
340
0
 62
   256
 40
0.24
300
I, O, Q, S, X, Z
 40
0.48
 90
        3
 40
0.18
 90
        1
 71
     2
340
16
 90
       25
 62
   256
340
16
 90
       50
 62
   256
 40
0.24
 40
0.0
 40
0.24
 71
     3
340
11
 62
   256
 40
0.24
 90
        1
 40
0.75
 90
        1
300
%<\AcVar ViewType \f "%tc1">% %<\AcVar ViewSectionStartId>%-%<\AcVar ViewSectionEndId>%\PVARIA %<\AcVar ViewScale \f "%sn">%
 71
     4
 62
   256
 62
   257
300
ANSI31
 40
1.0
 90
        0
290
     0
290
     0
 90
        6
 40
0.0
 40
1.570796326794896
 40
0.2617993877991494
 40
1.308996938995747
 40
-0.2617993877991494
 40
1.832595714594044
  0
ACDBSECTIONVIEWSTYLE
  5
1B2EF
102
{ACAD_XDICTIONARY
360
221EE
102
}
102
{ACAD_REACTORS
330
1B2EE
102
}
330
1B2EE
100
AcDbModelDocViewStyle
 70
     0
  3
Metric50
290
     0
100
AcDbSectionViewStyle
 70
     0
 71
     0
 90
      102
 71
     1
340
11
 62
   256
 40
5.0
340
0
340
0
 62
   256
 40
5.0
300
I, O, Q, S, X, Z
 40
10.0
 90
        0
 40
2.5
 90
        0
 71
     2
340
16
 90
       25
 62
   256
340
16
 90
       50
 62
   256
 40
5.0
 40
2.5
 40
5.0
 71
     3
340
11
 62
   256
 40
5.0
 90
        0
 40
15.0
 90
        1
300
%<\AcVar ViewSectionStartId>%-%<\AcVar ViewSectionEndId>% (%<\AcVar ViewScale \f "%sn">%)
 71
     4
 62
   256
 62
   257
300
ANSI31
 40
1.0
 90
        0
290
     0
290
     0
 90
        6
 40
0.0
 40
1.570796326794896
 40
0.2617993877991494
 40
1.308996938995747
 40
-0.2617993877991494
 40
1.832595714594044
  0
TABLESTYLE
  5
31A2
102
{ACAD_XDICTIONARY
360
1B314
102
}
102
{ACAD_REACTORS
330
31A1
102
}
330
31A1
100
AcDbTableStyle
280
     0
  3
Standard
 70
     0
 71
     0
 40
1.5
 41
1.5
280
     0
281
     0
  7
STANDARD
140
4.5
170
     2
 62
     0
 63
     7
283
     0
 90
        4
 91
        0
  1

274
    -2
284
     1
 64
     0
275
    -2
285
     1
 65
     0
276
    -2
286
     1
 66
     0
277
    -2
287
     1
 67
     0
278
    -2
288
     1
 68
     0
279
    -2
289
     1
 69
     0
  7
STANDARD
140
6.0
170
     5
 62
     0
 63
     7
283
     0
 90
        4
 91
        0
  1

274
    -2
284
     1
 64
     0
275
    -2
285
     1
 65
     0
276
    -2
286
     1
 66
     0
277
    -2
287
     1
 67
     0
278
    -2
288
     1
 68
     0
279
    -2
289
     1
 69
     0
  7
STANDARD
140
4.5
170
     5
 62
     0
 63
     7
283
     0
 90
        4
 91
        0
  1

274
    -2
284
     1
 64
     0
275
    -2
285
     1
 65
     0
276
    -2
286
     1
 66
     0
277
    -2
287
     1
 67
     0
278
    -2
288
     1
 68
     0
279
    -2
289
     1
 69
     0
  0
VISUALSTYLE
  5
3195
102
{ACAD_XDICTIONARY
360
221C4
102
}
102
{ACAD_REACTORS
330
318F
102
}
330
318F
100
AcDbVisualStyle
  2

 70
     4
177
     2
291
     0
 71
     0
176
     1
 72
     2
176
     1
 73
     0
176
     1
 90
        0
176
     1
 40
0.6
176
     1
 41
30.0
176
     1
 63
     7
176
     1
 74
     1
176
     1
 91
        4
176
     1
 64
     7
176
     1
 65
   257
176
     1
 75
     1
176
     1
175
     1
176
     1
 42
1.0
176
     1
 92
        0
176
     1
 66
   257
176
     1
 43
1.0
176
     1
 76
     1
176
     1
 77
     6
176
     1
 78
     2
176
     1
 67
     7
176
     1
 79
     5
176
     1
170
     0
176
     1
171
     0
176
     1
290
     0
176
     1
 93
        1
176
     1
 44
0.0
176
     1
173
     0
176
     1
1001
ACAD
1000
AcDbSavedByObjectVersion
1070
     0
  0
VISUALSTYLE
  5
3197
102
{ACAD_XDICTIONARY
360
221C8
102
}
102
{ACAD_REACTORS
330
318F
102
}
330
318F
100
AcDbVisualStyle
  2

 70
     6
177
     2
291
     0
 71
     1
176
     1
 72
     2
176
     1
 73
     2
176
     1
 90
        0
176
     1
 40
0.6
176
     1
 41
30.0
176
     1
 63
     7
176
     1
 74
     2
176
     1
 91
        2
176
     1
 64
     7
176
     1
 65
   257
176
     1
 75
     2
176
     1
175
     1
176
     1
 42
40.0
176
     1
 92
        0
176
     1
 66
   257
176
     1
 43
1.0
176
     1
 76
     1
176
     1
 77
     6
176
     1
 78
     2
176
     1
 67
     7
176
     1
 79
     3
176
     1
170
     0
176
     1
171
     0
176
     1
290
     0
176
     1
 93
        1
176
     1
 44
0.0
176
     1
173
     0
176
     1
1001
ACAD
1000
AcDbSavedByObjectVersion
1070
     0
  0
VISUALSTYLE
  5
3196
102
{ACAD_XDICTIONARY
360
221C6
102
}
102
{ACAD_REACTORS
330
318F
102
}
330
318F
100
AcDbVisualStyle
  2

 70
     5
177
     2
291
     0
 71
     0
176
     1
 72
     2
176
     1
 73
     0
176
     1
 90
        0
176
     1
 40
0.6
176
     1
 41
30.0
176
     1
 63
     7
176
     1
 74
     1
176
     1
 91
        4
176
     1
 64
     7
176
     1
 65
   257
176
     1
 75
     1
176
     1
175
     1
176
     1
 42
1.0
176
     1
 92
        0
176
     1
 66
   257
176
     1
 43
1.0
176
     1
 76
     1
176
     1
 77
     6
176
     1
 78
     2
176
     1
 67
     7
176
     1
 79
     5
176
     1
170
     0
176
     1
171
     0
176
     1
290
     0
176
     1
 93
        1
176
     1
 44
0.0
176
     1
173
     0
176
     1
1001
ACAD
1000
AcDbSavedByObjectVersion
1070
     0
  0
VISUALSTYLE
  5
3194
102
{ACAD_XDICTIONARY
360
221C2
102
}
102
{ACAD_REACTORS
330
318F
102
}
330
318F
100
AcDbVisualStyle
  2

 70
     7
177
     2
291
     1
 71
     1
176
     1
 72
     0
176
     1
 73
     1
176
     1
 90
        0
176
     1
 40
0.6
176
     1
 41
30.0
176
     1
 63
     7
176
     1
 74
     0
176
     1
 91
        4
176
     1
 64
     7
176
     1
 65
   257
176
     1
 75
     1
176
     1
175
     1
176
     1
 42
1.0
176
     1
 92
        8
176
     1
 66
     7
176
     1
 43
1.0
176
     1
 76
     1
176
     1
 77
     6
176
     1
 78
     2
176
     1
 67
     7
176
     1
 79
     5
176
     1
170
     0
176
     1
171
     0
176
     1
290
     0
176
     1
 93
        1
176
     1
 44
0.0
176
     1
173
     0
176
     1
1001
ACAD
1000
AcDbSavedByObjectVersion
1070
     0
  0
VISUALSTYLE
  5
319B
102
{ACAD_XDICTIONARY
360
221D0
102
}
102
{ACAD_REACTORS
330
318F
102
}
330
318F
100
AcDbVisualStyle
  2

 70
    12
177
     2
291
     1
 71
     2
176
     1
 72
     2
176
     1
 73
     0
176
     1
 90
        0
176
     1
 40
0.6
176
     1
 41
30.0
176
     1
 63
     7
176
     1
 74
     1
176
     1
 91
        4
176
     1
 64
     7
176
     1
 65
   257
176
     1
 75
     1
176
     1
175
     1
176
     1
 42
1.0
176
     1
 92
        8
176
     1
 66
     7
176
     1
 43
1.0
176
     1
 76
     1
176
     1
 77
     6
176
     1
 78
     2
176
     1
 67
     7
176
     1
 79
     5
176
     1
170
     0
176
     1
171
     0
176
     1
290
     0
176
     1
 93
        1
176
     1
 44
50.0
176
     1
173
     0
176
     1
1001
ACAD
1000
AcDbSavedByObjectVersion
1070
     0
  0
VISUALSTYLE
  5
319F
102
{ACAD_XDICTIONARY
360
221D8
102
}
102
{ACAD_REACTORS
330
318F
102
}
330
318F
100
AcDbVisualStyle
  2

 70
    16
177
     2
291
     1
 71
     2
176
     1
 72
     2
176
     1
 73
     3
176
     1
 90
        0
176
     1
 40
0.6
176
     1
 41
30.0
176
     1
 63
     8
176
     1
 74
     1
176
     1
 91
        4
176
     1
 64
     7
176
     1
 65
   257
176
     1
 75
     1
176
     1
175
     1
176
     1
 42
1.0
176
     1
 92
        8
176
     1
 66
     8
176
     1
 43
1.0
176
     1
 76
     1
176
     1
 77
     6
176
     1
 78
     2
176
     1
 67
     7
176
     1
 79
     5
176
     1
170
     0
176
     1
171
     0
176
     1
290
     0
176
     1
 93
        1
176
     1
 44
0.0
176
     1
173
     0
176
     1
1001
ACAD
1000
AcDbSavedByObjectVersion
1070
     0
  0
VISUALSTYLE
  5
3198
102
{ACAD_XDICTIONARY
360
221CA
102
}
102
{ACAD_REACTORS
330
318F
102
}
330
318F
100
AcDbVisualStyle
  2

 70
     9
177
     2
291
     0
 71
     3
176
     1
 72
     2
176
     1
 73
     0
176
     1
 90
        0
176
     1
 40
0.6
176
     1
 41
30.0
176
     1
 63
     7
176
     1
 74
     2
176
     1
 91
        2
176
     1
 64
     7
176
     1
 65
   257
176
     1
 75
     1
176
     1
175
     1
176
     1
 42
40.0
176
     1
 92
        8
176
     1
 66
     7
176
     1
 43
1.0
176
     1
 76
     1
176
     1
 77
     6
176
     1
 78
     2
176
     1
 67
     7
176
     1
 79
     3
176
     1
170
     0
176
     1
171
     0
176
     1
290
     0
176
     1
 93
        1
176
     1
 44
0.0
176
     1
173
     0
176
     1
1001
ACAD
1000
AcDbSavedByObjectVersion
1070
     0
  0
VISUALSTYLE
  5
319A
102
{ACAD_XDICTIONARY
360
221CE
102
}
102
{ACAD_REACTORS
330
318F
102
}
330
318F
100
AcDbVisualStyle
  2

 70
    11
177
     2
291
     1
 71
     2
176
     1
 72
     2
176
     1
 73
     0
176
     1
 90
        0
176
     1
 40
0.6
176
     1
 41
30.0
176
     1
 63
     7
176
     1
 74
     1
176
     1
 91
        4
176
     1
 64
     7
176
     1
 65
   257
176
     1
 75
     1
176
     1
175
     1
176
     1
 42
1.0
176
     1
 92
        8
176
     1
 66
     7
176
     1
 43
1.0
176
     1
 76
     1
176
     1
 77
     6
176
     1
 78
     2
176
     1
 67
     7
176
     1
 79
     5
176
     1
170
     0
176
     1
171
     0
176
     1
290
     0
176
     1
 93
        1
176
     1
 44
-50.0
176
     1
173
     0
176
     1
1001
ACAD
1000
AcDbSavedByObjectVersion
1070
     0
  0
VISUALSTYLE
  5
1B2EC
102
{ACAD_XDICTIONARY
360
221EC
102
}
102
{ACAD_REACTORS
330
318F
102
}
330
318F
100
AcDbVisualStyle
  2

 70
    22
177
     2
291
     1
 71
     2
176
     0
 72
     2
176
     0
 73
     0
176
     0
 90
        0
176
     0
 40
0.6
176
     0
 41
30.0
176
     0
 63
     7
176
     0
 74
     1
176
     0
 91
        4
176
     0
 64
     7
176
     0
 65
   257
176
     0
 75
     1
176
     0
175
     1
176
     0
 42
1.0
176
     0
 92
        8
176
     2
 66
     7
176
     0
 43
1.0
176
     0
 76
     1
176
     0
 77
     6
176
     0
 78
     2
176
     0
 67
     7
176
     0
 79
     5
176
     0
170
     0
176
     0
171
     0
176
     0
290
     0
176
     0
 93
        1
176
     0
 44
0.0
176
     0
173
     0
176
     0
1001
ACAD
1000
AcDbSavedByObjectVersion
1070
     0
  0
VISUALSTYLE
  5
319E
102
{ACAD_XDICTIONARY
360
221D6
102
}
102
{ACAD_REACTORS
330
318F
102
}
330
318F
100
AcDbVisualStyle
  2

 70
    15
177
     2
291
     1
 71
     2
176
     1
 72
     2
176
     1
 73
     0
176
     1
 90
        0
176
     1
 40
0.6
176
     1
 41
30.0
176
     1
 63
     7
176
     1
 74
     1
176
     1
 91
        4
176
     1
 64
     7
176
     1
 65
   257
176
     1
 75
     1
176
     1
175
     1
176
     1
 42
1.0
176
     1
 92
        8
176
     1
 66
     7
176
     1
 43
1.0
176
     1
 76
     1
176
     1
 77
     6
176
     1
 78
     2
176
     1
 67
     7
176
     1
 79
     5
176
     1
170
     0
176
     1
171
     0
176
     1
290
     0
176
     1
 93
        1
176
     1
 44
0.0
176
     1
173
     0
176
     1
1001
ACAD
1000
AcDbSavedByObjectVersion
1070
     0
  0
VISUALSTYLE
  5
3190
102
{ACAD_XDICTIONARY
360
221BA
102
}
102
{ACAD_REACTORS
330
318F
102
}
330
318F
100
AcDbVisualStyle
  2

 70
     0
177
     2
291
     1
 71
     2
176
     1
 72
     1
176
     1
 73
     1
176
     1
 90
        2
176
     1
 40
0.6
176
     1
 41
30.0
176
     1
 63
     7
176
     1
 74
     0
176
     1
 91
        4
176
     1
 64
     7
176
     1
 65
   257
176
     1
 75
     1
176
     1
175
     1
176
     1
 42
1.0
176
     1
 92
        8
176
     1
 66
     7
176
     1
 43
1.0
176
     1
 76
     1
176
     1
 77
     6
176
     1
 78
     2
176
     1
 67
     7
176
     1
 79
     5
176
     1
170
     0
176
     1
171
     0
176
     1
290
     0
176
     1
 93
       13
176
     1
 44
0.0
176
     1
173
     0
176
     1
1001
ACAD
1000
AcDbSavedByObjectVersion
1070
     0
  0
VISUALSTYLE
  5
3191
102
{ACAD_XDICTIONARY
360
221BC
102
}
102
{ACAD_REACTORS
330
318F
102
}
330
318F
100
AcDbVisualStyle
  2

 70
     1
177
     2
291
     1
 71
     2
176
     1
 72
     1
176
     1
 73
     1
176
     1
 90
        2
176
     1
 40
0.6
176
     1
 41
30.0
176
     1
 63
     7
176
     1
 74
     1
176
     1
 91
        4
176
     1
 64
     7
176
     1
 65
   257
176
     1
 75
     1
176
     1
175
     1
176
     1
 42
1.0
176
     1
 92
        0
176
     1
 66
   257
176
     1
 43
1.0
176
     1
 76
     1
176
     1
 77
     6
176
     1
 78
     2
176
     1
 67
     7
176
     1
 79
     5
176
     1
170
     0
176
     1
171
     0
176
     1
290
     0
176
     1
 93
       13
176
     1
 44
0.0
176
     1
173
     0
176
     1
1001
ACAD
1000
AcDbSavedByObjectVersion
1070
     0
  0
VISUALSTYLE
  5
3192
102
{ACAD_XDICTIONARY
360
221BE
102
}
102
{ACAD_REACTORS
330
318F
102
}
330
318F
100
AcDbVisualStyle
  2

 70
     2
177
     2
291
     1
 71
     2
176
     1
 72
     2
176
     1
 73
     1
176
     1
 90
        2
176
     1
 40
0.6
176
     1
 41
30.0
176
     1
 63
     7
176
     1
 74
     0
176
     1
 91
        4
176
     1
 64
     7
176
     1
 65
   257
176
     1
 75
     1
176
     1
175
     1
176
     1
 42
1.0
176
     1
 92
        0
176
     1
 66
     7
176
     1
 43
1.0
176
     1
 76
     1
176
     1
 77
     6
176
     1
 78
     2
176
     1
 67
     7
176
     1
 79
     5
176
     1
170
     0
176
     1
171
     0
176
     1
290
     0
176
     1
 93
       13
176
     1
 44
0.0
176
     1
173
     0
176
     1
1001
ACAD
1000
AcDbSavedByObjectVersion
1070
     0
  0
VISUALSTYLE
  5
3193
102
{ACAD_XDICTIONARY
360
221C0
102
}
102
{ACAD_REACTORS
330
318F
102
}
330
318F
100
AcDbVisualStyle
  2

 70
     3
177
     2
291
     1
 71
     2
176
     1
 72
     2
176
     1
 73
     1
176
     1
 90
        2
176
     1
 40
0.6
176
     1
 41
30.0
176
     1
 63
     7
176
     1
 74
     1
176
     1
 91
        4
176
     1
 64
     7
176
     1
 65
   257
176
     1
 75
     1
176
     1
175
     1
176
     1
 42
1.0
176
     1
 92
        0
176
     1
 66
   257
176
     1
 43
1.0
176
     1
 76
     1
176
     1
 77
     6
176
     1
 78
     2
176
     1
 67
     7
176
     1
 79
     5
176
     1
170
     0
176
     1
171
     0
176
     1
290
     0
176
     1
 93
       13
176
     1
 44
0.0
176
     1
173
     0
176
     1
1001
ACAD
1000
AcDbSavedByObjectVersion
1070
     0
  0
VISUALSTYLE
  5
1B2E4
102
{ACAD_XDICTIONARY
360
221DC
102
}
102
{ACAD_REACTORS
330
318F
102
}
330
318F
100
AcDbVisualStyle
  2

 70
     6
177
     2
291
     0
 71
     1
176
     1
 72
     2
176
     1
 73
     2
176
     1
 90
        0
176
     1
 40
0.6
176
     1
 41
30.0
176
     1
 63
     7
176
     1
 74
     2
176
     1
 91
        2
176
     1
 64
     7
176
     1
 65
   257
176
     1
 75
     2
176
     1
175
     1
176
     1
 42
40.0
176
     1
 92
        0
176
     1
 66
   257
176
     1
 43
1.0
176
     1
 76
     1
176
     1
 77
     6
176
     1
 78
     2
176
     1
 67
     7
176
     1
 79
     3
176
     1
170
     0
176
     1
171
     0
176
     1
290
     0
176
     1
 93
        1
176
     1
 44
0.0
176
     1
173
     0
176
     1
1001
ACAD
1000
AcDbSavedByObjectVersion
1070
     0
  0
VISUALSTYLE
  5
1B2EA
102
{ACAD_XDICTIONARY
360
221E8
102
}
102
{ACAD_REACTORS
330
318F
102
}
330
318F
100
AcDbVisualStyle
  2

 70
    20
177
     2
291
     1
 71
     2
176
     0
 72
     2
176
     0
 73
     0
176
     0
 90
        0
176
     0
 40
0.6
176
     0
 41
30.0
176
     0
 63
     7
176
     0
 74
     1
176
     0
 91
        4
176
     0
 64
     7
176
     0
 65
   257
176
     0
 75
     1
176
     0
175
     1
176
     0
 42
1.0
176
     0
 92
       10
176
     2
 66
     7
176
     0
 43
1.0
176
     0
 76
     1
176
     0
 77
     6
176
     0
 78
     2
176
     0
 67
     7
176
     0
 79
     5
176
     0
170
     0
176
     0
171
     0
176
     0
290
     0
176
     0
 93
        1
176
     0
 44
0.0
176
     0
173
     0
176
     0
1001
ACAD
1000
AcDbSavedByObjectVersion
1070
     0
  0
VISUALSTYLE
  5
319D
102
{ACAD_XDICTIONARY
360
221D4
102
}
102
{ACAD_REACTORS
330
318F
102
}
330
318F
100
AcDbVisualStyle
  2

 70
    14
177
     2
291
     1
 71
     2
176
     1
 72
     2
176
     1
 73
     0
176
     1
 90
        0
176
     1
 40
0.6
176
     1
 41
30.0
176
     1
 63
     7
176
     1
 74
     1
176
     1
 91
        4
176
     1
 64
     7
176
     1
 65
   257
176
     1
 75
     7
176
     1
175
     7
176
     1
 42
1.0
176
     1
 92
        8
176
     1
 66
     7
176
     1
 43
1.0
176
     1
 76
     1
176
     1
 77
     6
176
     1
 78
     2
176
     1
 67
     7
176
     1
 79
     5
176
     1
170
     0
176
     1
171
     0
176
     1
290
     0
176
     1
 93
        1
176
     1
 44
0.0
176
     1
173
     0
176
     1
1001
ACAD
1000
AcDbSavedByObjectVersion
1070
     0
  0
VISUALSTYLE
  5
1B2EB
102
{ACAD_XDICTIONARY
360
221EA
102
}
102
{ACAD_REACTORS
330
318F
102
}
330
318F
100
AcDbVisualStyle
  2

 70
    21
177
     2
291
     1
 71
     2
176
     0
 72
     2
176
     0
 73
     0
176
     0
 90
        0
176
     0
 40
0.6
176
     0
 41
30.0
176
     0
 63
     7
176
     0
 74
     1
176
     0
 91
        4
176
     0
 64
     7
176
     0
 65
   257
176
     0
 75
     1
176
     0
175
     1
176
     0
 42
1.0
176
     0
 92
        9
176
     2
 66
     7
176
     0
 43
1.0
176
     0
 76
     1
176
     0
 77
     6
176
     0
 78
     2
176
     0
 67
     7
176
     0
 79
     5
176
     0
170
     0
176
     0
171
     0
176
     0
290
     0
176
     0
 93
        1
176
     0
 44
0.0
176
     0
173
     0
176
     0
1001
ACAD
1000
AcDbSavedByObjectVersion
1070
     0
  0
VISUALSTYLE
  5
3199
102
{ACAD_XDICTIONARY
360
221CC
102
}
102
{ACAD_REACTORS
330
318F
102
}
330
318F
100
AcDbVisualStyle
  2

 70
     8
177
     2
291
     0
 71
     2
176
     1
 72
     2
176
     1
 73
     0
176
     1
 90
        0
176
     1
 40
0.6
176
     1
 41
30.0
176
     1
 63
     7
176
     1
 74
     1
176
     1
 91
        0
176
     1
 64
     7
176
     1
 65
   257
176
     1
 75
     1
176
     1
175
     1
176
     1
 42
1.0
176
     1
 92
        8
176
     1
 66
     8
176
     1
 43
1.0
176
     1
 76
     1
176
     1
 77
     6
176
     1
 78
     2
176
     1
 67
     7
176
     1
 79
     5
176
     1
170
     0
176
     1
171
     0
176
     1
290
     0
176
     1
 93
       13
176
     1
 44
0.0
176
     1
173
     0
176
     1
1001
ACAD
1000
AcDbSavedByObjectVersion
1070
     0
  0
VISUALSTYLE
  5
1B2E9
102
{ACAD_XDICTIONARY
360
221E6
102
}
102
{ACAD_REACTORS
330
318F
102
}
330
318F
100
AcDbVisualStyle
  2

 70
    27
177
     2
291
     0
 71
     2
176
     1
 72
     2
176
     1
 73
     1
176
     1
 90
        2
176
     1
 40
0.6
176
     1
 41
30.0
176
     1
 63
     7
176
     1
 74
     0
176
     1
 91
        4
176
     1
 64
     7
176
     1
 65
   257
176
     1
 75
     1
176
     1
175
     1
176
     1
 42
1.0
176
     1
 92
        8
176
     1
 66
   257
176
     1
 43
1.0
176
     1
 76
     1
176
     1
 77
     6
176
     1
 78
     2
176
     1
 67
     8
176
     1
 79
     3
176
     1
170
     0
176
     1
171
     0
176
     1
290
     0
176
     1
 93
        5
176
     1
 44
0.0
176
     1
173
     0
176
     1
1001
ACAD
1000
AcDbSavedByObjectVersion
1070
     0
  0
VISUALSTYLE
  5
1B2E8
102
{ACAD_XDICTIONARY
360
221E4
102
}
102
{ACAD_REACTORS
330
318F
102
}
330
318F
100
AcDbVisualStyle
  2

 70
    26
177
     2
291
     0
 71
     2
176
     1
 72
     2
176
     1
 73
     1
176
     1
 90
        2
176
     1
 40
0.6
176
     1
 41
30.0
176
     1
 63
     7
176
     1
 74
     1
176
     1
 91
       10
176
     1
 64
     7
176
     1
 65
   257
176
     1
 75
     2
176
     1
175
     1
176
     1
 42
1.0
176
     1
 92
        8
176
     1
 66
   257
176
     1
 43
1.0
176
     1
 76
     1
176
     1
 77
     6
176
     1
 78
     2
176
     1
 67
     7
176
     1
 79
     3
176
     1
170
     0
176
     1
171
     0
176
     1
290
     0
176
     1
 93
        5
176
     1
 44
0.0
176
     1
173
     0
176
     1
1001
ACAD
1000
AcDbSavedByObjectVersion
1070
     0
  0
VISUALSTYLE
  5
1B2E5
102
{ACAD_XDICTIONARY
360
221DE
102
}
102
{ACAD_REACTORS
330
318F
102
}
330
318F
100
AcDbVisualStyle
  2

 70
    23
177
     2
291
     0
 71
     2
176
     1
 72
     2
176
     1
 73
     3
176
     1
 90
        0
176
     1
 40
0.6
176
     1
 41
30.0
176
     1
 63
     7
176
     1
 74
     2
176
     1
 91
        2
176
     1
 64
     7
176
     1
 65
     7
176
     1
 75
     1
176
     1
175
     1
176
     1
 42
40.0
176
     1
 92
        8
176
     1
 66
     7
176
     1
 43
1.0
176
     1
 76
     1
176
     1
 77
     6
176
     1
 78
     2
176
     1
 67
     7
176
     1
 79
     3
176
     1
170
     0
176
     1
171
     0
176
     1
290
     0
176
     1
 93
        1
176
     1
 44
0.0
176
     1
173
     0
176
     1
1001
ACAD
1000
AcDbSavedByObjectVersion
1070
     0
  0
VISUALSTYLE
  5
1B2E6
102
{ACAD_XDICTIONARY
360
221E0
102
}
102
{ACAD_REACTORS
330
318F
102
}
330
318F
100
AcDbVisualStyle
  2

 70
    24
177
     2
291
     0
 71
     1
176
     1
 72
     2
176
     1
 73
     2
176
     1
 90
        0
176
     1
 40
0.6
176
     1
 41
30.0
176
     1
 63
     7
176
     1
 74
     2
176
     1
 91
        2
176
     1
 64
     7
176
     1
 65
     7
176
     1
 75
     1
176
     1
175
     1
176
     1
 42
40.0
176
     1
 92
       11
176
     1
 66
     7
176
     1
 43
1.0
176
     1
 76
     1
176
     1
 77
     6
176
     1
 78
     2
176
     1
 67
     7
176
     1
 79
     6
176
     1
170
     0
176
     1
171
     0
176
     1
290
     0
176
     1
 93
        1
176
     1
 44
0.0
176
     1
173
     0
176
     1
1001
ACAD
1000
AcDbSavedByObjectVersion
1070
     0
  0
VISUALSTYLE
  5
319C
102
{ACAD_XDICTIONARY
360
221D2
102
}
102
{ACAD_REACTORS
330
318F
102
}
330
318F
100
AcDbVisualStyle
  2

 70
    13
177
     2
291
     1
 71
     2
176
     1
 72
     2
176
     1
 73
     0
176
     1
 90
        0
176
     1
 40
0.6
176
     1
 41
30.0
176
     1
 63
     7
176
     1
 74
     1
176
     1
 91
        4
176
     1
 64
     7
176
     1
 65
   257
176
     1
 75
     1
176
     1
175
     1
176
     1
 42
1.0
176
     1
 92
       12
176
     1
 66
     7
176
     1
 43
1.0
176
     1
 76
     1
176
     1
 77
     6
176
     1
 78
     2
176
     1
 67
     7
176
     1
 79
     5
176
     1
170
     0
176
     1
171
     0
176
     1
290
     0
176
     1
 93
        1
176
     1
 44
0.0
176
     1
173
     0
176
     1
1001
ACAD
1000
AcDbSavedByObjectVersion
1070
     0
  0
VISUALSTYLE
  5
1B2E3
102
{ACAD_XDICTIONARY
360
221DA
102
}
102
{ACAD_REACTORS
330
318F
102
}
330
318F
100
AcDbVisualStyle
  2

 70
     5
177
     2
291
     0
 71
     0
176
     1
 72
     2
176
     1
 73
     0
176
     1
 90
        0
176
     1
 40
0.6
176
     1
 41
30.0
176
     1
 63
     7
176
     1
 74
     1
176
     1
 91
        4
176
     1
 64
     7
176
     1
 65
   257
176
     1
 75
     1
176
     1
175
     1
176
     1
 42
1.0
176
     1
 92
        0
176
     1
 66
   257
176
     1
 43
1.0
176
     1
 76
     1
176
     1
 77
     6
176
     1
 78
     2
176
     1
 67
     7
176
     1
 79
     3
176
     1
170
     0
176
     1
171
     0
176
     1
290
     0
176
     1
 93
        1
176
     1
 44
0.0
176
     1
173
     0
176
     1
1001
ACAD
1000
AcDbSavedByObjectVersion
1070
     0
  0
VISUALSTYLE
  5
1B2E7
102
{ACAD_XDICTIONARY
360
221E2
102
}
102
{ACAD_REACTORS
330
318F
102
}
330
318F
100
AcDbVisualStyle
  2

 70
    25
177
     2
291
     0
 71
     2
176
     1
 72
     2
176
     1
 73
     1
176
     1
 90
        1
176
     1
 40
0.5
176
     1
 41
30.0
176
     1
 63
     7
176
     1
 74
     1
176
     1
 91
        0
176
     1
 64
     7
176
     1
 65
   257
176
     1
 75
     1
176
     1
175
     1
176
     1
 42
1.0
176
     1
 92
        8
176
     1
 66
     7
176
     1
 43
1.0
176
     1
 76
     1
176
     1
 77
     6
176
     1
 78
     2
176
     1
 67
     7
176
     1
 79
     3
176
     1
170
     0
176
     1
171
     0
176
     1
290
     0
176
     1
 93
       13
176
     1
 44
0.0
176
     1
173
     0
176
     1
1001
ACAD
1000
AcDbSavedByObjectVersion
1070
     0
  0
DICTIONARYVAR
  5
1B222
102
{ACAD_REACTORS
330
33A3
102
}
330
33A3
100
DictionaryVariables
280
     0
  1
1:1
  0
DICTIONARYVAR
  5
1B30F
102
{ACAD_REACTORS
330
33A3
102
}
330
33A3
100
DictionaryVariables
280
     0
  1
STANDARD
  0
DICTIONARYVAR
  5
33A4
102
{ACAD_REACTORS
330
33A3
102
}
330
33A3
100
DictionaryVariables
280
     0
  1
STANDARD
  0
DICTIONARYVAR
  5
1B310
102
{ACAD_REACTORS
330
33A3
102
}
330
33A3
100
DictionaryVariables
280
     0
  1
Metric50
  0
DICTIONARYVAR
  5
1B311
102
{ACAD_REACTORS
330
33A3
102
}
330
33A3
100
DictionaryVariables
280
     0
  1
Metric50
  0
DICTIONARYVAR
  5
9BE8
102
{ACAD_REACTORS
330
33A3
102
}
330
33A3
100
DictionaryVariables
280
     0
  1
1
  0
DICTIONARYVAR
  5
9BE7
102
{ACAD_REACTORS
330
33A3
102
}
330
33A3
100
DictionaryVariables
280
     0
  1
0
  0
DICTIONARYVAR
  5
20993
102
{ACAD_REACTORS
330
33A3
102
}
330
33A3
100
DictionaryVariables
280
     0
  1
1
  0
DICTIONARYVAR
  5
20994
102
{ACAD_REACTORS
330
33A3
102
}
330
33A3
100
DictionaryVariables
280
     0
  1
15
  0
DICTIONARYVAR
  5
20992
102
{ACAD_REACTORS
330
33A3
102
}
330
33A3
100
DictionaryVariables
280
     0
  1
0
  0
DICTIONARYVAR
  5
20991
102
{ACAD_REACTORS
330
33A3
102
}
330
33A3
100
DictionaryVariables
280
     0
  1
0
  0
DICTIONARYVAR
  5
9BE6
102
{ACAD_REACTORS
330
33A3
102
}
330
33A3
100
DictionaryVariables
280
     0
  1
127
  0
DICTIONARY
  5
221F4
330
20CB3
100
AcDbDictionary
280
     1
281
     1
  3
ACAD_XREC_ROUNDTRIP
360
221F5
  0
DICTIONARY
  5
221F0
330
1B2F1
100
AcDbDictionary
280
     1
281
     1
  3
ACAD_XREC_ROUNDTRIP
360
221F1
  0
DICTIONARY
  5
1B22B
330
318D
100
AcDbDictionary
280
     1
281
     1
  3
ACAD_XREC_ROUNDTRIP
360
1B22C
  0
DICTIONARY
  5
1B22D
330
318C
100
AcDbDictionary
280
     1
281
     1
  3
ACAD_XREC_ROUNDTRIP
360
1B22E
  0
DICTIONARY
  5
1B22F
330
318E
100
AcDbDictionary
280
     1
281
     1
  3
ACAD_XREC_ROUNDTRIP
360
1B230
  0
DICTIONARY
  5
221F2
330
20CB1
100
AcDbDictionary
280
     1
281
     1
  3
ACAD_XREC_ROUNDTRIP
360
221F3
  0
DICTIONARY
  5
221EE
330
1B2EF
100
AcDbDictionary
280
     1
281
     1
  3
ACAD_XREC_ROUNDTRIP
360
221EF
  0
DICTIONARY
  5
1B314
330
31A2
100
AcDbDictionary
280
     1
281
     1
  3
ACAD_ROUNDTRIP_2008_TABLESTYLE_CELLSTYLEMAP
360
221B8
  0
DICTIONARY
  5
221C4
330
3195
100
AcDbDictionary
280
     1
281
     1
  3
ACAD_XREC_ROUNDTRIP
360
221C5
  0
DICTIONARY
  5
221C8
330
3197
100
AcDbDictionary
280
     1
281
     1
  3
ACAD_XREC_ROUNDTRIP
360
221C9
  0
DICTIONARY
  5
221C6
330
3196
100
AcDbDictionary
280
     1
281
     1
  3
ACAD_XREC_ROUNDTRIP
360
221C7
  0
DICTIONARY
  5
221C2
330
3194
100
AcDbDictionary
280
     1
281
     1
  3
ACAD_XREC_ROUNDTRIP
360
221C3
  0
DICTIONARY
  5
221D0
330
319B
100
AcDbDictionary
280
     1
281
     1
  3
ACAD_XREC_ROUNDTRIP
360
221D1
  0
DICTIONARY
  5
221D8
330
319F
100
AcDbDictionary
280
     1
281
     1
  3
ACAD_XREC_ROUNDTRIP
360
221D9
  0
DICTIONARY
  5
221CA
330
3198
100
AcDbDictionary
280
     1
281
     1
  3
ACAD_XREC_ROUNDTRIP
360
221CB
  0
DICTIONARY
  5
221CE
330
319A
100
AcDbDictionary
280
     1
281
     1
  3
ACAD_XREC_ROUNDTRIP
360
221CF
  0
DICTIONARY
  5
221EC
330
1B2EC
100
AcDbDictionary
280
     1
281
     1
  3
ACAD_XREC_ROUNDTRIP
360
221ED
  0
DICTIONARY
  5
221D6
330
319E
100
AcDbDictionary
280
     1
281
     1
  3
ACAD_XREC_ROUNDTRIP
360
221D7
  0
DICTIONARY
  5
221BA
330
3190
100
AcDbDictionary
280
     1
281
     1
  3
ACAD_XREC_ROUNDTRIP
360
221BB
  0
DICTIONARY
  5
221BC
330
3191
100
AcDbDictionary
280
     1
281
     1
  3
ACAD_XREC_ROUNDTRIP
360
221BD
  0
DICTIONARY
  5
221BE
330
3192
100
AcDbDictionary
280
     1
281
     1
  3
ACAD_XREC_ROUNDTRIP
360
221BF
  0
DICTIONARY
  5
221C0
330
3193
100
AcDbDictionary
280
     1
281
     1
  3
ACAD_XREC_ROUNDTRIP
360
221C1
  0
DICTIONARY
  5
221DC
330
1B2E4
100
AcDbDictionary
280
     1
281
     1
  3
ACAD_XREC_ROUNDTRIP
360
221DD
  0
DICTIONARY
  5
221E8
330
1B2EA
100
AcDbDictionary
280
     1
281
     1
  3
ACAD_XREC_ROUNDTRIP
360
221E9
  0
DICTIONARY
  5
221D4
330
319D
100
AcDbDictionary
280
     1
281
     1
  3
ACAD_XREC_ROUNDTRIP
360
221D5
  0
DICTIONARY
  5
221EA
330
1B2EB
100
AcDbDictionary
280
     1
281
     1
  3
ACAD_XREC_ROUNDTRIP
360
221EB
  0
DICTIONARY
  5
221CC
330
3199
100
AcDbDictionary
280
     1
281
     1
  3
ACAD_XREC_ROUNDTRIP
360
221CD
  0
DICTIONARY
  5
221E6
330
1B2E9
100
AcDbDictionary
280
     1
281
     1
  3
ACAD_XREC_ROUNDTRIP
360
221E7
  0
DICTIONARY
  5
221E4
330
1B2E8
100
AcDbDictionary
280
     1
281
     1
  3
ACAD_XREC_ROUNDTRIP
360
221E5
  0
DICTIONARY
  5
221DE
330
1B2E5
100
AcDbDictionary
280
     1
281
     1
  3
ACAD_XREC_ROUNDTRIP
360
221DF
  0
DICTIONARY
  5
221E0
330
1B2E6
100
AcDbDictionary
280
     1
281
     1
  3
ACAD_XREC_ROUNDTRIP
360
221E1
  0
DICTIONARY
  5
221D2
330
319C
100
AcDbDictionary
280
     1
281
     1
  3
ACAD_XREC_ROUNDTRIP
360
221D3
  0
DICTIONARY
  5
221DA
330
1B2E3
100
AcDbDictionary
280
     1
281
     1
  3
ACAD_XREC_ROUNDTRIP
360
221DB
  0
DICTIONARY
  5
221E2
330
1B2E7
100
AcDbDictionary
280
     1
281
     1
  3
ACAD_XREC_ROUNDTRIP
360
221E3
  0
XRECORD
  5
221F5
102
{ACAD_REACTORS
330
221F4
102
}
330
221F4
100
AcDbXrecord
280
     1
102
DISPLAYNAME
  1
Imperial24
102
FLAGS
 90
        0
  0
XRECORD
  5
221F1
102
{ACAD_REACTORS
330
221F0
102
}
330
221F0
100
AcDbXrecord
280
     1
102
DISPLAYNAME
  1
Metric50
102
FLAGS
 90
        0
  0
XRECORD
  5
1B22C
102
{ACAD_REACTORS
330
1B22B
102
}
330
1B22B
100
AcDbXrecord
280
     1
102
MATERIAL
148
0.0
149
0.0
149
0.0
 93
        0
 94
      127
282
     0
 72
     1
 77
     1
171
     1
175
     1
179
     1
273
     0
  0
XRECORD
  5
1B22E
102
{ACAD_REACTORS
330
1B22D
102
}
330
1B22D
100
AcDbXrecord
280
     1
102
MATERIAL
148
0.0
149
0.0
149
0.0
 93
        0
 94
      127
282
     0
 72
     1
 77
     1
171
     1
175
     1
179
     1
273
     0
  0
XRECORD
  5
1B230
102
{ACAD_REACTORS
330
1B22F
102
}
330
1B22F
100
AcDbXrecord
280
     1
102
MATERIAL
148
0.0
149
0.0
149
0.0
 93
        0
 94
      127
282
     0
 72
     1
 77
     1
171
     1
175
     1
179
     1
273
     0
  0
XRECORD
  5
221F3
102
{ACAD_REACTORS
330
221F2
102
}
330
221F2
100
AcDbXrecord
280
     1
102
DISPLAYNAME
  1
Imperial24
102
FLAGS
 90
        0
  0
XRECORD
  5
221EF
102
{ACAD_REACTORS
330
221EE
102
}
330
221EE
100
AcDbXrecord
280
     1
102
DISPLAYNAME
  1
Metric50
102
FLAGS
 90
        0
  0
CELLSTYLEMAP
  5
221B8
102
{ACAD_REACTORS
330
1B314
102
}
330
1B314
100
AcDbCellStyleMap
 90
        3
300
CELLSTYLE
  1
TABLEFORMAT_BEGIN
 90
        5
170
     1
 91
        0
 92
    32768
 62
   257
 93
        1
300
CONTENTFORMAT
  1
CONTENTFORMAT_BEGIN
 90
        0
 91
        0
 92
        4
 93
        0
300

 40
0.0
140
1.0
 94
        5
 62
     0
340
11
144
6.0
309
CONTENTFORMAT_END
171
     1
301
MARGIN
  1
CELLMARGIN_BEGIN
 40
1.5
 40
1.5
 40
1.5
 40
1.5
 40
0.18
 40
0.18
309
CELLMARGIN_END
 94
        6
 95
        1
302
GRIDFORMAT
  1
GRIDFORMAT_BEGIN
 90
        0
 91
        1
 62
     0
 92
       -2
340
0
 93
        0
 40
0.045
309
GRIDFORMAT_END
 95
        2
302
GRIDFORMAT
  1
GRIDFORMAT_BEGIN
 90
        0
 91
        1
 62
     0
 92
       -2
340
0
 93
        0
 40
0.045
309
GRIDFORMAT_END
 95
        4
302
GRIDFORMAT
  1
GRIDFORMAT_BEGIN
 90
        0
 91
        1
 62
     0
 92
       -2
340
0
 93
        0
 40
0.045
309
GRIDFORMAT_END
 95
        8
302
GRIDFORMAT
  1
GRIDFORMAT_BEGIN
 90
        0
 91
        1
 62
     0
 92
       -2
340
0
 93
        0
 40
0.045
309
GRIDFORMAT_END
 95
       16
302
GRIDFORMAT
  1
GRIDFORMAT_BEGIN
 90
        0
 91
        1
 62
     0
 92
       -2
340
0
 93
        0
 40
0.045
309
GRIDFORMAT_END
 95
       32
302
GRIDFORMAT
  1
GRIDFORMAT_BEGIN
 90
        0
 91
        1
 62
     0
 92
       -2
340
0
 93
        0
 40
0.045
309
GRIDFORMAT_END
309
TABLEFORMAT_END
  1
CELLSTYLE_BEGIN
 90
        1
 91
        1
300
_TITLE
309
CELLSTYLE_END
300
CELLSTYLE
  1
TABLEFORMAT_BEGIN
 90
        5
170
     1
 91
        0
 92
        0
 62
   257
 93
        1
300
CONTENTFORMAT
  1
CONTENTFORMAT_BEGIN
 90
        0
 91
        0
 92
        4
 93
        0
300

 40
0.0
140
1.0
 94
        5
 62
     0
340
11
144
4.5
309
CONTENTFORMAT_END
171
     1
301
MARGIN
  1
CELLMARGIN_BEGIN
 40
1.5
 40
1.5
 40
1.5
 40
1.5
 40
0.18
 40
0.18
309
CELLMARGIN_END
 94
        6
 95
        1
302
GRIDFORMAT
  1
GRIDFORMAT_BEGIN
 90
        0
 91
        1
 62
     0
 92
       -2
340
0
 93
        0
 40
0.045
309
GRIDFORMAT_END
 95
        2
302
GRIDFORMAT
  1
GRIDFORMAT_BEGIN
 90
        0
 91
        1
 62
     0
 92
       -2
340
0
 93
        0
 40
0.045
309
GRIDFORMAT_END
 95
        4
302
GRIDFORMAT
  1
GRIDFORMAT_BEGIN
 90
        0
 91
        1
 62
     0
 92
       -2
340
0
 93
        0
 40
0.045
309
GRIDFORMAT_END
 95
        8
302
GRIDFORMAT
  1
GRIDFORMAT_BEGIN
 90
        0
 91
        1
 62
     0
 92
       -2
340
0
 93
        0
 40
0.045
309
GRIDFORMAT_END
 95
       16
302
GRIDFORMAT
  1
GRIDFORMAT_BEGIN
 90
        0
 91
        1
 62
     0
 92
       -2
340
0
 93
        0
 40
0.045
309
GRIDFORMAT_END
 95
       32
302
GRIDFORMAT
  1
GRIDFORMAT_BEGIN
 90
        0
 91
        1
 62
     0
 92
       -2
340
0
 93
        0
 40
0.045
309
GRIDFORMAT_END
309
TABLEFORMAT_END
  1
CELLSTYLE_BEGIN
 90
        2
 91
        1
300
_HEADER
309
CELLSTYLE_END
300
CELLSTYLE
  1
TABLEFORMAT_BEGIN
 90
        5
170
     1
 91
        0
 92
        0
 62
   257
 93
        1
300
CONTENTFORMAT
  1
CONTENTFORMAT_BEGIN
 90
        0
 91
        0
 92
        4
 93
        0
300

 40
0.0
140
1.0
 94
        2
 62
     0
340
11
144
4.5
309
CONTENTFORMAT_END
171
     1
301
MARGIN
  1
CELLMARGIN_BEGIN
 40
1.5
 40
1.5
 40
1.5
 40
1.5
 40
0.18
 40
0.18
309
CELLMARGIN_END
 94
        6
 95
        1
302
GRIDFORMAT
  1
GRIDFORMAT_BEGIN
 90
        0
 91
        1
 62
     0
 92
       -2
340
0
 93
        0
 40
0.045
309
GRIDFORMAT_END
 95
        2
302
GRIDFORMAT
  1
GRIDFORMAT_BEGIN
 90
        0
 91
        1
 62
     0
 92
       -2
340
0
 93
        0
 40
0.045
309
GRIDFORMAT_END
 95
        4
302
GRIDFORMAT
  1
GRIDFORMAT_BEGIN
 90
        0
 91
        1
 62
     0
 92
       -2
340
0
 93
        0
 40
0.045
309
GRIDFORMAT_END
 95
        8
302
GRIDFORMAT
  1
GRIDFORMAT_BEGIN
 90
        0
 91
        1
 62
     0
 92
       -2
340
0
 93
        0
 40
0.045
309
GRIDFORMAT_END
 95
       16
302
GRIDFORMAT
  1
GRIDFORMAT_BEGIN
 90
        0
 91
        1
 62
     0
 92
       -2
340
0
 93
        0
 40
0.045
309
GRIDFORMAT_END
 95
       32
302
GRIDFORMAT
  1
GRIDFORMAT_BEGIN
 90
        0
 91
        1
 62
     0
 92
       -2
340
0
 93
        0
 40
0.045
309
GRIDFORMAT_END
309
TABLEFORMAT_END
  1
CELLSTYLE_BEGIN
 90
        3
 91
        2
300
_DATA
309
CELLSTYLE_END
  0
XRECORD
  5
221C5
102
{ACAD_REACTORS
330
221C4
102
}
330
221C4
100
AcDbXrecord
280
     1
102
RTVSPost2010Prop28
280
     1
102
RTVSPost2010PropOp28
 70
     1
102
RTVSPost2010Prop29
280
     1
102
RTVSPost2010PropOp29
 70
     1
102
RTVSPost2010Prop30
280
     0
102
RTVSPost2010PropOp30
 70
     1
102
RTVSPost2010Prop31
280
     0
102
RTVSPost2010PropOp31
 70
     1
102
RTVSPost2010Prop32
280
     0
102
RTVSPost2010PropOp32
 70
     1
102
RTVSPost2010Prop33
280
     0
102
RTVSPost2010PropOp33
 70
     1
102
RTVSPost2010Prop34
280
     0
102
RTVSPost2010PropOp34
 70
     1
102
RTVSPost2010Prop35
280
     0
102
RTVSPost2010PropOp35
 70
     1
102
RTVSPost2010Prop36
280
     0
102
RTVSPost2010PropOp36
 70
     1
102
RTVSPost2010Prop37
 90
       50
102
RTVSPost2010PropOp37
 70
     1
102
RTVSPost2010Prop38
140
0.0
102
RTVSPost2010PropOp38
 70
     1
102
RTVSPost2010Prop39
140
1.0
102
RTVSPost2010PropOp39
 70
     1
102
RTVSPost2010Prop40
 90
        0
102
RTVSPost2010PropOp40
 70
     1
102
RTVSPost2010Prop41ColorIndex
 90
       18
102
RTVSPost2010Prop41ColorRGB
 90
        0
102
RTVSPost2010PropOp41
 70
     1
102
RTVSPost2010Prop42
 90
       50
102
RTVSPost2010PropOp42
 70
     1
102
RTVSPost2010Prop43
 90
        3
102
RTVSPost2010PropOp43
 70
     1
102
RTVSPost2010Prop44ColorIndex
 90
        5
102
RTVSPost2010Prop44ColorRGB
 90
      255
102
RTVSPost2010PropOp44
 70
     1
102
RTVSPost2010Prop45
280
     0
102
RTVSPost2010PropOp45
 70
     1
102
RTVSPost2010Prop46
 90
       50
102
RTVSPost2010PropOp46
 70
     1
102
RTVSPost2010Prop47
 90
       50
102
RTVSPost2010PropOp47
 70
     1
102
RTVSPost2010Prop48
 90
       50
102
RTVSPost2010PropOp48
 70
     1
102
RTVSPost2010Prop49
280
     0
102
RTVSPost2010PropOp49
 70
     1
102
RTVSPost2010Prop50
 90
       50
102
RTVSPost2010PropOp50
 70
     1
102
RTVSPost2010Prop51ColorIndex
 90
      256
102
RTVSPost2010Prop51ColorRGB
 90
-16777216
102
RTVSPost2010PropOp51
 70
     0
102
RTVSPost2010Prop52
140
1.0
102
RTVSPost2010PropOp52
 70
     0
102
RTVSPost2010Prop53
 90
        2
102
RTVSPost2010PropOp53
 70
     1
102
RTVSPost2010Prop54
  1
strokes_ogs.tif
102
RTVSPost2010PropOp54
 70
     1
102
RTVSPost2010Prop55
280
     0
102
RTVSPost2010PropOp55
 70
     1
102
RTVSPost2010Prop56
140
1.0
102
RTVSPost2010PropOp56
 70
     1
102
RTVSPost2010Prop57
140
1.0
102
RTVSPost2010PropOp57
 70
     1
  0
XRECORD
  5
221C9
102
{ACAD_REACTORS
330
221C8
102
}
330
221C8
100
AcDbXrecord
280
     1
102
RTVSPost2010Prop28
280
     0
102
RTVSPost2010PropOp28
 70
     1
102
RTVSPost2010Prop29
280
     1
102
RTVSPost2010PropOp29
 70
     1
102
RTVSPost2010Prop30
280
     1
102
RTVSPost2010PropOp30
 70
     1
102
RTVSPost2010Prop31
280
     0
102
RTVSPost2010PropOp31
 70
     1
102
RTVSPost2010Prop32
280
     0
102
RTVSPost2010PropOp32
 70
     1
102
RTVSPost2010Prop33
280
     0
102
RTVSPost2010PropOp33
 70
     1
102
RTVSPost2010Prop34
280
     0
102
RTVSPost2010PropOp34
 70
     1
102
RTVSPost2010Prop35
280
     0
102
RTVSPost2010PropOp35
 70
     1
102
RTVSPost2010Prop36
280
     0
102
RTVSPost2010PropOp36
 70
     1
102
RTVSPost2010Prop37
 90
       50
102
RTVSPost2010PropOp37
 70
     1
102
RTVSPost2010Prop38
140
0.0
102
RTVSPost2010PropOp38
 70
     1
102
RTVSPost2010Prop39
140
1.0
102
RTVSPost2010PropOp39
 70
     1
102
RTVSPost2010Prop40
 90
        0
102
RTVSPost2010PropOp40
 70
     1
102
RTVSPost2010Prop41ColorIndex
 90
       18
102
RTVSPost2010Prop41ColorRGB
 90
        0
102
RTVSPost2010PropOp41
 70
     1
102
RTVSPost2010Prop42
 90
       50
102
RTVSPost2010PropOp42
 70
     1
102
RTVSPost2010Prop43
 90
        3
102
RTVSPost2010PropOp43
 70
     1
102
RTVSPost2010Prop44ColorIndex
 90
        5
102
RTVSPost2010Prop44ColorRGB
 90
      255
102
RTVSPost2010PropOp44
 70
     1
102
RTVSPost2010Prop45
280
     0
102
RTVSPost2010PropOp45
 70
     1
102
RTVSPost2010Prop46
 90
       50
102
RTVSPost2010PropOp46
 70
     1
102
RTVSPost2010Prop47
 90
       50
102
RTVSPost2010PropOp47
 70
     1
102
RTVSPost2010Prop48
 90
       50
102
RTVSPost2010PropOp48
 70
     1
102
RTVSPost2010Prop49
280
     0
102
RTVSPost2010PropOp49
 70
     1
102
RTVSPost2010Prop50
 90
       50
102
RTVSPost2010PropOp50
 70
     1
102
RTVSPost2010Prop51ColorIndex
 90
      256
102
RTVSPost2010Prop51ColorRGB
 90
-16777216
102
RTVSPost2010PropOp51
 70
     0
102
RTVSPost2010Prop52
140
1.0
102
RTVSPost2010PropOp52
 70
     0
102
RTVSPost2010Prop53
 90
        2
102
RTVSPost2010PropOp53
 70
     1
102
RTVSPost2010Prop54
  1
strokes_ogs.tif
102
RTVSPost2010PropOp54
 70
     1
102
RTVSPost2010Prop55
280
     0
102
RTVSPost2010PropOp55
 70
     1
102
RTVSPost2010Prop56
140
1.0
102
RTVSPost2010PropOp56
 70
     1
102
RTVSPost2010Prop57
140
1.0
102
RTVSPost2010PropOp57
 70
     1
  0
XRECORD
  5
221C7
102
{ACAD_REACTORS
330
221C6
102
}
330
221C6
100
AcDbXrecord
280
     1
102
RTVSPost2010Prop28
280
     0
102
RTVSPost2010PropOp28
 70
     1
102
RTVSPost2010Prop29
280
     1
102
RTVSPost2010PropOp29
 70
     1
102
RTVSPost2010Prop30
280
     1
102
RTVSPost2010PropOp30
 70
     1
102
RTVSPost2010Prop31
280
     0
102
RTVSPost2010PropOp31
 70
     1
102
RTVSPost2010Prop32
280
     0
102
RTVSPost2010PropOp32
 70
     1
102
RTVSPost2010Prop33
280
     0
102
RTVSPost2010PropOp33
 70
     1
102
RTVSPost2010Prop34
280
     0
102
RTVSPost2010PropOp34
 70
     1
102
RTVSPost2010Prop35
280
     0
102
RTVSPost2010PropOp35
 70
     1
102
RTVSPost2010Prop36
280
     0
102
RTVSPost2010PropOp36
 70
     1
102
RTVSPost2010Prop37
 90
       50
102
RTVSPost2010PropOp37
 70
     1
102
RTVSPost2010Prop38
140
0.0
102
RTVSPost2010PropOp38
 70
     1
102
RTVSPost2010Prop39
140
1.0
102
RTVSPost2010PropOp39
 70
     1
102
RTVSPost2010Prop40
 90
        0
102
RTVSPost2010PropOp40
 70
     1
102
RTVSPost2010Prop41ColorIndex
 90
       18
102
RTVSPost2010Prop41ColorRGB
 90
        0
102
RTVSPost2010PropOp41
 70
     1
102
RTVSPost2010Prop42
 90
       50
102
RTVSPost2010PropOp42
 70
     1
102
RTVSPost2010Prop43
 90
        3
102
RTVSPost2010PropOp43
 70
     1
102
RTVSPost2010Prop44ColorIndex
 90
        5
102
RTVSPost2010Prop44ColorRGB
 90
      255
102
RTVSPost2010PropOp44
 70
     1
102
RTVSPost2010Prop45
280
     0
102
RTVSPost2010PropOp45
 70
     1
102
RTVSPost2010Prop46
 90
       50
102
RTVSPost2010PropOp46
 70
     1
102
RTVSPost2010Prop47
 90
       50
102
RTVSPost2010PropOp47
 70
     1
102
RTVSPost2010Prop48
 90
       50
102
RTVSPost2010PropOp48
 70
     1
102
RTVSPost2010Prop49
280
     0
102
RTVSPost2010PropOp49
 70
     1
102
RTVSPost2010Prop50
 90
       50
102
RTVSPost2010PropOp50
 70
     1
102
RTVSPost2010Prop51ColorIndex
 90
      256
102
RTVSPost2010Prop51ColorRGB
 90
-16777216
102
RTVSPost2010PropOp51
 70
     0
102
RTVSPost2010Prop52
140
1.0
102
RTVSPost2010PropOp52
 70
     0
102
RTVSPost2010Prop53
 90
        2
102
RTVSPost2010PropOp53
 70
     1
102
RTVSPost2010Prop54
  1
strokes_ogs.tif
102
RTVSPost2010PropOp54
 70
     1
102
RTVSPost2010Prop55
280
     0
102
RTVSPost2010PropOp55
 70
     1
102
RTVSPost2010Prop56
140
1.0
102
RTVSPost2010PropOp56
 70
     1
102
RTVSPost2010Prop57
140
1.0
102
RTVSPost2010PropOp57
 70
     1
  0
XRECORD
  5
221C3
102
{ACAD_REACTORS
330
221C2
102
}
330
221C2
100
AcDbXrecord
280
     1
102
RTVSPost2010Prop28
280
     0
102
RTVSPost2010PropOp28
 70
     1
102
RTVSPost2010Prop29
280
     1
102
RTVSPost2010PropOp29
 70
     1
102
RTVSPost2010Prop30
280
     1
102
RTVSPost2010PropOp30
 70
     1
102
RTVSPost2010Prop31
280
     0
102
RTVSPost2010PropOp31
 70
     1
102
RTVSPost2010Prop32
280
     0
102
RTVSPost2010PropOp32
 70
     1
102
RTVSPost2010Prop33
280
     0
102
RTVSPost2010PropOp33
 70
     1
102
RTVSPost2010Prop34
280
     0
102
RTVSPost2010PropOp34
 70
     1
102
RTVSPost2010Prop35
280
     0
102
RTVSPost2010PropOp35
 70
     1
102
RTVSPost2010Prop36
280
     0
102
RTVSPost2010PropOp36
 70
     1
102
RTVSPost2010Prop37
 90
       50
102
RTVSPost2010PropOp37
 70
     1
102
RTVSPost2010Prop38
140
0.0
102
RTVSPost2010PropOp38
 70
     1
102
RTVSPost2010Prop39
140
1.0
102
RTVSPost2010PropOp39
 70
     1
102
RTVSPost2010Prop40
 90
        0
102
RTVSPost2010PropOp40
 70
     1
102
RTVSPost2010Prop41ColorIndex
 90
       18
102
RTVSPost2010Prop41ColorRGB
 90
        0
102
RTVSPost2010PropOp41
 70
     1
102
RTVSPost2010Prop42
 90
       50
102
RTVSPost2010PropOp42
 70
     1
102
RTVSPost2010Prop43
 90
        3
102
RTVSPost2010PropOp43
 70
     1
102
RTVSPost2010Prop44ColorIndex
 90
        5
102
RTVSPost2010Prop44ColorRGB
 90
      255
102
RTVSPost2010PropOp44
 70
     1
102
RTVSPost2010Prop45
280
     0
102
RTVSPost2010PropOp45
 70
     1
102
RTVSPost2010Prop46
 90
       50
102
RTVSPost2010PropOp46
 70
     1
102
RTVSPost2010Prop47
 90
       50
102
RTVSPost2010PropOp47
 70
     1
102
RTVSPost2010Prop48
 90
       50
102
RTVSPost2010PropOp48
 70
     1
102
RTVSPost2010Prop49
280
     0
102
RTVSPost2010PropOp49
 70
     1
102
RTVSPost2010Prop50
 90
       50
102
RTVSPost2010PropOp50
 70
     1
102
RTVSPost2010Prop51ColorIndex
 90
      256
102
RTVSPost2010Prop51ColorRGB
 90
-16777216
102
RTVSPost2010PropOp51
 70
     0
102
RTVSPost2010Prop52
140
1.0
102
RTVSPost2010PropOp52
 70
     0
102
RTVSPost2010Prop53
 90
        2
102
RTVSPost2010PropOp53
 70
     1
102
RTVSPost2010Prop54
  1
strokes_ogs.tif
102
RTVSPost2010PropOp54
 70
     1
102
RTVSPost2010Prop55
280
     0
102
RTVSPost2010PropOp55
 70
     1
102
RTVSPost2010Prop56
140
1.0
102
RTVSPost2010PropOp56
 70
     1
102
RTVSPost2010Prop57
140
1.0
102
RTVSPost2010PropOp57
 70
     1
  0
XRECORD
  5
221D1
102
{ACAD_REACTORS
330
221D0
102
}
330
221D0
100
AcDbXrecord
280
     1
102
RTVSPost2010Prop28
280
     0
102
RTVSPost2010PropOp28
 70
     1
102
RTVSPost2010Prop29
280
     1
102
RTVSPost2010PropOp29
 70
     1
102
RTVSPost2010Prop30
280
     1
102
RTVSPost2010PropOp30
 70
     1
102
RTVSPost2010Prop31
280
     0
102
RTVSPost2010PropOp31
 70
     1
102
RTVSPost2010Prop32
280
     0
102
RTVSPost2010PropOp32
 70
     1
102
RTVSPost2010Prop33
280
     0
102
RTVSPost2010PropOp33
 70
     1
102
RTVSPost2010Prop34
280
     0
102
RTVSPost2010PropOp34
 70
     1
102
RTVSPost2010Prop35
280
     0
102
RTVSPost2010PropOp35
 70
     1
102
RTVSPost2010Prop36
280
     0
102
RTVSPost2010PropOp36
 70
     1
102
RTVSPost2010Prop37
 90
       50
102
RTVSPost2010PropOp37
 70
     1
102
RTVSPost2010Prop38
140
0.0
102
RTVSPost2010PropOp38
 70
     1
102
RTVSPost2010Prop39
140
1.0
102
RTVSPost2010PropOp39
 70
     1
102
RTVSPost2010Prop40
 90
        0
102
RTVSPost2010PropOp40
 70
     1
102
RTVSPost2010Prop41ColorIndex
 90
       18
102
RTVSPost2010Prop41ColorRGB
 90
        0
102
RTVSPost2010PropOp41
 70
     1
102
RTVSPost2010Prop42
 90
       50
102
RTVSPost2010PropOp42
 70
     1
102
RTVSPost2010Prop43
 90
        3
102
RTVSPost2010PropOp43
 70
     1
102
RTVSPost2010Prop44ColorIndex
 90
        5
102
RTVSPost2010Prop44ColorRGB
 90
      255
102
RTVSPost2010PropOp44
 70
     1
102
RTVSPost2010Prop45
280
     0
102
RTVSPost2010PropOp45
 70
     1
102
RTVSPost2010Prop46
 90
       50
102
RTVSPost2010PropOp46
 70
     1
102
RTVSPost2010Prop47
 90
       50
102
RTVSPost2010PropOp47
 70
     1
102
RTVSPost2010Prop48
 90
       50
102
RTVSPost2010PropOp48
 70
     1
102
RTVSPost2010Prop49
280
     0
102
RTVSPost2010PropOp49
 70
     1
102
RTVSPost2010Prop50
 90
       50
102
RTVSPost2010PropOp50
 70
     1
102
RTVSPost2010Prop51ColorIndex
 90
      256
102
RTVSPost2010Prop51ColorRGB
 90
-16777216
102
RTVSPost2010PropOp51
 70
     0
102
RTVSPost2010Prop52
140
1.0
102
RTVSPost2010PropOp52
 70
     0
102
RTVSPost2010Prop53
 90
        2
102
RTVSPost2010PropOp53
 70
     1
102
RTVSPost2010Prop54
  1
strokes_ogs.tif
102
RTVSPost2010PropOp54
 70
     1
102
RTVSPost2010Prop55
280
     0
102
RTVSPost2010PropOp55
 70
     1
102
RTVSPost2010Prop56
140
1.0
102
RTVSPost2010PropOp56
 70
     1
102
RTVSPost2010Prop57
140
1.0
102
RTVSPost2010PropOp57
 70
     1
  0
XRECORD
  5
221D9
102
{ACAD_REACTORS
330
221D8
102
}
330
221D8
100
AcDbXrecord
280
     1
102
RTVSPost2010Prop28
280
     0
102
RTVSPost2010PropOp28
 70
     1
102
RTVSPost2010Prop29
280
     1
102
RTVSPost2010PropOp29
 70
     1
102
RTVSPost2010Prop30
280
     1
102
RTVSPost2010PropOp30
 70
     1
102
RTVSPost2010Prop31
280
     0
102
RTVSPost2010PropOp31
 70
     1
102
RTVSPost2010Prop32
280
     0
102
RTVSPost2010PropOp32
 70
     1
102
RTVSPost2010Prop33
280
     0
102
RTVSPost2010PropOp33
 70
     1
102
RTVSPost2010Prop34
280
     0
102
RTVSPost2010PropOp34
 70
     1
102
RTVSPost2010Prop35
280
     0
102
RTVSPost2010PropOp35
 70
     1
102
RTVSPost2010Prop36
280
     0
102
RTVSPost2010PropOp36
 70
     1
102
RTVSPost2010Prop37
 90
       50
102
RTVSPost2010PropOp37
 70
     1
102
RTVSPost2010Prop38
140
0.0
102
RTVSPost2010PropOp38
 70
     1
102
RTVSPost2010Prop39
140
1.0
102
RTVSPost2010PropOp39
 70
     1
102
RTVSPost2010Prop40
 90
        0
102
RTVSPost2010PropOp40
 70
     1
102
RTVSPost2010Prop41ColorIndex
 90
       18
102
RTVSPost2010Prop41ColorRGB
 90
        0
102
RTVSPost2010PropOp41
 70
     1
102
RTVSPost2010Prop42
 90
       50
102
RTVSPost2010PropOp42
 70
     1
102
RTVSPost2010Prop43
 90
        3
102
RTVSPost2010PropOp43
 70
     1
102
RTVSPost2010Prop44ColorIndex
 90
        5
102
RTVSPost2010Prop44ColorRGB
 90
      255
102
RTVSPost2010PropOp44
 70
     1
102
RTVSPost2010Prop45
280
     0
102
RTVSPost2010PropOp45
 70
     1
102
RTVSPost2010Prop46
 90
       50
102
RTVSPost2010PropOp46
 70
     1
102
RTVSPost2010Prop47
 90
       50
102
RTVSPost2010PropOp47
 70
     1
102
RTVSPost2010Prop48
 90
       50
102
RTVSPost2010PropOp48
 70
     1
102
RTVSPost2010Prop49
280
     0
102
RTVSPost2010PropOp49
 70
     1
102
RTVSPost2010Prop50
 90
       50
102
RTVSPost2010PropOp50
 70
     1
102
RTVSPost2010Prop51ColorIndex
 90
      256
102
RTVSPost2010Prop51ColorRGB
 90
-16777216
102
RTVSPost2010PropOp51
 70
     0
102
RTVSPost2010Prop52
140
1.0
102
RTVSPost2010PropOp52
 70
     0
102
RTVSPost2010Prop53
 90
        2
102
RTVSPost2010PropOp53
 70
     1
102
RTVSPost2010Prop54
  1
strokes_ogs.tif
102
RTVSPost2010PropOp54
 70
     1
102
RTVSPost2010Prop55
280
     0
102
RTVSPost2010PropOp55
 70
     1
102
RTVSPost2010Prop56
140
1.0
102
RTVSPost2010PropOp56
 70
     1
102
RTVSPost2010Prop57
140
1.0
102
RTVSPost2010PropOp57
 70
     1
  0
XRECORD
  5
221CB
102
{ACAD_REACTORS
330
221CA
102
}
330
221CA
100
AcDbXrecord
280
     1
102
RTVSPost2010Prop28
280
     0
102
RTVSPost2010PropOp28
 70
     1
102
RTVSPost2010Prop29
280
     1
102
RTVSPost2010PropOp29
 70
     1
102
RTVSPost2010Prop30
280
     1
102
RTVSPost2010PropOp30
 70
     1
102
RTVSPost2010Prop31
280
     0
102
RTVSPost2010PropOp31
 70
     1
102
RTVSPost2010Prop32
280
     0
102
RTVSPost2010PropOp32
 70
     1
102
RTVSPost2010Prop33
280
     0
102
RTVSPost2010PropOp33
 70
     1
102
RTVSPost2010Prop34
280
     0
102
RTVSPost2010PropOp34
 70
     1
102
RTVSPost2010Prop35
280
     0
102
RTVSPost2010PropOp35
 70
     1
102
RTVSPost2010Prop36
280
     0
102
RTVSPost2010PropOp36
 70
     1
102
RTVSPost2010Prop37
 90
       50
102
RTVSPost2010PropOp37
 70
     1
102
RTVSPost2010Prop38
140
0.0
102
RTVSPost2010PropOp38
 70
     1
102
RTVSPost2010Prop39
140
1.0
102
RTVSPost2010PropOp39
 70
     1
102
RTVSPost2010Prop40
 90
        0
102
RTVSPost2010PropOp40
 70
     1
102
RTVSPost2010Prop41ColorIndex
 90
       18
102
RTVSPost2010Prop41ColorRGB
 90
        0
102
RTVSPost2010PropOp41
 70
     1
102
RTVSPost2010Prop42
 90
       50
102
RTVSPost2010PropOp42
 70
     1
102
RTVSPost2010Prop43
 90
        3
102
RTVSPost2010PropOp43
 70
     1
102
RTVSPost2010Prop44ColorIndex
 90
        5
102
RTVSPost2010Prop44ColorRGB
 90
      255
102
RTVSPost2010PropOp44
 70
     1
102
RTVSPost2010Prop45
280
     0
102
RTVSPost2010PropOp45
 70
     1
102
RTVSPost2010Prop46
 90
       50
102
RTVSPost2010PropOp46
 70
     1
102
RTVSPost2010Prop47
 90
       50
102
RTVSPost2010PropOp47
 70
     1
102
RTVSPost2010Prop48
 90
       50
102
RTVSPost2010PropOp48
 70
     1
102
RTVSPost2010Prop49
280
     0
102
RTVSPost2010PropOp49
 70
     1
102
RTVSPost2010Prop50
 90
       50
102
RTVSPost2010PropOp50
 70
     1
102
RTVSPost2010Prop51ColorIndex
 90
      256
102
RTVSPost2010Prop51ColorRGB
 90
-16777216
102
RTVSPost2010PropOp51
 70
     0
102
RTVSPost2010Prop52
140
1.0
102
RTVSPost2010PropOp52
 70
     0
102
RTVSPost2010Prop53
 90
        2
102
RTVSPost2010PropOp53
 70
     1
102
RTVSPost2010Prop54
  1
strokes_ogs.tif
102
RTVSPost2010PropOp54
 70
     1
102
RTVSPost2010Prop55
280
     0
102
RTVSPost2010PropOp55
 70
     1
102
RTVSPost2010Prop56
140
1.0
102
RTVSPost2010PropOp56
 70
     1
102
RTVSPost2010Prop57
140
1.0
102
RTVSPost2010PropOp57
 70
     1
  0
XRECORD
  5
221CF
102
{ACAD_REACTORS
330
221CE
102
}
330
221CE
100
AcDbXrecord
280
     1
102
RTVSPost2010Prop28
280
     0
102
RTVSPost2010PropOp28
 70
     1
102
RTVSPost2010Prop29
280
     1
102
RTVSPost2010PropOp29
 70
     1
102
RTVSPost2010Prop30
280
     1
102
RTVSPost2010PropOp30
 70
     1
102
RTVSPost2010Prop31
280
     0
102
RTVSPost2010PropOp31
 70
     1
102
RTVSPost2010Prop32
280
     0
102
RTVSPost2010PropOp32
 70
     1
102
RTVSPost2010Prop33
280
     0
102
RTVSPost2010PropOp33
 70
     1
102
RTVSPost2010Prop34
280
     0
102
RTVSPost2010PropOp34
 70
     1
102
RTVSPost2010Prop35
280
     0
102
RTVSPost2010PropOp35
 70
     1
102
RTVSPost2010Prop36
280
     0
102
RTVSPost2010PropOp36
 70
     1
102
RTVSPost2010Prop37
 90
       50
102
RTVSPost2010PropOp37
 70
     1
102
RTVSPost2010Prop38
140
0.0
102
RTVSPost2010PropOp38
 70
     1
102
RTVSPost2010Prop39
140
1.0
102
RTVSPost2010PropOp39
 70
     1
102
RTVSPost2010Prop40
 90
        0
102
RTVSPost2010PropOp40
 70
     1
102
RTVSPost2010Prop41ColorIndex
 90
       18
102
RTVSPost2010Prop41ColorRGB
 90
        0
102
RTVSPost2010PropOp41
 70
     1
102
RTVSPost2010Prop42
 90
       50
102
RTVSPost2010PropOp42
 70
     1
102
RTVSPost2010Prop43
 90
        3
102
RTVSPost2010PropOp43
 70
     1
102
RTVSPost2010Prop44ColorIndex
 90
        5
102
RTVSPost2010Prop44ColorRGB
 90
      255
102
RTVSPost2010PropOp44
 70
     1
102
RTVSPost2010Prop45
280
     0
102
RTVSPost2010PropOp45
 70
     1
102
RTVSPost2010Prop46
 90
       50
102
RTVSPost2010PropOp46
 70
     1
102
RTVSPost2010Prop47
 90
       50
102
RTVSPost2010PropOp47
 70
     1
102
RTVSPost2010Prop48
 90
       50
102
RTVSPost2010PropOp48
 70
     1
102
RTVSPost2010Prop49
280
     0
102
RTVSPost2010PropOp49
 70
     1
102
RTVSPost2010Prop50
 90
       50
102
RTVSPost2010PropOp50
 70
     1
102
RTVSPost2010Prop51ColorIndex
 90
      256
102
RTVSPost2010Prop51ColorRGB
 90
-16777216
102
RTVSPost2010PropOp51
 70
     0
102
RTVSPost2010Prop52
140
1.0
102
RTVSPost2010PropOp52
 70
     0
102
RTVSPost2010Prop53
 90
        2
102
RTVSPost2010PropOp53
 70
     1
102
RTVSPost2010Prop54
  1
strokes_ogs.tif
102
RTVSPost2010PropOp54
 70
     1
102
RTVSPost2010Prop55
280
     0
102
RTVSPost2010PropOp55
 70
     1
102
RTVSPost2010Prop56
140
1.0
102
RTVSPost2010PropOp56
 70
     1
102
RTVSPost2010Prop57
140
1.0
102
RTVSPost2010PropOp57
 70
     1
  0
XRECORD
  5
221ED
102
{ACAD_REACTORS
330
221EC
102
}
330
221EC
100
AcDbXrecord
280
     1
102
RTVSPost2010Prop28
280
     0
102
RTVSPost2010PropOp28
 70
     1
102
RTVSPost2010Prop29
280
     1
102
RTVSPost2010PropOp29
 70
     1
102
RTVSPost2010Prop30
280
     1
102
RTVSPost2010PropOp30
 70
     1
102
RTVSPost2010Prop31
280
     0
102
RTVSPost2010PropOp31
 70
     1
102
RTVSPost2010Prop32
280
     0
102
RTVSPost2010PropOp32
 70
     1
102
RTVSPost2010Prop33
280
     0
102
RTVSPost2010PropOp33
 70
     1
102
RTVSPost2010Prop34
280
     0
102
RTVSPost2010PropOp34
 70
     1
102
RTVSPost2010Prop35
280
     0
102
RTVSPost2010PropOp35
 70
     1
102
RTVSPost2010Prop36
280
     0
102
RTVSPost2010PropOp36
 70
     1
102
RTVSPost2010Prop37
 90
       50
102
RTVSPost2010PropOp37
 70
     0
102
RTVSPost2010Prop38
140
0.0
102
RTVSPost2010PropOp38
 70
     0
102
RTVSPost2010Prop39
140
1.0
102
RTVSPost2010PropOp39
 70
     0
102
RTVSPost2010Prop40
 90
        0
102
RTVSPost2010PropOp40
 70
     0
102
RTVSPost2010Prop41ColorIndex
 90
       18
102
RTVSPost2010Prop41ColorRGB
 90
        0
102
RTVSPost2010PropOp41
 70
     0
102
RTVSPost2010Prop42
 90
       50
102
RTVSPost2010PropOp42
 70
     0
102
RTVSPost2010Prop43
 90
        3
102
RTVSPost2010PropOp43
 70
     0
102
RTVSPost2010Prop44ColorIndex
 90
        5
102
RTVSPost2010Prop44ColorRGB
 90
      255
102
RTVSPost2010PropOp44
 70
     0
102
RTVSPost2010Prop45
280
     0
102
RTVSPost2010PropOp45
 70
     1
102
RTVSPost2010Prop46
 90
       50
102
RTVSPost2010PropOp46
 70
     0
102
RTVSPost2010Prop47
 90
       50
102
RTVSPost2010PropOp47
 70
     0
102
RTVSPost2010Prop48
 90
       50
102
RTVSPost2010PropOp48
 70
     0
102
RTVSPost2010Prop49
280
     0
102
RTVSPost2010PropOp49
 70
     1
102
RTVSPost2010Prop50
 90
       50
102
RTVSPost2010PropOp50
 70
     0
102
RTVSPost2010Prop51ColorIndex
 90
      256
102
RTVSPost2010Prop51ColorRGB
 90
-16777216
102
RTVSPost2010PropOp51
 70
     0
102
RTVSPost2010Prop52
140
1.0
102
RTVSPost2010PropOp52
 70
     0
102
RTVSPost2010Prop53
 90
        2
102
RTVSPost2010PropOp53
 70
     0
102
RTVSPost2010Prop54
  1
strokes_ogs.tif
102
RTVSPost2010PropOp54
 70
     0
102
RTVSPost2010Prop55
280
     0
102
RTVSPost2010PropOp55
 70
     1
102
RTVSPost2010Prop56
140
1.0
102
RTVSPost2010PropOp56
 70
     0
102
RTVSPost2010Prop57
140
1.0
102
RTVSPost2010PropOp57
 70
     0
  0
XRECORD
  5
221D7
102
{ACAD_REACTORS
330
221D6
102
}
330
221D6
100
AcDbXrecord
280
     1
102
RTVSPost2010Prop28
280
     0
102
RTVSPost2010PropOp28
 70
     1
102
RTVSPost2010Prop29
280
     1
102
RTVSPost2010PropOp29
 70
     1
102
RTVSPost2010Prop30
280
     1
102
RTVSPost2010PropOp30
 70
     1
102
RTVSPost2010Prop31
280
     0
102
RTVSPost2010PropOp31
 70
     1
102
RTVSPost2010Prop32
280
     0
102
RTVSPost2010PropOp32
 70
     1
102
RTVSPost2010Prop33
280
     0
102
RTVSPost2010PropOp33
 70
     1
102
RTVSPost2010Prop34
280
     0
102
RTVSPost2010PropOp34
 70
     1
102
RTVSPost2010Prop35
280
     0
102
RTVSPost2010PropOp35
 70
     1
102
RTVSPost2010Prop36
280
     0
102
RTVSPost2010PropOp36
 70
     1
102
RTVSPost2010Prop37
 90
       50
102
RTVSPost2010PropOp37
 70
     1
102
RTVSPost2010Prop38
140
0.0
102
RTVSPost2010PropOp38
 70
     1
102
RTVSPost2010Prop39
140
1.0
102
RTVSPost2010PropOp39
 70
     1
102
RTVSPost2010Prop40
 90
        0
102
RTVSPost2010PropOp40
 70
     1
102
RTVSPost2010Prop41ColorIndex
 90
       18
102
RTVSPost2010Prop41ColorRGB
 90
        0
102
RTVSPost2010PropOp41
 70
     1
102
RTVSPost2010Prop42
 90
       50
102
RTVSPost2010PropOp42
 70
     1
102
RTVSPost2010Prop43
 90
        3
102
RTVSPost2010PropOp43
 70
     1
102
RTVSPost2010Prop44ColorIndex
 90
        5
102
RTVSPost2010Prop44ColorRGB
 90
      255
102
RTVSPost2010PropOp44
 70
     1
102
RTVSPost2010Prop45
280
     0
102
RTVSPost2010PropOp45
 70
     1
102
RTVSPost2010Prop46
 90
       50
102
RTVSPost2010PropOp46
 70
     1
102
RTVSPost2010Prop47
 90
       50
102
RTVSPost2010PropOp47
 70
     1
102
RTVSPost2010Prop48
 90
       50
102
RTVSPost2010PropOp48
 70
     1
102
RTVSPost2010Prop49
280
     0
102
RTVSPost2010PropOp49
 70
     1
102
RTVSPost2010Prop50
 90
       50
102
RTVSPost2010PropOp50
 70
     1
102
RTVSPost2010Prop51ColorIndex
 90
      256
102
RTVSPost2010Prop51ColorRGB
 90
-16777216
102
RTVSPost2010PropOp51
 70
     0
102
RTVSPost2010Prop52
140
1.0
102
RTVSPost2010PropOp52
 70
     0
102
RTVSPost2010Prop53
 90
        2
102
RTVSPost2010PropOp53
 70
     1
102
RTVSPost2010Prop54
  1
strokes_ogs.tif
102
RTVSPost2010PropOp54
 70
     1
102
RTVSPost2010Prop55
280
     0
102
RTVSPost2010PropOp55
 70
     1
102
RTVSPost2010Prop56
140
1.0
102
RTVSPost2010PropOp56
 70
     1
102
RTVSPost2010Prop57
140
1.0
102
RTVSPost2010PropOp57
 70
     1
  0
XRECORD
  5
221BB
102
{ACAD_REACTORS
330
221BA
102
}
330
221BA
100
AcDbXrecord
280
     1
102
RTVSPost2010Prop28
280
     0
102
RTVSPost2010PropOp28
 70
     1
102
RTVSPost2010Prop29
280
     1
102
RTVSPost2010PropOp29
 70
     1
102
RTVSPost2010Prop30
280
     1
102
RTVSPost2010PropOp30
 70
     1
102
RTVSPost2010Prop31
280
     0
102
RTVSPost2010PropOp31
 70
     1
102
RTVSPost2010Prop32
280
     0
102
RTVSPost2010PropOp32
 70
     1
102
RTVSPost2010Prop33
280
     0
102
RTVSPost2010PropOp33
 70
     1
102
RTVSPost2010Prop34
280
     0
102
RTVSPost2010PropOp34
 70
     1
102
RTVSPost2010Prop35
280
     0
102
RTVSPost2010PropOp35
 70
     1
102
RTVSPost2010Prop36
280
     0
102
RTVSPost2010PropOp36
 70
     1
102
RTVSPost2010Prop37
 90
       50
102
RTVSPost2010PropOp37
 70
     1
102
RTVSPost2010Prop38
140
0.0
102
RTVSPost2010PropOp38
 70
     1
102
RTVSPost2010Prop39
140
1.0
102
RTVSPost2010PropOp39
 70
     1
102
RTVSPost2010Prop40
 90
        0
102
RTVSPost2010PropOp40
 70
     1
102
RTVSPost2010Prop41ColorIndex
 90
       18
102
RTVSPost2010Prop41ColorRGB
 90
        0
102
RTVSPost2010PropOp41
 70
     1
102
RTVSPost2010Prop42
 90
       50
102
RTVSPost2010PropOp42
 70
     1
102
RTVSPost2010Prop43
 90
        3
102
RTVSPost2010PropOp43
 70
     1
102
RTVSPost2010Prop44ColorIndex
 90
        5
102
RTVSPost2010Prop44ColorRGB
 90
      255
102
RTVSPost2010PropOp44
 70
     1
102
RTVSPost2010Prop45
280
     0
102
RTVSPost2010PropOp45
 70
     1
102
RTVSPost2010Prop46
 90
       50
102
RTVSPost2010PropOp46
 70
     1
102
RTVSPost2010Prop47
 90
       50
102
RTVSPost2010PropOp47
 70
     1
102
RTVSPost2010Prop48
 90
       50
102
RTVSPost2010PropOp48
 70
     1
102
RTVSPost2010Prop49
280
     0
102
RTVSPost2010PropOp49
 70
     1
102
RTVSPost2010Prop50
 90
       50
102
RTVSPost2010PropOp50
 70
     1
102
RTVSPost2010Prop51ColorIndex
 90
      256
102
RTVSPost2010Prop51ColorRGB
 90
-16777216
102
RTVSPost2010PropOp51
 70
     0
102
RTVSPost2010Prop52
140
1.0
102
RTVSPost2010PropOp52
 70
     0
102
RTVSPost2010Prop53
 90
        2
102
RTVSPost2010PropOp53
 70
     1
102
RTVSPost2010Prop54
  1
strokes_ogs.tif
102
RTVSPost2010PropOp54
 70
     1
102
RTVSPost2010Prop55
280
     0
102
RTVSPost2010PropOp55
 70
     1
102
RTVSPost2010Prop56
140
1.0
102
RTVSPost2010PropOp56
 70
     1
102
RTVSPost2010Prop57
140
1.0
102
RTVSPost2010PropOp57
 70
     1
  0
XRECORD
  5
221BD
102
{ACAD_REACTORS
330
221BC
102
}
330
221BC
100
AcDbXrecord
280
     1
102
RTVSPost2010Prop28
280
     0
102
RTVSPost2010PropOp28
 70
     1
102
RTVSPost2010Prop29
280
     1
102
RTVSPost2010PropOp29
 70
     1
102
RTVSPost2010Prop30
280
     1
102
RTVSPost2010PropOp30
 70
     1
102
RTVSPost2010Prop31
280
     0
102
RTVSPost2010PropOp31
 70
     1
102
RTVSPost2010Prop32
280
     0
102
RTVSPost2010PropOp32
 70
     1
102
RTVSPost2010Prop33
280
     0
102
RTVSPost2010PropOp33
 70
     1
102
RTVSPost2010Prop34
280
     0
102
RTVSPost2010PropOp34
 70
     1
102
RTVSPost2010Prop35
280
     0
102
RTVSPost2010PropOp35
 70
     1
102
RTVSPost2010Prop36
280
     0
102
RTVSPost2010PropOp36
 70
     1
102
RTVSPost2010Prop37
 90
       50
102
RTVSPost2010PropOp37
 70
     1
102
RTVSPost2010Prop38
140
0.0
102
RTVSPost2010PropOp38
 70
     1
102
RTVSPost2010Prop39
140
1.0
102
RTVSPost2010PropOp39
 70
     1
102
RTVSPost2010Prop40
 90
        0
102
RTVSPost2010PropOp40
 70
     1
102
RTVSPost2010Prop41ColorIndex
 90
       18
102
RTVSPost2010Prop41ColorRGB
 90
        0
102
RTVSPost2010PropOp41
 70
     1
102
RTVSPost2010Prop42
 90
       50
102
RTVSPost2010PropOp42
 70
     1
102
RTVSPost2010Prop43
 90
        3
102
RTVSPost2010PropOp43
 70
     1
102
RTVSPost2010Prop44ColorIndex
 90
        5
102
RTVSPost2010Prop44ColorRGB
 90
      255
102
RTVSPost2010PropOp44
 70
     1
102
RTVSPost2010Prop45
280
     0
102
RTVSPost2010PropOp45
 70
     1
102
RTVSPost2010Prop46
 90
       50
102
RTVSPost2010PropOp46
 70
     1
102
RTVSPost2010Prop47
 90
       50
102
RTVSPost2010PropOp47
 70
     1
102
RTVSPost2010Prop48
 90
       50
102
RTVSPost2010PropOp48
 70
     1
102
RTVSPost2010Prop49
280
     0
102
RTVSPost2010PropOp49
 70
     1
102
RTVSPost2010Prop50
 90
       50
102
RTVSPost2010PropOp50
 70
     1
102
RTVSPost2010Prop51ColorIndex
 90
      256
102
RTVSPost2010Prop51ColorRGB
 90
-16777216
102
RTVSPost2010PropOp51
 70
     0
102
RTVSPost2010Prop52
140
1.0
102
RTVSPost2010PropOp52
 70
     0
102
RTVSPost2010Prop53
 90
        2
102
RTVSPost2010PropOp53
 70
     1
102
RTVSPost2010Prop54
  1
strokes_ogs.tif
102
RTVSPost2010PropOp54
 70
     1
102
RTVSPost2010Prop55
280
     0
102
RTVSPost2010PropOp55
 70
     1
102
RTVSPost2010Prop56
140
1.0
102
RTVSPost2010PropOp56
 70
     1
102
RTVSPost2010Prop57
140
1.0
102
RTVSPost2010PropOp57
 70
     1
  0
XRECORD
  5
221BF
102
{ACAD_REACTORS
330
221BE
102
}
330
221BE
100
AcDbXrecord
280
     1
102
RTVSPost2010Prop28
280
     0
102
RTVSPost2010PropOp28
 70
     1
102
RTVSPost2010Prop29
280
     1
102
RTVSPost2010PropOp29
 70
     1
102
RTVSPost2010Prop30
280
     1
102
RTVSPost2010PropOp30
 70
     1
102
RTVSPost2010Prop31
280
     0
102
RTVSPost2010PropOp31
 70
     1
102
RTVSPost2010Prop32
280
     0
102
RTVSPost2010PropOp32
 70
     1
102
RTVSPost2010Prop33
280
     0
102
RTVSPost2010PropOp33
 70
     1
102
RTVSPost2010Prop34
280
     0
102
RTVSPost2010PropOp34
 70
     1
102
RTVSPost2010Prop35
280
     0
102
RTVSPost2010PropOp35
 70
     1
102
RTVSPost2010Prop36
280
     0
102
RTVSPost2010PropOp36
 70
     1
102
RTVSPost2010Prop37
 90
       50
102
RTVSPost2010PropOp37
 70
     1
102
RTVSPost2010Prop38
140
0.0
102
RTVSPost2010PropOp38
 70
     1
102
RTVSPost2010Prop39
140
1.0
102
RTVSPost2010PropOp39
 70
     1
102
RTVSPost2010Prop40
 90
        0
102
RTVSPost2010PropOp40
 70
     1
102
RTVSPost2010Prop41ColorIndex
 90
       18
102
RTVSPost2010Prop41ColorRGB
 90
        0
102
RTVSPost2010PropOp41
 70
     1
102
RTVSPost2010Prop42
 90
       50
102
RTVSPost2010PropOp42
 70
     1
102
RTVSPost2010Prop43
 90
        3
102
RTVSPost2010PropOp43
 70
     1
102
RTVSPost2010Prop44ColorIndex
 90
        5
102
RTVSPost2010Prop44ColorRGB
 90
      255
102
RTVSPost2010PropOp44
 70
     1
102
RTVSPost2010Prop45
280
     0
102
RTVSPost2010PropOp45
 70
     1
102
RTVSPost2010Prop46
 90
       50
102
RTVSPost2010PropOp46
 70
     1
102
RTVSPost2010Prop47
 90
       50
102
RTVSPost2010PropOp47
 70
     1
102
RTVSPost2010Prop48
 90
       50
102
RTVSPost2010PropOp48
 70
     1
102
RTVSPost2010Prop49
280
     0
102
RTVSPost2010PropOp49
 70
     1
102
RTVSPost2010Prop50
 90
       50
102
RTVSPost2010PropOp50
 70
     1
102
RTVSPost2010Prop51ColorIndex
 90
      256
102
RTVSPost2010Prop51ColorRGB
 90
-16777216
102
RTVSPost2010PropOp51
 70
     0
102
RTVSPost2010Prop52
140
1.0
102
RTVSPost2010PropOp52
 70
     0
102
RTVSPost2010Prop53
 90
        2
102
RTVSPost2010PropOp53
 70
     1
102
RTVSPost2010Prop54
  1
strokes_ogs.tif
102
RTVSPost2010PropOp54
 70
     1
102
RTVSPost2010Prop55
280
     0
102
RTVSPost2010PropOp55
 70
     1
102
RTVSPost2010Prop56
140
1.0
102
RTVSPost2010PropOp56
 70
     1
102
RTVSPost2010Prop57
140
1.0
102
RTVSPost2010PropOp57
 70
     1
  0
XRECORD
  5
221C1
102
{ACAD_REACTORS
330
221C0
102
}
330
221C0
100
AcDbXrecord
280
     1
102
RTVSPost2010Prop28
280
     0
102
RTVSPost2010PropOp28
 70
     1
102
RTVSPost2010Prop29
280
     1
102
RTVSPost2010PropOp29
 70
     1
102
RTVSPost2010Prop30
280
     1
102
RTVSPost2010PropOp30
 70
     1
102
RTVSPost2010Prop31
280
     0
102
RTVSPost2010PropOp31
 70
     1
102
RTVSPost2010Prop32
280
     0
102
RTVSPost2010PropOp32
 70
     1
102
RTVSPost2010Prop33
280
     0
102
RTVSPost2010PropOp33
 70
     1
102
RTVSPost2010Prop34
280
     0
102
RTVSPost2010PropOp34
 70
     1
102
RTVSPost2010Prop35
280
     0
102
RTVSPost2010PropOp35
 70
     1
102
RTVSPost2010Prop36
280
     0
102
RTVSPost2010PropOp36
 70
     1
102
RTVSPost2010Prop37
 90
       50
102
RTVSPost2010PropOp37
 70
     1
102
RTVSPost2010Prop38
140
0.0
102
RTVSPost2010PropOp38
 70
     1
102
RTVSPost2010Prop39
140
1.0
102
RTVSPost2010PropOp39
 70
     1
102
RTVSPost2010Prop40
 90
        0
102
RTVSPost2010PropOp40
 70
     1
102
RTVSPost2010Prop41ColorIndex
 90
       18
102
RTVSPost2010Prop41ColorRGB
 90
        0
102
RTVSPost2010PropOp41
 70
     1
102
RTVSPost2010Prop42
 90
       50
102
RTVSPost2010PropOp42
 70
     1
102
RTVSPost2010Prop43
 90
        3
102
RTVSPost2010PropOp43
 70
     1
102
RTVSPost2010Prop44ColorIndex
 90
        5
102
RTVSPost2010Prop44ColorRGB
 90
      255
102
RTVSPost2010PropOp44
 70
     1
102
RTVSPost2010Prop45
280
     0
102
RTVSPost2010PropOp45
 70
     1
102
RTVSPost2010Prop46
 90
       50
102
RTVSPost2010PropOp46
 70
     1
102
RTVSPost2010Prop47
 90
       50
102
RTVSPost2010PropOp47
 70
     1
102
RTVSPost2010Prop48
 90
       50
102
RTVSPost2010PropOp48
 70
     1
102
RTVSPost2010Prop49
280
     0
102
RTVSPost2010PropOp49
 70
     1
102
RTVSPost2010Prop50
 90
       50
102
RTVSPost2010PropOp50
 70
     1
102
RTVSPost2010Prop51ColorIndex
 90
      256
102
RTVSPost2010Prop51ColorRGB
 90
-16777216
102
RTVSPost2010PropOp51
 70
     0
102
RTVSPost2010Prop52
140
1.0
102
RTVSPost2010PropOp52
 70
     0
102
RTVSPost2010Prop53
 90
        2
102
RTVSPost2010PropOp53
 70
     1
102
RTVSPost2010Prop54
  1
strokes_ogs.tif
102
RTVSPost2010PropOp54
 70
     1
102
RTVSPost2010Prop55
280
     0
102
RTVSPost2010PropOp55
 70
     1
102
RTVSPost2010Prop56
140
1.0
102
RTVSPost2010PropOp56
 70
     1
102
RTVSPost2010Prop57
140
1.0
102
RTVSPost2010PropOp57
 70
     1
  0
XRECORD
  5
221DD
102
{ACAD_REACTORS
330
221DC
102
}
330
221DC
100
AcDbXrecord
280
     1
102
RTVSPost2010Prop28
280
     0
102
RTVSPost2010PropOp28
 70
     1
102
RTVSPost2010Prop29
280
     1
102
RTVSPost2010PropOp29
 70
     1
102
RTVSPost2010Prop30
280
     1
102
RTVSPost2010PropOp30
 70
     1
102
RTVSPost2010Prop31
280
     0
102
RTVSPost2010PropOp31
 70
     1
102
RTVSPost2010Prop32
280
     0
102
RTVSPost2010PropOp32
 70
     1
102
RTVSPost2010Prop33
280
     0
102
RTVSPost2010PropOp33
 70
     1
102
RTVSPost2010Prop34
280
     0
102
RTVSPost2010PropOp34
 70
     1
102
RTVSPost2010Prop35
280
     0
102
RTVSPost2010PropOp35
 70
     1
102
RTVSPost2010Prop36
280
     0
102
RTVSPost2010PropOp36
 70
     1
102
RTVSPost2010Prop37
 90
       50
102
RTVSPost2010PropOp37
 70
     1
102
RTVSPost2010Prop38
140
0.0
102
RTVSPost2010PropOp38
 70
     1
102
RTVSPost2010Prop39
140
1.0
102
RTVSPost2010PropOp39
 70
     1
102
RTVSPost2010Prop40
 90
        0
102
RTVSPost2010PropOp40
 70
     1
102
RTVSPost2010Prop41ColorIndex
 90
       18
102
RTVSPost2010Prop41ColorRGB
 90
        0
102
RTVSPost2010PropOp41
 70
     1
102
RTVSPost2010Prop42
 90
       50
102
RTVSPost2010PropOp42
 70
     1
102
RTVSPost2010Prop43
 90
        3
102
RTVSPost2010PropOp43
 70
     1
102
RTVSPost2010Prop44ColorIndex
 90
        5
102
RTVSPost2010Prop44ColorRGB
 90
      255
102
RTVSPost2010PropOp44
 70
     1
102
RTVSPost2010Prop45
280
     0
102
RTVSPost2010PropOp45
 70
     1
102
RTVSPost2010Prop46
 90
       50
102
RTVSPost2010PropOp46
 70
     1
102
RTVSPost2010Prop47
 90
       50
102
RTVSPost2010PropOp47
 70
     1
102
RTVSPost2010Prop48
 90
       50
102
RTVSPost2010PropOp48
 70
     1
102
RTVSPost2010Prop49
280
     0
102
RTVSPost2010PropOp49
 70
     1
102
RTVSPost2010Prop50
 90
       50
102
RTVSPost2010PropOp50
 70
     1
102
RTVSPost2010Prop51ColorIndex
 90
      256
102
RTVSPost2010Prop51ColorRGB
 90
-16777216
102
RTVSPost2010PropOp51
 70
     0
102
RTVSPost2010Prop52
140
1.0
102
RTVSPost2010PropOp52
 70
     0
102
RTVSPost2010Prop53
 90
        2
102
RTVSPost2010PropOp53
 70
     1
102
RTVSPost2010Prop54
  1
strokes_ogs.tif
102
RTVSPost2010PropOp54
 70
     1
102
RTVSPost2010Prop55
280
     0
102
RTVSPost2010PropOp55
 70
     1
102
RTVSPost2010Prop56
140
1.0
102
RTVSPost2010PropOp56
 70
     1
102
RTVSPost2010Prop57
140
1.0
102
RTVSPost2010PropOp57
 70
     1
  0
XRECORD
  5
221E9
102
{ACAD_REACTORS
330
221E8
102
}
330
221E8
100
AcDbXrecord
280
     1
102
RTVSPost2010Prop28
280
     0
102
RTVSPost2010PropOp28
 70
     1
102
RTVSPost2010Prop29
280
     1
102
RTVSPost2010PropOp29
 70
     1
102
RTVSPost2010Prop30
280
     1
102
RTVSPost2010PropOp30
 70
     1
102
RTVSPost2010Prop31
280
     0
102
RTVSPost2010PropOp31
 70
     1
102
RTVSPost2010Prop32
280
     0
102
RTVSPost2010PropOp32
 70
     1
102
RTVSPost2010Prop33
280
     0
102
RTVSPost2010PropOp33
 70
     1
102
RTVSPost2010Prop34
280
     0
102
RTVSPost2010PropOp34
 70
     1
102
RTVSPost2010Prop35
280
     0
102
RTVSPost2010PropOp35
 70
     1
102
RTVSPost2010Prop36
280
     0
102
RTVSPost2010PropOp36
 70
     1
102
RTVSPost2010Prop37
 90
       50
102
RTVSPost2010PropOp37
 70
     0
102
RTVSPost2010Prop38
140
0.0
102
RTVSPost2010PropOp38
 70
     0
102
RTVSPost2010Prop39
140
1.0
102
RTVSPost2010PropOp39
 70
     0
102
RTVSPost2010Prop40
 90
        0
102
RTVSPost2010PropOp40
 70
     0
102
RTVSPost2010Prop41ColorIndex
 90
       18
102
RTVSPost2010Prop41ColorRGB
 90
        0
102
RTVSPost2010PropOp41
 70
     0
102
RTVSPost2010Prop42
 90
       50
102
RTVSPost2010PropOp42
 70
     0
102
RTVSPost2010Prop43
 90
        3
102
RTVSPost2010PropOp43
 70
     0
102
RTVSPost2010Prop44ColorIndex
 90
        5
102
RTVSPost2010Prop44ColorRGB
 90
      255
102
RTVSPost2010PropOp44
 70
     0
102
RTVSPost2010Prop45
280
     0
102
RTVSPost2010PropOp45
 70
     1
102
RTVSPost2010Prop46
 90
       50
102
RTVSPost2010PropOp46
 70
     0
102
RTVSPost2010Prop47
 90
       50
102
RTVSPost2010PropOp47
 70
     0
102
RTVSPost2010Prop48
 90
       50
102
RTVSPost2010PropOp48
 70
     0
102
RTVSPost2010Prop49
280
     0
102
RTVSPost2010PropOp49
 70
     1
102
RTVSPost2010Prop50
 90
       50
102
RTVSPost2010PropOp50
 70
     0
102
RTVSPost2010Prop51ColorIndex
 90
      256
102
RTVSPost2010Prop51ColorRGB
 90
-16777216
102
RTVSPost2010PropOp51
 70
     0
102
RTVSPost2010Prop52
140
1.0
102
RTVSPost2010PropOp52
 70
     0
102
RTVSPost2010Prop53
 90
        2
102
RTVSPost2010PropOp53
 70
     0
102
RTVSPost2010Prop54
  1
strokes_ogs.tif
102
RTVSPost2010PropOp54
 70
     0
102
RTVSPost2010Prop55
280
     0
102
RTVSPost2010PropOp55
 70
     1
102
RTVSPost2010Prop56
140
1.0
102
RTVSPost2010PropOp56
 70
     0
102
RTVSPost2010Prop57
140
1.0
102
RTVSPost2010PropOp57
 70
     0
  0
XRECORD
  5
221D5
102
{ACAD_REACTORS
330
221D4
102
}
330
221D4
100
AcDbXrecord
280
     1
102
RTVSPost2010Prop28
280
     0
102
RTVSPost2010PropOp28
 70
     1
102
RTVSPost2010Prop29
280
     1
102
RTVSPost2010PropOp29
 70
     1
102
RTVSPost2010Prop30
280
     1
102
RTVSPost2010PropOp30
 70
     1
102
RTVSPost2010Prop31
280
     0
102
RTVSPost2010PropOp31
 70
     1
102
RTVSPost2010Prop32
280
     0
102
RTVSPost2010PropOp32
 70
     1
102
RTVSPost2010Prop33
280
     0
102
RTVSPost2010PropOp33
 70
     1
102
RTVSPost2010Prop34
280
     0
102
RTVSPost2010PropOp34
 70
     1
102
RTVSPost2010Prop35
280
     0
102
RTVSPost2010PropOp35
 70
     1
102
RTVSPost2010Prop36
280
     0
102
RTVSPost2010PropOp36
 70
     1
102
RTVSPost2010Prop37
 90
       50
102
RTVSPost2010PropOp37
 70
     1
102
RTVSPost2010Prop38
140
0.0
102
RTVSPost2010PropOp38
 70
     1
102
RTVSPost2010Prop39
140
1.0
102
RTVSPost2010PropOp39
 70
     1
102
RTVSPost2010Prop40
 90
        0
102
RTVSPost2010PropOp40
 70
     1
102
RTVSPost2010Prop41ColorIndex
 90
       18
102
RTVSPost2010Prop41ColorRGB
 90
        0
102
RTVSPost2010PropOp41
 70
     1
102
RTVSPost2010Prop42
 90
       50
102
RTVSPost2010PropOp42
 70
     1
102
RTVSPost2010Prop43
 90
        3
102
RTVSPost2010PropOp43
 70
     1
102
RTVSPost2010Prop44ColorIndex
 90
        5
102
RTVSPost2010Prop44ColorRGB
 90
      255
102
RTVSPost2010PropOp44
 70
     1
102
RTVSPost2010Prop45
280
     0
102
RTVSPost2010PropOp45
 70
     1
102
RTVSPost2010Prop46
 90
       50
102
RTVSPost2010PropOp46
 70
     1
102
RTVSPost2010Prop47
 90
       50
102
RTVSPost2010PropOp47
 70
     1
102
RTVSPost2010Prop48
 90
       50
102
RTVSPost2010PropOp48
 70
     1
102
RTVSPost2010Prop49
280
     0
102
RTVSPost2010PropOp49
 70
     1
102
RTVSPost2010Prop50
 90
       50
102
RTVSPost2010PropOp50
 70
     1
102
RTVSPost2010Prop51ColorIndex
 90
      256
102
RTVSPost2010Prop51ColorRGB
 90
-16777216
102
RTVSPost2010PropOp51
 70
     0
102
RTVSPost2010Prop52
140
1.0
102
RTVSPost2010PropOp52
 70
     0
102
RTVSPost2010Prop53
 90
        2
102
RTVSPost2010PropOp53
 70
     1
102
RTVSPost2010Prop54
  1
strokes_ogs.tif
102
RTVSPost2010PropOp54
 70
     1
102
RTVSPost2010Prop55
280
     0
102
RTVSPost2010PropOp55
 70
     1
102
RTVSPost2010Prop56
140
1.0
102
RTVSPost2010PropOp56
 70
     1
102
RTVSPost2010Prop57
140
1.0
102
RTVSPost2010PropOp57
 70
     1
  0
XRECORD
  5
221EB
102
{ACAD_REACTORS
330
221EA
102
}
330
221EA
100
AcDbXrecord
280
     1
102
RTVSPost2010Prop28
280
     0
102
RTVSPost2010PropOp28
 70
     1
102
RTVSPost2010Prop29
280
     1
102
RTVSPost2010PropOp29
 70
     1
102
RTVSPost2010Prop30
280
     1
102
RTVSPost2010PropOp30
 70
     1
102
RTVSPost2010Prop31
280
     0
102
RTVSPost2010PropOp31
 70
     1
102
RTVSPost2010Prop32
280
     0
102
RTVSPost2010PropOp32
 70
     1
102
RTVSPost2010Prop33
280
     0
102
RTVSPost2010PropOp33
 70
     1
102
RTVSPost2010Prop34
280
     0
102
RTVSPost2010PropOp34
 70
     1
102
RTVSPost2010Prop35
280
     0
102
RTVSPost2010PropOp35
 70
     1
102
RTVSPost2010Prop36
280
     0
102
RTVSPost2010PropOp36
 70
     1
102
RTVSPost2010Prop37
 90
       50
102
RTVSPost2010PropOp37
 70
     0
102
RTVSPost2010Prop38
140
0.0
102
RTVSPost2010PropOp38
 70
     0
102
RTVSPost2010Prop39
140
1.0
102
RTVSPost2010PropOp39
 70
     0
102
RTVSPost2010Prop40
 90
        0
102
RTVSPost2010PropOp40
 70
     0
102
RTVSPost2010Prop41ColorIndex
 90
       18
102
RTVSPost2010Prop41ColorRGB
 90
        0
102
RTVSPost2010PropOp41
 70
     0
102
RTVSPost2010Prop42
 90
       50
102
RTVSPost2010PropOp42
 70
     0
102
RTVSPost2010Prop43
 90
        3
102
RTVSPost2010PropOp43
 70
     0
102
RTVSPost2010Prop44ColorIndex
 90
        5
102
RTVSPost2010Prop44ColorRGB
 90
      255
102
RTVSPost2010PropOp44
 70
     0
102
RTVSPost2010Prop45
280
     0
102
RTVSPost2010PropOp45
 70
     1
102
RTVSPost2010Prop46
 90
       50
102
RTVSPost2010PropOp46
 70
     0
102
RTVSPost2010Prop47
 90
       50
102
RTVSPost2010PropOp47
 70
     0
102
RTVSPost2010Prop48
 90
       50
102
RTVSPost2010PropOp48
 70
     0
102
RTVSPost2010Prop49
280
     0
102
RTVSPost2010PropOp49
 70
     1
102
RTVSPost2010Prop50
 90
       50
102
RTVSPost2010PropOp50
 70
     0
102
RTVSPost2010Prop51ColorIndex
 90
      256
102
RTVSPost2010Prop51ColorRGB
 90
-16777216
102
RTVSPost2010PropOp51
 70
     0
102
RTVSPost2010Prop52
140
1.0
102
RTVSPost2010PropOp52
 70
     0
102
RTVSPost2010Prop53
 90
        2
102
RTVSPost2010PropOp53
 70
     0
102
RTVSPost2010Prop54
  1
strokes_ogs.tif
102
RTVSPost2010PropOp54
 70
     0
102
RTVSPost2010Prop55
280
     0
102
RTVSPost2010PropOp55
 70
     1
102
RTVSPost2010Prop56
140
1.0
102
RTVSPost2010PropOp56
 70
     0
102
RTVSPost2010Prop57
140
1.0
102
RTVSPost2010PropOp57
 70
     0
  0
XRECORD
  5
221CD
102
{ACAD_REACTORS
330
221CC
102
}
330
221CC
100
AcDbXrecord
280
     1
102
RTVSPost2010Prop28
280
     0
102
RTVSPost2010PropOp28
 70
     1
102
RTVSPost2010Prop29
280
     1
102
RTVSPost2010PropOp29
 70
     1
102
RTVSPost2010Prop30
280
     1
102
RTVSPost2010PropOp30
 70
     1
102
RTVSPost2010Prop31
280
     0
102
RTVSPost2010PropOp31
 70
     1
102
RTVSPost2010Prop32
280
     0
102
RTVSPost2010PropOp32
 70
     1
102
RTVSPost2010Prop33
280
     0
102
RTVSPost2010PropOp33
 70
     1
102
RTVSPost2010Prop34
280
     0
102
RTVSPost2010PropOp34
 70
     1
102
RTVSPost2010Prop35
280
     0
102
RTVSPost2010PropOp35
 70
     1
102
RTVSPost2010Prop36
280
     0
102
RTVSPost2010PropOp36
 70
     1
102
RTVSPost2010Prop37
 90
       50
102
RTVSPost2010PropOp37
 70
     1
102
RTVSPost2010Prop38
140
0.0
102
RTVSPost2010PropOp38
 70
     1
102
RTVSPost2010Prop39
140
1.0
102
RTVSPost2010PropOp39
 70
     1
102
RTVSPost2010Prop40
 90
        0
102
RTVSPost2010PropOp40
 70
     1
102
RTVSPost2010Prop41ColorIndex
 90
       18
102
RTVSPost2010Prop41ColorRGB
 90
        0
102
RTVSPost2010PropOp41
 70
     1
102
RTVSPost2010Prop42
 90
       50
102
RTVSPost2010PropOp42
 70
     1
102
RTVSPost2010Prop43
 90
        3
102
RTVSPost2010PropOp43
 70
     1
102
RTVSPost2010Prop44ColorIndex
 90
        5
102
RTVSPost2010Prop44ColorRGB
 90
      255
102
RTVSPost2010PropOp44
 70
     1
102
RTVSPost2010Prop45
280
     0
102
RTVSPost2010PropOp45
 70
     1
102
RTVSPost2010Prop46
 90
       50
102
RTVSPost2010PropOp46
 70
     1
102
RTVSPost2010Prop47
 90
       50
102
RTVSPost2010PropOp47
 70
     1
102
RTVSPost2010Prop48
 90
       50
102
RTVSPost2010PropOp48
 70
     1
102
RTVSPost2010Prop49
280
     0
102
RTVSPost2010PropOp49
 70
     1
102
RTVSPost2010Prop50
 90
       50
102
RTVSPost2010PropOp50
 70
     1
102
RTVSPost2010Prop51ColorIndex
 90
      256
102
RTVSPost2010Prop51ColorRGB
 90
-16777216
102
RTVSPost2010PropOp51
 70
     0
102
RTVSPost2010Prop52
140
1.0
102
RTVSPost2010PropOp52
 70
     0
102
RTVSPost2010Prop53
 90
        2
102
RTVSPost2010PropOp53
 70
     1
102
RTVSPost2010Prop54
  1
strokes_ogs.tif
102
RTVSPost2010PropOp54
 70
     1
102
RTVSPost2010Prop55
280
     0
102
RTVSPost2010PropOp55
 70
     1
102
RTVSPost2010Prop56
140
1.0
102
RTVSPost2010PropOp56
 70
     1
102
RTVSPost2010Prop57
140
1.0
102
RTVSPost2010PropOp57
 70
     1
  0
XRECORD
  5
221E7
102
{ACAD_REACTORS
330
221E6
102
}
330
221E6
100
AcDbXrecord
280
     1
102
RTVSPost2010Prop28
280
     0
102
RTVSPost2010PropOp28
 70
     1
102
RTVSPost2010Prop29
280
     1
102
RTVSPost2010PropOp29
 70
     1
102
RTVSPost2010Prop30
280
     1
102
RTVSPost2010PropOp30
 70
     1
102
RTVSPost2010Prop31
280
     0
102
RTVSPost2010PropOp31
 70
     1
102
RTVSPost2010Prop32
280
     0
102
RTVSPost2010PropOp32
 70
     1
102
RTVSPost2010Prop33
280
     0
102
RTVSPost2010PropOp33
 70
     1
102
RTVSPost2010Prop34
280
     0
102
RTVSPost2010PropOp34
 70
     1
102
RTVSPost2010Prop35
280
     0
102
RTVSPost2010PropOp35
 70
     1
102
RTVSPost2010Prop36
280
     0
102
RTVSPost2010PropOp36
 70
     1
102
RTVSPost2010Prop37
 90
       50
102
RTVSPost2010PropOp37
 70
     1
102
RTVSPost2010Prop38
140
0.0
102
RTVSPost2010PropOp38
 70
     1
102
RTVSPost2010Prop39
140
1.0
102
RTVSPost2010PropOp39
 70
     1
102
RTVSPost2010Prop40
 90
        0
102
RTVSPost2010PropOp40
 70
     1
102
RTVSPost2010Prop41ColorIndex
 90
       18
102
RTVSPost2010Prop41ColorRGB
 90
        0
102
RTVSPost2010PropOp41
 70
     1
102
RTVSPost2010Prop42
 90
       50
102
RTVSPost2010PropOp42
 70
     1
102
RTVSPost2010Prop43
 90
        3
102
RTVSPost2010PropOp43
 70
     1
102
RTVSPost2010Prop44ColorIndex
 90
        5
102
RTVSPost2010Prop44ColorRGB
 90
      255
102
RTVSPost2010PropOp44
 70
     1
102
RTVSPost2010Prop45
280
     0
102
RTVSPost2010PropOp45
 70
     1
102
RTVSPost2010Prop46
 90
       50
102
RTVSPost2010PropOp46
 70
     1
102
RTVSPost2010Prop47
 90
       50
102
RTVSPost2010PropOp47
 70
     1
102
RTVSPost2010Prop48
 90
       50
102
RTVSPost2010PropOp48
 70
     1
102
RTVSPost2010Prop49
280
     0
102
RTVSPost2010PropOp49
 70
     1
102
RTVSPost2010Prop50
 90
       50
102
RTVSPost2010PropOp50
 70
     1
102
RTVSPost2010Prop51ColorIndex
 90
      256
102
RTVSPost2010Prop51ColorRGB
 90
-16777216
102
RTVSPost2010PropOp51
 70
     0
102
RTVSPost2010Prop52
140
1.0
102
RTVSPost2010PropOp52
 70
     0
102
RTVSPost2010Prop53
 90
        2
102
RTVSPost2010PropOp53
 70
     1
102
RTVSPost2010Prop54
  1
strokes_ogs.tif
102
RTVSPost2010PropOp54
 70
     1
102
RTVSPost2010Prop55
280
     0
102
RTVSPost2010PropOp55
 70
     1
102
RTVSPost2010Prop56
140
1.0
102
RTVSPost2010PropOp56
 70
     1
102
RTVSPost2010Prop57
140
1.0
102
RTVSPost2010PropOp57
 70
     1
  0
XRECORD
  5
221E5
102
{ACAD_REACTORS
330
221E4
102
}
330
221E4
100
AcDbXrecord
280
     1
102
RTVSPost2010Prop28
280
     0
102
RTVSPost2010PropOp28
 70
     1
102
RTVSPost2010Prop29
280
     1
102
RTVSPost2010PropOp29
 70
     1
102
RTVSPost2010Prop30
280
     1
102
RTVSPost2010PropOp30
 70
     1
102
RTVSPost2010Prop31
280
     0
102
RTVSPost2010PropOp31
 70
     1
102
RTVSPost2010Prop32
280
     0
102
RTVSPost2010PropOp32
 70
     1
102
RTVSPost2010Prop33
280
     0
102
RTVSPost2010PropOp33
 70
     1
102
RTVSPost2010Prop34
280
     0
102
RTVSPost2010PropOp34
 70
     1
102
RTVSPost2010Prop35
280
     0
102
RTVSPost2010PropOp35
 70
     1
102
RTVSPost2010Prop36
280
     0
102
RTVSPost2010PropOp36
 70
     1
102
RTVSPost2010Prop37
 90
       50
102
RTVSPost2010PropOp37
 70
     1
102
RTVSPost2010Prop38
140
0.0
102
RTVSPost2010PropOp38
 70
     1
102
RTVSPost2010Prop39
140
1.0
102
RTVSPost2010PropOp39
 70
     1
102
RTVSPost2010Prop40
 90
        0
102
RTVSPost2010PropOp40
 70
     1
102
RTVSPost2010Prop41ColorIndex
 90
       18
102
RTVSPost2010Prop41ColorRGB
 90
        0
102
RTVSPost2010PropOp41
 70
     1
102
RTVSPost2010Prop42
 90
       50
102
RTVSPost2010PropOp42
 70
     1
102
RTVSPost2010Prop43
 90
        3
102
RTVSPost2010PropOp43
 70
     1
102
RTVSPost2010Prop44ColorIndex
 90
        5
102
RTVSPost2010Prop44ColorRGB
 90
      255
102
RTVSPost2010PropOp44
 70
     1
102
RTVSPost2010Prop45
280
     0
102
RTVSPost2010PropOp45
 70
     1
102
RTVSPost2010Prop46
 90
       50
102
RTVSPost2010PropOp46
 70
     1
102
RTVSPost2010Prop47
 90
       50
102
RTVSPost2010PropOp47
 70
     1
102
RTVSPost2010Prop48
 90
       50
102
RTVSPost2010PropOp48
 70
     1
102
RTVSPost2010Prop49
280
     0
102
RTVSPost2010PropOp49
 70
     1
102
RTVSPost2010Prop50
 90
       50
102
RTVSPost2010PropOp50
 70
     1
102
RTVSPost2010Prop51ColorIndex
 90
      256
102
RTVSPost2010Prop51ColorRGB
 90
-16777216
102
RTVSPost2010PropOp51
 70
     0
102
RTVSPost2010Prop52
140
1.0
102
RTVSPost2010PropOp52
 70
     0
102
RTVSPost2010Prop53
 90
        2
102
RTVSPost2010PropOp53
 70
     1
102
RTVSPost2010Prop54
  1
strokes_ogs.tif
102
RTVSPost2010PropOp54
 70
     1
102
RTVSPost2010Prop55
280
     0
102
RTVSPost2010PropOp55
 70
     1
102
RTVSPost2010Prop56
140
1.0
102
RTVSPost2010PropOp56
 70
     1
102
RTVSPost2010Prop57
140
1.0
102
RTVSPost2010PropOp57
 70
     1
  0
XRECORD
  5
221DF
102
{ACAD_REACTORS
330
221DE
102
}
330
221DE
100
AcDbXrecord
280
     1
102
RTVSPost2010Prop28
280
     0
102
RTVSPost2010PropOp28
 70
     1
102
RTVSPost2010Prop29
280
     1
102
RTVSPost2010PropOp29
 70
     1
102
RTVSPost2010Prop30
280
     1
102
RTVSPost2010PropOp30
 70
     1
102
RTVSPost2010Prop31
280
     0
102
RTVSPost2010PropOp31
 70
     1
102
RTVSPost2010Prop32
280
     0
102
RTVSPost2010PropOp32
 70
     1
102
RTVSPost2010Prop33
280
     0
102
RTVSPost2010PropOp33
 70
     1
102
RTVSPost2010Prop34
280
     0
102
RTVSPost2010PropOp34
 70
     1
102
RTVSPost2010Prop35
280
     0
102
RTVSPost2010PropOp35
 70
     1
102
RTVSPost2010Prop36
280
     0
102
RTVSPost2010PropOp36
 70
     1
102
RTVSPost2010Prop37
 90
       50
102
RTVSPost2010PropOp37
 70
     1
102
RTVSPost2010Prop38
140
0.0
102
RTVSPost2010PropOp38
 70
     1
102
RTVSPost2010Prop39
140
1.0
102
RTVSPost2010PropOp39
 70
     1
102
RTVSPost2010Prop40
 90
        0
102
RTVSPost2010PropOp40
 70
     1
102
RTVSPost2010Prop41ColorIndex
 90
       18
102
RTVSPost2010Prop41ColorRGB
 90
        0
102
RTVSPost2010PropOp41
 70
     1
102
RTVSPost2010Prop42
 90
       50
102
RTVSPost2010PropOp42
 70
     1
102
RTVSPost2010Prop43
 90
        3
102
RTVSPost2010PropOp43
 70
     1
102
RTVSPost2010Prop44ColorIndex
 90
        5
102
RTVSPost2010Prop44ColorRGB
 90
      255
102
RTVSPost2010PropOp44
 70
     1
102
RTVSPost2010Prop45
280
     0
102
RTVSPost2010PropOp45
 70
     1
102
RTVSPost2010Prop46
 90
       50
102
RTVSPost2010PropOp46
 70
     1
102
RTVSPost2010Prop47
 90
       50
102
RTVSPost2010PropOp47
 70
     1
102
RTVSPost2010Prop48
 90
       50
102
RTVSPost2010PropOp48
 70
     1
102
RTVSPost2010Prop49
280
     0
102
RTVSPost2010PropOp49
 70
     1
102
RTVSPost2010Prop50
 90
       50
102
RTVSPost2010PropOp50
 70
     1
102
RTVSPost2010Prop51ColorIndex
 90
      256
102
RTVSPost2010Prop51ColorRGB
 90
-16777216
102
RTVSPost2010PropOp51
 70
     0
102
RTVSPost2010Prop52
140
1.0
102
RTVSPost2010PropOp52
 70
     0
102
RTVSPost2010Prop53
 90
        2
102
RTVSPost2010PropOp53
 70
     1
102
RTVSPost2010Prop54
  1
strokes_ogs.tif
102
RTVSPost2010PropOp54
 70
     1
102
RTVSPost2010Prop55
280
     0
102
RTVSPost2010PropOp55
 70
     1
102
RTVSPost2010Prop56
140
1.0
102
RTVSPost2010PropOp56
 70
     1
102
RTVSPost2010Prop57
140
1.0
102
RTVSPost2010PropOp57
 70
     1
  0
XRECORD
  5
221E1
102
{ACAD_REACTORS
330
221E0
102
}
330
221E0
100
AcDbXrecord
280
     1
102
RTVSPost2010Prop28
280
     0
102
RTVSPost2010PropOp28
 70
     1
102
RTVSPost2010Prop29
280
     1
102
RTVSPost2010PropOp29
 70
     1
102
RTVSPost2010Prop30
280
     1
102
RTVSPost2010PropOp30
 70
     1
102
RTVSPost2010Prop31
280
     0
102
RTVSPost2010PropOp31
 70
     1
102
RTVSPost2010Prop32
280
     0
102
RTVSPost2010PropOp32
 70
     1
102
RTVSPost2010Prop33
280
     0
102
RTVSPost2010PropOp33
 70
     1
102
RTVSPost2010Prop34
280
     0
102
RTVSPost2010PropOp34
 70
     1
102
RTVSPost2010Prop35
280
     0
102
RTVSPost2010PropOp35
 70
     1
102
RTVSPost2010Prop36
280
     0
102
RTVSPost2010PropOp36
 70
     1
102
RTVSPost2010Prop37
 90
       50
102
RTVSPost2010PropOp37
 70
     1
102
RTVSPost2010Prop38
140
0.0
102
RTVSPost2010PropOp38
 70
     1
102
RTVSPost2010Prop39
140
1.0
102
RTVSPost2010PropOp39
 70
     1
102
RTVSPost2010Prop40
 90
        0
102
RTVSPost2010PropOp40
 70
     1
102
RTVSPost2010Prop41ColorIndex
 90
       18
102
RTVSPost2010Prop41ColorRGB
 90
        0
102
RTVSPost2010PropOp41
 70
     1
102
RTVSPost2010Prop42
 90
       50
102
RTVSPost2010PropOp42
 70
     1
102
RTVSPost2010Prop43
 90
        3
102
RTVSPost2010PropOp43
 70
     1
102
RTVSPost2010Prop44ColorIndex
 90
        5
102
RTVSPost2010Prop44ColorRGB
 90
      255
102
RTVSPost2010PropOp44
 70
     1
102
RTVSPost2010Prop45
280
     0
102
RTVSPost2010PropOp45
 70
     1
102
RTVSPost2010Prop46
 90
       50
102
RTVSPost2010PropOp46
 70
     1
102
RTVSPost2010Prop47
 90
       50
102
RTVSPost2010PropOp47
 70
     1
102
RTVSPost2010Prop48
 90
       50
102
RTVSPost2010PropOp48
 70
     1
102
RTVSPost2010Prop49
280
     0
102
RTVSPost2010PropOp49
 70
     1
102
RTVSPost2010Prop50
 90
       50
102
RTVSPost2010PropOp50
 70
     1
102
RTVSPost2010Prop51ColorIndex
 90
      256
102
RTVSPost2010Prop51ColorRGB
 90
-16777216
102
RTVSPost2010PropOp51
 70
     0
102
RTVSPost2010Prop52
140
1.0
102
RTVSPost2010PropOp52
 70
     0
102
RTVSPost2010Prop53
 90
        2
102
RTVSPost2010PropOp53
 70
     1
102
RTVSPost2010Prop54
  1
strokes_ogs.tif
102
RTVSPost2010PropOp54
 70
     1
102
RTVSPost2010Prop55
280
     0
102
RTVSPost2010PropOp55
 70
     1
102
RTVSPost2010Prop56
140
1.0
102
RTVSPost2010PropOp56
 70
     1
102
RTVSPost2010Prop57
140
1.0
102
RTVSPost2010PropOp57
 70
     1
  0
XRECORD
  5
221D3
102
{ACAD_REACTORS
330
221D2
102
}
330
221D2
100
AcDbXrecord
280
     1
102
RTVSPost2010Prop28
280
     0
102
RTVSPost2010PropOp28
 70
     1
102
RTVSPost2010Prop29
280
     1
102
RTVSPost2010PropOp29
 70
     1
102
RTVSPost2010Prop30
280
     1
102
RTVSPost2010PropOp30
 70
     1
102
RTVSPost2010Prop31
280
     0
102
RTVSPost2010PropOp31
 70
     1
102
RTVSPost2010Prop32
280
     0
102
RTVSPost2010PropOp32
 70
     1
102
RTVSPost2010Prop33
280
     0
102
RTVSPost2010PropOp33
 70
     1
102
RTVSPost2010Prop34
280
     0
102
RTVSPost2010PropOp34
 70
     1
102
RTVSPost2010Prop35
280
     0
102
RTVSPost2010PropOp35
 70
     1
102
RTVSPost2010Prop36
280
     0
102
RTVSPost2010PropOp36
 70
     1
102
RTVSPost2010Prop37
 90
       50
102
RTVSPost2010PropOp37
 70
     1
102
RTVSPost2010Prop38
140
0.0
102
RTVSPost2010PropOp38
 70
     1
102
RTVSPost2010Prop39
140
1.0
102
RTVSPost2010PropOp39
 70
     1
102
RTVSPost2010Prop40
 90
        0
102
RTVSPost2010PropOp40
 70
     1
102
RTVSPost2010Prop41ColorIndex
 90
       18
102
RTVSPost2010Prop41ColorRGB
 90
        0
102
RTVSPost2010PropOp41
 70
     1
102
RTVSPost2010Prop42
 90
       50
102
RTVSPost2010PropOp42
 70
     1
102
RTVSPost2010Prop43
 90
        3
102
RTVSPost2010PropOp43
 70
     1
102
RTVSPost2010Prop44ColorIndex
 90
        5
102
RTVSPost2010Prop44ColorRGB
 90
      255
102
RTVSPost2010PropOp44
 70
     1
102
RTVSPost2010Prop45
280
     0
102
RTVSPost2010PropOp45
 70
     1
102
RTVSPost2010Prop46
 90
       50
102
RTVSPost2010PropOp46
 70
     1
102
RTVSPost2010Prop47
 90
       50
102
RTVSPost2010PropOp47
 70
     1
102
RTVSPost2010Prop48
 90
       50
102
RTVSPost2010PropOp48
 70
     1
102
RTVSPost2010Prop49
280
     0
102
RTVSPost2010PropOp49
 70
     1
102
RTVSPost2010Prop50
 90
       50
102
RTVSPost2010PropOp50
 70
     1
102
RTVSPost2010Prop51ColorIndex
 90
      256
102
RTVSPost2010Prop51ColorRGB
 90
-16777216
102
RTVSPost2010PropOp51
 70
     0
102
RTVSPost2010Prop52
140
1.0
102
RTVSPost2010PropOp52
 70
     0
102
RTVSPost2010Prop53
 90
        2
102
RTVSPost2010PropOp53
 70
     1
102
RTVSPost2010Prop54
  1
strokes_ogs.tif
102
RTVSPost2010PropOp54
 70
     1
102
RTVSPost2010Prop55
280
     0
102
RTVSPost2010PropOp55
 70
     1
102
RTVSPost2010Prop56
140
1.0
102
RTVSPost2010PropOp56
 70
     1
102
RTVSPost2010Prop57
140
1.0
102
RTVSPost2010PropOp57
 70
     1
  0
XRECORD
  5
221DB
102
{ACAD_REACTORS
330
221DA
102
}
330
221DA
100
AcDbXrecord
280
     1
102
RTVSPost2010Prop28
280
     0
102
RTVSPost2010PropOp28
 70
     1
102
RTVSPost2010Prop29
280
     1
102
RTVSPost2010PropOp29
 70
     1
102
RTVSPost2010Prop30
280
     1
102
RTVSPost2010PropOp30
 70
     1
102
RTVSPost2010Prop31
280
     0
102
RTVSPost2010PropOp31
 70
     1
102
RTVSPost2010Prop32
280
     0
102
RTVSPost2010PropOp32
 70
     1
102
RTVSPost2010Prop33
280
     0
102
RTVSPost2010PropOp33
 70
     1
102
RTVSPost2010Prop34
280
     0
102
RTVSPost2010PropOp34
 70
     1
102
RTVSPost2010Prop35
280
     0
102
RTVSPost2010PropOp35
 70
     1
102
RTVSPost2010Prop36
280
     0
102
RTVSPost2010PropOp36
 70
     1
102
RTVSPost2010Prop37
 90
       50
102
RTVSPost2010PropOp37
 70
     1
102
RTVSPost2010Prop38
140
0.0
102
RTVSPost2010PropOp38
 70
     1
102
RTVSPost2010Prop39
140
1.0
102
RTVSPost2010PropOp39
 70
     1
102
RTVSPost2010Prop40
 90
        0
102
RTVSPost2010PropOp40
 70
     1
102
RTVSPost2010Prop41ColorIndex
 90
       18
102
RTVSPost2010Prop41ColorRGB
 90
        0
102
RTVSPost2010PropOp41
 70
     1
102
RTVSPost2010Prop42
 90
       50
102
RTVSPost2010PropOp42
 70
     1
102
RTVSPost2010Prop43
 90
        3
102
RTVSPost2010PropOp43
 70
     1
102
RTVSPost2010Prop44ColorIndex
 90
        5
102
RTVSPost2010Prop44ColorRGB
 90
      255
102
RTVSPost2010PropOp44
 70
     1
102
RTVSPost2010Prop45
280
     0
102
RTVSPost2010PropOp45
 70
     1
102
RTVSPost2010Prop46
 90
       50
102
RTVSPost2010PropOp46
 70
     1
102
RTVSPost2010Prop47
 90
       50
102
RTVSPost2010PropOp47
 70
     1
102
RTVSPost2010Prop48
 90
       50
102
RTVSPost2010PropOp48
 70
     1
102
RTVSPost2010Prop49
280
     0
102
RTVSPost2010PropOp49
 70
     1
102
RTVSPost2010Prop50
 90
       50
102
RTVSPost2010PropOp50
 70
     1
102
RTVSPost2010Prop51ColorIndex
 90
      256
102
RTVSPost2010Prop51ColorRGB
 90
-16777216
102
RTVSPost2010PropOp51
 70
     0
102
RTVSPost2010Prop52
140
1.0
102
RTVSPost2010PropOp52
 70
     0
102
RTVSPost2010Prop53
 90
        2
102
RTVSPost2010PropOp53
 70
     1
102
RTVSPost2010Prop54
  1
strokes_ogs.tif
102
RTVSPost2010PropOp54
 70
     1
102
RTVSPost2010Prop55
280
     0
102
RTVSPost2010PropOp55
 70
     1
102
RTVSPost2010Prop56
140
1.0
102
RTVSPost2010PropOp56
 70
     1
102
RTVSPost2010Prop57
140
1.0
102
RTVSPost2010PropOp57
 70
     1
  0
XRECORD
  5
221E3
102
{ACAD_REACTORS
330
221E2
102
}
330
221E2
100
AcDbXrecord
280
     1
102
RTVSPost2010Prop28
280
     0
102
RTVSPost2010PropOp28
 70
     1
102
RTVSPost2010Prop29
280
     1
102
RTVSPost2010PropOp29
 70
     1
102
RTVSPost2010Prop30
280
     1
102
RTVSPost2010PropOp30
 70
     1
102
RTVSPost2010Prop31
280
     0
102
RTVSPost2010PropOp31
 70
     1
102
RTVSPost2010Prop32
280
     0
102
RTVSPost2010PropOp32
 70
     1
102
RTVSPost2010Prop33
280
     0
102
RTVSPost2010PropOp33
 70
     1
102
RTVSPost2010Prop34
280
     0
102
RTVSPost2010PropOp34
 70
     1
102
RTVSPost2010Prop35
280
     0
102
RTVSPost2010PropOp35
 70
     1
102
RTVSPost2010Prop36
280
     0
102
RTVSPost2010PropOp36
 70
     1
102
RTVSPost2010Prop37
 90
       50
102
RTVSPost2010PropOp37
 70
     1
102
RTVSPost2010Prop38
140
0.0
102
RTVSPost2010PropOp38
 70
     1
102
RTVSPost2010Prop39
140
1.0
102
RTVSPost2010PropOp39
 70
     1
102
RTVSPost2010Prop40
 90
        0
102
RTVSPost2010PropOp40
 70
     1
102
RTVSPost2010Prop41ColorIndex
 90
       18
102
RTVSPost2010Prop41ColorRGB
 90
        0
102
RTVSPost2010PropOp41
 70
     1
102
RTVSPost2010Prop42
 90
       50
102
RTVSPost2010PropOp42
 70
     1
102
RTVSPost2010Prop43
 90
        3
102
RTVSPost2010PropOp43
 70
     1
102
RTVSPost2010Prop44ColorIndex
 90
        5
102
RTVSPost2010Prop44ColorRGB
 90
      255
102
RTVSPost2010PropOp44
 70
     1
102
RTVSPost2010Prop45
280
     0
102
RTVSPost2010PropOp45
 70
     1
102
RTVSPost2010Prop46
 90
       50
102
RTVSPost2010PropOp46
 70
     1
102
RTVSPost2010Prop47
 90
       50
102
RTVSPost2010PropOp47
 70
     1
102
RTVSPost2010Prop48
 90
       50
102
RTVSPost2010PropOp48
 70
     1
102
RTVSPost2010Prop49
280
     0
102
RTVSPost2010PropOp49
 70
     1
102
RTVSPost2010Prop50
 90
       50
102
RTVSPost2010PropOp50
 70
     1
102
RTVSPost2010Prop51ColorIndex
 90
      256
102
RTVSPost2010Prop51ColorRGB
 90
-16777216
102
RTVSPost2010PropOp51
 70
     0
102
RTVSPost2010Prop52
140
1.0
102
RTVSPost2010PropOp52
 70
     0
102
RTVSPost2010Prop53
 90
        2
102
RTVSPost2010PropOp53
 70
     1
102
RTVSPost2010Prop54
  1
strokes_ogs.tif
102
RTVSPost2010PropOp54
 70
     1
102
RTVSPost2010Prop55
280
     0
102
RTVSPost2010PropOp55
 70
     1
102
RTVSPost2010Prop56
140
1.0
102
RTVSPost2010PropOp56
 70
     1
102
RTVSPost2010Prop57
140
1.0
102
RTVSPost2010PropOp57
 70
     1
  0
ENDSEC
  0
EOF
