  0
SECTION
  2
HEADER
  9
$ACADVER
  1
AC1024
  9
$ACADMAINTVER
 70
   182
  9
$DWGCODEPAGE
  3
ANSI_1252
  9
$LASTSAVEDBY
  1
kamerka
  9
$INSBASE
 10
0.0
 20
0.0
 30
0.0
  9
$EXTMIN
 10
-107.9031363547583
 20
-54.69616854056403
 30
-0.0000000000000057
  9
$EXTMAX
 10
75.51361141669758
 20
54.89532606039381
 30
0.0000000000000104
  9
$LIMMIN
 10
0.0
 20
0.0
  9
$LIMMAX
 10
420.0
 20
297.0
  9
$ORTHOMODE
 70
     0
  9
$REGENMODE
 70
     1
  9
$FILLMODE
 70
     1
  9
$QTEXTMODE
 70
     0
  9
$MIRRTEXT
 70
     0
  9
$LTSCALE
 40
23.1
  9
$ATTMODE
 70
     1
  9
$TEXTSIZE
 40
3.5
  9
$TRACEWID
 40
0.05
  9
$TEXTSTYLE
  7
STANDARD
  9
$CLAYER
  8
0
  9
$CELTYPE
  6
BYLAYER
  9
$CECOLOR
 62
   256
  9
$CELTSCALE
 40
1.0
  9
$DISPSILH
 70
     0
  9
$DIMSCALE
 40
1.0
  9
$DIMASZ
 40
4.57
  9
$DIMEXO
 40
0.0625
  9
$DIMDLI
 40
0.38
  9
$DIMRND
 40
0.0
  9
$DIMDLE
 40
0.0
  9
$DIMEXE
 40
0.18
  9
$DIMTP
 40
0.01
  9
$DIMTM
 40
0.01
  9
$DIMTXT
 40
3.5
  9
$DIMCEN
 40
0.09
  9
$DIMTSZ
 40
0.0
  9
$DIMTOL
 70
     0
  9
$DIMLIM
 70
     0
  9
$DIMTIH
 70
     0
  9
$DIMTOH
 70
     0
  9
$DIMSE1
 70
     0
  9
$DIMSE2
 70
     0
  9
$DIMTAD
 70
     1
  9
$DIMZIN
 70
     8
  9
$DIMBLK
  1

  9
$DIMASO
 70
     1
  9
$DIMSHO
 70
     1
  9
$DIMPOST
  1

  9
$DIMAPOST
  1

  9
$DIMALT
 70
     0
  9
$DIMALTD
 70
     2
  9
$DIMALTF
 40
25.4
  9
$DIMLFAC
 40
1.0
  9
$DIMTOFL
 70
     0
  9
$DIMTVP
 40
0.0
  9
$DIMTIX
 70
     0
  9
$DIMSOXD
 70
     0
  9
$DIMSAH
 70
     0
  9
$DIMBLK1
  1

  9
$DIMBLK2
  1

  9
$DIMSTYLE
  2
STANDARD
  9
$DIMCLRD
 70
     0
  9
$DIMCLRE
 70
     0
  9
$DIMCLRT
 70
     0
  9
$DIMTFAC
 40
1.0
  9
$DIMGAP
 40
0.09
  9
$DIMJUST
 70
     0
  9
$DIMSD1
 70
     0
  9
$DIMSD2
 70
     0
  9
$DIMTOLJ
 70
     1
  9
$DIMTZIN
 70
     8
  9
$DIMALTZ
 70
     0
  9
$DIMALTTZ
 70
     0
  9
$DIMUPT
 70
     0
  9
$DIMDEC
 70
     3
  9
$DIMTDEC
 70
     3
  9
$DIMALTU
 70
     2
  9
$DIMALTTD
 70
     2
  9
$DIMTXSTY
  7
STANDARD
  9
$DIMAUNIT
 70
     0
  9
$DIMADEC
 70
     0
  9
$DIMALTRND
 40
0.0
  9
$DIMAZIN
 70
     0
  9
$DIMDSEP
 70
    46
  9
$DIMATFIT
 70
     0
  9
$DIMFRAC
 70
     0
  9
$DIMLDRBLK
  1

  9
$DIMLUNIT
 70
     2
  9
$DIMLWD
 70
    -2
  9
$DIMLWE
 70
    -2
  9
$DIMTMOVE
 70
     0
  9
$DIMFXL
 40
1.0
  9
$DIMFXLON
 70
     0
  9
$DIMJOGANG
 40
0.7853981633974483
  9
$DIMTFILL
 70
     0
  9
$DIMTFILLCLR
 70
     0
  9
$DIMARCSYM
 70
     0
  9
$DIMLTYPE
  6

  9
$DIMLTEX1
  6

  9
$DIMLTEX2
  6

  9
$DIMTXTDIRECTION
 70
     0
  9
$LUNITS
 70
     2
  9
$LUPREC
 70
     4
  9
$SKETCHINC
 40
0.1
  9
$FILLETRAD
 40
0.0
  9
$AUNITS
 70
     0
  9
$AUPREC
 70
     0
  9
$MENU
  1
.
  9
$ELEVATION
 40
0.0
  9
$PELEVATION
 40
0.0
  9
$THICKNESS
 40
0.0
  9
$LIMCHECK
 70
     0
  9
$CHAMFERA
 40
0.0
  9
$CHAMFERB
 40
0.0
  9
$CHAMFERC
 40
0.0
  9
$CHAMFERD
 40
0.0
  9
$SKPOLY
 70
     0
  9
$TDCREATE
 40
2458446.405227107
  9
$TDUCREATE
 40
2458446.321893773
  9
$TDUPDATE
 40
2458976.362257489
  9
$TDUUPDATE
 40
2458976.278924155
  9
$TDINDWG
 40
0.0295619329
  9
$TDUSRTIMER
 40
0.0295608796
  9
$USRTIMER
 70
     1
  9
$ANGBASE
 50
0.0
  9
$ANGDIR
 70
     0
  9
$PDMODE
 70
     3
  9
$PDSIZE
 40
0.3125
  9
$PLINEWID
 40
0.0
  9
$SPLFRAME
 70
     0
  9
$SPLINETYPE
 70
     6
  9
$SPLINESEGS
 70
     8
  9
$HANDSEED
  5
22133
  9
$SURFTAB1
 70
     6
  9
$SURFTAB2
 70
     6
  9
$SURFTYPE
 70
     6
  9
$SURFU
 70
     6
  9
$SURFV
 70
     6
  9
$UCSBASE
  2

  9
$UCSNAME
  2

  9
$UCSORG
 10
0.0
 20
0.0
 30
0.0
  9
$UCSXDIR
 10
1.0
 20
0.0
 30
0.0
  9
$UCSYDIR
 10
0.0
 20
1.0
 30
0.0
  9
$UCSORTHOREF
  2

  9
$UCSORTHOVIEW
 70
     0
  9
$UCSORGTOP
 10
0.0
 20
0.0
 30
0.0
  9
$UCSORGBOTTOM
 10
0.0
 20
0.0
 30
0.0
  9
$UCSORGLEFT
 10
0.0
 20
0.0
 30
0.0
  9
$UCSORGRIGHT
 10
0.0
 20
0.0
 30
0.0
  9
$UCSORGFRONT
 10
0.0
 20
0.0
 30
0.0
  9
$UCSORGBACK
 10
0.0
 20
0.0
 30
0.0
  9
$PUCSBASE
  2

  9
$PUCSNAME
  2

  9
$PUCSORG
 10
0.0
 20
0.0
 30
0.0
  9
$PUCSXDIR
 10
1.0
 20
0.0
 30
0.0
  9
$PUCSYDIR
 10
0.0
 20
1.0
 30
0.0
  9
$PUCSORTHOREF
  2

  9
$PUCSORTHOVIEW
 70
     0
  9
$PUCSORGTOP
 10
0.0
 20
0.0
 30
0.0
  9
$PUCSORGBOTTOM
 10
0.0
 20
0.0
 30
0.0
  9
$PUCSORGLEFT
 10
0.0
 20
0.0
 30
0.0
  9
$PUCSORGRIGHT
 10
0.0
 20
0.0
 30
0.0
  9
$PUCSORGFRONT
 10
0.0
 20
0.0
 30
0.0
  9
$PUCSORGBACK
 10
0.0
 20
0.0
 30
0.0
  9
$USERI1
 70
     0
  9
$USERI2
 70
     0
  9
$USERI3
 70
     0
  9
$USERI4
 70
     0
  9
$USERI5
 70
     0
  9
$USERR1
 40
0.0
  9
$USERR2
 40
0.0
  9
$USERR3
 40
0.0
  9
$USERR4
 40
0.0
  9
$USERR5
 40
0.0
  9
$WORLDVIEW
 70
     1
  9
$SHADEDGE
 70
     3
  9
$SHADEDIF
 70
    70
  9
$TILEMODE
 70
     1
  9
$MAXACTVP
 70
    64
  9
$PINSBASE
 10
0.0
 20
0.0
 30
0.0
  9
$PLIMCHECK
 70
     0
  9
$PEXTMIN
 10
28.69141678810127
 20
19.6363175392151
 30
0.0
  9
$PEXTMAX
 10
258.2227510929107
 20
176.7268578529358
 30
0.0
  9
$PLIMMIN
 10
-5.027069091796875
 20
-6.805083274841307
  9
$PLIMMAX
 10
291.9412536621094
 20
203.1682443618775
  9
$UNITMODE
 70
     0
  9
$VISRETAIN
 70
     1
  9
$PLINEGEN
 70
     0
  9
$PSLTSCALE
 70
     1
  9
$TREEDEPTH
 70
  3020
  9
$CMLSTYLE
  2
STANDARD
  9
$CMLJUST
 70
     0
  9
$CMLSCALE
 40
1.0
  9
$PROXYGRAPHICS
 70
     1
  9
$MEASUREMENT
 70
     1
  9
$CELWEIGHT
370
    -1
  9
$ENDCAPS
280
     0
  9
$JOINSTYLE
280
     0
  9
$LWDISPLAY
290
     0
  9
$INSUNITS
 70
     0
  9
$HYPERLINKBASE
  1

  9
$STYLESHEET
  1
A1-A2.CTB
  9
$XEDIT
290
     1
  9
$CEPSNTYPE
380
     0
  9
$PSTYLEMODE
290
     1
  9
$FINGERPRINTGUID
  2
{6D3BC7B5-ACA7-406D-8A0D-A7DBBE093430}
  9
$VERSIONGUID
  2
{50E77695-FDCB-430E-B05F-21AFB5026ABA}
  9
$EXTNAMES
290
     1
  9
$PSVPSCALE
 40
0.0
  9
$OLESTARTUP
290
     0
  9
$SORTENTS
280
   127
  9
$INDEXCTL
280
     0
  9
$HIDETEXT
280
     0
  9
$XCLIPFRAME
280
     2
  9
$HALOGAP
280
     0
  9
$OBSCOLOR
 70
   257
  9
$OBSLTYPE
280
     0
  9
$INTERSECTIONDISPLAY
280
     0
  9
$INTERSECTIONCOLOR
 70
   257
  9
$DIMASSOC
280
     1
  9
$PROJECTNAME
  1

  9
$CAMERADISPLAY
290
     0
  9
$LENSLENGTH
 40
50.0
  9
$CAMERAHEIGHT
 40
0.0
  9
$STEPSPERSEC
 40
2.0
  9
$STEPSIZE
 40
6.0
  9
$3DDWFPREC
 40
2.0
  9
$PSOLWIDTH
 40
0.25
  9
$PSOLHEIGHT
 40
4.0
  9
$LOFTANG1
 40
1.570796326794896
  9
$LOFTANG2
 40
1.570796326794896
  9
$LOFTMAG1
 40
0.0
  9
$LOFTMAG2
 40
0.0
  9
$LOFTPARAM
 70
     7
  9
$LOFTNORMALS
280
     1
  9
$LATITUDE
 40
37.795
  9
$LONGITUDE
 40
-122.394
  9
$NORTHDIRECTION
 40
0.0
  9
$TIMEZONE
 70
 -8000
  9
$LIGHTGLYPHDISPLAY
280
     1
  9
$TILEMODELIGHTSYNCH
280
     1
  9
$CMATERIAL
347
318C
  9
$SOLIDHIST
280
     0
  9
$SHOWHIST
280
     1
  9
$DWFFRAME
280
     2
  9
$DGNFRAME
280
     0
  9
$REALWORLDSCALE
290
     1
  9
$INTERFERECOLOR
 62
     1
  9
$INTERFEREOBJVS
345
3199
  9
$INTERFEREVPVS
346
1B2E3
  9
$CSHADOW
280
     0
  9
$SHADOWPLANELOCATION
 40
0.0
  0
ENDSEC
  0
SECTION
  2
CLASSES
  0
CLASS
  1
ACDBDICTIONARYWDFLT
  2
AcDbDictionaryWithDefault
  3
ObjectDBX Classes
 90
        0
 91
        1
280
     0
281
     0
  0
CLASS
  1
MATERIAL
  2
AcDbMaterial
  3
ObjectDBX Classes
 90
     1153
 91
        3
280
     0
281
     0
  0
CLASS
  1
VISUALSTYLE
  2
AcDbVisualStyle
  3
ObjectDBX Classes
 90
     4095
 91
       26
280
     0
281
     0
  0
CLASS
  1
TABLESTYLE
  2
AcDbTableStyle
  3
ObjectDBX Classes
 90
     4095
 91
        1
280
     0
281
     0
  0
CLASS
  1
SORTENTSTABLE
  2
AcDbSortentsTable
  3
ObjectDBX Classes
 90
        0
 91
        2
280
     0
281
     0
  0
CLASS
  1
DICTIONARYVAR
  2
AcDbDictionaryVar
  3
ObjectDBX Classes
 90
        0
 91
       13
280
     0
281
     0
  0
CLASS
  1
EXACXREFPANELOBJECT
  2
ExAcXREFPanelObject
  3
EXAC_ESW
 90
     1025
 91
        0
280
     1
281
     0
  0
CLASS
  1
NPOCOLLECTION
  2
AcDbImpNonPersistentObjectsCollection
  3
ObjectDBX Classes
 90
     1153
 91
        0
280
     1
281
     0
  0
CLASS
  1
SCALE
  2
AcDbScale
  3
ObjectDBX Classes
 90
     1153
 91
       33
280
     0
281
     0
  0
CLASS
  1
MLEADERSTYLE
  2
AcDbMLeaderStyle
  3
ACDB_MLEADERSTYLE_CLASS
 90
     4095
 91
        1
280
     0
281
     0
  0
CLASS
  1
ACDBSECTIONVIEWSTYLE
  2
AcDbSectionViewStyle
  3
ObjectDBX Classes
 90
     1025
 91
        2
280
     0
281
     0
  0
CLASS
  1
ACDBDETAILVIEWSTYLE
  2
AcDbDetailViewStyle
  3
ObjectDBX Classes
 90
     1025
 91
        2
280
     0
281
     0
  0
CLASS
  1
CELLSTYLEMAP
  2
AcDbCellStyleMap
  3
ObjectDBX Classes
 90
     1152
 91
        2
280
     0
281
     0
  0
CLASS
  1
ACAD_EVALUATION_GRAPH
  2
AcDbEvalGraph
  3
ObjectDBX Classes
 90
     1153
 91
        0
280
     0
281
     0
  0
CLASS
  1
ACAECUSTOBJ
  2
AcAeEditorObj
  3
AcAeEditorObj
 90
     1024
 91
        0
280
     0
281
     0
  0
CLASS
  1
ACDB_DYNAMICBLOCKPURGEPREVENTER_VERSION
  2
AcDbDynamicBlockPurgePreventer
  3
ObjectDBX Classes
 90
     1153
 91
        0
280
     0
281
     0
  0
CLASS
  1
FIELD
  2
AcDbField
  3
ObjectDBX Classes
 90
     1152
 91
        0
280
     0
281
     0
  0
CLASS
  1
FIELDLIST
  2
AcDbFieldList
  3
ObjectDBX Classes
 90
     1152
 91
        1
280
     0
281
     0
  0
CLASS
  1
ACDB_ALDIMOBJECTCONTEXTDATA_CLASS
  2
AcDbAlignedDimensionObjectContextData
  3
ObjectDBX Classes
 90
     1153
 91
        0
280
     0
281
     0
  0
ENDSEC
  0
SECTION
  2
TABLES
  0
TABLE
  2
VPORT
  5
8
330
0
100
AcDbSymbolTable
 70
     1
  0
VPORT
  5
1F4
330
8
100
AcDbSymbolTableRecord
100
AcDbViewportTableRecord
  2
*ACTIVE
 70
     0
 10
0.0
 20
0.0
 11
1.0
 21
1.0
 12
-16.19476246903036
 22
0.0995787599148912
 13
0.0
 23
0.0
 14
1.0
 24
1.0
 15
0.0
 25
0.0
 16
0.0
 26
0.0
 36
1.0
 17
0.0
 27
0.0
 37
0.0
 40
110.530850268966
 41
2.698140200286123
 42
50.0
 43
0.0
 44
0.0
 50
0.0
 51
0.0
 71
     0
 72
  2000
 73
     1
 74
     1
 75
     0
 76
     0
 77
     0
 78
     0
281
     0
 65
     1
110
0.0
120
0.0
130
0.0
111
1.0
121
0.0
131
0.0
112
0.0
122
1.0
132
0.0
 79
     0
146
0.0
348
3195
 60
     3
 61
     5
292
     1
282
     1
141
0.0
142
0.0
 63
   250
421
  3355443
1001
ACAD_NAV_VCDISPLAY
1070
     3
  0
ENDTAB
  0
TABLE
  2
LTYPE
  5
5
330
0
100
AcDbSymbolTable
 70
     6
  0
LTYPE
  5
14
330
5
100
AcDbSymbolTableRecord
100
AcDbLinetypeTableRecord
  2
BYBLOCK
 70
     0
  3

 72
    65
 73
     0
 40
0.0
  0
LTYPE
  5
15
330
5
100
AcDbSymbolTableRecord
100
AcDbLinetypeTableRecord
  2
BYLAYER
 70
     0
  3

 72
    65
 73
     0
 40
0.0
  0
LTYPE
  5
16
330
5
100
AcDbSymbolTableRecord
100
AcDbLinetypeTableRecord
  2
CONTINUOUS
 70
     0
  3
Solid line
 72
    65
 73
     0
 40
0.0
  0
LTYPE
  5
9C48
330
5
100
AcDbSymbolTableRecord
100
AcDbLinetypeTableRecord
  2
CENTER
 70
     0
  3
____ _ ____ _ ____ _ ____ _ ____ _ ____ _ ____
 72
    65
 73
     4
 40
0.6
 49
0.375
 74
     0
 49
-0.075
 74
     0
 49
0.075
 74
     0
 49
-0.075
 74
     0
  0
LTYPE
  5
20A82
330
5
100
AcDbSymbolTableRecord
100
AcDbLinetypeTableRecord
  2
HIDDEN
 70
     0
  3
- - - - - - - - - - - - - - - - - - - -
 72
    65
 73
     2
 40
0.2
 49
0.1
 74
     0
 49
-0.1
 74
     0
  0
LTYPE
  5
21CB3
330
5
100
AcDbSymbolTableRecord
100
AcDbLinetypeTableRecord
  2
CENTER2
 70
     0
  3
Center (.5x) ___ _ ___ _ ___ _ ___ _ ___ _ ___
 72
    65
 73
     4
 40
28.57499999999999
 49
19.05
 74
     4
 75
     0
340
0
 46
1.0
 50
0.0
 44
0.0
 45
0.0
 49
-3.174999999999998
 74
     4
 75
     0
340
0
 46
1.0
 50
0.0
 44
0.0
 45
0.0
 49
3.174999999999998
 74
     4
 75
     0
340
0
 46
1.0
 50
0.0
 44
0.0
 45
0.0
 49
-3.174999999999998
 74
     4
 75
     0
340
0
 46
1.0
 50
0.0
 44
0.0
 45
0.0
  0
ENDTAB
  0
TABLE
  2
LAYER
  5
2
102
{ACAD_XDICTIONARY
360
422A
102
}
330
0
100
AcDbSymbolTable
 70
    16
  0
LAYER
  5
10
102
{ACAD_XDICTIONARY
360
1B2F5
102
}
330
2
100
AcDbSymbolTableRecord
100
AcDbLayerTableRecord
  2
0
 70
     0
 62
     7
  6
CONTINUOUS
370
    -3
390
318A
347
318E
  0
LAYER
  5
3F8C
102
{ACAD_XDICTIONARY
360
1B2F7
102
}
330
2
100
AcDbSymbolTableRecord
100
AcDbLayerTableRecord
  2
1
 70
     0
 62
     4
  6
BYBLOCK
370
    50
390
318A
347
318E
  0
LAYER
  5
3FA7
330
2
100
AcDbSymbolTableRecord
100
AcDbLayerTableRecord
  2
Defpoints
 70
     0
 62
     7
  6
CONTINUOUS
290
     0
370
    -3
390
318A
347
318E
  0
LAYER
  5
9C4A
102
{ACAD_XDICTIONARY
360
1B2F9
102
}
330
2
100
AcDbSymbolTableRecord
100
AcDbLayerTableRecord
  2
2
 70
     0
 62
     7
  6
BYBLOCK
370
    25
390
318A
347
318E
  0
LAYER
  5
9C4B
102
{ACAD_XDICTIONARY
360
1B2FB
102
}
330
2
100
AcDbSymbolTableRecord
100
AcDbLayerTableRecord
  2
4
 70
     0
 62
     2
  6
CENTER
370
    25
390
318A
347
318E
  0
LAYER
  5
9C4D
102
{ACAD_XDICTIONARY
360
1B2FD
102
}
330
2
100
AcDbSymbolTableRecord
100
AcDbLayerTableRecord
  2
CUT
 70
     0
 62
     1
  6
BYBLOCK
370
    25
390
318A
347
318E
  0
LAYER
  5
9C4E
102
{ACAD_XDICTIONARY
360
1B2FF
102
}
330
2
100
AcDbSymbolTableRecord
100
AcDbLayerTableRecord
  2
NOCUT
 70
     0
 62
     7
  6
BYBLOCK
370
    25
390
318A
347
318E
  0
LAYER
  5
9C4F
102
{ACAD_XDICTIONARY
360
1B301
102
}
330
2
100
AcDbSymbolTableRecord
100
AcDbLayerTableRecord
  2
SK2
 70
     0
 62
     7
  6
BYBLOCK
370
    25
390
318A
347
318E
  0
LAYER
  5
9C50
102
{ACAD_XDICTIONARY
360
1B303
102
}
330
2
100
AcDbSymbolTableRecord
100
AcDbLayerTableRecord
  2
SK1
 70
     0
 62
     4
  6
BYBLOCK
370
    50
390
318A
347
318E
  0
LAYER
  5
9C51
102
{ACAD_XDICTIONARY
360
1B305
102
}
330
2
100
AcDbSymbolTableRecord
100
AcDbLayerTableRecord
  2
SK4
 70
     0
 62
     2
  6
CENTER
370
    25
390
318A
347
318E
  0
LAYER
  5
13335
102
{ACAD_XDICTIONARY
360
1B307
102
}
330
2
100
AcDbSymbolTableRecord
100
AcDbLayerTableRecord
  2
INFTOTAL
 70
     0
 62
     9
  6
BYBLOCK
370
    18
390
318A
347
318E
1001
AcAecLayerStandard
1000

1000

  0
LAYER
  5
1686E
102
{ACAD_XDICTIONARY
360
1B309
102
}
330
2
100
AcDbSymbolTableRecord
100
AcDbLayerTableRecord
  2
SK6
 70
     0
 62
     5
  6
BYBLOCK
370
    -3
390
318A
347
318E
  0
LAYER
  5
21CB4
330
2
100
AcDbSymbolTableRecord
100
AcDbLayerTableRecord
  2
SK3
 70
     0
 62
     1
  6
HIDDEN
370
    35
390
318A
347
318E
  0
LAYER
  5
21CB5
330
2
100
AcDbSymbolTableRecord
100
AcDbLayerTableRecord
  2
SKVIEW1
 70
     0
 62
     4
  6
CONTINUOUS
370
    50
390
318A
347
318E
1001
AcAecLayerStandard
1000

1000

  0
LAYER
  5
21CB6
330
2
100
AcDbSymbolTableRecord
100
AcDbLayerTableRecord
  2
SKVIEW4
 70
     0
 62
     2
  6
CENTER2
370
    25
390
318A
347
318E
1001
AcAecLayerStandard
1000

1000

  0
ENDTAB
  0
TABLE
  2
STYLE
  5
3
330
0
100
AcDbSymbolTable
 70
     2
  0
STYLE
  5
11
330
3
100
AcDbSymbolTableRecord
100
AcDbTextStyleTableRecord
  2
STANDARD
 70
     0
 40
3.5
 41
0.8
 50
0.0
 71
     0
 42
3.5
  3
monos.ttf
  4

1001
ACAD
1000
Monospac821 BT
1071
       49
  0
ENDTAB
  0
TABLE
  2
VIEW
  5
6
330
0
100
AcDbSymbolTable
 70
     0
  0
ENDTAB
  0
TABLE
  2
UCS
  5
7
330
0
100
AcDbSymbolTable
 70
     0
  0
ENDTAB
  0
TABLE
  2
APPID
  5
9
330
0
100
AcDbSymbolTable
 70
    19
  0
APPID
  5
23B
330
9
100
AcDbSymbolTableRecord
100
AcDbRegAppTableRecord
  2
ACAD
 70
     0
  0
APPID
  5
3395
330
9
100
AcDbSymbolTableRecord
100
AcDbRegAppTableRecord
  2
ACAD_EXEMPT_FROM_CAD_STANDARDS
 70
     0
  0
APPID
  5
4229
330
9
100
AcDbSymbolTableRecord
100
AcDbRegAppTableRecord
  2
AcAecLayerStandard
 70
     0
  0
APPID
  5
9A1B
330
9
100
AcDbSymbolTableRecord
100
AcDbRegAppTableRecord
  2
ACAD_PSEXT
 70
     0
  0
APPID
  5
1B313
330
9
100
AcDbSymbolTableRecord
100
AcDbRegAppTableRecord
  2
ACAD_NAV_VCDISPLAY
 70
     0
  0
APPID
  5
1B355
330
9
100
AcDbSymbolTableRecord
100
AcDbRegAppTableRecord
  2
ACAD_MLEADERVER
 70
     0
  0
APPID
  5
1EC7F
330
9
100
AcDbSymbolTableRecord
100
AcDbRegAppTableRecord
  2
ACAUTHENVIRON
 70
     0
  0
APPID
  5
1EC82
330
9
100
AcDbSymbolTableRecord
100
AcDbRegAppTableRecord
  2
AcDbDynamicBlockTrueName
 70
     0
  0
APPID
  5
1EC83
330
9
100
AcDbSymbolTableRecord
100
AcDbRegAppTableRecord
  2
AcDbDynamicBlockGUID
 70
     0
  0
APPID
  5
20A85
330
9
100
AcDbSymbolTableRecord
100
AcDbRegAppTableRecord
  2
AcCmTransparency
 70
     0
  0
APPID
  5
20AE2
330
9
100
AcDbSymbolTableRecord
100
AcDbRegAppTableRecord
  2
ACAD_DSTYLE_DIMRADIAL_EXTENSION
 70
     0
  0
APPID
  5
20CB0
330
9
100
AcDbSymbolTableRecord
100
AcDbRegAppTableRecord
  2
AcadAnnotative
 70
     0
  0
APPID
  5
21667
330
9
100
AcDbSymbolTableRecord
100
AcDbRegAppTableRecord
  2
AcadAnnoMonitorAlertIconDisabled
 70
     0
  0
APPID
  5
21CB9
330
9
100
AcDbSymbolTableRecord
100
AcDbRegAppTableRecord
  2
ACAD_DSTYLE_DIMJAG
 70
     0
  0
APPID
  5
21CBA
330
9
100
AcDbSymbolTableRecord
100
AcDbRegAppTableRecord
  2
ACAD_DSTYLE_DIMTALN
 70
     0
  0
APPID
  5
21CBB
330
9
100
AcDbSymbolTableRecord
100
AcDbRegAppTableRecord
  2
ACAD_DSTYLE_DIM_LINETYPE
 70
     0
  0
APPID
  5
21CBC
330
9
100
AcDbSymbolTableRecord
100
AcDbRegAppTableRecord
  2
ACAD_DSTYLE_DIM_EXT1_LINETYPE
 70
     0
  0
APPID
  5
21CBD
330
9
100
AcDbSymbolTableRecord
100
AcDbRegAppTableRecord
  2
ACAD_DSTYLE_DIM_EXT2_LINETYPE
 70
     0
  0
APPID
  5
21CBE
330
9
100
AcDbSymbolTableRecord
100
AcDbRegAppTableRecord
  2
ACAD_DSTYLE_DIMARC_LENGTH_SYMBOL
 70
     0
  0
ENDTAB
  0
TABLE
  2
DIMSTYLE
  5
A
330
0
100
AcDbSymbolTable
 70
     3
100
AcDbDimStyleTable
 71
     1
340
243
  0
DIMSTYLE
105
243
102
{ACAD_REACTORS
330
21DFF
330
21DFC
330
21DFE
330
21DFD
330
21F22
102
}
330
A
100
AcDbSymbolTableRecord
100
AcDbDimStyleTableRecord
  2
STANDARD
 70
     0
 41
4.57
 47
0.01
 48
0.01
 73
     0
 74
     0
 77
     1
 78
     8
140
3.5
271
     3
272
     3
284
     8
289
     0
340
11
  0
ENDTAB
  0
TABLE
  2
BLOCK_RECORD
  5
1
330
0
100
AcDbSymbolTable
 70
    18
  0
BLOCK_RECORD
  5
1F
102
{ACAD_XDICTIONARY
360
339C
102
}
330
1
100
AcDbSymbolTableRecord
100
AcDbBlockTableRecord
  2
*MODEL_SPACE
340
31A6
 70
     0
280
     1
281
     0
  0
BLOCK_RECORD
  5
1B
330
1
100
AcDbSymbolTableRecord
100
AcDbBlockTableRecord
  2
*PAPER_SPACE
340
31A7
 70
     0
280
     1
281
     0
  0
BLOCK_RECORD
  5
1B3D7
102
{ACAD_XDICTIONARY
360
1DE81
102
}
330
1
100
AcDbSymbolTableRecord
100
AcDbBlockTableRecord
  2
cero_point
340
0
310
28000000200000002000000001002000000000000010000001000000010000000000000000000000302821FF302821FF302821FF302821FF302821FF302821FF302821FF302821FF302821FF302821FF302821FF302821FF302821FF302821FF302821FF302821FF302821FF302821FF302821FF302821FF302821FF302821
310
FF302821FF302821FF302821FF302821FF302821FF302821FF302821FF302821FF302821FF302821FF302821FF302821FF302821FF302821FF302821FF302821FF302821FF302821FF302821FF302821FF302821FF302821FF302821FF302821FF302821FFFFFF00FFFFFF00FFFFFF00FF302821FF302821FF302821FF3028
310
21FF302821FF302821FF302821FF302821FF302821FF302821FF302821FF302821FF302821FF302821FF302821FF302821FF302821FF302821FF302821FF302821FF302821FF302821FF302821FF302821FFFFFF00FFFFFF00FFFFFF00FFFFFF00FFFFFF00FFFFFF00FFFFFF00FF302821FFFFFF00FFFFFF00FFFFFF00FF30
310
2821FF302821FF302821FF302821FF302821FF302821FF302821FF302821FF302821FF302821FF302821FF302821FF302821FF302821FF302821FF302821FF302821FF302821FF302821FFFFFF00FFFFFF00FFFFFF00FFFFFF00FFFFFF00FFFFFF00FFFFFF00FFFFFF00FFFFFF00FF302821FF302821FF302821FF302821FF
310
FFFF00FFFFFF00FF302821FF302821FF302821FF302821FF302821FF302821FF302821FF302821FF302821FF302821FF302821FF302821FF302821FF302821FF302821FF302821FFFFFF00FFFFFF00FFFFFF00FFFFFF00FFFFFF00FFFFFF00FFFFFF00FFFFFF00FFFFFF00FFFFFF00FF302821FF302821FF302821FF302821
310
FF302821FF302821FFFFFF00FFFFFF00FF302821FF302821FF302821FF302821FF302821FF302821FF302821FF302821FF302821FF302821FF302821FF302821FF302821FFFFFF00FFFFFF00FFFFFF00FFFFFF00FFFFFF00FFFFFF00FFFFFF00FFFFFF00FFFFFF00FFFFFF00FFFFFF00FF302821FF302821FF302821FF3028
310
21FF302821FF302821FF302821FF302821FFFFFF00FF302821FF302821FF302821FF302821FF302821FF302821FF302821FF302821FF302821FF302821FF302821FFFFFF00FFFFFF00FFFFFF00FFFFFF00FFFFFF00FFFFFF00FFFFFF00FFFFFF00FFFFFF00FFFFFF00FFFFFF00FFFFFF00FF302821FF302821FF302821FF30
310
2821FF302821FF302821FF302821FF302821FF302821FFFFFF00FF302821FF302821FF302821FF302821FF302821FF302821FF302821FF302821FF302821FFFFFF00FFFFFF00FFFFFF00FFFFFF00FFFFFF00FFFFFF00FFFFFF00FFFFFF00FFFFFF00FFFFFF00FFFFFF00FFFFFF00FFFFFF00FF302821FF302821FF302821FF
310
302821FF302821FF302821FF302821FF302821FF302821FF302821FFFFFF00FF302821FF302821FF302821FF302821FF302821FF302821FF302821FFFFFF00FFFFFF00FFFFFF00FFFFFF00FFFFFF00FFFFFF00FFFFFF00FFFFFF00FFFFFF00FFFFFF00FFFFFF00FFFFFF00FFFFFF00FFFFFF00FF302821FF302821FF302821
310
FF302821FF302821FF302821FF302821FF302821FF302821FF302821FFFFFF00FF302821FF302821FF302821FF302821FF302821FF302821FF302821FFFFFF00FFFFFF00FFFFFF00FFFFFF00FFFFFF00FFFFFF00FFFFFF00FFFFFF00FFFFFF00FFFFFF00FFFFFF00FFFFFF00FFFFFF00FFFFFF00FF302821FF302821FF3028
310
21FF302821FF302821FF302821FF302821FF302821FF302821FF302821FF302821FFFFFF00FF302821FF302821FF302821FF302821FF302821FFFFFF00FFFFFF00FFFFFF00FFFFFF00FFFFFF00FFFFFF00FFFFFF00FFFFFF00FFFFFF00FFFFFF00FFFFFF00FFFFFF00FFFFFF00FFFFFF00FFFFFF00FF302821FF302821FF30
310
2821FF302821FF302821FF302821FF302821FF302821FF302821FF302821FF302821FF302821FFFFFF00FF302821FF302821FF302821FF302821FFFFFF00FFFFFF00FFFFFF00FFFFFF00FFFFFF00FFFFFF00FFFFFF00FFFFFF00FFFFFF00FFFFFF00FFFFFF00FFFFFF00FFFFFF00FFFFFF00FFFFFF00FF302821FF302821FF
310
302821FF302821FF302821FF302821FF302821FF302821FF302821FF302821FF302821FF302821FFFFFF00FF302821FF302821FF302821FF302821FFFFFF00FFFFFF00FFFFFF00FFFFFF00FFFFFF00FFFFFF00FFFFFF00FFFFFF00FFFFFF00FFFFFF00FFFFFF00FFFFFF00FFFFFF00FFFFFF00FFFFFF00FF302821FF302821
310
FF302821FF302821FF302821FF302821FF302821FF302821FF302821FF302821FF302821FF302821FFFFFF00FF302821FF302821FF302821FF302821FFFFFF00FFFFFF00FFFFFF00FFFFFF00FFFFFF00FFFFFF00FFFFFF00FFFFFF00FFFFFF00FFFFFF00FFFFFF00FFFFFF00FFFFFF00FFFFFF00FFFFFF00FF302821FF3028
310
21FF302821FF302821FF302821FF302821FF302821FF302821FF302821FF302821FF302821FF302821FFFFFF00FF302821FF302821FF302821FFFFFF00FFFFFF00FFFFFF00FFFFFF00FFFFFF00FFFFFF00FFFFFF00FFFFFF00FFFFFF00FFFFFF00FFFFFF00FFFFFF00FFFFFF00FFFFFF00FFFFFF00FFFFFF00FF302821FF30
310
2821FF302821FF302821FF302821FF302821FF302821FF302821FF302821FF302821FF302821FF302821FF302821FFFFFF00FF302821FF302821FFFFFF00FFFFFF00FFFFFF00FFFFFF00FFFFFF00FFFFFF00FFFFFF00FFFFFF00FFFFFF00FFFFFF00FFFFFF00FFFFFF00FFFFFF00FFFFFF00FFFFFF00FFFFFF00FFFFFF00FF
310
FFFF00FFFFFF00FFFFFF00FFFFFF00FFFFFF00FFFFFF00FFFFFF00FFFFFF00FFFFFF00FFFFFF00FFFFFF00FFFFFF00FFFFFF00FF302821FF302821FFFFFF00FF302821FF302821FF302821FF302821FF302821FF302821FF302821FF302821FF302821FF302821FF302821FF302821FF302821FF302821FFFFFF00FFFFFF00
310
FFFFFF00FFFFFF00FFFFFF00FFFFFF00FFFFFF00FFFFFF00FFFFFF00FFFFFF00FFFFFF00FFFFFF00FFFFFF00FFFFFF00FFFFFF00FF302821FF302821FFFFFF00FF302821FF302821FF302821FF302821FF302821FF302821FF302821FF302821FF302821FF302821FF302821FF302821FF302821FF302821FFFFFF00FFFFFF
310
00FFFFFF00FFFFFF00FFFFFF00FFFFFF00FFFFFF00FFFFFF00FFFFFF00FFFFFF00FFFFFF00FFFFFF00FFFFFF00FFFFFF00FF302821FF302821FF302821FF302821FFFFFF00FF302821FF302821FF302821FF302821FF302821FF302821FF302821FF302821FF302821FF302821FF302821FF302821FF302821FFFFFF00FFFF
310
FF00FFFFFF00FFFFFF00FFFFFF00FFFFFF00FFFFFF00FFFFFF00FFFFFF00FFFFFF00FFFFFF00FFFFFF00FFFFFF00FFFFFF00FF302821FF302821FF302821FF302821FFFFFF00FF302821FF302821FF302821FF302821FF302821FF302821FF302821FF302821FF302821FF302821FF302821FF302821FF302821FFFFFF00FF
310
FFFF00FFFFFF00FFFFFF00FFFFFF00FFFFFF00FFFFFF00FFFFFF00FFFFFF00FFFFFF00FFFFFF00FFFFFF00FFFFFF00FFFFFF00FF302821FF302821FF302821FF302821FFFFFF00FF302821FF302821FF302821FF302821FF302821FF302821FF302821FF302821FF302821FF302821FF302821FF302821FF302821FFFFFF00
310
FFFFFF00FFFFFF00FFFFFF00FFFFFF00FFFFFF00FFFFFF00FFFFFF00FFFFFF00FFFFFF00FFFFFF00FFFFFF00FFFFFF00FFFFFF00FF302821FF302821FF302821FF302821FF302821FFFFFF00FF302821FF302821FF302821FF302821FF302821FF302821FF302821FF302821FF302821FF302821FF302821FF302821FFFFFF
310
00FFFFFF00FFFFFF00FFFFFF00FFFFFF00FFFFFF00FFFFFF00FFFFFF00FFFFFF00FFFFFF00FFFFFF00FFFFFF00FFFFFF00FFFFFF00FF302821FF302821FF302821FF302821FF302821FFFFFF00FF302821FF302821FF302821FF302821FF302821FF302821FF302821FF302821FF302821FF302821FF302821FF302821FFFF
310
FF00FFFFFF00FFFFFF00FFFFFF00FFFFFF00FFFFFF00FFFFFF00FFFFFF00FFFFFF00FFFFFF00FFFFFF00FFFFFF00FFFFFF00FF302821FF302821FF302821FF302821FF302821FF302821FF302821FFFFFF00FF302821FF302821FF302821FF302821FF302821FF302821FF302821FF302821FF302821FF302821FF302821FF
310
FFFF00FFFFFF00FFFFFF00FFFFFF00FFFFFF00FFFFFF00FFFFFF00FFFFFF00FFFFFF00FFFFFF00FFFFFF00FFFFFF00FFFFFF00FF302821FF302821FF302821FF302821FF302821FF302821FF302821FFFFFF00FF302821FF302821FF302821FF302821FF302821FF302821FF302821FF302821FF302821FF302821FF302821
310
FFFFFF00FFFFFF00FFFFFF00FFFFFF00FFFFFF00FFFFFF00FFFFFF00FFFFFF00FFFFFF00FFFFFF00FFFFFF00FFFFFF00FF302821FF302821FF302821FF302821FF302821FF302821FF302821FF302821FF302821FFFFFF00FF302821FF302821FF302821FF302821FF302821FF302821FF302821FF302821FF302821FF3028
310
21FFFFFF00FFFFFF00FFFFFF00FFFFFF00FFFFFF00FFFFFF00FFFFFF00FFFFFF00FFFFFF00FFFFFF00FFFFFF00FF302821FF302821FF302821FF302821FF302821FF302821FF302821FF302821FF302821FF302821FF302821FFFFFF00FF302821FF302821FF302821FF302821FF302821FF302821FF302821FF302821FF30
310
2821FFFFFF00FFFFFF00FFFFFF00FFFFFF00FFFFFF00FFFFFF00FFFFFF00FFFFFF00FFFFFF00FFFFFF00FF302821FF302821FF302821FF302821FF302821FF302821FF302821FF302821FF302821FF302821FF302821FF302821FF302821FFFFFF00FF302821FF302821FF302821FF302821FF302821FF302821FF302821FF
310
302821FFFFFF00FFFFFF00FFFFFF00FFFFFF00FFFFFF00FFFFFF00FFFFFF00FFFFFF00FFFFFF00FF302821FF302821FF302821FF302821FF302821FF302821FF302821FF302821FF302821FF302821FF302821FF302821FF302821FF302821FF302821FFFFFF00FFFFFF00FF302821FF302821FF302821FF302821FF302821
310
FF302821FFFFFF00FFFFFF00FFFFFF00FFFFFF00FFFFFF00FFFFFF00FFFFFF00FFFFFF00FF302821FF302821FF302821FF302821FF302821FF302821FF302821FF302821FF302821FF302821FF302821FF302821FF302821FF302821FF302821FF302821FF302821FF302821FFFFFF00FFFFFF00FFFFFF00FFFFFF00FFFFFF
310
00FF302821FFFFFF00FFFFFF00FFFFFF00FFFFFF00FFFFFF00FFFFFF00FF302821FF302821FF302821FF302821FF302821FF302821FF302821FF302821FF302821FF302821FF302821FF302821FF302821FF302821FF302821FF302821FF302821FF302821FF302821FF302821FF302821FF302821FF302821FF302821FF30
310
2821FFFFFF00FFFFFF00FFFFFF00FF302821FF302821FF302821FF302821FF302821FF302821FF302821FF302821FF302821FF302821FF302821FF302821FF302821FF302821FF302821FF302821FF302821FF302821FF302821FF302821FF302821FF302821FF302821FF302821FF302821FF302821FF302821FF302821FF
310
302821FF302821FF302821FF302821FF302821FF302821FF302821FF302821FF302821FF302821FF302821FF302821FF302821FF302821FF302821FF302821FF302821FF302821FF
102
{BLKREFS
331
21DF4
102
}
 70
     0
280
     1
281
     1
  0
BLOCK_RECORD
  5
21F23
330
1
100
AcDbSymbolTableRecord
100
AcDbBlockTableRecord
  2
*D12
340
0
 70
     0
280
     1
281
     0
  0
BLOCK_RECORD
  5
21F2F
330
1
100
AcDbSymbolTableRecord
100
AcDbBlockTableRecord
  2
*D13
340
0
 70
     0
280
     1
281
     0
  0
BLOCK_RECORD
  5
21F3B
330
1
100
AcDbSymbolTableRecord
100
AcDbBlockTableRecord
  2
*D14
340
0
 70
     0
280
     1
281
     0
  0
BLOCK_RECORD
  5
21F49
330
1
100
AcDbSymbolTableRecord
100
AcDbBlockTableRecord
  2
*D15
340
0
 70
     0
280
     1
281
     0
  0
BLOCK_RECORD
  5
21F55
330
1
100
AcDbSymbolTableRecord
100
AcDbBlockTableRecord
  2
*D16
340
0
 70
     0
280
     1
281
     0
  0
ENDTAB
  0
ENDSEC
  0
SECTION
  2
BLOCKS
  0
BLOCK
  5
20
330
1F
100
AcDbEntity
  8
0
100
AcDbBlockBegin
  2
*MODEL_SPACE
 70
     0
 10
0.0
 20
0.0
 30
0.0
  3
*MODEL_SPACE
  1

  0
ENDBLK
  5
21
330
1F
100
AcDbEntity
  8
0
100
AcDbBlockEnd
  0
BLOCK
  5
1C
330
1B
100
AcDbEntity
 67
     1
  8
0
100
AcDbBlockBegin
  2
*PAPER_SPACE
 70
     0
 10
0.0
 20
0.0
 30
0.0
  3
*PAPER_SPACE
  1

  0
ENDBLK
  5
1D
330
1B
100
AcDbEntity
 67
     1
  8
0
100
AcDbBlockEnd
  0
BLOCK
  5
1B3D8
330
1B3D7
100
AcDbEntity
  8
0
100
AcDbBlockBegin
  2
cero_point
 70
     0
 10
0.0
 20
0.0
 30
0.0
  3
cero_point
  1

  0
HATCH
  5
1B3DA
330
1B3D7
100
AcDbEntity
  8
1
  6
ByBlock
370
    50
100
AcDbHatch
 10
0.0
 20
0.0
 30
0.0
210
0.0
220
0.0
230
1.0
  2
SOLID
 70
     1
 71
     0
 91
        2
 92
        7
 72
     1
 73
     1
 93
        3
 10
-0.0000000000001137
 20
0.0
 42
0.0
 10
-2.950972054112752
 20
0.0
 42
0.4142135623730968
 10
-0.0000000000001137
 20
-2.950972054112583
 42
0.0
 97
        0
 92
        7
 72
     1
 73
     1
 93
        3
 10
-0.0000000000001137
 20
2.950972054112638
 42
0.0
 10
-0.0000000000001137
 20
0.0
 42
0.0
 10
2.950972054112526
 20
0.0
 42
0.4142135623730966
 97
        0
 75
     0
 76
     1
 47
0.1190009775223266
 98
        2
 10
-0.7445530588121301
 20
-0.9212244733764125
 10
1.279464601852737
 20
1.696796923046345
450
        0
451
        0
460
0.0
461
0.0
452
        0
462
0.0
453
        0
470

  0
LWPOLYLINE
  5
1B3DB
330
1B3D7
100
AcDbEntity
  8
1
  6
ByBlock
370
    50
100
AcDbPolyline
 90
        3
 70
     1
 43
0.0
 10
-0.0000000000001137
 20
0.0
 10
2.950972054112526
 20
0.0
 42
0.4142135623730966
 10
-0.0000000000001137
 20
2.950972054112638
  0
LINE
  5
1B3DC
330
1B3D7
100
AcDbEntity
  8
1
  6
ByBlock
370
    50
100
AcDbLine
 10
-0.0000000000001137
 20
-2.950972054112583
 30
0.0
 11
-0.0000000000001137
 21
2.950972054112638
 31
0.0
  0
LWPOLYLINE
  5
1B3DD
330
1B3D7
100
AcDbEntity
  8
1
  6
ByBlock
370
    50
100
AcDbPolyline
 90
        3
 70
     1
 43
0.0
 10
-0.0000000000001137
 20
-2.950972054112583
 10
-0.0000000000001137
 20
0.0
 10
-2.950972054112752
 20
0.0
 42
0.4142135623730966
  0
LINE
  5
1B3DE
330
1B3D7
100
AcDbEntity
  8
1
  6
ByBlock
370
    50
100
AcDbLine
 10
2.950972054112638
 20
0.0
 30
0.0
 11
-2.950972054112638
 21
0.0
 31
0.0
  0
CIRCLE
  5
1B3DF
330
1B3D7
100
AcDbEntity
  8
1
  6
ByBlock
370
    50
100
AcDbCircle
 10
-0.0000000000001137
 20
0.0
 30
0.0
 40
2.950972054112601
  0
ENDBLK
  5
1B3D9
330
1B3D7
100
AcDbEntity
  8
0
100
AcDbBlockEnd
  0
BLOCK
  5
21F24
330
21F23
100
AcDbEntity
  8
0
100
AcDbBlockBegin
  2
*D12
 70
     1
 10
0.0
 20
0.0
 30
0.0
  3
*D12
  1

  0
LINE
  5
220C6
330
21F23
100
AcDbEntity
  8
2
 62
     0
440
 16777216
370
    -2
100
AcDbLine
 10
26.73250000000348
 20
7.949999999999988
 30
0.0
 11
42.51640546120216
 21
7.949999999999984
 31
0.0
  0
LINE
  5
220C7
330
21F23
100
AcDbEntity
  8
2
 62
     0
440
 16777216
370
    -2
100
AcDbLine
 10
26.73250000000348
 20
-7.949999999999988
 30
0.0
 11
42.51640546120216
 21
-7.949999999999993
 31
0.0
  0
LINE
  5
220C8
330
21F23
100
AcDbEntity
  8
2
 62
     0
440
 16777216
370
    -2
100
AcDbLine
 10
42.33640546120216
 20
3.379999999999984
 30
0.0
 11
42.33640546120216
 21
-3.379999999999992
 31
0.0
  0
SOLID
  5
220C9
330
21F23
100
AcDbEntity
  8
2
 62
     0
440
 16777216
100
AcDbTrace
 10
41.57473879453549
 20
3.379999999999984
 30
0.0
 11
43.09807212786883
 21
3.379999999999983
 31
0.0
 12
42.33640546120216
 22
7.949999999999984
 32
0.0
 13
42.33640546120216
 23
7.949999999999984
 33
0.0
  0
SOLID
  5
220CA
330
21F23
100
AcDbEntity
  8
2
 62
     0
440
 16777216
100
AcDbTrace
 10
41.57473879453549
 20
-3.379999999999992
 30
0.0
 11
43.09807212786883
 21
-3.379999999999992
 31
0.0
 12
42.33640546120216
 22
-7.949999999999993
 32
0.0
 13
42.33640546120216
 23
-7.949999999999993
 33
0.0
  0
MTEXT
  5
220CB
330
21F23
100
AcDbEntity
  8
2
 62
     0
440
 16777216
100
AcDbMText
 10
40.43491565094214
 20
0.0000000000000002
 30
0.0
 40
3.5
 41
0.0
 46
0.0
 71
     5
 72
     1
  1
\A1;15.9
 11
0.0000000000000001
 21
1.0
 31
0.0
 73
     1
 44
1.0
  0
POINT
  5
220CC
330
21F23
100
AcDbEntity
  8
Defpoints
 62
     0
440
 16777216
100
AcDbPoint
 10
26.67000000000348
 20
7.949999999999988
 30
0.0
  0
POINT
  5
220CD
330
21F23
100
AcDbEntity
  8
Defpoints
 62
     0
440
 16777216
100
AcDbPoint
 10
26.67000000000348
 20
-7.949999999999988
 30
0.0
  0
POINT
  5
220CE
330
21F23
100
AcDbEntity
  8
Defpoints
 62
     0
440
 16777216
100
AcDbPoint
 10
42.33640546120216
 20
-7.949999999999993
 30
0.0
  0
ENDBLK
  5
21F25
330
21F23
100
AcDbEntity
  8
0
100
AcDbBlockEnd
  0
BLOCK
  5
21F30
330
21F2F
100
AcDbEntity
  8
0
100
AcDbBlockBegin
  2
*D13
 70
     1
 10
0.0
 20
0.0
 30
0.0
  3
*D13
  1

  0
LINE
  5
220CF
330
21F2F
100
AcDbEntity
  8
2
 62
     0
440
 16777216
370
    -2
100
AcDbLine
 10
29.84000104065635
 20
0.0624999999913364
 30
0.0
 11
29.84063638128056
 21
38.22008535788834
 31
0.0
  0
LINE
  5
220D0
330
21F2F
100
AcDbEntity
  8
2
 62
     0
440
 16777216
370
    -2
100
AcDbLine
 10
0.0000010406563149
 20
16.20619199999132
 30
0.0
 11
0.0003675899619765
 21
38.22058221152367
 31
0.0
  0
LINE
  5
220D1
330
21F2F
100
AcDbEntity
  8
2
 62
     0
440
 16777216
370
    -2
100
AcDbLine
 10
25.27063338483467
 20
38.04016145042871
 30
0.0
 11
4.570364592249108
 21
38.04050611903321
 31
0.0
  0
SOLID
  5
220D2
330
21F2F
100
AcDbEntity
  8
2
 62
     0
440
 16777216
100
AcDbTrace
 10
25.27064606692057
 20
38.80182811698981
 30
0.0
 11
25.27062070274876
 21
37.27849478386762
 31
0.0
 12
29.84063338420118
 22
38.0400853579133
 32
0.0
 13
29.84063338420118
 23
38.0400853579133
 33
0.0
  0
SOLID
  5
220D3
330
21F2F
100
AcDbEntity
  8
2
 62
     0
440
 16777216
100
AcDbTrace
 10
4.570377274335011
 20
38.8021727855943
 30
0.0
 11
4.570351910163204
 21
37.27883945247211
 31
0.0
 12
0.0003645928825945
 22
38.04058221154863
 32
0.0
 13
0.0003645928825945
 23
38.04058221154863
 33
0.0
  0
MTEXT
  5
220D4
330
21F2F
100
AcDbEntity
  8
2
 62
     0
440
 16777216
100
AcDbMText
 10
14.92017549088064
 20
39.94182360064094
 30
0.0
 40
3.5
 41
0.0
 46
0.0
 71
     5
 72
     1
  1
\A1;29.84
 11
0.9999999998613814
 21
-0.000016650441011
 31
0.0
 73
     1
 44
1.0
  0
POINT
  5
220D5
330
21F2F
100
AcDbEntity
  8
Defpoints
 62
     0
440
 16777216
100
AcDbPoint
 10
29.84000000000378
 20
0.0
 30
0.0
  0
POINT
  5
220D6
330
21F2F
100
AcDbEntity
  8
Defpoints
 62
     0
440
 16777216
100
AcDbPoint
 10
0.0000000000037517
 20
16.14369199999998
 30
0.0
  0
POINT
  5
220D7
330
21F2F
100
AcDbEntity
  8
Defpoints
 62
     0
440
 16777216
100
AcDbPoint
 10
0.0003645928825945
 20
38.04058221154863
 30
0.0
  0
ENDBLK
  5
21F31
330
21F2F
100
AcDbEntity
  8
0
100
AcDbBlockEnd
  0
BLOCK
  5
21F3C
330
21F3B
100
AcDbEntity
  8
0
100
AcDbBlockBegin
  2
*D14
 70
     1
 10
0.0
 20
0.0
 30
0.0
  3
*D14
  1

  0
LINE
  5
220D8
330
21F3B
100
AcDbEntity
  8
2
 62
     0
440
 16777216
370
    -2
100
AcDbLine
 10
25.87000208130855
 20
15.76249999996533
 30
0.0
 11
25.87038362513792
 21
27.21996913200003
 31
0.0
  0
LINE
  5
220D9
330
21F3B
100
AcDbEntity
  8
2
 62
     0
440
 16777216
370
    -2
100
AcDbLine
 10
29.84000208130892
 20
0.0624999999653454
 30
0.0
 11
29.84090644458503
 21
27.21983691008753
 31
0.0
  0
LINE
  5
220DA
330
21F3B
100
AcDbEntity
  8
2
 62
     0
440
 16777216
370
    -2
100
AcDbLine
 10
34.41090044789229
 20
27.03968472515597
 30
0.0
 11
38.98090044535834
 21
27.0395325401246
 31
0.0
  0
LINE
  5
220DB
330
21F3B
100
AcDbEntity
  8
2
 62
     0
440
 16777216
370
    -2
100
AcDbLine
 10
21.30037763351309
 20
27.04012131713121
 30
0.0
 11
5.535338991516495
 21
27.04064630682521
 31
0.0
  0
LINE
  5
220DC
330
21F3B
100
AcDbEntity
  8
2
 62
     0
440
 16777216
370
    -2
100
AcDbLine
 10
29.84090045042624
 20
27.03983691018733
 30
0.0
 11
25.87037763097914
 21
27.03996913209984
 31
0.0
  0
SOLID
  5
220DD
330
21F3B
100
AcDbEntity
  8
2
 62
     0
440
 16777216
100
AcDbTrace
 10
34.41092581206419
 20
27.80135139140031
 30
0.0
 11
34.4108750837204
 21
26.27801805891163
 31
0.0
 12
29.84090045042624
 22
27.03983691018733
 32
0.0
 13
29.84090045042624
 23
27.03983691018733
 33
0.0
  0
SOLID
  5
220DE
330
21F3B
100
AcDbEntity
  8
2
 62
     0
440
 16777216
100
AcDbTrace
 10
21.30040299768498
 20
27.80178798337555
 30
0.0
 11
21.30035226934118
 21
26.27845465088687
 31
0.0
 12
25.87037763097914
 22
27.03996913209984
 32
0.0
 13
25.87037763097914
 23
27.03996913209984
 33
0.0
  0
MTEXT
  5
220DF
330
21F3B
100
AcDbEntity
  8
2
 62
     0
440
 16777216
100
AcDbMText
 10
11.13292163506981
 20
28.94194971369957
 30
0.0
 40
3.5
 41
0.0
 46
0.0
 71
     5
 72
     1
  1
\A1;3.971
 11
0.9999999994455256
 21
-0.0000333008821372
 31
0.0
 73
     1
 44
1.0
  0
POINT
  5
220E0
330
21F3B
100
AcDbEntity
  8
Defpoints
 62
     0
440
 16777216
100
AcDbPoint
 10
25.87000000000342
 20
15.69999999999999
 30
0.0
  0
POINT
  5
220E1
330
21F3B
100
AcDbEntity
  8
Defpoints
 62
     0
440
 16777216
100
AcDbPoint
 10
29.84000000000379
 20
0.0
 30
0.0
  0
POINT
  5
220E2
330
21F3B
100
AcDbEntity
  8
Defpoints
 62
     0
440
 16777216
100
AcDbPoint
 10
29.84090045042624
 20
27.03983691018733
 30
0.0
  0
ENDBLK
  5
21F3D
330
21F3B
100
AcDbEntity
  8
0
100
AcDbBlockEnd
  0
BLOCK
  5
21F4A
330
21F49
100
AcDbEntity
  8
0
100
AcDbBlockBegin
  2
*D15
 70
     1
 10
0.0
 20
0.0
 30
0.0
  3
*D15
  1

  0
LINE
  5
220E3
330
21F49
100
AcDbEntity
  8
2
 62
     0
440
 16777216
370
    -2
100
AcDbLine
 10
25.13250000000346
 20
16.5
 30
0.0
 11
56.5164054612024
 21
16.49999999999999
 31
0.0
  0
LINE
  5
220E4
330
21F49
100
AcDbEntity
  8
2
 62
     0
440
 16777216
370
    -2
100
AcDbLine
 10
25.13250000000346
 20
-16.5
 30
0.0
 11
56.51640546120238
 21
-16.50000000000001
 31
0.0
  0
LINE
  5
220E5
330
21F49
100
AcDbEntity
  8
2
 62
     0
440
 16777216
370
    -2
100
AcDbLine
 10
56.33640546120239
 20
11.92999999999999
 30
0.0
 11
56.33640546120239
 21
-11.93000000000001
 31
0.0
  0
SOLID
  5
220E6
330
21F49
100
AcDbEntity
  8
2
 62
     0
440
 16777216
100
AcDbTrace
 10
55.57473879453572
 20
11.92999999999999
 30
0.0
 11
57.09807212786905
 21
11.92999999999999
 31
0.0
 12
56.3364054612024
 22
16.49999999999999
 32
0.0
 13
56.3364054612024
 23
16.49999999999999
 33
0.0
  0
SOLID
  5
220E7
330
21F49
100
AcDbEntity
  8
2
 62
     0
440
 16777216
100
AcDbTrace
 10
55.57473879453572
 20
-11.93000000000001
 30
0.0
 11
57.09807212786905
 21
-11.93000000000001
 31
0.0
 12
56.33640546120238
 22
-16.50000000000001
 32
0.0
 13
56.33640546120238
 23
-16.50000000000001
 33
0.0
  0
MTEXT
  5
220E8
330
21F49
100
AcDbEntity
  8
2
 62
     0
440
 16777216
100
AcDbMText
 10
54.38326421032396
 20
0.0000000000000002
 30
0.0
 40
3.5
 41
0.0
 46
0.0
 71
     5
 72
     1
  1
\A1;%%c33
 11
0.0000000000000001
 21
1.0
 31
0.0
 73
     1
 44
1.0
  0
POINT
  5
220E9
330
21F49
100
AcDbEntity
  8
Defpoints
 62
     0
440
 16777216
100
AcDbPoint
 10
25.07000000000346
 20
16.5
 30
0.0
  0
POINT
  5
220EA
330
21F49
100
AcDbEntity
  8
Defpoints
 62
     0
440
 16777216
100
AcDbPoint
 10
25.07000000000346
 20
-16.5
 30
0.0
  0
POINT
  5
220EB
330
21F49
100
AcDbEntity
  8
Defpoints
 62
     0
440
 16777216
100
AcDbPoint
 10
56.33640546120238
 20
-16.50000000000001
 30
0.0
  0
ENDBLK
  5
21F4B
330
21F49
100
AcDbEntity
  8
0
100
AcDbBlockEnd
  0
BLOCK
  5
21F56
330
21F55
100
AcDbEntity
  8
0
100
AcDbBlockBegin
  2
*D16
 70
     1
 10
0.0
 20
0.0
 30
0.0
  3
*D16
  1

  0
LINE
  5
220EC
330
21F55
100
AcDbEntity
  8
SK2
 62
     0
440
 16777216
370
    -2
100
AcDbLine
 10
-13.06249999999659
 20
6.400000000000005
 30
0.0
 11
-26.89620145057022
 21
6.40000000000001
 31
0.0
  0
LINE
  5
220ED
330
21F55
100
AcDbEntity
  8
SK2
 62
     0
440
 16777216
370
    -2
100
AcDbLine
 10
-13.06249999999659
 20
-6.400000000000005
 30
0.0
 11
-26.89620145057022
 21
-6.400000000000001
 31
0.0
  0
LINE
  5
220EE
330
21F55
100
AcDbEntity
  8
SK2
 62
     0
440
 16777216
370
    -2
100
AcDbLine
 10
-26.71620145057023
 20
1.830000000000009
 30
0.0
 11
-26.71620145057023
 21
-1.830000000000001
 31
0.0
  0
SOLID
  5
220EF
330
21F55
100
AcDbEntity
  8
SK2
 62
     0
440
 16777216
100
AcDbTrace
 10
-27.47786811723689
 20
1.830000000000009
 30
0.0
 11
-25.95453478390356
 21
1.830000000000009
 31
0.0
 12
-26.71620145057023
 22
6.40000000000001
 32
0.0
 13
-26.71620145057023
 23
6.40000000000001
 33
0.0
  0
SOLID
  5
220F0
330
21F55
100
AcDbEntity
  8
SK2
 62
     0
440
 16777216
100
AcDbTrace
 10
-27.47786811723689
 20
-1.830000000000001
 30
0.0
 11
-25.95453478390356
 21
-1.830000000000001
 31
0.0
 12
-26.71620145057023
 22
-6.400000000000001
 32
0.0
 13
-26.71620145057023
 23
-6.400000000000001
 33
0.0
  0
MTEXT
  5
220F1
330
21F55
100
AcDbEntity
  8
SK2
 62
     0
440
 16777216
100
AcDbMText
 10
-28.66934270144865
 20
-1.913971900463308
 30
0.0
 40
3.5
 41
0.0
 46
0.0
 71
     5
 72
     1
  1
\A1;%%C12.8
 11
0.0000000000000001
 21
1.0
 31
0.0
 73
     1
 44
1.0
  0
POINT
  5
220F2
330
21F55
100
AcDbEntity
  8
Defpoints
 62
     0
440
 16777216
100
AcDbPoint
 10
-12.99999999999659
 20
6.400000000000005
 30
0.0
  0
POINT
  5
220F3
330
21F55
100
AcDbEntity
  8
Defpoints
 62
     0
440
 16777216
100
AcDbPoint
 10
-12.99999999999659
 20
-6.400000000000005
 30
0.0
  0
POINT
  5
220F4
330
21F55
100
AcDbEntity
  8
Defpoints
 62
     0
440
 16777216
100
AcDbPoint
 10
-26.71620145057023
 20
-6.400000000000001
 30
0.0
  0
ENDBLK
  5
21F57
330
21F55
100
AcDbEntity
  8
0
100
AcDbBlockEnd
  0
ENDSEC
  0
SECTION
  2
ENTITIES
  0
MTEXT
  5
211A0
330
1F
100
AcDbEntity
  8
SK6
100
AcDbMText
 10
-4.138207147831849
 20
-34.19498829345696
 30
0.0
 40
3.5
 41
41.87058589293636
 46
0.0
 71
     2
 72
     1
  1
CD3300030YJR00
 73
     1
 44
1.0
1001
ACAD
1000
MTEXTBEGIN
1070
    73
1070
     1
1070
    44
1040
1.0
1070
    74
1070
     0
1000
MTEXTEND
  0
INSERT
  5
21DF4
330
1F
100
AcDbEntity
  8
1
100
AcDbBlockReference
  2
cero_point
 10
0.0000000000001137
 20
0.0
 30
0.0
  0
LINE
  5
21DF8
330
1F
100
AcDbEntity
  8
INFTOTAL
100
AcDbLine
 10
-107.8991274303815
 20
11.30179658868246
 30
0.0
 11
-107.8991274303815
 21
54.89351898492123
 31
0.0
  0
LINE
  5
21DF9
330
1F
100
AcDbEntity
  8
INFTOTAL
100
AcDbLine
 10
-107.8991274303815
 20
54.89351898492123
 30
0.0
 11
-51.49534106162253
 21
54.89351898492123
 31
0.0
  0
LINE
  5
21DFA
330
1F
100
AcDbEntity
  8
INFTOTAL
100
AcDbLine
 10
20.15332638096709
 20
-54.6857201765979
 30
0.0
 11
75.51210763205119
 21
-54.6857201765979
 31
0.0
  0
LINE
  5
21DFB
330
1F
100
AcDbEntity
  8
INFTOTAL
100
AcDbLine
 10
75.51210763205119
 20
-54.6857201765979
 30
0.0
 11
75.51210763205119
 21
-14.23760398000333
 31
0.0
  0
DIMENSION
  5
21DFC
330
1F
100
AcDbEntity
  8
2
100
AcDbDimension
280
     0
  2
*D12
 10
42.33640546120216
 20
-7.949999999999993
 30
0.0
 11
42.33640546120216
 21
0.0
 31
0.0
 70
   161
 71
     5
 42
15.89999999999998
 73
     0
 74
     0
 75
     0
  3
STANDARD
100
AcDbAlignedDimension
 13
26.67000000000348
 23
7.949999999999988
 33
0.0
 14
26.67000000000348
 24
-7.949999999999988
 34
0.0
1001
ACAD_DSTYLE_DIMARC_LENGTH_SYMBOL
1070
   379
1070
     1
1001
ACAD_DSTYLE_DIM_LINETYPE
1070
   380
1005
14
1001
ACAD_DSTYLE_DIM_EXT1_LINETYPE
1070
   381
1005
14
1001
ACAD_DSTYLE_DIM_EXT2_LINETYPE
1070
   382
1005
14
1001
ACAD
1000
DSTYLE
1002
{
1070
   172
1070
     1
1002
}
  0
DIMENSION
  5
21DFD
330
1F
100
AcDbEntity
  8
2
100
AcDbDimension
280
     0
  2
*D13
 10
0.0003645928825945
 20
38.04058221154863
 30
0.0
 11
14.92014383023672
 21
38.04033379064451
 31
0.0
 70
   160
 71
     5
 42
29.840268795455
 73
     0
 74
     0
 75
     0
  3
STANDARD
100
AcDbAlignedDimension
 13
29.84000000000378
 23
0.0
 33
0.0
 14
0.0000000000037517
 24
16.14369199999998
 34
0.0
 50
179.999046000003
100
AcDbRotatedDimension
1001
ACAD_DSTYLE_DIMARC_LENGTH_SYMBOL
1070
   379
1070
     1
1001
ACAD_DSTYLE_DIM_LINETYPE
1070
   380
1005
14
1001
ACAD_DSTYLE_DIM_EXT1_LINETYPE
1070
   381
1005
14
1001
ACAD_DSTYLE_DIM_EXT2_LINETYPE
1070
   382
1005
14
1001
ACAD
1000
DSTYLE
1002
{
1070
   172
1070
     1
1002
}
  0
DIMENSION
  5
21DFE
330
1F
100
AcDbEntity
  8
2
100
AcDbDimension
280
     0
  2
*D14
 10
29.84090045042624
 20
27.03983691018733
 30
0.0
 11
11.13285831378175
 21
27.04045990449389
 31
0.0
 70
   160
 71
     5
 42
3.97052282164866
 73
     0
 74
     0
 75
     0
  3
STANDARD
100
AcDbAlignedDimension
 13
25.87000000000342
 23
15.69999999999999
 33
0.0
 14
29.84000000000378
 24
0.0
 34
0.0
 50
359.9980919999991
100
AcDbRotatedDimension
1001
ACAD_DSTYLE_DIMARC_LENGTH_SYMBOL
1070
   379
1070
     1
1001
ACAD_DSTYLE_DIM_LINETYPE
1070
   380
1005
14
1001
ACAD_DSTYLE_DIM_EXT1_LINETYPE
1070
   381
1005
14
1001
ACAD_DSTYLE_DIM_EXT2_LINETYPE
1070
   382
1005
14
1001
ACAD
1000
DSTYLE
1002
{
1070
   172
1070
     1
1002
}
  0
DIMENSION
  5
21DFF
330
1F
100
AcDbEntity
  8
2
100
AcDbDimension
280
     0
  2
*D15
 10
56.33640546120238
 20
-16.50000000000001
 30
0.0
 11
56.33640546120239
 21
0.0
 31
0.0
 70
   161
  1
%%c<>
 71
     5
 42
33.0
 73
     0
 74
     0
 75
     0
  3
STANDARD
100
AcDbAlignedDimension
 13
25.07000000000346
 23
16.5
 33
0.0
 14
25.07000000000346
 24
-16.5
 34
0.0
1001
ACAD_DSTYLE_DIMARC_LENGTH_SYMBOL
1070
   379
1070
     1
1001
ACAD_DSTYLE_DIM_LINETYPE
1070
   380
1005
14
1001
ACAD_DSTYLE_DIM_EXT1_LINETYPE
1070
   381
1005
14
1001
ACAD_DSTYLE_DIM_EXT2_LINETYPE
1070
   382
1005
14
1001
ACAD
1000
DSTYLE
1002
{
1070
   172
1070
     1
1002
}
  0
LINE
  5
21E00
330
1F
100
AcDbEntity
  8
1
100
AcDbLine
 10
27.66197400000328
 20
5.36411799999999
 30
0.0
 11
27.77212400000349
 21
5.36411799999999
 31
0.0
  0
LINE
  5
21E01
330
1F
100
AcDbEntity
  8
SK4
100
AcDbLine
 10
-16.78699999999639
 20
0.0
 30
0.0
 11
0.0000000000037517
 21
0.0
 31
0.0
  0
LINE
  5
21E02
330
1F
100
AcDbEntity
  8
1
100
AcDbLine
 10
-0.0570319999962976
 20
6.429658000000074
 30
0.0
 11
0.0000000000037517
 21
6.429658000000074
 31
0.0
  0
LINE
  5
21E03
330
1F
100
AcDbEntity
  8
SK3
100
AcDbLine
 10
0.0000000000037517
 20
8.0
 30
0.0
 11
24.81000000000347
 21
8.0
 31
0.0
  0
LINE
  5
21E04
330
1F
100
AcDbEntity
  8
SK3
100
AcDbLine
 10
0.0000000000037517
 20
4.800000000000011
 30
0.0
 11
24.81000000000347
 21
4.800000000000011
 31
0.0
  0
LINE
  5
21E05
330
1F
100
AcDbEntity
  8
SK3
100
AcDbLine
 10
0.0000000000037517
 20
-4.800000000000011
 30
0.0
 11
24.81000000000347
 21
-4.800000000000011
 31
0.0
  0
LINE
  5
21E06
330
1F
100
AcDbEntity
  8
SK3
100
AcDbLine
 10
0.0000000000037517
 20
-8.0
 30
0.0
 11
24.81000000000347
 21
-8.0
 31
0.0
  0
LINE
  5
21E08
330
1F
100
AcDbEntity
  8
1
100
AcDbLine
 10
25.87000000000342
 20
7.949999999999988
 30
0.0
 11
24.60800000000347
 21
7.949999999999988
 31
0.0
  0
LINE
  5
21E0B
330
1F
100
AcDbEntity
  8
1
100
AcDbLine
 10
21.11000000000377
 20
7.012713999999988
 30
0.0
 11
21.11000000000377
 21
6.590000000000003
 31
0.0
  0
LINE
  5
21E0E
330
1F
100
AcDbEntity
  8
1
100
AcDbLine
 10
15.5750000000038
 20
3.814625000000006
 30
0.0
 11
15.5750000000038
 21
3.23801499999999
 31
0.0
  0
ARC
  5
21E0F
330
1F
100
AcDbEntity
  8
1
100
AcDbCircle
 10
-9.21364399999652
 20
-303.0647049999999
 30
0.0
 40
307.24567
100
AcDbArc
 50
84.3359670000018
 51
85.1937000000024
  0
ARC
  5
21E11
330
1F
100
AcDbEntity
  8
1
100
AcDbCircle
 10
23.81843700000377
 20
0.9228319999999996
 30
0.0
 40
1.203006999999999
100
AcDbArc
 50
330.939839
 51
340.8752999999998
  0
SPLINE
  5
21E12
330
1F
100
AcDbEntity
  8
1
100
AcDbSpline
210
0.0
220
0.0
230
1.0
 70
     8
 71
     5
 72
    15
 73
     9
 74
     0
 42
0.000000001
 43
0.0000000001
 40
0.0
 40
0.0
 40
0.0
 40
0.0
 40
0.0
 40
0.0
 40
1.417137587936587
 40
1.417137587936587
 40
1.417137587936587
 40
2.375111019186796
 40
2.375111019186796
 40
2.375111019186796
 40
2.375111019186796
 40
2.375111019186796
 40
2.375111019186796
 10
24.95504498141349
 20
0.528697666704403
 30
0.0
 10
25.00186475991825
 20
0.6638047595889987
 30
0.0
 10
25.07434285233683
 20
0.7926641356833955
 30
0.0
 10
25.16632432633321
 20
0.9115843883060108
 30
0.0
 10
25.3453011675424
 20
1.088934057512886
 30
0.0
 10
25.55953278210768
 20
1.2264398476525
 30
0.0
 10
25.65141642798244
 20
1.275233842198787
 30
0.0
 10
25.746848767306
 20
1.316500985345186
 30
0.0
 10
25.84565053793403
 20
1.350953835720417
 30
0.0
  0
ARC
  5
21E13
330
1F
100
AcDbEntity
  8
1
100
AcDbCircle
 10
23.15843200000347
 20
9.330956000000071
 30
0.0
 40
8.419585000000001
100
AcDbArc
 50
288.6106480000009
 51
296.3567689999978
  0
ARC
  5
21E14
330
1F
100
AcDbEntity
  8
1
100
AcDbCircle
 10
-25.15418499999635
 20
-466.773565
 30
0.0
 40
471.4428869999998
100
AcDbArc
 50
83.6612589999973
 51
83.90895300000041
  0
ARC
  5
21E15
330
1F
100
AcDbEntity
  8
1
100
AcDbCircle
 10
31.81438500000377
 20
3.537158000000005
 30
0.0
 40
4.053291999999999
100
AcDbArc
 50
189.3116420000004
 51
197.0910130000009
  0
ARC
  5
21E16
330
1F
100
AcDbEntity
  8
1
100
AcDbCircle
 10
-206.2311039999965
 20
-35.52519699999991
 30
0.0
 40
237.17624
100
AcDbArc
 50
9.319090000000178
 51
10.01947999999963
  0
LINE
  5
21E17
330
1F
100
AcDbEntity
  8
1
100
AcDbLine
 10
27.32817900000373
 20
5.739486999999996
 30
0.0
 11
26.67000000000348
 21
6.221728000000013
 31
0.0
  0
ARC
  5
21E18
330
1F
100
AcDbEntity
  8
1
100
AcDbCircle
 10
3.132731000003786
 20
-134.745434
 30
0.0
 40
142.918652
100
AcDbArc
 50
80.5207760000021
 51
81.35787900000179
  0
ARC
  5
21E19
330
1F
100
AcDbEntity
  8
1
100
AcDbCircle
 10
34.08091500000376
 20
-73.53820800000002
 30
0.0
 40
80.64717599999999
100
AcDbArc
 50
96.74561699999964
 51
99.25536800000172
  0
ARC
  5
21E1A
330
1F
100
AcDbEntity
  8
1
100
AcDbCircle
 10
14.01995100000374
 20
27.10192400000008
 30
0.0
 40
28.401236
100
AcDbArc
 50
296.9598179999993
 51
299.3486639999971
  0
LINE
  5
21E1B
330
1F
100
AcDbEntity
  8
1
100
AcDbLine
 10
24.60800000000347
 20
6.550536999999991
 30
0.0
 11
24.60800000000347
 21
7.949999999999988
 31
0.0
  0
LINE
  5
21E1C
330
1F
100
AcDbEntity
  8
1
100
AcDbLine
 10
21.11000000000377
 20
7.012713999999988
 30
0.0
 11
24.60800000000347
 21
7.949999999999988
 31
0.0
  0
LINE
  5
21E1F
330
1F
100
AcDbEntity
  8
1
100
AcDbLine
 10
24.95504500000379
 20
0.5286979999999915
 30
0.0
 11
29.64622200000372
 21
-0.2299969999999973
 31
0.0
  0
ELLIPSE
  5
21E20
330
1F
100
AcDbEntity
  8
1
100
AcDbEllipse
 10
30.15590700000348
 20
-0.0281679999999938
 30
0.0
 11
7.932633399963377
 21
-1.260928034782407
 31
0.0
210
0.0
220
0.0
230
1.0
 40
0.6029150000000003
 41
4.082699709890786
 42
4.505940817721574
  0
LINE
  5
21E21
330
1F
100
AcDbEntity
  8
1
100
AcDbLine
 10
27.81456100000378
 20
-4.29000400000001
 30
0.0
 11
27.78574800000376
 21
-4.450840999999996
 31
0.0
  0
ARC
  5
21E22
330
1F
100
AcDbEntity
  8
1
100
AcDbCircle
 10
30.30186000000379
 20
-4.721845000000001
 30
0.0
 40
2.524303999999998
100
AcDbArc
 50
154.4168609999987
 51
170.1505639999993
  0
LINE
  5
21E23
330
1F
100
AcDbEntity
  8
1
100
AcDbLine
 10
28.28726700000379
 20
-3.091958000000005
 30
0.0
 11
28.02522100000374
 21
-3.631886000000008
 31
0.0
  0
SPLINE
  5
21E24
330
1F
100
AcDbEntity
  8
1
100
AcDbSpline
210
0.0
220
0.0
230
1.0
 70
     8
 71
     5
 72
    24
 73
    18
 74
     0
 42
0.000000001
 43
0.0000000001
 40
0.0
 40
0.0
 40
0.0
 40
0.0
 40
0.0
 40
0.0
 40
26.83182176696357
 40
26.83182176696357
 40
26.83182176696357
 40
42.93671517398585
 40
42.93671517398585
 40
42.93671517398585
 40
49.24304039708618
 40
49.24304039708618
 40
49.24304039708618
 40
52.90747952797492
 40
52.90747952797492
 40
52.90747952797492
 40
53.71224280721202
 40
53.71224280721202
 40
53.71224280721202
 40
53.71224280721202
 40
53.71224280721202
 40
53.71224280721202
 10
29.64622158621603
 20
-0.2299973606335186
 30
0.0
 10
29.63225047587002
 20
-0.2666867822909182
 30
0.0
 10
29.61467002342488
 20
-0.3104560778433267
 30
0.0
 10
29.59306739608166
 20
-0.3615995965179195
 30
0.0
 10
29.54747914495681
 20
-0.4666066991918285
 30
0.0
 10
29.44759066460278
 20
-0.6828692912682471
 30
0.0
 10
29.40034264435246
 20
-0.783639086361518
 30
0.0
 10
29.31581210142622
 20
-0.9629276410800855
 30
0.0
 10
29.12264135946373
 20
-1.365422946283786
 30
0.0
 10
29.0567971611946
 20
-1.502274941851226
 30
0.0
 10
28.92556692465496
 20
-1.77440934756143
 30
0.0
 10
28.72435000669657
 20
-2.190305912166337
 30
0.0
 10
28.63354387484287
 20
-2.377835956390924
 30
0.0
 10
28.51110842543972
 20
-2.630469318042713
 30
0.0
 10
28.36826074321346
 20
-2.925000215021327
 30
0.0
 10
28.34188424579816
 20
-2.979378322921405
 30
0.0
 10
28.31488870642329
 20
-3.0350258397836
 30
0.0
 10
28.28726704767417
 20
-3.091957855679311
 30
0.0
  0
SPLINE
  5
21E25
330
1F
100
AcDbEntity
  8
1
100
AcDbSpline
210
0.0
220
0.0
230
1.0
 70
     8
 71
     5
 72
    48
 73
    42
 74
     0
 42
0.000000001
 43
0.0000000001
 40
0.0
 40
0.0
 40
0.0
 40
0.0
 40
0.0
 40
0.0
 40
24.82274329670781
 40
24.82274329670781
 40
24.82274329670781
 40
61.83454010660286
 40
61.83454010660286
 40
61.83454010660286
 40
86.65696024702077
 40
86.65696024702077
 40
86.65696024702077
 40
99.06825114486162
 40
99.06825114486162
 40
99.06825114486162
 40
111.4797286248329
 40
111.4797286248329
 40
111.4797286248329
 40
116.9963590655846
 40
116.9963590655846
 40
116.9963590655846
 40
120.5352558765748
 40
120.5352558765748
 40
120.5352558765748
 40
121.4007877632523
 40
121.4007877632523
 40
121.4007877632523
 40
121.8337021756114
 40
121.8337021756114
 40
121.8337021756114
 40
122.3134655692689
 40
122.3134655692689
 40
122.3134655692689
 40
122.7487974296913
 40
122.7487974296913
 40
122.7487974296913
 40
123.1928424839978
 40
123.1928424839978
 40
123.1928424839978
 40
124.0600590155755
 40
124.0600590155755
 40
124.0600590155755
 40
124.0600590155755
 40
124.0600590155755
 40
124.0600590155755
 10
29.64622158621603
 20
-0.2299973606335186
 30
0.0
 10
29.65914757226676
 20
-0.1960525315682844
 30
0.0
 10
29.66720791995704
 20
-0.1702759206537223
 30
0.0
 10
29.6733709058309
 20
-0.1480263863552125
 30
0.0
 10
29.68528832302605
 20
-0.0962668154275264
 30
0.0
 10
29.68963137542903
 20
-0.05291153258122
 30
0.0
 10
29.69032381116347
 20
-0.0276311705684975
 30
0.0
 10
29.68842283243692
 20
0.0139072351636855
 30
0.0
 10
29.68059331054326
 20
0.059489277829158
 30
0.0
 10
29.67640633894007
 20
0.0787099292473954
 30
0.0
 10
29.6682122031217
 20
0.1101341775869002
 30
0.0
 10
29.6551027440546
 20
0.1489707690130899
 30
0.0
 10
29.64999016666605
 20
0.1631500709915201
 30
0.0
 10
29.63855062110406
 20
0.1928472147995706
 30
0.0
 10
29.62346121855444
 20
0.2280492876285223
 30
0.0
 10
29.61467002510153
 20
0.2477116131755963
 30
0.0
 10
29.59894049001639
 20
0.2814251238491181
 30
0.0
 10
29.57434752681411
 20
0.3293155049641712
 30
0.0
 10
29.56572248813882
 20
0.3457010317981712
 30
0.0
 10
29.54952385695367
 20
0.3758264057529175
 30
0.0
 10
29.52636620517422
 20
0.4165712306366061
 30
0.0
 10
29.51676106141747
 20
0.4330465953055978
 30
0.0
 10
29.5022353801229
 20
0.4578547700403988
 30
0.0
 10
29.47917159865301
 20
0.4951142636591613
 30
0.0
 10
29.47416313606254
 20
0.5031228530744159
 30
0.0
 10
29.46597634193949
 20
0.5161187685552875
 30
0.0
 10
29.45590031694542
 20
0.5318243997757009
 30
0.0
 10
29.45226861299909
 20
0.5374495890071103
 30
0.0
 10
29.44391715149345
 20
0.5502983463223928
 30
0.0
 10
29.43328174636952
 20
0.5663851845920079
 30
0.0
 10
29.42924616171865
 20
0.572342097161112
 30
0.0
 10
29.417628571352
 20
0.5898924015110652
 30
0.0
 10
29.38841688880655
 20
0.6319732319711023
 30
0.0
 10
29.35568272576529
 20
0.6769216158284053
 30
0.0
 10
29.3341798689894
 20
0.7055159654289867
 30
0.0
 10
29.31973604249197
 20
0.7240655005813892
 30
0.0
 10
29.31364251685466
 20
0.7318155686664909
 30
0.0
 10
29.29660040724548
 20
0.7532638523082654
 30
0.0
 10
29.28442754670846
 20
0.7681053435772754
 30
0.0
 10
29.27653673960583
 20
0.7777292333614981
 30
0.0
 10
29.26727188315465
 20
0.7887362219966861
 30
0.0
 10
29.25849339671095
 20
0.7990012822033066
 30
0.0
  0
LINE
  5
21E26
330
1F
100
AcDbEntity
  8
1
100
AcDbLine
 10
29.25849300000379
 20
0.7990010000000041
 30
0.0
 11
25.84565100000361
 21
1.350954000000001
 31
0.0
  0
LINE
  5
21E27
330
1F
100
AcDbEntity
  8
1
100
AcDbLine
 10
28.02522100000374
 20
2.233835999999996
 30
0.0
 11
29.25849300000379
 21
0.7990010000000041
 31
0.0
  0
ARC
  5
21E28
330
1F
100
AcDbEntity
  8
1
100
AcDbCircle
 10
28.88685800000349
 20
2.977284999999994
 30
0.0
 40
1.138031
100
AcDbArc
 50
213.6964679999959
 51
220.7887139999995
  0
LINE
  5
21E29
330
1F
100
AcDbEntity
  8
1
100
AcDbLine
 10
27.81456100000378
 20
4.81159199999999
 30
0.0
 11
27.81456100000378
 21
2.881326999999998
 31
0.0
  0
LINE
  5
21E2A
330
1F
100
AcDbEntity
  8
1
100
AcDbLine
 10
28.02522100000374
 20
4.117870000000067
 30
0.0
 11
28.02522100000374
 21
2.233835999999996
 31
0.0
  0
LINE
  5
21E2B
330
1F
100
AcDbEntity
  8
1
100
AcDbLine
 10
27.32817900000373
 20
7.569999999999993
 30
0.0
 11
27.32817900000373
 21
5.739486999999996
 31
0.0
  0
LINE
  5
21E2C
330
1F
100
AcDbEntity
  8
1
100
AcDbLine
 10
26.67000000000348
 20
7.949999999999988
 30
0.0
 11
26.67000000000348
 21
6.221728000000013
 31
0.0
  0
LINE
  5
21E2D
330
1F
100
AcDbEntity
  8
1
100
AcDbLine
 10
28.02522100000374
 20
-3.631886000000008
 30
0.0
 11
28.02522100000374
 21
-4.11787000000001
 31
0.0
  0
LINE
  5
21E2E
330
1F
100
AcDbEntity
  8
1
100
AcDbLine
 10
27.81456100000378
 20
-4.29000400000001
 30
0.0
 11
27.81456100000378
 21
-4.811591999999933
 31
0.0
  0
LINE
  5
21E2F
330
1F
100
AcDbEntity
  8
1
100
AcDbLine
 10
27.78574800000376
 20
-4.967238000000008
 30
0.0
 11
27.78574800000376
 21
-4.450840999999996
 31
0.0
  0
LINE
  5
21E30
330
1F
100
AcDbEntity
  8
1
100
AcDbLine
 10
27.78574800000376
 20
-4.967238000000008
 30
0.0
 11
27.7629320000035
 21
-5.104300999999992
 31
0.0
  0
LINE
  5
21E31
330
1F
100
AcDbEntity
  8
1
100
AcDbLine
 10
27.7629320000035
 20
-5.104300999999992
 30
0.0
 11
27.67115300000376
 21
-5.624898000000001
 31
0.0
  0
LINE
  5
21E32
330
1F
100
AcDbEntity
  8
1
100
AcDbLine
 10
27.32817900000373
 20
-7.569999999999936
 30
0.0
 11
27.67115300000376
 21
-5.624898000000001
 31
0.0
  0
LINE
  5
21E33
330
1F
100
AcDbEntity
  8
1
100
AcDbLine
 10
27.32817900000373
 20
-7.569999999999936
 30
0.0
 11
26.67000000000348
 21
-7.949999999999988
 31
0.0
  0
LINE
  5
21E34
330
1F
100
AcDbEntity
  8
1
100
AcDbLine
 10
26.67000000000348
 20
-7.949999999999988
 30
0.0
 11
25.87000000000342
 21
-7.949999999999988
 31
0.0
  0
LINE
  5
21E35
330
1F
100
AcDbEntity
  8
1
100
AcDbLine
 10
24.86998900000378
 20
-5.624898000000001
 30
0.0
 11
27.67115300000376
 21
-5.624898000000001
 31
0.0
  0
LINE
  5
21E36
330
1F
100
AcDbEntity
  8
1
100
AcDbLine
 10
24.86998900000378
 20
-4.967238000000008
 30
0.0
 11
27.78574800000376
 21
-4.967238000000008
 31
0.0
  0
ARC
  5
21E3A
330
1F
100
AcDbEntity
  8
1
100
AcDbCircle
 10
30.78966500000376
 20
-5.336183000000005
 30
0.0
 40
3.021
100
AcDbArc
 50
156.2165160000006
 51
169.9999999999998
  0
LINE
  5
21E3B
330
1F
100
AcDbEntity
  8
1
100
AcDbLine
 10
27.81456100000378
 20
-4.811591999999933
 30
0.0
 11
27.76294100000348
 21
-5.104343
 31
0.0
  0
LINE
  5
21E3D
330
1F
100
AcDbEntity
  8
1
100
AcDbLine
 10
29.84000000000378
 20
0.0
 30
0.0
 11
28.02522100000374
 21
-4.11787000000001
 31
0.0
  0
CIRCLE
  5
21E3E
330
1F
100
AcDbEntity
  8
1
100
AcDbCircle
 10
20.91500000000349
 20
11.54499999999998
 30
0.0
 40
2.024999999999999
  0
CIRCLE
  5
21E3F
330
1F
100
AcDbEntity
  8
1
100
AcDbCircle
 10
20.91500700000347
 20
11.54500600000008
 30
0.0
 40
2.552629
  0
LINE
  5
21E40
330
1F
100
AcDbEntity
  8
1
100
AcDbLine
 10
21.11000000000377
 20
6.590000000000003
 30
0.0
 11
16.7600000000034
 21
6.590000000000003
 31
0.0
  0
LINE
  5
21E41
330
1F
100
AcDbEntity
  8
1
100
AcDbLine
 10
25.87000000000342
 20
15.69999999999999
 30
0.0
 11
25.87000000000342
 21
7.949999999999988
 31
0.0
  0
ARC
  5
21E42
330
1F
100
AcDbEntity
  8
1
100
AcDbCircle
 10
25.0700000000038
 20
15.69999999999999
 30
0.0
 40
0.8
100
AcDbArc
 50
0.0
 51
90.0
  0
LINE
  5
21E43
330
1F
100
AcDbEntity
  8
1
100
AcDbLine
 10
16.7600000000034
 20
16.5
 30
0.0
 11
25.0700000000038
 21
16.5
 31
0.0
  0
ARC
  5
21E44
330
1F
100
AcDbEntity
  8
1
100
AcDbCircle
 10
16.7600000000034
 20
15.69999999999999
 30
0.0
 40
0.8
100
AcDbArc
 50
90.0
 51
180.0
  0
LINE
  5
21E45
330
1F
100
AcDbEntity
  8
1
100
AcDbLine
 10
15.96000000000379
 20
7.389999999999986
 30
0.0
 11
15.96000000000379
 21
15.69999999999999
 31
0.0
  0
ARC
  5
21E46
330
1F
100
AcDbEntity
  8
1
100
AcDbCircle
 10
16.7600000000034
 20
7.389999999999986
 30
0.0
 40
0.8
100
AcDbArc
 50
180.0
 51
270.0
  0
LINE
  5
21E4C
330
1F
100
AcDbEntity
  8
1
100
AcDbLine
 10
16.7600000000034
 20
6.590000000000003
 30
0.0
 11
21.11000000000377
 21
6.590000000000003
 31
0.0
  0
LINE
  5
21E4E
330
1F
100
AcDbEntity
  8
1
100
AcDbLine
 10
25.0700000000038
 20
-6.590000000000003
 30
0.0
 11
24.86999300000377
 21
-6.590000000000003
 31
0.0
  0
ARC
  5
21E4F
330
1F
100
AcDbEntity
  8
1
100
AcDbCircle
 10
25.0700000000038
 20
-7.389999999999986
 30
0.0
 40
0.8
100
AcDbArc
 50
0.0
 51
90.0
  0
LINE
  5
21E50
330
1F
100
AcDbEntity
  8
1
100
AcDbLine
 10
25.87000000000342
 20
-15.69999999999999
 30
0.0
 11
25.87000000000342
 21
-7.389999999999986
 31
0.0
  0
ARC
  5
21E51
330
1F
100
AcDbEntity
  8
1
100
AcDbCircle
 10
25.0700000000038
 20
-15.69999999999999
 30
0.0
 40
0.8
100
AcDbArc
 50
270.0
 51
0.0
  0
LINE
  5
21E52
330
1F
100
AcDbEntity
  8
1
100
AcDbLine
 10
16.7600000000034
 20
-16.5
 30
0.0
 11
25.0700000000038
 21
-16.5
 31
0.0
  0
ARC
  5
21E53
330
1F
100
AcDbEntity
  8
1
100
AcDbCircle
 10
16.7600000000034
 20
-15.69999999999999
 30
0.0
 40
0.8
100
AcDbArc
 50
180.0
 51
270.0
  0
LINE
  5
21E54
330
1F
100
AcDbEntity
  8
1
100
AcDbLine
 10
15.96000000000379
 20
-15.67075600000001
 30
0.0
 11
15.96000000000379
 21
-15.69999999999999
 31
0.0
  0
ARC
  5
21E55
330
1F
100
AcDbEntity
  8
1
100
AcDbCircle
 10
16.7600000000034
 20
-15.69999999999999
 30
0.0
 40
0.195674
100
AcDbArc
 50
179.9999990000002
 51
270.0000010000014
  0
LINE
  5
21E56
330
1F
100
AcDbEntity
  8
1
100
AcDbLine
 10
16.7600000000034
 20
-15.89567399999993
 30
0.0
 11
25.0700000000038
 21
-15.89567399999993
 31
0.0
  0
ARC
  5
21E57
330
1F
100
AcDbEntity
  8
1
100
AcDbCircle
 10
25.0700000000038
 20
-15.69999999999999
 30
0.0
 40
0.195674
100
AcDbArc
 50
270.0
 51
0.0
  0
LINE
  5
21E58
330
1F
100
AcDbEntity
  8
1
100
AcDbLine
 10
25.26567400000374
 20
-15.69999999999999
 30
0.0
 11
25.26567400000374
 21
-7.389999999999986
 31
0.0
  0
ARC
  5
21E59
330
1F
100
AcDbEntity
  8
1
100
AcDbCircle
 10
25.0700000000038
 20
-7.389999999999986
 30
0.0
 40
0.195674
100
AcDbArc
 50
359.9999990000002
 51
90.0
  0
LINE
  5
21E5A
330
1F
100
AcDbEntity
  8
1
100
AcDbLine
 10
25.0700000000038
 20
-7.194325999999932
 30
0.0
 11
24.86999300000377
 21
-7.194325999999932
 31
0.0
  0
LINE
  5
21E5B
330
1F
100
AcDbEntity
  8
1
100
AcDbLine
 10
16.5643260000038
 20
-15.67075299999993
 30
0.0
 11
16.5643260000038
 21
-15.69999999999999
 31
0.0
  0
LINE
  5
21E5C
330
1F
100
AcDbEntity
  8
1
100
AcDbLine
 10
25.0700000000038
 20
-7.194325999999932
 30
0.0
 11
25.0700000000038
 21
-6.590000000000003
 31
0.0
  0
LINE
  5
21E5D
330
1F
100
AcDbEntity
  8
1
100
AcDbLine
 10
25.26567400000374
 20
-7.389999999999986
 30
0.0
 11
25.87000000000342
 21
-7.389999999999986
 31
0.0
  0
LINE
  5
21E5E
330
1F
100
AcDbEntity
  8
1
100
AcDbLine
 10
25.26567400000374
 20
-15.69999999999999
 30
0.0
 11
25.87000000000342
 21
-15.69999999999999
 31
0.0
  0
LINE
  5
21E5F
330
1F
100
AcDbEntity
  8
1
100
AcDbLine
 10
25.0700000000038
 20
-15.89567399999993
 30
0.0
 11
25.0700000000038
 21
-16.5
 31
0.0
  0
LINE
  5
21E60
330
1F
100
AcDbEntity
  8
1
100
AcDbLine
 10
16.7600000000034
 20
-15.89567399999993
 30
0.0
 11
16.7600000000034
 21
-16.5
 31
0.0
  0
LINE
  5
21E61
330
1F
100
AcDbEntity
  8
1
100
AcDbLine
 10
16.5643260000038
 20
-15.69999999999999
 30
0.0
 11
15.96000000000379
 21
-15.69999999999999
 31
0.0
  0
ARC
  5
21E62
330
1F
100
AcDbEntity
  8
1
100
AcDbCircle
 10
25.0700000000038
 20
-15.69999999999999
 30
0.0
 40
0.8
100
AcDbArc
 50
270.0
 51
0.0
  0
LINE
  5
21E63
330
1F
100
AcDbEntity
  8
1
100
AcDbLine
 10
25.0700000000038
 20
-16.5
 30
0.0
 11
16.7600000000034
 21
-16.5
 31
0.0
  0
ARC
  5
21E64
330
1F
100
AcDbEntity
  8
1
100
AcDbCircle
 10
16.7600000000034
 20
-15.69999999999999
 30
0.0
 40
0.8
100
AcDbArc
 50
180.0
 51
270.0
  0
LINE
  5
21E65
330
1F
100
AcDbEntity
  8
1
100
AcDbLine
 10
15.96000000000379
 20
-15.69999999999999
 30
0.0
 11
15.96000000000379
 21
-15.67075600000001
 31
0.0
  0
LINE
  5
21E66
330
1F
100
AcDbEntity
  8
1
100
AcDbLine
 10
24.86999300000377
 20
-6.590000000000003
 30
0.0
 11
25.0700000000038
 21
-6.590000000000003
 31
0.0
  0
ARC
  5
21E67
330
1F
100
AcDbEntity
  8
1
100
AcDbCircle
 10
25.0700000000038
 20
-7.389999999999986
 30
0.0
 40
0.8
100
AcDbArc
 50
0.0
 51
90.0
  0
LINE
  5
21E68
330
1F
100
AcDbEntity
  8
1
100
AcDbLine
 10
25.87000000000342
 20
-7.389999999999986
 30
0.0
 11
25.87000000000342
 21
-15.69999999999999
 31
0.0
  0
ARC
  5
21E69
330
1F
100
AcDbEntity
  8
1
100
AcDbCircle
 10
10.72040300000378
 20
-523.4159989999998
 30
0.0
 40
539.666014
100
AcDbArc
 50
90.00171999999752
 51
91.13824900000015
  0
LINE
  5
21E6A
330
1F
100
AcDbEntity
  8
1
100
AcDbLine
 10
15.96000000000379
 20
16.25
 30
0.0
 11
10.70420100000376
 21
16.25
 31
0.0
  0
CIRCLE
  5
21E6B
330
1F
100
AcDbEntity
  8
1
100
AcDbCircle
 10
20.91500000000349
 20
11.54499999999998
 30
0.0
 40
1.719999999999999
  0
ARC
  5
21E6D
330
1F
100
AcDbEntity
  8
1
100
AcDbCircle
 10
35.57535000000371
 20
129.549064
 30
0.0
 40
125.40083
100
AcDbArc
 50
260.9680720000015
 51
263.3760189999971
  0
SPLINE
  5
21E6E
330
1F
100
AcDbEntity
  8
1
100
AcDbSpline
210
0.0
220
0.0
230
1.0
 70
     8
 71
     5
 72
    12
 73
     6
 74
     0
 42
0.000000001
 43
0.0000000001
 40
0.0
 40
0.0
 40
0.0
 40
0.0
 40
0.0
 40
0.0
 40
10.46196945362416
 40
10.46196945362416
 40
10.46196945362416
 40
10.46196945362416
 40
10.46196945362416
 40
10.46196945362416
 10
9.978652626893563
 20
5.578299597440008
 30
0.0
 10
11.14257566682397
 20
5.64542381882228
 30
0.0
 10
12.31979795471443
 20
5.683961118370604
 30
0.0
 10
13.50653911979748
 20
5.702161968543293
 30
0.0
 10
14.69609853997247
 20
5.706843017996476
 30
0.0
 10
15.88932090910305
 20
5.703076934285519
 30
0.0
  0
LINE
  5
21E6F
330
1F
100
AcDbEntity
  8
1
100
AcDbLine
 10
9.966452000003414
 20
5.48675
 30
0.0
 11
9.978653000003646
 21
5.578298999999987
 31
0.0
  0
SPLINE
  5
21E70
330
1F
100
AcDbEntity
  8
1
100
AcDbSpline
210
0.0
220
0.0
230
1.0
 70
     8
 71
     5
 72
    15
 73
     9
 74
     0
 42
0.000000001
 43
0.0000000001
 40
0.0
 40
0.0
 40
0.0
 40
0.0
 40
0.0
 40
0.0
 40
4.92496791966636
 40
4.92496791966636
 40
4.92496791966636
 40
6.171096230195687
 40
6.171096230195687
 40
6.171096230195687
 40
6.171096230195687
 40
6.171096230195687
 40
6.171096230195687
 10
6.725758882518562
 20
4.809077288528783
 30
0.0
 10
7.221109618115974
 20
4.946331285479516
 30
0.0
 10
7.729453959909733
 20
5.070458892025982
 30
0.0
 10
8.240536748871591
 20
5.181039855685696
 30
0.0
 10
8.897235368833548
 20
5.308714413980396
 30
0.0
 10
9.561997819211114
 20
5.421754130403598
 30
0.0
 10
9.696539252854563
 20
5.443996404103017
 30
0.0
 10
9.831360208317391
 20
5.465661131350771
 30
0.0
 10
9.96645181691349
 20
5.486749926479689
 30
0.0
  0
LINE
  5
21E71
330
1F
100
AcDbEntity
  8
1
100
AcDbLine
 10
15.5750000000038
 20
3.238021000000003
 30
0.0
 11
15.5750000000038
 21
3.814828000000062
 31
0.0
  0
ARC
  5
21E72
330
1F
100
AcDbEntity
  8
1
100
AcDbCircle
 10
22.64509000000373
 20
-410.5179189999998
 30
0.0
 40
414.3934569999998
100
AcDbArc
 50
90.2122479999991
 51
90.97758900000235
  0
LINE
  5
21E73
330
1F
100
AcDbEntity
  8
1
100
AcDbLine
 10
15.96000000000379
 20
6.590000000000003
 30
0.0
 11
15.96000000000379
 21
5.702854000000087
 31
0.0
  0
LINE
  5
21E74
330
1F
100
AcDbEntity
  8
1
100
AcDbLine
 10
15.88932100000375
 20
5.703077000000007
 30
0.0
 11
15.96000000000379
 21
5.702854000000087
 31
0.0
  0
LINE
  5
21E75
330
1F
100
AcDbEntity
  8
1
100
AcDbLine
 10
0.0000000000037517
 20
16.14369199999998
 30
0.0
 11
0.0000000000037517
 21
6.385533000000009
 31
0.0
  0
ARC
  5
21E76
330
1F
100
AcDbEntity
  8
1
100
AcDbCircle
 10
10.70983400000364
 20
523.1953089999999
 30
0.0
 40
539.445317
100
AcDbArc
 50
268.862408
 51
269.9994020000011
  0
ARC
  5
21E77
330
1F
100
AcDbEntity
  8
SK1
100
AcDbCircle
 10
6.360008000003745
 20
1372.966922
 30
0.0
 40
1379.367126
100
AcDbArc
 50
269.2373440000012
 51
269.7358189999999
  0
ARC
  5
21E78
330
1F
100
AcDbEntity
  8
SK1
100
AcDbCircle
 10
5.154851000003759
 20
14.22867199999999
 30
0.0
 40
26.735069
100
AcDbArc
 50
227.2279519999988
 51
230.0858679999986
  0
LINE
  5
21E79
330
1F
100
AcDbEntity
  8
SK1
100
AcDbLine
 10
-12.99999999999659
 20
-4.738945999999998
 30
0.0
 11
-12.99999999999659
 21
-5.395979000000011
 31
0.0
  0
LINE
  5
21E7A
330
1F
100
AcDbEntity
  8
SK1
100
AcDbLine
 10
-12.99999999999659
 20
3.845753000000001
 30
0.0
 11
-12.99999999999659
 21
-4.738945999999998
 31
0.0
  0
LINE
  5
21E7B
330
1F
100
AcDbEntity
  8
SK1
100
AcDbLine
 10
-12.99999999999659
 20
3.845753000000001
 30
0.0
 11
-12.99999999999659
 21
4.395591999999993
 31
0.0
  0
LINE
  5
21E7C
330
1F
100
AcDbEntity
  8
SK1
100
AcDbLine
 10
-12.99999999999659
 20
5.395979000000011
 30
0.0
 11
-12.99999999999659
 21
4.395591999999993
 31
0.0
  0
LINE
  5
21E7D
330
1F
100
AcDbEntity
  8
1
100
AcDbLine
 10
11.17589100000373
 20
16.10591000000008
 30
0.0
 11
10.70420100000376
 21
16.24999900000009
 31
0.0
  0
ARC
  5
21E7E
330
1F
100
AcDbEntity
  8
SK1
100
AcDbCircle
 10
6.360008000003745
 20
-1372.966922
 30
0.0
 40
1379.367126
100
AcDbArc
 50
90.26418100000011
 51
90.7626559999988
  0
ARC
  5
21E7F
330
1F
100
AcDbEntity
  8
SK1
100
AcDbCircle
 10
5.154851000003759
 20
-14.22867199999999
 30
0.0
 40
26.735069
100
AcDbArc
 50
129.9141320000014
 51
132.7720480000012
  0
LINE
  5
21E80
330
1F
100
AcDbEntity
  8
1
100
AcDbLine
 10
10.34121100000379
 20
7.857143000000064
 30
0.0
 11
15.96000000000379
 21
7.857143000000064
 31
0.0
  0
LINE
  5
21E81
330
1F
100
AcDbEntity
  8
1
100
AcDbLine
 10
11.17589000000373
 20
16.105907
 30
0.0
 11
10.34121100000379
 21
7.857143000000064
 31
0.0
  0
ELLIPSE
  5
21E82
330
1F
100
AcDbEntity
  8
1
100
AcDbEllipse
 10
9.864323000003764
 20
7.857143000000064
 30
0.0
 11
0.3409311771392822
 21
3.299639701843261
 31
0.0
210
0.0
220
0.0
230
1.0
 40
0.143017
 41
3.964903727452153
 42
4.727164917645406
  0
SPLINE
  5
21E83
330
1F
100
AcDbEntity
  8
SK1
100
AcDbSpline
210
0.0
220
0.0
230
1.0
 70
     8
 71
     5
 72
    12
 73
     6
 74
     0
 42
0.000000001
 43
0.0000000001
 40
0.0
 40
0.0
 40
0.0
 40
0.0
 40
0.0
 40
0.0
 40
18.02949534932681
 40
18.02949534932681
 40
18.02949534932681
 40
18.02949534932681
 40
18.02949534932681
 40
18.02949534932681
 10
-12.99999999999284
 20
3.845752360587567
 30
0.0
 10
-12.86393949740818
 20
3.806914148321084
 30
0.0
 10
-12.70351420323845
 20
3.770819508730596
 30
0.0
 10
-12.5155344204494
 20
3.737226984369499
 30
0.0
 10
-12.28836155843714
 20
3.708278893067699
 30
0.0
 10
-11.99999999999352
 20
3.6886214062485
 30
0.0
  0
ARC
  5
21E84
330
1F
100
AcDbEntity
  8
SK1
100
AcDbCircle
 10
-158.9547899999963
 20
-2620.112145
 30
0.0
 40
2627.91295
100
AcDbArc
 50
86.5322290000002
 51
86.79430599999864
  0
LINE
  5
21E85
330
1F
100
AcDbEntity
  8
1
100
AcDbLine
 10
15.96000000000379
 20
-15.67075299999993
 30
0.0
 11
15.96000000000379
 21
-16.25
 31
0.0
  0
LINE
  5
21E86
330
1F
100
AcDbEntity
  8
1
100
AcDbLine
 10
15.96000000000379
 20
-16.25
 30
0.0
 11
10.70420100000376
 21
-16.25
 31
0.0
  0
LINE
  5
21E87
330
1F
100
AcDbEntity
  8
1
100
AcDbLine
 10
24.87000000000376
 20
-15.67075299999993
 30
0.0
 11
15.96000000000379
 21
-15.67075299999993
 31
0.0
  0
LINE
  5
21E88
330
1F
100
AcDbEntity
  8
1
100
AcDbLine
 10
24.87000000000376
 20
-14.260717
 30
0.0
 11
24.87000000000376
 21
-15.67075299999993
 31
0.0
  0
LINE
  5
21E89
330
1F
100
AcDbEntity
  8
1
100
AcDbLine
 10
0.0000000000037517
 20
-14.260717
 30
0.0
 11
0.0000000000037517
 21
-16.14369199999993
 31
0.0
  0
LINE
  5
21E8A
330
1F
100
AcDbEntity
  8
1
100
AcDbLine
 10
0.0000000000037517
 20
6.336964999999992
 30
0.0
 11
0.0000000000037517
 21
-14.260717
 31
0.0
  0
LINE
  5
21E8B
330
1F
100
AcDbEntity
  8
SK1
100
AcDbLine
 10
-11.99999999999625
 20
-5.616527999999988
 30
0.0
 11
-11.99999999999625
 21
-6.278019
 31
0.0
  0
LINE
  5
21E8C
330
1F
100
AcDbEntity
  8
SK1
100
AcDbLine
 10
-11.99999999999625
 20
3.688621000000011
 30
0.0
 11
-11.99999999999625
 21
-5.616527999999988
 31
0.0
  0
SPLINE
  5
21E8D
330
1F
100
AcDbEntity
  8
1
100
AcDbSpline
210
0.0
220
0.0
230
1.0
 70
     8
 71
     5
 72
    12
 73
     6
 74
     0
 42
0.000000001
 43
0.0000000001
 40
0.0
 40
0.0
 40
0.0
 40
0.0
 40
0.0
 40
0.0
 40
43.77302132430644
 40
43.77302132430644
 40
43.77302132430644
 40
43.77302132430644
 40
43.77302132430644
 40
43.77302132430644
 10
24.87000000058515
 20
2.174439818026201
 30
0.0
 10
19.83024125780059
 20
2.580677285067281
 30
0.0
 10
14.810484125941
 20
3.220288697751499
 30
0.0
 10
9.821887655270188
 20
4.079764115830073
 30
0.0
 10
4.881302474647441
 20
5.130989034156272
 30
0.0
 10
-0.0000000004578169
 20
6.336965468645502
 30
0.0
  0
LINE
  5
21E8E
330
1F
100
AcDbEntity
  8
1
100
AcDbLine
 10
24.87000000000376
 20
2.174440000000089
 30
0.0
 11
24.87000000000376
 21
-14.260717
 31
0.0
  0
CIRCLE
  5
21E8F
330
1F
100
AcDbEntity
  8
1
100
AcDbCircle
 10
20.91500000000349
 20
-11.54499999999998
 30
0.0
 40
1.719999999999999
  0
LINE
  5
21E98
330
1F
100
AcDbEntity
  8
SKVIEW4
100
AcDbLine
 10
-50.83871763390527
 20
0.0
 30
0.0
 11
-93.08871763390516
 21
0.0
 31
0.0
  0
LINE
  5
21E99
330
1F
100
AcDbEntity
  8
SKVIEW4
100
AcDbLine
 10
-71.96371763390527
 20
21.12500000000009
 30
0.0
 11
-71.96371763390527
 21
-21.125
 31
0.0
  0
ARC
  5
21E9A
330
1F
100
AcDbEntity
  8
SKVIEW1
100
AcDbCircle
 10
-71.96371763390527
 20
0.0
 30
0.0
 40
3.975
100
AcDbArc
 50
348.7865320000001
 51
359.4806459999998
  0
ARC
  5
21E9B
330
1F
100
AcDbEntity
  8
SKVIEW1
100
AcDbCircle
 10
-76.62494763390521
 20
2.912888000000009
 30
0.0
 40
2.271552
100
AcDbArc
 50
289.603182999998
 51
313.5883190000026
  0
ARC
  5
21E9C
330
1F
100
AcDbEntity
  8
SKVIEW1
100
AcDbCircle
 10
-67.30248763390512
 20
-2.912888000000009
 30
0.0
 40
2.271552
100
AcDbArc
 50
109.6031840000013
 51
133.5883190000026
  0
LINE
  5
21E9D
330
1F
100
AcDbEntity
  8
SKVIEW1
100
AcDbLine
 10
-66.99602163390512
 20
0.2694789999999898
 30
0.0
 11
-67.04096263390511
 21
0.2655479999999954
 31
0.0
  0
ARC
  5
21E9E
330
1F
100
AcDbEntity
  8
SKVIEW1
100
AcDbCircle
 10
-66.84297163390522
 20
-1.997309000000001
 30
0.0
 40
2.271501999999999
100
AcDbArc
 50
95.00040699999688
 51
120.296308999998
  0
SPLINE
  5
21E9F
330
1F
100
AcDbEntity
  8
SKVIEW1
100
AcDbSpline
210
0.0
220
0.0
230
1.0
 70
     8
 71
     5
 72
    18
 73
    12
 74
     0
 42
0.000000001
 43
0.0000000001
 40
0.0
 40
0.0
 40
0.0
 40
0.0
 40
0.0
 40
0.0
 40
1.761348804907188
 40
1.761348804907188
 40
1.761348804907188
 40
3.434400054909529
 40
3.434400054909529
 40
3.434400054909529
 40
5.581690326614106
 40
5.581690326614106
 40
5.581690326614106
 40
5.581690326614106
 40
5.581690326614106
 40
5.581690326614106
 10
-68.75748227154793
 20
-0.5286976667043178
 30
0.0
 10
-68.69382171789744
 20
-0.360506627389725
 30
0.0
 10
-68.6131911118523
 20
-0.2057803598714827
 30
0.0
 10
-68.51927085227237
 20
-0.0718666558418306
 30
0.0
 10
-68.32036343048798
 20
0.1504982226068989
 30
0.0
 10
-68.10064678984952
 20
0.3036838012727685
 30
0.0
 10
-67.990723777467
 20
0.3636574379016793
 30
0.0
 10
-67.73691965585214
 20
0.4702044760497018
 30
0.0
 10
-67.48122058144009
 20
0.5150527688201976
 30
0.0
 10
-67.33826700750535
 20
0.5237668782629044
 30
0.0
 10
-67.19752993943131
 20
0.5179512134124025
 30
0.0
 10
-67.05912881570509
 20
0.4990476138107738
 30
0.0
  0
ARC
  5
21EA0
330
1F
100
AcDbEntity
  8
SKVIEW1
100
AcDbCircle
 10
-66.90986763390526
 20
-1.231519999999932
 30
0.0
 40
1.976754
100
AcDbArc
 50
159.1734670000004
 51
166.24607
  0
SPLINE
  5
21EA1
330
1F
100
AcDbEntity
  8
SKVIEW1
100
AcDbSpline
210
0.0
220
0.0
230
1.0
 70
     8
 71
     5
 72
    12
 73
     6
 74
     0
 42
0.000000001
 43
0.0000000001
 40
0.0
 40
0.0
 40
0.0
 40
0.0
 40
0.0
 40
0.0
 40
1.692196574867744
 40
1.692196574867744
 40
1.692196574867744
 40
1.692196574867744
 40
1.692196574867744
 40
1.692196574867744
 10
-68.82991997740635
 20
-0.7615464003689283
 30
0.0
 10
-68.86695460668727
 20
-0.9139891855308803
 30
0.0
 10
-68.88421193253908
 20
-1.056105083167409
 30
0.0
 10
-68.88315773012346
 20
-1.181934637884211
 30
0.0
 10
-68.87089405849565
 20
-1.280013313724225
 30
0.0
 10
-68.85374093287987
 20
-1.350953835720417
 30
0.0
  0
ARC
  5
21EA2
330
1F
100
AcDbEntity
  8
SKVIEW1
100
AcDbCircle
 10
-67.28784663390513
 20
-0.9486809999999366
 30
0.0
 40
1.617085
100
AcDbArc
 50
194.407535000001
 51
211.2261749999992
  0
ARC
  5
21EA3
330
1F
100
AcDbEntity
  8
SKVIEW1
100
AcDbCircle
 10
-71.96345963390513
 20
0.0000330000000019
 30
0.0
 40
4.929653
100
AcDbArc
 50
3.087491000000781
 51
5.80984499999966
  0
ARC
  5
21EA4
330
1F
100
AcDbEntity
  8
SKVIEW1
100
AcDbCircle
 10
-71.96371763390527
 20
0.0
 30
0.0
 40
3.975
100
AcDbArc
 50
168.7865319999994
 51
179.4806459999997
  0
SPLINE
  5
21EA5
330
1F
100
AcDbEntity
  8
SKVIEW1
100
AcDbSpline
210
0.0
220
0.0
230
1.0
 70
     8
 71
     5
 72
    18
 73
    12
 74
     0
 42
0.000000001
 43
0.0000000001
 40
0.0
 40
0.0
 40
0.0
 40
0.0
 40
0.0
 40
0.0
 40
1.761348805891755
 40
1.761348805891755
 40
1.761348805891755
 40
3.434400057702616
 40
3.434400057702616
 40
3.434400057702616
 40
5.581690332236826
 40
5.581690332236826
 40
5.581690332236826
 40
5.581690332236826
 40
5.581690332236826
 40
5.581690332236826
 10
-75.16995299626239
 20
0.528697666704403
 30
0.0
 10
-75.23361354994836
 20
0.3605066272956208
 30
0.0
 10
-75.3142441560484
 20
0.2057803596989913
 30
0.0
 10
-75.40816441563572
 20
0.0718666557156667
 30
0.0
 10
-75.60707183747354
 20
-0.1504982227575056
 30
0.0
 10
-75.82678847832619
 20
-0.3036838015113119
 30
0.0
 10
-75.93671149053136
 20
-0.3636574379675039
 30
0.0
 10
-76.19051561185267
 20
-0.4702044759973774
 30
0.0
 10
-76.44621468615148
 20
-0.5150527687929128
 30
0.0
 10
-76.58916825993265
 20
-0.523766878278309
 30
0.0
 10
-76.72990532819631
 20
-0.5179512134372431
 30
0.0
 10
-76.86830645210523
 20
-0.499047613810717
 30
0.0
  0
ARC
  5
21EA6
330
1F
100
AcDbEntity
  8
SKVIEW1
100
AcDbCircle
 10
-77.01756763390517
 20
1.231519999999989
 30
0.0
 40
1.976754
100
AcDbArc
 50
339.1734670000003
 51
346.2460699999996
  0
SPLINE
  5
21EA7
330
1F
100
AcDbEntity
  8
SKVIEW1
100
AcDbSpline
210
0.0
220
0.0
230
1.0
 70
     8
 71
     5
 72
    12
 73
     6
 74
     0
 42
0.000000001
 43
0.0000000001
 40
0.0
 40
0.0
 40
0.0
 40
0.0
 40
0.0
 40
0.0
 40
1.692196549888907
 40
1.692196549888907
 40
1.692196549888907
 40
1.692196549888907
 40
1.692196549888907
 40
1.692196549888907
 10
-75.09751529040602
 20
0.7615464003599186
 30
0.0
 10
-75.06048066158257
 20
0.9139891836379945
 30
0.0
 10
-75.04322333561811
 20
1.056105079976703
 30
0.0
 10
-75.04427753804861
 20
1.18193464077899
 30
0.0
 10
-75.05654120956797
 20
1.280013314771423
 30
0.0
 10
-75.07369433493045
 20
1.350953835720417
 30
0.0
  0
ARC
  5
21EA8
330
1F
100
AcDbEntity
  8
SKVIEW1
100
AcDbCircle
 10
-76.63958863390519
 20
0.9486809999999934
 30
0.0
 40
1.617085
100
AcDbArc
 50
14.4075350000007
 51
31.22617499999921
  0
ARC
  5
21EA9
330
1F
100
AcDbEntity
  8
SKVIEW1
100
AcDbCircle
 10
-77.08446363390521
 20
1.997309000000086
 30
0.0
 40
2.271501999999999
100
AcDbArc
 50
275.0004069999969
 51
300.2963089999981
  0
ARC
  5
21EAA
330
1F
100
AcDbEntity
  8
SKVIEW1
100
AcDbCircle
 10
-71.96397563390519
 20
-0.0000330000000019
 30
0.0
 40
4.929653
100
AcDbArc
 50
183.0874910000003
 51
185.8098439999991
  0
LINE
  5
21EAB
330
1F
100
AcDbEntity
  8
SKVIEW1
100
AcDbLine
 10
-75.60692563390512
 20
2.345916999999985
 30
0.0
 11
-75.81720563390513
 21
2.881326999999998
 31
0.0
  0
ARC
  5
21EAC
330
1F
100
AcDbEntity
  8
SKVIEW1
100
AcDbCircle
 10
4.833911366095094
 20
35.05991399999999
 30
0.0
 40
86.833524
100
AcDbArc
 50
199.7345299999988
 51
201.7512590000015
  0
ARC
  5
21EAD
330
1F
100
AcDbEntity
  8
SKVIEW1
100
AcDbCircle
 10
-65.14505463390515
 20
6.299819000000013
 30
0.0
 40
11.767921
100
AcDbArc
 50
180.3802100000001
 51
182.7291829999995
  0
ARC
  5
21EAE
330
1F
100
AcDbEntity
  8
SKVIEW1
100
AcDbCircle
 10
-86.19947263390519
 20
-4.688490000000001
 30
0.0
 40
12.715501
100
AcDbArc
 50
30.61554199999951
 51
33.5877509999997
  0
LINE
  5
21EAF
330
1F
100
AcDbEntity
  8
SKVIEW1
100
AcDbLine
 10
-68.3205096339052
 20
-2.345918000000011
 30
0.0
 11
-68.11022963390519
 21
-2.881326999999998
 31
0.0
  0
ARC
  5
21EB0
330
1F
100
AcDbEntity
  8
SKVIEW1
100
AcDbCircle
 10
-148.7899426339052
 20
-35.07036100000002
 30
0.0
 40
86.863963
100
AcDbArc
 50
19.73464700000092
 51
21.75066900000073
  0
ARC
  5
21EB1
330
1F
100
AcDbEntity
  8
SKVIEW1
100
AcDbCircle
 10
-78.78172263390514
 20
-6.299801000000002
 30
0.0
 40
11.767262
100
AcDbArc
 50
0.380143999999962
 51
2.72924799999962
  0
ARC
  5
21EB2
330
1F
100
AcDbEntity
  8
SKVIEW1
100
AcDbCircle
 10
-57.72796263390512
 20
4.688490000000001
 30
0.0
 40
12.715501
100
AcDbArc
 50
210.6155419999987
 51
213.5877509999997
  0
ARC
  5
21EB3
330
1F
100
AcDbEntity
  8
SKVIEW1
100
AcDbCircle
 10
-71.96371763390527
 20
0.0
 30
0.0
 40
4.974999999999996
100
AcDbArc
 50
3.1050440000007
 51
63.46239100000273
  0
LINE
  5
21EB4
330
1F
100
AcDbEntity
  8
SKVIEW1
100
AcDbLine
 10
-67.05912863390517
 20
0.4990479999999878
 30
0.0
 11
-67.01316763390514
 21
0.4926509999999951
 31
0.0
  0
LINE
  5
21EB5
330
1F
100
AcDbEntity
  8
SKVIEW1
100
AcDbLine
 10
-71.96371763390527
 20
7.569999999999993
 30
0.0
 11
-71.96371763390527
 21
7.949999999999988
 31
0.0
  0
LINE
  5
21EB6
330
1F
100
AcDbEntity
  8
SKVIEW1
100
AcDbLine
 10
-71.96371763390527
 20
5.624898000000001
 30
0.0
 11
-71.96371763390527
 21
7.569999999999993
 31
0.0
  0
ARC
  5
21EB7
330
1F
100
AcDbEntity
  8
SKVIEW1
100
AcDbCircle
 10
-71.66371763390521
 20
5.364116999999993
 30
0.0
 40
0.3975
100
AcDbArc
 50
139.0006459999977
 51
266.7989429999983
  0
ARC
  5
21EB8
330
1F
100
AcDbEntity
  8
SKVIEW1
100
AcDbCircle
 10
-71.96371763390527
 20
0.0
 30
0.0
 40
4.974999999999996
100
AcDbArc
 50
63.46240199999958
 51
86.79894299999828
  0
LINE
  5
21EB9
330
1F
100
AcDbEntity
  8
SKVIEW1
100
AcDbLine
 10
-71.5889706339052
 20
0.2299970000000826
 30
0.0
 11
-68.75748263390517
 21
-0.5286979999999915
 31
0.0
  0
LINE
  5
21EBA
330
1F
100
AcDbEntity
  8
SKVIEW1
100
AcDbLine
 10
-69.7848906339052
 20
4.290004000000067
 30
0.0
 11
-69.74096263390515
 21
4.450840999999996
 31
0.0
  0
ARC
  5
21EBB
330
1F
100
AcDbEntity
  8
SKVIEW1
100
AcDbCircle
 10
-73.80579663390529
 20
5.370632
 30
0.0
 40
4.163415
100
AcDbArc
 50
335.3141329999999
 51
344.9570649999998
  0
LINE
  5
21EBC
330
1F
100
AcDbEntity
  8
SKVIEW1
100
AcDbLine
 10
-70.27457363390499
 20
3.091958000000005
 30
0.0
 11
-70.02303363390513
 21
3.631886000000065
 31
0.0
  0
SPLINE
  5
21EBD
330
1F
100
AcDbEntity
  8
SKVIEW1
100
AcDbSpline
210
0.0
220
0.0
230
1.0
 70
     8
 71
     5
 72
    24
 73
    18
 74
     0
 42
0.000000001
 43
0.0000000001
 40
0.0
 40
0.0
 40
0.0
 40
0.0
 40
0.0
 40
0.0
 40
26.83650213964688
 40
26.83650213964688
 40
26.83650213964688
 40
42.94133471145102
 40
42.94133471145102
 40
42.94133471145102
 40
49.25962735808769
 40
49.25962735808769
 40
49.25962735808769
 40
52.93378077621242
 40
52.93378077621242
 40
52.93378077621242
 40
53.71475226065022
 40
53.71475226065022
 40
53.71475226065022
 40
53.71475226065022
 40
53.71475226065022
 40
53.71475226065022
 10
-71.58897066102816
 20
0.2299973606335754
 30
0.0
 10
-71.57428992341841
 20
0.2666931692540118
 30
0.0
 10
-71.55620039394694
 20
0.3104713174622589
 30
0.0
 10
-71.53441253109576
 20
0.3615767833196912
 30
0.0
 10
-71.48878955725774
 20
0.4665827138020973
 30
0.0
 10
-71.39134493110498
 20
0.6828691248772146
 30
0.0
 10
-71.34539840634431
 20
0.783642429974293
 30
0.0
 10
-71.2634017976444
 20
0.9630123938132726
 30
0.0
 10
-71.07709947957039
 20
1.36587198463718
 30
0.0
 10
-71.01360039321548
 20
1.502927342929694
 30
0.0
 10
-70.88699726530581
 20
1.775849579416586
 30
0.0
 10
-70.69269626215612
 20
2.193756817524985
 30
0.0
 10
-70.60499047842586
 20
2.382308232147096
 30
0.0
 10
-70.48731138424091
 20
2.635126421493254
 30
0.0
 10
-70.35016467343552
 20
2.929651585643512
 30
0.0
 10
-70.325531722503
 20
2.982547676542878
 30
0.0
 10
-70.30033644473803
 20
3.036645095157581
 30
0.0
 10
-70.27457335885504
 20
3.091957855680021
 30
0.0
  0
LINE
  5
21EBE
330
1F
100
AcDbEntity
  8
SKVIEW1
100
AcDbLine
 10
-70.91365563390514
 20
-0.7990009999999188
 30
0.0
 11
-68.8537406339052
 21
-1.350954000000001
 31
0.0
  0
SPLINE
  5
21EBF
330
1F
100
AcDbEntity
  8
SKVIEW1
100
AcDbSpline
210
0.0
220
0.0
230
1.0
 70
     8
 71
     5
 72
    51
 73
    45
 74
     0
 42
0.000000001
 43
0.0000000001
 40
0.0
 40
0.0
 40
0.0
 40
0.0
 40
0.0
 40
0.0
 40
24.82274897025788
 40
24.82274897025788
 40
24.82274897025788
 40
61.84786161775314
 40
61.84786161775314
 40
61.84786161775314
 40
86.67028941797026
 40
86.67028941797026
 40
86.67028941797026
 40
99.08159485392332
 40
99.08159485392332
 40
99.08159485392332
 40
111.4931251094939
 40
111.4931251094939
 40
111.4931251094939
 40
117.0098914481609
 40
117.0098914481609
 40
117.0098914481609
 40
120.2084304040137
 40
120.2084304040137
 40
120.2084304040137
 40
121.1531858798881
 40
121.1531858798881
 40
121.1531858798881
 40
121.6256823505389
 40
121.6256823505389
 40
121.6256823505389
 40
122.1107152376486
 40
122.1107152376486
 40
122.1107152376486
 40
122.3501274796708
 40
122.3501274796708
 40
122.3501274796708
 40
122.589539721693
 40
122.589539721693
 40
122.589539721693
 40
122.8392058697213
 40
122.8392058697213
 40
122.8392058697213
 40
123.996241958952
 40
123.996241958952
 40
123.996241958952
 40
123.996241958952
 40
123.996241958952
 40
123.996241958952
 10
-71.58897066102816
 20
0.2299973606335754
 30
0.0
 10
-71.60255082416108
 20
0.1960525357501979
 30
0.0
 10
-71.60977928420243
 20
0.1702758948281939
 30
0.0
 10
-71.61508684969295
 20
0.1480263583008821
 30
0.0
 10
-71.62426167316232
 20
0.0962556309769127
 30
0.0
 10
-71.6252486546839
 20
0.052892821353197
 30
0.0
 10
-71.6238544738022
 20
0.0276490252479107
 30
0.0
 10
-71.61832763013842
 20
-0.0138974585860865
 30
0.0
 10
-71.60628324943295
 20
-0.0594893138261057
 30
0.0
 10
-71.60027454699752
 20
-0.0787099670639009
 30
0.0
 10
-71.58899700378151
 20
-0.1101342279850144
 30
0.0
 10
-71.57130780214081
 20
-0.148970799998807
 30
0.0
 10
-71.56442445061123
 20
-0.163150099623806
 30
0.0
 10
-71.54892972868253
 20
-0.1928472666448329
 30
0.0
 10
-71.52828773262524
 20
-0.2280492988440983
 30
0.0
 10
-71.5161860102595
 20
-0.2477116007470954
 30
0.0
 10
-71.49437692481979
 20
-0.2814254304277028
 30
0.0
 10
-71.45877594099658
 20
-0.3293150005683003
 30
0.0
 10
-71.44613870224225
 20
-0.3457003634566149
 30
0.0
 10
-71.42306652169634
 20
-0.3746929360964089
 30
0.0
 10
-71.38934345815528
 20
-0.4135178128886139
 30
0.0
 10
-71.37563415106251
 20
-0.4287832254484841
 30
0.0
 10
-71.35444331065946
 20
-0.4519385988878924
 30
0.0
 10
-71.322949460068
 20
-0.4838612010753991
 30
0.0
 10
-71.31511122373092
 20
-0.4916947386183211
 30
0.0
 10
-71.30198452742991
 20
-0.5045829736270946
 30
0.0
 10
-71.28600829101251
 20
-0.5198251298545813
 30
0.0
 10
-71.28030640590998
 20
-0.5252156211819852
 30
0.0
 10
-71.26777285738831
 20
-0.5369362281059012
 30
0.0
 10
-71.25228526569151
 20
-0.551037731652599
 30
0.0
 10
-71.24432852940538
 20
-0.5581557672302325
 30
0.0
 10
-71.23014666546362
 20
-0.5708161221002115
 30
0.0
 10
-71.20778372749441
 20
-0.5899112644617049
 30
0.0
 10
-71.19704960122715
 20
-0.5986010058364002
 30
0.0
 10
-71.18362386153262
 20
-0.6106061320954837
 30
0.0
 10
-71.13363021425039
 20
-0.6504064705965789
 30
0.0
 10
-71.109354728217
 20
-0.6683861349605138
 30
0.0
 10
-71.08355679554472
 20
-0.6873825644139231
 30
0.0
 10
-71.06435530046792
 20
-0.701049200969095
 30
0.0
 10
-71.05717620984297
 20
-0.7061295551143303
 30
0.0
 10
-71.00922935306425
 20
-0.7395284799089837
 30
0.0
 10
-70.98039032507983
 20
-0.7577185517129124
 30
0.0
 10
-70.96088999845722
 20
-0.770404306607702
 30
0.0
 10
-70.93654608991653
 20
-0.7853553671808982
 30
0.0
 10
-70.91365590599616
 20
-0.7990012822032213
 30
0.0
  0
LINE
  5
21EC0
330
1F
100
AcDbEntity
  8
SKVIEW1
100
AcDbLine
 10
-68.5044076339052
 20
-2.233835999999996
 30
0.0
 11
-70.91365563390514
 21
-0.7990009999999188
 31
0.0
  0
LINE
  5
21EC1
330
1F
100
AcDbEntity
  8
SKVIEW1
100
AcDbLine
 10
-68.3205096339052
 20
-2.345916999999928
 30
0.0
 11
-68.5044076339052
 21
-2.233835999999996
 31
0.0
  0
LINE
  5
21EC2
330
1F
100
AcDbEntity
  8
SKVIEW1
100
AcDbLine
 10
-76.93141363390521
 20
-0.2694789999999898
 30
0.0
 11
-76.88647263390521
 21
-0.2655479999999954
 31
0.0
  0
LINE
  5
21EC3
330
1F
100
AcDbEntity
  8
SKVIEW1
100
AcDbLine
 10
-75.16995263390516
 20
0.5286979999999915
 30
0.0
 11
-72.33846463390512
 21
-0.2299969999999973
 31
0.0
  0
LINE
  5
21EC4
330
1F
100
AcDbEntity
  8
SKVIEW1
100
AcDbLine
 10
-76.86830663390515
 20
-0.4990479999999878
 30
0.0
 11
-76.9142676339053
 21
-0.4926509999999098
 31
0.0
  0
ARC
  5
21EC5
330
1F
100
AcDbEntity
  8
SKVIEW1
100
AcDbCircle
 10
-71.96371763390527
 20
0.0
 30
0.0
 40
4.974999999999996
100
AcDbArc
 50
183.1050440000006
 51
266.7989320000032
  0
LINE
  5
21EC6
330
1F
100
AcDbEntity
  8
SKVIEW1
100
AcDbLine
 10
-74.14254463390512
 20
-4.29000400000001
 30
0.0
 11
-74.18647263390528
 21
-4.450840999999996
 31
0.0
  0
ARC
  5
21EC7
330
1F
100
AcDbEntity
  8
SKVIEW1
100
AcDbCircle
 10
-70.12163863390515
 20
-5.370631999999915
 30
0.0
 40
4.163415
100
AcDbArc
 50
155.3141330000005
 51
164.9570649999998
  0
LINE
  5
21EC8
330
1F
100
AcDbEntity
  8
SKVIEW1
100
AcDbLine
 10
-73.65286163390521
 20
-3.091958000000005
 30
0.0
 11
-73.90440163390519
 21
-3.631886000000008
 31
0.0
  0
SPLINE
  5
21EC9
330
1F
100
AcDbEntity
  8
SKVIEW1
100
AcDbSpline
210
0.0
220
0.0
230
1.0
 70
     8
 71
     5
 72
    24
 73
    18
 74
     0
 42
0.000000001
 43
0.0000000001
 40
0.0
 40
0.0
 40
0.0
 40
0.0
 40
0.0
 40
0.0
 40
26.83650214237109
 40
26.83650214237109
 40
26.83650214237109
 40
42.94133471491831
 40
42.94133471491831
 40
42.94133471491831
 40
49.25962736194539
 40
49.25962736194539
 40
49.25962736194539
 40
52.93378077984293
 40
52.93378077984293
 40
52.93378077984293
 40
53.71475226459168
 40
53.71475226459168
 40
53.71475226459168
 40
53.71475226459168
 40
53.71475226459168
 40
53.71475226459168
 10
-72.33846460678194
 20
-0.2299973606335186
 30
0.0
 10
-72.35314534439408
 20
-0.2666931692580761
 30
0.0
 10
-72.37123487386293
 20
-0.3104713174703306
 30
0.0
 10
-72.39302273671535
 20
-0.3615767833278198
 30
0.0
 10
-72.43864571055315
 20
-0.4665827137949066
 30
0.0
 10
-72.53609033669852
 20
-0.6828691248630037
 30
0.0
 10
-72.58203686146021
 20
-0.7836424299649139
 30
0.0
 10
-72.66403347014932
 20
-0.9630123937784844
 30
0.0
 10
-72.85033578823152
 20
-1.365871984620582
 30
0.0
 10
-72.91383487458347
 20
-1.502927342900932
 30
0.0
 10
-73.04043800247018
 20
-1.775849579353831
 30
0.0
 10
-73.23473900563181
 20
-2.193756817477492
 30
0.0
 10
-73.32244478934945
 20
-2.38230823207229
 30
0.0
 10
-73.44012388355043
 20
-2.635126421448319
 30
0.0
 10
-73.57727059435183
 20
-2.929651585591727
 30
0.0
 10
-73.60190354529277
 20
-2.982547676508914
 30
0.0
 10
-73.62709882306489
 20
-3.036645095140613
 30
0.0
 10
-73.65286190895495
 20
-3.091957855679311
 30
0.0
  0
SPLINE
  5
21ECA
330
1F
100
AcDbEntity
  8
SKVIEW1
100
AcDbSpline
210
0.0
220
0.0
230
1.0
 70
     8
 71
     5
 72
    51
 73
    45
 74
     0
 42
0.000000001
 43
0.0000000001
 40
0.0
 40
0.0
 40
0.0
 40
0.0
 40
0.0
 40
0.0
 40
24.82274896500861
 40
24.82274896500861
 40
24.82274896500861
 40
61.84786160361896
 40
61.84786160361896
 40
61.84786160361896
 40
86.67028939858679
 40
86.67028939858679
 40
86.67028939858679
 40
99.081594831915
 40
99.081594831915
 40
99.081594831915
 40
111.4931250848582
 40
111.4931250848582
 40
111.4931250848582
 40
117.0098914223522
 40
117.0098914223522
 40
117.0098914223522
 40
120.2084303944825
 40
120.2084303944825
 40
120.2084303944825
 40
121.1531858659427
 40
121.1531858659427
 40
121.1531858659427
 40
121.6256823343602
 40
121.6256823343602
 40
121.6256823343602
 40
122.1107152563852
 40
122.1107152563852
 40
122.1107152563852
 40
122.350127498001
 40
122.350127498001
 40
122.350127498001
 40
122.5895397396168
 40
122.5895397396168
 40
122.5895397396168
 40
122.8392058882412
 40
122.8392058882412
 40
122.8392058882412
 40
123.9962419953201
 40
123.9962419953201
 40
123.9962419953201
 40
123.9962419953201
 40
123.9962419953201
 40
123.9962419953201
 10
-72.33846460678194
 20
-0.2299973606335186
 30
0.0
 10
-72.32488444365251
 20
-0.1960525357575875
 30
0.0
 10
-72.31765598360948
 20
-0.1702758948388237
 30
0.0
 10
-72.31234841812318
 20
-0.1480263583229942
 30
0.0
 10
-72.30317359465118
 20
-0.0962556310110756
 30
0.0
 10
-72.30218661312654
 20
-0.0528928213873314
 30
0.0
 10
-72.30358079400639
 20
-0.0276490252875021
 30
0.0
 10
-72.30910763766224
 20
0.0138974585364906
 30
0.0
 10
-72.32115201835836
 20
0.0594893137597694
 30
0.0
 10
-72.32716072078767
 20
0.0787099669857696
 30
0.0
 10
-72.33843826399118
 20
0.1101342278886079
 30
0.0
 10
-72.35612746560969
 20
0.1489707998719041
 30
0.0
 10
-72.36301081713566
 20
0.1631500994945156
 30
0.0
 10
-72.37850553902399
 20
0.1928472664664866
 30
0.0
 10
-72.39914753499078
 20
0.2280492985369165
 30
0.0
 10
-72.41124925730287
 20
0.247711600355899
 30
0.0
 10
-72.43305834264766
 20
0.2814254299190111
 30
0.0
 10
-72.46865932628691
 20
0.3293149998742706
 30
0.0
 10
-72.48129656497076
 20
0.3457003626919288
 30
0.0
 10
-72.50436874541583
 20
0.3746929352465713
 30
0.0
 10
-72.53809180873495
 20
0.4135178118501984
 30
0.0
 10
-72.55180111579273
 20
0.4287832244023946
 30
0.0
 10
-72.57299195608698
 20
0.4519385977555715
 30
0.0
 10
-72.60448580637865
 20
0.4838611997052738
 30
0.0
 10
-72.61232404255281
 20
0.4916947371067124
 30
0.0
 10
-72.62545073858746
 20
0.5045829718835933
 30
0.0
 10
-72.64142697458874
 20
0.5198251277590203
 30
0.0
 10
-72.64712885952724
 20
0.5252156189486641
 30
0.0
 10
-72.65966240812009
 20
0.5369362259832827
 30
0.0
 10
-72.67514999985053
 20
0.5510377296144782
 30
0.0
 10
-72.68310673357905
 20
0.5581557628578935
 30
0.0
 10
-72.69728859646807
 20
0.5708161169762036
 30
0.0
 10
-72.71965153337726
 20
0.5899112585734941
 30
0.0
 10
-72.73038565807588
 20
0.5986009995270081
 30
0.0
 10
-72.74381139968568
 20
0.6106061253393876
 30
0.0
 10
-72.79380501949811
 20
0.6504064448711802
 30
0.0
 10
-72.81808052657869
 20
0.6683861252627992
 30
0.0
 10
-72.84387846310448
 20
0.6873825578295226
 30
0.0
 10
-72.86307995895834
 20
0.7010491950116773
 30
0.0
 10
-72.87025904993868
 20
0.7061295494793001
 30
0.0
 10
-72.91820590991665
 20
0.7395284768059867
 30
0.0
 10
-72.94704494023415
 20
0.7577185501322959
 30
0.0
 10
-72.96654526860175
 20
0.7704043061467019
 30
0.0
 10
-72.99088917754045
 20
0.7853553669704923
 30
0.0
 10
-73.01377936181404
 20
0.7990012822033066
 30
0.0
  0
LINE
  5
21ECB
330
1F
100
AcDbEntity
  8
SKVIEW1
100
AcDbLine
 10
-73.01377963390518
 20
0.7990010000000041
 30
0.0
 11
-75.07369463390512
 21
1.350954000000001
 31
0.0
  0
LINE
  5
21ECC
330
1F
100
AcDbEntity
  8
SKVIEW1
100
AcDbLine
 10
-75.42302763390512
 20
2.233835999999996
 30
0.0
 11
-73.01377963390518
 21
0.7990010000000041
 31
0.0
  0
LINE
  5
21ECD
330
1F
100
AcDbEntity
  8
SKVIEW1
100
AcDbLine
 10
-75.60692563390512
 20
2.345916999999985
 30
0.0
 11
-75.42302763390512
 21
2.233835999999996
 31
0.0
  0
ARC
  5
21ECE
330
1F
100
AcDbEntity
  8
SKVIEW1
100
AcDbCircle
 10
-71.96371763390527
 20
0.0
 30
0.0
 40
4.811592
100
AcDbArc
 50
63.07468799999851
 51
143.2138329999961
  0
ARC
  5
21ECF
330
1F
100
AcDbEntity
  8
SKVIEW1
100
AcDbCircle
 10
-71.96371763390527
 20
0.0
 30
0.0
 40
4.117869999999999
100
AcDbArc
 50
61.88236099999858
 51
147.1478109999966
  0
ARC
  5
21ED0
330
1F
100
AcDbEntity
  8
SKVIEW1
100
AcDbCircle
 10
-71.96371763390527
 20
0.0
 30
0.0
 40
7.57
100
AcDbArc
 50
90.0
 51
130.6952450000042
  0
ARC
  5
21ED1
330
1F
100
AcDbEntity
  8
SKVIEW1
100
AcDbCircle
 10
-71.96371763390527
 20
0.0
 30
0.0
 40
7.95
100
AcDbArc
 50
90.0
 51
128.5000769999985
  0
ARC
  5
21ED2
330
1F
100
AcDbEntity
  8
SKVIEW1
100
AcDbCircle
 10
-71.96371763390527
 20
0.0
 30
0.0
 40
4.117869999999999
100
AcDbArc
 50
241.8823609999986
 51
327.1478109999963
  0
ARC
  5
21ED3
330
1F
100
AcDbEntity
  8
SKVIEW1
100
AcDbCircle
 10
-71.96371763390527
 20
0.0
 30
0.0
 40
4.811592
100
AcDbArc
 50
243.0746879999985
 51
323.2138329999961
  0
ARC
  5
21ED4
330
1F
100
AcDbEntity
  8
SKVIEW1
100
AcDbCircle
 10
-72.26371763390509
 20
-5.364116999999993
 30
0.0
 40
0.3975
100
AcDbArc
 50
319.0006459999977
 51
86.79894299999828
  0
LINE
  5
21ED5
330
1F
100
AcDbEntity
  8
SKVIEW1
100
AcDbLine
 10
-71.96371763390527
 20
-7.569999999999936
 30
0.0
 11
-71.96371763390527
 21
-5.624898000000001
 31
0.0
  0
ARC
  5
21ED6
330
1F
100
AcDbEntity
  8
SKVIEW1
100
AcDbCircle
 10
-71.96371763390527
 20
0.0
 30
0.0
 40
7.57
100
AcDbArc
 50
270.0
 51
310.6952450000042
  0
ARC
  5
21ED7
330
1F
100
AcDbEntity
  8
SKVIEW1
100
AcDbCircle
 10
-71.96371763390527
 20
0.0
 30
0.0
 40
7.95
100
AcDbArc
 50
270.0
 51
308.5000769999985
  0
LINE
  5
21ED8
330
1F
100
AcDbEntity
  8
SKVIEW1
100
AcDbLine
 10
-71.96371763390527
 20
-7.569999999999936
 30
0.0
 11
-71.96371763390527
 21
-7.949999999999988
 31
0.0
  0
LINE
  5
21ED9
330
1F
100
AcDbEntity
  8
SKVIEW1
100
AcDbLine
 10
-71.96371763390527
 20
7.389999999999986
 30
0.0
 11
-71.96371763390527
 21
6.590000000000003
 31
0.0
  0
LINE
  5
21EDA
330
1F
100
AcDbEntity
  8
SKVIEW1
100
AcDbLine
 10
-71.96371763390527
 20
15.69999999999999
 30
0.0
 11
-71.96371763390527
 21
7.389999999999986
 31
0.0
  0
LINE
  5
21EDB
330
1F
100
AcDbEntity
  8
SKVIEW1
100
AcDbLine
 10
-71.96371763390527
 20
15.69999999999999
 30
0.0
 11
-71.96371763390527
 21
16.5
 31
0.0
  0
LINE
  5
21EDC
330
1F
100
AcDbEntity
  8
SKVIEW1
100
AcDbLine
 10
-67.6637176339052
 20
15.89567400000001
 30
0.0
 11
-67.6637176339052
 21
15.69999999999999
 31
0.0
  0
LINE
  5
21EDD
330
1F
100
AcDbEntity
  8
SKVIEW1
100
AcDbLine
 10
-67.6637176339052
 20
15.69999999999999
 30
0.0
 11
-67.6637176339052
 21
7.389999999999986
 31
0.0
  0
LINE
  5
21EDE
330
1F
100
AcDbEntity
  8
SKVIEW1
100
AcDbLine
 10
-67.6637176339052
 20
7.389999999999986
 30
0.0
 11
-67.6637176339052
 21
7.194325999999989
 31
0.0
  0
LINE
  5
21EDF
330
1F
100
AcDbEntity
  8
SKVIEW1
100
AcDbLine
 10
-67.6637176339052
 20
7.194325999999989
 30
0.0
 11
-71.96371763390527
 21
6.590000000000003
 31
0.0
  0
LINE
  5
21EE0
330
1F
100
AcDbEntity
  8
SKVIEW1
100
AcDbLine
 10
-67.6637176339052
 20
7.389999999999986
 30
0.0
 11
-71.96371763390527
 21
7.389999999999986
 31
0.0
  0
LINE
  5
21EE1
330
1F
100
AcDbEntity
  8
SKVIEW1
100
AcDbLine
 10
-67.6637176339052
 20
15.69999999999999
 30
0.0
 11
-71.96371763390527
 21
15.69999999999999
 31
0.0
  0
LINE
  5
21EE2
330
1F
100
AcDbEntity
  8
SKVIEW1
100
AcDbLine
 10
-67.6637176339052
 20
15.89567400000001
 30
0.0
 11
-71.96371763390527
 21
16.5
 31
0.0
  0
LINE
  5
21EE3
330
1F
100
AcDbEntity
  8
SKVIEW1
100
AcDbLine
 10
-71.96371763390527
 20
16.5
 30
0.0
 11
-71.96371763390527
 21
15.69999999999999
 31
0.0
  0
LINE
  5
21EE4
330
1F
100
AcDbEntity
  8
SKVIEW1
100
AcDbLine
 10
-71.96371763390527
 20
7.389999999999986
 30
0.0
 11
-71.96371763390527
 21
6.590000000000003
 31
0.0
  0
LINE
  5
21EE5
330
1F
100
AcDbEntity
  8
SKVIEW1
100
AcDbLine
 10
-71.96371763390527
 20
7.389999999999986
 30
0.0
 11
-71.96371763390527
 21
15.69999999999999
 31
0.0
  0
LINE
  5
21EE6
330
1F
100
AcDbEntity
  8
SKVIEW1
100
AcDbLine
 10
-71.96371763390527
 20
-15.69999999999999
 30
0.0
 11
-71.96371763390527
 21
-7.950000999999929
 31
0.0
  0
LINE
  5
21EE7
330
1F
100
AcDbEntity
  8
SKVIEW1
100
AcDbLine
 10
-71.96371763390527
 20
-15.69999999999999
 30
0.0
 11
-71.96371763390527
 21
-16.5
 31
0.0
  0
LINE
  5
21EE8
330
1F
100
AcDbEntity
  8
SKVIEW1
100
AcDbLine
 10
-76.26371763390512
 20
-15.89567399999993
 30
0.0
 11
-76.26371763390512
 21
-15.69999999999999
 31
0.0
  0
LINE
  5
21EE9
330
1F
100
AcDbEntity
  8
SKVIEW1
100
AcDbLine
 10
-76.26371763390512
 20
-15.69999999999999
 30
0.0
 11
-76.26371763390512
 21
-7.389999999999986
 31
0.0
  0
LINE
  5
21EEA
330
1F
100
AcDbEntity
  8
SKVIEW1
100
AcDbLine
 10
-76.26371763390512
 20
-7.389999999999986
 30
0.0
 11
-76.26371763390512
 21
-7.194325999999932
 31
0.0
  0
LINE
  5
21EEB
330
1F
100
AcDbEntity
  8
SKVIEW1
100
AcDbLine
 10
-76.26371763390512
 20
-7.194325999999932
 30
0.0
 11
-71.96371763390527
 21
-6.590000000000003
 31
0.0
  0
LINE
  5
21EEC
330
1F
100
AcDbEntity
  8
SKVIEW1
100
AcDbLine
 10
-76.26371763390512
 20
-7.389999999999986
 30
0.0
 11
-71.96371763390527
 21
-7.389999999999986
 31
0.0
  0
LINE
  5
21EED
330
1F
100
AcDbEntity
  8
SKVIEW1
100
AcDbLine
 10
-76.26371763390512
 20
-15.69999999999999
 30
0.0
 11
-71.96371763390527
 21
-15.69999999999999
 31
0.0
  0
LINE
  5
21EEE
330
1F
100
AcDbEntity
  8
SKVIEW1
100
AcDbLine
 10
-76.26371763390512
 20
-15.89567399999993
 30
0.0
 11
-71.96371763390527
 21
-16.5
 31
0.0
  0
LINE
  5
21EEF
330
1F
100
AcDbEntity
  8
SKVIEW1
100
AcDbLine
 10
-71.96371763390527
 20
-16.5
 30
0.0
 11
-71.96371763390527
 21
-15.69999999999999
 31
0.0
  0
LINE
  5
21EF0
330
1F
100
AcDbEntity
  8
SKVIEW1
100
AcDbLine
 10
-71.96371763390527
 20
-16.5
 30
0.0
 11
-71.96371763390527
 21
-15.69999999999999
 31
0.0
  0
LINE
  5
21EF1
330
1F
100
AcDbEntity
  8
SKVIEW1
100
AcDbLine
 10
-71.96371763390527
 20
-15.69999999999999
 30
0.0
 11
-71.96371763390527
 21
-14.097633
 31
0.0
  0
LINE
  5
21EF2
330
1F
100
AcDbEntity
  8
SKVIEW1
100
AcDbLine
 10
-71.96371763390527
 20
-13.98188400000001
 30
0.0
 11
-71.96371763390527
 21
-7.950007999999911
 31
0.0
  0
LINE
  5
21EF3
330
1F
100
AcDbEntity
  8
SKVIEW1
100
AcDbLine
 10
-71.96371763390527
 20
-7.949999999999988
 30
0.0
 11
-71.96371763390527
 21
-15.69999999999999
 31
0.0
  0
ARC
  5
21EF4
330
1F
100
AcDbEntity
  8
SKVIEW1
100
AcDbCircle
 10
-71.96371763390527
 20
0.0
 30
0.0
 40
4.974999999999996
100
AcDbArc
 50
7.709889000000132
 51
86.84301199999763
  0
LINE
  5
21EF5
330
1F
100
AcDbEntity
  8
SKVIEW1
100
AcDbLine
 10
-63.17860163390514
 20
-2.864521999999993
 30
0.0
 11
-63.17860163390514
 21
1.238347000000004
 31
0.0
  0
ARC
  5
21EF6
330
1F
100
AcDbEntity
  8
SKVIEW1
100
AcDbCircle
 10
-64.92190163390512
 20
-2.500187000000011
 30
0.0
 40
4.125011999999999
100
AcDbArc
 50
65.00009099999887
 51
121.7393800000032
  0
LINE
  5
21EF7
330
1F
100
AcDbEntity
  8
SKVIEW1
100
AcDbLine
 10
-67.59806363390521
 20
-3.143870999999933
 30
0.0
 11
-67.59806363390521
 21
0.1449770000000683
 31
0.0
  0
SPLINE
  5
21EF8
330
1F
100
AcDbEntity
  8
SKVIEW1
100
AcDbSpline
210
0.0
220
0.0
230
1.0
 70
     8
 71
     5
 72
    24
 73
    18
 74
     0
 42
0.000000001
 43
0.0000000001
 40
0.0
 40
0.0
 40
0.0
 40
0.0
 40
0.0
 40
0.0
 40
2.804925492800869
 40
2.804925492800869
 40
2.804925492800869
 40
3.831545424300466
 40
3.831545424300466
 40
3.831545424300466
 40
5.941719187764512
 40
5.941719187764512
 40
5.941719187764512
 40
8.838379986689881
 40
8.838379986689881
 40
8.838379986689881
 40
9.73191472663823
 40
9.73191472663823
 40
9.73191472663823
 40
9.73191472663823
 40
9.73191472663823
 40
9.73191472663823
 10
-63.17859994450646
 20
-2.864510218692515
 30
0.0
 10
-63.35924765298978
 20
-2.865474009775198
 30
0.0
 10
-63.56538722247091
 20
-2.862586854803083
 30
0.0
 10
-63.8104194179391
 20
-2.855690341002798
 30
0.0
 10
-64.19008925874345
 20
-2.844014783331488
 30
0.0
 10
-64.61714852399291
 20
-2.838362603669509
 30
0.0
 10
-64.73434352207653
 20
-2.837506621244386
 30
0.0
 10
-65.09718392520404
 20
-2.837613042888222
 30
0.0
 10
-65.46452337564017
 20
-2.847245811347505
 30
0.0
 10
-65.70031976542304
 20
-2.858982458351817
 30
0.0
 10
-66.24013194470103
 20
-2.898613641730321
 30
0.0
 10
-66.69856233771941
 20
-2.959014111116403
 30
0.0
 10
-66.93349575061768
 20
-2.99813032981342
 30
0.0
 10
-67.20782181609798
 20
-3.051570965731997
 30
0.0
 10
-67.44346327969982
 20
-3.105695607623601
 30
0.0
 10
-67.49696409713852
 20
-3.118454542643576
 30
0.0
 10
-67.54844111337968
 20
-3.131160339179928
 30
0.0
 10
-67.59805667101829
 20
-3.143804873283301
 30
0.0
  0
LINE
  5
21EF9
330
1F
100
AcDbEntity
  8
SKVIEW1
100
AcDbLine
 10
-71.96371763390527
 20
5.103510999999997
 30
0.0
 11
-71.96371763390527
 21
6.590000000000003
 31
0.0
  0
LINE
  5
21EFA
330
1F
100
AcDbEntity
  8
SKVIEW1
100
AcDbLine
 10
-63.17860163390514
 20
1.238347000000004
 30
0.0
 11
-55.85985763390522
 21
-2.174440000000004
 31
0.0
  0
ARC
  5
21EFB
330
1F
100
AcDbEntity
  8
SKVIEW1
100
AcDbCircle
 10
-71.96371763390527
 20
0.0
 30
0.0
 40
16.25
100
AcDbArc
 50
337.0475470000011
 51
74.65589999999846
  0
LINE
  5
21EFC
330
1F
100
AcDbEntity
  8
SKVIEW1
100
AcDbLine
 10
-67.6637176339052
 20
6.590000000000003
 30
0.0
 11
-67.6637176339052
 21
15.67075299999999
 31
0.0
  0
LINE
  5
21EFD
330
1F
100
AcDbEntity
  8
SKVIEW1
100
AcDbLine
 10
-67.6637176339052
 20
6.590000000000003
 30
0.0
 11
-71.96371763390527
 21
6.590000000000003
 31
0.0
  0
CIRCLE
  5
21EFE
330
1F
100
AcDbEntity
  8
SKVIEW1
100
AcDbCircle
 10
-60.53218263390499
 20
6.599999999999994
 30
0.0
 40
1.649999999999999
  0
SPLINE
  5
21EFF
330
1F
100
AcDbEntity
  8
SKVIEW1
100
AcDbSpline
210
0.0
220
0.0
230
1.0
 70
     8
 71
     5
 72
    39
 73
    33
 74
     0
 42
0.000000001
 43
0.0000000001
 40
0.0
 40
0.0
 40
0.0
 40
0.0
 40
0.0
 40
0.0
 40
3.262878154843028
 40
3.262878154843028
 40
3.262878154843028
 40
4.920551684516277
 40
4.920551684516277
 40
4.920551684516277
 40
6.055557222809683
 40
6.055557222809683
 40
6.055557222809683
 40
7.210627151545372
 40
7.210627151545372
 40
7.210627151545372
 40
8.204114785961138
 40
8.204114785961138
 40
8.204114785961138
 40
9.274094424381862
 40
9.274094424381862
 40
9.274094424381862
 40
9.948342490406712
 40
9.948342490406712
 40
9.948342490406712
 40
12.2802853169481
 40
12.2802853169481
 40
12.2802853169481
 40
15.49061489467663
 40
15.49061489467663
 40
15.49061489467663
 40
16.72363207172771
 40
16.72363207172771
 40
16.72363207172771
 40
16.72363207172771
 40
16.72363207172771
 40
16.72363207172771
 10
-63.17859994451635
 20
-2.86451021869189
 30
0.0
 10
-62.96803740643349
 20
-2.8633868261048
 30
0.0
 10
-62.75298221134926
 20
-2.866829719079106
 30
0.0
 10
-62.53671556550125
 20
-2.875645384560584
 30
0.0
 10
-62.19654760503772
 20
-2.898359046643832
 30
0.0
 10
-61.8268076035647
 20
-2.944072912987593
 30
0.0
 10
-61.69817825363452
 20
-2.962657239987606
 30
0.0
 10
-61.47606010000584
 20
-2.999900428065615
 30
0.0
 10
-61.23776518146065
 20
-3.051542787606507
 30
0.0
 10
-61.13744197000165
 20
-3.075453795010986
 30
0.0
 10
-60.92883860691154
 20
-3.130330821321706
 30
0.0
 10
-60.70233600888855
 20
-3.203519643953598
 30
0.0
 10
-60.58091929103182
 20
-3.246945892110488
 30
0.0
 10
-60.35319899572403
 20
-3.338504999856723
 30
0.0
 10
-60.12561811451837
 20
-3.450992994262492
 30
0.0
 10
-60.02272985033039
 20
-3.506987447159303
 30
0.0
 10
-59.82163152574639
 20
-3.62639109539748
 30
0.0
 10
-59.64518095639539
 20
-3.750422231535225
 30
0.0
 10
-59.56038257357079
 20
-3.815283337863718
 30
0.0
 10
-59.43648294611637
 20
-3.916610050138388
 30
0.0
 10
-59.32865449998394
 20
-4.014201219051386
 30
0.0
 10
-59.29032246679469
 20
-4.050182278190305
 30
0.0
 10
-59.12036637187907
 20
-4.215325808666989
 30
0.0
 10
-58.98204913423899
 20
-4.373292191011586
 30
0.0
 10
-58.88870817413033
 20
-4.489913491848
 30
0.0
 10
-58.68307034659949
 20
-4.76965506977109
 30
0.0
 10
-58.52029480971191
 20
-5.039485602865482
 30
0.0
 10
-58.43443009259203
 20
-5.196159804738925
 30
0.0
 10
-58.32828407550403
 20
-5.408628167549011
 30
0.0
 10
-58.23499792753648
 20
-5.619667146420397
 30
0.0
 10
-58.21003247579051
 20
-5.678144469759587
 30
0.0
 10
-58.18593775285592
 20
-5.736546587926397
 30
0.0
 10
-58.16266080351579
 20
-5.794898147959827
 30
0.0
  0
LINE
  5
21F00
330
1F
100
AcDbEntity
  8
SKVIEW1
100
AcDbLine
 10
-58.16264463390519
 20
-5.794931999999988
 30
0.0
 11
-57.00024963390513
 21
-6.336964999999935
 31
0.0
  0
ARC
  5
21F01
330
1F
100
AcDbEntity
  8
SKVIEW1
100
AcDbCircle
 10
-64.48451363390518
 20
-12.64686699999998
 30
0.0
 40
10.000113
100
AcDbArc
 50
108.1406480000006
 51
110.3170189999975
  0
ARC
  5
21F02
330
1F
100
AcDbEntity
  8
SKVIEW1
100
AcDbCircle
 10
-71.96371763390527
 20
0.0
 30
0.0
 40
3.975
100
AcDbArc
 50
349.823713
 51
359.4803029999992
  0
ARC
  5
21F03
330
1F
100
AcDbEntity
  8
SKVIEW1
100
AcDbCircle
 10
-66.04432063390527
 20
-16.67588799999993
 30
0.0
 40
13.005529
100
AcDbArc
 50
93.03805899999906
 51
97.56271000000197
  0
ARC
  5
21F04
330
1F
100
AcDbEntity
  8
SKVIEW1
100
AcDbCircle
 10
-71.96371763390527
 20
0.0
 30
0.0
 40
6.4
100
AcDbArc
 50
324.8059749999964
 51
332.1571800000005
  0
ELLIPSE
  5
21F05
330
1F
100
AcDbEntity
  8
SKVIEW1
100
AcDbEllipse
 10
-65.07725863390522
 20
-12.35598599999991
 30
0.0
 11
8.24105644226074
 21
4.801358699798583
 31
0.0
210
0.0
220
0.0
230
1.0
 40
0.9888360000000002
 41
0.2341503698085809
 42
1.177538998841702
  0
ARC
  5
21F06
330
1F
100
AcDbEntity
  8
SKVIEW1
100
AcDbCircle
 10
-79.44292663390513
 20
12.646881
 30
0.0
 40
10.000127
100
AcDbArc
 50
288.1406490000004
 51
290.3169209999977
  0
LINE
  5
21F07
330
1F
100
AcDbEntity
  8
SKVIEW1
100
AcDbLine
 10
-76.32937163390511
 20
3.14387099999999
 30
0.0
 11
-76.32937163390511
 21
-0.1449770000000115
 31
0.0
  0
SPLINE
  5
21F08
330
1F
100
AcDbEntity
  8
SKVIEW1
100
AcDbSpline
210
0.0
220
0.0
230
1.0
 70
     8
 71
     5
 72
    39
 73
    33
 74
     0
 42
0.000000001
 43
0.0000000001
 40
0.0
 40
0.0
 40
0.0
 40
0.0
 40
0.0
 40
0.0
 40
3.262878156423122
 40
3.262878156423122
 40
3.262878156423122
 40
4.920551686942546
 40
4.920551686942546
 40
4.920551686942546
 40
6.055557226146983
 40
6.055557226146983
 40
6.055557226146983
 40
7.210627156020271
 40
7.210627156020271
 40
7.210627156020271
 40
8.204114790649692
 40
8.204114790649692
 40
8.204114790649692
 40
9.274094428412992
 40
9.274094428412992
 40
9.274094428412992
 40
9.948342493810587
 40
9.948342493810587
 40
9.948342493810587
 40
12.28028532418009
 40
12.28028532418009
 40
12.28028532418009
 40
15.49061486627707
 40
15.49061486627707
 40
15.49061486627707
 40
16.72363204758696
 40
16.72363204758696
 40
16.72363204758696
 40
16.72363204758696
 40
16.72363204758696
 40
16.72363204758696
 10
-80.74883532329375
 20
2.864510218692601
 30
0.0
 10
-80.95939786146379
 20
2.863386826104999
 30
0.0
 10
-81.17445305664274
 20
2.866829719084023
 30
0.0
 10
-81.3907197021083
 20
2.875645384552484
 30
0.0
 10
-81.7308876623881
 20
2.898359046608391
 30
0.0
 10
-82.1006276640095
 20
2.944072912955022
 30
0.0
 10
-82.22925701393725
 20
2.962657239945485
 30
0.0
 10
-82.45137516789588
 20
2.999900428083265
 30
0.0
 10
-82.6896700868715
 20
3.051542787729403
 30
0.0
 10
-82.78999329849398
 20
3.075453795180095
 30
0.0
 10
-82.99859666188785
 20
3.130330821597908
 30
0.0
 10
-83.22509926016051
 20
3.203519644377905
 30
0.0
 10
-83.34651597833749
 20
3.246945892692906
 30
0.0
 10
-83.57423627380558
 20
3.338505000604897
 30
0.0
 10
-83.80181715518483
 20
3.450992995264698
 30
0.0
 10
-83.90470541943683
 20
3.506987448276476
 30
0.0
 10
-84.10580374392953
 20
3.62639109660617
 30
0.0
 10
-84.28225431319072
 20
3.750422232841799
 30
0.0
 10
-84.36705269595643
 20
3.815283339219291
 30
0.0
 10
-84.49095232313846
 20
3.91661005138809
 30
0.0
 10
-84.59878076905928
 20
4.014201220198287
 30
0.0
 10
-84.63711280204256
 20
4.050182279171167
 30
0.0
 10
-84.80706889695909
 20
4.2153258097577
 30
0.0
 10
-84.94538613451357
 20
4.373292192132595
 30
0.0
 10
-85.03872709388724
 20
4.489913492052693
 30
0.0
 10
-85.24436492032908
 20
4.769655068699506
 30
0.0
 10
-85.40714045582012
 20
5.039485599175918
 30
0.0
 10
-85.49300517641109
 20
5.19615980716901
 30
0.0
 10
-85.59915119270181
 20
5.408628168466691
 30
0.0
 10
-85.69243734003066
 20
5.619667145829282
 30
0.0
 10
-85.71740279186384
 20
5.6781444693639
 30
0.0
 10
-85.74149751488048
 20
5.736546587726166
 30
0.0
 10
-85.76477446429782
 20
5.794898147955592
 30
0.0
  0
SPLINE
  5
21F09
330
1F
100
AcDbEntity
  8
SKVIEW1
100
AcDbSpline
210
0.0
220
0.0
230
1.0
 70
     8
 71
     5
 72
    24
 73
    18
 74
     0
 42
0.000000001
 43
0.0000000001
 40
0.0
 40
0.0
 40
0.0
 40
0.0
 40
0.0
 40
0.0
 40
2.804925490824586
 40
2.804925490824586
 40
2.804925490824586
 40
3.831545422563976
 40
3.831545422563976
 40
3.831545422563976
 40
5.941719182357315
 40
5.941719182357315
 40
5.941719182357315
 40
8.838379981793377
 40
8.838379981793377
 40
8.838379981793377
 40
9.731914721679947
 40
9.731914721679947
 40
9.731914721679947
 40
9.731914721679947
 40
9.731914721679947
 40
9.731914721679947
 10
-80.74883532330375
 20
2.864510218693283
 30
0.0
 10
-80.56818761494241
 20
2.865474009775937
 30
0.0
 10
-80.36204804560908
 20
2.862586854806608
 30
0.0
 10
-80.11701584979551
 20
2.855690341000411
 30
0.0
 10
-79.73734600881494
 20
2.844014783324382
 30
0.0
 10
-79.31028674355684
 20
2.838362603668514
 30
0.0
 10
-79.19309174543207
 20
2.837506621243591
 30
0.0
 10
-78.83025134270042
 20
2.837613042898794
 30
0.0
 10
-78.46291189301962
 20
2.847245811338694
 30
0.0
 10
-78.22711550169254
 20
2.85898245840778
 30
0.0
 10
-77.68730332279563
 20
2.898613641770396
 30
0.0
 10
-77.22887293004998
 20
2.959014111125895
 30
0.0
 10
-76.99393951727405
 20
2.998130329799693
 30
0.0
 10
-76.71961345174555
 20
3.051570965726597
 30
0.0
 10
-76.48397198810869
 20
3.105695607626188
 30
0.0
 10
-76.43047117067192
 20
3.118454542645594
 30
0.0
 10
-76.37899415443155
 20
3.131160339181661
 30
0.0
 10
-76.32937859679294
 20
3.143804873285489
 30
0.0
  0
ARC
  5
21F0A
330
1F
100
AcDbEntity
  8
SKVIEW1
100
AcDbCircle
 10
-77.88311363390528
 20
16.675883
 30
0.0
 40
13.005524
100
AcDbArc
 50
273.038058999999
 51
277.5633239999983
  0
ARC
  5
21F0B
330
1F
100
AcDbEntity
  8
SKVIEW1
100
AcDbCircle
 10
-71.96371763390527
 20
0.0
 30
0.0
 40
6.4
100
AcDbArc
 50
144.8059749999965
 51
152.1571800000005
  0
ELLIPSE
  5
21F0C
330
1F
100
AcDbEntity
  8
SKVIEW1
100
AcDbEllipse
 10
-78.85017663390522
 20
12.355986
 30
0.0
 11
8.24105644226074
 21
4.801358699798583
 31
0.0
210
0.0
220
0.0
230
1.0
 40
0.9888360000000002
 41
3.375743019367771
 42
4.319131648316638
  0
LINE
  5
21F0D
330
1F
100
AcDbEntity
  8
SKVIEW1
100
AcDbLine
 10
-80.74883363390517
 20
2.864521999999993
 30
0.0
 11
-80.74883363390517
 21
-1.238347000000004
 31
0.0
  0
ARC
  5
21F0E
330
1F
100
AcDbEntity
  8
SKVIEW1
100
AcDbCircle
 10
-79.00559563390515
 20
2.500645999999989
 30
0.0
 40
4.125468999999998
100
AcDbArc
 50
245.003557000002
 51
301.7367519999965
  0
ARC
  5
21F0F
330
1F
100
AcDbEntity
  8
SKVIEW1
100
AcDbCircle
 10
-71.96371763390527
 20
0.0
 30
0.0
 40
4.974999999999996
100
AcDbArc
 50
187.7098890000001
 51
241.3521100000019
  0
LINE
  5
21F10
330
1F
100
AcDbEntity
  8
SKVIEW1
100
AcDbLine
 10
-76.26371763390512
 20
-6.590000000000003
 30
0.0
 11
-71.96371763390527
 21
-6.590000000000003
 31
0.0
  0
LINE
  5
21F11
330
1F
100
AcDbEntity
  8
SKVIEW1
100
AcDbLine
 10
-71.96371763390527
 20
-13.98188200000001
 30
0.0
 11
-71.96371763390527
 21
-7.950007999999911
 31
0.0
  0
LINE
  5
21F12
330
1F
100
AcDbEntity
  8
SKVIEW1
100
AcDbLine
 10
-71.96371763390527
 20
-16.25
 30
0.0
 11
-71.96371763390527
 21
-14.097633
 31
0.0
  0
ARC
  5
21F13
330
1F
100
AcDbEntity
  8
SKVIEW1
100
AcDbCircle
 10
-71.96371763390527
 20
0.0
 30
0.0
 40
16.25
100
AcDbArc
 50
172.3100890000004
 51
254.6558999999985
  0
LINE
  5
21F14
330
1F
100
AcDbEntity
  8
SKVIEW1
100
AcDbLine
 10
-85.76479063390513
 20
5.794931999999988
 30
0.0
 11
-86.92718563390519
 21
6.336964999999992
 31
0.0
  0
LINE
  5
21F15
330
1F
100
AcDbEntity
  8
SKVIEW1
100
AcDbLine
 10
-71.96371763390527
 20
-5.624897000000004
 30
0.0
 11
-71.96371763390527
 21
-5.103341999999997
 31
0.0
  0
ARC
  5
21F16
330
1F
100
AcDbEntity
  8
SKVIEW1
100
AcDbCircle
 10
-71.96371763390527
 20
0.0
 30
0.0
 40
16.25
100
AcDbArc
 50
157.047547000001
 51
172.3100890000004
  0
LINE
  5
21F17
330
1F
100
AcDbEntity
  8
SKVIEW1
100
AcDbLine
 10
-80.74883363390517
 20
-1.238347000000004
 30
0.0
 11
-88.06757763390521
 21
2.174440000000089
 31
0.0
  0
LINE
  5
21F18
330
1F
100
AcDbEntity
  8
SKVIEW1
100
AcDbLine
 10
-76.26371763390512
 20
-6.590000000000003
 30
0.0
 11
-76.26371763390512
 21
-7.194325999999932
 31
0.0
  0
CIRCLE
  5
21F19
330
1F
100
AcDbEntity
  8
SKVIEW1
100
AcDbCircle
 10
-83.39525263390521
 20
-6.599999999999937
 30
0.0
 40
1.649999999999999
  0
LINE
  5
21F1A
330
1F
100
AcDbEntity
  8
1
100
AcDbLine
 10
26.67000000000348
 20
7.950000000000073
 30
0.0
 11
25.87000000000342
 21
7.950000000000073
 31
0.0
  0
LINE
  5
21F1B
330
1F
100
AcDbEntity
  8
1
100
AcDbLine
 10
21.11000000000377
 20
6.590000000000003
 30
0.0
 11
21.11000000000377
 21
2.68095400000007
 31
0.0
  0
LINE
  5
21F1C
330
1F
100
AcDbEntity
  8
1
100
AcDbLine
 10
27.32817900000373
 20
7.569999999999993
 30
0.0
 11
26.67000000000348
 21
7.950000000000073
 31
0.0
  0
LINE
  5
21F1D
330
1F
100
AcDbEntity
  8
1
100
AcDbLine
 10
27.76294500000381
 20
5.104323000000078
 30
0.0
 11
27.67115300000376
 21
5.624898000000086
 31
0.0
  0
ARC
  5
21F1E
330
1F
100
AcDbEntity
  8
1
100
AcDbCircle
 10
30.78966500000376
 20
5.336183000000005
 30
0.0
 40
3.021
100
AcDbArc
 50
189.9999999999986
 51
203.7834839999993
  0
LINE
  5
21F1F
330
1F
100
AcDbEntity
  8
1
100
AcDbLine
 10
27.81456100000378
 20
4.811592000000075
 30
0.0
 11
27.76294500000381
 21
5.104323000000078
 31
0.0
  0
LINE
  5
21F20
330
1F
100
AcDbEntity
  8
1
100
AcDbLine
 10
27.67131100000347
 20
5.624002999999987
 30
0.0
 11
27.32817900000373
 21
7.569999999999993
 31
0.0
  0
LINE
  5
21F21
330
1F
100
AcDbEntity
  8
1
100
AcDbLine
 10
29.84000000000378
 20
0.0
 30
0.0
 11
28.02522100000374
 21
4.117870000000067
 31
0.0
  0
DIMENSION
  5
21F22
330
1F
100
AcDbEntity
  8
SK2
100
AcDbDimension
280
     0
  2
*D16
 10
-26.71620145057023
 20
-6.400000000000001
 30
0.0
 11
-26.71620145057023
 21
-1.913971900463309
 31
0.0
 70
   160
  1
%%C<>
 71
     5
 42
12.80000000000001
 73
     0
 74
     0
 75
     0
  3
STANDARD
100
AcDbAlignedDimension
 13
-12.99999999999659
 23
6.400000000000005
 33
0.0
 14
-12.99999999999659
 24
-6.400000000000005
 34
0.0
 50
90.0
100
AcDbRotatedDimension
1001
ACAD_DSTYLE_DIMARC_LENGTH_SYMBOL
1070
   379
1070
     1
1001
ACAD_DSTYLE_DIM_LINETYPE
1070
   380
1005
14
1001
ACAD_DSTYLE_DIM_EXT1_LINETYPE
1070
   381
1005
14
1001
ACAD_DSTYLE_DIM_EXT2_LINETYPE
1070
   382
1005
14
1001
ACAD
1000
DSTYLE
1002
{
1070
   172
1070
     1
1002
}
  0
LINE
  5
220A4
330
1F
100
AcDbEntity
  8
4
100
AcDbLine
 10
0.0000000000037517
 20
0.0
 30
0.0
 11
31.03956800000344
 21
0.0
 31
0.0
  0
LWPOLYLINE
  5
220AB
330
1F
100
AcDbEntity
  8
CUT
 48
0.240324
100
AcDbPolyline
 90
       18
 70
     1
 43
0.0
 10
28.02522100000374
 20
4.117870000000067
 10
29.84000000000378
 20
0.0
 10
21.11000000000377
 20
0.0
 10
21.11000000000377
 20
2.680953999999985
 10
21.11000000000377
 20
6.05919399999999
 10
21.11000000000377
 20
6.590000000000003
 10
16.7600000000034
 20
6.589999999999989
 42
-0.4142135623730951
 10
15.96000000000379
 20
7.389999999999986
 10
15.96000000000339
 20
15.69999999999999
 42
-0.4142135623730951
 10
16.7600000000034
 20
16.5
 10
25.0700000000038
 20
16.49999999999998
 42
-0.4142135623730951
 10
25.87000000000342
 20
15.69999999999999
 10
25.87000000000342
 20
7.949999999999988
 10
26.67000000000348
 20
7.949999999999988
 10
27.32817900000373
 20
7.569999999999993
 10
27.67115300000376
 20
5.624898000000001
 10
27.76294500000381
 20
5.104322999999993
 10
27.81456077815386
 20
4.811591855268197
 42
-0.0056451417640374
  0
LWPOLYLINE
  5
220BD
330
1F
100
AcDbEntity
  8
NOCUT
100
AcDbPolyline
 90
        9
 70
     1
 43
0.0
 10
24.87000000000387
 20
0.0
 10
24.87000000000376
 20
7.790664999999989
 10
24.87000000000376
 20
16.25
 10
0.0000000000037517
 20
16.25
 10
0.0000000000037517
 20
7.790664999999989
 10
0.0000000000037517
 20
6.400000000000005
 10
-12.99999999999659
 20
6.400000000000005
 10
-12.99999999999659
 20
3.068322999999992
 10
-12.99999999999659
 20
0.0
  0
VIEWPORT
  5
9C00
330
1B
100
AcDbEntity
 67
     1
  8
0
348
3195
100
AcDbViewport
 10
108.2280559557949
 20
71.69854161746989
 30
0.0
 40
251.8950231529317
 41
201.8884082081047
 68
     1
 69
     1
 12
108.2280559557949
 22
71.69854161746989
 13
0.0
 23
0.0
 14
10.0
 24
10.0
 15
10.0
 25
10.0
 16
0.0
 26
0.0
 36
1.0
 17
0.0
 27
0.0
 37
0.0
 42
50.0
 43
0.0
 44
0.0
 45
201.8884082081047
 50
0.0
 51
0.0
 72
   100
 90
   557088
  1

281
     0
 71
     1
 74
     0
110
0.0
120
0.0
130
0.0
111
1.0
121
0.0
131
0.0
112
0.0
122
1.0
132
0.0
 79
     0
146
0.0
170
     0
 61
     5
292
     1
282
     1
141
0.0
142
0.0
 63
   250
421
  3355443
  0
VIEWPORT
  5
9C02
330
1B
100
AcDbEntity
 67
     1
  8
1
348
3195
100
AcDbViewport
 10
143.457083940506
 20
98.18158769607544
 30
0.0
 40
229.5313343048095
 41
157.0905403137207
 68
     2
 69
     2
 12
-44.37697124786255
 22
-35.12342998133886
 13
0.0
 23
0.0
 14
10.0
 24
10.0
 15
10.0
 25
10.0
 16
0.0
 26
0.0
 36
1.0
 17
0.0
 27
0.0
 37
0.0
 42
50.0
 43
0.0
 44
0.0
 45
300.3886240724386
 50
0.0
 51
0.0
 72
   100
 90
   557088
  1

281
     0
 71
     1
 74
     0
110
0.0
120
0.0
130
0.0
111
1.0
121
0.0
131
0.0
112
0.0
122
1.0
132
0.0
 79
     0
146
0.0
170
     0
 61
     5
348
3195
292
     1
282
     1
141
0.0
142
0.0
 63
   250
421
  3355443
  0
ENDSEC
  0
SECTION
  2
OBJECTS
  0
DICTIONARY
  5
3182
330
0
100
AcDbDictionary
281
     1
  3
ACAD_CIP_PREVIOUS_PRODUCT_INFO
350
1B2F4
  3
ACAD_COLOR
350
31A0
  3
ACAD_DETAILVIEWSTYLE
350
1B2F0
  3
ACAD_FIELDLIST
350
20CBF
  3
ACAD_GROUP
350
3183
  3
ACAD_LAYOUT
350
31A5
  3
ACAD_MATERIAL
350
318B
  3
ACAD_MLEADERSTYLE
350
1B221
  3
ACAD_MLINESTYLE
350
3184
  3
ACAD_PLOTSETTINGS
350
31A4
  3
ACAD_PLOTSTYLENAME
350
3189
  3
ACAD_SCALELIST
350
1B1FC
  3
ACAD_SECTIONVIEWSTYLE
350
1B2EE
  3
ACAD_TABLESTYLE
350
31A1
  3
ACAD_VISUALSTYLE
350
318F
  3
ACDB_RECOMPOSE_DATA
350
220F6
  3
AcDbVariableDictionary
350
33A3
  0
DICTIONARY
  5
422A
330
2
100
AcDbDictionary
280
     1
281
     1
  3
ACAD_LAYERFILTERS
360
1B063
  3
ACAD_LAYERSTATES
360
9A1C
  3
ACLYDICTIONARY
360
1B062
  0
DICTIONARY
  5
1B2F5
330
10
100
AcDbDictionary
280
     1
281
     1
  3
ADSK_XREC_LAYER_RECONCILED
360
21B8E
  0
DICTIONARY
  5
1B2F7
330
3F8C
100
AcDbDictionary
280
     1
281
     1
  3
ADSK_XREC_LAYER_RECONCILED
360
21B8F
  0
DICTIONARY
  5
1B2F9
330
9C4A
100
AcDbDictionary
280
     1
281
     1
  3
ADSK_XREC_LAYER_RECONCILED
360
21B90
  0
DICTIONARY
  5
1B2FB
330
9C4B
100
AcDbDictionary
280
     1
281
     1
  3
ADSK_XREC_LAYER_RECONCILED
360
21B91
  0
DICTIONARY
  5
1B2FD
330
9C4D
100
AcDbDictionary
280
     1
281
     1
  3
ADSK_XREC_LAYER_RECONCILED
360
21B92
  0
DICTIONARY
  5
1B2FF
330
9C4E
100
AcDbDictionary
280
     1
281
     1
  3
ADSK_XREC_LAYER_RECONCILED
360
21B93
  0
DICTIONARY
  5
1B301
330
9C4F
100
AcDbDictionary
280
     1
281
     1
  3
ADSK_XREC_LAYER_RECONCILED
360
21B94
  0
DICTIONARY
  5
1B303
330
9C50
100
AcDbDictionary
280
     1
281
     1
  3
ADSK_XREC_LAYER_RECONCILED
360
21B95
  0
DICTIONARY
  5
1B305
330
9C51
100
AcDbDictionary
280
     1
281
     1
  3
ADSK_XREC_LAYER_RECONCILED
360
21B96
  0
DICTIONARY
  5
1B307
330
13335
100
AcDbDictionary
280
     1
281
     1
  3
ADSK_XREC_LAYER_RECONCILED
360
21B97
  0
DICTIONARY
  5
1B309
330
1686E
100
AcDbDictionary
280
     1
281
     1
  3
ADSK_XREC_LAYER_RECONCILED
360
21B98
  0
DICTIONARY
  5
339C
330
1F
100
AcDbDictionary
280
     1
281
     1
  3
ACAD_SORTENTS
360
339D
  0
DICTIONARY
  5
1DE81
330
1B3D7
100
AcDbDictionary
280
     1
281
     1
  0
XRECORD
  5
1B2F4
102
{ACAD_REACTORS
330
3182
102
}
330
3182
100
AcDbXrecord
280
     1
300
ACDLT
300
2015
300
ACDLT_F_S
  0
DICTIONARY
  5
31A0
102
{ACAD_REACTORS
330
3182
102
}
330
3182
100
AcDbDictionary
281
     1
  0
DICTIONARY
  5
1B2F0
102
{ACAD_REACTORS
330
3182
102
}
330
3182
100
AcDbDictionary
281
     1
  3
Imperial24
350
20CB3
  3
Metric50
350
1B2F1
  0
FIELDLIST
  5
20CBF
102
{ACAD_REACTORS
330
3182
102
}
330
3182
100
AcDbIdSet
 90
        0
100
AcDbFieldList
  0
DICTIONARY
  5
3183
102
{ACAD_REACTORS
330
3182
102
}
330
3182
100
AcDbDictionary
281
     1
  0
DICTIONARY
  5
31A5
102
{ACAD_REACTORS
330
3182
102
}
330
3182
100
AcDbDictionary
281
     1
  3
Layout1
350
31A7
  3
Model
350
31A6
  0
DICTIONARY
  5
318B
102
{ACAD_REACTORS
330
3182
102
}
330
3182
100
AcDbDictionary
281
     1
  3
ByBlock
350
318D
  3
ByLayer
350
318C
  3
Global
350
318E
  0
DICTIONARY
  5
1B221
102
{ACAD_REACTORS
330
3182
102
}
330
3182
100
AcDbDictionary
281
     1
  3
Standard
350
1B2ED
  0
DICTIONARY
  5
3184
102
{ACAD_REACTORS
330
3182
102
}
330
3182
100
AcDbDictionary
281
     1
  3
STANDARD
350
3185
  0
DICTIONARY
  5
31A4
102
{ACAD_REACTORS
330
3182
102
}
330
3182
100
AcDbDictionary
281
     1
  0
ACDBDICTIONARYWDFLT
  5
3189
102
{ACAD_REACTORS
330
3182
102
}
330
3182
100
AcDbDictionary
281
     1
  3
Normal
350
318A
100
AcDbDictionaryWithDefault
340
318A
  0
DICTIONARY
  5
1B1FC
102
{ACAD_REACTORS
330
3182
102
}
330
3182
100
AcDbDictionary
281
     1
  3
A0
350
1B1FD
  3
A1
350
1B1FE
  3
A2
350
1B1FF
  3
A3
350
1B200
  3
A4
350
1B201
  3
A5
350
1B202
  3
A6
350
1B203
  3
A7
350
1B204
  3
A8
350
1B205
  3
A9
350
1B206
  3
B0
350
1B207
  3
B1
350
1B208
  3
B2
350
1B209
  3
B3
350
1B20A
  3
B4
350
1B20B
  3
B5
350
1B20C
  3
B6
350
1B20D
  3
B7
350
1B20E
  3
B8
350
1B20F
  3
B9
350
1B210
  3
C0
350
1B211
  3
C1
350
1B212
  3
C2
350
1B213
  3
C3
350
1B214
  3
C4
350
1B215
  3
C5
350
1B216
  3
C6
350
1B217
  3
C7
350
1B218
  3
C8
350
1B219
  3
C9
350
1B21A
  3
D0
350
1B21B
  3
D1
350
1B21C
  3
D2
350
1B21D
  0
DICTIONARY
  5
1B2EE
102
{ACAD_REACTORS
330
3182
102
}
330
3182
100
AcDbDictionary
281
     1
  3
Imperial24
350
20CB1
  3
Metric50
350
1B2EF
  0
DICTIONARY
  5
31A1
102
{ACAD_REACTORS
330
3182
102
}
330
3182
100
AcDbDictionary
281
     1
  3
Standard
350
31A2
  0
DICTIONARY
  5
318F
102
{ACAD_REACTORS
330
3182
102
}
330
3182
100
AcDbDictionary
281
     1
  3
2dWireframe
350
3195
  3
3D Hidden
350
3197
  3
3dWireframe
350
3196
  3
Basic
350
3194
  3
Brighten
350
319B
  3
ColorChange
350
319F
  3
Conceptual
350
3198
  3
Dim
350
319A
  3
EdgeColorOff
350
1B2EC
  3
Facepattern
350
319E
  3
Flat
350
3190
  3
FlatWithEdges
350
3191
  3
Gouraud
350
3192
  3
GouraudWithEdges
350
3193
  3
Hidden
350
1B2E4
  3
JitterOff
350
1B2EA
  3
Linepattern
350
319D
  3
OverhangOff
350
1B2EB
  3
Realistic
350
3199
  3
Shaded
350
1B2E9
  3
Shaded with edges
350
1B2E8
  3
Shades of Gray
350
1B2E5
  3
Sketchy
350
1B2E6
  3
Thicken
350
319C
  3
Wireframe
350
1B2E3
  3
X-Ray
350
1B2E7
  0
XRECORD
  5
220F6
102
{ACAD_REACTORS
330
3182
102
}
330
3182
100
AcDbXrecord
280
     1
 90
        1
330
31A2
  0
DICTIONARY
  5
33A3
102
{ACAD_REACTORS
330
3182
102
}
330
3182
100
AcDbDictionary
281
     1
  3
CANNOSCALE
350
1B222
  3
CMLEADERSTYLE
350
1B30F
  3
CTABLESTYLE
350
33A4
  3
CVIEWDETAILSTYLE
350
1B310
  3
CVIEWSECTIONSTYLE
350
1B311
  3
DIMASSOC
350
9BE8
  3
INDEXCTL
350
9BE7
  3
LAYEREVAL
350
20993
  3
LAYERNOTIFY
350
20994
  3
LIGHTINGUNITS
350
20992
  3
MSLTSCALE
350
20991
  3
SORTENTS
350
9BE6
  0
DICTIONARY
  5
1B063
102
{ACAD_REACTORS
330
422A
102
}
330
422A
100
AcDbDictionary
281
     1
  0
DICTIONARY
  5
9A1C
102
{ACAD_REACTORS
330
422A
102
}
330
422A
100
AcDbDictionary
281
     1
  0
DICTIONARY
  5
1B062
102
{ACAD_REACTORS
330
422A
102
}
330
422A
100
AcDbDictionary
281
     1
1001
ACAD
1000
<All
  0
XRECORD
  5
21B8E
102
{ACAD_REACTORS
330
1B2F5
102
}
330
1B2F5
100
AcDbXrecord
280
     1
290
     1
  0
XRECORD
  5
21B8F
102
{ACAD_REACTORS
330
1B2F7
102
}
330
1B2F7
100
AcDbXrecord
280
     1
290
     1
  0
XRECORD
  5
21B90
102
{ACAD_REACTORS
330
1B2F9
102
}
330
1B2F9
100
AcDbXrecord
280
     1
290
     1
  0
XRECORD
  5
21B91
102
{ACAD_REACTORS
330
1B2FB
102
}
330
1B2FB
100
AcDbXrecord
280
     1
290
     1
  0
XRECORD
  5
21B92
102
{ACAD_REACTORS
330
1B2FD
102
}
330
1B2FD
100
AcDbXrecord
280
     1
290
     1
  0
XRECORD
  5
21B93
102
{ACAD_REACTORS
330
1B2FF
102
}
330
1B2FF
100
AcDbXrecord
280
     1
290
     1
  0
XRECORD
  5
21B94
102
{ACAD_REACTORS
330
1B301
102
}
330
1B301
100
AcDbXrecord
280
     1
290
     1
  0
XRECORD
  5
21B95
102
{ACAD_REACTORS
330
1B303
102
}
330
1B303
100
AcDbXrecord
280
     1
290
     1
  0
XRECORD
  5
21B96
102
{ACAD_REACTORS
330
1B305
102
}
330
1B305
100
AcDbXrecord
280
     1
290
     1
  0
XRECORD
  5
21B97
102
{ACAD_REACTORS
330
1B307
102
}
330
1B307
100
AcDbXrecord
280
     1
290
     1
  0
XRECORD
  5
21B98
102
{ACAD_REACTORS
330
1B309
102
}
330
1B309
100
AcDbXrecord
280
     1
290
     1
  0
SORTENTSTABLE
  5
339D
102
{ACAD_REACTORS
330
339C
102
}
330
339C
100
AcDbSortentsTable
330
1F
331
21E28
  5
21E31
331
21E19
  5
21E22
331
21F1D
  5
220C0
331
21ED4
  5
21EF0
331
21F0E
  5
220B1
331
21EC5
  5
21EE1
331
21EFF
  5
21F1B
331
21EB6
  5
21ED2
331
21EF0
  5
21F0C
331
21EA7
  5
21EC3
331
21EE1
  5
21EFD
331
21E98
  5
21EB4
331
21E89
  5
21E9D
331
21E7A
  5
21E8E
331
21E6B
  5
21E7F
331
21E53
  5
21E66
331
21E44
  5
21E57
331
21E35
  5
21E42
331
21E26
  5
21E2F
331
21E17
  5
21E20
331
21DFB
  5
21DFB
331
21F18
  5
220BB
331
21F09
  5
220AC
331
21EC0
  5
21EDC
331
21EFA
  5
21F16
331
21EB1
  5
21ECD
331
21EEB
  5
21F07
331
21EA2
  5
21EBE
331
21EDC
  5
21EF8
331
21E84
  5
21E98
331
21E75
  5
21E89
331
220BD
  5
21EB3
331
21E5D
  5
21E71
331
21E4E
  5
21E61
331
21E66
  5
21E7A
331
21E3F
  5
21E52
331
21E30
  5
21E3C
331
21E21
  5
21E2A
331
21E12
  5
21E19
331
220A4
  5
21E02
331
21E03
  5
21E04
331
21F16
  5
220B9
331
21ECD
  5
21EE9
331
21F07
  5
220A4
331
21EBE
  5
21EDA
331
21EAF
  5
21ECB
331
21DF4
  5
21DF4
331
21E70
  5
21E84
331
21E61
  5
21E75
331
21E58
  5
21E6B
331
21E3A
  5
21E47
331
21E2B
  5
21E34
331
21E1C
  5
21E27
331
21F20
  5
220C3
331
21ED7
  5
21EF3
331
21F11
  5
220B4
331
21EC8
  5
21EE4
331
21F02
  5
21F1E
331
21EB9
  5
21ED5
331
21EF3
  5
21F0F
331
21EAA
  5
21EC6
331
21EE4
  5
21F00
331
21E9B
  5
21EB7
331
21E8C
  5
21EA0
331
21E7D
  5
21E91
331
21E6E
  5
21E82
331
21E56
  5
21E69
331
21DFE
  5
21DFE
331
21E08
  5
21E0C
331
21F1B
  5
220BE
331
21ED2
  5
21EEE
331
21F0C
  5
220AF
331
21EC3
  5
21EDF
331
21EFD
  5
21F19
331
21EB4
  5
21ED0
331
21EEE
  5
21F0A
331
21EA5
  5
21EC1
331
21EDF
  5
21EFB
331
21E87
  5
21E9B
331
21E78
  5
21E8C
331
21DF9
  5
21DF9
331
21E69
  5
21E7D
331
21E51
  5
21E64
331
21E42
  5
21E55
331
21E33
  5
21E40
331
21E24
  5
21E2D
331
21E15
  5
21E1C
331
21E06
  5
21E07
331
211A0
  5
211A0
331
21EF8
  5
21F14
331
21EE9
  5
21F05
331
21EA0
  5
21EBC
331
21EDA
  5
21EF6
331
21E82
  5
21E96
331
21E73
  5
21E87
331
21E64
  5
21E78
331
21E5B
  5
21E6F
331
21E4C
  5
21E60
331
21E2E
  5
21E37
331
21E3D
  5
21E50
331
21E1F
  5
21E28
331
21F14
  5
220B7
331
21ECB
  5
21EE7
331
21F05
  5
21F21
331
21EBC
  5
21ED8
331
21EF6
  5
21F12
331
21EAD
  5
21EC9
331
21EE7
  5
21F03
331
21E9E
  5
21EBA
331
21E8F
  5
21EAB
331
21E01
  5
21E01
331
21E29
  5
21E32
331
21E1A
  5
21E23
331
21E0B
  5
21E10
331
21F1E
  5
220C1
331
21ED5
  5
21EF1
331
21F0F
  5
220B2
331
21EC6
  5
21EE2
331
21F00
  5
21F1C
331
21EB7
  5
21ED3
331
21EF1
  5
21F0D
331
21EA8
  5
21EC4
331
21EE2
  5
21EFE
331
21E99
  5
21EB5
331
21E8A
  5
21E9E
331
21E7B
  5
21E8F
331
21E54
  5
21E67
331
21E45
  5
21E58
331
21E36
  5
21E46
331
21E27
  5
21E30
331
21DFC
  5
21DFC
331
21F19
  5
220BC
331
21ED0
  5
21EEC
331
21F0A
  5
220AD
331
21EC1
  5
21EDD
331
21EFB
  5
21F17
331
21EB2
  5
21ECE
331
21EEC
  5
21F08
331
21EA3
  5
21EBF
331
21EDD
  5
21EF9
331
21E85
  5
21E99
331
21E76
  5
21E8A
331
21E5E
  5
21E72
331
21E4F
  5
21E62
331
21E67
  5
21E7B
331
21E40
  5
21E53
331
21E31
  5
21E3E
331
21E22
  5
21E2B
331
21E13
  5
21E1A
331
21F17
  5
220BA
331
21ECE
  5
21EEA
331
21EBF
  5
21EDB
331
21E04
  5
21E05
331
21ED8
  5
21EF4
331
21E80
  5
21E94
331
21E71
  5
21E85
331
21E62
  5
21E76
331
21E59
  5
21E6C
331
21E3B
  5
21E4F
331
21E2C
  5
21E35
331
21E0E
  5
21E15
331
21F21
  5
220C4
331
21F12
  5
220B5
331
21EC9
  5
21EE5
331
21F03
  5
21F1F
331
21EBA
  5
21ED6
331
21EF4
  5
21F10
331
21EAB
  5
21EC7
331
21EE5
  5
21F01
331
21E9C
  5
21EB8
331
21E8D
  5
21EA1
331
21E7E
  5
21E92
331
21E6F
  5
21E83
331
21E57
  5
21E6A
331
21DFF
  5
21DFF
331
21E18
  5
21E21
331
21F1C
  5
220BF
331
21ED3
  5
21EEF
331
21F0D
  5
220B0
331
21EC4
  5
21EE0
331
21EFE
  5
21F1A
331
21EB5
  5
21ED1
331
21EEF
  5
21F0B
331
21EA6
  5
21EC2
331
21EE0
  5
21EFC
331
21E88
  5
21E9C
331
21E79
  5
21E8D
331
21E6A
  5
21E7E
331
21E52
  5
21E65
331
21E43
  5
21E56
331
21E25
  5
21E2E
331
21E34
  5
21E41
331
21E16
  5
21E1D
331
21DFA
  5
21DFA
331
21F08
  5
220AB
331
21EF9
  5
21F15
331
21EB0
  5
21ECC
331
21EEA
  5
21F06
331
21EA1
  5
21EBD
331
21EDB
  5
21EF7
331
21E83
  5
21E97
331
21E74
  5
21E88
331
21E65
  5
21E79
331
21E5C
  5
21E70
331
21E2F
  5
21E3B
331
21E3E
  5
21E51
331
21E20
  5
21E29
331
21E11
  5
21E18
331
21F15
  5
220B8
331
21ECC
  5
21EE8
331
21F06
  5
21F22
331
21EBD
  5
21ED9
331
21EF7
  5
21F13
331
21EAE
  5
21ECA
331
21E9F
  5
21EBB
331
21E02
  5
21E03
331
21E60
  5
21E74
331
21E2A
  5
21E33
331
21E1B
  5
21E24
331
21F1F
  5
220C2
331
21ED6
  5
21EF2
331
21F10
  5
220B3
331
21EC7
  5
21EE3
331
21F01
  5
21F1D
331
21EB8
  5
21ED4
331
21EF2
  5
21F0E
331
21EA9
  5
21EC5
331
21EE3
  5
21EFF
331
21E9A
  5
21EB6
331
21E8B
  5
21E9F
331
21E7C
  5
21E90
331
220AB
  5
21E80
331
21E6D
  5
21E81
331
21E55
  5
21E68
331
21E46
  5
21E5E
331
21DFD
  5
21DFD
331
21F1A
  5
220BD
331
21ED1
  5
21EED
331
21F0B
  5
220AE
331
21EC2
  5
21EDE
331
21EFC
  5
21F18
331
21EB3
  5
21ECF
331
21EED
  5
21F09
331
21EA4
  5
21EC0
331
21EDE
  5
21EFA
331
21E86
  5
21E9A
331
21E77
  5
21E8B
331
21E5F
  5
21E73
331
21E50
  5
21E63
331
21E68
  5
21E7C
331
21E41
  5
21E54
331
21E32
  5
21E3F
331
21E23
  5
21E2C
331
21E14
  5
21E1B
331
21ECF
  5
21EEB
331
21E05
  5
21E06
331
21DF8
  5
21DF8
331
21EE8
  5
21F04
331
21ED9
  5
21EF5
331
21E81
  5
21E95
331
21E72
  5
21E86
331
21E63
  5
21E77
331
21E5A
  5
21E6E
331
21E2D
  5
21E36
331
21E0F
  5
21E17
331
21F22
  5
220C5
331
21F13
  5
220B6
331
21ECA
  5
21EE6
331
21F04
  5
21F20
331
21EBB
  5
21ED7
331
21EF5
  5
21F11
331
21EAC
  5
21EC8
331
21EE6
  5
21F02
331
21E9D
  5
21EB9
331
21E8E
  5
21EA2
331
21E7F
  5
21E93
331
21E00
  5
21E00
  0
ACDBDETAILVIEWSTYLE
  5
20CB3
102
{ACAD_XDICTIONARY
360
22131
102
}
102
{ACAD_REACTORS
330
1B2F0
102
}
330
1B2F0
100
AcDbModelDocViewStyle
 70
     0
  3
Imperial24
290
     0
100
AcDbDetailViewStyle
 70
     0
 71
     0
 90
        3
 71
     1
340
11
 62
   256
 40
0.24
340
0
 62
   256
 40
0.24
300

 40
0.36
280
     3
 71
     2
340
16
 90
       25
 62
   256
 71
     3
340
11
 62
   256
 40
0.24
 90
        1
 40
0.75
 90
        1
300
%<\AcVar ViewType \f "%tc1">% %<\AcVar ViewDetailId>%\PVARIA %<\AcVar ViewScale \f "%sn">%
 71
     4
340
16
 90
       25
 62
   256
340
16
 90
       25
 62
   256
280
     0
  0
ACDBDETAILVIEWSTYLE
  5
1B2F1
102
{ACAD_XDICTIONARY
360
2212D
102
}
102
{ACAD_REACTORS
330
1B2F0
102
}
330
1B2F0
100
AcDbModelDocViewStyle
 70
     0
  3
Metric50
290
     0
100
AcDbDetailViewStyle
 70
     0
 71
     0
 90
        3
 71
     1
340
11
 62
   256
 40
5.0
340
0
 62
   256
 40
5.0
300

 40
0.0
280
     1
 71
     2
340
16
 90
       25
 62
   256
 71
     3
340
11
 62
   256
 40
5.0
 90
        0
 40
15.0
 90
        1
300
%<\AcVar ViewDetailId>% (%<\AcVar ViewScale \f "%sn">%)
 71
     4
340
16
 90
       25
 62
   256
340
16
 90
       25
 62
   256
280
     0
  0
LAYOUT
  5
31A7
102
{ACAD_REACTORS
330
31A5
102
}
330
31A5
100
AcDbPlotSettings
  1

  2
\\ingdc01\ITB3
  4
A4
  6

 40
6.805083274841307
 41
5.027085781097412
 42
6.805068969726562
 43
5.027069091796875
 44
209.9733276367186
 45
296.9683227539062
 46
0.0
 47
0.0
 48
0.0
 49
0.0
140
0.0
141
0.0
142
1.0
143
1.0
 70
   688
 72
     1
 73
     1
 74
     5
  7

 75
    16
147
1.0
 76
     0
 77
     2
 78
   300
148
0.0
149
0.0
100
AcDbLayout
  1
Layout1
 70
     1
 71
     1
 10
-5.027069091796875
 20
-6.805083274841307
 11
291.9412536621094
 21
203.1682443618775
 12
0.0
 22
0.0
 32
0.0
 14
28.69141678810127
 24
19.6363175392151
 34
0.0
 15
258.2227510929107
 25
176.7268578529358
 35
0.0
146
0.0
 13
0.0
 23
0.0
 33
0.0
 16
1.0
 26
0.0
 36
0.0
 17
0.0
 27
1.0
 37
0.0
 76
     0
330
1B
331
9C00
1001
ACAD_PSEXT
1000
\\ingdc01\ITB3
1000
HP LaserJet 5000 Series PCL
1000
TB
1000

1070
     0
  0
LAYOUT
  5
31A6
102
{ACAD_REACTORS
330
31A5
102
}
330
31A5
100
AcDbPlotSettings
  1

  2
\\ingdc01\ITB3
  4
A4
  6

 40
6.805083274841307
 41
5.027085781097412
 42
6.805068969726562
 43
5.027069091796875
 44
209.9733276367186
 45
296.9683227539062
 46
0.0
 47
0.0
 48
0.0
 49
0.0
140
0.0
141
0.0
142
1.0
143
1.500313223655698
 70
 11952
 72
     1
 73
     1
 74
     0
  7

 75
     0
147
0.6665274852163048
 76
     0
 77
     2
 78
   300
148
239.0155119930048
149
102.2558208723354
100
AcDbLayout
  1
Model
 70
     1
 71
     0
 10
0.0
 20
0.0
 11
12.0
 21
9.0
 12
0.0
 22
0.0
 32
0.0
 14
0.0
 24
0.0
 34
0.0
 15
0.0
 25
0.0
 35
0.0
146
0.0
 13
0.0
 23
0.0
 33
0.0
 16
1.0
 26
0.0
 36
0.0
 17
0.0
 27
1.0
 37
0.0
 76
     0
330
1F
331
1F4
1001
ACAD_PSEXT
1000
\\ingdc01\ITB3
1000
HP LaserJet 5000 Series PCL
1000
TB
1000

1070
     0
  0
MATERIAL
  5
318D
102
{ACAD_XDICTIONARY
360
1B22B
102
}
102
{ACAD_REACTORS
330
318B
102
}
330
318B
100
AcDbMaterial
  1
ByBlock
  0
MATERIAL
  5
318C
102
{ACAD_XDICTIONARY
360
1B22D
102
}
102
{ACAD_REACTORS
330
318B
102
}
330
318B
100
AcDbMaterial
  1
ByLayer
  0
MATERIAL
  5
318E
102
{ACAD_XDICTIONARY
360
1B22F
102
}
102
{ACAD_REACTORS
330
318B
102
}
330
318B
100
AcDbMaterial
  1
Global
  0
MLEADERSTYLE
  5
1B2ED
102
{ACAD_REACTORS
330
1B221
102
}
330
1B221
100
AcDbMLeaderStyle
179
     2
170
     2
171
     1
172
     0
 90
        2
 40
0.0
 41
0.0
173
     1
 91
-1056964608
340
14
 92
       -2
290
     1
 42
2.0
291
     1
 43
0.36
  3
Standard
 44
4.0
300

342
11
174
     1
178
     6
175
     1
176
     0
 93
-1056964608
 45
4.0
292
     0
297
     0
 46
4.0
 94
-1056964608
 47
1.0
 49
1.0
140
1.0
293
     1
141
0.0
294
     1
177
     0
142
1.0
295
     0
296
     0
143
0.125
271
     0
272
     9
273
     9
1001
ACAD_MLEADERVER
1070
     2
  0
MLINESTYLE
  5
3185
102
{ACAD_REACTORS
330
3184
102
}
330
3184
100
AcDbMlineStyle
  2
STANDARD
 70
     0
  3

 62
   256
 51
90.0
 52
90.0
 71
     2
 49
0.5
 62
   256
  6
BYLAYER
 49
-0.5
 62
   256
  6
BYLAYER
  0
ACDBPLACEHOLDER
  5
318A
102
{ACAD_REACTORS
330
3189
102
}
330
3189
  0
SCALE
  5
1B1FD
102
{ACAD_REACTORS
330
1B1FC
102
}
330
1B1FC
100
AcDbScale
 70
     0
300
1:1
140
1.0
141
1.0
290
     1
1001
ACAD
1000
AcRTDxfName
1000
SCALE
  0
SCALE
  5
1B1FE
102
{ACAD_REACTORS
330
1B1FC
102
}
330
1B1FC
100
AcDbScale
 70
     0
300
1:2
140
1.0
141
2.0
290
     0
1001
ACAD
1000
AcRTDxfName
1000
SCALE
  0
SCALE
  5
1B1FF
102
{ACAD_REACTORS
330
1B1FC
102
}
330
1B1FC
100
AcDbScale
 70
     0
300
1:4
140
1.0
141
4.0
290
     0
1001
ACAD
1000
AcRTDxfName
1000
SCALE
  0
SCALE
  5
1B200
102
{ACAD_REACTORS
330
1B1FC
102
}
330
1B1FC
100
AcDbScale
 70
     0
300
1:5
140
1.0
141
5.0
290
     0
1001
ACAD
1000
AcRTDxfName
1000
SCALE
  0
SCALE
  5
1B201
102
{ACAD_REACTORS
330
1B1FC
102
}
330
1B1FC
100
AcDbScale
 70
     0
300
1:8
140
1.0
141
8.0
290
     0
1001
ACAD
1000
AcRTDxfName
1000
SCALE
  0
SCALE
  5
1B202
102
{ACAD_REACTORS
330
1B1FC
102
}
330
1B1FC
100
AcDbScale
 70
     0
300
1:10
140
1.0
141
10.0
290
     0
1001
ACAD
1000
AcRTDxfName
1000
SCALE
  0
SCALE
  5
1B203
102
{ACAD_REACTORS
330
1B1FC
102
}
330
1B1FC
100
AcDbScale
 70
     0
300
1:16
140
1.0
141
16.0
290
     0
1001
ACAD
1000
AcRTDxfName
1000
SCALE
  0
SCALE
  5
1B204
102
{ACAD_REACTORS
330
1B1FC
102
}
330
1B1FC
100
AcDbScale
 70
     0
300
1:20
140
1.0
141
20.0
290
     0
1001
ACAD
1000
AcRTDxfName
1000
SCALE
  0
SCALE
  5
1B205
102
{ACAD_REACTORS
330
1B1FC
102
}
330
1B1FC
100
AcDbScale
 70
     0
300
1:30
140
1.0
141
30.0
290
     0
1001
ACAD
1000
AcRTDxfName
1000
SCALE
  0
SCALE
  5
1B206
102
{ACAD_REACTORS
330
1B1FC
102
}
330
1B1FC
100
AcDbScale
 70
     0
300
1:40
140
1.0
141
40.0
290
     0
1001
ACAD
1000
AcRTDxfName
1000
SCALE
  0
SCALE
  5
1B207
102
{ACAD_REACTORS
330
1B1FC
102
}
330
1B1FC
100
AcDbScale
 70
     0
300
1:50
140
1.0
141
50.0
290
     0
1001
ACAD
1000
AcRTDxfName
1000
SCALE
  0
SCALE
  5
1B208
102
{ACAD_REACTORS
330
1B1FC
102
}
330
1B1FC
100
AcDbScale
 70
     0
300
1:100
140
1.0
141
100.0
290
     0
1001
ACAD
1000
AcRTDxfName
1000
SCALE
  0
SCALE
  5
1B209
102
{ACAD_REACTORS
330
1B1FC
102
}
330
1B1FC
100
AcDbScale
 70
     0
300
2:1
140
2.0
141
1.0
290
     0
1001
ACAD
1000
AcRTDxfName
1000
SCALE
  0
SCALE
  5
1B20A
102
{ACAD_REACTORS
330
1B1FC
102
}
330
1B1FC
100
AcDbScale
 70
     0
300
4:1
140
4.0
141
1.0
290
     0
1001
ACAD
1000
AcRTDxfName
1000
SCALE
  0
SCALE
  5
1B20B
102
{ACAD_REACTORS
330
1B1FC
102
}
330
1B1FC
100
AcDbScale
 70
     0
300
8:1
140
8.0
141
1.0
290
     0
1001
ACAD
1000
AcRTDxfName
1000
SCALE
  0
SCALE
  5
1B20C
102
{ACAD_REACTORS
330
1B1FC
102
}
330
1B1FC
100
AcDbScale
 70
     0
300
10:1
140
10.0
141
1.0
290
     0
1001
ACAD
1000
AcRTDxfName
1000
SCALE
  0
SCALE
  5
1B20D
102
{ACAD_REACTORS
330
1B1FC
102
}
330
1B1FC
100
AcDbScale
 70
     0
300
100:1
140
100.0
141
1.0
290
     0
1001
ACAD
1000
AcRTDxfName
1000
SCALE
  0
SCALE
  5
1B20E
102
{ACAD_REACTORS
330
1B1FC
102
}
330
1B1FC
100
AcDbScale
 70
     0
300
1/128" = 1'-0"
140
0.0078125
141
12.0
290
     0
1001
ACAD
1000
AcRTDxfName
1000
SCALE
  0
SCALE
  5
1B20F
102
{ACAD_REACTORS
330
1B1FC
102
}
330
1B1FC
100
AcDbScale
 70
     0
300
1/64" = 1'-0"
140
0.015625
141
12.0
290
     0
1001
ACAD
1000
AcRTDxfName
1000
SCALE
  0
SCALE
  5
1B210
102
{ACAD_REACTORS
330
1B1FC
102
}
330
1B1FC
100
AcDbScale
 70
     0
300
1/32" = 1'-0"
140
0.03125
141
12.0
290
     0
1001
ACAD
1000
AcRTDxfName
1000
SCALE
  0
SCALE
  5
1B211
102
{ACAD_REACTORS
330
1B1FC
102
}
330
1B1FC
100
AcDbScale
 70
     0
300
1/16" = 1'-0"
140
0.0625
141
12.0
290
     0
1001
ACAD
1000
AcRTDxfName
1000
SCALE
  0
SCALE
  5
1B212
102
{ACAD_REACTORS
330
1B1FC
102
}
330
1B1FC
100
AcDbScale
 70
     0
300
3/32" = 1'-0"
140
0.09375
141
12.0
290
     0
1001
ACAD
1000
AcRTDxfName
1000
SCALE
  0
SCALE
  5
1B213
102
{ACAD_REACTORS
330
1B1FC
102
}
330
1B1FC
100
AcDbScale
 70
     0
300
1/8" = 1'-0"
140
0.125
141
12.0
290
     0
1001
ACAD
1000
AcRTDxfName
1000
SCALE
  0
SCALE
  5
1B214
102
{ACAD_REACTORS
330
1B1FC
102
}
330
1B1FC
100
AcDbScale
 70
     0
300
3/16" = 1'-0"
140
0.1875
141
12.0
290
     0
1001
ACAD
1000
AcRTDxfName
1000
SCALE
  0
SCALE
  5
1B215
102
{ACAD_REACTORS
330
1B1FC
102
}
330
1B1FC
100
AcDbScale
 70
     0
300
1/4" = 1'-0"
140
0.25
141
12.0
290
     0
1001
ACAD
1000
AcRTDxfName
1000
SCALE
  0
SCALE
  5
1B216
102
{ACAD_REACTORS
330
1B1FC
102
}
330
1B1FC
100
AcDbScale
 70
     0
300
3/8" = 1'-0"
140
0.375
141
12.0
290
     0
1001
ACAD
1000
AcRTDxfName
1000
SCALE
  0
SCALE
  5
1B217
102
{ACAD_REACTORS
330
1B1FC
102
}
330
1B1FC
100
AcDbScale
 70
     0
300
1/2" = 1'-0"
140
0.5
141
12.0
290
     0
1001
ACAD
1000
AcRTDxfName
1000
SCALE
  0
SCALE
  5
1B218
102
{ACAD_REACTORS
330
1B1FC
102
}
330
1B1FC
100
AcDbScale
 70
     0
300
3/4" = 1'-0"
140
0.75
141
12.0
290
     0
1001
ACAD
1000
AcRTDxfName
1000
SCALE
  0
SCALE
  5
1B219
102
{ACAD_REACTORS
330
1B1FC
102
}
330
1B1FC
100
AcDbScale
 70
     0
300
1" = 1'-0"
140
1.0
141
12.0
290
     0
1001
ACAD
1000
AcRTDxfName
1000
SCALE
  0
SCALE
  5
1B21A
102
{ACAD_REACTORS
330
1B1FC
102
}
330
1B1FC
100
AcDbScale
 70
     0
300
1-1/2" = 1'-0"
140
1.5
141
12.0
290
     0
1001
ACAD
1000
AcRTDxfName
1000
SCALE
  0
SCALE
  5
1B21B
102
{ACAD_REACTORS
330
1B1FC
102
}
330
1B1FC
100
AcDbScale
 70
     0
300
3" = 1'-0"
140
3.0
141
12.0
290
     0
1001
ACAD
1000
AcRTDxfName
1000
SCALE
  0
SCALE
  5
1B21C
102
{ACAD_REACTORS
330
1B1FC
102
}
330
1B1FC
100
AcDbScale
 70
     0
300
6" = 1'-0"
140
6.0
141
12.0
290
     0
1001
ACAD
1000
AcRTDxfName
1000
SCALE
  0
SCALE
  5
1B21D
102
{ACAD_REACTORS
330
1B1FC
102
}
330
1B1FC
100
AcDbScale
 70
     0
300
1'-0" = 1'-0"
140
12.0
141
12.0
290
     0
1001
ACAD
1000
AcRTDxfName
1000
SCALE
  0
ACDBSECTIONVIEWSTYLE
  5
20CB1
102
{ACAD_XDICTIONARY
360
2212F
102
}
102
{ACAD_REACTORS
330
1B2EE
102
}
330
1B2EE
100
AcDbModelDocViewStyle
 70
     0
  3
Imperial24
290
     0
100
AcDbSectionViewStyle
 70
     0
 71
     0
 90
       78
 71
     1
340
11
 62
   256
 40
0.24
340
0
340
0
 62
   256
 40
0.24
300
I, O, Q, S, X, Z
 40
0.48
 90
        3
 40
0.18
 90
        1
 71
     2
340
16
 90
       25
 62
   256
340
16
 90
       50
 62
   256
 40
0.24
 40
0.0
 40
0.24
 71
     3
340
11
 62
   256
 40
0.24
 90
        1
 40
0.75
 90
        1
300
%<\AcVar ViewType \f "%tc1">% %<\AcVar ViewSectionStartId>%-%<\AcVar ViewSectionEndId>%\PVARIA %<\AcVar ViewScale \f "%sn">%
 71
     4
 62
   256
 62
   257
300
ANSI31
 40
1.0
 90
        0
290
     0
290
     0
 90
        6
 40
0.0
 40
1.570796326794896
 40
0.2617993877991494
 40
1.308996938995747
 40
-0.2617993877991494
 40
1.832595714594044
  0
ACDBSECTIONVIEWSTYLE
  5
1B2EF
102
{ACAD_XDICTIONARY
360
2212B
102
}
102
{ACAD_REACTORS
330
1B2EE
102
}
330
1B2EE
100
AcDbModelDocViewStyle
 70
     0
  3
Metric50
290
     0
100
AcDbSectionViewStyle
 70
     0
 71
     0
 90
      102
 71
     1
340
11
 62
   256
 40
5.0
340
0
340
0
 62
   256
 40
5.0
300
I, O, Q, S, X, Z
 40
10.0
 90
        0
 40
2.5
 90
        0
 71
     2
340
16
 90
       25
 62
   256
340
16
 90
       50
 62
   256
 40
5.0
 40
2.5
 40
5.0
 71
     3
340
11
 62
   256
 40
5.0
 90
        0
 40
15.0
 90
        1
300
%<\AcVar ViewSectionStartId>%-%<\AcVar ViewSectionEndId>% (%<\AcVar ViewScale \f "%sn">%)
 71
     4
 62
   256
 62
   257
300
ANSI31
 40
1.0
 90
        0
290
     0
290
     0
 90
        6
 40
0.0
 40
1.570796326794896
 40
0.2617993877991494
 40
1.308996938995747
 40
-0.2617993877991494
 40
1.832595714594044
  0
TABLESTYLE
  5
31A2
102
{ACAD_XDICTIONARY
360
1B314
102
}
102
{ACAD_REACTORS
330
31A1
102
}
330
31A1
100
AcDbTableStyle
280
     0
  3
Standard
 70
     0
 71
     0
 40
1.5
 41
1.5
280
     0
281
     0
  7
STANDARD
140
4.5
170
     2
 62
     0
 63
     7
283
     0
 90
        4
 91
        0
  1

274
    -2
284
     1
 64
     0
275
    -2
285
     1
 65
     0
276
    -2
286
     1
 66
     0
277
    -2
287
     1
 67
     0
278
    -2
288
     1
 68
     0
279
    -2
289
     1
 69
     0
  7
STANDARD
140
6.0
170
     5
 62
     0
 63
     7
283
     0
 90
        4
 91
        0
  1

274
    -2
284
     1
 64
     0
275
    -2
285
     1
 65
     0
276
    -2
286
     1
 66
     0
277
    -2
287
     1
 67
     0
278
    -2
288
     1
 68
     0
279
    -2
289
     1
 69
     0
  7
STANDARD
140
4.5
170
     5
 62
     0
 63
     7
283
     0
 90
        4
 91
        0
  1

274
    -2
284
     1
 64
     0
275
    -2
285
     1
 65
     0
276
    -2
286
     1
 66
     0
277
    -2
287
     1
 67
     0
278
    -2
288
     1
 68
     0
279
    -2
289
     1
 69
     0
  0
VISUALSTYLE
  5
3195
102
{ACAD_XDICTIONARY
360
22101
102
}
102
{ACAD_REACTORS
330
318F
102
}
330
318F
100
AcDbVisualStyle
  2

 70
     4
177
     2
291
     0
 71
     0
176
     1
 72
     2
176
     1
 73
     0
176
     1
 90
        0
176
     1
 40
0.6
176
     1
 41
30.0
176
     1
 63
     7
176
     1
 74
     1
176
     1
 91
        4
176
     1
 64
     7
176
     1
 65
   257
176
     1
 75
     1
176
     1
175
     1
176
     1
 42
1.0
176
     1
 92
        0
176
     1
 66
   257
176
     1
 43
1.0
176
     1
 76
     1
176
     1
 77
     6
176
     1
 78
     2
176
     1
 67
     7
176
     1
 79
     5
176
     1
170
     0
176
     1
171
     0
176
     1
290
     0
176
     1
 93
        1
176
     1
 44
0.0
176
     1
173
     0
176
     1
1001
ACAD
1000
AcDbSavedByObjectVersion
1070
     0
  0
VISUALSTYLE
  5
3197
102
{ACAD_XDICTIONARY
360
22105
102
}
102
{ACAD_REACTORS
330
318F
102
}
330
318F
100
AcDbVisualStyle
  2

 70
     6
177
     2
291
     0
 71
     1
176
     1
 72
     2
176
     1
 73
     2
176
     1
 90
        0
176
     1
 40
0.6
176
     1
 41
30.0
176
     1
 63
     7
176
     1
 74
     2
176
     1
 91
        2
176
     1
 64
     7
176
     1
 65
   257
176
     1
 75
     2
176
     1
175
     1
176
     1
 42
40.0
176
     1
 92
        0
176
     1
 66
   257
176
     1
 43
1.0
176
     1
 76
     1
176
     1
 77
     6
176
     1
 78
     2
176
     1
 67
     7
176
     1
 79
     3
176
     1
170
     0
176
     1
171
     0
176
     1
290
     0
176
     1
 93
        1
176
     1
 44
0.0
176
     1
173
     0
176
     1
1001
ACAD
1000
AcDbSavedByObjectVersion
1070
     0
  0
VISUALSTYLE
  5
3196
102
{ACAD_XDICTIONARY
360
22103
102
}
102
{ACAD_REACTORS
330
318F
102
}
330
318F
100
AcDbVisualStyle
  2

 70
     5
177
     2
291
     0
 71
     0
176
     1
 72
     2
176
     1
 73
     0
176
     1
 90
        0
176
     1
 40
0.6
176
     1
 41
30.0
176
     1
 63
     7
176
     1
 74
     1
176
     1
 91
        4
176
     1
 64
     7
176
     1
 65
   257
176
     1
 75
     1
176
     1
175
     1
176
     1
 42
1.0
176
     1
 92
        0
176
     1
 66
   257
176
     1
 43
1.0
176
     1
 76
     1
176
     1
 77
     6
176
     1
 78
     2
176
     1
 67
     7
176
     1
 79
     5
176
     1
170
     0
176
     1
171
     0
176
     1
290
     0
176
     1
 93
        1
176
     1
 44
0.0
176
     1
173
     0
176
     1
1001
ACAD
1000
AcDbSavedByObjectVersion
1070
     0
  0
VISUALSTYLE
  5
3194
102
{ACAD_XDICTIONARY
360
220FF
102
}
102
{ACAD_REACTORS
330
318F
102
}
330
318F
100
AcDbVisualStyle
  2

 70
     7
177
     2
291
     1
 71
     1
176
     1
 72
     0
176
     1
 73
     1
176
     1
 90
        0
176
     1
 40
0.6
176
     1
 41
30.0
176
     1
 63
     7
176
     1
 74
     0
176
     1
 91
        4
176
     1
 64
     7
176
     1
 65
   257
176
     1
 75
     1
176
     1
175
     1
176
     1
 42
1.0
176
     1
 92
        8
176
     1
 66
     7
176
     1
 43
1.0
176
     1
 76
     1
176
     1
 77
     6
176
     1
 78
     2
176
     1
 67
     7
176
     1
 79
     5
176
     1
170
     0
176
     1
171
     0
176
     1
290
     0
176
     1
 93
        1
176
     1
 44
0.0
176
     1
173
     0
176
     1
1001
ACAD
1000
AcDbSavedByObjectVersion
1070
     0
  0
VISUALSTYLE
  5
319B
102
{ACAD_XDICTIONARY
360
2210D
102
}
102
{ACAD_REACTORS
330
318F
102
}
330
318F
100
AcDbVisualStyle
  2

 70
    12
177
     2
291
     1
 71
     2
176
     1
 72
     2
176
     1
 73
     0
176
     1
 90
        0
176
     1
 40
0.6
176
     1
 41
30.0
176
     1
 63
     7
176
     1
 74
     1
176
     1
 91
        4
176
     1
 64
     7
176
     1
 65
   257
176
     1
 75
     1
176
     1
175
     1
176
     1
 42
1.0
176
     1
 92
        8
176
     1
 66
     7
176
     1
 43
1.0
176
     1
 76
     1
176
     1
 77
     6
176
     1
 78
     2
176
     1
 67
     7
176
     1
 79
     5
176
     1
170
     0
176
     1
171
     0
176
     1
290
     0
176
     1
 93
        1
176
     1
 44
50.0
176
     1
173
     0
176
     1
1001
ACAD
1000
AcDbSavedByObjectVersion
1070
     0
  0
VISUALSTYLE
  5
319F
102
{ACAD_XDICTIONARY
360
22115
102
}
102
{ACAD_REACTORS
330
318F
102
}
330
318F
100
AcDbVisualStyle
  2

 70
    16
177
     2
291
     1
 71
     2
176
     1
 72
     2
176
     1
 73
     3
176
     1
 90
        0
176
     1
 40
0.6
176
     1
 41
30.0
176
     1
 63
     8
176
     1
 74
     1
176
     1
 91
        4
176
     1
 64
     7
176
     1
 65
   257
176
     1
 75
     1
176
     1
175
     1
176
     1
 42
1.0
176
     1
 92
        8
176
     1
 66
     8
176
     1
 43
1.0
176
     1
 76
     1
176
     1
 77
     6
176
     1
 78
     2
176
     1
 67
     7
176
     1
 79
     5
176
     1
170
     0
176
     1
171
     0
176
     1
290
     0
176
     1
 93
        1
176
     1
 44
0.0
176
     1
173
     0
176
     1
1001
ACAD
1000
AcDbSavedByObjectVersion
1070
     0
  0
VISUALSTYLE
  5
3198
102
{ACAD_XDICTIONARY
360
22107
102
}
102
{ACAD_REACTORS
330
318F
102
}
330
318F
100
AcDbVisualStyle
  2

 70
     9
177
     2
291
     0
 71
     3
176
     1
 72
     2
176
     1
 73
     0
176
     1
 90
        0
176
     1
 40
0.6
176
     1
 41
30.0
176
     1
 63
     7
176
     1
 74
     2
176
     1
 91
        2
176
     1
 64
     7
176
     1
 65
   257
176
     1
 75
     1
176
     1
175
     1
176
     1
 42
40.0
176
     1
 92
        8
176
     1
 66
     7
176
     1
 43
1.0
176
     1
 76
     1
176
     1
 77
     6
176
     1
 78
     2
176
     1
 67
     7
176
     1
 79
     3
176
     1
170
     0
176
     1
171
     0
176
     1
290
     0
176
     1
 93
        1
176
     1
 44
0.0
176
     1
173
     0
176
     1
1001
ACAD
1000
AcDbSavedByObjectVersion
1070
     0
  0
VISUALSTYLE
  5
319A
102
{ACAD_XDICTIONARY
360
2210B
102
}
102
{ACAD_REACTORS
330
318F
102
}
330
318F
100
AcDbVisualStyle
  2

 70
    11
177
     2
291
     1
 71
     2
176
     1
 72
     2
176
     1
 73
     0
176
     1
 90
        0
176
     1
 40
0.6
176
     1
 41
30.0
176
     1
 63
     7
176
     1
 74
     1
176
     1
 91
        4
176
     1
 64
     7
176
     1
 65
   257
176
     1
 75
     1
176
     1
175
     1
176
     1
 42
1.0
176
     1
 92
        8
176
     1
 66
     7
176
     1
 43
1.0
176
     1
 76
     1
176
     1
 77
     6
176
     1
 78
     2
176
     1
 67
     7
176
     1
 79
     5
176
     1
170
     0
176
     1
171
     0
176
     1
290
     0
176
     1
 93
        1
176
     1
 44
-50.0
176
     1
173
     0
176
     1
1001
ACAD
1000
AcDbSavedByObjectVersion
1070
     0
  0
VISUALSTYLE
  5
1B2EC
102
{ACAD_XDICTIONARY
360
22129
102
}
102
{ACAD_REACTORS
330
318F
102
}
330
318F
100
AcDbVisualStyle
  2

 70
    22
177
     2
291
     1
 71
     2
176
     0
 72
     2
176
     0
 73
     0
176
     0
 90
        0
176
     0
 40
0.6
176
     0
 41
30.0
176
     0
 63
     7
176
     0
 74
     1
176
     0
 91
        4
176
     0
 64
     7
176
     0
 65
   257
176
     0
 75
     1
176
     0
175
     1
176
     0
 42
1.0
176
     0
 92
        8
176
     2
 66
     7
176
     0
 43
1.0
176
     0
 76
     1
176
     0
 77
     6
176
     0
 78
     2
176
     0
 67
     7
176
     0
 79
     5
176
     0
170
     0
176
     0
171
     0
176
     0
290
     0
176
     0
 93
        1
176
     0
 44
0.0
176
     0
173
     0
176
     0
1001
ACAD
1000
AcDbSavedByObjectVersion
1070
     0
  0
VISUALSTYLE
  5
319E
102
{ACAD_XDICTIONARY
360
22113
102
}
102
{ACAD_REACTORS
330
318F
102
}
330
318F
100
AcDbVisualStyle
  2

 70
    15
177
     2
291
     1
 71
     2
176
     1
 72
     2
176
     1
 73
     0
176
     1
 90
        0
176
     1
 40
0.6
176
     1
 41
30.0
176
     1
 63
     7
176
     1
 74
     1
176
     1
 91
        4
176
     1
 64
     7
176
     1
 65
   257
176
     1
 75
     1
176
     1
175
     1
176
     1
 42
1.0
176
     1
 92
        8
176
     1
 66
     7
176
     1
 43
1.0
176
     1
 76
     1
176
     1
 77
     6
176
     1
 78
     2
176
     1
 67
     7
176
     1
 79
     5
176
     1
170
     0
176
     1
171
     0
176
     1
290
     0
176
     1
 93
        1
176
     1
 44
0.0
176
     1
173
     0
176
     1
1001
ACAD
1000
AcDbSavedByObjectVersion
1070
     0
  0
VISUALSTYLE
  5
3190
102
{ACAD_XDICTIONARY
360
220F7
102
}
102
{ACAD_REACTORS
330
318F
102
}
330
318F
100
AcDbVisualStyle
  2

 70
     0
177
     2
291
     1
 71
     2
176
     1
 72
     1
176
     1
 73
     1
176
     1
 90
        2
176
     1
 40
0.6
176
     1
 41
30.0
176
     1
 63
     7
176
     1
 74
     0
176
     1
 91
        4
176
     1
 64
     7
176
     1
 65
   257
176
     1
 75
     1
176
     1
175
     1
176
     1
 42
1.0
176
     1
 92
        8
176
     1
 66
     7
176
     1
 43
1.0
176
     1
 76
     1
176
     1
 77
     6
176
     1
 78
     2
176
     1
 67
     7
176
     1
 79
     5
176
     1
170
     0
176
     1
171
     0
176
     1
290
     0
176
     1
 93
       13
176
     1
 44
0.0
176
     1
173
     0
176
     1
1001
ACAD
1000
AcDbSavedByObjectVersion
1070
     0
  0
VISUALSTYLE
  5
3191
102
{ACAD_XDICTIONARY
360
220F9
102
}
102
{ACAD_REACTORS
330
318F
102
}
330
318F
100
AcDbVisualStyle
  2

 70
     1
177
     2
291
     1
 71
     2
176
     1
 72
     1
176
     1
 73
     1
176
     1
 90
        2
176
     1
 40
0.6
176
     1
 41
30.0
176
     1
 63
     7
176
     1
 74
     1
176
     1
 91
        4
176
     1
 64
     7
176
     1
 65
   257
176
     1
 75
     1
176
     1
175
     1
176
     1
 42
1.0
176
     1
 92
        0
176
     1
 66
   257
176
     1
 43
1.0
176
     1
 76
     1
176
     1
 77
     6
176
     1
 78
     2
176
     1
 67
     7
176
     1
 79
     5
176
     1
170
     0
176
     1
171
     0
176
     1
290
     0
176
     1
 93
       13
176
     1
 44
0.0
176
     1
173
     0
176
     1
1001
ACAD
1000
AcDbSavedByObjectVersion
1070
     0
  0
VISUALSTYLE
  5
3192
102
{ACAD_XDICTIONARY
360
220FB
102
}
102
{ACAD_REACTORS
330
318F
102
}
330
318F
100
AcDbVisualStyle
  2

 70
     2
177
     2
291
     1
 71
     2
176
     1
 72
     2
176
     1
 73
     1
176
     1
 90
        2
176
     1
 40
0.6
176
     1
 41
30.0
176
     1
 63
     7
176
     1
 74
     0
176
     1
 91
        4
176
     1
 64
     7
176
     1
 65
   257
176
     1
 75
     1
176
     1
175
     1
176
     1
 42
1.0
176
     1
 92
        0
176
     1
 66
     7
176
     1
 43
1.0
176
     1
 76
     1
176
     1
 77
     6
176
     1
 78
     2
176
     1
 67
     7
176
     1
 79
     5
176
     1
170
     0
176
     1
171
     0
176
     1
290
     0
176
     1
 93
       13
176
     1
 44
0.0
176
     1
173
     0
176
     1
1001
ACAD
1000
AcDbSavedByObjectVersion
1070
     0
  0
VISUALSTYLE
  5
3193
102
{ACAD_XDICTIONARY
360
220FD
102
}
102
{ACAD_REACTORS
330
318F
102
}
330
318F
100
AcDbVisualStyle
  2

 70
     3
177
     2
291
     1
 71
     2
176
     1
 72
     2
176
     1
 73
     1
176
     1
 90
        2
176
     1
 40
0.6
176
     1
 41
30.0
176
     1
 63
     7
176
     1
 74
     1
176
     1
 91
        4
176
     1
 64
     7
176
     1
 65
   257
176
     1
 75
     1
176
     1
175
     1
176
     1
 42
1.0
176
     1
 92
        0
176
     1
 66
   257
176
     1
 43
1.0
176
     1
 76
     1
176
     1
 77
     6
176
     1
 78
     2
176
     1
 67
     7
176
     1
 79
     5
176
     1
170
     0
176
     1
171
     0
176
     1
290
     0
176
     1
 93
       13
176
     1
 44
0.0
176
     1
173
     0
176
     1
1001
ACAD
1000
AcDbSavedByObjectVersion
1070
     0
  0
VISUALSTYLE
  5
1B2E4
102
{ACAD_XDICTIONARY
360
22119
102
}
102
{ACAD_REACTORS
330
318F
102
}
330
318F
100
AcDbVisualStyle
  2

 70
     6
177
     2
291
     0
 71
     1
176
     1
 72
     2
176
     1
 73
     2
176
     1
 90
        0
176
     1
 40
0.6
176
     1
 41
30.0
176
     1
 63
     7
176
     1
 74
     2
176
     1
 91
        2
176
     1
 64
     7
176
     1
 65
   257
176
     1
 75
     2
176
     1
175
     1
176
     1
 42
40.0
176
     1
 92
        0
176
     1
 66
   257
176
     1
 43
1.0
176
     1
 76
     1
176
     1
 77
     6
176
     1
 78
     2
176
     1
 67
     7
176
     1
 79
     3
176
     1
170
     0
176
     1
171
     0
176
     1
290
     0
176
     1
 93
        1
176
     1
 44
0.0
176
     1
173
     0
176
     1
1001
ACAD
1000
AcDbSavedByObjectVersion
1070
     0
  0
VISUALSTYLE
  5
1B2EA
102
{ACAD_XDICTIONARY
360
22125
102
}
102
{ACAD_REACTORS
330
318F
102
}
330
318F
100
AcDbVisualStyle
  2

 70
    20
177
     2
291
     1
 71
     2
176
     0
 72
     2
176
     0
 73
     0
176
     0
 90
        0
176
     0
 40
0.6
176
     0
 41
30.0
176
     0
 63
     7
176
     0
 74
     1
176
     0
 91
        4
176
     0
 64
     7
176
     0
 65
   257
176
     0
 75
     1
176
     0
175
     1
176
     0
 42
1.0
176
     0
 92
       10
176
     2
 66
     7
176
     0
 43
1.0
176
     0
 76
     1
176
     0
 77
     6
176
     0
 78
     2
176
     0
 67
     7
176
     0
 79
     5
176
     0
170
     0
176
     0
171
     0
176
     0
290
     0
176
     0
 93
        1
176
     0
 44
0.0
176
     0
173
     0
176
     0
1001
ACAD
1000
AcDbSavedByObjectVersion
1070
     0
  0
VISUALSTYLE
  5
319D
102
{ACAD_XDICTIONARY
360
22111
102
}
102
{ACAD_REACTORS
330
318F
102
}
330
318F
100
AcDbVisualStyle
  2

 70
    14
177
     2
291
     1
 71
     2
176
     1
 72
     2
176
     1
 73
     0
176
     1
 90
        0
176
     1
 40
0.6
176
     1
 41
30.0
176
     1
 63
     7
176
     1
 74
     1
176
     1
 91
        4
176
     1
 64
     7
176
     1
 65
   257
176
     1
 75
     7
176
     1
175
     7
176
     1
 42
1.0
176
     1
 92
        8
176
     1
 66
     7
176
     1
 43
1.0
176
     1
 76
     1
176
     1
 77
     6
176
     1
 78
     2
176
     1
 67
     7
176
     1
 79
     5
176
     1
170
     0
176
     1
171
     0
176
     1
290
     0
176
     1
 93
        1
176
     1
 44
0.0
176
     1
173
     0
176
     1
1001
ACAD
1000
AcDbSavedByObjectVersion
1070
     0
  0
VISUALSTYLE
  5
1B2EB
102
{ACAD_XDICTIONARY
360
22127
102
}
102
{ACAD_REACTORS
330
318F
102
}
330
318F
100
AcDbVisualStyle
  2

 70
    21
177
     2
291
     1
 71
     2
176
     0
 72
     2
176
     0
 73
     0
176
     0
 90
        0
176
     0
 40
0.6
176
     0
 41
30.0
176
     0
 63
     7
176
     0
 74
     1
176
     0
 91
        4
176
     0
 64
     7
176
     0
 65
   257
176
     0
 75
     1
176
     0
175
     1
176
     0
 42
1.0
176
     0
 92
        9
176
     2
 66
     7
176
     0
 43
1.0
176
     0
 76
     1
176
     0
 77
     6
176
     0
 78
     2
176
     0
 67
     7
176
     0
 79
     5
176
     0
170
     0
176
     0
171
     0
176
     0
290
     0
176
     0
 93
        1
176
     0
 44
0.0
176
     0
173
     0
176
     0
1001
ACAD
1000
AcDbSavedByObjectVersion
1070
     0
  0
VISUALSTYLE
  5
3199
102
{ACAD_XDICTIONARY
360
22109
102
}
102
{ACAD_REACTORS
330
318F
102
}
330
318F
100
AcDbVisualStyle
  2

 70
     8
177
     2
291
     0
 71
     2
176
     1
 72
     2
176
     1
 73
     0
176
     1
 90
        0
176
     1
 40
0.6
176
     1
 41
30.0
176
     1
 63
     7
176
     1
 74
     1
176
     1
 91
        0
176
     1
 64
     7
176
     1
 65
   257
176
     1
 75
     1
176
     1
175
     1
176
     1
 42
1.0
176
     1
 92
        8
176
     1
 66
     8
176
     1
 43
1.0
176
     1
 76
     1
176
     1
 77
     6
176
     1
 78
     2
176
     1
 67
     7
176
     1
 79
     5
176
     1
170
     0
176
     1
171
     0
176
     1
290
     0
176
     1
 93
       13
176
     1
 44
0.0
176
     1
173
     0
176
     1
1001
ACAD
1000
AcDbSavedByObjectVersion
1070
     0
  0
VISUALSTYLE
  5
1B2E9
102
{ACAD_XDICTIONARY
360
22123
102
}
102
{ACAD_REACTORS
330
318F
102
}
330
318F
100
AcDbVisualStyle
  2

 70
    27
177
     2
291
     0
 71
     2
176
     1
 72
     2
176
     1
 73
     1
176
     1
 90
        2
176
     1
 40
0.6
176
     1
 41
30.0
176
     1
 63
     7
176
     1
 74
     0
176
     1
 91
        4
176
     1
 64
     7
176
     1
 65
   257
176
     1
 75
     1
176
     1
175
     1
176
     1
 42
1.0
176
     1
 92
        8
176
     1
 66
   257
176
     1
 43
1.0
176
     1
 76
     1
176
     1
 77
     6
176
     1
 78
     2
176
     1
 67
     8
176
     1
 79
     3
176
     1
170
     0
176
     1
171
     0
176
     1
290
     0
176
     1
 93
        5
176
     1
 44
0.0
176
     1
173
     0
176
     1
1001
ACAD
1000
AcDbSavedByObjectVersion
1070
     0
  0
VISUALSTYLE
  5
1B2E8
102
{ACAD_XDICTIONARY
360
22121
102
}
102
{ACAD_REACTORS
330
318F
102
}
330
318F
100
AcDbVisualStyle
  2

 70
    26
177
     2
291
     0
 71
     2
176
     1
 72
     2
176
     1
 73
     1
176
     1
 90
        2
176
     1
 40
0.6
176
     1
 41
30.0
176
     1
 63
     7
176
     1
 74
     1
176
     1
 91
       10
176
     1
 64
     7
176
     1
 65
   257
176
     1
 75
     2
176
     1
175
     1
176
     1
 42
1.0
176
     1
 92
        8
176
     1
 66
   257
176
     1
 43
1.0
176
     1
 76
     1
176
     1
 77
     6
176
     1
 78
     2
176
     1
 67
     7
176
     1
 79
     3
176
     1
170
     0
176
     1
171
     0
176
     1
290
     0
176
     1
 93
        5
176
     1
 44
0.0
176
     1
173
     0
176
     1
1001
ACAD
1000
AcDbSavedByObjectVersion
1070
     0
  0
VISUALSTYLE
  5
1B2E5
102
{ACAD_XDICTIONARY
360
2211B
102
}
102
{ACAD_REACTORS
330
318F
102
}
330
318F
100
AcDbVisualStyle
  2

 70
    23
177
     2
291
     0
 71
     2
176
     1
 72
     2
176
     1
 73
     3
176
     1
 90
        0
176
     1
 40
0.6
176
     1
 41
30.0
176
     1
 63
     7
176
     1
 74
     2
176
     1
 91
        2
176
     1
 64
     7
176
     1
 65
     7
176
     1
 75
     1
176
     1
175
     1
176
     1
 42
40.0
176
     1
 92
        8
176
     1
 66
     7
176
     1
 43
1.0
176
     1
 76
     1
176
     1
 77
     6
176
     1
 78
     2
176
     1
 67
     7
176
     1
 79
     3
176
     1
170
     0
176
     1
171
     0
176
     1
290
     0
176
     1
 93
        1
176
     1
 44
0.0
176
     1
173
     0
176
     1
1001
ACAD
1000
AcDbSavedByObjectVersion
1070
     0
  0
VISUALSTYLE
  5
1B2E6
102
{ACAD_XDICTIONARY
360
2211D
102
}
102
{ACAD_REACTORS
330
318F
102
}
330
318F
100
AcDbVisualStyle
  2

 70
    24
177
     2
291
     0
 71
     1
176
     1
 72
     2
176
     1
 73
     2
176
     1
 90
        0
176
     1
 40
0.6
176
     1
 41
30.0
176
     1
 63
     7
176
     1
 74
     2
176
     1
 91
        2
176
     1
 64
     7
176
     1
 65
     7
176
     1
 75
     1
176
     1
175
     1
176
     1
 42
40.0
176
     1
 92
       11
176
     1
 66
     7
176
     1
 43
1.0
176
     1
 76
     1
176
     1
 77
     6
176
     1
 78
     2
176
     1
 67
     7
176
     1
 79
     6
176
     1
170
     0
176
     1
171
     0
176
     1
290
     0
176
     1
 93
        1
176
     1
 44
0.0
176
     1
173
     0
176
     1
1001
ACAD
1000
AcDbSavedByObjectVersion
1070
     0
  0
VISUALSTYLE
  5
319C
102
{ACAD_XDICTIONARY
360
2210F
102
}
102
{ACAD_REACTORS
330
318F
102
}
330
318F
100
AcDbVisualStyle
  2

 70
    13
177
     2
291
     1
 71
     2
176
     1
 72
     2
176
     1
 73
     0
176
     1
 90
        0
176
     1
 40
0.6
176
     1
 41
30.0
176
     1
 63
     7
176
     1
 74
     1
176
     1
 91
        4
176
     1
 64
     7
176
     1
 65
   257
176
     1
 75
     1
176
     1
175
     1
176
     1
 42
1.0
176
     1
 92
       12
176
     1
 66
     7
176
     1
 43
1.0
176
     1
 76
     1
176
     1
 77
     6
176
     1
 78
     2
176
     1
 67
     7
176
     1
 79
     5
176
     1
170
     0
176
     1
171
     0
176
     1
290
     0
176
     1
 93
        1
176
     1
 44
0.0
176
     1
173
     0
176
     1
1001
ACAD
1000
AcDbSavedByObjectVersion
1070
     0
  0
VISUALSTYLE
  5
1B2E3
102
{ACAD_XDICTIONARY
360
22117
102
}
102
{ACAD_REACTORS
330
318F
102
}
330
318F
100
AcDbVisualStyle
  2

 70
     5
177
     2
291
     0
 71
     0
176
     1
 72
     2
176
     1
 73
     0
176
     1
 90
        0
176
     1
 40
0.6
176
     1
 41
30.0
176
     1
 63
     7
176
     1
 74
     1
176
     1
 91
        4
176
     1
 64
     7
176
     1
 65
   257
176
     1
 75
     1
176
     1
175
     1
176
     1
 42
1.0
176
     1
 92
        0
176
     1
 66
   257
176
     1
 43
1.0
176
     1
 76
     1
176
     1
 77
     6
176
     1
 78
     2
176
     1
 67
     7
176
     1
 79
     3
176
     1
170
     0
176
     1
171
     0
176
     1
290
     0
176
     1
 93
        1
176
     1
 44
0.0
176
     1
173
     0
176
     1
1001
ACAD
1000
AcDbSavedByObjectVersion
1070
     0
  0
VISUALSTYLE
  5
1B2E7
102
{ACAD_XDICTIONARY
360
2211F
102
}
102
{ACAD_REACTORS
330
318F
102
}
330
318F
100
AcDbVisualStyle
  2

 70
    25
177
     2
291
     0
 71
     2
176
     1
 72
     2
176
     1
 73
     1
176
     1
 90
        1
176
     1
 40
0.5
176
     1
 41
30.0
176
     1
 63
     7
176
     1
 74
     1
176
     1
 91
        0
176
     1
 64
     7
176
     1
 65
   257
176
     1
 75
     1
176
     1
175
     1
176
     1
 42
1.0
176
     1
 92
        8
176
     1
 66
     7
176
     1
 43
1.0
176
     1
 76
     1
176
     1
 77
     6
176
     1
 78
     2
176
     1
 67
     7
176
     1
 79
     3
176
     1
170
     0
176
     1
171
     0
176
     1
290
     0
176
     1
 93
       13
176
     1
 44
0.0
176
     1
173
     0
176
     1
1001
ACAD
1000
AcDbSavedByObjectVersion
1070
     0
  0
DICTIONARYVAR
  5
1B222
102
{ACAD_REACTORS
330
33A3
102
}
330
33A3
100
DictionaryVariables
280
     0
  1
1:1
  0
DICTIONARYVAR
  5
1B30F
102
{ACAD_REACTORS
330
33A3
102
}
330
33A3
100
DictionaryVariables
280
     0
  1
STANDARD
  0
DICTIONARYVAR
  5
33A4
102
{ACAD_REACTORS
330
33A3
102
}
330
33A3
100
DictionaryVariables
280
     0
  1
STANDARD
  0
DICTIONARYVAR
  5
1B310
102
{ACAD_REACTORS
330
33A3
102
}
330
33A3
100
DictionaryVariables
280
     0
  1
Metric50
  0
DICTIONARYVAR
  5
1B311
102
{ACAD_REACTORS
330
33A3
102
}
330
33A3
100
DictionaryVariables
280
     0
  1
Metric50
  0
DICTIONARYVAR
  5
9BE8
102
{ACAD_REACTORS
330
33A3
102
}
330
33A3
100
DictionaryVariables
280
     0
  1
1
  0
DICTIONARYVAR
  5
9BE7
102
{ACAD_REACTORS
330
33A3
102
}
330
33A3
100
DictionaryVariables
280
     0
  1
0
  0
DICTIONARYVAR
  5
20993
102
{ACAD_REACTORS
330
33A3
102
}
330
33A3
100
DictionaryVariables
280
     0
  1
1
  0
DICTIONARYVAR
  5
20994
102
{ACAD_REACTORS
330
33A3
102
}
330
33A3
100
DictionaryVariables
280
     0
  1
15
  0
DICTIONARYVAR
  5
20992
102
{ACAD_REACTORS
330
33A3
102
}
330
33A3
100
DictionaryVariables
280
     0
  1
0
  0
DICTIONARYVAR
  5
20991
102
{ACAD_REACTORS
330
33A3
102
}
330
33A3
100
DictionaryVariables
280
     0
  1
0
  0
DICTIONARYVAR
  5
9BE6
102
{ACAD_REACTORS
330
33A3
102
}
330
33A3
100
DictionaryVariables
280
     0
  1
127
  0
DICTIONARY
  5
22131
330
20CB3
100
AcDbDictionary
280
     1
281
     1
  3
ACAD_XREC_ROUNDTRIP
360
22132
  0
DICTIONARY
  5
2212D
330
1B2F1
100
AcDbDictionary
280
     1
281
     1
  3
ACAD_XREC_ROUNDTRIP
360
2212E
  0
DICTIONARY
  5
1B22B
330
318D
100
AcDbDictionary
280
     1
281
     1
  3
ACAD_XREC_ROUNDTRIP
360
1B22C
  0
DICTIONARY
  5
1B22D
330
318C
100
AcDbDictionary
280
     1
281
     1
  3
ACAD_XREC_ROUNDTRIP
360
1B22E
  0
DICTIONARY
  5
1B22F
330
318E
100
AcDbDictionary
280
     1
281
     1
  3
ACAD_XREC_ROUNDTRIP
360
1B230
  0
DICTIONARY
  5
2212F
330
20CB1
100
AcDbDictionary
280
     1
281
     1
  3
ACAD_XREC_ROUNDTRIP
360
22130
  0
DICTIONARY
  5
2212B
330
1B2EF
100
AcDbDictionary
280
     1
281
     1
  3
ACAD_XREC_ROUNDTRIP
360
2212C
  0
DICTIONARY
  5
1B314
330
31A2
100
AcDbDictionary
280
     1
281
     1
  3
ACAD_ROUNDTRIP_2008_TABLESTYLE_CELLSTYLEMAP
360
220F5
  0
DICTIONARY
  5
22101
330
3195
100
AcDbDictionary
280
     1
281
     1
  3
ACAD_XREC_ROUNDTRIP
360
22102
  0
DICTIONARY
  5
22105
330
3197
100
AcDbDictionary
280
     1
281
     1
  3
ACAD_XREC_ROUNDTRIP
360
22106
  0
DICTIONARY
  5
22103
330
3196
100
AcDbDictionary
280
     1
281
     1
  3
ACAD_XREC_ROUNDTRIP
360
22104
  0
DICTIONARY
  5
220FF
330
3194
100
AcDbDictionary
280
     1
281
     1
  3
ACAD_XREC_ROUNDTRIP
360
22100
  0
DICTIONARY
  5
2210D
330
319B
100
AcDbDictionary
280
     1
281
     1
  3
ACAD_XREC_ROUNDTRIP
360
2210E
  0
DICTIONARY
  5
22115
330
319F
100
AcDbDictionary
280
     1
281
     1
  3
ACAD_XREC_ROUNDTRIP
360
22116
  0
DICTIONARY
  5
22107
330
3198
100
AcDbDictionary
280
     1
281
     1
  3
ACAD_XREC_ROUNDTRIP
360
22108
  0
DICTIONARY
  5
2210B
330
319A
100
AcDbDictionary
280
     1
281
     1
  3
ACAD_XREC_ROUNDTRIP
360
2210C
  0
DICTIONARY
  5
22129
330
1B2EC
100
AcDbDictionary
280
     1
281
     1
  3
ACAD_XREC_ROUNDTRIP
360
2212A
  0
DICTIONARY
  5
22113
330
319E
100
AcDbDictionary
280
     1
281
     1
  3
ACAD_XREC_ROUNDTRIP
360
22114
  0
DICTIONARY
  5
220F7
330
3190
100
AcDbDictionary
280
     1
281
     1
  3
ACAD_XREC_ROUNDTRIP
360
220F8
  0
DICTIONARY
  5
220F9
330
3191
100
AcDbDictionary
280
     1
281
     1
  3
ACAD_XREC_ROUNDTRIP
360
220FA
  0
DICTIONARY
  5
220FB
330
3192
100
AcDbDictionary
280
     1
281
     1
  3
ACAD_XREC_ROUNDTRIP
360
220FC
  0
DICTIONARY
  5
220FD
330
3193
100
AcDbDictionary
280
     1
281
     1
  3
ACAD_XREC_ROUNDTRIP
360
220FE
  0
DICTIONARY
  5
22119
330
1B2E4
100
AcDbDictionary
280
     1
281
     1
  3
ACAD_XREC_ROUNDTRIP
360
2211A
  0
DICTIONARY
  5
22125
330
1B2EA
100
AcDbDictionary
280
     1
281
     1
  3
ACAD_XREC_ROUNDTRIP
360
22126
  0
DICTIONARY
  5
22111
330
319D
100
AcDbDictionary
280
     1
281
     1
  3
ACAD_XREC_ROUNDTRIP
360
22112
  0
DICTIONARY
  5
22127
330
1B2EB
100
AcDbDictionary
280
     1
281
     1
  3
ACAD_XREC_ROUNDTRIP
360
22128
  0
DICTIONARY
  5
22109
330
3199
100
AcDbDictionary
280
     1
281
     1
  3
ACAD_XREC_ROUNDTRIP
360
2210A
  0
DICTIONARY
  5
22123
330
1B2E9
100
AcDbDictionary
280
     1
281
     1
  3
ACAD_XREC_ROUNDTRIP
360
22124
  0
DICTIONARY
  5
22121
330
1B2E8
100
AcDbDictionary
280
     1
281
     1
  3
ACAD_XREC_ROUNDTRIP
360
22122
  0
DICTIONARY
  5
2211B
330
1B2E5
100
AcDbDictionary
280
     1
281
     1
  3
ACAD_XREC_ROUNDTRIP
360
2211C
  0
DICTIONARY
  5
2211D
330
1B2E6
100
AcDbDictionary
280
     1
281
     1
  3
ACAD_XREC_ROUNDTRIP
360
2211E
  0
DICTIONARY
  5
2210F
330
319C
100
AcDbDictionary
280
     1
281
     1
  3
ACAD_XREC_ROUNDTRIP
360
22110
  0
DICTIONARY
  5
22117
330
1B2E3
100
AcDbDictionary
280
     1
281
     1
  3
ACAD_XREC_ROUNDTRIP
360
22118
  0
DICTIONARY
  5
2211F
330
1B2E7
100
AcDbDictionary
280
     1
281
     1
  3
ACAD_XREC_ROUNDTRIP
360
22120
  0
XRECORD
  5
22132
102
{ACAD_REACTORS
330
22131
102
}
330
22131
100
AcDbXrecord
280
     1
102
DISPLAYNAME
  1
Imperial24
102
FLAGS
 90
        0
  0
XRECORD
  5
2212E
102
{ACAD_REACTORS
330
2212D
102
}
330
2212D
100
AcDbXrecord
280
     1
102
DISPLAYNAME
  1
Metric50
102
FLAGS
 90
        0
  0
XRECORD
  5
1B22C
102
{ACAD_REACTORS
330
1B22B
102
}
330
1B22B
100
AcDbXrecord
280
     1
102
MATERIAL
148
0.0
149
0.0
149
0.0
 93
        0
 94
      127
282
     0
 72
     1
 77
     1
171
     1
175
     1
179
     1
273
     0
  0
XRECORD
  5
1B22E
102
{ACAD_REACTORS
330
1B22D
102
}
330
1B22D
100
AcDbXrecord
280
     1
102
MATERIAL
148
0.0
149
0.0
149
0.0
 93
        0
 94
      127
282
     0
 72
     1
 77
     1
171
     1
175
     1
179
     1
273
     0
  0
XRECORD
  5
1B230
102
{ACAD_REACTORS
330
1B22F
102
}
330
1B22F
100
AcDbXrecord
280
     1
102
MATERIAL
148
0.0
149
0.0
149
0.0
 93
        0
 94
      127
282
     0
 72
     1
 77
     1
171
     1
175
     1
179
     1
273
     0
  0
XRECORD
  5
22130
102
{ACAD_REACTORS
330
2212F
102
}
330
2212F
100
AcDbXrecord
280
     1
102
DISPLAYNAME
  1
Imperial24
102
FLAGS
 90
        0
  0
XRECORD
  5
2212C
102
{ACAD_REACTORS
330
2212B
102
}
330
2212B
100
AcDbXrecord
280
     1
102
DISPLAYNAME
  1
Metric50
102
FLAGS
 90
        0
  0
CELLSTYLEMAP
  5
220F5
102
{ACAD_REACTORS
330
1B314
102
}
330
1B314
100
AcDbCellStyleMap
 90
        3
300
CELLSTYLE
  1
TABLEFORMAT_BEGIN
 90
        5
170
     1
 91
        0
 92
    32768
 62
   257
 93
        1
300
CONTENTFORMAT
  1
CONTENTFORMAT_BEGIN
 90
        0
 91
        0
 92
        4
 93
        0
300

 40
0.0
140
1.0
 94
        5
 62
     0
340
11
144
6.0
309
CONTENTFORMAT_END
171
     1
301
MARGIN
  1
CELLMARGIN_BEGIN
 40
1.5
 40
1.5
 40
1.5
 40
1.5
 40
0.18
 40
0.18
309
CELLMARGIN_END
 94
        6
 95
        1
302
GRIDFORMAT
  1
GRIDFORMAT_BEGIN
 90
        0
 91
        1
 62
     0
 92
       -2
340
0
 93
        0
 40
0.045
309
GRIDFORMAT_END
 95
        2
302
GRIDFORMAT
  1
GRIDFORMAT_BEGIN
 90
        0
 91
        1
 62
     0
 92
       -2
340
0
 93
        0
 40
0.045
309
GRIDFORMAT_END
 95
        4
302
GRIDFORMAT
  1
GRIDFORMAT_BEGIN
 90
        0
 91
        1
 62
     0
 92
       -2
340
0
 93
        0
 40
0.045
309
GRIDFORMAT_END
 95
        8
302
GRIDFORMAT
  1
GRIDFORMAT_BEGIN
 90
        0
 91
        1
 62
     0
 92
       -2
340
0
 93
        0
 40
0.045
309
GRIDFORMAT_END
 95
       16
302
GRIDFORMAT
  1
GRIDFORMAT_BEGIN
 90
        0
 91
        1
 62
     0
 92
       -2
340
0
 93
        0
 40
0.045
309
GRIDFORMAT_END
 95
       32
302
GRIDFORMAT
  1
GRIDFORMAT_BEGIN
 90
        0
 91
        1
 62
     0
 92
       -2
340
0
 93
        0
 40
0.045
309
GRIDFORMAT_END
309
TABLEFORMAT_END
  1
CELLSTYLE_BEGIN
 90
        1
 91
        1
300
_TITLE
309
CELLSTYLE_END
300
CELLSTYLE
  1
TABLEFORMAT_BEGIN
 90
        5
170
     1
 91
        0
 92
        0
 62
   257
 93
        1
300
CONTENTFORMAT
  1
CONTENTFORMAT_BEGIN
 90
        0
 91
        0
 92
        4
 93
        0
300

 40
0.0
140
1.0
 94
        5
 62
     0
340
11
144
4.5
309
CONTENTFORMAT_END
171
     1
301
MARGIN
  1
CELLMARGIN_BEGIN
 40
1.5
 40
1.5
 40
1.5
 40
1.5
 40
0.18
 40
0.18
309
CELLMARGIN_END
 94
        6
 95
        1
302
GRIDFORMAT
  1
GRIDFORMAT_BEGIN
 90
        0
 91
        1
 62
     0
 92
       -2
340
0
 93
        0
 40
0.045
309
GRIDFORMAT_END
 95
        2
302
GRIDFORMAT
  1
GRIDFORMAT_BEGIN
 90
        0
 91
        1
 62
     0
 92
       -2
340
0
 93
        0
 40
0.045
309
GRIDFORMAT_END
 95
        4
302
GRIDFORMAT
  1
GRIDFORMAT_BEGIN
 90
        0
 91
        1
 62
     0
 92
       -2
340
0
 93
        0
 40
0.045
309
GRIDFORMAT_END
 95
        8
302
GRIDFORMAT
  1
GRIDFORMAT_BEGIN
 90
        0
 91
        1
 62
     0
 92
       -2
340
0
 93
        0
 40
0.045
309
GRIDFORMAT_END
 95
       16
302
GRIDFORMAT
  1
GRIDFORMAT_BEGIN
 90
        0
 91
        1
 62
     0
 92
       -2
340
0
 93
        0
 40
0.045
309
GRIDFORMAT_END
 95
       32
302
GRIDFORMAT
  1
GRIDFORMAT_BEGIN
 90
        0
 91
        1
 62
     0
 92
       -2
340
0
 93
        0
 40
0.045
309
GRIDFORMAT_END
309
TABLEFORMAT_END
  1
CELLSTYLE_BEGIN
 90
        2
 91
        1
300
_HEADER
309
CELLSTYLE_END
300
CELLSTYLE
  1
TABLEFORMAT_BEGIN
 90
        5
170
     1
 91
        0
 92
        0
 62
   257
 93
        1
300
CONTENTFORMAT
  1
CONTENTFORMAT_BEGIN
 90
        0
 91
        0
 92
        4
 93
        0
300

 40
0.0
140
1.0
 94
        2
 62
     0
340
11
144
4.5
309
CONTENTFORMAT_END
171
     1
301
MARGIN
  1
CELLMARGIN_BEGIN
 40
1.5
 40
1.5
 40
1.5
 40
1.5
 40
0.18
 40
0.18
309
CELLMARGIN_END
 94
        6
 95
        1
302
GRIDFORMAT
  1
GRIDFORMAT_BEGIN
 90
        0
 91
        1
 62
     0
 92
       -2
340
0
 93
        0
 40
0.045
309
GRIDFORMAT_END
 95
        2
302
GRIDFORMAT
  1
GRIDFORMAT_BEGIN
 90
        0
 91
        1
 62
     0
 92
       -2
340
0
 93
        0
 40
0.045
309
GRIDFORMAT_END
 95
        4
302
GRIDFORMAT
  1
GRIDFORMAT_BEGIN
 90
        0
 91
        1
 62
     0
 92
       -2
340
0
 93
        0
 40
0.045
309
GRIDFORMAT_END
 95
        8
302
GRIDFORMAT
  1
GRIDFORMAT_BEGIN
 90
        0
 91
        1
 62
     0
 92
       -2
340
0
 93
        0
 40
0.045
309
GRIDFORMAT_END
 95
       16
302
GRIDFORMAT
  1
GRIDFORMAT_BEGIN
 90
        0
 91
        1
 62
     0
 92
       -2
340
0
 93
        0
 40
0.045
309
GRIDFORMAT_END
 95
       32
302
GRIDFORMAT
  1
GRIDFORMAT_BEGIN
 90
        0
 91
        1
 62
     0
 92
       -2
340
0
 93
        0
 40
0.045
309
GRIDFORMAT_END
309
TABLEFORMAT_END
  1
CELLSTYLE_BEGIN
 90
        3
 91
        2
300
_DATA
309
CELLSTYLE_END
  0
XRECORD
  5
22102
102
{ACAD_REACTORS
330
22101
102
}
330
22101
100
AcDbXrecord
280
     1
102
RTVSPost2010Prop28
280
     1
102
RTVSPost2010PropOp28
 70
     1
102
RTVSPost2010Prop29
280
     1
102
RTVSPost2010PropOp29
 70
     1
102
RTVSPost2010Prop30
280
     0
102
RTVSPost2010PropOp30
 70
     1
102
RTVSPost2010Prop31
280
     0
102
RTVSPost2010PropOp31
 70
     1
102
RTVSPost2010Prop32
280
     0
102
RTVSPost2010PropOp32
 70
     1
102
RTVSPost2010Prop33
280
     0
102
RTVSPost2010PropOp33
 70
     1
102
RTVSPost2010Prop34
280
     0
102
RTVSPost2010PropOp34
 70
     1
102
RTVSPost2010Prop35
280
     0
102
RTVSPost2010PropOp35
 70
     1
102
RTVSPost2010Prop36
280
     0
102
RTVSPost2010PropOp36
 70
     1
102
RTVSPost2010Prop37
 90
       50
102
RTVSPost2010PropOp37
 70
     1
102
RTVSPost2010Prop38
140
0.0
102
RTVSPost2010PropOp38
 70
     1
102
RTVSPost2010Prop39
140
1.0
102
RTVSPost2010PropOp39
 70
     1
102
RTVSPost2010Prop40
 90
        0
102
RTVSPost2010PropOp40
 70
     1
102
RTVSPost2010Prop41ColorIndex
 90
       18
102
RTVSPost2010Prop41ColorRGB
 90
        0
102
RTVSPost2010PropOp41
 70
     1
102
RTVSPost2010Prop42
 90
       50
102
RTVSPost2010PropOp42
 70
     1
102
RTVSPost2010Prop43
 90
        3
102
RTVSPost2010PropOp43
 70
     1
102
RTVSPost2010Prop44ColorIndex
 90
        5
102
RTVSPost2010Prop44ColorRGB
 90
      255
102
RTVSPost2010PropOp44
 70
     1
102
RTVSPost2010Prop45
280
     0
102
RTVSPost2010PropOp45
 70
     1
102
RTVSPost2010Prop46
 90
       50
102
RTVSPost2010PropOp46
 70
     1
102
RTVSPost2010Prop47
 90
       50
102
RTVSPost2010PropOp47
 70
     1
102
RTVSPost2010Prop48
 90
       50
102
RTVSPost2010PropOp48
 70
     1
102
RTVSPost2010Prop49
280
     0
102
RTVSPost2010PropOp49
 70
     1
102
RTVSPost2010Prop50
 90
       50
102
RTVSPost2010PropOp50
 70
     1
102
RTVSPost2010Prop51ColorIndex
 90
      256
102
RTVSPost2010Prop51ColorRGB
 90
-16777216
102
RTVSPost2010PropOp51
 70
     0
102
RTVSPost2010Prop52
140
1.0
102
RTVSPost2010PropOp52
 70
     0
102
RTVSPost2010Prop53
 90
        2
102
RTVSPost2010PropOp53
 70
     1
102
RTVSPost2010Prop54
  1
strokes_ogs.tif
102
RTVSPost2010PropOp54
 70
     1
102
RTVSPost2010Prop55
280
     0
102
RTVSPost2010PropOp55
 70
     1
102
RTVSPost2010Prop56
140
1.0
102
RTVSPost2010PropOp56
 70
     1
102
RTVSPost2010Prop57
140
1.0
102
RTVSPost2010PropOp57
 70
     1
  0
XRECORD
  5
22106
102
{ACAD_REACTORS
330
22105
102
}
330
22105
100
AcDbXrecord
280
     1
102
RTVSPost2010Prop28
280
     0
102
RTVSPost2010PropOp28
 70
     1
102
RTVSPost2010Prop29
280
     1
102
RTVSPost2010PropOp29
 70
     1
102
RTVSPost2010Prop30
280
     1
102
RTVSPost2010PropOp30
 70
     1
102
RTVSPost2010Prop31
280
     0
102
RTVSPost2010PropOp31
 70
     1
102
RTVSPost2010Prop32
280
     0
102
RTVSPost2010PropOp32
 70
     1
102
RTVSPost2010Prop33
280
     0
102
RTVSPost2010PropOp33
 70
     1
102
RTVSPost2010Prop34
280
     0
102
RTVSPost2010PropOp34
 70
     1
102
RTVSPost2010Prop35
280
     0
102
RTVSPost2010PropOp35
 70
     1
102
RTVSPost2010Prop36
280
     0
102
RTVSPost2010PropOp36
 70
     1
102
RTVSPost2010Prop37
 90
       50
102
RTVSPost2010PropOp37
 70
     1
102
RTVSPost2010Prop38
140
0.0
102
RTVSPost2010PropOp38
 70
     1
102
RTVSPost2010Prop39
140
1.0
102
RTVSPost2010PropOp39
 70
     1
102
RTVSPost2010Prop40
 90
        0
102
RTVSPost2010PropOp40
 70
     1
102
RTVSPost2010Prop41ColorIndex
 90
       18
102
RTVSPost2010Prop41ColorRGB
 90
        0
102
RTVSPost2010PropOp41
 70
     1
102
RTVSPost2010Prop42
 90
       50
102
RTVSPost2010PropOp42
 70
     1
102
RTVSPost2010Prop43
 90
        3
102
RTVSPost2010PropOp43
 70
     1
102
RTVSPost2010Prop44ColorIndex
 90
        5
102
RTVSPost2010Prop44ColorRGB
 90
      255
102
RTVSPost2010PropOp44
 70
     1
102
RTVSPost2010Prop45
280
     0
102
RTVSPost2010PropOp45
 70
     1
102
RTVSPost2010Prop46
 90
       50
102
RTVSPost2010PropOp46
 70
     1
102
RTVSPost2010Prop47
 90
       50
102
RTVSPost2010PropOp47
 70
     1
102
RTVSPost2010Prop48
 90
       50
102
RTVSPost2010PropOp48
 70
     1
102
RTVSPost2010Prop49
280
     0
102
RTVSPost2010PropOp49
 70
     1
102
RTVSPost2010Prop50
 90
       50
102
RTVSPost2010PropOp50
 70
     1
102
RTVSPost2010Prop51ColorIndex
 90
      256
102
RTVSPost2010Prop51ColorRGB
 90
-16777216
102
RTVSPost2010PropOp51
 70
     0
102
RTVSPost2010Prop52
140
1.0
102
RTVSPost2010PropOp52
 70
     0
102
RTVSPost2010Prop53
 90
        2
102
RTVSPost2010PropOp53
 70
     1
102
RTVSPost2010Prop54
  1
strokes_ogs.tif
102
RTVSPost2010PropOp54
 70
     1
102
RTVSPost2010Prop55
280
     0
102
RTVSPost2010PropOp55
 70
     1
102
RTVSPost2010Prop56
140
1.0
102
RTVSPost2010PropOp56
 70
     1
102
RTVSPost2010Prop57
140
1.0
102
RTVSPost2010PropOp57
 70
     1
  0
XRECORD
  5
22104
102
{ACAD_REACTORS
330
22103
102
}
330
22103
100
AcDbXrecord
280
     1
102
RTVSPost2010Prop28
280
     0
102
RTVSPost2010PropOp28
 70
     1
102
RTVSPost2010Prop29
280
     1
102
RTVSPost2010PropOp29
 70
     1
102
RTVSPost2010Prop30
280
     1
102
RTVSPost2010PropOp30
 70
     1
102
RTVSPost2010Prop31
280
     0
102
RTVSPost2010PropOp31
 70
     1
102
RTVSPost2010Prop32
280
     0
102
RTVSPost2010PropOp32
 70
     1
102
RTVSPost2010Prop33
280
     0
102
RTVSPost2010PropOp33
 70
     1
102
RTVSPost2010Prop34
280
     0
102
RTVSPost2010PropOp34
 70
     1
102
RTVSPost2010Prop35
280
     0
102
RTVSPost2010PropOp35
 70
     1
102
RTVSPost2010Prop36
280
     0
102
RTVSPost2010PropOp36
 70
     1
102
RTVSPost2010Prop37
 90
       50
102
RTVSPost2010PropOp37
 70
     1
102
RTVSPost2010Prop38
140
0.0
102
RTVSPost2010PropOp38
 70
     1
102
RTVSPost2010Prop39
140
1.0
102
RTVSPost2010PropOp39
 70
     1
102
RTVSPost2010Prop40
 90
        0
102
RTVSPost2010PropOp40
 70
     1
102
RTVSPost2010Prop41ColorIndex
 90
       18
102
RTVSPost2010Prop41ColorRGB
 90
        0
102
RTVSPost2010PropOp41
 70
     1
102
RTVSPost2010Prop42
 90
       50
102
RTVSPost2010PropOp42
 70
     1
102
RTVSPost2010Prop43
 90
        3
102
RTVSPost2010PropOp43
 70
     1
102
RTVSPost2010Prop44ColorIndex
 90
        5
102
RTVSPost2010Prop44ColorRGB
 90
      255
102
RTVSPost2010PropOp44
 70
     1
102
RTVSPost2010Prop45
280
     0
102
RTVSPost2010PropOp45
 70
     1
102
RTVSPost2010Prop46
 90
       50
102
RTVSPost2010PropOp46
 70
     1
102
RTVSPost2010Prop47
 90
       50
102
RTVSPost2010PropOp47
 70
     1
102
RTVSPost2010Prop48
 90
       50
102
RTVSPost2010PropOp48
 70
     1
102
RTVSPost2010Prop49
280
     0
102
RTVSPost2010PropOp49
 70
     1
102
RTVSPost2010Prop50
 90
       50
102
RTVSPost2010PropOp50
 70
     1
102
RTVSPost2010Prop51ColorIndex
 90
      256
102
RTVSPost2010Prop51ColorRGB
 90
-16777216
102
RTVSPost2010PropOp51
 70
     0
102
RTVSPost2010Prop52
140
1.0
102
RTVSPost2010PropOp52
 70
     0
102
RTVSPost2010Prop53
 90
        2
102
RTVSPost2010PropOp53
 70
     1
102
RTVSPost2010Prop54
  1
strokes_ogs.tif
102
RTVSPost2010PropOp54
 70
     1
102
RTVSPost2010Prop55
280
     0
102
RTVSPost2010PropOp55
 70
     1
102
RTVSPost2010Prop56
140
1.0
102
RTVSPost2010PropOp56
 70
     1
102
RTVSPost2010Prop57
140
1.0
102
RTVSPost2010PropOp57
 70
     1
  0
XRECORD
  5
22100
102
{ACAD_REACTORS
330
220FF
102
}
330
220FF
100
AcDbXrecord
280
     1
102
RTVSPost2010Prop28
280
     0
102
RTVSPost2010PropOp28
 70
     1
102
RTVSPost2010Prop29
280
     1
102
RTVSPost2010PropOp29
 70
     1
102
RTVSPost2010Prop30
280
     1
102
RTVSPost2010PropOp30
 70
     1
102
RTVSPost2010Prop31
280
     0
102
RTVSPost2010PropOp31
 70
     1
102
RTVSPost2010Prop32
280
     0
102
RTVSPost2010PropOp32
 70
     1
102
RTVSPost2010Prop33
280
     0
102
RTVSPost2010PropOp33
 70
     1
102
RTVSPost2010Prop34
280
     0
102
RTVSPost2010PropOp34
 70
     1
102
RTVSPost2010Prop35
280
     0
102
RTVSPost2010PropOp35
 70
     1
102
RTVSPost2010Prop36
280
     0
102
RTVSPost2010PropOp36
 70
     1
102
RTVSPost2010Prop37
 90
       50
102
RTVSPost2010PropOp37
 70
     1
102
RTVSPost2010Prop38
140
0.0
102
RTVSPost2010PropOp38
 70
     1
102
RTVSPost2010Prop39
140
1.0
102
RTVSPost2010PropOp39
 70
     1
102
RTVSPost2010Prop40
 90
        0
102
RTVSPost2010PropOp40
 70
     1
102
RTVSPost2010Prop41ColorIndex
 90
       18
102
RTVSPost2010Prop41ColorRGB
 90
        0
102
RTVSPost2010PropOp41
 70
     1
102
RTVSPost2010Prop42
 90
       50
102
RTVSPost2010PropOp42
 70
     1
102
RTVSPost2010Prop43
 90
        3
102
RTVSPost2010PropOp43
 70
     1
102
RTVSPost2010Prop44ColorIndex
 90
        5
102
RTVSPost2010Prop44ColorRGB
 90
      255
102
RTVSPost2010PropOp44
 70
     1
102
RTVSPost2010Prop45
280
     0
102
RTVSPost2010PropOp45
 70
     1
102
RTVSPost2010Prop46
 90
       50
102
RTVSPost2010PropOp46
 70
     1
102
RTVSPost2010Prop47
 90
       50
102
RTVSPost2010PropOp47
 70
     1
102
RTVSPost2010Prop48
 90
       50
102
RTVSPost2010PropOp48
 70
     1
102
RTVSPost2010Prop49
280
     0
102
RTVSPost2010PropOp49
 70
     1
102
RTVSPost2010Prop50
 90
       50
102
RTVSPost2010PropOp50
 70
     1
102
RTVSPost2010Prop51ColorIndex
 90
      256
102
RTVSPost2010Prop51ColorRGB
 90
-16777216
102
RTVSPost2010PropOp51
 70
     0
102
RTVSPost2010Prop52
140
1.0
102
RTVSPost2010PropOp52
 70
     0
102
RTVSPost2010Prop53
 90
        2
102
RTVSPost2010PropOp53
 70
     1
102
RTVSPost2010Prop54
  1
strokes_ogs.tif
102
RTVSPost2010PropOp54
 70
     1
102
RTVSPost2010Prop55
280
     0
102
RTVSPost2010PropOp55
 70
     1
102
RTVSPost2010Prop56
140
1.0
102
RTVSPost2010PropOp56
 70
     1
102
RTVSPost2010Prop57
140
1.0
102
RTVSPost2010PropOp57
 70
     1
  0
XRECORD
  5
2210E
102
{ACAD_REACTORS
330
2210D
102
}
330
2210D
100
AcDbXrecord
280
     1
102
RTVSPost2010Prop28
280
     0
102
RTVSPost2010PropOp28
 70
     1
102
RTVSPost2010Prop29
280
     1
102
RTVSPost2010PropOp29
 70
     1
102
RTVSPost2010Prop30
280
     1
102
RTVSPost2010PropOp30
 70
     1
102
RTVSPost2010Prop31
280
     0
102
RTVSPost2010PropOp31
 70
     1
102
RTVSPost2010Prop32
280
     0
102
RTVSPost2010PropOp32
 70
     1
102
RTVSPost2010Prop33
280
     0
102
RTVSPost2010PropOp33
 70
     1
102
RTVSPost2010Prop34
280
     0
102
RTVSPost2010PropOp34
 70
     1
102
RTVSPost2010Prop35
280
     0
102
RTVSPost2010PropOp35
 70
     1
102
RTVSPost2010Prop36
280
     0
102
RTVSPost2010PropOp36
 70
     1
102
RTVSPost2010Prop37
 90
       50
102
RTVSPost2010PropOp37
 70
     1
102
RTVSPost2010Prop38
140
0.0
102
RTVSPost2010PropOp38
 70
     1
102
RTVSPost2010Prop39
140
1.0
102
RTVSPost2010PropOp39
 70
     1
102
RTVSPost2010Prop40
 90
        0
102
RTVSPost2010PropOp40
 70
     1
102
RTVSPost2010Prop41ColorIndex
 90
       18
102
RTVSPost2010Prop41ColorRGB
 90
        0
102
RTVSPost2010PropOp41
 70
     1
102
RTVSPost2010Prop42
 90
       50
102
RTVSPost2010PropOp42
 70
     1
102
RTVSPost2010Prop43
 90
        3
102
RTVSPost2010PropOp43
 70
     1
102
RTVSPost2010Prop44ColorIndex
 90
        5
102
RTVSPost2010Prop44ColorRGB
 90
      255
102
RTVSPost2010PropOp44
 70
     1
102
RTVSPost2010Prop45
280
     0
102
RTVSPost2010PropOp45
 70
     1
102
RTVSPost2010Prop46
 90
       50
102
RTVSPost2010PropOp46
 70
     1
102
RTVSPost2010Prop47
 90
       50
102
RTVSPost2010PropOp47
 70
     1
102
RTVSPost2010Prop48
 90
       50
102
RTVSPost2010PropOp48
 70
     1
102
RTVSPost2010Prop49
280
     0
102
RTVSPost2010PropOp49
 70
     1
102
RTVSPost2010Prop50
 90
       50
102
RTVSPost2010PropOp50
 70
     1
102
RTVSPost2010Prop51ColorIndex
 90
      256
102
RTVSPost2010Prop51ColorRGB
 90
-16777216
102
RTVSPost2010PropOp51
 70
     0
102
RTVSPost2010Prop52
140
1.0
102
RTVSPost2010PropOp52
 70
     0
102
RTVSPost2010Prop53
 90
        2
102
RTVSPost2010PropOp53
 70
     1
102
RTVSPost2010Prop54
  1
strokes_ogs.tif
102
RTVSPost2010PropOp54
 70
     1
102
RTVSPost2010Prop55
280
     0
102
RTVSPost2010PropOp55
 70
     1
102
RTVSPost2010Prop56
140
1.0
102
RTVSPost2010PropOp56
 70
     1
102
RTVSPost2010Prop57
140
1.0
102
RTVSPost2010PropOp57
 70
     1
  0
XRECORD
  5
22116
102
{ACAD_REACTORS
330
22115
102
}
330
22115
100
AcDbXrecord
280
     1
102
RTVSPost2010Prop28
280
     0
102
RTVSPost2010PropOp28
 70
     1
102
RTVSPost2010Prop29
280
     1
102
RTVSPost2010PropOp29
 70
     1
102
RTVSPost2010Prop30
280
     1
102
RTVSPost2010PropOp30
 70
     1
102
RTVSPost2010Prop31
280
     0
102
RTVSPost2010PropOp31
 70
     1
102
RTVSPost2010Prop32
280
     0
102
RTVSPost2010PropOp32
 70
     1
102
RTVSPost2010Prop33
280
     0
102
RTVSPost2010PropOp33
 70
     1
102
RTVSPost2010Prop34
280
     0
102
RTVSPost2010PropOp34
 70
     1
102
RTVSPost2010Prop35
280
     0
102
RTVSPost2010PropOp35
 70
     1
102
RTVSPost2010Prop36
280
     0
102
RTVSPost2010PropOp36
 70
     1
102
RTVSPost2010Prop37
 90
       50
102
RTVSPost2010PropOp37
 70
     1
102
RTVSPost2010Prop38
140
0.0
102
RTVSPost2010PropOp38
 70
     1
102
RTVSPost2010Prop39
140
1.0
102
RTVSPost2010PropOp39
 70
     1
102
RTVSPost2010Prop40
 90
        0
102
RTVSPost2010PropOp40
 70
     1
102
RTVSPost2010Prop41ColorIndex
 90
       18
102
RTVSPost2010Prop41ColorRGB
 90
        0
102
RTVSPost2010PropOp41
 70
     1
102
RTVSPost2010Prop42
 90
       50
102
RTVSPost2010PropOp42
 70
     1
102
RTVSPost2010Prop43
 90
        3
102
RTVSPost2010PropOp43
 70
     1
102
RTVSPost2010Prop44ColorIndex
 90
        5
102
RTVSPost2010Prop44ColorRGB
 90
      255
102
RTVSPost2010PropOp44
 70
     1
102
RTVSPost2010Prop45
280
     0
102
RTVSPost2010PropOp45
 70
     1
102
RTVSPost2010Prop46
 90
       50
102
RTVSPost2010PropOp46
 70
     1
102
RTVSPost2010Prop47
 90
       50
102
RTVSPost2010PropOp47
 70
     1
102
RTVSPost2010Prop48
 90
       50
102
RTVSPost2010PropOp48
 70
     1
102
RTVSPost2010Prop49
280
     0
102
RTVSPost2010PropOp49
 70
     1
102
RTVSPost2010Prop50
 90
       50
102
RTVSPost2010PropOp50
 70
     1
102
RTVSPost2010Prop51ColorIndex
 90
      256
102
RTVSPost2010Prop51ColorRGB
 90
-16777216
102
RTVSPost2010PropOp51
 70
     0
102
RTVSPost2010Prop52
140
1.0
102
RTVSPost2010PropOp52
 70
     0
102
RTVSPost2010Prop53
 90
        2
102
RTVSPost2010PropOp53
 70
     1
102
RTVSPost2010Prop54
  1
strokes_ogs.tif
102
RTVSPost2010PropOp54
 70
     1
102
RTVSPost2010Prop55
280
     0
102
RTVSPost2010PropOp55
 70
     1
102
RTVSPost2010Prop56
140
1.0
102
RTVSPost2010PropOp56
 70
     1
102
RTVSPost2010Prop57
140
1.0
102
RTVSPost2010PropOp57
 70
     1
  0
XRECORD
  5
22108
102
{ACAD_REACTORS
330
22107
102
}
330
22107
100
AcDbXrecord
280
     1
102
RTVSPost2010Prop28
280
     0
102
RTVSPost2010PropOp28
 70
     1
102
RTVSPost2010Prop29
280
     1
102
RTVSPost2010PropOp29
 70
     1
102
RTVSPost2010Prop30
280
     1
102
RTVSPost2010PropOp30
 70
     1
102
RTVSPost2010Prop31
280
     0
102
RTVSPost2010PropOp31
 70
     1
102
RTVSPost2010Prop32
280
     0
102
RTVSPost2010PropOp32
 70
     1
102
RTVSPost2010Prop33
280
     0
102
RTVSPost2010PropOp33
 70
     1
102
RTVSPost2010Prop34
280
     0
102
RTVSPost2010PropOp34
 70
     1
102
RTVSPost2010Prop35
280
     0
102
RTVSPost2010PropOp35
 70
     1
102
RTVSPost2010Prop36
280
     0
102
RTVSPost2010PropOp36
 70
     1
102
RTVSPost2010Prop37
 90
       50
102
RTVSPost2010PropOp37
 70
     1
102
RTVSPost2010Prop38
140
0.0
102
RTVSPost2010PropOp38
 70
     1
102
RTVSPost2010Prop39
140
1.0
102
RTVSPost2010PropOp39
 70
     1
102
RTVSPost2010Prop40
 90
        0
102
RTVSPost2010PropOp40
 70
     1
102
RTVSPost2010Prop41ColorIndex
 90
       18
102
RTVSPost2010Prop41ColorRGB
 90
        0
102
RTVSPost2010PropOp41
 70
     1
102
RTVSPost2010Prop42
 90
       50
102
RTVSPost2010PropOp42
 70
     1
102
RTVSPost2010Prop43
 90
        3
102
RTVSPost2010PropOp43
 70
     1
102
RTVSPost2010Prop44ColorIndex
 90
        5
102
RTVSPost2010Prop44ColorRGB
 90
      255
102
RTVSPost2010PropOp44
 70
     1
102
RTVSPost2010Prop45
280
     0
102
RTVSPost2010PropOp45
 70
     1
102
RTVSPost2010Prop46
 90
       50
102
RTVSPost2010PropOp46
 70
     1
102
RTVSPost2010Prop47
 90
       50
102
RTVSPost2010PropOp47
 70
     1
102
RTVSPost2010Prop48
 90
       50
102
RTVSPost2010PropOp48
 70
     1
102
RTVSPost2010Prop49
280
     0
102
RTVSPost2010PropOp49
 70
     1
102
RTVSPost2010Prop50
 90
       50
102
RTVSPost2010PropOp50
 70
     1
102
RTVSPost2010Prop51ColorIndex
 90
      256
102
RTVSPost2010Prop51ColorRGB
 90
-16777216
102
RTVSPost2010PropOp51
 70
     0
102
RTVSPost2010Prop52
140
1.0
102
RTVSPost2010PropOp52
 70
     0
102
RTVSPost2010Prop53
 90
        2
102
RTVSPost2010PropOp53
 70
     1
102
RTVSPost2010Prop54
  1
strokes_ogs.tif
102
RTVSPost2010PropOp54
 70
     1
102
RTVSPost2010Prop55
280
     0
102
RTVSPost2010PropOp55
 70
     1
102
RTVSPost2010Prop56
140
1.0
102
RTVSPost2010PropOp56
 70
     1
102
RTVSPost2010Prop57
140
1.0
102
RTVSPost2010PropOp57
 70
     1
  0
XRECORD
  5
2210C
102
{ACAD_REACTORS
330
2210B
102
}
330
2210B
100
AcDbXrecord
280
     1
102
RTVSPost2010Prop28
280
     0
102
RTVSPost2010PropOp28
 70
     1
102
RTVSPost2010Prop29
280
     1
102
RTVSPost2010PropOp29
 70
     1
102
RTVSPost2010Prop30
280
     1
102
RTVSPost2010PropOp30
 70
     1
102
RTVSPost2010Prop31
280
     0
102
RTVSPost2010PropOp31
 70
     1
102
RTVSPost2010Prop32
280
     0
102
RTVSPost2010PropOp32
 70
     1
102
RTVSPost2010Prop33
280
     0
102
RTVSPost2010PropOp33
 70
     1
102
RTVSPost2010Prop34
280
     0
102
RTVSPost2010PropOp34
 70
     1
102
RTVSPost2010Prop35
280
     0
102
RTVSPost2010PropOp35
 70
     1
102
RTVSPost2010Prop36
280
     0
102
RTVSPost2010PropOp36
 70
     1
102
RTVSPost2010Prop37
 90
       50
102
RTVSPost2010PropOp37
 70
     1
102
RTVSPost2010Prop38
140
0.0
102
RTVSPost2010PropOp38
 70
     1
102
RTVSPost2010Prop39
140
1.0
102
RTVSPost2010PropOp39
 70
     1
102
RTVSPost2010Prop40
 90
        0
102
RTVSPost2010PropOp40
 70
     1
102
RTVSPost2010Prop41ColorIndex
 90
       18
102
RTVSPost2010Prop41ColorRGB
 90
        0
102
RTVSPost2010PropOp41
 70
     1
102
RTVSPost2010Prop42
 90
       50
102
RTVSPost2010PropOp42
 70
     1
102
RTVSPost2010Prop43
 90
        3
102
RTVSPost2010PropOp43
 70
     1
102
RTVSPost2010Prop44ColorIndex
 90
        5
102
RTVSPost2010Prop44ColorRGB
 90
      255
102
RTVSPost2010PropOp44
 70
     1
102
RTVSPost2010Prop45
280
     0
102
RTVSPost2010PropOp45
 70
     1
102
RTVSPost2010Prop46
 90
       50
102
RTVSPost2010PropOp46
 70
     1
102
RTVSPost2010Prop47
 90
       50
102
RTVSPost2010PropOp47
 70
     1
102
RTVSPost2010Prop48
 90
       50
102
RTVSPost2010PropOp48
 70
     1
102
RTVSPost2010Prop49
280
     0
102
RTVSPost2010PropOp49
 70
     1
102
RTVSPost2010Prop50
 90
       50
102
RTVSPost2010PropOp50
 70
     1
102
RTVSPost2010Prop51ColorIndex
 90
      256
102
RTVSPost2010Prop51ColorRGB
 90
-16777216
102
RTVSPost2010PropOp51
 70
     0
102
RTVSPost2010Prop52
140
1.0
102
RTVSPost2010PropOp52
 70
     0
102
RTVSPost2010Prop53
 90
        2
102
RTVSPost2010PropOp53
 70
     1
102
RTVSPost2010Prop54
  1
strokes_ogs.tif
102
RTVSPost2010PropOp54
 70
     1
102
RTVSPost2010Prop55
280
     0
102
RTVSPost2010PropOp55
 70
     1
102
RTVSPost2010Prop56
140
1.0
102
RTVSPost2010PropOp56
 70
     1
102
RTVSPost2010Prop57
140
1.0
102
RTVSPost2010PropOp57
 70
     1
  0
XRECORD
  5
2212A
102
{ACAD_REACTORS
330
22129
102
}
330
22129
100
AcDbXrecord
280
     1
102
RTVSPost2010Prop28
280
     0
102
RTVSPost2010PropOp28
 70
     1
102
RTVSPost2010Prop29
280
     1
102
RTVSPost2010PropOp29
 70
     1
102
RTVSPost2010Prop30
280
     1
102
RTVSPost2010PropOp30
 70
     1
102
RTVSPost2010Prop31
280
     0
102
RTVSPost2010PropOp31
 70
     1
102
RTVSPost2010Prop32
280
     0
102
RTVSPost2010PropOp32
 70
     1
102
RTVSPost2010Prop33
280
     0
102
RTVSPost2010PropOp33
 70
     1
102
RTVSPost2010Prop34
280
     0
102
RTVSPost2010PropOp34
 70
     1
102
RTVSPost2010Prop35
280
     0
102
RTVSPost2010PropOp35
 70
     1
102
RTVSPost2010Prop36
280
     0
102
RTVSPost2010PropOp36
 70
     1
102
RTVSPost2010Prop37
 90
       50
102
RTVSPost2010PropOp37
 70
     0
102
RTVSPost2010Prop38
140
0.0
102
RTVSPost2010PropOp38
 70
     0
102
RTVSPost2010Prop39
140
1.0
102
RTVSPost2010PropOp39
 70
     0
102
RTVSPost2010Prop40
 90
        0
102
RTVSPost2010PropOp40
 70
     0
102
RTVSPost2010Prop41ColorIndex
 90
       18
102
RTVSPost2010Prop41ColorRGB
 90
        0
102
RTVSPost2010PropOp41
 70
     0
102
RTVSPost2010Prop42
 90
       50
102
RTVSPost2010PropOp42
 70
     0
102
RTVSPost2010Prop43
 90
        3
102
RTVSPost2010PropOp43
 70
     0
102
RTVSPost2010Prop44ColorIndex
 90
        5
102
RTVSPost2010Prop44ColorRGB
 90
      255
102
RTVSPost2010PropOp44
 70
     0
102
RTVSPost2010Prop45
280
     0
102
RTVSPost2010PropOp45
 70
     1
102
RTVSPost2010Prop46
 90
       50
102
RTVSPost2010PropOp46
 70
     0
102
RTVSPost2010Prop47
 90
       50
102
RTVSPost2010PropOp47
 70
     0
102
RTVSPost2010Prop48
 90
       50
102
RTVSPost2010PropOp48
 70
     0
102
RTVSPost2010Prop49
280
     0
102
RTVSPost2010PropOp49
 70
     1
102
RTVSPost2010Prop50
 90
       50
102
RTVSPost2010PropOp50
 70
     0
102
RTVSPost2010Prop51ColorIndex
 90
      256
102
RTVSPost2010Prop51ColorRGB
 90
-16777216
102
RTVSPost2010PropOp51
 70
     0
102
RTVSPost2010Prop52
140
1.0
102
RTVSPost2010PropOp52
 70
     0
102
RTVSPost2010Prop53
 90
        2
102
RTVSPost2010PropOp53
 70
     0
102
RTVSPost2010Prop54
  1
strokes_ogs.tif
102
RTVSPost2010PropOp54
 70
     0
102
RTVSPost2010Prop55
280
     0
102
RTVSPost2010PropOp55
 70
     1
102
RTVSPost2010Prop56
140
1.0
102
RTVSPost2010PropOp56
 70
     0
102
RTVSPost2010Prop57
140
1.0
102
RTVSPost2010PropOp57
 70
     0
  0
XRECORD
  5
22114
102
{ACAD_REACTORS
330
22113
102
}
330
22113
100
AcDbXrecord
280
     1
102
RTVSPost2010Prop28
280
     0
102
RTVSPost2010PropOp28
 70
     1
102
RTVSPost2010Prop29
280
     1
102
RTVSPost2010PropOp29
 70
     1
102
RTVSPost2010Prop30
280
     1
102
RTVSPost2010PropOp30
 70
     1
102
RTVSPost2010Prop31
280
     0
102
RTVSPost2010PropOp31
 70
     1
102
RTVSPost2010Prop32
280
     0
102
RTVSPost2010PropOp32
 70
     1
102
RTVSPost2010Prop33
280
     0
102
RTVSPost2010PropOp33
 70
     1
102
RTVSPost2010Prop34
280
     0
102
RTVSPost2010PropOp34
 70
     1
102
RTVSPost2010Prop35
280
     0
102
RTVSPost2010PropOp35
 70
     1
102
RTVSPost2010Prop36
280
     0
102
RTVSPost2010PropOp36
 70
     1
102
RTVSPost2010Prop37
 90
       50
102
RTVSPost2010PropOp37
 70
     1
102
RTVSPost2010Prop38
140
0.0
102
RTVSPost2010PropOp38
 70
     1
102
RTVSPost2010Prop39
140
1.0
102
RTVSPost2010PropOp39
 70
     1
102
RTVSPost2010Prop40
 90
        0
102
RTVSPost2010PropOp40
 70
     1
102
RTVSPost2010Prop41ColorIndex
 90
       18
102
RTVSPost2010Prop41ColorRGB
 90
        0
102
RTVSPost2010PropOp41
 70
     1
102
RTVSPost2010Prop42
 90
       50
102
RTVSPost2010PropOp42
 70
     1
102
RTVSPost2010Prop43
 90
        3
102
RTVSPost2010PropOp43
 70
     1
102
RTVSPost2010Prop44ColorIndex
 90
        5
102
RTVSPost2010Prop44ColorRGB
 90
      255
102
RTVSPost2010PropOp44
 70
     1
102
RTVSPost2010Prop45
280
     0
102
RTVSPost2010PropOp45
 70
     1
102
RTVSPost2010Prop46
 90
       50
102
RTVSPost2010PropOp46
 70
     1
102
RTVSPost2010Prop47
 90
       50
102
RTVSPost2010PropOp47
 70
     1
102
RTVSPost2010Prop48
 90
       50
102
RTVSPost2010PropOp48
 70
     1
102
RTVSPost2010Prop49
280
     0
102
RTVSPost2010PropOp49
 70
     1
102
RTVSPost2010Prop50
 90
       50
102
RTVSPost2010PropOp50
 70
     1
102
RTVSPost2010Prop51ColorIndex
 90
      256
102
RTVSPost2010Prop51ColorRGB
 90
-16777216
102
RTVSPost2010PropOp51
 70
     0
102
RTVSPost2010Prop52
140
1.0
102
RTVSPost2010PropOp52
 70
     0
102
RTVSPost2010Prop53
 90
        2
102
RTVSPost2010PropOp53
 70
     1
102
RTVSPost2010Prop54
  1
strokes_ogs.tif
102
RTVSPost2010PropOp54
 70
     1
102
RTVSPost2010Prop55
280
     0
102
RTVSPost2010PropOp55
 70
     1
102
RTVSPost2010Prop56
140
1.0
102
RTVSPost2010PropOp56
 70
     1
102
RTVSPost2010Prop57
140
1.0
102
RTVSPost2010PropOp57
 70
     1
  0
XRECORD
  5
220F8
102
{ACAD_REACTORS
330
220F7
102
}
330
220F7
100
AcDbXrecord
280
     1
102
RTVSPost2010Prop28
280
     0
102
RTVSPost2010PropOp28
 70
     1
102
RTVSPost2010Prop29
280
     1
102
RTVSPost2010PropOp29
 70
     1
102
RTVSPost2010Prop30
280
     1
102
RTVSPost2010PropOp30
 70
     1
102
RTVSPost2010Prop31
280
     0
102
RTVSPost2010PropOp31
 70
     1
102
RTVSPost2010Prop32
280
     0
102
RTVSPost2010PropOp32
 70
     1
102
RTVSPost2010Prop33
280
     0
102
RTVSPost2010PropOp33
 70
     1
102
RTVSPost2010Prop34
280
     0
102
RTVSPost2010PropOp34
 70
     1
102
RTVSPost2010Prop35
280
     0
102
RTVSPost2010PropOp35
 70
     1
102
RTVSPost2010Prop36
280
     0
102
RTVSPost2010PropOp36
 70
     1
102
RTVSPost2010Prop37
 90
       50
102
RTVSPost2010PropOp37
 70
     1
102
RTVSPost2010Prop38
140
0.0
102
RTVSPost2010PropOp38
 70
     1
102
RTVSPost2010Prop39
140
1.0
102
RTVSPost2010PropOp39
 70
     1
102
RTVSPost2010Prop40
 90
        0
102
RTVSPost2010PropOp40
 70
     1
102
RTVSPost2010Prop41ColorIndex
 90
       18
102
RTVSPost2010Prop41ColorRGB
 90
        0
102
RTVSPost2010PropOp41
 70
     1
102
RTVSPost2010Prop42
 90
       50
102
RTVSPost2010PropOp42
 70
     1
102
RTVSPost2010Prop43
 90
        3
102
RTVSPost2010PropOp43
 70
     1
102
RTVSPost2010Prop44ColorIndex
 90
        5
102
RTVSPost2010Prop44ColorRGB
 90
      255
102
RTVSPost2010PropOp44
 70
     1
102
RTVSPost2010Prop45
280
     0
102
RTVSPost2010PropOp45
 70
     1
102
RTVSPost2010Prop46
 90
       50
102
RTVSPost2010PropOp46
 70
     1
102
RTVSPost2010Prop47
 90
       50
102
RTVSPost2010PropOp47
 70
     1
102
RTVSPost2010Prop48
 90
       50
102
RTVSPost2010PropOp48
 70
     1
102
RTVSPost2010Prop49
280
     0
102
RTVSPost2010PropOp49
 70
     1
102
RTVSPost2010Prop50
 90
       50
102
RTVSPost2010PropOp50
 70
     1
102
RTVSPost2010Prop51ColorIndex
 90
      256
102
RTVSPost2010Prop51ColorRGB
 90
-16777216
102
RTVSPost2010PropOp51
 70
     0
102
RTVSPost2010Prop52
140
1.0
102
RTVSPost2010PropOp52
 70
     0
102
RTVSPost2010Prop53
 90
        2
102
RTVSPost2010PropOp53
 70
     1
102
RTVSPost2010Prop54
  1
strokes_ogs.tif
102
RTVSPost2010PropOp54
 70
     1
102
RTVSPost2010Prop55
280
     0
102
RTVSPost2010PropOp55
 70
     1
102
RTVSPost2010Prop56
140
1.0
102
RTVSPost2010PropOp56
 70
     1
102
RTVSPost2010Prop57
140
1.0
102
RTVSPost2010PropOp57
 70
     1
  0
XRECORD
  5
220FA
102
{ACAD_REACTORS
330
220F9
102
}
330
220F9
100
AcDbXrecord
280
     1
102
RTVSPost2010Prop28
280
     0
102
RTVSPost2010PropOp28
 70
     1
102
RTVSPost2010Prop29
280
     1
102
RTVSPost2010PropOp29
 70
     1
102
RTVSPost2010Prop30
280
     1
102
RTVSPost2010PropOp30
 70
     1
102
RTVSPost2010Prop31
280
     0
102
RTVSPost2010PropOp31
 70
     1
102
RTVSPost2010Prop32
280
     0
102
RTVSPost2010PropOp32
 70
     1
102
RTVSPost2010Prop33
280
     0
102
RTVSPost2010PropOp33
 70
     1
102
RTVSPost2010Prop34
280
     0
102
RTVSPost2010PropOp34
 70
     1
102
RTVSPost2010Prop35
280
     0
102
RTVSPost2010PropOp35
 70
     1
102
RTVSPost2010Prop36
280
     0
102
RTVSPost2010PropOp36
 70
     1
102
RTVSPost2010Prop37
 90
       50
102
RTVSPost2010PropOp37
 70
     1
102
RTVSPost2010Prop38
140
0.0
102
RTVSPost2010PropOp38
 70
     1
102
RTVSPost2010Prop39
140
1.0
102
RTVSPost2010PropOp39
 70
     1
102
RTVSPost2010Prop40
 90
        0
102
RTVSPost2010PropOp40
 70
     1
102
RTVSPost2010Prop41ColorIndex
 90
       18
102
RTVSPost2010Prop41ColorRGB
 90
        0
102
RTVSPost2010PropOp41
 70
     1
102
RTVSPost2010Prop42
 90
       50
102
RTVSPost2010PropOp42
 70
     1
102
RTVSPost2010Prop43
 90
        3
102
RTVSPost2010PropOp43
 70
     1
102
RTVSPost2010Prop44ColorIndex
 90
        5
102
RTVSPost2010Prop44ColorRGB
 90
      255
102
RTVSPost2010PropOp44
 70
     1
102
RTVSPost2010Prop45
280
     0
102
RTVSPost2010PropOp45
 70
     1
102
RTVSPost2010Prop46
 90
       50
102
RTVSPost2010PropOp46
 70
     1
102
RTVSPost2010Prop47
 90
       50
102
RTVSPost2010PropOp47
 70
     1
102
RTVSPost2010Prop48
 90
       50
102
RTVSPost2010PropOp48
 70
     1
102
RTVSPost2010Prop49
280
     0
102
RTVSPost2010PropOp49
 70
     1
102
RTVSPost2010Prop50
 90
       50
102
RTVSPost2010PropOp50
 70
     1
102
RTVSPost2010Prop51ColorIndex
 90
      256
102
RTVSPost2010Prop51ColorRGB
 90
-16777216
102
RTVSPost2010PropOp51
 70
     0
102
RTVSPost2010Prop52
140
1.0
102
RTVSPost2010PropOp52
 70
     0
102
RTVSPost2010Prop53
 90
        2
102
RTVSPost2010PropOp53
 70
     1
102
RTVSPost2010Prop54
  1
strokes_ogs.tif
102
RTVSPost2010PropOp54
 70
     1
102
RTVSPost2010Prop55
280
     0
102
RTVSPost2010PropOp55
 70
     1
102
RTVSPost2010Prop56
140
1.0
102
RTVSPost2010PropOp56
 70
     1
102
RTVSPost2010Prop57
140
1.0
102
RTVSPost2010PropOp57
 70
     1
  0
XRECORD
  5
220FC
102
{ACAD_REACTORS
330
220FB
102
}
330
220FB
100
AcDbXrecord
280
     1
102
RTVSPost2010Prop28
280
     0
102
RTVSPost2010PropOp28
 70
     1
102
RTVSPost2010Prop29
280
     1
102
RTVSPost2010PropOp29
 70
     1
102
RTVSPost2010Prop30
280
     1
102
RTVSPost2010PropOp30
 70
     1
102
RTVSPost2010Prop31
280
     0
102
RTVSPost2010PropOp31
 70
     1
102
RTVSPost2010Prop32
280
     0
102
RTVSPost2010PropOp32
 70
     1
102
RTVSPost2010Prop33
280
     0
102
RTVSPost2010PropOp33
 70
     1
102
RTVSPost2010Prop34
280
     0
102
RTVSPost2010PropOp34
 70
     1
102
RTVSPost2010Prop35
280
     0
102
RTVSPost2010PropOp35
 70
     1
102
RTVSPost2010Prop36
280
     0
102
RTVSPost2010PropOp36
 70
     1
102
RTVSPost2010Prop37
 90
       50
102
RTVSPost2010PropOp37
 70
     1
102
RTVSPost2010Prop38
140
0.0
102
RTVSPost2010PropOp38
 70
     1
102
RTVSPost2010Prop39
140
1.0
102
RTVSPost2010PropOp39
 70
     1
102
RTVSPost2010Prop40
 90
        0
102
RTVSPost2010PropOp40
 70
     1
102
RTVSPost2010Prop41ColorIndex
 90
       18
102
RTVSPost2010Prop41ColorRGB
 90
        0
102
RTVSPost2010PropOp41
 70
     1
102
RTVSPost2010Prop42
 90
       50
102
RTVSPost2010PropOp42
 70
     1
102
RTVSPost2010Prop43
 90
        3
102
RTVSPost2010PropOp43
 70
     1
102
RTVSPost2010Prop44ColorIndex
 90
        5
102
RTVSPost2010Prop44ColorRGB
 90
      255
102
RTVSPost2010PropOp44
 70
     1
102
RTVSPost2010Prop45
280
     0
102
RTVSPost2010PropOp45
 70
     1
102
RTVSPost2010Prop46
 90
       50
102
RTVSPost2010PropOp46
 70
     1
102
RTVSPost2010Prop47
 90
       50
102
RTVSPost2010PropOp47
 70
     1
102
RTVSPost2010Prop48
 90
       50
102
RTVSPost2010PropOp48
 70
     1
102
RTVSPost2010Prop49
280
     0
102
RTVSPost2010PropOp49
 70
     1
102
RTVSPost2010Prop50
 90
       50
102
RTVSPost2010PropOp50
 70
     1
102
RTVSPost2010Prop51ColorIndex
 90
      256
102
RTVSPost2010Prop51ColorRGB
 90
-16777216
102
RTVSPost2010PropOp51
 70
     0
102
RTVSPost2010Prop52
140
1.0
102
RTVSPost2010PropOp52
 70
     0
102
RTVSPost2010Prop53
 90
        2
102
RTVSPost2010PropOp53
 70
     1
102
RTVSPost2010Prop54
  1
strokes_ogs.tif
102
RTVSPost2010PropOp54
 70
     1
102
RTVSPost2010Prop55
280
     0
102
RTVSPost2010PropOp55
 70
     1
102
RTVSPost2010Prop56
140
1.0
102
RTVSPost2010PropOp56
 70
     1
102
RTVSPost2010Prop57
140
1.0
102
RTVSPost2010PropOp57
 70
     1
  0
XRECORD
  5
220FE
102
{ACAD_REACTORS
330
220FD
102
}
330
220FD
100
AcDbXrecord
280
     1
102
RTVSPost2010Prop28
280
     0
102
RTVSPost2010PropOp28
 70
     1
102
RTVSPost2010Prop29
280
     1
102
RTVSPost2010PropOp29
 70
     1
102
RTVSPost2010Prop30
280
     1
102
RTVSPost2010PropOp30
 70
     1
102
RTVSPost2010Prop31
280
     0
102
RTVSPost2010PropOp31
 70
     1
102
RTVSPost2010Prop32
280
     0
102
RTVSPost2010PropOp32
 70
     1
102
RTVSPost2010Prop33
280
     0
102
RTVSPost2010PropOp33
 70
     1
102
RTVSPost2010Prop34
280
     0
102
RTVSPost2010PropOp34
 70
     1
102
RTVSPost2010Prop35
280
     0
102
RTVSPost2010PropOp35
 70
     1
102
RTVSPost2010Prop36
280
     0
102
RTVSPost2010PropOp36
 70
     1
102
RTVSPost2010Prop37
 90
       50
102
RTVSPost2010PropOp37
 70
     1
102
RTVSPost2010Prop38
140
0.0
102
RTVSPost2010PropOp38
 70
     1
102
RTVSPost2010Prop39
140
1.0
102
RTVSPost2010PropOp39
 70
     1
102
RTVSPost2010Prop40
 90
        0
102
RTVSPost2010PropOp40
 70
     1
102
RTVSPost2010Prop41ColorIndex
 90
       18
102
RTVSPost2010Prop41ColorRGB
 90
        0
102
RTVSPost2010PropOp41
 70
     1
102
RTVSPost2010Prop42
 90
       50
102
RTVSPost2010PropOp42
 70
     1
102
RTVSPost2010Prop43
 90
        3
102
RTVSPost2010PropOp43
 70
     1
102
RTVSPost2010Prop44ColorIndex
 90
        5
102
RTVSPost2010Prop44ColorRGB
 90
      255
102
RTVSPost2010PropOp44
 70
     1
102
RTVSPost2010Prop45
280
     0
102
RTVSPost2010PropOp45
 70
     1
102
RTVSPost2010Prop46
 90
       50
102
RTVSPost2010PropOp46
 70
     1
102
RTVSPost2010Prop47
 90
       50
102
RTVSPost2010PropOp47
 70
     1
102
RTVSPost2010Prop48
 90
       50
102
RTVSPost2010PropOp48
 70
     1
102
RTVSPost2010Prop49
280
     0
102
RTVSPost2010PropOp49
 70
     1
102
RTVSPost2010Prop50
 90
       50
102
RTVSPost2010PropOp50
 70
     1
102
RTVSPost2010Prop51ColorIndex
 90
      256
102
RTVSPost2010Prop51ColorRGB
 90
-16777216
102
RTVSPost2010PropOp51
 70
     0
102
RTVSPost2010Prop52
140
1.0
102
RTVSPost2010PropOp52
 70
     0
102
RTVSPost2010Prop53
 90
        2
102
RTVSPost2010PropOp53
 70
     1
102
RTVSPost2010Prop54
  1
strokes_ogs.tif
102
RTVSPost2010PropOp54
 70
     1
102
RTVSPost2010Prop55
280
     0
102
RTVSPost2010PropOp55
 70
     1
102
RTVSPost2010Prop56
140
1.0
102
RTVSPost2010PropOp56
 70
     1
102
RTVSPost2010Prop57
140
1.0
102
RTVSPost2010PropOp57
 70
     1
  0
XRECORD
  5
2211A
102
{ACAD_REACTORS
330
22119
102
}
330
22119
100
AcDbXrecord
280
     1
102
RTVSPost2010Prop28
280
     0
102
RTVSPost2010PropOp28
 70
     1
102
RTVSPost2010Prop29
280
     1
102
RTVSPost2010PropOp29
 70
     1
102
RTVSPost2010Prop30
280
     1
102
RTVSPost2010PropOp30
 70
     1
102
RTVSPost2010Prop31
280
     0
102
RTVSPost2010PropOp31
 70
     1
102
RTVSPost2010Prop32
280
     0
102
RTVSPost2010PropOp32
 70
     1
102
RTVSPost2010Prop33
280
     0
102
RTVSPost2010PropOp33
 70
     1
102
RTVSPost2010Prop34
280
     0
102
RTVSPost2010PropOp34
 70
     1
102
RTVSPost2010Prop35
280
     0
102
RTVSPost2010PropOp35
 70
     1
102
RTVSPost2010Prop36
280
     0
102
RTVSPost2010PropOp36
 70
     1
102
RTVSPost2010Prop37
 90
       50
102
RTVSPost2010PropOp37
 70
     1
102
RTVSPost2010Prop38
140
0.0
102
RTVSPost2010PropOp38
 70
     1
102
RTVSPost2010Prop39
140
1.0
102
RTVSPost2010PropOp39
 70
     1
102
RTVSPost2010Prop40
 90
        0
102
RTVSPost2010PropOp40
 70
     1
102
RTVSPost2010Prop41ColorIndex
 90
       18
102
RTVSPost2010Prop41ColorRGB
 90
        0
102
RTVSPost2010PropOp41
 70
     1
102
RTVSPost2010Prop42
 90
       50
102
RTVSPost2010PropOp42
 70
     1
102
RTVSPost2010Prop43
 90
        3
102
RTVSPost2010PropOp43
 70
     1
102
RTVSPost2010Prop44ColorIndex
 90
        5
102
RTVSPost2010Prop44ColorRGB
 90
      255
102
RTVSPost2010PropOp44
 70
     1
102
RTVSPost2010Prop45
280
     0
102
RTVSPost2010PropOp45
 70
     1
102
RTVSPost2010Prop46
 90
       50
102
RTVSPost2010PropOp46
 70
     1
102
RTVSPost2010Prop47
 90
       50
102
RTVSPost2010PropOp47
 70
     1
102
RTVSPost2010Prop48
 90
       50
102
RTVSPost2010PropOp48
 70
     1
102
RTVSPost2010Prop49
280
     0
102
RTVSPost2010PropOp49
 70
     1
102
RTVSPost2010Prop50
 90
       50
102
RTVSPost2010PropOp50
 70
     1
102
RTVSPost2010Prop51ColorIndex
 90
      256
102
RTVSPost2010Prop51ColorRGB
 90
-16777216
102
RTVSPost2010PropOp51
 70
     0
102
RTVSPost2010Prop52
140
1.0
102
RTVSPost2010PropOp52
 70
     0
102
RTVSPost2010Prop53
 90
        2
102
RTVSPost2010PropOp53
 70
     1
102
RTVSPost2010Prop54
  1
strokes_ogs.tif
102
RTVSPost2010PropOp54
 70
     1
102
RTVSPost2010Prop55
280
     0
102
RTVSPost2010PropOp55
 70
     1
102
RTVSPost2010Prop56
140
1.0
102
RTVSPost2010PropOp56
 70
     1
102
RTVSPost2010Prop57
140
1.0
102
RTVSPost2010PropOp57
 70
     1
  0
XRECORD
  5
22126
102
{ACAD_REACTORS
330
22125
102
}
330
22125
100
AcDbXrecord
280
     1
102
RTVSPost2010Prop28
280
     0
102
RTVSPost2010PropOp28
 70
     1
102
RTVSPost2010Prop29
280
     1
102
RTVSPost2010PropOp29
 70
     1
102
RTVSPost2010Prop30
280
     1
102
RTVSPost2010PropOp30
 70
     1
102
RTVSPost2010Prop31
280
     0
102
RTVSPost2010PropOp31
 70
     1
102
RTVSPost2010Prop32
280
     0
102
RTVSPost2010PropOp32
 70
     1
102
RTVSPost2010Prop33
280
     0
102
RTVSPost2010PropOp33
 70
     1
102
RTVSPost2010Prop34
280
     0
102
RTVSPost2010PropOp34
 70
     1
102
RTVSPost2010Prop35
280
     0
102
RTVSPost2010PropOp35
 70
     1
102
RTVSPost2010Prop36
280
     0
102
RTVSPost2010PropOp36
 70
     1
102
RTVSPost2010Prop37
 90
       50
102
RTVSPost2010PropOp37
 70
     0
102
RTVSPost2010Prop38
140
0.0
102
RTVSPost2010PropOp38
 70
     0
102
RTVSPost2010Prop39
140
1.0
102
RTVSPost2010PropOp39
 70
     0
102
RTVSPost2010Prop40
 90
        0
102
RTVSPost2010PropOp40
 70
     0
102
RTVSPost2010Prop41ColorIndex
 90
       18
102
RTVSPost2010Prop41ColorRGB
 90
        0
102
RTVSPost2010PropOp41
 70
     0
102
RTVSPost2010Prop42
 90
       50
102
RTVSPost2010PropOp42
 70
     0
102
RTVSPost2010Prop43
 90
        3
102
RTVSPost2010PropOp43
 70
     0
102
RTVSPost2010Prop44ColorIndex
 90
        5
102
RTVSPost2010Prop44ColorRGB
 90
      255
102
RTVSPost2010PropOp44
 70
     0
102
RTVSPost2010Prop45
280
     0
102
RTVSPost2010PropOp45
 70
     1
102
RTVSPost2010Prop46
 90
       50
102
RTVSPost2010PropOp46
 70
     0
102
RTVSPost2010Prop47
 90
       50
102
RTVSPost2010PropOp47
 70
     0
102
RTVSPost2010Prop48
 90
       50
102
RTVSPost2010PropOp48
 70
     0
102
RTVSPost2010Prop49
280
     0
102
RTVSPost2010PropOp49
 70
     1
102
RTVSPost2010Prop50
 90
       50
102
RTVSPost2010PropOp50
 70
     0
102
RTVSPost2010Prop51ColorIndex
 90
      256
102
RTVSPost2010Prop51ColorRGB
 90
-16777216
102
RTVSPost2010PropOp51
 70
     0
102
RTVSPost2010Prop52
140
1.0
102
RTVSPost2010PropOp52
 70
     0
102
RTVSPost2010Prop53
 90
        2
102
RTVSPost2010PropOp53
 70
     0
102
RTVSPost2010Prop54
  1
strokes_ogs.tif
102
RTVSPost2010PropOp54
 70
     0
102
RTVSPost2010Prop55
280
     0
102
RTVSPost2010PropOp55
 70
     1
102
RTVSPost2010Prop56
140
1.0
102
RTVSPost2010PropOp56
 70
     0
102
RTVSPost2010Prop57
140
1.0
102
RTVSPost2010PropOp57
 70
     0
  0
XRECORD
  5
22112
102
{ACAD_REACTORS
330
22111
102
}
330
22111
100
AcDbXrecord
280
     1
102
RTVSPost2010Prop28
280
     0
102
RTVSPost2010PropOp28
 70
     1
102
RTVSPost2010Prop29
280
     1
102
RTVSPost2010PropOp29
 70
     1
102
RTVSPost2010Prop30
280
     1
102
RTVSPost2010PropOp30
 70
     1
102
RTVSPost2010Prop31
280
     0
102
RTVSPost2010PropOp31
 70
     1
102
RTVSPost2010Prop32
280
     0
102
RTVSPost2010PropOp32
 70
     1
102
RTVSPost2010Prop33
280
     0
102
RTVSPost2010PropOp33
 70
     1
102
RTVSPost2010Prop34
280
     0
102
RTVSPost2010PropOp34
 70
     1
102
RTVSPost2010Prop35
280
     0
102
RTVSPost2010PropOp35
 70
     1
102
RTVSPost2010Prop36
280
     0
102
RTVSPost2010PropOp36
 70
     1
102
RTVSPost2010Prop37
 90
       50
102
RTVSPost2010PropOp37
 70
     1
102
RTVSPost2010Prop38
140
0.0
102
RTVSPost2010PropOp38
 70
     1
102
RTVSPost2010Prop39
140
1.0
102
RTVSPost2010PropOp39
 70
     1
102
RTVSPost2010Prop40
 90
        0
102
RTVSPost2010PropOp40
 70
     1
102
RTVSPost2010Prop41ColorIndex
 90
       18
102
RTVSPost2010Prop41ColorRGB
 90
        0
102
RTVSPost2010PropOp41
 70
     1
102
RTVSPost2010Prop42
 90
       50
102
RTVSPost2010PropOp42
 70
     1
102
RTVSPost2010Prop43
 90
        3
102
RTVSPost2010PropOp43
 70
     1
102
RTVSPost2010Prop44ColorIndex
 90
        5
102
RTVSPost2010Prop44ColorRGB
 90
      255
102
RTVSPost2010PropOp44
 70
     1
102
RTVSPost2010Prop45
280
     0
102
RTVSPost2010PropOp45
 70
     1
102
RTVSPost2010Prop46
 90
       50
102
RTVSPost2010PropOp46
 70
     1
102
RTVSPost2010Prop47
 90
       50
102
RTVSPost2010PropOp47
 70
     1
102
RTVSPost2010Prop48
 90
       50
102
RTVSPost2010PropOp48
 70
     1
102
RTVSPost2010Prop49
280
     0
102
RTVSPost2010PropOp49
 70
     1
102
RTVSPost2010Prop50
 90
       50
102
RTVSPost2010PropOp50
 70
     1
102
RTVSPost2010Prop51ColorIndex
 90
      256
102
RTVSPost2010Prop51ColorRGB
 90
-16777216
102
RTVSPost2010PropOp51
 70
     0
102
RTVSPost2010Prop52
140
1.0
102
RTVSPost2010PropOp52
 70
     0
102
RTVSPost2010Prop53
 90
        2
102
RTVSPost2010PropOp53
 70
     1
102
RTVSPost2010Prop54
  1
strokes_ogs.tif
102
RTVSPost2010PropOp54
 70
     1
102
RTVSPost2010Prop55
280
     0
102
RTVSPost2010PropOp55
 70
     1
102
RTVSPost2010Prop56
140
1.0
102
RTVSPost2010PropOp56
 70
     1
102
RTVSPost2010Prop57
140
1.0
102
RTVSPost2010PropOp57
 70
     1
  0
XRECORD
  5
22128
102
{ACAD_REACTORS
330
22127
102
}
330
22127
100
AcDbXrecord
280
     1
102
RTVSPost2010Prop28
280
     0
102
RTVSPost2010PropOp28
 70
     1
102
RTVSPost2010Prop29
280
     1
102
RTVSPost2010PropOp29
 70
     1
102
RTVSPost2010Prop30
280
     1
102
RTVSPost2010PropOp30
 70
     1
102
RTVSPost2010Prop31
280
     0
102
RTVSPost2010PropOp31
 70
     1
102
RTVSPost2010Prop32
280
     0
102
RTVSPost2010PropOp32
 70
     1
102
RTVSPost2010Prop33
280
     0
102
RTVSPost2010PropOp33
 70
     1
102
RTVSPost2010Prop34
280
     0
102
RTVSPost2010PropOp34
 70
     1
102
RTVSPost2010Prop35
280
     0
102
RTVSPost2010PropOp35
 70
     1
102
RTVSPost2010Prop36
280
     0
102
RTVSPost2010PropOp36
 70
     1
102
RTVSPost2010Prop37
 90
       50
102
RTVSPost2010PropOp37
 70
     0
102
RTVSPost2010Prop38
140
0.0
102
RTVSPost2010PropOp38
 70
     0
102
RTVSPost2010Prop39
140
1.0
102
RTVSPost2010PropOp39
 70
     0
102
RTVSPost2010Prop40
 90
        0
102
RTVSPost2010PropOp40
 70
     0
102
RTVSPost2010Prop41ColorIndex
 90
       18
102
RTVSPost2010Prop41ColorRGB
 90
        0
102
RTVSPost2010PropOp41
 70
     0
102
RTVSPost2010Prop42
 90
       50
102
RTVSPost2010PropOp42
 70
     0
102
RTVSPost2010Prop43
 90
        3
102
RTVSPost2010PropOp43
 70
     0
102
RTVSPost2010Prop44ColorIndex
 90
        5
102
RTVSPost2010Prop44ColorRGB
 90
      255
102
RTVSPost2010PropOp44
 70
     0
102
RTVSPost2010Prop45
280
     0
102
RTVSPost2010PropOp45
 70
     1
102
RTVSPost2010Prop46
 90
       50
102
RTVSPost2010PropOp46
 70
     0
102
RTVSPost2010Prop47
 90
       50
102
RTVSPost2010PropOp47
 70
     0
102
RTVSPost2010Prop48
 90
       50
102
RTVSPost2010PropOp48
 70
     0
102
RTVSPost2010Prop49
280
     0
102
RTVSPost2010PropOp49
 70
     1
102
RTVSPost2010Prop50
 90
       50
102
RTVSPost2010PropOp50
 70
     0
102
RTVSPost2010Prop51ColorIndex
 90
      256
102
RTVSPost2010Prop51ColorRGB
 90
-16777216
102
RTVSPost2010PropOp51
 70
     0
102
RTVSPost2010Prop52
140
1.0
102
RTVSPost2010PropOp52
 70
     0
102
RTVSPost2010Prop53
 90
        2
102
RTVSPost2010PropOp53
 70
     0
102
RTVSPost2010Prop54
  1
strokes_ogs.tif
102
RTVSPost2010PropOp54
 70
     0
102
RTVSPost2010Prop55
280
     0
102
RTVSPost2010PropOp55
 70
     1
102
RTVSPost2010Prop56
140
1.0
102
RTVSPost2010PropOp56
 70
     0
102
RTVSPost2010Prop57
140
1.0
102
RTVSPost2010PropOp57
 70
     0
  0
XRECORD
  5
2210A
102
{ACAD_REACTORS
330
22109
102
}
330
22109
100
AcDbXrecord
280
     1
102
RTVSPost2010Prop28
280
     0
102
RTVSPost2010PropOp28
 70
     1
102
RTVSPost2010Prop29
280
     1
102
RTVSPost2010PropOp29
 70
     1
102
RTVSPost2010Prop30
280
     1
102
RTVSPost2010PropOp30
 70
     1
102
RTVSPost2010Prop31
280
     0
102
RTVSPost2010PropOp31
 70
     1
102
RTVSPost2010Prop32
280
     0
102
RTVSPost2010PropOp32
 70
     1
102
RTVSPost2010Prop33
280
     0
102
RTVSPost2010PropOp33
 70
     1
102
RTVSPost2010Prop34
280
     0
102
RTVSPost2010PropOp34
 70
     1
102
RTVSPost2010Prop35
280
     0
102
RTVSPost2010PropOp35
 70
     1
102
RTVSPost2010Prop36
280
     0
102
RTVSPost2010PropOp36
 70
     1
102
RTVSPost2010Prop37
 90
       50
102
RTVSPost2010PropOp37
 70
     1
102
RTVSPost2010Prop38
140
0.0
102
RTVSPost2010PropOp38
 70
     1
102
RTVSPost2010Prop39
140
1.0
102
RTVSPost2010PropOp39
 70
     1
102
RTVSPost2010Prop40
 90
        0
102
RTVSPost2010PropOp40
 70
     1
102
RTVSPost2010Prop41ColorIndex
 90
       18
102
RTVSPost2010Prop41ColorRGB
 90
        0
102
RTVSPost2010PropOp41
 70
     1
102
RTVSPost2010Prop42
 90
       50
102
RTVSPost2010PropOp42
 70
     1
102
RTVSPost2010Prop43
 90
        3
102
RTVSPost2010PropOp43
 70
     1
102
RTVSPost2010Prop44ColorIndex
 90
        5
102
RTVSPost2010Prop44ColorRGB
 90
      255
102
RTVSPost2010PropOp44
 70
     1
102
RTVSPost2010Prop45
280
     0
102
RTVSPost2010PropOp45
 70
     1
102
RTVSPost2010Prop46
 90
       50
102
RTVSPost2010PropOp46
 70
     1
102
RTVSPost2010Prop47
 90
       50
102
RTVSPost2010PropOp47
 70
     1
102
RTVSPost2010Prop48
 90
       50
102
RTVSPost2010PropOp48
 70
     1
102
RTVSPost2010Prop49
280
     0
102
RTVSPost2010PropOp49
 70
     1
102
RTVSPost2010Prop50
 90
       50
102
RTVSPost2010PropOp50
 70
     1
102
RTVSPost2010Prop51ColorIndex
 90
      256
102
RTVSPost2010Prop51ColorRGB
 90
-16777216
102
RTVSPost2010PropOp51
 70
     0
102
RTVSPost2010Prop52
140
1.0
102
RTVSPost2010PropOp52
 70
     0
102
RTVSPost2010Prop53
 90
        2
102
RTVSPost2010PropOp53
 70
     1
102
RTVSPost2010Prop54
  1
strokes_ogs.tif
102
RTVSPost2010PropOp54
 70
     1
102
RTVSPost2010Prop55
280
     0
102
RTVSPost2010PropOp55
 70
     1
102
RTVSPost2010Prop56
140
1.0
102
RTVSPost2010PropOp56
 70
     1
102
RTVSPost2010Prop57
140
1.0
102
RTVSPost2010PropOp57
 70
     1
  0
XRECORD
  5
22124
102
{ACAD_REACTORS
330
22123
102
}
330
22123
100
AcDbXrecord
280
     1
102
RTVSPost2010Prop28
280
     0
102
RTVSPost2010PropOp28
 70
     1
102
RTVSPost2010Prop29
280
     1
102
RTVSPost2010PropOp29
 70
     1
102
RTVSPost2010Prop30
280
     1
102
RTVSPost2010PropOp30
 70
     1
102
RTVSPost2010Prop31
280
     0
102
RTVSPost2010PropOp31
 70
     1
102
RTVSPost2010Prop32
280
     0
102
RTVSPost2010PropOp32
 70
     1
102
RTVSPost2010Prop33
280
     0
102
RTVSPost2010PropOp33
 70
     1
102
RTVSPost2010Prop34
280
     0
102
RTVSPost2010PropOp34
 70
     1
102
RTVSPost2010Prop35
280
     0
102
RTVSPost2010PropOp35
 70
     1
102
RTVSPost2010Prop36
280
     0
102
RTVSPost2010PropOp36
 70
     1
102
RTVSPost2010Prop37
 90
       50
102
RTVSPost2010PropOp37
 70
     1
102
RTVSPost2010Prop38
140
0.0
102
RTVSPost2010PropOp38
 70
     1
102
RTVSPost2010Prop39
140
1.0
102
RTVSPost2010PropOp39
 70
     1
102
RTVSPost2010Prop40
 90
        0
102
RTVSPost2010PropOp40
 70
     1
102
RTVSPost2010Prop41ColorIndex
 90
       18
102
RTVSPost2010Prop41ColorRGB
 90
        0
102
RTVSPost2010PropOp41
 70
     1
102
RTVSPost2010Prop42
 90
       50
102
RTVSPost2010PropOp42
 70
     1
102
RTVSPost2010Prop43
 90
        3
102
RTVSPost2010PropOp43
 70
     1
102
RTVSPost2010Prop44ColorIndex
 90
        5
102
RTVSPost2010Prop44ColorRGB
 90
      255
102
RTVSPost2010PropOp44
 70
     1
102
RTVSPost2010Prop45
280
     0
102
RTVSPost2010PropOp45
 70
     1
102
RTVSPost2010Prop46
 90
       50
102
RTVSPost2010PropOp46
 70
     1
102
RTVSPost2010Prop47
 90
       50
102
RTVSPost2010PropOp47
 70
     1
102
RTVSPost2010Prop48
 90
       50
102
RTVSPost2010PropOp48
 70
     1
102
RTVSPost2010Prop49
280
     0
102
RTVSPost2010PropOp49
 70
     1
102
RTVSPost2010Prop50
 90
       50
102
RTVSPost2010PropOp50
 70
     1
102
RTVSPost2010Prop51ColorIndex
 90
      256
102
RTVSPost2010Prop51ColorRGB
 90
-16777216
102
RTVSPost2010PropOp51
 70
     0
102
RTVSPost2010Prop52
140
1.0
102
RTVSPost2010PropOp52
 70
     0
102
RTVSPost2010Prop53
 90
        2
102
RTVSPost2010PropOp53
 70
     1
102
RTVSPost2010Prop54
  1
strokes_ogs.tif
102
RTVSPost2010PropOp54
 70
     1
102
RTVSPost2010Prop55
280
     0
102
RTVSPost2010PropOp55
 70
     1
102
RTVSPost2010Prop56
140
1.0
102
RTVSPost2010PropOp56
 70
     1
102
RTVSPost2010Prop57
140
1.0
102
RTVSPost2010PropOp57
 70
     1
  0
XRECORD
  5
22122
102
{ACAD_REACTORS
330
22121
102
}
330
22121
100
AcDbXrecord
280
     1
102
RTVSPost2010Prop28
280
     0
102
RTVSPost2010PropOp28
 70
     1
102
RTVSPost2010Prop29
280
     1
102
RTVSPost2010PropOp29
 70
     1
102
RTVSPost2010Prop30
280
     1
102
RTVSPost2010PropOp30
 70
     1
102
RTVSPost2010Prop31
280
     0
102
RTVSPost2010PropOp31
 70
     1
102
RTVSPost2010Prop32
280
     0
102
RTVSPost2010PropOp32
 70
     1
102
RTVSPost2010Prop33
280
     0
102
RTVSPost2010PropOp33
 70
     1
102
RTVSPost2010Prop34
280
     0
102
RTVSPost2010PropOp34
 70
     1
102
RTVSPost2010Prop35
280
     0
102
RTVSPost2010PropOp35
 70
     1
102
RTVSPost2010Prop36
280
     0
102
RTVSPost2010PropOp36
 70
     1
102
RTVSPost2010Prop37
 90
       50
102
RTVSPost2010PropOp37
 70
     1
102
RTVSPost2010Prop38
140
0.0
102
RTVSPost2010PropOp38
 70
     1
102
RTVSPost2010Prop39
140
1.0
102
RTVSPost2010PropOp39
 70
     1
102
RTVSPost2010Prop40
 90
        0
102
RTVSPost2010PropOp40
 70
     1
102
RTVSPost2010Prop41ColorIndex
 90
       18
102
RTVSPost2010Prop41ColorRGB
 90
        0
102
RTVSPost2010PropOp41
 70
     1
102
RTVSPost2010Prop42
 90
       50
102
RTVSPost2010PropOp42
 70
     1
102
RTVSPost2010Prop43
 90
        3
102
RTVSPost2010PropOp43
 70
     1
102
RTVSPost2010Prop44ColorIndex
 90
        5
102
RTVSPost2010Prop44ColorRGB
 90
      255
102
RTVSPost2010PropOp44
 70
     1
102
RTVSPost2010Prop45
280
     0
102
RTVSPost2010PropOp45
 70
     1
102
RTVSPost2010Prop46
 90
       50
102
RTVSPost2010PropOp46
 70
     1
102
RTVSPost2010Prop47
 90
       50
102
RTVSPost2010PropOp47
 70
     1
102
RTVSPost2010Prop48
 90
       50
102
RTVSPost2010PropOp48
 70
     1
102
RTVSPost2010Prop49
280
     0
102
RTVSPost2010PropOp49
 70
     1
102
RTVSPost2010Prop50
 90
       50
102
RTVSPost2010PropOp50
 70
     1
102
RTVSPost2010Prop51ColorIndex
 90
      256
102
RTVSPost2010Prop51ColorRGB
 90
-16777216
102
RTVSPost2010PropOp51
 70
     0
102
RTVSPost2010Prop52
140
1.0
102
RTVSPost2010PropOp52
 70
     0
102
RTVSPost2010Prop53
 90
        2
102
RTVSPost2010PropOp53
 70
     1
102
RTVSPost2010Prop54
  1
strokes_ogs.tif
102
RTVSPost2010PropOp54
 70
     1
102
RTVSPost2010Prop55
280
     0
102
RTVSPost2010PropOp55
 70
     1
102
RTVSPost2010Prop56
140
1.0
102
RTVSPost2010PropOp56
 70
     1
102
RTVSPost2010Prop57
140
1.0
102
RTVSPost2010PropOp57
 70
     1
  0
XRECORD
  5
2211C
102
{ACAD_REACTORS
330
2211B
102
}
330
2211B
100
AcDbXrecord
280
     1
102
RTVSPost2010Prop28
280
     0
102
RTVSPost2010PropOp28
 70
     1
102
RTVSPost2010Prop29
280
     1
102
RTVSPost2010PropOp29
 70
     1
102
RTVSPost2010Prop30
280
     1
102
RTVSPost2010PropOp30
 70
     1
102
RTVSPost2010Prop31
280
     0
102
RTVSPost2010PropOp31
 70
     1
102
RTVSPost2010Prop32
280
     0
102
RTVSPost2010PropOp32
 70
     1
102
RTVSPost2010Prop33
280
     0
102
RTVSPost2010PropOp33
 70
     1
102
RTVSPost2010Prop34
280
     0
102
RTVSPost2010PropOp34
 70
     1
102
RTVSPost2010Prop35
280
     0
102
RTVSPost2010PropOp35
 70
     1
102
RTVSPost2010Prop36
280
     0
102
RTVSPost2010PropOp36
 70
     1
102
RTVSPost2010Prop37
 90
       50
102
RTVSPost2010PropOp37
 70
     1
102
RTVSPost2010Prop38
140
0.0
102
RTVSPost2010PropOp38
 70
     1
102
RTVSPost2010Prop39
140
1.0
102
RTVSPost2010PropOp39
 70
     1
102
RTVSPost2010Prop40
 90
        0
102
RTVSPost2010PropOp40
 70
     1
102
RTVSPost2010Prop41ColorIndex
 90
       18
102
RTVSPost2010Prop41ColorRGB
 90
        0
102
RTVSPost2010PropOp41
 70
     1
102
RTVSPost2010Prop42
 90
       50
102
RTVSPost2010PropOp42
 70
     1
102
RTVSPost2010Prop43
 90
        3
102
RTVSPost2010PropOp43
 70
     1
102
RTVSPost2010Prop44ColorIndex
 90
        5
102
RTVSPost2010Prop44ColorRGB
 90
      255
102
RTVSPost2010PropOp44
 70
     1
102
RTVSPost2010Prop45
280
     0
102
RTVSPost2010PropOp45
 70
     1
102
RTVSPost2010Prop46
 90
       50
102
RTVSPost2010PropOp46
 70
     1
102
RTVSPost2010Prop47
 90
       50
102
RTVSPost2010PropOp47
 70
     1
102
RTVSPost2010Prop48
 90
       50
102
RTVSPost2010PropOp48
 70
     1
102
RTVSPost2010Prop49
280
     0
102
RTVSPost2010PropOp49
 70
     1
102
RTVSPost2010Prop50
 90
       50
102
RTVSPost2010PropOp50
 70
     1
102
RTVSPost2010Prop51ColorIndex
 90
      256
102
RTVSPost2010Prop51ColorRGB
 90
-16777216
102
RTVSPost2010PropOp51
 70
     0
102
RTVSPost2010Prop52
140
1.0
102
RTVSPost2010PropOp52
 70
     0
102
RTVSPost2010Prop53
 90
        2
102
RTVSPost2010PropOp53
 70
     1
102
RTVSPost2010Prop54
  1
strokes_ogs.tif
102
RTVSPost2010PropOp54
 70
     1
102
RTVSPost2010Prop55
280
     0
102
RTVSPost2010PropOp55
 70
     1
102
RTVSPost2010Prop56
140
1.0
102
RTVSPost2010PropOp56
 70
     1
102
RTVSPost2010Prop57
140
1.0
102
RTVSPost2010PropOp57
 70
     1
  0
XRECORD
  5
2211E
102
{ACAD_REACTORS
330
2211D
102
}
330
2211D
100
AcDbXrecord
280
     1
102
RTVSPost2010Prop28
280
     0
102
RTVSPost2010PropOp28
 70
     1
102
RTVSPost2010Prop29
280
     1
102
RTVSPost2010PropOp29
 70
     1
102
RTVSPost2010Prop30
280
     1
102
RTVSPost2010PropOp30
 70
     1
102
RTVSPost2010Prop31
280
     0
102
RTVSPost2010PropOp31
 70
     1
102
RTVSPost2010Prop32
280
     0
102
RTVSPost2010PropOp32
 70
     1
102
RTVSPost2010Prop33
280
     0
102
RTVSPost2010PropOp33
 70
     1
102
RTVSPost2010Prop34
280
     0
102
RTVSPost2010PropOp34
 70
     1
102
RTVSPost2010Prop35
280
     0
102
RTVSPost2010PropOp35
 70
     1
102
RTVSPost2010Prop36
280
     0
102
RTVSPost2010PropOp36
 70
     1
102
RTVSPost2010Prop37
 90
       50
102
RTVSPost2010PropOp37
 70
     1
102
RTVSPost2010Prop38
140
0.0
102
RTVSPost2010PropOp38
 70
     1
102
RTVSPost2010Prop39
140
1.0
102
RTVSPost2010PropOp39
 70
     1
102
RTVSPost2010Prop40
 90
        0
102
RTVSPost2010PropOp40
 70
     1
102
RTVSPost2010Prop41ColorIndex
 90
       18
102
RTVSPost2010Prop41ColorRGB
 90
        0
102
RTVSPost2010PropOp41
 70
     1
102
RTVSPost2010Prop42
 90
       50
102
RTVSPost2010PropOp42
 70
     1
102
RTVSPost2010Prop43
 90
        3
102
RTVSPost2010PropOp43
 70
     1
102
RTVSPost2010Prop44ColorIndex
 90
        5
102
RTVSPost2010Prop44ColorRGB
 90
      255
102
RTVSPost2010PropOp44
 70
     1
102
RTVSPost2010Prop45
280
     0
102
RTVSPost2010PropOp45
 70
     1
102
RTVSPost2010Prop46
 90
       50
102
RTVSPost2010PropOp46
 70
     1
102
RTVSPost2010Prop47
 90
       50
102
RTVSPost2010PropOp47
 70
     1
102
RTVSPost2010Prop48
 90
       50
102
RTVSPost2010PropOp48
 70
     1
102
RTVSPost2010Prop49
280
     0
102
RTVSPost2010PropOp49
 70
     1
102
RTVSPost2010Prop50
 90
       50
102
RTVSPost2010PropOp50
 70
     1
102
RTVSPost2010Prop51ColorIndex
 90
      256
102
RTVSPost2010Prop51ColorRGB
 90
-16777216
102
RTVSPost2010PropOp51
 70
     0
102
RTVSPost2010Prop52
140
1.0
102
RTVSPost2010PropOp52
 70
     0
102
RTVSPost2010Prop53
 90
        2
102
RTVSPost2010PropOp53
 70
     1
102
RTVSPost2010Prop54
  1
strokes_ogs.tif
102
RTVSPost2010PropOp54
 70
     1
102
RTVSPost2010Prop55
280
     0
102
RTVSPost2010PropOp55
 70
     1
102
RTVSPost2010Prop56
140
1.0
102
RTVSPost2010PropOp56
 70
     1
102
RTVSPost2010Prop57
140
1.0
102
RTVSPost2010PropOp57
 70
     1
  0
XRECORD
  5
22110
102
{ACAD_REACTORS
330
2210F
102
}
330
2210F
100
AcDbXrecord
280
     1
102
RTVSPost2010Prop28
280
     0
102
RTVSPost2010PropOp28
 70
     1
102
RTVSPost2010Prop29
280
     1
102
RTVSPost2010PropOp29
 70
     1
102
RTVSPost2010Prop30
280
     1
102
RTVSPost2010PropOp30
 70
     1
102
RTVSPost2010Prop31
280
     0
102
RTVSPost2010PropOp31
 70
     1
102
RTVSPost2010Prop32
280
     0
102
RTVSPost2010PropOp32
 70
     1
102
RTVSPost2010Prop33
280
     0
102
RTVSPost2010PropOp33
 70
     1
102
RTVSPost2010Prop34
280
     0
102
RTVSPost2010PropOp34
 70
     1
102
RTVSPost2010Prop35
280
     0
102
RTVSPost2010PropOp35
 70
     1
102
RTVSPost2010Prop36
280
     0
102
RTVSPost2010PropOp36
 70
     1
102
RTVSPost2010Prop37
 90
       50
102
RTVSPost2010PropOp37
 70
     1
102
RTVSPost2010Prop38
140
0.0
102
RTVSPost2010PropOp38
 70
     1
102
RTVSPost2010Prop39
140
1.0
102
RTVSPost2010PropOp39
 70
     1
102
RTVSPost2010Prop40
 90
        0
102
RTVSPost2010PropOp40
 70
     1
102
RTVSPost2010Prop41ColorIndex
 90
       18
102
RTVSPost2010Prop41ColorRGB
 90
        0
102
RTVSPost2010PropOp41
 70
     1
102
RTVSPost2010Prop42
 90
       50
102
RTVSPost2010PropOp42
 70
     1
102
RTVSPost2010Prop43
 90
        3
102
RTVSPost2010PropOp43
 70
     1
102
RTVSPost2010Prop44ColorIndex
 90
        5
102
RTVSPost2010Prop44ColorRGB
 90
      255
102
RTVSPost2010PropOp44
 70
     1
102
RTVSPost2010Prop45
280
     0
102
RTVSPost2010PropOp45
 70
     1
102
RTVSPost2010Prop46
 90
       50
102
RTVSPost2010PropOp46
 70
     1
102
RTVSPost2010Prop47
 90
       50
102
RTVSPost2010PropOp47
 70
     1
102
RTVSPost2010Prop48
 90
       50
102
RTVSPost2010PropOp48
 70
     1
102
RTVSPost2010Prop49
280
     0
102
RTVSPost2010PropOp49
 70
     1
102
RTVSPost2010Prop50
 90
       50
102
RTVSPost2010PropOp50
 70
     1
102
RTVSPost2010Prop51ColorIndex
 90
      256
102
RTVSPost2010Prop51ColorRGB
 90
-16777216
102
RTVSPost2010PropOp51
 70
     0
102
RTVSPost2010Prop52
140
1.0
102
RTVSPost2010PropOp52
 70
     0
102
RTVSPost2010Prop53
 90
        2
102
RTVSPost2010PropOp53
 70
     1
102
RTVSPost2010Prop54
  1
strokes_ogs.tif
102
RTVSPost2010PropOp54
 70
     1
102
RTVSPost2010Prop55
280
     0
102
RTVSPost2010PropOp55
 70
     1
102
RTVSPost2010Prop56
140
1.0
102
RTVSPost2010PropOp56
 70
     1
102
RTVSPost2010Prop57
140
1.0
102
RTVSPost2010PropOp57
 70
     1
  0
XRECORD
  5
22118
102
{ACAD_REACTORS
330
22117
102
}
330
22117
100
AcDbXrecord
280
     1
102
RTVSPost2010Prop28
280
     0
102
RTVSPost2010PropOp28
 70
     1
102
RTVSPost2010Prop29
280
     1
102
RTVSPost2010PropOp29
 70
     1
102
RTVSPost2010Prop30
280
     1
102
RTVSPost2010PropOp30
 70
     1
102
RTVSPost2010Prop31
280
     0
102
RTVSPost2010PropOp31
 70
     1
102
RTVSPost2010Prop32
280
     0
102
RTVSPost2010PropOp32
 70
     1
102
RTVSPost2010Prop33
280
     0
102
RTVSPost2010PropOp33
 70
     1
102
RTVSPost2010Prop34
280
     0
102
RTVSPost2010PropOp34
 70
     1
102
RTVSPost2010Prop35
280
     0
102
RTVSPost2010PropOp35
 70
     1
102
RTVSPost2010Prop36
280
     0
102
RTVSPost2010PropOp36
 70
     1
102
RTVSPost2010Prop37
 90
       50
102
RTVSPost2010PropOp37
 70
     1
102
RTVSPost2010Prop38
140
0.0
102
RTVSPost2010PropOp38
 70
     1
102
RTVSPost2010Prop39
140
1.0
102
RTVSPost2010PropOp39
 70
     1
102
RTVSPost2010Prop40
 90
        0
102
RTVSPost2010PropOp40
 70
     1
102
RTVSPost2010Prop41ColorIndex
 90
       18
102
RTVSPost2010Prop41ColorRGB
 90
        0
102
RTVSPost2010PropOp41
 70
     1
102
RTVSPost2010Prop42
 90
       50
102
RTVSPost2010PropOp42
 70
     1
102
RTVSPost2010Prop43
 90
        3
102
RTVSPost2010PropOp43
 70
     1
102
RTVSPost2010Prop44ColorIndex
 90
        5
102
RTVSPost2010Prop44ColorRGB
 90
      255
102
RTVSPost2010PropOp44
 70
     1
102
RTVSPost2010Prop45
280
     0
102
RTVSPost2010PropOp45
 70
     1
102
RTVSPost2010Prop46
 90
       50
102
RTVSPost2010PropOp46
 70
     1
102
RTVSPost2010Prop47
 90
       50
102
RTVSPost2010PropOp47
 70
     1
102
RTVSPost2010Prop48
 90
       50
102
RTVSPost2010PropOp48
 70
     1
102
RTVSPost2010Prop49
280
     0
102
RTVSPost2010PropOp49
 70
     1
102
RTVSPost2010Prop50
 90
       50
102
RTVSPost2010PropOp50
 70
     1
102
RTVSPost2010Prop51ColorIndex
 90
      256
102
RTVSPost2010Prop51ColorRGB
 90
-16777216
102
RTVSPost2010PropOp51
 70
     0
102
RTVSPost2010Prop52
140
1.0
102
RTVSPost2010PropOp52
 70
     0
102
RTVSPost2010Prop53
 90
        2
102
RTVSPost2010PropOp53
 70
     1
102
RTVSPost2010Prop54
  1
strokes_ogs.tif
102
RTVSPost2010PropOp54
 70
     1
102
RTVSPost2010Prop55
280
     0
102
RTVSPost2010PropOp55
 70
     1
102
RTVSPost2010Prop56
140
1.0
102
RTVSPost2010PropOp56
 70
     1
102
RTVSPost2010Prop57
140
1.0
102
RTVSPost2010PropOp57
 70
     1
  0
XRECORD
  5
22120
102
{ACAD_REACTORS
330
2211F
102
}
330
2211F
100
AcDbXrecord
280
     1
102
RTVSPost2010Prop28
280
     0
102
RTVSPost2010PropOp28
 70
     1
102
RTVSPost2010Prop29
280
     1
102
RTVSPost2010PropOp29
 70
     1
102
RTVSPost2010Prop30
280
     1
102
RTVSPost2010PropOp30
 70
     1
102
RTVSPost2010Prop31
280
     0
102
RTVSPost2010PropOp31
 70
     1
102
RTVSPost2010Prop32
280
     0
102
RTVSPost2010PropOp32
 70
     1
102
RTVSPost2010Prop33
280
     0
102
RTVSPost2010PropOp33
 70
     1
102
RTVSPost2010Prop34
280
     0
102
RTVSPost2010PropOp34
 70
     1
102
RTVSPost2010Prop35
280
     0
102
RTVSPost2010PropOp35
 70
     1
102
RTVSPost2010Prop36
280
     0
102
RTVSPost2010PropOp36
 70
     1
102
RTVSPost2010Prop37
 90
       50
102
RTVSPost2010PropOp37
 70
     1
102
RTVSPost2010Prop38
140
0.0
102
RTVSPost2010PropOp38
 70
     1
102
RTVSPost2010Prop39
140
1.0
102
RTVSPost2010PropOp39
 70
     1
102
RTVSPost2010Prop40
 90
        0
102
RTVSPost2010PropOp40
 70
     1
102
RTVSPost2010Prop41ColorIndex
 90
       18
102
RTVSPost2010Prop41ColorRGB
 90
        0
102
RTVSPost2010PropOp41
 70
     1
102
RTVSPost2010Prop42
 90
       50
102
RTVSPost2010PropOp42
 70
     1
102
RTVSPost2010Prop43
 90
        3
102
RTVSPost2010PropOp43
 70
     1
102
RTVSPost2010Prop44ColorIndex
 90
        5
102
RTVSPost2010Prop44ColorRGB
 90
      255
102
RTVSPost2010PropOp44
 70
     1
102
RTVSPost2010Prop45
280
     0
102
RTVSPost2010PropOp45
 70
     1
102
RTVSPost2010Prop46
 90
       50
102
RTVSPost2010PropOp46
 70
     1
102
RTVSPost2010Prop47
 90
       50
102
RTVSPost2010PropOp47
 70
     1
102
RTVSPost2010Prop48
 90
       50
102
RTVSPost2010PropOp48
 70
     1
102
RTVSPost2010Prop49
280
     0
102
RTVSPost2010PropOp49
 70
     1
102
RTVSPost2010Prop50
 90
       50
102
RTVSPost2010PropOp50
 70
     1
102
RTVSPost2010Prop51ColorIndex
 90
      256
102
RTVSPost2010Prop51ColorRGB
 90
-16777216
102
RTVSPost2010PropOp51
 70
     0
102
RTVSPost2010Prop52
140
1.0
102
RTVSPost2010PropOp52
 70
     0
102
RTVSPost2010Prop53
 90
        2
102
RTVSPost2010PropOp53
 70
     1
102
RTVSPost2010Prop54
  1
strokes_ogs.tif
102
RTVSPost2010PropOp54
 70
     1
102
RTVSPost2010Prop55
280
     0
102
RTVSPost2010PropOp55
 70
     1
102
RTVSPost2010Prop56
140
1.0
102
RTVSPost2010PropOp56
 70
     1
102
RTVSPost2010Prop57
140
1.0
102
RTVSPost2010PropOp57
 70
     1
  0
ENDSEC
  0
EOF
