  0
SECTION
  2
HEADER
  9
$ACADVER
  1
AC1024
  9
$ACADMAINTVER
 70
   182
  9
$DWGCODEPAGE
  3
ANSI_1252
  9
$LASTSAVEDBY
  1
kamerka
  9
$INSBASE
 10
0.0
 20
0.0
 30
0.0
  9
$EXTMIN
 10
-105.5159128346638
 20
-54.90062995849223
 30
-0.0000000000000129
  9
$EXTMAX
 10
74.33885731323994
 20
54.90387858518523
 30
0.0000000000000024
  9
$LIMMIN
 10
0.0
 20
0.0
  9
$LIMMAX
 10
420.0
 20
297.0
  9
$ORTHOMODE
 70
     0
  9
$REGENMODE
 70
     1
  9
$FILLMODE
 70
     1
  9
$QTEXTMODE
 70
     0
  9
$MIRRTEXT
 70
     0
  9
$LTSCALE
 40
23.1
  9
$ATTMODE
 70
     1
  9
$TEXTSIZE
 40
3.5
  9
$TRACEWID
 40
0.05
  9
$TEXTSTYLE
  7
STANDARD
  9
$CLAYER
  8
0
  9
$CELTYPE
  6
BYLAYER
  9
$CECOLOR
 62
   256
  9
$CELTSCALE
 40
1.0
  9
$DISPSILH
 70
     0
  9
$DIMSCALE
 40
1.0
  9
$DIMASZ
 40
4.57
  9
$DIMEXO
 40
0.0625
  9
$DIMDLI
 40
0.38
  9
$DIMRND
 40
0.0
  9
$DIMDLE
 40
0.0
  9
$DIMEXE
 40
0.18
  9
$DIMTP
 40
0.01
  9
$DIMTM
 40
0.01
  9
$DIMTXT
 40
3.5
  9
$DIMCEN
 40
0.09
  9
$DIMTSZ
 40
0.0
  9
$DIMTOL
 70
     0
  9
$DIMLIM
 70
     0
  9
$DIMTIH
 70
     0
  9
$DIMTOH
 70
     0
  9
$DIMSE1
 70
     0
  9
$DIMSE2
 70
     0
  9
$DIMTAD
 70
     1
  9
$DIMZIN
 70
     8
  9
$DIMBLK
  1

  9
$DIMASO
 70
     1
  9
$DIMSHO
 70
     1
  9
$DIMPOST
  1

  9
$DIMAPOST
  1

  9
$DIMALT
 70
     0
  9
$DIMALTD
 70
     2
  9
$DIMALTF
 40
25.4
  9
$DIMLFAC
 40
1.0
  9
$DIMTOFL
 70
     0
  9
$DIMTVP
 40
0.0
  9
$DIMTIX
 70
     0
  9
$DIMSOXD
 70
     0
  9
$DIMSAH
 70
     0
  9
$DIMBLK1
  1

  9
$DIMBLK2
  1

  9
$DIMSTYLE
  2
STANDARD
  9
$DIMCLRD
 70
     0
  9
$DIMCLRE
 70
     0
  9
$DIMCLRT
 70
     0
  9
$DIMTFAC
 40
1.0
  9
$DIMGAP
 40
0.09
  9
$DIMJUST
 70
     0
  9
$DIMSD1
 70
     0
  9
$DIMSD2
 70
     0
  9
$DIMTOLJ
 70
     1
  9
$DIMTZIN
 70
     8
  9
$DIMALTZ
 70
     0
  9
$DIMALTTZ
 70
     0
  9
$DIMUPT
 70
     0
  9
$DIMDEC
 70
     3
  9
$DIMTDEC
 70
     3
  9
$DIMALTU
 70
     2
  9
$DIMALTTD
 70
     2
  9
$DIMTXSTY
  7
STANDARD
  9
$DIMAUNIT
 70
     0
  9
$DIMADEC
 70
     0
  9
$DIMALTRND
 40
0.0
  9
$DIMAZIN
 70
     0
  9
$DIMDSEP
 70
    46
  9
$DIMATFIT
 70
     0
  9
$DIMFRAC
 70
     0
  9
$DIMLDRBLK
  1

  9
$DIMLUNIT
 70
     2
  9
$DIMLWD
 70
    -2
  9
$DIMLWE
 70
    -2
  9
$DIMTMOVE
 70
     0
  9
$DIMFXL
 40
1.0
  9
$DIMFXLON
 70
     0
  9
$DIMJOGANG
 40
0.7853981633974483
  9
$DIMTFILL
 70
     0
  9
$DIMTFILLCLR
 70
     0
  9
$DIMARCSYM
 70
     0
  9
$DIMLTYPE
  6

  9
$DIMLTEX1
  6

  9
$DIMLTEX2
  6

  9
$DIMTXTDIRECTION
 70
     0
  9
$LUNITS
 70
     2
  9
$LUPREC
 70
     4
  9
$SKETCHINC
 40
0.1
  9
$FILLETRAD
 40
0.0
  9
$AUNITS
 70
     0
  9
$AUPREC
 70
     0
  9
$MENU
  1
.
  9
$ELEVATION
 40
0.0
  9
$PELEVATION
 40
0.0
  9
$THICKNESS
 40
0.0
  9
$LIMCHECK
 70
     0
  9
$CHAMFERA
 40
0.0
  9
$CHAMFERB
 40
0.0
  9
$CHAMFERC
 40
0.0
  9
$CHAMFERD
 40
0.0
  9
$SKPOLY
 70
     0
  9
$TDCREATE
 40
2458446.405227107
  9
$TDUCREATE
 40
2458446.321893773
  9
$TDUPDATE
 40
2458975.562997107
  9
$TDUUPDATE
 40
2458975.479663773
  9
$TDINDWG
 40
0.0301718634
  9
$TDUSRTIMER
 40
0.0301707755
  9
$USRTIMER
 70
     1
  9
$ANGBASE
 50
0.0
  9
$ANGDIR
 70
     0
  9
$PDMODE
 70
     3
  9
$PDSIZE
 40
0.3125
  9
$PLINEWID
 40
0.0
  9
$SPLFRAME
 70
     0
  9
$SPLINETYPE
 70
     6
  9
$SPLINESEGS
 70
     8
  9
$HANDSEED
  5
221AF
  9
$SURFTAB1
 70
     6
  9
$SURFTAB2
 70
     6
  9
$SURFTYPE
 70
     6
  9
$SURFU
 70
     6
  9
$SURFV
 70
     6
  9
$UCSBASE
  2

  9
$UCSNAME
  2

  9
$UCSORG
 10
0.0
 20
0.0
 30
0.0
  9
$UCSXDIR
 10
1.0
 20
0.0
 30
0.0
  9
$UCSYDIR
 10
0.0
 20
1.0
 30
0.0
  9
$UCSORTHOREF
  2

  9
$UCSORTHOVIEW
 70
     0
  9
$UCSORGTOP
 10
0.0
 20
0.0
 30
0.0
  9
$UCSORGBOTTOM
 10
0.0
 20
0.0
 30
0.0
  9
$UCSORGLEFT
 10
0.0
 20
0.0
 30
0.0
  9
$UCSORGRIGHT
 10
0.0
 20
0.0
 30
0.0
  9
$UCSORGFRONT
 10
0.0
 20
0.0
 30
0.0
  9
$UCSORGBACK
 10
0.0
 20
0.0
 30
0.0
  9
$PUCSBASE
  2

  9
$PUCSNAME
  2

  9
$PUCSORG
 10
0.0
 20
0.0
 30
0.0
  9
$PUCSXDIR
 10
1.0
 20
0.0
 30
0.0
  9
$PUCSYDIR
 10
0.0
 20
1.0
 30
0.0
  9
$PUCSORTHOREF
  2

  9
$PUCSORTHOVIEW
 70
     0
  9
$PUCSORGTOP
 10
0.0
 20
0.0
 30
0.0
  9
$PUCSORGBOTTOM
 10
0.0
 20
0.0
 30
0.0
  9
$PUCSORGLEFT
 10
0.0
 20
0.0
 30
0.0
  9
$PUCSORGRIGHT
 10
0.0
 20
0.0
 30
0.0
  9
$PUCSORGFRONT
 10
0.0
 20
0.0
 30
0.0
  9
$PUCSORGBACK
 10
0.0
 20
0.0
 30
0.0
  9
$USERI1
 70
     0
  9
$USERI2
 70
     0
  9
$USERI3
 70
     0
  9
$USERI4
 70
     0
  9
$USERI5
 70
     0
  9
$USERR1
 40
0.0
  9
$USERR2
 40
0.0
  9
$USERR3
 40
0.0
  9
$USERR4
 40
0.0
  9
$USERR5
 40
0.0
  9
$WORLDVIEW
 70
     1
  9
$SHADEDGE
 70
     3
  9
$SHADEDIF
 70
    70
  9
$TILEMODE
 70
     1
  9
$MAXACTVP
 70
    64
  9
$PINSBASE
 10
0.0
 20
0.0
 30
0.0
  9
$PLIMCHECK
 70
     0
  9
$PEXTMIN
 10
28.69141678810127
 20
19.6363175392151
 30
0.0
  9
$PEXTMAX
 10
258.2227510929107
 20
176.7268578529358
 30
0.0
  9
$PLIMMIN
 10
-5.027069091796875
 20
-6.805083274841307
  9
$PLIMMAX
 10
291.9412536621094
 20
203.1682443618775
  9
$UNITMODE
 70
     0
  9
$VISRETAIN
 70
     1
  9
$PLINEGEN
 70
     0
  9
$PSLTSCALE
 70
     1
  9
$TREEDEPTH
 70
  3020
  9
$CMLSTYLE
  2
STANDARD
  9
$CMLJUST
 70
     0
  9
$CMLSCALE
 40
1.0
  9
$PROXYGRAPHICS
 70
     1
  9
$MEASUREMENT
 70
     1
  9
$CELWEIGHT
370
    -1
  9
$ENDCAPS
280
     0
  9
$JOINSTYLE
280
     0
  9
$LWDISPLAY
290
     0
  9
$INSUNITS
 70
     0
  9
$HYPERLINKBASE
  1

  9
$STYLESHEET
  1
A1-A2.CTB
  9
$XEDIT
290
     1
  9
$CEPSNTYPE
380
     0
  9
$PSTYLEMODE
290
     1
  9
$FINGERPRINTGUID
  2
{6D3BC7B5-ACA7-406D-8A0D-A7DBBE093430}
  9
$VERSIONGUID
  2
{9C393D30-BA29-4BA6-8735-A2840FC7E380}
  9
$EXTNAMES
290
     1
  9
$PSVPSCALE
 40
0.0
  9
$OLESTARTUP
290
     0
  9
$SORTENTS
280
   127
  9
$INDEXCTL
280
     0
  9
$HIDETEXT
280
     0
  9
$XCLIPFRAME
280
     2
  9
$HALOGAP
280
     0
  9
$OBSCOLOR
 70
   257
  9
$OBSLTYPE
280
     0
  9
$INTERSECTIONDISPLAY
280
     0
  9
$INTERSECTIONCOLOR
 70
   257
  9
$DIMASSOC
280
     1
  9
$PROJECTNAME
  1

  9
$CAMERADISPLAY
290
     0
  9
$LENSLENGTH
 40
50.0
  9
$CAMERAHEIGHT
 40
0.0
  9
$STEPSPERSEC
 40
2.0
  9
$STEPSIZE
 40
6.0
  9
$3DDWFPREC
 40
2.0
  9
$PSOLWIDTH
 40
0.25
  9
$PSOLHEIGHT
 40
4.0
  9
$LOFTANG1
 40
1.570796326794896
  9
$LOFTANG2
 40
1.570796326794896
  9
$LOFTMAG1
 40
0.0
  9
$LOFTMAG2
 40
0.0
  9
$LOFTPARAM
 70
     7
  9
$LOFTNORMALS
280
     1
  9
$LATITUDE
 40
37.795
  9
$LONGITUDE
 40
-122.394
  9
$NORTHDIRECTION
 40
0.0
  9
$TIMEZONE
 70
 -8000
  9
$LIGHTGLYPHDISPLAY
280
     1
  9
$TILEMODELIGHTSYNCH
280
     1
  9
$CMATERIAL
347
318C
  9
$SOLIDHIST
280
     0
  9
$SHOWHIST
280
     1
  9
$DWFFRAME
280
     2
  9
$DGNFRAME
280
     0
  9
$REALWORLDSCALE
290
     1
  9
$INTERFERECOLOR
 62
     1
  9
$INTERFEREOBJVS
345
3199
  9
$INTERFEREVPVS
346
1B2E3
  9
$CSHADOW
280
     0
  9
$SHADOWPLANELOCATION
 40
0.0
  0
ENDSEC
  0
SECTION
  2
CLASSES
  0
CLASS
  1
ACDBDICTIONARYWDFLT
  2
AcDbDictionaryWithDefault
  3
ObjectDBX Classes
 90
        0
 91
        1
280
     0
281
     0
  0
CLASS
  1
MATERIAL
  2
AcDbMaterial
  3
ObjectDBX Classes
 90
     1153
 91
        3
280
     0
281
     0
  0
CLASS
  1
VISUALSTYLE
  2
AcDbVisualStyle
  3
ObjectDBX Classes
 90
     4095
 91
       26
280
     0
281
     0
  0
CLASS
  1
TABLESTYLE
  2
AcDbTableStyle
  3
ObjectDBX Classes
 90
     4095
 91
        1
280
     0
281
     0
  0
CLASS
  1
SORTENTSTABLE
  2
AcDbSortentsTable
  3
ObjectDBX Classes
 90
        0
 91
        1
280
     0
281
     0
  0
CLASS
  1
DICTIONARYVAR
  2
AcDbDictionaryVar
  3
ObjectDBX Classes
 90
        0
 91
       12
280
     0
281
     0
  0
CLASS
  1
EXACXREFPANELOBJECT
  2
ExAcXREFPanelObject
  3
EXAC_ESW
 90
     1025
 91
        0
280
     1
281
     0
  0
CLASS
  1
NPOCOLLECTION
  2
AcDbImpNonPersistentObjectsCollection
  3
ObjectDBX Classes
 90
     1153
 91
        0
280
     1
281
     0
  0
CLASS
  1
SCALE
  2
AcDbScale
  3
ObjectDBX Classes
 90
     1153
 91
       33
280
     0
281
     0
  0
CLASS
  1
MLEADERSTYLE
  2
AcDbMLeaderStyle
  3
ACDB_MLEADERSTYLE_CLASS
 90
     4095
 91
        1
280
     0
281
     0
  0
CLASS
  1
ACDBSECTIONVIEWSTYLE
  2
AcDbSectionViewStyle
  3
ObjectDBX Classes
 90
     1025
 91
        2
280
     0
281
     0
  0
CLASS
  1
ACDBDETAILVIEWSTYLE
  2
AcDbDetailViewStyle
  3
ObjectDBX Classes
 90
     1025
 91
        2
280
     0
281
     0
  0
CLASS
  1
CELLSTYLEMAP
  2
AcDbCellStyleMap
  3
ObjectDBX Classes
 90
     1152
 91
        2
280
     0
281
     0
  0
CLASS
  1
ACAD_EVALUATION_GRAPH
  2
AcDbEvalGraph
  3
ObjectDBX Classes
 90
     1153
 91
        0
280
     0
281
     0
  0
CLASS
  1
ACAECUSTOBJ
  2
AcAeEditorObj
  3
AcAeEditorObj
 90
     1024
 91
        0
280
     0
281
     0
  0
CLASS
  1
ACDB_DYNAMICBLOCKPURGEPREVENTER_VERSION
  2
AcDbDynamicBlockPurgePreventer
  3
ObjectDBX Classes
 90
     1153
 91
        0
280
     0
281
     0
  0
CLASS
  1
FIELD
  2
AcDbField
  3
ObjectDBX Classes
 90
     1152
 91
        0
280
     0
281
     0
  0
CLASS
  1
FIELDLIST
  2
AcDbFieldList
  3
ObjectDBX Classes
 90
     1152
 91
        1
280
     0
281
     0
  0
CLASS
  1
ACDB_ALDIMOBJECTCONTEXTDATA_CLASS
  2
AcDbAlignedDimensionObjectContextData
  3
ObjectDBX Classes
 90
     1153
 91
        0
280
     0
281
     0
  0
ENDSEC
  0
SECTION
  2
TABLES
  0
TABLE
  2
VPORT
  5
8
330
0
100
AcDbSymbolTable
 70
     1
  0
VPORT
  5
1F4
330
8
100
AcDbSymbolTableRecord
100
AcDbViewportTableRecord
  2
*ACTIVE
 70
     0
 10
0.0
 20
0.0
 11
1.0
 21
1.0
 12
-15.58852776071195
 22
0.0016243133464968
 13
0.0
 23
0.0
 14
1.0
 24
1.0
 15
0.0
 25
0.0
 16
0.0
 26
0.0
 36
1.0
 17
0.0
 27
0.0
 37
0.0
 40
110.7456900454804
 41
2.698140200286123
 42
50.0
 43
0.0
 44
0.0
 50
0.0
 51
0.0
 71
     0
 72
  2000
 73
     1
 74
     1
 75
     0
 76
     0
 77
     0
 78
     0
281
     0
 65
     1
110
0.0
120
0.0
130
0.0
111
1.0
121
0.0
131
0.0
112
0.0
122
1.0
132
0.0
 79
     0
146
0.0
348
3195
 60
     3
 61
     5
292
     1
282
     1
141
0.0
142
0.0
 63
   250
421
  3355443
1001
ACAD_NAV_VCDISPLAY
1070
     3
  0
ENDTAB
  0
TABLE
  2
LTYPE
  5
5
330
0
100
AcDbSymbolTable
 70
     5
  0
LTYPE
  5
14
330
5
100
AcDbSymbolTableRecord
100
AcDbLinetypeTableRecord
  2
BYBLOCK
 70
     0
  3

 72
    65
 73
     0
 40
0.0
  0
LTYPE
  5
15
330
5
100
AcDbSymbolTableRecord
100
AcDbLinetypeTableRecord
  2
BYLAYER
 70
     0
  3

 72
    65
 73
     0
 40
0.0
  0
LTYPE
  5
16
330
5
100
AcDbSymbolTableRecord
100
AcDbLinetypeTableRecord
  2
CONTINUOUS
 70
     0
  3
Solid line
 72
    65
 73
     0
 40
0.0
  0
LTYPE
  5
9C48
330
5
100
AcDbSymbolTableRecord
100
AcDbLinetypeTableRecord
  2
CENTER
 70
     0
  3
____ _ ____ _ ____ _ ____ _ ____ _ ____ _ ____
 72
    65
 73
     4
 40
0.6
 49
0.375
 74
     0
 49
-0.075
 74
     0
 49
0.075
 74
     0
 49
-0.075
 74
     0
  0
LTYPE
  5
20A82
330
5
100
AcDbSymbolTableRecord
100
AcDbLinetypeTableRecord
  2
HIDDEN
 70
     0
  3
- - - - - - - - - - - - - - - - - - - -
 72
    65
 73
     2
 40
0.2
 49
0.1
 74
     0
 49
-0.1
 74
     0
  0
LTYPE
  5
21CB3
330
5
100
AcDbSymbolTableRecord
100
AcDbLinetypeTableRecord
  2
CENTER2
 70
     0
  3
Center (.5x) ___ _ ___ _ ___ _ ___ _ ___ _ ___
 72
    65
 73
     4
 40
28.57499999999999
 49
19.05
 74
     4
 75
     0
340
0
 46
1.0
 50
0.0
 44
0.0
 45
0.0
 49
-3.174999999999998
 74
     4
 75
     0
340
0
 46
1.0
 50
0.0
 44
0.0
 45
0.0
 49
3.174999999999998
 74
     4
 75
     0
340
0
 46
1.0
 50
0.0
 44
0.0
 45
0.0
 49
-3.174999999999998
 74
     4
 75
     0
340
0
 46
1.0
 50
0.0
 44
0.0
 45
0.0
  0
ENDTAB
  0
TABLE
  2
LAYER
  5
2
102
{ACAD_XDICTIONARY
360
422A
102
}
330
0
100
AcDbSymbolTable
 70
    15
  0
LAYER
  5
10
102
{ACAD_XDICTIONARY
360
1B2F5
102
}
330
2
100
AcDbSymbolTableRecord
100
AcDbLayerTableRecord
  2
0
 70
     0
 62
     7
  6
CONTINUOUS
370
    -3
390
318A
347
318E
  0
LAYER
  5
3F8C
102
{ACAD_XDICTIONARY
360
1B2F7
102
}
330
2
100
AcDbSymbolTableRecord
100
AcDbLayerTableRecord
  2
1
 70
     0
 62
     4
  6
BYBLOCK
370
    50
390
318A
347
318E
  0
LAYER
  5
3FA7
330
2
100
AcDbSymbolTableRecord
100
AcDbLayerTableRecord
  2
Defpoints
 70
     0
 62
     7
  6
CONTINUOUS
290
     0
370
    -3
390
318A
347
318E
  0
LAYER
  5
9C4A
102
{ACAD_XDICTIONARY
360
1B2F9
102
}
330
2
100
AcDbSymbolTableRecord
100
AcDbLayerTableRecord
  2
2
 70
     0
 62
     7
  6
BYBLOCK
370
    25
390
318A
347
318E
  0
LAYER
  5
9C4B
102
{ACAD_XDICTIONARY
360
1B2FB
102
}
330
2
100
AcDbSymbolTableRecord
100
AcDbLayerTableRecord
  2
4
 70
     0
 62
     2
  6
CENTER
370
    25
390
318A
347
318E
  0
LAYER
  5
9C4D
102
{ACAD_XDICTIONARY
360
1B2FD
102
}
330
2
100
AcDbSymbolTableRecord
100
AcDbLayerTableRecord
  2
CUT
 70
     0
 62
     1
  6
BYBLOCK
370
    25
390
318A
347
318E
  0
LAYER
  5
9C4E
102
{ACAD_XDICTIONARY
360
1B2FF
102
}
330
2
100
AcDbSymbolTableRecord
100
AcDbLayerTableRecord
  2
NOCUT
 70
     0
 62
     7
  6
BYBLOCK
370
    25
390
318A
347
318E
  0
LAYER
  5
9C4F
102
{ACAD_XDICTIONARY
360
1B301
102
}
330
2
100
AcDbSymbolTableRecord
100
AcDbLayerTableRecord
  2
SK2
 70
     0
 62
     7
  6
BYBLOCK
370
    25
390
318A
347
318E
  0
LAYER
  5
9C50
102
{ACAD_XDICTIONARY
360
1B303
102
}
330
2
100
AcDbSymbolTableRecord
100
AcDbLayerTableRecord
  2
SK1
 70
     0
 62
     4
  6
BYBLOCK
370
    50
390
318A
347
318E
  0
LAYER
  5
9C51
102
{ACAD_XDICTIONARY
360
1B305
102
}
330
2
100
AcDbSymbolTableRecord
100
AcDbLayerTableRecord
  2
SK4
 70
     0
 62
     2
  6
CENTER
370
    25
390
318A
347
318E
  0
LAYER
  5
13335
102
{ACAD_XDICTIONARY
360
1B307
102
}
330
2
100
AcDbSymbolTableRecord
100
AcDbLayerTableRecord
  2
INFTOTAL
 70
     0
 62
     9
  6
BYBLOCK
370
    18
390
318A
347
318E
1001
AcAecLayerStandard
1000

1000

  0
LAYER
  5
1686E
102
{ACAD_XDICTIONARY
360
1B309
102
}
330
2
100
AcDbSymbolTableRecord
100
AcDbLayerTableRecord
  2
SK6
 70
     0
 62
     5
  6
BYBLOCK
370
    -3
390
318A
347
318E
  0
LAYER
  5
21CB4
330
2
100
AcDbSymbolTableRecord
100
AcDbLayerTableRecord
  2
SK3
 70
     0
 62
     1
  6
HIDDEN
370
    35
390
318A
347
318E
  0
LAYER
  5
21CB5
330
2
100
AcDbSymbolTableRecord
100
AcDbLayerTableRecord
  2
SKVIEW1
 70
     0
 62
     4
  6
CONTINUOUS
370
    50
390
318A
347
318E
1001
AcAecLayerStandard
1000

1000

  0
LAYER
  5
21CB6
330
2
100
AcDbSymbolTableRecord
100
AcDbLayerTableRecord
  2
SKVIEW4
 70
     0
 62
     2
  6
CENTER2
370
    25
390
318A
347
318E
1001
AcAecLayerStandard
1000

1000

  0
ENDTAB
  0
TABLE
  2
STYLE
  5
3
330
0
100
AcDbSymbolTable
 70
     1
  0
STYLE
  5
11
330
3
100
AcDbSymbolTableRecord
100
AcDbTextStyleTableRecord
  2
STANDARD
 70
     0
 40
3.5
 41
0.8
 50
0.0
 71
     0
 42
3.5
  3
monos.ttf
  4

1001
ACAD
1000
Monospac821 BT
1071
       49
  0
ENDTAB
  0
TABLE
  2
VIEW
  5
6
330
0
100
AcDbSymbolTable
 70
     0
  0
ENDTAB
  0
TABLE
  2
UCS
  5
7
330
0
100
AcDbSymbolTable
 70
     0
  0
ENDTAB
  0
TABLE
  2
APPID
  5
9
330
0
100
AcDbSymbolTable
 70
    19
  0
APPID
  5
23B
330
9
100
AcDbSymbolTableRecord
100
AcDbRegAppTableRecord
  2
ACAD
 70
     0
  0
APPID
  5
3395
330
9
100
AcDbSymbolTableRecord
100
AcDbRegAppTableRecord
  2
ACAD_EXEMPT_FROM_CAD_STANDARDS
 70
     0
  0
APPID
  5
4229
330
9
100
AcDbSymbolTableRecord
100
AcDbRegAppTableRecord
  2
AcAecLayerStandard
 70
     0
  0
APPID
  5
9A1B
330
9
100
AcDbSymbolTableRecord
100
AcDbRegAppTableRecord
  2
ACAD_PSEXT
 70
     0
  0
APPID
  5
1B313
330
9
100
AcDbSymbolTableRecord
100
AcDbRegAppTableRecord
  2
ACAD_NAV_VCDISPLAY
 70
     0
  0
APPID
  5
1B355
330
9
100
AcDbSymbolTableRecord
100
AcDbRegAppTableRecord
  2
ACAD_MLEADERVER
 70
     0
  0
APPID
  5
1EC7F
330
9
100
AcDbSymbolTableRecord
100
AcDbRegAppTableRecord
  2
ACAUTHENVIRON
 70
     0
  0
APPID
  5
1EC82
330
9
100
AcDbSymbolTableRecord
100
AcDbRegAppTableRecord
  2
AcDbDynamicBlockTrueName
 70
     0
  0
APPID
  5
1EC83
330
9
100
AcDbSymbolTableRecord
100
AcDbRegAppTableRecord
  2
AcDbDynamicBlockGUID
 70
     0
  0
APPID
  5
20A85
330
9
100
AcDbSymbolTableRecord
100
AcDbRegAppTableRecord
  2
AcCmTransparency
 70
     0
  0
APPID
  5
20AE2
330
9
100
AcDbSymbolTableRecord
100
AcDbRegAppTableRecord
  2
ACAD_DSTYLE_DIMRADIAL_EXTENSION
 70
     0
  0
APPID
  5
20CB0
330
9
100
AcDbSymbolTableRecord
100
AcDbRegAppTableRecord
  2
AcadAnnotative
 70
     0
  0
APPID
  5
21667
330
9
100
AcDbSymbolTableRecord
100
AcDbRegAppTableRecord
  2
AcadAnnoMonitorAlertIconDisabled
 70
     0
  0
APPID
  5
21CB9
330
9
100
AcDbSymbolTableRecord
100
AcDbRegAppTableRecord
  2
ACAD_DSTYLE_DIMJAG
 70
     0
  0
APPID
  5
21CBA
330
9
100
AcDbSymbolTableRecord
100
AcDbRegAppTableRecord
  2
ACAD_DSTYLE_DIMTALN
 70
     0
  0
APPID
  5
21CBB
330
9
100
AcDbSymbolTableRecord
100
AcDbRegAppTableRecord
  2
ACAD_DSTYLE_DIM_LINETYPE
 70
     0
  0
APPID
  5
21CBC
330
9
100
AcDbSymbolTableRecord
100
AcDbRegAppTableRecord
  2
ACAD_DSTYLE_DIM_EXT1_LINETYPE
 70
     0
  0
APPID
  5
21CBD
330
9
100
AcDbSymbolTableRecord
100
AcDbRegAppTableRecord
  2
ACAD_DSTYLE_DIM_EXT2_LINETYPE
 70
     0
  0
APPID
  5
21CBE
330
9
100
AcDbSymbolTableRecord
100
AcDbRegAppTableRecord
  2
ACAD_DSTYLE_DIMARC_LENGTH_SYMBOL
 70
     0
  0
ENDTAB
  0
TABLE
  2
DIMSTYLE
  5
A
330
0
100
AcDbSymbolTable
 70
     2
100
AcDbDimStyleTable
 71
     1
340
243
  0
DIMSTYLE
105
243
102
{ACAD_REACTORS
330
21DF2
330
21DF1
330
21DF3
330
21DF0
330
21F0A
102
}
330
A
100
AcDbSymbolTableRecord
100
AcDbDimStyleTableRecord
  2
STANDARD
 70
     0
 41
4.57
 47
0.01
 48
0.01
 73
     0
 74
     0
 77
     1
 78
     8
140
3.5
271
     3
272
     3
284
     8
289
     0
340
11
  0
ENDTAB
  0
TABLE
  2
BLOCK_RECORD
  5
1
330
0
100
AcDbSymbolTable
 70
     7
  0
BLOCK_RECORD
  5
1F
102
{ACAD_XDICTIONARY
360
339C
102
}
330
1
100
AcDbSymbolTableRecord
100
AcDbBlockTableRecord
  2
*MODEL_SPACE
340
31A6
 70
     0
280
     1
281
     0
  0
BLOCK_RECORD
  5
1B
330
1
100
AcDbSymbolTableRecord
100
AcDbBlockTableRecord
  2
*PAPER_SPACE
340
31A7
 70
     0
280
     1
281
     0
  0
BLOCK_RECORD
  5
1B3D7
102
{ACAD_XDICTIONARY
360
1DE81
102
}
330
1
100
AcDbSymbolTableRecord
100
AcDbBlockTableRecord
  2
cero_point
340
0
310
28000000200000002000000001002000000000000010000001000000010000000000000000000000302821FF302821FF302821FF302821FF302821FF302821FF302821FF302821FF302821FF302821FF302821FF302821FF302821FF302821FF302821FF302821FF302821FF302821FF302821FF302821FF302821FF302821
310
FF302821FF302821FF302821FF302821FF302821FF302821FF302821FF302821FF302821FF302821FF302821FF302821FF302821FF302821FF302821FF302821FF302821FF302821FF302821FF302821FF302821FF302821FF302821FF302821FF302821FFFFFF00FFFFFF00FFFFFF00FF302821FF302821FF302821FF3028
310
21FF302821FF302821FF302821FF302821FF302821FF302821FF302821FF302821FF302821FF302821FF302821FF302821FF302821FF302821FF302821FF302821FF302821FF302821FF302821FF302821FFFFFF00FFFFFF00FFFFFF00FFFFFF00FFFFFF00FFFFFF00FFFFFF00FF302821FFFFFF00FFFFFF00FFFFFF00FF30
310
2821FF302821FF302821FF302821FF302821FF302821FF302821FF302821FF302821FF302821FF302821FF302821FF302821FF302821FF302821FF302821FF302821FF302821FF302821FFFFFF00FFFFFF00FFFFFF00FFFFFF00FFFFFF00FFFFFF00FFFFFF00FFFFFF00FFFFFF00FF302821FF302821FF302821FF302821FF
310
FFFF00FFFFFF00FF302821FF302821FF302821FF302821FF302821FF302821FF302821FF302821FF302821FF302821FF302821FF302821FF302821FF302821FF302821FF302821FFFFFF00FFFFFF00FFFFFF00FFFFFF00FFFFFF00FFFFFF00FFFFFF00FFFFFF00FFFFFF00FFFFFF00FF302821FF302821FF302821FF302821
310
FF302821FF302821FFFFFF00FFFFFF00FF302821FF302821FF302821FF302821FF302821FF302821FF302821FF302821FF302821FF302821FF302821FF302821FF302821FFFFFF00FFFFFF00FFFFFF00FFFFFF00FFFFFF00FFFFFF00FFFFFF00FFFFFF00FFFFFF00FFFFFF00FFFFFF00FF302821FF302821FF302821FF3028
310
21FF302821FF302821FF302821FF302821FFFFFF00FF302821FF302821FF302821FF302821FF302821FF302821FF302821FF302821FF302821FF302821FF302821FFFFFF00FFFFFF00FFFFFF00FFFFFF00FFFFFF00FFFFFF00FFFFFF00FFFFFF00FFFFFF00FFFFFF00FFFFFF00FFFFFF00FF302821FF302821FF302821FF30
310
2821FF302821FF302821FF302821FF302821FF302821FFFFFF00FF302821FF302821FF302821FF302821FF302821FF302821FF302821FF302821FF302821FFFFFF00FFFFFF00FFFFFF00FFFFFF00FFFFFF00FFFFFF00FFFFFF00FFFFFF00FFFFFF00FFFFFF00FFFFFF00FFFFFF00FFFFFF00FF302821FF302821FF302821FF
310
302821FF302821FF302821FF302821FF302821FF302821FF302821FFFFFF00FF302821FF302821FF302821FF302821FF302821FF302821FF302821FFFFFF00FFFFFF00FFFFFF00FFFFFF00FFFFFF00FFFFFF00FFFFFF00FFFFFF00FFFFFF00FFFFFF00FFFFFF00FFFFFF00FFFFFF00FFFFFF00FF302821FF302821FF302821
310
FF302821FF302821FF302821FF302821FF302821FF302821FF302821FFFFFF00FF302821FF302821FF302821FF302821FF302821FF302821FF302821FFFFFF00FFFFFF00FFFFFF00FFFFFF00FFFFFF00FFFFFF00FFFFFF00FFFFFF00FFFFFF00FFFFFF00FFFFFF00FFFFFF00FFFFFF00FFFFFF00FF302821FF302821FF3028
310
21FF302821FF302821FF302821FF302821FF302821FF302821FF302821FF302821FFFFFF00FF302821FF302821FF302821FF302821FF302821FFFFFF00FFFFFF00FFFFFF00FFFFFF00FFFFFF00FFFFFF00FFFFFF00FFFFFF00FFFFFF00FFFFFF00FFFFFF00FFFFFF00FFFFFF00FFFFFF00FFFFFF00FF302821FF302821FF30
310
2821FF302821FF302821FF302821FF302821FF302821FF302821FF302821FF302821FF302821FFFFFF00FF302821FF302821FF302821FF302821FFFFFF00FFFFFF00FFFFFF00FFFFFF00FFFFFF00FFFFFF00FFFFFF00FFFFFF00FFFFFF00FFFFFF00FFFFFF00FFFFFF00FFFFFF00FFFFFF00FFFFFF00FF302821FF302821FF
310
302821FF302821FF302821FF302821FF302821FF302821FF302821FF302821FF302821FF302821FFFFFF00FF302821FF302821FF302821FF302821FFFFFF00FFFFFF00FFFFFF00FFFFFF00FFFFFF00FFFFFF00FFFFFF00FFFFFF00FFFFFF00FFFFFF00FFFFFF00FFFFFF00FFFFFF00FFFFFF00FFFFFF00FF302821FF302821
310
FF302821FF302821FF302821FF302821FF302821FF302821FF302821FF302821FF302821FF302821FFFFFF00FF302821FF302821FF302821FF302821FFFFFF00FFFFFF00FFFFFF00FFFFFF00FFFFFF00FFFFFF00FFFFFF00FFFFFF00FFFFFF00FFFFFF00FFFFFF00FFFFFF00FFFFFF00FFFFFF00FFFFFF00FF302821FF3028
310
21FF302821FF302821FF302821FF302821FF302821FF302821FF302821FF302821FF302821FF302821FFFFFF00FF302821FF302821FF302821FFFFFF00FFFFFF00FFFFFF00FFFFFF00FFFFFF00FFFFFF00FFFFFF00FFFFFF00FFFFFF00FFFFFF00FFFFFF00FFFFFF00FFFFFF00FFFFFF00FFFFFF00FFFFFF00FF302821FF30
310
2821FF302821FF302821FF302821FF302821FF302821FF302821FF302821FF302821FF302821FF302821FF302821FFFFFF00FF302821FF302821FFFFFF00FFFFFF00FFFFFF00FFFFFF00FFFFFF00FFFFFF00FFFFFF00FFFFFF00FFFFFF00FFFFFF00FFFFFF00FFFFFF00FFFFFF00FFFFFF00FFFFFF00FFFFFF00FFFFFF00FF
310
FFFF00FFFFFF00FFFFFF00FFFFFF00FFFFFF00FFFFFF00FFFFFF00FFFFFF00FFFFFF00FFFFFF00FFFFFF00FFFFFF00FFFFFF00FF302821FF302821FFFFFF00FF302821FF302821FF302821FF302821FF302821FF302821FF302821FF302821FF302821FF302821FF302821FF302821FF302821FF302821FFFFFF00FFFFFF00
310
FFFFFF00FFFFFF00FFFFFF00FFFFFF00FFFFFF00FFFFFF00FFFFFF00FFFFFF00FFFFFF00FFFFFF00FFFFFF00FFFFFF00FFFFFF00FF302821FF302821FFFFFF00FF302821FF302821FF302821FF302821FF302821FF302821FF302821FF302821FF302821FF302821FF302821FF302821FF302821FF302821FFFFFF00FFFFFF
310
00FFFFFF00FFFFFF00FFFFFF00FFFFFF00FFFFFF00FFFFFF00FFFFFF00FFFFFF00FFFFFF00FFFFFF00FFFFFF00FFFFFF00FF302821FF302821FF302821FF302821FFFFFF00FF302821FF302821FF302821FF302821FF302821FF302821FF302821FF302821FF302821FF302821FF302821FF302821FF302821FFFFFF00FFFF
310
FF00FFFFFF00FFFFFF00FFFFFF00FFFFFF00FFFFFF00FFFFFF00FFFFFF00FFFFFF00FFFFFF00FFFFFF00FFFFFF00FFFFFF00FF302821FF302821FF302821FF302821FFFFFF00FF302821FF302821FF302821FF302821FF302821FF302821FF302821FF302821FF302821FF302821FF302821FF302821FF302821FFFFFF00FF
310
FFFF00FFFFFF00FFFFFF00FFFFFF00FFFFFF00FFFFFF00FFFFFF00FFFFFF00FFFFFF00FFFFFF00FFFFFF00FFFFFF00FFFFFF00FF302821FF302821FF302821FF302821FFFFFF00FF302821FF302821FF302821FF302821FF302821FF302821FF302821FF302821FF302821FF302821FF302821FF302821FF302821FFFFFF00
310
FFFFFF00FFFFFF00FFFFFF00FFFFFF00FFFFFF00FFFFFF00FFFFFF00FFFFFF00FFFFFF00FFFFFF00FFFFFF00FFFFFF00FFFFFF00FF302821FF302821FF302821FF302821FF302821FFFFFF00FF302821FF302821FF302821FF302821FF302821FF302821FF302821FF302821FF302821FF302821FF302821FF302821FFFFFF
310
00FFFFFF00FFFFFF00FFFFFF00FFFFFF00FFFFFF00FFFFFF00FFFFFF00FFFFFF00FFFFFF00FFFFFF00FFFFFF00FFFFFF00FFFFFF00FF302821FF302821FF302821FF302821FF302821FFFFFF00FF302821FF302821FF302821FF302821FF302821FF302821FF302821FF302821FF302821FF302821FF302821FF302821FFFF
310
FF00FFFFFF00FFFFFF00FFFFFF00FFFFFF00FFFFFF00FFFFFF00FFFFFF00FFFFFF00FFFFFF00FFFFFF00FFFFFF00FFFFFF00FF302821FF302821FF302821FF302821FF302821FF302821FF302821FFFFFF00FF302821FF302821FF302821FF302821FF302821FF302821FF302821FF302821FF302821FF302821FF302821FF
310
FFFF00FFFFFF00FFFFFF00FFFFFF00FFFFFF00FFFFFF00FFFFFF00FFFFFF00FFFFFF00FFFFFF00FFFFFF00FFFFFF00FFFFFF00FF302821FF302821FF302821FF302821FF302821FF302821FF302821FFFFFF00FF302821FF302821FF302821FF302821FF302821FF302821FF302821FF302821FF302821FF302821FF302821
310
FFFFFF00FFFFFF00FFFFFF00FFFFFF00FFFFFF00FFFFFF00FFFFFF00FFFFFF00FFFFFF00FFFFFF00FFFFFF00FFFFFF00FF302821FF302821FF302821FF302821FF302821FF302821FF302821FF302821FF302821FFFFFF00FF302821FF302821FF302821FF302821FF302821FF302821FF302821FF302821FF302821FF3028
310
21FFFFFF00FFFFFF00FFFFFF00FFFFFF00FFFFFF00FFFFFF00FFFFFF00FFFFFF00FFFFFF00FFFFFF00FFFFFF00FF302821FF302821FF302821FF302821FF302821FF302821FF302821FF302821FF302821FF302821FF302821FFFFFF00FF302821FF302821FF302821FF302821FF302821FF302821FF302821FF302821FF30
310
2821FFFFFF00FFFFFF00FFFFFF00FFFFFF00FFFFFF00FFFFFF00FFFFFF00FFFFFF00FFFFFF00FFFFFF00FF302821FF302821FF302821FF302821FF302821FF302821FF302821FF302821FF302821FF302821FF302821FF302821FF302821FFFFFF00FF302821FF302821FF302821FF302821FF302821FF302821FF302821FF
310
302821FFFFFF00FFFFFF00FFFFFF00FFFFFF00FFFFFF00FFFFFF00FFFFFF00FFFFFF00FFFFFF00FF302821FF302821FF302821FF302821FF302821FF302821FF302821FF302821FF302821FF302821FF302821FF302821FF302821FF302821FF302821FFFFFF00FFFFFF00FF302821FF302821FF302821FF302821FF302821
310
FF302821FFFFFF00FFFFFF00FFFFFF00FFFFFF00FFFFFF00FFFFFF00FFFFFF00FFFFFF00FF302821FF302821FF302821FF302821FF302821FF302821FF302821FF302821FF302821FF302821FF302821FF302821FF302821FF302821FF302821FF302821FF302821FF302821FFFFFF00FFFFFF00FFFFFF00FFFFFF00FFFFFF
310
00FF302821FFFFFF00FFFFFF00FFFFFF00FFFFFF00FFFFFF00FFFFFF00FF302821FF302821FF302821FF302821FF302821FF302821FF302821FF302821FF302821FF302821FF302821FF302821FF302821FF302821FF302821FF302821FF302821FF302821FF302821FF302821FF302821FF302821FF302821FF302821FF30
310
2821FFFFFF00FFFFFF00FFFFFF00FF302821FF302821FF302821FF302821FF302821FF302821FF302821FF302821FF302821FF302821FF302821FF302821FF302821FF302821FF302821FF302821FF302821FF302821FF302821FF302821FF302821FF302821FF302821FF302821FF302821FF302821FF302821FF302821FF
310
302821FF302821FF302821FF302821FF302821FF302821FF302821FF302821FF302821FF302821FF302821FF302821FF302821FF302821FF302821FF302821FF302821FF302821FF
102
{BLKREFS
331
21DE8
102
}
 70
     0
280
     1
281
     1
  0
BLOCK_RECORD
  5
21F0B
330
1
100
AcDbSymbolTableRecord
100
AcDbBlockTableRecord
  2
*D1
340
0
 70
     0
280
     1
281
     0
  0
BLOCK_RECORD
  5
21F15
330
1
100
AcDbSymbolTableRecord
100
AcDbBlockTableRecord
  2
*D2
340
0
 70
     0
280
     1
281
     0
  0
BLOCK_RECORD
  5
21F21
330
1
100
AcDbSymbolTableRecord
100
AcDbBlockTableRecord
  2
*D3
340
0
 70
     0
280
     1
281
     0
  0
BLOCK_RECORD
  5
21F2D
330
1
100
AcDbSymbolTableRecord
100
AcDbBlockTableRecord
  2
*D4
340
0
 70
     0
280
     1
281
     0
  0
BLOCK_RECORD
  5
21F3B
330
1
100
AcDbSymbolTableRecord
100
AcDbBlockTableRecord
  2
*D5
340
0
 70
     0
280
     1
281
     0
  0
ENDTAB
  0
ENDSEC
  0
SECTION
  2
BLOCKS
  0
BLOCK
  5
20
330
1F
100
AcDbEntity
  8
0
100
AcDbBlockBegin
  2
*MODEL_SPACE
 70
     0
 10
0.0
 20
0.0
 30
0.0
  3
*MODEL_SPACE
  1

  0
ENDBLK
  5
21
330
1F
100
AcDbEntity
  8
0
100
AcDbBlockEnd
  0
BLOCK
  5
1C
330
1B
100
AcDbEntity
 67
     1
  8
0
100
AcDbBlockBegin
  2
*PAPER_SPACE
 70
     0
 10
0.0
 20
0.0
 30
0.0
  3
*PAPER_SPACE
  1

  0
ENDBLK
  5
1D
330
1B
100
AcDbEntity
 67
     1
  8
0
100
AcDbBlockEnd
  0
BLOCK
  5
1B3D8
330
1B3D7
100
AcDbEntity
  8
0
100
AcDbBlockBegin
  2
cero_point
 70
     0
 10
0.0
 20
0.0
 30
0.0
  3
cero_point
  1

  0
HATCH
  5
1B3DA
330
1B3D7
100
AcDbEntity
  8
1
  6
ByBlock
370
    50
100
AcDbHatch
 10
0.0
 20
0.0
 30
0.0
210
0.0
220
0.0
230
1.0
  2
SOLID
 70
     1
 71
     0
 91
        2
 92
        7
 72
     1
 73
     1
 93
        3
 10
-0.0000000000001137
 20
0.0
 42
0.0
 10
-2.950972054112752
 20
0.0
 42
0.4142135623730968
 10
-0.0000000000001137
 20
-2.950972054112583
 42
0.0
 97
        0
 92
        7
 72
     1
 73
     1
 93
        3
 10
-0.0000000000001137
 20
2.950972054112638
 42
0.0
 10
-0.0000000000001137
 20
0.0
 42
0.0
 10
2.950972054112526
 20
0.0
 42
0.4142135623730966
 97
        0
 75
     0
 76
     1
 47
0.1190009775223266
 98
        2
 10
-0.7445530588121301
 20
-0.9212244733764125
 10
1.279464601852737
 20
1.696796923046345
450
        0
451
        0
460
0.0
461
0.0
452
        0
462
0.0
453
        0
470

  0
LWPOLYLINE
  5
1B3DB
330
1B3D7
100
AcDbEntity
  8
1
  6
ByBlock
370
    50
100
AcDbPolyline
 90
        3
 70
     1
 43
0.0
 10
-0.0000000000001137
 20
0.0
 10
2.950972054112526
 20
0.0
 42
0.4142135623730966
 10
-0.0000000000001137
 20
2.950972054112638
  0
LINE
  5
1B3DC
330
1B3D7
100
AcDbEntity
  8
1
  6
ByBlock
370
    50
100
AcDbLine
 10
-0.0000000000001137
 20
-2.950972054112583
 30
0.0
 11
-0.0000000000001137
 21
2.950972054112638
 31
0.0
  0
LWPOLYLINE
  5
1B3DD
330
1B3D7
100
AcDbEntity
  8
1
  6
ByBlock
370
    50
100
AcDbPolyline
 90
        3
 70
     1
 43
0.0
 10
-0.0000000000001137
 20
-2.950972054112583
 10
-0.0000000000001137
 20
0.0
 10
-2.950972054112752
 20
0.0
 42
0.4142135623730966
  0
LINE
  5
1B3DE
330
1B3D7
100
AcDbEntity
  8
1
  6
ByBlock
370
    50
100
AcDbLine
 10
2.950972054112638
 20
0.0
 30
0.0
 11
-2.950972054112638
 21
0.0
 31
0.0
  0
CIRCLE
  5
1B3DF
330
1B3D7
100
AcDbEntity
  8
1
  6
ByBlock
370
    50
100
AcDbCircle
 10
-0.0000000000001137
 20
0.0
 30
0.0
 40
2.950972054112601
  0
ENDBLK
  5
1B3D9
330
1B3D7
100
AcDbEntity
  8
0
100
AcDbBlockEnd
  0
BLOCK
  5
21F0C
330
21F0B
100
AcDbEntity
  8
0
100
AcDbBlockBegin
  2
*D1
 70
     1
 10
0.0
 20
0.0
 30
0.0
  3
*D1
  1

  0
LINE
  5
220D2
330
21F0B
100
AcDbEntity
  8
SK2
 62
     0
440
 16777216
370
    -2
100
AcDbLine
 10
-13.0625
 20
6.399999999999983
 30
0.0
 11
-26.89620145057381
 21
6.399999999999987
 31
0.0
  0
LINE
  5
220D3
330
21F0B
100
AcDbEntity
  8
SK2
 62
     0
440
 16777216
370
    -2
100
AcDbLine
 10
-13.0625
 20
-6.400000000000027
 30
0.0
 11
-26.89620145057381
 21
-6.400000000000022
 31
0.0
  0
LINE
  5
220D4
330
21F0B
100
AcDbEntity
  8
SK2
 62
     0
440
 16777216
370
    -2
100
AcDbLine
 10
-26.71620145057381
 20
1.829999999999987
 30
0.0
 11
-26.71620145057381
 21
-1.830000000000022
 31
0.0
  0
SOLID
  5
220D5
330
21F0B
100
AcDbEntity
  8
SK2
 62
     0
440
 16777216
100
AcDbTrace
 10
-27.47786811724048
 20
1.829999999999987
 30
0.0
 11
-25.95453478390715
 21
1.829999999999986
 31
0.0
 12
-26.71620145057381
 22
6.399999999999987
 32
0.0
 13
-26.71620145057381
 23
6.399999999999987
 33
0.0
  0
SOLID
  5
220D6
330
21F0B
100
AcDbEntity
  8
SK2
 62
     0
440
 16777216
100
AcDbTrace
 10
-27.47786811724048
 20
-1.830000000000022
 30
0.0
 11
-25.95453478390715
 21
-1.830000000000022
 31
0.0
 12
-26.71620145057381
 22
-6.400000000000022
 32
0.0
 13
-26.71620145057381
 23
-6.400000000000022
 33
0.0
  0
MTEXT
  5
220D7
330
21F0B
100
AcDbEntity
  8
SK2
 62
     0
440
 16777216
100
AcDbMText
 10
-28.66934270145223
 20
-2.005235274345031
 30
0.0
 40
3.5
 41
0.0
 46
0.0
 71
     5
 72
     1
  1
\A1;%%C12.8
 11
0.0000000000000001
 21
1.0
 31
0.0
 73
     1
 44
1.0
  0
POINT
  5
220D8
330
21F0B
100
AcDbEntity
  8
Defpoints
 62
     0
440
 16777216
100
AcDbPoint
 10
-13.0
 20
6.399999999999983
 30
0.0
  0
POINT
  5
220D9
330
21F0B
100
AcDbEntity
  8
Defpoints
 62
     0
440
 16777216
100
AcDbPoint
 10
-13.0
 20
-6.400000000000027
 30
0.0
  0
POINT
  5
220DA
330
21F0B
100
AcDbEntity
  8
Defpoints
 62
     0
440
 16777216
100
AcDbPoint
 10
-26.71620145057381
 20
-6.400000000000022
 30
0.0
  0
ENDBLK
  5
21F0D
330
21F0B
100
AcDbEntity
  8
0
100
AcDbBlockEnd
  0
BLOCK
  5
21F16
330
21F15
100
AcDbEntity
  8
0
100
AcDbBlockBegin
  2
*D2
 70
     1
 10
0.0
 20
0.0
 30
0.0
  3
*D2
  1

  0
LINE
  5
220AC
330
21F15
100
AcDbEntity
  8
2
 62
     0
440
 16777216
370
    -2
100
AcDbLine
 10
26.67250000000019
 20
9.449999999999967
 30
0.0
 11
42.40373200000031
 21
9.44999999999996
 31
0.0
  0
LINE
  5
220AD
330
21F15
100
AcDbEntity
  8
2
 62
     0
440
 16777216
370
    -2
100
AcDbLine
 10
26.67250000000019
 20
-9.450000000000008
 30
0.0
 11
42.40373200000031
 21
-9.450000000000015
 31
0.0
  0
LINE
  5
220AE
330
21F15
100
AcDbEntity
  8
2
 62
     0
440
 16777216
370
    -2
100
AcDbLine
 10
42.22373200000031
 20
4.879999999999959
 30
0.0
 11
42.22373200000031
 21
-4.880000000000014
 31
0.0
  0
SOLID
  5
220AF
330
21F15
100
AcDbEntity
  8
2
 62
     0
440
 16777216
100
AcDbTrace
 10
41.46206533333365
 20
4.87999999999996
 30
0.0
 11
42.985398666667
 21
4.879999999999959
 31
0.0
 12
42.22373200000031
 22
9.44999999999996
 32
0.0
 13
42.22373200000031
 23
9.44999999999996
 33
0.0
  0
SOLID
  5
220B0
330
21F15
100
AcDbEntity
  8
2
 62
     0
440
 16777216
100
AcDbTrace
 10
41.46206533333365
 20
-4.880000000000014
 30
0.0
 11
42.985398666667
 21
-4.880000000000014
 31
0.0
 12
42.22373200000031
 22
-9.450000000000015
 32
0.0
 13
42.22373200000031
 23
-9.450000000000015
 33
0.0
  0
MTEXT
  5
220B1
330
21F15
100
AcDbEntity
  8
2
 62
     0
440
 16777216
100
AcDbMText
 10
40.32224218974032
 20
-0.1308668181773311
 30
0.0
 40
3.5
 41
0.0
 46
0.0
 71
     5
 72
     1
  1
\A1;18.9
 11
0.0000000000000001
 21
1.0
 31
0.0
 73
     1
 44
1.0
  0
POINT
  5
220B2
330
21F15
100
AcDbEntity
  8
Defpoints
 62
     0
440
 16777216
100
AcDbPoint
 10
26.61000000000019
 20
9.449999999999967
 30
0.0
  0
POINT
  5
220B3
330
21F15
100
AcDbEntity
  8
Defpoints
 62
     0
440
 16777216
100
AcDbPoint
 10
26.61000000000019
 20
-9.450000000000008
 30
0.0
  0
POINT
  5
220B4
330
21F15
100
AcDbEntity
  8
Defpoints
 62
     0
440
 16777216
100
AcDbPoint
 10
42.22373200000031
 20
-9.450000000000015
 30
0.0
  0
ENDBLK
  5
21F17
330
21F15
100
AcDbEntity
  8
0
100
AcDbBlockEnd
  0
BLOCK
  5
21F22
330
21F21
100
AcDbEntity
  8
0
100
AcDbBlockBegin
  2
*D3
 70
     1
 10
0.0
 20
0.0
 30
0.0
  3
*D3
  1

  0
LINE
  5
220B5
330
21F21
100
AcDbEntity
  8
2
 62
     0
440
 16777216
370
    -2
100
AcDbLine
 10
30.27000104065266
 20
0.062499999991315
 30
0.0
 11
30.27063825012593
 21
38.33232557098068
 31
0.0
  0
LINE
  5
220B6
330
21F21
100
AcDbEntity
  8
2
 62
     0
440
 16777216
370
    -2
100
AcDbLine
 10
0.0000010406525632
 20
15.69407599999131
 30
0.0
 11
0.0003779858837319
 21
38.33282958416367
 31
0.0
  0
LINE
  5
220B7
330
21F21
100
AcDbEntity
  8
2
 62
     0
440
 16777216
370
    -2
100
AcDbLine
 10
25.70063525368003
 20
38.15240166352106
 30
0.0
 11
4.570374988170863
 21
38.1527534916732
 31
0.0
  0
SOLID
  5
220B8
330
21F21
100
AcDbEntity
  8
2
 62
     0
440
 16777216
100
AcDbTrace
 10
25.70064793576593
 20
38.91406833008214
 30
0.0
 11
25.70062257159412
 21
37.39073499695997
 31
0.0
 12
30.27063525304654
 22
38.15232557100563
 32
0.0
 13
30.27063525304654
 23
38.15232557100563
 33
0.0
  0
SOLID
  5
220B9
330
21F21
100
AcDbEntity
  8
2
 62
     0
440
 16777216
100
AcDbTrace
 10
4.570387670256766
 20
38.91442015823429
 30
0.0
 11
4.57036230608496
 21
37.39108682511212
 31
0.0
 12
0.0003749888043499
 22
38.15282958418862
 32
0.0
 13
0.0003749888043499
 23
38.15282958418862
 33
0.0
  0
MTEXT
  5
220BA
330
21F21
100
AcDbEntity
  8
2
 62
     0
440
 16777216
100
AcDbMText
 10
15.1351054446688
 20
40.0540673947755
 30
0.0
 40
3.5
 41
0.0
 46
0.0
 71
     5
 72
     1
  1
\A1;30.27
 11
0.9999999998613814
 21
-0.000016650441011
 31
0.0
 73
     1
 44
1.0
  0
POINT
  5
220BB
330
21F21
100
AcDbEntity
  8
Defpoints
 62
     0
440
 16777216
100
AcDbPoint
 10
30.2700000000001
 20
-0.0000000000000213
 30
0.0
  0
POINT
  5
220BC
330
21F21
100
AcDbEntity
  8
Defpoints
 62
     0
440
 16777216
100
AcDbPoint
 10
0.0
 20
15.63157599999997
 30
0.0
  0
POINT
  5
220BD
330
21F21
100
AcDbEntity
  8
Defpoints
 62
     0
440
 16777216
100
AcDbPoint
 10
0.0003749888043499
 20
38.15282958418862
 30
0.0
  0
ENDBLK
  5
21F23
330
21F21
100
AcDbEntity
  8
0
100
AcDbBlockEnd
  0
BLOCK
  5
21F2E
330
21F2D
100
AcDbEntity
  8
0
100
AcDbBlockBegin
  2
*D4
 70
     1
 10
0.0
 20
0.0
 30
0.0
  3
*D4
  1

  0
LINE
  5
220BE
330
21F2D
100
AcDbEntity
  8
2
 62
     0
440
 16777216
370
    -2
100
AcDbLine
 10
30.27000104065266
 20
0.062499999991315
 30
0.0
 11
30.2704550952748
 21
27.33232557250536
 31
0.0
  0
LINE
  5
220BF
330
21F2D
100
AcDbEntity
  8
2
 62
     0
440
 16777216
370
    -2
100
AcDbLine
 10
25.81000104065257
 20
15.2624999999913
 30
0.0
 11
25.81020200980785
 21
27.33239983768627
 31
0.0
  0
LINE
  5
220C0
330
21F2D
100
AcDbEntity
  8
2
 62
     0
440
 16777216
370
    -2
100
AcDbLine
 10
34.84045209756193
 20
27.1522494800149
 30
0.0
 11
39.41045209692845
 21
27.15217338749948
 31
0.0
  0
LINE
  5
220C1
330
21F2D
100
AcDbEntity
  8
2
 62
     0
440
 16777216
370
    -2
100
AcDbLine
 10
21.24019901336196
 20
27.15247593022664
 30
0.0
 11
7.212616443275516
 21
27.15270949566278
 31
0.0
  0
LINE
  5
220C2
330
21F2D
100
AcDbEntity
  8
2
 62
     0
440
 16777216
370
    -2
100
AcDbLine
 10
30.27045209819542
 20
27.15232557253032
 30
0.0
 11
25.81019901272847
 21
27.15239983771122
 31
0.0
  0
SOLID
  5
220C3
330
21F2D
100
AcDbEntity
  8
2
 62
     0
440
 16777216
100
AcDbTrace
 10
34.84046477964783
 20
27.91391614657598
 30
0.0
 11
34.84043941547604
 21
26.39058281345381
 31
0.0
 12
30.27045209819542
 22
27.15232557253032
 32
0.0
 13
30.27045209819542
 23
27.15232557253032
 33
0.0
  0
SOLID
  5
220C4
330
21F2D
100
AcDbEntity
  8
2
 62
     0
440
 16777216
100
AcDbTrace
 10
21.24021169544786
 20
27.91414259678772
 30
0.0
 11
21.24018633127605
 21
26.39080926366555
 31
0.0
 12
25.81019901272847
 22
27.15239983771122
 32
0.0
 13
25.81019901272847
 23
27.15239983771122
 33
0.0
  0
MTEXT
  5
220C5
330
21F2D
100
AcDbEntity
  8
2
 62
     0
440
 16777216
100
AcDbMText
 10
11.9414393892794
 20
29.05412056919885
 30
0.0
 40
3.5
 41
0.0
 46
0.0
 71
     5
 72
     1
  1
\A1;4.46
 11
0.9999999998613814
 21
-0.000016650441011
 31
0.0
 73
     1
 44
1.0
  0
POINT
  5
220C6
330
21F2D
100
AcDbEntity
  8
Defpoints
 62
     0
440
 16777216
100
AcDbPoint
 10
30.2700000000001
 20
-0.0000000000000213
 30
0.0
  0
POINT
  5
220C7
330
21F2D
100
AcDbEntity
  8
Defpoints
 62
     0
440
 16777216
100
AcDbPoint
 10
25.81
 20
15.19999999999997
 30
0.0
  0
POINT
  5
220C8
330
21F2D
100
AcDbEntity
  8
Defpoints
 62
     0
440
 16777216
100
AcDbPoint
 10
25.81019901272847
 20
27.15239983771122
 30
0.0
  0
ENDBLK
  5
21F2F
330
21F2D
100
AcDbEntity
  8
0
100
AcDbBlockEnd
  0
BLOCK
  5
21F3C
330
21F3B
100
AcDbEntity
  8
0
100
AcDbBlockBegin
  2
*D5
 70
     1
 10
0.0
 20
0.0
 30
0.0
  3
*D5
  1

  0
LINE
  5
220C9
330
21F3B
100
AcDbEntity
  8
2
 62
     0
440
 16777216
370
    -2
100
AcDbLine
 10
25.07249999999794
 20
-16.0000005203263
 30
0.0
 11
56.40359879430288
 21
-16.00026135863246
 31
0.0
  0
LINE
  5
220CA
330
21F3B
100
AcDbEntity
  8
2
 62
     0
440
 16777216
370
    -2
100
AcDbLine
 10
25.07249999999794
 20
15.99999947967378
 30
0.0
 11
56.40386520135906
 21
15.99973863914972
 31
0.0
  0
LINE
  5
220CB
330
21F3B
100
AcDbEntity
  8
2
 62
     0
440
 16777216
370
    -2
100
AcDbLine
 10
56.22363684056683
 20
-11.43025986025114
 30
0.0
 11
56.22382715510757
 21
11.42974013784778
 31
0.0
  0
SOLID
  5
220CC
330
21F3B
100
AcDbEntity
  8
2
 62
     0
440
 16777216
100
AcDbTrace
 10
55.46197017392657
 20
-11.43025351920819
 30
0.0
 11
56.9853035072071
 21
-11.43026620129409
 31
0.0
 12
56.22359879430912
 22
-16.00025986009277
 32
0.0
 13
56.22359879430912
 23
-16.00025986009277
 33
0.0
  0
SOLID
  5
220CD
330
21F3B
100
AcDbEntity
  8
2
 62
     0
440
 16777216
100
AcDbTrace
 10
55.46216048846731
 20
11.42974647889073
 30
0.0
 11
56.98549382174785
 21
11.42973379680483
 31
0.0
 12
56.22386520136529
 22
15.99974013768941
 32
0.0
 13
56.22386520136529
 23
15.99974013768941
 33
0.0
  0
MTEXT
  5
220CE
330
21F3B
100
AcDbEntity
  8
2
 62
     0
440
 16777216
100
AcDbMText
 10
54.27059074918986
 20
0.0000162603316922
 30
0.0
 40
3.5
 41
0.0
 46
0.0
 71
     5
 72
     1
  1
\A1;%%c32
 11
0.0000083252205058
 21
0.9999999999653454
 31
0.0
 73
     1
 44
1.0
  0
POINT
  5
220CF
330
21F3B
100
AcDbEntity
  8
Defpoints
 62
     0
440
 16777216
100
AcDbPoint
 10
25.01000000000011
 20
-16.00000000000002
 30
0.0
  0
POINT
  5
220D0
330
21F3B
100
AcDbEntity
  8
Defpoints
 62
     0
440
 16777216
100
AcDbPoint
 10
25.0100000000001
 20
16.00000000000006
 30
0.0
  0
POINT
  5
220D1
330
21F3B
100
AcDbEntity
  8
Defpoints
 62
     0
440
 16777216
100
AcDbPoint
 10
56.22386520136529
 20
15.99974013768941
 30
0.0
  0
ENDBLK
  5
21F3D
330
21F3B
100
AcDbEntity
  8
0
100
AcDbBlockEnd
  0
ENDSEC
  0
SECTION
  2
ENTITIES
  0
MTEXT
  5
211A0
330
1F
100
AcDbEntity
  8
SK6
100
AcDbMText
 10
-12.6260765043263
 20
-31.98749948129928
 30
0.0
 40
3.5
 41
41.87058589293636
 46
0.0
 71
     2
 72
     1
  1
CD3200030YJR00
 73
     1
 44
1.0
1001
ACAD
1000
MTEXTBEGIN
1070
    73
1070
     1
1070
    44
1040
1.0
1070
    74
1070
     0
1000
MTEXTEND
  0
INSERT
  5
21DE8
330
1F
100
AcDbEntity
  8
1
100
AcDbBlockReference
  2
cero_point
 10
-0.000000000003638
 20
-0.0000000000000213
 30
0.0
  0
LINE
  5
21DEC
330
1F
100
AcDbEntity
  8
INFTOTAL
100
AcDbLine
 10
-105.4925224949311
 20
11.30179658868244
 30
0.0
 11
-105.4925224949311
 21
54.8935189849212
 31
0.0
  0
LINE
  5
21DED
330
1F
100
AcDbEntity
  8
INFTOTAL
100
AcDbLine
 10
-105.4925224949311
 20
54.8935189849212
 30
0.0
 11
-49.08873612617207
 21
54.8935189849212
 31
0.0
  0
LINE
  5
21DEE
330
1F
100
AcDbEntity
  8
INFTOTAL
100
AcDbLine
 10
18.95002641296651
 20
-54.88614966926072
 30
0.0
 11
74.30880766405064
 21
-54.88614966926072
 31
0.0
  0
LINE
  5
21DEF
330
1F
100
AcDbEntity
  8
INFTOTAL
100
AcDbLine
 10
74.30880766405064
 20
-54.88614966926072
 30
0.0
 11
74.30880766405064
 21
-14.43803347266616
 31
0.0
  0
DIMENSION
  5
21DF0
330
1F
100
AcDbEntity
  8
2
100
AcDbDimension
280
     0
  2
*D2
 10
42.22373200000031
 20
-9.450000000000015
 30
0.0
 11
42.22373200000031
 21
-0.1308668181773314
 31
0.0
 70
   161
 71
     5
 42
18.89999999999998
 73
     0
 74
     0
 75
     0
  3
STANDARD
100
AcDbAlignedDimension
 13
26.61000000000019
 23
9.449999999999967
 33
0.0
 14
26.61000000000019
 24
-9.450000000000008
 34
0.0
1001
ACAD_DSTYLE_DIMARC_LENGTH_SYMBOL
1070
   379
1070
     1
1001
ACAD_DSTYLE_DIM_LINETYPE
1070
   380
1005
14
1001
ACAD_DSTYLE_DIM_EXT1_LINETYPE
1070
   381
1005
14
1001
ACAD_DSTYLE_DIM_EXT2_LINETYPE
1070
   382
1005
14
1001
ACAD
1000
DSTYLE
1002
{
1070
   172
1070
     1
1002
}
  0
DIMENSION
  5
21DF1
330
1F
100
AcDbEntity
  8
2
100
AcDbDimension
280
     0
  2
*D3
 10
0.0003749888043499
 20
38.15282958418862
 30
0.0
 11
15.13507378402488
 21
38.15257758477907
 31
0.0
 70
   160
 71
     5
 42
30.27026026843821
 73
     0
 74
     0
 75
     0
  3
STANDARD
100
AcDbAlignedDimension
 13
30.2700000000001
 23
-0.0000000000000213
 33
0.0
 14
0.0
 24
15.63157599999997
 34
0.0
 50
179.999046000003
100
AcDbRotatedDimension
1001
ACAD_DSTYLE_DIMARC_LENGTH_SYMBOL
1070
   379
1070
     1
1001
ACAD_DSTYLE_DIM_LINETYPE
1070
   380
1005
14
1001
ACAD_DSTYLE_DIM_EXT1_LINETYPE
1070
   381
1005
14
1001
ACAD_DSTYLE_DIM_EXT2_LINETYPE
1070
   382
1005
14
1001
ACAD
1000
DSTYLE
1002
{
1070
   172
1070
     1
1002
}
  0
DIMENSION
  5
21DF2
330
1F
100
AcDbEntity
  8
2
100
AcDbDimension
280
     0
  2
*D4
 10
25.81019901272847
 20
27.15239983771122
 30
0.0
 11
11.94140772863548
 21
27.15263075920243
 31
0.0
 70
   160
 71
     5
 42
4.460253086085223
 73
     0
 74
     0
 75
     0
  3
STANDARD
100
AcDbAlignedDimension
 13
30.2700000000001
 23
-0.0000000000000213
 33
0.0
 14
25.81
 24
15.19999999999997
 34
0.0
 50
179.999046000003
100
AcDbRotatedDimension
1001
ACAD_DSTYLE_DIMARC_LENGTH_SYMBOL
1070
   379
1070
     1
1001
ACAD_DSTYLE_DIM_LINETYPE
1070
   380
1005
14
1001
ACAD_DSTYLE_DIM_EXT1_LINETYPE
1070
   381
1005
14
1001
ACAD_DSTYLE_DIM_EXT2_LINETYPE
1070
   382
1005
14
1001
ACAD
1000
DSTYLE
1002
{
1070
   172
1070
     1
1002
}
  0
DIMENSION
  5
21DF3
330
1F
100
AcDbEntity
  8
2
100
AcDbDimension
280
     0
  2
*D5
 10
56.22386520136529
 20
15.99974013768941
 30
0.0
 11
56.22373200000061
 21
0.0000000000000995
 31
0.0
 70
   160
  1
%%c<>
 71
     5
 42
31.99999999889114
 73
     0
 74
     0
 75
     0
  3
STANDARD
100
AcDbAlignedDimension
 13
25.0100000000001
 23
-16.00000000000002
 33
0.0
 14
25.0100000000001
 24
16.00000000000006
 34
0.0
 50
89.99952300000151
100
AcDbRotatedDimension
1001
ACAD_DSTYLE_DIMARC_LENGTH_SYMBOL
1070
   379
1070
     1
1001
ACAD_DSTYLE_DIM_LINETYPE
1070
   380
1005
14
1001
ACAD_DSTYLE_DIM_EXT1_LINETYPE
1070
   381
1005
14
1001
ACAD_DSTYLE_DIM_EXT2_LINETYPE
1070
   382
1005
14
1001
ACAD
1000
DSTYLE
1002
{
1070
   172
1070
     1
1002
}
  0
LINE
  5
21DF4
330
1F
100
AcDbEntity
  8
1
100
AcDbLine
 10
27.69867600000009
 20
6.190234999999978
 30
0.0
 11
27.85369200000008
 21
6.190234999999978
 31
0.0
  0
LINE
  5
21DF5
330
1F
100
AcDbEntity
  8
4
100
AcDbLine
 10
31.32184300000006
 20
-0.0000000000000213
 30
0.0
 11
-0.0000000000037801
 21
0.0
 31
0.0
  0
LINE
  5
21DF6
330
1F
100
AcDbEntity
  8
1
100
AcDbLine
 10
-0.0570319999998219
 20
6.429658000000052
 30
0.0
 11
0.0
 21
6.429658000000052
 31
0.0
  0
LINE
  5
21DF7
330
1F
100
AcDbEntity
  8
SK3
100
AcDbLine
 10
0.0
 20
7.999999999999976
 30
0.0
 11
24.81
 21
7.999999999999976
 31
0.0
  0
LINE
  5
21DF8
330
1F
100
AcDbEntity
  8
SK3
100
AcDbLine
 10
0.0
 20
4.79999999999999
 30
0.0
 11
24.81
 21
4.79999999999999
 31
0.0
  0
LINE
  5
21DF9
330
1F
100
AcDbEntity
  8
SK3
100
AcDbLine
 10
0.0
 20
-4.800000000000031
 30
0.0
 11
24.81
 21
-4.800000000000031
 31
0.0
  0
LINE
  5
21DFA
330
1F
100
AcDbEntity
  8
SK3
100
AcDbLine
 10
0.0
 20
-8.000000000000021
 30
0.0
 11
24.81
 21
-8.000000000000021
 31
0.0
  0
LINE
  5
21DFC
330
1F
100
AcDbEntity
  8
1
100
AcDbLine
 10
25.81
 20
9.449999999999967
 30
0.0
 11
23.928
 21
9.449999999999967
 31
0.0
  0
LINE
  5
21E00
330
1F
100
AcDbEntity
  8
1
100
AcDbLine
 10
13.15500000000008
 20
3.635549999999973
 30
0.0
 11
13.15500000000008
 21
3.360375999999979
 31
0.0
  0
LINE
  5
21E01
330
1F
100
AcDbEntity
  8
1
100
AcDbLine
 10
13.15500000000008
 20
4.637567999999966
 30
0.0
 11
13.15500000000008
 21
3.635549999999973
 31
0.0
  0
ARC
  5
21E02
330
1F
100
AcDbEntity
  8
1
100
AcDbCircle
 10
-19.17229099999991
 20
-372.5724009999997
 30
0.0
 40
377.594439
100
AcDbArc
 50
84.0804140000012
 51
85.08867699999987
  0
ARC
  5
21E05
330
1F
100
AcDbEntity
  8
1
100
AcDbCircle
 10
25.63359700000007
 20
-0.0658479999999528
 30
0.0
 40
1.700974
100
AcDbArc
 50
108.8681449999998
 51
118.9601240000003
  0
ARC
  5
21E06
330
1F
100
AcDbEntity
  8
1
100
AcDbCircle
 10
22.25277200000016
 20
10.03186500000004
 30
0.0
 40
8.947019
100
AcDbArc
 50
288.4432379999993
 51
295.7877889999987
  0
ARC
  5
21E07
330
1F
100
AcDbEntity
  8
1
100
AcDbCircle
 10
-28.93871999999982
 20
-478.320261
 30
0.0
 40
483.4443349999999
100
AcDbArc
 50
83.45753200000073
 51
84.85608700000119
  0
ARC
  5
21E08
330
1F
100
AcDbEntity
  8
1
100
AcDbCircle
 10
32.68427000000008
 20
4.003086999999971
 30
0.0
 40
4.886091999999996
100
AcDbArc
 50
189.0343659999992
 51
192.805342
  0
ARC
  5
21E09
330
1F
100
AcDbEntity
  8
1
100
AcDbCircle
 10
-215.1349009999998
 20
-35.899175
 30
0.0
 40
246.125357
100
AcDbArc
 50
9.149129000000064
 51
9.977874999999739
  0
LINE
  5
21E0A
330
1F
100
AcDbEntity
  8
1
100
AcDbLine
 10
27.26817900000003
 20
6.74652099999998
 30
0.0
 11
26.61000000000019
 21
7.234201000000047
 31
0.0
  0
ARC
  5
21E0B
330
1F
100
AcDbEntity
  8
1
100
AcDbCircle
 10
-2.878674999999816
 20
-163.625764
 30
0.0
 40
173.385999
100
AcDbArc
 50
80.20780400000122
 51
81.10600000000108
  0
ARC
  5
21E0C
330
1F
100
AcDbEntity
  8
1
100
AcDbCircle
 10
34.82541500000008
 20
-86.59229700000009
 30
0.0
 40
94.895688
100
AcDbArc
 50
96.59416100000044
 51
99.12865999999892
  0
ARC
  5
21E0D
330
1F
100
AcDbEntity
  8
1
100
AcDbCircle
 10
11.01402000000001
 20
32.58009600000006
 30
0.0
 40
34.139738
100
AcDbArc
 50
296.3082889999999
 51
299.6824030000005
  0
LINE
  5
21E0E
330
1F
100
AcDbEntity
  8
1
100
AcDbLine
 10
23.928
 20
7.675438000000048
 30
0.0
 11
23.928
 21
9.449999999999967
 31
0.0
  0
LINE
  5
21E0F
330
1F
100
AcDbEntity
  8
1
100
AcDbLine
 10
19.76999999999998
 20
8.335866999999986
 30
0.0
 11
23.928
 21
9.449999999999967
 31
0.0
  0
LINE
  5
21E13
330
1F
100
AcDbEntity
  8
1
100
AcDbLine
 10
24.81
 20
0.6216989999999854
 30
0.0
 11
30.07587000000008
 21
-0.2299400000000205
 31
0.0
  0
ELLIPSE
  5
21E14
330
1F
100
AcDbEntity
  8
1
100
AcDbEllipse
 10
30.61630600000007
 20
0.003144999999968
 30
0.0
 11
9.173869132995607
 21
-1.432717919349668
 31
0.0
210
0.0
220
0.0
230
1.0
 40
0.604563
 41
4.124824687317584
 42
4.502526452569592
  0
LINE
  5
21E15
330
1F
100
AcDbEntity
  8
1
100
AcDbLine
 10
27.85880200000008
 20
-5.11836600000003
 30
0.0
 11
27.85799300000008
 21
-5.122878000000035
 31
0.0
  0
ARC
  5
21E16
330
1F
100
AcDbEntity
  8
1
100
AcDbCircle
 10
30.812186
 20
-5.632121000000032
 30
0.0
 40
2.997495999999998
100
AcDbArc
 50
154.3630370000011
 51
170.1318780000005
  0
LINE
  5
21E17
330
1F
100
AcDbEntity
  8
1
100
AcDbLine
 10
28.70456200000018
 20
-3.11268100000003
 30
0.0
 11
28.10999500000008
 21
-4.335304000000028
 31
0.0
  0
SPLINE
  5
21E18
330
1F
100
AcDbEntity
  8
1
100
AcDbSpline
210
0.0
220
0.0
230
1.0
 70
     8
 71
     5
 72
    30
 73
    24
 74
     0
 42
0.000000001
 43
0.0000000001
 40
0.0
 40
0.0
 40
0.0
 40
0.0
 40
0.0
 40
0.0
 40
15.87823614423941
 40
15.87823614423941
 40
15.87823614423941
 40
31.75825904431129
 40
31.75825904431129
 40
31.75825904431129
 40
42.41221977991784
 40
42.41221977991784
 40
42.41221977991784
 40
45.9547649912361
 40
45.9547649912361
 40
45.9547649912361
 40
48.69168948935278
 40
48.69168948935278
 40
48.69168948935278
 40
50.7435038204741
 40
50.7435038204741
 40
50.7435038204741
 40
53.27281921240448
 40
53.27281921240448
 40
53.27281921240448
 40
53.27281921240448
 40
53.27281921240448
 40
53.27281921240448
 10
30.07586993644121
 20
-0.2299404889984302
 30
0.0
 10
30.06758820577682
 20
-0.2516549297015089
 30
0.0
 10
30.05804020048151
 20
-0.2758489554085415
 30
0.0
 10
30.04690287299685
 20
-0.3031898847389343
 30
0.0
 10
30.02037171531083
 20
-0.3664251540540064
 30
0.0
 10
29.98108997642845
 20
-0.4554723723067228
 30
0.0
 10
29.9580515510695
 20
-0.5066853684937414
 30
0.0
 10
29.90831368480463
 20
-0.6155566861892439
 30
0.0
 10
29.82294605933083
 20
-0.7973653866457582
 30
0.0
 10
29.7813889034685
 20
-0.8852086076891152
 30
0.0
 10
29.71110389593178
 20
-1.032923627495442
 30
0.0
 10
29.59677549194527
 20
-1.27098301116603
 30
0.0
 10
29.56496051196564
 20
-1.337127109968995
 30
0.0
 10
29.50126048373062
 20
-1.469357995878616
 30
0.0
 10
29.42104728625526
 20
-1.635468196066845
 30
0.0
 10
29.3812576342533
 20
-1.717798206762259
 30
0.0
 10
29.30550511066889
 20
-1.874374494034434
 30
0.0
 10
29.21415903400003
 20
-2.062940192813235
 30
0.0
 10
29.17215418184099
 20
-2.149609836009425
 30
0.0
 10
29.069563556503
 20
-2.361150458642319
 30
0.0
 10
28.9458571833593
 20
-2.616004916995214
 30
0.0
 10
28.8737538619954
 20
-2.764484306577735
 30
0.0
 10
28.79225868638031
 20
-2.932231843230049
 30
0.0
 10
28.70456195646518
 20
-3.112680694435816
 30
0.0
  0
SPLINE
  5
21E19
330
1F
100
AcDbEntity
  8
1
100
AcDbSpline
210
0.0
220
0.0
230
1.0
 70
     8
 71
     5
 72
    39
 73
    33
 74
     0
 42
0.000000001
 43
0.0000000001
 40
0.0
 40
0.0
 40
0.0
 40
0.0
 40
0.0
 40
0.0
 40
36.78649162777972
 40
36.78649162777972
 40
36.78649162777972
 40
86.80724323022621
 40
86.80724323022621
 40
86.80724323022621
 40
112.1205081279573
 40
112.1205081279573
 40
112.1205081279573
 40
117.6015925026828
 40
117.6015925026828
 40
117.6015925026828
 40
121.1474470180212
 40
121.1474470180212
 40
121.1474470180212
 40
122.008199622916
 40
122.008199622916
 40
122.008199622916
 40
122.8877396972838
 40
122.8877396972838
 40
122.8877396972838
 40
123.324489811186
 40
123.324489811186
 40
123.324489811186
 40
123.7612399250883
 40
123.7612399250883
 40
123.7612399250883
 40
124.6256435213439
 40
124.6256435213439
 40
124.6256435213439
 40
124.6256435213439
 40
124.6256435213439
 40
124.6256435213439
 10
30.07586993644121
 20
-0.2299404889984302
 30
0.0
 10
30.09505902384683
 20
-0.1796272975478175
 30
0.0
 10
30.10354008233628
 20
-0.1472570154533273
 30
0.0
 10
30.11108452517817
 20
-0.1157735829179316
 30
0.0
 10
30.1211025521506
 20
-0.0515799027268358
 30
0.0
 10
30.11945014396281
 20
0.0052738516601849
 30
0.0
 10
30.11544221408332
 20
0.0375922265299735
 30
0.0
 10
30.10552857424165
 20
0.091289892139379
 30
0.0
 10
30.07602517674167
 20
0.1742258313912615
 30
0.0
 10
30.06397242565362
 20
0.2031567463257673
 30
0.0
 10
30.04689353689241
 20
0.2453746631592608
 30
0.0
 10
30.0055427951931
 20
0.3260827936126489
 30
0.0
 10
29.99716556513567
 20
0.3420477600429663
 30
0.0
 10
29.98140012443031
 20
0.3714395129458765
 30
0.0
 10
29.95919347334803
 20
0.4106664395760973
 30
0.0
 10
29.95035279432085
 20
0.4258637668521672
 30
0.0
 10
29.93645382898035
 20
0.4496896725733636
 30
0.0
 10
29.91555055481553
 20
0.4837531374955475
 30
0.0
 10
29.91115934858203
 20
0.4908568328770926
 30
0.0
 10
29.90139624485284
 20
0.5064958720086921
 30
0.0
 10
29.88919928505737
 20
0.5256381850652545
 30
0.0
 10
29.88290281627548
 20
0.5354122990511386
 30
0.0
 10
29.87156228229441
 20
0.5529407498129686
 30
0.0
 10
29.85277995783838
 20
0.5809581984401362
 30
0.0
 10
29.80744376816011
 20
0.6451598356868901
 30
0.0
 10
29.73951471244919
 20
0.7386333751304122
 30
0.0
 10
29.7673885516939
 20
0.6979505336694915
 30
0.0
 10
29.7413235115709
 20
0.7335815237351895
 30
0.0
 10
29.72520008269782
 20
0.7537913048635759
 30
0.0
 10
29.71339999478516
 20
0.7681659246521591
 30
0.0
 10
29.70538217038313
 20
0.7779596728393658
 30
0.0
 10
29.69612100029939
 20
0.7889428999774069
 30
0.0
 10
29.6873453406692
 20
0.7991869551164044
 30
0.0
  0
LINE
  5
21E1A
330
1F
100
AcDbEntity
  8
1
100
AcDbLine
 10
29.68734500000016
 20
0.7991869999999679
 30
0.0
 11
25.083506
 21
1.543756999999977
 31
0.0
  0
LINE
  5
21E1B
330
1F
100
AcDbEntity
  8
1
100
AcDbLine
 10
28.10999500000008
 20
2.63048099999998
 30
0.0
 11
29.68734500000016
 21
0.7991869999999679
 31
0.0
  0
ARC
  5
21E1C
330
1F
100
AcDbEntity
  8
1
100
AcDbCircle
 10
29.08588000000009
 20
3.479667999999981
 30
0.0
 40
1.293547
100
AcDbArc
 50
205.6315860000004
 51
221.0288430000002
  0
LINE
  5
21E1D
330
1F
100
AcDbEntity
  8
1
100
AcDbLine
 10
27.85880200000008
 20
5.720413000000043
 30
0.0
 11
27.85880200000008
 21
3.235840999999971
 31
0.0
  0
LINE
  5
21E1E
330
1F
100
AcDbEntity
  8
1
100
AcDbLine
 10
28.10999500000008
 20
4.894016999999968
 30
0.0
 11
28.10999500000008
 21
2.63048099999998
 31
0.0
  0
LINE
  5
21E1F
330
1F
100
AcDbEntity
  8
1
100
AcDbLine
 10
27.26817900000003
 20
9.069999999999971
 30
0.0
 11
27.26817900000003
 21
6.74652099999998
 31
0.0
  0
LINE
  5
21E20
330
1F
100
AcDbEntity
  8
1
100
AcDbLine
 10
26.61000000000019
 20
9.449999999999967
 30
0.0
 11
26.61000000000019
 21
7.234201000000047
 31
0.0
  0
LINE
  5
21E21
330
1F
100
AcDbEntity
  8
1
100
AcDbLine
 10
28.10999500000008
 20
-4.335304000000028
 30
0.0
 11
28.10999500000008
 21
-4.894016999999955
 31
0.0
  0
LINE
  5
21E22
330
1F
100
AcDbEntity
  8
1
100
AcDbLine
 10
27.85880200000008
 20
-5.11836600000003
 30
0.0
 11
27.85880200000008
 21
-5.72041200000003
 31
0.0
  0
LINE
  5
21E23
330
1F
100
AcDbEntity
  8
1
100
AcDbLine
 10
27.85799300000008
 20
-5.718289000000019
 30
0.0
 11
27.85799300000008
 21
-5.122878000000035
 31
0.0
  0
LINE
  5
21E24
330
1F
100
AcDbEntity
  8
1
100
AcDbLine
 10
27.85799300000008
 20
-5.718289000000019
 30
0.0
 11
27.84068500000018
 21
-5.822958000000021
 31
0.0
  0
LINE
  5
21E25
330
1F
100
AcDbEntity
  8
1
100
AcDbLine
 10
27.84068500000018
 20
-5.822958000000021
 30
0.0
 11
27.71159300000011
 21
-6.555278000000008
 31
0.0
  0
LINE
  5
21E26
330
1F
100
AcDbEntity
  8
1
100
AcDbLine
 10
27.26817900000003
 20
-9.070000000000012
 30
0.0
 11
27.71159300000011
 21
-6.555278000000008
 31
0.0
  0
LINE
  5
21E27
330
1F
100
AcDbEntity
  8
1
100
AcDbLine
 10
27.26817900000003
 20
-9.070000000000012
 30
0.0
 11
26.61000000000019
 21
-9.450000000000008
 31
0.0
  0
LINE
  5
21E28
330
1F
100
AcDbEntity
  8
1
100
AcDbLine
 10
26.61000000000019
 20
-9.450000000000008
 30
0.0
 11
25.81000000000017
 21
-9.450000000000008
 31
0.0
  0
LINE
  5
21E29
330
1F
100
AcDbEntity
  8
1
100
AcDbLine
 10
24.80999000000009
 20
-6.555278000000008
 30
0.0
 11
27.71159300000011
 21
-6.555278000000008
 31
0.0
  0
LINE
  5
21E2A
330
1F
100
AcDbEntity
  8
1
100
AcDbLine
 10
24.80999000000009
 20
-5.718289000000019
 30
0.0
 11
27.85799300000008
 21
-5.718289000000019
 31
0.0
  0
LINE
  5
21E2C
330
1F
100
AcDbEntity
  8
1
100
AcDbLine
 10
27.85880200000008
 20
5.720412000000044
 30
0.0
 11
27.84077300000018
 21
5.822657999999967
 31
0.0
  0
ARC
  5
21E2D
330
1F
100
AcDbEntity
  8
1
100
AcDbCircle
 10
31.3952460000001
 20
-6.343983000000029
 30
0.0
 40
3.591
100
AcDbArc
 50
156.1854329999994
 51
170.0000010000002
  0
LINE
  5
21E2E
330
1F
100
AcDbEntity
  8
1
100
AcDbLine
 10
27.85880200000008
 20
-5.72041200000003
 30
0.0
 11
27.84077300000018
 21
-5.822658000000012
 31
0.0
  0
LINE
  5
21E30
330
1F
100
AcDbEntity
  8
1
100
AcDbLine
 10
30.2700000000001
 20
-0.0000000000000213
 30
0.0
 11
28.10999500000008
 21
-4.894016999999955
 31
0.0
  0
LINE
  5
21E31
330
1F
100
AcDbEntity
  8
1
100
AcDbLine
 10
13.15500000000008
 20
3.359677999999981
 30
0.0
 11
13.15500000000008
 21
4.637413000000043
 31
0.0
  0
LINE
  5
21E32
330
1F
100
AcDbEntity
  8
1
100
AcDbLine
 10
0.0
 20
15.63157599999997
 30
0.0
 11
0.0
 21
6.370330999999971
 31
0.0
  0
ARC
  5
21E33
330
1F
100
AcDbEntity
  8
1
100
AcDbCircle
 10
11.14754300000015
 20
-508.0141589999998
 30
0.0
 40
523.764178
100
AcDbArc
 50
90.00204900000017
 51
91.21954800000116
  0
LINE
  5
21E34
330
1F
100
AcDbEntity
  8
1
100
AcDbLine
 10
17.79000000000002
 20
15.75000000000006
 30
0.0
 11
11.12881399999998
 21
15.75000000000006
 31
0.0
  0
LINE
  5
21E35
330
1F
100
AcDbEntity
  8
1
100
AcDbLine
 10
19.76999999999998
 20
7.979999999999967
 30
0.0
 11
17.79000000000002
 21
7.979999999999967
 31
0.0
  0
LINE
  5
21E36
330
1F
100
AcDbEntity
  8
1
100
AcDbLine
 10
17.79000000000002
 20
7.979999999999967
 30
0.0
 11
17.79000000000002
 21
5.494806999999986
 31
0.0
  0
LINE
  5
21E37
330
1F
100
AcDbEntity
  8
1
100
AcDbLine
 10
14.96185800000006
 20
5.502446999999968
 30
0.0
 11
17.79000000000002
 21
5.494806999999986
 31
0.0
  0
ARC
  5
21E38
330
1F
100
AcDbEntity
  8
1
100
AcDbCircle
 10
33.19044100000008
 20
125.728034
 30
0.0
 40
121.599643
100
AcDbArc
 50
261.3784890000011
 51
263.6635979999986
  0
LINE
  5
21E39
330
1F
100
AcDbEntity
  8
1
100
AcDbLine
 10
10.3998170000001
 20
5.372213999999991
 30
0.0
 11
10.40887800000007
 21
5.445835999999964
 31
0.0
  0
SPLINE
  5
21E3A
330
1F
100
AcDbEntity
  8
1
100
AcDbSpline
210
0.0
220
0.0
230
1.0
 70
     8
 71
     5
 72
    15
 73
     9
 74
     0
 42
0.000000001
 43
0.0000000001
 40
0.0
 40
0.0
 40
0.0
 40
0.0
 40
0.0
 40
0.0
 40
5.710838185512002
 40
5.710838185512002
 40
5.710838185512002
 40
8.192310465836634
 40
8.192310465836634
 40
8.192310465836634
 40
8.192310465836634
 40
8.192310465836634
 40
8.192310465836634
 10
6.000389505797669
 20
4.62311062311975
 30
0.0
 10
6.587956242338178
 20
4.76302137601167
 30
0.0
 10
7.189065961012886
 20
4.888616673527572
 30
0.0
 10
7.800754393771227
 20
5.000978545275592
 30
0.0
 10
8.684925680085314
 20
5.14532830813065
 30
0.0
 10
9.580621721047519
 20
5.26950749244299
 30
0.0
 10
9.852903135506211
 20
5.305393982346578
 30
0.0
 10
10.12602555085328
 20
5.339631123207745
 30
0.0
 10
10.39981750570001
 20
5.372213819789898
 30
0.0
  0
ARC
  5
21E3B
330
1F
100
AcDbEntity
  8
1
100
AcDbCircle
 10
19.38757000000015
 20
-1031.494572
 30
0.0
 40
1036.150993
100
AcDbArc
 50
89.97885300000101
 51
90.34464299999958
  0
ARC
  5
21E3C
330
1F
100
AcDbEntity
  8
1
100
AcDbCircle
 10
14.15084800000016
 20
-116.227745
 30
0.0
 40
121.731901
100
AcDbArc
 50
89.6182809999996
 51
91.7615290000012
  0
LINE
  5
21E3D
330
1F
100
AcDbEntity
  8
1
100
AcDbLine
 10
-0.0571259999999256
 20
2.918227000000065
 30
0.0
 11
0.0000030000001061
 21
2.922005999999988
 31
0.0
  0
LINE
  5
21E3E
330
1F
100
AcDbEntity
  8
1
100
AcDbLine
 10
-0.0571329999998511
 20
2.91823099999997
 30
0.0
 11
0.0
 21
2.899144999999982
 31
0.0
  0
ARC
  5
21E3F
330
1F
100
AcDbEntity
  8
1
100
AcDbCircle
 10
11.13554500000015
 20
507.7640959999998
 30
0.0
 40
523.514105
100
AcDbArc
 50
268.7811829999998
 51
269.9992630000014
  0
ARC
  5
21E40
330
1F
100
AcDbEntity
  8
SK1
100
AcDbCircle
 10
8.866760999999996
 20
1296.741926
 30
0.0
 40
1303.142434
100
AcDbArc
 50
269.0825040000008
 51
269.6101489999991
  0
ARC
  5
21E41
330
1F
100
AcDbEntity
  8
SK1
100
AcDbCircle
 10
17.00531300000006
 20
28.75335300000007
 30
0.0
 40
45.445783
100
AcDbArc
 50
228.6809890000015
 51
230.340048
  0
LINE
  5
21E42
330
1F
100
AcDbEntity
  8
SK1
100
AcDbLine
 10
-13.0
 20
-4.738946000000018
 30
0.0
 11
-13.0
 21
-5.378131000000016
 31
0.0
  0
LINE
  5
21E43
330
1F
100
AcDbEntity
  8
SK1
100
AcDbLine
 10
-13.0
 20
3.742861999999981
 30
0.0
 11
-13.0
 21
-4.738946000000018
 31
0.0
  0
LINE
  5
21E44
330
1F
100
AcDbEntity
  8
SK1
100
AcDbLine
 10
-13.0
 20
3.742861999999981
 30
0.0
 11
-13.0
 21
4.282432999999976
 31
0.0
  0
LINE
  5
21E45
330
1F
100
AcDbEntity
  8
SK1
100
AcDbLine
 10
-13.0
 20
5.378130999999974
 30
0.0
 11
-13.0
 21
4.282432999999976
 31
0.0
  0
ARC
  5
21E46
330
1F
100
AcDbEntity
  8
SK1
100
AcDbCircle
 10
8.866760999999996
 20
-1296.741926
 30
0.0
 40
1303.142434
100
AcDbArc
 50
90.38985100000086
 51
90.91749599999914
  0
LINE
  5
21E47
330
1F
100
AcDbEntity
  8
1
100
AcDbLine
 10
11.56116700000018
 20
15.61785199999998
 30
0.0
 11
11.12881399999998
 21
15.74999899999998
 31
0.0
  0
ARC
  5
21E48
330
1F
100
AcDbEntity
  8
SK1
100
AcDbCircle
 10
17.00531300000006
 20
-28.75335300000003
 30
0.0
 40
45.445783
100
AcDbArc
 50
129.659952
 51
131.3190109999984
  0
LINE
  5
21E49
330
1F
100
AcDbEntity
  8
1
100
AcDbLine
 10
17.79000000000002
 20
7.979999999999967
 30
0.0
 11
17.79000000000002
 21
15.75000000000006
 31
0.0
  0
LINE
  5
21E4A
330
1F
100
AcDbEntity
  8
1
100
AcDbLine
 10
10.75178100000011
 20
7.61904799999997
 30
0.0
 11
17.79000000000002
 21
7.61904799999997
 31
0.0
  0
LINE
  5
21E4B
330
1F
100
AcDbEntity
  8
1
100
AcDbLine
 10
11.56116600000018
 20
15.61784899999998
 30
0.0
 11
10.75178100000011
 21
7.61904799999997
 31
0.0
  0
ELLIPSE
  5
21E4C
330
1F
100
AcDbEntity
  8
1
100
AcDbEllipse
 10
10.28934300000003
 20
7.61904799999997
 30
0.0
 11
0.3305999040603639
 21
3.19965076446533
 31
0.0
210
0.0
220
0.0
230
1.0
 40
0.143017
 41
3.980590198685451
 42
4.727164917664623
  0
ARC
  5
21E4D
330
1F
100
AcDbEntity
  8
SK1
100
AcDbCircle
 10
-11.97628600000001
 20
9.030871999999966
 30
0.0
 40
5.386555
100
AcDbArc
 50
259.0435499999993
 51
267.3215399999999
  0
LINE
  5
21E4E
330
1F
100
AcDbEntity
  8
SK1
100
AcDbLine
 10
-12.2280189999999
 20
3.64988499999999
 30
0.0
 11
-12.0
 21
3.640856999999988
 31
0.0
  0
LINE
  5
21E4F
330
1F
100
AcDbEntity
  8
SK1
100
AcDbLine
 10
-12.0
 20
3.640856999999988
 30
0.0
 11
-9.522094999999975
 21
3.495710000000066
 31
0.0
  0
ARC
  5
21E50
330
1F
100
AcDbEntity
  8
SK1
100
AcDbCircle
 10
-161.6610399999998
 20
-2567.676279
 30
0.0
 40
2575.669195
100
AcDbArc
 50
86.4027569999998
 51
86.61369700000134
  0
SPLINE
  5
21E51
330
1F
100
AcDbEntity
  8
1
100
AcDbSpline
210
0.0
220
0.0
230
1.0
 70
     8
 71
     5
 72
    12
 73
     6
 74
     0
 42
0.000000001
 43
0.0000000001
 40
0.0
 40
0.0
 40
0.0
 40
0.0
 40
0.0
 40
0.0
 40
43.58460215554337
 40
43.58460215554337
 40
43.58460215554337
 40
43.58460215554337
 40
43.58460215554337
 40
43.58460215554337
 10
24.80999999938968
 20
2.091798462621659
 30
0.0
 10
19.78669601561989
 20
2.418412775222869
 30
0.0
 10
14.78005115901965
 20
2.985987662029408
 30
0.0
 10
9.803579305630819
 20
3.782553440946266
 30
0.0
 10
4.872704399427674
 20
4.780477365077678
 30
0.0
 10
0.0000000007306085
 20
5.942260975019087
 30
0.0
  0
LINE
  5
21E52
330
1F
100
AcDbEntity
  8
1
100
AcDbLine
 10
24.81
 20
2.09179799999999
 30
0.0
 11
24.81
 21
-13.82192500000001
 31
0.0
  0
LINE
  5
21E53
330
1F
100
AcDbEntity
  8
1
100
AcDbLine
 10
24.81
 20
-13.82192500000001
 30
0.0
 11
24.81
 21
-15.24144400000002
 31
0.0
  0
LINE
  5
21E54
330
1F
100
AcDbEntity
  8
SK1
100
AcDbLine
 10
-12.0
 20
3.640856999999988
 30
0.0
 11
-12.0
 21
-5.616528000000008
 31
0.0
  0
LINE
  5
21E55
330
1F
100
AcDbEntity
  8
1
100
AcDbLine
 10
0.0
 20
-13.82192500000001
 30
0.0
 11
0.0
 21
-15.63157600000001
 31
0.0
  0
LINE
  5
21E56
330
1F
100
AcDbEntity
  8
1
100
AcDbLine
 10
0.0
 20
5.94226099999998
 30
0.0
 11
0.0
 21
-13.82192500000001
 31
0.0
  0
LINE
  5
21E57
330
1F
100
AcDbEntity
  8
1
100
AcDbLine
 10
17.79000000000002
 20
-15.75000000000002
 30
0.0
 11
11.12881399999998
 21
-15.75000000000002
 31
0.0
  0
LINE
  5
21E58
330
1F
100
AcDbEntity
  8
1
100
AcDbLine
 10
17.79000000000002
 20
-15.24144400000002
 30
0.0
 11
17.79000000000002
 21
-15.75000000000002
 31
0.0
  0
LINE
  5
21E59
330
1F
100
AcDbEntity
  8
1
100
AcDbLine
 10
24.81
 20
-15.24144400000002
 30
0.0
 11
17.79000000000002
 21
-15.24144400000002
 31
0.0
  0
LINE
  5
21E5A
330
1F
100
AcDbEntity
  8
SK1
100
AcDbLine
 10
-12.0
 20
-5.616528000000008
 30
0.0
 11
-12.0
 21
-6.233443999999956
 31
0.0
  0
CIRCLE
  5
21E5B
330
1F
100
AcDbEntity
  8
1
100
AcDbCircle
 10
21.80000000000001
 20
-11.99000000000003
 30
0.0
 40
1.588
  0
CIRCLE
  5
21E5C
330
1F
100
AcDbEntity
  8
1
100
AcDbCircle
 10
21.80000000000001
 20
11.98999999999998
 30
0.0
 40
1.425
  0
CIRCLE
  5
21E5D
330
1F
100
AcDbEntity
  8
1
100
AcDbCircle
 10
21.80001700000008
 20
11.98988600000005
 30
0.0
 40
1.859874999999999
  0
CIRCLE
  5
21E65
330
1F
100
AcDbEntity
  8
1
100
AcDbCircle
 10
21.80000000000001
 20
-11.99000000000003
 30
0.0
 40
1.425
  0
LINE
  5
21E66
330
1F
100
AcDbEntity
  8
1
100
AcDbLine
 10
25.0100000000001
 20
-7.980000000000011
 30
0.0
 11
24.81
 21
-7.980000000000011
 31
0.0
  0
ARC
  5
21E67
330
1F
100
AcDbEntity
  8
1
100
AcDbCircle
 10
25.0100000000001
 20
-8.780000000000022
 30
0.0
 40
0.8
100
AcDbArc
 50
0.0
 51
90.0
  0
LINE
  5
21E68
330
1F
100
AcDbEntity
  8
1
100
AcDbLine
 10
25.81000000000017
 20
-15.20000000000001
 30
0.0
 11
25.81000000000017
 21
-8.780000000000022
 31
0.0
  0
ARC
  5
21E69
330
1F
100
AcDbEntity
  8
1
100
AcDbCircle
 10
25.0100000000001
 20
-15.20000000000001
 30
0.0
 40
0.8
100
AcDbArc
 50
270.0
 51
0.0
  0
LINE
  5
21E6A
330
1F
100
AcDbEntity
  8
1
100
AcDbLine
 10
18.59000000000003
 20
-16.00000000000002
 30
0.0
 11
25.0100000000001
 21
-16.00000000000002
 31
0.0
  0
ARC
  5
21E6B
330
1F
100
AcDbEntity
  8
1
100
AcDbCircle
 10
18.59000000000003
 20
-15.20000000000001
 30
0.0
 40
0.8
100
AcDbArc
 50
182.969697
 51
270.0
  0
ARC
  5
21E6C
330
1F
100
AcDbEntity
  8
1
100
AcDbCircle
 10
18.59000000000003
 20
-15.20000000000001
 30
0.0
 40
0.242053
100
AcDbArc
 50
189.8585689999999
 51
270.0
  0
LINE
  5
21E6D
330
1F
100
AcDbEntity
  8
1
100
AcDbLine
 10
18.59000000000003
 20
-15.44205300000001
 30
0.0
 11
25.0100000000001
 21
-15.44205300000001
 31
0.0
  0
ARC
  5
21E6E
330
1F
100
AcDbEntity
  8
1
100
AcDbCircle
 10
25.0100000000001
 20
-15.20000000000001
 30
0.0
 40
0.242053
100
AcDbArc
 50
270.0000010000014
 51
359.9999990000002
  0
LINE
  5
21E6F
330
1F
100
AcDbEntity
  8
1
100
AcDbLine
 10
25.2520530000001
 20
-15.20000000000001
 30
0.0
 11
25.2520530000001
 21
-8.780000000000022
 31
0.0
  0
ARC
  5
21E70
330
1F
100
AcDbEntity
  8
1
100
AcDbCircle
 10
25.0100000000001
 20
-8.780000000000022
 30
0.0
 40
0.242053
100
AcDbArc
 50
0.0
 51
90.0
  0
LINE
  5
21E71
330
1F
100
AcDbEntity
  8
1
100
AcDbLine
 10
25.0100000000001
 20
-8.537947000000022
 30
0.0
 11
24.81
 21
-8.537947000000022
 31
0.0
  0
LINE
  5
21E72
330
1F
100
AcDbEntity
  8
1
100
AcDbLine
 10
25.0100000000001
 20
-8.537947000000022
 30
0.0
 11
25.0100000000001
 21
-7.980000000000011
 31
0.0
  0
LINE
  5
21E73
330
1F
100
AcDbEntity
  8
1
100
AcDbLine
 10
25.2520530000001
 20
-8.780000000000022
 30
0.0
 11
25.81000000000017
 21
-8.780000000000022
 31
0.0
  0
LINE
  5
21E74
330
1F
100
AcDbEntity
  8
1
100
AcDbLine
 10
25.2520530000001
 20
-15.20000000000001
 30
0.0
 11
25.81000000000017
 21
-15.20000000000001
 31
0.0
  0
LINE
  5
21E75
330
1F
100
AcDbEntity
  8
1
100
AcDbLine
 10
25.0100000000001
 20
-15.44205300000001
 30
0.0
 11
25.0100000000001
 21
-16.00000000000002
 31
0.0
  0
LINE
  5
21E76
330
1F
100
AcDbEntity
  8
1
100
AcDbLine
 10
18.59000000000003
 20
-15.44205300000001
 30
0.0
 11
18.59000000000003
 21
-16.00000000000002
 31
0.0
  0
LINE
  5
21E7F
330
1F
100
AcDbEntity
  8
SKVIEW4
100
AcDbLine
 10
-48.19163611102692
 20
-0.0000000000000213
 30
0.0
 11
-89.14163611102694
 21
-0.0000000000000213
 31
0.0
  0
LINE
  5
21E80
330
1F
100
AcDbEntity
  8
SKVIEW4
100
AcDbLine
 10
-68.66663611102683
 20
20.47499999999997
 30
0.0
 11
-68.66663611102683
 21
-20.47499999999996
 31
0.0
  0
ARC
  5
21E81
330
1F
100
AcDbEntity
  8
SKVIEW1
100
AcDbCircle
 10
-68.66663611102683
 20
-0.0000000000000213
 30
0.0
 40
4.724999999999996
100
AcDbArc
 50
345.800504
 51
356.552578
  0
ARC
  5
21E82
330
1F
100
AcDbEntity
  8
SKVIEW1
100
AcDbCircle
 10
-73.96053611102684
 20
3.315700999999968
 30
0.0
 40
2.271549999999999
100
AcDbArc
 50
288.3002799999985
 51
309.9066450000014
  0
ARC
  5
21E83
330
1F
100
AcDbEntity
  8
SKVIEW1
100
AcDbCircle
 10
-63.37273611102681
 20
-3.315701000000011
 30
0.0
 40
2.271549999999999
100
AcDbArc
 50
108.3002799999984
 51
129.9066450000014
  0
LINE
  5
21E84
330
1F
100
AcDbEntity
  8
SKVIEW1
100
AcDbLine
 10
-62.94163611102693
 20
0.0020759999999669
 30
0.0
 11
-63.04514611102689
 21
-0.00698000000002
 31
0.0
  0
ARC
  5
21E85
330
1F
100
AcDbEntity
  8
SKVIEW1
100
AcDbCircle
 10
-62.84715711102683
 20
-2.26983500000002
 30
0.0
 40
2.2715
100
AcDbArc
 50
95.0003810000001
 51
119.0514769999993
  0
SPLINE
  5
21E86
330
1F
100
AcDbEntity
  8
SKVIEW1
100
AcDbSpline
210
0.0
220
0.0
230
1.0
 70
     8
 71
     5
 72
    18
 73
    12
 74
     0
 42
0.000000001
 43
0.0000000001
 40
0.0
 40
0.0
 40
0.0
 40
0.0
 40
0.0
 40
0.0
 40
1.744531660912715
 40
1.744531660912715
 40
1.744531660912715
 40
3.403437365515941
 40
3.403437365515941
 40
3.403437365515941
 40
5.532590197210992
 40
5.532590197210992
 40
5.532590197210992
 40
5.532590197210992
 40
5.532590197210992
 40
5.532590197210992
 10
-64.73437791676167
 20
-0.7232348982006373
 30
0.0
 10
-64.67060565558762
 20
-0.5576985681387541
 30
0.0
 10
-64.59049499385582
 20
-0.4054551420578251
 30
0.0
 10
-64.49763716149016
 20
-0.2732041812907298
 30
0.0
 10
-64.30122129905686
 20
-0.0525723292272389
 30
0.0
 10
-64.08451883566421
 20
0.1011832823002479
 30
0.0
 10
-63.97596866588401
 20
0.1619644631993893
 30
0.0
 10
-63.72505815127164
 20
0.2711693987579977
 30
0.0
 10
-63.47183779450569
 20
0.3201300186750657
 30
0.0
 10
-63.33025941318737
 20
0.3314433195326742
 30
0.0
 10
-63.19094066629685
 20
0.3285407765499784
 30
0.0
 10
-63.05385343442678
 20
0.3128484460068606
 30
0.0
  0
ARC
  5
21E87
330
1F
100
AcDbEntity
  8
SKVIEW1
100
AcDbCircle
 10
-62.88646011102684
 20
-1.438576000000033
 30
0.0
 40
1.981522999999999
100
AcDbArc
 50
158.8382659999995
 51
165.9615779999996
  0
SPLINE
  5
21E88
330
1F
100
AcDbEntity
  8
SKVIEW1
100
AcDbSpline
210
0.0
220
0.0
230
1.0
 70
     8
 71
     5
 72
    12
 73
     6
 74
     0
 42
0.000000001
 43
0.0000000001
 40
0.0
 40
0.0
 40
0.0
 40
0.0
 40
0.0
 40
0.0
 40
1.695731681588986
 40
1.695731681588986
 40
1.695731681588986
 40
1.695731681588986
 40
1.695731681588986
 40
1.695731681588986
 10
-64.80878134008668
 20
-0.957917536958341
 30
0.0
 10
-64.84643413341752
 20
-1.109596067558604
 30
0.0
 10
-64.86442166527189
 20
-1.250887568238503
 30
0.0
 10
-64.86434098019384
 20
-1.375844617421242
 30
0.0
 10
-64.85317491425688
 20
-1.473287507295133
 30
0.0
 10
-64.83710786566866
 20
-1.54375709094011
 30
0.0
  0
ARC
  5
21E89
330
1F
100
AcDbEntity
  8
SKVIEW1
100
AcDbCircle
 10
-63.27568411102686
 20
-1.165458000000021
 30
0.0
 40
1.606921999999999
100
AcDbArc
 50
193.6191119999995
 51
210.301518
  0
ARC
  5
21E8A
330
1F
100
AcDbEntity
  8
SKVIEW1
100
AcDbCircle
 10
-68.66630511102681
 20
0.0000190000000444
 30
0.0
 40
5.621163
100
AcDbArc
 50
359.9286560000002
 51
3.190273999999299
  0
ARC
  5
21E8B
330
1F
100
AcDbEntity
  8
SKVIEW1
100
AcDbCircle
 10
-68.66663611102683
 20
-0.0000000000000213
 30
0.0
 40
4.724999999999996
100
AcDbArc
 50
165.800504
 51
176.552578
  0
SPLINE
  5
21E8C
330
1F
100
AcDbEntity
  8
SKVIEW1
100
AcDbSpline
210
0.0
220
0.0
230
1.0
 70
     8
 71
     5
 72
    18
 73
    12
 74
     0
 42
0.000000001
 43
0.0000000001
 40
0.0
 40
0.0
 40
0.0
 40
0.0
 40
0.0
 40
0.0
 40
1.744531659917339
 40
1.744531659917339
 40
1.744531659917339
 40
3.403437362710531
 40
3.403437362710531
 40
3.403437362710531
 40
5.532590191694931
 40
5.532590191694931
 40
5.532590191694931
 40
5.532590191694931
 40
5.532590191694931
 40
5.532590191694931
 10
-72.59889430529188
 20
0.7232348982006515
 30
0.0
 10
-72.66266656642947
 20
0.5576985682333842
 30
0.0
 10
-72.7427772281062
 20
0.4054551422314674
 30
0.0
 10
-72.83563506045935
 20
0.273204181425065
 30
0.0
 10
-73.03205092283667
 20
0.0525723293880631
 30
0.0
 10
-73.24875338602243
 20
-0.1011832820570291
 30
0.0
 10
-73.35730355595018
 20
-0.1619644631115236
 30
0.0
 10
-73.60821407080869
 20
-0.2711693987894179
 30
0.0
 10
-73.86143442775709
 20
-0.3201300187130229
 30
0.0
 10
-74.00301280922048
 20
-0.3314433195254409
 30
0.0
 10
-74.14233155593116
 20
-0.3285407765299553
 30
0.0
 10
-74.2794187876268
 20
-0.3128484460068464
 30
0.0
  0
ARC
  5
21E8D
330
1F
100
AcDbEntity
  8
SKVIEW1
100
AcDbCircle
 10
-74.44681211102682
 20
1.438576000000046
 30
0.0
 40
1.981522999999999
100
AcDbArc
 50
338.8382660000019
 51
345.9615779999996
  0
SPLINE
  5
21E8E
330
1F
100
AcDbEntity
  8
SKVIEW1
100
AcDbSpline
210
0.0
220
0.0
230
1.0
 70
     8
 71
     5
 72
    12
 73
     6
 74
     0
 42
0.000000001
 43
0.0000000001
 40
0.0
 40
0.0
 40
0.0
 40
0.0
 40
0.0
 40
0.0
 40
1.6957316815961
 40
1.6957316815961
 40
1.6957316815961
 40
1.6957316815961
 40
1.6957316815961
 40
1.6957316815961
 10
-72.52449088196688
 20
0.9579175369582415
 30
0.0
 10
-72.48683808863565
 20
1.109596067560751
 30
0.0
 10
-72.46885055678069
 20
1.250887568243889
 30
0.0
 10
-72.46893124185985
 20
1.375844617423389
 30
0.0
 10
-72.48009730779665
 20
1.47328750729489
 30
0.0
 10
-72.496164356385
 20
1.543757090940154
 30
0.0
  0
ARC
  5
21E8F
330
1F
100
AcDbEntity
  8
SKVIEW1
100
AcDbCircle
 10
-74.05758811102693
 20
1.165457999999979
 30
0.0
 40
1.606921999999999
100
AcDbArc
 50
13.61911199999955
 51
30.30151800000008
  0
ARC
  5
21E90
330
1F
100
AcDbEntity
  8
SKVIEW1
100
AcDbCircle
 10
-74.48611511102683
 20
2.269834999999979
 30
0.0
 40
2.2715
100
AcDbArc
 50
275.0003810000001
 51
299.0514769999994
  0
ARC
  5
21E91
330
1F
100
AcDbEntity
  8
SKVIEW1
100
AcDbCircle
 10
-68.66696711102689
 20
-0.0000190000000302
 30
0.0
 40
5.621163
100
AcDbArc
 50
179.928656
 51
183.1902739999993
  0
LINE
  5
21E92
330
1F
100
AcDbEntity
  8
SKVIEW1
100
AcDbLine
 10
-73.25735611102692
 20
2.920133999999968
 30
0.0
 11
-73.38388711102692
 21
3.235840999999971
 31
0.0
  0
ARC
  5
21E93
330
1F
100
AcDbEntity
  8
SKVIEW1
100
AcDbCircle
 10
22.7100908889732
 20
42.06196499999996
 30
0.0
 40
103.641278
100
AcDbArc
 50
199.9223889999993
 51
202.0008389999996
  0
ARC
  5
21E94
330
1F
100
AcDbEntity
  8
SKVIEW1
100
AcDbCircle
 10
-60.63866811102684
 20
7.512887999999982
 30
0.0
 40
14.110919
100
AcDbArc
 50
181.1316510000002
 51
183.1132780000006
  0
ARC
  5
21E95
330
1F
100
AcDbEntity
  8
SKVIEW1
100
AcDbCircle
 10
-85.64829811102693
 20
-5.451282999999953
 30
0.0
 40
14.953665
100
AcDbArc
 50
29.78301199999994
 51
34.04326899999871
  0
LINE
  5
21E96
330
1F
100
AcDbEntity
  8
SKVIEW1
100
AcDbLine
 10
-64.07591611102685
 20
-2.920133999999953
 30
0.0
 11
-63.9493851110269
 21
-3.235841000000013
 31
0.0
  0
ARC
  5
21E97
330
1F
100
AcDbEntity
  8
SKVIEW1
100
AcDbCircle
 10
-160.0741741110268
 20
-42.073282
 30
0.0
 40
103.674096
100
AcDbArc
 50
19.92246700000021
 51
22.0002589999996
  0
ARC
  5
21E98
330
1F
100
AcDbEntity
  8
SKVIEW1
100
AcDbCircle
 10
-76.69399911102694
 20
-7.512865999999937
 30
0.0
 40
14.110314
100
AcDbArc
 50
1.131608000000031
 51
3.113320999999444
  0
ARC
  5
21E99
330
1F
100
AcDbEntity
  8
SKVIEW1
100
AcDbCircle
 10
-51.6849741110269
 20
5.451282999999968
 30
0.0
 40
14.953665
100
AcDbArc
 50
209.7830119999999
 51
214.0432689999987
  0
ARC
  5
21E9A
330
1F
100
AcDbEntity
  8
SKVIEW1
100
AcDbCircle
 10
-68.66663611102683
 20
-0.0000000000000213
 30
0.0
 40
5.724999999999997
100
AcDbArc
 50
0.0207760000006636
 51
63.48605699999822
  0
LINE
  5
21E9B
330
1F
100
AcDbEntity
  8
SKVIEW1
100
AcDbLine
 10
-63.05385311102691
 20
0.3128479999999811
 30
0.0
 11
-62.9495181110269
 21
0.3003870000000646
 31
0.0
  0
LINE
  5
21E9C
330
1F
100
AcDbEntity
  8
SKVIEW1
100
AcDbLine
 10
-68.66663611102683
 20
9.069999999999971
 30
0.0
 11
-68.66663611102683
 21
9.449999999999967
 31
0.0
  0
LINE
  5
21E9D
330
1F
100
AcDbEntity
  8
SKVIEW1
100
AcDbLine
 10
-68.66663611102683
 20
6.555277999999965
 30
0.0
 11
-68.66663611102683
 21
9.069999999999971
 31
0.0
  0
ARC
  5
21E9E
330
1F
100
AcDbEntity
  8
SKVIEW1
100
AcDbCircle
 10
-68.36663611102682
 20
6.190234999999978
 30
0.0
 40
0.4725
100
AcDbArc
 50
129.4140980000001
 51
267.2254209999997
  0
ARC
  5
21E9F
330
1F
100
AcDbEntity
  8
SKVIEW1
100
AcDbCircle
 10
-68.66663611102683
 20
-0.0000000000000213
 30
0.0
 40
5.724999999999997
100
AcDbArc
 50
63.48606600000035
 51
87.22542099999969
  0
LINE
  5
21EA0
330
1F
100
AcDbEntity
  8
SKVIEW1
100
AcDbLine
 10
-68.29167711102684
 20
0.2299399999999778
 30
0.0
 11
-64.73437811102684
 21
-0.7232349999999528
 31
0.0
  0
LINE
  5
21EA1
330
1F
100
AcDbEntity
  8
SKVIEW1
100
AcDbLine
 10
-66.11214011102693
 20
5.118365999999987
 30
0.0
 11
-66.11090811102684
 21
5.122878000000048
 31
0.0
  0
ARC
  5
21EA2
330
1F
100
AcDbEntity
  8
SKVIEW1
100
AcDbCircle
 10
-70.88615111102683
 20
6.402410000000068
 30
0.0
 40
4.943476999999997
100
AcDbArc
 50
335.2811400000001
 51
344.9456899999997
  0
LINE
  5
21EA3
330
1F
100
AcDbEntity
  8
SKVIEW1
100
AcDbLine
 10
-66.96617111102682
 20
3.112680999999986
 30
0.0
 11
-66.39583411102683
 21
4.335303999999986
 31
0.0
  0
SPLINE
  5
21EA4
330
1F
100
AcDbEntity
  8
SKVIEW1
100
AcDbSpline
210
0.0
220
0.0
230
1.0
 70
     8
 71
     5
 72
    30
 73
    24
 74
     0
 42
0.000000001
 43
0.0000000001
 40
0.0
 40
0.0
 40
0.0
 40
0.0
 40
0.0
 40
0.0
 40
15.87824100523049
 40
15.87824100523049
 40
15.87824100523049
 40
31.78531107912537
 40
31.78531107912537
 40
31.78531107912537
 40
42.43943003958867
 40
42.43943003958867
 40
42.43943003958867
 40
45.98178427285366
 40
45.98178427285366
 40
45.98178427285366
 40
48.72835126361794
 40
48.72835126361794
 40
48.72835126361794
 40
50.78659413049059
 40
50.78659413049059
 40
50.78659413049059
 40
53.295345203902
 40
53.295345203902
 40
53.295345203902
 40
53.295345203902
 40
53.295345203902
 40
53.295345203902
 10
-68.29167689026741
 20
0.2299404889984729
 30
0.0
 10
-68.28298150045885
 20
0.2516549287887599
 30
0.0
 10
-68.27309129665478
 20
0.2758489535845072
 30
0.0
 10
-68.26169646345329
 20
0.3031898796909971
 30
0.0
 10
-68.23480999989334
 20
0.3664789908006938
 30
0.0
 10
-68.1957823459245
 20
0.4556240815146923
 30
0.0
 10
-68.17322863118835
 20
0.5064633628833875
 30
0.0
 10
-68.12445106229569
 20
0.6153716818926755
 30
0.0
 10
-68.04146725182788
 20
0.7973686960184594
 30
0.0
 10
-68.00122009850992
 20
0.8852033562351735
 30
0.0
 10
-67.933295851521
 20
1.032914790480255
 30
0.0
 10
-67.8231461528034
 20
1.270988999016886
 30
0.0
 10
-67.79251059307165
 20
1.33713425317007
 30
0.0
 10
-67.73110079680065
 20
1.469577137968578
 30
0.0
 10
-67.65381876262313
 20
1.636020089525266
 30
0.0
 10
-67.61536902857648
 20
1.718810079289574
 30
0.0
 10
-67.54218605016939
 20
1.876181995545556
 30
0.0
 10
-67.45397970963239
 20
2.065787921633763
 30
0.0
 10
-67.4134203310212
 20
2.152957782589233
 30
0.0
 10
-67.31486965221745
 20
2.364539247716755
 30
0.0
 10
-67.19615311874719
 20
2.619340027469866
 30
0.0
 10
-67.12741227899464
 20
2.766845346350585
 30
0.0
 10
-67.04972795162712
 20
2.933484921828756
 30
0.0
 10
-66.9661708975637
 20
3.112680694435745
 30
0.0
  0
LINE
  5
21EA5
330
1F
100
AcDbEntity
  8
SKVIEW1
100
AcDbLine
 10
-67.61588111102685
 20
-0.7991870000000107
 30
0.0
 11
-64.83710811102685
 21
-1.543757000000019
 31
0.0
  0
SPLINE
  5
21EA6
330
1F
100
AcDbEntity
  8
SKVIEW1
100
AcDbSpline
210
0.0
220
0.0
230
1.0
 70
     8
 71
     5
 72
    60
 73
    54
 74
     0
 42
0.000000001
 43
0.0000000001
 40
0.0
 40
0.0
 40
0.0
 40
0.0
 40
0.0
 40
0.0
 40
24.66289032103567
 40
24.66289032103567
 40
24.66289032103567
 40
61.65671063985147
 40
61.65671063985147
 40
61.65671063985147
 40
86.31927960354472
 40
86.31927960354472
 40
86.31927960354472
 40
98.65065266242577
 40
98.65065266242577
 40
98.65065266242577
 40
111.1192861441654
 40
111.1192861441654
 40
111.1192861441654
 40
116.6004988788718
 40
116.6004988788718
 40
116.6004988788718
 40
119.9429093922176
 40
119.9429093922176
 40
119.9429093922176
 40
120.8144720908767
 40
120.8144720908767
 40
120.8144720908767
 40
121.6860347895359
 40
121.6860347895359
 40
121.6860347895359
 40
122.0140448990219
 40
122.0140448990219
 40
122.0140448990219
 40
122.0551730634988
 40
122.0551730634988
 40
122.0551730634988
 40
122.0963012279755
 40
122.0963012279755
 40
122.0963012279755
 40
122.2723912594143
 40
122.2723912594143
 40
122.2723912594143
 40
122.3205343915872
 40
122.3205343915872
 40
122.3205343915872
 40
122.3686775237602
 40
122.3686775237602
 40
122.3686775237602
 40
123.0675968035654
 40
123.0675968035654
 40
123.0675968035654
 40
123.6440230137592
 40
123.6440230137592
 40
123.6440230137592
 40
123.6440230137592
 40
123.6440230137592
 40
123.6440230137592
 10
-68.29167689026741
 20
0.2299404889984729
 30
0.0
 10
-68.30518447631385
 20
0.1962088599304721
 30
0.0
 10
-68.31241442215286
 20
0.1705421878347479
 30
0.0
 10
-68.31769921937103
 20
0.1482765508333799
 30
0.0
 10
-68.32694975071672
 20
0.0964528992108811
 30
0.0
 10
-68.32802320059538
 20
0.0532903087125547
 30
0.0
 10
-68.32666645052313
 20
0.0286810518311498
 30
0.0
 10
-68.32148274830621
 20
-0.012762480603918
 30
0.0
 10
-68.30967752450539
 20
-0.0579784072318361
 30
0.0
 10
-68.3037279684214
 20
-0.0770554968322514
 30
0.0
 10
-68.2925186780821
 20
-0.108257581823942
 30
0.0
 10
-68.27519284209785
 20
-0.1465103036212483
 30
0.0
 10
-68.26854703047906
 20
-0.1602652280354206
 30
0.0
 10
-68.25347514236312
 20
-0.1896404941460261
 30
0.0
 10
-68.23263758645834
 20
-0.2255674468048241
 30
0.0
 10
-68.22064674457192
 20
-0.2450725129484326
 30
0.0
 10
-68.19866620008622
 20
-0.2790392206662702
 30
0.0
 10
-68.16387986704649
 20
-0.3260822815731146
 30
0.0
 10
-68.15165150708479
 20
-0.342047100842926
 30
0.0
 10
-68.1289204392225
 20
-0.3707758924994025
 30
0.0
 10
-68.09606172850374
 20
-0.4088981237120139
 30
0.0
 10
-68.0832601570645
 20
-0.4231739927310443
 30
0.0
 10
-68.06270284269698
 20
-0.4458395170618347
 30
0.0
 10
-68.03264154509668
 20
-0.476630528046819
 30
0.0
 10
-68.02588843945478
 20
-0.4834492181673157
 30
0.0
 10
-68.0113050535774
 20
-0.4980023683166266
 30
0.0
 10
-67.99306173842115
 20
-0.5155780390177469
 30
0.0
 10
-67.98272479965048
 20
-0.5253669314535259
 30
0.0
 10
-67.96710778846819
 20
-0.5400010302060068
 30
0.0
 10
-67.94478184585637
 20
-0.5600022414252166
 30
0.0
 10
-67.93799969844235
 20
-0.5660117689101229
 30
0.0
 10
-67.92956000183314
 20
-0.5734176102185913
 30
0.0
 10
-67.91904088957221
 20
-0.5824582442870039
 30
0.0
 10
-67.91740590788987
 20
-0.5838240847726226
 30
0.0
 10
-67.91280350328077
 20
-0.5875724846211128
 30
0.0
 10
-67.90594957089502
 20
-0.5930376767099334
 30
0.0
 10
-67.9019728154094
 20
-0.596189514008124
 30
0.0
 10
-67.87969238655683
 20
-0.6137816025206107
 30
0.0
 10
-67.8507908958095
 20
-0.6363270492940316
 30
0.0
 10
-67.8288679720942
 20
-0.6533705700317328
 30
0.0
 10
-67.79896076680933
 20
-0.6765274284006395
 30
0.0
 10
-67.77631194730287
 20
-0.6937844365351326
 30
0.0
 10
-67.77177274044665
 20
-0.6972217820926048
 30
0.0
 10
-67.76450192382288
 20
-0.7026649475769135
 30
0.0
 10
-67.76019382333311
 20
-0.7057613946468209
 30
0.0
 10
-67.75872134006204
 20
-0.7067733482885146
 30
0.0
 10
-67.73232318122579
 20
-0.7252684235652325
 30
0.0
 10
-67.71248060095155
 20
-0.7384803891889291
 30
0.0
 10
-67.69782457667549
 20
-0.7480419274252414
 30
0.0
 10
-67.67368458445861
 20
-0.7636338248258526
 30
0.0
 10
-67.65022624725583
 20
-0.7783498143507117
 30
0.0
 10
-67.6390859383892
 20
-0.7852493297002284
 30
0.0
 10
-67.62730264056853
 20
-0.7923805537721123
 30
0.0
 10
-67.61588144237371
 20
-0.7991869551164471
 30
0.0
  0
LINE
  5
21EA7
330
1F
100
AcDbEntity
  8
SKVIEW1
100
AcDbLine
 10
-64.53965511102683
 20
-2.630481000000024
 30
0.0
 11
-67.61588111102685
 21
-0.7991870000000107
 31
0.0
  0
ARC
  5
21EA8
330
1F
100
AcDbEntity
  8
SKVIEW1
100
AcDbCircle
 10
-71.25711411102691
 20
-13.89953099999993
 30
0.0
 40
13.119309
100
AcDbArc
 50
56.81285700000024
 51
59.20091299999998
  0
LINE
  5
21EA9
330
1F
100
AcDbEntity
  8
SKVIEW1
100
AcDbLine
 10
-74.39163611102691
 20
-0.0020760000000095
 30
0.0
 11
-74.28812611102665
 21
0.0069799999999773
 31
0.0
  0
LINE
  5
21EAA
330
1F
100
AcDbEntity
  8
SKVIEW1
100
AcDbLine
 10
-72.59889411102681
 20
0.7232349999999671
 30
0.0
 11
-69.04159511102682
 21
-0.2299400000000205
 31
0.0
  0
LINE
  5
21EAB
330
1F
100
AcDbEntity
  8
SKVIEW1
100
AcDbLine
 10
-74.27941911102692
 20
-0.3128480000000238
 30
0.0
 11
-74.38375411102686
 21
-0.3003870000000219
 31
0.0
  0
ARC
  5
21EAC
330
1F
100
AcDbEntity
  8
SKVIEW1
100
AcDbCircle
 10
-68.66663611102683
 20
-0.0000000000000213
 30
0.0
 40
5.724999999999997
100
AcDbArc
 50
180.0207760000006
 51
267.2254110000007
  0
LINE
  5
21EAD
330
1F
100
AcDbEntity
  8
SKVIEW1
100
AcDbLine
 10
-71.22113211102669
 20
-5.11836600000003
 30
0.0
 11
-71.22236411102671
 21
-5.122878000000035
 31
0.0
  0
ARC
  5
21EAE
330
1F
100
AcDbEntity
  8
SKVIEW1
100
AcDbCircle
 10
-66.44712111102683
 20
-6.402410000000023
 30
0.0
 40
4.943476999999997
100
AcDbArc
 50
155.28114
 51
164.9456899999997
  0
LINE
  5
21EAF
330
1F
100
AcDbEntity
  8
SKVIEW1
100
AcDbLine
 10
-70.36710111102684
 20
-3.11268100000003
 30
0.0
 11
-70.93743811102683
 21
-4.335304000000028
 31
0.0
  0
SPLINE
  5
21EB0
330
1F
100
AcDbEntity
  8
SKVIEW1
100
AcDbSpline
210
0.0
220
0.0
230
1.0
 70
     8
 71
     5
 72
    30
 73
    24
 74
     0
 42
0.000000001
 43
0.0000000001
 40
0.0
 40
0.0
 40
0.0
 40
0.0
 40
0.0
 40
0.0
 40
15.87824100557847
 40
15.87824100557847
 40
15.87824100557847
 40
31.78531108184159
 40
31.78531108184159
 40
31.78531108184159
 40
42.43943004152742
 40
42.43943004152742
 40
42.43943004152742
 40
45.98178427488305
 40
45.98178427488305
 40
45.98178427488305
 40
48.72835125945952
 40
48.72835125945952
 40
48.72835125945952
 40
50.78659412582414
 40
50.78659412582414
 40
50.78659412582414
 40
53.2953452005892
 40
53.2953452005892
 40
53.2953452005892
 40
53.2953452005892
 40
53.2953452005892
 40
53.2953452005892
 10
-69.0415953317862
 20
-0.2299404889984302
 30
0.0
 10
-69.05029072159492
 20
-0.2516549287890015
 30
0.0
 10
-69.06018092539881
 20
-0.275848953585232
 30
0.0
 10
-69.0715757586013
 20
-0.3031898796941093
 30
0.0
 10
-69.09846222216164
 20
-0.3664789908055965
 30
0.0
 10
-69.13748987613764
 20
-0.4556240815346017
 30
0.0
 10
-69.16004359087463
 20
-0.5064633629161151
 30
0.0
 10
-69.20882115979242
 20
-0.6153716819609301
 30
0.0
 10
-69.29180497027435
 20
-0.7973686961309383
 30
0.0
 10
-69.33205212362196
 20
-0.8852033564082475
 30
0.0
 10
-69.39997637064323
 20
-1.032914790718017
 30
0.0
 10
-69.5101260694052
 20
-1.27098899935111
 30
0.0
 10
-69.54076162914929
 20
-1.337134253532432
 30
0.0
 10
-69.60217142538778
 20
-1.469577138263125
 30
0.0
 10
-69.6794534595154
 20
-1.636020089712438
 30
0.0
 10
-69.71790319381591
 20
-1.718810080031025
 30
0.0
 10
-69.7910861722844
 20
-1.876181996401831
 30
0.0
 10
-69.87929251264643
 20
-2.065787922121038
 30
0.0
 10
-69.91985189107328
 20
-2.152957782689348
 30
0.0
 10
-70.01840256967432
 20
-2.364539247362009
 30
0.0
 10
-70.13711910320836
 20
-2.619340027255836
 30
0.0
 10
-70.20585994297386
 20
-2.766845346168841
 30
0.0
 10
-70.28354427038164
 20
-2.933484921732506
 30
0.0
 10
-70.36710132448991
 20
-3.112680694435816
 30
0.0
  0
SPLINE
  5
21EB1
330
1F
100
AcDbEntity
  8
SKVIEW1
100
AcDbSpline
210
0.0
220
0.0
230
1.0
 70
     8
 71
     5
 72
    60
 73
    54
 74
     0
 42
0.000000001
 43
0.0000000001
 40
0.0
 40
0.0
 40
0.0
 40
0.0
 40
0.0
 40
0.0
 40
24.66289044954861
 40
24.66289044954861
 40
24.66289044954861
 40
61.65671096113104
 40
61.65671096113104
 40
61.65671096113104
 40
86.31928005333755
 40
86.31928005333755
 40
86.31928005333755
 40
98.65065317647921
 40
98.65065317647921
 40
98.65065317647921
 40
111.1192867398438
 40
111.1192867398438
 40
111.1192867398438
 40
116.6004995031815
 40
116.6004995031815
 40
116.6004995031815
 40
119.9429098033
 40
119.9429098033
 40
119.9429098033
 40
120.814472408275
 40
120.814472408275
 40
120.814472408275
 40
121.6860350132499
 40
121.6860350132499
 40
121.6860350132499
 40
122.0140450590205
 40
122.0140450590205
 40
122.0140450590205
 40
122.0551732197223
 40
122.0551732197223
 40
122.0551732197223
 40
122.0963013804239
 40
122.0963013804239
 40
122.0963013804239
 40
122.272391427309
 40
122.272391427309
 40
122.272391427309
 40
122.3205345688056
 40
122.3205345688056
 40
122.3205345688056
 40
122.3686777103022
 40
122.3686777103022
 40
122.3686777103022
 40
123.0675970192775
 40
123.0675970192775
 40
123.0675970192775
 40
123.6440236684001
 40
123.6440236684001
 40
123.6440236684001
 40
123.6440236684001
 40
123.6440236684001
 40
123.6440236684001
 10
-69.0415953317862
 20
-0.2299404889984302
 30
0.0
 10
-69.02808774566949
 20
-0.1962088597546128
 30
0.0
 10
-69.02085779982633
 20
-0.170542187568536
 30
0.0
 10
-69.01557300260117
 20
-0.1482765504918504
 30
0.0
 10
-69.0063224712689
 20
-0.0964528986567572
 30
0.0
 10
-69.00524902146088
 20
-0.0532903080262699
 30
0.0
 10
-69.00660577158584
 20
-0.0286810510171378
 30
0.0
 10
-69.01178947392134
 20
0.0127624816445646
 30
0.0
 10
-69.02359469795164
 20
0.0579784086325574
 30
0.0
 10
-69.02954425415193
 20
0.0770554984168896
 30
0.0
 10
-69.04075354472803
 20
0.1082575837762718
 30
0.0
 10
-69.05807938116073
 20
0.1465103061858954
 30
0.0
 10
-69.06472519295272
 20
0.1602652308135717
 30
0.0
 10
-69.07979708147371
 20
0.1896404974451755
 30
0.0
 10
-69.10063463814214
 20
0.225567451052747
 30
0.0
 10
-69.11262548050439
 20
0.2450725177442692
 30
0.0
 10
-69.13460602592977
 20
0.2790392265491519
 30
0.0
 10
-69.16939236119628
 20
0.3260822897758899
 30
0.0
 10
-69.18162072205831
 20
0.3420471099451632
 30
0.0
 10
-69.20435179102691
 20
0.3707759025478836
 30
0.0
 10
-69.23721050430913
 20
0.4088981359291566
 30
0.0
 10
-69.25001207634172
 20
0.4231740052332569
 30
0.0
 10
-69.27056939094422
 20
0.4458395295033954
 30
0.0
 10
-69.30063069027671
 20
0.4766305415700815
 30
0.0
 10
-69.30738379602536
 20
0.4834492316649134
 30
0.0
 10
-69.3219671824043
 20
0.4980023819749492
 30
0.0
 10
-69.34021049854161
 20
0.515578053200251
 30
0.0
 10
-69.35054743743791
 20
0.5253669456195738
 30
0.0
 10
-69.36616444924715
 20
0.5400010446238995
 30
0.0
 10
-69.38849039406602
 20
0.5600022573161496
 30
0.0
 10
-69.3952725417505
 20
0.5660117848997645
 30
0.0
 10
-69.40371223898313
 20
0.5734176265682791
 30
0.0
 10
-69.41423135264892
 20
0.5824582615986813
 30
0.0
 10
-69.41586634686399
 20
0.5838241117203679
 30
0.0
 10
-69.42046876788788
 20
0.5875725241047363
 30
0.0
 10
-69.42732271314873
 20
0.5930377259477737
 30
0.0
 10
-69.43129947302293
 20
0.596189566533873
 30
0.0
 10
-69.45357992380303
 20
0.613781671579865
 30
0.0
 10
-69.48248141470969
 20
0.6363271181842621
 30
0.0
 10
-69.50440434031571
 20
0.6533706401699604
 30
0.0
 10
-69.53431155146467
 20
0.6765275026873852
 30
0.0
 10
-69.5569603479284
 20
0.6937844920979971
 30
0.0
 10
-69.56149954869733
 20
0.6972218327009685
 30
0.0
 10
-69.56877034615036
 20
0.7026649828679937
 30
0.0
 10
-69.57307842857165
 20
0.7057614156356708
 30
0.0
 10
-69.574550911389
 20
0.7067733689168634
 30
0.0
 10
-69.60094906566786
 20
0.725268440358498
 30
0.0
 10
-69.62079164147296
 20
0.7384804025974816
 30
0.0
 10
-69.63544765468299
 20
0.7480419334186835
 30
0.0
 10
-69.65958762953011
 20
0.7636338196843795
 30
0.0
 10
-69.68304595391135
 20
0.7783498014613956
 30
0.0
 10
-69.6941862657203
 20
0.7852493188406485
 30
0.0
 10
-69.70596957278821
 20
0.7923805485893709
 30
0.0
 10
-69.71739077967987
 20
0.7991869551164044
 30
0.0
  0
LINE
  5
21EB2
330
1F
100
AcDbEntity
  8
SKVIEW1
100
AcDbLine
 10
-69.7173911110267
 20
0.7991869999999679
 30
0.0
 11
-72.49616411102682
 21
1.543756999999977
 31
0.0
  0
LINE
  5
21EB3
330
1F
100
AcDbEntity
  8
SKVIEW1
100
AcDbLine
 10
-72.79361711102684
 20
2.63048099999998
 30
0.0
 11
-69.7173911110267
 21
0.7991869999999679
 31
0.0
  0
ARC
  5
21EB4
330
1F
100
AcDbEntity
  8
SKVIEW1
100
AcDbCircle
 10
-66.07615811102681
 20
13.89953099999997
 30
0.0
 40
13.119309
100
AcDbArc
 50
236.8128570000003
 51
239.200913
  0
ARC
  5
21EB5
330
1F
100
AcDbEntity
  8
SKVIEW1
100
AcDbCircle
 10
-68.66663611102683
 20
-0.0000000000000213
 30
0.0
 40
5.720412999999997
100
AcDbArc
 50
63.47694199999911
 51
145.5514760000002
  0
ARC
  5
21EB6
330
1F
100
AcDbEntity
  8
SKVIEW1
100
AcDbCircle
 10
-68.66663611102683
 20
-0.0000000000000213
 30
0.0
 40
4.894016999999998
100
AcDbArc
 50
62.35477200000004
 51
147.4871220000007
  0
ARC
  5
21EB7
330
1F
100
AcDbEntity
  8
SKVIEW1
100
AcDbCircle
 10
-68.66663611102683
 20
-0.0000000000000213
 30
0.0
 40
9.07
100
AcDbArc
 50
90.0
 51
131.9414560000005
  0
ARC
  5
21EB8
330
1F
100
AcDbEntity
  8
SKVIEW1
100
AcDbCircle
 10
-68.66663611102683
 20
-0.0000000000000213
 30
0.0
 40
9.449999999999999
100
AcDbArc
 50
90.0
 51
130.0463720000014
  0
ARC
  5
21EB9
330
1F
100
AcDbEntity
  8
SKVIEW1
100
AcDbCircle
 10
-68.66663611102683
 20
-0.0000000000000213
 30
0.0
 40
4.894016999999998
100
AcDbArc
 50
242.3547720000001
 51
327.4871220000008
  0
ARC
  5
21EBA
330
1F
100
AcDbEntity
  8
SKVIEW1
100
AcDbCircle
 10
-68.66663611102683
 20
-0.0000000000000213
 30
0.0
 40
5.720412999999997
100
AcDbArc
 50
243.4769419999991
 51
325.5514760000003
  0
ARC
  5
21EBB
330
1F
100
AcDbEntity
  8
SKVIEW1
100
AcDbCircle
 10
-68.96663611102685
 20
-6.190235000000022
 30
0.0
 40
0.4725
100
AcDbArc
 50
309.4140980000001
 51
87.22542099999969
  0
LINE
  5
21EBC
330
1F
100
AcDbEntity
  8
SKVIEW1
100
AcDbLine
 10
-68.66663611102683
 20
-9.070000000000012
 30
0.0
 11
-68.66663611102683
 21
-6.555278000000008
 31
0.0
  0
ARC
  5
21EBD
330
1F
100
AcDbEntity
  8
SKVIEW1
100
AcDbCircle
 10
-68.66663611102683
 20
-0.0000000000000213
 30
0.0
 40
9.07
100
AcDbArc
 50
270.0
 51
311.9414560000005
  0
ARC
  5
21EBE
330
1F
100
AcDbEntity
  8
SKVIEW1
100
AcDbCircle
 10
-68.66663611102683
 20
-0.0000000000000213
 30
0.0
 40
9.449999999999999
100
AcDbArc
 50
270.0
 51
310.0463720000015
  0
LINE
  5
21EBF
330
1F
100
AcDbEntity
  8
SKVIEW1
100
AcDbLine
 10
-68.66663611102683
 20
-9.070000000000012
 30
0.0
 11
-68.66663611102683
 21
-9.450000000000008
 31
0.0
  0
ARC
  5
21EC0
330
1F
100
AcDbEntity
  8
SKVIEW1
100
AcDbCircle
 10
-68.66663611102683
 20
-0.0000000000000213
 30
0.0
 40
5.724999999999997
100
AcDbArc
 50
9.621494999999804
 51
87.23911900000155
  0
LINE
  5
21EC1
330
1F
100
AcDbEntity
  8
SKVIEW1
100
AcDbLine
 10
-60.14773611102691
 20
-3.014638000000012
 30
0.0
 11
-60.14773611102691
 21
1.215055999999981
 31
0.0
  0
ARC
  5
21EC2
330
1F
100
AcDbEntity
  8
SKVIEW1
100
AcDbCircle
 10
-61.83821011102691
 20
-2.410183999999951
 30
0.0
 40
4.000008
100
AcDbArc
 50
65.00004900000106
 51
108.5528840000002
  0
LINE
  5
21EC3
330
1F
100
AcDbEntity
  8
SKVIEW1
100
AcDbLine
 10
-63.95782111102683
 20
-0.3907480000000234
 30
0.0
 11
-63.95018711102682
 21
-0.2841400000000291
 31
0.0
  0
LINE
  5
21EC4
330
1F
100
AcDbEntity
  8
SKVIEW1
100
AcDbLine
 10
-64.37807611102681
 20
-2.454299000000013
 30
0.0
 11
-64.37807711102692
 21
-1.278751000000021
 31
0.0
  0
ARC
  5
21EC5
330
1F
100
AcDbEntity
  8
SKVIEW1
100
AcDbCircle
 10
-62.46939111102682
 20
-12.50837400000002
 30
0.0
 40
9.603114999999997
100
AcDbArc
 50
92.99222599999856
 51
99.35749300000107
  0
LINE
  5
21EC6
330
1F
100
AcDbEntity
  8
SKVIEW1
100
AcDbLine
 10
-62.97067911102693
 20
-2.918231000000012
 30
0.0
 11
-62.96094111102684
 21
-2.899145000000025
 31
0.0
  0
ARC
  5
21EC7
330
1F
100
AcDbEntity
  8
SKVIEW1
100
AcDbCircle
 10
-61.83820611102685
 20
-6.738352999999952
 30
0.0
 40
4.000003999999997
100
AcDbArc
 50
69.21220899999835
 51
106.3010090000007
  0
LINE
  5
21EC8
330
1F
100
AcDbEntity
  8
SKVIEW1
100
AcDbLine
 10
-60.14773811102685
 20
-3.014649999999952
 30
0.0
 11
-60.41857811102682
 21
-2.998741999999957
 31
0.0
  0
LINE
  5
21EC9
330
1F
100
AcDbEntity
  8
SKVIEW1
100
AcDbLine
 10
-68.66663611102683
 20
5.825103999999987
 30
0.0
 11
-68.66663611102683
 21
7.979999999999967
 31
0.0
  0
LINE
  5
21ECA
330
1F
100
AcDbEntity
  8
SKVIEW1
100
AcDbLine
 10
-60.14773611102691
 20
1.215055999999981
 30
0.0
 11
-53.05616311102681
 21
-2.091798000000031
 31
0.0
  0
ARC
  5
21ECB
330
1F
100
AcDbEntity
  8
SKVIEW1
100
AcDbCircle
 10
-68.66663611102683
 20
-0.0000000000000213
 30
0.0
 40
15.75
100
AcDbArc
 50
337.8343019999989
 51
75.40034700000048
  0
LINE
  5
21ECC
330
1F
100
AcDbEntity
  8
SKVIEW1
100
AcDbLine
 10
-64.69663611102669
 20
7.979999999999967
 30
0.0
 11
-64.69663611102669
 21
15.24144399999998
 31
0.0
  0
LINE
  5
21ECD
330
1F
100
AcDbEntity
  8
SKVIEW1
100
AcDbLine
 10
-64.69663611102669
 20
7.979999999999967
 30
0.0
 11
-68.66663611102683
 21
7.979999999999967
 31
0.0
  0
CIRCLE
  5
21ECE
330
1F
100
AcDbEntity
  8
SKVIEW1
100
AcDbCircle
 10
-57.58151111102683
 20
6.399999999999983
 30
0.0
 40
1.6
  0
SPLINE
  5
21ECF
330
1F
100
AcDbEntity
  8
SKVIEW1
100
AcDbSpline
210
0.0
220
0.0
230
1.0
 70
     8
 71
     5
 72
    36
 73
    30
 74
     0
 42
0.000000001
 43
0.0000000001
 40
0.0
 40
0.0
 40
0.0
 40
0.0
 40
0.0
 40
0.0
 40
2.11546768458276
 40
2.11546768458276
 40
2.11546768458276
 40
3.189281049499672
 40
3.189281049499672
 40
3.189281049499672
 40
4.286055676624656
 40
4.286055676624656
 40
4.286055676624656
 40
5.430018931615478
 40
5.430018931615478
 40
5.430018931615478
 40
6.035088308987712
 40
6.035088308987712
 40
6.035088308987712
 40
6.643779040851327
 40
6.643779040851327
 40
6.643779040851327
 40
7.819870792506275
 40
7.819870792506275
 40
7.819870792506275
 40
9.97399757908469
 40
9.97399757908469
 40
9.97399757908469
 40
10.98123845331707
 40
10.98123845331707
 40
10.98123845331707
 40
10.98123845331707
 40
10.98123845331707
 40
10.98123845331707
 10
-60.14773842357119
 20
-3.014650434259627
 30
0.0
 10
-60.00027405137581
 20
-3.021896500468435
 30
0.0
 10
-59.84974937381911
 20
-3.032001534789933
 30
0.0
 10
-59.69706363251702
 20
-3.045348938365115
 30
0.0
 10
-59.46008870328881
 20
-3.071259571601493
 30
0.0
 10
-59.20851725281898
 20
-3.109287236061837
 30
0.0
 10
-59.12181834955612
 20
-3.123675641788615
 30
0.0
 10
-58.94270307394464
 20
-3.156345903488265
 30
0.0
 10
-58.75444144673355
 20
-3.197681627364765
 30
0.0
 10
-58.65650743594802
 20
-3.221185026737336
 30
0.0
 10
-58.45037848634138
 20
-3.275491345557916
 30
0.0
 10
-58.23097061341565
 20
-3.345463059370323
 30
0.0
 10
-58.11695586836385
 20
-3.385361973178496
 30
0.0
 10
-57.93457882653718
 20
-3.456351442878819
 30
0.0
 10
-57.7503928297363
 20
-3.540449364064861
 30
0.0
 10
-57.6868050921135
 20
-3.571092742596611
 30
0.0
 10
-57.56093397326429
 20
-3.635139367843912
 30
0.0
 10
-57.43985503036668
 20
-3.703462766288616
 30
0.0
 10
-57.38250383364407
 20
-3.737498631003424
 30
0.0
 10
-57.2147728820932
 20
-3.841952804259242
 30
0.0
 10
-57.06539394394792
 20
-3.948739789545548
 30
0.0
 10
-56.97473614035682
 20
-4.019387389586618
 30
0.0
 10
-56.74286906745464
 20
-4.213091881678528
 30
0.0
 10
-56.56013918661789
 20
-4.398998695687303
 30
0.0
 10
-56.45389528064669
 20
-4.518327435515907
 30
0.0
 10
-56.31763808937485
 20
-4.685397085172033
 30
0.0
 10
-56.19948532522733
 20
-4.848509096568243
 30
0.0
 10
-56.16343873878583
 20
-4.90016618943823
 30
0.0
 10
-56.12884658539678
 20
-4.951550662734995
 30
0.0
 10
-56.09560474842635
 20
-5.002655035171606
 30
0.0
  0
LINE
  5
21ED0
330
1F
100
AcDbEntity
  8
SKVIEW1
100
AcDbLine
 10
-56.09560611102683
 20
-5.002655000000025
 30
0.0
 11
-54.08061411102682
 21
-5.942261000000022
 31
0.0
  0
ARC
  5
21ED1
330
1F
100
AcDbEntity
  8
SKVIEW1
100
AcDbCircle
 10
-63.13871411102685
 20
-16.57357899999993
 30
0.0
 40
12.935423
100
AcDbArc
 50
91.17141800000151
 51
92.84734600000065
  0
ARC
  5
21ED2
330
1F
100
AcDbEntity
  8
SKVIEW1
100
AcDbCircle
 10
-68.66663611102683
 20
-0.0000000000000213
 30
0.0
 40
6.4
100
AcDbArc
 50
325.3275710000012
 51
332.8724070000004
  0
ARC
  5
21ED3
330
1F
100
AcDbEntity
  8
SKVIEW1
100
AcDbCircle
 10
-61.97029911102686
 20
-12.01303900000001
 30
0.0
 40
9.14666
100
AcDbArc
 50
50.03703900000091
 51
80.23280099999933
  0
LINE
  5
21ED4
330
1F
100
AcDbEntity
  8
SKVIEW1
100
AcDbLine
 10
-72.9551991110269
 20
2.454305000000069
 30
0.0
 11
-72.9551991110269
 21
1.278747999999985
 31
0.0
  0
LINE
  5
21ED5
330
1F
100
AcDbEntity
  8
SKVIEW1
100
AcDbLine
 10
-77.18553611102669
 20
3.014637999999969
 30
0.0
 11
-77.18553611102669
 21
-1.215056000000024
 31
0.0
  0
ARC
  5
21ED6
330
1F
100
AcDbEntity
  8
SKVIEW1
100
AcDbCircle
 10
-75.49516911102665
 20
2.410149999999965
 30
0.0
 40
3.999978
100
AcDbArc
 50
245.0012200000013
 51
288.5544800000015
  0
ARC
  5
21ED7
330
1F
100
AcDbEntity
  8
SKVIEW1
100
AcDbCircle
 10
-68.66663611102683
 20
-0.0000000000000213
 30
0.0
 40
5.724999999999997
100
AcDbArc
 50
189.6214949999998
 51
241.3521099999982
  0
ARC
  5
21ED8
330
1F
100
AcDbEntity
  8
SKVIEW1
100
AcDbCircle
 10
-74.86388111102684
 20
12.50837399999998
 30
0.0
 40
9.603114999999997
100
AcDbArc
 50
272.9922259999985
 51
279.3574939999984
  0
LINE
  5
21ED9
330
1F
100
AcDbEntity
  8
SKVIEW1
100
AcDbLine
 10
-74.36259311102684
 20
2.91823099999997
 30
0.0
 11
-74.37233111102671
 21
2.899144999999982
 31
0.0
  0
ARC
  5
21EDA
330
1F
100
AcDbEntity
  8
SKVIEW1
100
AcDbCircle
 10
-75.49506611102684
 20
6.738344999999986
 30
0.0
 40
3.999995999999999
100
AcDbArc
 50
249.2121649999991
 51
286.3010429999984
  0
LINE
  5
21EDB
330
1F
100
AcDbEntity
  8
SKVIEW1
100
AcDbLine
 10
-77.18553411102694
 20
3.014649999999966
 30
0.0
 11
-76.91469411102684
 21
2.998741999999971
 31
0.0
  0
ARC
  5
21EDC
330
1F
100
AcDbEntity
  8
SKVIEW1
100
AcDbCircle
 10
-74.19456711102686
 20
16.57386400000005
 30
0.0
 40
12.935708
100
AcDbArc
 50
271.1714310000009
 51
272.845835999999
  0
ARC
  5
21EDD
330
1F
100
AcDbEntity
  8
SKVIEW1
100
AcDbCircle
 10
-68.66663611102683
 20
-0.0000000000000213
 30
0.0
 40
6.4
100
AcDbArc
 50
145.3275710000012
 51
152.8724070000004
  0
SPLINE
  5
21EDE
330
1F
100
AcDbEntity
  8
SKVIEW1
100
AcDbSpline
210
0.0
220
0.0
230
1.0
 70
     8
 71
     5
 72
    36
 73
    30
 74
     0
 42
0.000000001
 43
0.0000000001
 40
0.0
 40
0.0
 40
0.0
 40
0.0
 40
0.0
 40
0.0
 40
2.115467684270376
 40
2.115467684270376
 40
2.115467684270376
 40
3.189281049043521
 40
3.189281049043521
 40
3.189281049043521
 40
4.286055675983321
 40
4.286055675983321
 40
4.286055675983321
 40
5.430018930740502
 40
5.430018930740502
 40
5.430018930740502
 40
6.035088307986427
 40
6.035088307986427
 40
6.035088307986427
 40
6.643779039715682
 40
6.643779039715682
 40
6.643779039715682
 40
7.819870791165111
 40
7.819870791165111
 40
7.819870791165111
 40
9.973997577100943
 40
9.973997577100943
 40
9.973997577100943
 40
10.98123845137122
 40
10.98123845137122
 40
10.98123845137122
 40
10.98123845137122
 40
10.98123845137122
 40
10.98123845137122
 10
-77.18553379848373
 20
3.014650434242873
 30
0.0
 10
-77.33299817064943
 20
3.021896500450771
 30
0.0
 10
-77.48352284817316
 20
3.032001534769256
 30
0.0
 10
-77.63620858950305
 20
3.045348938345973
 30
0.0
 10
-77.87318351876534
 20
3.071259571581584
 30
0.0
 10
-78.12475496921837
 20
3.109287236038689
 30
0.0
 10
-78.21145387247056
 20
3.123675641763163
 30
0.0
 10
-78.39056914803411
 20
3.156345903450564
 30
0.0
 10
-78.578830775222
 20
3.197681627318593
 30
0.0
 10
-78.67676478601119
 20
3.221185026690398
 30
0.0
 10
-78.88289373560309
 20
3.27549134550356
 30
0.0
 10
-79.10230160847182
 20
3.345463059288653
 30
0.0
 10
-79.216316353509
 20
3.385361973087163
 30
0.0
 10
-79.39869339527318
 20
3.45635144275247
 30
0.0
 10
-79.58287939203114
 20
3.540449363902076
 30
0.0
 10
-79.64646712964044
 20
3.571092742420553
 30
0.0
 10
-79.77233824846422
 20
3.635139367641648
 30
0.0
 10
-79.89341719134398
 20
3.703462766062251
 30
0.0
 10
-79.95076838806333
 20
3.737498630768363
 30
0.0
 10
-80.1184993396022
 20
3.841952803994992
 30
0.0
 10
-80.2678782777524
 20
3.948739789260891
 30
0.0
 10
-80.35853608136614
 20
4.019387389304178
 30
0.0
 10
-80.59040315426733
 20
4.213091881348397
 30
0.0
 10
-80.77313303515571
 20
4.398998695339179
 30
0.0
 10
-80.87937694116034
 20
4.518327435171761
 30
0.0
 10
-81.01563413264381
 20
4.685397085062284
 30
0.0
 10
-81.13378689691382
 20
4.848509096613902
 30
0.0
 10
-81.1698334833798
 20
4.900166189519673
 30
0.0
 10
-81.20442563676197
 20
4.951550662811178
 30
0.0
 10
-81.23766747372622
 20
5.002655035243242
 30
0.0
  0
LINE
  5
21EDF
330
1F
100
AcDbEntity
  8
SKVIEW1
100
AcDbLine
 10
-81.23766611102684
 20
5.002654999999981
 30
0.0
 11
-83.25265811102685
 21
5.94226099999998
 31
0.0
  0
ARC
  5
21EE0
330
1F
100
AcDbEntity
  8
SKVIEW1
100
AcDbCircle
 10
-68.66663611102683
 20
-0.0000000000000213
 30
0.0
 40
15.75
100
AcDbArc
 50
157.834302
 51
255.4003470000004
  0
LINE
  5
21EE1
330
1F
100
AcDbEntity
  8
SKVIEW1
100
AcDbLine
 10
-77.18553611102669
 20
-1.215056000000024
 30
0.0
 11
-84.27710911102684
 21
2.09179799999999
 31
0.0
  0
LINE
  5
21EE2
330
1F
100
AcDbEntity
  8
SKVIEW1
100
AcDbLine
 10
-68.66663611102683
 20
-6.555278000000008
 30
0.0
 11
-68.66663611102683
 21
-5.825196000000025
 31
0.0
  0
LINE
  5
21EE3
330
1F
100
AcDbEntity
  8
SKVIEW1
100
AcDbLine
 10
-72.63663611102693
 20
-7.980000000000011
 30
0.0
 11
-72.63663611102693
 21
-8.537947000000022
 31
0.0
  0
LINE
  5
21EE4
330
1F
100
AcDbEntity
  8
SKVIEW1
100
AcDbLine
 10
-72.63663611102693
 20
-7.980000000000011
 30
0.0
 11
-68.66663611102683
 21
-7.980000000000011
 31
0.0
  0
CIRCLE
  5
21EE5
330
1F
100
AcDbEntity
  8
SKVIEW1
100
AcDbCircle
 10
-79.75176111102681
 20
-6.400000000000027
 30
0.0
 40
1.6
  0
ARC
  5
21EE6
330
1F
100
AcDbEntity
  8
SKVIEW1
100
AcDbCircle
 10
-75.36315311102669
 20
12.01306799999998
 30
0.0
 40
9.146611
100
AcDbArc
 50
230.0380159999996
 51
260.2339399999986
  0
LINE
  5
21EE7
330
1F
100
AcDbEntity
  8
SKVIEW1
100
AcDbLine
 10
-68.66663611102683
 20
-10.26941799999993
 30
0.0
 11
-68.66663611102683
 21
-9.450006000000023
 31
0.0
  0
LINE
  5
21EE8
330
1F
100
AcDbEntity
  8
SKVIEW1
100
AcDbLine
 10
-68.66663611102683
 20
-13.68865600000003
 30
0.0
 11
-68.66663611102683
 21
-13.15556600000001
 31
0.0
  0
LINE
  5
21EE9
330
1F
100
AcDbEntity
  8
SKVIEW1
100
AcDbLine
 10
-68.66663611102683
 20
-15.75000000000002
 30
0.0
 11
-68.66663611102683
 21
-13.82301400000002
 31
0.0
  0
LINE
  5
21EEA
330
1F
100
AcDbEntity
  8
SKVIEW1
100
AcDbLine
 10
-68.66663611102683
 20
8.779999999999978
 30
0.0
 11
-68.66663611102683
 21
7.979999999999967
 31
0.0
  0
LINE
  5
21EEB
330
1F
100
AcDbEntity
  8
SKVIEW1
100
AcDbLine
 10
-68.66663611102683
 20
15.19999999999997
 30
0.0
 11
-68.66663611102683
 21
8.779999999999978
 31
0.0
  0
LINE
  5
21EEC
330
1F
100
AcDbEntity
  8
SKVIEW1
100
AcDbLine
 10
-68.66663611102683
 20
15.19999999999997
 30
0.0
 11
-68.66663611102683
 21
16.00000000000006
 31
0.0
  0
LINE
  5
21EED
330
1F
100
AcDbEntity
  8
SKVIEW1
100
AcDbLine
 10
-64.69663611102669
 20
15.44205299999996
 30
0.0
 11
-64.69663611102669
 21
15.19999999999997
 31
0.0
  0
LINE
  5
21EEE
330
1F
100
AcDbEntity
  8
SKVIEW1
100
AcDbLine
 10
-64.69663611102669
 20
15.19999999999997
 30
0.0
 11
-64.69663611102669
 21
8.779999999999978
 31
0.0
  0
LINE
  5
21EEF
330
1F
100
AcDbEntity
  8
SKVIEW1
100
AcDbLine
 10
-64.69663611102669
 20
8.779999999999978
 30
0.0
 11
-64.69663611102669
 21
8.537946999999981
 31
0.0
  0
LINE
  5
21EF0
330
1F
100
AcDbEntity
  8
SKVIEW1
100
AcDbLine
 10
-64.69663611102669
 20
8.537946999999981
 30
0.0
 11
-68.66663611102683
 21
7.979999999999967
 31
0.0
  0
LINE
  5
21EF1
330
1F
100
AcDbEntity
  8
SKVIEW1
100
AcDbLine
 10
-64.69663611102669
 20
8.779999999999978
 30
0.0
 11
-68.66663611102683
 21
8.779999999999978
 31
0.0
  0
LINE
  5
21EF2
330
1F
100
AcDbEntity
  8
SKVIEW1
100
AcDbLine
 10
-64.69663611102669
 20
15.19999999999997
 30
0.0
 11
-68.66663611102683
 21
15.19999999999997
 31
0.0
  0
LINE
  5
21EF3
330
1F
100
AcDbEntity
  8
SKVIEW1
100
AcDbLine
 10
-64.69663611102669
 20
15.44205299999996
 30
0.0
 11
-68.66663611102683
 21
16.00000000000006
 31
0.0
  0
LINE
  5
21EF4
330
1F
100
AcDbEntity
  8
SKVIEW1
100
AcDbLine
 10
-68.66663611102683
 20
-15.20000000000001
 30
0.0
 11
-68.66663611102683
 21
-9.450001000000009
 31
0.0
  0
LINE
  5
21EF5
330
1F
100
AcDbEntity
  8
SKVIEW1
100
AcDbLine
 10
-68.66663611102683
 20
-15.20000000000001
 30
0.0
 11
-68.66663611102683
 21
-16.00000000000002
 31
0.0
  0
LINE
  5
21EF6
330
1F
100
AcDbEntity
  8
SKVIEW1
100
AcDbLine
 10
-72.63663611102693
 20
-15.44205300000001
 30
0.0
 11
-72.63663611102693
 21
-15.20000000000001
 31
0.0
  0
LINE
  5
21EF7
330
1F
100
AcDbEntity
  8
SKVIEW1
100
AcDbLine
 10
-72.63663611102693
 20
-15.20000000000001
 30
0.0
 11
-72.63663611102693
 21
-8.780000000000022
 31
0.0
  0
LINE
  5
21EF8
330
1F
100
AcDbEntity
  8
SKVIEW1
100
AcDbLine
 10
-72.63663611102693
 20
-8.780000000000022
 30
0.0
 11
-72.63663611102693
 21
-8.537947000000022
 31
0.0
  0
LINE
  5
21EF9
330
1F
100
AcDbEntity
  8
SKVIEW1
100
AcDbLine
 10
-72.63663611102693
 20
-8.537947000000022
 30
0.0
 11
-68.66663611102683
 21
-7.980000000000011
 31
0.0
  0
LINE
  5
21EFA
330
1F
100
AcDbEntity
  8
SKVIEW1
100
AcDbLine
 10
-72.63663611102693
 20
-8.780000000000022
 30
0.0
 11
-68.66663611102683
 21
-8.780000000000022
 31
0.0
  0
LINE
  5
21EFB
330
1F
100
AcDbEntity
  8
SKVIEW1
100
AcDbLine
 10
-72.63663611102693
 20
-15.20000000000001
 30
0.0
 11
-68.66663611102683
 21
-15.20000000000001
 31
0.0
  0
LINE
  5
21EFC
330
1F
100
AcDbEntity
  8
SKVIEW1
100
AcDbLine
 10
-72.63663611102693
 20
-15.44205300000001
 30
0.0
 11
-68.66663611102683
 21
-16.00000000000002
 31
0.0
  0
LINE
  5
21EFD
330
1F
100
AcDbEntity
  8
1
100
AcDbLine
 10
26.61000000000019
 20
9.450000000000052
 30
0.0
 11
25.81
 21
9.450000000000052
 31
0.0
  0
LINE
  5
21EFE
330
1F
100
AcDbEntity
  8
1
100
AcDbLine
 10
27.26817900000003
 20
9.069999999999971
 30
0.0
 11
26.61000000000019
 21
9.450000000000052
 31
0.0
  0
LINE
  5
21EFF
330
1F
100
AcDbEntity
  8
1
100
AcDbLine
 10
27.71159300000011
 20
6.555278000000051
 30
0.0
 11
27.26817900000003
 21
9.069999999999971
 31
0.0
  0
LINE
  5
21F00
330
1F
100
AcDbEntity
  8
1
100
AcDbLine
 10
27.84077300000018
 20
5.822658000000052
 30
0.0
 11
27.71159300000011
 21
6.555278000000051
 31
0.0
  0
ARC
  5
21F01
330
1F
100
AcDbEntity
  8
1
100
AcDbCircle
 10
31.3952460000001
 20
6.343982999999987
 30
0.0
 40
3.591
100
AcDbArc
 50
189.9999990000016
 51
203.814567000005
  0
LINE
  5
21F02
330
1F
100
AcDbEntity
  8
1
100
AcDbLine
 10
30.2700000000001
 20
-0.0000000000000213
 30
0.0
 11
28.10999500000008
 21
4.894016999999968
 31
0.0
  0
LINE
  5
21F03
330
1F
100
AcDbEntity
  8
1
100
AcDbLine
 10
25.81
 20
15.20000000000005
 30
0.0
 11
25.81
 21
9.450000000000052
 31
0.0
  0
ARC
  5
21F04
330
1F
100
AcDbEntity
  8
1
100
AcDbCircle
 10
25.0100000000001
 20
15.20000000000005
 30
0.0
 40
0.8
100
AcDbArc
 50
0.0
 51
90.0
  0
LINE
  5
21F05
330
1F
100
AcDbEntity
  8
1
100
AcDbLine
 10
18.59000000000003
 20
16.00000000000006
 30
0.0
 11
25.0100000000001
 21
16.00000000000006
 31
0.0
  0
ARC
  5
21F06
330
1F
100
AcDbEntity
  8
1
100
AcDbCircle
 10
18.59000000000003
 20
15.20000000000005
 30
0.0
 40
0.8
100
AcDbArc
 50
90.0
 51
180.0
  0
LINE
  5
21F07
330
1F
100
AcDbEntity
  8
1
100
AcDbLine
 10
19.76999999999998
 20
3.00867999999989
 30
0.0
 11
19.76999999999998
 21
2.516238648059561
 31
0.0
  0
LINE
  5
21F08
330
1F
100
AcDbEntity
  8
1
100
AcDbLine
 10
19.76999999999998
 20
7.101664000000061
 30
0.0
 11
19.76999999999998
 21
3.008680000000062
 31
0.0
  0
LINE
  5
21F09
330
1F
100
AcDbEntity
  8
1
100
AcDbLine
 10
19.76999999999998
 20
7.101664000000061
 30
0.0
 11
19.76999999999998
 21
8.335866999999986
 31
0.0
  0
DIMENSION
  5
21F0A
330
1F
100
AcDbEntity
  8
SK2
100
AcDbDimension
280
     0
  2
*D1
 10
-26.71620145057381
 20
-6.400000000000022
 30
0.0
 11
-26.71620145057381
 21
-2.005235274345031
 31
0.0
 70
   160
  1
%%C<>
 71
     5
 42
12.80000000000001
 73
     0
 74
     0
 75
     0
  3
STANDARD
100
AcDbAlignedDimension
 13
-13.0
 23
6.399999999999983
 33
0.0
 14
-13.0
 24
-6.400000000000027
 34
0.0
 50
90.0
100
AcDbRotatedDimension
1001
ACAD_DSTYLE_DIMARC_LENGTH_SYMBOL
1070
   379
1070
     1
1001
ACAD_DSTYLE_DIM_LINETYPE
1070
   380
1005
14
1001
ACAD_DSTYLE_DIM_EXT1_LINETYPE
1070
   381
1005
14
1001
ACAD_DSTYLE_DIM_EXT2_LINETYPE
1070
   382
1005
14
1001
ACAD
1000
DSTYLE
1002
{
1070
   172
1070
     1
1002
}
  0
LWPOLYLINE
  5
220A2
330
1F
100
AcDbEntity
  8
NOCUT
100
AcDbPolyline
 90
        9
 70
     1
 43
0.0
 10
24.81
 20
-0.0000000000000213
 10
24.81
 20
7.550951999999973
 10
24.81
 20
15.75000000000006
 10
0.0
 20
15.75000000000006
 10
0.0
 20
7.550951999999973
 10
0.0
 20
6.399999999999983
 10
-13.0
 20
6.399999999999983
 10
-13.0
 20
3.068322999999971
 10
-13.0
 20
-0.0000000000000213
  0
LINE
  5
220AB
330
1F
100
AcDbEntity
  8
SK4
100
AcDbLine
 10
0.0
 20
-0.0000000000000213
 30
0.0
 11
-16.78107599999993
 21
-0.0000000000000213
 31
0.0
  0
LWPOLYLINE
  5
22160
330
1F
100
AcDbEntity
  8
CUT
 48
0.240324
100
AcDbPolyline
 90
       17
 70
     1
 43
0.0
 10
18.59000000000003
 20
15.99999999999996
 10
25.0100000000001
 20
16.00000000000006
 42
-0.4142135623730951
 10
25.81000000000012
 20
15.19999999999997
 10
25.81000000000017
 20
9.449999999999967
 10
26.61000000000019
 20
9.449999999999967
 10
27.26817900000003
 20
9.069999999999971
 10
27.71159300000011
 20
6.555277999999965
 10
27.85880134804989
 20
5.720412455720654
 42
0.0503842419659215
 10
28.10999436910379
 20
4.894016544631719
 10
30.2700000000001
 20
-0.0000000000000213
 10
19.76999999999998
 20
-0.0000000000000213
 10
19.76999999999998
 20
3.008679999999976
 10
19.76999999999998
 20
7.101663999999977
 10
19.76999999999998
 20
7.979999999999967
 10
18.59000000000003
 20
7.979999999999966
 42
-0.4142135623730951
 10
17.79000000000002
 20
8.779999999999978
 10
17.79000000000002
 20
15.19999999999997
 42
-0.4142135623730951
  0
VIEWPORT
  5
9C00
330
1B
100
AcDbEntity
 67
     1
  8
0
348
3195
100
AcDbViewport
 10
108.2280559557949
 20
71.69854161746989
 30
0.0
 40
251.8950231529317
 41
201.8884082081047
 68
     1
 69
     1
 12
108.2280559557949
 22
71.69854161746989
 13
0.0
 23
0.0
 14
10.0
 24
10.0
 15
10.0
 25
10.0
 16
0.0
 26
0.0
 36
1.0
 17
0.0
 27
0.0
 37
0.0
 42
50.0
 43
0.0
 44
0.0
 45
201.8884082081047
 50
0.0
 51
0.0
 72
   100
 90
   557088
  1

281
     0
 71
     1
 74
     0
110
0.0
120
0.0
130
0.0
111
1.0
121
0.0
131
0.0
112
0.0
122
1.0
132
0.0
 79
     0
146
0.0
170
     0
 61
     5
292
     1
282
     1
141
0.0
142
0.0
 63
   250
421
  3355443
  0
VIEWPORT
  5
9C02
330
1B
100
AcDbEntity
 67
     1
  8
1
348
3195
100
AcDbViewport
 10
143.457083940506
 20
98.18158769607544
 30
0.0
 40
229.5313343048095
 41
157.0905403137207
 68
     2
 69
     2
 12
-44.37697124786255
 22
-35.12342998133886
 13
0.0
 23
0.0
 14
10.0
 24
10.0
 15
10.0
 25
10.0
 16
0.0
 26
0.0
 36
1.0
 17
0.0
 27
0.0
 37
0.0
 42
50.0
 43
0.0
 44
0.0
 45
300.3886240724386
 50
0.0
 51
0.0
 72
   100
 90
   557088
  1

281
     0
 71
     1
 74
     0
110
0.0
120
0.0
130
0.0
111
1.0
121
0.0
131
0.0
112
0.0
122
1.0
132
0.0
 79
     0
146
0.0
170
     0
 61
     5
292
     1
282
     1
141
0.0
142
0.0
 63
   250
421
  3355443
  0
ENDSEC
  0
SECTION
  2
OBJECTS
  0
DICTIONARY
  5
3182
330
0
100
AcDbDictionary
281
     1
  3
ACAD_CIP_PREVIOUS_PRODUCT_INFO
350
1B2F4
  3
ACAD_COLOR
350
31A0
  3
ACAD_DETAILVIEWSTYLE
350
1B2F0
  3
ACAD_FIELDLIST
350
20CBF
  3
ACAD_GROUP
350
3183
  3
ACAD_LAYOUT
350
31A5
  3
ACAD_MATERIAL
350
318B
  3
ACAD_MLEADERSTYLE
350
1B221
  3
ACAD_MLINESTYLE
350
3184
  3
ACAD_PLOTSETTINGS
350
31A4
  3
ACAD_PLOTSTYLENAME
350
3189
  3
ACAD_SCALELIST
350
1B1FC
  3
ACAD_SECTIONVIEWSTYLE
350
1B2EE
  3
ACAD_TABLESTYLE
350
31A1
  3
ACAD_VISUALSTYLE
350
318F
  3
ACDB_RECOMPOSE_DATA
350
22172
  3
AcDbVariableDictionary
350
33A3
  0
DICTIONARY
  5
422A
330
2
100
AcDbDictionary
280
     1
281
     1
  3
ACAD_LAYERFILTERS
360
1B063
  3
ACAD_LAYERSTATES
360
9A1C
  3
ACLYDICTIONARY
360
1B062
  0
DICTIONARY
  5
1B2F5
330
10
100
AcDbDictionary
280
     1
281
     1
  3
ADSK_XREC_LAYER_RECONCILED
360
21B8E
  0
DICTIONARY
  5
1B2F7
330
3F8C
100
AcDbDictionary
280
     1
281
     1
  3
ADSK_XREC_LAYER_RECONCILED
360
21B8F
  0
DICTIONARY
  5
1B2F9
330
9C4A
100
AcDbDictionary
280
     1
281
     1
  3
ADSK_XREC_LAYER_RECONCILED
360
21B90
  0
DICTIONARY
  5
1B2FB
330
9C4B
100
AcDbDictionary
280
     1
281
     1
  3
ADSK_XREC_LAYER_RECONCILED
360
21B91
  0
DICTIONARY
  5
1B2FD
330
9C4D
100
AcDbDictionary
280
     1
281
     1
  3
ADSK_XREC_LAYER_RECONCILED
360
21B92
  0
DICTIONARY
  5
1B2FF
330
9C4E
100
AcDbDictionary
280
     1
281
     1
  3
ADSK_XREC_LAYER_RECONCILED
360
21B93
  0
DICTIONARY
  5
1B301
330
9C4F
100
AcDbDictionary
280
     1
281
     1
  3
ADSK_XREC_LAYER_RECONCILED
360
21B94
  0
DICTIONARY
  5
1B303
330
9C50
100
AcDbDictionary
280
     1
281
     1
  3
ADSK_XREC_LAYER_RECONCILED
360
21B95
  0
DICTIONARY
  5
1B305
330
9C51
100
AcDbDictionary
280
     1
281
     1
  3
ADSK_XREC_LAYER_RECONCILED
360
21B96
  0
DICTIONARY
  5
1B307
330
13335
100
AcDbDictionary
280
     1
281
     1
  3
ADSK_XREC_LAYER_RECONCILED
360
21B97
  0
DICTIONARY
  5
1B309
330
1686E
100
AcDbDictionary
280
     1
281
     1
  3
ADSK_XREC_LAYER_RECONCILED
360
21B98
  0
DICTIONARY
  5
339C
330
1F
100
AcDbDictionary
280
     1
281
     1
  3
ACAD_SORTENTS
360
339D
  0
DICTIONARY
  5
1DE81
330
1B3D7
100
AcDbDictionary
280
     1
281
     1
  0
XRECORD
  5
1B2F4
102
{ACAD_REACTORS
330
3182
102
}
330
3182
100
AcDbXrecord
280
     1
300
ACDLT
300
2015
300
ACDLT_F_S
  0
DICTIONARY
  5
31A0
102
{ACAD_REACTORS
330
3182
102
}
330
3182
100
AcDbDictionary
281
     1
  0
DICTIONARY
  5
1B2F0
102
{ACAD_REACTORS
330
3182
102
}
330
3182
100
AcDbDictionary
281
     1
  3
Imperial24
350
20CB3
  3
Metric50
350
1B2F1
  0
FIELDLIST
  5
20CBF
102
{ACAD_REACTORS
330
3182
102
}
330
3182
100
AcDbIdSet
 90
        0
100
AcDbFieldList
  0
DICTIONARY
  5
3183
102
{ACAD_REACTORS
330
3182
102
}
330
3182
100
AcDbDictionary
281
     1
  0
DICTIONARY
  5
31A5
102
{ACAD_REACTORS
330
3182
102
}
330
3182
100
AcDbDictionary
281
     1
  3
Layout1
350
31A7
  3
Model
350
31A6
  0
DICTIONARY
  5
318B
102
{ACAD_REACTORS
330
3182
102
}
330
3182
100
AcDbDictionary
281
     1
  3
ByBlock
350
318D
  3
ByLayer
350
318C
  3
Global
350
318E
  0
DICTIONARY
  5
1B221
102
{ACAD_REACTORS
330
3182
102
}
330
3182
100
AcDbDictionary
281
     1
  3
Standard
350
1B2ED
  0
DICTIONARY
  5
3184
102
{ACAD_REACTORS
330
3182
102
}
330
3182
100
AcDbDictionary
281
     1
  3
STANDARD
350
3185
  0
DICTIONARY
  5
31A4
102
{ACAD_REACTORS
330
3182
102
}
330
3182
100
AcDbDictionary
281
     1
  0
ACDBDICTIONARYWDFLT
  5
3189
102
{ACAD_REACTORS
330
3182
102
}
330
3182
100
AcDbDictionary
281
     1
  3
Normal
350
318A
100
AcDbDictionaryWithDefault
340
318A
  0
DICTIONARY
  5
1B1FC
102
{ACAD_REACTORS
330
3182
102
}
330
3182
100
AcDbDictionary
281
     1
  3
A0
350
1B1FD
  3
A1
350
1B1FE
  3
A2
350
1B1FF
  3
A3
350
1B200
  3
A4
350
1B201
  3
A5
350
1B202
  3
A6
350
1B203
  3
A7
350
1B204
  3
A8
350
1B205
  3
A9
350
1B206
  3
B0
350
1B207
  3
B1
350
1B208
  3
B2
350
1B209
  3
B3
350
1B20A
  3
B4
350
1B20B
  3
B5
350
1B20C
  3
B6
350
1B20D
  3
B7
350
1B20E
  3
B8
350
1B20F
  3
B9
350
1B210
  3
C0
350
1B211
  3
C1
350
1B212
  3
C2
350
1B213
  3
C3
350
1B214
  3
C4
350
1B215
  3
C5
350
1B216
  3
C6
350
1B217
  3
C7
350
1B218
  3
C8
350
1B219
  3
C9
350
1B21A
  3
D0
350
1B21B
  3
D1
350
1B21C
  3
D2
350
1B21D
  0
DICTIONARY
  5
1B2EE
102
{ACAD_REACTORS
330
3182
102
}
330
3182
100
AcDbDictionary
281
     1
  3
Imperial24
350
20CB1
  3
Metric50
350
1B2EF
  0
DICTIONARY
  5
31A1
102
{ACAD_REACTORS
330
3182
102
}
330
3182
100
AcDbDictionary
281
     1
  3
Standard
350
31A2
  0
DICTIONARY
  5
318F
102
{ACAD_REACTORS
330
3182
102
}
330
3182
100
AcDbDictionary
281
     1
  3
2dWireframe
350
3195
  3
3D Hidden
350
3197
  3
3dWireframe
350
3196
  3
Basic
350
3194
  3
Brighten
350
319B
  3
ColorChange
350
319F
  3
Conceptual
350
3198
  3
Dim
350
319A
  3
EdgeColorOff
350
1B2EC
  3
Facepattern
350
319E
  3
Flat
350
3190
  3
FlatWithEdges
350
3191
  3
Gouraud
350
3192
  3
GouraudWithEdges
350
3193
  3
Hidden
350
1B2E4
  3
JitterOff
350
1B2EA
  3
Linepattern
350
319D
  3
OverhangOff
350
1B2EB
  3
Realistic
350
3199
  3
Shaded
350
1B2E9
  3
Shaded with edges
350
1B2E8
  3
Shades of Gray
350
1B2E5
  3
Sketchy
350
1B2E6
  3
Thicken
350
319C
  3
Wireframe
350
1B2E3
  3
X-Ray
350
1B2E7
  0
XRECORD
  5
22172
102
{ACAD_REACTORS
330
3182
102
}
330
3182
100
AcDbXrecord
280
     1
 90
        1
330
31A2
  0
DICTIONARY
  5
33A3
102
{ACAD_REACTORS
330
3182
102
}
330
3182
100
AcDbDictionary
281
     1
  3
CANNOSCALE
350
1B222
  3
CMLEADERSTYLE
350
1B30F
  3
CTABLESTYLE
350
33A4
  3
CVIEWDETAILSTYLE
350
1B310
  3
CVIEWSECTIONSTYLE
350
1B311
  3
DIMASSOC
350
9BE8
  3
INDEXCTL
350
9BE7
  3
LAYEREVAL
350
20993
  3
LAYERNOTIFY
350
20994
  3
LIGHTINGUNITS
350
20992
  3
MSLTSCALE
350
20991
  3
SORTENTS
350
9BE6
  0
DICTIONARY
  5
1B063
102
{ACAD_REACTORS
330
422A
102
}
330
422A
100
AcDbDictionary
281
     1
  0
DICTIONARY
  5
9A1C
102
{ACAD_REACTORS
330
422A
102
}
330
422A
100
AcDbDictionary
281
     1
  0
DICTIONARY
  5
1B062
102
{ACAD_REACTORS
330
422A
102
}
330
422A
100
AcDbDictionary
281
     1
1001
ACAD
1000
<All
  0
XRECORD
  5
21B8E
102
{ACAD_REACTORS
330
1B2F5
102
}
330
1B2F5
100
AcDbXrecord
280
     1
290
     1
  0
XRECORD
  5
21B8F
102
{ACAD_REACTORS
330
1B2F7
102
}
330
1B2F7
100
AcDbXrecord
280
     1
290
     1
  0
XRECORD
  5
21B90
102
{ACAD_REACTORS
330
1B2F9
102
}
330
1B2F9
100
AcDbXrecord
280
     1
290
     1
  0
XRECORD
  5
21B91
102
{ACAD_REACTORS
330
1B2FB
102
}
330
1B2FB
100
AcDbXrecord
280
     1
290
     1
  0
XRECORD
  5
21B92
102
{ACAD_REACTORS
330
1B2FD
102
}
330
1B2FD
100
AcDbXrecord
280
     1
290
     1
  0
XRECORD
  5
21B93
102
{ACAD_REACTORS
330
1B2FF
102
}
330
1B2FF
100
AcDbXrecord
280
     1
290
     1
  0
XRECORD
  5
21B94
102
{ACAD_REACTORS
330
1B301
102
}
330
1B301
100
AcDbXrecord
280
     1
290
     1
  0
XRECORD
  5
21B95
102
{ACAD_REACTORS
330
1B303
102
}
330
1B303
100
AcDbXrecord
280
     1
290
     1
  0
XRECORD
  5
21B96
102
{ACAD_REACTORS
330
1B305
102
}
330
1B305
100
AcDbXrecord
280
     1
290
     1
  0
XRECORD
  5
21B97
102
{ACAD_REACTORS
330
1B307
102
}
330
1B307
100
AcDbXrecord
280
     1
290
     1
  0
XRECORD
  5
21B98
102
{ACAD_REACTORS
330
1B309
102
}
330
1B309
100
AcDbXrecord
280
     1
290
     1
  0
SORTENTSTABLE
  5
339D
102
{ACAD_REACTORS
330
339C
102
}
330
339C
100
AcDbSortentsTable
330
1F
331
21EA7
  5
21F06
331
21E2D
  5
21E3A
331
21EA3
  5
21F02
331
21E29
  5
21E36
331
21EDE
  5
2213E
331
21E9F
  5
21EFE
331
21E25
  5
21E31
331
21EDA
  5
2213A
331
21E9B
  5
21EFA
331
21E21
  5
21E2C
331
220AB
  5
21DF6
331
21ED6
  5
22136
331
21E97
  5
21EF6
331
21E1D
  5
21E27
331
21E5C
  5
21E75
331
21ED2
  5
22132
331
21E93
  5
21EF2
331
21E19
  5
21E23
331
21E58
  5
21E6B
331
21E54
  5
21E67
331
21ECE
  5
2212E
331
21E8F
  5
21EEE
331
22160
  5
21ECA
331
21E15
  5
21E1F
331
21ECA
  5
2212A
331
21E8B
  5
21EEA
331
21E50
  5
21E5C
331
21DEC
  5
21DEC
331
21F05
  5
2216B
331
21DE8
  5
21DE8
331
21F01
  5
22167
331
21EC6
  5
220AB
331
21E87
  5
21EE6
331
21E0D
  5
21E17
331
21E4C
  5
21E58
331
21EC2
  5
220A7
331
21E83
  5
21EE2
331
21E09
  5
21E13
331
21E48
  5
21E54
331
21E44
  5
21E50
331
21EBE
  5
220A3
331
21E7F
  5
21EDE
331
21E05
  5
21E0C
331
21EBA
  5
22099
331
21E01
  5
21E0A
331
21E40
  5
21E4C
331
21EFD
  5
22163
331
21EF9
  5
2215F
331
21F08
  5
2216E
331
21EF5
  5
2215B
331
21EF1
  5
22157
331
21DF4
  5
21DF4
331
21DF0
  5
21DF0
331
21EB6
  5
22095
331
21E3C
  5
21E48
331
21EB2
  5
22091
331
21E73
  5
21ED9
331
21DF9
  5
21DFA
331
21E38
  5
21E44
331
21EAE
  5
2208D
331
21E6F
  5
21ED5
331
21E34
  5
21E40
331
21EAA
  5
21F09
331
21E6B
  5
21ED1
331
21E30
  5
21E3C
331
21EED
  5
22153
331
21EE9
  5
2214F
331
21EE5
  5
22145
331
21EE1
  5
22141
331
21EA6
  5
21F05
331
21E2C
  5
21E38
331
21E67
  5
21ECD
331
21EA2
  5
21F01
331
21E28
  5
21E34
331
21EDD
  5
2213D
331
21E9E
  5
21EFD
331
21E24
  5
21E30
331
21ED9
  5
22139
331
21E9A
  5
21EF9
331
21E20
  5
21E2A
331
21ED5
  5
22135
331
21E96
  5
21EF5
331
21E1C
  5
21E26
331
21E5B
  5
21E6E
331
21E57
  5
21E6A
331
21ED1
  5
22131
331
21E92
  5
21EF1
331
21E18
  5
21E22
331
21E53
  5
21E66
331
21ECD
  5
2212D
331
21E8E
  5
21EED
331
21E14
  5
21E1E
331
21EC9
  5
22129
331
21E8A
  5
21EE9
331
21DEF
  5
21DEF
331
21F04
  5
2216A
331
21F00
  5
22166
331
21E4F
  5
21E5B
331
21EC5
  5
220AA
331
21E86
  5
21EE5
331
21E0C
  5
21E16
331
21E4B
  5
21E57
331
21EC1
  5
220A6
331
21E82
  5
21EE1
331
21E08
  5
21E0F
331
21E47
  5
21E53
331
21EBD
  5
220A2
331
21E43
  5
21E4F
331
21EB9
  5
22098
331
21E00
  5
21E07
331
21EFC
  5
22162
331
21EF8
  5
2215E
331
21EF4
  5
2215A
331
21DF7
  5
21DF8
331
21EF0
  5
22156
331
21DF3
  5
21DF3
331
21E3F
  5
21E4B
331
21EB5
  5
22094
331
21E76
  5
21EDC
331
21DFC
  5
21E06
331
21E3B
  5
21E47
331
21EB1
  5
22090
331
21E72
  5
21ED8
331
21DF8
  5
21DF9
331
21E37
  5
21E43
331
21EAD
  5
2208C
331
21E6E
  5
21ED4
331
21E33
  5
21E3F
331
21EA9
  5
21F08
331
21E6A
  5
21ED0
331
211A0
  5
211A0
331
21EEC
  5
22152
331
21EE8
  5
22148
331
21EE4
  5
22144
331
21EE0
  5
22140
331
21EA5
  5
21F04
331
21E66
  5
21ECC
331
21EA1
  5
21F00
331
21E27
  5
21E33
331
21EDC
  5
2213C
331
21E9D
  5
21EFC
331
21E23
  5
21E2E
331
21ED8
  5
22138
331
21E99
  5
21EF8
331
21E1F
  5
21E29
331
21ED4
  5
22134
331
21E95
  5
21EF4
331
21E1B
  5
21E25
331
21E5A
  5
21E6D
331
21E56
  5
21E69
331
21ED0
  5
22130
331
21E91
  5
21EF0
331
21E17
  5
21E21
331
21ECC
  5
2212C
331
21E8D
  5
21EEC
331
21E13
  5
21E1D
331
21E52
  5
21E65
331
21EC8
  5
22128
331
21E89
  5
21EE8
331
21DEE
  5
21DEE
331
21F07
  5
2216D
331
21F03
  5
22169
331
21E0F
  5
21E1C
331
21E4E
  5
21E5A
331
21EC4
  5
220A9
331
21E85
  5
21EE4
331
21E0B
  5
21E15
331
21E4A
  5
21E56
331
21E46
  5
21E52
331
21EC0
  5
220A5
331
21E81
  5
21EE0
331
21E07
  5
21E0E
331
21EBC
  5
2209B
331
21E42
  5
21E4E
331
21EFF
  5
22165
331
21EB8
  5
22097
331
21EFB
  5
22161
331
21F0A
  5
22170
331
21EF7
  5
2215D
331
21EF3
  5
22159
331
21DF6
  5
21DF7
331
21DF2
  5
21DF2
331
21E3E
  5
21E4A
331
21EB4
  5
22093
331
21E75
  5
21EDB
331
21E3A
  5
21E46
331
21EB0
  5
2208F
331
21E71
  5
21ED7
331
21E36
  5
21E42
331
21EAC
  5
2208B
331
21E6D
  5
21ED3
331
21E32
  5
21E3E
331
21EA8
  5
21F07
331
21EEF
  5
22155
331
21E69
  5
21ECF
331
21EEB
  5
22151
331
21EE7
  5
22147
331
21EE3
  5
22143
331
21E2E
  5
21E3B
331
21EA4
  5
21F03
331
21E2A
  5
21E37
331
21E65
  5
21ECB
331
21EDF
  5
2213F
331
21EA0
  5
21EFF
331
21E26
  5
21E32
331
21EDB
  5
2213B
331
21E9C
  5
21EFB
331
21E22
  5
21E2D
331
21E98
  5
21EF7
331
220A2
  5
21EDD
331
21ED7
  5
22137
331
21E1E
  5
21E28
331
21E5D
  5
21E76
331
21ED3
  5
22133
331
21E94
  5
21EF3
331
21E1A
  5
21E24
331
21E59
  5
21E6C
331
21E55
  5
21E68
331
21ECF
  5
2212F
331
21E90
  5
21EEF
331
21E16
  5
21E20
331
21ECB
  5
2212B
331
21E8C
  5
21EEB
331
21E51
  5
21E5D
331
21E88
  5
21EE7
331
21DED
  5
21DED
331
21F06
  5
2216C
331
21F02
  5
22168
331
21EC7
  5
22127
331
21E0E
  5
21E1B
331
21E4D
  5
21E59
331
21EC3
  5
220A8
331
21E84
  5
21EE3
331
21E0A
  5
21E14
331
21E49
  5
21E55
331
21E45
  5
21E51
331
21EBF
  5
220A4
331
21E80
  5
21EDF
331
21E06
  5
21E0D
331
21EBB
  5
2209A
331
21E02
  5
21E0B
331
21E41
  5
21E4D
331
21EFE
  5
22164
331
21EFA
  5
22160
331
21F09
  5
2216F
331
21EF6
  5
2215C
331
21EF2
  5
22158
331
21DF5
  5
21DF5
331
21DF1
  5
21DF1
331
21EB7
  5
22096
331
21E3D
  5
21E49
331
21EB3
  5
22092
331
21E74
  5
21EDA
331
21DFA
  5
21DFF
331
21E39
  5
21E45
331
21EAF
  5
2208E
331
21E70
  5
21ED6
331
21E35
  5
21E41
331
21EAB
  5
21F0A
331
21E6C
  5
21ED2
331
21E31
  5
21E3D
331
21EEE
  5
22154
331
21E68
  5
21ECE
331
21EEA
  5
22150
331
21EE6
  5
22146
331
21EE2
  5
22142
  0
ACDBDETAILVIEWSTYLE
  5
20CB3
102
{ACAD_XDICTIONARY
360
221AD
102
}
102
{ACAD_REACTORS
330
1B2F0
102
}
330
1B2F0
100
AcDbModelDocViewStyle
 70
     0
  3
Imperial24
290
     0
100
AcDbDetailViewStyle
 70
     0
 71
     0
 90
        3
 71
     1
340
11
 62
   256
 40
0.24
340
0
 62
   256
 40
0.24
300

 40
0.36
280
     3
 71
     2
340
16
 90
       25
 62
   256
 71
     3
340
11
 62
   256
 40
0.24
 90
        1
 40
0.75
 90
        1
300
%<\AcVar ViewType \f "%tc1">% %<\AcVar ViewDetailId>%\PVARIA %<\AcVar ViewScale \f "%sn">%
 71
     4
340
16
 90
       25
 62
   256
340
16
 90
       25
 62
   256
280
     0
  0
ACDBDETAILVIEWSTYLE
  5
1B2F1
102
{ACAD_XDICTIONARY
360
221A9
102
}
102
{ACAD_REACTORS
330
1B2F0
102
}
330
1B2F0
100
AcDbModelDocViewStyle
 70
     0
  3
Metric50
290
     0
100
AcDbDetailViewStyle
 70
     0
 71
     0
 90
        3
 71
     1
340
11
 62
   256
 40
5.0
340
0
 62
   256
 40
5.0
300

 40
0.0
280
     1
 71
     2
340
16
 90
       25
 62
   256
 71
     3
340
11
 62
   256
 40
5.0
 90
        0
 40
15.0
 90
        1
300
%<\AcVar ViewDetailId>% (%<\AcVar ViewScale \f "%sn">%)
 71
     4
340
16
 90
       25
 62
   256
340
16
 90
       25
 62
   256
280
     0
  0
LAYOUT
  5
31A7
102
{ACAD_REACTORS
330
31A5
102
}
330
31A5
100
AcDbPlotSettings
  1

  2
\\ingdc01\ITB3
  4
A4
  6

 40
6.805083274841307
 41
5.027085781097412
 42
6.805068969726562
 43
5.027069091796875
 44
209.9733276367186
 45
296.9683227539062
 46
0.0
 47
0.0
 48
0.0
 49
0.0
140
0.0
141
0.0
142
1.0
143
1.0
 70
   688
 72
     1
 73
     1
 74
     5
  7

 75
    16
147
1.0
 76
     0
 77
     2
 78
   300
148
0.0
149
0.0
100
AcDbLayout
  1
Layout1
 70
     1
 71
     1
 10
-5.027069091796875
 20
-6.805083274841307
 11
291.9412536621094
 21
203.1682443618775
 12
0.0
 22
0.0
 32
0.0
 14
28.69141678810127
 24
19.6363175392151
 34
0.0
 15
258.2227510929107
 25
176.7268578529358
 35
0.0
146
0.0
 13
0.0
 23
0.0
 33
0.0
 16
1.0
 26
0.0
 36
0.0
 17
0.0
 27
1.0
 37
0.0
 76
     0
330
1B
331
9C00
1001
ACAD_PSEXT
1000
\\ingdc01\ITB3
1000
HP LaserJet 5000 Series PCL
1000
TB
1000

1070
     0
  0
LAYOUT
  5
31A6
102
{ACAD_REACTORS
330
31A5
102
}
330
31A5
100
AcDbPlotSettings
  1

  2
\\ingdc01\ITB3
  4
A4
  6

 40
6.805083274841307
 41
5.027085781097412
 42
6.805068969726562
 43
5.027069091796875
 44
209.9733276367186
 45
296.9683227539062
 46
0.0
 47
0.0
 48
0.0
 49
0.0
140
0.0
141
0.0
142
1.0
143
1.500313223655698
 70
 11952
 72
     1
 73
     1
 74
     0
  7

 75
     0
147
0.6665274852163048
 76
     0
 77
     2
 78
   300
148
239.0155119930048
149
102.2558208723354
100
AcDbLayout
  1
Model
 70
     1
 71
     0
 10
0.0
 20
0.0
 11
12.0
 21
9.0
 12
0.0
 22
0.0
 32
0.0
 14
0.0
 24
0.0
 34
0.0
 15
0.0
 25
0.0
 35
0.0
146
0.0
 13
0.0
 23
0.0
 33
0.0
 16
1.0
 26
0.0
 36
0.0
 17
0.0
 27
1.0
 37
0.0
 76
     0
330
1F
331
1F4
1001
ACAD_PSEXT
1000
\\ingdc01\ITB3
1000
HP LaserJet 5000 Series PCL
1000
TB
1000

1070
     0
  0
MATERIAL
  5
318D
102
{ACAD_XDICTIONARY
360
1B22B
102
}
102
{ACAD_REACTORS
330
318B
102
}
330
318B
100
AcDbMaterial
  1
ByBlock
  0
MATERIAL
  5
318C
102
{ACAD_XDICTIONARY
360
1B22D
102
}
102
{ACAD_REACTORS
330
318B
102
}
330
318B
100
AcDbMaterial
  1
ByLayer
  0
MATERIAL
  5
318E
102
{ACAD_XDICTIONARY
360
1B22F
102
}
102
{ACAD_REACTORS
330
318B
102
}
330
318B
100
AcDbMaterial
  1
Global
  0
MLEADERSTYLE
  5
1B2ED
102
{ACAD_REACTORS
330
1B221
102
}
330
1B221
100
AcDbMLeaderStyle
179
     2
170
     2
171
     1
172
     0
 90
        2
 40
0.0
 41
0.0
173
     1
 91
-1056964608
340
14
 92
       -2
290
     1
 42
2.0
291
     1
 43
0.36
  3
Standard
 44
4.0
300

342
11
174
     1
178
     6
175
     1
176
     0
 93
-1056964608
 45
4.0
292
     0
297
     0
 46
4.0
 94
-1056964608
 47
1.0
 49
1.0
140
1.0
293
     1
141
0.0
294
     1
177
     0
142
1.0
295
     0
296
     0
143
0.125
271
     0
272
     9
273
     9
1001
ACAD_MLEADERVER
1070
     2
  0
MLINESTYLE
  5
3185
102
{ACAD_REACTORS
330
3184
102
}
330
3184
100
AcDbMlineStyle
  2
STANDARD
 70
     0
  3

 62
   256
 51
90.0
 52
90.0
 71
     2
 49
0.5
 62
   256
  6
BYLAYER
 49
-0.5
 62
   256
  6
BYLAYER
  0
ACDBPLACEHOLDER
  5
318A
102
{ACAD_REACTORS
330
3189
102
}
330
3189
  0
SCALE
  5
1B1FD
102
{ACAD_REACTORS
330
1B1FC
102
}
330
1B1FC
100
AcDbScale
 70
     0
300
1:1
140
1.0
141
1.0
290
     1
1001
ACAD
1000
AcRTDxfName
1000
SCALE
  0
SCALE
  5
1B1FE
102
{ACAD_REACTORS
330
1B1FC
102
}
330
1B1FC
100
AcDbScale
 70
     0
300
1:2
140
1.0
141
2.0
290
     0
1001
ACAD
1000
AcRTDxfName
1000
SCALE
  0
SCALE
  5
1B1FF
102
{ACAD_REACTORS
330
1B1FC
102
}
330
1B1FC
100
AcDbScale
 70
     0
300
1:4
140
1.0
141
4.0
290
     0
1001
ACAD
1000
AcRTDxfName
1000
SCALE
  0
SCALE
  5
1B200
102
{ACAD_REACTORS
330
1B1FC
102
}
330
1B1FC
100
AcDbScale
 70
     0
300
1:5
140
1.0
141
5.0
290
     0
1001
ACAD
1000
AcRTDxfName
1000
SCALE
  0
SCALE
  5
1B201
102
{ACAD_REACTORS
330
1B1FC
102
}
330
1B1FC
100
AcDbScale
 70
     0
300
1:8
140
1.0
141
8.0
290
     0
1001
ACAD
1000
AcRTDxfName
1000
SCALE
  0
SCALE
  5
1B202
102
{ACAD_REACTORS
330
1B1FC
102
}
330
1B1FC
100
AcDbScale
 70
     0
300
1:10
140
1.0
141
10.0
290
     0
1001
ACAD
1000
AcRTDxfName
1000
SCALE
  0
SCALE
  5
1B203
102
{ACAD_REACTORS
330
1B1FC
102
}
330
1B1FC
100
AcDbScale
 70
     0
300
1:16
140
1.0
141
16.0
290
     0
1001
ACAD
1000
AcRTDxfName
1000
SCALE
  0
SCALE
  5
1B204
102
{ACAD_REACTORS
330
1B1FC
102
}
330
1B1FC
100
AcDbScale
 70
     0
300
1:20
140
1.0
141
20.0
290
     0
1001
ACAD
1000
AcRTDxfName
1000
SCALE
  0
SCALE
  5
1B205
102
{ACAD_REACTORS
330
1B1FC
102
}
330
1B1FC
100
AcDbScale
 70
     0
300
1:30
140
1.0
141
30.0
290
     0
1001
ACAD
1000
AcRTDxfName
1000
SCALE
  0
SCALE
  5
1B206
102
{ACAD_REACTORS
330
1B1FC
102
}
330
1B1FC
100
AcDbScale
 70
     0
300
1:40
140
1.0
141
40.0
290
     0
1001
ACAD
1000
AcRTDxfName
1000
SCALE
  0
SCALE
  5
1B207
102
{ACAD_REACTORS
330
1B1FC
102
}
330
1B1FC
100
AcDbScale
 70
     0
300
1:50
140
1.0
141
50.0
290
     0
1001
ACAD
1000
AcRTDxfName
1000
SCALE
  0
SCALE
  5
1B208
102
{ACAD_REACTORS
330
1B1FC
102
}
330
1B1FC
100
AcDbScale
 70
     0
300
1:100
140
1.0
141
100.0
290
     0
1001
ACAD
1000
AcRTDxfName
1000
SCALE
  0
SCALE
  5
1B209
102
{ACAD_REACTORS
330
1B1FC
102
}
330
1B1FC
100
AcDbScale
 70
     0
300
2:1
140
2.0
141
1.0
290
     0
1001
ACAD
1000
AcRTDxfName
1000
SCALE
  0
SCALE
  5
1B20A
102
{ACAD_REACTORS
330
1B1FC
102
}
330
1B1FC
100
AcDbScale
 70
     0
300
4:1
140
4.0
141
1.0
290
     0
1001
ACAD
1000
AcRTDxfName
1000
SCALE
  0
SCALE
  5
1B20B
102
{ACAD_REACTORS
330
1B1FC
102
}
330
1B1FC
100
AcDbScale
 70
     0
300
8:1
140
8.0
141
1.0
290
     0
1001
ACAD
1000
AcRTDxfName
1000
SCALE
  0
SCALE
  5
1B20C
102
{ACAD_REACTORS
330
1B1FC
102
}
330
1B1FC
100
AcDbScale
 70
     0
300
10:1
140
10.0
141
1.0
290
     0
1001
ACAD
1000
AcRTDxfName
1000
SCALE
  0
SCALE
  5
1B20D
102
{ACAD_REACTORS
330
1B1FC
102
}
330
1B1FC
100
AcDbScale
 70
     0
300
100:1
140
100.0
141
1.0
290
     0
1001
ACAD
1000
AcRTDxfName
1000
SCALE
  0
SCALE
  5
1B20E
102
{ACAD_REACTORS
330
1B1FC
102
}
330
1B1FC
100
AcDbScale
 70
     0
300
1/128" = 1'-0"
140
0.0078125
141
12.0
290
     0
1001
ACAD
1000
AcRTDxfName
1000
SCALE
  0
SCALE
  5
1B20F
102
{ACAD_REACTORS
330
1B1FC
102
}
330
1B1FC
100
AcDbScale
 70
     0
300
1/64" = 1'-0"
140
0.015625
141
12.0
290
     0
1001
ACAD
1000
AcRTDxfName
1000
SCALE
  0
SCALE
  5
1B210
102
{ACAD_REACTORS
330
1B1FC
102
}
330
1B1FC
100
AcDbScale
 70
     0
300
1/32" = 1'-0"
140
0.03125
141
12.0
290
     0
1001
ACAD
1000
AcRTDxfName
1000
SCALE
  0
SCALE
  5
1B211
102
{ACAD_REACTORS
330
1B1FC
102
}
330
1B1FC
100
AcDbScale
 70
     0
300
1/16" = 1'-0"
140
0.0625
141
12.0
290
     0
1001
ACAD
1000
AcRTDxfName
1000
SCALE
  0
SCALE
  5
1B212
102
{ACAD_REACTORS
330
1B1FC
102
}
330
1B1FC
100
AcDbScale
 70
     0
300
3/32" = 1'-0"
140
0.09375
141
12.0
290
     0
1001
ACAD
1000
AcRTDxfName
1000
SCALE
  0
SCALE
  5
1B213
102
{ACAD_REACTORS
330
1B1FC
102
}
330
1B1FC
100
AcDbScale
 70
     0
300
1/8" = 1'-0"
140
0.125
141
12.0
290
     0
1001
ACAD
1000
AcRTDxfName
1000
SCALE
  0
SCALE
  5
1B214
102
{ACAD_REACTORS
330
1B1FC
102
}
330
1B1FC
100
AcDbScale
 70
     0
300
3/16" = 1'-0"
140
0.1875
141
12.0
290
     0
1001
ACAD
1000
AcRTDxfName
1000
SCALE
  0
SCALE
  5
1B215
102
{ACAD_REACTORS
330
1B1FC
102
}
330
1B1FC
100
AcDbScale
 70
     0
300
1/4" = 1'-0"
140
0.25
141
12.0
290
     0
1001
ACAD
1000
AcRTDxfName
1000
SCALE
  0
SCALE
  5
1B216
102
{ACAD_REACTORS
330
1B1FC
102
}
330
1B1FC
100
AcDbScale
 70
     0
300
3/8" = 1'-0"
140
0.375
141
12.0
290
     0
1001
ACAD
1000
AcRTDxfName
1000
SCALE
  0
SCALE
  5
1B217
102
{ACAD_REACTORS
330
1B1FC
102
}
330
1B1FC
100
AcDbScale
 70
     0
300
1/2" = 1'-0"
140
0.5
141
12.0
290
     0
1001
ACAD
1000
AcRTDxfName
1000
SCALE
  0
SCALE
  5
1B218
102
{ACAD_REACTORS
330
1B1FC
102
}
330
1B1FC
100
AcDbScale
 70
     0
300
3/4" = 1'-0"
140
0.75
141
12.0
290
     0
1001
ACAD
1000
AcRTDxfName
1000
SCALE
  0
SCALE
  5
1B219
102
{ACAD_REACTORS
330
1B1FC
102
}
330
1B1FC
100
AcDbScale
 70
     0
300
1" = 1'-0"
140
1.0
141
12.0
290
     0
1001
ACAD
1000
AcRTDxfName
1000
SCALE
  0
SCALE
  5
1B21A
102
{ACAD_REACTORS
330
1B1FC
102
}
330
1B1FC
100
AcDbScale
 70
     0
300
1-1/2" = 1'-0"
140
1.5
141
12.0
290
     0
1001
ACAD
1000
AcRTDxfName
1000
SCALE
  0
SCALE
  5
1B21B
102
{ACAD_REACTORS
330
1B1FC
102
}
330
1B1FC
100
AcDbScale
 70
     0
300
3" = 1'-0"
140
3.0
141
12.0
290
     0
1001
ACAD
1000
AcRTDxfName
1000
SCALE
  0
SCALE
  5
1B21C
102
{ACAD_REACTORS
330
1B1FC
102
}
330
1B1FC
100
AcDbScale
 70
     0
300
6" = 1'-0"
140
6.0
141
12.0
290
     0
1001
ACAD
1000
AcRTDxfName
1000
SCALE
  0
SCALE
  5
1B21D
102
{ACAD_REACTORS
330
1B1FC
102
}
330
1B1FC
100
AcDbScale
 70
     0
300
1'-0" = 1'-0"
140
12.0
141
12.0
290
     0
1001
ACAD
1000
AcRTDxfName
1000
SCALE
  0
ACDBSECTIONVIEWSTYLE
  5
20CB1
102
{ACAD_XDICTIONARY
360
221AB
102
}
102
{ACAD_REACTORS
330
1B2EE
102
}
330
1B2EE
100
AcDbModelDocViewStyle
 70
     0
  3
Imperial24
290
     0
100
AcDbSectionViewStyle
 70
     0
 71
     0
 90
       78
 71
     1
340
11
 62
   256
 40
0.24
340
0
340
0
 62
   256
 40
0.24
300
I, O, Q, S, X, Z
 40
0.48
 90
        3
 40
0.18
 90
        1
 71
     2
340
16
 90
       25
 62
   256
340
16
 90
       50
 62
   256
 40
0.24
 40
0.0
 40
0.24
 71
     3
340
11
 62
   256
 40
0.24
 90
        1
 40
0.75
 90
        1
300
%<\AcVar ViewType \f "%tc1">% %<\AcVar ViewSectionStartId>%-%<\AcVar ViewSectionEndId>%\PVARIA %<\AcVar ViewScale \f "%sn">%
 71
     4
 62
   256
 62
   257
300
ANSI31
 40
1.0
 90
        0
290
     0
290
     0
 90
        6
 40
0.0
 40
1.570796326794896
 40
0.2617993877991494
 40
1.308996938995747
 40
-0.2617993877991494
 40
1.832595714594044
  0
ACDBSECTIONVIEWSTYLE
  5
1B2EF
102
{ACAD_XDICTIONARY
360
221A7
102
}
102
{ACAD_REACTORS
330
1B2EE
102
}
330
1B2EE
100
AcDbModelDocViewStyle
 70
     0
  3
Metric50
290
     0
100
AcDbSectionViewStyle
 70
     0
 71
     0
 90
      102
 71
     1
340
11
 62
   256
 40
5.0
340
0
340
0
 62
   256
 40
5.0
300
I, O, Q, S, X, Z
 40
10.0
 90
        0
 40
2.5
 90
        0
 71
     2
340
16
 90
       25
 62
   256
340
16
 90
       50
 62
   256
 40
5.0
 40
2.5
 40
5.0
 71
     3
340
11
 62
   256
 40
5.0
 90
        0
 40
15.0
 90
        1
300
%<\AcVar ViewSectionStartId>%-%<\AcVar ViewSectionEndId>% (%<\AcVar ViewScale \f "%sn">%)
 71
     4
 62
   256
 62
   257
300
ANSI31
 40
1.0
 90
        0
290
     0
290
     0
 90
        6
 40
0.0
 40
1.570796326794896
 40
0.2617993877991494
 40
1.308996938995747
 40
-0.2617993877991494
 40
1.832595714594044
  0
TABLESTYLE
  5
31A2
102
{ACAD_XDICTIONARY
360
1B314
102
}
102
{ACAD_REACTORS
330
31A1
102
}
330
31A1
100
AcDbTableStyle
280
     0
  3
Standard
 70
     0
 71
     0
 40
1.5
 41
1.5
280
     0
281
     0
  7
STANDARD
140
4.5
170
     2
 62
     0
 63
     7
283
     0
 90
        4
 91
        0
  1

274
    -2
284
     1
 64
     0
275
    -2
285
     1
 65
     0
276
    -2
286
     1
 66
     0
277
    -2
287
     1
 67
     0
278
    -2
288
     1
 68
     0
279
    -2
289
     1
 69
     0
  7
STANDARD
140
6.0
170
     5
 62
     0
 63
     7
283
     0
 90
        4
 91
        0
  1

274
    -2
284
     1
 64
     0
275
    -2
285
     1
 65
     0
276
    -2
286
     1
 66
     0
277
    -2
287
     1
 67
     0
278
    -2
288
     1
 68
     0
279
    -2
289
     1
 69
     0
  7
STANDARD
140
4.5
170
     5
 62
     0
 63
     7
283
     0
 90
        4
 91
        0
  1

274
    -2
284
     1
 64
     0
275
    -2
285
     1
 65
     0
276
    -2
286
     1
 66
     0
277
    -2
287
     1
 67
     0
278
    -2
288
     1
 68
     0
279
    -2
289
     1
 69
     0
  0
VISUALSTYLE
  5
3195
102
{ACAD_XDICTIONARY
360
2217D
102
}
102
{ACAD_REACTORS
330
318F
102
}
330
318F
100
AcDbVisualStyle
  2

 70
     4
177
     2
291
     0
 71
     0
176
     1
 72
     2
176
     1
 73
     0
176
     1
 90
        0
176
     1
 40
0.6
176
     1
 41
30.0
176
     1
 63
     7
176
     1
 74
     1
176
     1
 91
        4
176
     1
 64
     7
176
     1
 65
   257
176
     1
 75
     1
176
     1
175
     1
176
     1
 42
1.0
176
     1
 92
        0
176
     1
 66
   257
176
     1
 43
1.0
176
     1
 76
     1
176
     1
 77
     6
176
     1
 78
     2
176
     1
 67
     7
176
     1
 79
     5
176
     1
170
     0
176
     1
171
     0
176
     1
290
     0
176
     1
 93
        1
176
     1
 44
0.0
176
     1
173
     0
176
     1
1001
ACAD
1000
AcDbSavedByObjectVersion
1070
     0
  0
VISUALSTYLE
  5
3197
102
{ACAD_XDICTIONARY
360
22181
102
}
102
{ACAD_REACTORS
330
318F
102
}
330
318F
100
AcDbVisualStyle
  2

 70
     6
177
     2
291
     0
 71
     1
176
     1
 72
     2
176
     1
 73
     2
176
     1
 90
        0
176
     1
 40
0.6
176
     1
 41
30.0
176
     1
 63
     7
176
     1
 74
     2
176
     1
 91
        2
176
     1
 64
     7
176
     1
 65
   257
176
     1
 75
     2
176
     1
175
     1
176
     1
 42
40.0
176
     1
 92
        0
176
     1
 66
   257
176
     1
 43
1.0
176
     1
 76
     1
176
     1
 77
     6
176
     1
 78
     2
176
     1
 67
     7
176
     1
 79
     3
176
     1
170
     0
176
     1
171
     0
176
     1
290
     0
176
     1
 93
        1
176
     1
 44
0.0
176
     1
173
     0
176
     1
1001
ACAD
1000
AcDbSavedByObjectVersion
1070
     0
  0
VISUALSTYLE
  5
3196
102
{ACAD_XDICTIONARY
360
2217F
102
}
102
{ACAD_REACTORS
330
318F
102
}
330
318F
100
AcDbVisualStyle
  2

 70
     5
177
     2
291
     0
 71
     0
176
     1
 72
     2
176
     1
 73
     0
176
     1
 90
        0
176
     1
 40
0.6
176
     1
 41
30.0
176
     1
 63
     7
176
     1
 74
     1
176
     1
 91
        4
176
     1
 64
     7
176
     1
 65
   257
176
     1
 75
     1
176
     1
175
     1
176
     1
 42
1.0
176
     1
 92
        0
176
     1
 66
   257
176
     1
 43
1.0
176
     1
 76
     1
176
     1
 77
     6
176
     1
 78
     2
176
     1
 67
     7
176
     1
 79
     5
176
     1
170
     0
176
     1
171
     0
176
     1
290
     0
176
     1
 93
        1
176
     1
 44
0.0
176
     1
173
     0
176
     1
1001
ACAD
1000
AcDbSavedByObjectVersion
1070
     0
  0
VISUALSTYLE
  5
3194
102
{ACAD_XDICTIONARY
360
2217B
102
}
102
{ACAD_REACTORS
330
318F
102
}
330
318F
100
AcDbVisualStyle
  2

 70
     7
177
     2
291
     1
 71
     1
176
     1
 72
     0
176
     1
 73
     1
176
     1
 90
        0
176
     1
 40
0.6
176
     1
 41
30.0
176
     1
 63
     7
176
     1
 74
     0
176
     1
 91
        4
176
     1
 64
     7
176
     1
 65
   257
176
     1
 75
     1
176
     1
175
     1
176
     1
 42
1.0
176
     1
 92
        8
176
     1
 66
     7
176
     1
 43
1.0
176
     1
 76
     1
176
     1
 77
     6
176
     1
 78
     2
176
     1
 67
     7
176
     1
 79
     5
176
     1
170
     0
176
     1
171
     0
176
     1
290
     0
176
     1
 93
        1
176
     1
 44
0.0
176
     1
173
     0
176
     1
1001
ACAD
1000
AcDbSavedByObjectVersion
1070
     0
  0
VISUALSTYLE
  5
319B
102
{ACAD_XDICTIONARY
360
22189
102
}
102
{ACAD_REACTORS
330
318F
102
}
330
318F
100
AcDbVisualStyle
  2

 70
    12
177
     2
291
     1
 71
     2
176
     1
 72
     2
176
     1
 73
     0
176
     1
 90
        0
176
     1
 40
0.6
176
     1
 41
30.0
176
     1
 63
     7
176
     1
 74
     1
176
     1
 91
        4
176
     1
 64
     7
176
     1
 65
   257
176
     1
 75
     1
176
     1
175
     1
176
     1
 42
1.0
176
     1
 92
        8
176
     1
 66
     7
176
     1
 43
1.0
176
     1
 76
     1
176
     1
 77
     6
176
     1
 78
     2
176
     1
 67
     7
176
     1
 79
     5
176
     1
170
     0
176
     1
171
     0
176
     1
290
     0
176
     1
 93
        1
176
     1
 44
50.0
176
     1
173
     0
176
     1
1001
ACAD
1000
AcDbSavedByObjectVersion
1070
     0
  0
VISUALSTYLE
  5
319F
102
{ACAD_XDICTIONARY
360
22191
102
}
102
{ACAD_REACTORS
330
318F
102
}
330
318F
100
AcDbVisualStyle
  2

 70
    16
177
     2
291
     1
 71
     2
176
     1
 72
     2
176
     1
 73
     3
176
     1
 90
        0
176
     1
 40
0.6
176
     1
 41
30.0
176
     1
 63
     8
176
     1
 74
     1
176
     1
 91
        4
176
     1
 64
     7
176
     1
 65
   257
176
     1
 75
     1
176
     1
175
     1
176
     1
 42
1.0
176
     1
 92
        8
176
     1
 66
     8
176
     1
 43
1.0
176
     1
 76
     1
176
     1
 77
     6
176
     1
 78
     2
176
     1
 67
     7
176
     1
 79
     5
176
     1
170
     0
176
     1
171
     0
176
     1
290
     0
176
     1
 93
        1
176
     1
 44
0.0
176
     1
173
     0
176
     1
1001
ACAD
1000
AcDbSavedByObjectVersion
1070
     0
  0
VISUALSTYLE
  5
3198
102
{ACAD_XDICTIONARY
360
22183
102
}
102
{ACAD_REACTORS
330
318F
102
}
330
318F
100
AcDbVisualStyle
  2

 70
     9
177
     2
291
     0
 71
     3
176
     1
 72
     2
176
     1
 73
     0
176
     1
 90
        0
176
     1
 40
0.6
176
     1
 41
30.0
176
     1
 63
     7
176
     1
 74
     2
176
     1
 91
        2
176
     1
 64
     7
176
     1
 65
   257
176
     1
 75
     1
176
     1
175
     1
176
     1
 42
40.0
176
     1
 92
        8
176
     1
 66
     7
176
     1
 43
1.0
176
     1
 76
     1
176
     1
 77
     6
176
     1
 78
     2
176
     1
 67
     7
176
     1
 79
     3
176
     1
170
     0
176
     1
171
     0
176
     1
290
     0
176
     1
 93
        1
176
     1
 44
0.0
176
     1
173
     0
176
     1
1001
ACAD
1000
AcDbSavedByObjectVersion
1070
     0
  0
VISUALSTYLE
  5
319A
102
{ACAD_XDICTIONARY
360
22187
102
}
102
{ACAD_REACTORS
330
318F
102
}
330
318F
100
AcDbVisualStyle
  2

 70
    11
177
     2
291
     1
 71
     2
176
     1
 72
     2
176
     1
 73
     0
176
     1
 90
        0
176
     1
 40
0.6
176
     1
 41
30.0
176
     1
 63
     7
176
     1
 74
     1
176
     1
 91
        4
176
     1
 64
     7
176
     1
 65
   257
176
     1
 75
     1
176
     1
175
     1
176
     1
 42
1.0
176
     1
 92
        8
176
     1
 66
     7
176
     1
 43
1.0
176
     1
 76
     1
176
     1
 77
     6
176
     1
 78
     2
176
     1
 67
     7
176
     1
 79
     5
176
     1
170
     0
176
     1
171
     0
176
     1
290
     0
176
     1
 93
        1
176
     1
 44
-50.0
176
     1
173
     0
176
     1
1001
ACAD
1000
AcDbSavedByObjectVersion
1070
     0
  0
VISUALSTYLE
  5
1B2EC
102
{ACAD_XDICTIONARY
360
221A5
102
}
102
{ACAD_REACTORS
330
318F
102
}
330
318F
100
AcDbVisualStyle
  2

 70
    22
177
     2
291
     1
 71
     2
176
     0
 72
     2
176
     0
 73
     0
176
     0
 90
        0
176
     0
 40
0.6
176
     0
 41
30.0
176
     0
 63
     7
176
     0
 74
     1
176
     0
 91
        4
176
     0
 64
     7
176
     0
 65
   257
176
     0
 75
     1
176
     0
175
     1
176
     0
 42
1.0
176
     0
 92
        8
176
     2
 66
     7
176
     0
 43
1.0
176
     0
 76
     1
176
     0
 77
     6
176
     0
 78
     2
176
     0
 67
     7
176
     0
 79
     5
176
     0
170
     0
176
     0
171
     0
176
     0
290
     0
176
     0
 93
        1
176
     0
 44
0.0
176
     0
173
     0
176
     0
1001
ACAD
1000
AcDbSavedByObjectVersion
1070
     0
  0
VISUALSTYLE
  5
319E
102
{ACAD_XDICTIONARY
360
2218F
102
}
102
{ACAD_REACTORS
330
318F
102
}
330
318F
100
AcDbVisualStyle
  2

 70
    15
177
     2
291
     1
 71
     2
176
     1
 72
     2
176
     1
 73
     0
176
     1
 90
        0
176
     1
 40
0.6
176
     1
 41
30.0
176
     1
 63
     7
176
     1
 74
     1
176
     1
 91
        4
176
     1
 64
     7
176
     1
 65
   257
176
     1
 75
     1
176
     1
175
     1
176
     1
 42
1.0
176
     1
 92
        8
176
     1
 66
     7
176
     1
 43
1.0
176
     1
 76
     1
176
     1
 77
     6
176
     1
 78
     2
176
     1
 67
     7
176
     1
 79
     5
176
     1
170
     0
176
     1
171
     0
176
     1
290
     0
176
     1
 93
        1
176
     1
 44
0.0
176
     1
173
     0
176
     1
1001
ACAD
1000
AcDbSavedByObjectVersion
1070
     0
  0
VISUALSTYLE
  5
3190
102
{ACAD_XDICTIONARY
360
22173
102
}
102
{ACAD_REACTORS
330
318F
102
}
330
318F
100
AcDbVisualStyle
  2

 70
     0
177
     2
291
     1
 71
     2
176
     1
 72
     1
176
     1
 73
     1
176
     1
 90
        2
176
     1
 40
0.6
176
     1
 41
30.0
176
     1
 63
     7
176
     1
 74
     0
176
     1
 91
        4
176
     1
 64
     7
176
     1
 65
   257
176
     1
 75
     1
176
     1
175
     1
176
     1
 42
1.0
176
     1
 92
        8
176
     1
 66
     7
176
     1
 43
1.0
176
     1
 76
     1
176
     1
 77
     6
176
     1
 78
     2
176
     1
 67
     7
176
     1
 79
     5
176
     1
170
     0
176
     1
171
     0
176
     1
290
     0
176
     1
 93
       13
176
     1
 44
0.0
176
     1
173
     0
176
     1
1001
ACAD
1000
AcDbSavedByObjectVersion
1070
     0
  0
VISUALSTYLE
  5
3191
102
{ACAD_XDICTIONARY
360
22175
102
}
102
{ACAD_REACTORS
330
318F
102
}
330
318F
100
AcDbVisualStyle
  2

 70
     1
177
     2
291
     1
 71
     2
176
     1
 72
     1
176
     1
 73
     1
176
     1
 90
        2
176
     1
 40
0.6
176
     1
 41
30.0
176
     1
 63
     7
176
     1
 74
     1
176
     1
 91
        4
176
     1
 64
     7
176
     1
 65
   257
176
     1
 75
     1
176
     1
175
     1
176
     1
 42
1.0
176
     1
 92
        0
176
     1
 66
   257
176
     1
 43
1.0
176
     1
 76
     1
176
     1
 77
     6
176
     1
 78
     2
176
     1
 67
     7
176
     1
 79
     5
176
     1
170
     0
176
     1
171
     0
176
     1
290
     0
176
     1
 93
       13
176
     1
 44
0.0
176
     1
173
     0
176
     1
1001
ACAD
1000
AcDbSavedByObjectVersion
1070
     0
  0
VISUALSTYLE
  5
3192
102
{ACAD_XDICTIONARY
360
22177
102
}
102
{ACAD_REACTORS
330
318F
102
}
330
318F
100
AcDbVisualStyle
  2

 70
     2
177
     2
291
     1
 71
     2
176
     1
 72
     2
176
     1
 73
     1
176
     1
 90
        2
176
     1
 40
0.6
176
     1
 41
30.0
176
     1
 63
     7
176
     1
 74
     0
176
     1
 91
        4
176
     1
 64
     7
176
     1
 65
   257
176
     1
 75
     1
176
     1
175
     1
176
     1
 42
1.0
176
     1
 92
        0
176
     1
 66
     7
176
     1
 43
1.0
176
     1
 76
     1
176
     1
 77
     6
176
     1
 78
     2
176
     1
 67
     7
176
     1
 79
     5
176
     1
170
     0
176
     1
171
     0
176
     1
290
     0
176
     1
 93
       13
176
     1
 44
0.0
176
     1
173
     0
176
     1
1001
ACAD
1000
AcDbSavedByObjectVersion
1070
     0
  0
VISUALSTYLE
  5
3193
102
{ACAD_XDICTIONARY
360
22179
102
}
102
{ACAD_REACTORS
330
318F
102
}
330
318F
100
AcDbVisualStyle
  2

 70
     3
177
     2
291
     1
 71
     2
176
     1
 72
     2
176
     1
 73
     1
176
     1
 90
        2
176
     1
 40
0.6
176
     1
 41
30.0
176
     1
 63
     7
176
     1
 74
     1
176
     1
 91
        4
176
     1
 64
     7
176
     1
 65
   257
176
     1
 75
     1
176
     1
175
     1
176
     1
 42
1.0
176
     1
 92
        0
176
     1
 66
   257
176
     1
 43
1.0
176
     1
 76
     1
176
     1
 77
     6
176
     1
 78
     2
176
     1
 67
     7
176
     1
 79
     5
176
     1
170
     0
176
     1
171
     0
176
     1
290
     0
176
     1
 93
       13
176
     1
 44
0.0
176
     1
173
     0
176
     1
1001
ACAD
1000
AcDbSavedByObjectVersion
1070
     0
  0
VISUALSTYLE
  5
1B2E4
102
{ACAD_XDICTIONARY
360
22195
102
}
102
{ACAD_REACTORS
330
318F
102
}
330
318F
100
AcDbVisualStyle
  2

 70
     6
177
     2
291
     0
 71
     1
176
     1
 72
     2
176
     1
 73
     2
176
     1
 90
        0
176
     1
 40
0.6
176
     1
 41
30.0
176
     1
 63
     7
176
     1
 74
     2
176
     1
 91
        2
176
     1
 64
     7
176
     1
 65
   257
176
     1
 75
     2
176
     1
175
     1
176
     1
 42
40.0
176
     1
 92
        0
176
     1
 66
   257
176
     1
 43
1.0
176
     1
 76
     1
176
     1
 77
     6
176
     1
 78
     2
176
     1
 67
     7
176
     1
 79
     3
176
     1
170
     0
176
     1
171
     0
176
     1
290
     0
176
     1
 93
        1
176
     1
 44
0.0
176
     1
173
     0
176
     1
1001
ACAD
1000
AcDbSavedByObjectVersion
1070
     0
  0
VISUALSTYLE
  5
1B2EA
102
{ACAD_XDICTIONARY
360
221A1
102
}
102
{ACAD_REACTORS
330
318F
102
}
330
318F
100
AcDbVisualStyle
  2

 70
    20
177
     2
291
     1
 71
     2
176
     0
 72
     2
176
     0
 73
     0
176
     0
 90
        0
176
     0
 40
0.6
176
     0
 41
30.0
176
     0
 63
     7
176
     0
 74
     1
176
     0
 91
        4
176
     0
 64
     7
176
     0
 65
   257
176
     0
 75
     1
176
     0
175
     1
176
     0
 42
1.0
176
     0
 92
       10
176
     2
 66
     7
176
     0
 43
1.0
176
     0
 76
     1
176
     0
 77
     6
176
     0
 78
     2
176
     0
 67
     7
176
     0
 79
     5
176
     0
170
     0
176
     0
171
     0
176
     0
290
     0
176
     0
 93
        1
176
     0
 44
0.0
176
     0
173
     0
176
     0
1001
ACAD
1000
AcDbSavedByObjectVersion
1070
     0
  0
VISUALSTYLE
  5
319D
102
{ACAD_XDICTIONARY
360
2218D
102
}
102
{ACAD_REACTORS
330
318F
102
}
330
318F
100
AcDbVisualStyle
  2

 70
    14
177
     2
291
     1
 71
     2
176
     1
 72
     2
176
     1
 73
     0
176
     1
 90
        0
176
     1
 40
0.6
176
     1
 41
30.0
176
     1
 63
     7
176
     1
 74
     1
176
     1
 91
        4
176
     1
 64
     7
176
     1
 65
   257
176
     1
 75
     7
176
     1
175
     7
176
     1
 42
1.0
176
     1
 92
        8
176
     1
 66
     7
176
     1
 43
1.0
176
     1
 76
     1
176
     1
 77
     6
176
     1
 78
     2
176
     1
 67
     7
176
     1
 79
     5
176
     1
170
     0
176
     1
171
     0
176
     1
290
     0
176
     1
 93
        1
176
     1
 44
0.0
176
     1
173
     0
176
     1
1001
ACAD
1000
AcDbSavedByObjectVersion
1070
     0
  0
VISUALSTYLE
  5
1B2EB
102
{ACAD_XDICTIONARY
360
221A3
102
}
102
{ACAD_REACTORS
330
318F
102
}
330
318F
100
AcDbVisualStyle
  2

 70
    21
177
     2
291
     1
 71
     2
176
     0
 72
     2
176
     0
 73
     0
176
     0
 90
        0
176
     0
 40
0.6
176
     0
 41
30.0
176
     0
 63
     7
176
     0
 74
     1
176
     0
 91
        4
176
     0
 64
     7
176
     0
 65
   257
176
     0
 75
     1
176
     0
175
     1
176
     0
 42
1.0
176
     0
 92
        9
176
     2
 66
     7
176
     0
 43
1.0
176
     0
 76
     1
176
     0
 77
     6
176
     0
 78
     2
176
     0
 67
     7
176
     0
 79
     5
176
     0
170
     0
176
     0
171
     0
176
     0
290
     0
176
     0
 93
        1
176
     0
 44
0.0
176
     0
173
     0
176
     0
1001
ACAD
1000
AcDbSavedByObjectVersion
1070
     0
  0
VISUALSTYLE
  5
3199
102
{ACAD_XDICTIONARY
360
22185
102
}
102
{ACAD_REACTORS
330
318F
102
}
330
318F
100
AcDbVisualStyle
  2

 70
     8
177
     2
291
     0
 71
     2
176
     1
 72
     2
176
     1
 73
     0
176
     1
 90
        0
176
     1
 40
0.6
176
     1
 41
30.0
176
     1
 63
     7
176
     1
 74
     1
176
     1
 91
        0
176
     1
 64
     7
176
     1
 65
   257
176
     1
 75
     1
176
     1
175
     1
176
     1
 42
1.0
176
     1
 92
        8
176
     1
 66
     8
176
     1
 43
1.0
176
     1
 76
     1
176
     1
 77
     6
176
     1
 78
     2
176
     1
 67
     7
176
     1
 79
     5
176
     1
170
     0
176
     1
171
     0
176
     1
290
     0
176
     1
 93
       13
176
     1
 44
0.0
176
     1
173
     0
176
     1
1001
ACAD
1000
AcDbSavedByObjectVersion
1070
     0
  0
VISUALSTYLE
  5
1B2E9
102
{ACAD_XDICTIONARY
360
2219F
102
}
102
{ACAD_REACTORS
330
318F
102
}
330
318F
100
AcDbVisualStyle
  2

 70
    27
177
     2
291
     0
 71
     2
176
     1
 72
     2
176
     1
 73
     1
176
     1
 90
        2
176
     1
 40
0.6
176
     1
 41
30.0
176
     1
 63
     7
176
     1
 74
     0
176
     1
 91
        4
176
     1
 64
     7
176
     1
 65
   257
176
     1
 75
     1
176
     1
175
     1
176
     1
 42
1.0
176
     1
 92
        8
176
     1
 66
   257
176
     1
 43
1.0
176
     1
 76
     1
176
     1
 77
     6
176
     1
 78
     2
176
     1
 67
     8
176
     1
 79
     3
176
     1
170
     0
176
     1
171
     0
176
     1
290
     0
176
     1
 93
        5
176
     1
 44
0.0
176
     1
173
     0
176
     1
1001
ACAD
1000
AcDbSavedByObjectVersion
1070
     0
  0
VISUALSTYLE
  5
1B2E8
102
{ACAD_XDICTIONARY
360
2219D
102
}
102
{ACAD_REACTORS
330
318F
102
}
330
318F
100
AcDbVisualStyle
  2

 70
    26
177
     2
291
     0
 71
     2
176
     1
 72
     2
176
     1
 73
     1
176
     1
 90
        2
176
     1
 40
0.6
176
     1
 41
30.0
176
     1
 63
     7
176
     1
 74
     1
176
     1
 91
       10
176
     1
 64
     7
176
     1
 65
   257
176
     1
 75
     2
176
     1
175
     1
176
     1
 42
1.0
176
     1
 92
        8
176
     1
 66
   257
176
     1
 43
1.0
176
     1
 76
     1
176
     1
 77
     6
176
     1
 78
     2
176
     1
 67
     7
176
     1
 79
     3
176
     1
170
     0
176
     1
171
     0
176
     1
290
     0
176
     1
 93
        5
176
     1
 44
0.0
176
     1
173
     0
176
     1
1001
ACAD
1000
AcDbSavedByObjectVersion
1070
     0
  0
VISUALSTYLE
  5
1B2E5
102
{ACAD_XDICTIONARY
360
22197
102
}
102
{ACAD_REACTORS
330
318F
102
}
330
318F
100
AcDbVisualStyle
  2

 70
    23
177
     2
291
     0
 71
     2
176
     1
 72
     2
176
     1
 73
     3
176
     1
 90
        0
176
     1
 40
0.6
176
     1
 41
30.0
176
     1
 63
     7
176
     1
 74
     2
176
     1
 91
        2
176
     1
 64
     7
176
     1
 65
     7
176
     1
 75
     1
176
     1
175
     1
176
     1
 42
40.0
176
     1
 92
        8
176
     1
 66
     7
176
     1
 43
1.0
176
     1
 76
     1
176
     1
 77
     6
176
     1
 78
     2
176
     1
 67
     7
176
     1
 79
     3
176
     1
170
     0
176
     1
171
     0
176
     1
290
     0
176
     1
 93
        1
176
     1
 44
0.0
176
     1
173
     0
176
     1
1001
ACAD
1000
AcDbSavedByObjectVersion
1070
     0
  0
VISUALSTYLE
  5
1B2E6
102
{ACAD_XDICTIONARY
360
22199
102
}
102
{ACAD_REACTORS
330
318F
102
}
330
318F
100
AcDbVisualStyle
  2

 70
    24
177
     2
291
     0
 71
     1
176
     1
 72
     2
176
     1
 73
     2
176
     1
 90
        0
176
     1
 40
0.6
176
     1
 41
30.0
176
     1
 63
     7
176
     1
 74
     2
176
     1
 91
        2
176
     1
 64
     7
176
     1
 65
     7
176
     1
 75
     1
176
     1
175
     1
176
     1
 42
40.0
176
     1
 92
       11
176
     1
 66
     7
176
     1
 43
1.0
176
     1
 76
     1
176
     1
 77
     6
176
     1
 78
     2
176
     1
 67
     7
176
     1
 79
     6
176
     1
170
     0
176
     1
171
     0
176
     1
290
     0
176
     1
 93
        1
176
     1
 44
0.0
176
     1
173
     0
176
     1
1001
ACAD
1000
AcDbSavedByObjectVersion
1070
     0
  0
VISUALSTYLE
  5
319C
102
{ACAD_XDICTIONARY
360
2218B
102
}
102
{ACAD_REACTORS
330
318F
102
}
330
318F
100
AcDbVisualStyle
  2

 70
    13
177
     2
291
     1
 71
     2
176
     1
 72
     2
176
     1
 73
     0
176
     1
 90
        0
176
     1
 40
0.6
176
     1
 41
30.0
176
     1
 63
     7
176
     1
 74
     1
176
     1
 91
        4
176
     1
 64
     7
176
     1
 65
   257
176
     1
 75
     1
176
     1
175
     1
176
     1
 42
1.0
176
     1
 92
       12
176
     1
 66
     7
176
     1
 43
1.0
176
     1
 76
     1
176
     1
 77
     6
176
     1
 78
     2
176
     1
 67
     7
176
     1
 79
     5
176
     1
170
     0
176
     1
171
     0
176
     1
290
     0
176
     1
 93
        1
176
     1
 44
0.0
176
     1
173
     0
176
     1
1001
ACAD
1000
AcDbSavedByObjectVersion
1070
     0
  0
VISUALSTYLE
  5
1B2E3
102
{ACAD_XDICTIONARY
360
22193
102
}
102
{ACAD_REACTORS
330
318F
102
}
330
318F
100
AcDbVisualStyle
  2

 70
     5
177
     2
291
     0
 71
     0
176
     1
 72
     2
176
     1
 73
     0
176
     1
 90
        0
176
     1
 40
0.6
176
     1
 41
30.0
176
     1
 63
     7
176
     1
 74
     1
176
     1
 91
        4
176
     1
 64
     7
176
     1
 65
   257
176
     1
 75
     1
176
     1
175
     1
176
     1
 42
1.0
176
     1
 92
        0
176
     1
 66
   257
176
     1
 43
1.0
176
     1
 76
     1
176
     1
 77
     6
176
     1
 78
     2
176
     1
 67
     7
176
     1
 79
     3
176
     1
170
     0
176
     1
171
     0
176
     1
290
     0
176
     1
 93
        1
176
     1
 44
0.0
176
     1
173
     0
176
     1
1001
ACAD
1000
AcDbSavedByObjectVersion
1070
     0
  0
VISUALSTYLE
  5
1B2E7
102
{ACAD_XDICTIONARY
360
2219B
102
}
102
{ACAD_REACTORS
330
318F
102
}
330
318F
100
AcDbVisualStyle
  2

 70
    25
177
     2
291
     0
 71
     2
176
     1
 72
     2
176
     1
 73
     1
176
     1
 90
        1
176
     1
 40
0.5
176
     1
 41
30.0
176
     1
 63
     7
176
     1
 74
     1
176
     1
 91
        0
176
     1
 64
     7
176
     1
 65
   257
176
     1
 75
     1
176
     1
175
     1
176
     1
 42
1.0
176
     1
 92
        8
176
     1
 66
     7
176
     1
 43
1.0
176
     1
 76
     1
176
     1
 77
     6
176
     1
 78
     2
176
     1
 67
     7
176
     1
 79
     3
176
     1
170
     0
176
     1
171
     0
176
     1
290
     0
176
     1
 93
       13
176
     1
 44
0.0
176
     1
173
     0
176
     1
1001
ACAD
1000
AcDbSavedByObjectVersion
1070
     0
  0
DICTIONARYVAR
  5
1B222
102
{ACAD_REACTORS
330
33A3
102
}
330
33A3
100
DictionaryVariables
280
     0
  1
1:1
  0
DICTIONARYVAR
  5
1B30F
102
{ACAD_REACTORS
330
33A3
102
}
330
33A3
100
DictionaryVariables
280
     0
  1
STANDARD
  0
DICTIONARYVAR
  5
33A4
102
{ACAD_REACTORS
330
33A3
102
}
330
33A3
100
DictionaryVariables
280
     0
  1
STANDARD
  0
DICTIONARYVAR
  5
1B310
102
{ACAD_REACTORS
330
33A3
102
}
330
33A3
100
DictionaryVariables
280
     0
  1
Metric50
  0
DICTIONARYVAR
  5
1B311
102
{ACAD_REACTORS
330
33A3
102
}
330
33A3
100
DictionaryVariables
280
     0
  1
Metric50
  0
DICTIONARYVAR
  5
9BE8
102
{ACAD_REACTORS
330
33A3
102
}
330
33A3
100
DictionaryVariables
280
     0
  1
1
  0
DICTIONARYVAR
  5
9BE7
102
{ACAD_REACTORS
330
33A3
102
}
330
33A3
100
DictionaryVariables
280
     0
  1
0
  0
DICTIONARYVAR
  5
20993
102
{ACAD_REACTORS
330
33A3
102
}
330
33A3
100
DictionaryVariables
280
     0
  1
1
  0
DICTIONARYVAR
  5
20994
102
{ACAD_REACTORS
330
33A3
102
}
330
33A3
100
DictionaryVariables
280
     0
  1
15
  0
DICTIONARYVAR
  5
20992
102
{ACAD_REACTORS
330
33A3
102
}
330
33A3
100
DictionaryVariables
280
     0
  1
0
  0
DICTIONARYVAR
  5
20991
102
{ACAD_REACTORS
330
33A3
102
}
330
33A3
100
DictionaryVariables
280
     0
  1
0
  0
DICTIONARYVAR
  5
9BE6
102
{ACAD_REACTORS
330
33A3
102
}
330
33A3
100
DictionaryVariables
280
     0
  1
127
  0
DICTIONARY
  5
221AD
330
20CB3
100
AcDbDictionary
280
     1
281
     1
  3
ACAD_XREC_ROUNDTRIP
360
221AE
  0
DICTIONARY
  5
221A9
330
1B2F1
100
AcDbDictionary
280
     1
281
     1
  3
ACAD_XREC_ROUNDTRIP
360
221AA
  0
DICTIONARY
  5
1B22B
330
318D
100
AcDbDictionary
280
     1
281
     1
  3
ACAD_XREC_ROUNDTRIP
360
1B22C
  0
DICTIONARY
  5
1B22D
330
318C
100
AcDbDictionary
280
     1
281
     1
  3
ACAD_XREC_ROUNDTRIP
360
1B22E
  0
DICTIONARY
  5
1B22F
330
318E
100
AcDbDictionary
280
     1
281
     1
  3
ACAD_XREC_ROUNDTRIP
360
1B230
  0
DICTIONARY
  5
221AB
330
20CB1
100
AcDbDictionary
280
     1
281
     1
  3
ACAD_XREC_ROUNDTRIP
360
221AC
  0
DICTIONARY
  5
221A7
330
1B2EF
100
AcDbDictionary
280
     1
281
     1
  3
ACAD_XREC_ROUNDTRIP
360
221A8
  0
DICTIONARY
  5
1B314
330
31A2
100
AcDbDictionary
280
     1
281
     1
  3
ACAD_ROUNDTRIP_2008_TABLESTYLE_CELLSTYLEMAP
360
22171
  0
DICTIONARY
  5
2217D
330
3195
100
AcDbDictionary
280
     1
281
     1
  3
ACAD_XREC_ROUNDTRIP
360
2217E
  0
DICTIONARY
  5
22181
330
3197
100
AcDbDictionary
280
     1
281
     1
  3
ACAD_XREC_ROUNDTRIP
360
22182
  0
DICTIONARY
  5
2217F
330
3196
100
AcDbDictionary
280
     1
281
     1
  3
ACAD_XREC_ROUNDTRIP
360
22180
  0
DICTIONARY
  5
2217B
330
3194
100
AcDbDictionary
280
     1
281
     1
  3
ACAD_XREC_ROUNDTRIP
360
2217C
  0
DICTIONARY
  5
22189
330
319B
100
AcDbDictionary
280
     1
281
     1
  3
ACAD_XREC_ROUNDTRIP
360
2218A
  0
DICTIONARY
  5
22191
330
319F
100
AcDbDictionary
280
     1
281
     1
  3
ACAD_XREC_ROUNDTRIP
360
22192
  0
DICTIONARY
  5
22183
330
3198
100
AcDbDictionary
280
     1
281
     1
  3
ACAD_XREC_ROUNDTRIP
360
22184
  0
DICTIONARY
  5
22187
330
319A
100
AcDbDictionary
280
     1
281
     1
  3
ACAD_XREC_ROUNDTRIP
360
22188
  0
DICTIONARY
  5
221A5
330
1B2EC
100
AcDbDictionary
280
     1
281
     1
  3
ACAD_XREC_ROUNDTRIP
360
221A6
  0
DICTIONARY
  5
2218F
330
319E
100
AcDbDictionary
280
     1
281
     1
  3
ACAD_XREC_ROUNDTRIP
360
22190
  0
DICTIONARY
  5
22173
330
3190
100
AcDbDictionary
280
     1
281
     1
  3
ACAD_XREC_ROUNDTRIP
360
22174
  0
DICTIONARY
  5
22175
330
3191
100
AcDbDictionary
280
     1
281
     1
  3
ACAD_XREC_ROUNDTRIP
360
22176
  0
DICTIONARY
  5
22177
330
3192
100
AcDbDictionary
280
     1
281
     1
  3
ACAD_XREC_ROUNDTRIP
360
22178
  0
DICTIONARY
  5
22179
330
3193
100
AcDbDictionary
280
     1
281
     1
  3
ACAD_XREC_ROUNDTRIP
360
2217A
  0
DICTIONARY
  5
22195
330
1B2E4
100
AcDbDictionary
280
     1
281
     1
  3
ACAD_XREC_ROUNDTRIP
360
22196
  0
DICTIONARY
  5
221A1
330
1B2EA
100
AcDbDictionary
280
     1
281
     1
  3
ACAD_XREC_ROUNDTRIP
360
221A2
  0
DICTIONARY
  5
2218D
330
319D
100
AcDbDictionary
280
     1
281
     1
  3
ACAD_XREC_ROUNDTRIP
360
2218E
  0
DICTIONARY
  5
221A3
330
1B2EB
100
AcDbDictionary
280
     1
281
     1
  3
ACAD_XREC_ROUNDTRIP
360
221A4
  0
DICTIONARY
  5
22185
330
3199
100
AcDbDictionary
280
     1
281
     1
  3
ACAD_XREC_ROUNDTRIP
360
22186
  0
DICTIONARY
  5
2219F
330
1B2E9
100
AcDbDictionary
280
     1
281
     1
  3
ACAD_XREC_ROUNDTRIP
360
221A0
  0
DICTIONARY
  5
2219D
330
1B2E8
100
AcDbDictionary
280
     1
281
     1
  3
ACAD_XREC_ROUNDTRIP
360
2219E
  0
DICTIONARY
  5
22197
330
1B2E5
100
AcDbDictionary
280
     1
281
     1
  3
ACAD_XREC_ROUNDTRIP
360
22198
  0
DICTIONARY
  5
22199
330
1B2E6
100
AcDbDictionary
280
     1
281
     1
  3
ACAD_XREC_ROUNDTRIP
360
2219A
  0
DICTIONARY
  5
2218B
330
319C
100
AcDbDictionary
280
     1
281
     1
  3
ACAD_XREC_ROUNDTRIP
360
2218C
  0
DICTIONARY
  5
22193
330
1B2E3
100
AcDbDictionary
280
     1
281
     1
  3
ACAD_XREC_ROUNDTRIP
360
22194
  0
DICTIONARY
  5
2219B
330
1B2E7
100
AcDbDictionary
280
     1
281
     1
  3
ACAD_XREC_ROUNDTRIP
360
2219C
  0
XRECORD
  5
221AE
102
{ACAD_REACTORS
330
221AD
102
}
330
221AD
100
AcDbXrecord
280
     1
102
DISPLAYNAME
  1
Imperial24
102
FLAGS
 90
        0
  0
XRECORD
  5
221AA
102
{ACAD_REACTORS
330
221A9
102
}
330
221A9
100
AcDbXrecord
280
     1
102
DISPLAYNAME
  1
Metric50
102
FLAGS
 90
        0
  0
XRECORD
  5
1B22C
102
{ACAD_REACTORS
330
1B22B
102
}
330
1B22B
100
AcDbXrecord
280
     1
102
MATERIAL
148
0.0
149
0.0
149
0.0
 93
        0
 94
      127
282
     0
 72
     1
 77
     1
171
     1
175
     1
179
     1
273
     0
  0
XRECORD
  5
1B22E
102
{ACAD_REACTORS
330
1B22D
102
}
330
1B22D
100
AcDbXrecord
280
     1
102
MATERIAL
148
0.0
149
0.0
149
0.0
 93
        0
 94
      127
282
     0
 72
     1
 77
     1
171
     1
175
     1
179
     1
273
     0
  0
XRECORD
  5
1B230
102
{ACAD_REACTORS
330
1B22F
102
}
330
1B22F
100
AcDbXrecord
280
     1
102
MATERIAL
148
0.0
149
0.0
149
0.0
 93
        0
 94
      127
282
     0
 72
     1
 77
     1
171
     1
175
     1
179
     1
273
     0
  0
XRECORD
  5
221AC
102
{ACAD_REACTORS
330
221AB
102
}
330
221AB
100
AcDbXrecord
280
     1
102
DISPLAYNAME
  1
Imperial24
102
FLAGS
 90
        0
  0
XRECORD
  5
221A8
102
{ACAD_REACTORS
330
221A7
102
}
330
221A7
100
AcDbXrecord
280
     1
102
DISPLAYNAME
  1
Metric50
102
FLAGS
 90
        0
  0
CELLSTYLEMAP
  5
22171
102
{ACAD_REACTORS
330
1B314
102
}
330
1B314
100
AcDbCellStyleMap
 90
        3
300
CELLSTYLE
  1
TABLEFORMAT_BEGIN
 90
        5
170
     1
 91
        0
 92
    32768
 62
   257
 93
        1
300
CONTENTFORMAT
  1
CONTENTFORMAT_BEGIN
 90
        0
 91
        0
 92
        4
 93
        0
300

 40
0.0
140
1.0
 94
        5
 62
     0
340
11
144
6.0
309
CONTENTFORMAT_END
171
     1
301
MARGIN
  1
CELLMARGIN_BEGIN
 40
1.5
 40
1.5
 40
1.5
 40
1.5
 40
0.18
 40
0.18
309
CELLMARGIN_END
 94
        6
 95
        1
302
GRIDFORMAT
  1
GRIDFORMAT_BEGIN
 90
        0
 91
        1
 62
     0
 92
       -2
340
0
 93
        0
 40
0.045
309
GRIDFORMAT_END
 95
        2
302
GRIDFORMAT
  1
GRIDFORMAT_BEGIN
 90
        0
 91
        1
 62
     0
 92
       -2
340
0
 93
        0
 40
0.045
309
GRIDFORMAT_END
 95
        4
302
GRIDFORMAT
  1
GRIDFORMAT_BEGIN
 90
        0
 91
        1
 62
     0
 92
       -2
340
0
 93
        0
 40
0.045
309
GRIDFORMAT_END
 95
        8
302
GRIDFORMAT
  1
GRIDFORMAT_BEGIN
 90
        0
 91
        1
 62
     0
 92
       -2
340
0
 93
        0
 40
0.045
309
GRIDFORMAT_END
 95
       16
302
GRIDFORMAT
  1
GRIDFORMAT_BEGIN
 90
        0
 91
        1
 62
     0
 92
       -2
340
0
 93
        0
 40
0.045
309
GRIDFORMAT_END
 95
       32
302
GRIDFORMAT
  1
GRIDFORMAT_BEGIN
 90
        0
 91
        1
 62
     0
 92
       -2
340
0
 93
        0
 40
0.045
309
GRIDFORMAT_END
309
TABLEFORMAT_END
  1
CELLSTYLE_BEGIN
 90
        1
 91
        1
300
_TITLE
309
CELLSTYLE_END
300
CELLSTYLE
  1
TABLEFORMAT_BEGIN
 90
        5
170
     1
 91
        0
 92
        0
 62
   257
 93
        1
300
CONTENTFORMAT
  1
CONTENTFORMAT_BEGIN
 90
        0
 91
        0
 92
        4
 93
        0
300

 40
0.0
140
1.0
 94
        5
 62
     0
340
11
144
4.5
309
CONTENTFORMAT_END
171
     1
301
MARGIN
  1
CELLMARGIN_BEGIN
 40
1.5
 40
1.5
 40
1.5
 40
1.5
 40
0.18
 40
0.18
309
CELLMARGIN_END
 94
        6
 95
        1
302
GRIDFORMAT
  1
GRIDFORMAT_BEGIN
 90
        0
 91
        1
 62
     0
 92
       -2
340
0
 93
        0
 40
0.045
309
GRIDFORMAT_END
 95
        2
302
GRIDFORMAT
  1
GRIDFORMAT_BEGIN
 90
        0
 91
        1
 62
     0
 92
       -2
340
0
 93
        0
 40
0.045
309
GRIDFORMAT_END
 95
        4
302
GRIDFORMAT
  1
GRIDFORMAT_BEGIN
 90
        0
 91
        1
 62
     0
 92
       -2
340
0
 93
        0
 40
0.045
309
GRIDFORMAT_END
 95
        8
302
GRIDFORMAT
  1
GRIDFORMAT_BEGIN
 90
        0
 91
        1
 62
     0
 92
       -2
340
0
 93
        0
 40
0.045
309
GRIDFORMAT_END
 95
       16
302
GRIDFORMAT
  1
GRIDFORMAT_BEGIN
 90
        0
 91
        1
 62
     0
 92
       -2
340
0
 93
        0
 40
0.045
309
GRIDFORMAT_END
 95
       32
302
GRIDFORMAT
  1
GRIDFORMAT_BEGIN
 90
        0
 91
        1
 62
     0
 92
       -2
340
0
 93
        0
 40
0.045
309
GRIDFORMAT_END
309
TABLEFORMAT_END
  1
CELLSTYLE_BEGIN
 90
        2
 91
        1
300
_HEADER
309
CELLSTYLE_END
300
CELLSTYLE
  1
TABLEFORMAT_BEGIN
 90
        5
170
     1
 91
        0
 92
        0
 62
   257
 93
        1
300
CONTENTFORMAT
  1
CONTENTFORMAT_BEGIN
 90
        0
 91
        0
 92
        4
 93
        0
300

 40
0.0
140
1.0
 94
        2
 62
     0
340
11
144
4.5
309
CONTENTFORMAT_END
171
     1
301
MARGIN
  1
CELLMARGIN_BEGIN
 40
1.5
 40
1.5
 40
1.5
 40
1.5
 40
0.18
 40
0.18
309
CELLMARGIN_END
 94
        6
 95
        1
302
GRIDFORMAT
  1
GRIDFORMAT_BEGIN
 90
        0
 91
        1
 62
     0
 92
       -2
340
0
 93
        0
 40
0.045
309
GRIDFORMAT_END
 95
        2
302
GRIDFORMAT
  1
GRIDFORMAT_BEGIN
 90
        0
 91
        1
 62
     0
 92
       -2
340
0
 93
        0
 40
0.045
309
GRIDFORMAT_END
 95
        4
302
GRIDFORMAT
  1
GRIDFORMAT_BEGIN
 90
        0
 91
        1
 62
     0
 92
       -2
340
0
 93
        0
 40
0.045
309
GRIDFORMAT_END
 95
        8
302
GRIDFORMAT
  1
GRIDFORMAT_BEGIN
 90
        0
 91
        1
 62
     0
 92
       -2
340
0
 93
        0
 40
0.045
309
GRIDFORMAT_END
 95
       16
302
GRIDFORMAT
  1
GRIDFORMAT_BEGIN
 90
        0
 91
        1
 62
     0
 92
       -2
340
0
 93
        0
 40
0.045
309
GRIDFORMAT_END
 95
       32
302
GRIDFORMAT
  1
GRIDFORMAT_BEGIN
 90
        0
 91
        1
 62
     0
 92
       -2
340
0
 93
        0
 40
0.045
309
GRIDFORMAT_END
309
TABLEFORMAT_END
  1
CELLSTYLE_BEGIN
 90
        3
 91
        2
300
_DATA
309
CELLSTYLE_END
  0
XRECORD
  5
2217E
102
{ACAD_REACTORS
330
2217D
102
}
330
2217D
100
AcDbXrecord
280
     1
102
RTVSPost2010Prop28
280
     1
102
RTVSPost2010PropOp28
 70
     1
102
RTVSPost2010Prop29
280
     1
102
RTVSPost2010PropOp29
 70
     1
102
RTVSPost2010Prop30
280
     0
102
RTVSPost2010PropOp30
 70
     1
102
RTVSPost2010Prop31
280
     0
102
RTVSPost2010PropOp31
 70
     1
102
RTVSPost2010Prop32
280
     0
102
RTVSPost2010PropOp32
 70
     1
102
RTVSPost2010Prop33
280
     0
102
RTVSPost2010PropOp33
 70
     1
102
RTVSPost2010Prop34
280
     0
102
RTVSPost2010PropOp34
 70
     1
102
RTVSPost2010Prop35
280
     0
102
RTVSPost2010PropOp35
 70
     1
102
RTVSPost2010Prop36
280
     0
102
RTVSPost2010PropOp36
 70
     1
102
RTVSPost2010Prop37
 90
       50
102
RTVSPost2010PropOp37
 70
     1
102
RTVSPost2010Prop38
140
0.0
102
RTVSPost2010PropOp38
 70
     1
102
RTVSPost2010Prop39
140
1.0
102
RTVSPost2010PropOp39
 70
     1
102
RTVSPost2010Prop40
 90
        0
102
RTVSPost2010PropOp40
 70
     1
102
RTVSPost2010Prop41ColorIndex
 90
       18
102
RTVSPost2010Prop41ColorRGB
 90
        0
102
RTVSPost2010PropOp41
 70
     1
102
RTVSPost2010Prop42
 90
       50
102
RTVSPost2010PropOp42
 70
     1
102
RTVSPost2010Prop43
 90
        3
102
RTVSPost2010PropOp43
 70
     1
102
RTVSPost2010Prop44ColorIndex
 90
        5
102
RTVSPost2010Prop44ColorRGB
 90
      255
102
RTVSPost2010PropOp44
 70
     1
102
RTVSPost2010Prop45
280
     0
102
RTVSPost2010PropOp45
 70
     1
102
RTVSPost2010Prop46
 90
       50
102
RTVSPost2010PropOp46
 70
     1
102
RTVSPost2010Prop47
 90
       50
102
RTVSPost2010PropOp47
 70
     1
102
RTVSPost2010Prop48
 90
       50
102
RTVSPost2010PropOp48
 70
     1
102
RTVSPost2010Prop49
280
     0
102
RTVSPost2010PropOp49
 70
     1
102
RTVSPost2010Prop50
 90
       50
102
RTVSPost2010PropOp50
 70
     1
102
RTVSPost2010Prop51ColorIndex
 90
      256
102
RTVSPost2010Prop51ColorRGB
 90
-16777216
102
RTVSPost2010PropOp51
 70
     0
102
RTVSPost2010Prop52
140
1.0
102
RTVSPost2010PropOp52
 70
     0
102
RTVSPost2010Prop53
 90
        2
102
RTVSPost2010PropOp53
 70
     1
102
RTVSPost2010Prop54
  1
strokes_ogs.tif
102
RTVSPost2010PropOp54
 70
     1
102
RTVSPost2010Prop55
280
     0
102
RTVSPost2010PropOp55
 70
     1
102
RTVSPost2010Prop56
140
1.0
102
RTVSPost2010PropOp56
 70
     1
102
RTVSPost2010Prop57
140
1.0
102
RTVSPost2010PropOp57
 70
     1
  0
XRECORD
  5
22182
102
{ACAD_REACTORS
330
22181
102
}
330
22181
100
AcDbXrecord
280
     1
102
RTVSPost2010Prop28
280
     0
102
RTVSPost2010PropOp28
 70
     1
102
RTVSPost2010Prop29
280
     1
102
RTVSPost2010PropOp29
 70
     1
102
RTVSPost2010Prop30
280
     1
102
RTVSPost2010PropOp30
 70
     1
102
RTVSPost2010Prop31
280
     0
102
RTVSPost2010PropOp31
 70
     1
102
RTVSPost2010Prop32
280
     0
102
RTVSPost2010PropOp32
 70
     1
102
RTVSPost2010Prop33
280
     0
102
RTVSPost2010PropOp33
 70
     1
102
RTVSPost2010Prop34
280
     0
102
RTVSPost2010PropOp34
 70
     1
102
RTVSPost2010Prop35
280
     0
102
RTVSPost2010PropOp35
 70
     1
102
RTVSPost2010Prop36
280
     0
102
RTVSPost2010PropOp36
 70
     1
102
RTVSPost2010Prop37
 90
       50
102
RTVSPost2010PropOp37
 70
     1
102
RTVSPost2010Prop38
140
0.0
102
RTVSPost2010PropOp38
 70
     1
102
RTVSPost2010Prop39
140
1.0
102
RTVSPost2010PropOp39
 70
     1
102
RTVSPost2010Prop40
 90
        0
102
RTVSPost2010PropOp40
 70
     1
102
RTVSPost2010Prop41ColorIndex
 90
       18
102
RTVSPost2010Prop41ColorRGB
 90
        0
102
RTVSPost2010PropOp41
 70
     1
102
RTVSPost2010Prop42
 90
       50
102
RTVSPost2010PropOp42
 70
     1
102
RTVSPost2010Prop43
 90
        3
102
RTVSPost2010PropOp43
 70
     1
102
RTVSPost2010Prop44ColorIndex
 90
        5
102
RTVSPost2010Prop44ColorRGB
 90
      255
102
RTVSPost2010PropOp44
 70
     1
102
RTVSPost2010Prop45
280
     0
102
RTVSPost2010PropOp45
 70
     1
102
RTVSPost2010Prop46
 90
       50
102
RTVSPost2010PropOp46
 70
     1
102
RTVSPost2010Prop47
 90
       50
102
RTVSPost2010PropOp47
 70
     1
102
RTVSPost2010Prop48
 90
       50
102
RTVSPost2010PropOp48
 70
     1
102
RTVSPost2010Prop49
280
     0
102
RTVSPost2010PropOp49
 70
     1
102
RTVSPost2010Prop50
 90
       50
102
RTVSPost2010PropOp50
 70
     1
102
RTVSPost2010Prop51ColorIndex
 90
      256
102
RTVSPost2010Prop51ColorRGB
 90
-16777216
102
RTVSPost2010PropOp51
 70
     0
102
RTVSPost2010Prop52
140
1.0
102
RTVSPost2010PropOp52
 70
     0
102
RTVSPost2010Prop53
 90
        2
102
RTVSPost2010PropOp53
 70
     1
102
RTVSPost2010Prop54
  1
strokes_ogs.tif
102
RTVSPost2010PropOp54
 70
     1
102
RTVSPost2010Prop55
280
     0
102
RTVSPost2010PropOp55
 70
     1
102
RTVSPost2010Prop56
140
1.0
102
RTVSPost2010PropOp56
 70
     1
102
RTVSPost2010Prop57
140
1.0
102
RTVSPost2010PropOp57
 70
     1
  0
XRECORD
  5
22180
102
{ACAD_REACTORS
330
2217F
102
}
330
2217F
100
AcDbXrecord
280
     1
102
RTVSPost2010Prop28
280
     0
102
RTVSPost2010PropOp28
 70
     1
102
RTVSPost2010Prop29
280
     1
102
RTVSPost2010PropOp29
 70
     1
102
RTVSPost2010Prop30
280
     1
102
RTVSPost2010PropOp30
 70
     1
102
RTVSPost2010Prop31
280
     0
102
RTVSPost2010PropOp31
 70
     1
102
RTVSPost2010Prop32
280
     0
102
RTVSPost2010PropOp32
 70
     1
102
RTVSPost2010Prop33
280
     0
102
RTVSPost2010PropOp33
 70
     1
102
RTVSPost2010Prop34
280
     0
102
RTVSPost2010PropOp34
 70
     1
102
RTVSPost2010Prop35
280
     0
102
RTVSPost2010PropOp35
 70
     1
102
RTVSPost2010Prop36
280
     0
102
RTVSPost2010PropOp36
 70
     1
102
RTVSPost2010Prop37
 90
       50
102
RTVSPost2010PropOp37
 70
     1
102
RTVSPost2010Prop38
140
0.0
102
RTVSPost2010PropOp38
 70
     1
102
RTVSPost2010Prop39
140
1.0
102
RTVSPost2010PropOp39
 70
     1
102
RTVSPost2010Prop40
 90
        0
102
RTVSPost2010PropOp40
 70
     1
102
RTVSPost2010Prop41ColorIndex
 90
       18
102
RTVSPost2010Prop41ColorRGB
 90
        0
102
RTVSPost2010PropOp41
 70
     1
102
RTVSPost2010Prop42
 90
       50
102
RTVSPost2010PropOp42
 70
     1
102
RTVSPost2010Prop43
 90
        3
102
RTVSPost2010PropOp43
 70
     1
102
RTVSPost2010Prop44ColorIndex
 90
        5
102
RTVSPost2010Prop44ColorRGB
 90
      255
102
RTVSPost2010PropOp44
 70
     1
102
RTVSPost2010Prop45
280
     0
102
RTVSPost2010PropOp45
 70
     1
102
RTVSPost2010Prop46
 90
       50
102
RTVSPost2010PropOp46
 70
     1
102
RTVSPost2010Prop47
 90
       50
102
RTVSPost2010PropOp47
 70
     1
102
RTVSPost2010Prop48
 90
       50
102
RTVSPost2010PropOp48
 70
     1
102
RTVSPost2010Prop49
280
     0
102
RTVSPost2010PropOp49
 70
     1
102
RTVSPost2010Prop50
 90
       50
102
RTVSPost2010PropOp50
 70
     1
102
RTVSPost2010Prop51ColorIndex
 90
      256
102
RTVSPost2010Prop51ColorRGB
 90
-16777216
102
RTVSPost2010PropOp51
 70
     0
102
RTVSPost2010Prop52
140
1.0
102
RTVSPost2010PropOp52
 70
     0
102
RTVSPost2010Prop53
 90
        2
102
RTVSPost2010PropOp53
 70
     1
102
RTVSPost2010Prop54
  1
strokes_ogs.tif
102
RTVSPost2010PropOp54
 70
     1
102
RTVSPost2010Prop55
280
     0
102
RTVSPost2010PropOp55
 70
     1
102
RTVSPost2010Prop56
140
1.0
102
RTVSPost2010PropOp56
 70
     1
102
RTVSPost2010Prop57
140
1.0
102
RTVSPost2010PropOp57
 70
     1
  0
XRECORD
  5
2217C
102
{ACAD_REACTORS
330
2217B
102
}
330
2217B
100
AcDbXrecord
280
     1
102
RTVSPost2010Prop28
280
     0
102
RTVSPost2010PropOp28
 70
     1
102
RTVSPost2010Prop29
280
     1
102
RTVSPost2010PropOp29
 70
     1
102
RTVSPost2010Prop30
280
     1
102
RTVSPost2010PropOp30
 70
     1
102
RTVSPost2010Prop31
280
     0
102
RTVSPost2010PropOp31
 70
     1
102
RTVSPost2010Prop32
280
     0
102
RTVSPost2010PropOp32
 70
     1
102
RTVSPost2010Prop33
280
     0
102
RTVSPost2010PropOp33
 70
     1
102
RTVSPost2010Prop34
280
     0
102
RTVSPost2010PropOp34
 70
     1
102
RTVSPost2010Prop35
280
     0
102
RTVSPost2010PropOp35
 70
     1
102
RTVSPost2010Prop36
280
     0
102
RTVSPost2010PropOp36
 70
     1
102
RTVSPost2010Prop37
 90
       50
102
RTVSPost2010PropOp37
 70
     1
102
RTVSPost2010Prop38
140
0.0
102
RTVSPost2010PropOp38
 70
     1
102
RTVSPost2010Prop39
140
1.0
102
RTVSPost2010PropOp39
 70
     1
102
RTVSPost2010Prop40
 90
        0
102
RTVSPost2010PropOp40
 70
     1
102
RTVSPost2010Prop41ColorIndex
 90
       18
102
RTVSPost2010Prop41ColorRGB
 90
        0
102
RTVSPost2010PropOp41
 70
     1
102
RTVSPost2010Prop42
 90
       50
102
RTVSPost2010PropOp42
 70
     1
102
RTVSPost2010Prop43
 90
        3
102
RTVSPost2010PropOp43
 70
     1
102
RTVSPost2010Prop44ColorIndex
 90
        5
102
RTVSPost2010Prop44ColorRGB
 90
      255
102
RTVSPost2010PropOp44
 70
     1
102
RTVSPost2010Prop45
280
     0
102
RTVSPost2010PropOp45
 70
     1
102
RTVSPost2010Prop46
 90
       50
102
RTVSPost2010PropOp46
 70
     1
102
RTVSPost2010Prop47
 90
       50
102
RTVSPost2010PropOp47
 70
     1
102
RTVSPost2010Prop48
 90
       50
102
RTVSPost2010PropOp48
 70
     1
102
RTVSPost2010Prop49
280
     0
102
RTVSPost2010PropOp49
 70
     1
102
RTVSPost2010Prop50
 90
       50
102
RTVSPost2010PropOp50
 70
     1
102
RTVSPost2010Prop51ColorIndex
 90
      256
102
RTVSPost2010Prop51ColorRGB
 90
-16777216
102
RTVSPost2010PropOp51
 70
     0
102
RTVSPost2010Prop52
140
1.0
102
RTVSPost2010PropOp52
 70
     0
102
RTVSPost2010Prop53
 90
        2
102
RTVSPost2010PropOp53
 70
     1
102
RTVSPost2010Prop54
  1
strokes_ogs.tif
102
RTVSPost2010PropOp54
 70
     1
102
RTVSPost2010Prop55
280
     0
102
RTVSPost2010PropOp55
 70
     1
102
RTVSPost2010Prop56
140
1.0
102
RTVSPost2010PropOp56
 70
     1
102
RTVSPost2010Prop57
140
1.0
102
RTVSPost2010PropOp57
 70
     1
  0
XRECORD
  5
2218A
102
{ACAD_REACTORS
330
22189
102
}
330
22189
100
AcDbXrecord
280
     1
102
RTVSPost2010Prop28
280
     0
102
RTVSPost2010PropOp28
 70
     1
102
RTVSPost2010Prop29
280
     1
102
RTVSPost2010PropOp29
 70
     1
102
RTVSPost2010Prop30
280
     1
102
RTVSPost2010PropOp30
 70
     1
102
RTVSPost2010Prop31
280
     0
102
RTVSPost2010PropOp31
 70
     1
102
RTVSPost2010Prop32
280
     0
102
RTVSPost2010PropOp32
 70
     1
102
RTVSPost2010Prop33
280
     0
102
RTVSPost2010PropOp33
 70
     1
102
RTVSPost2010Prop34
280
     0
102
RTVSPost2010PropOp34
 70
     1
102
RTVSPost2010Prop35
280
     0
102
RTVSPost2010PropOp35
 70
     1
102
RTVSPost2010Prop36
280
     0
102
RTVSPost2010PropOp36
 70
     1
102
RTVSPost2010Prop37
 90
       50
102
RTVSPost2010PropOp37
 70
     1
102
RTVSPost2010Prop38
140
0.0
102
RTVSPost2010PropOp38
 70
     1
102
RTVSPost2010Prop39
140
1.0
102
RTVSPost2010PropOp39
 70
     1
102
RTVSPost2010Prop40
 90
        0
102
RTVSPost2010PropOp40
 70
     1
102
RTVSPost2010Prop41ColorIndex
 90
       18
102
RTVSPost2010Prop41ColorRGB
 90
        0
102
RTVSPost2010PropOp41
 70
     1
102
RTVSPost2010Prop42
 90
       50
102
RTVSPost2010PropOp42
 70
     1
102
RTVSPost2010Prop43
 90
        3
102
RTVSPost2010PropOp43
 70
     1
102
RTVSPost2010Prop44ColorIndex
 90
        5
102
RTVSPost2010Prop44ColorRGB
 90
      255
102
RTVSPost2010PropOp44
 70
     1
102
RTVSPost2010Prop45
280
     0
102
RTVSPost2010PropOp45
 70
     1
102
RTVSPost2010Prop46
 90
       50
102
RTVSPost2010PropOp46
 70
     1
102
RTVSPost2010Prop47
 90
       50
102
RTVSPost2010PropOp47
 70
     1
102
RTVSPost2010Prop48
 90
       50
102
RTVSPost2010PropOp48
 70
     1
102
RTVSPost2010Prop49
280
     0
102
RTVSPost2010PropOp49
 70
     1
102
RTVSPost2010Prop50
 90
       50
102
RTVSPost2010PropOp50
 70
     1
102
RTVSPost2010Prop51ColorIndex
 90
      256
102
RTVSPost2010Prop51ColorRGB
 90
-16777216
102
RTVSPost2010PropOp51
 70
     0
102
RTVSPost2010Prop52
140
1.0
102
RTVSPost2010PropOp52
 70
     0
102
RTVSPost2010Prop53
 90
        2
102
RTVSPost2010PropOp53
 70
     1
102
RTVSPost2010Prop54
  1
strokes_ogs.tif
102
RTVSPost2010PropOp54
 70
     1
102
RTVSPost2010Prop55
280
     0
102
RTVSPost2010PropOp55
 70
     1
102
RTVSPost2010Prop56
140
1.0
102
RTVSPost2010PropOp56
 70
     1
102
RTVSPost2010Prop57
140
1.0
102
RTVSPost2010PropOp57
 70
     1
  0
XRECORD
  5
22192
102
{ACAD_REACTORS
330
22191
102
}
330
22191
100
AcDbXrecord
280
     1
102
RTVSPost2010Prop28
280
     0
102
RTVSPost2010PropOp28
 70
     1
102
RTVSPost2010Prop29
280
     1
102
RTVSPost2010PropOp29
 70
     1
102
RTVSPost2010Prop30
280
     1
102
RTVSPost2010PropOp30
 70
     1
102
RTVSPost2010Prop31
280
     0
102
RTVSPost2010PropOp31
 70
     1
102
RTVSPost2010Prop32
280
     0
102
RTVSPost2010PropOp32
 70
     1
102
RTVSPost2010Prop33
280
     0
102
RTVSPost2010PropOp33
 70
     1
102
RTVSPost2010Prop34
280
     0
102
RTVSPost2010PropOp34
 70
     1
102
RTVSPost2010Prop35
280
     0
102
RTVSPost2010PropOp35
 70
     1
102
RTVSPost2010Prop36
280
     0
102
RTVSPost2010PropOp36
 70
     1
102
RTVSPost2010Prop37
 90
       50
102
RTVSPost2010PropOp37
 70
     1
102
RTVSPost2010Prop38
140
0.0
102
RTVSPost2010PropOp38
 70
     1
102
RTVSPost2010Prop39
140
1.0
102
RTVSPost2010PropOp39
 70
     1
102
RTVSPost2010Prop40
 90
        0
102
RTVSPost2010PropOp40
 70
     1
102
RTVSPost2010Prop41ColorIndex
 90
       18
102
RTVSPost2010Prop41ColorRGB
 90
        0
102
RTVSPost2010PropOp41
 70
     1
102
RTVSPost2010Prop42
 90
       50
102
RTVSPost2010PropOp42
 70
     1
102
RTVSPost2010Prop43
 90
        3
102
RTVSPost2010PropOp43
 70
     1
102
RTVSPost2010Prop44ColorIndex
 90
        5
102
RTVSPost2010Prop44ColorRGB
 90
      255
102
RTVSPost2010PropOp44
 70
     1
102
RTVSPost2010Prop45
280
     0
102
RTVSPost2010PropOp45
 70
     1
102
RTVSPost2010Prop46
 90
       50
102
RTVSPost2010PropOp46
 70
     1
102
RTVSPost2010Prop47
 90
       50
102
RTVSPost2010PropOp47
 70
     1
102
RTVSPost2010Prop48
 90
       50
102
RTVSPost2010PropOp48
 70
     1
102
RTVSPost2010Prop49
280
     0
102
RTVSPost2010PropOp49
 70
     1
102
RTVSPost2010Prop50
 90
       50
102
RTVSPost2010PropOp50
 70
     1
102
RTVSPost2010Prop51ColorIndex
 90
      256
102
RTVSPost2010Prop51ColorRGB
 90
-16777216
102
RTVSPost2010PropOp51
 70
     0
102
RTVSPost2010Prop52
140
1.0
102
RTVSPost2010PropOp52
 70
     0
102
RTVSPost2010Prop53
 90
        2
102
RTVSPost2010PropOp53
 70
     1
102
RTVSPost2010Prop54
  1
strokes_ogs.tif
102
RTVSPost2010PropOp54
 70
     1
102
RTVSPost2010Prop55
280
     0
102
RTVSPost2010PropOp55
 70
     1
102
RTVSPost2010Prop56
140
1.0
102
RTVSPost2010PropOp56
 70
     1
102
RTVSPost2010Prop57
140
1.0
102
RTVSPost2010PropOp57
 70
     1
  0
XRECORD
  5
22184
102
{ACAD_REACTORS
330
22183
102
}
330
22183
100
AcDbXrecord
280
     1
102
RTVSPost2010Prop28
280
     0
102
RTVSPost2010PropOp28
 70
     1
102
RTVSPost2010Prop29
280
     1
102
RTVSPost2010PropOp29
 70
     1
102
RTVSPost2010Prop30
280
     1
102
RTVSPost2010PropOp30
 70
     1
102
RTVSPost2010Prop31
280
     0
102
RTVSPost2010PropOp31
 70
     1
102
RTVSPost2010Prop32
280
     0
102
RTVSPost2010PropOp32
 70
     1
102
RTVSPost2010Prop33
280
     0
102
RTVSPost2010PropOp33
 70
     1
102
RTVSPost2010Prop34
280
     0
102
RTVSPost2010PropOp34
 70
     1
102
RTVSPost2010Prop35
280
     0
102
RTVSPost2010PropOp35
 70
     1
102
RTVSPost2010Prop36
280
     0
102
RTVSPost2010PropOp36
 70
     1
102
RTVSPost2010Prop37
 90
       50
102
RTVSPost2010PropOp37
 70
     1
102
RTVSPost2010Prop38
140
0.0
102
RTVSPost2010PropOp38
 70
     1
102
RTVSPost2010Prop39
140
1.0
102
RTVSPost2010PropOp39
 70
     1
102
RTVSPost2010Prop40
 90
        0
102
RTVSPost2010PropOp40
 70
     1
102
RTVSPost2010Prop41ColorIndex
 90
       18
102
RTVSPost2010Prop41ColorRGB
 90
        0
102
RTVSPost2010PropOp41
 70
     1
102
RTVSPost2010Prop42
 90
       50
102
RTVSPost2010PropOp42
 70
     1
102
RTVSPost2010Prop43
 90
        3
102
RTVSPost2010PropOp43
 70
     1
102
RTVSPost2010Prop44ColorIndex
 90
        5
102
RTVSPost2010Prop44ColorRGB
 90
      255
102
RTVSPost2010PropOp44
 70
     1
102
RTVSPost2010Prop45
280
     0
102
RTVSPost2010PropOp45
 70
     1
102
RTVSPost2010Prop46
 90
       50
102
RTVSPost2010PropOp46
 70
     1
102
RTVSPost2010Prop47
 90
       50
102
RTVSPost2010PropOp47
 70
     1
102
RTVSPost2010Prop48
 90
       50
102
RTVSPost2010PropOp48
 70
     1
102
RTVSPost2010Prop49
280
     0
102
RTVSPost2010PropOp49
 70
     1
102
RTVSPost2010Prop50
 90
       50
102
RTVSPost2010PropOp50
 70
     1
102
RTVSPost2010Prop51ColorIndex
 90
      256
102
RTVSPost2010Prop51ColorRGB
 90
-16777216
102
RTVSPost2010PropOp51
 70
     0
102
RTVSPost2010Prop52
140
1.0
102
RTVSPost2010PropOp52
 70
     0
102
RTVSPost2010Prop53
 90
        2
102
RTVSPost2010PropOp53
 70
     1
102
RTVSPost2010Prop54
  1
strokes_ogs.tif
102
RTVSPost2010PropOp54
 70
     1
102
RTVSPost2010Prop55
280
     0
102
RTVSPost2010PropOp55
 70
     1
102
RTVSPost2010Prop56
140
1.0
102
RTVSPost2010PropOp56
 70
     1
102
RTVSPost2010Prop57
140
1.0
102
RTVSPost2010PropOp57
 70
     1
  0
XRECORD
  5
22188
102
{ACAD_REACTORS
330
22187
102
}
330
22187
100
AcDbXrecord
280
     1
102
RTVSPost2010Prop28
280
     0
102
RTVSPost2010PropOp28
 70
     1
102
RTVSPost2010Prop29
280
     1
102
RTVSPost2010PropOp29
 70
     1
102
RTVSPost2010Prop30
280
     1
102
RTVSPost2010PropOp30
 70
     1
102
RTVSPost2010Prop31
280
     0
102
RTVSPost2010PropOp31
 70
     1
102
RTVSPost2010Prop32
280
     0
102
RTVSPost2010PropOp32
 70
     1
102
RTVSPost2010Prop33
280
     0
102
RTVSPost2010PropOp33
 70
     1
102
RTVSPost2010Prop34
280
     0
102
RTVSPost2010PropOp34
 70
     1
102
RTVSPost2010Prop35
280
     0
102
RTVSPost2010PropOp35
 70
     1
102
RTVSPost2010Prop36
280
     0
102
RTVSPost2010PropOp36
 70
     1
102
RTVSPost2010Prop37
 90
       50
102
RTVSPost2010PropOp37
 70
     1
102
RTVSPost2010Prop38
140
0.0
102
RTVSPost2010PropOp38
 70
     1
102
RTVSPost2010Prop39
140
1.0
102
RTVSPost2010PropOp39
 70
     1
102
RTVSPost2010Prop40
 90
        0
102
RTVSPost2010PropOp40
 70
     1
102
RTVSPost2010Prop41ColorIndex
 90
       18
102
RTVSPost2010Prop41ColorRGB
 90
        0
102
RTVSPost2010PropOp41
 70
     1
102
RTVSPost2010Prop42
 90
       50
102
RTVSPost2010PropOp42
 70
     1
102
RTVSPost2010Prop43
 90
        3
102
RTVSPost2010PropOp43
 70
     1
102
RTVSPost2010Prop44ColorIndex
 90
        5
102
RTVSPost2010Prop44ColorRGB
 90
      255
102
RTVSPost2010PropOp44
 70
     1
102
RTVSPost2010Prop45
280
     0
102
RTVSPost2010PropOp45
 70
     1
102
RTVSPost2010Prop46
 90
       50
102
RTVSPost2010PropOp46
 70
     1
102
RTVSPost2010Prop47
 90
       50
102
RTVSPost2010PropOp47
 70
     1
102
RTVSPost2010Prop48
 90
       50
102
RTVSPost2010PropOp48
 70
     1
102
RTVSPost2010Prop49
280
     0
102
RTVSPost2010PropOp49
 70
     1
102
RTVSPost2010Prop50
 90
       50
102
RTVSPost2010PropOp50
 70
     1
102
RTVSPost2010Prop51ColorIndex
 90
      256
102
RTVSPost2010Prop51ColorRGB
 90
-16777216
102
RTVSPost2010PropOp51
 70
     0
102
RTVSPost2010Prop52
140
1.0
102
RTVSPost2010PropOp52
 70
     0
102
RTVSPost2010Prop53
 90
        2
102
RTVSPost2010PropOp53
 70
     1
102
RTVSPost2010Prop54
  1
strokes_ogs.tif
102
RTVSPost2010PropOp54
 70
     1
102
RTVSPost2010Prop55
280
     0
102
RTVSPost2010PropOp55
 70
     1
102
RTVSPost2010Prop56
140
1.0
102
RTVSPost2010PropOp56
 70
     1
102
RTVSPost2010Prop57
140
1.0
102
RTVSPost2010PropOp57
 70
     1
  0
XRECORD
  5
221A6
102
{ACAD_REACTORS
330
221A5
102
}
330
221A5
100
AcDbXrecord
280
     1
102
RTVSPost2010Prop28
280
     0
102
RTVSPost2010PropOp28
 70
     1
102
RTVSPost2010Prop29
280
     1
102
RTVSPost2010PropOp29
 70
     1
102
RTVSPost2010Prop30
280
     1
102
RTVSPost2010PropOp30
 70
     1
102
RTVSPost2010Prop31
280
     0
102
RTVSPost2010PropOp31
 70
     1
102
RTVSPost2010Prop32
280
     0
102
RTVSPost2010PropOp32
 70
     1
102
RTVSPost2010Prop33
280
     0
102
RTVSPost2010PropOp33
 70
     1
102
RTVSPost2010Prop34
280
     0
102
RTVSPost2010PropOp34
 70
     1
102
RTVSPost2010Prop35
280
     0
102
RTVSPost2010PropOp35
 70
     1
102
RTVSPost2010Prop36
280
     0
102
RTVSPost2010PropOp36
 70
     1
102
RTVSPost2010Prop37
 90
       50
102
RTVSPost2010PropOp37
 70
     0
102
RTVSPost2010Prop38
140
0.0
102
RTVSPost2010PropOp38
 70
     0
102
RTVSPost2010Prop39
140
1.0
102
RTVSPost2010PropOp39
 70
     0
102
RTVSPost2010Prop40
 90
        0
102
RTVSPost2010PropOp40
 70
     0
102
RTVSPost2010Prop41ColorIndex
 90
       18
102
RTVSPost2010Prop41ColorRGB
 90
        0
102
RTVSPost2010PropOp41
 70
     0
102
RTVSPost2010Prop42
 90
       50
102
RTVSPost2010PropOp42
 70
     0
102
RTVSPost2010Prop43
 90
        3
102
RTVSPost2010PropOp43
 70
     0
102
RTVSPost2010Prop44ColorIndex
 90
        5
102
RTVSPost2010Prop44ColorRGB
 90
      255
102
RTVSPost2010PropOp44
 70
     0
102
RTVSPost2010Prop45
280
     0
102
RTVSPost2010PropOp45
 70
     1
102
RTVSPost2010Prop46
 90
       50
102
RTVSPost2010PropOp46
 70
     0
102
RTVSPost2010Prop47
 90
       50
102
RTVSPost2010PropOp47
 70
     0
102
RTVSPost2010Prop48
 90
       50
102
RTVSPost2010PropOp48
 70
     0
102
RTVSPost2010Prop49
280
     0
102
RTVSPost2010PropOp49
 70
     1
102
RTVSPost2010Prop50
 90
       50
102
RTVSPost2010PropOp50
 70
     0
102
RTVSPost2010Prop51ColorIndex
 90
      256
102
RTVSPost2010Prop51ColorRGB
 90
-16777216
102
RTVSPost2010PropOp51
 70
     0
102
RTVSPost2010Prop52
140
1.0
102
RTVSPost2010PropOp52
 70
     0
102
RTVSPost2010Prop53
 90
        2
102
RTVSPost2010PropOp53
 70
     0
102
RTVSPost2010Prop54
  1
strokes_ogs.tif
102
RTVSPost2010PropOp54
 70
     0
102
RTVSPost2010Prop55
280
     0
102
RTVSPost2010PropOp55
 70
     1
102
RTVSPost2010Prop56
140
1.0
102
RTVSPost2010PropOp56
 70
     0
102
RTVSPost2010Prop57
140
1.0
102
RTVSPost2010PropOp57
 70
     0
  0
XRECORD
  5
22190
102
{ACAD_REACTORS
330
2218F
102
}
330
2218F
100
AcDbXrecord
280
     1
102
RTVSPost2010Prop28
280
     0
102
RTVSPost2010PropOp28
 70
     1
102
RTVSPost2010Prop29
280
     1
102
RTVSPost2010PropOp29
 70
     1
102
RTVSPost2010Prop30
280
     1
102
RTVSPost2010PropOp30
 70
     1
102
RTVSPost2010Prop31
280
     0
102
RTVSPost2010PropOp31
 70
     1
102
RTVSPost2010Prop32
280
     0
102
RTVSPost2010PropOp32
 70
     1
102
RTVSPost2010Prop33
280
     0
102
RTVSPost2010PropOp33
 70
     1
102
RTVSPost2010Prop34
280
     0
102
RTVSPost2010PropOp34
 70
     1
102
RTVSPost2010Prop35
280
     0
102
RTVSPost2010PropOp35
 70
     1
102
RTVSPost2010Prop36
280
     0
102
RTVSPost2010PropOp36
 70
     1
102
RTVSPost2010Prop37
 90
       50
102
RTVSPost2010PropOp37
 70
     1
102
RTVSPost2010Prop38
140
0.0
102
RTVSPost2010PropOp38
 70
     1
102
RTVSPost2010Prop39
140
1.0
102
RTVSPost2010PropOp39
 70
     1
102
RTVSPost2010Prop40
 90
        0
102
RTVSPost2010PropOp40
 70
     1
102
RTVSPost2010Prop41ColorIndex
 90
       18
102
RTVSPost2010Prop41ColorRGB
 90
        0
102
RTVSPost2010PropOp41
 70
     1
102
RTVSPost2010Prop42
 90
       50
102
RTVSPost2010PropOp42
 70
     1
102
RTVSPost2010Prop43
 90
        3
102
RTVSPost2010PropOp43
 70
     1
102
RTVSPost2010Prop44ColorIndex
 90
        5
102
RTVSPost2010Prop44ColorRGB
 90
      255
102
RTVSPost2010PropOp44
 70
     1
102
RTVSPost2010Prop45
280
     0
102
RTVSPost2010PropOp45
 70
     1
102
RTVSPost2010Prop46
 90
       50
102
RTVSPost2010PropOp46
 70
     1
102
RTVSPost2010Prop47
 90
       50
102
RTVSPost2010PropOp47
 70
     1
102
RTVSPost2010Prop48
 90
       50
102
RTVSPost2010PropOp48
 70
     1
102
RTVSPost2010Prop49
280
     0
102
RTVSPost2010PropOp49
 70
     1
102
RTVSPost2010Prop50
 90
       50
102
RTVSPost2010PropOp50
 70
     1
102
RTVSPost2010Prop51ColorIndex
 90
      256
102
RTVSPost2010Prop51ColorRGB
 90
-16777216
102
RTVSPost2010PropOp51
 70
     0
102
RTVSPost2010Prop52
140
1.0
102
RTVSPost2010PropOp52
 70
     0
102
RTVSPost2010Prop53
 90
        2
102
RTVSPost2010PropOp53
 70
     1
102
RTVSPost2010Prop54
  1
strokes_ogs.tif
102
RTVSPost2010PropOp54
 70
     1
102
RTVSPost2010Prop55
280
     0
102
RTVSPost2010PropOp55
 70
     1
102
RTVSPost2010Prop56
140
1.0
102
RTVSPost2010PropOp56
 70
     1
102
RTVSPost2010Prop57
140
1.0
102
RTVSPost2010PropOp57
 70
     1
  0
XRECORD
  5
22174
102
{ACAD_REACTORS
330
22173
102
}
330
22173
100
AcDbXrecord
280
     1
102
RTVSPost2010Prop28
280
     0
102
RTVSPost2010PropOp28
 70
     1
102
RTVSPost2010Prop29
280
     1
102
RTVSPost2010PropOp29
 70
     1
102
RTVSPost2010Prop30
280
     1
102
RTVSPost2010PropOp30
 70
     1
102
RTVSPost2010Prop31
280
     0
102
RTVSPost2010PropOp31
 70
     1
102
RTVSPost2010Prop32
280
     0
102
RTVSPost2010PropOp32
 70
     1
102
RTVSPost2010Prop33
280
     0
102
RTVSPost2010PropOp33
 70
     1
102
RTVSPost2010Prop34
280
     0
102
RTVSPost2010PropOp34
 70
     1
102
RTVSPost2010Prop35
280
     0
102
RTVSPost2010PropOp35
 70
     1
102
RTVSPost2010Prop36
280
     0
102
RTVSPost2010PropOp36
 70
     1
102
RTVSPost2010Prop37
 90
       50
102
RTVSPost2010PropOp37
 70
     1
102
RTVSPost2010Prop38
140
0.0
102
RTVSPost2010PropOp38
 70
     1
102
RTVSPost2010Prop39
140
1.0
102
RTVSPost2010PropOp39
 70
     1
102
RTVSPost2010Prop40
 90
        0
102
RTVSPost2010PropOp40
 70
     1
102
RTVSPost2010Prop41ColorIndex
 90
       18
102
RTVSPost2010Prop41ColorRGB
 90
        0
102
RTVSPost2010PropOp41
 70
     1
102
RTVSPost2010Prop42
 90
       50
102
RTVSPost2010PropOp42
 70
     1
102
RTVSPost2010Prop43
 90
        3
102
RTVSPost2010PropOp43
 70
     1
102
RTVSPost2010Prop44ColorIndex
 90
        5
102
RTVSPost2010Prop44ColorRGB
 90
      255
102
RTVSPost2010PropOp44
 70
     1
102
RTVSPost2010Prop45
280
     0
102
RTVSPost2010PropOp45
 70
     1
102
RTVSPost2010Prop46
 90
       50
102
RTVSPost2010PropOp46
 70
     1
102
RTVSPost2010Prop47
 90
       50
102
RTVSPost2010PropOp47
 70
     1
102
RTVSPost2010Prop48
 90
       50
102
RTVSPost2010PropOp48
 70
     1
102
RTVSPost2010Prop49
280
     0
102
RTVSPost2010PropOp49
 70
     1
102
RTVSPost2010Prop50
 90
       50
102
RTVSPost2010PropOp50
 70
     1
102
RTVSPost2010Prop51ColorIndex
 90
      256
102
RTVSPost2010Prop51ColorRGB
 90
-16777216
102
RTVSPost2010PropOp51
 70
     0
102
RTVSPost2010Prop52
140
1.0
102
RTVSPost2010PropOp52
 70
     0
102
RTVSPost2010Prop53
 90
        2
102
RTVSPost2010PropOp53
 70
     1
102
RTVSPost2010Prop54
  1
strokes_ogs.tif
102
RTVSPost2010PropOp54
 70
     1
102
RTVSPost2010Prop55
280
     0
102
RTVSPost2010PropOp55
 70
     1
102
RTVSPost2010Prop56
140
1.0
102
RTVSPost2010PropOp56
 70
     1
102
RTVSPost2010Prop57
140
1.0
102
RTVSPost2010PropOp57
 70
     1
  0
XRECORD
  5
22176
102
{ACAD_REACTORS
330
22175
102
}
330
22175
100
AcDbXrecord
280
     1
102
RTVSPost2010Prop28
280
     0
102
RTVSPost2010PropOp28
 70
     1
102
RTVSPost2010Prop29
280
     1
102
RTVSPost2010PropOp29
 70
     1
102
RTVSPost2010Prop30
280
     1
102
RTVSPost2010PropOp30
 70
     1
102
RTVSPost2010Prop31
280
     0
102
RTVSPost2010PropOp31
 70
     1
102
RTVSPost2010Prop32
280
     0
102
RTVSPost2010PropOp32
 70
     1
102
RTVSPost2010Prop33
280
     0
102
RTVSPost2010PropOp33
 70
     1
102
RTVSPost2010Prop34
280
     0
102
RTVSPost2010PropOp34
 70
     1
102
RTVSPost2010Prop35
280
     0
102
RTVSPost2010PropOp35
 70
     1
102
RTVSPost2010Prop36
280
     0
102
RTVSPost2010PropOp36
 70
     1
102
RTVSPost2010Prop37
 90
       50
102
RTVSPost2010PropOp37
 70
     1
102
RTVSPost2010Prop38
140
0.0
102
RTVSPost2010PropOp38
 70
     1
102
RTVSPost2010Prop39
140
1.0
102
RTVSPost2010PropOp39
 70
     1
102
RTVSPost2010Prop40
 90
        0
102
RTVSPost2010PropOp40
 70
     1
102
RTVSPost2010Prop41ColorIndex
 90
       18
102
RTVSPost2010Prop41ColorRGB
 90
        0
102
RTVSPost2010PropOp41
 70
     1
102
RTVSPost2010Prop42
 90
       50
102
RTVSPost2010PropOp42
 70
     1
102
RTVSPost2010Prop43
 90
        3
102
RTVSPost2010PropOp43
 70
     1
102
RTVSPost2010Prop44ColorIndex
 90
        5
102
RTVSPost2010Prop44ColorRGB
 90
      255
102
RTVSPost2010PropOp44
 70
     1
102
RTVSPost2010Prop45
280
     0
102
RTVSPost2010PropOp45
 70
     1
102
RTVSPost2010Prop46
 90
       50
102
RTVSPost2010PropOp46
 70
     1
102
RTVSPost2010Prop47
 90
       50
102
RTVSPost2010PropOp47
 70
     1
102
RTVSPost2010Prop48
 90
       50
102
RTVSPost2010PropOp48
 70
     1
102
RTVSPost2010Prop49
280
     0
102
RTVSPost2010PropOp49
 70
     1
102
RTVSPost2010Prop50
 90
       50
102
RTVSPost2010PropOp50
 70
     1
102
RTVSPost2010Prop51ColorIndex
 90
      256
102
RTVSPost2010Prop51ColorRGB
 90
-16777216
102
RTVSPost2010PropOp51
 70
     0
102
RTVSPost2010Prop52
140
1.0
102
RTVSPost2010PropOp52
 70
     0
102
RTVSPost2010Prop53
 90
        2
102
RTVSPost2010PropOp53
 70
     1
102
RTVSPost2010Prop54
  1
strokes_ogs.tif
102
RTVSPost2010PropOp54
 70
     1
102
RTVSPost2010Prop55
280
     0
102
RTVSPost2010PropOp55
 70
     1
102
RTVSPost2010Prop56
140
1.0
102
RTVSPost2010PropOp56
 70
     1
102
RTVSPost2010Prop57
140
1.0
102
RTVSPost2010PropOp57
 70
     1
  0
XRECORD
  5
22178
102
{ACAD_REACTORS
330
22177
102
}
330
22177
100
AcDbXrecord
280
     1
102
RTVSPost2010Prop28
280
     0
102
RTVSPost2010PropOp28
 70
     1
102
RTVSPost2010Prop29
280
     1
102
RTVSPost2010PropOp29
 70
     1
102
RTVSPost2010Prop30
280
     1
102
RTVSPost2010PropOp30
 70
     1
102
RTVSPost2010Prop31
280
     0
102
RTVSPost2010PropOp31
 70
     1
102
RTVSPost2010Prop32
280
     0
102
RTVSPost2010PropOp32
 70
     1
102
RTVSPost2010Prop33
280
     0
102
RTVSPost2010PropOp33
 70
     1
102
RTVSPost2010Prop34
280
     0
102
RTVSPost2010PropOp34
 70
     1
102
RTVSPost2010Prop35
280
     0
102
RTVSPost2010PropOp35
 70
     1
102
RTVSPost2010Prop36
280
     0
102
RTVSPost2010PropOp36
 70
     1
102
RTVSPost2010Prop37
 90
       50
102
RTVSPost2010PropOp37
 70
     1
102
RTVSPost2010Prop38
140
0.0
102
RTVSPost2010PropOp38
 70
     1
102
RTVSPost2010Prop39
140
1.0
102
RTVSPost2010PropOp39
 70
     1
102
RTVSPost2010Prop40
 90
        0
102
RTVSPost2010PropOp40
 70
     1
102
RTVSPost2010Prop41ColorIndex
 90
       18
102
RTVSPost2010Prop41ColorRGB
 90
        0
102
RTVSPost2010PropOp41
 70
     1
102
RTVSPost2010Prop42
 90
       50
102
RTVSPost2010PropOp42
 70
     1
102
RTVSPost2010Prop43
 90
        3
102
RTVSPost2010PropOp43
 70
     1
102
RTVSPost2010Prop44ColorIndex
 90
        5
102
RTVSPost2010Prop44ColorRGB
 90
      255
102
RTVSPost2010PropOp44
 70
     1
102
RTVSPost2010Prop45
280
     0
102
RTVSPost2010PropOp45
 70
     1
102
RTVSPost2010Prop46
 90
       50
102
RTVSPost2010PropOp46
 70
     1
102
RTVSPost2010Prop47
 90
       50
102
RTVSPost2010PropOp47
 70
     1
102
RTVSPost2010Prop48
 90
       50
102
RTVSPost2010PropOp48
 70
     1
102
RTVSPost2010Prop49
280
     0
102
RTVSPost2010PropOp49
 70
     1
102
RTVSPost2010Prop50
 90
       50
102
RTVSPost2010PropOp50
 70
     1
102
RTVSPost2010Prop51ColorIndex
 90
      256
102
RTVSPost2010Prop51ColorRGB
 90
-16777216
102
RTVSPost2010PropOp51
 70
     0
102
RTVSPost2010Prop52
140
1.0
102
RTVSPost2010PropOp52
 70
     0
102
RTVSPost2010Prop53
 90
        2
102
RTVSPost2010PropOp53
 70
     1
102
RTVSPost2010Prop54
  1
strokes_ogs.tif
102
RTVSPost2010PropOp54
 70
     1
102
RTVSPost2010Prop55
280
     0
102
RTVSPost2010PropOp55
 70
     1
102
RTVSPost2010Prop56
140
1.0
102
RTVSPost2010PropOp56
 70
     1
102
RTVSPost2010Prop57
140
1.0
102
RTVSPost2010PropOp57
 70
     1
  0
XRECORD
  5
2217A
102
{ACAD_REACTORS
330
22179
102
}
330
22179
100
AcDbXrecord
280
     1
102
RTVSPost2010Prop28
280
     0
102
RTVSPost2010PropOp28
 70
     1
102
RTVSPost2010Prop29
280
     1
102
RTVSPost2010PropOp29
 70
     1
102
RTVSPost2010Prop30
280
     1
102
RTVSPost2010PropOp30
 70
     1
102
RTVSPost2010Prop31
280
     0
102
RTVSPost2010PropOp31
 70
     1
102
RTVSPost2010Prop32
280
     0
102
RTVSPost2010PropOp32
 70
     1
102
RTVSPost2010Prop33
280
     0
102
RTVSPost2010PropOp33
 70
     1
102
RTVSPost2010Prop34
280
     0
102
RTVSPost2010PropOp34
 70
     1
102
RTVSPost2010Prop35
280
     0
102
RTVSPost2010PropOp35
 70
     1
102
RTVSPost2010Prop36
280
     0
102
RTVSPost2010PropOp36
 70
     1
102
RTVSPost2010Prop37
 90
       50
102
RTVSPost2010PropOp37
 70
     1
102
RTVSPost2010Prop38
140
0.0
102
RTVSPost2010PropOp38
 70
     1
102
RTVSPost2010Prop39
140
1.0
102
RTVSPost2010PropOp39
 70
     1
102
RTVSPost2010Prop40
 90
        0
102
RTVSPost2010PropOp40
 70
     1
102
RTVSPost2010Prop41ColorIndex
 90
       18
102
RTVSPost2010Prop41ColorRGB
 90
        0
102
RTVSPost2010PropOp41
 70
     1
102
RTVSPost2010Prop42
 90
       50
102
RTVSPost2010PropOp42
 70
     1
102
RTVSPost2010Prop43
 90
        3
102
RTVSPost2010PropOp43
 70
     1
102
RTVSPost2010Prop44ColorIndex
 90
        5
102
RTVSPost2010Prop44ColorRGB
 90
      255
102
RTVSPost2010PropOp44
 70
     1
102
RTVSPost2010Prop45
280
     0
102
RTVSPost2010PropOp45
 70
     1
102
RTVSPost2010Prop46
 90
       50
102
RTVSPost2010PropOp46
 70
     1
102
RTVSPost2010Prop47
 90
       50
102
RTVSPost2010PropOp47
 70
     1
102
RTVSPost2010Prop48
 90
       50
102
RTVSPost2010PropOp48
 70
     1
102
RTVSPost2010Prop49
280
     0
102
RTVSPost2010PropOp49
 70
     1
102
RTVSPost2010Prop50
 90
       50
102
RTVSPost2010PropOp50
 70
     1
102
RTVSPost2010Prop51ColorIndex
 90
      256
102
RTVSPost2010Prop51ColorRGB
 90
-16777216
102
RTVSPost2010PropOp51
 70
     0
102
RTVSPost2010Prop52
140
1.0
102
RTVSPost2010PropOp52
 70
     0
102
RTVSPost2010Prop53
 90
        2
102
RTVSPost2010PropOp53
 70
     1
102
RTVSPost2010Prop54
  1
strokes_ogs.tif
102
RTVSPost2010PropOp54
 70
     1
102
RTVSPost2010Prop55
280
     0
102
RTVSPost2010PropOp55
 70
     1
102
RTVSPost2010Prop56
140
1.0
102
RTVSPost2010PropOp56
 70
     1
102
RTVSPost2010Prop57
140
1.0
102
RTVSPost2010PropOp57
 70
     1
  0
XRECORD
  5
22196
102
{ACAD_REACTORS
330
22195
102
}
330
22195
100
AcDbXrecord
280
     1
102
RTVSPost2010Prop28
280
     0
102
RTVSPost2010PropOp28
 70
     1
102
RTVSPost2010Prop29
280
     1
102
RTVSPost2010PropOp29
 70
     1
102
RTVSPost2010Prop30
280
     1
102
RTVSPost2010PropOp30
 70
     1
102
RTVSPost2010Prop31
280
     0
102
RTVSPost2010PropOp31
 70
     1
102
RTVSPost2010Prop32
280
     0
102
RTVSPost2010PropOp32
 70
     1
102
RTVSPost2010Prop33
280
     0
102
RTVSPost2010PropOp33
 70
     1
102
RTVSPost2010Prop34
280
     0
102
RTVSPost2010PropOp34
 70
     1
102
RTVSPost2010Prop35
280
     0
102
RTVSPost2010PropOp35
 70
     1
102
RTVSPost2010Prop36
280
     0
102
RTVSPost2010PropOp36
 70
     1
102
RTVSPost2010Prop37
 90
       50
102
RTVSPost2010PropOp37
 70
     1
102
RTVSPost2010Prop38
140
0.0
102
RTVSPost2010PropOp38
 70
     1
102
RTVSPost2010Prop39
140
1.0
102
RTVSPost2010PropOp39
 70
     1
102
RTVSPost2010Prop40
 90
        0
102
RTVSPost2010PropOp40
 70
     1
102
RTVSPost2010Prop41ColorIndex
 90
       18
102
RTVSPost2010Prop41ColorRGB
 90
        0
102
RTVSPost2010PropOp41
 70
     1
102
RTVSPost2010Prop42
 90
       50
102
RTVSPost2010PropOp42
 70
     1
102
RTVSPost2010Prop43
 90
        3
102
RTVSPost2010PropOp43
 70
     1
102
RTVSPost2010Prop44ColorIndex
 90
        5
102
RTVSPost2010Prop44ColorRGB
 90
      255
102
RTVSPost2010PropOp44
 70
     1
102
RTVSPost2010Prop45
280
     0
102
RTVSPost2010PropOp45
 70
     1
102
RTVSPost2010Prop46
 90
       50
102
RTVSPost2010PropOp46
 70
     1
102
RTVSPost2010Prop47
 90
       50
102
RTVSPost2010PropOp47
 70
     1
102
RTVSPost2010Prop48
 90
       50
102
RTVSPost2010PropOp48
 70
     1
102
RTVSPost2010Prop49
280
     0
102
RTVSPost2010PropOp49
 70
     1
102
RTVSPost2010Prop50
 90
       50
102
RTVSPost2010PropOp50
 70
     1
102
RTVSPost2010Prop51ColorIndex
 90
      256
102
RTVSPost2010Prop51ColorRGB
 90
-16777216
102
RTVSPost2010PropOp51
 70
     0
102
RTVSPost2010Prop52
140
1.0
102
RTVSPost2010PropOp52
 70
     0
102
RTVSPost2010Prop53
 90
        2
102
RTVSPost2010PropOp53
 70
     1
102
RTVSPost2010Prop54
  1
strokes_ogs.tif
102
RTVSPost2010PropOp54
 70
     1
102
RTVSPost2010Prop55
280
     0
102
RTVSPost2010PropOp55
 70
     1
102
RTVSPost2010Prop56
140
1.0
102
RTVSPost2010PropOp56
 70
     1
102
RTVSPost2010Prop57
140
1.0
102
RTVSPost2010PropOp57
 70
     1
  0
XRECORD
  5
221A2
102
{ACAD_REACTORS
330
221A1
102
}
330
221A1
100
AcDbXrecord
280
     1
102
RTVSPost2010Prop28
280
     0
102
RTVSPost2010PropOp28
 70
     1
102
RTVSPost2010Prop29
280
     1
102
RTVSPost2010PropOp29
 70
     1
102
RTVSPost2010Prop30
280
     1
102
RTVSPost2010PropOp30
 70
     1
102
RTVSPost2010Prop31
280
     0
102
RTVSPost2010PropOp31
 70
     1
102
RTVSPost2010Prop32
280
     0
102
RTVSPost2010PropOp32
 70
     1
102
RTVSPost2010Prop33
280
     0
102
RTVSPost2010PropOp33
 70
     1
102
RTVSPost2010Prop34
280
     0
102
RTVSPost2010PropOp34
 70
     1
102
RTVSPost2010Prop35
280
     0
102
RTVSPost2010PropOp35
 70
     1
102
RTVSPost2010Prop36
280
     0
102
RTVSPost2010PropOp36
 70
     1
102
RTVSPost2010Prop37
 90
       50
102
RTVSPost2010PropOp37
 70
     0
102
RTVSPost2010Prop38
140
0.0
102
RTVSPost2010PropOp38
 70
     0
102
RTVSPost2010Prop39
140
1.0
102
RTVSPost2010PropOp39
 70
     0
102
RTVSPost2010Prop40
 90
        0
102
RTVSPost2010PropOp40
 70
     0
102
RTVSPost2010Prop41ColorIndex
 90
       18
102
RTVSPost2010Prop41ColorRGB
 90
        0
102
RTVSPost2010PropOp41
 70
     0
102
RTVSPost2010Prop42
 90
       50
102
RTVSPost2010PropOp42
 70
     0
102
RTVSPost2010Prop43
 90
        3
102
RTVSPost2010PropOp43
 70
     0
102
RTVSPost2010Prop44ColorIndex
 90
        5
102
RTVSPost2010Prop44ColorRGB
 90
      255
102
RTVSPost2010PropOp44
 70
     0
102
RTVSPost2010Prop45
280
     0
102
RTVSPost2010PropOp45
 70
     1
102
RTVSPost2010Prop46
 90
       50
102
RTVSPost2010PropOp46
 70
     0
102
RTVSPost2010Prop47
 90
       50
102
RTVSPost2010PropOp47
 70
     0
102
RTVSPost2010Prop48
 90
       50
102
RTVSPost2010PropOp48
 70
     0
102
RTVSPost2010Prop49
280
     0
102
RTVSPost2010PropOp49
 70
     1
102
RTVSPost2010Prop50
 90
       50
102
RTVSPost2010PropOp50
 70
     0
102
RTVSPost2010Prop51ColorIndex
 90
      256
102
RTVSPost2010Prop51ColorRGB
 90
-16777216
102
RTVSPost2010PropOp51
 70
     0
102
RTVSPost2010Prop52
140
1.0
102
RTVSPost2010PropOp52
 70
     0
102
RTVSPost2010Prop53
 90
        2
102
RTVSPost2010PropOp53
 70
     0
102
RTVSPost2010Prop54
  1
strokes_ogs.tif
102
RTVSPost2010PropOp54
 70
     0
102
RTVSPost2010Prop55
280
     0
102
RTVSPost2010PropOp55
 70
     1
102
RTVSPost2010Prop56
140
1.0
102
RTVSPost2010PropOp56
 70
     0
102
RTVSPost2010Prop57
140
1.0
102
RTVSPost2010PropOp57
 70
     0
  0
XRECORD
  5
2218E
102
{ACAD_REACTORS
330
2218D
102
}
330
2218D
100
AcDbXrecord
280
     1
102
RTVSPost2010Prop28
280
     0
102
RTVSPost2010PropOp28
 70
     1
102
RTVSPost2010Prop29
280
     1
102
RTVSPost2010PropOp29
 70
     1
102
RTVSPost2010Prop30
280
     1
102
RTVSPost2010PropOp30
 70
     1
102
RTVSPost2010Prop31
280
     0
102
RTVSPost2010PropOp31
 70
     1
102
RTVSPost2010Prop32
280
     0
102
RTVSPost2010PropOp32
 70
     1
102
RTVSPost2010Prop33
280
     0
102
RTVSPost2010PropOp33
 70
     1
102
RTVSPost2010Prop34
280
     0
102
RTVSPost2010PropOp34
 70
     1
102
RTVSPost2010Prop35
280
     0
102
RTVSPost2010PropOp35
 70
     1
102
RTVSPost2010Prop36
280
     0
102
RTVSPost2010PropOp36
 70
     1
102
RTVSPost2010Prop37
 90
       50
102
RTVSPost2010PropOp37
 70
     1
102
RTVSPost2010Prop38
140
0.0
102
RTVSPost2010PropOp38
 70
     1
102
RTVSPost2010Prop39
140
1.0
102
RTVSPost2010PropOp39
 70
     1
102
RTVSPost2010Prop40
 90
        0
102
RTVSPost2010PropOp40
 70
     1
102
RTVSPost2010Prop41ColorIndex
 90
       18
102
RTVSPost2010Prop41ColorRGB
 90
        0
102
RTVSPost2010PropOp41
 70
     1
102
RTVSPost2010Prop42
 90
       50
102
RTVSPost2010PropOp42
 70
     1
102
RTVSPost2010Prop43
 90
        3
102
RTVSPost2010PropOp43
 70
     1
102
RTVSPost2010Prop44ColorIndex
 90
        5
102
RTVSPost2010Prop44ColorRGB
 90
      255
102
RTVSPost2010PropOp44
 70
     1
102
RTVSPost2010Prop45
280
     0
102
RTVSPost2010PropOp45
 70
     1
102
RTVSPost2010Prop46
 90
       50
102
RTVSPost2010PropOp46
 70
     1
102
RTVSPost2010Prop47
 90
       50
102
RTVSPost2010PropOp47
 70
     1
102
RTVSPost2010Prop48
 90
       50
102
RTVSPost2010PropOp48
 70
     1
102
RTVSPost2010Prop49
280
     0
102
RTVSPost2010PropOp49
 70
     1
102
RTVSPost2010Prop50
 90
       50
102
RTVSPost2010PropOp50
 70
     1
102
RTVSPost2010Prop51ColorIndex
 90
      256
102
RTVSPost2010Prop51ColorRGB
 90
-16777216
102
RTVSPost2010PropOp51
 70
     0
102
RTVSPost2010Prop52
140
1.0
102
RTVSPost2010PropOp52
 70
     0
102
RTVSPost2010Prop53
 90
        2
102
RTVSPost2010PropOp53
 70
     1
102
RTVSPost2010Prop54
  1
strokes_ogs.tif
102
RTVSPost2010PropOp54
 70
     1
102
RTVSPost2010Prop55
280
     0
102
RTVSPost2010PropOp55
 70
     1
102
RTVSPost2010Prop56
140
1.0
102
RTVSPost2010PropOp56
 70
     1
102
RTVSPost2010Prop57
140
1.0
102
RTVSPost2010PropOp57
 70
     1
  0
XRECORD
  5
221A4
102
{ACAD_REACTORS
330
221A3
102
}
330
221A3
100
AcDbXrecord
280
     1
102
RTVSPost2010Prop28
280
     0
102
RTVSPost2010PropOp28
 70
     1
102
RTVSPost2010Prop29
280
     1
102
RTVSPost2010PropOp29
 70
     1
102
RTVSPost2010Prop30
280
     1
102
RTVSPost2010PropOp30
 70
     1
102
RTVSPost2010Prop31
280
     0
102
RTVSPost2010PropOp31
 70
     1
102
RTVSPost2010Prop32
280
     0
102
RTVSPost2010PropOp32
 70
     1
102
RTVSPost2010Prop33
280
     0
102
RTVSPost2010PropOp33
 70
     1
102
RTVSPost2010Prop34
280
     0
102
RTVSPost2010PropOp34
 70
     1
102
RTVSPost2010Prop35
280
     0
102
RTVSPost2010PropOp35
 70
     1
102
RTVSPost2010Prop36
280
     0
102
RTVSPost2010PropOp36
 70
     1
102
RTVSPost2010Prop37
 90
       50
102
RTVSPost2010PropOp37
 70
     0
102
RTVSPost2010Prop38
140
0.0
102
RTVSPost2010PropOp38
 70
     0
102
RTVSPost2010Prop39
140
1.0
102
RTVSPost2010PropOp39
 70
     0
102
RTVSPost2010Prop40
 90
        0
102
RTVSPost2010PropOp40
 70
     0
102
RTVSPost2010Prop41ColorIndex
 90
       18
102
RTVSPost2010Prop41ColorRGB
 90
        0
102
RTVSPost2010PropOp41
 70
     0
102
RTVSPost2010Prop42
 90
       50
102
RTVSPost2010PropOp42
 70
     0
102
RTVSPost2010Prop43
 90
        3
102
RTVSPost2010PropOp43
 70
     0
102
RTVSPost2010Prop44ColorIndex
 90
        5
102
RTVSPost2010Prop44ColorRGB
 90
      255
102
RTVSPost2010PropOp44
 70
     0
102
RTVSPost2010Prop45
280
     0
102
RTVSPost2010PropOp45
 70
     1
102
RTVSPost2010Prop46
 90
       50
102
RTVSPost2010PropOp46
 70
     0
102
RTVSPost2010Prop47
 90
       50
102
RTVSPost2010PropOp47
 70
     0
102
RTVSPost2010Prop48
 90
       50
102
RTVSPost2010PropOp48
 70
     0
102
RTVSPost2010Prop49
280
     0
102
RTVSPost2010PropOp49
 70
     1
102
RTVSPost2010Prop50
 90
       50
102
RTVSPost2010PropOp50
 70
     0
102
RTVSPost2010Prop51ColorIndex
 90
      256
102
RTVSPost2010Prop51ColorRGB
 90
-16777216
102
RTVSPost2010PropOp51
 70
     0
102
RTVSPost2010Prop52
140
1.0
102
RTVSPost2010PropOp52
 70
     0
102
RTVSPost2010Prop53
 90
        2
102
RTVSPost2010PropOp53
 70
     0
102
RTVSPost2010Prop54
  1
strokes_ogs.tif
102
RTVSPost2010PropOp54
 70
     0
102
RTVSPost2010Prop55
280
     0
102
RTVSPost2010PropOp55
 70
     1
102
RTVSPost2010Prop56
140
1.0
102
RTVSPost2010PropOp56
 70
     0
102
RTVSPost2010Prop57
140
1.0
102
RTVSPost2010PropOp57
 70
     0
  0
XRECORD
  5
22186
102
{ACAD_REACTORS
330
22185
102
}
330
22185
100
AcDbXrecord
280
     1
102
RTVSPost2010Prop28
280
     0
102
RTVSPost2010PropOp28
 70
     1
102
RTVSPost2010Prop29
280
     1
102
RTVSPost2010PropOp29
 70
     1
102
RTVSPost2010Prop30
280
     1
102
RTVSPost2010PropOp30
 70
     1
102
RTVSPost2010Prop31
280
     0
102
RTVSPost2010PropOp31
 70
     1
102
RTVSPost2010Prop32
280
     0
102
RTVSPost2010PropOp32
 70
     1
102
RTVSPost2010Prop33
280
     0
102
RTVSPost2010PropOp33
 70
     1
102
RTVSPost2010Prop34
280
     0
102
RTVSPost2010PropOp34
 70
     1
102
RTVSPost2010Prop35
280
     0
102
RTVSPost2010PropOp35
 70
     1
102
RTVSPost2010Prop36
280
     0
102
RTVSPost2010PropOp36
 70
     1
102
RTVSPost2010Prop37
 90
       50
102
RTVSPost2010PropOp37
 70
     1
102
RTVSPost2010Prop38
140
0.0
102
RTVSPost2010PropOp38
 70
     1
102
RTVSPost2010Prop39
140
1.0
102
RTVSPost2010PropOp39
 70
     1
102
RTVSPost2010Prop40
 90
        0
102
RTVSPost2010PropOp40
 70
     1
102
RTVSPost2010Prop41ColorIndex
 90
       18
102
RTVSPost2010Prop41ColorRGB
 90
        0
102
RTVSPost2010PropOp41
 70
     1
102
RTVSPost2010Prop42
 90
       50
102
RTVSPost2010PropOp42
 70
     1
102
RTVSPost2010Prop43
 90
        3
102
RTVSPost2010PropOp43
 70
     1
102
RTVSPost2010Prop44ColorIndex
 90
        5
102
RTVSPost2010Prop44ColorRGB
 90
      255
102
RTVSPost2010PropOp44
 70
     1
102
RTVSPost2010Prop45
280
     0
102
RTVSPost2010PropOp45
 70
     1
102
RTVSPost2010Prop46
 90
       50
102
RTVSPost2010PropOp46
 70
     1
102
RTVSPost2010Prop47
 90
       50
102
RTVSPost2010PropOp47
 70
     1
102
RTVSPost2010Prop48
 90
       50
102
RTVSPost2010PropOp48
 70
     1
102
RTVSPost2010Prop49
280
     0
102
RTVSPost2010PropOp49
 70
     1
102
RTVSPost2010Prop50
 90
       50
102
RTVSPost2010PropOp50
 70
     1
102
RTVSPost2010Prop51ColorIndex
 90
      256
102
RTVSPost2010Prop51ColorRGB
 90
-16777216
102
RTVSPost2010PropOp51
 70
     0
102
RTVSPost2010Prop52
140
1.0
102
RTVSPost2010PropOp52
 70
     0
102
RTVSPost2010Prop53
 90
        2
102
RTVSPost2010PropOp53
 70
     1
102
RTVSPost2010Prop54
  1
strokes_ogs.tif
102
RTVSPost2010PropOp54
 70
     1
102
RTVSPost2010Prop55
280
     0
102
RTVSPost2010PropOp55
 70
     1
102
RTVSPost2010Prop56
140
1.0
102
RTVSPost2010PropOp56
 70
     1
102
RTVSPost2010Prop57
140
1.0
102
RTVSPost2010PropOp57
 70
     1
  0
XRECORD
  5
221A0
102
{ACAD_REACTORS
330
2219F
102
}
330
2219F
100
AcDbXrecord
280
     1
102
RTVSPost2010Prop28
280
     0
102
RTVSPost2010PropOp28
 70
     1
102
RTVSPost2010Prop29
280
     1
102
RTVSPost2010PropOp29
 70
     1
102
RTVSPost2010Prop30
280
     1
102
RTVSPost2010PropOp30
 70
     1
102
RTVSPost2010Prop31
280
     0
102
RTVSPost2010PropOp31
 70
     1
102
RTVSPost2010Prop32
280
     0
102
RTVSPost2010PropOp32
 70
     1
102
RTVSPost2010Prop33
280
     0
102
RTVSPost2010PropOp33
 70
     1
102
RTVSPost2010Prop34
280
     0
102
RTVSPost2010PropOp34
 70
     1
102
RTVSPost2010Prop35
280
     0
102
RTVSPost2010PropOp35
 70
     1
102
RTVSPost2010Prop36
280
     0
102
RTVSPost2010PropOp36
 70
     1
102
RTVSPost2010Prop37
 90
       50
102
RTVSPost2010PropOp37
 70
     1
102
RTVSPost2010Prop38
140
0.0
102
RTVSPost2010PropOp38
 70
     1
102
RTVSPost2010Prop39
140
1.0
102
RTVSPost2010PropOp39
 70
     1
102
RTVSPost2010Prop40
 90
        0
102
RTVSPost2010PropOp40
 70
     1
102
RTVSPost2010Prop41ColorIndex
 90
       18
102
RTVSPost2010Prop41ColorRGB
 90
        0
102
RTVSPost2010PropOp41
 70
     1
102
RTVSPost2010Prop42
 90
       50
102
RTVSPost2010PropOp42
 70
     1
102
RTVSPost2010Prop43
 90
        3
102
RTVSPost2010PropOp43
 70
     1
102
RTVSPost2010Prop44ColorIndex
 90
        5
102
RTVSPost2010Prop44ColorRGB
 90
      255
102
RTVSPost2010PropOp44
 70
     1
102
RTVSPost2010Prop45
280
     0
102
RTVSPost2010PropOp45
 70
     1
102
RTVSPost2010Prop46
 90
       50
102
RTVSPost2010PropOp46
 70
     1
102
RTVSPost2010Prop47
 90
       50
102
RTVSPost2010PropOp47
 70
     1
102
RTVSPost2010Prop48
 90
       50
102
RTVSPost2010PropOp48
 70
     1
102
RTVSPost2010Prop49
280
     0
102
RTVSPost2010PropOp49
 70
     1
102
RTVSPost2010Prop50
 90
       50
102
RTVSPost2010PropOp50
 70
     1
102
RTVSPost2010Prop51ColorIndex
 90
      256
102
RTVSPost2010Prop51ColorRGB
 90
-16777216
102
RTVSPost2010PropOp51
 70
     0
102
RTVSPost2010Prop52
140
1.0
102
RTVSPost2010PropOp52
 70
     0
102
RTVSPost2010Prop53
 90
        2
102
RTVSPost2010PropOp53
 70
     1
102
RTVSPost2010Prop54
  1
strokes_ogs.tif
102
RTVSPost2010PropOp54
 70
     1
102
RTVSPost2010Prop55
280
     0
102
RTVSPost2010PropOp55
 70
     1
102
RTVSPost2010Prop56
140
1.0
102
RTVSPost2010PropOp56
 70
     1
102
RTVSPost2010Prop57
140
1.0
102
RTVSPost2010PropOp57
 70
     1
  0
XRECORD
  5
2219E
102
{ACAD_REACTORS
330
2219D
102
}
330
2219D
100
AcDbXrecord
280
     1
102
RTVSPost2010Prop28
280
     0
102
RTVSPost2010PropOp28
 70
     1
102
RTVSPost2010Prop29
280
     1
102
RTVSPost2010PropOp29
 70
     1
102
RTVSPost2010Prop30
280
     1
102
RTVSPost2010PropOp30
 70
     1
102
RTVSPost2010Prop31
280
     0
102
RTVSPost2010PropOp31
 70
     1
102
RTVSPost2010Prop32
280
     0
102
RTVSPost2010PropOp32
 70
     1
102
RTVSPost2010Prop33
280
     0
102
RTVSPost2010PropOp33
 70
     1
102
RTVSPost2010Prop34
280
     0
102
RTVSPost2010PropOp34
 70
     1
102
RTVSPost2010Prop35
280
     0
102
RTVSPost2010PropOp35
 70
     1
102
RTVSPost2010Prop36
280
     0
102
RTVSPost2010PropOp36
 70
     1
102
RTVSPost2010Prop37
 90
       50
102
RTVSPost2010PropOp37
 70
     1
102
RTVSPost2010Prop38
140
0.0
102
RTVSPost2010PropOp38
 70
     1
102
RTVSPost2010Prop39
140
1.0
102
RTVSPost2010PropOp39
 70
     1
102
RTVSPost2010Prop40
 90
        0
102
RTVSPost2010PropOp40
 70
     1
102
RTVSPost2010Prop41ColorIndex
 90
       18
102
RTVSPost2010Prop41ColorRGB
 90
        0
102
RTVSPost2010PropOp41
 70
     1
102
RTVSPost2010Prop42
 90
       50
102
RTVSPost2010PropOp42
 70
     1
102
RTVSPost2010Prop43
 90
        3
102
RTVSPost2010PropOp43
 70
     1
102
RTVSPost2010Prop44ColorIndex
 90
        5
102
RTVSPost2010Prop44ColorRGB
 90
      255
102
RTVSPost2010PropOp44
 70
     1
102
RTVSPost2010Prop45
280
     0
102
RTVSPost2010PropOp45
 70
     1
102
RTVSPost2010Prop46
 90
       50
102
RTVSPost2010PropOp46
 70
     1
102
RTVSPost2010Prop47
 90
       50
102
RTVSPost2010PropOp47
 70
     1
102
RTVSPost2010Prop48
 90
       50
102
RTVSPost2010PropOp48
 70
     1
102
RTVSPost2010Prop49
280
     0
102
RTVSPost2010PropOp49
 70
     1
102
RTVSPost2010Prop50
 90
       50
102
RTVSPost2010PropOp50
 70
     1
102
RTVSPost2010Prop51ColorIndex
 90
      256
102
RTVSPost2010Prop51ColorRGB
 90
-16777216
102
RTVSPost2010PropOp51
 70
     0
102
RTVSPost2010Prop52
140
1.0
102
RTVSPost2010PropOp52
 70
     0
102
RTVSPost2010Prop53
 90
        2
102
RTVSPost2010PropOp53
 70
     1
102
RTVSPost2010Prop54
  1
strokes_ogs.tif
102
RTVSPost2010PropOp54
 70
     1
102
RTVSPost2010Prop55
280
     0
102
RTVSPost2010PropOp55
 70
     1
102
RTVSPost2010Prop56
140
1.0
102
RTVSPost2010PropOp56
 70
     1
102
RTVSPost2010Prop57
140
1.0
102
RTVSPost2010PropOp57
 70
     1
  0
XRECORD
  5
22198
102
{ACAD_REACTORS
330
22197
102
}
330
22197
100
AcDbXrecord
280
     1
102
RTVSPost2010Prop28
280
     0
102
RTVSPost2010PropOp28
 70
     1
102
RTVSPost2010Prop29
280
     1
102
RTVSPost2010PropOp29
 70
     1
102
RTVSPost2010Prop30
280
     1
102
RTVSPost2010PropOp30
 70
     1
102
RTVSPost2010Prop31
280
     0
102
RTVSPost2010PropOp31
 70
     1
102
RTVSPost2010Prop32
280
     0
102
RTVSPost2010PropOp32
 70
     1
102
RTVSPost2010Prop33
280
     0
102
RTVSPost2010PropOp33
 70
     1
102
RTVSPost2010Prop34
280
     0
102
RTVSPost2010PropOp34
 70
     1
102
RTVSPost2010Prop35
280
     0
102
RTVSPost2010PropOp35
 70
     1
102
RTVSPost2010Prop36
280
     0
102
RTVSPost2010PropOp36
 70
     1
102
RTVSPost2010Prop37
 90
       50
102
RTVSPost2010PropOp37
 70
     1
102
RTVSPost2010Prop38
140
0.0
102
RTVSPost2010PropOp38
 70
     1
102
RTVSPost2010Prop39
140
1.0
102
RTVSPost2010PropOp39
 70
     1
102
RTVSPost2010Prop40
 90
        0
102
RTVSPost2010PropOp40
 70
     1
102
RTVSPost2010Prop41ColorIndex
 90
       18
102
RTVSPost2010Prop41ColorRGB
 90
        0
102
RTVSPost2010PropOp41
 70
     1
102
RTVSPost2010Prop42
 90
       50
102
RTVSPost2010PropOp42
 70
     1
102
RTVSPost2010Prop43
 90
        3
102
RTVSPost2010PropOp43
 70
     1
102
RTVSPost2010Prop44ColorIndex
 90
        5
102
RTVSPost2010Prop44ColorRGB
 90
      255
102
RTVSPost2010PropOp44
 70
     1
102
RTVSPost2010Prop45
280
     0
102
RTVSPost2010PropOp45
 70
     1
102
RTVSPost2010Prop46
 90
       50
102
RTVSPost2010PropOp46
 70
     1
102
RTVSPost2010Prop47
 90
       50
102
RTVSPost2010PropOp47
 70
     1
102
RTVSPost2010Prop48
 90
       50
102
RTVSPost2010PropOp48
 70
     1
102
RTVSPost2010Prop49
280
     0
102
RTVSPost2010PropOp49
 70
     1
102
RTVSPost2010Prop50
 90
       50
102
RTVSPost2010PropOp50
 70
     1
102
RTVSPost2010Prop51ColorIndex
 90
      256
102
RTVSPost2010Prop51ColorRGB
 90
-16777216
102
RTVSPost2010PropOp51
 70
     0
102
RTVSPost2010Prop52
140
1.0
102
RTVSPost2010PropOp52
 70
     0
102
RTVSPost2010Prop53
 90
        2
102
RTVSPost2010PropOp53
 70
     1
102
RTVSPost2010Prop54
  1
strokes_ogs.tif
102
RTVSPost2010PropOp54
 70
     1
102
RTVSPost2010Prop55
280
     0
102
RTVSPost2010PropOp55
 70
     1
102
RTVSPost2010Prop56
140
1.0
102
RTVSPost2010PropOp56
 70
     1
102
RTVSPost2010Prop57
140
1.0
102
RTVSPost2010PropOp57
 70
     1
  0
XRECORD
  5
2219A
102
{ACAD_REACTORS
330
22199
102
}
330
22199
100
AcDbXrecord
280
     1
102
RTVSPost2010Prop28
280
     0
102
RTVSPost2010PropOp28
 70
     1
102
RTVSPost2010Prop29
280
     1
102
RTVSPost2010PropOp29
 70
     1
102
RTVSPost2010Prop30
280
     1
102
RTVSPost2010PropOp30
 70
     1
102
RTVSPost2010Prop31
280
     0
102
RTVSPost2010PropOp31
 70
     1
102
RTVSPost2010Prop32
280
     0
102
RTVSPost2010PropOp32
 70
     1
102
RTVSPost2010Prop33
280
     0
102
RTVSPost2010PropOp33
 70
     1
102
RTVSPost2010Prop34
280
     0
102
RTVSPost2010PropOp34
 70
     1
102
RTVSPost2010Prop35
280
     0
102
RTVSPost2010PropOp35
 70
     1
102
RTVSPost2010Prop36
280
     0
102
RTVSPost2010PropOp36
 70
     1
102
RTVSPost2010Prop37
 90
       50
102
RTVSPost2010PropOp37
 70
     1
102
RTVSPost2010Prop38
140
0.0
102
RTVSPost2010PropOp38
 70
     1
102
RTVSPost2010Prop39
140
1.0
102
RTVSPost2010PropOp39
 70
     1
102
RTVSPost2010Prop40
 90
        0
102
RTVSPost2010PropOp40
 70
     1
102
RTVSPost2010Prop41ColorIndex
 90
       18
102
RTVSPost2010Prop41ColorRGB
 90
        0
102
RTVSPost2010PropOp41
 70
     1
102
RTVSPost2010Prop42
 90
       50
102
RTVSPost2010PropOp42
 70
     1
102
RTVSPost2010Prop43
 90
        3
102
RTVSPost2010PropOp43
 70
     1
102
RTVSPost2010Prop44ColorIndex
 90
        5
102
RTVSPost2010Prop44ColorRGB
 90
      255
102
RTVSPost2010PropOp44
 70
     1
102
RTVSPost2010Prop45
280
     0
102
RTVSPost2010PropOp45
 70
     1
102
RTVSPost2010Prop46
 90
       50
102
RTVSPost2010PropOp46
 70
     1
102
RTVSPost2010Prop47
 90
       50
102
RTVSPost2010PropOp47
 70
     1
102
RTVSPost2010Prop48
 90
       50
102
RTVSPost2010PropOp48
 70
     1
102
RTVSPost2010Prop49
280
     0
102
RTVSPost2010PropOp49
 70
     1
102
RTVSPost2010Prop50
 90
       50
102
RTVSPost2010PropOp50
 70
     1
102
RTVSPost2010Prop51ColorIndex
 90
      256
102
RTVSPost2010Prop51ColorRGB
 90
-16777216
102
RTVSPost2010PropOp51
 70
     0
102
RTVSPost2010Prop52
140
1.0
102
RTVSPost2010PropOp52
 70
     0
102
RTVSPost2010Prop53
 90
        2
102
RTVSPost2010PropOp53
 70
     1
102
RTVSPost2010Prop54
  1
strokes_ogs.tif
102
RTVSPost2010PropOp54
 70
     1
102
RTVSPost2010Prop55
280
     0
102
RTVSPost2010PropOp55
 70
     1
102
RTVSPost2010Prop56
140
1.0
102
RTVSPost2010PropOp56
 70
     1
102
RTVSPost2010Prop57
140
1.0
102
RTVSPost2010PropOp57
 70
     1
  0
XRECORD
  5
2218C
102
{ACAD_REACTORS
330
2218B
102
}
330
2218B
100
AcDbXrecord
280
     1
102
RTVSPost2010Prop28
280
     0
102
RTVSPost2010PropOp28
 70
     1
102
RTVSPost2010Prop29
280
     1
102
RTVSPost2010PropOp29
 70
     1
102
RTVSPost2010Prop30
280
     1
102
RTVSPost2010PropOp30
 70
     1
102
RTVSPost2010Prop31
280
     0
102
RTVSPost2010PropOp31
 70
     1
102
RTVSPost2010Prop32
280
     0
102
RTVSPost2010PropOp32
 70
     1
102
RTVSPost2010Prop33
280
     0
102
RTVSPost2010PropOp33
 70
     1
102
RTVSPost2010Prop34
280
     0
102
RTVSPost2010PropOp34
 70
     1
102
RTVSPost2010Prop35
280
     0
102
RTVSPost2010PropOp35
 70
     1
102
RTVSPost2010Prop36
280
     0
102
RTVSPost2010PropOp36
 70
     1
102
RTVSPost2010Prop37
 90
       50
102
RTVSPost2010PropOp37
 70
     1
102
RTVSPost2010Prop38
140
0.0
102
RTVSPost2010PropOp38
 70
     1
102
RTVSPost2010Prop39
140
1.0
102
RTVSPost2010PropOp39
 70
     1
102
RTVSPost2010Prop40
 90
        0
102
RTVSPost2010PropOp40
 70
     1
102
RTVSPost2010Prop41ColorIndex
 90
       18
102
RTVSPost2010Prop41ColorRGB
 90
        0
102
RTVSPost2010PropOp41
 70
     1
102
RTVSPost2010Prop42
 90
       50
102
RTVSPost2010PropOp42
 70
     1
102
RTVSPost2010Prop43
 90
        3
102
RTVSPost2010PropOp43
 70
     1
102
RTVSPost2010Prop44ColorIndex
 90
        5
102
RTVSPost2010Prop44ColorRGB
 90
      255
102
RTVSPost2010PropOp44
 70
     1
102
RTVSPost2010Prop45
280
     0
102
RTVSPost2010PropOp45
 70
     1
102
RTVSPost2010Prop46
 90
       50
102
RTVSPost2010PropOp46
 70
     1
102
RTVSPost2010Prop47
 90
       50
102
RTVSPost2010PropOp47
 70
     1
102
RTVSPost2010Prop48
 90
       50
102
RTVSPost2010PropOp48
 70
     1
102
RTVSPost2010Prop49
280
     0
102
RTVSPost2010PropOp49
 70
     1
102
RTVSPost2010Prop50
 90
       50
102
RTVSPost2010PropOp50
 70
     1
102
RTVSPost2010Prop51ColorIndex
 90
      256
102
RTVSPost2010Prop51ColorRGB
 90
-16777216
102
RTVSPost2010PropOp51
 70
     0
102
RTVSPost2010Prop52
140
1.0
102
RTVSPost2010PropOp52
 70
     0
102
RTVSPost2010Prop53
 90
        2
102
RTVSPost2010PropOp53
 70
     1
102
RTVSPost2010Prop54
  1
strokes_ogs.tif
102
RTVSPost2010PropOp54
 70
     1
102
RTVSPost2010Prop55
280
     0
102
RTVSPost2010PropOp55
 70
     1
102
RTVSPost2010Prop56
140
1.0
102
RTVSPost2010PropOp56
 70
     1
102
RTVSPost2010Prop57
140
1.0
102
RTVSPost2010PropOp57
 70
     1
  0
XRECORD
  5
22194
102
{ACAD_REACTORS
330
22193
102
}
330
22193
100
AcDbXrecord
280
     1
102
RTVSPost2010Prop28
280
     0
102
RTVSPost2010PropOp28
 70
     1
102
RTVSPost2010Prop29
280
     1
102
RTVSPost2010PropOp29
 70
     1
102
RTVSPost2010Prop30
280
     1
102
RTVSPost2010PropOp30
 70
     1
102
RTVSPost2010Prop31
280
     0
102
RTVSPost2010PropOp31
 70
     1
102
RTVSPost2010Prop32
280
     0
102
RTVSPost2010PropOp32
 70
     1
102
RTVSPost2010Prop33
280
     0
102
RTVSPost2010PropOp33
 70
     1
102
RTVSPost2010Prop34
280
     0
102
RTVSPost2010PropOp34
 70
     1
102
RTVSPost2010Prop35
280
     0
102
RTVSPost2010PropOp35
 70
     1
102
RTVSPost2010Prop36
280
     0
102
RTVSPost2010PropOp36
 70
     1
102
RTVSPost2010Prop37
 90
       50
102
RTVSPost2010PropOp37
 70
     1
102
RTVSPost2010Prop38
140
0.0
102
RTVSPost2010PropOp38
 70
     1
102
RTVSPost2010Prop39
140
1.0
102
RTVSPost2010PropOp39
 70
     1
102
RTVSPost2010Prop40
 90
        0
102
RTVSPost2010PropOp40
 70
     1
102
RTVSPost2010Prop41ColorIndex
 90
       18
102
RTVSPost2010Prop41ColorRGB
 90
        0
102
RTVSPost2010PropOp41
 70
     1
102
RTVSPost2010Prop42
 90
       50
102
RTVSPost2010PropOp42
 70
     1
102
RTVSPost2010Prop43
 90
        3
102
RTVSPost2010PropOp43
 70
     1
102
RTVSPost2010Prop44ColorIndex
 90
        5
102
RTVSPost2010Prop44ColorRGB
 90
      255
102
RTVSPost2010PropOp44
 70
     1
102
RTVSPost2010Prop45
280
     0
102
RTVSPost2010PropOp45
 70
     1
102
RTVSPost2010Prop46
 90
       50
102
RTVSPost2010PropOp46
 70
     1
102
RTVSPost2010Prop47
 90
       50
102
RTVSPost2010PropOp47
 70
     1
102
RTVSPost2010Prop48
 90
       50
102
RTVSPost2010PropOp48
 70
     1
102
RTVSPost2010Prop49
280
     0
102
RTVSPost2010PropOp49
 70
     1
102
RTVSPost2010Prop50
 90
       50
102
RTVSPost2010PropOp50
 70
     1
102
RTVSPost2010Prop51ColorIndex
 90
      256
102
RTVSPost2010Prop51ColorRGB
 90
-16777216
102
RTVSPost2010PropOp51
 70
     0
102
RTVSPost2010Prop52
140
1.0
102
RTVSPost2010PropOp52
 70
     0
102
RTVSPost2010Prop53
 90
        2
102
RTVSPost2010PropOp53
 70
     1
102
RTVSPost2010Prop54
  1
strokes_ogs.tif
102
RTVSPost2010PropOp54
 70
     1
102
RTVSPost2010Prop55
280
     0
102
RTVSPost2010PropOp55
 70
     1
102
RTVSPost2010Prop56
140
1.0
102
RTVSPost2010PropOp56
 70
     1
102
RTVSPost2010Prop57
140
1.0
102
RTVSPost2010PropOp57
 70
     1
  0
XRECORD
  5
2219C
102
{ACAD_REACTORS
330
2219B
102
}
330
2219B
100
AcDbXrecord
280
     1
102
RTVSPost2010Prop28
280
     0
102
RTVSPost2010PropOp28
 70
     1
102
RTVSPost2010Prop29
280
     1
102
RTVSPost2010PropOp29
 70
     1
102
RTVSPost2010Prop30
280
     1
102
RTVSPost2010PropOp30
 70
     1
102
RTVSPost2010Prop31
280
     0
102
RTVSPost2010PropOp31
 70
     1
102
RTVSPost2010Prop32
280
     0
102
RTVSPost2010PropOp32
 70
     1
102
RTVSPost2010Prop33
280
     0
102
RTVSPost2010PropOp33
 70
     1
102
RTVSPost2010Prop34
280
     0
102
RTVSPost2010PropOp34
 70
     1
102
RTVSPost2010Prop35
280
     0
102
RTVSPost2010PropOp35
 70
     1
102
RTVSPost2010Prop36
280
     0
102
RTVSPost2010PropOp36
 70
     1
102
RTVSPost2010Prop37
 90
       50
102
RTVSPost2010PropOp37
 70
     1
102
RTVSPost2010Prop38
140
0.0
102
RTVSPost2010PropOp38
 70
     1
102
RTVSPost2010Prop39
140
1.0
102
RTVSPost2010PropOp39
 70
     1
102
RTVSPost2010Prop40
 90
        0
102
RTVSPost2010PropOp40
 70
     1
102
RTVSPost2010Prop41ColorIndex
 90
       18
102
RTVSPost2010Prop41ColorRGB
 90
        0
102
RTVSPost2010PropOp41
 70
     1
102
RTVSPost2010Prop42
 90
       50
102
RTVSPost2010PropOp42
 70
     1
102
RTVSPost2010Prop43
 90
        3
102
RTVSPost2010PropOp43
 70
     1
102
RTVSPost2010Prop44ColorIndex
 90
        5
102
RTVSPost2010Prop44ColorRGB
 90
      255
102
RTVSPost2010PropOp44
 70
     1
102
RTVSPost2010Prop45
280
     0
102
RTVSPost2010PropOp45
 70
     1
102
RTVSPost2010Prop46
 90
       50
102
RTVSPost2010PropOp46
 70
     1
102
RTVSPost2010Prop47
 90
       50
102
RTVSPost2010PropOp47
 70
     1
102
RTVSPost2010Prop48
 90
       50
102
RTVSPost2010PropOp48
 70
     1
102
RTVSPost2010Prop49
280
     0
102
RTVSPost2010PropOp49
 70
     1
102
RTVSPost2010Prop50
 90
       50
102
RTVSPost2010PropOp50
 70
     1
102
RTVSPost2010Prop51ColorIndex
 90
      256
102
RTVSPost2010Prop51ColorRGB
 90
-16777216
102
RTVSPost2010PropOp51
 70
     0
102
RTVSPost2010Prop52
140
1.0
102
RTVSPost2010PropOp52
 70
     0
102
RTVSPost2010Prop53
 90
        2
102
RTVSPost2010PropOp53
 70
     1
102
RTVSPost2010Prop54
  1
strokes_ogs.tif
102
RTVSPost2010PropOp54
 70
     1
102
RTVSPost2010Prop55
280
     0
102
RTVSPost2010PropOp55
 70
     1
102
RTVSPost2010Prop56
140
1.0
102
RTVSPost2010PropOp56
 70
     1
102
RTVSPost2010Prop57
140
1.0
102
RTVSPost2010PropOp57
 70
     1
  0
ENDSEC
  0
EOF
