  0
SECTION
  2
HEADER
  9
$ACADVER
  1
AC1024
  9
$ACADMAINTVER
 70
   182
  9
$DWGCODEPAGE
  3
ANSI_1252
  9
$LASTSAVEDBY
  1
kamerka
  9
$INSBASE
 10
0.0
 20
0.0
 30
0.0
  9
$EXTMIN
 10
-100.9176627138137
 20
-54.88989195051818
 30
-0.0000000000000057
  9
$EXTMAX
 10
73.14239559362454
 20
54.50921671780429
 30
0.0000000000000104
  9
$LIMMIN
 10
0.0
 20
0.0
  9
$LIMMAX
 10
420.0
 20
297.0
  9
$ORTHOMODE
 70
     0
  9
$REGENMODE
 70
     1
  9
$FILLMODE
 70
     1
  9
$QTEXTMODE
 70
     0
  9
$MIRRTEXT
 70
     0
  9
$LTSCALE
 40
23.1
  9
$ATTMODE
 70
     1
  9
$TEXTSIZE
 40
3.5
  9
$TRACEWID
 40
0.05
  9
$TEXTSTYLE
  7
STANDARD
  9
$CLAYER
  8
0
  9
$CELTYPE
  6
BYLAYER
  9
$CECOLOR
 62
   256
  9
$CELTSCALE
 40
1.0
  9
$DISPSILH
 70
     0
  9
$DIMSCALE
 40
1.0
  9
$DIMASZ
 40
4.57
  9
$DIMEXO
 40
0.0625
  9
$DIMDLI
 40
0.38
  9
$DIMRND
 40
0.0
  9
$DIMDLE
 40
0.0
  9
$DIMEXE
 40
0.18
  9
$DIMTP
 40
0.01
  9
$DIMTM
 40
0.01
  9
$DIMTXT
 40
3.5
  9
$DIMCEN
 40
0.09
  9
$DIMTSZ
 40
0.0
  9
$DIMTOL
 70
     0
  9
$DIMLIM
 70
     0
  9
$DIMTIH
 70
     0
  9
$DIMTOH
 70
     0
  9
$DIMSE1
 70
     0
  9
$DIMSE2
 70
     0
  9
$DIMTAD
 70
     1
  9
$DIMZIN
 70
     8
  9
$DIMBLK
  1

  9
$DIMASO
 70
     1
  9
$DIMSHO
 70
     1
  9
$DIMPOST
  1

  9
$DIMAPOST
  1

  9
$DIMALT
 70
     0
  9
$DIMALTD
 70
     2
  9
$DIMALTF
 40
25.4
  9
$DIMLFAC
 40
1.0
  9
$DIMTOFL
 70
     0
  9
$DIMTVP
 40
0.0
  9
$DIMTIX
 70
     0
  9
$DIMSOXD
 70
     0
  9
$DIMSAH
 70
     0
  9
$DIMBLK1
  1

  9
$DIMBLK2
  1

  9
$DIMSTYLE
  2
STANDARD
  9
$DIMCLRD
 70
     0
  9
$DIMCLRE
 70
     0
  9
$DIMCLRT
 70
     0
  9
$DIMTFAC
 40
1.0
  9
$DIMGAP
 40
0.09
  9
$DIMJUST
 70
     0
  9
$DIMSD1
 70
     0
  9
$DIMSD2
 70
     0
  9
$DIMTOLJ
 70
     1
  9
$DIMTZIN
 70
     8
  9
$DIMALTZ
 70
     0
  9
$DIMALTTZ
 70
     0
  9
$DIMUPT
 70
     0
  9
$DIMDEC
 70
     3
  9
$DIMTDEC
 70
     3
  9
$DIMALTU
 70
     2
  9
$DIMALTTD
 70
     2
  9
$DIMTXSTY
  7
STANDARD
  9
$DIMAUNIT
 70
     0
  9
$DIMADEC
 70
     0
  9
$DIMALTRND
 40
0.0
  9
$DIMAZIN
 70
     0
  9
$DIMDSEP
 70
    46
  9
$DIMATFIT
 70
     0
  9
$DIMFRAC
 70
     0
  9
$DIMLDRBLK
  1

  9
$DIMLUNIT
 70
     2
  9
$DIMLWD
 70
    -2
  9
$DIMLWE
 70
    -2
  9
$DIMTMOVE
 70
     0
  9
$DIMFXL
 40
1.0
  9
$DIMFXLON
 70
     0
  9
$DIMJOGANG
 40
0.7853981633974483
  9
$DIMTFILL
 70
     0
  9
$DIMTFILLCLR
 70
     0
  9
$DIMARCSYM
 70
     0
  9
$DIMLTYPE
  6

  9
$DIMLTEX1
  6

  9
$DIMLTEX2
  6

  9
$DIMTXTDIRECTION
 70
     0
  9
$LUNITS
 70
     2
  9
$LUPREC
 70
     4
  9
$SKETCHINC
 40
0.1
  9
$FILLETRAD
 40
0.0
  9
$AUNITS
 70
     0
  9
$AUPREC
 70
     0
  9
$MENU
  1
.
  9
$ELEVATION
 40
0.0
  9
$PELEVATION
 40
0.0
  9
$THICKNESS
 40
0.0
  9
$LIMCHECK
 70
     0
  9
$CHAMFERA
 40
0.0
  9
$CHAMFERB
 40
0.0
  9
$CHAMFERC
 40
0.0
  9
$CHAMFERD
 40
0.0
  9
$SKPOLY
 70
     0
  9
$TDCREATE
 40
2458446.405227107
  9
$TDUCREATE
 40
2458446.321893773
  9
$TDUPDATE
 40
2458975.556786192
  9
$TDUUPDATE
 40
2458975.473452859
  9
$TDINDWG
 40
0.0285569907
  9
$TDUSRTIMER
 40
0.0285559259
  9
$USRTIMER
 70
     1
  9
$ANGBASE
 50
0.0
  9
$ANGDIR
 70
     0
  9
$PDMODE
 70
     3
  9
$PDSIZE
 40
0.3125
  9
$PLINEWID
 40
0.0
  9
$SPLFRAME
 70
     0
  9
$SPLINETYPE
 70
     6
  9
$SPLINESEGS
 70
     8
  9
$HANDSEED
  5
2210C
  9
$SURFTAB1
 70
     6
  9
$SURFTAB2
 70
     6
  9
$SURFTYPE
 70
     6
  9
$SURFU
 70
     6
  9
$SURFV
 70
     6
  9
$UCSBASE
  2

  9
$UCSNAME
  2

  9
$UCSORG
 10
0.0
 20
0.0
 30
0.0
  9
$UCSXDIR
 10
1.0
 20
0.0
 30
0.0
  9
$UCSYDIR
 10
0.0
 20
1.0
 30
0.0
  9
$UCSORTHOREF
  2

  9
$UCSORTHOVIEW
 70
     0
  9
$UCSORGTOP
 10
0.0
 20
0.0
 30
0.0
  9
$UCSORGBOTTOM
 10
0.0
 20
0.0
 30
0.0
  9
$UCSORGLEFT
 10
0.0
 20
0.0
 30
0.0
  9
$UCSORGRIGHT
 10
0.0
 20
0.0
 30
0.0
  9
$UCSORGFRONT
 10
0.0
 20
0.0
 30
0.0
  9
$UCSORGBACK
 10
0.0
 20
0.0
 30
0.0
  9
$PUCSBASE
  2

  9
$PUCSNAME
  2

  9
$PUCSORG
 10
0.0
 20
0.0
 30
0.0
  9
$PUCSXDIR
 10
1.0
 20
0.0
 30
0.0
  9
$PUCSYDIR
 10
0.0
 20
1.0
 30
0.0
  9
$PUCSORTHOREF
  2

  9
$PUCSORTHOVIEW
 70
     0
  9
$PUCSORGTOP
 10
0.0
 20
0.0
 30
0.0
  9
$PUCSORGBOTTOM
 10
0.0
 20
0.0
 30
0.0
  9
$PUCSORGLEFT
 10
0.0
 20
0.0
 30
0.0
  9
$PUCSORGRIGHT
 10
0.0
 20
0.0
 30
0.0
  9
$PUCSORGFRONT
 10
0.0
 20
0.0
 30
0.0
  9
$PUCSORGBACK
 10
0.0
 20
0.0
 30
0.0
  9
$USERI1
 70
     0
  9
$USERI2
 70
     0
  9
$USERI3
 70
     0
  9
$USERI4
 70
     0
  9
$USERI5
 70
     0
  9
$USERR1
 40
0.0
  9
$USERR2
 40
0.0
  9
$USERR3
 40
0.0
  9
$USERR4
 40
0.0
  9
$USERR5
 40
0.0
  9
$WORLDVIEW
 70
     1
  9
$SHADEDGE
 70
     3
  9
$SHADEDIF
 70
    70
  9
$TILEMODE
 70
     1
  9
$MAXACTVP
 70
    64
  9
$PINSBASE
 10
0.0
 20
0.0
 30
0.0
  9
$PLIMCHECK
 70
     0
  9
$PEXTMIN
 10
28.69141678810127
 20
19.6363175392151
 30
0.0
  9
$PEXTMAX
 10
258.2227510929107
 20
176.7268578529358
 30
0.0
  9
$PLIMMIN
 10
-5.027069091796875
 20
-6.805083274841307
  9
$PLIMMAX
 10
291.9412536621094
 20
203.1682443618775
  9
$UNITMODE
 70
     0
  9
$VISRETAIN
 70
     1
  9
$PLINEGEN
 70
     0
  9
$PSLTSCALE
 70
     1
  9
$TREEDEPTH
 70
  3020
  9
$CMLSTYLE
  2
STANDARD
  9
$CMLJUST
 70
     0
  9
$CMLSCALE
 40
1.0
  9
$PROXYGRAPHICS
 70
     1
  9
$MEASUREMENT
 70
     1
  9
$CELWEIGHT
370
    -1
  9
$ENDCAPS
280
     0
  9
$JOINSTYLE
280
     0
  9
$LWDISPLAY
290
     0
  9
$INSUNITS
 70
     0
  9
$HYPERLINKBASE
  1

  9
$STYLESHEET
  1
A1-A2.CTB
  9
$XEDIT
290
     1
  9
$CEPSNTYPE
380
     0
  9
$PSTYLEMODE
290
     1
  9
$FINGERPRINTGUID
  2
{6D3BC7B5-ACA7-406D-8A0D-A7DBBE093430}
  9
$VERSIONGUID
  2
{1AEDD30F-591C-4554-8C86-AF519C265872}
  9
$EXTNAMES
290
     1
  9
$PSVPSCALE
 40
0.0
  9
$OLESTARTUP
290
     0
  9
$SORTENTS
280
   127
  9
$INDEXCTL
280
     0
  9
$HIDETEXT
280
     0
  9
$XCLIPFRAME
280
     2
  9
$HALOGAP
280
     0
  9
$OBSCOLOR
 70
   257
  9
$OBSLTYPE
280
     0
  9
$INTERSECTIONDISPLAY
280
     0
  9
$INTERSECTIONCOLOR
 70
   257
  9
$DIMASSOC
280
     1
  9
$PROJECTNAME
  1

  9
$CAMERADISPLAY
290
     0
  9
$LENSLENGTH
 40
50.0
  9
$CAMERAHEIGHT
 40
0.0
  9
$STEPSPERSEC
 40
2.0
  9
$STEPSIZE
 40
6.0
  9
$3DDWFPREC
 40
2.0
  9
$PSOLWIDTH
 40
0.25
  9
$PSOLHEIGHT
 40
4.0
  9
$LOFTANG1
 40
1.570796326794896
  9
$LOFTANG2
 40
1.570796326794896
  9
$LOFTMAG1
 40
0.0
  9
$LOFTMAG2
 40
0.0
  9
$LOFTPARAM
 70
     7
  9
$LOFTNORMALS
280
     1
  9
$LATITUDE
 40
37.795
  9
$LONGITUDE
 40
-122.394
  9
$NORTHDIRECTION
 40
0.0
  9
$TIMEZONE
 70
 -8000
  9
$LIGHTGLYPHDISPLAY
280
     1
  9
$TILEMODELIGHTSYNCH
280
     1
  9
$CMATERIAL
347
318C
  9
$SOLIDHIST
280
     0
  9
$SHOWHIST
280
     1
  9
$DWFFRAME
280
     2
  9
$DGNFRAME
280
     0
  9
$REALWORLDSCALE
290
     1
  9
$INTERFERECOLOR
 62
     1
  9
$INTERFEREOBJVS
345
3199
  9
$INTERFEREVPVS
346
1B2E3
  9
$CSHADOW
280
     0
  9
$SHADOWPLANELOCATION
 40
0.0
  0
ENDSEC
  0
SECTION
  2
CLASSES
  0
CLASS
  1
ACDBDICTIONARYWDFLT
  2
AcDbDictionaryWithDefault
  3
ObjectDBX Classes
 90
        0
 91
        1
280
     0
281
     0
  0
CLASS
  1
MATERIAL
  2
AcDbMaterial
  3
ObjectDBX Classes
 90
     1153
 91
        3
280
     0
281
     0
  0
CLASS
  1
VISUALSTYLE
  2
AcDbVisualStyle
  3
ObjectDBX Classes
 90
     4095
 91
       26
280
     0
281
     0
  0
CLASS
  1
TABLESTYLE
  2
AcDbTableStyle
  3
ObjectDBX Classes
 90
     4095
 91
        1
280
     0
281
     0
  0
CLASS
  1
SORTENTSTABLE
  2
AcDbSortentsTable
  3
ObjectDBX Classes
 90
        0
 91
        2
280
     0
281
     0
  0
CLASS
  1
DICTIONARYVAR
  2
AcDbDictionaryVar
  3
ObjectDBX Classes
 90
        0
 91
       13
280
     0
281
     0
  0
CLASS
  1
EXACXREFPANELOBJECT
  2
ExAcXREFPanelObject
  3
EXAC_ESW
 90
     1025
 91
        0
280
     1
281
     0
  0
CLASS
  1
NPOCOLLECTION
  2
AcDbImpNonPersistentObjectsCollection
  3
ObjectDBX Classes
 90
     1153
 91
        0
280
     1
281
     0
  0
CLASS
  1
SCALE
  2
AcDbScale
  3
ObjectDBX Classes
 90
     1153
 91
       33
280
     0
281
     0
  0
CLASS
  1
MLEADERSTYLE
  2
AcDbMLeaderStyle
  3
ACDB_MLEADERSTYLE_CLASS
 90
     4095
 91
        1
280
     0
281
     0
  0
CLASS
  1
ACDBSECTIONVIEWSTYLE
  2
AcDbSectionViewStyle
  3
ObjectDBX Classes
 90
     1025
 91
        2
280
     0
281
     0
  0
CLASS
  1
ACDBDETAILVIEWSTYLE
  2
AcDbDetailViewStyle
  3
ObjectDBX Classes
 90
     1025
 91
        2
280
     0
281
     0
  0
CLASS
  1
CELLSTYLEMAP
  2
AcDbCellStyleMap
  3
ObjectDBX Classes
 90
     1152
 91
        2
280
     0
281
     0
  0
CLASS
  1
ACAD_EVALUATION_GRAPH
  2
AcDbEvalGraph
  3
ObjectDBX Classes
 90
     1153
 91
        0
280
     0
281
     0
  0
CLASS
  1
ACAECUSTOBJ
  2
AcAeEditorObj
  3
AcAeEditorObj
 90
     1024
 91
        0
280
     0
281
     0
  0
CLASS
  1
ACDB_DYNAMICBLOCKPURGEPREVENTER_VERSION
  2
AcDbDynamicBlockPurgePreventer
  3
ObjectDBX Classes
 90
     1153
 91
        0
280
     0
281
     0
  0
CLASS
  1
FIELD
  2
AcDbField
  3
ObjectDBX Classes
 90
     1152
 91
        0
280
     0
281
     0
  0
CLASS
  1
FIELDLIST
  2
AcDbFieldList
  3
ObjectDBX Classes
 90
     1152
 91
        1
280
     0
281
     0
  0
CLASS
  1
ACDB_ALDIMOBJECTCONTEXTDATA_CLASS
  2
AcDbAlignedDimensionObjectContextData
  3
ObjectDBX Classes
 90
     1153
 91
        0
280
     0
281
     0
  0
ENDSEC
  0
SECTION
  2
TABLES
  0
TABLE
  2
VPORT
  5
8
330
0
100
AcDbSymbolTable
 70
     1
  0
VPORT
  5
1F4
330
8
100
AcDbSymbolTableRecord
100
AcDbViewportTableRecord
  2
*ACTIVE
 70
     0
 10
0.0
 20
0.0
 11
1.0
 21
1.0
 12
-13.88763356009458
 22
-0.1903376163569419
 13
0.0
 23
0.0
 14
1.0
 24
1.0
 15
0.0
 25
0.0
 16
0.0
 26
0.0
 36
1.0
 17
0.0
 27
0.0
 37
0.0
 40
110.3368153140509
 41
2.698140200286123
 42
50.0
 43
0.0
 44
0.0
 50
0.0
 51
0.0
 71
     0
 72
  2000
 73
     1
 74
     1
 75
     0
 76
     0
 77
     0
 78
     0
281
     0
 65
     1
110
0.0
120
0.0
130
0.0
111
1.0
121
0.0
131
0.0
112
0.0
122
1.0
132
0.0
 79
     0
146
0.0
348
3195
 60
     3
 61
     5
292
     1
282
     1
141
0.0
142
0.0
 63
   250
421
  3355443
1001
ACAD_NAV_VCDISPLAY
1070
     3
  0
ENDTAB
  0
TABLE
  2
LTYPE
  5
5
330
0
100
AcDbSymbolTable
 70
     6
  0
LTYPE
  5
14
330
5
100
AcDbSymbolTableRecord
100
AcDbLinetypeTableRecord
  2
BYBLOCK
 70
     0
  3

 72
    65
 73
     0
 40
0.0
  0
LTYPE
  5
15
330
5
100
AcDbSymbolTableRecord
100
AcDbLinetypeTableRecord
  2
BYLAYER
 70
     0
  3

 72
    65
 73
     0
 40
0.0
  0
LTYPE
  5
16
330
5
100
AcDbSymbolTableRecord
100
AcDbLinetypeTableRecord
  2
CONTINUOUS
 70
     0
  3
Solid line
 72
    65
 73
     0
 40
0.0
  0
LTYPE
  5
9C48
330
5
100
AcDbSymbolTableRecord
100
AcDbLinetypeTableRecord
  2
CENTER
 70
     0
  3
____ _ ____ _ ____ _ ____ _ ____ _ ____ _ ____
 72
    65
 73
     4
 40
0.6
 49
0.375
 74
     0
 49
-0.075
 74
     0
 49
0.075
 74
     0
 49
-0.075
 74
     0
  0
LTYPE
  5
20A82
330
5
100
AcDbSymbolTableRecord
100
AcDbLinetypeTableRecord
  2
HIDDEN
 70
     0
  3
- - - - - - - - - - - - - - - - - - - -
 72
    65
 73
     2
 40
0.2
 49
0.1
 74
     0
 49
-0.1
 74
     0
  0
LTYPE
  5
21CB3
330
5
100
AcDbSymbolTableRecord
100
AcDbLinetypeTableRecord
  2
CENTER2
 70
     0
  3
Center (.5x) ___ _ ___ _ ___ _ ___ _ ___ _ ___
 72
    65
 73
     4
 40
28.57499999999999
 49
19.05
 74
     4
 75
     0
340
0
 46
1.0
 50
0.0
 44
0.0
 45
0.0
 49
-3.174999999999998
 74
     4
 75
     0
340
0
 46
1.0
 50
0.0
 44
0.0
 45
0.0
 49
3.174999999999998
 74
     4
 75
     0
340
0
 46
1.0
 50
0.0
 44
0.0
 45
0.0
 49
-3.174999999999998
 74
     4
 75
     0
340
0
 46
1.0
 50
0.0
 44
0.0
 45
0.0
  0
ENDTAB
  0
TABLE
  2
LAYER
  5
2
102
{ACAD_XDICTIONARY
360
422A
102
}
330
0
100
AcDbSymbolTable
 70
    16
  0
LAYER
  5
10
102
{ACAD_XDICTIONARY
360
1B2F5
102
}
330
2
100
AcDbSymbolTableRecord
100
AcDbLayerTableRecord
  2
0
 70
     0
 62
     7
  6
CONTINUOUS
370
    -3
390
318A
347
318E
  0
LAYER
  5
3F8C
102
{ACAD_XDICTIONARY
360
1B2F7
102
}
330
2
100
AcDbSymbolTableRecord
100
AcDbLayerTableRecord
  2
1
 70
     0
 62
     4
  6
BYBLOCK
370
    50
390
318A
347
318E
  0
LAYER
  5
3FA7
330
2
100
AcDbSymbolTableRecord
100
AcDbLayerTableRecord
  2
Defpoints
 70
     0
 62
     7
  6
CONTINUOUS
290
     0
370
    -3
390
318A
347
318E
  0
LAYER
  5
9C4A
102
{ACAD_XDICTIONARY
360
1B2F9
102
}
330
2
100
AcDbSymbolTableRecord
100
AcDbLayerTableRecord
  2
2
 70
     0
 62
     7
  6
BYBLOCK
370
    25
390
318A
347
318E
  0
LAYER
  5
9C4B
102
{ACAD_XDICTIONARY
360
1B2FB
102
}
330
2
100
AcDbSymbolTableRecord
100
AcDbLayerTableRecord
  2
4
 70
     0
 62
     2
  6
CENTER
370
    25
390
318A
347
318E
  0
LAYER
  5
9C4D
102
{ACAD_XDICTIONARY
360
1B2FD
102
}
330
2
100
AcDbSymbolTableRecord
100
AcDbLayerTableRecord
  2
CUT
 70
     0
 62
     1
  6
BYBLOCK
370
    25
390
318A
347
318E
  0
LAYER
  5
9C4E
102
{ACAD_XDICTIONARY
360
1B2FF
102
}
330
2
100
AcDbSymbolTableRecord
100
AcDbLayerTableRecord
  2
NOCUT
 70
     0
 62
     7
  6
BYBLOCK
370
    25
390
318A
347
318E
  0
LAYER
  5
9C4F
102
{ACAD_XDICTIONARY
360
1B301
102
}
330
2
100
AcDbSymbolTableRecord
100
AcDbLayerTableRecord
  2
SK2
 70
     0
 62
     7
  6
BYBLOCK
370
    25
390
318A
347
318E
  0
LAYER
  5
9C50
102
{ACAD_XDICTIONARY
360
1B303
102
}
330
2
100
AcDbSymbolTableRecord
100
AcDbLayerTableRecord
  2
SK1
 70
     0
 62
     4
  6
BYBLOCK
370
    50
390
318A
347
318E
  0
LAYER
  5
9C51
102
{ACAD_XDICTIONARY
360
1B305
102
}
330
2
100
AcDbSymbolTableRecord
100
AcDbLayerTableRecord
  2
SK4
 70
     0
 62
     2
  6
CENTER
370
    25
390
318A
347
318E
  0
LAYER
  5
13335
102
{ACAD_XDICTIONARY
360
1B307
102
}
330
2
100
AcDbSymbolTableRecord
100
AcDbLayerTableRecord
  2
INFTOTAL
 70
     0
 62
     9
  6
BYBLOCK
370
    18
390
318A
347
318E
1001
AcAecLayerStandard
1000

1000

  0
LAYER
  5
1686E
102
{ACAD_XDICTIONARY
360
1B309
102
}
330
2
100
AcDbSymbolTableRecord
100
AcDbLayerTableRecord
  2
SK6
 70
     0
 62
     5
  6
BYBLOCK
370
    -3
390
318A
347
318E
  0
LAYER
  5
21CB4
330
2
100
AcDbSymbolTableRecord
100
AcDbLayerTableRecord
  2
SK3
 70
     0
 62
     1
  6
HIDDEN
370
    35
390
318A
347
318E
  0
LAYER
  5
21CB5
330
2
100
AcDbSymbolTableRecord
100
AcDbLayerTableRecord
  2
SKVIEW1
 70
     0
 62
     4
  6
CONTINUOUS
370
    50
390
318A
347
318E
1001
AcAecLayerStandard
1000

1000

  0
LAYER
  5
21CB6
330
2
100
AcDbSymbolTableRecord
100
AcDbLayerTableRecord
  2
SKVIEW4
 70
     0
 62
     2
  6
CENTER2
370
    25
390
318A
347
318E
1001
AcAecLayerStandard
1000

1000

  0
ENDTAB
  0
TABLE
  2
STYLE
  5
3
330
0
100
AcDbSymbolTable
 70
     2
  0
STYLE
  5
11
330
3
100
AcDbSymbolTableRecord
100
AcDbTextStyleTableRecord
  2
STANDARD
 70
     0
 40
3.5
 41
0.8
 50
0.0
 71
     0
 42
3.5
  3
monos.ttf
  4

1001
ACAD
1000
Monospac821 BT
1071
       49
  0
ENDTAB
  0
TABLE
  2
VIEW
  5
6
330
0
100
AcDbSymbolTable
 70
     0
  0
ENDTAB
  0
TABLE
  2
UCS
  5
7
330
0
100
AcDbSymbolTable
 70
     0
  0
ENDTAB
  0
TABLE
  2
APPID
  5
9
330
0
100
AcDbSymbolTable
 70
    19
  0
APPID
  5
23B
330
9
100
AcDbSymbolTableRecord
100
AcDbRegAppTableRecord
  2
ACAD
 70
     0
  0
APPID
  5
3395
330
9
100
AcDbSymbolTableRecord
100
AcDbRegAppTableRecord
  2
ACAD_EXEMPT_FROM_CAD_STANDARDS
 70
     0
  0
APPID
  5
4229
330
9
100
AcDbSymbolTableRecord
100
AcDbRegAppTableRecord
  2
AcAecLayerStandard
 70
     0
  0
APPID
  5
9A1B
330
9
100
AcDbSymbolTableRecord
100
AcDbRegAppTableRecord
  2
ACAD_PSEXT
 70
     0
  0
APPID
  5
1B313
330
9
100
AcDbSymbolTableRecord
100
AcDbRegAppTableRecord
  2
ACAD_NAV_VCDISPLAY
 70
     0
  0
APPID
  5
1B355
330
9
100
AcDbSymbolTableRecord
100
AcDbRegAppTableRecord
  2
ACAD_MLEADERVER
 70
     0
  0
APPID
  5
1EC7F
330
9
100
AcDbSymbolTableRecord
100
AcDbRegAppTableRecord
  2
ACAUTHENVIRON
 70
     0
  0
APPID
  5
1EC82
330
9
100
AcDbSymbolTableRecord
100
AcDbRegAppTableRecord
  2
AcDbDynamicBlockTrueName
 70
     0
  0
APPID
  5
1EC83
330
9
100
AcDbSymbolTableRecord
100
AcDbRegAppTableRecord
  2
AcDbDynamicBlockGUID
 70
     0
  0
APPID
  5
20A85
330
9
100
AcDbSymbolTableRecord
100
AcDbRegAppTableRecord
  2
AcCmTransparency
 70
     0
  0
APPID
  5
20AE2
330
9
100
AcDbSymbolTableRecord
100
AcDbRegAppTableRecord
  2
ACAD_DSTYLE_DIMRADIAL_EXTENSION
 70
     0
  0
APPID
  5
20CB0
330
9
100
AcDbSymbolTableRecord
100
AcDbRegAppTableRecord
  2
AcadAnnotative
 70
     0
  0
APPID
  5
21667
330
9
100
AcDbSymbolTableRecord
100
AcDbRegAppTableRecord
  2
AcadAnnoMonitorAlertIconDisabled
 70
     0
  0
APPID
  5
21CB9
330
9
100
AcDbSymbolTableRecord
100
AcDbRegAppTableRecord
  2
ACAD_DSTYLE_DIMJAG
 70
     0
  0
APPID
  5
21CBA
330
9
100
AcDbSymbolTableRecord
100
AcDbRegAppTableRecord
  2
ACAD_DSTYLE_DIMTALN
 70
     0
  0
APPID
  5
21CBB
330
9
100
AcDbSymbolTableRecord
100
AcDbRegAppTableRecord
  2
ACAD_DSTYLE_DIM_LINETYPE
 70
     0
  0
APPID
  5
21CBC
330
9
100
AcDbSymbolTableRecord
100
AcDbRegAppTableRecord
  2
ACAD_DSTYLE_DIM_EXT1_LINETYPE
 70
     0
  0
APPID
  5
21CBD
330
9
100
AcDbSymbolTableRecord
100
AcDbRegAppTableRecord
  2
ACAD_DSTYLE_DIM_EXT2_LINETYPE
 70
     0
  0
APPID
  5
21CBE
330
9
100
AcDbSymbolTableRecord
100
AcDbRegAppTableRecord
  2
ACAD_DSTYLE_DIMARC_LENGTH_SYMBOL
 70
     0
  0
ENDTAB
  0
TABLE
  2
DIMSTYLE
  5
A
330
0
100
AcDbSymbolTable
 70
     3
100
AcDbDimStyleTable
 71
     1
340
243
  0
DIMSTYLE
105
243
102
{ACAD_REACTORS
330
21DEB
330
21DEA
330
21DEC
330
21DE9
330
21EFC
102
}
330
A
100
AcDbSymbolTableRecord
100
AcDbDimStyleTableRecord
  2
STANDARD
 70
     0
 41
4.57
 47
0.01
 48
0.01
 73
     0
 74
     0
 77
     1
 78
     8
140
3.5
271
     3
272
     3
284
     8
289
     0
340
11
  0
ENDTAB
  0
TABLE
  2
BLOCK_RECORD
  5
1
330
0
100
AcDbSymbolTable
 70
    18
  0
BLOCK_RECORD
  5
1F
102
{ACAD_XDICTIONARY
360
339C
102
}
330
1
100
AcDbSymbolTableRecord
100
AcDbBlockTableRecord
  2
*MODEL_SPACE
340
31A6
 70
     0
280
     1
281
     0
  0
BLOCK_RECORD
  5
1B
330
1
100
AcDbSymbolTableRecord
100
AcDbBlockTableRecord
  2
*PAPER_SPACE
340
31A7
 70
     0
280
     1
281
     0
  0
BLOCK_RECORD
  5
1B3D7
102
{ACAD_XDICTIONARY
360
1DE81
102
}
330
1
100
AcDbSymbolTableRecord
100
AcDbBlockTableRecord
  2
cero_point
340
0
310
28000000200000002000000001002000000000000010000001000000010000000000000000000000302821FF302821FF302821FF302821FF302821FF302821FF302821FF302821FF302821FF302821FF302821FF302821FF302821FF302821FF302821FF302821FF302821FF302821FF302821FF302821FF302821FF302821
310
FF302821FF302821FF302821FF302821FF302821FF302821FF302821FF302821FF302821FF302821FF302821FF302821FF302821FF302821FF302821FF302821FF302821FF302821FF302821FF302821FF302821FF302821FF302821FF302821FF302821FFFFFF00FFFFFF00FFFFFF00FF302821FF302821FF302821FF3028
310
21FF302821FF302821FF302821FF302821FF302821FF302821FF302821FF302821FF302821FF302821FF302821FF302821FF302821FF302821FF302821FF302821FF302821FF302821FF302821FF302821FFFFFF00FFFFFF00FFFFFF00FFFFFF00FFFFFF00FFFFFF00FFFFFF00FF302821FFFFFF00FFFFFF00FFFFFF00FF30
310
2821FF302821FF302821FF302821FF302821FF302821FF302821FF302821FF302821FF302821FF302821FF302821FF302821FF302821FF302821FF302821FF302821FF302821FF302821FFFFFF00FFFFFF00FFFFFF00FFFFFF00FFFFFF00FFFFFF00FFFFFF00FFFFFF00FFFFFF00FF302821FF302821FF302821FF302821FF
310
FFFF00FFFFFF00FF302821FF302821FF302821FF302821FF302821FF302821FF302821FF302821FF302821FF302821FF302821FF302821FF302821FF302821FF302821FF302821FFFFFF00FFFFFF00FFFFFF00FFFFFF00FFFFFF00FFFFFF00FFFFFF00FFFFFF00FFFFFF00FFFFFF00FF302821FF302821FF302821FF302821
310
FF302821FF302821FFFFFF00FFFFFF00FF302821FF302821FF302821FF302821FF302821FF302821FF302821FF302821FF302821FF302821FF302821FF302821FF302821FFFFFF00FFFFFF00FFFFFF00FFFFFF00FFFFFF00FFFFFF00FFFFFF00FFFFFF00FFFFFF00FFFFFF00FFFFFF00FF302821FF302821FF302821FF3028
310
21FF302821FF302821FF302821FF302821FFFFFF00FF302821FF302821FF302821FF302821FF302821FF302821FF302821FF302821FF302821FF302821FF302821FFFFFF00FFFFFF00FFFFFF00FFFFFF00FFFFFF00FFFFFF00FFFFFF00FFFFFF00FFFFFF00FFFFFF00FFFFFF00FFFFFF00FF302821FF302821FF302821FF30
310
2821FF302821FF302821FF302821FF302821FF302821FFFFFF00FF302821FF302821FF302821FF302821FF302821FF302821FF302821FF302821FF302821FFFFFF00FFFFFF00FFFFFF00FFFFFF00FFFFFF00FFFFFF00FFFFFF00FFFFFF00FFFFFF00FFFFFF00FFFFFF00FFFFFF00FFFFFF00FF302821FF302821FF302821FF
310
302821FF302821FF302821FF302821FF302821FF302821FF302821FFFFFF00FF302821FF302821FF302821FF302821FF302821FF302821FF302821FFFFFF00FFFFFF00FFFFFF00FFFFFF00FFFFFF00FFFFFF00FFFFFF00FFFFFF00FFFFFF00FFFFFF00FFFFFF00FFFFFF00FFFFFF00FFFFFF00FF302821FF302821FF302821
310
FF302821FF302821FF302821FF302821FF302821FF302821FF302821FFFFFF00FF302821FF302821FF302821FF302821FF302821FF302821FF302821FFFFFF00FFFFFF00FFFFFF00FFFFFF00FFFFFF00FFFFFF00FFFFFF00FFFFFF00FFFFFF00FFFFFF00FFFFFF00FFFFFF00FFFFFF00FFFFFF00FF302821FF302821FF3028
310
21FF302821FF302821FF302821FF302821FF302821FF302821FF302821FF302821FFFFFF00FF302821FF302821FF302821FF302821FF302821FFFFFF00FFFFFF00FFFFFF00FFFFFF00FFFFFF00FFFFFF00FFFFFF00FFFFFF00FFFFFF00FFFFFF00FFFFFF00FFFFFF00FFFFFF00FFFFFF00FFFFFF00FF302821FF302821FF30
310
2821FF302821FF302821FF302821FF302821FF302821FF302821FF302821FF302821FF302821FFFFFF00FF302821FF302821FF302821FF302821FFFFFF00FFFFFF00FFFFFF00FFFFFF00FFFFFF00FFFFFF00FFFFFF00FFFFFF00FFFFFF00FFFFFF00FFFFFF00FFFFFF00FFFFFF00FFFFFF00FFFFFF00FF302821FF302821FF
310
302821FF302821FF302821FF302821FF302821FF302821FF302821FF302821FF302821FF302821FFFFFF00FF302821FF302821FF302821FF302821FFFFFF00FFFFFF00FFFFFF00FFFFFF00FFFFFF00FFFFFF00FFFFFF00FFFFFF00FFFFFF00FFFFFF00FFFFFF00FFFFFF00FFFFFF00FFFFFF00FFFFFF00FF302821FF302821
310
FF302821FF302821FF302821FF302821FF302821FF302821FF302821FF302821FF302821FF302821FFFFFF00FF302821FF302821FF302821FF302821FFFFFF00FFFFFF00FFFFFF00FFFFFF00FFFFFF00FFFFFF00FFFFFF00FFFFFF00FFFFFF00FFFFFF00FFFFFF00FFFFFF00FFFFFF00FFFFFF00FFFFFF00FF302821FF3028
310
21FF302821FF302821FF302821FF302821FF302821FF302821FF302821FF302821FF302821FF302821FFFFFF00FF302821FF302821FF302821FFFFFF00FFFFFF00FFFFFF00FFFFFF00FFFFFF00FFFFFF00FFFFFF00FFFFFF00FFFFFF00FFFFFF00FFFFFF00FFFFFF00FFFFFF00FFFFFF00FFFFFF00FFFFFF00FF302821FF30
310
2821FF302821FF302821FF302821FF302821FF302821FF302821FF302821FF302821FF302821FF302821FF302821FFFFFF00FF302821FF302821FFFFFF00FFFFFF00FFFFFF00FFFFFF00FFFFFF00FFFFFF00FFFFFF00FFFFFF00FFFFFF00FFFFFF00FFFFFF00FFFFFF00FFFFFF00FFFFFF00FFFFFF00FFFFFF00FFFFFF00FF
310
FFFF00FFFFFF00FFFFFF00FFFFFF00FFFFFF00FFFFFF00FFFFFF00FFFFFF00FFFFFF00FFFFFF00FFFFFF00FFFFFF00FFFFFF00FF302821FF302821FFFFFF00FF302821FF302821FF302821FF302821FF302821FF302821FF302821FF302821FF302821FF302821FF302821FF302821FF302821FF302821FFFFFF00FFFFFF00
310
FFFFFF00FFFFFF00FFFFFF00FFFFFF00FFFFFF00FFFFFF00FFFFFF00FFFFFF00FFFFFF00FFFFFF00FFFFFF00FFFFFF00FFFFFF00FF302821FF302821FFFFFF00FF302821FF302821FF302821FF302821FF302821FF302821FF302821FF302821FF302821FF302821FF302821FF302821FF302821FF302821FFFFFF00FFFFFF
310
00FFFFFF00FFFFFF00FFFFFF00FFFFFF00FFFFFF00FFFFFF00FFFFFF00FFFFFF00FFFFFF00FFFFFF00FFFFFF00FFFFFF00FF302821FF302821FF302821FF302821FFFFFF00FF302821FF302821FF302821FF302821FF302821FF302821FF302821FF302821FF302821FF302821FF302821FF302821FF302821FFFFFF00FFFF
310
FF00FFFFFF00FFFFFF00FFFFFF00FFFFFF00FFFFFF00FFFFFF00FFFFFF00FFFFFF00FFFFFF00FFFFFF00FFFFFF00FFFFFF00FF302821FF302821FF302821FF302821FFFFFF00FF302821FF302821FF302821FF302821FF302821FF302821FF302821FF302821FF302821FF302821FF302821FF302821FF302821FFFFFF00FF
310
FFFF00FFFFFF00FFFFFF00FFFFFF00FFFFFF00FFFFFF00FFFFFF00FFFFFF00FFFFFF00FFFFFF00FFFFFF00FFFFFF00FFFFFF00FF302821FF302821FF302821FF302821FFFFFF00FF302821FF302821FF302821FF302821FF302821FF302821FF302821FF302821FF302821FF302821FF302821FF302821FF302821FFFFFF00
310
FFFFFF00FFFFFF00FFFFFF00FFFFFF00FFFFFF00FFFFFF00FFFFFF00FFFFFF00FFFFFF00FFFFFF00FFFFFF00FFFFFF00FFFFFF00FF302821FF302821FF302821FF302821FF302821FFFFFF00FF302821FF302821FF302821FF302821FF302821FF302821FF302821FF302821FF302821FF302821FF302821FF302821FFFFFF
310
00FFFFFF00FFFFFF00FFFFFF00FFFFFF00FFFFFF00FFFFFF00FFFFFF00FFFFFF00FFFFFF00FFFFFF00FFFFFF00FFFFFF00FFFFFF00FF302821FF302821FF302821FF302821FF302821FFFFFF00FF302821FF302821FF302821FF302821FF302821FF302821FF302821FF302821FF302821FF302821FF302821FF302821FFFF
310
FF00FFFFFF00FFFFFF00FFFFFF00FFFFFF00FFFFFF00FFFFFF00FFFFFF00FFFFFF00FFFFFF00FFFFFF00FFFFFF00FFFFFF00FF302821FF302821FF302821FF302821FF302821FF302821FF302821FFFFFF00FF302821FF302821FF302821FF302821FF302821FF302821FF302821FF302821FF302821FF302821FF302821FF
310
FFFF00FFFFFF00FFFFFF00FFFFFF00FFFFFF00FFFFFF00FFFFFF00FFFFFF00FFFFFF00FFFFFF00FFFFFF00FFFFFF00FFFFFF00FF302821FF302821FF302821FF302821FF302821FF302821FF302821FFFFFF00FF302821FF302821FF302821FF302821FF302821FF302821FF302821FF302821FF302821FF302821FF302821
310
FFFFFF00FFFFFF00FFFFFF00FFFFFF00FFFFFF00FFFFFF00FFFFFF00FFFFFF00FFFFFF00FFFFFF00FFFFFF00FFFFFF00FF302821FF302821FF302821FF302821FF302821FF302821FF302821FF302821FF302821FFFFFF00FF302821FF302821FF302821FF302821FF302821FF302821FF302821FF302821FF302821FF3028
310
21FFFFFF00FFFFFF00FFFFFF00FFFFFF00FFFFFF00FFFFFF00FFFFFF00FFFFFF00FFFFFF00FFFFFF00FFFFFF00FF302821FF302821FF302821FF302821FF302821FF302821FF302821FF302821FF302821FF302821FF302821FFFFFF00FF302821FF302821FF302821FF302821FF302821FF302821FF302821FF302821FF30
310
2821FFFFFF00FFFFFF00FFFFFF00FFFFFF00FFFFFF00FFFFFF00FFFFFF00FFFFFF00FFFFFF00FFFFFF00FF302821FF302821FF302821FF302821FF302821FF302821FF302821FF302821FF302821FF302821FF302821FF302821FF302821FFFFFF00FF302821FF302821FF302821FF302821FF302821FF302821FF302821FF
310
302821FFFFFF00FFFFFF00FFFFFF00FFFFFF00FFFFFF00FFFFFF00FFFFFF00FFFFFF00FFFFFF00FF302821FF302821FF302821FF302821FF302821FF302821FF302821FF302821FF302821FF302821FF302821FF302821FF302821FF302821FF302821FFFFFF00FFFFFF00FF302821FF302821FF302821FF302821FF302821
310
FF302821FFFFFF00FFFFFF00FFFFFF00FFFFFF00FFFFFF00FFFFFF00FFFFFF00FFFFFF00FF302821FF302821FF302821FF302821FF302821FF302821FF302821FF302821FF302821FF302821FF302821FF302821FF302821FF302821FF302821FF302821FF302821FF302821FFFFFF00FFFFFF00FFFFFF00FFFFFF00FFFFFF
310
00FF302821FFFFFF00FFFFFF00FFFFFF00FFFFFF00FFFFFF00FFFFFF00FF302821FF302821FF302821FF302821FF302821FF302821FF302821FF302821FF302821FF302821FF302821FF302821FF302821FF302821FF302821FF302821FF302821FF302821FF302821FF302821FF302821FF302821FF302821FF302821FF30
310
2821FFFFFF00FFFFFF00FFFFFF00FF302821FF302821FF302821FF302821FF302821FF302821FF302821FF302821FF302821FF302821FF302821FF302821FF302821FF302821FF302821FF302821FF302821FF302821FF302821FF302821FF302821FF302821FF302821FF302821FF302821FF302821FF302821FF302821FF
310
302821FF302821FF302821FF302821FF302821FF302821FF302821FF302821FF302821FF302821FF302821FF302821FF302821FF302821FF302821FF302821FF302821FF302821FF
102
{BLKREFS
331
21DE1
102
}
 70
     0
280
     1
281
     1
  0
BLOCK_RECORD
  5
21EFD
330
1
100
AcDbSymbolTableRecord
100
AcDbBlockTableRecord
  2
*D12
340
0
 70
     0
280
     1
281
     0
  0
BLOCK_RECORD
  5
21F07
330
1
100
AcDbSymbolTableRecord
100
AcDbBlockTableRecord
  2
*D13
340
0
 70
     0
280
     1
281
     0
  0
BLOCK_RECORD
  5
21F13
330
1
100
AcDbSymbolTableRecord
100
AcDbBlockTableRecord
  2
*D14
340
0
 70
     0
280
     1
281
     0
  0
BLOCK_RECORD
  5
21F1F
330
1
100
AcDbSymbolTableRecord
100
AcDbBlockTableRecord
  2
*D15
340
0
 70
     0
280
     1
281
     0
  0
BLOCK_RECORD
  5
21F2D
330
1
100
AcDbSymbolTableRecord
100
AcDbBlockTableRecord
  2
*D16
340
0
 70
     0
280
     1
281
     0
  0
ENDTAB
  0
ENDSEC
  0
SECTION
  2
BLOCKS
  0
BLOCK
  5
20
330
1F
100
AcDbEntity
  8
0
100
AcDbBlockBegin
  2
*MODEL_SPACE
 70
     0
 10
0.0
 20
0.0
 30
0.0
  3
*MODEL_SPACE
  1

  0
ENDBLK
  5
21
330
1F
100
AcDbEntity
  8
0
100
AcDbBlockEnd
  0
BLOCK
  5
1C
330
1B
100
AcDbEntity
 67
     1
  8
0
100
AcDbBlockBegin
  2
*PAPER_SPACE
 70
     0
 10
0.0
 20
0.0
 30
0.0
  3
*PAPER_SPACE
  1

  0
ENDBLK
  5
1D
330
1B
100
AcDbEntity
 67
     1
  8
0
100
AcDbBlockEnd
  0
BLOCK
  5
1B3D8
330
1B3D7
100
AcDbEntity
  8
0
100
AcDbBlockBegin
  2
cero_point
 70
     0
 10
0.0
 20
0.0
 30
0.0
  3
cero_point
  1

  0
HATCH
  5
1B3DA
330
1B3D7
100
AcDbEntity
  8
1
  6
ByBlock
370
    50
100
AcDbHatch
 10
0.0
 20
0.0
 30
0.0
210
0.0
220
0.0
230
1.0
  2
SOLID
 70
     1
 71
     0
 91
        2
 92
        7
 72
     1
 73
     1
 93
        3
 10
-0.0000000000001137
 20
0.0
 42
0.0
 10
-2.950972054112752
 20
0.0
 42
0.4142135623730968
 10
-0.0000000000001137
 20
-2.950972054112583
 42
0.0
 97
        0
 92
        7
 72
     1
 73
     1
 93
        3
 10
-0.0000000000001137
 20
2.950972054112638
 42
0.0
 10
-0.0000000000001137
 20
0.0
 42
0.0
 10
2.950972054112526
 20
0.0
 42
0.4142135623730966
 97
        0
 75
     0
 76
     1
 47
0.1190009775223266
 98
        2
 10
-0.7445530588121301
 20
-0.9212244733764125
 10
1.279464601852737
 20
1.696796923046345
450
        0
451
        0
460
0.0
461
0.0
452
        0
462
0.0
453
        0
470

  0
LWPOLYLINE
  5
1B3DB
330
1B3D7
100
AcDbEntity
  8
1
  6
ByBlock
370
    50
100
AcDbPolyline
 90
        3
 70
     1
 43
0.0
 10
-0.0000000000001137
 20
0.0
 10
2.950972054112526
 20
0.0
 42
0.4142135623730966
 10
-0.0000000000001137
 20
2.950972054112638
  0
LINE
  5
1B3DC
330
1B3D7
100
AcDbEntity
  8
1
  6
ByBlock
370
    50
100
AcDbLine
 10
-0.0000000000001137
 20
-2.950972054112583
 30
0.0
 11
-0.0000000000001137
 21
2.950972054112638
 31
0.0
  0
LWPOLYLINE
  5
1B3DD
330
1B3D7
100
AcDbEntity
  8
1
  6
ByBlock
370
    50
100
AcDbPolyline
 90
        3
 70
     1
 43
0.0
 10
-0.0000000000001137
 20
-2.950972054112583
 10
-0.0000000000001137
 20
0.0
 10
-2.950972054112752
 20
0.0
 42
0.4142135623730966
  0
LINE
  5
1B3DE
330
1B3D7
100
AcDbEntity
  8
1
  6
ByBlock
370
    50
100
AcDbLine
 10
2.950972054112638
 20
0.0
 30
0.0
 11
-2.950972054112638
 21
0.0
 31
0.0
  0
CIRCLE
  5
1B3DF
330
1B3D7
100
AcDbEntity
  8
1
  6
ByBlock
370
    50
100
AcDbCircle
 10
-0.0000000000001137
 20
0.0
 30
0.0
 40
2.950972054112601
  0
ENDBLK
  5
1B3D9
330
1B3D7
100
AcDbEntity
  8
0
100
AcDbBlockEnd
  0
BLOCK
  5
21EFE
330
21EFD
100
AcDbEntity
  8
0
100
AcDbBlockBegin
  2
*D12
 70
     1
 10
0.0
 20
0.0
 30
0.0
  3
*D12
  1

  0
LINE
  5
220C5
330
21EFD
100
AcDbEntity
  8
SK2
 62
     0
440
 16777216
370
    -2
100
AcDbLine
 10
-12.26249999999999
 20
6.0
 30
0.0
 11
-25.47120145057431
 21
6.000000000000003
 31
0.0
  0
LINE
  5
220C6
330
21EFD
100
AcDbEntity
  8
SK2
 62
     0
440
 16777216
370
    -2
100
AcDbLine
 10
-12.26249999999999
 20
-6.0
 30
0.0
 11
-25.47120145057431
 21
-5.999999999999996
 31
0.0
  0
LINE
  5
220C7
330
21EFD
100
AcDbEntity
  8
SK2
 62
     0
440
 16777216
370
    -2
100
AcDbLine
 10
-25.29120145057431
 20
1.430000000000003
 30
0.0
 11
-25.29120145057431
 21
-1.429999999999995
 31
0.0
  0
SOLID
  5
220C8
330
21EFD
100
AcDbEntity
  8
SK2
 62
     0
440
 16777216
100
AcDbTrace
 10
-26.05286811724097
 20
1.430000000000003
 30
0.0
 11
-24.52953478390764
 21
1.430000000000003
 31
0.0
 12
-25.29120145057431
 22
6.000000000000003
 32
0.0
 13
-25.29120145057431
 23
6.000000000000003
 33
0.0
  0
SOLID
  5
220C9
330
21EFD
100
AcDbEntity
  8
SK2
 62
     0
440
 16777216
100
AcDbTrace
 10
-26.05286811724097
 20
-1.429999999999995
 30
0.0
 11
-24.52953478390764
 21
-1.429999999999995
 31
0.0
 12
-25.29120145057431
 22
-5.999999999999996
 32
0.0
 13
-25.29120145057431
 23
-5.999999999999996
 33
0.0
  0
MTEXT
  5
220CA
330
21EFD
100
AcDbEntity
  8
SK2
 62
     0
440
 16777216
100
AcDbMText
 10
-27.24434270145273
 20
-0.2515372452565712
 30
0.0
 40
3.5
 41
0.0
 46
0.0
 71
     5
 72
     1
  1
\A1;%%C12
 11
0.0000000000000001
 21
1.0
 31
0.0
 73
     1
 44
1.0
  0
POINT
  5
220CB
330
21EFD
100
AcDbEntity
  8
Defpoints
 62
     0
440
 16777216
100
AcDbPoint
 10
-12.19999999999999
 20
6.0
 30
0.0
  0
POINT
  5
220CC
330
21EFD
100
AcDbEntity
  8
Defpoints
 62
     0
440
 16777216
100
AcDbPoint
 10
-12.19999999999999
 20
-6.0
 30
0.0
  0
POINT
  5
220CD
330
21EFD
100
AcDbEntity
  8
Defpoints
 62
     0
440
 16777216
100
AcDbPoint
 10
-25.29120145057431
 20
-5.999999999999996
 30
0.0
  0
ENDBLK
  5
21EFF
330
21EFD
100
AcDbEntity
  8
0
100
AcDbBlockEnd
  0
BLOCK
  5
21F08
330
21F07
100
AcDbEntity
  8
0
100
AcDbBlockBegin
  2
*D13
 70
     1
 10
0.0
 20
0.0
 30
0.0
  3
*D13
  1

  0
LINE
  5
2209F
330
21F07
100
AcDbEntity
  8
2
 62
     0
440
 16777216
370
    -2
100
AcDbLine
 10
25.07249999999999
 20
-8.949999999999903
 30
0.0
 11
41.96441243767872
 21
-8.949999999999908
 31
0.0
  0
LINE
  5
220A0
330
21F07
100
AcDbEntity
  8
2
 62
     0
440
 16777216
370
    -2
100
AcDbLine
 10
25.07249999999999
 20
8.950000000000102
 30
0.0
 11
41.96441243767872
 21
8.950000000000096
 31
0.0
  0
LINE
  5
220A1
330
21F07
100
AcDbEntity
  8
2
 62
     0
440
 16777216
370
    -2
100
AcDbLine
 10
41.78441243767872
 20
-4.379999999999908
 30
0.0
 11
41.78441243767872
 21
4.380000000000096
 31
0.0
  0
SOLID
  5
220A2
330
21F07
100
AcDbEntity
  8
2
 62
     0
440
 16777216
100
AcDbTrace
 10
41.02274577101205
 20
-4.379999999999908
 30
0.0
 11
42.54607910434539
 21
-4.379999999999909
 31
0.0
 12
41.78441243767872
 22
-8.949999999999908
 32
0.0
 13
41.78441243767872
 23
-8.949999999999908
 33
0.0
  0
SOLID
  5
220A3
330
21F07
100
AcDbEntity
  8
2
 62
     0
440
 16777216
100
AcDbTrace
 10
41.02274577101205
 20
4.380000000000096
 30
0.0
 11
42.54607910434539
 21
4.380000000000095
 31
0.0
 12
41.78441243767872
 22
8.950000000000096
 32
0.0
 13
41.78441243767872
 23
8.950000000000096
 33
0.0
  0
MTEXT
  5
220A4
330
21F07
100
AcDbEntity
  8
2
 62
     0
440
 16777216
100
AcDbMText
 10
39.88292262741871
 20
0.0000000000000002
 30
0.0
 40
3.5
 41
0.0
 46
0.0
 71
     5
 72
     1
  1
\A1;17.9
 11
0.0000000000000001
 21
1.0
 31
0.0
 73
     1
 44
1.0
  0
POINT
  5
220A5
330
21F07
100
AcDbEntity
  8
Defpoints
 62
     0
440
 16777216
100
AcDbPoint
 10
25.00999999999999
 20
-8.949999999999903
 30
0.0
  0
POINT
  5
220A6
330
21F07
100
AcDbEntity
  8
Defpoints
 62
     0
440
 16777216
100
AcDbPoint
 10
25.00999999999999
 20
8.950000000000102
 30
0.0
  0
POINT
  5
220A7
330
21F07
100
AcDbEntity
  8
Defpoints
 62
     0
440
 16777216
100
AcDbPoint
 10
41.78441243767872
 20
8.950000000000096
 30
0.0
  0
ENDBLK
  5
21F09
330
21F07
100
AcDbEntity
  8
0
100
AcDbBlockEnd
  0
BLOCK
  5
21F14
330
21F13
100
AcDbEntity
  8
0
100
AcDbBlockBegin
  2
*D14
 70
     1
 10
0.0
 20
0.0
 30
0.0
  3
*D14
  1

  0
LINE
  5
220A8
330
21F13
100
AcDbEntity
  8
2
 62
     0
440
 16777216
370
    -2
100
AcDbLine
 10
28.51000104065256
 20
0.0624999999913364
 30
0.0
 11
28.51060301477171
 21
36.21614413850679
 31
0.0
  0
LINE
  5
220A9
330
21F13
100
AcDbEntity
  8
2
 62
     0
440
 16777216
370
    -2
100
AcDbLine
 10
0.0000010406525632
 20
15.21356599999144
 30
0.0
 11
0.0003507507450886
 21
36.21661884678039
 31
0.0
  0
LINE
  5
220AA
330
21F13
100
AcDbEntity
  8
2
 62
     0
440
 16777216
370
    -2
100
AcDbLine
 10
23.94060001832581
 20
36.03622023104717
 30
0.0
 11
4.57034775303222
 21
36.03654275428992
 31
0.0
  0
SOLID
  5
220AB
330
21F13
100
AcDbEntity
  8
2
 62
     0
440
 16777216
100
AcDbTrace
 10
23.94061270041171
 20
36.79788689760825
 30
0.0
 11
23.94058733623991
 21
35.27455356448609
 31
0.0
 12
28.51060001769232
 22
36.03614413853175
 32
0.0
 13
28.51060001769232
 23
36.03614413853175
 33
0.0
  0
SOLID
  5
220AC
330
21F13
100
AcDbEntity
  8
2
 62
     0
440
 16777216
100
AcDbTrace
 10
4.570360435118123
 20
36.798209420851
 30
0.0
 11
4.570335070946317
 21
35.27487608772883
 31
0.0
 12
0.0003477536657066
 22
36.03661884680534
 32
0.0
 13
0.0003477536657066
 23
36.03661884680534
 33
0.0
  0
MTEXT
  5
220AD
330
21F13
100
AcDbEntity
  8
2
 62
     0
440
 16777216
100
AcDbMText
 10
14.25510875749786
 20
37.93787130927169
 30
0.0
 40
3.5
 41
0.0
 46
0.0
 71
     5
 72
     1
  1
\A1;28.51
 11
0.9999999998613814
 21
-0.000016650441011
 31
0.0
 73
     1
 44
1.0
  0
POINT
  5
220AE
330
21F13
100
AcDbEntity
  8
Defpoints
 62
     0
440
 16777216
100
AcDbPoint
 10
28.50999999999999
 20
0.0
 30
0.0
  0
POINT
  5
220AF
330
21F13
100
AcDbEntity
  8
Defpoints
 62
     0
440
 16777216
100
AcDbPoint
 10
0.0
 20
15.1510660000001
 30
0.0
  0
POINT
  5
220B0
330
21F13
100
AcDbEntity
  8
Defpoints
 62
     0
440
 16777216
100
AcDbPoint
 10
0.0003477536657066
 20
36.03661884680534
 30
0.0
  0
ENDBLK
  5
21F15
330
21F13
100
AcDbEntity
  8
0
100
AcDbBlockEnd
  0
BLOCK
  5
21F20
330
21F1F
100
AcDbEntity
  8
0
100
AcDbBlockBegin
  2
*D15
 70
     1
 10
0.0
 20
0.0
 30
0.0
  3
*D15
  1

  0
LINE
  5
220B1
330
21F1F
100
AcDbEntity
  8
2
 62
     0
440
 16777216
370
    -2
100
AcDbLine
 10
24.21000208130517
 20
14.76249999996545
 30
0.0
 11
24.21035019374096
 21
25.21604997389962
 31
0.0
  0
LINE
  5
220B2
330
21F1F
100
AcDbEntity
  8
2
 62
     0
440
 16777216
370
    -2
100
AcDbLine
 10
28.51000208130513
 20
0.0624999999653454
 30
0.0
 11
28.51083971193959
 21
25.21590676380496
 31
0.0
  0
LINE
  5
220B3
330
21F1F
100
AcDbEntity
  8
2
 62
     0
440
 16777216
370
    -2
100
AcDbLine
 10
33.08083371524685
 20
25.0357545788734
 30
0.0
 11
37.6508337127129
 21
25.03560239384203
 31
0.0
  0
LINE
  5
220B4
330
21F1F
100
AcDbEntity
  8
2
 62
     0
440
 16777216
370
    -2
100
AcDbLine
 10
19.64034420211612
 20
25.03620215903079
 30
0.0
 11
8.090063112244981
 21
25.03658679358022
 31
0.0
  0
LINE
  5
220B5
330
21F1F
100
AcDbEntity
  8
2
 62
     0
440
 16777216
370
    -2
100
AcDbLine
 10
28.5108337177808
 20
25.03590676390476
 30
0.0
 11
24.21034419958218
 21
25.03604997399942
 31
0.0
  0
SOLID
  5
220B6
330
21F1F
100
AcDbEntity
  8
2
 62
     0
440
 16777216
100
AcDbTrace
 10
33.08085907941875
 20
25.79742124511774
 30
0.0
 11
33.08080835107496
 21
24.27408791262906
 31
0.0
 12
28.5108337177808
 22
25.03590676390476
 32
0.0
 13
28.5108337177808
 23
25.03590676390476
 33
0.0
  0
SOLID
  5
220B7
330
21F1F
100
AcDbEntity
  8
2
 62
     0
440
 16777216
100
AcDbTrace
 10
19.64036956628802
 20
25.79786882527513
 30
0.0
 11
19.64031883794423
 21
24.27453549278645
 31
0.0
 12
24.21034419958218
 22
25.03604997399942
 32
0.0
 13
24.21034419958218
 23
25.03604997399942
 33
0.0
  0
MTEXT
  5
220B8
330
21F1F
100
AcDbEntity
  8
2
 62
     0
440
 16777216
100
AcDbMText
 10
11.58026697973558
 20
26.93796037802688
 30
0.0
 40
3.5
 41
0.0
 46
0.0
 71
     5
 72
     1
  1
\A1;4.3
 11
0.9999999994455256
 21
-0.0000333008821372
 31
0.0
 73
     1
 44
1.0
  0
POINT
  5
220B9
330
21F1F
100
AcDbEntity
  8
Defpoints
 62
     0
440
 16777216
100
AcDbPoint
 10
24.21000000000004
 20
14.7000000000001
 30
0.0
  0
POINT
  5
220BA
330
21F1F
100
AcDbEntity
  8
Defpoints
 62
     0
440
 16777216
100
AcDbPoint
 10
28.50999999999999
 20
0.0
 30
0.0
  0
POINT
  5
220BB
330
21F1F
100
AcDbEntity
  8
Defpoints
 62
     0
440
 16777216
100
AcDbPoint
 10
28.5108337177808
 20
25.03590676390476
 30
0.0
  0
ENDBLK
  5
21F21
330
21F1F
100
AcDbEntity
  8
0
100
AcDbBlockEnd
  0
BLOCK
  5
21F2E
330
21F2D
100
AcDbEntity
  8
0
100
AcDbBlockBegin
  2
*D16
 70
     1
 10
0.0
 20
0.0
 30
0.0
  3
*D16
  1

  0
LINE
  5
220BC
330
21F2D
100
AcDbEntity
  8
2
 62
     0
440
 16777216
370
    -2
100
AcDbLine
 10
23.4724999999978
 20
-15.50000052032616
 30
0.0
 11
55.96428339451087
 21
-15.50027102158755
 31
0.0
  0
LINE
  5
220BD
330
21F2D
100
AcDbEntity
  8
2
 62
     0
440
 16777216
370
    -2
100
AcDbLine
 10
23.4724999999978
 20
15.49999947967383
 30
0.0
 11
55.96454147634654
 21
15.49972897626385
 31
0.0
  0
LINE
  5
220BE
330
21F2D
100
AcDbEntity
  8
2
 62
     0
440
 16777216
370
    -2
100
AcDbLine
 10
55.78432144077481
 20
-10.93026952320623
 30
0.0
 11
55.78450343009506
 21
10.92973047496191
 31
0.0
  0
SOLID
  5
220BF
330
21F2D
100
AcDbEntity
  8
2
 62
     0
440
 16777216
100
AcDbTrace
 10
55.02265477413454
 20
-10.93026318216328
 30
0.0
 11
56.54598810741508
 21
-10.93027586424919
 31
0.0
 12
55.7842833945171
 22
-15.50026952304786
 32
0.0
 13
55.7842833945171
 23
-15.50026952304786
 33
0.0
  0
SOLID
  5
220C0
330
21F2D
100
AcDbEntity
  8
2
 62
     0
440
 16777216
100
AcDbTrace
 10
55.02283676345478
 20
10.92973681600486
 30
0.0
 11
56.54617009673533
 21
10.92972413391896
 31
0.0
 12
55.78454147635277
 22
15.49973047480354
 32
0.0
 13
55.78454147635277
 23
15.49973047480354
 33
0.0
  0
MTEXT
  5
220C1
330
21F2D
100
AcDbEntity
  8
2
 62
     0
440
 16777216
100
AcDbMText
 10
53.83127118686804
 20
0.0000162603316282
 30
0.0
 40
3.5
 41
0.0
 46
0.0
 71
     5
 72
     1
  1
\A1;%%c31
 11
0.0000083252205058
 21
0.9999999999653454
 31
0.0
 73
     1
 44
1.0
  0
POINT
  5
220C2
330
21F2D
100
AcDbEntity
  8
Defpoints
 62
     0
440
 16777216
100
AcDbPoint
 10
23.40999999999997
 20
-15.49999999999988
 30
0.0
  0
POINT
  5
220C3
330
21F2D
100
AcDbEntity
  8
Defpoints
 62
     0
440
 16777216
100
AcDbPoint
 10
23.40999999999997
 20
15.50000000000011
 30
0.0
  0
POINT
  5
220C4
330
21F2D
100
AcDbEntity
  8
Defpoints
 62
     0
440
 16777216
100
AcDbPoint
 10
55.78454147635277
 20
15.49973047480354
 30
0.0
  0
ENDBLK
  5
21F2F
330
21F2D
100
AcDbEntity
  8
0
100
AcDbBlockEnd
  0
ENDSEC
  0
SECTION
  2
ENTITIES
  0
MTEXT
  5
211A0
330
1F
100
AcDbEntity
  8
SK6
100
AcDbMText
 10
-10.25064234538371
 20
-34.65467230112509
 30
0.0
 40
3.5
 41
41.87058589293636
 46
0.0
 71
     2
 72
     1
  1
CD3100029YHR00
 73
     1
 44
1.0
1001
ACAD
1000
MTEXTBEGIN
1070
    73
1070
     1
1070
    44
1040
1.0
1070
    74
1070
     0
1000
MTEXTEND
  0
INSERT
  5
21DE1
330
1F
100
AcDbEntity
  8
1
100
AcDbBlockReference
  2
cero_point
 10
-0.000000000003638
 20
0.0
 30
0.0
  0
LINE
  5
21DE5
330
1F
100
AcDbEntity
  8
INFTOTAL
100
AcDbLine
 10
-100.9025335021424
 20
10.9029088442212
 30
0.0
 11
-100.9025335021424
 21
54.49463124045997
 31
0.0
  0
LINE
  5
21DE6
330
1F
100
AcDbEntity
  8
INFTOTAL
100
AcDbLine
 10
-100.9025335021424
 20
54.49463124045997
 30
0.0
 11
-44.4987471333834
 21
54.49463124045997
 31
0.0
  0
LINE
  5
21DE7
330
1F
100
AcDbEntity
  8
INFTOTAL
100
AcDbLine
 10
17.75264080584657
 20
-54.8861496692607
 30
0.0
 11
73.11142205693068
 21
-54.8861496692607
 31
0.0
  0
LINE
  5
21DE8
330
1F
100
AcDbEntity
  8
INFTOTAL
100
AcDbLine
 10
73.11142205693068
 20
-54.8861496692607
 30
0.0
 11
73.11142205693068
 21
-14.43803347266614
 31
0.0
  0
DIMENSION
  5
21DE9
330
1F
100
AcDbEntity
  8
2
100
AcDbDimension
280
     0
  2
*D13
 10
41.78441243767872
 20
8.950000000000096
 30
0.0
 11
41.78441243767872
 21
0.0
 31
0.0
 70
   161
 71
     5
 42
17.9
 73
     0
 74
     0
 75
     0
  3
STANDARD
100
AcDbAlignedDimension
 13
25.00999999999999
 23
-8.949999999999903
 33
0.0
 14
25.00999999999999
 24
8.950000000000102
 34
0.0
1001
ACAD_DSTYLE_DIMARC_LENGTH_SYMBOL
1070
   379
1070
     1
1001
ACAD_DSTYLE_DIM_LINETYPE
1070
   380
1005
14
1001
ACAD_DSTYLE_DIM_EXT1_LINETYPE
1070
   381
1005
14
1001
ACAD_DSTYLE_DIM_EXT2_LINETYPE
1070
   382
1005
14
1001
ACAD
1000
DSTYLE
1002
{
1070
   172
1070
     1
1002
}
  0
DIMENSION
  5
21DEA
330
1F
100
AcDbEntity
  8
2
100
AcDbDimension
280
     0
  2
*D14
 10
0.0003477536657066
 20
36.03661884680534
 30
0.0
 11
14.25507709685394
 21
36.03638149927525
 31
0.0
 70
   160
 71
     5
 42
28.51025226797867
 73
     0
 74
     0
 75
     0
  3
STANDARD
100
AcDbAlignedDimension
 13
28.50999999999999
 23
0.0
 33
0.0
 14
0.0
 24
15.1510660000001
 34
0.0
 50
179.999046000003
100
AcDbRotatedDimension
1001
ACAD_DSTYLE_DIMARC_LENGTH_SYMBOL
1070
   379
1070
     1
1001
ACAD_DSTYLE_DIM_LINETYPE
1070
   380
1005
14
1001
ACAD_DSTYLE_DIM_EXT1_LINETYPE
1070
   381
1005
14
1001
ACAD_DSTYLE_DIM_EXT2_LINETYPE
1070
   382
1005
14
1001
ACAD
1000
DSTYLE
1002
{
1070
   172
1070
     1
1002
}
  0
DIMENSION
  5
21DEB
330
1F
100
AcDbEntity
  8
2
100
AcDbDimension
280
     0
  2
*D15
 10
28.5108337177808
 20
25.03590676390476
 30
0.0
 11
11.58020365844752
 21
25.03647056882119
 31
0.0
 70
   160
 71
     5
 42
4.300489520583134
 73
     0
 74
     0
 75
     0
  3
STANDARD
100
AcDbAlignedDimension
 13
24.21000000000004
 23
14.7000000000001
 33
0.0
 14
28.50999999999999
 24
0.0
 34
0.0
 50
359.9980919999991
100
AcDbRotatedDimension
1001
ACAD_DSTYLE_DIMARC_LENGTH_SYMBOL
1070
   379
1070
     1
1001
ACAD_DSTYLE_DIM_LINETYPE
1070
   380
1005
14
1001
ACAD_DSTYLE_DIM_EXT1_LINETYPE
1070
   381
1005
14
1001
ACAD_DSTYLE_DIM_EXT2_LINETYPE
1070
   382
1005
14
1001
ACAD
1000
DSTYLE
1002
{
1070
   172
1070
     1
1002
}
  0
DIMENSION
  5
21DEC
330
1F
100
AcDbEntity
  8
2
100
AcDbDimension
280
     0
  2
*D16
 10
55.78454147635277
 20
15.49973047480354
 30
0.0
 11
55.78441243767878
 21
0.0000000000000355
 31
0.0
 70
   160
  1
%%c<>
 71
     5
 42
30.9999999989257
 73
     0
 74
     0
 75
     0
  3
STANDARD
100
AcDbAlignedDimension
 13
23.40999999999997
 23
-15.49999999999988
 33
0.0
 14
23.40999999999997
 24
15.50000000000011
 34
0.0
 50
89.99952300000151
100
AcDbRotatedDimension
1001
ACAD_DSTYLE_DIMARC_LENGTH_SYMBOL
1070
   379
1070
     1
1001
ACAD_DSTYLE_DIM_LINETYPE
1070
   380
1005
14
1001
ACAD_DSTYLE_DIM_EXT1_LINETYPE
1070
   381
1005
14
1001
ACAD_DSTYLE_DIM_EXT2_LINETYPE
1070
   382
1005
14
1001
ACAD
1000
DSTYLE
1002
{
1070
   172
1070
     1
1002
}
  0
LINE
  5
21DED
330
1F
100
AcDbEntity
  8
1
100
AcDbLine
 10
0.0
 20
6.027826000000004
 30
0.0
 11
-0.1490129999999965
 21
6.027826000000004
 31
0.0
  0
LINE
  5
21DEE
330
1F
100
AcDbEntity
  8
SK3
100
AcDbLine
 10
0.0
 20
7.500000000000113
 30
0.0
 11
23.20000000000016
 21
7.500000000000113
 31
0.0
  0
LINE
  5
21DEF
330
1F
100
AcDbEntity
  8
SK3
100
AcDbLine
 10
0.0
 20
4.500000000000113
 30
0.0
 11
23.20000000000016
 21
4.500000000000113
 31
0.0
  0
LINE
  5
21DF0
330
1F
100
AcDbEntity
  8
SK3
100
AcDbLine
 10
0.0
 20
-7.499999999999886
 30
0.0
 11
23.20000000000016
 21
-7.499999999999886
 31
0.0
  0
LINE
  5
21DF1
330
1F
100
AcDbEntity
  8
SK3
100
AcDbLine
 10
0.0
 20
-4.5
 30
0.0
 11
23.20000000000016
 21
-4.5
 31
0.0
  0
LINE
  5
21DF3
330
1F
100
AcDbEntity
  8
1
100
AcDbLine
 10
24.21000000000004
 20
8.950000000000102
 30
0.0
 11
22.548
 21
8.950000000000102
 31
0.0
  0
LINE
  5
21DF7
330
1F
100
AcDbEntity
  8
1
100
AcDbLine
 10
12.34500000000003
 20
3.48567800000012
 30
0.0
 11
12.34500000000003
 21
3.308563999999989
 31
0.0
  0
LINE
  5
21DF8
330
1F
100
AcDbEntity
  8
1
100
AcDbLine
 10
12.34500000000003
 20
4.376713999999992
 30
0.0
 11
12.34500000000003
 21
3.48567800000012
 31
0.0
  0
ARC
  5
21DF9
330
1F
100
AcDbEntity
  8
1
100
AcDbCircle
 10
-17.26614599999999
 20
-347.4896919999999
 30
0.0
 40
352.222378
100
AcDbArc
 50
84.15391499999939
 51
85.17748100000074
  0
ARC
  5
21DFC
330
1F
100
AcDbEntity
  8
1
100
AcDbCircle
 10
24.23611400000004
 20
-0.0466749999998797
 30
0.0
 40
1.610068
100
AcDbArc
 50
108.6223770000004
 51
129.5978800000009
  0
ARC
  5
21DFD
330
1F
100
AcDbEntity
  8
1
100
AcDbCircle
 10
20.931712
 20
9.827350000000109
 30
0.0
 40
8.801283999999997
100
AcDbArc
 50
288.4813070000001
 51
295.9463550000008
  0
ARC
  5
21DFE
330
1F
100
AcDbEntity
  8
1
100
AcDbCircle
 10
-27.47744499999999
 20
-457.8068269999999
 30
0.0
 40
462.6809539999999
100
AcDbArc
 50
83.51462000000045
 51
84.74562600000023
  0
ARC
  5
21DFF
330
1F
100
AcDbEntity
  8
1
100
AcDbCircle
 10
30.77997900000003
 20
3.852327000000116
 30
0.0
 40
4.614364
100
AcDbArc
 50
189.1138870000006
 51
194.1442180000003
  0
ARC
  5
21E00
330
1F
100
AcDbEntity
  8
1
100
AcDbCircle
 10
-213.159747
 20
-35.6497179999999
 30
0.0
 40
242.503411
100
AcDbArc
 50
9.199873000000502
 51
9.988701000000427
  0
LINE
  5
21E01
330
1F
100
AcDbEntity
  8
1
100
AcDbLine
 10
25.66817900000001
 20
6.413531000000119
 30
0.0
 11
25.00999999999999
 21
6.899595000000118
 31
0.0
  0
ARC
  5
21E02
330
1F
100
AcDbEntity
  8
1
100
AcDbCircle
 10
-2.47090799999998
 20
-153.9468479999998
 30
0.0
 40
163.177126
100
AcDbArc
 50
80.30452600000034
 51
81.18041399999945
  0
ARC
  5
21E03
330
1F
100
AcDbEntity
  8
1
100
AcDbCircle
 10
32.96970900000002
 20
-82.25182099999988
 30
0.0
 40
90.15722099999999
100
AcDbArc
 50
96.63794699999918
 51
99.164747
  0
ARC
  5
21E04
330
1F
100
AcDbEntity
  8
1
100
AcDbCircle
 10
10.39452800000003
 20
30.7779220000001
 30
0.0
 40
32.251265
100
AcDbArc
 50
296.4945820000004
 51
299.5606619999993
  0
LINE
  5
21E05
330
1F
100
AcDbEntity
  8
1
100
AcDbLine
 10
22.548
 20
7.300865000000101
 30
0.0
 11
22.548
 21
8.950000000000102
 31
0.0
  0
LINE
  5
21E06
330
1F
100
AcDbEntity
  8
1
100
AcDbLine
 10
18.61000000000001
 20
7.894815999999991
 30
0.0
 11
22.548
 21
8.950000000000102
 31
0.0
  0
LINE
  5
21E0A
330
1F
100
AcDbEntity
  8
1
100
AcDbLine
 10
23.21000000000004
 20
0.595822000000112
 30
0.0
 11
28.31561299999999
 21
-0.2298989999999037
 31
0.0
  0
ELLIPSE
  5
21E0B
330
1F
100
AcDbEntity
  8
1
100
AcDbEllipse
 10
28.845619
 20
0.0139390000001072
 30
0.0
 11
8.771372795104978
 21
-1.378817677497863
 31
0.0
210
0.0
220
0.0
230
1.0
 40
0.6056110000000002
 41
4.113311714752009
 42
4.503989374709671
  0
LINE
  5
21E0C
330
1F
100
AcDbEntity
  8
1
100
AcDbLine
 10
26.22388799999999
 20
-4.84223
 30
0.0
 11
26.213911
 21
-4.897895999999889
 31
0.0
  0
ARC
  5
21E0D
330
1F
100
AcDbEntity
  8
1
100
AcDbCircle
 10
29.02134200000001
 20
-5.328462999999885
 30
0.0
 40
2.839166999999997
100
AcDbArc
 50
154.3420839999995
 51
170.1397890000001
  0
LINE
  5
21E0E
330
1F
100
AcDbEntity
  8
1
100
AcDbLine
 10
26.93517600000002
 20
-3.127990000000011
 30
0.0
 11
26.462335
 21
-4.099209999999999
 31
0.0
  0
SPLINE
  5
21E0F
330
1F
100
AcDbEntity
  8
1
100
AcDbSpline
210
0.0
220
0.0
230
1.0
 70
     8
 71
     5
 72
    27
 73
    21
 74
     0
 42
0.000000001
 43
0.0000000001
 40
0.0
 40
0.0
 40
0.0
 40
0.0
 40
0.0
 40
0.0
 40
15.88662164981226
 40
15.88662164981226
 40
15.88662164981226
 40
31.75386469933407
 40
31.75386469933407
 40
31.75386469933407
 40
42.39996423970379
 40
42.39996423970379
 40
42.39996423970379
 40
48.69813900074826
 40
48.69813900074826
 40
48.69813900074826
 40
52.33459756236706
 40
52.33459756236706
 40
52.33459756236706
 40
53.20921424885185
 40
53.20921424885185
 40
53.20921424885185
 40
53.20921424885185
 40
53.20921424885185
 40
53.20921424885185
 10
28.31561297423212
 20
-0.2298989309804256
 30
0.0
 10
28.30731628539411
 20
-0.2516276736901943
 30
0.0
 10
28.29775019585412
 20
-0.2758390061711964
 30
0.0
 10
28.28655400613786
 20
-0.3032778656375967
 30
0.0
 10
28.26005723204242
 20
-0.3663739565243134
 30
0.0
 10
28.22063852350232
 20
-0.4556096923984967
 30
0.0
 10
28.19737001831209
 20
-0.5072835381285188
 30
0.0
 10
28.14767018419519
 20
-0.6159095149986058
 30
0.0
 10
28.06206025785229
 20
-0.7980224652666835
 30
0.0
 10
28.02034664909001
 20
-0.8860725461236995
 30
0.0
 10
27.93562791922443
 20
-1.063897393196413
 30
0.0
 10
27.78824606199567
 20
-1.3700789380797
 30
0.0
 10
27.72095033445351
 20
-1.509529464747402
 30
0.0
 10
27.58896269276124
 20
-1.782432309330403
 30
0.0
 10
27.38603423713835
 20
-2.200638137705936
 30
0.0
 10
27.29508340257985
 20
-2.387923123719616
 30
0.0
 10
27.17010679803264
 20
-2.645049155978597
 30
0.0
 10
27.02439369573551
 20
-2.944616291817908
 30
0.0
 10
26.99537756781012
 20
-3.004262312615509
 30
0.0
 10
26.96564427331316
 20
-3.065374358670823
 30
0.0
 10
26.93517604534418
 20
-3.127989732289904
 30
0.0
  0
SPLINE
  5
21E10
330
1F
100
AcDbEntity
  8
1
100
AcDbSpline
210
0.0
220
0.0
230
1.0
 70
     8
 71
     5
 72
    54
 73
    48
 74
     0
 42
0.000000001
 43
0.0000000001
 40
0.0
 40
0.0
 40
0.0
 40
0.0
 40
0.0
 40
0.0
 40
24.72657414750065
 40
24.72657414750065
 40
24.72657414750065
 40
61.8159283762478
 40
61.8159283762478
 40
61.8159283762478
 40
86.54217940060844
 40
86.54217940060844
 40
86.54217940060844
 40
98.90538449493099
 40
98.90538449493099
 40
98.90538449493099
 40
111.402639543042
 40
111.402639543042
 40
111.402639543042
 40
115.5242306755142
 40
115.5242306755142
 40
115.5242306755142
 40
117.5850416040777
 40
117.5850416040777
 40
117.5850416040777
 40
119.6458525326412
 40
119.6458525326412
 40
119.6458525326412
 40
120.6828619855076
 40
120.6828619855076
 40
120.6828619855076
 40
121.7482557311955
 40
121.7482557311955
 40
121.7482557311955
 40
122.0086236976831
 40
122.0086236976831
 40
122.0086236976831
 40
122.2689916641706
 40
122.2689916641706
 40
122.2689916641706
 40
122.5305193018318
 40
122.5305193018318
 40
122.5305193018318
 40
122.7920469394931
 40
122.7920469394931
 40
122.7920469394931
 40
123.8915491936752
 40
123.8915491936752
 40
123.8915491936752
 40
123.8915491936752
 40
123.8915491936752
 40
123.8915491936752
 10
28.31561297423212
 20
-0.2298989309804256
 30
0.0
 10
28.32852753694829
 20
-0.1960761354102089
 30
0.0
 10
28.33659690174631
 20
-0.1703612306903039
 30
0.0
 10
28.34277578489014
 20
-0.1480870833879067
 30
0.0
 10
28.35477003016274
 20
-0.0961828213353044
 30
0.0
 10
28.35912476178283
 20
-0.0529007803993977
 30
0.0
 10
28.3598188474096
 20
-0.0282689939209888
 30
0.0
 10
28.35792524278259
 20
0.0133289902994136
 30
0.0
 10
28.3501443353008
 20
0.0588184989253193
 30
0.0
 10
28.34600041339451
 20
0.0779867962060052
 30
0.0
 10
28.33786092547553
 20
0.1093261177043132
 30
0.0
 10
28.32487457797572
 20
0.1478782666976031
 30
0.0
 10
28.31985468456685
 20
0.1617951725687021
 30
0.0
 10
28.30853886944487
 20
0.1913375507803892
 30
0.0
 10
28.29314522567642
 20
0.2273123998594997
 30
0.0
 10
28.28437925147909
 20
0.2468403677548849
 30
0.0
 10
28.26952811264255
 20
0.278550194343893
 30
0.0
 10
28.24733230187161
 20
0.3218679146851002
 30
0.0
 10
28.24128452338369
 20
0.3334678896385981
 30
0.0
 10
28.23121036835289
 20
0.3524372081645879
 30
0.0
 10
28.21890678007833
 20
0.3748418569190903
 30
0.0
 10
28.21451418884397
 20
0.3827565149798886
 30
0.0
 10
28.20504839368562
 20
0.3996253968786902
 30
0.0
 10
28.1938019014309
 20
0.4191863015563229
 30
0.0
 10
28.1874462541071
 20
0.4300953860344237
 30
0.0
 10
28.1776138732518
 20
0.4467481372418263
 30
0.0
 10
28.16580816527477
 20
0.4662835389484031
 30
0.0
 10
28.16155127943023
 20
0.4732767288666082
 30
0.0
 10
28.15202065230426
 20
0.4888062568728913
 30
0.0
 10
28.1398387672831
 20
0.5082384287740922
 30
0.0
 10
28.13356052190591
 20
0.5181062261446812
 30
0.0
 10
28.12391517921361
 20
0.5332004140298068
 30
0.0
 10
28.11019604791778
 20
0.5540630111100029
 30
0.0
 10
28.10729834979907
 20
0.5584473748384085
 30
0.0
 10
28.1010291250559
 20
0.5678836745693161
 30
0.0
 10
28.0933090131191
 20
0.5793585773670032
 30
0.0
 10
28.0912812454672
 20
0.5822874220667984
 30
0.0
 10
28.07860552858426
 20
0.6012058400488911
 30
0.0
 10
28.04896161089198
 20
0.6434514033622918
 30
0.0
 10
28.03371481003194
 20
0.6640473681634092
 30
0.0
 10
28.01708608416101
 20
0.68644431742851
 30
0.0
 10
28.00596570823348
 20
0.7010321421473975
 30
0.0
 10
28.00068333950003
 20
0.7079270674908003
 30
0.0
 10
27.97586011395413
 20
0.7400258668154152
 30
0.0
 10
27.96000837645784
 20
0.7593199811044258
 30
0.0
 10
27.9496548673821
 20
0.7720555746143134
 30
0.0
 10
27.93768693159439
 20
0.7862875660441944
 30
0.0
 10
27.9265062306257
 20
0.7993226627796162
 30
0.0
  0
LINE
  5
21E11
330
1F
100
AcDbEntity
  8
1
100
AcDbLine
 10
27.92650600000002
 20
0.7993229999999869
 30
0.0
 11
23.72189400000002
 21
1.479327000000097
 31
0.0
  0
LINE
  5
21E12
330
1F
100
AcDbEntity
  8
1
100
AcDbLine
 10
26.462335
 20
2.497276000000113
 30
0.0
 11
27.92650600000002
 21
0.7993229999999869
 31
0.0
  0
ARC
  5
21E13
330
1F
100
AcDbEntity
  8
1
100
AcDbCircle
 10
27.39937500000002
 20
3.311720000000093
 30
0.0
 40
1.24147
100
AcDbArc
 50
208.2180140000001
 51
220.9960830000003
  0
LINE
  5
21E14
330
1F
100
AcDbEntity
  8
1
100
AcDbLine
 10
26.22388799999999
 20
5.418418000000002
 30
0.0
 11
26.22388799999999
 21
3.121427000000096
 31
0.0
  0
LINE
  5
21E15
330
1F
100
AcDbEntity
  8
1
100
AcDbLine
 10
26.462335
 20
4.634514999999993
 30
0.0
 11
26.462335
 21
2.497276000000113
 31
0.0
  0
LINE
  5
21E16
330
1F
100
AcDbEntity
  8
1
100
AcDbLine
 10
25.66817900000001
 20
8.570000000000106
 30
0.0
 11
25.66817900000001
 21
6.413531000000119
 31
0.0
  0
LINE
  5
21E17
330
1F
100
AcDbEntity
  8
1
100
AcDbLine
 10
25.00999999999999
 20
8.950000000000102
 30
0.0
 11
25.00999999999999
 21
6.899595000000118
 31
0.0
  0
LINE
  5
21E18
330
1F
100
AcDbEntity
  8
1
100
AcDbLine
 10
26.462335
 20
-4.099209999999999
 30
0.0
 11
26.462335
 21
-4.634514999999879
 31
0.0
  0
LINE
  5
21E19
330
1F
100
AcDbEntity
  8
1
100
AcDbLine
 10
26.22388799999999
 20
-4.84223
 30
0.0
 11
26.22388799999999
 21
-5.418418000000002
 31
0.0
  0
LINE
  5
21E1A
330
1F
100
AcDbEntity
  8
1
100
AcDbLine
 10
26.213911
 20
-5.467970999999892
 30
0.0
 11
26.213911
 21
-4.897895999999889
 31
0.0
  0
LINE
  5
21E1B
330
1F
100
AcDbEntity
  8
1
100
AcDbLine
 10
26.213911
 20
-5.467970999999892
 30
0.0
 11
26.195044
 21
-5.581885999999883
 31
0.0
  0
LINE
  5
21E1C
330
1F
100
AcDbEntity
  8
1
100
AcDbLine
 10
26.195044
 20
-5.581885999999883
 30
0.0
 11
26.07779600000004
 21
-6.246946000000008
 31
0.0
  0
LINE
  5
21E1D
330
1F
100
AcDbEntity
  8
1
100
AcDbLine
 10
25.66817900000001
 20
-8.569999999999879
 30
0.0
 11
26.07779600000004
 21
-6.246946000000008
 31
0.0
  0
LINE
  5
21E1E
330
1F
100
AcDbEntity
  8
1
100
AcDbLine
 10
25.66817900000001
 20
-8.569999999999879
 30
0.0
 11
25.00999999999999
 21
-8.949999999999903
 31
0.0
  0
LINE
  5
21E1F
330
1F
100
AcDbEntity
  8
1
100
AcDbLine
 10
25.00999999999999
 20
-8.949999999999903
 30
0.0
 11
24.21000000000004
 21
-8.949999999999903
 31
0.0
  0
LINE
  5
21E20
330
1F
100
AcDbEntity
  8
1
100
AcDbLine
 10
23.20999
 20
-6.246946000000008
 30
0.0
 11
26.07779600000004
 21
-6.246946000000008
 31
0.0
  0
LINE
  5
21E21
330
1F
100
AcDbEntity
  8
1
100
AcDbLine
 10
23.20999
 20
-5.467970999999892
 30
0.0
 11
26.213911
 21
-5.467970999999892
 31
0.0
  0
ARC
  5
21E24
330
1F
100
AcDbEntity
  8
1
100
AcDbCircle
 10
29.573219
 20
-6.008995999999996
 30
0.0
 40
3.401
100
AcDbArc
 50
156.1627450000002
 51
170.0000010000002
  0
LINE
  5
21E25
330
1F
100
AcDbEntity
  8
1
100
AcDbLine
 10
26.22388799999999
 20
-5.418418000000002
 30
0.0
 11
26.19514400000003
 21
-5.581434000000001
 31
0.0
  0
LINE
  5
21E27
330
1F
100
AcDbEntity
  8
1
100
AcDbLine
 10
28.50999999999999
 20
0.0
 30
0.0
 11
26.462335
 21
-4.634514999999879
 31
0.0
  0
LINE
  5
21E28
330
1F
100
AcDbEntity
  8
1
100
AcDbLine
 10
12.34500000000003
 20
3.308706000000114
 30
0.0
 11
12.34500000000003
 21
4.376629000000093
 31
0.0
  0
LINE
  5
21E29
330
1F
100
AcDbEntity
  8
1
100
AcDbLine
 10
0.0
 20
15.1510660000001
 30
0.0
 11
0.0
 21
5.987430000000102
 31
0.0
  0
ARC
  5
21E2A
330
1F
100
AcDbEntity
  8
1
100
AcDbCircle
 10
10.02824299999997
 20
-492.1869999999996
 30
0.0
 40
507.437014
100
AcDbArc
 50
90.00167599999924
 51
91.13238400000023
  0
LINE
  5
21E2B
330
1F
100
AcDbEntity
  8
1
100
AcDbLine
 10
16.18999999999999
 20
15.25000000000011
 30
0.0
 11
10.013396
 21
15.25000000000011
 31
0.0
  0
LINE
  5
21E2C
330
1F
100
AcDbEntity
  8
1
100
AcDbLine
 10
18.61000000000001
 20
7.480000000000103
 30
0.0
 11
16.18999999999999
 21
7.480000000000103
 31
0.0
  0
LINE
  5
21E2D
330
1F
100
AcDbEntity
  8
1
100
AcDbLine
 10
16.18999999999999
 20
7.480000000000103
 30
0.0
 11
16.18999999999999
 21
5.29733400000012
 31
0.0
  0
LINE
  5
21E2E
330
1F
100
AcDbEntity
  8
1
100
AcDbLine
 10
14.35570800000005
 20
5.302491000000117
 30
0.0
 11
16.18999999999999
 21
5.29733400000012
 31
0.0
  0
ARC
  5
21E2F
330
1F
100
AcDbEntity
  8
1
100
AcDbCircle
 10
32.59947499999999
 20
121.6815430000001
 30
0.0
 40
117.800334
100
AcDbArc
 50
261.0907289999996
 51
263.1796969999995
  0
LINE
  5
21E30
330
1F
100
AcDbEntity
  8
1
100
AcDbLine
 10
9.265363999999976
 20
5.13202099999998
 30
0.0
 11
9.276476999999999
 21
5.218237000000101
 31
0.0
  0
SPLINE
  5
21E31
330
1F
100
AcDbEntity
  8
1
100
AcDbSpline
210
0.0
220
0.0
230
1.0
 70
     8
 71
     5
 72
    15
 73
     9
 74
     0
 42
0.000000001
 43
0.0000000001
 40
0.0
 40
0.0
 40
0.0
 40
0.0
 40
0.0
 40
0.0
 40
5.176446371835886
 40
5.176446371835886
 40
5.176446371835886
 40
6.486045385435718
 40
6.486045385435718
 40
6.486045385435718
 40
6.486045385435718
 40
6.486045385435718
 40
6.486045385435718
 10
5.815629967070321
 20
4.493394468645192
 30
0.0
 10
6.345133110851634
 20
4.62483162848602
 30
0.0
 10
6.887182534284363
 20
4.742890085472339
 30
0.0
 10
7.432594557642289
 20
4.847505704309924
 30
0.0
 10
8.130587577177891
 20
4.967024095078926
 30
0.0
 10
8.836264258312496
 20
5.071928829534101
 30
0.0
 10
8.979037719655821
 20
5.092529692374
 30
0.0
 10
9.122074403253179
 20
5.112558995738083
 30
0.0
 10
9.265364138969971
 20
5.132020628300324
 30
0.0
  0
ARC
  5
21E32
330
1F
100
AcDbEntity
  8
1
100
AcDbCircle
 10
18.56556899999998
 20
-774.4340329999996
 30
0.0
 40
778.835819
100
AcDbArc
 50
89.99673099999947
 51
90.45762699999924
  0
SPLINE
  5
21E33
330
1F
100
AcDbEntity
  8
1
100
AcDbSpline
210
0.0
220
0.0
230
1.0
 70
     8
 71
     5
 72
    12
 73
     6
 74
     0
 42
0.000000001
 43
0.0000000001
 40
0.0
 40
0.0
 40
0.0
 40
0.0
 40
0.0
 40
0.0
 40
8.976193139990472
 40
8.976193139990472
 40
8.976193139990472
 40
8.976193139990472
 40
8.976193139990472
 40
8.976193139990472
 10
9.27647693843005
 20
5.21823751623009
 30
0.0
 10
10.28030524840858
 20
5.263545762037011
 30
0.0
 10
11.29262481659174
 20
5.289788007699399
 30
0.0
 10
12.31103725654981
 20
5.302357908063811
 30
0.0
 10
13.33165887198754
 20
5.305533411672314
 30
0.0
 10
14.35570773500001
 20
5.302491411869993
 30
0.0
  0
ARC
  5
21E34
330
1F
100
AcDbEntity
  8
1
100
AcDbCircle
 10
10.01862
 20
491.9960290000001
 30
0.0
 40
507.2460349999998
100
AcDbArc
 50
268.8682769999992
 51
269.9994099999992
  0
ARC
  5
21E35
330
1F
100
AcDbEntity
  8
SK1
100
AcDbCircle
 10
5.749919999999974
 20
1291.877539999999
 30
0.0
 40
1297.877714
100
AcDbArc
 50
269.2517119999997
 51
269.7461649999992
  0
SPLINE
  5
21E36
330
1F
100
AcDbEntity
  8
SK1
100
AcDbSpline
210
0.0
220
0.0
230
1.0
 70
     8
 71
     5
 72
    12
 73
     6
 74
     0
 42
0.000000001
 43
0.0000000001
 40
0.0
 40
0.0
 40
0.0
 40
0.0
 40
0.0
 40
0.0
 40
17.78184309784692
 40
17.78184309784692
 40
17.78184309784692
 40
17.78184309784692
 40
17.78184309784692
 40
17.78184309784692
 10
-12.19999999999712
 20
-4.999277917217
 30
0.0
 10
-12.07474516026411
 20
-5.121514338215177
 30
0.0
 10
-11.92228807733519
 20
-5.262973055598678
 30
0.0
 10
-11.74392025221561
 20
-5.421620620998311
 30
0.0
 10
-11.51847796849787
 20
-5.616839709073303
 30
0.0
 10
-11.1999999999955
 20
-5.889497310005992
 30
0.0
  0
LINE
  5
21E37
330
1F
100
AcDbEntity
  8
SK1
100
AcDbLine
 10
-12.19999999999999
 20
-4.387912999999883
 30
0.0
 11
-12.19999999999999
 21
-4.99927799999989
 31
0.0
  0
LINE
  5
21E38
330
1F
100
AcDbEntity
  8
SK1
100
AcDbLine
 10
-12.19999999999999
 20
3.627705000000105
 30
0.0
 11
-12.19999999999999
 21
-4.387912999999883
 31
0.0
  0
LINE
  5
21E39
330
1F
100
AcDbEntity
  8
SK1
100
AcDbLine
 10
-12.19999999999999
 20
3.627705000000105
 30
0.0
 11
-12.19999999999999
 21
4.127289999999987
 31
0.0
  0
LINE
  5
21E3A
330
1F
100
AcDbEntity
  8
SK1
100
AcDbLine
 10
-12.19999999999999
 20
4.999278000000117
 30
0.0
 11
-12.19999999999999
 21
4.127289999999987
 31
0.0
  0
ARC
  5
21E3B
330
1F
100
AcDbEntity
  8
SK1
100
AcDbCircle
 10
5.749919999999974
 20
-1291.877539999999
 30
0.0
 40
1297.877714
100
AcDbArc
 50
90.2538350000008
 51
90.74828800000034
  0
LINE
  5
21E3C
330
1F
100
AcDbEntity
  8
1
100
AcDbLine
 10
10.40644299999996
 20
15.12979300000012
 30
0.0
 11
10.013396
 21
15.24999900000011
 31
0.0
  0
SPLINE
  5
21E3D
330
1F
100
AcDbEntity
  8
SK1
100
AcDbSpline
210
0.0
220
0.0
230
1.0
 70
     8
 71
     5
 72
    12
 73
     6
 74
     0
 42
0.000000001
 43
0.0000000001
 40
0.0
 40
0.0
 40
0.0
 40
0.0
 40
0.0
 40
0.0
 40
17.78184309740914
 40
17.78184309740914
 40
17.78184309740914
 40
17.78184309740914
 40
17.78184309740914
 40
17.78184309740914
 10
-12.19999999999712
 20
4.99927791721717
 30
0.0
 10
-12.07474516026499
 20
5.121514338214609
 30
0.0
 10
-11.92228807734588
 20
5.26297305558748
 30
0.0
 10
-11.74392025220871
 20
5.421620621011498
 30
0.0
 10
-11.5184779684516
 20
5.616839709118096
 30
0.0
 10
-11.1999999999955
 20
5.889497310006106
 30
0.0
  0
LINE
  5
21E3E
330
1F
100
AcDbEntity
  8
1
100
AcDbLine
 10
16.18999999999999
 20
7.480000000000103
 30
0.0
 11
16.18999999999999
 21
15.25000000000011
 31
0.0
  0
LINE
  5
21E3F
330
1F
100
AcDbEntity
  8
1
100
AcDbLine
 10
9.622349999999983
 20
7.380952000000092
 30
0.0
 11
16.18999999999999
 21
7.380952000000092
 31
0.0
  0
LINE
  5
21E40
330
1F
100
AcDbEntity
  8
1
100
AcDbLine
 10
10.40644199999997
 20
15.12979200000009
 30
0.0
 11
9.622349999999983
 21
7.380952000000092
 31
0.0
  0
ELLIPSE
  5
21E41
330
1F
100
AcDbEntity
  8
1
100
AcDbEllipse
 10
9.174362999999971
 20
7.380952000000092
 30
0.0
 11
0.3202686607837678
 21
3.099661588668823
 31
0.0
210
0.0
220
0.0
230
1.0
 40
0.1430170000000001
 41
3.955052666500403
 42
4.727164917720558
  0
SPLINE
  5
21E42
330
1F
100
AcDbEntity
  8
SK1
100
AcDbSpline
210
0.0
220
0.0
230
1.0
 70
     8
 71
     5
 72
    12
 73
     6
 74
     0
 42
0.000000001
 43
0.0000000001
 40
0.0
 40
0.0
 40
0.0
 40
0.0
 40
0.0
 40
0.0
 40
19.99169283905864
 40
19.99169283905864
 40
19.99169283905864
 40
19.99169283905864
 40
19.99169283905864
 40
19.99169283905864
 10
-12.19999999999712
 20
3.627704526857911
 30
0.0
 10
-12.06950465554979
 20
3.5855835629647
 30
0.0
 10
-11.91285415033468
 20
3.546433345296804
 30
0.0
 10
-11.72714345015268
 20
3.509664948610691
 30
0.0
 10
-11.49863876331869
 20
3.477674630818086
 30
0.0
 10
-11.19999999999967
 20
3.456033238520006
 30
0.0
  0
ARC
  5
21E43
330
1F
100
AcDbEntity
  8
SK1
100
AcDbCircle
 10
-149.285105
 20
-2466.285319000001
 30
0.0
 40
2473.598614
100
AcDbArc
 50
86.54001799999994
 51
86.79988099999956
  0
SPLINE
  5
21E44
330
1F
100
AcDbEntity
  8
1
100
AcDbSpline
210
0.0
220
0.0
230
1.0
 70
     8
 71
     5
 72
    12
 73
     6
 74
     0
 42
0.000000001
 43
0.0000000001
 40
0.0
 40
0.0
 40
0.0
 40
0.0
 40
0.0
 40
0.0
 40
40.81253865537989
 40
40.81253865537989
 40
40.81253865537989
 40
40.81253865537989
 40
40.81253865537989
 40
40.81253865537989
 10
23.21000000012452
 20
2.034982908052171
 30
0.0
 10
18.5093302807569
 20
2.388648363191407
 30
0.0
 10
13.82597524880111
 20
2.959069951024815
 30
0.0
 10
9.17104640199841
 20
3.734401019864293
 30
0.0
 10
4.558819390416317
 20
4.689637029357896
 30
0.0
 10
-0.000000000769603
 20
5.791553252393896
 30
0.0
  0
LINE
  5
21E45
330
1F
100
AcDbEntity
  8
1
100
AcDbLine
 10
23.21000000000004
 20
2.034983000000096
 30
0.0
 11
23.21000000000004
 21
-13.38313400000001
 31
0.0
  0
LINE
  5
21E46
330
1F
100
AcDbEntity
  8
1
100
AcDbLine
 10
23.21000000000004
 20
-13.38313400000001
 30
0.0
 11
23.21000000000004
 21
-14.72418400000001
 31
0.0
  0
LINE
  5
21E47
330
1F
100
AcDbEntity
  8
1
100
AcDbLine
 10
0.0
 20
-13.38313400000001
 30
0.0
 11
0.0
 21
-15.15106600000001
 31
0.0
  0
LINE
  5
21E48
330
1F
100
AcDbEntity
  8
1
100
AcDbLine
 10
0.0
 20
5.791553000000106
 30
0.0
 11
0.0
 21
-13.38313400000001
 31
0.0
  0
LINE
  5
21E49
330
1F
100
AcDbEntity
  8
1
100
AcDbLine
 10
16.18999999999999
 20
-15.24999999999988
 30
0.0
 11
10.013396
 21
-15.24999999999988
 31
0.0
  0
LINE
  5
21E4A
330
1F
100
AcDbEntity
  8
1
100
AcDbLine
 10
16.18999999999999
 20
-14.72418400000001
 30
0.0
 11
16.18999999999999
 21
-15.24999999999988
 31
0.0
  0
LINE
  5
21E4B
330
1F
100
AcDbEntity
  8
1
100
AcDbLine
 10
23.21000000000004
 20
-14.72418400000001
 30
0.0
 11
16.18999999999999
 21
-14.72418400000001
 31
0.0
  0
LINE
  5
21E4C
330
1F
100
AcDbEntity
  8
SK1
100
AcDbLine
 10
-11.19999999999999
 20
-5.265494999999901
 30
0.0
 11
-11.19999999999999
 21
-5.889496999999892
 31
0.0
  0
LINE
  5
21E4D
330
1F
100
AcDbEntity
  8
SK1
100
AcDbLine
 10
-11.19999999999999
 20
3.456033000000104
 30
0.0
 11
-11.19999999999999
 21
-5.265494999999901
 31
0.0
  0
CIRCLE
  5
21E4E
330
1F
100
AcDbEntity
  8
1
100
AcDbCircle
 10
20.20000000000004
 20
-11.49000000000001
 30
0.0
 40
1.588
  0
CIRCLE
  5
21E4F
330
1F
100
AcDbEntity
  8
1
100
AcDbCircle
 10
20.20000000000004
 20
11.49000000000009
 30
0.0
 40
1.425
  0
CIRCLE
  5
21E50
330
1F
100
AcDbEntity
  8
1
100
AcDbCircle
 10
20.200017
 20
11.4898860000001
 30
0.0
 40
1.859874999999999
  0
LINE
  5
21E55
330
1F
100
AcDbEntity
  8
SK4
100
AcDbLine
 10
-16.02800458900413
 20
0.0
 30
0.0
 11
0.0
 21
0.0
 31
0.0
  0
CIRCLE
  5
21E59
330
1F
100
AcDbEntity
  8
1
100
AcDbCircle
 10
20.20000000000004
 20
-11.49000000000001
 30
0.0
 40
1.425
  0
ARC
  5
21E5A
330
1F
100
AcDbEntity
  8
1
100
AcDbCircle
 10
23.40999999999997
 20
-8.279999999999887
 30
0.0
 40
0.8
100
AcDbArc
 50
0.0
 51
90.0
  0
LINE
  5
21E5B
330
1F
100
AcDbEntity
  8
1
100
AcDbLine
 10
24.21000000000004
 20
-14.6999999999999
 30
0.0
 11
24.21000000000004
 21
-8.279999999999887
 31
0.0
  0
ARC
  5
21E5C
330
1F
100
AcDbEntity
  8
1
100
AcDbCircle
 10
23.40999999999997
 20
-14.6999999999999
 30
0.0
 40
0.8
100
AcDbArc
 50
270.0
 51
0.0
  0
LINE
  5
21E5D
330
1F
100
AcDbEntity
  8
1
100
AcDbLine
 10
16.99000000000001
 20
-15.49999999999988
 30
0.0
 11
23.40999999999997
 21
-15.49999999999988
 31
0.0
  0
ARC
  5
21E5E
330
1F
100
AcDbEntity
  8
1
100
AcDbCircle
 10
16.99000000000001
 20
-14.6999999999999
 30
0.0
 40
0.8
100
AcDbArc
 50
181.7325239999996
 51
270.0
  0
ARC
  5
21E5F
330
1F
100
AcDbEntity
  8
1
100
AcDbCircle
 10
16.99000000000001
 20
-14.6999999999999
 30
0.0
 40
0.242053
100
AcDbArc
 50
185.7341499999997
 51
270.0
  0
LINE
  5
21E60
330
1F
100
AcDbEntity
  8
1
100
AcDbLine
 10
16.99000000000001
 20
-14.9420529999999
 30
0.0
 11
23.40999999999997
 21
-14.9420529999999
 31
0.0
  0
ARC
  5
21E61
330
1F
100
AcDbEntity
  8
1
100
AcDbCircle
 10
23.40999999999997
 20
-14.6999999999999
 30
0.0
 40
0.242053
100
AcDbArc
 50
270.0000009999998
 51
359.9999990000002
  0
LINE
  5
21E62
330
1F
100
AcDbEntity
  8
1
100
AcDbLine
 10
23.65205300000003
 20
-14.6999999999999
 30
0.0
 11
23.65205300000003
 21
-8.279999999999887
 31
0.0
  0
ARC
  5
21E63
330
1F
100
AcDbEntity
  8
1
100
AcDbCircle
 10
23.40999999999997
 20
-8.279999999999887
 30
0.0
 40
0.242053
100
AcDbArc
 50
0.0
 51
90.0
  0
LINE
  5
21E64
330
1F
100
AcDbEntity
  8
1
100
AcDbLine
 10
23.40999999999997
 20
-8.037947000000002
 30
0.0
 11
23.21000000000004
 21
-8.037947000000002
 31
0.0
  0
LINE
  5
21E65
330
1F
100
AcDbEntity
  8
1
100
AcDbLine
 10
23.40999999999997
 20
-8.037947000000002
 30
0.0
 11
23.40999999999997
 21
-7.479999999999904
 31
0.0
  0
LINE
  5
21E66
330
1F
100
AcDbEntity
  8
1
100
AcDbLine
 10
23.65205300000003
 20
-8.279999999999887
 30
0.0
 11
24.21000000000004
 21
-8.279999999999887
 31
0.0
  0
LINE
  5
21E67
330
1F
100
AcDbEntity
  8
1
100
AcDbLine
 10
23.65205300000003
 20
-14.6999999999999
 30
0.0
 11
24.21000000000004
 21
-14.6999999999999
 31
0.0
  0
LINE
  5
21E68
330
1F
100
AcDbEntity
  8
1
100
AcDbLine
 10
23.40999999999997
 20
-14.9420529999999
 30
0.0
 11
23.40999999999997
 21
-15.49999999999988
 31
0.0
  0
LINE
  5
21E69
330
1F
100
AcDbEntity
  8
1
100
AcDbLine
 10
16.99000000000001
 20
-14.9420529999999
 30
0.0
 11
16.99000000000001
 21
-15.49999999999988
 31
0.0
  0
LINE
  5
21E72
330
1F
100
AcDbEntity
  8
SKVIEW4
100
AcDbLine
 10
-46.40134253789088
 20
0.0
 30
0.0
 11
-86.05134453789089
 21
0.0
 31
0.0
  0
LINE
  5
21E73
330
1F
100
AcDbEntity
  8
SKVIEW4
100
AcDbLine
 10
-66.22634353789081
 20
19.8250010000001
 30
0.0
 11
-66.22634353789081
 21
-19.8250009999999
 31
0.0
  0
ARC
  5
21E74
330
1F
100
AcDbEntity
  8
SKVIEW1
100
AcDbCircle
 10
-66.22634353789081
 20
0.0
 30
0.0
 40
4.474999999999996
100
AcDbArc
 50
346.6789170000003
 51
357.4309889999993
  0
ARC
  5
21E75
330
1F
100
AcDbEntity
  8
SKVIEW1
100
AcDbCircle
 10
-71.30837053789088
 20
3.183003000000098
 30
0.0
 40
2.271552
100
AcDbArc
 50
288.6771509999997
 51
311.1424140000003
  0
ARC
  5
21E76
330
1F
100
AcDbEntity
  8
SKVIEW1
100
AcDbCircle
 10
-61.14431653789089
 20
-3.183003000000013
 30
0.0
 40
2.271552
100
AcDbArc
 50
108.6771509999997
 51
131.1424140000003
  0
LINE
  5
21E77
330
1F
100
AcDbEntity
  8
SKVIEW1
100
AcDbLine
 10
-60.75210553789088
 20
0.0913570000001016
 30
0.0
 11
-60.83776553789082
 21
0.0838620000000958
 31
0.0
  0
ARC
  5
21E78
330
1F
100
AcDbEntity
  8
SKVIEW1
100
AcDbCircle
 10
-60.63977553789081
 20
-2.178992999999906
 30
0.0
 40
2.271500999999999
100
AcDbArc
 50
95.00038800000004
 51
119.4283029999999
  0
SPLINE
  5
21E79
330
1F
100
AcDbEntity
  8
SKVIEW1
100
AcDbSpline
210
0.0
220
0.0
230
1.0
 70
     8
 71
     5
 72
    18
 73
    12
 74
     0
 42
0.000000001
 43
0.0000000001
 40
0.0
 40
0.0
 40
0.0
 40
0.0
 40
0.0
 40
0.0
 40
1.7491460157319
 40
1.7491460157319
 40
1.7491460157319
 40
3.411994413814785
 40
3.411994413814785
 40
3.411994413814785
 40
5.54628547375764
 40
5.54628547375764
 40
5.54628547375764
 40
5.54628547375764
 40
5.54628547375764
 40
5.54628547375764
 10
-62.53585489487822
 20
-0.6584529421903938
 30
0.0
 10
-62.4720236009602
 20
-0.4922808778759702
 30
0.0
 10
-62.39169641136019
 20
-0.3394743931279152
 30
0.0
 10
-62.298496059243
 20
-0.2068919047412976
 30
0.0
 10
-62.1013301720472
 20
0.0139804737079032
 30
0.0
 10
-61.88377963235399
 20
0.1673663778058199
 30
0.0
 10
-61.77484053247579
 20
0.2278344667170984
 30
0.0
 10
-61.52310394819699
 20
0.3361077401364696
 30
0.0
 10
-61.26919232521601
 20
0.3837502184439074
 30
0.0
 10
-61.1272267277933
 20
0.3942498103120044
 30
0.0
 10
-60.98752703231378
 20
0.3904471996106906
 30
0.0
 10
-60.85008948388128
 20
0.3737751814896626
 30
0.0
  0
ARC
  5
21E7A
330
1F
100
AcDbEntity
  8
SKVIEW1
100
AcDbCircle
 10
-60.68949353789088
 20
-1.371170000000006
 30
0.0
 40
1.979124999999999
100
AcDbArc
 50
158.8928279999996
 51
166.0288590000009
  0
SPLINE
  5
21E7B
330
1F
100
AcDbEntity
  8
SKVIEW1
100
AcDbSpline
210
0.0
220
0.0
230
1.0
 70
     8
 71
     5
 72
    12
 73
     6
 74
     0
 42
0.000000001
 43
0.0000000001
 40
0.0
 40
0.0
 40
0.0
 40
0.0
 40
0.0
 40
0.0
 40
1.693390277658501
 40
1.693390277658501
 40
1.693390277658501
 40
1.693390277658501
 40
1.693390277658501
 40
1.693390277658501
 10
-62.61005055070279
 20
-0.8933487338063912
 30
0.0
 10
-62.64750744270457
 20
-1.045014018537102
 30
0.0
 10
-62.66530130693829
 20
-1.186313360560205
 30
0.0
 10
-62.66499830438928
 20
-1.311312979983114
 30
0.0
 10
-62.6535872323243
 20
-1.408802776509332
 30
0.0
 10
-62.6372732445237
 20
-1.479326576890201
 30
0.0
  0
ARC
  5
21E7C
330
1F
100
AcDbEntity
  8
SKVIEW1
100
AcDbCircle
 10
-61.07530253789082
 20
-1.0952639999999
 30
0.0
 40
1.608828
100
AcDbArc
 50
193.8140389999992
 51
210.5731379999999
  0
ARC
  5
21E7D
330
1F
100
AcDbEntity
  8
SKVIEW1
100
AcDbCircle
 10
-66.22603753789082
 20
0.0000240000001099
 30
0.0
 40
5.388923999999997
100
AcDbArc
 50
0.8914159999992433
 51
3.976966000000542
  0
ARC
  5
21E7E
330
1F
100
AcDbEntity
  8
SKVIEW1
100
AcDbCircle
 10
-66.22634353789081
 20
0.0
 30
0.0
 40
4.474999999999996
100
AcDbArc
 50
166.6789170000003
 51
177.4309889999993
  0
SPLINE
  5
21E7F
330
1F
100
AcDbEntity
  8
SKVIEW1
100
AcDbSpline
210
0.0
220
0.0
230
1.0
 70
     8
 71
     5
 72
    18
 73
    12
 74
     0
 42
0.000000001
 43
0.0000000001
 40
0.0
 40
0.0
 40
0.0
 40
0.0
 40
0.0
 40
0.0
 40
1.749146015301884
 40
1.749146015301884
 40
1.749146015301884
 40
3.411994412645971
 40
3.411994412645971
 40
3.411994412645971
 40
5.546285471672987
 40
5.546285471672987
 40
5.546285471672987
 40
5.546285471672987
 40
5.546285471672987
 40
5.546285471672987
 10
-69.9168321809035
 20
0.6584529421905075
 30
0.0
 10
-69.98066347480571
 20
0.4922808779174091
 30
0.0
 10
-70.0609906643815
 20
0.3394743932036874
 30
0.0
 10
-70.1541910164718
 20
0.2068919048374767
 30
0.0
 10
-70.35135690358709
 20
-0.013980473562583
 30
0.0
 10
-70.56890744319531
 20
-0.1673663776545027
 30
0.0
 10
-70.67784654314971
 20
-0.2278344666466978
 30
0.0
 10
-70.92958312758572
 20
-0.3361077401538921
 30
0.0
 10
-71.18349475068439
 20
-0.3837502184730965
 30
0.0
 10
-71.3254603481092
 20
-0.3942498103089349
 30
0.0
 10
-71.46516004352688
 20
-0.3904471996033862
 30
0.0
 10
-71.6025975919004
 20
-0.3737751814894921
 30
0.0
  0
ARC
  5
21E80
330
1F
100
AcDbEntity
  8
SKVIEW1
100
AcDbCircle
 10
-71.7631935378908
 20
1.37117000000012
 30
0.0
 40
1.979124999999999
100
AcDbArc
 50
338.8928279999996
 51
346.0288589999993
  0
SPLINE
  5
21E81
330
1F
100
AcDbEntity
  8
SKVIEW1
100
AcDbSpline
210
0.0
220
0.0
230
1.0
 70
     8
 71
     5
 72
    12
 73
     6
 74
     0
 42
0.000000001
 43
0.0000000001
 40
0.0
 40
0.0
 40
0.0
 40
0.0
 40
0.0
 40
0.0
 40
1.693390277689869
 40
1.693390277689869
 40
1.693390277689869
 40
1.693390277689869
 40
1.693390277689869
 40
1.693390277689869
 10
-69.84263652507888
 20
0.8933487338066754
 30
0.0
 10
-69.8051796330771
 20
1.04501401853733
 30
0.0
 10
-69.78738576884421
 20
1.186313360557591
 30
0.0
 10
-69.78768877139112
 20
1.311312979969017
 30
0.0
 10
-69.79909984345701
 20
1.408802776507968
 30
0.0
 10
-69.81541383125801
 20
1.479326576890315
 30
0.0
  0
ARC
  5
21E82
330
1F
100
AcDbEntity
  8
SKVIEW1
100
AcDbCircle
 10
-71.37738453789089
 20
1.095264000000099
 30
0.0
 40
1.608828
100
AcDbArc
 50
13.81403899999926
 51
30.5731380000002
  0
ARC
  5
21E83
330
1F
100
AcDbEntity
  8
SKVIEW1
100
AcDbCircle
 10
-71.81291153789081
 20
2.178993000000104
 30
0.0
 40
2.271500999999999
100
AcDbArc
 50
275.000388
 51
299.4283029999999
  0
ARC
  5
21E84
330
1F
100
AcDbEntity
  8
SKVIEW1
100
AcDbCircle
 10
-66.22664953789089
 20
-0.0000239999998826
 30
0.0
 40
5.388923999999997
100
AcDbArc
 50
180.8914159999992
 51
183.9769660000005
  0
LINE
  5
21E85
330
1F
100
AcDbEntity
  8
SKVIEW1
100
AcDbLine
 10
-70.49751653789082
 20
2.72474000000011
 30
0.0
 11
-70.65533353789089
 21
3.121427000000096
 31
0.0
  0
ARC
  5
21E86
330
1F
100
AcDbEntity
  8
SKVIEW1
100
AcDbCircle
 10
20.3011364621093
 20
39.69128200000012
 30
0.0
 40
98.032795
100
AcDbArc
 50
199.8436949999998
 51
201.9030300000014
  0
ARC
  5
21E87
330
1F
100
AcDbEntity
  8
SKVIEW1
100
AcDbCircle
 10
-58.59877253789088
 20
7.105557000000118
 30
0.0
 40
13.32987
100
AcDbArc
 50
180.8853179999996
 51
182.975874
  0
ARC
  5
21E88
330
1F
100
AcDbEntity
  8
SKVIEW1
100
AcDbCircle
 10
-82.27944253789088
 20
-5.186340999999885
 30
0.0
 40
14.191418
100
AcDbArc
 50
30.02058000000013
 51
33.87974499999881
  0
LINE
  5
21E89
330
1F
100
AcDbEntity
  8
SKVIEW1
100
AcDbLine
 10
-61.95517053789089
 20
-2.724739999999883
 30
0.0
 11
-61.79735353789081
 21
-3.121427000000011
 31
0.0
  0
ARC
  5
21E8A
330
1F
100
AcDbEntity
  8
SKVIEW1
100
AcDbCircle
 10
-152.7839965378907
 20
-39.702336
 30
0.0
 40
98.064923
100
AcDbArc
 50
19.84378499999983
 51
21.9024460000007
  0
ARC
  5
21E8B
330
1F
100
AcDbEntity
  8
SKVIEW1
100
AcDbCircle
 10
-73.85329153789086
 20
-7.105535999999887
 30
0.0
 40
13.329247
100
AcDbArc
 50
0.8852699999998691
 51
2.975922999999821
  0
ARC
  5
21E8C
330
1F
100
AcDbEntity
  8
SKVIEW1
100
AcDbCircle
 10
-50.1732445378909
 20
5.186341000000112
 30
0.0
 40
14.191418
100
AcDbArc
 50
210.0205800000001
 51
213.8797449999988
  0
ARC
  5
21E8D
330
1F
100
AcDbEntity
  8
SKVIEW1
100
AcDbCircle
 10
-66.22634353789081
 20
0.0
 30
0.0
 40
5.474999999999997
100
AcDbArc
 50
0.956088999999841
 51
63.45616399999946
  0
LINE
  5
21E8E
330
1F
100
AcDbEntity
  8
SKVIEW1
100
AcDbLine
 10
-60.85008953789079
 20
0.3737749999999949
 30
0.0
 11
-60.76337853789081
 21
0.3628789999999924
 31
0.0
  0
LINE
  5
21E8F
330
1F
100
AcDbEntity
  8
SKVIEW1
100
AcDbLine
 10
-66.22634353789081
 20
8.570000000000106
 30
0.0
 11
-66.22634353789081
 21
8.950000000000102
 31
0.0
  0
LINE
  5
21E90
330
1F
100
AcDbEntity
  8
SKVIEW1
100
AcDbLine
 10
-66.22634353789081
 20
6.246946000000093
 30
0.0
 11
-66.22634353789081
 21
8.570000000000106
 31
0.0
  0
ARC
  5
21E91
330
1F
100
AcDbEntity
  8
SKVIEW1
100
AcDbCircle
 10
-65.92634353789089
 20
5.914897000000109
 30
0.0
 40
0.4475
100
AcDbArc
 50
132.0972539999995
 51
267.0964809999992
  0
ARC
  5
21E92
330
1F
100
AcDbEntity
  8
SKVIEW1
100
AcDbCircle
 10
-66.22634353789081
 20
0.0
 30
0.0
 40
5.474999999999997
100
AcDbArc
 50
63.45617299999952
 51
87.09648099999929
  0
LINE
  5
21E93
330
1F
100
AcDbEntity
  8
SKVIEW1
100
AcDbLine
 10
-65.85122953789081
 20
0.229898999999989
 30
0.0
 11
-62.53585453789089
 21
-0.6584530000000087
 31
0.0
  0
LINE
  5
21E94
330
1F
100
AcDbEntity
  8
SKVIEW1
100
AcDbLine
 10
-63.79486953789089
 20
4.842230000000114
 30
0.0
 11
-63.7796635378908
 21
4.897896000000116
 31
0.0
  0
ARC
  5
21E95
330
1F
100
AcDbEntity
  8
SKVIEW1
100
AcDbCircle
 10
-68.31649753789079
 20
6.057957000000101
 30
0.0
 40
4.682020999999997
100
AcDbArc
 50
335.2680729999998
 51
344.9508310000007
  0
LINE
  5
21E96
330
1F
100
AcDbEntity
  8
SKVIEW1
100
AcDbLine
 10
-64.51751453789089
 20
3.127990000000096
 30
0.0
 11
-64.06411953789086
 21
4.099209999999999
 31
0.0
  0
SPLINE
  5
21E97
330
1F
100
AcDbEntity
  8
SKVIEW1
100
AcDbSpline
210
0.0
220
0.0
230
1.0
 70
     8
 71
     5
 72
    27
 73
    21
 74
     0
 42
0.000000001
 43
0.0000000001
 40
0.0
 40
0.0
 40
0.0
 40
0.0
 40
0.0
 40
0.0
 40
15.88662644506499
 40
15.88662644506499
 40
15.88662644506499
 40
31.76294590163696
 40
31.76294590163696
 40
31.76294590163696
 40
42.40961309674996
 40
42.40961309674996
 40
42.40961309674996
 40
48.72016429884133
 40
48.72016429884133
 40
48.72016429884133
 40
52.36639570085449
 40
52.36639570085449
 40
52.36639570085449
 40
53.21656944479997
 40
53.21656944479997
 40
53.21656944479997
 40
53.21656944479997
 40
53.21656944479997
 40
53.21656944479997
 10
-65.85122922054807
 20
0.2298989309804824
 30
0.0
 10
-65.84252212106679
 20
0.2516276727386639
 30
0.0
 10
-65.83261775711529
 20
0.2758390042814938
 30
0.0
 10
-65.82116175681921
 20
0.3032778602789961
 30
0.0
 10
-65.7943495566538
 20
0.3663919738694972
 30
0.0
 10
-65.75521880811419
 20
0.4556607244847158
 30
0.0
 10
-65.7323668254383
 20
0.5072090458764081
 30
0.0
 10
-65.68362657166398
 20
0.6158491590204847
 30
0.0
 10
-65.6005174459948
 20
0.7980314299994121
 30
0.0
 10
-65.56011861730429
 20
0.8860585306083237
 30
0.0
 10
-65.47823423355172
 20
1.064012307159003
 30
0.0
 10
-65.33620500866081
 20
1.3705464199424
 30
0.0
 10
-65.2713733588788
 20
1.510192033890973
 30
0.0
 10
-65.1441598014176
 20
1.783917438090895
 30
0.0
 10
-64.94837296210821
 20
2.204201522713191
 30
0.0
 10
-64.86059833003071
 20
2.392553679108914
 30
0.0
 10
-64.74059019602259
 20
2.649873577124708
 30
0.0
 10
-64.60084058905437
 20
2.949418570920897
 30
0.0
 10
-64.5737238927631
 20
3.007537899715003
 30
0.0
 10
-64.5459535306012
 20
3.067050068766519
 30
0.0
 10
-64.51751495892631
 20
3.12798973230582
 30
0.0
  0
LINE
  5
21E98
330
1F
100
AcDbEntity
  8
SKVIEW1
100
AcDbLine
 10
-65.17508253789086
 20
-0.7993229999999017
 30
0.0
 11
-62.63727353789082
 21
-1.479326999999898
 31
0.0
  0
SPLINE
  5
21E99
330
1F
100
AcDbEntity
  8
SKVIEW1
100
AcDbSpline
210
0.0
220
0.0
230
1.0
 70
     8
 71
     5
 72
    60
 73
    54
 74
     0
 42
0.000000001
 43
0.0000000001
 40
0.0
 40
0.0
 40
0.0
 40
0.0
 40
0.0
 40
0.0
 40
24.726579666182
 40
24.726579666182
 40
24.726579666182
 40
61.81593264955818
 40
61.81593264955818
 40
61.81593264955818
 40
86.54219119921277
 40
86.54219119921277
 40
86.54219119921277
 40
98.9054104582912
 40
98.9054104582912
 40
98.9054104582912
 40
111.4054844024336
 40
111.4054844024336
 40
111.4054844024336
 40
116.9008788209065
 40
116.9008788209065
 40
116.9008788209065
 40
120.2756624386518
 40
120.2756624386518
 40
120.2756624386518
 40
121.1881522431042
 40
121.1881522431042
 40
121.1881522431042
 40
122.1275706381133
 40
122.1275706381133
 40
122.1275706381133
 40
122.3818193067793
 40
122.3818193067793
 40
122.3818193067793
 40
122.466667543911
 40
122.466667543911
 40
122.466667543911
 40
122.5517791855256
 40
122.5517791855256
 40
122.5517791855256
 40
122.6368908271402
 40
122.6368908271402
 40
122.6368908271402
 40
122.7220861862781
 40
122.7220861862781
 40
122.7220861862781
 40
122.8072815454158
 40
122.8072815454158
 40
122.8072815454158
 40
123.2058653582145
 40
123.2058653582145
 40
123.2058653582145
 40
124.0801494976153
 40
124.0801494976153
 40
124.0801494976153
 40
124.0801494976153
 40
124.0801494976153
 40
124.0801494976153
 10
-65.85122922054807
 20
0.2298989309804824
 30
0.0
 10
-65.8647826242821
 20
0.1960761395538952
 30
0.0
 10
-65.8720204391727
 20
0.1703612051468326
 30
0.0
 10
-65.87731908941231
 20
0.1480870553864975
 30
0.0
 10
-65.8865635023667
 20
0.0961827843499919
 30
0.0
 10
-65.8875904472122
 20
0.052900743711092
 30
0.0
 10
-65.88623703964282
 20
0.0282689567406749
 30
0.0
 10
-65.880675679799
 20
-0.0133290299536952
 30
0.0
 10
-65.86870547171452
 20
-0.0588185343671057
 30
0.0
 10
-65.8627681260121
 20
-0.0779868335106642
 30
0.0
 10
-65.851594105652
 20
-0.1093261670959293
 30
0.0
 10
-65.83410820604831
 20
-0.1478782971578312
 30
0.0
 10
-65.8273522741714
 20
-0.1617952004793892
 30
0.0
 10
-65.81209200412359
 20
-0.1913408928583919
 30
0.0
 10
-65.7911070653582
 20
-0.2273204166247922
 30
0.0
 10
-65.77905381985039
 20
-0.2468297971167033
 30
0.0
 10
-65.75678269310611
 20
-0.2811641631292048
 30
0.0
 10
-65.72110878384439
 20
-0.3291077443305994
 30
0.0
 10
-65.70855427070231
 20
-0.3454044426628116
 30
0.0
 10
-65.68506380039679
 20
-0.3748933999202109
 30
0.0
 10
-65.65067640474319
 20
-0.4144519684623163
 30
0.0
 10
-65.63880199889718
 20
-0.4275851547668879
 30
0.0
 10
-65.61920146023428
 20
-0.4490595309549122
 30
0.0
 10
-65.58935683972939
 20
-0.4794916843530075
 30
0.0
 10
-65.58238957294569
 20
-0.4865084460734295
 30
0.0
 10
-65.56657017853757
 20
-0.5022077014073148
 30
0.0
 10
-65.54614706759551
 20
-0.5217580224202152
 30
0.0
 10
-65.53551761919209
 20
-0.5316573502275901
 30
0.0
 10
-65.51928150733028
 20
-0.5468038823584039
 30
0.0
 10
-65.4932206764486
 20
-0.5697547030987949
 30
0.0
 10
-65.4870646519407
 20
-0.5751229790703292
 30
0.0
 10
-65.47800295962952
 20
-0.582956184674913
 30
0.0
 10
-65.4664129453601
 20
-0.5927671298088911
 30
0.0
 10
-65.46282625448978
 20
-0.5958043631286785
 30
0.0
 10
-65.45349527360759
 20
-0.6036591892338948
 30
0.0
 10
-65.4411286209903
 20
-0.6138781974345875
 30
0.0
 10
-65.4343453718341
 20
-0.6194176845174014
 30
0.0
 10
-65.4202153256015
 20
-0.6307787700500854
 30
0.0
 10
-65.40538384457031
 20
-0.6423569732559998
 30
0.0
 10
-65.3980768373475
 20
-0.6479466097910631
 30
0.0
 10
-65.38246542594788
 20
-0.659961734824492
 30
0.0
 10
-65.37011309892012
 20
-0.6692877105652997
 30
0.0
 10
-65.36582485980599
 20
-0.6724007351689352
 30
0.0
 10
-65.35668029016611
 20
-0.6791325437910132
 30
0.0
 10
-65.34815061165989
 20
-0.6853801195390759
 30
0.0
 10
-65.34436662717351
 20
-0.6881111600961845
 30
0.0
 10
-65.3232923574798
 20
-0.7033000821173232
 30
0.0
 10
-65.30706004119321
 20
-0.7145776187938111
 30
0.0
 10
-65.2971569347466
 20
-0.7214197409628014
 30
0.0
 10
-65.25996920435341
 20
-0.7465807594841181
 30
0.0
 10
-65.23035642360236
 20
-0.765488322165794
 30
0.0
 10
-65.21058381408559
 20
-0.7779201421728317
 30
0.0
 10
-65.19241605942929
 20
-0.7889953248659936
 30
0.0
 10
-65.17508240134879
 20
-0.7993226627795025
 30
0.0
  0
LINE
  5
21E9A
330
1F
100
AcDbEntity
  8
SKVIEW1
100
AcDbLine
 10
-62.32219853789081
 20
-2.497275999999885
 30
0.0
 11
-65.17508253789086
 21
-0.7993229999999017
 31
0.0
  0
ARC
  5
21E9B
330
1F
100
AcDbEntity
  8
SKVIEW1
100
AcDbCircle
 10
-68.59377053789089
 20
-13.0255149999999
 30
0.0
 40
12.254661
100
AcDbArc
 50
57.1992000000008
 51
59.21814500000001
  0
LINE
  5
21E9C
330
1F
100
AcDbEntity
  8
SKVIEW1
100
AcDbLine
 10
-71.70058153789085
 20
-0.0913569999999027
 30
0.0
 11
-71.61492153789089
 21
-0.0838620000000106
 31
0.0
  0
LINE
  5
21E9D
330
1F
100
AcDbEntity
  8
SKVIEW1
100
AcDbLine
 10
-69.91683253789088
 20
0.6584530000000939
 30
0.0
 11
-66.60145753789089
 21
-0.2298989999999037
 31
0.0
  0
LINE
  5
21E9E
330
1F
100
AcDbEntity
  8
SKVIEW1
100
AcDbLine
 10
-71.6025975378908
 20
-0.3737749999999949
 30
0.0
 11
-71.68930853789089
 21
-0.3628789999999071
 31
0.0
  0
ARC
  5
21E9F
330
1F
100
AcDbEntity
  8
SKVIEW1
100
AcDbCircle
 10
-66.22634353789081
 20
0.0
 30
0.0
 40
5.474999999999997
100
AcDbArc
 50
180.9560889999998
 51
267.0964709999994
  0
LINE
  5
21EA0
330
1F
100
AcDbEntity
  8
SKVIEW1
100
AcDbLine
 10
-68.65781753789079
 20
-4.84223
 30
0.0
 11
-68.6730235378908
 21
-4.897895999999889
 31
0.0
  0
ARC
  5
21EA1
330
1F
100
AcDbEntity
  8
SKVIEW1
100
AcDbCircle
 10
-64.13618953789089
 20
-6.057956999999902
 30
0.0
 40
4.682020999999997
100
AcDbArc
 50
155.2680729999998
 51
164.9508310000006
  0
LINE
  5
21EA2
330
1F
100
AcDbEntity
  8
SKVIEW1
100
AcDbLine
 10
-67.93517253789087
 20
-3.127990000000011
 30
0.0
 11
-68.38856753789079
 21
-4.099209999999999
 31
0.0
  0
SPLINE
  5
21EA3
330
1F
100
AcDbEntity
  8
SKVIEW1
100
AcDbSpline
210
0.0
220
0.0
230
1.0
 70
     8
 71
     5
 72
    27
 73
    21
 74
     0
 42
0.000000001
 43
0.0000000001
 40
0.0
 40
0.0
 40
0.0
 40
0.0
 40
0.0
 40
0.0
 40
15.88662644530217
 40
15.88662644530217
 40
15.88662644530217
 40
31.76294590216445
 40
31.76294590216445
 40
31.76294590216445
 40
42.40961309635949
 40
42.40961309635949
 40
42.40961309635949
 40
48.72016430006831
 40
48.72016430006831
 40
48.72016430006831
 40
52.36639570363088
 40
52.36639570363088
 40
52.36639570363088
 40
53.21656944784893
 40
53.21656944784893
 40
53.21656944784893
 40
53.21656944784893
 40
53.21656944784893
 40
53.21656944784893
 10
-66.60145785523361
 20
-0.2298989309804256
 30
0.0
 10
-66.61016495471528
 20
-0.251627672739005
 30
0.0
 10
-66.6200693186666
 20
-0.2758390042818917
 30
0.0
 10
-66.63152531896327
 20
-0.303277860279394
 30
0.0
 10
-66.65833751912749
 20
-0.366391973871913
 30
0.0
 10
-66.6974682676682
 20
-0.4556607244873021
 30
0.0
 10
-66.720320250333
 20
-0.5072090458556886
 30
0.0
 10
-66.76906050409832
 20
-0.6158491589783921
 30
0.0
 10
-66.85216962975721
 20
-0.7980314299374811
 30
0.0
 10
-66.89256845845028
 20
-0.886058530548496
 30
0.0
 10
-66.97445284222647
 20
-1.064012307153319
 30
0.0
 10
-67.11648206711899
 20
-1.370546419937483
 30
0.0
 10
-67.18131371682727
 20
-1.510192033730589
 30
0.0
 10
-67.30852727430371
 20
-1.783917437958194
 30
0.0
 10
-67.50431411363789
 20
-2.204201522650606
 30
0.0
 10
-67.59208874563978
 20
-2.392553678866391
 30
0.0
 10
-67.71209687966788
 20
-2.649873576933686
 30
0.0
 10
-67.8518464866772
 20
-2.949418570824889
 30
0.0
 10
-67.87896318297601
 20
-3.007537899635593
 30
0.0
 10
-67.90673354515011
 20
-3.067050068711182
 30
0.0
 10
-67.93517211684656
 20
-3.127989732289904
 30
0.0
  0
SPLINE
  5
21EA4
330
1F
100
AcDbEntity
  8
SKVIEW1
100
AcDbSpline
210
0.0
220
0.0
230
1.0
 70
     8
 71
     5
 72
    60
 73
    54
 74
     0
 42
0.000000001
 43
0.0000000001
 40
0.0
 40
0.0
 40
0.0
 40
0.0
 40
0.0
 40
0.0
 40
24.72657966788358
 40
24.72657966788358
 40
24.72657966788358
 40
61.815932653812
 40
61.815932653812
 40
61.815932653812
 40
86.5421912051682
 40
86.5421912051682
 40
86.5421912051682
 40
98.9054104650976
 40
98.9054104650976
 40
98.9054104650976
 40
111.4054844090764
 40
111.4054844090764
 40
111.4054844090764
 40
116.9008788279325
 40
116.9008788279325
 40
116.9008788279325
 40
120.2756624898033
 40
120.2756624898033
 40
120.2756624898033
 40
121.1881523226394
 40
121.1881523226394
 40
121.1881523226394
 40
122.1275707450402
 40
122.1275707450402
 40
122.1275707450402
 40
122.3818194053537
 40
122.3818194053537
 40
122.3818194053537
 40
122.4666676398036
 40
122.4666676398036
 40
122.4666676398036
 40
122.551779278679
 40
122.551779278679
 40
122.551779278679
 40
122.6368909175545
 40
122.6368909175545
 40
122.6368909175545
 40
122.7220862739285
 40
122.7220862739285
 40
122.7220862739285
 40
122.8072816303026
 40
122.8072816303026
 40
122.8072816303026
 40
123.2058654591523
 40
123.2058654591523
 40
123.2058654591523
 40
124.0801495589323
 40
124.0801495589323
 40
124.0801495589323
 40
124.0801495589323
 40
124.0801495589323
 40
124.0801495589323
 10
-66.60145785523361
 20
-0.2298989309804256
 30
0.0
 10
-66.5879044514987
 20
-0.1960761395515078
 30
0.0
 10
-66.58066663660921
 20
-0.170361205144701
 30
0.0
 10
-66.5753679863661
 20
-0.148087055369075
 30
0.0
 10
-66.56612357341211
 20
-0.0961827843300967
 30
0.0
 10
-66.5650966285711
 20
-0.0529007436931011
 30
0.0
 10
-66.5664500361421
 20
-0.0282689567186765
 30
0.0
 10
-66.5720113959859
 20
0.0133290299769158
 30
0.0
 10
-66.58398160407711
 20
0.0588185343986822
 30
0.0
 10
-66.58991894978112
 20
0.0779868335501135
 30
0.0
 10
-66.6010929701498
 20
0.109326167144701
 30
0.0
 10
-66.6185788697633
 20
0.1478782972201031
 30
0.0
 10
-66.6253348016422
 20
0.1617952005393022
 30
0.0
 10
-66.64059507174551
 20
0.1913408929960951
 30
0.0
 10
-66.66158001060321
 20
0.2273204169069345
 30
0.0
 10
-66.67363325616077
 20
0.2468297974779148
 30
0.0
 10
-66.6959043829672
 20
0.2811641635575768
 30
0.0
 10
-66.73157829237237
 20
0.3291077449041779
 30
0.0
 10
-66.74413280557499
 20
0.3454044432958199
 30
0.0
 10
-66.7676232761128
 20
0.3748934008121694
 30
0.0
 10
-66.80201067224459
 20
0.4144519698319869
 30
0.0
 10
-66.81388507754238
 20
0.4275851554743895
 30
0.0
 10
-66.8334856155696
 20
0.4490595310126082
 30
0.0
 10
-66.86333023598177
 20
0.4794916842966757
 30
0.0
 10
-66.87029750290349
 20
0.4865084461505092
 30
0.0
 10
-66.8861168977686
 20
0.5022077019280289
 30
0.0
 10
-66.9065400095713
 20
0.5217580237388973
 30
0.0
 10
-66.917169458638
 20
0.5316573521329815
 30
0.0
 10
-66.9334055708988
 20
0.5468038846276784
 30
0.0
 10
-66.9594664037595
 20
0.5697547069729297
 30
0.0
 10
-66.96562242845868
 20
0.5751229830798934
 30
0.0
 10
-66.974684121108
 20
0.5829561889277955
 30
0.0
 10
-66.98627413610359
 20
0.592767134604685
 30
0.0
 10
-66.98986082894939
 20
0.5958043695968059
 30
0.0
 10
-66.99919181223902
 20
0.6036591976398143
 30
0.0
 10
-67.01155846627378
 20
0.6138782068433955
 30
0.0
 10
-67.01834171578131
 20
0.6194176941091883
 30
0.0
 10
-67.03247176234981
 20
0.6307787796834817
 30
0.0
 10
-67.04730324305137
 20
0.6423569824138156
 30
0.0
 10
-67.05461025059799
 20
0.6479466191615871
 30
0.0
 10
-67.07022166085059
 20
0.6599617432636933
 30
0.0
 10
-67.0825739842272
 20
0.6692877160325282
 30
0.0
 10
-67.08686222186739
 20
0.6724007394634839
 30
0.0
 10
-67.0960067919373
 20
0.6791325484835796
 30
0.0
 10
-67.10453646878779
 20
0.6853801228988062
 30
0.0
 10
-67.10832045324488
 20
0.6881111634492072
 30
0.0
 10
-67.12939472256872
 20
0.7033000851218958
 30
0.0
 10
-67.1456270389925
 20
0.7145776218559945
 30
0.0
 10
-67.15553014619209
 20
0.7214197444954209
 30
0.0
 10
-67.19271787478118
 20
0.7465807616366931
 30
0.0
 10
-67.22233065486111
 20
0.7654883238519972
 30
0.0
 10
-67.24210326334051
 20
0.7779201431748959
 30
0.0
 10
-67.2602710171366
 20
0.7889953253331044
 30
0.0
 10
-67.27760467443281
 20
0.7993226627796162
 30
0.0
  0
LINE
  5
21EA5
330
1F
100
AcDbEntity
  8
SKVIEW1
100
AcDbLine
 10
-67.2776045378908
 20
0.7993229999999869
 30
0.0
 11
-69.81541353789089
 21
1.479327000000097
 31
0.0
  0
LINE
  5
21EA6
330
1F
100
AcDbEntity
  8
SKVIEW1
100
AcDbLine
 10
-70.13048853789081
 20
2.497276000000113
 30
0.0
 11
-67.2776045378908
 21
0.7993229999999869
 31
0.0
  0
ARC
  5
21EA7
330
1F
100
AcDbEntity
  8
SKVIEW1
100
AcDbCircle
 10
-63.85891653789082
 20
13.02551499999998
 30
0.0
 40
12.254661
100
AcDbArc
 50
237.1992000000008
 51
239.218145
  0
ARC
  5
21EA8
330
1F
100
AcDbEntity
  8
SKVIEW1
100
AcDbCircle
 10
-66.22634353789081
 20
0.0
 30
0.0
 40
5.418417999999999
100
AcDbArc
 50
63.33697900000049
 51
144.8249060000005
  0
ARC
  5
21EA9
330
1F
100
AcDbEntity
  8
SKVIEW1
100
AcDbCircle
 10
-66.22634353789081
 20
0.0
 30
0.0
 40
4.634515
100
AcDbArc
 50
62.18954200000069
 51
147.3950929999991
  0
ARC
  5
21EAA
330
1F
100
AcDbEntity
  8
SKVIEW1
100
AcDbCircle
 10
-66.22634353789081
 20
0.0
 30
0.0
 40
8.57
100
AcDbArc
 50
90.0
 51
131.5506240000005
  0
ARC
  5
21EAB
330
1F
100
AcDbEntity
  8
SKVIEW1
100
AcDbCircle
 10
-66.22634353789081
 20
0.0
 30
0.0
 40
8.949999999999997
100
AcDbArc
 50
90.0
 51
129.5648169999999
  0
ARC
  5
21EAC
330
1F
100
AcDbEntity
  8
SKVIEW1
100
AcDbCircle
 10
-66.22634353789081
 20
0.0
 30
0.0
 40
4.634515
100
AcDbArc
 50
242.1895420000007
 51
327.3950929999998
  0
ARC
  5
21EAD
330
1F
100
AcDbEntity
  8
SKVIEW1
100
AcDbCircle
 10
-66.22634353789081
 20
0.0
 30
0.0
 40
5.418417999999999
100
AcDbArc
 50
243.3369790000005
 51
324.8249060000005
  0
ARC
  5
21EAE
330
1F
100
AcDbEntity
  8
SKVIEW1
100
AcDbCircle
 10
-66.52634353789079
 20
-5.914896999999882
 30
0.0
 40
0.4475
100
AcDbArc
 50
312.0972539999996
 51
87.09648099999929
  0
LINE
  5
21EAF
330
1F
100
AcDbEntity
  8
SKVIEW1
100
AcDbLine
 10
-66.22634353789081
 20
-8.569999999999879
 30
0.0
 11
-66.22634353789081
 21
-6.246946000000008
 31
0.0
  0
ARC
  5
21EB0
330
1F
100
AcDbEntity
  8
SKVIEW1
100
AcDbCircle
 10
-66.22634353789081
 20
0.0
 30
0.0
 40
8.57
100
AcDbArc
 50
270.0
 51
311.5506240000005
  0
ARC
  5
21EB1
330
1F
100
AcDbEntity
  8
SKVIEW1
100
AcDbCircle
 10
-66.22634353789081
 20
0.0
 30
0.0
 40
8.949999999999997
100
AcDbArc
 50
270.0
 51
309.564817
  0
LINE
  5
21EB2
330
1F
100
AcDbEntity
  8
SKVIEW1
100
AcDbLine
 10
-66.22634353789081
 20
-8.569999999999879
 30
0.0
 11
-66.22634353789081
 21
-8.949999999999903
 31
0.0
  0
ARC
  5
21EB3
330
1F
100
AcDbEntity
  8
SKVIEW1
100
AcDbCircle
 10
-66.22634353789081
 20
0.0
 30
0.0
 40
5.474999999999997
100
AcDbArc
 50
9.192931999999448
 51
87.11033300000057
  0
LINE
  5
21EB4
330
1F
100
AcDbEntity
  8
SKVIEW1
100
AcDbLine
 10
-57.97365853789088
 20
-2.773061999999896
 30
0.0
 11
-57.97365853789088
 21
1.164321000000114
 31
0.0
  0
ARC
  5
21EB5
330
1F
100
AcDbEntity
  8
SKVIEW1
100
AcDbCircle
 10
-59.61130553789081
 20
-2.347631000000006
 30
0.0
 40
3.875007
100
AcDbArc
 50
65.00004800000024
 51
109.5629729999995
  0
ARC
  5
21EB6
330
1F
100
AcDbEntity
  8
SKVIEW1
100
AcDbCircle
 10
-66.22634353789081
 20
0.0
 30
0.0
 40
4.474999999999996
100
AcDbArc
 50
353.3692949999996
 51
357.4299840000001
  0
LINE
  5
21EB7
330
1F
100
AcDbEntity
  8
SKVIEW1
100
AcDbLine
 10
-62.01026353789089
 20
-2.641848999999893
 30
0.0
 11
-62.01026353789089
 21
-1.082997000000005
 31
0.0
  0
ARC
  5
21EB8
330
1F
100
AcDbEntity
  8
SKVIEW1
100
AcDbCircle
 10
-59.91738153789089
 20
-12.71128899999988
 30
0.0
 40
9.987284999999998
100
AcDbArc
 50
90.79583400000041
 51
101.323052
  0
ARC
  5
21EB9
330
1F
100
AcDbEntity
  8
SKVIEW1
100
AcDbCircle
 10
-59.61134253789089
 20
-6.576695
 30
0.0
 40
3.878301999999998
100
AcDbArc
 50
82.37341399999991
 51
96.58602599999966
  0
SPLINE
  5
21EBA
330
1F
100
AcDbEntity
  8
SKVIEW1
100
AcDbSpline
210
0.0
220
0.0
230
1.0
 70
     8
 71
     5
 72
    12
 73
     6
 74
     0
 42
0.000000001
 43
0.0000000001
 40
0.0
 40
0.0
 40
0.0
 40
0.0
 40
0.0
 40
0.0
 40
2.537083640969074
 40
2.537083640969074
 40
2.537083640969074
 40
2.537083640969074
 40
2.537083640969074
 40
2.537083640969074
 10
-57.97370443908301
 20
-2.773320110799289
 30
0.0
 10
-58.14357213910671
 20
-2.770927431697714
 30
0.0
 10
-58.33583495333872
 20
-2.764885766582494
 30
0.0
 10
-58.56316804794298
 20
-2.754062424234888
 30
0.0
 10
-58.81887471028719
 20
-2.7420642517543
 30
0.0
 10
-59.09661125364078
 20
-2.732703545528011
 30
0.0
  0
LINE
  5
21EBB
330
1F
100
AcDbEntity
  8
SKVIEW1
100
AcDbLine
 10
-66.22634353789081
 20
5.582793000000094
 30
0.0
 11
-66.22634353789081
 21
7.480000000000103
 31
0.0
  0
LINE
  5
21EBC
330
1F
100
AcDbEntity
  8
SKVIEW1
100
AcDbLine
 10
-57.97365853789088
 20
1.164321000000114
 30
0.0
 11
-51.11272853789088
 21
-2.034982999999897
 31
0.0
  0
ARC
  5
21EBD
330
1F
100
AcDbEntity
  8
SKVIEW1
100
AcDbCircle
 10
-66.22634353789081
 20
0.0
 30
0.0
 40
15.25
100
AcDbArc
 50
337.6803169999994
 51
74.91048200000053
  0
LINE
  5
21EBE
330
1F
100
AcDbEntity
  8
SKVIEW1
100
AcDbLine
 10
-62.25634353789081
 20
7.480000000000103
 30
0.0
 11
-62.25634353789081
 21
14.72418400000009
 31
0.0
  0
LINE
  5
21EBF
330
1F
100
AcDbEntity
  8
SKVIEW1
100
AcDbLine
 10
-62.25634353789081
 20
7.480000000000103
 30
0.0
 11
-66.22634353789081
 21
7.480000000000103
 31
0.0
  0
CIRCLE
  5
21EC0
330
1F
100
AcDbEntity
  8
SKVIEW1
100
AcDbCircle
 10
-55.4876285378908
 20
6.200000000000102
 30
0.0
 40
1.55
  0
SPLINE
  5
21EC1
330
1F
100
AcDbEntity
  8
SKVIEW1
100
AcDbSpline
210
0.0
220
0.0
230
1.0
 70
     8
 71
     5
 72
    33
 73
    27
 74
     0
 42
0.000000001
 43
0.0000000001
 40
0.0
 40
0.0
 40
0.0
 40
0.0
 40
0.0
 40
0.0
 40
2.593705408650408
 40
2.593705408650408
 40
2.593705408650408
 40
3.909441033933563
 40
3.909441033933563
 40
3.909441033933563
 40
5.247318758452014
 40
5.247318758452014
 40
5.247318758452014
 40
5.958320824301535
 40
5.958320824301535
 40
5.958320824301535
 40
6.669322890151057
 40
6.669322890151057
 40
6.669322890151057
 40
7.66851502217015
 40
7.66851502217015
 40
7.66851502217015
 40
10.37218160388905
 40
10.37218160388905
 40
10.37218160388905
 40
13.33664156034638
 40
13.33664156034638
 40
13.33664156034638
 40
13.33664156034638
 40
13.33664156034638
 40
13.33664156034638
 10
-57.97370443909262
 20
-2.773320110797584
 30
0.0
 10
-57.80222491528269
 20
-2.775735493316005
 30
0.0
 10
-57.62719629907881
 20
-2.781614460601701
 30
0.0
 10
-57.45063324171638
 20
-2.791491179523006
 30
0.0
 10
-57.17542807110922
 20
-2.813405883099903
 30
0.0
 10
-56.87988963576171
 20
-2.851241524119615
 30
0.0
 10
-56.77766554850951
 20
-2.866097305448306
 30
0.0
 10
-56.56608593640419
 20
-2.900990068060423
 30
0.0
 10
-56.34080961229199
 20
-2.948468595876306
 30
0.0
 10
-56.21923210411171
 20
-2.97724965642368
 30
0.0
 10
-56.03058984576731
 20
-3.027749471784687
 30
0.0
 10
-55.82880358786599
 20
-3.093725635518808
 30
0.0
 10
-55.75716861496511
 20
-3.118710730164508
 30
0.0
 10
-55.61104809007122
 20
-3.173397898905506
 30
0.0
 10
-55.4615238163203
 20
-3.237626344428122
 30
0.0
 10
-55.38641024635879
 20
-3.272188411172606
 30
0.0
 10
-55.20758689314181
 20
-3.3604799942905
 30
0.0
 10
-55.03873198640289
 20
-3.458152144026996
 30
0.0
 10
-54.94447908862909
 20
-3.518069598799002
 30
0.0
 10
-54.62692816886209
 20
-3.736845345820029
 30
0.0
 10
-54.39921697526159
 20
-3.947938846104705
 30
0.0
 10
-54.26113233495698
 20
-4.093572165798576
 30
0.0
 10
-54.01080118733969
 20
-4.390077987466696
 30
0.0
 10
-53.82121609553997
 20
-4.673671594779904
 30
0.0
 10
-53.7305386163697
 20
-4.823288404889922
 30
0.0
 10
-53.65128507403813
 20
-4.967458154329079
 30
0.0
 10
-53.5792625455621
 20
-5.110567652457575
 30
0.0
  0
LINE
  5
21EC2
330
1F
100
AcDbEntity
  8
SKVIEW1
100
AcDbLine
 10
-53.5792685378909
 20
-5.110564999999894
 30
0.0
 11
-52.11888453789089
 21
-5.791552999999879
 31
0.0
  0
ARC
  5
21EC3
330
1F
100
AcDbEntity
  8
SKVIEW1
100
AcDbCircle
 10
-60.61077953789089
 20
-15.99290999999988
 30
0.0
 40
12.557013
100
AcDbArc
 50
93.24541699999974
 51
94.76603100000039
  0
ARC
  5
21EC4
330
1F
100
AcDbEntity
  8
SKVIEW1
100
AcDbCircle
 10
-66.22634353789081
 20
0.0
 30
0.0
 40
6.0
100
AcDbArc
 50
324.8299189999987
 51
332.1336959999992
  0
ARC
  5
21EC5
330
1F
100
AcDbEntity
  8
SKVIEW1
100
AcDbCircle
 10
-59.65662053789088
 20
-11.72224699999989
 30
0.0
 40
9.007124000000002
100
AcDbArc
 50
92.54238800000065
 51
98.07664700000003
  0
ARC
  5
21EC6
330
1F
100
AcDbEntity
  8
SKVIEW1
100
AcDbCircle
 10
-59.63775153789089
 20
-11.58304399999988
 30
0.0
 40
8.866194
100
AcDbArc
 50
46.89224199999946
 51
86.50120799999935
  0
LINE
  5
21EC7
330
1F
100
AcDbEntity
  8
SKVIEW1
100
AcDbLine
 10
-70.44242353789087
 20
2.641849000000092
 30
0.0
 11
-70.44242353789087
 21
1.082997000000005
 31
0.0
  0
LINE
  5
21EC8
330
1F
100
AcDbEntity
  8
SKVIEW1
100
AcDbLine
 10
-74.47902853789088
 20
2.773062000000095
 30
0.0
 11
-74.47902853789088
 21
-1.164320999999887
 31
0.0
  0
ARC
  5
21EC9
330
1F
100
AcDbEntity
  8
SKVIEW1
100
AcDbCircle
 10
-72.84145753789082
 20
2.347752999999983
 30
0.0
 40
3.875131999999998
100
AcDbArc
 50
245.0018280000001
 51
289.563414999999
  0
ARC
  5
21ECA
330
1F
100
AcDbEntity
  8
SKVIEW1
100
AcDbCircle
 10
-66.22634353789081
 20
0.0
 30
0.0
 40
5.474999999999997
100
AcDbArc
 50
189.1929319999994
 51
241.35211
  0
ARC
  5
21ECB
330
1F
100
AcDbEntity
  8
SKVIEW1
100
AcDbCircle
 10
-72.53530553789085
 20
12.71128800000011
 30
0.0
 40
9.987284999999998
100
AcDbArc
 50
270.7958340000004
 51
281.3230529999992
  0
ARC
  5
21ECC
330
1F
100
AcDbEntity
  8
SKVIEW1
100
AcDbCircle
 10
-72.84134453789082
 20
6.576695
 30
0.0
 40
3.878301999999998
100
AcDbArc
 50
262.3734139999999
 51
276.5860259999997
  0
SPLINE
  5
21ECD
330
1F
100
AcDbEntity
  8
SKVIEW1
100
AcDbSpline
210
0.0
220
0.0
230
1.0
 70
     8
 71
     5
 72
    12
 73
     6
 74
     0
 42
0.000000001
 43
0.0000000001
 40
0.0
 40
0.0
 40
0.0
 40
0.0
 40
0.0
 40
0.0
 40
2.537083641050765
 40
2.537083641050765
 40
2.537083641050765
 40
2.537083641050765
 40
2.537083641050765
 40
2.537083641050765
 10
-74.4789826367043
 20
2.773320110799602
 30
0.0
 10
-74.3091149366989
 20
2.770927431698169
 30
0.0
 10
-74.1168521224451
 20
2.764885766575815
 30
0.0
 10
-73.88951902788003
 20
2.75406242424583
 30
0.0
 10
-73.6338123655112
 20
2.742064251748303
 30
0.0
 10
-73.3560758220309
 20
2.732703545520593
 30
0.0
  0
ARC
  5
21ECE
330
1F
100
AcDbEntity
  8
SKVIEW1
100
AcDbCircle
 10
-71.84192653789086
 20
15.99319000000011
 30
0.0
 40
12.557294
100
AcDbArc
 50
273.2454289999994
 51
274.7648540000008
  0
ARC
  5
21ECF
330
1F
100
AcDbEntity
  8
SKVIEW1
100
AcDbCircle
 10
-66.22634353789081
 20
0.0
 30
0.0
 40
6.0
100
AcDbArc
 50
144.829918999999
 51
152.1336959999992
  0
ARC
  5
21ED0
330
1F
100
AcDbEntity
  8
SKVIEW1
100
AcDbCircle
 10
-72.79606653789087
 20
11.72224700000009
 30
0.0
 40
9.007124000000002
100
AcDbArc
 50
272.5423880000006
 51
278.076647
  0
SPLINE
  5
21ED1
330
1F
100
AcDbEntity
  8
SKVIEW1
100
AcDbSpline
210
0.0
220
0.0
230
1.0
 70
     8
 71
     5
 72
    33
 73
    27
 74
     0
 42
0.000000001
 43
0.0000000001
 40
0.0
 40
0.0
 40
0.0
 40
0.0
 40
0.0
 40
0.0
 40
2.593705408597615
 40
2.593705408597615
 40
2.593705408597615
 40
3.909441033846815
 40
3.909441033846815
 40
3.909441033846815
 40
5.247318758379558
 40
5.247318758379558
 40
5.247318758379558
 40
5.958320824183108
 40
5.958320824183108
 40
5.958320824183108
 40
6.669322889986656
 40
6.669322889986656
 40
6.669322889986656
 40
7.668515021138189
 40
7.668515021138189
 40
7.668515021138189
 40
10.3721816051732
 40
10.3721816051732
 40
10.3721816051732
 40
13.3366415636534
 40
13.3366415636534
 40
13.3366415636534
 40
13.3366415636534
 40
13.3366415636534
 40
13.3366415636534
 10
-74.4789826366945
 20
2.773320110798096
 30
0.0
 10
-74.65046216049628
 20
2.775735493316801
 30
0.0
 10
-74.8254907766873
 20
2.7816144606019
 30
0.0
 10
-75.00205383396519
 20
2.79149117951681
 30
0.0
 10
-75.27725900448229
 20
2.813405883081088
 30
0.0
 10
-75.5727974397937
 20
2.851241524089573
 30
0.0
 10
-75.67502152703742
 20
2.866097305413575
 30
0.0
 10
-75.88660113913039
 20
2.900990068017307
 30
0.0
 10
-76.1118774632319
 20
2.948468595819576
 30
0.0
 10
-76.23345497137939
 20
2.977249656349897
 30
0.0
 10
-76.42209722970159
 20
3.027749471694392
 30
0.0
 10
-76.62388348756491
 20
3.093725635398897
 30
0.0
 10
-76.6955184604432
 20
3.118710730029818
 30
0.0
 10
-76.8416389852921
 20
3.173397898738102
 30
0.0
 10
-76.99116325900758
 20
3.237626344226299
 30
0.0
 10
-77.0662768289599
 20
3.272188410956118
 30
0.0
 10
-77.24510018208039
 20
3.36047999399588
 30
0.0
 10
-77.41395508870358
 20
3.458152143623806
 30
0.0
 10
-77.50820798681559
 20
3.518069598590301
 30
0.0
 10
-77.8257589069741
 20
3.736845345820199
 30
0.0
 10
-78.0534701003356
 20
3.947938845995395
 30
0.0
 10
-78.19155474081071
 20
4.093572165759411
 30
0.0
 10
-78.44188588876949
 20
4.390077987848002
 30
0.0
 10
-78.63147098050609
 20
4.673671595191905
 30
0.0
 10
-78.72214845932018
 20
4.823288404712172
 30
0.0
 10
-78.80140200169882
 20
4.967458154238016
 30
0.0
 10
-78.8734245302195
 20
5.110567652457916
 30
0.0
  0
LINE
  5
21ED2
330
1F
100
AcDbEntity
  8
SKVIEW1
100
AcDbLine
 10
-78.87341853789087
 20
5.110565000000093
 30
0.0
 11
-80.33380253789088
 21
5.791553000000106
 31
0.0
  0
ARC
  5
21ED3
330
1F
100
AcDbEntity
  8
SKVIEW1
100
AcDbCircle
 10
-66.22634353789081
 20
0.0
 30
0.0
 40
15.25
100
AcDbArc
 50
157.6803169999993
 51
254.9104820000006
  0
LINE
  5
21ED4
330
1F
100
AcDbEntity
  8
SKVIEW1
100
AcDbLine
 10
-74.47902853789088
 20
-1.164320999999887
 30
0.0
 11
-81.33995853789087
 21
2.034983000000096
 31
0.0
  0
LINE
  5
21ED5
330
1F
100
AcDbEntity
  8
SKVIEW1
100
AcDbLine
 10
-66.22634353789081
 20
-6.246946000000008
 30
0.0
 11
-66.22634353789081
 21
-5.582852000000002
 31
0.0
  0
LINE
  5
21ED6
330
1F
100
AcDbEntity
  8
SKVIEW1
100
AcDbLine
 10
-70.1963435378909
 20
-7.479999999999904
 30
0.0
 11
-70.1963435378909
 21
-8.037947000000002
 31
0.0
  0
LINE
  5
21ED7
330
1F
100
AcDbEntity
  8
SKVIEW1
100
AcDbLine
 10
-70.1963435378909
 20
-7.479999999999904
 30
0.0
 11
-66.22634353789081
 21
-7.479999999999904
 31
0.0
  0
CIRCLE
  5
21ED8
330
1F
100
AcDbEntity
  8
SKVIEW1
100
AcDbCircle
 10
-76.96505853789085
 20
-6.199999999999903
 30
0.0
 40
1.55
  0
ARC
  5
21ED9
330
1F
100
AcDbEntity
  8
SKVIEW1
100
AcDbCircle
 10
-72.81493553789082
 20
11.58304400000011
 30
0.0
 40
8.866194
100
AcDbArc
 50
226.8922419999992
 51
266.5012079999993
  0
LINE
  5
21EDA
330
1F
100
AcDbEntity
  8
SKVIEW1
100
AcDbLine
 10
-66.22634353789081
 20
-9.769418000000001
 30
0.0
 11
-66.22634353789081
 21
-8.950005999999888
 31
0.0
  0
LINE
  5
21EDB
330
1F
100
AcDbEntity
  8
SKVIEW1
100
AcDbLine
 10
-66.22634353789081
 20
-13.18865599999989
 30
0.0
 11
-66.22634353789081
 21
-12.65556599999988
 31
0.0
  0
LINE
  5
21EDC
330
1F
100
AcDbEntity
  8
SKVIEW1
100
AcDbLine
 10
-66.22634353789081
 20
-15.24999999999988
 30
0.0
 11
-66.22634353789081
 21
-13.32301399999989
 31
0.0
  0
LINE
  5
21EDD
330
1F
100
AcDbEntity
  8
SKVIEW1
100
AcDbLine
 10
-66.22634353789081
 20
8.280000000000114
 30
0.0
 11
-66.22634353789081
 21
7.480000000000103
 31
0.0
  0
LINE
  5
21EDE
330
1F
100
AcDbEntity
  8
SKVIEW1
100
AcDbLine
 10
-66.22634353789081
 20
14.7000000000001
 30
0.0
 11
-66.22634353789081
 21
8.280000000000114
 31
0.0
  0
LINE
  5
21EDF
330
1F
100
AcDbEntity
  8
SKVIEW1
100
AcDbLine
 10
-66.22634353789081
 20
14.7000000000001
 30
0.0
 11
-66.22634353789081
 21
15.50000000000011
 31
0.0
  0
LINE
  5
21EE0
330
1F
100
AcDbEntity
  8
SKVIEW1
100
AcDbLine
 10
-62.25634353789081
 20
14.94205299999999
 30
0.0
 11
-62.25634353789081
 21
14.7000000000001
 31
0.0
  0
LINE
  5
21EE1
330
1F
100
AcDbEntity
  8
SKVIEW1
100
AcDbLine
 10
-62.25634353789081
 20
14.7000000000001
 30
0.0
 11
-62.25634353789081
 21
8.280000000000114
 31
0.0
  0
LINE
  5
21EE2
330
1F
100
AcDbEntity
  8
SKVIEW1
100
AcDbLine
 10
-62.25634353789081
 20
8.280000000000114
 30
0.0
 11
-62.25634353789081
 21
8.037947000000002
 31
0.0
  0
LINE
  5
21EE3
330
1F
100
AcDbEntity
  8
SKVIEW1
100
AcDbLine
 10
-62.25634353789081
 20
8.037947000000002
 30
0.0
 11
-66.22634353789081
 21
7.480000000000103
 31
0.0
  0
LINE
  5
21EE4
330
1F
100
AcDbEntity
  8
SKVIEW1
100
AcDbLine
 10
-62.25634353789081
 20
8.280000000000114
 30
0.0
 11
-66.22634353789081
 21
8.280000000000114
 31
0.0
  0
LINE
  5
21EE5
330
1F
100
AcDbEntity
  8
SKVIEW1
100
AcDbLine
 10
-62.25634353789081
 20
14.7000000000001
 30
0.0
 11
-66.22634353789081
 21
14.7000000000001
 31
0.0
  0
LINE
  5
21EE6
330
1F
100
AcDbEntity
  8
SKVIEW1
100
AcDbLine
 10
-62.25634353789081
 20
14.94205299999999
 30
0.0
 11
-66.22634353789081
 21
15.50000000000011
 31
0.0
  0
LINE
  5
21EE7
330
1F
100
AcDbEntity
  8
SKVIEW1
100
AcDbLine
 10
-66.22634353789081
 20
-14.6999999999999
 30
0.0
 11
-66.22634353789081
 21
-8.9500009999999
 31
0.0
  0
LINE
  5
21EE8
330
1F
100
AcDbEntity
  8
SKVIEW1
100
AcDbLine
 10
-66.22634353789081
 20
-14.6999999999999
 30
0.0
 11
-66.22634353789081
 21
-15.49999999999988
 31
0.0
  0
LINE
  5
21EE9
330
1F
100
AcDbEntity
  8
SKVIEW1
100
AcDbLine
 10
-70.1963435378909
 20
-14.9420529999999
 30
0.0
 11
-70.1963435378909
 21
-14.6999999999999
 31
0.0
  0
LINE
  5
21EEA
330
1F
100
AcDbEntity
  8
SKVIEW1
100
AcDbLine
 10
-70.1963435378909
 20
-14.6999999999999
 30
0.0
 11
-70.1963435378909
 21
-8.279999999999887
 31
0.0
  0
LINE
  5
21EEB
330
1F
100
AcDbEntity
  8
SKVIEW1
100
AcDbLine
 10
-70.1963435378909
 20
-8.279999999999887
 30
0.0
 11
-70.1963435378909
 21
-8.037947000000002
 31
0.0
  0
LINE
  5
21EEC
330
1F
100
AcDbEntity
  8
SKVIEW1
100
AcDbLine
 10
-70.1963435378909
 20
-8.037947000000002
 30
0.0
 11
-66.22634353789081
 21
-7.479999999999904
 31
0.0
  0
LINE
  5
21EED
330
1F
100
AcDbEntity
  8
SKVIEW1
100
AcDbLine
 10
-70.1963435378909
 20
-8.279999999999887
 30
0.0
 11
-66.22634353789081
 21
-8.279999999999887
 31
0.0
  0
LINE
  5
21EEE
330
1F
100
AcDbEntity
  8
SKVIEW1
100
AcDbLine
 10
-70.1963435378909
 20
-14.6999999999999
 30
0.0
 11
-66.22634353789081
 21
-14.6999999999999
 31
0.0
  0
LINE
  5
21EEF
330
1F
100
AcDbEntity
  8
SKVIEW1
100
AcDbLine
 10
-70.1963435378909
 20
-14.9420529999999
 30
0.0
 11
-66.22634353789081
 21
-15.49999999999988
 31
0.0
  0
LINE
  5
21EF0
330
1F
100
AcDbEntity
  8
1
100
AcDbLine
 10
25.00999999999999
 20
8.950000000000102
 30
0.0
 11
24.21000000000004
 21
8.950000000000102
 31
0.0
  0
LINE
  5
21EF1
330
1F
100
AcDbEntity
  8
1
100
AcDbLine
 10
25.66817900000001
 20
8.569999999999993
 30
0.0
 11
25.00999999999999
 21
8.950000000000102
 31
0.0
  0
LINE
  5
21EF2
330
1F
100
AcDbEntity
  8
1
100
AcDbLine
 10
26.07779600000004
 20
6.246945999999979
 30
0.0
 11
25.66817900000001
 21
8.569999999999993
 31
0.0
  0
LINE
  5
21EF3
330
1F
100
AcDbEntity
  8
1
100
AcDbLine
 10
26.19518400000004
 20
5.581209000000001
 30
0.0
 11
26.07779600000004
 21
6.246945999999979
 31
0.0
  0
ARC
  5
21EF4
330
1F
100
AcDbEntity
  8
1
100
AcDbCircle
 10
29.573219
 20
6.008996000000109
 30
0.0
 40
3.401
100
AcDbArc
 50
189.9999990000016
 51
203.8372549999998
  0
LINE
  5
21EF5
330
1F
100
AcDbEntity
  8
1
100
AcDbLine
 10
26.22388799999999
 20
5.418418000000002
 30
0.0
 11
26.19518400000004
 21
5.581209000000001
 31
0.0
  0
LINE
  5
21EF6
330
1F
100
AcDbEntity
  8
1
100
AcDbLine
 10
28.50999999999999
 20
0.0
 30
0.0
 11
26.462335
 21
4.634514999999993
 31
0.0
  0
LINE
  5
21EF7
330
1F
100
AcDbEntity
  8
1
100
AcDbLine
 10
24.21000000000004
 20
14.7000000000001
 30
0.0
 11
24.21000000000004
 21
8.950000000000102
 31
0.0
  0
ARC
  5
21EF8
330
1F
100
AcDbEntity
  8
1
100
AcDbCircle
 10
23.40999999999997
 20
14.7000000000001
 30
0.0
 40
0.8
100
AcDbArc
 50
0.0
 51
90.0
  0
LINE
  5
21EF9
330
1F
100
AcDbEntity
  8
1
100
AcDbLine
 10
16.99000000000001
 20
15.50000000000011
 30
0.0
 11
23.40999999999997
 21
15.50000000000011
 31
0.0
  0
ARC
  5
21EFA
330
1F
100
AcDbEntity
  8
1
100
AcDbCircle
 10
16.99000000000001
 20
14.7000000000001
 30
0.0
 40
0.8
100
AcDbArc
 50
90.0
 51
180.0
  0
LINE
  5
21EFB
330
1F
100
AcDbEntity
  8
1
100
AcDbLine
 10
18.61000000000001
 20
7.894815999999991
 30
0.0
 11
18.60998622305271
 21
2.900814008209408
 31
0.0
  0
DIMENSION
  5
21EFC
330
1F
100
AcDbEntity
  8
SK2
100
AcDbDimension
280
     0
  2
*D12
 10
-25.29120145057431
 20
-5.999999999999996
 30
0.0
 11
-25.29120145057431
 21
-0.2515372452565714
 31
0.0
 70
   160
  1
%%C<>
 71
     5
 42
12.0
 73
     0
 74
     0
 75
     0
  3
STANDARD
100
AcDbAlignedDimension
 13
-12.19999999999999
 23
6.0
 33
0.0
 14
-12.19999999999999
 24
-6.0
 34
0.0
 50
90.0
100
AcDbRotatedDimension
1001
ACAD_DSTYLE_DIMARC_LENGTH_SYMBOL
1070
   379
1070
     1
1001
ACAD_DSTYLE_DIM_LINETYPE
1070
   380
1005
14
1001
ACAD_DSTYLE_DIM_EXT1_LINETYPE
1070
   381
1005
14
1001
ACAD_DSTYLE_DIM_EXT2_LINETYPE
1070
   382
1005
14
1001
ACAD
1000
DSTYLE
1002
{
1070
   172
1070
     1
1002
}
  0
LWPOLYLINE
  5
2207D
330
1F
100
AcDbEntity
  8
CUT
 48
0.240324
100
AcDbPolyline
 90
       18
 70
     1
 43
0.0
 10
26.46233423005441
 20
4.634515389689163
 42
-0.0604498899199708
 10
26.22388782169793
 20
5.418418606211659
 10
26.19518400000004
 20
5.581209000000114
 10
26.07779600000004
 20
6.246946000000093
 10
25.66817900000001
 20
8.570000000000106
 10
25.00999999999999
 20
8.950000000000102
 10
24.21000000000004
 20
8.950000000000102
 10
24.20999999999998
 20
14.7000000000001
 42
0.4142135623730951
 10
23.40999999999997
 20
15.50000000000011
 10
16.99000000000001
 20
15.5000000000001
 42
0.4142135623730951
 10
16.18999999999999
 20
14.7000000000001
 10
16.18999999999999
 20
8.280000000000114
 42
0.4142135623730951
 10
16.99000000000001
 20
7.480000000000103
 10
18.61000000000001
 20
7.480000000000103
 10
18.61000000000001
 20
6.754655000000099
 10
18.61000000000001
 20
2.900924000000117
 10
18.61000000000001
 20
0.0
 10
28.50999999999999
 20
0.0
  0
LWPOLYLINE
  5
22095
330
1F
100
AcDbEntity
  8
NOCUT
100
AcDbPolyline
 90
        9
 70
     1
 43
0.0
 10
-12.19999999999999
 20
0.0
 10
23.21000000000004
 20
0.0
 10
23.21000000000004
 20
7.311239
 10
23.21000000000004
 20
15.25
 10
0.0
 20
15.25
 10
0.0
 20
7.311239
 10
0.0
 20
6.0
 10
-12.19999999999999
 20
6.0
 10
-12.19999999999999
 20
2.876553000000001
  0
LINE
  5
2209E
330
1F
100
AcDbEntity
  8
4
100
AcDbLine
 10
0.0
 20
0.0
 30
0.0
 11
32.69808763960538
 21
0.0
 31
0.0
  0
VIEWPORT
  5
9C00
330
1B
100
AcDbEntity
 67
     1
  8
0
348
3195
100
AcDbViewport
 10
108.2280559557949
 20
71.69854161746989
 30
0.0
 40
251.8950231529317
 41
201.8884082081047
 68
     1
 69
     1
 12
108.2280559557949
 22
71.69854161746989
 13
0.0
 23
0.0
 14
10.0
 24
10.0
 15
10.0
 25
10.0
 16
0.0
 26
0.0
 36
1.0
 17
0.0
 27
0.0
 37
0.0
 42
50.0
 43
0.0
 44
0.0
 45
201.8884082081047
 50
0.0
 51
0.0
 72
   100
 90
   557088
  1

281
     0
 71
     1
 74
     0
110
0.0
120
0.0
130
0.0
111
1.0
121
0.0
131
0.0
112
0.0
122
1.0
132
0.0
 79
     0
146
0.0
170
     0
 61
     5
292
     1
282
     1
141
0.0
142
0.0
 63
   250
421
  3355443
  0
VIEWPORT
  5
9C02
330
1B
100
AcDbEntity
 67
     1
  8
1
348
3195
100
AcDbViewport
 10
143.457083940506
 20
98.18158769607544
 30
0.0
 40
229.5313343048095
 41
157.0905403137207
 68
     2
 69
     2
 12
-44.37697124786255
 22
-35.12342998133886
 13
0.0
 23
0.0
 14
10.0
 24
10.0
 15
10.0
 25
10.0
 16
0.0
 26
0.0
 36
1.0
 17
0.0
 27
0.0
 37
0.0
 42
50.0
 43
0.0
 44
0.0
 45
300.3886240724386
 50
0.0
 51
0.0
 72
   100
 90
   557088
  1

281
     0
 71
     1
 74
     0
110
0.0
120
0.0
130
0.0
111
1.0
121
0.0
131
0.0
112
0.0
122
1.0
132
0.0
 79
     0
146
0.0
170
     0
 61
     5
348
3195
292
     1
282
     1
141
0.0
142
0.0
 63
   250
421
  3355443
  0
ENDSEC
  0
SECTION
  2
OBJECTS
  0
DICTIONARY
  5
3182
330
0
100
AcDbDictionary
281
     1
  3
ACAD_CIP_PREVIOUS_PRODUCT_INFO
350
1B2F4
  3
ACAD_COLOR
350
31A0
  3
ACAD_DETAILVIEWSTYLE
350
1B2F0
  3
ACAD_FIELDLIST
350
20CBF
  3
ACAD_GROUP
350
3183
  3
ACAD_LAYOUT
350
31A5
  3
ACAD_MATERIAL
350
318B
  3
ACAD_MLEADERSTYLE
350
1B221
  3
ACAD_MLINESTYLE
350
3184
  3
ACAD_PLOTSETTINGS
350
31A4
  3
ACAD_PLOTSTYLENAME
350
3189
  3
ACAD_SCALELIST
350
1B1FC
  3
ACAD_SECTIONVIEWSTYLE
350
1B2EE
  3
ACAD_TABLESTYLE
350
31A1
  3
ACAD_VISUALSTYLE
350
318F
  3
ACDB_RECOMPOSE_DATA
350
220CF
  3
AcDbVariableDictionary
350
33A3
  0
DICTIONARY
  5
422A
330
2
100
AcDbDictionary
280
     1
281
     1
  3
ACAD_LAYERFILTERS
360
1B063
  3
ACAD_LAYERSTATES
360
9A1C
  3
ACLYDICTIONARY
360
1B062
  0
DICTIONARY
  5
1B2F5
330
10
100
AcDbDictionary
280
     1
281
     1
  3
ADSK_XREC_LAYER_RECONCILED
360
21B8E
  0
DICTIONARY
  5
1B2F7
330
3F8C
100
AcDbDictionary
280
     1
281
     1
  3
ADSK_XREC_LAYER_RECONCILED
360
21B8F
  0
DICTIONARY
  5
1B2F9
330
9C4A
100
AcDbDictionary
280
     1
281
     1
  3
ADSK_XREC_LAYER_RECONCILED
360
21B90
  0
DICTIONARY
  5
1B2FB
330
9C4B
100
AcDbDictionary
280
     1
281
     1
  3
ADSK_XREC_LAYER_RECONCILED
360
21B91
  0
DICTIONARY
  5
1B2FD
330
9C4D
100
AcDbDictionary
280
     1
281
     1
  3
ADSK_XREC_LAYER_RECONCILED
360
21B92
  0
DICTIONARY
  5
1B2FF
330
9C4E
100
AcDbDictionary
280
     1
281
     1
  3
ADSK_XREC_LAYER_RECONCILED
360
21B93
  0
DICTIONARY
  5
1B301
330
9C4F
100
AcDbDictionary
280
     1
281
     1
  3
ADSK_XREC_LAYER_RECONCILED
360
21B94
  0
DICTIONARY
  5
1B303
330
9C50
100
AcDbDictionary
280
     1
281
     1
  3
ADSK_XREC_LAYER_RECONCILED
360
21B95
  0
DICTIONARY
  5
1B305
330
9C51
100
AcDbDictionary
280
     1
281
     1
  3
ADSK_XREC_LAYER_RECONCILED
360
21B96
  0
DICTIONARY
  5
1B307
330
13335
100
AcDbDictionary
280
     1
281
     1
  3
ADSK_XREC_LAYER_RECONCILED
360
21B97
  0
DICTIONARY
  5
1B309
330
1686E
100
AcDbDictionary
280
     1
281
     1
  3
ADSK_XREC_LAYER_RECONCILED
360
21B98
  0
DICTIONARY
  5
339C
330
1F
100
AcDbDictionary
280
     1
281
     1
  3
ACAD_SORTENTS
360
339D
  0
DICTIONARY
  5
1DE81
330
1B3D7
100
AcDbDictionary
280
     1
281
     1
  0
XRECORD
  5
1B2F4
102
{ACAD_REACTORS
330
3182
102
}
330
3182
100
AcDbXrecord
280
     1
300
ACDLT
300
2015
300
ACDLT_F_S
  0
DICTIONARY
  5
31A0
102
{ACAD_REACTORS
330
3182
102
}
330
3182
100
AcDbDictionary
281
     1
  0
DICTIONARY
  5
1B2F0
102
{ACAD_REACTORS
330
3182
102
}
330
3182
100
AcDbDictionary
281
     1
  3
Imperial24
350
20CB3
  3
Metric50
350
1B2F1
  0
FIELDLIST
  5
20CBF
102
{ACAD_REACTORS
330
3182
102
}
330
3182
100
AcDbIdSet
 90
        0
100
AcDbFieldList
  0
DICTIONARY
  5
3183
102
{ACAD_REACTORS
330
3182
102
}
330
3182
100
AcDbDictionary
281
     1
  0
DICTIONARY
  5
31A5
102
{ACAD_REACTORS
330
3182
102
}
330
3182
100
AcDbDictionary
281
     1
  3
Layout1
350
31A7
  3
Model
350
31A6
  0
DICTIONARY
  5
318B
102
{ACAD_REACTORS
330
3182
102
}
330
3182
100
AcDbDictionary
281
     1
  3
ByBlock
350
318D
  3
ByLayer
350
318C
  3
Global
350
318E
  0
DICTIONARY
  5
1B221
102
{ACAD_REACTORS
330
3182
102
}
330
3182
100
AcDbDictionary
281
     1
  3
Standard
350
1B2ED
  0
DICTIONARY
  5
3184
102
{ACAD_REACTORS
330
3182
102
}
330
3182
100
AcDbDictionary
281
     1
  3
STANDARD
350
3185
  0
DICTIONARY
  5
31A4
102
{ACAD_REACTORS
330
3182
102
}
330
3182
100
AcDbDictionary
281
     1
  0
ACDBDICTIONARYWDFLT
  5
3189
102
{ACAD_REACTORS
330
3182
102
}
330
3182
100
AcDbDictionary
281
     1
  3
Normal
350
318A
100
AcDbDictionaryWithDefault
340
318A
  0
DICTIONARY
  5
1B1FC
102
{ACAD_REACTORS
330
3182
102
}
330
3182
100
AcDbDictionary
281
     1
  3
A0
350
1B1FD
  3
A1
350
1B1FE
  3
A2
350
1B1FF
  3
A3
350
1B200
  3
A4
350
1B201
  3
A5
350
1B202
  3
A6
350
1B203
  3
A7
350
1B204
  3
A8
350
1B205
  3
A9
350
1B206
  3
B0
350
1B207
  3
B1
350
1B208
  3
B2
350
1B209
  3
B3
350
1B20A
  3
B4
350
1B20B
  3
B5
350
1B20C
  3
B6
350
1B20D
  3
B7
350
1B20E
  3
B8
350
1B20F
  3
B9
350
1B210
  3
C0
350
1B211
  3
C1
350
1B212
  3
C2
350
1B213
  3
C3
350
1B214
  3
C4
350
1B215
  3
C5
350
1B216
  3
C6
350
1B217
  3
C7
350
1B218
  3
C8
350
1B219
  3
C9
350
1B21A
  3
D0
350
1B21B
  3
D1
350
1B21C
  3
D2
350
1B21D
  0
DICTIONARY
  5
1B2EE
102
{ACAD_REACTORS
330
3182
102
}
330
3182
100
AcDbDictionary
281
     1
  3
Imperial24
350
20CB1
  3
Metric50
350
1B2EF
  0
DICTIONARY
  5
31A1
102
{ACAD_REACTORS
330
3182
102
}
330
3182
100
AcDbDictionary
281
     1
  3
Standard
350
31A2
  0
DICTIONARY
  5
318F
102
{ACAD_REACTORS
330
3182
102
}
330
3182
100
AcDbDictionary
281
     1
  3
2dWireframe
350
3195
  3
3D Hidden
350
3197
  3
3dWireframe
350
3196
  3
Basic
350
3194
  3
Brighten
350
319B
  3
ColorChange
350
319F
  3
Conceptual
350
3198
  3
Dim
350
319A
  3
EdgeColorOff
350
1B2EC
  3
Facepattern
350
319E
  3
Flat
350
3190
  3
FlatWithEdges
350
3191
  3
Gouraud
350
3192
  3
GouraudWithEdges
350
3193
  3
Hidden
350
1B2E4
  3
JitterOff
350
1B2EA
  3
Linepattern
350
319D
  3
OverhangOff
350
1B2EB
  3
Realistic
350
3199
  3
Shaded
350
1B2E9
  3
Shaded with edges
350
1B2E8
  3
Shades of Gray
350
1B2E5
  3
Sketchy
350
1B2E6
  3
Thicken
350
319C
  3
Wireframe
350
1B2E3
  3
X-Ray
350
1B2E7
  0
XRECORD
  5
220CF
102
{ACAD_REACTORS
330
3182
102
}
330
3182
100
AcDbXrecord
280
     1
 90
        1
330
31A2
  0
DICTIONARY
  5
33A3
102
{ACAD_REACTORS
330
3182
102
}
330
3182
100
AcDbDictionary
281
     1
  3
CANNOSCALE
350
1B222
  3
CMLEADERSTYLE
350
1B30F
  3
CTABLESTYLE
350
33A4
  3
CVIEWDETAILSTYLE
350
1B310
  3
CVIEWSECTIONSTYLE
350
1B311
  3
DIMASSOC
350
9BE8
  3
INDEXCTL
350
9BE7
  3
LAYEREVAL
350
20993
  3
LAYERNOTIFY
350
20994
  3
LIGHTINGUNITS
350
20992
  3
MSLTSCALE
350
20991
  3
SORTENTS
350
9BE6
  0
DICTIONARY
  5
1B063
102
{ACAD_REACTORS
330
422A
102
}
330
422A
100
AcDbDictionary
281
     1
  0
DICTIONARY
  5
9A1C
102
{ACAD_REACTORS
330
422A
102
}
330
422A
100
AcDbDictionary
281
     1
  0
DICTIONARY
  5
1B062
102
{ACAD_REACTORS
330
422A
102
}
330
422A
100
AcDbDictionary
281
     1
1001
ACAD
1000
<All
  0
XRECORD
  5
21B8E
102
{ACAD_REACTORS
330
1B2F5
102
}
330
1B2F5
100
AcDbXrecord
280
     1
290
     1
  0
XRECORD
  5
21B8F
102
{ACAD_REACTORS
330
1B2F7
102
}
330
1B2F7
100
AcDbXrecord
280
     1
290
     1
  0
XRECORD
  5
21B90
102
{ACAD_REACTORS
330
1B2F9
102
}
330
1B2F9
100
AcDbXrecord
280
     1
290
     1
  0
XRECORD
  5
21B91
102
{ACAD_REACTORS
330
1B2FB
102
}
330
1B2FB
100
AcDbXrecord
280
     1
290
     1
  0
XRECORD
  5
21B92
102
{ACAD_REACTORS
330
1B2FD
102
}
330
1B2FD
100
AcDbXrecord
280
     1
290
     1
  0
XRECORD
  5
21B93
102
{ACAD_REACTORS
330
1B2FF
102
}
330
1B2FF
100
AcDbXrecord
280
     1
290
     1
  0
XRECORD
  5
21B94
102
{ACAD_REACTORS
330
1B301
102
}
330
1B301
100
AcDbXrecord
280
     1
290
     1
  0
XRECORD
  5
21B95
102
{ACAD_REACTORS
330
1B303
102
}
330
1B303
100
AcDbXrecord
280
     1
290
     1
  0
XRECORD
  5
21B96
102
{ACAD_REACTORS
330
1B305
102
}
330
1B305
100
AcDbXrecord
280
     1
290
     1
  0
XRECORD
  5
21B97
102
{ACAD_REACTORS
330
1B307
102
}
330
1B307
100
AcDbXrecord
280
     1
290
     1
  0
XRECORD
  5
21B98
102
{ACAD_REACTORS
330
1B309
102
}
330
1B309
100
AcDbXrecord
280
     1
290
     1
  0
SORTENTSTABLE
  5
339D
102
{ACAD_REACTORS
330
339C
102
}
330
339C
100
AcDbSortentsTable
330
1F
331
21EA0
  5
21EBC
331
21E28
  5
21E34
331
21E91
  5
21EAD
331
21E82
  5
21E9E
331
21E19
  5
21E24
331
21E73
  5
21E8F
331
21EF1
  5
2208D
331
21E64
  5
21E78
331
21E0A
  5
21E13
331
21EE2
  5
2207E
331
21EBC
  5
21ED8
331
21EAD
  5
21EC9
331
21E44
  5
21E50
331
21ECB
  5
21EE7
331
21E9E
  5
21EBA
331
21E35
  5
21E41
331
21DE8
  5
21DE8
331
21E8F
  5
21EAB
331
21E17
  5
21E20
331
21DE6
  5
21DE6
331
21EFB
  5
2209D
331
21EEC
  5
22088
331
21ED5
  5
21EF1
331
21EDD
  5
21EF9
331
22095
  5
21E8D
331
21E5D
  5
21E71
331
21EC6
  5
21EE2
331
21EB7
  5
21ED3
331
21E4E
  5
21E61
331
21EA8
  5
21EC4
331
21E3F
  5
21E4B
331
21E99
  5
21EB5
331
21E30
  5
21E3C
331
21E21
  5
21E2F
331
21E8A
  5
21EA6
331
21E7B
  5
21E97
331
21E12
  5
21E1B
331
21E03
  5
21E0C
331
21DE1
  5
21DE1
331
21ED8
  5
21EF4
331
21ED0
  5
21EEC
331
21EC1
  5
21EDD
331
21EB2
  5
21ECE
331
21E49
  5
21E5C
331
21EA3
  5
21EBF
331
21E3A
  5
21E46
331
21E2B
  5
21E37
331
21E94
  5
21EB0
331
21E85
  5
21EA1
331
21E1C
  5
21E28
331
21E76
  5
21E92
331
21E0D
  5
21E16
331
21E67
  5
21E7B
331
21DFE
  5
21E04
331
21DEB
  5
21DEB
331
21EF4
  5
22096
331
21EE5
  5
22081
331
21ECE
  5
21EEA
331
21EBF
  5
21EDB
331
21E47
  5
21E5A
331
211A0
  5
211A0
331
21E80
  5
21E9C
331
21EEF
  5
2208B
331
21E62
  5
21E76
331
21EE0
  5
21EFC
331
21DF9
  5
21E01
331
21EBA
  5
21ED6
331
21EAB
  5
21EC7
331
21E42
  5
21E4E
331
21EC9
  5
21EE5
331
21E9C
  5
21EB8
331
21E8D
  5
21EA9
331
21E24
  5
21E30
331
21E7E
  5
21E9A
331
21E15
  5
21E1E
331
21E06
  5
21E12
331
21DF7
  5
21DFD
331
21E33
  5
21E3F
331
21EF9
  5
2209B
331
21EEA
  5
22086
331
21ED3
  5
21EEF
331
21EDB
  5
21EF7
331
21E5B
  5
21E6F
331
21EC4
  5
21EE0
331
21EB5
  5
21ED1
331
21E4C
  5
21E5F
331
21EA6
  5
21EC2
331
21E3D
  5
21E49
331
21E2E
  5
21E3A
331
21E97
  5
21EB3
331
21E88
  5
21EA4
331
21E1F
  5
21E2B
331
21E79
  5
21E95
331
21E10
  5
21E19
331
21EF7
  5
22099
331
21E01
  5
21E0A
331
21DEE
  5
21DEE
331
21EB0
  5
21ECC
331
21EA1
  5
21EBD
331
21E38
  5
21E44
331
21E29
  5
21E35
331
21E92
  5
21EAE
331
21E83
  5
21E9F
331
21E1A
  5
21E25
331
21E74
  5
21E90
331
21E0B
  5
21E14
331
21EF2
  5
2208E
331
21E65
  5
21E79
331
21EE3
  5
2207F
331
21DFC
  5
21E02
331
21EBD
  5
21ED9
331
21EAE
  5
21ECA
331
2207D
  5
21E6C
331
21E45
  5
21E55
331
21ECC
  5
21EE8
331
21E9F
  5
21EBB
331
21E36
  5
21E42
331
21E27
  5
21E33
331
21DE9
  5
21DE9
331
21DE7
  5
21DE7
331
21EFC
  5
2209E
331
21E60
  5
21E74
331
21EED
  5
22089
331
21ED6
  5
21EF2
331
21EDE
  5
21EFA
331
21E5E
  5
21E72
331
21EC7
  5
21EE3
331
21EB8
  5
21ED4
331
21E4F
  5
21E62
331
21EA9
  5
21EC5
331
21E40
  5
21E4C
331
21E9A
  5
21EB6
331
21E8B
  5
21EA7
331
21E31
  5
21E3D
331
21E7C
  5
21E98
331
21E13
  5
21E1C
331
21E04
  5
21E0D
331
21EE8
  5
22084
331
21ED1
  5
21EED
331
21ED9
  5
21EF5
331
21E59
  5
21E6D
331
21EC2
  5
21EDE
331
21EB3
  5
21ECF
331
21E4A
  5
21E5D
331
21EA4
  5
21EC0
331
21E3B
  5
21E47
331
21E2C
  5
21E38
331
21E95
  5
21EB1
331
21E86
  5
21EA2
331
21E1D
  5
21E29
331
21E77
  5
21E93
331
21E0E
  5
21E17
331
21E68
  5
21E84
331
21DFF
  5
21E05
331
21EF5
  5
22097
331
21EE6
  5
22082
331
2209E
  5
21E6B
331
21ECF
  5
21EEB
331
21DF0
  5
21DF0
331
21DEC
  5
21DEC
331
21E90
  5
21EAC
331
21E81
  5
21E9D
331
21E72
  5
21E8E
331
21E18
  5
21E21
331
21EF0
  5
2208C
331
21EE1
  5
2207D
331
21E63
  5
21E77
331
21EBB
  5
21ED7
331
21EAC
  5
21EC8
331
21E43
  5
21E4F
331
21ECA
  5
21EE6
331
21E9D
  5
21EB9
331
21E25
  5
21E32
331
21E34
  5
21E40
331
21E8E
  5
21EAA
331
21E7F
  5
21E9B
331
21E16
  5
21E1F
331
21DE5
  5
21DE5
331
21EFA
  5
2209C
331
21EEB
  5
22087
331
21ED4
  5
21EF0
331
21EDC
  5
21EF8
331
21E5C
  5
21E70
331
21EC5
  5
21EE1
331
21EB6
  5
21ED2
331
21E4D
  5
21E60
331
21EA7
  5
21EC3
331
21E3E
  5
21E4A
331
21E2F
  5
21E3B
331
21E98
  5
21EB4
331
21E89
  5
21EA5
331
21E20
  5
21E2C
331
21E7A
  5
21E96
331
21E11
  5
21E1A
331
21E02
  5
21E0B
331
21DF3
  5
21DF6
331
21DEF
  5
21DEF
331
21EC0
  5
21EDC
331
21EB1
  5
21ECD
331
21E48
  5
21E5B
331
21EA2
  5
21EBE
331
21E39
  5
21E45
331
21E2A
  5
21E36
331
21E93
  5
21EAF
331
21E84
  5
21EA0
331
21E1B
  5
21E27
331
21E75
  5
21E91
331
21E0C
  5
21E15
331
21EF3
  5
22095
331
21E66
  5
21E7A
331
21EE4
  5
22080
331
21DFD
  5
21E03
331
21EBE
  5
21EDA
331
21E55
  5
21E6A
331
21ECD
  5
21EE9
331
21EAF
  5
21ECB
331
21E46
  5
21E59
331
21E37
  5
21E43
331
21DEA
  5
21DEA
331
21EEE
  5
2208A
331
21E61
  5
21E75
331
21ED7
  5
21EF3
331
21DF8
  5
21DFE
331
21EDF
  5
21EFB
331
21EC8
  5
21EE4
331
21E5F
  5
21E73
331
21EB9
  5
21ED5
331
21E50
  5
21E67
331
21EAA
  5
21EC6
331
21E9B
  5
21EB7
331
21E8C
  5
21EA8
331
21E32
  5
21E3E
331
21E7D
  5
21E99
331
21E14
  5
21E1D
331
21E05
  5
21E0E
331
21E41
  5
21E4D
331
21EF8
  5
2209A
331
21EE9
  5
22085
331
21ED2
  5
21EEE
331
21EDA
  5
21EF6
331
21E5A
  5
21E6E
331
21EC3
  5
21EDF
331
21EB4
  5
21ED0
331
21E4B
  5
21E5E
331
21EA5
  5
21EC1
331
21E3C
  5
21E48
331
21E2D
  5
21E39
331
21E96
  5
21EB2
331
21E87
  5
21EA3
331
21E1E
  5
21E2A
331
21E78
  5
21E94
331
21E0F
  5
21E18
331
21E69
  5
21E8C
331
21E00
  5
21E06
331
21EF6
  5
22098
331
21EE7
  5
22083
331
21DF1
  5
21DF1
331
21DED
  5
21DED
  0
ACDBDETAILVIEWSTYLE
  5
20CB3
102
{ACAD_XDICTIONARY
360
2210A
102
}
102
{ACAD_REACTORS
330
1B2F0
102
}
330
1B2F0
100
AcDbModelDocViewStyle
 70
     0
  3
Imperial24
290
     0
100
AcDbDetailViewStyle
 70
     0
 71
     0
 90
        3
 71
     1
340
11
 62
   256
 40
0.24
340
0
 62
   256
 40
0.24
300

 40
0.36
280
     3
 71
     2
340
16
 90
       25
 62
   256
 71
     3
340
11
 62
   256
 40
0.24
 90
        1
 40
0.75
 90
        1
300
%<\AcVar ViewType \f "%tc1">% %<\AcVar ViewDetailId>%\PVARIA %<\AcVar ViewScale \f "%sn">%
 71
     4
340
16
 90
       25
 62
   256
340
16
 90
       25
 62
   256
280
     0
  0
ACDBDETAILVIEWSTYLE
  5
1B2F1
102
{ACAD_XDICTIONARY
360
22106
102
}
102
{ACAD_REACTORS
330
1B2F0
102
}
330
1B2F0
100
AcDbModelDocViewStyle
 70
     0
  3
Metric50
290
     0
100
AcDbDetailViewStyle
 70
     0
 71
     0
 90
        3
 71
     1
340
11
 62
   256
 40
5.0
340
0
 62
   256
 40
5.0
300

 40
0.0
280
     1
 71
     2
340
16
 90
       25
 62
   256
 71
     3
340
11
 62
   256
 40
5.0
 90
        0
 40
15.0
 90
        1
300
%<\AcVar ViewDetailId>% (%<\AcVar ViewScale \f "%sn">%)
 71
     4
340
16
 90
       25
 62
   256
340
16
 90
       25
 62
   256
280
     0
  0
LAYOUT
  5
31A7
102
{ACAD_REACTORS
330
31A5
102
}
330
31A5
100
AcDbPlotSettings
  1

  2
\\ingdc01\ITB3
  4
A4
  6

 40
6.805083274841307
 41
5.027085781097412
 42
6.805068969726562
 43
5.027069091796875
 44
209.9733276367186
 45
296.9683227539062
 46
0.0
 47
0.0
 48
0.0
 49
0.0
140
0.0
141
0.0
142
1.0
143
1.0
 70
   688
 72
     1
 73
     1
 74
     5
  7

 75
    16
147
1.0
 76
     0
 77
     2
 78
   300
148
0.0
149
0.0
100
AcDbLayout
  1
Layout1
 70
     1
 71
     1
 10
-5.027069091796875
 20
-6.805083274841307
 11
291.9412536621094
 21
203.1682443618775
 12
0.0
 22
0.0
 32
0.0
 14
28.69141678810127
 24
19.6363175392151
 34
0.0
 15
258.2227510929107
 25
176.7268578529358
 35
0.0
146
0.0
 13
0.0
 23
0.0
 33
0.0
 16
1.0
 26
0.0
 36
0.0
 17
0.0
 27
1.0
 37
0.0
 76
     0
330
1B
331
9C00
1001
ACAD_PSEXT
1000
\\ingdc01\ITB3
1000
HP LaserJet 5000 Series PCL
1000
TB
1000

1070
     0
  0
LAYOUT
  5
31A6
102
{ACAD_REACTORS
330
31A5
102
}
330
31A5
100
AcDbPlotSettings
  1

  2
\\ingdc01\ITB3
  4
A4
  6

 40
6.805083274841307
 41
5.027085781097412
 42
6.805068969726562
 43
5.027069091796875
 44
209.9733276367186
 45
296.9683227539062
 46
0.0
 47
0.0
 48
0.0
 49
0.0
140
0.0
141
0.0
142
1.0
143
1.500313223655698
 70
 11952
 72
     1
 73
     1
 74
     0
  7

 75
     0
147
0.6665274852163048
 76
     0
 77
     2
 78
   300
148
239.0155119930048
149
102.2558208723354
100
AcDbLayout
  1
Model
 70
     1
 71
     0
 10
0.0
 20
0.0
 11
12.0
 21
9.0
 12
0.0
 22
0.0
 32
0.0
 14
0.0
 24
0.0
 34
0.0
 15
0.0
 25
0.0
 35
0.0
146
0.0
 13
0.0
 23
0.0
 33
0.0
 16
1.0
 26
0.0
 36
0.0
 17
0.0
 27
1.0
 37
0.0
 76
     0
330
1F
331
1F4
1001
ACAD_PSEXT
1000
\\ingdc01\ITB3
1000
HP LaserJet 5000 Series PCL
1000
TB
1000

1070
     0
  0
MATERIAL
  5
318D
102
{ACAD_XDICTIONARY
360
1B22B
102
}
102
{ACAD_REACTORS
330
318B
102
}
330
318B
100
AcDbMaterial
  1
ByBlock
  0
MATERIAL
  5
318C
102
{ACAD_XDICTIONARY
360
1B22D
102
}
102
{ACAD_REACTORS
330
318B
102
}
330
318B
100
AcDbMaterial
  1
ByLayer
  0
MATERIAL
  5
318E
102
{ACAD_XDICTIONARY
360
1B22F
102
}
102
{ACAD_REACTORS
330
318B
102
}
330
318B
100
AcDbMaterial
  1
Global
  0
MLEADERSTYLE
  5
1B2ED
102
{ACAD_REACTORS
330
1B221
102
}
330
1B221
100
AcDbMLeaderStyle
179
     2
170
     2
171
     1
172
     0
 90
        2
 40
0.0
 41
0.0
173
     1
 91
-1056964608
340
14
 92
       -2
290
     1
 42
2.0
291
     1
 43
0.36
  3
Standard
 44
4.0
300

342
11
174
     1
178
     6
175
     1
176
     0
 93
-1056964608
 45
4.0
292
     0
297
     0
 46
4.0
 94
-1056964608
 47
1.0
 49
1.0
140
1.0
293
     1
141
0.0
294
     1
177
     0
142
1.0
295
     0
296
     0
143
0.125
271
     0
272
     9
273
     9
1001
ACAD_MLEADERVER
1070
     2
  0
MLINESTYLE
  5
3185
102
{ACAD_REACTORS
330
3184
102
}
330
3184
100
AcDbMlineStyle
  2
STANDARD
 70
     0
  3

 62
   256
 51
90.0
 52
90.0
 71
     2
 49
0.5
 62
   256
  6
BYLAYER
 49
-0.5
 62
   256
  6
BYLAYER
  0
ACDBPLACEHOLDER
  5
318A
102
{ACAD_REACTORS
330
3189
102
}
330
3189
  0
SCALE
  5
1B1FD
102
{ACAD_REACTORS
330
1B1FC
102
}
330
1B1FC
100
AcDbScale
 70
     0
300
1:1
140
1.0
141
1.0
290
     1
1001
ACAD
1000
AcRTDxfName
1000
SCALE
  0
SCALE
  5
1B1FE
102
{ACAD_REACTORS
330
1B1FC
102
}
330
1B1FC
100
AcDbScale
 70
     0
300
1:2
140
1.0
141
2.0
290
     0
1001
ACAD
1000
AcRTDxfName
1000
SCALE
  0
SCALE
  5
1B1FF
102
{ACAD_REACTORS
330
1B1FC
102
}
330
1B1FC
100
AcDbScale
 70
     0
300
1:4
140
1.0
141
4.0
290
     0
1001
ACAD
1000
AcRTDxfName
1000
SCALE
  0
SCALE
  5
1B200
102
{ACAD_REACTORS
330
1B1FC
102
}
330
1B1FC
100
AcDbScale
 70
     0
300
1:5
140
1.0
141
5.0
290
     0
1001
ACAD
1000
AcRTDxfName
1000
SCALE
  0
SCALE
  5
1B201
102
{ACAD_REACTORS
330
1B1FC
102
}
330
1B1FC
100
AcDbScale
 70
     0
300
1:8
140
1.0
141
8.0
290
     0
1001
ACAD
1000
AcRTDxfName
1000
SCALE
  0
SCALE
  5
1B202
102
{ACAD_REACTORS
330
1B1FC
102
}
330
1B1FC
100
AcDbScale
 70
     0
300
1:10
140
1.0
141
10.0
290
     0
1001
ACAD
1000
AcRTDxfName
1000
SCALE
  0
SCALE
  5
1B203
102
{ACAD_REACTORS
330
1B1FC
102
}
330
1B1FC
100
AcDbScale
 70
     0
300
1:16
140
1.0
141
16.0
290
     0
1001
ACAD
1000
AcRTDxfName
1000
SCALE
  0
SCALE
  5
1B204
102
{ACAD_REACTORS
330
1B1FC
102
}
330
1B1FC
100
AcDbScale
 70
     0
300
1:20
140
1.0
141
20.0
290
     0
1001
ACAD
1000
AcRTDxfName
1000
SCALE
  0
SCALE
  5
1B205
102
{ACAD_REACTORS
330
1B1FC
102
}
330
1B1FC
100
AcDbScale
 70
     0
300
1:30
140
1.0
141
30.0
290
     0
1001
ACAD
1000
AcRTDxfName
1000
SCALE
  0
SCALE
  5
1B206
102
{ACAD_REACTORS
330
1B1FC
102
}
330
1B1FC
100
AcDbScale
 70
     0
300
1:40
140
1.0
141
40.0
290
     0
1001
ACAD
1000
AcRTDxfName
1000
SCALE
  0
SCALE
  5
1B207
102
{ACAD_REACTORS
330
1B1FC
102
}
330
1B1FC
100
AcDbScale
 70
     0
300
1:50
140
1.0
141
50.0
290
     0
1001
ACAD
1000
AcRTDxfName
1000
SCALE
  0
SCALE
  5
1B208
102
{ACAD_REACTORS
330
1B1FC
102
}
330
1B1FC
100
AcDbScale
 70
     0
300
1:100
140
1.0
141
100.0
290
     0
1001
ACAD
1000
AcRTDxfName
1000
SCALE
  0
SCALE
  5
1B209
102
{ACAD_REACTORS
330
1B1FC
102
}
330
1B1FC
100
AcDbScale
 70
     0
300
2:1
140
2.0
141
1.0
290
     0
1001
ACAD
1000
AcRTDxfName
1000
SCALE
  0
SCALE
  5
1B20A
102
{ACAD_REACTORS
330
1B1FC
102
}
330
1B1FC
100
AcDbScale
 70
     0
300
4:1
140
4.0
141
1.0
290
     0
1001
ACAD
1000
AcRTDxfName
1000
SCALE
  0
SCALE
  5
1B20B
102
{ACAD_REACTORS
330
1B1FC
102
}
330
1B1FC
100
AcDbScale
 70
     0
300
8:1
140
8.0
141
1.0
290
     0
1001
ACAD
1000
AcRTDxfName
1000
SCALE
  0
SCALE
  5
1B20C
102
{ACAD_REACTORS
330
1B1FC
102
}
330
1B1FC
100
AcDbScale
 70
     0
300
10:1
140
10.0
141
1.0
290
     0
1001
ACAD
1000
AcRTDxfName
1000
SCALE
  0
SCALE
  5
1B20D
102
{ACAD_REACTORS
330
1B1FC
102
}
330
1B1FC
100
AcDbScale
 70
     0
300
100:1
140
100.0
141
1.0
290
     0
1001
ACAD
1000
AcRTDxfName
1000
SCALE
  0
SCALE
  5
1B20E
102
{ACAD_REACTORS
330
1B1FC
102
}
330
1B1FC
100
AcDbScale
 70
     0
300
1/128" = 1'-0"
140
0.0078125
141
12.0
290
     0
1001
ACAD
1000
AcRTDxfName
1000
SCALE
  0
SCALE
  5
1B20F
102
{ACAD_REACTORS
330
1B1FC
102
}
330
1B1FC
100
AcDbScale
 70
     0
300
1/64" = 1'-0"
140
0.015625
141
12.0
290
     0
1001
ACAD
1000
AcRTDxfName
1000
SCALE
  0
SCALE
  5
1B210
102
{ACAD_REACTORS
330
1B1FC
102
}
330
1B1FC
100
AcDbScale
 70
     0
300
1/32" = 1'-0"
140
0.03125
141
12.0
290
     0
1001
ACAD
1000
AcRTDxfName
1000
SCALE
  0
SCALE
  5
1B211
102
{ACAD_REACTORS
330
1B1FC
102
}
330
1B1FC
100
AcDbScale
 70
     0
300
1/16" = 1'-0"
140
0.0625
141
12.0
290
     0
1001
ACAD
1000
AcRTDxfName
1000
SCALE
  0
SCALE
  5
1B212
102
{ACAD_REACTORS
330
1B1FC
102
}
330
1B1FC
100
AcDbScale
 70
     0
300
3/32" = 1'-0"
140
0.09375
141
12.0
290
     0
1001
ACAD
1000
AcRTDxfName
1000
SCALE
  0
SCALE
  5
1B213
102
{ACAD_REACTORS
330
1B1FC
102
}
330
1B1FC
100
AcDbScale
 70
     0
300
1/8" = 1'-0"
140
0.125
141
12.0
290
     0
1001
ACAD
1000
AcRTDxfName
1000
SCALE
  0
SCALE
  5
1B214
102
{ACAD_REACTORS
330
1B1FC
102
}
330
1B1FC
100
AcDbScale
 70
     0
300
3/16" = 1'-0"
140
0.1875
141
12.0
290
     0
1001
ACAD
1000
AcRTDxfName
1000
SCALE
  0
SCALE
  5
1B215
102
{ACAD_REACTORS
330
1B1FC
102
}
330
1B1FC
100
AcDbScale
 70
     0
300
1/4" = 1'-0"
140
0.25
141
12.0
290
     0
1001
ACAD
1000
AcRTDxfName
1000
SCALE
  0
SCALE
  5
1B216
102
{ACAD_REACTORS
330
1B1FC
102
}
330
1B1FC
100
AcDbScale
 70
     0
300
3/8" = 1'-0"
140
0.375
141
12.0
290
     0
1001
ACAD
1000
AcRTDxfName
1000
SCALE
  0
SCALE
  5
1B217
102
{ACAD_REACTORS
330
1B1FC
102
}
330
1B1FC
100
AcDbScale
 70
     0
300
1/2" = 1'-0"
140
0.5
141
12.0
290
     0
1001
ACAD
1000
AcRTDxfName
1000
SCALE
  0
SCALE
  5
1B218
102
{ACAD_REACTORS
330
1B1FC
102
}
330
1B1FC
100
AcDbScale
 70
     0
300
3/4" = 1'-0"
140
0.75
141
12.0
290
     0
1001
ACAD
1000
AcRTDxfName
1000
SCALE
  0
SCALE
  5
1B219
102
{ACAD_REACTORS
330
1B1FC
102
}
330
1B1FC
100
AcDbScale
 70
     0
300
1" = 1'-0"
140
1.0
141
12.0
290
     0
1001
ACAD
1000
AcRTDxfName
1000
SCALE
  0
SCALE
  5
1B21A
102
{ACAD_REACTORS
330
1B1FC
102
}
330
1B1FC
100
AcDbScale
 70
     0
300
1-1/2" = 1'-0"
140
1.5
141
12.0
290
     0
1001
ACAD
1000
AcRTDxfName
1000
SCALE
  0
SCALE
  5
1B21B
102
{ACAD_REACTORS
330
1B1FC
102
}
330
1B1FC
100
AcDbScale
 70
     0
300
3" = 1'-0"
140
3.0
141
12.0
290
     0
1001
ACAD
1000
AcRTDxfName
1000
SCALE
  0
SCALE
  5
1B21C
102
{ACAD_REACTORS
330
1B1FC
102
}
330
1B1FC
100
AcDbScale
 70
     0
300
6" = 1'-0"
140
6.0
141
12.0
290
     0
1001
ACAD
1000
AcRTDxfName
1000
SCALE
  0
SCALE
  5
1B21D
102
{ACAD_REACTORS
330
1B1FC
102
}
330
1B1FC
100
AcDbScale
 70
     0
300
1'-0" = 1'-0"
140
12.0
141
12.0
290
     0
1001
ACAD
1000
AcRTDxfName
1000
SCALE
  0
ACDBSECTIONVIEWSTYLE
  5
20CB1
102
{ACAD_XDICTIONARY
360
22108
102
}
102
{ACAD_REACTORS
330
1B2EE
102
}
330
1B2EE
100
AcDbModelDocViewStyle
 70
     0
  3
Imperial24
290
     0
100
AcDbSectionViewStyle
 70
     0
 71
     0
 90
       78
 71
     1
340
11
 62
   256
 40
0.24
340
0
340
0
 62
   256
 40
0.24
300
I, O, Q, S, X, Z
 40
0.48
 90
        3
 40
0.18
 90
        1
 71
     2
340
16
 90
       25
 62
   256
340
16
 90
       50
 62
   256
 40
0.24
 40
0.0
 40
0.24
 71
     3
340
11
 62
   256
 40
0.24
 90
        1
 40
0.75
 90
        1
300
%<\AcVar ViewType \f "%tc1">% %<\AcVar ViewSectionStartId>%-%<\AcVar ViewSectionEndId>%\PVARIA %<\AcVar ViewScale \f "%sn">%
 71
     4
 62
   256
 62
   257
300
ANSI31
 40
1.0
 90
        0
290
     0
290
     0
 90
        6
 40
0.0
 40
1.570796326794896
 40
0.2617993877991494
 40
1.308996938995747
 40
-0.2617993877991494
 40
1.832595714594044
  0
ACDBSECTIONVIEWSTYLE
  5
1B2EF
102
{ACAD_XDICTIONARY
360
22104
102
}
102
{ACAD_REACTORS
330
1B2EE
102
}
330
1B2EE
100
AcDbModelDocViewStyle
 70
     0
  3
Metric50
290
     0
100
AcDbSectionViewStyle
 70
     0
 71
     0
 90
      102
 71
     1
340
11
 62
   256
 40
5.0
340
0
340
0
 62
   256
 40
5.0
300
I, O, Q, S, X, Z
 40
10.0
 90
        0
 40
2.5
 90
        0
 71
     2
340
16
 90
       25
 62
   256
340
16
 90
       50
 62
   256
 40
5.0
 40
2.5
 40
5.0
 71
     3
340
11
 62
   256
 40
5.0
 90
        0
 40
15.0
 90
        1
300
%<\AcVar ViewSectionStartId>%-%<\AcVar ViewSectionEndId>% (%<\AcVar ViewScale \f "%sn">%)
 71
     4
 62
   256
 62
   257
300
ANSI31
 40
1.0
 90
        0
290
     0
290
     0
 90
        6
 40
0.0
 40
1.570796326794896
 40
0.2617993877991494
 40
1.308996938995747
 40
-0.2617993877991494
 40
1.832595714594044
  0
TABLESTYLE
  5
31A2
102
{ACAD_XDICTIONARY
360
1B314
102
}
102
{ACAD_REACTORS
330
31A1
102
}
330
31A1
100
AcDbTableStyle
280
     0
  3
Standard
 70
     0
 71
     0
 40
1.5
 41
1.5
280
     0
281
     0
  7
STANDARD
140
4.5
170
     2
 62
     0
 63
     7
283
     0
 90
        4
 91
        0
  1

274
    -2
284
     1
 64
     0
275
    -2
285
     1
 65
     0
276
    -2
286
     1
 66
     0
277
    -2
287
     1
 67
     0
278
    -2
288
     1
 68
     0
279
    -2
289
     1
 69
     0
  7
STANDARD
140
6.0
170
     5
 62
     0
 63
     7
283
     0
 90
        4
 91
        0
  1

274
    -2
284
     1
 64
     0
275
    -2
285
     1
 65
     0
276
    -2
286
     1
 66
     0
277
    -2
287
     1
 67
     0
278
    -2
288
     1
 68
     0
279
    -2
289
     1
 69
     0
  7
STANDARD
140
4.5
170
     5
 62
     0
 63
     7
283
     0
 90
        4
 91
        0
  1

274
    -2
284
     1
 64
     0
275
    -2
285
     1
 65
     0
276
    -2
286
     1
 66
     0
277
    -2
287
     1
 67
     0
278
    -2
288
     1
 68
     0
279
    -2
289
     1
 69
     0
  0
VISUALSTYLE
  5
3195
102
{ACAD_XDICTIONARY
360
220DA
102
}
102
{ACAD_REACTORS
330
318F
102
}
330
318F
100
AcDbVisualStyle
  2

 70
     4
177
     2
291
     0
 71
     0
176
     1
 72
     2
176
     1
 73
     0
176
     1
 90
        0
176
     1
 40
0.6
176
     1
 41
30.0
176
     1
 63
     7
176
     1
 74
     1
176
     1
 91
        4
176
     1
 64
     7
176
     1
 65
   257
176
     1
 75
     1
176
     1
175
     1
176
     1
 42
1.0
176
     1
 92
        0
176
     1
 66
   257
176
     1
 43
1.0
176
     1
 76
     1
176
     1
 77
     6
176
     1
 78
     2
176
     1
 67
     7
176
     1
 79
     5
176
     1
170
     0
176
     1
171
     0
176
     1
290
     0
176
     1
 93
        1
176
     1
 44
0.0
176
     1
173
     0
176
     1
1001
ACAD
1000
AcDbSavedByObjectVersion
1070
     0
  0
VISUALSTYLE
  5
3197
102
{ACAD_XDICTIONARY
360
220DE
102
}
102
{ACAD_REACTORS
330
318F
102
}
330
318F
100
AcDbVisualStyle
  2

 70
     6
177
     2
291
     0
 71
     1
176
     1
 72
     2
176
     1
 73
     2
176
     1
 90
        0
176
     1
 40
0.6
176
     1
 41
30.0
176
     1
 63
     7
176
     1
 74
     2
176
     1
 91
        2
176
     1
 64
     7
176
     1
 65
   257
176
     1
 75
     2
176
     1
175
     1
176
     1
 42
40.0
176
     1
 92
        0
176
     1
 66
   257
176
     1
 43
1.0
176
     1
 76
     1
176
     1
 77
     6
176
     1
 78
     2
176
     1
 67
     7
176
     1
 79
     3
176
     1
170
     0
176
     1
171
     0
176
     1
290
     0
176
     1
 93
        1
176
     1
 44
0.0
176
     1
173
     0
176
     1
1001
ACAD
1000
AcDbSavedByObjectVersion
1070
     0
  0
VISUALSTYLE
  5
3196
102
{ACAD_XDICTIONARY
360
220DC
102
}
102
{ACAD_REACTORS
330
318F
102
}
330
318F
100
AcDbVisualStyle
  2

 70
     5
177
     2
291
     0
 71
     0
176
     1
 72
     2
176
     1
 73
     0
176
     1
 90
        0
176
     1
 40
0.6
176
     1
 41
30.0
176
     1
 63
     7
176
     1
 74
     1
176
     1
 91
        4
176
     1
 64
     7
176
     1
 65
   257
176
     1
 75
     1
176
     1
175
     1
176
     1
 42
1.0
176
     1
 92
        0
176
     1
 66
   257
176
     1
 43
1.0
176
     1
 76
     1
176
     1
 77
     6
176
     1
 78
     2
176
     1
 67
     7
176
     1
 79
     5
176
     1
170
     0
176
     1
171
     0
176
     1
290
     0
176
     1
 93
        1
176
     1
 44
0.0
176
     1
173
     0
176
     1
1001
ACAD
1000
AcDbSavedByObjectVersion
1070
     0
  0
VISUALSTYLE
  5
3194
102
{ACAD_XDICTIONARY
360
220D8
102
}
102
{ACAD_REACTORS
330
318F
102
}
330
318F
100
AcDbVisualStyle
  2

 70
     7
177
     2
291
     1
 71
     1
176
     1
 72
     0
176
     1
 73
     1
176
     1
 90
        0
176
     1
 40
0.6
176
     1
 41
30.0
176
     1
 63
     7
176
     1
 74
     0
176
     1
 91
        4
176
     1
 64
     7
176
     1
 65
   257
176
     1
 75
     1
176
     1
175
     1
176
     1
 42
1.0
176
     1
 92
        8
176
     1
 66
     7
176
     1
 43
1.0
176
     1
 76
     1
176
     1
 77
     6
176
     1
 78
     2
176
     1
 67
     7
176
     1
 79
     5
176
     1
170
     0
176
     1
171
     0
176
     1
290
     0
176
     1
 93
        1
176
     1
 44
0.0
176
     1
173
     0
176
     1
1001
ACAD
1000
AcDbSavedByObjectVersion
1070
     0
  0
VISUALSTYLE
  5
319B
102
{ACAD_XDICTIONARY
360
220E6
102
}
102
{ACAD_REACTORS
330
318F
102
}
330
318F
100
AcDbVisualStyle
  2

 70
    12
177
     2
291
     1
 71
     2
176
     1
 72
     2
176
     1
 73
     0
176
     1
 90
        0
176
     1
 40
0.6
176
     1
 41
30.0
176
     1
 63
     7
176
     1
 74
     1
176
     1
 91
        4
176
     1
 64
     7
176
     1
 65
   257
176
     1
 75
     1
176
     1
175
     1
176
     1
 42
1.0
176
     1
 92
        8
176
     1
 66
     7
176
     1
 43
1.0
176
     1
 76
     1
176
     1
 77
     6
176
     1
 78
     2
176
     1
 67
     7
176
     1
 79
     5
176
     1
170
     0
176
     1
171
     0
176
     1
290
     0
176
     1
 93
        1
176
     1
 44
50.0
176
     1
173
     0
176
     1
1001
ACAD
1000
AcDbSavedByObjectVersion
1070
     0
  0
VISUALSTYLE
  5
319F
102
{ACAD_XDICTIONARY
360
220EE
102
}
102
{ACAD_REACTORS
330
318F
102
}
330
318F
100
AcDbVisualStyle
  2

 70
    16
177
     2
291
     1
 71
     2
176
     1
 72
     2
176
     1
 73
     3
176
     1
 90
        0
176
     1
 40
0.6
176
     1
 41
30.0
176
     1
 63
     8
176
     1
 74
     1
176
     1
 91
        4
176
     1
 64
     7
176
     1
 65
   257
176
     1
 75
     1
176
     1
175
     1
176
     1
 42
1.0
176
     1
 92
        8
176
     1
 66
     8
176
     1
 43
1.0
176
     1
 76
     1
176
     1
 77
     6
176
     1
 78
     2
176
     1
 67
     7
176
     1
 79
     5
176
     1
170
     0
176
     1
171
     0
176
     1
290
     0
176
     1
 93
        1
176
     1
 44
0.0
176
     1
173
     0
176
     1
1001
ACAD
1000
AcDbSavedByObjectVersion
1070
     0
  0
VISUALSTYLE
  5
3198
102
{ACAD_XDICTIONARY
360
220E0
102
}
102
{ACAD_REACTORS
330
318F
102
}
330
318F
100
AcDbVisualStyle
  2

 70
     9
177
     2
291
     0
 71
     3
176
     1
 72
     2
176
     1
 73
     0
176
     1
 90
        0
176
     1
 40
0.6
176
     1
 41
30.0
176
     1
 63
     7
176
     1
 74
     2
176
     1
 91
        2
176
     1
 64
     7
176
     1
 65
   257
176
     1
 75
     1
176
     1
175
     1
176
     1
 42
40.0
176
     1
 92
        8
176
     1
 66
     7
176
     1
 43
1.0
176
     1
 76
     1
176
     1
 77
     6
176
     1
 78
     2
176
     1
 67
     7
176
     1
 79
     3
176
     1
170
     0
176
     1
171
     0
176
     1
290
     0
176
     1
 93
        1
176
     1
 44
0.0
176
     1
173
     0
176
     1
1001
ACAD
1000
AcDbSavedByObjectVersion
1070
     0
  0
VISUALSTYLE
  5
319A
102
{ACAD_XDICTIONARY
360
220E4
102
}
102
{ACAD_REACTORS
330
318F
102
}
330
318F
100
AcDbVisualStyle
  2

 70
    11
177
     2
291
     1
 71
     2
176
     1
 72
     2
176
     1
 73
     0
176
     1
 90
        0
176
     1
 40
0.6
176
     1
 41
30.0
176
     1
 63
     7
176
     1
 74
     1
176
     1
 91
        4
176
     1
 64
     7
176
     1
 65
   257
176
     1
 75
     1
176
     1
175
     1
176
     1
 42
1.0
176
     1
 92
        8
176
     1
 66
     7
176
     1
 43
1.0
176
     1
 76
     1
176
     1
 77
     6
176
     1
 78
     2
176
     1
 67
     7
176
     1
 79
     5
176
     1
170
     0
176
     1
171
     0
176
     1
290
     0
176
     1
 93
        1
176
     1
 44
-50.0
176
     1
173
     0
176
     1
1001
ACAD
1000
AcDbSavedByObjectVersion
1070
     0
  0
VISUALSTYLE
  5
1B2EC
102
{ACAD_XDICTIONARY
360
22102
102
}
102
{ACAD_REACTORS
330
318F
102
}
330
318F
100
AcDbVisualStyle
  2

 70
    22
177
     2
291
     1
 71
     2
176
     0
 72
     2
176
     0
 73
     0
176
     0
 90
        0
176
     0
 40
0.6
176
     0
 41
30.0
176
     0
 63
     7
176
     0
 74
     1
176
     0
 91
        4
176
     0
 64
     7
176
     0
 65
   257
176
     0
 75
     1
176
     0
175
     1
176
     0
 42
1.0
176
     0
 92
        8
176
     2
 66
     7
176
     0
 43
1.0
176
     0
 76
     1
176
     0
 77
     6
176
     0
 78
     2
176
     0
 67
     7
176
     0
 79
     5
176
     0
170
     0
176
     0
171
     0
176
     0
290
     0
176
     0
 93
        1
176
     0
 44
0.0
176
     0
173
     0
176
     0
1001
ACAD
1000
AcDbSavedByObjectVersion
1070
     0
  0
VISUALSTYLE
  5
319E
102
{ACAD_XDICTIONARY
360
220EC
102
}
102
{ACAD_REACTORS
330
318F
102
}
330
318F
100
AcDbVisualStyle
  2

 70
    15
177
     2
291
     1
 71
     2
176
     1
 72
     2
176
     1
 73
     0
176
     1
 90
        0
176
     1
 40
0.6
176
     1
 41
30.0
176
     1
 63
     7
176
     1
 74
     1
176
     1
 91
        4
176
     1
 64
     7
176
     1
 65
   257
176
     1
 75
     1
176
     1
175
     1
176
     1
 42
1.0
176
     1
 92
        8
176
     1
 66
     7
176
     1
 43
1.0
176
     1
 76
     1
176
     1
 77
     6
176
     1
 78
     2
176
     1
 67
     7
176
     1
 79
     5
176
     1
170
     0
176
     1
171
     0
176
     1
290
     0
176
     1
 93
        1
176
     1
 44
0.0
176
     1
173
     0
176
     1
1001
ACAD
1000
AcDbSavedByObjectVersion
1070
     0
  0
VISUALSTYLE
  5
3190
102
{ACAD_XDICTIONARY
360
220D0
102
}
102
{ACAD_REACTORS
330
318F
102
}
330
318F
100
AcDbVisualStyle
  2

 70
     0
177
     2
291
     1
 71
     2
176
     1
 72
     1
176
     1
 73
     1
176
     1
 90
        2
176
     1
 40
0.6
176
     1
 41
30.0
176
     1
 63
     7
176
     1
 74
     0
176
     1
 91
        4
176
     1
 64
     7
176
     1
 65
   257
176
     1
 75
     1
176
     1
175
     1
176
     1
 42
1.0
176
     1
 92
        8
176
     1
 66
     7
176
     1
 43
1.0
176
     1
 76
     1
176
     1
 77
     6
176
     1
 78
     2
176
     1
 67
     7
176
     1
 79
     5
176
     1
170
     0
176
     1
171
     0
176
     1
290
     0
176
     1
 93
       13
176
     1
 44
0.0
176
     1
173
     0
176
     1
1001
ACAD
1000
AcDbSavedByObjectVersion
1070
     0
  0
VISUALSTYLE
  5
3191
102
{ACAD_XDICTIONARY
360
220D2
102
}
102
{ACAD_REACTORS
330
318F
102
}
330
318F
100
AcDbVisualStyle
  2

 70
     1
177
     2
291
     1
 71
     2
176
     1
 72
     1
176
     1
 73
     1
176
     1
 90
        2
176
     1
 40
0.6
176
     1
 41
30.0
176
     1
 63
     7
176
     1
 74
     1
176
     1
 91
        4
176
     1
 64
     7
176
     1
 65
   257
176
     1
 75
     1
176
     1
175
     1
176
     1
 42
1.0
176
     1
 92
        0
176
     1
 66
   257
176
     1
 43
1.0
176
     1
 76
     1
176
     1
 77
     6
176
     1
 78
     2
176
     1
 67
     7
176
     1
 79
     5
176
     1
170
     0
176
     1
171
     0
176
     1
290
     0
176
     1
 93
       13
176
     1
 44
0.0
176
     1
173
     0
176
     1
1001
ACAD
1000
AcDbSavedByObjectVersion
1070
     0
  0
VISUALSTYLE
  5
3192
102
{ACAD_XDICTIONARY
360
220D4
102
}
102
{ACAD_REACTORS
330
318F
102
}
330
318F
100
AcDbVisualStyle
  2

 70
     2
177
     2
291
     1
 71
     2
176
     1
 72
     2
176
     1
 73
     1
176
     1
 90
        2
176
     1
 40
0.6
176
     1
 41
30.0
176
     1
 63
     7
176
     1
 74
     0
176
     1
 91
        4
176
     1
 64
     7
176
     1
 65
   257
176
     1
 75
     1
176
     1
175
     1
176
     1
 42
1.0
176
     1
 92
        0
176
     1
 66
     7
176
     1
 43
1.0
176
     1
 76
     1
176
     1
 77
     6
176
     1
 78
     2
176
     1
 67
     7
176
     1
 79
     5
176
     1
170
     0
176
     1
171
     0
176
     1
290
     0
176
     1
 93
       13
176
     1
 44
0.0
176
     1
173
     0
176
     1
1001
ACAD
1000
AcDbSavedByObjectVersion
1070
     0
  0
VISUALSTYLE
  5
3193
102
{ACAD_XDICTIONARY
360
220D6
102
}
102
{ACAD_REACTORS
330
318F
102
}
330
318F
100
AcDbVisualStyle
  2

 70
     3
177
     2
291
     1
 71
     2
176
     1
 72
     2
176
     1
 73
     1
176
     1
 90
        2
176
     1
 40
0.6
176
     1
 41
30.0
176
     1
 63
     7
176
     1
 74
     1
176
     1
 91
        4
176
     1
 64
     7
176
     1
 65
   257
176
     1
 75
     1
176
     1
175
     1
176
     1
 42
1.0
176
     1
 92
        0
176
     1
 66
   257
176
     1
 43
1.0
176
     1
 76
     1
176
     1
 77
     6
176
     1
 78
     2
176
     1
 67
     7
176
     1
 79
     5
176
     1
170
     0
176
     1
171
     0
176
     1
290
     0
176
     1
 93
       13
176
     1
 44
0.0
176
     1
173
     0
176
     1
1001
ACAD
1000
AcDbSavedByObjectVersion
1070
     0
  0
VISUALSTYLE
  5
1B2E4
102
{ACAD_XDICTIONARY
360
220F2
102
}
102
{ACAD_REACTORS
330
318F
102
}
330
318F
100
AcDbVisualStyle
  2

 70
     6
177
     2
291
     0
 71
     1
176
     1
 72
     2
176
     1
 73
     2
176
     1
 90
        0
176
     1
 40
0.6
176
     1
 41
30.0
176
     1
 63
     7
176
     1
 74
     2
176
     1
 91
        2
176
     1
 64
     7
176
     1
 65
   257
176
     1
 75
     2
176
     1
175
     1
176
     1
 42
40.0
176
     1
 92
        0
176
     1
 66
   257
176
     1
 43
1.0
176
     1
 76
     1
176
     1
 77
     6
176
     1
 78
     2
176
     1
 67
     7
176
     1
 79
     3
176
     1
170
     0
176
     1
171
     0
176
     1
290
     0
176
     1
 93
        1
176
     1
 44
0.0
176
     1
173
     0
176
     1
1001
ACAD
1000
AcDbSavedByObjectVersion
1070
     0
  0
VISUALSTYLE
  5
1B2EA
102
{ACAD_XDICTIONARY
360
220FE
102
}
102
{ACAD_REACTORS
330
318F
102
}
330
318F
100
AcDbVisualStyle
  2

 70
    20
177
     2
291
     1
 71
     2
176
     0
 72
     2
176
     0
 73
     0
176
     0
 90
        0
176
     0
 40
0.6
176
     0
 41
30.0
176
     0
 63
     7
176
     0
 74
     1
176
     0
 91
        4
176
     0
 64
     7
176
     0
 65
   257
176
     0
 75
     1
176
     0
175
     1
176
     0
 42
1.0
176
     0
 92
       10
176
     2
 66
     7
176
     0
 43
1.0
176
     0
 76
     1
176
     0
 77
     6
176
     0
 78
     2
176
     0
 67
     7
176
     0
 79
     5
176
     0
170
     0
176
     0
171
     0
176
     0
290
     0
176
     0
 93
        1
176
     0
 44
0.0
176
     0
173
     0
176
     0
1001
ACAD
1000
AcDbSavedByObjectVersion
1070
     0
  0
VISUALSTYLE
  5
319D
102
{ACAD_XDICTIONARY
360
220EA
102
}
102
{ACAD_REACTORS
330
318F
102
}
330
318F
100
AcDbVisualStyle
  2

 70
    14
177
     2
291
     1
 71
     2
176
     1
 72
     2
176
     1
 73
     0
176
     1
 90
        0
176
     1
 40
0.6
176
     1
 41
30.0
176
     1
 63
     7
176
     1
 74
     1
176
     1
 91
        4
176
     1
 64
     7
176
     1
 65
   257
176
     1
 75
     7
176
     1
175
     7
176
     1
 42
1.0
176
     1
 92
        8
176
     1
 66
     7
176
     1
 43
1.0
176
     1
 76
     1
176
     1
 77
     6
176
     1
 78
     2
176
     1
 67
     7
176
     1
 79
     5
176
     1
170
     0
176
     1
171
     0
176
     1
290
     0
176
     1
 93
        1
176
     1
 44
0.0
176
     1
173
     0
176
     1
1001
ACAD
1000
AcDbSavedByObjectVersion
1070
     0
  0
VISUALSTYLE
  5
1B2EB
102
{ACAD_XDICTIONARY
360
22100
102
}
102
{ACAD_REACTORS
330
318F
102
}
330
318F
100
AcDbVisualStyle
  2

 70
    21
177
     2
291
     1
 71
     2
176
     0
 72
     2
176
     0
 73
     0
176
     0
 90
        0
176
     0
 40
0.6
176
     0
 41
30.0
176
     0
 63
     7
176
     0
 74
     1
176
     0
 91
        4
176
     0
 64
     7
176
     0
 65
   257
176
     0
 75
     1
176
     0
175
     1
176
     0
 42
1.0
176
     0
 92
        9
176
     2
 66
     7
176
     0
 43
1.0
176
     0
 76
     1
176
     0
 77
     6
176
     0
 78
     2
176
     0
 67
     7
176
     0
 79
     5
176
     0
170
     0
176
     0
171
     0
176
     0
290
     0
176
     0
 93
        1
176
     0
 44
0.0
176
     0
173
     0
176
     0
1001
ACAD
1000
AcDbSavedByObjectVersion
1070
     0
  0
VISUALSTYLE
  5
3199
102
{ACAD_XDICTIONARY
360
220E2
102
}
102
{ACAD_REACTORS
330
318F
102
}
330
318F
100
AcDbVisualStyle
  2

 70
     8
177
     2
291
     0
 71
     2
176
     1
 72
     2
176
     1
 73
     0
176
     1
 90
        0
176
     1
 40
0.6
176
     1
 41
30.0
176
     1
 63
     7
176
     1
 74
     1
176
     1
 91
        0
176
     1
 64
     7
176
     1
 65
   257
176
     1
 75
     1
176
     1
175
     1
176
     1
 42
1.0
176
     1
 92
        8
176
     1
 66
     8
176
     1
 43
1.0
176
     1
 76
     1
176
     1
 77
     6
176
     1
 78
     2
176
     1
 67
     7
176
     1
 79
     5
176
     1
170
     0
176
     1
171
     0
176
     1
290
     0
176
     1
 93
       13
176
     1
 44
0.0
176
     1
173
     0
176
     1
1001
ACAD
1000
AcDbSavedByObjectVersion
1070
     0
  0
VISUALSTYLE
  5
1B2E9
102
{ACAD_XDICTIONARY
360
220FC
102
}
102
{ACAD_REACTORS
330
318F
102
}
330
318F
100
AcDbVisualStyle
  2

 70
    27
177
     2
291
     0
 71
     2
176
     1
 72
     2
176
     1
 73
     1
176
     1
 90
        2
176
     1
 40
0.6
176
     1
 41
30.0
176
     1
 63
     7
176
     1
 74
     0
176
     1
 91
        4
176
     1
 64
     7
176
     1
 65
   257
176
     1
 75
     1
176
     1
175
     1
176
     1
 42
1.0
176
     1
 92
        8
176
     1
 66
   257
176
     1
 43
1.0
176
     1
 76
     1
176
     1
 77
     6
176
     1
 78
     2
176
     1
 67
     8
176
     1
 79
     3
176
     1
170
     0
176
     1
171
     0
176
     1
290
     0
176
     1
 93
        5
176
     1
 44
0.0
176
     1
173
     0
176
     1
1001
ACAD
1000
AcDbSavedByObjectVersion
1070
     0
  0
VISUALSTYLE
  5
1B2E8
102
{ACAD_XDICTIONARY
360
220FA
102
}
102
{ACAD_REACTORS
330
318F
102
}
330
318F
100
AcDbVisualStyle
  2

 70
    26
177
     2
291
     0
 71
     2
176
     1
 72
     2
176
     1
 73
     1
176
     1
 90
        2
176
     1
 40
0.6
176
     1
 41
30.0
176
     1
 63
     7
176
     1
 74
     1
176
     1
 91
       10
176
     1
 64
     7
176
     1
 65
   257
176
     1
 75
     2
176
     1
175
     1
176
     1
 42
1.0
176
     1
 92
        8
176
     1
 66
   257
176
     1
 43
1.0
176
     1
 76
     1
176
     1
 77
     6
176
     1
 78
     2
176
     1
 67
     7
176
     1
 79
     3
176
     1
170
     0
176
     1
171
     0
176
     1
290
     0
176
     1
 93
        5
176
     1
 44
0.0
176
     1
173
     0
176
     1
1001
ACAD
1000
AcDbSavedByObjectVersion
1070
     0
  0
VISUALSTYLE
  5
1B2E5
102
{ACAD_XDICTIONARY
360
220F4
102
}
102
{ACAD_REACTORS
330
318F
102
}
330
318F
100
AcDbVisualStyle
  2

 70
    23
177
     2
291
     0
 71
     2
176
     1
 72
     2
176
     1
 73
     3
176
     1
 90
        0
176
     1
 40
0.6
176
     1
 41
30.0
176
     1
 63
     7
176
     1
 74
     2
176
     1
 91
        2
176
     1
 64
     7
176
     1
 65
     7
176
     1
 75
     1
176
     1
175
     1
176
     1
 42
40.0
176
     1
 92
        8
176
     1
 66
     7
176
     1
 43
1.0
176
     1
 76
     1
176
     1
 77
     6
176
     1
 78
     2
176
     1
 67
     7
176
     1
 79
     3
176
     1
170
     0
176
     1
171
     0
176
     1
290
     0
176
     1
 93
        1
176
     1
 44
0.0
176
     1
173
     0
176
     1
1001
ACAD
1000
AcDbSavedByObjectVersion
1070
     0
  0
VISUALSTYLE
  5
1B2E6
102
{ACAD_XDICTIONARY
360
220F6
102
}
102
{ACAD_REACTORS
330
318F
102
}
330
318F
100
AcDbVisualStyle
  2

 70
    24
177
     2
291
     0
 71
     1
176
     1
 72
     2
176
     1
 73
     2
176
     1
 90
        0
176
     1
 40
0.6
176
     1
 41
30.0
176
     1
 63
     7
176
     1
 74
     2
176
     1
 91
        2
176
     1
 64
     7
176
     1
 65
     7
176
     1
 75
     1
176
     1
175
     1
176
     1
 42
40.0
176
     1
 92
       11
176
     1
 66
     7
176
     1
 43
1.0
176
     1
 76
     1
176
     1
 77
     6
176
     1
 78
     2
176
     1
 67
     7
176
     1
 79
     6
176
     1
170
     0
176
     1
171
     0
176
     1
290
     0
176
     1
 93
        1
176
     1
 44
0.0
176
     1
173
     0
176
     1
1001
ACAD
1000
AcDbSavedByObjectVersion
1070
     0
  0
VISUALSTYLE
  5
319C
102
{ACAD_XDICTIONARY
360
220E8
102
}
102
{ACAD_REACTORS
330
318F
102
}
330
318F
100
AcDbVisualStyle
  2

 70
    13
177
     2
291
     1
 71
     2
176
     1
 72
     2
176
     1
 73
     0
176
     1
 90
        0
176
     1
 40
0.6
176
     1
 41
30.0
176
     1
 63
     7
176
     1
 74
     1
176
     1
 91
        4
176
     1
 64
     7
176
     1
 65
   257
176
     1
 75
     1
176
     1
175
     1
176
     1
 42
1.0
176
     1
 92
       12
176
     1
 66
     7
176
     1
 43
1.0
176
     1
 76
     1
176
     1
 77
     6
176
     1
 78
     2
176
     1
 67
     7
176
     1
 79
     5
176
     1
170
     0
176
     1
171
     0
176
     1
290
     0
176
     1
 93
        1
176
     1
 44
0.0
176
     1
173
     0
176
     1
1001
ACAD
1000
AcDbSavedByObjectVersion
1070
     0
  0
VISUALSTYLE
  5
1B2E3
102
{ACAD_XDICTIONARY
360
220F0
102
}
102
{ACAD_REACTORS
330
318F
102
}
330
318F
100
AcDbVisualStyle
  2

 70
     5
177
     2
291
     0
 71
     0
176
     1
 72
     2
176
     1
 73
     0
176
     1
 90
        0
176
     1
 40
0.6
176
     1
 41
30.0
176
     1
 63
     7
176
     1
 74
     1
176
     1
 91
        4
176
     1
 64
     7
176
     1
 65
   257
176
     1
 75
     1
176
     1
175
     1
176
     1
 42
1.0
176
     1
 92
        0
176
     1
 66
   257
176
     1
 43
1.0
176
     1
 76
     1
176
     1
 77
     6
176
     1
 78
     2
176
     1
 67
     7
176
     1
 79
     3
176
     1
170
     0
176
     1
171
     0
176
     1
290
     0
176
     1
 93
        1
176
     1
 44
0.0
176
     1
173
     0
176
     1
1001
ACAD
1000
AcDbSavedByObjectVersion
1070
     0
  0
VISUALSTYLE
  5
1B2E7
102
{ACAD_XDICTIONARY
360
220F8
102
}
102
{ACAD_REACTORS
330
318F
102
}
330
318F
100
AcDbVisualStyle
  2

 70
    25
177
     2
291
     0
 71
     2
176
     1
 72
     2
176
     1
 73
     1
176
     1
 90
        1
176
     1
 40
0.5
176
     1
 41
30.0
176
     1
 63
     7
176
     1
 74
     1
176
     1
 91
        0
176
     1
 64
     7
176
     1
 65
   257
176
     1
 75
     1
176
     1
175
     1
176
     1
 42
1.0
176
     1
 92
        8
176
     1
 66
     7
176
     1
 43
1.0
176
     1
 76
     1
176
     1
 77
     6
176
     1
 78
     2
176
     1
 67
     7
176
     1
 79
     3
176
     1
170
     0
176
     1
171
     0
176
     1
290
     0
176
     1
 93
       13
176
     1
 44
0.0
176
     1
173
     0
176
     1
1001
ACAD
1000
AcDbSavedByObjectVersion
1070
     0
  0
DICTIONARYVAR
  5
1B222
102
{ACAD_REACTORS
330
33A3
102
}
330
33A3
100
DictionaryVariables
280
     0
  1
1:1
  0
DICTIONARYVAR
  5
1B30F
102
{ACAD_REACTORS
330
33A3
102
}
330
33A3
100
DictionaryVariables
280
     0
  1
STANDARD
  0
DICTIONARYVAR
  5
33A4
102
{ACAD_REACTORS
330
33A3
102
}
330
33A3
100
DictionaryVariables
280
     0
  1
STANDARD
  0
DICTIONARYVAR
  5
1B310
102
{ACAD_REACTORS
330
33A3
102
}
330
33A3
100
DictionaryVariables
280
     0
  1
Metric50
  0
DICTIONARYVAR
  5
1B311
102
{ACAD_REACTORS
330
33A3
102
}
330
33A3
100
DictionaryVariables
280
     0
  1
Metric50
  0
DICTIONARYVAR
  5
9BE8
102
{ACAD_REACTORS
330
33A3
102
}
330
33A3
100
DictionaryVariables
280
     0
  1
1
  0
DICTIONARYVAR
  5
9BE7
102
{ACAD_REACTORS
330
33A3
102
}
330
33A3
100
DictionaryVariables
280
     0
  1
0
  0
DICTIONARYVAR
  5
20993
102
{ACAD_REACTORS
330
33A3
102
}
330
33A3
100
DictionaryVariables
280
     0
  1
1
  0
DICTIONARYVAR
  5
20994
102
{ACAD_REACTORS
330
33A3
102
}
330
33A3
100
DictionaryVariables
280
     0
  1
15
  0
DICTIONARYVAR
  5
20992
102
{ACAD_REACTORS
330
33A3
102
}
330
33A3
100
DictionaryVariables
280
     0
  1
0
  0
DICTIONARYVAR
  5
20991
102
{ACAD_REACTORS
330
33A3
102
}
330
33A3
100
DictionaryVariables
280
     0
  1
0
  0
DICTIONARYVAR
  5
9BE6
102
{ACAD_REACTORS
330
33A3
102
}
330
33A3
100
DictionaryVariables
280
     0
  1
127
  0
DICTIONARY
  5
2210A
330
20CB3
100
AcDbDictionary
280
     1
281
     1
  3
ACAD_XREC_ROUNDTRIP
360
2210B
  0
DICTIONARY
  5
22106
330
1B2F1
100
AcDbDictionary
280
     1
281
     1
  3
ACAD_XREC_ROUNDTRIP
360
22107
  0
DICTIONARY
  5
1B22B
330
318D
100
AcDbDictionary
280
     1
281
     1
  3
ACAD_XREC_ROUNDTRIP
360
1B22C
  0
DICTIONARY
  5
1B22D
330
318C
100
AcDbDictionary
280
     1
281
     1
  3
ACAD_XREC_ROUNDTRIP
360
1B22E
  0
DICTIONARY
  5
1B22F
330
318E
100
AcDbDictionary
280
     1
281
     1
  3
ACAD_XREC_ROUNDTRIP
360
1B230
  0
DICTIONARY
  5
22108
330
20CB1
100
AcDbDictionary
280
     1
281
     1
  3
ACAD_XREC_ROUNDTRIP
360
22109
  0
DICTIONARY
  5
22104
330
1B2EF
100
AcDbDictionary
280
     1
281
     1
  3
ACAD_XREC_ROUNDTRIP
360
22105
  0
DICTIONARY
  5
1B314
330
31A2
100
AcDbDictionary
280
     1
281
     1
  3
ACAD_ROUNDTRIP_2008_TABLESTYLE_CELLSTYLEMAP
360
220CE
  0
DICTIONARY
  5
220DA
330
3195
100
AcDbDictionary
280
     1
281
     1
  3
ACAD_XREC_ROUNDTRIP
360
220DB
  0
DICTIONARY
  5
220DE
330
3197
100
AcDbDictionary
280
     1
281
     1
  3
ACAD_XREC_ROUNDTRIP
360
220DF
  0
DICTIONARY
  5
220DC
330
3196
100
AcDbDictionary
280
     1
281
     1
  3
ACAD_XREC_ROUNDTRIP
360
220DD
  0
DICTIONARY
  5
220D8
330
3194
100
AcDbDictionary
280
     1
281
     1
  3
ACAD_XREC_ROUNDTRIP
360
220D9
  0
DICTIONARY
  5
220E6
330
319B
100
AcDbDictionary
280
     1
281
     1
  3
ACAD_XREC_ROUNDTRIP
360
220E7
  0
DICTIONARY
  5
220EE
330
319F
100
AcDbDictionary
280
     1
281
     1
  3
ACAD_XREC_ROUNDTRIP
360
220EF
  0
DICTIONARY
  5
220E0
330
3198
100
AcDbDictionary
280
     1
281
     1
  3
ACAD_XREC_ROUNDTRIP
360
220E1
  0
DICTIONARY
  5
220E4
330
319A
100
AcDbDictionary
280
     1
281
     1
  3
ACAD_XREC_ROUNDTRIP
360
220E5
  0
DICTIONARY
  5
22102
330
1B2EC
100
AcDbDictionary
280
     1
281
     1
  3
ACAD_XREC_ROUNDTRIP
360
22103
  0
DICTIONARY
  5
220EC
330
319E
100
AcDbDictionary
280
     1
281
     1
  3
ACAD_XREC_ROUNDTRIP
360
220ED
  0
DICTIONARY
  5
220D0
330
3190
100
AcDbDictionary
280
     1
281
     1
  3
ACAD_XREC_ROUNDTRIP
360
220D1
  0
DICTIONARY
  5
220D2
330
3191
100
AcDbDictionary
280
     1
281
     1
  3
ACAD_XREC_ROUNDTRIP
360
220D3
  0
DICTIONARY
  5
220D4
330
3192
100
AcDbDictionary
280
     1
281
     1
  3
ACAD_XREC_ROUNDTRIP
360
220D5
  0
DICTIONARY
  5
220D6
330
3193
100
AcDbDictionary
280
     1
281
     1
  3
ACAD_XREC_ROUNDTRIP
360
220D7
  0
DICTIONARY
  5
220F2
330
1B2E4
100
AcDbDictionary
280
     1
281
     1
  3
ACAD_XREC_ROUNDTRIP
360
220F3
  0
DICTIONARY
  5
220FE
330
1B2EA
100
AcDbDictionary
280
     1
281
     1
  3
ACAD_XREC_ROUNDTRIP
360
220FF
  0
DICTIONARY
  5
220EA
330
319D
100
AcDbDictionary
280
     1
281
     1
  3
ACAD_XREC_ROUNDTRIP
360
220EB
  0
DICTIONARY
  5
22100
330
1B2EB
100
AcDbDictionary
280
     1
281
     1
  3
ACAD_XREC_ROUNDTRIP
360
22101
  0
DICTIONARY
  5
220E2
330
3199
100
AcDbDictionary
280
     1
281
     1
  3
ACAD_XREC_ROUNDTRIP
360
220E3
  0
DICTIONARY
  5
220FC
330
1B2E9
100
AcDbDictionary
280
     1
281
     1
  3
ACAD_XREC_ROUNDTRIP
360
220FD
  0
DICTIONARY
  5
220FA
330
1B2E8
100
AcDbDictionary
280
     1
281
     1
  3
ACAD_XREC_ROUNDTRIP
360
220FB
  0
DICTIONARY
  5
220F4
330
1B2E5
100
AcDbDictionary
280
     1
281
     1
  3
ACAD_XREC_ROUNDTRIP
360
220F5
  0
DICTIONARY
  5
220F6
330
1B2E6
100
AcDbDictionary
280
     1
281
     1
  3
ACAD_XREC_ROUNDTRIP
360
220F7
  0
DICTIONARY
  5
220E8
330
319C
100
AcDbDictionary
280
     1
281
     1
  3
ACAD_XREC_ROUNDTRIP
360
220E9
  0
DICTIONARY
  5
220F0
330
1B2E3
100
AcDbDictionary
280
     1
281
     1
  3
ACAD_XREC_ROUNDTRIP
360
220F1
  0
DICTIONARY
  5
220F8
330
1B2E7
100
AcDbDictionary
280
     1
281
     1
  3
ACAD_XREC_ROUNDTRIP
360
220F9
  0
XRECORD
  5
2210B
102
{ACAD_REACTORS
330
2210A
102
}
330
2210A
100
AcDbXrecord
280
     1
102
DISPLAYNAME
  1
Imperial24
102
FLAGS
 90
        0
  0
XRECORD
  5
22107
102
{ACAD_REACTORS
330
22106
102
}
330
22106
100
AcDbXrecord
280
     1
102
DISPLAYNAME
  1
Metric50
102
FLAGS
 90
        0
  0
XRECORD
  5
1B22C
102
{ACAD_REACTORS
330
1B22B
102
}
330
1B22B
100
AcDbXrecord
280
     1
102
MATERIAL
148
0.0
149
0.0
149
0.0
 93
        0
 94
      127
282
     0
 72
     1
 77
     1
171
     1
175
     1
179
     1
273
     0
  0
XRECORD
  5
1B22E
102
{ACAD_REACTORS
330
1B22D
102
}
330
1B22D
100
AcDbXrecord
280
     1
102
MATERIAL
148
0.0
149
0.0
149
0.0
 93
        0
 94
      127
282
     0
 72
     1
 77
     1
171
     1
175
     1
179
     1
273
     0
  0
XRECORD
  5
1B230
102
{ACAD_REACTORS
330
1B22F
102
}
330
1B22F
100
AcDbXrecord
280
     1
102
MATERIAL
148
0.0
149
0.0
149
0.0
 93
        0
 94
      127
282
     0
 72
     1
 77
     1
171
     1
175
     1
179
     1
273
     0
  0
XRECORD
  5
22109
102
{ACAD_REACTORS
330
22108
102
}
330
22108
100
AcDbXrecord
280
     1
102
DISPLAYNAME
  1
Imperial24
102
FLAGS
 90
        0
  0
XRECORD
  5
22105
102
{ACAD_REACTORS
330
22104
102
}
330
22104
100
AcDbXrecord
280
     1
102
DISPLAYNAME
  1
Metric50
102
FLAGS
 90
        0
  0
CELLSTYLEMAP
  5
220CE
102
{ACAD_REACTORS
330
1B314
102
}
330
1B314
100
AcDbCellStyleMap
 90
        3
300
CELLSTYLE
  1
TABLEFORMAT_BEGIN
 90
        5
170
     1
 91
        0
 92
    32768
 62
   257
 93
        1
300
CONTENTFORMAT
  1
CONTENTFORMAT_BEGIN
 90
        0
 91
        0
 92
        4
 93
        0
300

 40
0.0
140
1.0
 94
        5
 62
     0
340
11
144
6.0
309
CONTENTFORMAT_END
171
     1
301
MARGIN
  1
CELLMARGIN_BEGIN
 40
1.5
 40
1.5
 40
1.5
 40
1.5
 40
0.18
 40
0.18
309
CELLMARGIN_END
 94
        6
 95
        1
302
GRIDFORMAT
  1
GRIDFORMAT_BEGIN
 90
        0
 91
        1
 62
     0
 92
       -2
340
0
 93
        0
 40
0.045
309
GRIDFORMAT_END
 95
        2
302
GRIDFORMAT
  1
GRIDFORMAT_BEGIN
 90
        0
 91
        1
 62
     0
 92
       -2
340
0
 93
        0
 40
0.045
309
GRIDFORMAT_END
 95
        4
302
GRIDFORMAT
  1
GRIDFORMAT_BEGIN
 90
        0
 91
        1
 62
     0
 92
       -2
340
0
 93
        0
 40
0.045
309
GRIDFORMAT_END
 95
        8
302
GRIDFORMAT
  1
GRIDFORMAT_BEGIN
 90
        0
 91
        1
 62
     0
 92
       -2
340
0
 93
        0
 40
0.045
309
GRIDFORMAT_END
 95
       16
302
GRIDFORMAT
  1
GRIDFORMAT_BEGIN
 90
        0
 91
        1
 62
     0
 92
       -2
340
0
 93
        0
 40
0.045
309
GRIDFORMAT_END
 95
       32
302
GRIDFORMAT
  1
GRIDFORMAT_BEGIN
 90
        0
 91
        1
 62
     0
 92
       -2
340
0
 93
        0
 40
0.045
309
GRIDFORMAT_END
309
TABLEFORMAT_END
  1
CELLSTYLE_BEGIN
 90
        1
 91
        1
300
_TITLE
309
CELLSTYLE_END
300
CELLSTYLE
  1
TABLEFORMAT_BEGIN
 90
        5
170
     1
 91
        0
 92
        0
 62
   257
 93
        1
300
CONTENTFORMAT
  1
CONTENTFORMAT_BEGIN
 90
        0
 91
        0
 92
        4
 93
        0
300

 40
0.0
140
1.0
 94
        5
 62
     0
340
11
144
4.5
309
CONTENTFORMAT_END
171
     1
301
MARGIN
  1
CELLMARGIN_BEGIN
 40
1.5
 40
1.5
 40
1.5
 40
1.5
 40
0.18
 40
0.18
309
CELLMARGIN_END
 94
        6
 95
        1
302
GRIDFORMAT
  1
GRIDFORMAT_BEGIN
 90
        0
 91
        1
 62
     0
 92
       -2
340
0
 93
        0
 40
0.045
309
GRIDFORMAT_END
 95
        2
302
GRIDFORMAT
  1
GRIDFORMAT_BEGIN
 90
        0
 91
        1
 62
     0
 92
       -2
340
0
 93
        0
 40
0.045
309
GRIDFORMAT_END
 95
        4
302
GRIDFORMAT
  1
GRIDFORMAT_BEGIN
 90
        0
 91
        1
 62
     0
 92
       -2
340
0
 93
        0
 40
0.045
309
GRIDFORMAT_END
 95
        8
302
GRIDFORMAT
  1
GRIDFORMAT_BEGIN
 90
        0
 91
        1
 62
     0
 92
       -2
340
0
 93
        0
 40
0.045
309
GRIDFORMAT_END
 95
       16
302
GRIDFORMAT
  1
GRIDFORMAT_BEGIN
 90
        0
 91
        1
 62
     0
 92
       -2
340
0
 93
        0
 40
0.045
309
GRIDFORMAT_END
 95
       32
302
GRIDFORMAT
  1
GRIDFORMAT_BEGIN
 90
        0
 91
        1
 62
     0
 92
       -2
340
0
 93
        0
 40
0.045
309
GRIDFORMAT_END
309
TABLEFORMAT_END
  1
CELLSTYLE_BEGIN
 90
        2
 91
        1
300
_HEADER
309
CELLSTYLE_END
300
CELLSTYLE
  1
TABLEFORMAT_BEGIN
 90
        5
170
     1
 91
        0
 92
        0
 62
   257
 93
        1
300
CONTENTFORMAT
  1
CONTENTFORMAT_BEGIN
 90
        0
 91
        0
 92
        4
 93
        0
300

 40
0.0
140
1.0
 94
        2
 62
     0
340
11
144
4.5
309
CONTENTFORMAT_END
171
     1
301
MARGIN
  1
CELLMARGIN_BEGIN
 40
1.5
 40
1.5
 40
1.5
 40
1.5
 40
0.18
 40
0.18
309
CELLMARGIN_END
 94
        6
 95
        1
302
GRIDFORMAT
  1
GRIDFORMAT_BEGIN
 90
        0
 91
        1
 62
     0
 92
       -2
340
0
 93
        0
 40
0.045
309
GRIDFORMAT_END
 95
        2
302
GRIDFORMAT
  1
GRIDFORMAT_BEGIN
 90
        0
 91
        1
 62
     0
 92
       -2
340
0
 93
        0
 40
0.045
309
GRIDFORMAT_END
 95
        4
302
GRIDFORMAT
  1
GRIDFORMAT_BEGIN
 90
        0
 91
        1
 62
     0
 92
       -2
340
0
 93
        0
 40
0.045
309
GRIDFORMAT_END
 95
        8
302
GRIDFORMAT
  1
GRIDFORMAT_BEGIN
 90
        0
 91
        1
 62
     0
 92
       -2
340
0
 93
        0
 40
0.045
309
GRIDFORMAT_END
 95
       16
302
GRIDFORMAT
  1
GRIDFORMAT_BEGIN
 90
        0
 91
        1
 62
     0
 92
       -2
340
0
 93
        0
 40
0.045
309
GRIDFORMAT_END
 95
       32
302
GRIDFORMAT
  1
GRIDFORMAT_BEGIN
 90
        0
 91
        1
 62
     0
 92
       -2
340
0
 93
        0
 40
0.045
309
GRIDFORMAT_END
309
TABLEFORMAT_END
  1
CELLSTYLE_BEGIN
 90
        3
 91
        2
300
_DATA
309
CELLSTYLE_END
  0
XRECORD
  5
220DB
102
{ACAD_REACTORS
330
220DA
102
}
330
220DA
100
AcDbXrecord
280
     1
102
RTVSPost2010Prop28
280
     1
102
RTVSPost2010PropOp28
 70
     1
102
RTVSPost2010Prop29
280
     1
102
RTVSPost2010PropOp29
 70
     1
102
RTVSPost2010Prop30
280
     0
102
RTVSPost2010PropOp30
 70
     1
102
RTVSPost2010Prop31
280
     0
102
RTVSPost2010PropOp31
 70
     1
102
RTVSPost2010Prop32
280
     0
102
RTVSPost2010PropOp32
 70
     1
102
RTVSPost2010Prop33
280
     0
102
RTVSPost2010PropOp33
 70
     1
102
RTVSPost2010Prop34
280
     0
102
RTVSPost2010PropOp34
 70
     1
102
RTVSPost2010Prop35
280
     0
102
RTVSPost2010PropOp35
 70
     1
102
RTVSPost2010Prop36
280
     0
102
RTVSPost2010PropOp36
 70
     1
102
RTVSPost2010Prop37
 90
       50
102
RTVSPost2010PropOp37
 70
     1
102
RTVSPost2010Prop38
140
0.0
102
RTVSPost2010PropOp38
 70
     1
102
RTVSPost2010Prop39
140
1.0
102
RTVSPost2010PropOp39
 70
     1
102
RTVSPost2010Prop40
 90
        0
102
RTVSPost2010PropOp40
 70
     1
102
RTVSPost2010Prop41ColorIndex
 90
       18
102
RTVSPost2010Prop41ColorRGB
 90
        0
102
RTVSPost2010PropOp41
 70
     1
102
RTVSPost2010Prop42
 90
       50
102
RTVSPost2010PropOp42
 70
     1
102
RTVSPost2010Prop43
 90
        3
102
RTVSPost2010PropOp43
 70
     1
102
RTVSPost2010Prop44ColorIndex
 90
        5
102
RTVSPost2010Prop44ColorRGB
 90
      255
102
RTVSPost2010PropOp44
 70
     1
102
RTVSPost2010Prop45
280
     0
102
RTVSPost2010PropOp45
 70
     1
102
RTVSPost2010Prop46
 90
       50
102
RTVSPost2010PropOp46
 70
     1
102
RTVSPost2010Prop47
 90
       50
102
RTVSPost2010PropOp47
 70
     1
102
RTVSPost2010Prop48
 90
       50
102
RTVSPost2010PropOp48
 70
     1
102
RTVSPost2010Prop49
280
     0
102
RTVSPost2010PropOp49
 70
     1
102
RTVSPost2010Prop50
 90
       50
102
RTVSPost2010PropOp50
 70
     1
102
RTVSPost2010Prop51ColorIndex
 90
      256
102
RTVSPost2010Prop51ColorRGB
 90
-16777216
102
RTVSPost2010PropOp51
 70
     0
102
RTVSPost2010Prop52
140
1.0
102
RTVSPost2010PropOp52
 70
     0
102
RTVSPost2010Prop53
 90
        2
102
RTVSPost2010PropOp53
 70
     1
102
RTVSPost2010Prop54
  1
strokes_ogs.tif
102
RTVSPost2010PropOp54
 70
     1
102
RTVSPost2010Prop55
280
     0
102
RTVSPost2010PropOp55
 70
     1
102
RTVSPost2010Prop56
140
1.0
102
RTVSPost2010PropOp56
 70
     1
102
RTVSPost2010Prop57
140
1.0
102
RTVSPost2010PropOp57
 70
     1
  0
XRECORD
  5
220DF
102
{ACAD_REACTORS
330
220DE
102
}
330
220DE
100
AcDbXrecord
280
     1
102
RTVSPost2010Prop28
280
     0
102
RTVSPost2010PropOp28
 70
     1
102
RTVSPost2010Prop29
280
     1
102
RTVSPost2010PropOp29
 70
     1
102
RTVSPost2010Prop30
280
     1
102
RTVSPost2010PropOp30
 70
     1
102
RTVSPost2010Prop31
280
     0
102
RTVSPost2010PropOp31
 70
     1
102
RTVSPost2010Prop32
280
     0
102
RTVSPost2010PropOp32
 70
     1
102
RTVSPost2010Prop33
280
     0
102
RTVSPost2010PropOp33
 70
     1
102
RTVSPost2010Prop34
280
     0
102
RTVSPost2010PropOp34
 70
     1
102
RTVSPost2010Prop35
280
     0
102
RTVSPost2010PropOp35
 70
     1
102
RTVSPost2010Prop36
280
     0
102
RTVSPost2010PropOp36
 70
     1
102
RTVSPost2010Prop37
 90
       50
102
RTVSPost2010PropOp37
 70
     1
102
RTVSPost2010Prop38
140
0.0
102
RTVSPost2010PropOp38
 70
     1
102
RTVSPost2010Prop39
140
1.0
102
RTVSPost2010PropOp39
 70
     1
102
RTVSPost2010Prop40
 90
        0
102
RTVSPost2010PropOp40
 70
     1
102
RTVSPost2010Prop41ColorIndex
 90
       18
102
RTVSPost2010Prop41ColorRGB
 90
        0
102
RTVSPost2010PropOp41
 70
     1
102
RTVSPost2010Prop42
 90
       50
102
RTVSPost2010PropOp42
 70
     1
102
RTVSPost2010Prop43
 90
        3
102
RTVSPost2010PropOp43
 70
     1
102
RTVSPost2010Prop44ColorIndex
 90
        5
102
RTVSPost2010Prop44ColorRGB
 90
      255
102
RTVSPost2010PropOp44
 70
     1
102
RTVSPost2010Prop45
280
     0
102
RTVSPost2010PropOp45
 70
     1
102
RTVSPost2010Prop46
 90
       50
102
RTVSPost2010PropOp46
 70
     1
102
RTVSPost2010Prop47
 90
       50
102
RTVSPost2010PropOp47
 70
     1
102
RTVSPost2010Prop48
 90
       50
102
RTVSPost2010PropOp48
 70
     1
102
RTVSPost2010Prop49
280
     0
102
RTVSPost2010PropOp49
 70
     1
102
RTVSPost2010Prop50
 90
       50
102
RTVSPost2010PropOp50
 70
     1
102
RTVSPost2010Prop51ColorIndex
 90
      256
102
RTVSPost2010Prop51ColorRGB
 90
-16777216
102
RTVSPost2010PropOp51
 70
     0
102
RTVSPost2010Prop52
140
1.0
102
RTVSPost2010PropOp52
 70
     0
102
RTVSPost2010Prop53
 90
        2
102
RTVSPost2010PropOp53
 70
     1
102
RTVSPost2010Prop54
  1
strokes_ogs.tif
102
RTVSPost2010PropOp54
 70
     1
102
RTVSPost2010Prop55
280
     0
102
RTVSPost2010PropOp55
 70
     1
102
RTVSPost2010Prop56
140
1.0
102
RTVSPost2010PropOp56
 70
     1
102
RTVSPost2010Prop57
140
1.0
102
RTVSPost2010PropOp57
 70
     1
  0
XRECORD
  5
220DD
102
{ACAD_REACTORS
330
220DC
102
}
330
220DC
100
AcDbXrecord
280
     1
102
RTVSPost2010Prop28
280
     0
102
RTVSPost2010PropOp28
 70
     1
102
RTVSPost2010Prop29
280
     1
102
RTVSPost2010PropOp29
 70
     1
102
RTVSPost2010Prop30
280
     1
102
RTVSPost2010PropOp30
 70
     1
102
RTVSPost2010Prop31
280
     0
102
RTVSPost2010PropOp31
 70
     1
102
RTVSPost2010Prop32
280
     0
102
RTVSPost2010PropOp32
 70
     1
102
RTVSPost2010Prop33
280
     0
102
RTVSPost2010PropOp33
 70
     1
102
RTVSPost2010Prop34
280
     0
102
RTVSPost2010PropOp34
 70
     1
102
RTVSPost2010Prop35
280
     0
102
RTVSPost2010PropOp35
 70
     1
102
RTVSPost2010Prop36
280
     0
102
RTVSPost2010PropOp36
 70
     1
102
RTVSPost2010Prop37
 90
       50
102
RTVSPost2010PropOp37
 70
     1
102
RTVSPost2010Prop38
140
0.0
102
RTVSPost2010PropOp38
 70
     1
102
RTVSPost2010Prop39
140
1.0
102
RTVSPost2010PropOp39
 70
     1
102
RTVSPost2010Prop40
 90
        0
102
RTVSPost2010PropOp40
 70
     1
102
RTVSPost2010Prop41ColorIndex
 90
       18
102
RTVSPost2010Prop41ColorRGB
 90
        0
102
RTVSPost2010PropOp41
 70
     1
102
RTVSPost2010Prop42
 90
       50
102
RTVSPost2010PropOp42
 70
     1
102
RTVSPost2010Prop43
 90
        3
102
RTVSPost2010PropOp43
 70
     1
102
RTVSPost2010Prop44ColorIndex
 90
        5
102
RTVSPost2010Prop44ColorRGB
 90
      255
102
RTVSPost2010PropOp44
 70
     1
102
RTVSPost2010Prop45
280
     0
102
RTVSPost2010PropOp45
 70
     1
102
RTVSPost2010Prop46
 90
       50
102
RTVSPost2010PropOp46
 70
     1
102
RTVSPost2010Prop47
 90
       50
102
RTVSPost2010PropOp47
 70
     1
102
RTVSPost2010Prop48
 90
       50
102
RTVSPost2010PropOp48
 70
     1
102
RTVSPost2010Prop49
280
     0
102
RTVSPost2010PropOp49
 70
     1
102
RTVSPost2010Prop50
 90
       50
102
RTVSPost2010PropOp50
 70
     1
102
RTVSPost2010Prop51ColorIndex
 90
      256
102
RTVSPost2010Prop51ColorRGB
 90
-16777216
102
RTVSPost2010PropOp51
 70
     0
102
RTVSPost2010Prop52
140
1.0
102
RTVSPost2010PropOp52
 70
     0
102
RTVSPost2010Prop53
 90
        2
102
RTVSPost2010PropOp53
 70
     1
102
RTVSPost2010Prop54
  1
strokes_ogs.tif
102
RTVSPost2010PropOp54
 70
     1
102
RTVSPost2010Prop55
280
     0
102
RTVSPost2010PropOp55
 70
     1
102
RTVSPost2010Prop56
140
1.0
102
RTVSPost2010PropOp56
 70
     1
102
RTVSPost2010Prop57
140
1.0
102
RTVSPost2010PropOp57
 70
     1
  0
XRECORD
  5
220D9
102
{ACAD_REACTORS
330
220D8
102
}
330
220D8
100
AcDbXrecord
280
     1
102
RTVSPost2010Prop28
280
     0
102
RTVSPost2010PropOp28
 70
     1
102
RTVSPost2010Prop29
280
     1
102
RTVSPost2010PropOp29
 70
     1
102
RTVSPost2010Prop30
280
     1
102
RTVSPost2010PropOp30
 70
     1
102
RTVSPost2010Prop31
280
     0
102
RTVSPost2010PropOp31
 70
     1
102
RTVSPost2010Prop32
280
     0
102
RTVSPost2010PropOp32
 70
     1
102
RTVSPost2010Prop33
280
     0
102
RTVSPost2010PropOp33
 70
     1
102
RTVSPost2010Prop34
280
     0
102
RTVSPost2010PropOp34
 70
     1
102
RTVSPost2010Prop35
280
     0
102
RTVSPost2010PropOp35
 70
     1
102
RTVSPost2010Prop36
280
     0
102
RTVSPost2010PropOp36
 70
     1
102
RTVSPost2010Prop37
 90
       50
102
RTVSPost2010PropOp37
 70
     1
102
RTVSPost2010Prop38
140
0.0
102
RTVSPost2010PropOp38
 70
     1
102
RTVSPost2010Prop39
140
1.0
102
RTVSPost2010PropOp39
 70
     1
102
RTVSPost2010Prop40
 90
        0
102
RTVSPost2010PropOp40
 70
     1
102
RTVSPost2010Prop41ColorIndex
 90
       18
102
RTVSPost2010Prop41ColorRGB
 90
        0
102
RTVSPost2010PropOp41
 70
     1
102
RTVSPost2010Prop42
 90
       50
102
RTVSPost2010PropOp42
 70
     1
102
RTVSPost2010Prop43
 90
        3
102
RTVSPost2010PropOp43
 70
     1
102
RTVSPost2010Prop44ColorIndex
 90
        5
102
RTVSPost2010Prop44ColorRGB
 90
      255
102
RTVSPost2010PropOp44
 70
     1
102
RTVSPost2010Prop45
280
     0
102
RTVSPost2010PropOp45
 70
     1
102
RTVSPost2010Prop46
 90
       50
102
RTVSPost2010PropOp46
 70
     1
102
RTVSPost2010Prop47
 90
       50
102
RTVSPost2010PropOp47
 70
     1
102
RTVSPost2010Prop48
 90
       50
102
RTVSPost2010PropOp48
 70
     1
102
RTVSPost2010Prop49
280
     0
102
RTVSPost2010PropOp49
 70
     1
102
RTVSPost2010Prop50
 90
       50
102
RTVSPost2010PropOp50
 70
     1
102
RTVSPost2010Prop51ColorIndex
 90
      256
102
RTVSPost2010Prop51ColorRGB
 90
-16777216
102
RTVSPost2010PropOp51
 70
     0
102
RTVSPost2010Prop52
140
1.0
102
RTVSPost2010PropOp52
 70
     0
102
RTVSPost2010Prop53
 90
        2
102
RTVSPost2010PropOp53
 70
     1
102
RTVSPost2010Prop54
  1
strokes_ogs.tif
102
RTVSPost2010PropOp54
 70
     1
102
RTVSPost2010Prop55
280
     0
102
RTVSPost2010PropOp55
 70
     1
102
RTVSPost2010Prop56
140
1.0
102
RTVSPost2010PropOp56
 70
     1
102
RTVSPost2010Prop57
140
1.0
102
RTVSPost2010PropOp57
 70
     1
  0
XRECORD
  5
220E7
102
{ACAD_REACTORS
330
220E6
102
}
330
220E6
100
AcDbXrecord
280
     1
102
RTVSPost2010Prop28
280
     0
102
RTVSPost2010PropOp28
 70
     1
102
RTVSPost2010Prop29
280
     1
102
RTVSPost2010PropOp29
 70
     1
102
RTVSPost2010Prop30
280
     1
102
RTVSPost2010PropOp30
 70
     1
102
RTVSPost2010Prop31
280
     0
102
RTVSPost2010PropOp31
 70
     1
102
RTVSPost2010Prop32
280
     0
102
RTVSPost2010PropOp32
 70
     1
102
RTVSPost2010Prop33
280
     0
102
RTVSPost2010PropOp33
 70
     1
102
RTVSPost2010Prop34
280
     0
102
RTVSPost2010PropOp34
 70
     1
102
RTVSPost2010Prop35
280
     0
102
RTVSPost2010PropOp35
 70
     1
102
RTVSPost2010Prop36
280
     0
102
RTVSPost2010PropOp36
 70
     1
102
RTVSPost2010Prop37
 90
       50
102
RTVSPost2010PropOp37
 70
     1
102
RTVSPost2010Prop38
140
0.0
102
RTVSPost2010PropOp38
 70
     1
102
RTVSPost2010Prop39
140
1.0
102
RTVSPost2010PropOp39
 70
     1
102
RTVSPost2010Prop40
 90
        0
102
RTVSPost2010PropOp40
 70
     1
102
RTVSPost2010Prop41ColorIndex
 90
       18
102
RTVSPost2010Prop41ColorRGB
 90
        0
102
RTVSPost2010PropOp41
 70
     1
102
RTVSPost2010Prop42
 90
       50
102
RTVSPost2010PropOp42
 70
     1
102
RTVSPost2010Prop43
 90
        3
102
RTVSPost2010PropOp43
 70
     1
102
RTVSPost2010Prop44ColorIndex
 90
        5
102
RTVSPost2010Prop44ColorRGB
 90
      255
102
RTVSPost2010PropOp44
 70
     1
102
RTVSPost2010Prop45
280
     0
102
RTVSPost2010PropOp45
 70
     1
102
RTVSPost2010Prop46
 90
       50
102
RTVSPost2010PropOp46
 70
     1
102
RTVSPost2010Prop47
 90
       50
102
RTVSPost2010PropOp47
 70
     1
102
RTVSPost2010Prop48
 90
       50
102
RTVSPost2010PropOp48
 70
     1
102
RTVSPost2010Prop49
280
     0
102
RTVSPost2010PropOp49
 70
     1
102
RTVSPost2010Prop50
 90
       50
102
RTVSPost2010PropOp50
 70
     1
102
RTVSPost2010Prop51ColorIndex
 90
      256
102
RTVSPost2010Prop51ColorRGB
 90
-16777216
102
RTVSPost2010PropOp51
 70
     0
102
RTVSPost2010Prop52
140
1.0
102
RTVSPost2010PropOp52
 70
     0
102
RTVSPost2010Prop53
 90
        2
102
RTVSPost2010PropOp53
 70
     1
102
RTVSPost2010Prop54
  1
strokes_ogs.tif
102
RTVSPost2010PropOp54
 70
     1
102
RTVSPost2010Prop55
280
     0
102
RTVSPost2010PropOp55
 70
     1
102
RTVSPost2010Prop56
140
1.0
102
RTVSPost2010PropOp56
 70
     1
102
RTVSPost2010Prop57
140
1.0
102
RTVSPost2010PropOp57
 70
     1
  0
XRECORD
  5
220EF
102
{ACAD_REACTORS
330
220EE
102
}
330
220EE
100
AcDbXrecord
280
     1
102
RTVSPost2010Prop28
280
     0
102
RTVSPost2010PropOp28
 70
     1
102
RTVSPost2010Prop29
280
     1
102
RTVSPost2010PropOp29
 70
     1
102
RTVSPost2010Prop30
280
     1
102
RTVSPost2010PropOp30
 70
     1
102
RTVSPost2010Prop31
280
     0
102
RTVSPost2010PropOp31
 70
     1
102
RTVSPost2010Prop32
280
     0
102
RTVSPost2010PropOp32
 70
     1
102
RTVSPost2010Prop33
280
     0
102
RTVSPost2010PropOp33
 70
     1
102
RTVSPost2010Prop34
280
     0
102
RTVSPost2010PropOp34
 70
     1
102
RTVSPost2010Prop35
280
     0
102
RTVSPost2010PropOp35
 70
     1
102
RTVSPost2010Prop36
280
     0
102
RTVSPost2010PropOp36
 70
     1
102
RTVSPost2010Prop37
 90
       50
102
RTVSPost2010PropOp37
 70
     1
102
RTVSPost2010Prop38
140
0.0
102
RTVSPost2010PropOp38
 70
     1
102
RTVSPost2010Prop39
140
1.0
102
RTVSPost2010PropOp39
 70
     1
102
RTVSPost2010Prop40
 90
        0
102
RTVSPost2010PropOp40
 70
     1
102
RTVSPost2010Prop41ColorIndex
 90
       18
102
RTVSPost2010Prop41ColorRGB
 90
        0
102
RTVSPost2010PropOp41
 70
     1
102
RTVSPost2010Prop42
 90
       50
102
RTVSPost2010PropOp42
 70
     1
102
RTVSPost2010Prop43
 90
        3
102
RTVSPost2010PropOp43
 70
     1
102
RTVSPost2010Prop44ColorIndex
 90
        5
102
RTVSPost2010Prop44ColorRGB
 90
      255
102
RTVSPost2010PropOp44
 70
     1
102
RTVSPost2010Prop45
280
     0
102
RTVSPost2010PropOp45
 70
     1
102
RTVSPost2010Prop46
 90
       50
102
RTVSPost2010PropOp46
 70
     1
102
RTVSPost2010Prop47
 90
       50
102
RTVSPost2010PropOp47
 70
     1
102
RTVSPost2010Prop48
 90
       50
102
RTVSPost2010PropOp48
 70
     1
102
RTVSPost2010Prop49
280
     0
102
RTVSPost2010PropOp49
 70
     1
102
RTVSPost2010Prop50
 90
       50
102
RTVSPost2010PropOp50
 70
     1
102
RTVSPost2010Prop51ColorIndex
 90
      256
102
RTVSPost2010Prop51ColorRGB
 90
-16777216
102
RTVSPost2010PropOp51
 70
     0
102
RTVSPost2010Prop52
140
1.0
102
RTVSPost2010PropOp52
 70
     0
102
RTVSPost2010Prop53
 90
        2
102
RTVSPost2010PropOp53
 70
     1
102
RTVSPost2010Prop54
  1
strokes_ogs.tif
102
RTVSPost2010PropOp54
 70
     1
102
RTVSPost2010Prop55
280
     0
102
RTVSPost2010PropOp55
 70
     1
102
RTVSPost2010Prop56
140
1.0
102
RTVSPost2010PropOp56
 70
     1
102
RTVSPost2010Prop57
140
1.0
102
RTVSPost2010PropOp57
 70
     1
  0
XRECORD
  5
220E1
102
{ACAD_REACTORS
330
220E0
102
}
330
220E0
100
AcDbXrecord
280
     1
102
RTVSPost2010Prop28
280
     0
102
RTVSPost2010PropOp28
 70
     1
102
RTVSPost2010Prop29
280
     1
102
RTVSPost2010PropOp29
 70
     1
102
RTVSPost2010Prop30
280
     1
102
RTVSPost2010PropOp30
 70
     1
102
RTVSPost2010Prop31
280
     0
102
RTVSPost2010PropOp31
 70
     1
102
RTVSPost2010Prop32
280
     0
102
RTVSPost2010PropOp32
 70
     1
102
RTVSPost2010Prop33
280
     0
102
RTVSPost2010PropOp33
 70
     1
102
RTVSPost2010Prop34
280
     0
102
RTVSPost2010PropOp34
 70
     1
102
RTVSPost2010Prop35
280
     0
102
RTVSPost2010PropOp35
 70
     1
102
RTVSPost2010Prop36
280
     0
102
RTVSPost2010PropOp36
 70
     1
102
RTVSPost2010Prop37
 90
       50
102
RTVSPost2010PropOp37
 70
     1
102
RTVSPost2010Prop38
140
0.0
102
RTVSPost2010PropOp38
 70
     1
102
RTVSPost2010Prop39
140
1.0
102
RTVSPost2010PropOp39
 70
     1
102
RTVSPost2010Prop40
 90
        0
102
RTVSPost2010PropOp40
 70
     1
102
RTVSPost2010Prop41ColorIndex
 90
       18
102
RTVSPost2010Prop41ColorRGB
 90
        0
102
RTVSPost2010PropOp41
 70
     1
102
RTVSPost2010Prop42
 90
       50
102
RTVSPost2010PropOp42
 70
     1
102
RTVSPost2010Prop43
 90
        3
102
RTVSPost2010PropOp43
 70
     1
102
RTVSPost2010Prop44ColorIndex
 90
        5
102
RTVSPost2010Prop44ColorRGB
 90
      255
102
RTVSPost2010PropOp44
 70
     1
102
RTVSPost2010Prop45
280
     0
102
RTVSPost2010PropOp45
 70
     1
102
RTVSPost2010Prop46
 90
       50
102
RTVSPost2010PropOp46
 70
     1
102
RTVSPost2010Prop47
 90
       50
102
RTVSPost2010PropOp47
 70
     1
102
RTVSPost2010Prop48
 90
       50
102
RTVSPost2010PropOp48
 70
     1
102
RTVSPost2010Prop49
280
     0
102
RTVSPost2010PropOp49
 70
     1
102
RTVSPost2010Prop50
 90
       50
102
RTVSPost2010PropOp50
 70
     1
102
RTVSPost2010Prop51ColorIndex
 90
      256
102
RTVSPost2010Prop51ColorRGB
 90
-16777216
102
RTVSPost2010PropOp51
 70
     0
102
RTVSPost2010Prop52
140
1.0
102
RTVSPost2010PropOp52
 70
     0
102
RTVSPost2010Prop53
 90
        2
102
RTVSPost2010PropOp53
 70
     1
102
RTVSPost2010Prop54
  1
strokes_ogs.tif
102
RTVSPost2010PropOp54
 70
     1
102
RTVSPost2010Prop55
280
     0
102
RTVSPost2010PropOp55
 70
     1
102
RTVSPost2010Prop56
140
1.0
102
RTVSPost2010PropOp56
 70
     1
102
RTVSPost2010Prop57
140
1.0
102
RTVSPost2010PropOp57
 70
     1
  0
XRECORD
  5
220E5
102
{ACAD_REACTORS
330
220E4
102
}
330
220E4
100
AcDbXrecord
280
     1
102
RTVSPost2010Prop28
280
     0
102
RTVSPost2010PropOp28
 70
     1
102
RTVSPost2010Prop29
280
     1
102
RTVSPost2010PropOp29
 70
     1
102
RTVSPost2010Prop30
280
     1
102
RTVSPost2010PropOp30
 70
     1
102
RTVSPost2010Prop31
280
     0
102
RTVSPost2010PropOp31
 70
     1
102
RTVSPost2010Prop32
280
     0
102
RTVSPost2010PropOp32
 70
     1
102
RTVSPost2010Prop33
280
     0
102
RTVSPost2010PropOp33
 70
     1
102
RTVSPost2010Prop34
280
     0
102
RTVSPost2010PropOp34
 70
     1
102
RTVSPost2010Prop35
280
     0
102
RTVSPost2010PropOp35
 70
     1
102
RTVSPost2010Prop36
280
     0
102
RTVSPost2010PropOp36
 70
     1
102
RTVSPost2010Prop37
 90
       50
102
RTVSPost2010PropOp37
 70
     1
102
RTVSPost2010Prop38
140
0.0
102
RTVSPost2010PropOp38
 70
     1
102
RTVSPost2010Prop39
140
1.0
102
RTVSPost2010PropOp39
 70
     1
102
RTVSPost2010Prop40
 90
        0
102
RTVSPost2010PropOp40
 70
     1
102
RTVSPost2010Prop41ColorIndex
 90
       18
102
RTVSPost2010Prop41ColorRGB
 90
        0
102
RTVSPost2010PropOp41
 70
     1
102
RTVSPost2010Prop42
 90
       50
102
RTVSPost2010PropOp42
 70
     1
102
RTVSPost2010Prop43
 90
        3
102
RTVSPost2010PropOp43
 70
     1
102
RTVSPost2010Prop44ColorIndex
 90
        5
102
RTVSPost2010Prop44ColorRGB
 90
      255
102
RTVSPost2010PropOp44
 70
     1
102
RTVSPost2010Prop45
280
     0
102
RTVSPost2010PropOp45
 70
     1
102
RTVSPost2010Prop46
 90
       50
102
RTVSPost2010PropOp46
 70
     1
102
RTVSPost2010Prop47
 90
       50
102
RTVSPost2010PropOp47
 70
     1
102
RTVSPost2010Prop48
 90
       50
102
RTVSPost2010PropOp48
 70
     1
102
RTVSPost2010Prop49
280
     0
102
RTVSPost2010PropOp49
 70
     1
102
RTVSPost2010Prop50
 90
       50
102
RTVSPost2010PropOp50
 70
     1
102
RTVSPost2010Prop51ColorIndex
 90
      256
102
RTVSPost2010Prop51ColorRGB
 90
-16777216
102
RTVSPost2010PropOp51
 70
     0
102
RTVSPost2010Prop52
140
1.0
102
RTVSPost2010PropOp52
 70
     0
102
RTVSPost2010Prop53
 90
        2
102
RTVSPost2010PropOp53
 70
     1
102
RTVSPost2010Prop54
  1
strokes_ogs.tif
102
RTVSPost2010PropOp54
 70
     1
102
RTVSPost2010Prop55
280
     0
102
RTVSPost2010PropOp55
 70
     1
102
RTVSPost2010Prop56
140
1.0
102
RTVSPost2010PropOp56
 70
     1
102
RTVSPost2010Prop57
140
1.0
102
RTVSPost2010PropOp57
 70
     1
  0
XRECORD
  5
22103
102
{ACAD_REACTORS
330
22102
102
}
330
22102
100
AcDbXrecord
280
     1
102
RTVSPost2010Prop28
280
     0
102
RTVSPost2010PropOp28
 70
     1
102
RTVSPost2010Prop29
280
     1
102
RTVSPost2010PropOp29
 70
     1
102
RTVSPost2010Prop30
280
     1
102
RTVSPost2010PropOp30
 70
     1
102
RTVSPost2010Prop31
280
     0
102
RTVSPost2010PropOp31
 70
     1
102
RTVSPost2010Prop32
280
     0
102
RTVSPost2010PropOp32
 70
     1
102
RTVSPost2010Prop33
280
     0
102
RTVSPost2010PropOp33
 70
     1
102
RTVSPost2010Prop34
280
     0
102
RTVSPost2010PropOp34
 70
     1
102
RTVSPost2010Prop35
280
     0
102
RTVSPost2010PropOp35
 70
     1
102
RTVSPost2010Prop36
280
     0
102
RTVSPost2010PropOp36
 70
     1
102
RTVSPost2010Prop37
 90
       50
102
RTVSPost2010PropOp37
 70
     0
102
RTVSPost2010Prop38
140
0.0
102
RTVSPost2010PropOp38
 70
     0
102
RTVSPost2010Prop39
140
1.0
102
RTVSPost2010PropOp39
 70
     0
102
RTVSPost2010Prop40
 90
        0
102
RTVSPost2010PropOp40
 70
     0
102
RTVSPost2010Prop41ColorIndex
 90
       18
102
RTVSPost2010Prop41ColorRGB
 90
        0
102
RTVSPost2010PropOp41
 70
     0
102
RTVSPost2010Prop42
 90
       50
102
RTVSPost2010PropOp42
 70
     0
102
RTVSPost2010Prop43
 90
        3
102
RTVSPost2010PropOp43
 70
     0
102
RTVSPost2010Prop44ColorIndex
 90
        5
102
RTVSPost2010Prop44ColorRGB
 90
      255
102
RTVSPost2010PropOp44
 70
     0
102
RTVSPost2010Prop45
280
     0
102
RTVSPost2010PropOp45
 70
     1
102
RTVSPost2010Prop46
 90
       50
102
RTVSPost2010PropOp46
 70
     0
102
RTVSPost2010Prop47
 90
       50
102
RTVSPost2010PropOp47
 70
     0
102
RTVSPost2010Prop48
 90
       50
102
RTVSPost2010PropOp48
 70
     0
102
RTVSPost2010Prop49
280
     0
102
RTVSPost2010PropOp49
 70
     1
102
RTVSPost2010Prop50
 90
       50
102
RTVSPost2010PropOp50
 70
     0
102
RTVSPost2010Prop51ColorIndex
 90
      256
102
RTVSPost2010Prop51ColorRGB
 90
-16777216
102
RTVSPost2010PropOp51
 70
     0
102
RTVSPost2010Prop52
140
1.0
102
RTVSPost2010PropOp52
 70
     0
102
RTVSPost2010Prop53
 90
        2
102
RTVSPost2010PropOp53
 70
     0
102
RTVSPost2010Prop54
  1
strokes_ogs.tif
102
RTVSPost2010PropOp54
 70
     0
102
RTVSPost2010Prop55
280
     0
102
RTVSPost2010PropOp55
 70
     1
102
RTVSPost2010Prop56
140
1.0
102
RTVSPost2010PropOp56
 70
     0
102
RTVSPost2010Prop57
140
1.0
102
RTVSPost2010PropOp57
 70
     0
  0
XRECORD
  5
220ED
102
{ACAD_REACTORS
330
220EC
102
}
330
220EC
100
AcDbXrecord
280
     1
102
RTVSPost2010Prop28
280
     0
102
RTVSPost2010PropOp28
 70
     1
102
RTVSPost2010Prop29
280
     1
102
RTVSPost2010PropOp29
 70
     1
102
RTVSPost2010Prop30
280
     1
102
RTVSPost2010PropOp30
 70
     1
102
RTVSPost2010Prop31
280
     0
102
RTVSPost2010PropOp31
 70
     1
102
RTVSPost2010Prop32
280
     0
102
RTVSPost2010PropOp32
 70
     1
102
RTVSPost2010Prop33
280
     0
102
RTVSPost2010PropOp33
 70
     1
102
RTVSPost2010Prop34
280
     0
102
RTVSPost2010PropOp34
 70
     1
102
RTVSPost2010Prop35
280
     0
102
RTVSPost2010PropOp35
 70
     1
102
RTVSPost2010Prop36
280
     0
102
RTVSPost2010PropOp36
 70
     1
102
RTVSPost2010Prop37
 90
       50
102
RTVSPost2010PropOp37
 70
     1
102
RTVSPost2010Prop38
140
0.0
102
RTVSPost2010PropOp38
 70
     1
102
RTVSPost2010Prop39
140
1.0
102
RTVSPost2010PropOp39
 70
     1
102
RTVSPost2010Prop40
 90
        0
102
RTVSPost2010PropOp40
 70
     1
102
RTVSPost2010Prop41ColorIndex
 90
       18
102
RTVSPost2010Prop41ColorRGB
 90
        0
102
RTVSPost2010PropOp41
 70
     1
102
RTVSPost2010Prop42
 90
       50
102
RTVSPost2010PropOp42
 70
     1
102
RTVSPost2010Prop43
 90
        3
102
RTVSPost2010PropOp43
 70
     1
102
RTVSPost2010Prop44ColorIndex
 90
        5
102
RTVSPost2010Prop44ColorRGB
 90
      255
102
RTVSPost2010PropOp44
 70
     1
102
RTVSPost2010Prop45
280
     0
102
RTVSPost2010PropOp45
 70
     1
102
RTVSPost2010Prop46
 90
       50
102
RTVSPost2010PropOp46
 70
     1
102
RTVSPost2010Prop47
 90
       50
102
RTVSPost2010PropOp47
 70
     1
102
RTVSPost2010Prop48
 90
       50
102
RTVSPost2010PropOp48
 70
     1
102
RTVSPost2010Prop49
280
     0
102
RTVSPost2010PropOp49
 70
     1
102
RTVSPost2010Prop50
 90
       50
102
RTVSPost2010PropOp50
 70
     1
102
RTVSPost2010Prop51ColorIndex
 90
      256
102
RTVSPost2010Prop51ColorRGB
 90
-16777216
102
RTVSPost2010PropOp51
 70
     0
102
RTVSPost2010Prop52
140
1.0
102
RTVSPost2010PropOp52
 70
     0
102
RTVSPost2010Prop53
 90
        2
102
RTVSPost2010PropOp53
 70
     1
102
RTVSPost2010Prop54
  1
strokes_ogs.tif
102
RTVSPost2010PropOp54
 70
     1
102
RTVSPost2010Prop55
280
     0
102
RTVSPost2010PropOp55
 70
     1
102
RTVSPost2010Prop56
140
1.0
102
RTVSPost2010PropOp56
 70
     1
102
RTVSPost2010Prop57
140
1.0
102
RTVSPost2010PropOp57
 70
     1
  0
XRECORD
  5
220D1
102
{ACAD_REACTORS
330
220D0
102
}
330
220D0
100
AcDbXrecord
280
     1
102
RTVSPost2010Prop28
280
     0
102
RTVSPost2010PropOp28
 70
     1
102
RTVSPost2010Prop29
280
     1
102
RTVSPost2010PropOp29
 70
     1
102
RTVSPost2010Prop30
280
     1
102
RTVSPost2010PropOp30
 70
     1
102
RTVSPost2010Prop31
280
     0
102
RTVSPost2010PropOp31
 70
     1
102
RTVSPost2010Prop32
280
     0
102
RTVSPost2010PropOp32
 70
     1
102
RTVSPost2010Prop33
280
     0
102
RTVSPost2010PropOp33
 70
     1
102
RTVSPost2010Prop34
280
     0
102
RTVSPost2010PropOp34
 70
     1
102
RTVSPost2010Prop35
280
     0
102
RTVSPost2010PropOp35
 70
     1
102
RTVSPost2010Prop36
280
     0
102
RTVSPost2010PropOp36
 70
     1
102
RTVSPost2010Prop37
 90
       50
102
RTVSPost2010PropOp37
 70
     1
102
RTVSPost2010Prop38
140
0.0
102
RTVSPost2010PropOp38
 70
     1
102
RTVSPost2010Prop39
140
1.0
102
RTVSPost2010PropOp39
 70
     1
102
RTVSPost2010Prop40
 90
        0
102
RTVSPost2010PropOp40
 70
     1
102
RTVSPost2010Prop41ColorIndex
 90
       18
102
RTVSPost2010Prop41ColorRGB
 90
        0
102
RTVSPost2010PropOp41
 70
     1
102
RTVSPost2010Prop42
 90
       50
102
RTVSPost2010PropOp42
 70
     1
102
RTVSPost2010Prop43
 90
        3
102
RTVSPost2010PropOp43
 70
     1
102
RTVSPost2010Prop44ColorIndex
 90
        5
102
RTVSPost2010Prop44ColorRGB
 90
      255
102
RTVSPost2010PropOp44
 70
     1
102
RTVSPost2010Prop45
280
     0
102
RTVSPost2010PropOp45
 70
     1
102
RTVSPost2010Prop46
 90
       50
102
RTVSPost2010PropOp46
 70
     1
102
RTVSPost2010Prop47
 90
       50
102
RTVSPost2010PropOp47
 70
     1
102
RTVSPost2010Prop48
 90
       50
102
RTVSPost2010PropOp48
 70
     1
102
RTVSPost2010Prop49
280
     0
102
RTVSPost2010PropOp49
 70
     1
102
RTVSPost2010Prop50
 90
       50
102
RTVSPost2010PropOp50
 70
     1
102
RTVSPost2010Prop51ColorIndex
 90
      256
102
RTVSPost2010Prop51ColorRGB
 90
-16777216
102
RTVSPost2010PropOp51
 70
     0
102
RTVSPost2010Prop52
140
1.0
102
RTVSPost2010PropOp52
 70
     0
102
RTVSPost2010Prop53
 90
        2
102
RTVSPost2010PropOp53
 70
     1
102
RTVSPost2010Prop54
  1
strokes_ogs.tif
102
RTVSPost2010PropOp54
 70
     1
102
RTVSPost2010Prop55
280
     0
102
RTVSPost2010PropOp55
 70
     1
102
RTVSPost2010Prop56
140
1.0
102
RTVSPost2010PropOp56
 70
     1
102
RTVSPost2010Prop57
140
1.0
102
RTVSPost2010PropOp57
 70
     1
  0
XRECORD
  5
220D3
102
{ACAD_REACTORS
330
220D2
102
}
330
220D2
100
AcDbXrecord
280
     1
102
RTVSPost2010Prop28
280
     0
102
RTVSPost2010PropOp28
 70
     1
102
RTVSPost2010Prop29
280
     1
102
RTVSPost2010PropOp29
 70
     1
102
RTVSPost2010Prop30
280
     1
102
RTVSPost2010PropOp30
 70
     1
102
RTVSPost2010Prop31
280
     0
102
RTVSPost2010PropOp31
 70
     1
102
RTVSPost2010Prop32
280
     0
102
RTVSPost2010PropOp32
 70
     1
102
RTVSPost2010Prop33
280
     0
102
RTVSPost2010PropOp33
 70
     1
102
RTVSPost2010Prop34
280
     0
102
RTVSPost2010PropOp34
 70
     1
102
RTVSPost2010Prop35
280
     0
102
RTVSPost2010PropOp35
 70
     1
102
RTVSPost2010Prop36
280
     0
102
RTVSPost2010PropOp36
 70
     1
102
RTVSPost2010Prop37
 90
       50
102
RTVSPost2010PropOp37
 70
     1
102
RTVSPost2010Prop38
140
0.0
102
RTVSPost2010PropOp38
 70
     1
102
RTVSPost2010Prop39
140
1.0
102
RTVSPost2010PropOp39
 70
     1
102
RTVSPost2010Prop40
 90
        0
102
RTVSPost2010PropOp40
 70
     1
102
RTVSPost2010Prop41ColorIndex
 90
       18
102
RTVSPost2010Prop41ColorRGB
 90
        0
102
RTVSPost2010PropOp41
 70
     1
102
RTVSPost2010Prop42
 90
       50
102
RTVSPost2010PropOp42
 70
     1
102
RTVSPost2010Prop43
 90
        3
102
RTVSPost2010PropOp43
 70
     1
102
RTVSPost2010Prop44ColorIndex
 90
        5
102
RTVSPost2010Prop44ColorRGB
 90
      255
102
RTVSPost2010PropOp44
 70
     1
102
RTVSPost2010Prop45
280
     0
102
RTVSPost2010PropOp45
 70
     1
102
RTVSPost2010Prop46
 90
       50
102
RTVSPost2010PropOp46
 70
     1
102
RTVSPost2010Prop47
 90
       50
102
RTVSPost2010PropOp47
 70
     1
102
RTVSPost2010Prop48
 90
       50
102
RTVSPost2010PropOp48
 70
     1
102
RTVSPost2010Prop49
280
     0
102
RTVSPost2010PropOp49
 70
     1
102
RTVSPost2010Prop50
 90
       50
102
RTVSPost2010PropOp50
 70
     1
102
RTVSPost2010Prop51ColorIndex
 90
      256
102
RTVSPost2010Prop51ColorRGB
 90
-16777216
102
RTVSPost2010PropOp51
 70
     0
102
RTVSPost2010Prop52
140
1.0
102
RTVSPost2010PropOp52
 70
     0
102
RTVSPost2010Prop53
 90
        2
102
RTVSPost2010PropOp53
 70
     1
102
RTVSPost2010Prop54
  1
strokes_ogs.tif
102
RTVSPost2010PropOp54
 70
     1
102
RTVSPost2010Prop55
280
     0
102
RTVSPost2010PropOp55
 70
     1
102
RTVSPost2010Prop56
140
1.0
102
RTVSPost2010PropOp56
 70
     1
102
RTVSPost2010Prop57
140
1.0
102
RTVSPost2010PropOp57
 70
     1
  0
XRECORD
  5
220D5
102
{ACAD_REACTORS
330
220D4
102
}
330
220D4
100
AcDbXrecord
280
     1
102
RTVSPost2010Prop28
280
     0
102
RTVSPost2010PropOp28
 70
     1
102
RTVSPost2010Prop29
280
     1
102
RTVSPost2010PropOp29
 70
     1
102
RTVSPost2010Prop30
280
     1
102
RTVSPost2010PropOp30
 70
     1
102
RTVSPost2010Prop31
280
     0
102
RTVSPost2010PropOp31
 70
     1
102
RTVSPost2010Prop32
280
     0
102
RTVSPost2010PropOp32
 70
     1
102
RTVSPost2010Prop33
280
     0
102
RTVSPost2010PropOp33
 70
     1
102
RTVSPost2010Prop34
280
     0
102
RTVSPost2010PropOp34
 70
     1
102
RTVSPost2010Prop35
280
     0
102
RTVSPost2010PropOp35
 70
     1
102
RTVSPost2010Prop36
280
     0
102
RTVSPost2010PropOp36
 70
     1
102
RTVSPost2010Prop37
 90
       50
102
RTVSPost2010PropOp37
 70
     1
102
RTVSPost2010Prop38
140
0.0
102
RTVSPost2010PropOp38
 70
     1
102
RTVSPost2010Prop39
140
1.0
102
RTVSPost2010PropOp39
 70
     1
102
RTVSPost2010Prop40
 90
        0
102
RTVSPost2010PropOp40
 70
     1
102
RTVSPost2010Prop41ColorIndex
 90
       18
102
RTVSPost2010Prop41ColorRGB
 90
        0
102
RTVSPost2010PropOp41
 70
     1
102
RTVSPost2010Prop42
 90
       50
102
RTVSPost2010PropOp42
 70
     1
102
RTVSPost2010Prop43
 90
        3
102
RTVSPost2010PropOp43
 70
     1
102
RTVSPost2010Prop44ColorIndex
 90
        5
102
RTVSPost2010Prop44ColorRGB
 90
      255
102
RTVSPost2010PropOp44
 70
     1
102
RTVSPost2010Prop45
280
     0
102
RTVSPost2010PropOp45
 70
     1
102
RTVSPost2010Prop46
 90
       50
102
RTVSPost2010PropOp46
 70
     1
102
RTVSPost2010Prop47
 90
       50
102
RTVSPost2010PropOp47
 70
     1
102
RTVSPost2010Prop48
 90
       50
102
RTVSPost2010PropOp48
 70
     1
102
RTVSPost2010Prop49
280
     0
102
RTVSPost2010PropOp49
 70
     1
102
RTVSPost2010Prop50
 90
       50
102
RTVSPost2010PropOp50
 70
     1
102
RTVSPost2010Prop51ColorIndex
 90
      256
102
RTVSPost2010Prop51ColorRGB
 90
-16777216
102
RTVSPost2010PropOp51
 70
     0
102
RTVSPost2010Prop52
140
1.0
102
RTVSPost2010PropOp52
 70
     0
102
RTVSPost2010Prop53
 90
        2
102
RTVSPost2010PropOp53
 70
     1
102
RTVSPost2010Prop54
  1
strokes_ogs.tif
102
RTVSPost2010PropOp54
 70
     1
102
RTVSPost2010Prop55
280
     0
102
RTVSPost2010PropOp55
 70
     1
102
RTVSPost2010Prop56
140
1.0
102
RTVSPost2010PropOp56
 70
     1
102
RTVSPost2010Prop57
140
1.0
102
RTVSPost2010PropOp57
 70
     1
  0
XRECORD
  5
220D7
102
{ACAD_REACTORS
330
220D6
102
}
330
220D6
100
AcDbXrecord
280
     1
102
RTVSPost2010Prop28
280
     0
102
RTVSPost2010PropOp28
 70
     1
102
RTVSPost2010Prop29
280
     1
102
RTVSPost2010PropOp29
 70
     1
102
RTVSPost2010Prop30
280
     1
102
RTVSPost2010PropOp30
 70
     1
102
RTVSPost2010Prop31
280
     0
102
RTVSPost2010PropOp31
 70
     1
102
RTVSPost2010Prop32
280
     0
102
RTVSPost2010PropOp32
 70
     1
102
RTVSPost2010Prop33
280
     0
102
RTVSPost2010PropOp33
 70
     1
102
RTVSPost2010Prop34
280
     0
102
RTVSPost2010PropOp34
 70
     1
102
RTVSPost2010Prop35
280
     0
102
RTVSPost2010PropOp35
 70
     1
102
RTVSPost2010Prop36
280
     0
102
RTVSPost2010PropOp36
 70
     1
102
RTVSPost2010Prop37
 90
       50
102
RTVSPost2010PropOp37
 70
     1
102
RTVSPost2010Prop38
140
0.0
102
RTVSPost2010PropOp38
 70
     1
102
RTVSPost2010Prop39
140
1.0
102
RTVSPost2010PropOp39
 70
     1
102
RTVSPost2010Prop40
 90
        0
102
RTVSPost2010PropOp40
 70
     1
102
RTVSPost2010Prop41ColorIndex
 90
       18
102
RTVSPost2010Prop41ColorRGB
 90
        0
102
RTVSPost2010PropOp41
 70
     1
102
RTVSPost2010Prop42
 90
       50
102
RTVSPost2010PropOp42
 70
     1
102
RTVSPost2010Prop43
 90
        3
102
RTVSPost2010PropOp43
 70
     1
102
RTVSPost2010Prop44ColorIndex
 90
        5
102
RTVSPost2010Prop44ColorRGB
 90
      255
102
RTVSPost2010PropOp44
 70
     1
102
RTVSPost2010Prop45
280
     0
102
RTVSPost2010PropOp45
 70
     1
102
RTVSPost2010Prop46
 90
       50
102
RTVSPost2010PropOp46
 70
     1
102
RTVSPost2010Prop47
 90
       50
102
RTVSPost2010PropOp47
 70
     1
102
RTVSPost2010Prop48
 90
       50
102
RTVSPost2010PropOp48
 70
     1
102
RTVSPost2010Prop49
280
     0
102
RTVSPost2010PropOp49
 70
     1
102
RTVSPost2010Prop50
 90
       50
102
RTVSPost2010PropOp50
 70
     1
102
RTVSPost2010Prop51ColorIndex
 90
      256
102
RTVSPost2010Prop51ColorRGB
 90
-16777216
102
RTVSPost2010PropOp51
 70
     0
102
RTVSPost2010Prop52
140
1.0
102
RTVSPost2010PropOp52
 70
     0
102
RTVSPost2010Prop53
 90
        2
102
RTVSPost2010PropOp53
 70
     1
102
RTVSPost2010Prop54
  1
strokes_ogs.tif
102
RTVSPost2010PropOp54
 70
     1
102
RTVSPost2010Prop55
280
     0
102
RTVSPost2010PropOp55
 70
     1
102
RTVSPost2010Prop56
140
1.0
102
RTVSPost2010PropOp56
 70
     1
102
RTVSPost2010Prop57
140
1.0
102
RTVSPost2010PropOp57
 70
     1
  0
XRECORD
  5
220F3
102
{ACAD_REACTORS
330
220F2
102
}
330
220F2
100
AcDbXrecord
280
     1
102
RTVSPost2010Prop28
280
     0
102
RTVSPost2010PropOp28
 70
     1
102
RTVSPost2010Prop29
280
     1
102
RTVSPost2010PropOp29
 70
     1
102
RTVSPost2010Prop30
280
     1
102
RTVSPost2010PropOp30
 70
     1
102
RTVSPost2010Prop31
280
     0
102
RTVSPost2010PropOp31
 70
     1
102
RTVSPost2010Prop32
280
     0
102
RTVSPost2010PropOp32
 70
     1
102
RTVSPost2010Prop33
280
     0
102
RTVSPost2010PropOp33
 70
     1
102
RTVSPost2010Prop34
280
     0
102
RTVSPost2010PropOp34
 70
     1
102
RTVSPost2010Prop35
280
     0
102
RTVSPost2010PropOp35
 70
     1
102
RTVSPost2010Prop36
280
     0
102
RTVSPost2010PropOp36
 70
     1
102
RTVSPost2010Prop37
 90
       50
102
RTVSPost2010PropOp37
 70
     1
102
RTVSPost2010Prop38
140
0.0
102
RTVSPost2010PropOp38
 70
     1
102
RTVSPost2010Prop39
140
1.0
102
RTVSPost2010PropOp39
 70
     1
102
RTVSPost2010Prop40
 90
        0
102
RTVSPost2010PropOp40
 70
     1
102
RTVSPost2010Prop41ColorIndex
 90
       18
102
RTVSPost2010Prop41ColorRGB
 90
        0
102
RTVSPost2010PropOp41
 70
     1
102
RTVSPost2010Prop42
 90
       50
102
RTVSPost2010PropOp42
 70
     1
102
RTVSPost2010Prop43
 90
        3
102
RTVSPost2010PropOp43
 70
     1
102
RTVSPost2010Prop44ColorIndex
 90
        5
102
RTVSPost2010Prop44ColorRGB
 90
      255
102
RTVSPost2010PropOp44
 70
     1
102
RTVSPost2010Prop45
280
     0
102
RTVSPost2010PropOp45
 70
     1
102
RTVSPost2010Prop46
 90
       50
102
RTVSPost2010PropOp46
 70
     1
102
RTVSPost2010Prop47
 90
       50
102
RTVSPost2010PropOp47
 70
     1
102
RTVSPost2010Prop48
 90
       50
102
RTVSPost2010PropOp48
 70
     1
102
RTVSPost2010Prop49
280
     0
102
RTVSPost2010PropOp49
 70
     1
102
RTVSPost2010Prop50
 90
       50
102
RTVSPost2010PropOp50
 70
     1
102
RTVSPost2010Prop51ColorIndex
 90
      256
102
RTVSPost2010Prop51ColorRGB
 90
-16777216
102
RTVSPost2010PropOp51
 70
     0
102
RTVSPost2010Prop52
140
1.0
102
RTVSPost2010PropOp52
 70
     0
102
RTVSPost2010Prop53
 90
        2
102
RTVSPost2010PropOp53
 70
     1
102
RTVSPost2010Prop54
  1
strokes_ogs.tif
102
RTVSPost2010PropOp54
 70
     1
102
RTVSPost2010Prop55
280
     0
102
RTVSPost2010PropOp55
 70
     1
102
RTVSPost2010Prop56
140
1.0
102
RTVSPost2010PropOp56
 70
     1
102
RTVSPost2010Prop57
140
1.0
102
RTVSPost2010PropOp57
 70
     1
  0
XRECORD
  5
220FF
102
{ACAD_REACTORS
330
220FE
102
}
330
220FE
100
AcDbXrecord
280
     1
102
RTVSPost2010Prop28
280
     0
102
RTVSPost2010PropOp28
 70
     1
102
RTVSPost2010Prop29
280
     1
102
RTVSPost2010PropOp29
 70
     1
102
RTVSPost2010Prop30
280
     1
102
RTVSPost2010PropOp30
 70
     1
102
RTVSPost2010Prop31
280
     0
102
RTVSPost2010PropOp31
 70
     1
102
RTVSPost2010Prop32
280
     0
102
RTVSPost2010PropOp32
 70
     1
102
RTVSPost2010Prop33
280
     0
102
RTVSPost2010PropOp33
 70
     1
102
RTVSPost2010Prop34
280
     0
102
RTVSPost2010PropOp34
 70
     1
102
RTVSPost2010Prop35
280
     0
102
RTVSPost2010PropOp35
 70
     1
102
RTVSPost2010Prop36
280
     0
102
RTVSPost2010PropOp36
 70
     1
102
RTVSPost2010Prop37
 90
       50
102
RTVSPost2010PropOp37
 70
     0
102
RTVSPost2010Prop38
140
0.0
102
RTVSPost2010PropOp38
 70
     0
102
RTVSPost2010Prop39
140
1.0
102
RTVSPost2010PropOp39
 70
     0
102
RTVSPost2010Prop40
 90
        0
102
RTVSPost2010PropOp40
 70
     0
102
RTVSPost2010Prop41ColorIndex
 90
       18
102
RTVSPost2010Prop41ColorRGB
 90
        0
102
RTVSPost2010PropOp41
 70
     0
102
RTVSPost2010Prop42
 90
       50
102
RTVSPost2010PropOp42
 70
     0
102
RTVSPost2010Prop43
 90
        3
102
RTVSPost2010PropOp43
 70
     0
102
RTVSPost2010Prop44ColorIndex
 90
        5
102
RTVSPost2010Prop44ColorRGB
 90
      255
102
RTVSPost2010PropOp44
 70
     0
102
RTVSPost2010Prop45
280
     0
102
RTVSPost2010PropOp45
 70
     1
102
RTVSPost2010Prop46
 90
       50
102
RTVSPost2010PropOp46
 70
     0
102
RTVSPost2010Prop47
 90
       50
102
RTVSPost2010PropOp47
 70
     0
102
RTVSPost2010Prop48
 90
       50
102
RTVSPost2010PropOp48
 70
     0
102
RTVSPost2010Prop49
280
     0
102
RTVSPost2010PropOp49
 70
     1
102
RTVSPost2010Prop50
 90
       50
102
RTVSPost2010PropOp50
 70
     0
102
RTVSPost2010Prop51ColorIndex
 90
      256
102
RTVSPost2010Prop51ColorRGB
 90
-16777216
102
RTVSPost2010PropOp51
 70
     0
102
RTVSPost2010Prop52
140
1.0
102
RTVSPost2010PropOp52
 70
     0
102
RTVSPost2010Prop53
 90
        2
102
RTVSPost2010PropOp53
 70
     0
102
RTVSPost2010Prop54
  1
strokes_ogs.tif
102
RTVSPost2010PropOp54
 70
     0
102
RTVSPost2010Prop55
280
     0
102
RTVSPost2010PropOp55
 70
     1
102
RTVSPost2010Prop56
140
1.0
102
RTVSPost2010PropOp56
 70
     0
102
RTVSPost2010Prop57
140
1.0
102
RTVSPost2010PropOp57
 70
     0
  0
XRECORD
  5
220EB
102
{ACAD_REACTORS
330
220EA
102
}
330
220EA
100
AcDbXrecord
280
     1
102
RTVSPost2010Prop28
280
     0
102
RTVSPost2010PropOp28
 70
     1
102
RTVSPost2010Prop29
280
     1
102
RTVSPost2010PropOp29
 70
     1
102
RTVSPost2010Prop30
280
     1
102
RTVSPost2010PropOp30
 70
     1
102
RTVSPost2010Prop31
280
     0
102
RTVSPost2010PropOp31
 70
     1
102
RTVSPost2010Prop32
280
     0
102
RTVSPost2010PropOp32
 70
     1
102
RTVSPost2010Prop33
280
     0
102
RTVSPost2010PropOp33
 70
     1
102
RTVSPost2010Prop34
280
     0
102
RTVSPost2010PropOp34
 70
     1
102
RTVSPost2010Prop35
280
     0
102
RTVSPost2010PropOp35
 70
     1
102
RTVSPost2010Prop36
280
     0
102
RTVSPost2010PropOp36
 70
     1
102
RTVSPost2010Prop37
 90
       50
102
RTVSPost2010PropOp37
 70
     1
102
RTVSPost2010Prop38
140
0.0
102
RTVSPost2010PropOp38
 70
     1
102
RTVSPost2010Prop39
140
1.0
102
RTVSPost2010PropOp39
 70
     1
102
RTVSPost2010Prop40
 90
        0
102
RTVSPost2010PropOp40
 70
     1
102
RTVSPost2010Prop41ColorIndex
 90
       18
102
RTVSPost2010Prop41ColorRGB
 90
        0
102
RTVSPost2010PropOp41
 70
     1
102
RTVSPost2010Prop42
 90
       50
102
RTVSPost2010PropOp42
 70
     1
102
RTVSPost2010Prop43
 90
        3
102
RTVSPost2010PropOp43
 70
     1
102
RTVSPost2010Prop44ColorIndex
 90
        5
102
RTVSPost2010Prop44ColorRGB
 90
      255
102
RTVSPost2010PropOp44
 70
     1
102
RTVSPost2010Prop45
280
     0
102
RTVSPost2010PropOp45
 70
     1
102
RTVSPost2010Prop46
 90
       50
102
RTVSPost2010PropOp46
 70
     1
102
RTVSPost2010Prop47
 90
       50
102
RTVSPost2010PropOp47
 70
     1
102
RTVSPost2010Prop48
 90
       50
102
RTVSPost2010PropOp48
 70
     1
102
RTVSPost2010Prop49
280
     0
102
RTVSPost2010PropOp49
 70
     1
102
RTVSPost2010Prop50
 90
       50
102
RTVSPost2010PropOp50
 70
     1
102
RTVSPost2010Prop51ColorIndex
 90
      256
102
RTVSPost2010Prop51ColorRGB
 90
-16777216
102
RTVSPost2010PropOp51
 70
     0
102
RTVSPost2010Prop52
140
1.0
102
RTVSPost2010PropOp52
 70
     0
102
RTVSPost2010Prop53
 90
        2
102
RTVSPost2010PropOp53
 70
     1
102
RTVSPost2010Prop54
  1
strokes_ogs.tif
102
RTVSPost2010PropOp54
 70
     1
102
RTVSPost2010Prop55
280
     0
102
RTVSPost2010PropOp55
 70
     1
102
RTVSPost2010Prop56
140
1.0
102
RTVSPost2010PropOp56
 70
     1
102
RTVSPost2010Prop57
140
1.0
102
RTVSPost2010PropOp57
 70
     1
  0
XRECORD
  5
22101
102
{ACAD_REACTORS
330
22100
102
}
330
22100
100
AcDbXrecord
280
     1
102
RTVSPost2010Prop28
280
     0
102
RTVSPost2010PropOp28
 70
     1
102
RTVSPost2010Prop29
280
     1
102
RTVSPost2010PropOp29
 70
     1
102
RTVSPost2010Prop30
280
     1
102
RTVSPost2010PropOp30
 70
     1
102
RTVSPost2010Prop31
280
     0
102
RTVSPost2010PropOp31
 70
     1
102
RTVSPost2010Prop32
280
     0
102
RTVSPost2010PropOp32
 70
     1
102
RTVSPost2010Prop33
280
     0
102
RTVSPost2010PropOp33
 70
     1
102
RTVSPost2010Prop34
280
     0
102
RTVSPost2010PropOp34
 70
     1
102
RTVSPost2010Prop35
280
     0
102
RTVSPost2010PropOp35
 70
     1
102
RTVSPost2010Prop36
280
     0
102
RTVSPost2010PropOp36
 70
     1
102
RTVSPost2010Prop37
 90
       50
102
RTVSPost2010PropOp37
 70
     0
102
RTVSPost2010Prop38
140
0.0
102
RTVSPost2010PropOp38
 70
     0
102
RTVSPost2010Prop39
140
1.0
102
RTVSPost2010PropOp39
 70
     0
102
RTVSPost2010Prop40
 90
        0
102
RTVSPost2010PropOp40
 70
     0
102
RTVSPost2010Prop41ColorIndex
 90
       18
102
RTVSPost2010Prop41ColorRGB
 90
        0
102
RTVSPost2010PropOp41
 70
     0
102
RTVSPost2010Prop42
 90
       50
102
RTVSPost2010PropOp42
 70
     0
102
RTVSPost2010Prop43
 90
        3
102
RTVSPost2010PropOp43
 70
     0
102
RTVSPost2010Prop44ColorIndex
 90
        5
102
RTVSPost2010Prop44ColorRGB
 90
      255
102
RTVSPost2010PropOp44
 70
     0
102
RTVSPost2010Prop45
280
     0
102
RTVSPost2010PropOp45
 70
     1
102
RTVSPost2010Prop46
 90
       50
102
RTVSPost2010PropOp46
 70
     0
102
RTVSPost2010Prop47
 90
       50
102
RTVSPost2010PropOp47
 70
     0
102
RTVSPost2010Prop48
 90
       50
102
RTVSPost2010PropOp48
 70
     0
102
RTVSPost2010Prop49
280
     0
102
RTVSPost2010PropOp49
 70
     1
102
RTVSPost2010Prop50
 90
       50
102
RTVSPost2010PropOp50
 70
     0
102
RTVSPost2010Prop51ColorIndex
 90
      256
102
RTVSPost2010Prop51ColorRGB
 90
-16777216
102
RTVSPost2010PropOp51
 70
     0
102
RTVSPost2010Prop52
140
1.0
102
RTVSPost2010PropOp52
 70
     0
102
RTVSPost2010Prop53
 90
        2
102
RTVSPost2010PropOp53
 70
     0
102
RTVSPost2010Prop54
  1
strokes_ogs.tif
102
RTVSPost2010PropOp54
 70
     0
102
RTVSPost2010Prop55
280
     0
102
RTVSPost2010PropOp55
 70
     1
102
RTVSPost2010Prop56
140
1.0
102
RTVSPost2010PropOp56
 70
     0
102
RTVSPost2010Prop57
140
1.0
102
RTVSPost2010PropOp57
 70
     0
  0
XRECORD
  5
220E3
102
{ACAD_REACTORS
330
220E2
102
}
330
220E2
100
AcDbXrecord
280
     1
102
RTVSPost2010Prop28
280
     0
102
RTVSPost2010PropOp28
 70
     1
102
RTVSPost2010Prop29
280
     1
102
RTVSPost2010PropOp29
 70
     1
102
RTVSPost2010Prop30
280
     1
102
RTVSPost2010PropOp30
 70
     1
102
RTVSPost2010Prop31
280
     0
102
RTVSPost2010PropOp31
 70
     1
102
RTVSPost2010Prop32
280
     0
102
RTVSPost2010PropOp32
 70
     1
102
RTVSPost2010Prop33
280
     0
102
RTVSPost2010PropOp33
 70
     1
102
RTVSPost2010Prop34
280
     0
102
RTVSPost2010PropOp34
 70
     1
102
RTVSPost2010Prop35
280
     0
102
RTVSPost2010PropOp35
 70
     1
102
RTVSPost2010Prop36
280
     0
102
RTVSPost2010PropOp36
 70
     1
102
RTVSPost2010Prop37
 90
       50
102
RTVSPost2010PropOp37
 70
     1
102
RTVSPost2010Prop38
140
0.0
102
RTVSPost2010PropOp38
 70
     1
102
RTVSPost2010Prop39
140
1.0
102
RTVSPost2010PropOp39
 70
     1
102
RTVSPost2010Prop40
 90
        0
102
RTVSPost2010PropOp40
 70
     1
102
RTVSPost2010Prop41ColorIndex
 90
       18
102
RTVSPost2010Prop41ColorRGB
 90
        0
102
RTVSPost2010PropOp41
 70
     1
102
RTVSPost2010Prop42
 90
       50
102
RTVSPost2010PropOp42
 70
     1
102
RTVSPost2010Prop43
 90
        3
102
RTVSPost2010PropOp43
 70
     1
102
RTVSPost2010Prop44ColorIndex
 90
        5
102
RTVSPost2010Prop44ColorRGB
 90
      255
102
RTVSPost2010PropOp44
 70
     1
102
RTVSPost2010Prop45
280
     0
102
RTVSPost2010PropOp45
 70
     1
102
RTVSPost2010Prop46
 90
       50
102
RTVSPost2010PropOp46
 70
     1
102
RTVSPost2010Prop47
 90
       50
102
RTVSPost2010PropOp47
 70
     1
102
RTVSPost2010Prop48
 90
       50
102
RTVSPost2010PropOp48
 70
     1
102
RTVSPost2010Prop49
280
     0
102
RTVSPost2010PropOp49
 70
     1
102
RTVSPost2010Prop50
 90
       50
102
RTVSPost2010PropOp50
 70
     1
102
RTVSPost2010Prop51ColorIndex
 90
      256
102
RTVSPost2010Prop51ColorRGB
 90
-16777216
102
RTVSPost2010PropOp51
 70
     0
102
RTVSPost2010Prop52
140
1.0
102
RTVSPost2010PropOp52
 70
     0
102
RTVSPost2010Prop53
 90
        2
102
RTVSPost2010PropOp53
 70
     1
102
RTVSPost2010Prop54
  1
strokes_ogs.tif
102
RTVSPost2010PropOp54
 70
     1
102
RTVSPost2010Prop55
280
     0
102
RTVSPost2010PropOp55
 70
     1
102
RTVSPost2010Prop56
140
1.0
102
RTVSPost2010PropOp56
 70
     1
102
RTVSPost2010Prop57
140
1.0
102
RTVSPost2010PropOp57
 70
     1
  0
XRECORD
  5
220FD
102
{ACAD_REACTORS
330
220FC
102
}
330
220FC
100
AcDbXrecord
280
     1
102
RTVSPost2010Prop28
280
     0
102
RTVSPost2010PropOp28
 70
     1
102
RTVSPost2010Prop29
280
     1
102
RTVSPost2010PropOp29
 70
     1
102
RTVSPost2010Prop30
280
     1
102
RTVSPost2010PropOp30
 70
     1
102
RTVSPost2010Prop31
280
     0
102
RTVSPost2010PropOp31
 70
     1
102
RTVSPost2010Prop32
280
     0
102
RTVSPost2010PropOp32
 70
     1
102
RTVSPost2010Prop33
280
     0
102
RTVSPost2010PropOp33
 70
     1
102
RTVSPost2010Prop34
280
     0
102
RTVSPost2010PropOp34
 70
     1
102
RTVSPost2010Prop35
280
     0
102
RTVSPost2010PropOp35
 70
     1
102
RTVSPost2010Prop36
280
     0
102
RTVSPost2010PropOp36
 70
     1
102
RTVSPost2010Prop37
 90
       50
102
RTVSPost2010PropOp37
 70
     1
102
RTVSPost2010Prop38
140
0.0
102
RTVSPost2010PropOp38
 70
     1
102
RTVSPost2010Prop39
140
1.0
102
RTVSPost2010PropOp39
 70
     1
102
RTVSPost2010Prop40
 90
        0
102
RTVSPost2010PropOp40
 70
     1
102
RTVSPost2010Prop41ColorIndex
 90
       18
102
RTVSPost2010Prop41ColorRGB
 90
        0
102
RTVSPost2010PropOp41
 70
     1
102
RTVSPost2010Prop42
 90
       50
102
RTVSPost2010PropOp42
 70
     1
102
RTVSPost2010Prop43
 90
        3
102
RTVSPost2010PropOp43
 70
     1
102
RTVSPost2010Prop44ColorIndex
 90
        5
102
RTVSPost2010Prop44ColorRGB
 90
      255
102
RTVSPost2010PropOp44
 70
     1
102
RTVSPost2010Prop45
280
     0
102
RTVSPost2010PropOp45
 70
     1
102
RTVSPost2010Prop46
 90
       50
102
RTVSPost2010PropOp46
 70
     1
102
RTVSPost2010Prop47
 90
       50
102
RTVSPost2010PropOp47
 70
     1
102
RTVSPost2010Prop48
 90
       50
102
RTVSPost2010PropOp48
 70
     1
102
RTVSPost2010Prop49
280
     0
102
RTVSPost2010PropOp49
 70
     1
102
RTVSPost2010Prop50
 90
       50
102
RTVSPost2010PropOp50
 70
     1
102
RTVSPost2010Prop51ColorIndex
 90
      256
102
RTVSPost2010Prop51ColorRGB
 90
-16777216
102
RTVSPost2010PropOp51
 70
     0
102
RTVSPost2010Prop52
140
1.0
102
RTVSPost2010PropOp52
 70
     0
102
RTVSPost2010Prop53
 90
        2
102
RTVSPost2010PropOp53
 70
     1
102
RTVSPost2010Prop54
  1
strokes_ogs.tif
102
RTVSPost2010PropOp54
 70
     1
102
RTVSPost2010Prop55
280
     0
102
RTVSPost2010PropOp55
 70
     1
102
RTVSPost2010Prop56
140
1.0
102
RTVSPost2010PropOp56
 70
     1
102
RTVSPost2010Prop57
140
1.0
102
RTVSPost2010PropOp57
 70
     1
  0
XRECORD
  5
220FB
102
{ACAD_REACTORS
330
220FA
102
}
330
220FA
100
AcDbXrecord
280
     1
102
RTVSPost2010Prop28
280
     0
102
RTVSPost2010PropOp28
 70
     1
102
RTVSPost2010Prop29
280
     1
102
RTVSPost2010PropOp29
 70
     1
102
RTVSPost2010Prop30
280
     1
102
RTVSPost2010PropOp30
 70
     1
102
RTVSPost2010Prop31
280
     0
102
RTVSPost2010PropOp31
 70
     1
102
RTVSPost2010Prop32
280
     0
102
RTVSPost2010PropOp32
 70
     1
102
RTVSPost2010Prop33
280
     0
102
RTVSPost2010PropOp33
 70
     1
102
RTVSPost2010Prop34
280
     0
102
RTVSPost2010PropOp34
 70
     1
102
RTVSPost2010Prop35
280
     0
102
RTVSPost2010PropOp35
 70
     1
102
RTVSPost2010Prop36
280
     0
102
RTVSPost2010PropOp36
 70
     1
102
RTVSPost2010Prop37
 90
       50
102
RTVSPost2010PropOp37
 70
     1
102
RTVSPost2010Prop38
140
0.0
102
RTVSPost2010PropOp38
 70
     1
102
RTVSPost2010Prop39
140
1.0
102
RTVSPost2010PropOp39
 70
     1
102
RTVSPost2010Prop40
 90
        0
102
RTVSPost2010PropOp40
 70
     1
102
RTVSPost2010Prop41ColorIndex
 90
       18
102
RTVSPost2010Prop41ColorRGB
 90
        0
102
RTVSPost2010PropOp41
 70
     1
102
RTVSPost2010Prop42
 90
       50
102
RTVSPost2010PropOp42
 70
     1
102
RTVSPost2010Prop43
 90
        3
102
RTVSPost2010PropOp43
 70
     1
102
RTVSPost2010Prop44ColorIndex
 90
        5
102
RTVSPost2010Prop44ColorRGB
 90
      255
102
RTVSPost2010PropOp44
 70
     1
102
RTVSPost2010Prop45
280
     0
102
RTVSPost2010PropOp45
 70
     1
102
RTVSPost2010Prop46
 90
       50
102
RTVSPost2010PropOp46
 70
     1
102
RTVSPost2010Prop47
 90
       50
102
RTVSPost2010PropOp47
 70
     1
102
RTVSPost2010Prop48
 90
       50
102
RTVSPost2010PropOp48
 70
     1
102
RTVSPost2010Prop49
280
     0
102
RTVSPost2010PropOp49
 70
     1
102
RTVSPost2010Prop50
 90
       50
102
RTVSPost2010PropOp50
 70
     1
102
RTVSPost2010Prop51ColorIndex
 90
      256
102
RTVSPost2010Prop51ColorRGB
 90
-16777216
102
RTVSPost2010PropOp51
 70
     0
102
RTVSPost2010Prop52
140
1.0
102
RTVSPost2010PropOp52
 70
     0
102
RTVSPost2010Prop53
 90
        2
102
RTVSPost2010PropOp53
 70
     1
102
RTVSPost2010Prop54
  1
strokes_ogs.tif
102
RTVSPost2010PropOp54
 70
     1
102
RTVSPost2010Prop55
280
     0
102
RTVSPost2010PropOp55
 70
     1
102
RTVSPost2010Prop56
140
1.0
102
RTVSPost2010PropOp56
 70
     1
102
RTVSPost2010Prop57
140
1.0
102
RTVSPost2010PropOp57
 70
     1
  0
XRECORD
  5
220F5
102
{ACAD_REACTORS
330
220F4
102
}
330
220F4
100
AcDbXrecord
280
     1
102
RTVSPost2010Prop28
280
     0
102
RTVSPost2010PropOp28
 70
     1
102
RTVSPost2010Prop29
280
     1
102
RTVSPost2010PropOp29
 70
     1
102
RTVSPost2010Prop30
280
     1
102
RTVSPost2010PropOp30
 70
     1
102
RTVSPost2010Prop31
280
     0
102
RTVSPost2010PropOp31
 70
     1
102
RTVSPost2010Prop32
280
     0
102
RTVSPost2010PropOp32
 70
     1
102
RTVSPost2010Prop33
280
     0
102
RTVSPost2010PropOp33
 70
     1
102
RTVSPost2010Prop34
280
     0
102
RTVSPost2010PropOp34
 70
     1
102
RTVSPost2010Prop35
280
     0
102
RTVSPost2010PropOp35
 70
     1
102
RTVSPost2010Prop36
280
     0
102
RTVSPost2010PropOp36
 70
     1
102
RTVSPost2010Prop37
 90
       50
102
RTVSPost2010PropOp37
 70
     1
102
RTVSPost2010Prop38
140
0.0
102
RTVSPost2010PropOp38
 70
     1
102
RTVSPost2010Prop39
140
1.0
102
RTVSPost2010PropOp39
 70
     1
102
RTVSPost2010Prop40
 90
        0
102
RTVSPost2010PropOp40
 70
     1
102
RTVSPost2010Prop41ColorIndex
 90
       18
102
RTVSPost2010Prop41ColorRGB
 90
        0
102
RTVSPost2010PropOp41
 70
     1
102
RTVSPost2010Prop42
 90
       50
102
RTVSPost2010PropOp42
 70
     1
102
RTVSPost2010Prop43
 90
        3
102
RTVSPost2010PropOp43
 70
     1
102
RTVSPost2010Prop44ColorIndex
 90
        5
102
RTVSPost2010Prop44ColorRGB
 90
      255
102
RTVSPost2010PropOp44
 70
     1
102
RTVSPost2010Prop45
280
     0
102
RTVSPost2010PropOp45
 70
     1
102
RTVSPost2010Prop46
 90
       50
102
RTVSPost2010PropOp46
 70
     1
102
RTVSPost2010Prop47
 90
       50
102
RTVSPost2010PropOp47
 70
     1
102
RTVSPost2010Prop48
 90
       50
102
RTVSPost2010PropOp48
 70
     1
102
RTVSPost2010Prop49
280
     0
102
RTVSPost2010PropOp49
 70
     1
102
RTVSPost2010Prop50
 90
       50
102
RTVSPost2010PropOp50
 70
     1
102
RTVSPost2010Prop51ColorIndex
 90
      256
102
RTVSPost2010Prop51ColorRGB
 90
-16777216
102
RTVSPost2010PropOp51
 70
     0
102
RTVSPost2010Prop52
140
1.0
102
RTVSPost2010PropOp52
 70
     0
102
RTVSPost2010Prop53
 90
        2
102
RTVSPost2010PropOp53
 70
     1
102
RTVSPost2010Prop54
  1
strokes_ogs.tif
102
RTVSPost2010PropOp54
 70
     1
102
RTVSPost2010Prop55
280
     0
102
RTVSPost2010PropOp55
 70
     1
102
RTVSPost2010Prop56
140
1.0
102
RTVSPost2010PropOp56
 70
     1
102
RTVSPost2010Prop57
140
1.0
102
RTVSPost2010PropOp57
 70
     1
  0
XRECORD
  5
220F7
102
{ACAD_REACTORS
330
220F6
102
}
330
220F6
100
AcDbXrecord
280
     1
102
RTVSPost2010Prop28
280
     0
102
RTVSPost2010PropOp28
 70
     1
102
RTVSPost2010Prop29
280
     1
102
RTVSPost2010PropOp29
 70
     1
102
RTVSPost2010Prop30
280
     1
102
RTVSPost2010PropOp30
 70
     1
102
RTVSPost2010Prop31
280
     0
102
RTVSPost2010PropOp31
 70
     1
102
RTVSPost2010Prop32
280
     0
102
RTVSPost2010PropOp32
 70
     1
102
RTVSPost2010Prop33
280
     0
102
RTVSPost2010PropOp33
 70
     1
102
RTVSPost2010Prop34
280
     0
102
RTVSPost2010PropOp34
 70
     1
102
RTVSPost2010Prop35
280
     0
102
RTVSPost2010PropOp35
 70
     1
102
RTVSPost2010Prop36
280
     0
102
RTVSPost2010PropOp36
 70
     1
102
RTVSPost2010Prop37
 90
       50
102
RTVSPost2010PropOp37
 70
     1
102
RTVSPost2010Prop38
140
0.0
102
RTVSPost2010PropOp38
 70
     1
102
RTVSPost2010Prop39
140
1.0
102
RTVSPost2010PropOp39
 70
     1
102
RTVSPost2010Prop40
 90
        0
102
RTVSPost2010PropOp40
 70
     1
102
RTVSPost2010Prop41ColorIndex
 90
       18
102
RTVSPost2010Prop41ColorRGB
 90
        0
102
RTVSPost2010PropOp41
 70
     1
102
RTVSPost2010Prop42
 90
       50
102
RTVSPost2010PropOp42
 70
     1
102
RTVSPost2010Prop43
 90
        3
102
RTVSPost2010PropOp43
 70
     1
102
RTVSPost2010Prop44ColorIndex
 90
        5
102
RTVSPost2010Prop44ColorRGB
 90
      255
102
RTVSPost2010PropOp44
 70
     1
102
RTVSPost2010Prop45
280
     0
102
RTVSPost2010PropOp45
 70
     1
102
RTVSPost2010Prop46
 90
       50
102
RTVSPost2010PropOp46
 70
     1
102
RTVSPost2010Prop47
 90
       50
102
RTVSPost2010PropOp47
 70
     1
102
RTVSPost2010Prop48
 90
       50
102
RTVSPost2010PropOp48
 70
     1
102
RTVSPost2010Prop49
280
     0
102
RTVSPost2010PropOp49
 70
     1
102
RTVSPost2010Prop50
 90
       50
102
RTVSPost2010PropOp50
 70
     1
102
RTVSPost2010Prop51ColorIndex
 90
      256
102
RTVSPost2010Prop51ColorRGB
 90
-16777216
102
RTVSPost2010PropOp51
 70
     0
102
RTVSPost2010Prop52
140
1.0
102
RTVSPost2010PropOp52
 70
     0
102
RTVSPost2010Prop53
 90
        2
102
RTVSPost2010PropOp53
 70
     1
102
RTVSPost2010Prop54
  1
strokes_ogs.tif
102
RTVSPost2010PropOp54
 70
     1
102
RTVSPost2010Prop55
280
     0
102
RTVSPost2010PropOp55
 70
     1
102
RTVSPost2010Prop56
140
1.0
102
RTVSPost2010PropOp56
 70
     1
102
RTVSPost2010Prop57
140
1.0
102
RTVSPost2010PropOp57
 70
     1
  0
XRECORD
  5
220E9
102
{ACAD_REACTORS
330
220E8
102
}
330
220E8
100
AcDbXrecord
280
     1
102
RTVSPost2010Prop28
280
     0
102
RTVSPost2010PropOp28
 70
     1
102
RTVSPost2010Prop29
280
     1
102
RTVSPost2010PropOp29
 70
     1
102
RTVSPost2010Prop30
280
     1
102
RTVSPost2010PropOp30
 70
     1
102
RTVSPost2010Prop31
280
     0
102
RTVSPost2010PropOp31
 70
     1
102
RTVSPost2010Prop32
280
     0
102
RTVSPost2010PropOp32
 70
     1
102
RTVSPost2010Prop33
280
     0
102
RTVSPost2010PropOp33
 70
     1
102
RTVSPost2010Prop34
280
     0
102
RTVSPost2010PropOp34
 70
     1
102
RTVSPost2010Prop35
280
     0
102
RTVSPost2010PropOp35
 70
     1
102
RTVSPost2010Prop36
280
     0
102
RTVSPost2010PropOp36
 70
     1
102
RTVSPost2010Prop37
 90
       50
102
RTVSPost2010PropOp37
 70
     1
102
RTVSPost2010Prop38
140
0.0
102
RTVSPost2010PropOp38
 70
     1
102
RTVSPost2010Prop39
140
1.0
102
RTVSPost2010PropOp39
 70
     1
102
RTVSPost2010Prop40
 90
        0
102
RTVSPost2010PropOp40
 70
     1
102
RTVSPost2010Prop41ColorIndex
 90
       18
102
RTVSPost2010Prop41ColorRGB
 90
        0
102
RTVSPost2010PropOp41
 70
     1
102
RTVSPost2010Prop42
 90
       50
102
RTVSPost2010PropOp42
 70
     1
102
RTVSPost2010Prop43
 90
        3
102
RTVSPost2010PropOp43
 70
     1
102
RTVSPost2010Prop44ColorIndex
 90
        5
102
RTVSPost2010Prop44ColorRGB
 90
      255
102
RTVSPost2010PropOp44
 70
     1
102
RTVSPost2010Prop45
280
     0
102
RTVSPost2010PropOp45
 70
     1
102
RTVSPost2010Prop46
 90
       50
102
RTVSPost2010PropOp46
 70
     1
102
RTVSPost2010Prop47
 90
       50
102
RTVSPost2010PropOp47
 70
     1
102
RTVSPost2010Prop48
 90
       50
102
RTVSPost2010PropOp48
 70
     1
102
RTVSPost2010Prop49
280
     0
102
RTVSPost2010PropOp49
 70
     1
102
RTVSPost2010Prop50
 90
       50
102
RTVSPost2010PropOp50
 70
     1
102
RTVSPost2010Prop51ColorIndex
 90
      256
102
RTVSPost2010Prop51ColorRGB
 90
-16777216
102
RTVSPost2010PropOp51
 70
     0
102
RTVSPost2010Prop52
140
1.0
102
RTVSPost2010PropOp52
 70
     0
102
RTVSPost2010Prop53
 90
        2
102
RTVSPost2010PropOp53
 70
     1
102
RTVSPost2010Prop54
  1
strokes_ogs.tif
102
RTVSPost2010PropOp54
 70
     1
102
RTVSPost2010Prop55
280
     0
102
RTVSPost2010PropOp55
 70
     1
102
RTVSPost2010Prop56
140
1.0
102
RTVSPost2010PropOp56
 70
     1
102
RTVSPost2010Prop57
140
1.0
102
RTVSPost2010PropOp57
 70
     1
  0
XRECORD
  5
220F1
102
{ACAD_REACTORS
330
220F0
102
}
330
220F0
100
AcDbXrecord
280
     1
102
RTVSPost2010Prop28
280
     0
102
RTVSPost2010PropOp28
 70
     1
102
RTVSPost2010Prop29
280
     1
102
RTVSPost2010PropOp29
 70
     1
102
RTVSPost2010Prop30
280
     1
102
RTVSPost2010PropOp30
 70
     1
102
RTVSPost2010Prop31
280
     0
102
RTVSPost2010PropOp31
 70
     1
102
RTVSPost2010Prop32
280
     0
102
RTVSPost2010PropOp32
 70
     1
102
RTVSPost2010Prop33
280
     0
102
RTVSPost2010PropOp33
 70
     1
102
RTVSPost2010Prop34
280
     0
102
RTVSPost2010PropOp34
 70
     1
102
RTVSPost2010Prop35
280
     0
102
RTVSPost2010PropOp35
 70
     1
102
RTVSPost2010Prop36
280
     0
102
RTVSPost2010PropOp36
 70
     1
102
RTVSPost2010Prop37
 90
       50
102
RTVSPost2010PropOp37
 70
     1
102
RTVSPost2010Prop38
140
0.0
102
RTVSPost2010PropOp38
 70
     1
102
RTVSPost2010Prop39
140
1.0
102
RTVSPost2010PropOp39
 70
     1
102
RTVSPost2010Prop40
 90
        0
102
RTVSPost2010PropOp40
 70
     1
102
RTVSPost2010Prop41ColorIndex
 90
       18
102
RTVSPost2010Prop41ColorRGB
 90
        0
102
RTVSPost2010PropOp41
 70
     1
102
RTVSPost2010Prop42
 90
       50
102
RTVSPost2010PropOp42
 70
     1
102
RTVSPost2010Prop43
 90
        3
102
RTVSPost2010PropOp43
 70
     1
102
RTVSPost2010Prop44ColorIndex
 90
        5
102
RTVSPost2010Prop44ColorRGB
 90
      255
102
RTVSPost2010PropOp44
 70
     1
102
RTVSPost2010Prop45
280
     0
102
RTVSPost2010PropOp45
 70
     1
102
RTVSPost2010Prop46
 90
       50
102
RTVSPost2010PropOp46
 70
     1
102
RTVSPost2010Prop47
 90
       50
102
RTVSPost2010PropOp47
 70
     1
102
RTVSPost2010Prop48
 90
       50
102
RTVSPost2010PropOp48
 70
     1
102
RTVSPost2010Prop49
280
     0
102
RTVSPost2010PropOp49
 70
     1
102
RTVSPost2010Prop50
 90
       50
102
RTVSPost2010PropOp50
 70
     1
102
RTVSPost2010Prop51ColorIndex
 90
      256
102
RTVSPost2010Prop51ColorRGB
 90
-16777216
102
RTVSPost2010PropOp51
 70
     0
102
RTVSPost2010Prop52
140
1.0
102
RTVSPost2010PropOp52
 70
     0
102
RTVSPost2010Prop53
 90
        2
102
RTVSPost2010PropOp53
 70
     1
102
RTVSPost2010Prop54
  1
strokes_ogs.tif
102
RTVSPost2010PropOp54
 70
     1
102
RTVSPost2010Prop55
280
     0
102
RTVSPost2010PropOp55
 70
     1
102
RTVSPost2010Prop56
140
1.0
102
RTVSPost2010PropOp56
 70
     1
102
RTVSPost2010Prop57
140
1.0
102
RTVSPost2010PropOp57
 70
     1
  0
XRECORD
  5
220F9
102
{ACAD_REACTORS
330
220F8
102
}
330
220F8
100
AcDbXrecord
280
     1
102
RTVSPost2010Prop28
280
     0
102
RTVSPost2010PropOp28
 70
     1
102
RTVSPost2010Prop29
280
     1
102
RTVSPost2010PropOp29
 70
     1
102
RTVSPost2010Prop30
280
     1
102
RTVSPost2010PropOp30
 70
     1
102
RTVSPost2010Prop31
280
     0
102
RTVSPost2010PropOp31
 70
     1
102
RTVSPost2010Prop32
280
     0
102
RTVSPost2010PropOp32
 70
     1
102
RTVSPost2010Prop33
280
     0
102
RTVSPost2010PropOp33
 70
     1
102
RTVSPost2010Prop34
280
     0
102
RTVSPost2010PropOp34
 70
     1
102
RTVSPost2010Prop35
280
     0
102
RTVSPost2010PropOp35
 70
     1
102
RTVSPost2010Prop36
280
     0
102
RTVSPost2010PropOp36
 70
     1
102
RTVSPost2010Prop37
 90
       50
102
RTVSPost2010PropOp37
 70
     1
102
RTVSPost2010Prop38
140
0.0
102
RTVSPost2010PropOp38
 70
     1
102
RTVSPost2010Prop39
140
1.0
102
RTVSPost2010PropOp39
 70
     1
102
RTVSPost2010Prop40
 90
        0
102
RTVSPost2010PropOp40
 70
     1
102
RTVSPost2010Prop41ColorIndex
 90
       18
102
RTVSPost2010Prop41ColorRGB
 90
        0
102
RTVSPost2010PropOp41
 70
     1
102
RTVSPost2010Prop42
 90
       50
102
RTVSPost2010PropOp42
 70
     1
102
RTVSPost2010Prop43
 90
        3
102
RTVSPost2010PropOp43
 70
     1
102
RTVSPost2010Prop44ColorIndex
 90
        5
102
RTVSPost2010Prop44ColorRGB
 90
      255
102
RTVSPost2010PropOp44
 70
     1
102
RTVSPost2010Prop45
280
     0
102
RTVSPost2010PropOp45
 70
     1
102
RTVSPost2010Prop46
 90
       50
102
RTVSPost2010PropOp46
 70
     1
102
RTVSPost2010Prop47
 90
       50
102
RTVSPost2010PropOp47
 70
     1
102
RTVSPost2010Prop48
 90
       50
102
RTVSPost2010PropOp48
 70
     1
102
RTVSPost2010Prop49
280
     0
102
RTVSPost2010PropOp49
 70
     1
102
RTVSPost2010Prop50
 90
       50
102
RTVSPost2010PropOp50
 70
     1
102
RTVSPost2010Prop51ColorIndex
 90
      256
102
RTVSPost2010Prop51ColorRGB
 90
-16777216
102
RTVSPost2010PropOp51
 70
     0
102
RTVSPost2010Prop52
140
1.0
102
RTVSPost2010PropOp52
 70
     0
102
RTVSPost2010Prop53
 90
        2
102
RTVSPost2010PropOp53
 70
     1
102
RTVSPost2010Prop54
  1
strokes_ogs.tif
102
RTVSPost2010PropOp54
 70
     1
102
RTVSPost2010Prop55
280
     0
102
RTVSPost2010PropOp55
 70
     1
102
RTVSPost2010Prop56
140
1.0
102
RTVSPost2010PropOp56
 70
     1
102
RTVSPost2010Prop57
140
1.0
102
RTVSPost2010PropOp57
 70
     1
  0
ENDSEC
  0
EOF
