  0
SECTION
  2
HEADER
  9
$ACADVER
  1
AC1024
  9
$ACADMAINTVER
 70
   182
  9
$DWGCODEPAGE
  3
ANSI_1252
  9
$LASTSAVEDBY
  1
kamerka
  9
$INSBASE
 10
0.0
 20
0.0
 30
0.0
  9
$EXTMIN
 10
-100.9176627138137
 20
-53.71864776416635
 30
-0.0000000000000057
  9
$EXTMAX
 10
73.14239559362454
 20
52.83633521871616
 30
0.0000000000000104
  9
$LIMMIN
 10
0.0
 20
0.0
  9
$LIMMAX
 10
420.0
 20
297.0
  9
$ORTHOMODE
 70
     0
  9
$REGENMODE
 70
     1
  9
$FILLMODE
 70
     1
  9
$QTEXTMODE
 70
     0
  9
$MIRRTEXT
 70
     0
  9
$LTSCALE
 40
23.1
  9
$ATTMODE
 70
     1
  9
$TEXTSIZE
 40
3.5
  9
$TRACEWID
 40
0.05
  9
$TEXTSTYLE
  7
STANDARD
  9
$CLAYER
  8
0
  9
$CELTYPE
  6
BYLAYER
  9
$CECOLOR
 62
   256
  9
$CELTSCALE
 40
1.0
  9
$DISPSILH
 70
     0
  9
$DIMSCALE
 40
1.0
  9
$DIMASZ
 40
4.57
  9
$DIMEXO
 40
0.0625
  9
$DIMDLI
 40
0.38
  9
$DIMRND
 40
0.0
  9
$DIMDLE
 40
0.0
  9
$DIMEXE
 40
0.18
  9
$DIMTP
 40
0.01
  9
$DIMTM
 40
0.01
  9
$DIMTXT
 40
3.5
  9
$DIMCEN
 40
0.09
  9
$DIMTSZ
 40
0.0
  9
$DIMTOL
 70
     0
  9
$DIMLIM
 70
     0
  9
$DIMTIH
 70
     0
  9
$DIMTOH
 70
     0
  9
$DIMSE1
 70
     0
  9
$DIMSE2
 70
     0
  9
$DIMTAD
 70
     1
  9
$DIMZIN
 70
     8
  9
$DIMBLK
  1

  9
$DIMASO
 70
     1
  9
$DIMSHO
 70
     1
  9
$DIMPOST
  1

  9
$DIMAPOST
  1

  9
$DIMALT
 70
     0
  9
$DIMALTD
 70
     2
  9
$DIMALTF
 40
25.4
  9
$DIMLFAC
 40
1.0
  9
$DIMTOFL
 70
     0
  9
$DIMTVP
 40
0.0
  9
$DIMTIX
 70
     0
  9
$DIMSOXD
 70
     0
  9
$DIMSAH
 70
     0
  9
$DIMBLK1
  1

  9
$DIMBLK2
  1

  9
$DIMSTYLE
  2
STANDARD
  9
$DIMCLRD
 70
     0
  9
$DIMCLRE
 70
     0
  9
$DIMCLRT
 70
     0
  9
$DIMTFAC
 40
1.0
  9
$DIMGAP
 40
0.09
  9
$DIMJUST
 70
     0
  9
$DIMSD1
 70
     0
  9
$DIMSD2
 70
     0
  9
$DIMTOLJ
 70
     1
  9
$DIMTZIN
 70
     8
  9
$DIMALTZ
 70
     0
  9
$DIMALTTZ
 70
     0
  9
$DIMUPT
 70
     0
  9
$DIMDEC
 70
     3
  9
$DIMTDEC
 70
     3
  9
$DIMALTU
 70
     2
  9
$DIMALTTD
 70
     2
  9
$DIMTXSTY
  7
STANDARD
  9
$DIMAUNIT
 70
     0
  9
$DIMADEC
 70
     0
  9
$DIMALTRND
 40
0.0
  9
$DIMAZIN
 70
     0
  9
$DIMDSEP
 70
    46
  9
$DIMATFIT
 70
     0
  9
$DIMFRAC
 70
     0
  9
$DIMLDRBLK
  1

  9
$DIMLUNIT
 70
     2
  9
$DIMLWD
 70
    -2
  9
$DIMLWE
 70
    -2
  9
$DIMTMOVE
 70
     0
  9
$DIMFXL
 40
1.0
  9
$DIMFXLON
 70
     0
  9
$DIMJOGANG
 40
0.7853981633974483
  9
$DIMTFILL
 70
     0
  9
$DIMTFILLCLR
 70
     0
  9
$DIMARCSYM
 70
     0
  9
$DIMLTYPE
  6

  9
$DIMLTEX1
  6

  9
$DIMLTEX2
  6

  9
$DIMTXTDIRECTION
 70
     0
  9
$LUNITS
 70
     2
  9
$LUPREC
 70
     4
  9
$SKETCHINC
 40
0.1
  9
$FILLETRAD
 40
0.0
  9
$AUNITS
 70
     0
  9
$AUPREC
 70
     0
  9
$MENU
  1
.
  9
$ELEVATION
 40
0.0
  9
$PELEVATION
 40
0.0
  9
$THICKNESS
 40
0.0
  9
$LIMCHECK
 70
     0
  9
$CHAMFERA
 40
0.0
  9
$CHAMFERB
 40
0.0
  9
$CHAMFERC
 40
0.0
  9
$CHAMFERD
 40
0.0
  9
$SKPOLY
 70
     0
  9
$TDCREATE
 40
2458446.405227107
  9
$TDUCREATE
 40
2458446.321893773
  9
$TDUPDATE
 40
2458975.541004120
  9
$TDUUPDATE
 40
2458975.457670787
  9
$TDINDWG
 40
0.0286806829
  9
$TDUSRTIMER
 40
0.0286796296
  9
$USRTIMER
 70
     1
  9
$ANGBASE
 50
0.0
  9
$ANGDIR
 70
     0
  9
$PDMODE
 70
     3
  9
$PDSIZE
 40
0.3125
  9
$PLINEWID
 40
0.0
  9
$SPLFRAME
 70
     0
  9
$SPLINETYPE
 70
     6
  9
$SPLINESEGS
 70
     8
  9
$HANDSEED
  5
22116
  9
$SURFTAB1
 70
     6
  9
$SURFTAB2
 70
     6
  9
$SURFTYPE
 70
     6
  9
$SURFU
 70
     6
  9
$SURFV
 70
     6
  9
$UCSBASE
  2

  9
$UCSNAME
  2

  9
$UCSORG
 10
0.0
 20
0.0
 30
0.0
  9
$UCSXDIR
 10
1.0
 20
0.0
 30
0.0
  9
$UCSYDIR
 10
0.0
 20
1.0
 30
0.0
  9
$UCSORTHOREF
  2

  9
$UCSORTHOVIEW
 70
     0
  9
$UCSORGTOP
 10
0.0
 20
0.0
 30
0.0
  9
$UCSORGBOTTOM
 10
0.0
 20
0.0
 30
0.0
  9
$UCSORGLEFT
 10
0.0
 20
0.0
 30
0.0
  9
$UCSORGRIGHT
 10
0.0
 20
0.0
 30
0.0
  9
$UCSORGFRONT
 10
0.0
 20
0.0
 30
0.0
  9
$UCSORGBACK
 10
0.0
 20
0.0
 30
0.0
  9
$PUCSBASE
  2

  9
$PUCSNAME
  2

  9
$PUCSORG
 10
0.0
 20
0.0
 30
0.0
  9
$PUCSXDIR
 10
1.0
 20
0.0
 30
0.0
  9
$PUCSYDIR
 10
0.0
 20
1.0
 30
0.0
  9
$PUCSORTHOREF
  2

  9
$PUCSORTHOVIEW
 70
     0
  9
$PUCSORGTOP
 10
0.0
 20
0.0
 30
0.0
  9
$PUCSORGBOTTOM
 10
0.0
 20
0.0
 30
0.0
  9
$PUCSORGLEFT
 10
0.0
 20
0.0
 30
0.0
  9
$PUCSORGRIGHT
 10
0.0
 20
0.0
 30
0.0
  9
$PUCSORGFRONT
 10
0.0
 20
0.0
 30
0.0
  9
$PUCSORGBACK
 10
0.0
 20
0.0
 30
0.0
  9
$USERI1
 70
     0
  9
$USERI2
 70
     0
  9
$USERI3
 70
     0
  9
$USERI4
 70
     0
  9
$USERI5
 70
     0
  9
$USERR1
 40
0.0
  9
$USERR2
 40
0.0
  9
$USERR3
 40
0.0
  9
$USERR4
 40
0.0
  9
$USERR5
 40
0.0
  9
$WORLDVIEW
 70
     1
  9
$SHADEDGE
 70
     3
  9
$SHADEDIF
 70
    70
  9
$TILEMODE
 70
     1
  9
$MAXACTVP
 70
    64
  9
$PINSBASE
 10
0.0
 20
0.0
 30
0.0
  9
$PLIMCHECK
 70
     0
  9
$PEXTMIN
 10
28.69141678810127
 20
19.6363175392151
 30
0.0
  9
$PEXTMAX
 10
258.2227510929107
 20
176.7268578529358
 30
0.0
  9
$PLIMMIN
 10
-5.027069091796875
 20
-6.805083274841307
  9
$PLIMMAX
 10
291.9412536621094
 20
203.1682443618775
  9
$UNITMODE
 70
     0
  9
$VISRETAIN
 70
     1
  9
$PLINEGEN
 70
     0
  9
$PSLTSCALE
 70
     1
  9
$TREEDEPTH
 70
  3020
  9
$CMLSTYLE
  2
STANDARD
  9
$CMLJUST
 70
     0
  9
$CMLSCALE
 40
1.0
  9
$PROXYGRAPHICS
 70
     1
  9
$MEASUREMENT
 70
     1
  9
$CELWEIGHT
370
    -1
  9
$ENDCAPS
280
     0
  9
$JOINSTYLE
280
     0
  9
$LWDISPLAY
290
     0
  9
$INSUNITS
 70
     0
  9
$HYPERLINKBASE
  1

  9
$STYLESHEET
  1
A1-A2.CTB
  9
$XEDIT
290
     1
  9
$CEPSNTYPE
380
     0
  9
$PSTYLEMODE
290
     1
  9
$FINGERPRINTGUID
  2
{6D3BC7B5-ACA7-406D-8A0D-A7DBBE093430}
  9
$VERSIONGUID
  2
{F47789A7-039D-4507-B319-7365AADBE0DB}
  9
$EXTNAMES
290
     1
  9
$PSVPSCALE
 40
0.0
  9
$OLESTARTUP
290
     0
  9
$SORTENTS
280
   127
  9
$INDEXCTL
280
     0
  9
$HIDETEXT
280
     0
  9
$XCLIPFRAME
280
     2
  9
$HALOGAP
280
     0
  9
$OBSCOLOR
 70
   257
  9
$OBSLTYPE
280
     0
  9
$INTERSECTIONDISPLAY
280
     0
  9
$INTERSECTIONCOLOR
 70
   257
  9
$DIMASSOC
280
     1
  9
$PROJECTNAME
  1

  9
$CAMERADISPLAY
290
     0
  9
$LENSLENGTH
 40
50.0
  9
$CAMERAHEIGHT
 40
0.0
  9
$STEPSPERSEC
 40
2.0
  9
$STEPSIZE
 40
6.0
  9
$3DDWFPREC
 40
2.0
  9
$PSOLWIDTH
 40
0.25
  9
$PSOLHEIGHT
 40
4.0
  9
$LOFTANG1
 40
1.570796326794896
  9
$LOFTANG2
 40
1.570796326794896
  9
$LOFTMAG1
 40
0.0
  9
$LOFTMAG2
 40
0.0
  9
$LOFTPARAM
 70
     7
  9
$LOFTNORMALS
280
     1
  9
$LATITUDE
 40
37.795
  9
$LONGITUDE
 40
-122.394
  9
$NORTHDIRECTION
 40
0.0
  9
$TIMEZONE
 70
 -8000
  9
$LIGHTGLYPHDISPLAY
280
     1
  9
$TILEMODELIGHTSYNCH
280
     1
  9
$CMATERIAL
347
318C
  9
$SOLIDHIST
280
     0
  9
$SHOWHIST
280
     1
  9
$DWFFRAME
280
     2
  9
$DGNFRAME
280
     0
  9
$REALWORLDSCALE
290
     1
  9
$INTERFERECOLOR
 62
     1
  9
$INTERFEREOBJVS
345
3199
  9
$INTERFEREVPVS
346
1B2E3
  9
$CSHADOW
280
     0
  9
$SHADOWPLANELOCATION
 40
0.0
  0
ENDSEC
  0
SECTION
  2
CLASSES
  0
CLASS
  1
ACDBDICTIONARYWDFLT
  2
AcDbDictionaryWithDefault
  3
ObjectDBX Classes
 90
        0
 91
        1
280
     0
281
     0
  0
CLASS
  1
MATERIAL
  2
AcDbMaterial
  3
ObjectDBX Classes
 90
     1153
 91
        3
280
     0
281
     0
  0
CLASS
  1
VISUALSTYLE
  2
AcDbVisualStyle
  3
ObjectDBX Classes
 90
     4095
 91
       26
280
     0
281
     0
  0
CLASS
  1
TABLESTYLE
  2
AcDbTableStyle
  3
ObjectDBX Classes
 90
     4095
 91
        1
280
     0
281
     0
  0
CLASS
  1
SORTENTSTABLE
  2
AcDbSortentsTable
  3
ObjectDBX Classes
 90
        0
 91
        2
280
     0
281
     0
  0
CLASS
  1
DICTIONARYVAR
  2
AcDbDictionaryVar
  3
ObjectDBX Classes
 90
        0
 91
       13
280
     0
281
     0
  0
CLASS
  1
EXACXREFPANELOBJECT
  2
ExAcXREFPanelObject
  3
EXAC_ESW
 90
     1025
 91
        0
280
     1
281
     0
  0
CLASS
  1
NPOCOLLECTION
  2
AcDbImpNonPersistentObjectsCollection
  3
ObjectDBX Classes
 90
     1153
 91
        0
280
     1
281
     0
  0
CLASS
  1
SCALE
  2
AcDbScale
  3
ObjectDBX Classes
 90
     1153
 91
       33
280
     0
281
     0
  0
CLASS
  1
MLEADERSTYLE
  2
AcDbMLeaderStyle
  3
ACDB_MLEADERSTYLE_CLASS
 90
     4095
 91
        1
280
     0
281
     0
  0
CLASS
  1
ACDBSECTIONVIEWSTYLE
  2
AcDbSectionViewStyle
  3
ObjectDBX Classes
 90
     1025
 91
        2
280
     0
281
     0
  0
CLASS
  1
ACDBDETAILVIEWSTYLE
  2
AcDbDetailViewStyle
  3
ObjectDBX Classes
 90
     1025
 91
        2
280
     0
281
     0
  0
CLASS
  1
CELLSTYLEMAP
  2
AcDbCellStyleMap
  3
ObjectDBX Classes
 90
     1152
 91
        2
280
     0
281
     0
  0
CLASS
  1
ACAD_EVALUATION_GRAPH
  2
AcDbEvalGraph
  3
ObjectDBX Classes
 90
     1153
 91
        0
280
     0
281
     0
  0
CLASS
  1
ACAECUSTOBJ
  2
AcAeEditorObj
  3
AcAeEditorObj
 90
     1024
 91
        0
280
     0
281
     0
  0
CLASS
  1
ACDB_DYNAMICBLOCKPURGEPREVENTER_VERSION
  2
AcDbDynamicBlockPurgePreventer
  3
ObjectDBX Classes
 90
     1153
 91
        0
280
     0
281
     0
  0
CLASS
  1
FIELD
  2
AcDbField
  3
ObjectDBX Classes
 90
     1152
 91
        0
280
     0
281
     0
  0
CLASS
  1
FIELDLIST
  2
AcDbFieldList
  3
ObjectDBX Classes
 90
     1152
 91
        1
280
     0
281
     0
  0
CLASS
  1
ACDB_ALDIMOBJECTCONTEXTDATA_CLASS
  2
AcDbAlignedDimensionObjectContextData
  3
ObjectDBX Classes
 90
     1153
 91
        0
280
     0
281
     0
  0
ENDSEC
  0
SECTION
  2
TABLES
  0
TABLE
  2
VPORT
  5
8
330
0
100
AcDbSymbolTable
 70
     1
  0
VPORT
  5
1F4
330
8
100
AcDbSymbolTableRecord
100
AcDbViewportTableRecord
  2
*ACTIVE
 70
     0
 10
0.0
 20
0.0
 11
1.0
 21
1.0
 12
-13.88763356009456
 22
-0.4411562727250953
 13
0.0
 23
0.0
 14
1.0
 24
1.0
 15
0.0
 25
0.0
 16
0.0
 26
0.0
 36
1.0
 17
0.0
 27
0.0
 37
0.0
 40
107.4683114084501
 41
2.698140200286123
 42
50.0
 43
0.0
 44
0.0
 50
0.0
 51
0.0
 71
     0
 72
  2000
 73
     1
 74
     1
 75
     0
 76
     0
 77
     0
 78
     0
281
     0
 65
     1
110
0.0
120
0.0
130
0.0
111
1.0
121
0.0
131
0.0
112
0.0
122
1.0
132
0.0
 79
     0
146
0.0
348
3195
 60
     3
 61
     5
292
     1
282
     1
141
0.0
142
0.0
 63
   250
421
  3355443
1001
ACAD_NAV_VCDISPLAY
1070
     3
  0
ENDTAB
  0
TABLE
  2
LTYPE
  5
5
330
0
100
AcDbSymbolTable
 70
     6
  0
LTYPE
  5
14
330
5
100
AcDbSymbolTableRecord
100
AcDbLinetypeTableRecord
  2
BYBLOCK
 70
     0
  3

 72
    65
 73
     0
 40
0.0
  0
LTYPE
  5
15
330
5
100
AcDbSymbolTableRecord
100
AcDbLinetypeTableRecord
  2
BYLAYER
 70
     0
  3

 72
    65
 73
     0
 40
0.0
  0
LTYPE
  5
16
330
5
100
AcDbSymbolTableRecord
100
AcDbLinetypeTableRecord
  2
CONTINUOUS
 70
     0
  3
Solid line
 72
    65
 73
     0
 40
0.0
  0
LTYPE
  5
9C48
330
5
100
AcDbSymbolTableRecord
100
AcDbLinetypeTableRecord
  2
CENTER
 70
     0
  3
____ _ ____ _ ____ _ ____ _ ____ _ ____ _ ____
 72
    65
 73
     4
 40
0.6
 49
0.375
 74
     0
 49
-0.075
 74
     0
 49
0.075
 74
     0
 49
-0.075
 74
     0
  0
LTYPE
  5
20A82
330
5
100
AcDbSymbolTableRecord
100
AcDbLinetypeTableRecord
  2
HIDDEN
 70
     0
  3
- - - - - - - - - - - - - - - - - - - -
 72
    65
 73
     2
 40
0.2
 49
0.1
 74
     0
 49
-0.1
 74
     0
  0
LTYPE
  5
21CB3
330
5
100
AcDbSymbolTableRecord
100
AcDbLinetypeTableRecord
  2
CENTER2
 70
     0
  3
Center (.5x) ___ _ ___ _ ___ _ ___ _ ___ _ ___
 72
    65
 73
     4
 40
28.57499999999999
 49
19.05
 74
     4
 75
     0
340
0
 46
1.0
 50
0.0
 44
0.0
 45
0.0
 49
-3.174999999999998
 74
     4
 75
     0
340
0
 46
1.0
 50
0.0
 44
0.0
 45
0.0
 49
3.174999999999998
 74
     4
 75
     0
340
0
 46
1.0
 50
0.0
 44
0.0
 45
0.0
 49
-3.174999999999998
 74
     4
 75
     0
340
0
 46
1.0
 50
0.0
 44
0.0
 45
0.0
  0
ENDTAB
  0
TABLE
  2
LAYER
  5
2
102
{ACAD_XDICTIONARY
360
422A
102
}
330
0
100
AcDbSymbolTable
 70
    16
  0
LAYER
  5
10
102
{ACAD_XDICTIONARY
360
1B2F5
102
}
330
2
100
AcDbSymbolTableRecord
100
AcDbLayerTableRecord
  2
0
 70
     0
 62
     7
  6
CONTINUOUS
370
    -3
390
318A
347
318E
  0
LAYER
  5
3F8C
102
{ACAD_XDICTIONARY
360
1B2F7
102
}
330
2
100
AcDbSymbolTableRecord
100
AcDbLayerTableRecord
  2
1
 70
     0
 62
     4
  6
BYBLOCK
370
    50
390
318A
347
318E
  0
LAYER
  5
3FA7
330
2
100
AcDbSymbolTableRecord
100
AcDbLayerTableRecord
  2
Defpoints
 70
     0
 62
     7
  6
CONTINUOUS
290
     0
370
    -3
390
318A
347
318E
  0
LAYER
  5
9C4A
102
{ACAD_XDICTIONARY
360
1B2F9
102
}
330
2
100
AcDbSymbolTableRecord
100
AcDbLayerTableRecord
  2
2
 70
     0
 62
     7
  6
BYBLOCK
370
    25
390
318A
347
318E
  0
LAYER
  5
9C4B
102
{ACAD_XDICTIONARY
360
1B2FB
102
}
330
2
100
AcDbSymbolTableRecord
100
AcDbLayerTableRecord
  2
4
 70
     0
 62
     2
  6
CENTER
370
    25
390
318A
347
318E
  0
LAYER
  5
9C4D
102
{ACAD_XDICTIONARY
360
1B2FD
102
}
330
2
100
AcDbSymbolTableRecord
100
AcDbLayerTableRecord
  2
CUT
 70
     0
 62
     1
  6
BYBLOCK
370
    25
390
318A
347
318E
  0
LAYER
  5
9C4E
102
{ACAD_XDICTIONARY
360
1B2FF
102
}
330
2
100
AcDbSymbolTableRecord
100
AcDbLayerTableRecord
  2
NOCUT
 70
     0
 62
     7
  6
BYBLOCK
370
    25
390
318A
347
318E
  0
LAYER
  5
9C4F
102
{ACAD_XDICTIONARY
360
1B301
102
}
330
2
100
AcDbSymbolTableRecord
100
AcDbLayerTableRecord
  2
SK2
 70
     0
 62
     7
  6
BYBLOCK
370
    25
390
318A
347
318E
  0
LAYER
  5
9C50
102
{ACAD_XDICTIONARY
360
1B303
102
}
330
2
100
AcDbSymbolTableRecord
100
AcDbLayerTableRecord
  2
SK1
 70
     0
 62
     4
  6
BYBLOCK
370
    50
390
318A
347
318E
  0
LAYER
  5
9C51
102
{ACAD_XDICTIONARY
360
1B305
102
}
330
2
100
AcDbSymbolTableRecord
100
AcDbLayerTableRecord
  2
SK4
 70
     0
 62
     2
  6
CENTER
370
    25
390
318A
347
318E
  0
LAYER
  5
13335
102
{ACAD_XDICTIONARY
360
1B307
102
}
330
2
100
AcDbSymbolTableRecord
100
AcDbLayerTableRecord
  2
INFTOTAL
 70
     0
 62
     9
  6
BYBLOCK
370
    18
390
318A
347
318E
1001
AcAecLayerStandard
1000

1000

  0
LAYER
  5
1686E
102
{ACAD_XDICTIONARY
360
1B309
102
}
330
2
100
AcDbSymbolTableRecord
100
AcDbLayerTableRecord
  2
SK6
 70
     0
 62
     5
  6
BYBLOCK
370
    -3
390
318A
347
318E
  0
LAYER
  5
21CB4
330
2
100
AcDbSymbolTableRecord
100
AcDbLayerTableRecord
  2
SK3
 70
     0
 62
     1
  6
HIDDEN
370
    35
390
318A
347
318E
  0
LAYER
  5
21CB5
330
2
100
AcDbSymbolTableRecord
100
AcDbLayerTableRecord
  2
SKVIEW1
 70
     0
 62
     4
  6
CONTINUOUS
370
    50
390
318A
347
318E
1001
AcAecLayerStandard
1000

1000

  0
LAYER
  5
21CB6
330
2
100
AcDbSymbolTableRecord
100
AcDbLayerTableRecord
  2
SKVIEW4
 70
     0
 62
     2
  6
CENTER2
370
    25
390
318A
347
318E
1001
AcAecLayerStandard
1000

1000

  0
ENDTAB
  0
TABLE
  2
STYLE
  5
3
330
0
100
AcDbSymbolTable
 70
     2
  0
STYLE
  5
11
330
3
100
AcDbSymbolTableRecord
100
AcDbTextStyleTableRecord
  2
STANDARD
 70
     0
 40
3.5
 41
0.8
 50
0.0
 71
     0
 42
3.5
  3
monos.ttf
  4

1001
ACAD
1000
Monospac821 BT
1071
       49
  0
ENDTAB
  0
TABLE
  2
VIEW
  5
6
330
0
100
AcDbSymbolTable
 70
     0
  0
ENDTAB
  0
TABLE
  2
UCS
  5
7
330
0
100
AcDbSymbolTable
 70
     0
  0
ENDTAB
  0
TABLE
  2
APPID
  5
9
330
0
100
AcDbSymbolTable
 70
    19
  0
APPID
  5
23B
330
9
100
AcDbSymbolTableRecord
100
AcDbRegAppTableRecord
  2
ACAD
 70
     0
  0
APPID
  5
3395
330
9
100
AcDbSymbolTableRecord
100
AcDbRegAppTableRecord
  2
ACAD_EXEMPT_FROM_CAD_STANDARDS
 70
     0
  0
APPID
  5
4229
330
9
100
AcDbSymbolTableRecord
100
AcDbRegAppTableRecord
  2
AcAecLayerStandard
 70
     0
  0
APPID
  5
9A1B
330
9
100
AcDbSymbolTableRecord
100
AcDbRegAppTableRecord
  2
ACAD_PSEXT
 70
     0
  0
APPID
  5
1B313
330
9
100
AcDbSymbolTableRecord
100
AcDbRegAppTableRecord
  2
ACAD_NAV_VCDISPLAY
 70
     0
  0
APPID
  5
1B355
330
9
100
AcDbSymbolTableRecord
100
AcDbRegAppTableRecord
  2
ACAD_MLEADERVER
 70
     0
  0
APPID
  5
1EC7F
330
9
100
AcDbSymbolTableRecord
100
AcDbRegAppTableRecord
  2
ACAUTHENVIRON
 70
     0
  0
APPID
  5
1EC82
330
9
100
AcDbSymbolTableRecord
100
AcDbRegAppTableRecord
  2
AcDbDynamicBlockTrueName
 70
     0
  0
APPID
  5
1EC83
330
9
100
AcDbSymbolTableRecord
100
AcDbRegAppTableRecord
  2
AcDbDynamicBlockGUID
 70
     0
  0
APPID
  5
20A85
330
9
100
AcDbSymbolTableRecord
100
AcDbRegAppTableRecord
  2
AcCmTransparency
 70
     0
  0
APPID
  5
20AE2
330
9
100
AcDbSymbolTableRecord
100
AcDbRegAppTableRecord
  2
ACAD_DSTYLE_DIMRADIAL_EXTENSION
 70
     0
  0
APPID
  5
20CB0
330
9
100
AcDbSymbolTableRecord
100
AcDbRegAppTableRecord
  2
AcadAnnotative
 70
     0
  0
APPID
  5
21667
330
9
100
AcDbSymbolTableRecord
100
AcDbRegAppTableRecord
  2
AcadAnnoMonitorAlertIconDisabled
 70
     0
  0
APPID
  5
21CB9
330
9
100
AcDbSymbolTableRecord
100
AcDbRegAppTableRecord
  2
ACAD_DSTYLE_DIMJAG
 70
     0
  0
APPID
  5
21CBA
330
9
100
AcDbSymbolTableRecord
100
AcDbRegAppTableRecord
  2
ACAD_DSTYLE_DIMTALN
 70
     0
  0
APPID
  5
21CBB
330
9
100
AcDbSymbolTableRecord
100
AcDbRegAppTableRecord
  2
ACAD_DSTYLE_DIM_LINETYPE
 70
     0
  0
APPID
  5
21CBC
330
9
100
AcDbSymbolTableRecord
100
AcDbRegAppTableRecord
  2
ACAD_DSTYLE_DIM_EXT1_LINETYPE
 70
     0
  0
APPID
  5
21CBD
330
9
100
AcDbSymbolTableRecord
100
AcDbRegAppTableRecord
  2
ACAD_DSTYLE_DIM_EXT2_LINETYPE
 70
     0
  0
APPID
  5
21CBE
330
9
100
AcDbSymbolTableRecord
100
AcDbRegAppTableRecord
  2
ACAD_DSTYLE_DIMARC_LENGTH_SYMBOL
 70
     0
  0
ENDTAB
  0
TABLE
  2
DIMSTYLE
  5
A
330
0
100
AcDbSymbolTable
 70
     3
100
AcDbDimStyleTable
 71
     1
340
243
  0
DIMSTYLE
105
243
102
{ACAD_REACTORS
330
21DF1
330
21DEE
330
21DF0
330
21DEF
330
21F06
102
}
330
A
100
AcDbSymbolTableRecord
100
AcDbDimStyleTableRecord
  2
STANDARD
 70
     0
 41
4.57
 47
0.01
 48
0.01
 73
     0
 74
     0
 77
     1
 78
     8
140
3.5
271
     3
272
     3
284
     8
289
     0
340
11
  0
ENDTAB
  0
TABLE
  2
BLOCK_RECORD
  5
1
330
0
100
AcDbSymbolTable
 70
    18
  0
BLOCK_RECORD
  5
1F
102
{ACAD_XDICTIONARY
360
339C
102
}
330
1
100
AcDbSymbolTableRecord
100
AcDbBlockTableRecord
  2
*MODEL_SPACE
340
31A6
 70
     0
280
     1
281
     0
  0
BLOCK_RECORD
  5
1B
330
1
100
AcDbSymbolTableRecord
100
AcDbBlockTableRecord
  2
*PAPER_SPACE
340
31A7
 70
     0
280
     1
281
     0
  0
BLOCK_RECORD
  5
1B3D7
102
{ACAD_XDICTIONARY
360
1DE81
102
}
330
1
100
AcDbSymbolTableRecord
100
AcDbBlockTableRecord
  2
cero_point
340
0
310
28000000200000002000000001002000000000000010000001000000010000000000000000000000302821FF302821FF302821FF302821FF302821FF302821FF302821FF302821FF302821FF302821FF302821FF302821FF302821FF302821FF302821FF302821FF302821FF302821FF302821FF302821FF302821FF302821
310
FF302821FF302821FF302821FF302821FF302821FF302821FF302821FF302821FF302821FF302821FF302821FF302821FF302821FF302821FF302821FF302821FF302821FF302821FF302821FF302821FF302821FF302821FF302821FF302821FF302821FFFFFF00FFFFFF00FFFFFF00FF302821FF302821FF302821FF3028
310
21FF302821FF302821FF302821FF302821FF302821FF302821FF302821FF302821FF302821FF302821FF302821FF302821FF302821FF302821FF302821FF302821FF302821FF302821FF302821FF302821FFFFFF00FFFFFF00FFFFFF00FFFFFF00FFFFFF00FFFFFF00FFFFFF00FF302821FFFFFF00FFFFFF00FFFFFF00FF30
310
2821FF302821FF302821FF302821FF302821FF302821FF302821FF302821FF302821FF302821FF302821FF302821FF302821FF302821FF302821FF302821FF302821FF302821FF302821FFFFFF00FFFFFF00FFFFFF00FFFFFF00FFFFFF00FFFFFF00FFFFFF00FFFFFF00FFFFFF00FF302821FF302821FF302821FF302821FF
310
FFFF00FFFFFF00FF302821FF302821FF302821FF302821FF302821FF302821FF302821FF302821FF302821FF302821FF302821FF302821FF302821FF302821FF302821FF302821FFFFFF00FFFFFF00FFFFFF00FFFFFF00FFFFFF00FFFFFF00FFFFFF00FFFFFF00FFFFFF00FFFFFF00FF302821FF302821FF302821FF302821
310
FF302821FF302821FFFFFF00FFFFFF00FF302821FF302821FF302821FF302821FF302821FF302821FF302821FF302821FF302821FF302821FF302821FF302821FF302821FFFFFF00FFFFFF00FFFFFF00FFFFFF00FFFFFF00FFFFFF00FFFFFF00FFFFFF00FFFFFF00FFFFFF00FFFFFF00FF302821FF302821FF302821FF3028
310
21FF302821FF302821FF302821FF302821FFFFFF00FF302821FF302821FF302821FF302821FF302821FF302821FF302821FF302821FF302821FF302821FF302821FFFFFF00FFFFFF00FFFFFF00FFFFFF00FFFFFF00FFFFFF00FFFFFF00FFFFFF00FFFFFF00FFFFFF00FFFFFF00FFFFFF00FF302821FF302821FF302821FF30
310
2821FF302821FF302821FF302821FF302821FF302821FFFFFF00FF302821FF302821FF302821FF302821FF302821FF302821FF302821FF302821FF302821FFFFFF00FFFFFF00FFFFFF00FFFFFF00FFFFFF00FFFFFF00FFFFFF00FFFFFF00FFFFFF00FFFFFF00FFFFFF00FFFFFF00FFFFFF00FF302821FF302821FF302821FF
310
302821FF302821FF302821FF302821FF302821FF302821FF302821FFFFFF00FF302821FF302821FF302821FF302821FF302821FF302821FF302821FFFFFF00FFFFFF00FFFFFF00FFFFFF00FFFFFF00FFFFFF00FFFFFF00FFFFFF00FFFFFF00FFFFFF00FFFFFF00FFFFFF00FFFFFF00FFFFFF00FF302821FF302821FF302821
310
FF302821FF302821FF302821FF302821FF302821FF302821FF302821FFFFFF00FF302821FF302821FF302821FF302821FF302821FF302821FF302821FFFFFF00FFFFFF00FFFFFF00FFFFFF00FFFFFF00FFFFFF00FFFFFF00FFFFFF00FFFFFF00FFFFFF00FFFFFF00FFFFFF00FFFFFF00FFFFFF00FF302821FF302821FF3028
310
21FF302821FF302821FF302821FF302821FF302821FF302821FF302821FF302821FFFFFF00FF302821FF302821FF302821FF302821FF302821FFFFFF00FFFFFF00FFFFFF00FFFFFF00FFFFFF00FFFFFF00FFFFFF00FFFFFF00FFFFFF00FFFFFF00FFFFFF00FFFFFF00FFFFFF00FFFFFF00FFFFFF00FF302821FF302821FF30
310
2821FF302821FF302821FF302821FF302821FF302821FF302821FF302821FF302821FF302821FFFFFF00FF302821FF302821FF302821FF302821FFFFFF00FFFFFF00FFFFFF00FFFFFF00FFFFFF00FFFFFF00FFFFFF00FFFFFF00FFFFFF00FFFFFF00FFFFFF00FFFFFF00FFFFFF00FFFFFF00FFFFFF00FF302821FF302821FF
310
302821FF302821FF302821FF302821FF302821FF302821FF302821FF302821FF302821FF302821FFFFFF00FF302821FF302821FF302821FF302821FFFFFF00FFFFFF00FFFFFF00FFFFFF00FFFFFF00FFFFFF00FFFFFF00FFFFFF00FFFFFF00FFFFFF00FFFFFF00FFFFFF00FFFFFF00FFFFFF00FFFFFF00FF302821FF302821
310
FF302821FF302821FF302821FF302821FF302821FF302821FF302821FF302821FF302821FF302821FFFFFF00FF302821FF302821FF302821FF302821FFFFFF00FFFFFF00FFFFFF00FFFFFF00FFFFFF00FFFFFF00FFFFFF00FFFFFF00FFFFFF00FFFFFF00FFFFFF00FFFFFF00FFFFFF00FFFFFF00FFFFFF00FF302821FF3028
310
21FF302821FF302821FF302821FF302821FF302821FF302821FF302821FF302821FF302821FF302821FFFFFF00FF302821FF302821FF302821FFFFFF00FFFFFF00FFFFFF00FFFFFF00FFFFFF00FFFFFF00FFFFFF00FFFFFF00FFFFFF00FFFFFF00FFFFFF00FFFFFF00FFFFFF00FFFFFF00FFFFFF00FFFFFF00FF302821FF30
310
2821FF302821FF302821FF302821FF302821FF302821FF302821FF302821FF302821FF302821FF302821FF302821FFFFFF00FF302821FF302821FFFFFF00FFFFFF00FFFFFF00FFFFFF00FFFFFF00FFFFFF00FFFFFF00FFFFFF00FFFFFF00FFFFFF00FFFFFF00FFFFFF00FFFFFF00FFFFFF00FFFFFF00FFFFFF00FFFFFF00FF
310
FFFF00FFFFFF00FFFFFF00FFFFFF00FFFFFF00FFFFFF00FFFFFF00FFFFFF00FFFFFF00FFFFFF00FFFFFF00FFFFFF00FFFFFF00FF302821FF302821FFFFFF00FF302821FF302821FF302821FF302821FF302821FF302821FF302821FF302821FF302821FF302821FF302821FF302821FF302821FF302821FFFFFF00FFFFFF00
310
FFFFFF00FFFFFF00FFFFFF00FFFFFF00FFFFFF00FFFFFF00FFFFFF00FFFFFF00FFFFFF00FFFFFF00FFFFFF00FFFFFF00FFFFFF00FF302821FF302821FFFFFF00FF302821FF302821FF302821FF302821FF302821FF302821FF302821FF302821FF302821FF302821FF302821FF302821FF302821FF302821FFFFFF00FFFFFF
310
00FFFFFF00FFFFFF00FFFFFF00FFFFFF00FFFFFF00FFFFFF00FFFFFF00FFFFFF00FFFFFF00FFFFFF00FFFFFF00FFFFFF00FF302821FF302821FF302821FF302821FFFFFF00FF302821FF302821FF302821FF302821FF302821FF302821FF302821FF302821FF302821FF302821FF302821FF302821FF302821FFFFFF00FFFF
310
FF00FFFFFF00FFFFFF00FFFFFF00FFFFFF00FFFFFF00FFFFFF00FFFFFF00FFFFFF00FFFFFF00FFFFFF00FFFFFF00FFFFFF00FF302821FF302821FF302821FF302821FFFFFF00FF302821FF302821FF302821FF302821FF302821FF302821FF302821FF302821FF302821FF302821FF302821FF302821FF302821FFFFFF00FF
310
FFFF00FFFFFF00FFFFFF00FFFFFF00FFFFFF00FFFFFF00FFFFFF00FFFFFF00FFFFFF00FFFFFF00FFFFFF00FFFFFF00FFFFFF00FF302821FF302821FF302821FF302821FFFFFF00FF302821FF302821FF302821FF302821FF302821FF302821FF302821FF302821FF302821FF302821FF302821FF302821FF302821FFFFFF00
310
FFFFFF00FFFFFF00FFFFFF00FFFFFF00FFFFFF00FFFFFF00FFFFFF00FFFFFF00FFFFFF00FFFFFF00FFFFFF00FFFFFF00FFFFFF00FF302821FF302821FF302821FF302821FF302821FFFFFF00FF302821FF302821FF302821FF302821FF302821FF302821FF302821FF302821FF302821FF302821FF302821FF302821FFFFFF
310
00FFFFFF00FFFFFF00FFFFFF00FFFFFF00FFFFFF00FFFFFF00FFFFFF00FFFFFF00FFFFFF00FFFFFF00FFFFFF00FFFFFF00FFFFFF00FF302821FF302821FF302821FF302821FF302821FFFFFF00FF302821FF302821FF302821FF302821FF302821FF302821FF302821FF302821FF302821FF302821FF302821FF302821FFFF
310
FF00FFFFFF00FFFFFF00FFFFFF00FFFFFF00FFFFFF00FFFFFF00FFFFFF00FFFFFF00FFFFFF00FFFFFF00FFFFFF00FFFFFF00FF302821FF302821FF302821FF302821FF302821FF302821FF302821FFFFFF00FF302821FF302821FF302821FF302821FF302821FF302821FF302821FF302821FF302821FF302821FF302821FF
310
FFFF00FFFFFF00FFFFFF00FFFFFF00FFFFFF00FFFFFF00FFFFFF00FFFFFF00FFFFFF00FFFFFF00FFFFFF00FFFFFF00FFFFFF00FF302821FF302821FF302821FF302821FF302821FF302821FF302821FFFFFF00FF302821FF302821FF302821FF302821FF302821FF302821FF302821FF302821FF302821FF302821FF302821
310
FFFFFF00FFFFFF00FFFFFF00FFFFFF00FFFFFF00FFFFFF00FFFFFF00FFFFFF00FFFFFF00FFFFFF00FFFFFF00FFFFFF00FF302821FF302821FF302821FF302821FF302821FF302821FF302821FF302821FF302821FFFFFF00FF302821FF302821FF302821FF302821FF302821FF302821FF302821FF302821FF302821FF3028
310
21FFFFFF00FFFFFF00FFFFFF00FFFFFF00FFFFFF00FFFFFF00FFFFFF00FFFFFF00FFFFFF00FFFFFF00FFFFFF00FF302821FF302821FF302821FF302821FF302821FF302821FF302821FF302821FF302821FF302821FF302821FFFFFF00FF302821FF302821FF302821FF302821FF302821FF302821FF302821FF302821FF30
310
2821FFFFFF00FFFFFF00FFFFFF00FFFFFF00FFFFFF00FFFFFF00FFFFFF00FFFFFF00FFFFFF00FFFFFF00FF302821FF302821FF302821FF302821FF302821FF302821FF302821FF302821FF302821FF302821FF302821FF302821FF302821FFFFFF00FF302821FF302821FF302821FF302821FF302821FF302821FF302821FF
310
302821FFFFFF00FFFFFF00FFFFFF00FFFFFF00FFFFFF00FFFFFF00FFFFFF00FFFFFF00FFFFFF00FF302821FF302821FF302821FF302821FF302821FF302821FF302821FF302821FF302821FF302821FF302821FF302821FF302821FF302821FF302821FFFFFF00FFFFFF00FF302821FF302821FF302821FF302821FF302821
310
FF302821FFFFFF00FFFFFF00FFFFFF00FFFFFF00FFFFFF00FFFFFF00FFFFFF00FFFFFF00FF302821FF302821FF302821FF302821FF302821FF302821FF302821FF302821FF302821FF302821FF302821FF302821FF302821FF302821FF302821FF302821FF302821FF302821FFFFFF00FFFFFF00FFFFFF00FFFFFF00FFFFFF
310
00FF302821FFFFFF00FFFFFF00FFFFFF00FFFFFF00FFFFFF00FFFFFF00FF302821FF302821FF302821FF302821FF302821FF302821FF302821FF302821FF302821FF302821FF302821FF302821FF302821FF302821FF302821FF302821FF302821FF302821FF302821FF302821FF302821FF302821FF302821FF302821FF30
310
2821FFFFFF00FFFFFF00FFFFFF00FF302821FF302821FF302821FF302821FF302821FF302821FF302821FF302821FF302821FF302821FF302821FF302821FF302821FF302821FF302821FF302821FF302821FF302821FF302821FF302821FF302821FF302821FF302821FF302821FF302821FF302821FF302821FF302821FF
310
302821FF302821FF302821FF302821FF302821FF302821FF302821FF302821FF302821FF302821FF302821FF302821FF302821FF302821FF302821FF302821FF302821FF302821FF
102
{BLKREFS
331
21DE6
102
}
 70
     0
280
     1
281
     1
  0
BLOCK_RECORD
  5
21F07
330
1
100
AcDbSymbolTableRecord
100
AcDbBlockTableRecord
  2
*D12
340
0
 70
     0
280
     1
281
     0
  0
BLOCK_RECORD
  5
21F11
330
1
100
AcDbSymbolTableRecord
100
AcDbBlockTableRecord
  2
*D13
340
0
 70
     0
280
     1
281
     0
  0
BLOCK_RECORD
  5
21F1D
330
1
100
AcDbSymbolTableRecord
100
AcDbBlockTableRecord
  2
*D14
340
0
 70
     0
280
     1
281
     0
  0
BLOCK_RECORD
  5
21F29
330
1
100
AcDbSymbolTableRecord
100
AcDbBlockTableRecord
  2
*D15
340
0
 70
     0
280
     1
281
     0
  0
BLOCK_RECORD
  5
21F37
330
1
100
AcDbSymbolTableRecord
100
AcDbBlockTableRecord
  2
*D16
340
0
 70
     0
280
     1
281
     0
  0
ENDTAB
  0
ENDSEC
  0
SECTION
  2
BLOCKS
  0
BLOCK
  5
20
330
1F
100
AcDbEntity
  8
0
100
AcDbBlockBegin
  2
*MODEL_SPACE
 70
     0
 10
0.0
 20
0.0
 30
0.0
  3
*MODEL_SPACE
  1

  0
ENDBLK
  5
21
330
1F
100
AcDbEntity
  8
0
100
AcDbBlockEnd
  0
BLOCK
  5
1C
330
1B
100
AcDbEntity
 67
     1
  8
0
100
AcDbBlockBegin
  2
*PAPER_SPACE
 70
     0
 10
0.0
 20
0.0
 30
0.0
  3
*PAPER_SPACE
  1

  0
ENDBLK
  5
1D
330
1B
100
AcDbEntity
 67
     1
  8
0
100
AcDbBlockEnd
  0
BLOCK
  5
1B3D8
330
1B3D7
100
AcDbEntity
  8
0
100
AcDbBlockBegin
  2
cero_point
 70
     0
 10
0.0
 20
0.0
 30
0.0
  3
cero_point
  1

  0
HATCH
  5
1B3DA
330
1B3D7
100
AcDbEntity
  8
1
  6
ByBlock
370
    50
100
AcDbHatch
 10
0.0
 20
0.0
 30
0.0
210
0.0
220
0.0
230
1.0
  2
SOLID
 70
     1
 71
     0
 91
        2
 92
        7
 72
     1
 73
     1
 93
        3
 10
-0.0000000000001137
 20
0.0
 42
0.0
 10
-2.950972054112752
 20
0.0
 42
0.4142135623730968
 10
-0.0000000000001137
 20
-2.950972054112583
 42
0.0
 97
        0
 92
        7
 72
     1
 73
     1
 93
        3
 10
-0.0000000000001137
 20
2.950972054112638
 42
0.0
 10
-0.0000000000001137
 20
0.0
 42
0.0
 10
2.950972054112526
 20
0.0
 42
0.4142135623730966
 97
        0
 75
     0
 76
     1
 47
0.1190009775223266
 98
        2
 10
-0.7445530588121301
 20
-0.9212244733764125
 10
1.279464601852737
 20
1.696796923046345
450
        0
451
        0
460
0.0
461
0.0
452
        0
462
0.0
453
        0
470

  0
LWPOLYLINE
  5
1B3DB
330
1B3D7
100
AcDbEntity
  8
1
  6
ByBlock
370
    50
100
AcDbPolyline
 90
        3
 70
     1
 43
0.0
 10
-0.0000000000001137
 20
0.0
 10
2.950972054112526
 20
0.0
 42
0.4142135623730966
 10
-0.0000000000001137
 20
2.950972054112638
  0
LINE
  5
1B3DC
330
1B3D7
100
AcDbEntity
  8
1
  6
ByBlock
370
    50
100
AcDbLine
 10
-0.0000000000001137
 20
-2.950972054112583
 30
0.0
 11
-0.0000000000001137
 21
2.950972054112638
 31
0.0
  0
LWPOLYLINE
  5
1B3DD
330
1B3D7
100
AcDbEntity
  8
1
  6
ByBlock
370
    50
100
AcDbPolyline
 90
        3
 70
     1
 43
0.0
 10
-0.0000000000001137
 20
-2.950972054112583
 10
-0.0000000000001137
 20
0.0
 10
-2.950972054112752
 20
0.0
 42
0.4142135623730966
  0
LINE
  5
1B3DE
330
1B3D7
100
AcDbEntity
  8
1
  6
ByBlock
370
    50
100
AcDbLine
 10
2.950972054112638
 20
0.0
 30
0.0
 11
-2.950972054112638
 21
0.0
 31
0.0
  0
CIRCLE
  5
1B3DF
330
1B3D7
100
AcDbEntity
  8
1
  6
ByBlock
370
    50
100
AcDbCircle
 10
-0.0000000000001137
 20
0.0
 30
0.0
 40
2.950972054112601
  0
ENDBLK
  5
1B3D9
330
1B3D7
100
AcDbEntity
  8
0
100
AcDbBlockEnd
  0
BLOCK
  5
21F08
330
21F07
100
AcDbEntity
  8
0
100
AcDbBlockBegin
  2
*D12
 70
     1
 10
0.0
 20
0.0
 30
0.0
  3
*D12
  1

  0
LINE
  5
220CF
330
21F07
100
AcDbEntity
  8
SK2
 62
     0
440
 16777216
370
    -2
100
AcDbLine
 10
-12.26249999999626
 20
5.999999999999978
 30
0.0
 11
-24.84620145057127
 21
5.999999999999982
 31
0.0
  0
LINE
  5
220D0
330
21F07
100
AcDbEntity
  8
SK2
 62
     0
440
 16777216
370
    -2
100
AcDbLine
 10
-12.26249999999626
 20
-6.000000000000021
 30
0.0
 11
-24.84620145057127
 21
-6.000000000000017
 31
0.0
  0
LINE
  5
220D1
330
21F07
100
AcDbEntity
  8
SK2
 62
     0
440
 16777216
370
    -2
100
AcDbLine
 10
-24.66620145057127
 20
1.429999999999982
 30
0.0
 11
-24.66620145057127
 21
-1.430000000000017
 31
0.0
  0
SOLID
  5
220D2
330
21F07
100
AcDbEntity
  8
SK2
 62
     0
440
 16777216
100
AcDbTrace
 10
-25.42786811723793
 20
1.429999999999982
 30
0.0
 11
-23.9045347839046
 21
1.429999999999981
 31
0.0
 12
-24.66620145057127
 22
5.999999999999982
 32
0.0
 13
-24.66620145057127
 23
5.999999999999982
 33
0.0
  0
SOLID
  5
220D3
330
21F07
100
AcDbEntity
  8
SK2
 62
     0
440
 16777216
100
AcDbTrace
 10
-25.42786811723793
 20
-1.430000000000017
 30
0.0
 11
-23.9045347839046
 21
-1.430000000000017
 31
0.0
 12
-24.66620145057127
 22
-6.000000000000017
 32
0.0
 13
-24.66620145057127
 23
-6.000000000000017
 33
0.0
  0
MTEXT
  5
220D4
330
21F07
100
AcDbEntity
  8
SK2
 62
     0
440
 16777216
100
AcDbMText
 10
-26.61934270144969
 20
-0.2515372452565925
 30
0.0
 40
3.5
 41
0.0
 46
0.0
 71
     5
 72
     1
  1
\A1;%%C12
 11
0.0000000000000001
 21
1.0
 31
0.0
 73
     1
 44
1.0
  0
POINT
  5
220D5
330
21F07
100
AcDbEntity
  8
Defpoints
 62
     0
440
 16777216
100
AcDbPoint
 10
-12.19999999999626
 20
5.999999999999978
 30
0.0
  0
POINT
  5
220D6
330
21F07
100
AcDbEntity
  8
Defpoints
 62
     0
440
 16777216
100
AcDbPoint
 10
-12.19999999999626
 20
-6.000000000000021
 30
0.0
  0
POINT
  5
220D7
330
21F07
100
AcDbEntity
  8
Defpoints
 62
     0
440
 16777216
100
AcDbPoint
 10
-24.66620145057127
 20
-6.000000000000017
 30
0.0
  0
ENDBLK
  5
21F09
330
21F07
100
AcDbEntity
  8
0
100
AcDbBlockEnd
  0
BLOCK
  5
21F12
330
21F11
100
AcDbEntity
  8
0
100
AcDbBlockBegin
  2
*D13
 70
     1
 10
0.0
 20
0.0
 30
0.0
  3
*D13
  1

  0
LINE
  5
220A9
330
21F11
100
AcDbEntity
  8
2
 62
     0
440
 16777216
370
    -2
100
AcDbLine
 10
25.06250000000378
 20
8.449999999999967
 30
0.0
 11
42.1279905700106
 21
8.449999999999961
 31
0.0
  0
LINE
  5
220AA
330
21F11
100
AcDbEntity
  8
2
 62
     0
440
 16777216
370
    -2
100
AcDbLine
 10
25.06250000000378
 20
-8.450000000000009
 30
0.0
 11
42.1279905700106
 21
-8.450000000000015
 31
0.0
  0
LINE
  5
220AB
330
21F11
100
AcDbEntity
  8
2
 62
     0
440
 16777216
370
    -2
100
AcDbLine
 10
41.9479905700106
 20
3.879999999999961
 30
0.0
 11
41.9479905700106
 21
-3.880000000000015
 31
0.0
  0
SOLID
  5
220AC
330
21F11
100
AcDbEntity
  8
2
 62
     0
440
 16777216
100
AcDbTrace
 10
41.18632390334393
 20
3.879999999999961
 30
0.0
 11
42.70965723667727
 21
3.879999999999961
 31
0.0
 12
41.9479905700106
 22
8.449999999999961
 32
0.0
 13
41.9479905700106
 23
8.449999999999961
 33
0.0
  0
SOLID
  5
220AD
330
21F11
100
AcDbEntity
  8
2
 62
     0
440
 16777216
100
AcDbTrace
 10
41.18632390334393
 20
-3.880000000000015
 30
0.0
 11
42.70965723667727
 21
-3.880000000000015
 31
0.0
 12
41.9479905700106
 22
-8.450000000000015
 32
0.0
 13
41.9479905700106
 23
-8.450000000000015
 33
0.0
  0
MTEXT
  5
220AE
330
21F11
100
AcDbEntity
  8
2
 62
     0
440
 16777216
100
AcDbMText
 10
40.04650075975058
 20
-0.0000000000000211
 30
0.0
 40
3.5
 41
0.0
 46
0.0
 71
     5
 72
     1
  1
\A1;16.9
 11
0.0000000000000001
 21
1.0
 31
0.0
 73
     1
 44
1.0
  0
POINT
  5
220AF
330
21F11
100
AcDbEntity
  8
Defpoints
 62
     0
440
 16777216
100
AcDbPoint
 10
25.00000000000378
 20
8.449999999999967
 30
0.0
  0
POINT
  5
220B0
330
21F11
100
AcDbEntity
  8
Defpoints
 62
     0
440
 16777216
100
AcDbPoint
 10
25.00000000000378
 20
-8.450000000000009
 30
0.0
  0
POINT
  5
220B1
330
21F11
100
AcDbEntity
  8
Defpoints
 62
     0
440
 16777216
100
AcDbPoint
 10
41.9479905700106
 20
-8.450000000000015
 30
0.0
  0
ENDBLK
  5
21F13
330
21F11
100
AcDbEntity
  8
0
100
AcDbBlockEnd
  0
BLOCK
  5
21F1E
330
21F1D
100
AcDbEntity
  8
0
100
AcDbBlockBegin
  2
*D14
 70
     1
 10
0.0
 20
0.0
 30
0.0
  3
*D14
  1

  0
LINE
  5
220B2
330
21F1D
100
AcDbEntity
  8
2
 62
     0
440
 16777216
370
    -2
100
AcDbLine
 10
28.34000104065627
 20
0.062499999991315
 30
0.0
 11
28.34060301475454
 21
36.21614276128131
 31
0.0
  0
LINE
  5
220B3
330
21F1D
100
AcDbEntity
  8
2
 62
     0
440
 16777216
370
    -2
100
AcDbLine
 10
0.0000010406563468
 20
14.70043099999129
 30
0.0
 11
0.0003592946040806
 21
36.21661463883929
 31
0.0
  0
LINE
  5
220B4
330
21F1D
100
AcDbEntity
  8
2
 62
     0
440
 16777216
370
    -2
100
AcDbLine
 10
23.77060001830863
 20
36.03621885382195
 30
0.0
 11
4.570356296891201
 21
36.03653854634856
 31
0.0
  0
SOLID
  5
220B5
330
21F1D
100
AcDbEntity
  8
2
 62
     0
440
 16777216
100
AcDbTrace
 10
23.77061270039458
 20
36.79788552038303
 30
0.0
 11
23.77058733622269
 21
35.27455218726087
 31
0.0
 12
28.34060001767515
 22
36.03614276130627
 32
0.0
 13
28.34060001767515
 23
36.03614276130627
 33
0.0
  0
SOLID
  5
220B6
330
21F1D
100
AcDbEntity
  8
2
 62
     0
440
 16777216
100
AcDbTrace
 10
4.570368978977148
 20
36.79820521290964
 30
0.0
 11
4.570343614805254
 21
35.27487187978748
 31
0.0
 12
0.0003562975246884
 22
36.03661463886425
 32
0.0
 13
0.0003562975246884
 23
36.03661463886425
 33
0.0
  0
MTEXT
  5
220B7
330
21F1D
100
AcDbEntity
  8
2
 62
     0
440
 16777216
100
AcDbMText
 10
14.17010875740985
 20
37.93786851675953
 30
0.0
 40
3.5
 41
0.0
 46
0.0
 71
     5
 72
     1
  1
\A1;28.34
 11
0.9999999998613814
 21
-0.0000166504410678
 31
0.0
 73
     1
 44
1.0
  0
POINT
  5
220B8
330
21F1D
100
AcDbEntity
  8
Defpoints
 62
     0
440
 16777216
100
AcDbPoint
 10
28.3400000000037
 20
-0.0000000000000213
 30
0.0
  0
POINT
  5
220B9
330
21F1D
100
AcDbEntity
  8
Defpoints
 62
     0
440
 16777216
100
AcDbPoint
 10
0.0000000000037801
 20
14.63793099999996
 30
0.0
  0
POINT
  5
220BA
330
21F1D
100
AcDbEntity
  8
Defpoints
 62
     0
440
 16777216
100
AcDbPoint
 10
0.0003562975246884
 20
36.03661463886425
 30
0.0
  0
ENDBLK
  5
21F1F
330
21F1D
100
AcDbEntity
  8
0
100
AcDbBlockEnd
  0
BLOCK
  5
21F2A
330
21F29
100
AcDbEntity
  8
0
100
AcDbBlockBegin
  2
*D15
 70
     1
 10
0.0
 20
0.0
 30
0.0
  3
*D15
  1

  0
LINE
  5
220BB
330
21F29
100
AcDbEntity
  8
2
 62
     0
440
 16777216
370
    -2
100
AcDbLine
 10
24.20000208130873
 20
14.26249999996531
 30
0.0
 11
24.20036684400942
 21
25.2160446832668
 31
0.0
  0
LINE
  5
220BC
330
21F29
100
AcDbEntity
  8
2
 62
     0
440
 16777216
370
    -2
100
AcDbLine
 10
28.34000208130884
 20
0.062499999965324
 30
0.0
 11
28.34083971194456
 21
25.21590680186776
 31
0.0
  0
LINE
  5
220BD
330
21F29
100
AcDbEntity
  8
2
 62
     0
440
 16777216
370
    -2
100
AcDbLine
 10
32.91083371525183
 20
25.03575461693619
 30
0.0
 11
37.48083371271788
 21
25.03560243190482
 31
0.0
  0
LINE
  5
220BE
330
21F29
100
AcDbEntity
  8
2
 62
     0
440
 16777216
370
    -2
100
AcDbLine
 10
19.63036085238458
 20
25.03619686839797
 30
0.0
 11
5.610648983840438
 21
25.03666373717076
 31
0.0
  0
LINE
  5
220BF
330
21F29
100
AcDbEntity
  8
2
 62
     0
440
 16777216
370
    -2
100
AcDbLine
 10
28.34083371778577
 20
25.03590680196756
 30
0.0
 11
24.20036084985063
 21
25.0360446833666
 31
0.0
  0
SOLID
  5
220C0
330
21F29
100
AcDbEntity
  8
2
 62
     0
440
 16777216
100
AcDbTrace
 10
32.91085907942372
 20
25.79742128318053
 30
0.0
 11
32.91080835107993
 21
24.27408795069185
 31
0.0
 12
28.34083371778577
 22
25.03590680196756
 32
0.0
 13
28.34083371778577
 23
25.03590680196756
 33
0.0
  0
SOLID
  5
220C1
330
21F29
100
AcDbEntity
  8
2
 62
     0
440
 16777216
100
AcDbTrace
 10
19.63038621655648
 20
25.79786353464231
 30
0.0
 11
19.63033548821268
 21
24.27453020215363
 31
0.0
 12
24.20036084985063
 22
25.0360446833666
 32
0.0
 13
24.20036084985063
 23
25.0360446833666
 33
0.0
  0
MTEXT
  5
220C2
330
21F29
100
AcDbEntity
  8
2
 62
     0
440
 16777216
100
AcDbMText
 10
10.33556656158226
 20
26.88757456012048
 30
0.0
 40
3.5
 41
0.0
 46
0.0
 71
     5
 72
     1
  1
\A1;4.14
 11
0.9999999994455256
 21
-0.0000333008821372
 31
0.0
 73
     1
 44
1.0
  0
POINT
  5
220C3
330
21F29
100
AcDbEntity
  8
Defpoints
 62
     0
440
 16777216
100
AcDbPoint
 10
24.2000000000036
 20
14.19999999999997
 30
0.0
  0
POINT
  5
220C4
330
21F29
100
AcDbEntity
  8
Defpoints
 62
     0
440
 16777216
100
AcDbPoint
 10
28.3400000000037
 20
-0.0000000000000213
 30
0.0
  0
POINT
  5
220C5
330
21F29
100
AcDbEntity
  8
Defpoints
 62
     0
440
 16777216
100
AcDbPoint
 10
28.34083371778577
 20
25.03590680196756
 30
0.0
  0
ENDBLK
  5
21F2B
330
21F29
100
AcDbEntity
  8
0
100
AcDbBlockEnd
  0
BLOCK
  5
21F38
330
21F37
100
AcDbEntity
  8
0
100
AcDbBlockBegin
  2
*D16
 70
     1
 10
0.0
 20
0.0
 30
0.0
  3
*D16
  1

  0
LINE
  5
220C6
330
21F37
100
AcDbEntity
  8
2
 62
     0
440
 16777216
370
    -2
100
AcDbLine
 10
23.46250000000364
 20
14.99999999999998
 30
0.0
 11
56.12799057001059
 21
14.99999999999997
 31
0.0
  0
LINE
  5
220C7
330
21F37
100
AcDbEntity
  8
2
 62
     0
440
 16777216
370
    -2
100
AcDbLine
 10
23.46250000000364
 20
-15.00000000000002
 30
0.0
 11
56.12799057001061
 21
-15.00000000000003
 31
0.0
  0
LINE
  5
220C8
330
21F37
100
AcDbEntity
  8
2
 62
     0
440
 16777216
370
    -2
100
AcDbLine
 10
55.9479905700106
 20
10.42999999999997
 30
0.0
 11
55.9479905700106
 21
-10.43000000000003
 31
0.0
  0
SOLID
  5
220C9
330
21F37
100
AcDbEntity
  8
2
 62
     0
440
 16777216
100
AcDbTrace
 10
55.18632390334393
 20
10.42999999999997
 30
0.0
 11
56.70965723667727
 21
10.42999999999997
 31
0.0
 12
55.9479905700106
 22
14.99999999999997
 32
0.0
 13
55.9479905700106
 23
14.99999999999997
 33
0.0
  0
SOLID
  5
220CA
330
21F37
100
AcDbEntity
  8
2
 62
     0
440
 16777216
100
AcDbTrace
 10
55.18632390334393
 20
-10.43000000000003
 30
0.0
 11
56.70965723667727
 21
-10.43000000000003
 31
0.0
 12
55.9479905700106
 22
-15.00000000000003
 32
0.0
 13
55.9479905700106
 23
-15.00000000000003
 33
0.0
  0
MTEXT
  5
220CB
330
21F37
100
AcDbEntity
  8
2
 62
     0
440
 16777216
100
AcDbMText
 10
53.99484931913217
 20
-0.0000000000000211
 30
0.0
 40
3.5
 41
0.0
 46
0.0
 71
     5
 72
     1
  1
\A1;%%c30
 11
0.0000000000000001
 21
1.0
 31
0.0
 73
     1
 44
1.0
  0
POINT
  5
220CC
330
21F37
100
AcDbEntity
  8
Defpoints
 62
     0
440
 16777216
100
AcDbPoint
 10
23.40000000000364
 20
14.99999999999998
 30
0.0
  0
POINT
  5
220CD
330
21F37
100
AcDbEntity
  8
Defpoints
 62
     0
440
 16777216
100
AcDbPoint
 10
23.40000000000364
 20
-15.00000000000002
 30
0.0
  0
POINT
  5
220CE
330
21F37
100
AcDbEntity
  8
Defpoints
 62
     0
440
 16777216
100
AcDbPoint
 10
55.9479905700106
 20
-15.00000000000003
 30
0.0
  0
ENDBLK
  5
21F39
330
21F37
100
AcDbEntity
  8
0
100
AcDbBlockEnd
  0
ENDSEC
  0
SECTION
  2
ENTITIES
  0
MTEXT
  5
211A0
330
1F
100
AcDbEntity
  8
SK6
100
AcDbMText
 10
-21.24244134448785
 20
-31.63687809172238
 30
0.0
 40
3.5
 41
41.87058589293636
 46
0.0
 71
     2
 72
     1
  1
CD3000028YHR00
 73
     1
 44
1.0
1001
ACAD
1000
MTEXTBEGIN
1070
    73
1070
     1
1070
    44
1040
1.0
1070
    74
1070
     0
1000
MTEXTEND
  0
INSERT
  5
21DE6
330
1F
100
AcDbEntity
  8
1
100
AcDbBlockReference
  2
cero_point
 10
0.0000000000001421
 20
-0.0000000000000213
 30
0.0
  0
LINE
  5
21DEA
330
1F
100
AcDbEntity
  8
INFTOTAL
100
AcDbLine
 10
-100.9025335021386
 20
9.224731943682378
 30
0.0
 11
-100.9025335021386
 21
52.81645433992114
 31
0.0
  0
LINE
  5
21DEB
330
1F
100
AcDbEntity
  8
INFTOTAL
100
AcDbLine
 10
-100.9025335021386
 20
52.81645433992114
 30
0.0
 11
-44.49874713337962
 21
52.81645433992114
 31
0.0
  0
LINE
  5
21DEC
330
1F
100
AcDbEntity
  8
INFTOTAL
100
AcDbLine
 10
17.75264080585035
 20
-53.70647049943684
 30
0.0
 11
73.11142205693446
 21
-53.70647049943684
 31
0.0
  0
LINE
  5
21DED
330
1F
100
AcDbEntity
  8
INFTOTAL
100
AcDbLine
 10
73.11142205693446
 20
-53.70647049943684
 30
0.0
 11
73.11142205693446
 21
-13.25835430284227
 31
0.0
  0
DIMENSION
  5
21DEE
330
1F
100
AcDbEntity
  8
2
100
AcDbDimension
280
     0
  2
*D13
 10
41.9479905700106
 20
-8.450000000000015
 30
0.0
 11
41.9479905700106
 21
-0.0000000000000213
 31
0.0
 70
   161
 71
     5
 42
16.89999999999997
 73
     0
 74
     0
 75
     0
  3
STANDARD
100
AcDbAlignedDimension
 13
25.00000000000378
 23
8.449999999999967
 33
0.0
 14
25.00000000000378
 24
-8.450000000000009
 34
0.0
1001
ACAD_DSTYLE_DIMARC_LENGTH_SYMBOL
1070
   379
1070
     1
1001
ACAD_DSTYLE_DIM_LINETYPE
1070
   380
1005
14
1001
ACAD_DSTYLE_DIM_EXT1_LINETYPE
1070
   381
1005
14
1001
ACAD_DSTYLE_DIM_EXT2_LINETYPE
1070
   382
1005
14
1001
ACAD
1000
DSTYLE
1002
{
1070
   172
1070
     1
1002
}
  0
DIMENSION
  5
21DEF
330
1F
100
AcDbEntity
  8
2
100
AcDbDimension
280
     0
  2
*D14
 10
0.0003562975246884
 20
36.03661463886425
 30
0.0
 11
14.17007709676582
 21
36.0363787067631
 31
0.0
 70
   160
 71
     5
 42
28.34024372407894
 73
     0
 74
     0
 75
     0
  3
STANDARD
100
AcDbAlignedDimension
 13
28.3400000000037
 23
-0.0000000000000213
 33
0.0
 14
0.0000000000037801
 24
14.63793099999996
 34
0.0
 50
179.9990459999997
100
AcDbRotatedDimension
1001
ACAD_DSTYLE_DIMARC_LENGTH_SYMBOL
1070
   379
1070
     1
1001
ACAD_DSTYLE_DIM_LINETYPE
1070
   380
1005
14
1001
ACAD_DSTYLE_DIM_EXT1_LINETYPE
1070
   381
1005
14
1001
ACAD_DSTYLE_DIM_EXT2_LINETYPE
1070
   382
1005
14
1001
ACAD
1000
DSTYLE
1002
{
1070
   172
1070
     1
1002
}
  0
DIMENSION
  5
21DF0
330
1F
100
AcDbEntity
  8
2
100
AcDbDimension
280
     0
  2
*D15
 10
28.34083371778577
 20
25.03590680196756
 30
0.0
 11
10.33550491937944
 21
25.03650639530004
 31
0.0
 70
   160
 71
     5
 42
4.140472870230926
 73
     0
 74
     0
 75
     0
  3
STANDARD
100
AcDbAlignedDimension
 13
24.2000000000036
 23
14.19999999999997
 33
0.0
 14
28.3400000000037
 24
-0.0000000000000213
 34
0.0
 50
359.9980919999991
100
AcDbRotatedDimension
1001
ACAD_DSTYLE_DIMARC_LENGTH_SYMBOL
1070
   379
1070
     1
1001
ACAD_DSTYLE_DIM_LINETYPE
1070
   380
1005
14
1001
ACAD_DSTYLE_DIM_EXT1_LINETYPE
1070
   381
1005
14
1001
ACAD_DSTYLE_DIM_EXT2_LINETYPE
1070
   382
1005
14
1001
ACAD
1000
DSTYLE
1002
{
1070
   172
1070
     1
1002
}
  0
DIMENSION
  5
21DF1
330
1F
100
AcDbEntity
  8
2
100
AcDbDimension
280
     0
  2
*D16
 10
55.9479905700106
 20
-15.00000000000003
 30
0.0
 11
55.9479905700106
 21
-0.0000000000000213
 31
0.0
 70
   161
  1
%%c<>
 71
     5
 42
30.0
 73
     0
 74
     0
 75
     0
  3
STANDARD
100
AcDbAlignedDimension
 13
23.40000000000364
 23
14.99999999999998
 33
0.0
 14
23.40000000000364
 24
-15.00000000000002
 34
0.0
1001
ACAD_DSTYLE_DIMARC_LENGTH_SYMBOL
1070
   379
1070
     1
1001
ACAD_DSTYLE_DIM_LINETYPE
1070
   380
1005
14
1001
ACAD_DSTYLE_DIM_EXT1_LINETYPE
1070
   381
1005
14
1001
ACAD_DSTYLE_DIM_EXT2_LINETYPE
1070
   382
1005
14
1001
ACAD
1000
DSTYLE
1002
{
1070
   172
1070
     1
1002
}
  0
LINE
  5
21DF2
330
1F
100
AcDbEntity
  8
1
100
AcDbLine
 10
26.02377800000378
 20
5.639525999999968
 30
0.0
 11
26.14979500000359
 21
5.639525999999968
 31
0.0
  0
LINE
  5
21DF3
330
1F
100
AcDbEntity
  8
1
100
AcDbLine
 10
0.0000000000037801
 20
6.027825999999983
 30
0.0
 11
-0.1490129999964154
 21
6.027825999999983
 31
0.0
  0
LINE
  5
21DF4
330
1F
100
AcDbEntity
  8
SK3
100
AcDbLine
 10
0.0000000000037801
 20
7.499999999999978
 30
0.0
 11
23.2000000000036
 21
7.499999999999978
 31
0.0
  0
LINE
  5
21DF5
330
1F
100
AcDbEntity
  8
SK3
100
AcDbLine
 10
0.0000000000037801
 20
4.499999999999978
 30
0.0
 11
23.2000000000036
 21
4.499999999999978
 31
0.0
  0
LINE
  5
21DF6
330
1F
100
AcDbEntity
  8
SK3
100
AcDbLine
 10
0.0000000000037801
 20
-7.500000000000021
 30
0.0
 11
23.2000000000036
 21
-7.500000000000021
 31
0.0
  0
LINE
  5
21DF7
330
1F
100
AcDbEntity
  8
SK3
100
AcDbLine
 10
0.0000000000037801
 20
-4.500000000000028
 30
0.0
 11
23.2000000000036
 21
-4.500000000000028
 31
0.0
  0
LINE
  5
21DFA
330
1F
100
AcDbEntity
  8
1
100
AcDbLine
 10
22.75800000000359
 20
8.449999999999967
 30
0.0
 11
24.2000000000036
 21
8.449999999999967
 31
0.0
  0
LINE
  5
21DFD
330
1F
100
AcDbEntity
  8
1
100
AcDbLine
 10
13.12500000000378
 20
3.334363999999979
 30
0.0
 11
13.12500000000378
 21
3.031545999999977
 31
0.0
  0
LINE
  5
21DFE
330
1F
100
AcDbEntity
  8
1
100
AcDbLine
 10
13.12500000000378
 20
4.12720299999998
 30
0.0
 11
13.12500000000378
 21
3.334363999999979
 31
0.0
  0
ARC
  5
21DFF
330
1F
100
AcDbEntity
  8
1
100
AcDbCircle
 10
-13.81566399999619
 20
-322.7337720000001
 30
0.0
 40
327.179298
100
AcDbArc
 50
84.23658899999738
 51
85.27678999999436
  0
SPLINE
  5
21E02
330
1F
100
AcDbEntity
  8
1
100
AcDbSpline
210
0.0
220
0.0
230
1.0
 70
     8
 71
     5
 72
    15
 73
     9
 74
     0
 42
0.000000001
 43
0.0000000001
 40
0.0
 40
0.0
 40
0.0
 40
0.0
 40
0.0
 40
0.0
 40
1.588196854735438
 40
1.588196854735438
 40
1.588196854735438
 40
1.767527299738438
 40
1.767527299738438
 40
1.767527299738438
 40
1.767527299738438
 40
1.767527299738438
 40
1.767527299738438
 10
23.19999961080262
 20
0.8714376835799768
 30
0.0
 10
23.29563226982273
 20
1.005680435583485
 30
0.0
 10
23.41431080850467
 20
1.126627528262041
 30
0.0
 10
23.54983568460276
 20
1.230702159322667
 30
0.0
 10
23.71598711658081
 20
1.324606181228496
 30
0.0
 10
23.89492137582957
 20
1.3949498104203
 30
0.0
 10
23.91320593991864
 20
1.401846594827908
 30
0.0
 10
23.93160884425484
 20
1.408502326851937
 30
0.0
 10
23.95012882438383
 20
1.414920806609998
 30
0.0
  0
ARC
  5
21E03
330
1F
100
AcDbEntity
  8
1
100
AcDbCircle
 10
21.20684800000359
 20
9.604259999999982
 30
0.0
 40
8.635894
100
AcDbArc
 50
288.5199180000068
 51
296.1275260000044
  0
ARC
  5
21E04
330
1F
100
AcDbEntity
  8
1
100
AcDbCircle
 10
-20.97592999999628
 20
-404.0535439999999
 30
0.0
 40
408.5006869999999
100
AcDbArc
 50
83.53644499999369
 51
85.18593999999685
  0
ARC
  5
21E05
330
1F
100
AcDbEntity
  8
1
100
AcDbCircle
 10
30.46344600000376
 20
3.700510999999977
 30
0.0
 40
4.340421
100
AcDbArc
 50
189.2066229999984
 51
195.6343520000013
  0
ARC
  5
21E06
330
1F
100
AcDbEntity
  8
1
100
AcDbCircle
 10
-210.2603179999956
 20
-35.52212200000002
 30
0.0
 40
239.558167
100
AcDbArc
 50
9.25510099999825
 51
10.00080600000156
  0
LINE
  5
21E07
330
1F
100
AcDbEntity
  8
1
100
AcDbLine
 10
25.6581790000038
 20
6.080097999999978
 30
0.0
 11
25.00000000000378
 21
6.564366999999975
 31
0.0
  0
ARC
  5
21E08
330
1F
100
AcDbEntity
  8
1
100
AcDbCircle
 10
-0.4792399999952011
 20
-144.2919789999999
 30
0.0
 40
152.992894
100
AcDbArc
 50
80.41336699999684
 51
81.26385100000444
  0
ARC
  5
21E09
330
1F
100
AcDbEntity
  8
1
100
AcDbCircle
 10
32.70482000000371
 20
-77.90094800000002
 30
0.0
 40
85.40821499999998
100
AcDbArc
 50
96.68797599999518
 51
99.2065430000019
  0
ARC
  5
21E0A
330
1F
100
AcDbEntity
  8
1
100
AcDbCircle
 10
11.36053900000379
 20
28.98408499999997
 30
0.0
 40
30.372318
100
AcDbArc
 50
296.7045450000018
 51
299.428537999993
  0
LINE
  5
21E0B
330
1F
100
AcDbEntity
  8
1
100
AcDbLine
 10
22.75800000000359
 20
6.925919999999983
 30
0.0
 11
22.75800000000359
 21
8.449999999999981
 31
0.0
  0
LINE
  5
21E0C
330
1F
100
AcDbEntity
  8
1
100
AcDbLine
 10
19.04000000000374
 20
7.453764999999975
 30
0.0
 11
22.75800000000359
 21
8.449999999999981
 31
0.0
  0
LINE
  5
21E10
330
1F
100
AcDbEntity
  8
1
100
AcDbLine
 10
23.2000000000036
 20
0.5699459999999803
 30
0.0
 11
28.14532500000374
 21
-0.2298520000000153
 31
0.0
  0
ELLIPSE
  5
21E11
330
1F
100
AcDbEntity
  8
1
100
AcDbEllipse
 10
28.62025600000371
 20
-0.0543270000000362
 30
0.0
 11
8.292604446411129
 21
-1.344188094139097
 31
0.0
210
0.0
220
0.0
230
1.0
 40
0.6018560000000003
 41
4.101347870791325
 42
4.509870127402868
  0
LINE
  5
21E12
330
1F
100
AcDbEntity
  8
1
100
AcDbLine
 10
26.17897400000371
 20
-4.566056000000031
 30
0.0
 11
26.15983000000361
 21
-4.672912000000017
 31
0.0
  0
ARC
  5
21E13
330
1F
100
AcDbEntity
  8
1
100
AcDbCircle
 10
28.82054700000359
 20
-5.024770000000032
 30
0.0
 40
2.680884999999999
100
AcDbArc
 50
154.3188950000018
 51
170.1487259999999
  0
LINE
  5
21E14
330
1F
100
AcDbEntity
  8
1
100
AcDbLine
 10
26.75456900000373
 20
-3.145290000000017
 30
0.0
 11
26.40467500000378
 21
-3.863070000000021
 31
0.0
  0
SPLINE
  5
21E15
330
1F
100
AcDbEntity
  8
1
100
AcDbSpline
210
0.0
220
0.0
230
1.0
 70
     8
 71
     5
 72
    30
 73
    24
 74
     0
 42
0.000000001
 43
0.0000000001
 40
0.0
 40
0.0
 40
0.0
 40
0.0
 40
0.0
 40
0.0
 40
27.46707560479452
 40
27.46707560479452
 40
27.46707560479452
 40
38.07744061172
 40
38.07744061172
 40
38.07744061172
 40
43.40441670368159
 40
43.40441670368159
 40
43.40441670368159
 40
49.72287904834811
 40
49.72287904834811
 40
49.72287904834811
 40
51.77646914975816
 40
51.77646914975816
 40
51.77646914975816
 40
53.38805094338382
 40
53.38805094338382
 40
53.38805094338382
 40
54.32009992927153
 40
54.32009992927153
 40
54.32009992927153
 40
54.32009992927153
 40
54.32009992927153
 40
54.32009992927153
 10
28.14532542933481
 20
-0.2298524268930819
 30
0.0
 10
28.13096045434568
 20
-0.2674256609108241
 30
0.0
 10
28.11279494956981
 20
-0.3124212484933437
 30
0.0
 10
28.09187312269083
 20
-0.3615476794534658
 30
0.0
 10
28.0531961980868
 20
-0.4506147376370749
 30
0.0
 10
27.9710116789237
 20
-0.6284055659073787
 30
0.0
 10
27.94357591063877
 20
-0.6872258579026607
 30
0.0
 10
27.89330030496572
 20
-0.794116522521243
 30
0.0
 10
27.81832362214974
 20
-0.9515115775763547
 30
0.0
 10
27.79054073943476
 20
-1.009642366836928
 30
0.0
 10
27.71835792847165
 20
-1.160263622733609
 30
0.0
 10
27.61686642044074
 20
-1.370833959575321
 30
0.0
 10
27.55098421476069
 20
-1.507172128184805
 30
0.0
 10
27.43949006347989
 20
-1.737384612337521
 30
0.0
 10
27.27828257338675
 20
-2.069284193490851
 30
0.0
 10
27.23343758046295
 20
-2.16152294101893
 30
0.0
 10
27.14692016641667
 20
-2.339499191366627
 30
0.0
 10
27.04996822852073
 20
-2.538755880134466
 30
0.0
 10
27.00813337650075
 20
-2.624696247676396
 30
0.0
 10
26.93242449899268
 20
-2.780192395922732
 30
0.0
 10
26.85010408631675
 20
-2.949202378926877
 30
0.0
 10
26.81907219908467
 20
-3.012904966495895
 30
0.0
 10
26.7872351757018
 20
-3.078250977277981
 30
0.0
 10
26.7545694099687
 20
-3.145289851628724
 30
0.0
  0
SPLINE
  5
21E16
330
1F
100
AcDbEntity
  8
1
100
AcDbSpline
210
0.0
220
0.0
230
1.0
 70
     8
 71
     5
 72
    51
 73
    45
 74
     0
 42
0.000000001
 43
0.0000000001
 40
0.0
 40
0.0
 40
0.0
 40
0.0
 40
0.0
 40
0.0
 40
24.72862227383788
 40
24.72862227383788
 40
24.72862227383788
 40
61.82104857404973
 40
61.82104857404973
 40
61.82104857404973
 40
86.54934770969829
 40
86.54934770969829
 40
86.54934770969829
 40
98.91357694957694
 40
98.91357694957694
 40
98.91357694957694
 40
111.2779949797928
 40
111.2779949797928
 40
111.2779949797928
 40
115.3999193966281
 40
115.3999193966281
 40
115.3999193966281
 40
117.4608974140048
 40
117.4608974140048
 40
117.4608974140048
 40
119.6197146662559
 40
119.6197146662559
 40
119.6197146662559
 40
120.6572096764243
 40
120.6572096764243
 40
120.6572096764243
 40
121.7295482424112
 40
121.7295482424112
 40
121.7295482424112
 40
122.2529936010346
 40
122.2529936010346
 40
122.2529936010346
 40
122.5183642999822
 40
122.5183642999822
 40
122.5183642999822
 40
122.7837349989298
 40
122.7837349989298
 40
122.7837349989298
 40
123.8070348217146
 40
123.8070348217146
 40
123.8070348217146
 40
123.8070348217146
 40
123.8070348217146
 40
123.8070348217146
 10
28.14532542933481
 20
-0.2298524268930819
 30
0.0
 10
28.1582593447387
 20
-0.1960222927911985
 30
0.0
 10
28.1663391337826
 20
-0.1703027299126489
 30
0.0
 10
28.17252160033186
 20
-0.1480605750424857
 30
0.0
 10
28.18452342047672
 20
-0.0961836235040394
 30
0.0
 10
28.18888346360987
 20
-0.0528359751095664
 30
0.0
 10
28.18957613890771
 20
-0.0282116577634213
 30
0.0
 10
28.18769403672983
 20
0.0133902480807606
 30
0.0
 10
28.17988446554173
 20
0.0589359245445849
 30
0.0
 10
28.17572383512666
 20
0.0780972735738601
 30
0.0
 10
28.16756639088877
 20
0.1094163537667683
 30
0.0
 10
28.15454427638579
 20
0.1479972135088587
 30
0.0
 10
28.14948590156078
 20
0.1620043021559212
 30
0.0
 10
28.13818215756569
 20
0.1914101076209107
 30
0.0
 10
28.12305363331862
 20
0.2267141380597977
 30
0.0
 10
28.1141668128129
 20
0.2465494366997873
 30
0.0
 10
28.09944867613072
 20
0.2779389470606404
 30
0.0
 10
28.07758646548078
 20
0.3206270168922529
 30
0.0
 10
28.07157360774764
 20
0.3321555896359527
 30
0.0
 10
28.06158415086375
 20
0.3509737650286624
 30
0.0
 10
28.04941004799585
 20
0.3731558828582635
 30
0.0
 10
28.04506812869878
 20
0.3809847460974396
 30
0.0
 10
28.03548891330766
 20
0.3980644133491751
 30
0.0
 10
28.02410082862176
 20
0.4178785362820179
 30
0.0
 10
28.01912632566374
 20
0.4264557102952793
 30
0.0
 10
28.00847408359383
 20
0.444507336828444
 30
0.0
 10
27.99691296959773
 20
0.4636289541841947
 30
0.0
 10
27.99304239292784
 20
0.4699845813588937
 30
0.0
 10
27.98465202584171
 20
0.4836812911269206
 30
0.0
 10
27.97413232102182
 20
0.5005571553585284
 30
0.0
 10
27.96879686890989
 20
0.5090084730574276
 30
0.0
 10
27.95837020154264
 20
0.5254635128609025
 30
0.0
 10
27.94336594965571
 20
0.5484017066724718
 30
0.0
 10
27.93776670369076
 20
0.5568850847405003
 30
0.0
 10
27.92870376136685
 20
0.5705654852779177
 30
0.0
 10
27.91458052225872
 20
0.5913186097533086
 30
0.0
 10
27.8812646133737
 20
0.6381780799302348
 30
0.0
 10
27.83634284522069
 20
0.7008052386737802
 30
0.0
 10
27.84126329034271
 20
0.6924879607769512
 30
0.0
 10
27.83013499366862
 20
0.7077067952128431
 30
0.0
 10
27.80666798688677
 20
0.737999658811269
 30
0.0
 10
27.79021348113261
 20
0.7582690426610839
 30
0.0
 10
27.77709972049971
 20
0.7741639970325381
 30
0.0
 10
27.7659919280417
 20
0.7873377438138647
 30
0.0
 10
27.75556706553462
 20
0.7994745521537184
 30
0.0
  0
LINE
  5
21E17
330
1F
100
AcDbEntity
  8
1
100
AcDbLine
 10
27.75556700000371
 20
0.7994749999999798
 30
0.0
 11
23.95012900000361
 21
1.414920999999978
 31
0.0
  0
LINE
  5
21E18
330
1F
100
AcDbEntity
  8
1
100
AcDbLine
 10
26.40467500000378
 20
2.36406299999998
 30
0.0
 11
27.75556700000371
 21
0.7994749999999798
 31
0.0
  0
ARC
  5
21E19
330
1F
100
AcDbEntity
  8
1
100
AcDbCircle
 10
27.30399500000377
 20
3.14497499999998
 30
0.0
 40
1.191027999999997
100
AcDbArc
 50
211.0444950000035
 51
220.968963999997
  0
LINE
  5
21E1A
330
1F
100
AcDbEntity
  8
1
100
AcDbLine
 10
26.17897400000371
 20
5.11642399999998
 30
0.0
 11
26.17897400000371
 21
3.006069999999979
 31
0.0
  0
LINE
  5
21E1B
330
1F
100
AcDbEntity
  8
1
100
AcDbLine
 10
26.40467500000378
 20
4.375013999999978
 30
0.0
 11
26.40467500000378
 21
2.36406299999998
 31
0.0
  0
LINE
  5
21E1C
330
1F
100
AcDbEntity
  8
1
100
AcDbLine
 10
25.6581790000038
 20
8.069999999999978
 30
0.0
 11
25.6581790000038
 21
6.080097999999978
 31
0.0
  0
LINE
  5
21E1D
330
1F
100
AcDbEntity
  8
1
100
AcDbLine
 10
25.00000000000378
 20
8.449999999999981
 30
0.0
 11
25.00000000000378
 21
6.564366999999975
 31
0.0
  0
LINE
  5
21E1E
330
1F
100
AcDbEntity
  8
1
100
AcDbLine
 10
26.40467500000378
 20
-3.863070000000021
 30
0.0
 11
26.40467500000378
 21
-4.375014000000021
 31
0.0
  0
LINE
  5
21E1F
330
1F
100
AcDbEntity
  8
1
100
AcDbLine
 10
26.17897400000371
 20
-4.566056000000031
 30
0.0
 11
26.17897400000371
 21
-5.116424000000023
 31
0.0
  0
LINE
  5
21E20
330
1F
100
AcDbEntity
  8
1
100
AcDbLine
 10
26.15983000000361
 20
-5.217623000000031
 30
0.0
 11
26.15983000000361
 21
-4.672912000000017
 31
0.0
  0
LINE
  5
21E21
330
1F
100
AcDbEntity
  8
1
100
AcDbLine
 10
26.15983000000361
 20
-5.217623000000031
 30
0.0
 11
26.13922600000379
 21
-5.341887000000028
 31
0.0
  0
LINE
  5
21E22
330
1F
100
AcDbEntity
  8
1
100
AcDbLine
 10
26.13922600000379
 20
-5.341887000000028
 30
0.0
 11
26.03428000000477
 21
-5.937026000000017
 31
0.0
  0
LINE
  5
21E23
330
1F
100
AcDbEntity
  8
1
100
AcDbLine
 10
25.6581790000038
 20
-8.070000000000021
 30
0.0
 11
26.03428000000477
 21
-5.937026000000017
 31
0.0
  0
LINE
  5
21E24
330
1F
100
AcDbEntity
  8
1
100
AcDbLine
 10
25.6581790000038
 20
-8.070000000000021
 30
0.0
 11
25.00000000000378
 21
-8.450000000000031
 31
0.0
  0
LINE
  5
21E25
330
1F
100
AcDbEntity
  8
1
100
AcDbLine
 10
25.00000000000378
 20
-8.450000000000031
 30
0.0
 11
24.2000000000036
 21
-8.450000000000031
 31
0.0
  0
LINE
  5
21E26
330
1F
100
AcDbEntity
  8
1
100
AcDbLine
 10
23.19999000000476
 20
-5.937026000000017
 30
0.0
 11
26.03428000000477
 21
-5.937026000000017
 31
0.0
  0
LINE
  5
21E27
330
1F
100
AcDbEntity
  8
1
100
AcDbLine
 10
23.19999000000476
 20
-5.217623000000031
 30
0.0
 11
26.15983000000361
 21
-5.217623000000031
 31
0.0
  0
ARC
  5
21E2A
330
1F
100
AcDbEntity
  8
1
100
AcDbCircle
 10
29.34119200000478
 20
-5.674008000000036
 30
0.0
 40
3.211
100
AcDbArc
 50
156.1373809999998
 51
170.0000000000022
  0
LINE
  5
21E2B
330
1F
100
AcDbEntity
  8
1
100
AcDbLine
 10
26.17897400000371
 20
-5.116424000000023
 30
0.0
 11
26.13923700000365
 21
-5.341789000000026
 31
0.0
  0
LINE
  5
21E2D
330
1F
100
AcDbEntity
  8
1
100
AcDbLine
 10
28.3400000000037
 20
-0.0000000000000213
 30
0.0
 11
26.40467500000378
 21
-4.375014000000021
 31
0.0
  0
LINE
  5
21E2E
330
1F
100
AcDbEntity
  8
1
100
AcDbLine
 10
13.12500000000378
 20
3.031691999999978
 30
0.0
 11
13.12500000000378
 21
4.127169999999985
 31
0.0
  0
LINE
  5
21E2F
330
1F
100
AcDbEntity
  8
1
100
AcDbLine
 10
0.0000000000037801
 20
14.63793099999997
 30
0.0
 11
0.0000000000037801
 21
5.97216299999998
 31
0.0
  0
ARC
  5
21E30
330
1F
100
AcDbEntity
  8
1
100
AcDbCircle
 10
10.50548200000381
 20
-476.8007289999999
 30
0.0
 40
491.550747
100
AcDbArc
 50
90.0020440000029
 51
91.22462599999666
  0
LINE
  5
21E31
330
1F
100
AcDbEntity
  8
1
100
AcDbLine
 10
16.18000000000361
 20
14.74999999999996
 30
0.0
 11
10.48794600000374
 21
14.74999999999996
 31
0.0
  0
LINE
  5
21E32
330
1F
100
AcDbEntity
  8
1
100
AcDbLine
 10
19.04000000000374
 20
6.979999999999982
 30
0.0
 11
16.18000000000361
 21
6.979999999999982
 31
0.0
  0
LINE
  5
21E33
330
1F
100
AcDbEntity
  8
1
100
AcDbLine
 10
16.18000000000361
 20
6.979999999999982
 30
0.0
 11
16.18000000000361
 21
5.09737699999998
 31
0.0
  0
LINE
  5
21E34
330
1F
100
AcDbEntity
  8
1
100
AcDbLine
 10
13.94860200000372
 20
5.103248999999976
 30
0.0
 11
16.18000000000361
 21
5.09737699999998
 31
0.0
  0
ARC
  5
21E35
330
1F
100
AcDbEntity
  8
1
100
AcDbCircle
 10
31.17731600000471
 20
117.793873
 30
0.0
 40
114.000023
100
AcDbArc
 50
261.3076380000016
 51
263.8882680000063
  0
LINE
  5
21E36
330
1F
100
AcDbEntity
  8
1
100
AcDbLine
 10
9.739784000003652
 20
4.976956999999977
 30
0.0
 11
9.749304000003718
 21
5.054461999999979
 31
0.0
  0
SPLINE
  5
21E37
330
1F
100
AcDbEntity
  8
1
100
AcDbSpline
210
0.0
220
0.0
230
1.0
 70
     8
 71
     5
 72
    15
 73
     9
 74
     0
 42
0.000000001
 43
0.0000000001
 40
0.0
 40
0.0
 40
0.0
 40
0.0
 40
0.0
 40
0.0
 40
5.999628744774607
 40
5.999628744774607
 40
5.999628744774607
 40
7.51737790231277
 40
7.51737790231277
 40
7.51737790231277
 40
7.51737790231277
 40
7.51737790231277
 40
7.51737790231277
 10
5.693686700138783
 20
4.322971627123791
 30
0.0
 10
6.316053018442659
 20
4.461880085643414
 30
0.0
 10
6.952768115998793
 20
4.584975273463108
 30
0.0
 10
7.592743519274705
 20
4.69229167030808
 30
0.0
 10
8.410999930658732
 20
4.813174579787997
 30
0.0
 10
9.237463971597804
 20
4.917575161812571
 30
0.0
 10
9.404633055739765
 20
4.938003359345039
 30
0.0
 10
9.572077653140837
 20
4.957795225911802
 30
0.0
 10
9.739784312703847
 20
4.976957030960051
 30
0.0
  0
ARC
  5
21E38
330
1F
100
AcDbEntity
  8
1
100
AcDbCircle
 10
19.08008600000371
 20
-874.500813
 30
0.0
 40
878.6484019999997
100
AcDbArc
 50
90.00261399999562
 51
90.38832800000486
  0
ARC
  5
21E39
330
1F
100
AcDbEntity
  8
1
100
AcDbCircle
 10
13.20590100000359
 20
-115.3731789999999
 30
0.0
 40
120.477897
100
AcDbArc
 50
89.6467930000055
 51
91.64409099999947
  0
ARC
  5
21E3A
330
1F
100
AcDbEntity
  8
1
100
AcDbCircle
 10
10.4943560000037
 20
476.5765669999997
 30
0.0
 40
491.3265759999998
100
AcDbArc
 50
268.7761130000041
 51
269.9992530000003
  0
ARC
  5
21E3B
330
1F
100
AcDbEntity
  8
SK1
100
AcDbCircle
 10
8.315144000003698
 20
1215.639138
 30
0.0
 40
1221.639611
100
AcDbArc
 50
269.0846869999953
 51
269.6100110000036
  0
ARC
  5
21E3C
330
1F
100
AcDbEntity
  8
SK1
100
AcDbCircle
 10
12.55431000000376
 20
22.89402099999997
 30
0.0
 40
37.28418
100
AcDbArc
 50
228.3984579999979
 51
230.4240920000043
  0
LINE
  5
21E3D
330
1F
100
AcDbEntity
  8
SK1
100
AcDbLine
 10
-12.19999999999626
 20
-4.387913000000033
 30
0.0
 11
-12.19999999999626
 21
-4.985917000000021
 31
0.0
  0
LINE
  5
21E3E
330
1F
100
AcDbEntity
  8
SK1
100
AcDbLine
 10
-12.19999999999626
 20
3.520432999999975
 30
0.0
 11
-12.19999999999626
 21
-4.387913000000033
 31
0.0
  0
LINE
  5
21E3F
330
1F
100
AcDbEntity
  8
SK1
100
AcDbLine
 10
-12.19999999999626
 20
3.520432999999975
 30
0.0
 11
-12.19999999999626
 21
4.015055999999979
 31
0.0
  0
LINE
  5
21E40
330
1F
100
AcDbEntity
  8
SK1
100
AcDbLine
 10
-12.19999999999626
 20
4.985916999999979
 30
0.0
 11
-12.19999999999626
 21
4.015055999999979
 31
0.0
  0
ARC
  5
21E41
330
1F
100
AcDbEntity
  8
SK1
100
AcDbCircle
 10
8.315144000003698
 20
-1215.639138
 30
0.0
 40
1221.639611
100
AcDbArc
 50
90.38998899999645
 51
90.91531300000475
  0
LINE
  5
21E42
330
1F
100
AcDbEntity
  8
1
100
AcDbLine
 10
10.84171900000379
 20
14.64173499999997
 30
0.0
 11
10.48794600000374
 21
14.74999899999996
 31
0.0
  0
ARC
  5
21E43
330
1F
100
AcDbEntity
  8
SK1
100
AcDbCircle
 10
12.55431000000376
 20
-22.89402100000002
 30
0.0
 40
37.28418
100
AcDbArc
 50
129.5759079999944
 51
131.6015420000021
  0
LINE
  5
21E44
330
1F
100
AcDbEntity
  8
1
100
AcDbLine
 10
16.18000000000361
 20
7.142856999999978
 30
0.0
 11
16.18000000000361
 21
14.74999999999996
 31
0.0
  0
LINE
  5
21E45
330
1F
100
AcDbEntity
  8
1
100
AcDbLine
 10
16.18000000000361
 20
6.979999999999982
 30
0.0
 11
16.18000000000361
 21
7.142856999999978
 31
0.0
  0
LINE
  5
21E46
330
1F
100
AcDbEntity
  8
1
100
AcDbLine
 10
10.08291900000372
 20
7.142856999999978
 30
0.0
 11
16.18000000000361
 21
7.142856999999978
 31
0.0
  0
LINE
  5
21E47
330
1F
100
AcDbEntity
  8
1
100
AcDbLine
 10
10.84171800000368
 20
14.64173399999998
 30
0.0
 11
10.08291900000372
 21
7.142856999999978
 31
0.0
  0
ELLIPSE
  5
21E48
330
1F
100
AcDbEntity
  8
1
100
AcDbEllipse
 10
9.649384000003607
 20
7.142856999999978
 30
0.0
 11
0.3099374175071715
 21
2.999672412872314
 31
0.0
210
0.0
220
0.0
230
1.0
 40
0.143017
 41
3.957169743898982
 42
4.727164917234961
  0
ARC
  5
21E49
330
1F
100
AcDbEntity
  8
SK1
100
AcDbCircle
 10
-11.19276799999633
 20
8.279352999999979
 30
0.0
 40
4.864824999999997
100
AcDbArc
 50
258.0496349999998
 51
267.4468300000054
  0
LINE
  5
21E4A
330
1F
100
AcDbEntity
  8
SK1
100
AcDbLine
 10
-11.40949699999632
 20
3.418943999999974
 30
0.0
 11
-11.19999999999626
 21
3.410581999999976
 31
0.0
  0
LINE
  5
21E4B
330
1F
100
AcDbEntity
  8
SK1
100
AcDbLine
 10
-11.19999999999626
 20
3.410581999999976
 30
0.0
 11
-8.920762999996298
 21
3.277045999999977
 31
0.0
  0
ARC
  5
21E4C
330
1F
100
AcDbEntity
  8
SK1
100
AcDbCircle
 10
-151.6335769999962
 20
-2408.508132000001
 30
0.0
 40
2416.003896
100
AcDbArc
 50
86.40162899999811
 51
86.61358000000634
  0
SPLINE
  5
21E4D
330
1F
100
AcDbEntity
  8
1
100
AcDbSpline
210
0.0
220
0.0
230
1.0
 70
     8
 71
     5
 72
    12
 73
     6
 74
     0
 42
0.000000001
 43
0.0000000001
 40
0.0
 40
0.0
 40
0.0
 40
0.0
 40
0.0
 40
0.0
 40
40.76047186336729
 40
40.76047186336729
 40
40.76047186336729
 40
40.76047186336729
 40
40.76047186336729
 40
40.76047186336729
 10
23.19999999930875
 20
1.958704996988601
 30
0.0
 10
18.50247143658762
 20
2.268851736038655
 30
0.0
 10
13.82071222378764
 20
2.803670468884028
 30
0.0
 10
9.167198263117739
 20
3.551868162758275
 30
0.0
 10
4.556409479172685
 20
4.487604752125434
 30
0.0
 10
0.0000000000538023
 20
5.575887900367476
 30
0.0
  0
LINE
  5
21E4E
330
1F
100
AcDbEntity
  8
1
100
AcDbLine
 10
23.2000000000036
 20
1.95870499999998
 30
0.0
 11
23.2000000000036
 21
-12.94434300000002
 31
0.0
  0
LINE
  5
21E4F
330
1F
100
AcDbEntity
  8
1
100
AcDbLine
 10
23.2000000000036
 20
-12.94434300000002
 30
0.0
 11
23.2000000000036
 21
-14.20568900000002
 31
0.0
  0
LINE
  5
21E50
330
1F
100
AcDbEntity
  8
1
100
AcDbLine
 10
0.0000000000037801
 20
-12.94434300000002
 30
0.0
 11
0.0000000000037801
 21
-14.63793100000004
 31
0.0
  0
LINE
  5
21E51
330
1F
100
AcDbEntity
  8
1
100
AcDbLine
 10
0.0000000000037801
 20
5.575887999999977
 30
0.0
 11
0.0000000000037801
 21
-12.94434300000002
 31
0.0
  0
LINE
  5
21E52
330
1F
100
AcDbEntity
  8
1
100
AcDbLine
 10
16.18000000000361
 20
-14.75000000000003
 30
0.0
 11
10.48794600000374
 21
-14.75000000000003
 31
0.0
  0
LINE
  5
21E53
330
1F
100
AcDbEntity
  8
1
100
AcDbLine
 10
16.18000000000361
 20
-14.20568900000002
 30
0.0
 11
16.18000000000361
 21
-14.75000000000003
 31
0.0
  0
LINE
  5
21E54
330
1F
100
AcDbEntity
  8
1
100
AcDbLine
 10
23.2000000000036
 20
-14.20568900000002
 30
0.0
 11
16.18000000000361
 21
-14.20568900000002
 31
0.0
  0
LINE
  5
21E55
330
1F
100
AcDbEntity
  8
SK1
100
AcDbLine
 10
-11.19999999999626
 20
-5.265495000000036
 30
0.0
 11
-11.19999999999626
 21
-5.84460300000002
 31
0.0
  0
LINE
  5
21E56
330
1F
100
AcDbEntity
  8
SK1
100
AcDbLine
 10
-11.19999999999626
 20
3.410581999999976
 30
0.0
 11
-11.19999999999626
 21
-5.265495000000036
 31
0.0
  0
CIRCLE
  5
21E57
330
1F
100
AcDbEntity
  8
1
100
AcDbCircle
 10
20.19000000000361
 20
-10.99000000000003
 30
0.0
 40
1.588
  0
CIRCLE
  5
21E58
330
1F
100
AcDbEntity
  8
1
100
AcDbCircle
 10
20.19000000000361
 20
-10.99000000000003
 30
0.0
 40
1.425
  0
ARC
  5
21E59
330
1F
100
AcDbEntity
  8
1
100
AcDbCircle
 10
23.40000000000364
 20
-7.780000000000022
 30
0.0
 40
0.8
100
AcDbArc
 50
0.0
 51
90.0
  0
LINE
  5
21E5A
330
1F
100
AcDbEntity
  8
1
100
AcDbLine
 10
24.2000000000036
 20
-14.20000000000004
 30
0.0
 11
24.2000000000036
 21
-7.780000000000022
 31
0.0
  0
ARC
  5
21E5B
330
1F
100
AcDbEntity
  8
1
100
AcDbCircle
 10
23.40000000000364
 20
-14.20000000000004
 30
0.0
 40
0.8
100
AcDbArc
 50
270.0
 51
0.0
  0
LINE
  5
21E5C
330
1F
100
AcDbEntity
  8
1
100
AcDbLine
 10
16.9800000000038
 20
-15.00000000000002
 30
0.0
 11
23.40000000000364
 21
-15.00000000000002
 31
0.0
  0
ARC
  5
21E5D
330
1F
100
AcDbEntity
  8
1
100
AcDbCircle
 10
16.9800000000038
 20
-14.20000000000004
 30
0.0
 40
0.8
100
AcDbArc
 50
180.0
 51
270.0
  0
ARC
  5
21E5E
330
1F
100
AcDbEntity
  8
1
100
AcDbCircle
 10
16.9800000000038
 20
-14.20000000000004
 30
0.0
 40
0.242053
100
AcDbArc
 50
180.0
 51
270.0
  0
LINE
  5
21E5F
330
1F
100
AcDbEntity
  8
1
100
AcDbLine
 10
16.9800000000038
 20
-14.44205300000003
 30
0.0
 11
23.40000000000364
 21
-14.44205300000003
 31
0.0
  0
ARC
  5
21E60
330
1F
100
AcDbEntity
  8
1
100
AcDbCircle
 10
23.40000000000364
 20
-14.20000000000004
 30
0.0
 40
0.242053
100
AcDbArc
 50
270.0000009999949
 51
359.9999989999998
  0
LINE
  5
21E61
330
1F
100
AcDbEntity
  8
1
100
AcDbLine
 10
23.64205300000358
 20
-14.20000000000004
 30
0.0
 11
23.64205300000358
 21
-7.780000000000022
 31
0.0
  0
ARC
  5
21E62
330
1F
100
AcDbEntity
  8
1
100
AcDbCircle
 10
23.40000000000364
 20
-7.780000000000022
 30
0.0
 40
0.242053
100
AcDbArc
 50
0.0
 51
90.0
  0
LINE
  5
21E63
330
1F
100
AcDbEntity
  8
1
100
AcDbLine
 10
23.40000000000364
 20
-7.537947000000023
 30
0.0
 11
23.2000000000036
 21
-7.537947000000023
 31
0.0
  0
LINE
  5
21E64
330
1F
100
AcDbEntity
  8
1
100
AcDbLine
 10
23.40000000000364
 20
-7.537947000000023
 30
0.0
 11
23.40000000000364
 21
-6.980000000000025
 31
0.0
  0
LINE
  5
21E65
330
1F
100
AcDbEntity
  8
1
100
AcDbLine
 10
23.64205300000358
 20
-7.780000000000022
 30
0.0
 11
24.2000000000036
 21
-7.780000000000022
 31
0.0
  0
LINE
  5
21E66
330
1F
100
AcDbEntity
  8
1
100
AcDbLine
 10
23.64205300000358
 20
-14.20000000000004
 30
0.0
 11
24.2000000000036
 21
-14.20000000000004
 31
0.0
  0
LINE
  5
21E67
330
1F
100
AcDbEntity
  8
1
100
AcDbLine
 10
23.40000000000364
 20
-14.44205300000003
 30
0.0
 11
23.40000000000364
 21
-15.00000000000002
 31
0.0
  0
LINE
  5
21E68
330
1F
100
AcDbEntity
  8
1
100
AcDbLine
 10
16.9800000000038
 20
-14.44205300000003
 30
0.0
 11
16.9800000000038
 21
-15.00000000000002
 31
0.0
  0
CIRCLE
  5
21E69
330
1F
100
AcDbEntity
  8
1
100
AcDbCircle
 10
20.19000000000361
 20
10.98999999999997
 30
0.0
 40
1.425
  0
CIRCLE
  5
21E6A
330
1F
100
AcDbEntity
  8
1
100
AcDbCircle
 10
20.19001700000368
 20
10.98988599999996
 30
0.0
 40
1.859874999999999
  0
LINE
  5
21E6F
330
1F
100
AcDbEntity
  8
SK4
100
AcDbLine
 10
-16.19159042637838
 20
-0.0000000000000213
 30
0.0
 11
0.0000000000037801
 21
0.0
 31
0.0
  0
LINE
  5
21E7B
330
1F
100
AcDbEntity
  8
SKVIEW4
100
AcDbLine
 10
-46.87513090185629
 20
-0.0000000000000213
 30
0.0
 11
-85.22512890185621
 21
-0.0000000000000213
 31
0.0
  0
LINE
  5
21E7C
330
1F
100
AcDbEntity
  8
SKVIEW4
100
AcDbLine
 10
-66.05012990185613
 20
19.17499899999996
 30
0.0
 11
-66.05012990185613
 21
-19.17499900000003
 31
0.0
  0
ARC
  5
21E7D
330
1F
100
AcDbEntity
  8
SKVIEW1
100
AcDbCircle
 10
-66.05012990185613
 20
-0.0000000000000213
 30
0.0
 40
4.224999999999996
100
AcDbArc
 50
347.6497189999989
 51
358.4017959999997
  0
ARC
  5
21E7E
330
1F
100
AcDbEntity
  8
SKVIEW1
100
AcDbCircle
 10
-70.9202839018561
 20
3.050302999999985
 30
0.0
 40
2.271552999999999
100
AcDbArc
 50
289.0902719999977
 51
312.3463449999947
  0
ARC
  5
21E7F
330
1F
100
AcDbEntity
  8
SKVIEW1
100
AcDbCircle
 10
-61.17997590185618
 20
-3.05030300000002
 30
0.0
 40
2.271552999999999
100
AcDbArc
 50
109.0902719999977
 51
132.3463460000002
  0
LINE
  5
21E80
330
1F
100
AcDbEntity
  8
SKVIEW1
100
AcDbLine
 10
-60.82824890185619
 20
0.1804979999999787
 30
0.0
 11
-60.89446290185614
 21
0.1747049999999675
 31
0.0
  0
ARC
  5
21E81
330
1F
100
AcDbEntity
  8
SKVIEW1
100
AcDbCircle
 10
-60.69647390185614
 20
-2.088151000000017
 30
0.0
 40
2.271500999999999
100
AcDbArc
 50
95.00039699999673
 51
119.8413819999969
  0
SPLINE
  5
21E82
330
1F
100
AcDbEntity
  8
SKVIEW1
100
AcDbSpline
210
0.0
220
0.0
230
1.0
 70
     8
 71
     5
 72
    18
 73
    12
 74
     0
 42
0.000000001
 43
0.0000000001
 40
0.0
 40
0.0
 40
0.0
 40
0.0
 40
0.0
 40
0.0
 40
1.75431338018732
 40
1.75431338018732
 40
1.75431338018732
 40
3.421583271630128
 40
3.421583271630128
 40
3.421583271630128
 40
5.561677834093559
 40
5.561677834093559
 40
5.561677834093559
 40
5.561677834093559
 40
5.561677834093559
 40
5.561677834093559
 10
-62.60143639742508
 20
-0.5936641300737549
 30
0.0
 10
-62.5375327692594
 20
-0.4267808650785767
 30
0.0
 10
-62.45695616413022
 20
-0.2733469165062345
 30
0.0
 10
-62.36336599949922
 20
-0.1404015785876354
 30
0.0
 10
-62.1653506209453
 20
0.0807205205515445
 30
0.0
 10
-61.94684634965128
 20
0.2336693297863732
 30
0.0
 10
-61.83747703402523
 20
0.2937723497485862
 30
0.0
 10
-61.58482234279026
 20
0.4009787429637087
 30
0.0
 10
-61.33014017073136
 20
0.4471280966793288
 30
0.0
 10
-61.18775400773628
 20
0.4567065039837175
 30
0.0
 10
-61.04762920497623
 20
0.4518867485675387
 30
0.0
 10
-60.90980161637626
 20
0.4341079799488412
 30
0.0
  0
ARC
  5
21E83
330
1F
100
AcDbEntity
  8
SKVIEW1
100
AcDbCircle
 10
-60.75686590185623
 20
-1.303522000000022
 30
0.0
 40
1.976425
100
AcDbArc
 50
158.9514630000038
 51
166.1041560000015
  0
SPLINE
  5
21E84
330
1F
100
AcDbEntity
  8
SKVIEW1
100
AcDbSpline
210
0.0
220
0.0
230
1.0
 70
     8
 71
     5
 72
    12
 73
     6
 74
     0
 42
0.000000001
 43
0.0000000001
 40
0.0
 40
0.0
 40
0.0
 40
0.0
 40
0.0
 40
0.0
 40
1.690652628449883
 40
1.690652628449883
 40
1.690652628449883
 40
1.690652628449883
 40
1.690652628449883
 40
1.690652628449883
 10
-62.67542815984834
 20
-0.8288733481353389
 30
0.0
 10
-62.71266116888327
 20
-0.9805049717974299
 30
0.0
 10
-62.73023684880022
 20
-1.121792812757014
 30
0.0
 10
-62.7296878710732
 20
-1.246820583420074
 30
0.0
 10
-62.71800879940733
 20
-1.344346157033022
 30
0.0
 10
-62.70142521549641
 20
-1.414920806610034
 30
0.0
  0
ARC
  5
21E85
330
1F
100
AcDbEntity
  8
SKVIEW1
100
AcDbCircle
 10
-61.13856190185614
 20
-1.024399000000023
 30
0.0
 40
1.611256999999999
100
AcDbArc
 50
194.0295619999975
 51
210.8732890000039
  0
ARC
  5
21E86
330
1F
100
AcDbEntity
  8
SKVIEW1
100
AcDbCircle
 10
-66.04985090185627
 20
0.0000279999999648
 30
0.0
 40
5.158345999999998
100
AcDbArc
 50
1.940577999999745
 51
4.82720700000014
  0
ARC
  5
21E87
330
1F
100
AcDbEntity
  8
SKVIEW1
100
AcDbCircle
 10
-66.05012990185613
 20
-0.0000000000000213
 30
0.0
 40
4.224999999999996
100
AcDbArc
 50
167.6497189999989
 51
178.4017959999997
  0
SPLINE
  5
21E88
330
1F
100
AcDbEntity
  8
SKVIEW1
100
AcDbSpline
210
0.0
220
0.0
230
1.0
 70
     8
 71
     5
 72
    18
 73
    12
 74
     0
 42
0.000000001
 43
0.0000000001
 40
0.0
 40
0.0
 40
0.0
 40
0.0
 40
0.0
 40
0.0
 40
1.754313380161178
 40
1.754313380161178
 40
1.754313380161178
 40
3.421583271559988
 40
3.421583271559988
 40
3.421583271559988
 40
5.561677833949723
 40
5.561677833949723
 40
5.561677833949723
 40
5.561677833949723
 40
5.561677833949723
 40
5.561677833949723
 10
-69.49882340628628
 20
0.593664130073698
 30
0.0
 10
-69.56272703445242
 20
0.4267808650809073
 30
0.0
 10
-69.64330363957933
 20
0.2733469165104978
 30
0.0
 10
-69.73689380421237
 20
0.1404015785885164
 30
0.0
 10
-69.93490918276538
 20
-0.0807205205495763
 30
0.0
 10
-70.15341345405326
 20
-0.2336693297815415
 30
0.0
 10
-70.26278276968523
 20
-0.2937723497483091
 30
0.0
 10
-70.51543746092429
 20
-0.400978742964405
 30
0.0
 10
-70.77011963298431
 20
-0.4471280966808422
 30
0.0
 10
-70.91250579598531
 20
-0.4567065039843144
 30
0.0
 10
-71.05263059874014
 20
-0.4518867485669702
 30
0.0
 10
-71.19045818733534
 20
-0.434107979948891
 30
0.0
  0
ARC
  5
21E89
330
1F
100
AcDbEntity
  8
SKVIEW1
100
AcDbCircle
 10
-71.34339390185536
 20
1.303521999999979
 30
0.0
 40
1.976425
100
AcDbArc
 50
338.9514630000038
 51
346.1041560000019
  0
SPLINE
  5
21E8A
330
1F
100
AcDbEntity
  8
SKVIEW1
100
AcDbSpline
210
0.0
220
0.0
230
1.0
 70
     8
 71
     5
 72
    12
 73
     6
 74
     0
 42
0.000000001
 43
0.0000000001
 40
0.0
 40
0.0
 40
0.0
 40
0.0
 40
0.0
 40
0.0
 40
1.690652603728311
 40
1.690652603728311
 40
1.690652603728311
 40
1.690652603728311
 40
1.690652603728311
 40
1.690652603728311
 10
-69.4248316438653
 20
0.8288733481268266
 30
0.0
 10
-69.38759863528625
 20
0.9805049699321273
 30
0.0
 10
-69.37002295526631
 20
1.121792809604372
 30
0.0
 10
-69.37057193297923
 20
1.246820586268448
 30
0.0
 10
-69.38225100454733
 20
1.344346158064915
 30
0.0
 10
-69.3988345882154
 20
1.414920806609998
 30
0.0
  0
ARC
  5
21E8B
330
1F
100
AcDbEntity
  8
SKVIEW1
100
AcDbCircle
 10
-70.96169790185612
 20
1.024398999999981
 30
0.0
 40
1.611256999999999
100
AcDbArc
 50
14.02956199999753
 51
30.87328900000392
  0
ARC
  5
21E8C
330
1F
100
AcDbEntity
  8
SKVIEW1
100
AcDbCircle
 10
-71.40378590185614
 20
2.088150999999974
 30
0.0
 40
2.271500999999999
100
AcDbArc
 50
275.000396
 51
299.8413819999969
  0
ARC
  5
21E8D
330
1F
100
AcDbEntity
  8
SKVIEW1
100
AcDbCircle
 10
-66.05040890185623
 20
-0.0000280000000217
 30
0.0
 40
5.158345999999998
100
AcDbArc
 50
181.9405779999997
 51
184.8272079999988
  0
LINE
  5
21E8E
330
1F
100
AcDbEntity
  8
SKVIEW1
100
AcDbLine
 10
-70.00278890185618
 20
2.530769999999975
 30
0.0
 11
-70.19033990185616
 21
3.006069999999979
 31
0.0
  0
ARC
  5
21E8F
330
1F
100
AcDbEntity
  8
SKVIEW1
100
AcDbCircle
 10
15.63288309814462
 20
37.32253199999999
 30
0.0
 40
92.42965600000001
100
AcDbArc
 50
199.7558710000023
 51
201.7940269999968
  0
ARC
  5
21E90
330
1F
100
AcDbEntity
  8
SKVIEW1
100
AcDbCircle
 10
-58.82283490185622
 20
6.698136999999981
 30
0.0
 40
12.54887
100
AcDbArc
 50
180.6107809999998
 51
182.8229909999997
  0
ARC
  5
21E91
330
1F
100
AcDbEntity
  8
SKVIEW1
100
AcDbCircle
 10
-81.1760439018561
 20
-4.922036000000026
 30
0.0
 40
13.430723
100
AcDbArc
 50
30.28647699999601
 51
33.70415599999397
  0
LINE
  5
21E92
330
1F
100
AcDbEntity
  8
SKVIEW1
100
AcDbLine
 10
-62.0974709018561
 20
-2.530770000000032
 30
0.0
 11
-61.90991990185612
 21
-3.006070000000029
 31
0.0
  0
ARC
  5
21E93
330
1F
100
AcDbEntity
  8
SKVIEW1
100
AcDbCircle
 10
-147.7625609018562
 20
-37.33327600000002
 30
0.0
 40
92.460968
100
AcDbArc
 50
19.75597500000125
 51
21.79343999999984
  0
ARC
  5
21E94
330
1F
100
AcDbEntity
  8
SKVIEW1
100
AcDbCircle
 10
-73.27678390185619
 20
-6.698118000000036
 30
0.0
 40
12.548229
100
AcDbArc
 50
0.6107239999998186
 51
2.823047000000249
  0
ARC
  5
21E95
330
1F
100
AcDbEntity
  8
SKVIEW1
100
AcDbCircle
 10
-50.92421590185617
 20
4.922035999999984
 30
0.0
 40
13.430723
100
AcDbArc
 50
210.286476999996
 51
213.704155999994
  0
ARC
  5
21E96
330
1F
100
AcDbEntity
  8
SKVIEW1
100
AcDbCircle
 10
-66.05012990185613
 20
-0.0000000000000213
 30
0.0
 40
5.224999999999996
100
AcDbArc
 50
1.979681000000015
 51
63.42340500000385
  0
LINE
  5
21E97
330
1F
100
AcDbEntity
  8
SKVIEW1
100
AcDbLine
 10
-60.90980190185618
 20
0.4341079999999664
 30
0.0
 11
-60.84245490185626
 21
0.4251799999999833
 31
0.0
  0
LINE
  5
21E98
330
1F
100
AcDbEntity
  8
SKVIEW1
100
AcDbLine
 10
-66.05012990185613
 20
8.069999999999978
 30
0.0
 11
-66.05012990185613
 21
8.449999999999981
 31
0.0
  0
LINE
  5
21E99
330
1F
100
AcDbEntity
  8
SKVIEW1
100
AcDbLine
 10
-66.05012990185613
 20
5.937025999999981
 30
0.0
 11
-66.05012990185613
 21
8.069999999999978
 31
0.0
  0
ARC
  5
21E9A
330
1F
100
AcDbEntity
  8
SKVIEW1
100
AcDbCircle
 10
-65.75012990185618
 20
5.639525999999982
 30
0.0
 40
0.4225
100
AcDbArc
 50
135.2397299999977
 51
266.9549660000066
  0
ARC
  5
21E9B
330
1F
100
AcDbEntity
  8
SKVIEW1
100
AcDbCircle
 10
-66.05012990185613
 20
-0.0000000000000213
 30
0.0
 40
5.224999999999996
100
AcDbArc
 50
63.4234149999941
 51
86.95496599999348
  0
LINE
  5
21E9C
330
1F
100
AcDbEntity
  8
SKVIEW1
100
AcDbLine
 10
-65.67484190185618
 20
0.2298519999999726
 30
0.0
 11
-62.6014359018562
 21
-0.5936640000000324
 31
0.0
  0
LINE
  5
21E9D
330
1F
100
AcDbEntity
  8
SKVIEW1
100
AcDbLine
 10
-63.74168490185624
 20
4.566055999999981
 30
0.0
 11
-63.71249790185615
 21
4.672911999999982
 31
0.0
  0
ARC
  5
21E9E
330
1F
100
AcDbEntity
  8
SKVIEW1
100
AcDbCircle
 10
-68.01100890185612
 20
5.713481999999977
 30
0.0
 40
4.420644999999998
100
AcDbArc
 50
335.253606999995
 51
344.9566369999978
  0
LINE
  5
21E9F
330
1F
100
AcDbEntity
  8
SKVIEW1
100
AcDbLine
 10
-64.33184990185608
 20
3.145289999999988
 30
0.0
 11
-63.99648990185628
 21
3.863069999999979
 31
0.0
  0
SPLINE
  5
21EA0
330
1F
100
AcDbEntity
  8
SKVIEW1
100
AcDbSpline
210
0.0
220
0.0
230
1.0
 70
     8
 71
     5
 72
    30
 73
    24
 74
     0
 42
0.000000001
 43
0.0000000001
 40
0.0
 40
0.0
 40
0.0
 40
0.0
 40
0.0
 40
0.0
 40
27.46890791900197
 40
27.46890791900197
 40
27.46890791900197
 40
38.07893557398753
 40
38.07893557398753
 40
38.07893557398753
 40
43.40645323895073
 40
43.40645323895073
 40
43.40645323895073
 40
49.7351182792694
 40
49.7351182792694
 40
49.7351182792694
 40
51.78944324206803
 40
51.78944324206803
 40
51.78944324206803
 40
53.40576490036049
 40
53.40576490036049
 40
53.40576490036049
 40
54.31140019280714
 40
54.31140019280714
 40
54.31140019280714
 40
54.31140019280714
 40
54.31140019280714
 40
54.31140019280714
 10
-65.67484202889736
 20
0.2298524268930322
 30
0.0
 10
-65.6597731834714
 20
0.2674281545219799
 30
0.0
 10
-65.64112097388428
 20
0.312427221699501
 30
0.0
 10
-65.62004627040924
 20
0.3615391759954818
 30
0.0
 10
-65.58152216883226
 20
0.4506051716873643
 30
0.0
 10
-65.50120041107229
 20
0.6284026994632157
 30
0.0
 10
-65.4744931371882
 20
0.6872298068065348
 30
0.0
 10
-65.42570439974142
 20
0.7941230067386514
 30
0.0
 10
-65.35326408819341
 20
0.9515251625477176
 30
0.0
 10
-65.32644281144744
 20
1.009627259835568
 30
0.0
 10
-65.2567991779932
 20
1.160388970480724
 30
0.0
 10
-65.15904981013235
 20
1.37122355242139
 30
0.0
 10
-65.09553437248118
 20
1.507910104093944
 30
0.0
 10
-64.98817191153339
 20
1.738681842861495
 30
0.0
 10
-64.83291947179018
 20
2.071757552089941
 30
0.0
 10
-64.78902540923113
 20
2.165690910137641
 30
0.0
 10
-64.70573568567338
 20
2.344437603345035
 30
0.0
 10
-64.61234568359017
 20
2.544614524696555
 30
0.0
 10
-64.57180389417917
 20
2.631432485927895
 30
0.0
 10
-64.49951459995722
 20
2.786268181567258
 30
0.0
 10
-64.42100319234132
 20
2.954402206094165
 30
0.0
 10
-64.39202523924322
 20
3.016455624317003
 30
0.0
 10
-64.36231404246618
 20
3.08006956039528
 30
0.0
 10
-64.3318502246253
 20
3.145289851631886
 30
0.0
  0
LINE
  5
21EA1
330
1F
100
AcDbEntity
  8
SKVIEW1
100
AcDbLine
 10
-64.99830190185625
 20
-0.7994750000000366
 30
0.0
 11
-62.70142490185626
 21
-1.41492100000002
 31
0.0
  0
SPLINE
  5
21EA2
330
1F
100
AcDbEntity
  8
SKVIEW1
100
AcDbSpline
210
0.0
220
0.0
230
1.0
 70
     8
 71
     5
 72
    57
 73
    51
 74
     0
 42
0.000000001
 43
0.0000000001
 40
0.0
 40
0.0
 40
0.0
 40
0.0
 40
0.0
 40
0.0
 40
24.72862772093421
 40
24.72862772093421
 40
24.72862772093421
 40
61.82105273432865
 40
61.82105273432865
 40
61.82105273432865
 40
86.5493593923421
 40
86.5493593923421
 40
86.5493593923421
 40
98.91360281701441
 40
98.91360281701441
 40
98.91360281701441
 40
111.2780730486465
 40
111.2780730486465
 40
111.2780730486465
 40
118.5545750181114
 40
118.5545750181114
 40
118.5545750181114
 40
120.1575536532695
 40
120.1575536532695
 40
120.1575536532695
 40
121.4852127419106
 40
121.4852127419106
 40
121.4852127419106
 40
122.3651045244989
 40
122.3651045244989
 40
122.3651045244989
 40
122.4234374393187
 40
122.4234374393187
 40
122.4234374393187
 40
122.4817703541384
 40
122.4817703541384
 40
122.4817703541384
 40
122.5962182820432
 40
122.5962182820432
 40
122.5962182820432
 40
122.674889342142
 40
122.674889342142
 40
122.674889342142
 40
122.714227621705
 40
122.714227621705
 40
122.714227621705
 40
123.0529526567849
 40
123.0529526567849
 40
123.0529526567849
 40
124.0079913896912
 40
124.0079913896912
 40
124.0079913896912
 40
124.0079913896912
 40
124.0079913896912
 40
124.0079913896912
 10
-65.67484202889736
 20
0.2298524268930322
 30
0.0
 10
-65.68840879210333
 20
0.1960222969368956
 30
0.0
 10
-65.69565277575233
 20
0.1703027044105383
 30
0.0
 10
-65.70096313616827
 20
0.1480605471899281
 30
0.0
 10
-65.71020768141133
 20
0.0961835866499428
 30
0.0
 10
-65.71122280248037
 20
0.0528359385350612
 30
0.0
 10
-65.7098770818462
 20
0.0282116209607821
 30
0.0
 10
-65.70435117787619
 20
-0.0133902875777352
 30
0.0
 10
-65.69235311918814
 20
-0.0589359596694337
 30
0.0
 10
-65.68639507280735
 20
-0.0780973104742628
 30
0.0
 10
-65.67519891555239
 20
-0.1094164027093001
 30
0.0
 10
-65.65767702336334
 20
-0.1479972433523145
 30
0.0
 10
-65.6508789108403
 20
-0.1620043293674769
 30
0.0
 10
-65.6356354167452
 20
-0.1914101599911149
 30
0.0
 10
-65.61502625210741
 20
-0.2267141500904373
 30
0.0
 10
-65.60282832567813
 20
-0.2465494371922574
 30
0.0
 10
-65.57855660993218
 20
-0.2839451804709156
 30
0.0
 10
-65.53854905427724
 20
-0.3373754907801967
 30
0.0
 10
-65.52220198983818
 20
-0.3579044173735966
 30
0.0
 10
-65.49763364279042
 20
-0.3887254888933853
 30
0.0
 10
-65.45416481004335
 20
-0.4363890241279123
 30
0.0
 10
-65.44530836404132
 20
-0.4459148540736138
 30
0.0
 10
-65.42927270292929
 20
-0.4628080136977531
 30
0.0
 10
-65.41054556397111
 20
-0.4818589273713272
 30
0.0
 10
-65.40108270527625
 20
-0.4913512027881453
 30
0.0
 10
-65.38212730582117
 20
-0.5100777023933816
 30
0.0
 10
-65.35329314139435
 20
-0.5370515594367405
 30
0.0
 10
-65.34296985115938
 20
-0.5462957044240753
 30
0.0
 10
-65.32944514623236
 20
-0.5588749476450872
 30
0.0
 10
-65.30328259523717
 20
-0.5813858611708796
 30
0.0
 10
-65.30203156878823
 20
-0.5824943531656928
 30
0.0
 10
-65.29684443444612
 20
-0.5868065431341592
 30
0.0
 10
-65.28726067170928
 20
-0.5945335616209704
 30
0.0
 10
-65.28140085239724
 20
-0.5992252958139446
 30
0.0
 10
-65.26320685005529
 20
-0.6137423647595029
 30
0.0
 10
-65.24228397740316
 20
-0.6303185447220941
 30
0.0
 10
-65.22843661152442
 20
-0.6412568514627069
 30
0.0
 10
-65.20507487565814
 20
-0.6596462779758241
 30
0.0
 10
-65.18516778034641
 20
-0.6751104550411214
 30
0.0
 10
-65.17741018592923
 20
-0.6810799179484448
 30
0.0
 10
-65.17050049363942
 20
-0.6862144595958953
 30
0.0
 10
-65.16552266123821
 20
-0.6897862032421003
 30
0.0
 10
-65.16375305091727
 20
-0.6910663149645231
 30
0.0
 10
-65.14758504869823
 20
-0.7026904894239508
 30
0.0
 10
-65.13451503463224
 20
-0.7118151333922498
 30
0.0
 10
-65.12343754064213
 20
-0.7194673751794199
 30
0.0
 10
-65.08432272377522
 20
-0.7460934945048408
 30
0.0
 10
-65.05465169807334
 20
-0.764983482874051
 30
0.0
 10
-65.03719346703937
 20
-0.7760100485960564
 30
0.0
 10
-65.01724982962636
 20
-0.7881885718662574
 30
0.0
 10
-64.99830190644534
 20
-0.7994745521537681
 30
0.0
  0
LINE
  5
21EA3
330
1F
100
AcDbEntity
  8
SKVIEW1
100
AcDbLine
 10
-62.36883190185617
 20
-2.36406300000003
 30
0.0
 11
-64.99830190185625
 21
-0.7994750000000366
 31
0.0
  0
ARC
  5
21EA4
330
1F
100
AcDbEntity
  8
SKVIEW1
100
AcDbCircle
 10
-68.19332690185624
 20
-12.14851200000002
 30
0.0
 40
11.386848
100
AcDbArc
 50
57.63292600000323
 51
59.23547500000196
  0
LINE
  5
21EA5
330
1F
100
AcDbEntity
  8
SKVIEW1
100
AcDbLine
 10
-71.2720109018563
 20
-0.1804980000000213
 30
0.0
 11
-71.20579690185613
 21
-0.1747050000000172
 31
0.0
  0
LINE
  5
21EA6
330
1F
100
AcDbEntity
  8
SKVIEW1
100
AcDbLine
 10
-69.4988239018563
 20
0.5936639999999827
 30
0.0
 11
-66.42541790185609
 21
-0.2298520000000153
 31
0.0
  0
LINE
  5
21EA7
330
1F
100
AcDbEntity
  8
SKVIEW1
100
AcDbLine
 10
-71.19045790185609
 20
-0.4341080000000162
 30
0.0
 11
-71.25780490185625
 21
-0.425180000000033
 31
0.0
  0
ARC
  5
21EA8
330
1F
100
AcDbEntity
  8
SKVIEW1
100
AcDbCircle
 10
-66.05012990185613
 20
-0.0000000000000213
 30
0.0
 40
5.224999999999996
100
AcDbArc
 50
181.979681
 51
266.9549559999952
  0
LINE
  5
21EA9
330
1F
100
AcDbEntity
  8
SKVIEW1
100
AcDbLine
 10
-68.35857490185626
 20
-4.566056000000031
 30
0.0
 11
-68.38776190185612
 21
-4.672912000000017
 31
0.0
  0
ARC
  5
21EAA
330
1F
100
AcDbEntity
  8
SKVIEW1
100
AcDbCircle
 10
-64.08925090185616
 20
-5.713482000000027
 30
0.0
 40
4.420644999999998
100
AcDbArc
 50
155.2536069999959
 51
164.9566369999978
  0
LINE
  5
21EAB
330
1F
100
AcDbEntity
  8
SKVIEW1
100
AcDbLine
 10
-67.76840990185618
 20
-3.145290000000017
 30
0.0
 11
-68.10376990185623
 21
-3.863070000000021
 31
0.0
  0
SPLINE
  5
21EAC
330
1F
100
AcDbEntity
  8
SKVIEW1
100
AcDbSpline
210
0.0
220
0.0
230
1.0
 70
     8
 71
     5
 72
    30
 73
    24
 74
     0
 42
0.000000001
 43
0.0000000001
 40
0.0
 40
0.0
 40
0.0
 40
0.0
 40
0.0
 40
0.0
 40
27.46890787819352
 40
27.46890787819352
 40
27.46890787819352
 40
38.07893553191076
 40
38.07893553191076
 40
38.07893553191076
 40
43.40645319715878
 40
43.40645319715878
 40
43.40645319715878
 40
49.73511823805431
 40
49.73511823805431
 40
49.73511823805431
 40
51.78944320099215
 40
51.78944320099215
 40
51.78944320099215
 40
53.40576485843856
 40
53.40576485843856
 40
53.40576485843856
 40
54.31140015090413
 40
54.31140015090413
 40
54.31140015090413
 40
54.31140015090413
 40
54.31140015090413
 40
54.31140015090413
 10
-66.42541777481537
 20
-0.2298524268930819
 30
0.0
 10
-66.44048662021837
 20
-0.2674281544662094
 30
0.0
 10
-66.45913882977524
 20
-0.3124272215671624
 30
0.0
 10
-66.4802135333492
 20
-0.3615391760987663
 30
0.0
 10
-66.51873763496118
 20
-0.4506051718580438
 30
0.0
 10
-66.59905939264817
 20
-0.6284026994825567
 30
0.0
 10
-66.62576666653134
 20
-0.6872298068183014
 30
0.0
 10
-66.67455540397426
 20
-0.7941230067485492
 30
0.0
 10
-66.74699571552341
 20
-0.9515251625530396
 30
0.0
 10
-66.77381699224915
 20
-1.009627259796872
 30
0.0
 10
-66.84346062572521
 20
-1.160388970489947
 30
0.0
 10
-66.94120999358924
 20
-1.371223552441215
 30
0.0
 10
-67.00472543122518
 20
-1.507910104074888
 30
0.0
 10
-67.11208789215411
 20
-1.73868184281433
 30
0.0
 10
-67.26734033190936
 20
-2.071757552067239
 30
0.0
 10
-67.31123439452821
 20
-2.165690910242027
 30
0.0
 10
-67.39452411813619
 20
-2.344437603563548
 30
0.0
 10
-67.48791412021714
 20
-2.544614524906144
 30
0.0
 10
-67.52845590954925
 20
-2.631432485969213
 30
0.0
 10
-67.60074520377234
 20
-2.786268181596092
 30
0.0
 10
-67.67925661137642
 20
-2.954402206089959
 30
0.0
 10
-67.70823456447633
 20
-3.016455624316868
 30
0.0
 10
-67.73794576125337
 20
-3.080069560393148
 30
0.0
 10
-67.76840957909334
 20
-3.145289851628724
 30
0.0
  0
SPLINE
  5
21EAD
330
1F
100
AcDbEntity
  8
SKVIEW1
100
AcDbSpline
210
0.0
220
0.0
230
1.0
 70
     8
 71
     5
 72
    57
 73
    51
 74
     0
 42
0.000000001
 43
0.0000000001
 40
0.0
 40
0.0
 40
0.0
 40
0.0
 40
0.0
 40
0.0
 40
24.7286277453748
 40
24.7286277453748
 40
24.7286277453748
 40
61.8210527954297
 40
61.8210527954297
 40
61.8210527954297
 40
86.54935947788381
 40
86.54935947788381
 40
86.54935947788381
 40
98.91360291477717
 40
98.91360291477717
 40
98.91360291477717
 40
111.2780731586323
 40
111.2780731586323
 40
111.2780731586323
 40
118.5545751245098
 40
118.5545751245098
 40
118.5545751245098
 40
120.1575537424125
 40
120.1575537424125
 40
120.1575537424125
 40
121.4852129589463
 40
121.4852129589463
 40
121.4852129589463
 40
122.3651046583887
 40
122.3651046583887
 40
122.3651046583887
 40
122.4234375690366
 40
122.4234375690366
 40
122.4234375690366
 40
122.4817704796846
 40
122.4817704796846
 40
122.4817704796846
 40
122.5962183987453
 40
122.5962183987453
 40
122.5962183987453
 40
122.6748894604638
 40
122.6748894604638
 40
122.6748894604638
 40
122.7142277408341
 40
122.7142277408341
 40
122.7142277408341
 40
123.0529527913867
 40
123.0529527913867
 40
123.0529527913867
 40
124.0079914901107
 40
124.0079914901107
 40
124.0079914901107
 40
124.0079914901107
 40
124.0079914901107
 40
124.0079914901107
 10
-66.42541777481537
 20
-0.2298524268930819
 30
0.0
 10
-66.4118510115953
 20
-0.1960222969035072
 30
0.0
 10
-66.40460702794425
 20
-0.1703027043592158
 30
0.0
 10
-66.39929666753037
 20
-0.1480605471440057
 30
0.0
 10
-66.39005212229116
 20
-0.0961835865658287
 30
0.0
 10
-66.38903700123032
 20
-0.052835938416365
 30
0.0
 10
-66.3903827218763
 20
-0.0282116208231358
 30
0.0
 10
-66.3959086258661
 20
0.0133902877601315
 30
0.0
 10
-66.4079066845953
 20
0.0589359599184434
 30
0.0
 10
-66.41386473099723
 20
0.0780973107568883
 30
0.0
 10
-66.42506088829517
 20
0.1094164030587166
 30
0.0
 10
-66.44258278056722
 20
0.1479972438162704
 30
0.0
 10
-66.4493808931264
 20
0.1620043298779237
 30
0.0
 10
-66.46462438727425
 20
0.191410160559947
 30
0.0
 10
-66.48523355200322
 20
0.2267141507616941
 30
0.0
 10
-66.49743147850617
 20
0.2465494379433792
 30
0.0
 10
-66.52170319443516
 20
0.2839451814340421
 30
0.0
 10
-66.56171075046822
 20
0.3373754921226606
 30
0.0
 10
-66.5780578150262
 20
0.3579044187896301
 30
0.0
 10
-66.60262616217423
 20
0.38872549040655
 30
0.0
 10
-66.64609499558841
 20
0.4363890262074435
 30
0.0
 10
-66.65495144170617
 20
0.4459148562356035
 30
0.0
 10
-66.67098710254126
 20
0.4628080155679087
 30
0.0
 10
-66.68971424074024
 20
0.4818589284365374
 30
0.0
 10
-66.69917709983028
 20
0.4913512042151993
 30
0.0
 10
-66.71813249979535
 20
0.5100777042798015
 30
0.0
 10
-66.74696666639746
 20
0.5370515631796949
 30
0.0
 10
-66.75728995821723
 20
0.5462957096120036
 30
0.0
 10
-66.7708146630483
 20
0.5588749525915944
 30
0.0
 10
-66.79697721379134
 20
0.5813858657365714
 30
0.0
 10
-66.79822824091624
 20
0.5824943582609095
 30
0.0
 10
-66.80341538082425
 20
0.5868065525477917
 30
0.0
 10
-66.81299914757037
 20
0.5945335741121199
 30
0.0
 10
-66.81885896758316
 20
0.5992253088201594
 30
0.0
 10
-66.83705297135325
 20
0.6137423788035008
 30
0.0
 10
-66.85797584269616
 20
0.6303185576776045
 30
0.0
 10
-66.87182320752921
 20
0.6412568635570679
 30
0.0
 10
-66.89518494201829
 20
0.6596462889162993
 30
0.0
 10
-66.91509203419022
 20
0.6751104633998182
 30
0.0
 10
-66.9228496271522
 20
0.6810799250825071
 30
0.0
 10
-66.92975931540818
 20
0.6862144634495522
 30
0.0
 10
-66.93473714766523
 20
0.6897862069736008
 30
0.0
 10
-66.9365067581053
 20
0.6910663187886428
 30
0.0
 10
-66.95267476016429
 20
0.7026904930579221
 30
0.0
 10
-66.96574477428825
 20
0.7118151370102197
 30
0.0
 10
-66.97682226853416
 20
0.7194673789405855
 30
0.0
 10
-67.01593708348136
 20
0.7460934967777888
 30
0.0
 10
-67.04560810864617
 20
0.7649834847670505
 30
0.0
 10
-67.06306633810126
 20
0.7760100494691713
 30
0.0
 10
-67.08300997476417
 20
0.7881885722708333
 30
0.0
 10
-67.10195789726626
 20
0.7994745521537184
 30
0.0
  0
LINE
  5
21EAE
330
1F
100
AcDbEntity
  8
SKVIEW1
100
AcDbLine
 10
-67.10195790185625
 20
0.7994749999999798
 30
0.0
 11
-69.39883490185625
 21
1.414920999999978
 31
0.0
  0
LINE
  5
21EAF
330
1F
100
AcDbEntity
  8
SKVIEW1
100
AcDbLine
 10
-69.73142790185608
 20
2.36406299999998
 30
0.0
 11
-67.10195790185625
 21
0.7994749999999798
 31
0.0
  0
ARC
  5
21EB0
330
1F
100
AcDbEntity
  8
SKVIEW1
100
AcDbCircle
 10
-63.90693290185535
 20
12.14851199999997
 30
0.0
 40
11.386848
100
AcDbArc
 50
237.6329260000032
 51
239.235475000002
  0
ARC
  5
21EB1
330
1F
100
AcDbEntity
  8
SKVIEW1
100
AcDbCircle
 10
-66.05012990185613
 20
-0.0000000000000213
 30
0.0
 40
5.116423999999998
100
AcDbArc
 50
63.18036499999681
 51
144.0178360000056
  0
ARC
  5
21EB2
330
1F
100
AcDbEntity
  8
SKVIEW1
100
AcDbCircle
 10
-66.05012990185613
 20
-0.0000000000000213
 30
0.0
 40
4.375014
100
AcDbArc
 50
62.00452400000273
 51
147.2921569999946
  0
ARC
  5
21EB3
330
1F
100
AcDbEntity
  8
SKVIEW1
100
AcDbCircle
 10
-66.05012990185613
 20
-0.0000000000000213
 30
0.0
 40
8.07
100
AcDbArc
 50
90.0
 51
131.1125090000052
  0
ARC
  5
21EB4
330
1F
100
AcDbEntity
  8
SKVIEW1
100
AcDbCircle
 10
-66.05012990185613
 20
-0.0000000000000213
 30
0.0
 40
8.449999999999999
100
AcDbArc
 50
90.0
 51
129.0271070000057
  0
ARC
  5
21EB5
330
1F
100
AcDbEntity
  8
SKVIEW1
100
AcDbCircle
 10
-66.05012990185613
 20
-0.0000000000000213
 30
0.0
 40
4.375014
100
AcDbArc
 50
242.0045240000027
 51
327.2921569999946
  0
ARC
  5
21EB6
330
1F
100
AcDbEntity
  8
SKVIEW1
100
AcDbCircle
 10
-66.05012990185613
 20
-0.0000000000000213
 30
0.0
 40
5.116423999999998
100
AcDbArc
 50
243.1803649999968
 51
324.0178360000059
  0
ARC
  5
21EB7
330
1F
100
AcDbEntity
  8
SKVIEW1
100
AcDbCircle
 10
-66.35012990185609
 20
-5.639526000000024
 30
0.0
 40
0.4225
100
AcDbArc
 50
315.239729999998
 51
86.95496599999348
  0
LINE
  5
21EB8
330
1F
100
AcDbEntity
  8
SKVIEW1
100
AcDbLine
 10
-66.05012990185613
 20
-8.070000000000021
 30
0.0
 11
-66.05012990185613
 21
-5.937026000000017
 31
0.0
  0
ARC
  5
21EB9
330
1F
100
AcDbEntity
  8
SKVIEW1
100
AcDbCircle
 10
-66.05012990185613
 20
-0.0000000000000213
 30
0.0
 40
8.07
100
AcDbArc
 50
270.0
 51
311.1125090000054
  0
ARC
  5
21EBA
330
1F
100
AcDbEntity
  8
SKVIEW1
100
AcDbCircle
 10
-66.05012990185613
 20
-0.0000000000000213
 30
0.0
 40
8.449999999999999
100
AcDbArc
 50
270.0
 51
309.0271070000055
  0
LINE
  5
21EBB
330
1F
100
AcDbEntity
  8
SKVIEW1
100
AcDbLine
 10
-66.05012990185613
 20
-8.070000000000021
 30
0.0
 11
-66.05012990185613
 21
-8.450000000000031
 31
0.0
  0
ARC
  5
21EBC
330
1F
100
AcDbEntity
  8
SKVIEW1
100
AcDbCircle
 10
-66.05012990185613
 20
-0.0000000000000213
 30
0.0
 40
5.224999999999996
100
AcDbArc
 50
9.928690999997845
 51
86.9687029999935
  0
LINE
  5
21EBD
330
1F
100
AcDbEntity
  8
SKVIEW1
100
AcDbLine
 10
-58.06366090185619
 20
-2.819104000000031
 30
0.0
 11
-58.06366090185619
 21
1.134267999999977
 31
0.0
  0
ARC
  5
21EBE
330
1F
100
AcDbEntity
  8
SKVIEW1
100
AcDbCircle
 10
-59.64847990185612
 20
-2.264395000000028
 30
0.0
 40
3.750005999999998
100
AcDbArc
 50
65.00004799999842
 51
110.7186979999984
  0
ARC
  5
21EBF
330
1F
100
AcDbEntity
  8
SKVIEW1
100
AcDbCircle
 10
-66.05012990185613
 20
-0.0000000000000213
 30
0.0
 40
4.224999999999996
100
AcDbArc
 50
354.8110470000008
 51
358.4006289999999
  0
LINE
  5
21EC0
330
1F
100
AcDbEntity
  8
SKVIEW1
100
AcDbLine
 10
-61.9007449018562
 20
-2.876959000000027
 30
0.0
 11
-61.9007449018562
 21
-0.7959680000000234
 31
0.0
  0
ARC
  5
21EC1
330
1F
100
AcDbEntity
  8
SKVIEW1
100
AcDbCircle
 10
-60.2515609018561
 20
-11.51384300000003
 30
0.0
 40
8.793148999999999
100
AcDbArc
 50
92.93331199999832
 51
100.810273
  0
ARC
  5
21EC2
330
1F
100
AcDbEntity
  8
SKVIEW1
100
AcDbCircle
 10
-59.64847990185612
 20
-6.331050000000026
 30
0.0
 40
3.750007
100
AcDbArc
 50
70.31632400000616
 51
106.3090959999933
  0
LINE
  5
21EC3
330
1F
100
AcDbEntity
  8
SKVIEW1
100
AcDbLine
 10
-58.06366490185618
 20
-2.819123000000033
 30
0.0
 11
-58.38537990185622
 21
-2.800167000000023
 31
0.0
  0
LINE
  5
21EC4
330
1F
100
AcDbEntity
  8
SKVIEW1
100
AcDbLine
 10
-66.05012990185613
 20
5.341897999999979
 30
0.0
 11
-66.05012990185613
 21
6.979999999999982
 31
0.0
  0
LINE
  5
21EC5
330
1F
100
AcDbEntity
  8
SKVIEW1
100
AcDbLine
 10
-58.06366090185619
 20
1.134267999999977
 30
0.0
 11
-51.43075990185625
 21
-1.958705000000023
 31
0.0
  0
ARC
  5
21EC6
330
1F
100
AcDbEntity
  8
SKVIEW1
100
AcDbCircle
 10
-66.05012990185613
 20
-0.0000000000000213
 30
0.0
 40
14.75
100
AcDbArc
 50
337.7885190000023
 51
74.3861550000021
  0
LINE
  5
21EC7
330
1F
100
AcDbEntity
  8
SKVIEW1
100
AcDbLine
 10
-62.08012990185611
 20
6.979999999999982
 30
0.0
 11
-62.08012990185611
 21
14.20568899999998
 31
0.0
  0
LINE
  5
21EC8
330
1F
100
AcDbEntity
  8
SKVIEW1
100
AcDbLine
 10
-62.08012990185611
 20
6.979999999999982
 30
0.0
 11
-66.05012990185613
 21
6.979999999999982
 31
0.0
  0
CIRCLE
  5
21EC9
330
1F
100
AcDbEntity
  8
SKVIEW1
100
AcDbCircle
 10
-55.65782490185629
 20
5.999999999999978
 30
0.0
 40
1.5
  0
SPLINE
  5
21ECA
330
1F
100
AcDbEntity
  8
SKVIEW1
100
AcDbSpline
210
0.0
220
0.0
230
1.0
 70
     8
 71
     5
 72
    33
 73
    27
 74
     0
 42
0.000000001
 43
0.0000000001
 40
0.0
 40
0.0
 40
0.0
 40
0.0
 40
0.0
 40
0.0
 40
2.025133388327709
 40
2.025133388327709
 40
2.025133388327709
 40
3.059037583493676
 40
3.059037583493676
 40
3.059037583493676
 40
4.109955773053698
 40
4.109955773053698
 40
4.109955773053698
 40
5.201534304890204
 40
5.201534304890204
 40
5.201534304890204
 40
6.371496168631915
 40
6.371496168631915
 40
6.371496168631915
 40
7.481839752470972
 40
7.481839752470972
 40
7.481839752470972
 40
8.534841374405043
 40
8.534841374405043
 40
8.534841374405043
 40
10.51131308746629
 40
10.51131308746629
 40
10.51131308746629
 40
10.51131308746629
 40
10.51131308746629
 40
10.51131308746629
 10
-58.06366476544517
 20
-2.81912310001006
 30
0.0
 10
-57.92300100296038
 20
-2.825787904348509
 30
0.0
 10
-57.77939126907935
 20
-2.835207639643734
 30
0.0
 10
-57.63387105827823
 20
-2.847750184427972
 30
0.0
 10
-57.4075167409272
 20
-2.872272016556912
 30
0.0
 10
-57.1667762324233
 20
-2.908629519704284
 30
0.0
 10
-57.08575339665831
 20
-2.922083079130338
 30
0.0
 10
-56.91405736439318
 20
-2.953451035537852
 30
0.0
 10
-56.73272264720535
 20
-2.993524059512587
 30
0.0
 10
-56.63818414855322
 20
-3.016390805085372
 30
0.0
 10
-56.43836312703124
 20
-3.069655693849256
 30
0.0
 10
-56.22515669568437
 20
-3.138911022977659
 30
0.0
 10
-56.10994040956334
 20
-3.180238124328717
 30
0.0
 10
-55.87300680072039
 20
-3.27515031128609
 30
0.0
 10
-55.63561899296437
 20
-3.392894758747296
 30
0.0
 10
-55.52016663697426
 20
-3.457085052866624
 30
0.0
 10
-55.30345262736918
 20
-3.590914978875737
 30
0.0
 10
-55.12036480762012
 20
-3.726362182557217
 30
0.0
 10
-55.03522356058519
 20
-3.794757273598037
 30
0.0
 10
-54.88997065863836
 20
-3.91989452180227
 30
0.0
 10
-54.76639174269016
 20
-4.040747782642668
 30
0.0
 10
-54.71115198357515
 20
-4.097860804214469
 30
0.0
 10
-54.5604055012603
 20
-4.261864340416018
 30
0.0
 10
-54.43569132852426
 20
-4.418999594014856
 30
0.0
 10
-54.36172450139119
 20
-4.519638831812528
 30
0.0
 10
-54.29306366863428
 20
-4.620459130628326
 30
0.0
 10
-54.22967658237221
 20
-4.720202679957047
 30
0.0
  0
LINE
  5
21ECB
330
1F
100
AcDbEntity
  8
SKVIEW1
100
AcDbLine
 10
-54.22967690185609
 20
-4.720203000000033
 30
0.0
 11
-52.39465590185623
 21
-5.575888000000027
 31
0.0
  0
LINE
  5
21ECC
330
1F
100
AcDbEntity
  8
SKVIEW1
100
AcDbLine
 10
-61.95549590185518
 20
-2.891637000000017
 30
0.0
 11
-61.90073090185624
 21
-2.87700700000002
 31
0.0
  0
ARC
  5
21ECD
330
1F
100
AcDbEntity
  8
SKVIEW1
100
AcDbCircle
 10
-60.86614890185623
 20
-15.36097900000003
 30
0.0
 40
11.95295
100
AcDbArc
 50
91.1869059999959
 51
94.18033499999383
  0
ARC
  5
21ECE
330
1F
100
AcDbEntity
  8
SKVIEW1
100
AcDbCircle
 10
-66.05012990185613
 20
-0.0000000000000213
 30
0.0
 40
6.0
100
AcDbArc
 50
325.3591570000056
 51
332.9063949999957
  0
LINE
  5
21ECF
330
1F
100
AcDbEntity
  8
SKVIEW1
100
AcDbLine
 10
-60.70155290185616
 20
-2.731942000000017
 30
0.0
 11
-60.70854990185612
 21
-2.732676000000019
 31
0.0
  0
ARC
  5
21ED0
330
1F
100
AcDbEntity
  8
SKVIEW1
100
AcDbCircle
 10
-59.77283990185615
 20
-11.26282000000002
 30
0.0
 40
8.575369
100
AcDbArc
 50
49.72741400000509
 51
80.68911200000341
  0
LINE
  5
21ED1
330
1F
100
AcDbEntity
  8
SKVIEW1
100
AcDbLine
 10
-70.14476390185618
 20
2.891636999999981
 30
0.0
 11
-70.19952890185624
 21
2.877006999999991
 31
0.0
  0
LINE
  5
21ED2
330
1F
100
AcDbEntity
  8
SKVIEW1
100
AcDbLine
 10
-70.1995149018563
 20
2.876996999999981
 30
0.0
 11
-70.1995149018563
 21
0.7959629999999791
 31
0.0
  0
LINE
  5
21ED3
330
1F
100
AcDbEntity
  8
SKVIEW1
100
AcDbLine
 10
-74.03659890185631
 20
2.819103999999981
 30
0.0
 11
-74.03659890185631
 21
-1.134268000000027
 31
0.0
  0
ARC
  5
21ED4
330
1F
100
AcDbEntity
  8
SKVIEW1
100
AcDbCircle
 10
-72.45182790185535
 20
2.264619999999979
 30
0.0
 40
3.750232
100
AcDbArc
 50
245.0021660000005
 51
290.7181590000058
  0
ARC
  5
21ED5
330
1F
100
AcDbEntity
  8
SKVIEW1
100
AcDbCircle
 10
-66.05012990185613
 20
-0.0000000000000213
 30
0.0
 40
5.224999999999996
100
AcDbArc
 50
189.9286909999978
 51
241.3521099999945
  0
ARC
  5
21ED6
330
1F
100
AcDbEntity
  8
SKVIEW1
100
AcDbCircle
 10
-71.84869890185618
 20
11.51384299999997
 30
0.0
 40
8.793148999999999
100
AcDbArc
 50
272.9333119999983
 51
280.8102730000001
  0
ARC
  5
21ED7
330
1F
100
AcDbEntity
  8
SKVIEW1
100
AcDbCircle
 10
-72.45177990185616
 20
6.331049999999983
 30
0.0
 40
3.750007
100
AcDbArc
 50
250.3163240000062
 51
286.3090959999933
  0
LINE
  5
21ED8
330
1F
100
AcDbEntity
  8
SKVIEW1
100
AcDbLine
 10
-74.03659490185609
 20
2.819122999999983
 30
0.0
 11
-73.71487990185627
 21
2.80016699999998
 31
0.0
  0
ARC
  5
21ED9
330
1F
100
AcDbEntity
  8
SKVIEW1
100
AcDbCircle
 10
-71.23411890185625
 20
15.36118699999996
 30
0.0
 40
11.953158
100
AcDbArc
 50
271.186925000002
 51
274.1784910000019
  0
ARC
  5
21EDA
330
1F
100
AcDbEntity
  8
SKVIEW1
100
AcDbCircle
 10
-66.05012990185613
 20
-0.0000000000000213
 30
0.0
 40
6.0
100
AcDbArc
 50
145.3591570000056
 51
152.9063949999942
  0
LINE
  5
21EDB
330
1F
100
AcDbEntity
  8
SKVIEW1
100
AcDbLine
 10
-71.39870690185611
 20
2.731941999999975
 30
0.0
 11
-71.39170990185616
 21
2.732675999999976
 31
0.0
  0
SPLINE
  5
21EDC
330
1F
100
AcDbEntity
  8
SKVIEW1
100
AcDbSpline
210
0.0
220
0.0
230
1.0
 70
     8
 71
     5
 72
    33
 73
    27
 74
     0
 42
0.000000001
 43
0.0000000001
 40
0.0
 40
0.0
 40
0.0
 40
0.0
 40
0.0
 40
0.0
 40
2.025133388168907
 40
2.025133388168907
 40
2.025133388168907
 40
3.059037583236376
 40
3.059037583236376
 40
3.059037583236376
 40
4.10995577271888
 40
4.10995577271888
 40
4.10995577271888
 40
5.201534306014155
 40
5.201534306014155
 40
5.201534306014155
 40
6.371496170759712
 40
6.371496170759712
 40
6.371496170759712
 40
7.481839754096085
 40
7.481839754096085
 40
7.481839754096085
 40
8.534841375956606
 40
8.534841375956606
 40
8.534841375956606
 40
10.51131308918098
 40
10.51131308918098
 40
10.51131308918098
 40
10.51131308918098
 40
10.51131308918098
 40
10.51131308918098
 10
-74.03659503826734
 20
2.819123100007118
 30
0.0
 10
-74.1772588007403
 20
2.825787904346498
 30
0.0
 10
-74.32086853461223
 20
2.835207639641687
 30
0.0
 10
-74.46638874532718
 20
2.847750184419552
 30
0.0
 10
-74.6927430625552
 20
2.872272016529628
 30
0.0
 10
-74.93348357098634
 20
2.908629519657004
 30
0.0
 10
-75.01450640673133
 20
2.92208307907574
 30
0.0
 10
-75.18620243897029
 20
2.953451035468994
 30
0.0
 10
-75.36753715612539
 20
2.993524059424395
 30
0.0
 10
-75.46207565475933
 20
3.016390804985469
 30
0.0
 10
-75.66189667638704
 20
3.069655693759791
 30
0.0
 10
-75.87510310786328
 20
3.1389110229142
 30
0.0
 10
-75.99031939335131
 20
3.180238124021968
 30
0.0
 10
-76.22725300245438
 20
3.275150311036227
 30
0.0
 10
-76.46464081017538
 20
3.392894758444491
 30
0.0
 10
-76.58009316563229
 20
3.457085052217877
 30
0.0
 10
-76.79680717551841
 20
3.590914978313158
 30
0.0
 10
-76.97989499543618
 20
3.726362182050202
 30
0.0
 10
-77.06503624270417
 20
3.794757273258518
 30
0.0
 10
-77.21028914466941
 20
3.919894521446565
 30
0.0
 10
-77.33386806065422
 20
4.040747782290324
 30
0.0
 10
-77.38910781982835
 20
4.097860803907245
 30
0.0
 10
-77.53985430225529
 20
4.261864340191849
 30
0.0
 10
-77.6645684751073
 20
4.418999593912801
 30
0.0
 10
-77.73853530230517
 20
4.519638831794161
 30
0.0
 10
-77.80719613507526
 20
4.620459130622975
 30
0.0
 10
-77.87058322133916
 20
4.72020267995709
 30
0.0
  0
LINE
  5
21EDD
330
1F
100
AcDbEntity
  8
SKVIEW1
100
AcDbLine
 10
-77.87058290185618
 20
4.720202999999976
 30
0.0
 11
-79.70560390185628
 21
5.575887999999977
 31
0.0
  0
ARC
  5
21EDE
330
1F
100
AcDbEntity
  8
SKVIEW1
100
AcDbCircle
 10
-66.05012990185613
 20
-0.0000000000000213
 30
0.0
 40
14.75
100
AcDbArc
 50
157.7885190000023
 51
254.3861560000054
  0
LINE
  5
21EDF
330
1F
100
AcDbEntity
  8
SKVIEW1
100
AcDbLine
 10
-74.03659890185631
 20
-1.134268000000027
 30
0.0
 11
-80.66949990185534
 21
1.95870499999998
 31
0.0
  0
LINE
  5
21EE0
330
1F
100
AcDbEntity
  8
SKVIEW1
100
AcDbLine
 10
-66.05012990185613
 20
-5.937026000000017
 30
0.0
 11
-66.05012990185613
 21
-5.342030000000036
 31
0.0
  0
LINE
  5
21EE1
330
1F
100
AcDbEntity
  8
SKVIEW1
100
AcDbLine
 10
-70.02012990185616
 20
-6.980000000000025
 30
0.0
 11
-70.02012990185616
 21
-7.537947000000023
 31
0.0
  0
LINE
  5
21EE2
330
1F
100
AcDbEntity
  8
SKVIEW1
100
AcDbLine
 10
-70.02012990185616
 20
-6.980000000000025
 30
0.0
 11
-66.05012990185613
 21
-6.980000000000025
 31
0.0
  0
CIRCLE
  5
21EE3
330
1F
100
AcDbEntity
  8
SKVIEW1
100
AcDbCircle
 10
-76.44243490185622
 20
-6.000000000000028
 30
0.0
 40
1.5
  0
ARC
  5
21EE4
330
1F
100
AcDbEntity
  8
SKVIEW1
100
AcDbCircle
 10
-72.32741990185613
 20
11.26281999999997
 30
0.0
 40
8.575369
100
AcDbArc
 50
229.7274140000036
 51
260.6891120000034
  0
LINE
  5
21EE5
330
1F
100
AcDbEntity
  8
SKVIEW1
100
AcDbLine
 10
-66.05012990185613
 20
-9.26941800000003
 30
0.0
 11
-66.05012990185613
 21
-8.450006000000023
 31
0.0
  0
LINE
  5
21EE6
330
1F
100
AcDbEntity
  8
SKVIEW1
100
AcDbLine
 10
-66.05012990185613
 20
-12.68865600000004
 30
0.0
 11
-66.05012990185613
 21
-12.15556600000003
 31
0.0
  0
LINE
  5
21EE7
330
1F
100
AcDbEntity
  8
SKVIEW1
100
AcDbLine
 10
-66.05012990185613
 20
-14.75000000000003
 30
0.0
 11
-66.05012990185613
 21
-12.82301400000003
 31
0.0
  0
LINE
  5
21EE8
330
1F
100
AcDbEntity
  8
SKVIEW1
100
AcDbLine
 10
-66.05012990185613
 20
-14.20000000000004
 30
0.0
 11
-66.05012990185613
 21
-8.450001000000021
 31
0.0
  0
LINE
  5
21EE9
330
1F
100
AcDbEntity
  8
SKVIEW1
100
AcDbLine
 10
-66.05012990185613
 20
-14.20000000000004
 30
0.0
 11
-66.05012990185613
 21
-15.00000000000002
 31
0.0
  0
LINE
  5
21EEA
330
1F
100
AcDbEntity
  8
SKVIEW1
100
AcDbLine
 10
-70.02012990185616
 20
-14.44205300000003
 30
0.0
 11
-70.02012990185616
 21
-14.20000000000004
 31
0.0
  0
LINE
  5
21EEB
330
1F
100
AcDbEntity
  8
SKVIEW1
100
AcDbLine
 10
-70.02012990185616
 20
-14.20000000000004
 30
0.0
 11
-70.02012990185616
 21
-7.780000000000022
 31
0.0
  0
LINE
  5
21EEC
330
1F
100
AcDbEntity
  8
SKVIEW1
100
AcDbLine
 10
-70.02012990185616
 20
-7.780000000000022
 30
0.0
 11
-70.02012990185616
 21
-7.537947000000023
 31
0.0
  0
LINE
  5
21EED
330
1F
100
AcDbEntity
  8
SKVIEW1
100
AcDbLine
 10
-70.02012990185616
 20
-7.537947000000023
 30
0.0
 11
-66.05012990185613
 21
-6.980000000000025
 31
0.0
  0
LINE
  5
21EEE
330
1F
100
AcDbEntity
  8
SKVIEW1
100
AcDbLine
 10
-70.02012990185616
 20
-7.780000000000022
 30
0.0
 11
-66.05012990185613
 21
-7.780000000000022
 31
0.0
  0
LINE
  5
21EEF
330
1F
100
AcDbEntity
  8
SKVIEW1
100
AcDbLine
 10
-70.02012990185616
 20
-14.20000000000004
 30
0.0
 11
-66.05012990185613
 21
-14.20000000000004
 31
0.0
  0
LINE
  5
21EF0
330
1F
100
AcDbEntity
  8
SKVIEW1
100
AcDbLine
 10
-70.02012990185616
 20
-14.44205300000003
 30
0.0
 11
-66.05012990185613
 21
-15.00000000000002
 31
0.0
  0
LINE
  5
21EF1
330
1F
100
AcDbEntity
  8
SKVIEW1
100
AcDbLine
 10
-66.05012990185613
 20
7.779999999999979
 30
0.0
 11
-66.05012990185613
 21
6.979999999999982
 31
0.0
  0
LINE
  5
21EF2
330
1F
100
AcDbEntity
  8
SKVIEW1
100
AcDbLine
 10
-66.05012990185613
 20
14.19999999999997
 30
0.0
 11
-66.05012990185613
 21
7.779999999999979
 31
0.0
  0
LINE
  5
21EF3
330
1F
100
AcDbEntity
  8
SKVIEW1
100
AcDbLine
 10
-66.05012990185613
 20
14.19999999999997
 30
0.0
 11
-66.05012990185613
 21
14.99999999999998
 31
0.0
  0
LINE
  5
21EF4
330
1F
100
AcDbEntity
  8
SKVIEW1
100
AcDbLine
 10
-62.08012990185611
 20
14.44205299999998
 30
0.0
 11
-62.08012990185611
 21
14.19999999999997
 31
0.0
  0
LINE
  5
21EF5
330
1F
100
AcDbEntity
  8
SKVIEW1
100
AcDbLine
 10
-62.08012990185611
 20
14.19999999999997
 30
0.0
 11
-62.08012990185611
 21
7.779999999999979
 31
0.0
  0
LINE
  5
21EF6
330
1F
100
AcDbEntity
  8
SKVIEW1
100
AcDbLine
 10
-62.08012990185611
 20
7.779999999999979
 30
0.0
 11
-62.08012990185611
 21
7.537946999999981
 31
0.0
  0
LINE
  5
21EF7
330
1F
100
AcDbEntity
  8
SKVIEW1
100
AcDbLine
 10
-62.08012990185611
 20
7.537946999999981
 30
0.0
 11
-66.05012990185613
 21
6.979999999999982
 31
0.0
  0
LINE
  5
21EF8
330
1F
100
AcDbEntity
  8
SKVIEW1
100
AcDbLine
 10
-62.08012990185611
 20
7.779999999999979
 30
0.0
 11
-66.05012990185613
 21
7.779999999999979
 31
0.0
  0
LINE
  5
21EF9
330
1F
100
AcDbEntity
  8
SKVIEW1
100
AcDbLine
 10
-62.08012990185611
 20
14.19999999999997
 30
0.0
 11
-66.05012990185613
 21
14.19999999999997
 31
0.0
  0
LINE
  5
21EFA
330
1F
100
AcDbEntity
  8
SKVIEW1
100
AcDbLine
 10
-62.08012990185611
 20
14.44205299999998
 30
0.0
 11
-66.05012990185613
 21
14.99999999999998
 31
0.0
  0
LINE
  5
21EFB
330
1F
100
AcDbEntity
  8
1
100
AcDbLine
 10
24.2000000000036
 20
8.450000000000017
 30
0.0
 11
25.00000000000378
 21
8.450000000000017
 31
0.0
  0
LINE
  5
21EFC
330
1F
100
AcDbEntity
  8
1
100
AcDbLine
 10
25.6581790000038
 20
8.070000000000028
 30
0.0
 11
25.00000000000378
 21
8.450000000000017
 31
0.0
  0
LINE
  5
21EFD
330
1F
100
AcDbEntity
  8
1
100
AcDbLine
 10
26.03428000000477
 20
5.937025999999917
 30
0.0
 11
25.6581790000038
 21
8.070000000000028
 31
0.0
  0
LINE
  5
21EFE
330
1F
100
AcDbEntity
  8
1
100
AcDbLine
 10
26.13929500000373
 20
5.341459999999962
 30
0.0
 11
26.03428000000477
 21
5.937025999999917
 31
0.0
  0
ARC
  5
21EFF
330
1F
100
AcDbEntity
  8
1
100
AcDbCircle
 10
29.34119200000478
 20
5.674007999999936
 30
0.0
 40
3.211
100
AcDbArc
 50
189.9999999999951
 51
203.8626189999992
  0
LINE
  5
21F00
330
1F
100
AcDbEntity
  8
1
100
AcDbLine
 10
26.17897400000371
 20
5.11642400000003
 30
0.0
 11
26.13929500000373
 21
5.341459999999962
 31
0.0
  0
LINE
  5
21F01
330
1F
100
AcDbEntity
  8
1
100
AcDbLine
 10
28.3400000000037
 20
-0.0000000000000213
 30
0.0
 11
26.40467500000378
 21
4.375013999999943
 31
0.0
  0
LINE
  5
21F02
330
1F
100
AcDbEntity
  8
1
100
AcDbLine
 10
24.2000000000036
 20
14.20000000000002
 30
0.0
 11
24.2000000000036
 21
8.450000000000017
 31
0.0
  0
ARC
  5
21F03
330
1F
100
AcDbEntity
  8
1
100
AcDbCircle
 10
23.40000000000364
 20
14.20000000000002
 30
0.0
 40
0.8
100
AcDbArc
 50
0.0
 51
90.0
  0
LINE
  5
21F04
330
1F
100
AcDbEntity
  8
1
100
AcDbLine
 10
16.9800000000038
 20
14.99999999999998
 30
0.0
 11
23.40000000000364
 21
14.99999999999998
 31
0.0
  0
ARC
  5
21F05
330
1F
100
AcDbEntity
  8
1
100
AcDbCircle
 10
16.9800000000038
 20
14.20000000000002
 30
0.0
 40
0.8
100
AcDbArc
 50
90.0
 51
180.0
  0
DIMENSION
  5
21F06
330
1F
100
AcDbEntity
  8
SK2
100
AcDbDimension
280
     0
  2
*D12
 10
-24.66620145057127
 20
-6.000000000000017
 30
0.0
 11
-24.66620145057127
 21
-0.2515372452565927
 31
0.0
 70
   160
  1
%%C<>
 71
     5
 42
12.0
 73
     0
 74
     0
 75
     0
  3
STANDARD
100
AcDbAlignedDimension
 13
-12.19999999999626
 23
5.999999999999978
 33
0.0
 14
-12.19999999999626
 24
-6.000000000000021
 34
0.0
 50
90.0
100
AcDbRotatedDimension
1001
ACAD_DSTYLE_DIMARC_LENGTH_SYMBOL
1070
   379
1070
     1
1001
ACAD_DSTYLE_DIM_LINETYPE
1070
   380
1005
14
1001
ACAD_DSTYLE_DIM_EXT1_LINETYPE
1070
   381
1005
14
1001
ACAD_DSTYLE_DIM_EXT2_LINETYPE
1070
   382
1005
14
1001
ACAD
1000
DSTYLE
1002
{
1070
   172
1070
     1
1002
}
  0
LWPOLYLINE
  5
22087
330
1F
100
AcDbEntity
  8
CUT
 48
0.240324
100
AcDbPolyline
 90
       18
 70
     1
 43
0.0
 10
26.40467443314572
 20
4.37501393553007
 42
-0.0605609620260573
 10
26.17897430508256
 20
5.1164237015116
 10
26.13929500000373
 20
5.341459999999976
 10
26.03428000000477
 20
5.937025999999981
 10
25.6581790000038
 20
8.069999999999978
 10
25.00000000000378
 20
8.449999999999967
 10
24.2000000000036
 20
8.449999999999981
 10
24.20000000000366
 20
14.19999999999997
 42
0.4142135623730951
 10
23.40000000000364
 20
14.99999999999998
 10
16.9800000000038
 20
14.99999999999996
 42
0.4142135623730951
 10
16.18000000000361
 20
14.19999999999997
 10
16.18000000000378
 20
7.779999999999979
 42
0.4142135623730951
 10
16.9800000000038
 20
6.979999999999982
 10
19.04000000000465
 20
6.979999999999982
 10
19.04000000000374
 20
6.40719199999998
 10
19.04000000000374
 20
2.791749000000017
 10
19.04000000000374
 20
-0.0000000000000213
 10
28.3400000000037
 20
-0.0000000000000213
  0
LWPOLYLINE
  5
2209F
330
1F
100
AcDbEntity
  8
NOCUT
100
AcDbPolyline
 90
        9
 70
     1
 43
0.0
 10
-12.19999999999626
 20
-0.0000000000000213
 10
23.2000000000036
 20
-0.0000000000000213
 10
23.2000000000036
 20
7.071526999999981
 10
23.2000000000036
 20
14.74999999999996
 10
0.0000000000046896
 20
14.74999999999996
 10
0.0000000000046896
 20
7.071526999999981
 10
0.0000000000046896
 20
5.999999999999978
 10
-12.19999999999626
 20
5.999999999999978
 10
-12.19999999999626
 20
2.876552999999979
  0
LINE
  5
220A8
330
1F
100
AcDbEntity
  8
4
100
AcDbLine
 10
0.0
 20
0.0
 30
0.0
 11
32.68493404932261
 21
-0.0000000000000213
 31
0.0
  0
VIEWPORT
  5
9C00
330
1B
100
AcDbEntity
 67
     1
  8
0
348
3195
100
AcDbViewport
 10
108.2280559557949
 20
71.69854161746989
 30
0.0
 40
251.8950231529317
 41
201.8884082081047
 68
     1
 69
     1
 12
108.2280559557949
 22
71.69854161746989
 13
0.0
 23
0.0
 14
10.0
 24
10.0
 15
10.0
 25
10.0
 16
0.0
 26
0.0
 36
1.0
 17
0.0
 27
0.0
 37
0.0
 42
50.0
 43
0.0
 44
0.0
 45
201.8884082081047
 50
0.0
 51
0.0
 72
   100
 90
   557088
  1

281
     0
 71
     1
 74
     0
110
0.0
120
0.0
130
0.0
111
1.0
121
0.0
131
0.0
112
0.0
122
1.0
132
0.0
 79
     0
146
0.0
170
     0
 61
     5
292
     1
282
     1
141
0.0
142
0.0
 63
   250
421
  3355443
  0
VIEWPORT
  5
9C02
330
1B
100
AcDbEntity
 67
     1
  8
1
348
3195
100
AcDbViewport
 10
143.457083940506
 20
98.18158769607544
 30
0.0
 40
229.5313343048095
 41
157.0905403137207
 68
     2
 69
     2
 12
-44.37697124786255
 22
-35.12342998133886
 13
0.0
 23
0.0
 14
10.0
 24
10.0
 15
10.0
 25
10.0
 16
0.0
 26
0.0
 36
1.0
 17
0.0
 27
0.0
 37
0.0
 42
50.0
 43
0.0
 44
0.0
 45
300.3886240724386
 50
0.0
 51
0.0
 72
   100
 90
   557088
  1

281
     0
 71
     1
 74
     0
110
0.0
120
0.0
130
0.0
111
1.0
121
0.0
131
0.0
112
0.0
122
1.0
132
0.0
 79
     0
146
0.0
170
     0
 61
     5
348
3195
292
     1
282
     1
141
0.0
142
0.0
 63
   250
421
  3355443
  0
ENDSEC
  0
SECTION
  2
OBJECTS
  0
DICTIONARY
  5
3182
330
0
100
AcDbDictionary
281
     1
  3
ACAD_CIP_PREVIOUS_PRODUCT_INFO
350
1B2F4
  3
ACAD_COLOR
350
31A0
  3
ACAD_DETAILVIEWSTYLE
350
1B2F0
  3
ACAD_FIELDLIST
350
20CBF
  3
ACAD_GROUP
350
3183
  3
ACAD_LAYOUT
350
31A5
  3
ACAD_MATERIAL
350
318B
  3
ACAD_MLEADERSTYLE
350
1B221
  3
ACAD_MLINESTYLE
350
3184
  3
ACAD_PLOTSETTINGS
350
31A4
  3
ACAD_PLOTSTYLENAME
350
3189
  3
ACAD_SCALELIST
350
1B1FC
  3
ACAD_SECTIONVIEWSTYLE
350
1B2EE
  3
ACAD_TABLESTYLE
350
31A1
  3
ACAD_VISUALSTYLE
350
318F
  3
ACDB_RECOMPOSE_DATA
350
220D9
  3
AcDbVariableDictionary
350
33A3
  0
DICTIONARY
  5
422A
330
2
100
AcDbDictionary
280
     1
281
     1
  3
ACAD_LAYERFILTERS
360
1B063
  3
ACAD_LAYERSTATES
360
9A1C
  3
ACLYDICTIONARY
360
1B062
  0
DICTIONARY
  5
1B2F5
330
10
100
AcDbDictionary
280
     1
281
     1
  3
ADSK_XREC_LAYER_RECONCILED
360
21B8E
  0
DICTIONARY
  5
1B2F7
330
3F8C
100
AcDbDictionary
280
     1
281
     1
  3
ADSK_XREC_LAYER_RECONCILED
360
21B8F
  0
DICTIONARY
  5
1B2F9
330
9C4A
100
AcDbDictionary
280
     1
281
     1
  3
ADSK_XREC_LAYER_RECONCILED
360
21B90
  0
DICTIONARY
  5
1B2FB
330
9C4B
100
AcDbDictionary
280
     1
281
     1
  3
ADSK_XREC_LAYER_RECONCILED
360
21B91
  0
DICTIONARY
  5
1B2FD
330
9C4D
100
AcDbDictionary
280
     1
281
     1
  3
ADSK_XREC_LAYER_RECONCILED
360
21B92
  0
DICTIONARY
  5
1B2FF
330
9C4E
100
AcDbDictionary
280
     1
281
     1
  3
ADSK_XREC_LAYER_RECONCILED
360
21B93
  0
DICTIONARY
  5
1B301
330
9C4F
100
AcDbDictionary
280
     1
281
     1
  3
ADSK_XREC_LAYER_RECONCILED
360
21B94
  0
DICTIONARY
  5
1B303
330
9C50
100
AcDbDictionary
280
     1
281
     1
  3
ADSK_XREC_LAYER_RECONCILED
360
21B95
  0
DICTIONARY
  5
1B305
330
9C51
100
AcDbDictionary
280
     1
281
     1
  3
ADSK_XREC_LAYER_RECONCILED
360
21B96
  0
DICTIONARY
  5
1B307
330
13335
100
AcDbDictionary
280
     1
281
     1
  3
ADSK_XREC_LAYER_RECONCILED
360
21B97
  0
DICTIONARY
  5
1B309
330
1686E
100
AcDbDictionary
280
     1
281
     1
  3
ADSK_XREC_LAYER_RECONCILED
360
21B98
  0
DICTIONARY
  5
339C
330
1F
100
AcDbDictionary
280
     1
281
     1
  3
ACAD_SORTENTS
360
339D
  0
DICTIONARY
  5
1DE81
330
1B3D7
100
AcDbDictionary
280
     1
281
     1
  0
XRECORD
  5
1B2F4
102
{ACAD_REACTORS
330
3182
102
}
330
3182
100
AcDbXrecord
280
     1
300
ACDLT
300
2015
300
ACDLT_F_S
  0
DICTIONARY
  5
31A0
102
{ACAD_REACTORS
330
3182
102
}
330
3182
100
AcDbDictionary
281
     1
  0
DICTIONARY
  5
1B2F0
102
{ACAD_REACTORS
330
3182
102
}
330
3182
100
AcDbDictionary
281
     1
  3
Imperial24
350
20CB3
  3
Metric50
350
1B2F1
  0
FIELDLIST
  5
20CBF
102
{ACAD_REACTORS
330
3182
102
}
330
3182
100
AcDbIdSet
 90
        0
100
AcDbFieldList
  0
DICTIONARY
  5
3183
102
{ACAD_REACTORS
330
3182
102
}
330
3182
100
AcDbDictionary
281
     1
  0
DICTIONARY
  5
31A5
102
{ACAD_REACTORS
330
3182
102
}
330
3182
100
AcDbDictionary
281
     1
  3
Layout1
350
31A7
  3
Model
350
31A6
  0
DICTIONARY
  5
318B
102
{ACAD_REACTORS
330
3182
102
}
330
3182
100
AcDbDictionary
281
     1
  3
ByBlock
350
318D
  3
ByLayer
350
318C
  3
Global
350
318E
  0
DICTIONARY
  5
1B221
102
{ACAD_REACTORS
330
3182
102
}
330
3182
100
AcDbDictionary
281
     1
  3
Standard
350
1B2ED
  0
DICTIONARY
  5
3184
102
{ACAD_REACTORS
330
3182
102
}
330
3182
100
AcDbDictionary
281
     1
  3
STANDARD
350
3185
  0
DICTIONARY
  5
31A4
102
{ACAD_REACTORS
330
3182
102
}
330
3182
100
AcDbDictionary
281
     1
  0
ACDBDICTIONARYWDFLT
  5
3189
102
{ACAD_REACTORS
330
3182
102
}
330
3182
100
AcDbDictionary
281
     1
  3
Normal
350
318A
100
AcDbDictionaryWithDefault
340
318A
  0
DICTIONARY
  5
1B1FC
102
{ACAD_REACTORS
330
3182
102
}
330
3182
100
AcDbDictionary
281
     1
  3
A0
350
1B1FD
  3
A1
350
1B1FE
  3
A2
350
1B1FF
  3
A3
350
1B200
  3
A4
350
1B201
  3
A5
350
1B202
  3
A6
350
1B203
  3
A7
350
1B204
  3
A8
350
1B205
  3
A9
350
1B206
  3
B0
350
1B207
  3
B1
350
1B208
  3
B2
350
1B209
  3
B3
350
1B20A
  3
B4
350
1B20B
  3
B5
350
1B20C
  3
B6
350
1B20D
  3
B7
350
1B20E
  3
B8
350
1B20F
  3
B9
350
1B210
  3
C0
350
1B211
  3
C1
350
1B212
  3
C2
350
1B213
  3
C3
350
1B214
  3
C4
350
1B215
  3
C5
350
1B216
  3
C6
350
1B217
  3
C7
350
1B218
  3
C8
350
1B219
  3
C9
350
1B21A
  3
D0
350
1B21B
  3
D1
350
1B21C
  3
D2
350
1B21D
  0
DICTIONARY
  5
1B2EE
102
{ACAD_REACTORS
330
3182
102
}
330
3182
100
AcDbDictionary
281
     1
  3
Imperial24
350
20CB1
  3
Metric50
350
1B2EF
  0
DICTIONARY
  5
31A1
102
{ACAD_REACTORS
330
3182
102
}
330
3182
100
AcDbDictionary
281
     1
  3
Standard
350
31A2
  0
DICTIONARY
  5
318F
102
{ACAD_REACTORS
330
3182
102
}
330
3182
100
AcDbDictionary
281
     1
  3
2dWireframe
350
3195
  3
3D Hidden
350
3197
  3
3dWireframe
350
3196
  3
Basic
350
3194
  3
Brighten
350
319B
  3
ColorChange
350
319F
  3
Conceptual
350
3198
  3
Dim
350
319A
  3
EdgeColorOff
350
1B2EC
  3
Facepattern
350
319E
  3
Flat
350
3190
  3
FlatWithEdges
350
3191
  3
Gouraud
350
3192
  3
GouraudWithEdges
350
3193
  3
Hidden
350
1B2E4
  3
JitterOff
350
1B2EA
  3
Linepattern
350
319D
  3
OverhangOff
350
1B2EB
  3
Realistic
350
3199
  3
Shaded
350
1B2E9
  3
Shaded with edges
350
1B2E8
  3
Shades of Gray
350
1B2E5
  3
Sketchy
350
1B2E6
  3
Thicken
350
319C
  3
Wireframe
350
1B2E3
  3
X-Ray
350
1B2E7
  0
XRECORD
  5
220D9
102
{ACAD_REACTORS
330
3182
102
}
330
3182
100
AcDbXrecord
280
     1
 90
        1
330
31A2
  0
DICTIONARY
  5
33A3
102
{ACAD_REACTORS
330
3182
102
}
330
3182
100
AcDbDictionary
281
     1
  3
CANNOSCALE
350
1B222
  3
CMLEADERSTYLE
350
1B30F
  3
CTABLESTYLE
350
33A4
  3
CVIEWDETAILSTYLE
350
1B310
  3
CVIEWSECTIONSTYLE
350
1B311
  3
DIMASSOC
350
9BE8
  3
INDEXCTL
350
9BE7
  3
LAYEREVAL
350
20993
  3
LAYERNOTIFY
350
20994
  3
LIGHTINGUNITS
350
20992
  3
MSLTSCALE
350
20991
  3
SORTENTS
350
9BE6
  0
DICTIONARY
  5
1B063
102
{ACAD_REACTORS
330
422A
102
}
330
422A
100
AcDbDictionary
281
     1
  0
DICTIONARY
  5
9A1C
102
{ACAD_REACTORS
330
422A
102
}
330
422A
100
AcDbDictionary
281
     1
  0
DICTIONARY
  5
1B062
102
{ACAD_REACTORS
330
422A
102
}
330
422A
100
AcDbDictionary
281
     1
1001
ACAD
1000
<All
  0
XRECORD
  5
21B8E
102
{ACAD_REACTORS
330
1B2F5
102
}
330
1B2F5
100
AcDbXrecord
280
     1
290
     1
  0
XRECORD
  5
21B8F
102
{ACAD_REACTORS
330
1B2F7
102
}
330
1B2F7
100
AcDbXrecord
280
     1
290
     1
  0
XRECORD
  5
21B90
102
{ACAD_REACTORS
330
1B2F9
102
}
330
1B2F9
100
AcDbXrecord
280
     1
290
     1
  0
XRECORD
  5
21B91
102
{ACAD_REACTORS
330
1B2FB
102
}
330
1B2FB
100
AcDbXrecord
280
     1
290
     1
  0
XRECORD
  5
21B92
102
{ACAD_REACTORS
330
1B2FD
102
}
330
1B2FD
100
AcDbXrecord
280
     1
290
     1
  0
XRECORD
  5
21B93
102
{ACAD_REACTORS
330
1B2FF
102
}
330
1B2FF
100
AcDbXrecord
280
     1
290
     1
  0
XRECORD
  5
21B94
102
{ACAD_REACTORS
330
1B301
102
}
330
1B301
100
AcDbXrecord
280
     1
290
     1
  0
XRECORD
  5
21B95
102
{ACAD_REACTORS
330
1B303
102
}
330
1B303
100
AcDbXrecord
280
     1
290
     1
  0
XRECORD
  5
21B96
102
{ACAD_REACTORS
330
1B305
102
}
330
1B305
100
AcDbXrecord
280
     1
290
     1
  0
XRECORD
  5
21B97
102
{ACAD_REACTORS
330
1B307
102
}
330
1B307
100
AcDbXrecord
280
     1
290
     1
  0
XRECORD
  5
21B98
102
{ACAD_REACTORS
330
1B309
102
}
330
1B309
100
AcDbXrecord
280
     1
290
     1
  0
SORTENTSTABLE
  5
339D
102
{ACAD_REACTORS
330
339C
102
}
330
339C
100
AcDbSortentsTable
330
1F
331
21EB0
  5
21ECC
331
21E18
  5
21E21
331
21EA1
  5
21EBD
331
21E09
  5
21E12
331
21EFA
  5
22096
331
21EEB
  5
22087
331
21E92
  5
21EAE
331
21EDC
  5
21EF8
331
21E83
  5
21E9F
331
21E65
  5
21E78
331
21DFA
  5
21DFD
331
21E52
  5
21E5E
331
21E43
  5
21E4F
331
21ECC
  5
21EE8
331
21E34
  5
21E40
331
21EBD
  5
21ED9
331
21E25
  5
21E31
331
21EAE
  5
21ECA
331
21E16
  5
21E1F
331
21E9F
  5
21EBB
331
21E07
  5
21E10
331
21DEE
  5
21DEE
331
21E60
  5
21E73
331
21E5C
  5
21E68
331
21E4D
  5
21E59
331
21ED6
  5
21EF2
331
21E3E
  5
21E4A
331
21EC7
  5
21EE3
331
21E2F
  5
21E3B
331
21EB8
  5
21ED4
331
21E20
  5
21E2B
331
21EA9
  5
21EC5
331
21E11
  5
21E1A
331
21F02
  5
220A4
331
21E9A
  5
21EB6
331
21E02
  5
21E08
331
21EF3
  5
2208F
331
21EE4
  5
21F00
331
21E8B
  5
21EA7
331
21E7C
  5
21E98
331
21DF3
  5
21DF3
331
21E48
  5
21E54
331
21ED1
  5
21EED
331
21E39
  5
21E45
331
21EC2
  5
21EDE
331
21E2A
  5
21E36
331
21EB3
  5
21ECF
331
21E1B
  5
21E24
331
21EA4
  5
21EC0
331
21E0C
  5
21E18
331
21EFD
  5
2209F
331
21EEE
  5
2208A
331
21E95
  5
21EB1
331
21DFD
  5
21E03
331
21EDF
  5
21EFB
331
22087
  5
21E95
331
21E86
  5
21EA2
331
21E55
  5
21E61
331
21E46
  5
21E52
331
21ECF
  5
21EEB
331
21E37
  5
21E43
331
21E68
  5
21E7B
331
21EF8
  5
22094
331
21EE9
  5
21F05
331
21E90
  5
21EAC
331
21EDA
  5
21EF6
331
21E81
  5
21E9D
331
21E63
  5
21E76
331
21E5F
  5
21E6F
331
21E50
  5
21E5C
331
21E41
  5
21E4D
331
21ECA
  5
21EE6
331
21E32
  5
21E3E
331
21EBB
  5
21ED7
331
21E23
  5
21E2F
331
21EAC
  5
21EC8
331
21E14
  5
21E1D
331
21F05
  5
220A7
331
21E9D
  5
21EB9
331
21E05
  5
21E0B
331
21EF6
  5
22092
331
21EE7
  5
21F03
331
21E8E
  5
21EAA
331
21E7F
  5
21E9B
331
21DF6
  5
21DF6
331
21DEC
  5
21DEC
331
21E5A
  5
21E66
331
21E4B
  5
21E57
331
21ED4
  5
21EF0
331
21E3C
  5
21E48
331
21EC5
  5
21EE1
331
21E2D
  5
21E39
331
21EB6
  5
21ED2
331
21F00
  5
220A2
331
21EA7
  5
21EC3
331
21E1E
  5
21E27
331
220A8
  5
21E8D
331
21E98
  5
21EB4
331
21EF1
  5
2208D
331
21EE2
  5
21EFE
331
21E89
  5
21EA5
331
21DF1
  5
21DF1
331
21EC0
  5
21EDC
331
21EB1
  5
21ECD
331
21E19
  5
21E22
331
21EFB
  5
22097
331
21EA2
  5
21EBE
331
21EEC
  5
22088
331
21E93
  5
21EAF
331
21E0A
  5
21E13
331
21EDD
  5
21EF9
331
21E66
  5
21E79
331
21E84
  5
21EA0
331
21E53
  5
21E5F
331
21E44
  5
21E50
331
21ECD
  5
21EE9
331
21E35
  5
21E41
331
21EBE
  5
21EDA
331
21E26
  5
21E32
331
21EAF
  5
21ECB
331
21E17
  5
21E20
331
21DEF
  5
21DEF
331
21ED8
  5
21EF4
331
21E61
  5
21E74
331
21E5D
  5
21E69
331
21E4E
  5
21E5A
331
21ED7
  5
21EF3
331
21E3F
  5
21E4B
331
21EC8
  5
21EE4
331
21E30
  5
21E3C
331
21EB9
  5
21ED5
331
21E21
  5
21E2D
331
21EAA
  5
21EC6
331
21E12
  5
21E1B
331
21F03
  5
220A5
331
21E9B
  5
21EB7
331
21E03
  5
21E09
331
21EF4
  5
22090
331
21EE5
  5
21F01
331
21E8C
  5
21EA8
331
21E7D
  5
21E99
331
21DF4
  5
21DF4
331
21DEA
  5
21DEA
331
21E58
  5
21E64
331
21E49
  5
21E55
331
21ED2
  5
21EEE
331
21E3A
  5
21E46
331
21EC3
  5
21EDF
331
21E2B
  5
21E38
331
21EB4
  5
21ED0
331
21EA5
  5
21EC1
331
21E1C
  5
21E25
331
21EFE
  5
220A0
331
21EEF
  5
2208B
331
21E96
  5
21EB2
331
21DFE
  5
21E04
331
21E87
  5
21EA3
331
21EE0
  5
21EFC
331
21E69
  5
21E7C
331
21E56
  5
21E62
331
21E47
  5
21E53
331
211A0
  5
211A0
331
21EF9
  5
22095
331
21EA0
  5
21EBC
331
21EEA
  5
21F06
331
21E91
  5
21EAD
331
21E08
  5
21E11
331
21EDB
  5
21EF7
331
21E82
  5
21E9E
331
21E64
  5
21E77
331
21E51
  5
21E5D
331
21E42
  5
21E4E
331
21ECB
  5
21EE7
331
21E33
  5
21E3F
331
21EBC
  5
21ED8
331
21E24
  5
21E30
331
21EAD
  5
21EC9
331
21E15
  5
21E1E
331
21F06
  5
220A8
331
21E9E
  5
21EBA
331
21E06
  5
21E0C
331
21EF7
  5
22093
331
21E8F
  5
21EAB
331
2209F
  5
21E96
331
21DF7
  5
21DF7
331
21DED
  5
21DED
331
21E5B
  5
21E67
331
21E4C
  5
21E58
331
21ED5
  5
21EF1
331
21E3D
  5
21E49
331
21EC6
  5
21EE2
331
21E2E
  5
21E3A
331
21EB7
  5
21ED3
331
21E1F
  5
21E2A
331
21F01
  5
220A3
331
21EA8
  5
21EC4
331
21E99
  5
21EB5
331
21E10
  5
21E19
331
21EF2
  5
2208E
331
21EE3
  5
21EFF
331
21E8A
  5
21EA6
331
21E7B
  5
21E97
331
21DF2
  5
21DF2
331
21DE6
  5
21DE6
331
21ED0
  5
21EEC
331
21EC1
  5
21EDD
331
21E38
  5
21E44
331
21EB2
  5
21ECE
331
21E1A
  5
21E23
331
21EFC
  5
22098
331
21EA3
  5
21EBF
331
21E0B
  5
21E14
331
21EED
  5
22089
331
21EDE
  5
21EFA
331
21E85
  5
21EA1
331
21E67
  5
21E7A
331
21E94
  5
21EB0
331
21E45
  5
21E51
331
21ECE
  5
21EEA
331
21E36
  5
21E42
331
21EBF
  5
21EDB
331
21E27
  5
21E35
331
21E54
  5
21E60
331
21EE8
  5
21F04
331
21ED9
  5
21EF5
331
21E80
  5
21E9C
331
21E62
  5
21E75
331
21E5E
  5
21E6A
331
21E4F
  5
21E5B
331
21E40
  5
21E4C
331
21EC9
  5
21EE5
331
21E31
  5
21E3D
331
21EBA
  5
21ED6
331
21E22
  5
21E2E
331
21EAB
  5
21EC7
331
21E13
  5
21E1C
331
21F04
  5
220A6
331
21E9C
  5
21EB8
331
21E04
  5
21E0A
331
21EF5
  5
22091
331
21EE6
  5
21F02
331
21E8D
  5
21EA9
331
21E7E
  5
21E9A
331
21E6F
  5
21E84
331
21DF5
  5
21DF5
331
21DEB
  5
21DEB
331
21E59
  5
21E65
331
21E4A
  5
21E56
331
21ED3
  5
21EEF
331
21EC4
  5
21EE0
331
21E3B
  5
21E47
331
21EB5
  5
21ED1
331
21EA6
  5
21EC2
331
21E1D
  5
21E26
331
21EFF
  5
220A1
331
21E97
  5
21EB3
331
21DFF
  5
21E07
331
21EF0
  5
2208C
331
21EE1
  5
21EFD
331
21E88
  5
21EA4
331
21E6A
  5
21E81
331
21E57
  5
21E63
331
21DF0
  5
21DF0
  0
ACDBDETAILVIEWSTYLE
  5
20CB3
102
{ACAD_XDICTIONARY
360
22114
102
}
102
{ACAD_REACTORS
330
1B2F0
102
}
330
1B2F0
100
AcDbModelDocViewStyle
 70
     0
  3
Imperial24
290
     0
100
AcDbDetailViewStyle
 70
     0
 71
     0
 90
        3
 71
     1
340
11
 62
   256
 40
0.24
340
0
 62
   256
 40
0.24
300

 40
0.36
280
     3
 71
     2
340
16
 90
       25
 62
   256
 71
     3
340
11
 62
   256
 40
0.24
 90
        1
 40
0.75
 90
        1
300
%<\AcVar ViewType \f "%tc1">% %<\AcVar ViewDetailId>%\PVARIA %<\AcVar ViewScale \f "%sn">%
 71
     4
340
16
 90
       25
 62
   256
340
16
 90
       25
 62
   256
280
     0
  0
ACDBDETAILVIEWSTYLE
  5
1B2F1
102
{ACAD_XDICTIONARY
360
22110
102
}
102
{ACAD_REACTORS
330
1B2F0
102
}
330
1B2F0
100
AcDbModelDocViewStyle
 70
     0
  3
Metric50
290
     0
100
AcDbDetailViewStyle
 70
     0
 71
     0
 90
        3
 71
     1
340
11
 62
   256
 40
5.0
340
0
 62
   256
 40
5.0
300

 40
0.0
280
     1
 71
     2
340
16
 90
       25
 62
   256
 71
     3
340
11
 62
   256
 40
5.0
 90
        0
 40
15.0
 90
        1
300
%<\AcVar ViewDetailId>% (%<\AcVar ViewScale \f "%sn">%)
 71
     4
340
16
 90
       25
 62
   256
340
16
 90
       25
 62
   256
280
     0
  0
LAYOUT
  5
31A7
102
{ACAD_REACTORS
330
31A5
102
}
330
31A5
100
AcDbPlotSettings
  1

  2
\\ingdc01\ITB3
  4
A4
  6

 40
6.805083274841307
 41
5.027085781097412
 42
6.805068969726562
 43
5.027069091796875
 44
209.9733276367186
 45
296.9683227539062
 46
0.0
 47
0.0
 48
0.0
 49
0.0
140
0.0
141
0.0
142
1.0
143
1.0
 70
   688
 72
     1
 73
     1
 74
     5
  7

 75
    16
147
1.0
 76
     0
 77
     2
 78
   300
148
0.0
149
0.0
100
AcDbLayout
  1
Layout1
 70
     1
 71
     1
 10
-5.027069091796875
 20
-6.805083274841307
 11
291.9412536621094
 21
203.1682443618775
 12
0.0
 22
0.0
 32
0.0
 14
28.69141678810127
 24
19.6363175392151
 34
0.0
 15
258.2227510929107
 25
176.7268578529358
 35
0.0
146
0.0
 13
0.0
 23
0.0
 33
0.0
 16
1.0
 26
0.0
 36
0.0
 17
0.0
 27
1.0
 37
0.0
 76
     0
330
1B
331
9C00
1001
ACAD_PSEXT
1000
\\ingdc01\ITB3
1000
HP LaserJet 5000 Series PCL
1000
TB
1000

1070
     0
  0
LAYOUT
  5
31A6
102
{ACAD_REACTORS
330
31A5
102
}
330
31A5
100
AcDbPlotSettings
  1

  2
\\ingdc01\ITB3
  4
A4
  6

 40
6.805083274841307
 41
5.027085781097412
 42
6.805068969726562
 43
5.027069091796875
 44
209.9733276367186
 45
296.9683227539062
 46
0.0
 47
0.0
 48
0.0
 49
0.0
140
0.0
141
0.0
142
1.0
143
1.500313223655698
 70
 11952
 72
     1
 73
     1
 74
     0
  7

 75
     0
147
0.6665274852163048
 76
     0
 77
     2
 78
   300
148
239.0155119930048
149
102.2558208723354
100
AcDbLayout
  1
Model
 70
     1
 71
     0
 10
0.0
 20
0.0
 11
12.0
 21
9.0
 12
0.0
 22
0.0
 32
0.0
 14
0.0
 24
0.0
 34
0.0
 15
0.0
 25
0.0
 35
0.0
146
0.0
 13
0.0
 23
0.0
 33
0.0
 16
1.0
 26
0.0
 36
0.0
 17
0.0
 27
1.0
 37
0.0
 76
     0
330
1F
331
1F4
1001
ACAD_PSEXT
1000
\\ingdc01\ITB3
1000
HP LaserJet 5000 Series PCL
1000
TB
1000

1070
     0
  0
MATERIAL
  5
318D
102
{ACAD_XDICTIONARY
360
1B22B
102
}
102
{ACAD_REACTORS
330
318B
102
}
330
318B
100
AcDbMaterial
  1
ByBlock
  0
MATERIAL
  5
318C
102
{ACAD_XDICTIONARY
360
1B22D
102
}
102
{ACAD_REACTORS
330
318B
102
}
330
318B
100
AcDbMaterial
  1
ByLayer
  0
MATERIAL
  5
318E
102
{ACAD_XDICTIONARY
360
1B22F
102
}
102
{ACAD_REACTORS
330
318B
102
}
330
318B
100
AcDbMaterial
  1
Global
  0
MLEADERSTYLE
  5
1B2ED
102
{ACAD_REACTORS
330
1B221
102
}
330
1B221
100
AcDbMLeaderStyle
179
     2
170
     2
171
     1
172
     0
 90
        2
 40
0.0
 41
0.0
173
     1
 91
-1056964608
340
14
 92
       -2
290
     1
 42
2.0
291
     1
 43
0.36
  3
Standard
 44
4.0
300

342
11
174
     1
178
     6
175
     1
176
     0
 93
-1056964608
 45
4.0
292
     0
297
     0
 46
4.0
 94
-1056964608
 47
1.0
 49
1.0
140
1.0
293
     1
141
0.0
294
     1
177
     0
142
1.0
295
     0
296
     0
143
0.125
271
     0
272
     9
273
     9
1001
ACAD_MLEADERVER
1070
     2
  0
MLINESTYLE
  5
3185
102
{ACAD_REACTORS
330
3184
102
}
330
3184
100
AcDbMlineStyle
  2
STANDARD
 70
     0
  3

 62
   256
 51
90.0
 52
90.0
 71
     2
 49
0.5
 62
   256
  6
BYLAYER
 49
-0.5
 62
   256
  6
BYLAYER
  0
ACDBPLACEHOLDER
  5
318A
102
{ACAD_REACTORS
330
3189
102
}
330
3189
  0
SCALE
  5
1B1FD
102
{ACAD_REACTORS
330
1B1FC
102
}
330
1B1FC
100
AcDbScale
 70
     0
300
1:1
140
1.0
141
1.0
290
     1
1001
ACAD
1000
AcRTDxfName
1000
SCALE
  0
SCALE
  5
1B1FE
102
{ACAD_REACTORS
330
1B1FC
102
}
330
1B1FC
100
AcDbScale
 70
     0
300
1:2
140
1.0
141
2.0
290
     0
1001
ACAD
1000
AcRTDxfName
1000
SCALE
  0
SCALE
  5
1B1FF
102
{ACAD_REACTORS
330
1B1FC
102
}
330
1B1FC
100
AcDbScale
 70
     0
300
1:4
140
1.0
141
4.0
290
     0
1001
ACAD
1000
AcRTDxfName
1000
SCALE
  0
SCALE
  5
1B200
102
{ACAD_REACTORS
330
1B1FC
102
}
330
1B1FC
100
AcDbScale
 70
     0
300
1:5
140
1.0
141
5.0
290
     0
1001
ACAD
1000
AcRTDxfName
1000
SCALE
  0
SCALE
  5
1B201
102
{ACAD_REACTORS
330
1B1FC
102
}
330
1B1FC
100
AcDbScale
 70
     0
300
1:8
140
1.0
141
8.0
290
     0
1001
ACAD
1000
AcRTDxfName
1000
SCALE
  0
SCALE
  5
1B202
102
{ACAD_REACTORS
330
1B1FC
102
}
330
1B1FC
100
AcDbScale
 70
     0
300
1:10
140
1.0
141
10.0
290
     0
1001
ACAD
1000
AcRTDxfName
1000
SCALE
  0
SCALE
  5
1B203
102
{ACAD_REACTORS
330
1B1FC
102
}
330
1B1FC
100
AcDbScale
 70
     0
300
1:16
140
1.0
141
16.0
290
     0
1001
ACAD
1000
AcRTDxfName
1000
SCALE
  0
SCALE
  5
1B204
102
{ACAD_REACTORS
330
1B1FC
102
}
330
1B1FC
100
AcDbScale
 70
     0
300
1:20
140
1.0
141
20.0
290
     0
1001
ACAD
1000
AcRTDxfName
1000
SCALE
  0
SCALE
  5
1B205
102
{ACAD_REACTORS
330
1B1FC
102
}
330
1B1FC
100
AcDbScale
 70
     0
300
1:30
140
1.0
141
30.0
290
     0
1001
ACAD
1000
AcRTDxfName
1000
SCALE
  0
SCALE
  5
1B206
102
{ACAD_REACTORS
330
1B1FC
102
}
330
1B1FC
100
AcDbScale
 70
     0
300
1:40
140
1.0
141
40.0
290
     0
1001
ACAD
1000
AcRTDxfName
1000
SCALE
  0
SCALE
  5
1B207
102
{ACAD_REACTORS
330
1B1FC
102
}
330
1B1FC
100
AcDbScale
 70
     0
300
1:50
140
1.0
141
50.0
290
     0
1001
ACAD
1000
AcRTDxfName
1000
SCALE
  0
SCALE
  5
1B208
102
{ACAD_REACTORS
330
1B1FC
102
}
330
1B1FC
100
AcDbScale
 70
     0
300
1:100
140
1.0
141
100.0
290
     0
1001
ACAD
1000
AcRTDxfName
1000
SCALE
  0
SCALE
  5
1B209
102
{ACAD_REACTORS
330
1B1FC
102
}
330
1B1FC
100
AcDbScale
 70
     0
300
2:1
140
2.0
141
1.0
290
     0
1001
ACAD
1000
AcRTDxfName
1000
SCALE
  0
SCALE
  5
1B20A
102
{ACAD_REACTORS
330
1B1FC
102
}
330
1B1FC
100
AcDbScale
 70
     0
300
4:1
140
4.0
141
1.0
290
     0
1001
ACAD
1000
AcRTDxfName
1000
SCALE
  0
SCALE
  5
1B20B
102
{ACAD_REACTORS
330
1B1FC
102
}
330
1B1FC
100
AcDbScale
 70
     0
300
8:1
140
8.0
141
1.0
290
     0
1001
ACAD
1000
AcRTDxfName
1000
SCALE
  0
SCALE
  5
1B20C
102
{ACAD_REACTORS
330
1B1FC
102
}
330
1B1FC
100
AcDbScale
 70
     0
300
10:1
140
10.0
141
1.0
290
     0
1001
ACAD
1000
AcRTDxfName
1000
SCALE
  0
SCALE
  5
1B20D
102
{ACAD_REACTORS
330
1B1FC
102
}
330
1B1FC
100
AcDbScale
 70
     0
300
100:1
140
100.0
141
1.0
290
     0
1001
ACAD
1000
AcRTDxfName
1000
SCALE
  0
SCALE
  5
1B20E
102
{ACAD_REACTORS
330
1B1FC
102
}
330
1B1FC
100
AcDbScale
 70
     0
300
1/128" = 1'-0"
140
0.0078125
141
12.0
290
     0
1001
ACAD
1000
AcRTDxfName
1000
SCALE
  0
SCALE
  5
1B20F
102
{ACAD_REACTORS
330
1B1FC
102
}
330
1B1FC
100
AcDbScale
 70
     0
300
1/64" = 1'-0"
140
0.015625
141
12.0
290
     0
1001
ACAD
1000
AcRTDxfName
1000
SCALE
  0
SCALE
  5
1B210
102
{ACAD_REACTORS
330
1B1FC
102
}
330
1B1FC
100
AcDbScale
 70
     0
300
1/32" = 1'-0"
140
0.03125
141
12.0
290
     0
1001
ACAD
1000
AcRTDxfName
1000
SCALE
  0
SCALE
  5
1B211
102
{ACAD_REACTORS
330
1B1FC
102
}
330
1B1FC
100
AcDbScale
 70
     0
300
1/16" = 1'-0"
140
0.0625
141
12.0
290
     0
1001
ACAD
1000
AcRTDxfName
1000
SCALE
  0
SCALE
  5
1B212
102
{ACAD_REACTORS
330
1B1FC
102
}
330
1B1FC
100
AcDbScale
 70
     0
300
3/32" = 1'-0"
140
0.09375
141
12.0
290
     0
1001
ACAD
1000
AcRTDxfName
1000
SCALE
  0
SCALE
  5
1B213
102
{ACAD_REACTORS
330
1B1FC
102
}
330
1B1FC
100
AcDbScale
 70
     0
300
1/8" = 1'-0"
140
0.125
141
12.0
290
     0
1001
ACAD
1000
AcRTDxfName
1000
SCALE
  0
SCALE
  5
1B214
102
{ACAD_REACTORS
330
1B1FC
102
}
330
1B1FC
100
AcDbScale
 70
     0
300
3/16" = 1'-0"
140
0.1875
141
12.0
290
     0
1001
ACAD
1000
AcRTDxfName
1000
SCALE
  0
SCALE
  5
1B215
102
{ACAD_REACTORS
330
1B1FC
102
}
330
1B1FC
100
AcDbScale
 70
     0
300
1/4" = 1'-0"
140
0.25
141
12.0
290
     0
1001
ACAD
1000
AcRTDxfName
1000
SCALE
  0
SCALE
  5
1B216
102
{ACAD_REACTORS
330
1B1FC
102
}
330
1B1FC
100
AcDbScale
 70
     0
300
3/8" = 1'-0"
140
0.375
141
12.0
290
     0
1001
ACAD
1000
AcRTDxfName
1000
SCALE
  0
SCALE
  5
1B217
102
{ACAD_REACTORS
330
1B1FC
102
}
330
1B1FC
100
AcDbScale
 70
     0
300
1/2" = 1'-0"
140
0.5
141
12.0
290
     0
1001
ACAD
1000
AcRTDxfName
1000
SCALE
  0
SCALE
  5
1B218
102
{ACAD_REACTORS
330
1B1FC
102
}
330
1B1FC
100
AcDbScale
 70
     0
300
3/4" = 1'-0"
140
0.75
141
12.0
290
     0
1001
ACAD
1000
AcRTDxfName
1000
SCALE
  0
SCALE
  5
1B219
102
{ACAD_REACTORS
330
1B1FC
102
}
330
1B1FC
100
AcDbScale
 70
     0
300
1" = 1'-0"
140
1.0
141
12.0
290
     0
1001
ACAD
1000
AcRTDxfName
1000
SCALE
  0
SCALE
  5
1B21A
102
{ACAD_REACTORS
330
1B1FC
102
}
330
1B1FC
100
AcDbScale
 70
     0
300
1-1/2" = 1'-0"
140
1.5
141
12.0
290
     0
1001
ACAD
1000
AcRTDxfName
1000
SCALE
  0
SCALE
  5
1B21B
102
{ACAD_REACTORS
330
1B1FC
102
}
330
1B1FC
100
AcDbScale
 70
     0
300
3" = 1'-0"
140
3.0
141
12.0
290
     0
1001
ACAD
1000
AcRTDxfName
1000
SCALE
  0
SCALE
  5
1B21C
102
{ACAD_REACTORS
330
1B1FC
102
}
330
1B1FC
100
AcDbScale
 70
     0
300
6" = 1'-0"
140
6.0
141
12.0
290
     0
1001
ACAD
1000
AcRTDxfName
1000
SCALE
  0
SCALE
  5
1B21D
102
{ACAD_REACTORS
330
1B1FC
102
}
330
1B1FC
100
AcDbScale
 70
     0
300
1'-0" = 1'-0"
140
12.0
141
12.0
290
     0
1001
ACAD
1000
AcRTDxfName
1000
SCALE
  0
ACDBSECTIONVIEWSTYLE
  5
20CB1
102
{ACAD_XDICTIONARY
360
22112
102
}
102
{ACAD_REACTORS
330
1B2EE
102
}
330
1B2EE
100
AcDbModelDocViewStyle
 70
     0
  3
Imperial24
290
     0
100
AcDbSectionViewStyle
 70
     0
 71
     0
 90
       78
 71
     1
340
11
 62
   256
 40
0.24
340
0
340
0
 62
   256
 40
0.24
300
I, O, Q, S, X, Z
 40
0.48
 90
        3
 40
0.18
 90
        1
 71
     2
340
16
 90
       25
 62
   256
340
16
 90
       50
 62
   256
 40
0.24
 40
0.0
 40
0.24
 71
     3
340
11
 62
   256
 40
0.24
 90
        1
 40
0.75
 90
        1
300
%<\AcVar ViewType \f "%tc1">% %<\AcVar ViewSectionStartId>%-%<\AcVar ViewSectionEndId>%\PVARIA %<\AcVar ViewScale \f "%sn">%
 71
     4
 62
   256
 62
   257
300
ANSI31
 40
1.0
 90
        0
290
     0
290
     0
 90
        6
 40
0.0
 40
1.570796326794896
 40
0.2617993877991494
 40
1.308996938995747
 40
-0.2617993877991494
 40
1.832595714594044
  0
ACDBSECTIONVIEWSTYLE
  5
1B2EF
102
{ACAD_XDICTIONARY
360
2210E
102
}
102
{ACAD_REACTORS
330
1B2EE
102
}
330
1B2EE
100
AcDbModelDocViewStyle
 70
     0
  3
Metric50
290
     0
100
AcDbSectionViewStyle
 70
     0
 71
     0
 90
      102
 71
     1
340
11
 62
   256
 40
5.0
340
0
340
0
 62
   256
 40
5.0
300
I, O, Q, S, X, Z
 40
10.0
 90
        0
 40
2.5
 90
        0
 71
     2
340
16
 90
       25
 62
   256
340
16
 90
       50
 62
   256
 40
5.0
 40
2.5
 40
5.0
 71
     3
340
11
 62
   256
 40
5.0
 90
        0
 40
15.0
 90
        1
300
%<\AcVar ViewSectionStartId>%-%<\AcVar ViewSectionEndId>% (%<\AcVar ViewScale \f "%sn">%)
 71
     4
 62
   256
 62
   257
300
ANSI31
 40
1.0
 90
        0
290
     0
290
     0
 90
        6
 40
0.0
 40
1.570796326794896
 40
0.2617993877991494
 40
1.308996938995747
 40
-0.2617993877991494
 40
1.832595714594044
  0
TABLESTYLE
  5
31A2
102
{ACAD_XDICTIONARY
360
1B314
102
}
102
{ACAD_REACTORS
330
31A1
102
}
330
31A1
100
AcDbTableStyle
280
     0
  3
Standard
 70
     0
 71
     0
 40
1.5
 41
1.5
280
     0
281
     0
  7
STANDARD
140
4.5
170
     2
 62
     0
 63
     7
283
     0
 90
        4
 91
        0
  1

274
    -2
284
     1
 64
     0
275
    -2
285
     1
 65
     0
276
    -2
286
     1
 66
     0
277
    -2
287
     1
 67
     0
278
    -2
288
     1
 68
     0
279
    -2
289
     1
 69
     0
  7
STANDARD
140
6.0
170
     5
 62
     0
 63
     7
283
     0
 90
        4
 91
        0
  1

274
    -2
284
     1
 64
     0
275
    -2
285
     1
 65
     0
276
    -2
286
     1
 66
     0
277
    -2
287
     1
 67
     0
278
    -2
288
     1
 68
     0
279
    -2
289
     1
 69
     0
  7
STANDARD
140
4.5
170
     5
 62
     0
 63
     7
283
     0
 90
        4
 91
        0
  1

274
    -2
284
     1
 64
     0
275
    -2
285
     1
 65
     0
276
    -2
286
     1
 66
     0
277
    -2
287
     1
 67
     0
278
    -2
288
     1
 68
     0
279
    -2
289
     1
 69
     0
  0
VISUALSTYLE
  5
3195
102
{ACAD_XDICTIONARY
360
220E4
102
}
102
{ACAD_REACTORS
330
318F
102
}
330
318F
100
AcDbVisualStyle
  2

 70
     4
177
     2
291
     0
 71
     0
176
     1
 72
     2
176
     1
 73
     0
176
     1
 90
        0
176
     1
 40
0.6
176
     1
 41
30.0
176
     1
 63
     7
176
     1
 74
     1
176
     1
 91
        4
176
     1
 64
     7
176
     1
 65
   257
176
     1
 75
     1
176
     1
175
     1
176
     1
 42
1.0
176
     1
 92
        0
176
     1
 66
   257
176
     1
 43
1.0
176
     1
 76
     1
176
     1
 77
     6
176
     1
 78
     2
176
     1
 67
     7
176
     1
 79
     5
176
     1
170
     0
176
     1
171
     0
176
     1
290
     0
176
     1
 93
        1
176
     1
 44
0.0
176
     1
173
     0
176
     1
1001
ACAD
1000
AcDbSavedByObjectVersion
1070
     0
  0
VISUALSTYLE
  5
3197
102
{ACAD_XDICTIONARY
360
220E8
102
}
102
{ACAD_REACTORS
330
318F
102
}
330
318F
100
AcDbVisualStyle
  2

 70
     6
177
     2
291
     0
 71
     1
176
     1
 72
     2
176
     1
 73
     2
176
     1
 90
        0
176
     1
 40
0.6
176
     1
 41
30.0
176
     1
 63
     7
176
     1
 74
     2
176
     1
 91
        2
176
     1
 64
     7
176
     1
 65
   257
176
     1
 75
     2
176
     1
175
     1
176
     1
 42
40.0
176
     1
 92
        0
176
     1
 66
   257
176
     1
 43
1.0
176
     1
 76
     1
176
     1
 77
     6
176
     1
 78
     2
176
     1
 67
     7
176
     1
 79
     3
176
     1
170
     0
176
     1
171
     0
176
     1
290
     0
176
     1
 93
        1
176
     1
 44
0.0
176
     1
173
     0
176
     1
1001
ACAD
1000
AcDbSavedByObjectVersion
1070
     0
  0
VISUALSTYLE
  5
3196
102
{ACAD_XDICTIONARY
360
220E6
102
}
102
{ACAD_REACTORS
330
318F
102
}
330
318F
100
AcDbVisualStyle
  2

 70
     5
177
     2
291
     0
 71
     0
176
     1
 72
     2
176
     1
 73
     0
176
     1
 90
        0
176
     1
 40
0.6
176
     1
 41
30.0
176
     1
 63
     7
176
     1
 74
     1
176
     1
 91
        4
176
     1
 64
     7
176
     1
 65
   257
176
     1
 75
     1
176
     1
175
     1
176
     1
 42
1.0
176
     1
 92
        0
176
     1
 66
   257
176
     1
 43
1.0
176
     1
 76
     1
176
     1
 77
     6
176
     1
 78
     2
176
     1
 67
     7
176
     1
 79
     5
176
     1
170
     0
176
     1
171
     0
176
     1
290
     0
176
     1
 93
        1
176
     1
 44
0.0
176
     1
173
     0
176
     1
1001
ACAD
1000
AcDbSavedByObjectVersion
1070
     0
  0
VISUALSTYLE
  5
3194
102
{ACAD_XDICTIONARY
360
220E2
102
}
102
{ACAD_REACTORS
330
318F
102
}
330
318F
100
AcDbVisualStyle
  2

 70
     7
177
     2
291
     1
 71
     1
176
     1
 72
     0
176
     1
 73
     1
176
     1
 90
        0
176
     1
 40
0.6
176
     1
 41
30.0
176
     1
 63
     7
176
     1
 74
     0
176
     1
 91
        4
176
     1
 64
     7
176
     1
 65
   257
176
     1
 75
     1
176
     1
175
     1
176
     1
 42
1.0
176
     1
 92
        8
176
     1
 66
     7
176
     1
 43
1.0
176
     1
 76
     1
176
     1
 77
     6
176
     1
 78
     2
176
     1
 67
     7
176
     1
 79
     5
176
     1
170
     0
176
     1
171
     0
176
     1
290
     0
176
     1
 93
        1
176
     1
 44
0.0
176
     1
173
     0
176
     1
1001
ACAD
1000
AcDbSavedByObjectVersion
1070
     0
  0
VISUALSTYLE
  5
319B
102
{ACAD_XDICTIONARY
360
220F0
102
}
102
{ACAD_REACTORS
330
318F
102
}
330
318F
100
AcDbVisualStyle
  2

 70
    12
177
     2
291
     1
 71
     2
176
     1
 72
     2
176
     1
 73
     0
176
     1
 90
        0
176
     1
 40
0.6
176
     1
 41
30.0
176
     1
 63
     7
176
     1
 74
     1
176
     1
 91
        4
176
     1
 64
     7
176
     1
 65
   257
176
     1
 75
     1
176
     1
175
     1
176
     1
 42
1.0
176
     1
 92
        8
176
     1
 66
     7
176
     1
 43
1.0
176
     1
 76
     1
176
     1
 77
     6
176
     1
 78
     2
176
     1
 67
     7
176
     1
 79
     5
176
     1
170
     0
176
     1
171
     0
176
     1
290
     0
176
     1
 93
        1
176
     1
 44
50.0
176
     1
173
     0
176
     1
1001
ACAD
1000
AcDbSavedByObjectVersion
1070
     0
  0
VISUALSTYLE
  5
319F
102
{ACAD_XDICTIONARY
360
220F8
102
}
102
{ACAD_REACTORS
330
318F
102
}
330
318F
100
AcDbVisualStyle
  2

 70
    16
177
     2
291
     1
 71
     2
176
     1
 72
     2
176
     1
 73
     3
176
     1
 90
        0
176
     1
 40
0.6
176
     1
 41
30.0
176
     1
 63
     8
176
     1
 74
     1
176
     1
 91
        4
176
     1
 64
     7
176
     1
 65
   257
176
     1
 75
     1
176
     1
175
     1
176
     1
 42
1.0
176
     1
 92
        8
176
     1
 66
     8
176
     1
 43
1.0
176
     1
 76
     1
176
     1
 77
     6
176
     1
 78
     2
176
     1
 67
     7
176
     1
 79
     5
176
     1
170
     0
176
     1
171
     0
176
     1
290
     0
176
     1
 93
        1
176
     1
 44
0.0
176
     1
173
     0
176
     1
1001
ACAD
1000
AcDbSavedByObjectVersion
1070
     0
  0
VISUALSTYLE
  5
3198
102
{ACAD_XDICTIONARY
360
220EA
102
}
102
{ACAD_REACTORS
330
318F
102
}
330
318F
100
AcDbVisualStyle
  2

 70
     9
177
     2
291
     0
 71
     3
176
     1
 72
     2
176
     1
 73
     0
176
     1
 90
        0
176
     1
 40
0.6
176
     1
 41
30.0
176
     1
 63
     7
176
     1
 74
     2
176
     1
 91
        2
176
     1
 64
     7
176
     1
 65
   257
176
     1
 75
     1
176
     1
175
     1
176
     1
 42
40.0
176
     1
 92
        8
176
     1
 66
     7
176
     1
 43
1.0
176
     1
 76
     1
176
     1
 77
     6
176
     1
 78
     2
176
     1
 67
     7
176
     1
 79
     3
176
     1
170
     0
176
     1
171
     0
176
     1
290
     0
176
     1
 93
        1
176
     1
 44
0.0
176
     1
173
     0
176
     1
1001
ACAD
1000
AcDbSavedByObjectVersion
1070
     0
  0
VISUALSTYLE
  5
319A
102
{ACAD_XDICTIONARY
360
220EE
102
}
102
{ACAD_REACTORS
330
318F
102
}
330
318F
100
AcDbVisualStyle
  2

 70
    11
177
     2
291
     1
 71
     2
176
     1
 72
     2
176
     1
 73
     0
176
     1
 90
        0
176
     1
 40
0.6
176
     1
 41
30.0
176
     1
 63
     7
176
     1
 74
     1
176
     1
 91
        4
176
     1
 64
     7
176
     1
 65
   257
176
     1
 75
     1
176
     1
175
     1
176
     1
 42
1.0
176
     1
 92
        8
176
     1
 66
     7
176
     1
 43
1.0
176
     1
 76
     1
176
     1
 77
     6
176
     1
 78
     2
176
     1
 67
     7
176
     1
 79
     5
176
     1
170
     0
176
     1
171
     0
176
     1
290
     0
176
     1
 93
        1
176
     1
 44
-50.0
176
     1
173
     0
176
     1
1001
ACAD
1000
AcDbSavedByObjectVersion
1070
     0
  0
VISUALSTYLE
  5
1B2EC
102
{ACAD_XDICTIONARY
360
2210C
102
}
102
{ACAD_REACTORS
330
318F
102
}
330
318F
100
AcDbVisualStyle
  2

 70
    22
177
     2
291
     1
 71
     2
176
     0
 72
     2
176
     0
 73
     0
176
     0
 90
        0
176
     0
 40
0.6
176
     0
 41
30.0
176
     0
 63
     7
176
     0
 74
     1
176
     0
 91
        4
176
     0
 64
     7
176
     0
 65
   257
176
     0
 75
     1
176
     0
175
     1
176
     0
 42
1.0
176
     0
 92
        8
176
     2
 66
     7
176
     0
 43
1.0
176
     0
 76
     1
176
     0
 77
     6
176
     0
 78
     2
176
     0
 67
     7
176
     0
 79
     5
176
     0
170
     0
176
     0
171
     0
176
     0
290
     0
176
     0
 93
        1
176
     0
 44
0.0
176
     0
173
     0
176
     0
1001
ACAD
1000
AcDbSavedByObjectVersion
1070
     0
  0
VISUALSTYLE
  5
319E
102
{ACAD_XDICTIONARY
360
220F6
102
}
102
{ACAD_REACTORS
330
318F
102
}
330
318F
100
AcDbVisualStyle
  2

 70
    15
177
     2
291
     1
 71
     2
176
     1
 72
     2
176
     1
 73
     0
176
     1
 90
        0
176
     1
 40
0.6
176
     1
 41
30.0
176
     1
 63
     7
176
     1
 74
     1
176
     1
 91
        4
176
     1
 64
     7
176
     1
 65
   257
176
     1
 75
     1
176
     1
175
     1
176
     1
 42
1.0
176
     1
 92
        8
176
     1
 66
     7
176
     1
 43
1.0
176
     1
 76
     1
176
     1
 77
     6
176
     1
 78
     2
176
     1
 67
     7
176
     1
 79
     5
176
     1
170
     0
176
     1
171
     0
176
     1
290
     0
176
     1
 93
        1
176
     1
 44
0.0
176
     1
173
     0
176
     1
1001
ACAD
1000
AcDbSavedByObjectVersion
1070
     0
  0
VISUALSTYLE
  5
3190
102
{ACAD_XDICTIONARY
360
220DA
102
}
102
{ACAD_REACTORS
330
318F
102
}
330
318F
100
AcDbVisualStyle
  2

 70
     0
177
     2
291
     1
 71
     2
176
     1
 72
     1
176
     1
 73
     1
176
     1
 90
        2
176
     1
 40
0.6
176
     1
 41
30.0
176
     1
 63
     7
176
     1
 74
     0
176
     1
 91
        4
176
     1
 64
     7
176
     1
 65
   257
176
     1
 75
     1
176
     1
175
     1
176
     1
 42
1.0
176
     1
 92
        8
176
     1
 66
     7
176
     1
 43
1.0
176
     1
 76
     1
176
     1
 77
     6
176
     1
 78
     2
176
     1
 67
     7
176
     1
 79
     5
176
     1
170
     0
176
     1
171
     0
176
     1
290
     0
176
     1
 93
       13
176
     1
 44
0.0
176
     1
173
     0
176
     1
1001
ACAD
1000
AcDbSavedByObjectVersion
1070
     0
  0
VISUALSTYLE
  5
3191
102
{ACAD_XDICTIONARY
360
220DC
102
}
102
{ACAD_REACTORS
330
318F
102
}
330
318F
100
AcDbVisualStyle
  2

 70
     1
177
     2
291
     1
 71
     2
176
     1
 72
     1
176
     1
 73
     1
176
     1
 90
        2
176
     1
 40
0.6
176
     1
 41
30.0
176
     1
 63
     7
176
     1
 74
     1
176
     1
 91
        4
176
     1
 64
     7
176
     1
 65
   257
176
     1
 75
     1
176
     1
175
     1
176
     1
 42
1.0
176
     1
 92
        0
176
     1
 66
   257
176
     1
 43
1.0
176
     1
 76
     1
176
     1
 77
     6
176
     1
 78
     2
176
     1
 67
     7
176
     1
 79
     5
176
     1
170
     0
176
     1
171
     0
176
     1
290
     0
176
     1
 93
       13
176
     1
 44
0.0
176
     1
173
     0
176
     1
1001
ACAD
1000
AcDbSavedByObjectVersion
1070
     0
  0
VISUALSTYLE
  5
3192
102
{ACAD_XDICTIONARY
360
220DE
102
}
102
{ACAD_REACTORS
330
318F
102
}
330
318F
100
AcDbVisualStyle
  2

 70
     2
177
     2
291
     1
 71
     2
176
     1
 72
     2
176
     1
 73
     1
176
     1
 90
        2
176
     1
 40
0.6
176
     1
 41
30.0
176
     1
 63
     7
176
     1
 74
     0
176
     1
 91
        4
176
     1
 64
     7
176
     1
 65
   257
176
     1
 75
     1
176
     1
175
     1
176
     1
 42
1.0
176
     1
 92
        0
176
     1
 66
     7
176
     1
 43
1.0
176
     1
 76
     1
176
     1
 77
     6
176
     1
 78
     2
176
     1
 67
     7
176
     1
 79
     5
176
     1
170
     0
176
     1
171
     0
176
     1
290
     0
176
     1
 93
       13
176
     1
 44
0.0
176
     1
173
     0
176
     1
1001
ACAD
1000
AcDbSavedByObjectVersion
1070
     0
  0
VISUALSTYLE
  5
3193
102
{ACAD_XDICTIONARY
360
220E0
102
}
102
{ACAD_REACTORS
330
318F
102
}
330
318F
100
AcDbVisualStyle
  2

 70
     3
177
     2
291
     1
 71
     2
176
     1
 72
     2
176
     1
 73
     1
176
     1
 90
        2
176
     1
 40
0.6
176
     1
 41
30.0
176
     1
 63
     7
176
     1
 74
     1
176
     1
 91
        4
176
     1
 64
     7
176
     1
 65
   257
176
     1
 75
     1
176
     1
175
     1
176
     1
 42
1.0
176
     1
 92
        0
176
     1
 66
   257
176
     1
 43
1.0
176
     1
 76
     1
176
     1
 77
     6
176
     1
 78
     2
176
     1
 67
     7
176
     1
 79
     5
176
     1
170
     0
176
     1
171
     0
176
     1
290
     0
176
     1
 93
       13
176
     1
 44
0.0
176
     1
173
     0
176
     1
1001
ACAD
1000
AcDbSavedByObjectVersion
1070
     0
  0
VISUALSTYLE
  5
1B2E4
102
{ACAD_XDICTIONARY
360
220FC
102
}
102
{ACAD_REACTORS
330
318F
102
}
330
318F
100
AcDbVisualStyle
  2

 70
     6
177
     2
291
     0
 71
     1
176
     1
 72
     2
176
     1
 73
     2
176
     1
 90
        0
176
     1
 40
0.6
176
     1
 41
30.0
176
     1
 63
     7
176
     1
 74
     2
176
     1
 91
        2
176
     1
 64
     7
176
     1
 65
   257
176
     1
 75
     2
176
     1
175
     1
176
     1
 42
40.0
176
     1
 92
        0
176
     1
 66
   257
176
     1
 43
1.0
176
     1
 76
     1
176
     1
 77
     6
176
     1
 78
     2
176
     1
 67
     7
176
     1
 79
     3
176
     1
170
     0
176
     1
171
     0
176
     1
290
     0
176
     1
 93
        1
176
     1
 44
0.0
176
     1
173
     0
176
     1
1001
ACAD
1000
AcDbSavedByObjectVersion
1070
     0
  0
VISUALSTYLE
  5
1B2EA
102
{ACAD_XDICTIONARY
360
22108
102
}
102
{ACAD_REACTORS
330
318F
102
}
330
318F
100
AcDbVisualStyle
  2

 70
    20
177
     2
291
     1
 71
     2
176
     0
 72
     2
176
     0
 73
     0
176
     0
 90
        0
176
     0
 40
0.6
176
     0
 41
30.0
176
     0
 63
     7
176
     0
 74
     1
176
     0
 91
        4
176
     0
 64
     7
176
     0
 65
   257
176
     0
 75
     1
176
     0
175
     1
176
     0
 42
1.0
176
     0
 92
       10
176
     2
 66
     7
176
     0
 43
1.0
176
     0
 76
     1
176
     0
 77
     6
176
     0
 78
     2
176
     0
 67
     7
176
     0
 79
     5
176
     0
170
     0
176
     0
171
     0
176
     0
290
     0
176
     0
 93
        1
176
     0
 44
0.0
176
     0
173
     0
176
     0
1001
ACAD
1000
AcDbSavedByObjectVersion
1070
     0
  0
VISUALSTYLE
  5
319D
102
{ACAD_XDICTIONARY
360
220F4
102
}
102
{ACAD_REACTORS
330
318F
102
}
330
318F
100
AcDbVisualStyle
  2

 70
    14
177
     2
291
     1
 71
     2
176
     1
 72
     2
176
     1
 73
     0
176
     1
 90
        0
176
     1
 40
0.6
176
     1
 41
30.0
176
     1
 63
     7
176
     1
 74
     1
176
     1
 91
        4
176
     1
 64
     7
176
     1
 65
   257
176
     1
 75
     7
176
     1
175
     7
176
     1
 42
1.0
176
     1
 92
        8
176
     1
 66
     7
176
     1
 43
1.0
176
     1
 76
     1
176
     1
 77
     6
176
     1
 78
     2
176
     1
 67
     7
176
     1
 79
     5
176
     1
170
     0
176
     1
171
     0
176
     1
290
     0
176
     1
 93
        1
176
     1
 44
0.0
176
     1
173
     0
176
     1
1001
ACAD
1000
AcDbSavedByObjectVersion
1070
     0
  0
VISUALSTYLE
  5
1B2EB
102
{ACAD_XDICTIONARY
360
2210A
102
}
102
{ACAD_REACTORS
330
318F
102
}
330
318F
100
AcDbVisualStyle
  2

 70
    21
177
     2
291
     1
 71
     2
176
     0
 72
     2
176
     0
 73
     0
176
     0
 90
        0
176
     0
 40
0.6
176
     0
 41
30.0
176
     0
 63
     7
176
     0
 74
     1
176
     0
 91
        4
176
     0
 64
     7
176
     0
 65
   257
176
     0
 75
     1
176
     0
175
     1
176
     0
 42
1.0
176
     0
 92
        9
176
     2
 66
     7
176
     0
 43
1.0
176
     0
 76
     1
176
     0
 77
     6
176
     0
 78
     2
176
     0
 67
     7
176
     0
 79
     5
176
     0
170
     0
176
     0
171
     0
176
     0
290
     0
176
     0
 93
        1
176
     0
 44
0.0
176
     0
173
     0
176
     0
1001
ACAD
1000
AcDbSavedByObjectVersion
1070
     0
  0
VISUALSTYLE
  5
3199
102
{ACAD_XDICTIONARY
360
220EC
102
}
102
{ACAD_REACTORS
330
318F
102
}
330
318F
100
AcDbVisualStyle
  2

 70
     8
177
     2
291
     0
 71
     2
176
     1
 72
     2
176
     1
 73
     0
176
     1
 90
        0
176
     1
 40
0.6
176
     1
 41
30.0
176
     1
 63
     7
176
     1
 74
     1
176
     1
 91
        0
176
     1
 64
     7
176
     1
 65
   257
176
     1
 75
     1
176
     1
175
     1
176
     1
 42
1.0
176
     1
 92
        8
176
     1
 66
     8
176
     1
 43
1.0
176
     1
 76
     1
176
     1
 77
     6
176
     1
 78
     2
176
     1
 67
     7
176
     1
 79
     5
176
     1
170
     0
176
     1
171
     0
176
     1
290
     0
176
     1
 93
       13
176
     1
 44
0.0
176
     1
173
     0
176
     1
1001
ACAD
1000
AcDbSavedByObjectVersion
1070
     0
  0
VISUALSTYLE
  5
1B2E9
102
{ACAD_XDICTIONARY
360
22106
102
}
102
{ACAD_REACTORS
330
318F
102
}
330
318F
100
AcDbVisualStyle
  2

 70
    27
177
     2
291
     0
 71
     2
176
     1
 72
     2
176
     1
 73
     1
176
     1
 90
        2
176
     1
 40
0.6
176
     1
 41
30.0
176
     1
 63
     7
176
     1
 74
     0
176
     1
 91
        4
176
     1
 64
     7
176
     1
 65
   257
176
     1
 75
     1
176
     1
175
     1
176
     1
 42
1.0
176
     1
 92
        8
176
     1
 66
   257
176
     1
 43
1.0
176
     1
 76
     1
176
     1
 77
     6
176
     1
 78
     2
176
     1
 67
     8
176
     1
 79
     3
176
     1
170
     0
176
     1
171
     0
176
     1
290
     0
176
     1
 93
        5
176
     1
 44
0.0
176
     1
173
     0
176
     1
1001
ACAD
1000
AcDbSavedByObjectVersion
1070
     0
  0
VISUALSTYLE
  5
1B2E8
102
{ACAD_XDICTIONARY
360
22104
102
}
102
{ACAD_REACTORS
330
318F
102
}
330
318F
100
AcDbVisualStyle
  2

 70
    26
177
     2
291
     0
 71
     2
176
     1
 72
     2
176
     1
 73
     1
176
     1
 90
        2
176
     1
 40
0.6
176
     1
 41
30.0
176
     1
 63
     7
176
     1
 74
     1
176
     1
 91
       10
176
     1
 64
     7
176
     1
 65
   257
176
     1
 75
     2
176
     1
175
     1
176
     1
 42
1.0
176
     1
 92
        8
176
     1
 66
   257
176
     1
 43
1.0
176
     1
 76
     1
176
     1
 77
     6
176
     1
 78
     2
176
     1
 67
     7
176
     1
 79
     3
176
     1
170
     0
176
     1
171
     0
176
     1
290
     0
176
     1
 93
        5
176
     1
 44
0.0
176
     1
173
     0
176
     1
1001
ACAD
1000
AcDbSavedByObjectVersion
1070
     0
  0
VISUALSTYLE
  5
1B2E5
102
{ACAD_XDICTIONARY
360
220FE
102
}
102
{ACAD_REACTORS
330
318F
102
}
330
318F
100
AcDbVisualStyle
  2

 70
    23
177
     2
291
     0
 71
     2
176
     1
 72
     2
176
     1
 73
     3
176
     1
 90
        0
176
     1
 40
0.6
176
     1
 41
30.0
176
     1
 63
     7
176
     1
 74
     2
176
     1
 91
        2
176
     1
 64
     7
176
     1
 65
     7
176
     1
 75
     1
176
     1
175
     1
176
     1
 42
40.0
176
     1
 92
        8
176
     1
 66
     7
176
     1
 43
1.0
176
     1
 76
     1
176
     1
 77
     6
176
     1
 78
     2
176
     1
 67
     7
176
     1
 79
     3
176
     1
170
     0
176
     1
171
     0
176
     1
290
     0
176
     1
 93
        1
176
     1
 44
0.0
176
     1
173
     0
176
     1
1001
ACAD
1000
AcDbSavedByObjectVersion
1070
     0
  0
VISUALSTYLE
  5
1B2E6
102
{ACAD_XDICTIONARY
360
22100
102
}
102
{ACAD_REACTORS
330
318F
102
}
330
318F
100
AcDbVisualStyle
  2

 70
    24
177
     2
291
     0
 71
     1
176
     1
 72
     2
176
     1
 73
     2
176
     1
 90
        0
176
     1
 40
0.6
176
     1
 41
30.0
176
     1
 63
     7
176
     1
 74
     2
176
     1
 91
        2
176
     1
 64
     7
176
     1
 65
     7
176
     1
 75
     1
176
     1
175
     1
176
     1
 42
40.0
176
     1
 92
       11
176
     1
 66
     7
176
     1
 43
1.0
176
     1
 76
     1
176
     1
 77
     6
176
     1
 78
     2
176
     1
 67
     7
176
     1
 79
     6
176
     1
170
     0
176
     1
171
     0
176
     1
290
     0
176
     1
 93
        1
176
     1
 44
0.0
176
     1
173
     0
176
     1
1001
ACAD
1000
AcDbSavedByObjectVersion
1070
     0
  0
VISUALSTYLE
  5
319C
102
{ACAD_XDICTIONARY
360
220F2
102
}
102
{ACAD_REACTORS
330
318F
102
}
330
318F
100
AcDbVisualStyle
  2

 70
    13
177
     2
291
     1
 71
     2
176
     1
 72
     2
176
     1
 73
     0
176
     1
 90
        0
176
     1
 40
0.6
176
     1
 41
30.0
176
     1
 63
     7
176
     1
 74
     1
176
     1
 91
        4
176
     1
 64
     7
176
     1
 65
   257
176
     1
 75
     1
176
     1
175
     1
176
     1
 42
1.0
176
     1
 92
       12
176
     1
 66
     7
176
     1
 43
1.0
176
     1
 76
     1
176
     1
 77
     6
176
     1
 78
     2
176
     1
 67
     7
176
     1
 79
     5
176
     1
170
     0
176
     1
171
     0
176
     1
290
     0
176
     1
 93
        1
176
     1
 44
0.0
176
     1
173
     0
176
     1
1001
ACAD
1000
AcDbSavedByObjectVersion
1070
     0
  0
VISUALSTYLE
  5
1B2E3
102
{ACAD_XDICTIONARY
360
220FA
102
}
102
{ACAD_REACTORS
330
318F
102
}
330
318F
100
AcDbVisualStyle
  2

 70
     5
177
     2
291
     0
 71
     0
176
     1
 72
     2
176
     1
 73
     0
176
     1
 90
        0
176
     1
 40
0.6
176
     1
 41
30.0
176
     1
 63
     7
176
     1
 74
     1
176
     1
 91
        4
176
     1
 64
     7
176
     1
 65
   257
176
     1
 75
     1
176
     1
175
     1
176
     1
 42
1.0
176
     1
 92
        0
176
     1
 66
   257
176
     1
 43
1.0
176
     1
 76
     1
176
     1
 77
     6
176
     1
 78
     2
176
     1
 67
     7
176
     1
 79
     3
176
     1
170
     0
176
     1
171
     0
176
     1
290
     0
176
     1
 93
        1
176
     1
 44
0.0
176
     1
173
     0
176
     1
1001
ACAD
1000
AcDbSavedByObjectVersion
1070
     0
  0
VISUALSTYLE
  5
1B2E7
102
{ACAD_XDICTIONARY
360
22102
102
}
102
{ACAD_REACTORS
330
318F
102
}
330
318F
100
AcDbVisualStyle
  2

 70
    25
177
     2
291
     0
 71
     2
176
     1
 72
     2
176
     1
 73
     1
176
     1
 90
        1
176
     1
 40
0.5
176
     1
 41
30.0
176
     1
 63
     7
176
     1
 74
     1
176
     1
 91
        0
176
     1
 64
     7
176
     1
 65
   257
176
     1
 75
     1
176
     1
175
     1
176
     1
 42
1.0
176
     1
 92
        8
176
     1
 66
     7
176
     1
 43
1.0
176
     1
 76
     1
176
     1
 77
     6
176
     1
 78
     2
176
     1
 67
     7
176
     1
 79
     3
176
     1
170
     0
176
     1
171
     0
176
     1
290
     0
176
     1
 93
       13
176
     1
 44
0.0
176
     1
173
     0
176
     1
1001
ACAD
1000
AcDbSavedByObjectVersion
1070
     0
  0
DICTIONARYVAR
  5
1B222
102
{ACAD_REACTORS
330
33A3
102
}
330
33A3
100
DictionaryVariables
280
     0
  1
1:1
  0
DICTIONARYVAR
  5
1B30F
102
{ACAD_REACTORS
330
33A3
102
}
330
33A3
100
DictionaryVariables
280
     0
  1
STANDARD
  0
DICTIONARYVAR
  5
33A4
102
{ACAD_REACTORS
330
33A3
102
}
330
33A3
100
DictionaryVariables
280
     0
  1
STANDARD
  0
DICTIONARYVAR
  5
1B310
102
{ACAD_REACTORS
330
33A3
102
}
330
33A3
100
DictionaryVariables
280
     0
  1
Metric50
  0
DICTIONARYVAR
  5
1B311
102
{ACAD_REACTORS
330
33A3
102
}
330
33A3
100
DictionaryVariables
280
     0
  1
Metric50
  0
DICTIONARYVAR
  5
9BE8
102
{ACAD_REACTORS
330
33A3
102
}
330
33A3
100
DictionaryVariables
280
     0
  1
1
  0
DICTIONARYVAR
  5
9BE7
102
{ACAD_REACTORS
330
33A3
102
}
330
33A3
100
DictionaryVariables
280
     0
  1
0
  0
DICTIONARYVAR
  5
20993
102
{ACAD_REACTORS
330
33A3
102
}
330
33A3
100
DictionaryVariables
280
     0
  1
1
  0
DICTIONARYVAR
  5
20994
102
{ACAD_REACTORS
330
33A3
102
}
330
33A3
100
DictionaryVariables
280
     0
  1
15
  0
DICTIONARYVAR
  5
20992
102
{ACAD_REACTORS
330
33A3
102
}
330
33A3
100
DictionaryVariables
280
     0
  1
0
  0
DICTIONARYVAR
  5
20991
102
{ACAD_REACTORS
330
33A3
102
}
330
33A3
100
DictionaryVariables
280
     0
  1
0
  0
DICTIONARYVAR
  5
9BE6
102
{ACAD_REACTORS
330
33A3
102
}
330
33A3
100
DictionaryVariables
280
     0
  1
127
  0
DICTIONARY
  5
22114
330
20CB3
100
AcDbDictionary
280
     1
281
     1
  3
ACAD_XREC_ROUNDTRIP
360
22115
  0
DICTIONARY
  5
22110
330
1B2F1
100
AcDbDictionary
280
     1
281
     1
  3
ACAD_XREC_ROUNDTRIP
360
22111
  0
DICTIONARY
  5
1B22B
330
318D
100
AcDbDictionary
280
     1
281
     1
  3
ACAD_XREC_ROUNDTRIP
360
1B22C
  0
DICTIONARY
  5
1B22D
330
318C
100
AcDbDictionary
280
     1
281
     1
  3
ACAD_XREC_ROUNDTRIP
360
1B22E
  0
DICTIONARY
  5
1B22F
330
318E
100
AcDbDictionary
280
     1
281
     1
  3
ACAD_XREC_ROUNDTRIP
360
1B230
  0
DICTIONARY
  5
22112
330
20CB1
100
AcDbDictionary
280
     1
281
     1
  3
ACAD_XREC_ROUNDTRIP
360
22113
  0
DICTIONARY
  5
2210E
330
1B2EF
100
AcDbDictionary
280
     1
281
     1
  3
ACAD_XREC_ROUNDTRIP
360
2210F
  0
DICTIONARY
  5
1B314
330
31A2
100
AcDbDictionary
280
     1
281
     1
  3
ACAD_ROUNDTRIP_2008_TABLESTYLE_CELLSTYLEMAP
360
220D8
  0
DICTIONARY
  5
220E4
330
3195
100
AcDbDictionary
280
     1
281
     1
  3
ACAD_XREC_ROUNDTRIP
360
220E5
  0
DICTIONARY
  5
220E8
330
3197
100
AcDbDictionary
280
     1
281
     1
  3
ACAD_XREC_ROUNDTRIP
360
220E9
  0
DICTIONARY
  5
220E6
330
3196
100
AcDbDictionary
280
     1
281
     1
  3
ACAD_XREC_ROUNDTRIP
360
220E7
  0
DICTIONARY
  5
220E2
330
3194
100
AcDbDictionary
280
     1
281
     1
  3
ACAD_XREC_ROUNDTRIP
360
220E3
  0
DICTIONARY
  5
220F0
330
319B
100
AcDbDictionary
280
     1
281
     1
  3
ACAD_XREC_ROUNDTRIP
360
220F1
  0
DICTIONARY
  5
220F8
330
319F
100
AcDbDictionary
280
     1
281
     1
  3
ACAD_XREC_ROUNDTRIP
360
220F9
  0
DICTIONARY
  5
220EA
330
3198
100
AcDbDictionary
280
     1
281
     1
  3
ACAD_XREC_ROUNDTRIP
360
220EB
  0
DICTIONARY
  5
220EE
330
319A
100
AcDbDictionary
280
     1
281
     1
  3
ACAD_XREC_ROUNDTRIP
360
220EF
  0
DICTIONARY
  5
2210C
330
1B2EC
100
AcDbDictionary
280
     1
281
     1
  3
ACAD_XREC_ROUNDTRIP
360
2210D
  0
DICTIONARY
  5
220F6
330
319E
100
AcDbDictionary
280
     1
281
     1
  3
ACAD_XREC_ROUNDTRIP
360
220F7
  0
DICTIONARY
  5
220DA
330
3190
100
AcDbDictionary
280
     1
281
     1
  3
ACAD_XREC_ROUNDTRIP
360
220DB
  0
DICTIONARY
  5
220DC
330
3191
100
AcDbDictionary
280
     1
281
     1
  3
ACAD_XREC_ROUNDTRIP
360
220DD
  0
DICTIONARY
  5
220DE
330
3192
100
AcDbDictionary
280
     1
281
     1
  3
ACAD_XREC_ROUNDTRIP
360
220DF
  0
DICTIONARY
  5
220E0
330
3193
100
AcDbDictionary
280
     1
281
     1
  3
ACAD_XREC_ROUNDTRIP
360
220E1
  0
DICTIONARY
  5
220FC
330
1B2E4
100
AcDbDictionary
280
     1
281
     1
  3
ACAD_XREC_ROUNDTRIP
360
220FD
  0
DICTIONARY
  5
22108
330
1B2EA
100
AcDbDictionary
280
     1
281
     1
  3
ACAD_XREC_ROUNDTRIP
360
22109
  0
DICTIONARY
  5
220F4
330
319D
100
AcDbDictionary
280
     1
281
     1
  3
ACAD_XREC_ROUNDTRIP
360
220F5
  0
DICTIONARY
  5
2210A
330
1B2EB
100
AcDbDictionary
280
     1
281
     1
  3
ACAD_XREC_ROUNDTRIP
360
2210B
  0
DICTIONARY
  5
220EC
330
3199
100
AcDbDictionary
280
     1
281
     1
  3
ACAD_XREC_ROUNDTRIP
360
220ED
  0
DICTIONARY
  5
22106
330
1B2E9
100
AcDbDictionary
280
     1
281
     1
  3
ACAD_XREC_ROUNDTRIP
360
22107
  0
DICTIONARY
  5
22104
330
1B2E8
100
AcDbDictionary
280
     1
281
     1
  3
ACAD_XREC_ROUNDTRIP
360
22105
  0
DICTIONARY
  5
220FE
330
1B2E5
100
AcDbDictionary
280
     1
281
     1
  3
ACAD_XREC_ROUNDTRIP
360
220FF
  0
DICTIONARY
  5
22100
330
1B2E6
100
AcDbDictionary
280
     1
281
     1
  3
ACAD_XREC_ROUNDTRIP
360
22101
  0
DICTIONARY
  5
220F2
330
319C
100
AcDbDictionary
280
     1
281
     1
  3
ACAD_XREC_ROUNDTRIP
360
220F3
  0
DICTIONARY
  5
220FA
330
1B2E3
100
AcDbDictionary
280
     1
281
     1
  3
ACAD_XREC_ROUNDTRIP
360
220FB
  0
DICTIONARY
  5
22102
330
1B2E7
100
AcDbDictionary
280
     1
281
     1
  3
ACAD_XREC_ROUNDTRIP
360
22103
  0
XRECORD
  5
22115
102
{ACAD_REACTORS
330
22114
102
}
330
22114
100
AcDbXrecord
280
     1
102
DISPLAYNAME
  1
Imperial24
102
FLAGS
 90
        0
  0
XRECORD
  5
22111
102
{ACAD_REACTORS
330
22110
102
}
330
22110
100
AcDbXrecord
280
     1
102
DISPLAYNAME
  1
Metric50
102
FLAGS
 90
        0
  0
XRECORD
  5
1B22C
102
{ACAD_REACTORS
330
1B22B
102
}
330
1B22B
100
AcDbXrecord
280
     1
102
MATERIAL
148
0.0
149
0.0
149
0.0
 93
        0
 94
      127
282
     0
 72
     1
 77
     1
171
     1
175
     1
179
     1
273
     0
  0
XRECORD
  5
1B22E
102
{ACAD_REACTORS
330
1B22D
102
}
330
1B22D
100
AcDbXrecord
280
     1
102
MATERIAL
148
0.0
149
0.0
149
0.0
 93
        0
 94
      127
282
     0
 72
     1
 77
     1
171
     1
175
     1
179
     1
273
     0
  0
XRECORD
  5
1B230
102
{ACAD_REACTORS
330
1B22F
102
}
330
1B22F
100
AcDbXrecord
280
     1
102
MATERIAL
148
0.0
149
0.0
149
0.0
 93
        0
 94
      127
282
     0
 72
     1
 77
     1
171
     1
175
     1
179
     1
273
     0
  0
XRECORD
  5
22113
102
{ACAD_REACTORS
330
22112
102
}
330
22112
100
AcDbXrecord
280
     1
102
DISPLAYNAME
  1
Imperial24
102
FLAGS
 90
        0
  0
XRECORD
  5
2210F
102
{ACAD_REACTORS
330
2210E
102
}
330
2210E
100
AcDbXrecord
280
     1
102
DISPLAYNAME
  1
Metric50
102
FLAGS
 90
        0
  0
CELLSTYLEMAP
  5
220D8
102
{ACAD_REACTORS
330
1B314
102
}
330
1B314
100
AcDbCellStyleMap
 90
        3
300
CELLSTYLE
  1
TABLEFORMAT_BEGIN
 90
        5
170
     1
 91
        0
 92
    32768
 62
   257
 93
        1
300
CONTENTFORMAT
  1
CONTENTFORMAT_BEGIN
 90
        0
 91
        0
 92
        4
 93
        0
300

 40
0.0
140
1.0
 94
        5
 62
     0
340
11
144
6.0
309
CONTENTFORMAT_END
171
     1
301
MARGIN
  1
CELLMARGIN_BEGIN
 40
1.5
 40
1.5
 40
1.5
 40
1.5
 40
0.18
 40
0.18
309
CELLMARGIN_END
 94
        6
 95
        1
302
GRIDFORMAT
  1
GRIDFORMAT_BEGIN
 90
        0
 91
        1
 62
     0
 92
       -2
340
0
 93
        0
 40
0.045
309
GRIDFORMAT_END
 95
        2
302
GRIDFORMAT
  1
GRIDFORMAT_BEGIN
 90
        0
 91
        1
 62
     0
 92
       -2
340
0
 93
        0
 40
0.045
309
GRIDFORMAT_END
 95
        4
302
GRIDFORMAT
  1
GRIDFORMAT_BEGIN
 90
        0
 91
        1
 62
     0
 92
       -2
340
0
 93
        0
 40
0.045
309
GRIDFORMAT_END
 95
        8
302
GRIDFORMAT
  1
GRIDFORMAT_BEGIN
 90
        0
 91
        1
 62
     0
 92
       -2
340
0
 93
        0
 40
0.045
309
GRIDFORMAT_END
 95
       16
302
GRIDFORMAT
  1
GRIDFORMAT_BEGIN
 90
        0
 91
        1
 62
     0
 92
       -2
340
0
 93
        0
 40
0.045
309
GRIDFORMAT_END
 95
       32
302
GRIDFORMAT
  1
GRIDFORMAT_BEGIN
 90
        0
 91
        1
 62
     0
 92
       -2
340
0
 93
        0
 40
0.045
309
GRIDFORMAT_END
309
TABLEFORMAT_END
  1
CELLSTYLE_BEGIN
 90
        1
 91
        1
300
_TITLE
309
CELLSTYLE_END
300
CELLSTYLE
  1
TABLEFORMAT_BEGIN
 90
        5
170
     1
 91
        0
 92
        0
 62
   257
 93
        1
300
CONTENTFORMAT
  1
CONTENTFORMAT_BEGIN
 90
        0
 91
        0
 92
        4
 93
        0
300

 40
0.0
140
1.0
 94
        5
 62
     0
340
11
144
4.5
309
CONTENTFORMAT_END
171
     1
301
MARGIN
  1
CELLMARGIN_BEGIN
 40
1.5
 40
1.5
 40
1.5
 40
1.5
 40
0.18
 40
0.18
309
CELLMARGIN_END
 94
        6
 95
        1
302
GRIDFORMAT
  1
GRIDFORMAT_BEGIN
 90
        0
 91
        1
 62
     0
 92
       -2
340
0
 93
        0
 40
0.045
309
GRIDFORMAT_END
 95
        2
302
GRIDFORMAT
  1
GRIDFORMAT_BEGIN
 90
        0
 91
        1
 62
     0
 92
       -2
340
0
 93
        0
 40
0.045
309
GRIDFORMAT_END
 95
        4
302
GRIDFORMAT
  1
GRIDFORMAT_BEGIN
 90
        0
 91
        1
 62
     0
 92
       -2
340
0
 93
        0
 40
0.045
309
GRIDFORMAT_END
 95
        8
302
GRIDFORMAT
  1
GRIDFORMAT_BEGIN
 90
        0
 91
        1
 62
     0
 92
       -2
340
0
 93
        0
 40
0.045
309
GRIDFORMAT_END
 95
       16
302
GRIDFORMAT
  1
GRIDFORMAT_BEGIN
 90
        0
 91
        1
 62
     0
 92
       -2
340
0
 93
        0
 40
0.045
309
GRIDFORMAT_END
 95
       32
302
GRIDFORMAT
  1
GRIDFORMAT_BEGIN
 90
        0
 91
        1
 62
     0
 92
       -2
340
0
 93
        0
 40
0.045
309
GRIDFORMAT_END
309
TABLEFORMAT_END
  1
CELLSTYLE_BEGIN
 90
        2
 91
        1
300
_HEADER
309
CELLSTYLE_END
300
CELLSTYLE
  1
TABLEFORMAT_BEGIN
 90
        5
170
     1
 91
        0
 92
        0
 62
   257
 93
        1
300
CONTENTFORMAT
  1
CONTENTFORMAT_BEGIN
 90
        0
 91
        0
 92
        4
 93
        0
300

 40
0.0
140
1.0
 94
        2
 62
     0
340
11
144
4.5
309
CONTENTFORMAT_END
171
     1
301
MARGIN
  1
CELLMARGIN_BEGIN
 40
1.5
 40
1.5
 40
1.5
 40
1.5
 40
0.18
 40
0.18
309
CELLMARGIN_END
 94
        6
 95
        1
302
GRIDFORMAT
  1
GRIDFORMAT_BEGIN
 90
        0
 91
        1
 62
     0
 92
       -2
340
0
 93
        0
 40
0.045
309
GRIDFORMAT_END
 95
        2
302
GRIDFORMAT
  1
GRIDFORMAT_BEGIN
 90
        0
 91
        1
 62
     0
 92
       -2
340
0
 93
        0
 40
0.045
309
GRIDFORMAT_END
 95
        4
302
GRIDFORMAT
  1
GRIDFORMAT_BEGIN
 90
        0
 91
        1
 62
     0
 92
       -2
340
0
 93
        0
 40
0.045
309
GRIDFORMAT_END
 95
        8
302
GRIDFORMAT
  1
GRIDFORMAT_BEGIN
 90
        0
 91
        1
 62
     0
 92
       -2
340
0
 93
        0
 40
0.045
309
GRIDFORMAT_END
 95
       16
302
GRIDFORMAT
  1
GRIDFORMAT_BEGIN
 90
        0
 91
        1
 62
     0
 92
       -2
340
0
 93
        0
 40
0.045
309
GRIDFORMAT_END
 95
       32
302
GRIDFORMAT
  1
GRIDFORMAT_BEGIN
 90
        0
 91
        1
 62
     0
 92
       -2
340
0
 93
        0
 40
0.045
309
GRIDFORMAT_END
309
TABLEFORMAT_END
  1
CELLSTYLE_BEGIN
 90
        3
 91
        2
300
_DATA
309
CELLSTYLE_END
  0
XRECORD
  5
220E5
102
{ACAD_REACTORS
330
220E4
102
}
330
220E4
100
AcDbXrecord
280
     1
102
RTVSPost2010Prop28
280
     1
102
RTVSPost2010PropOp28
 70
     1
102
RTVSPost2010Prop29
280
     1
102
RTVSPost2010PropOp29
 70
     1
102
RTVSPost2010Prop30
280
     0
102
RTVSPost2010PropOp30
 70
     1
102
RTVSPost2010Prop31
280
     0
102
RTVSPost2010PropOp31
 70
     1
102
RTVSPost2010Prop32
280
     0
102
RTVSPost2010PropOp32
 70
     1
102
RTVSPost2010Prop33
280
     0
102
RTVSPost2010PropOp33
 70
     1
102
RTVSPost2010Prop34
280
     0
102
RTVSPost2010PropOp34
 70
     1
102
RTVSPost2010Prop35
280
     0
102
RTVSPost2010PropOp35
 70
     1
102
RTVSPost2010Prop36
280
     0
102
RTVSPost2010PropOp36
 70
     1
102
RTVSPost2010Prop37
 90
       50
102
RTVSPost2010PropOp37
 70
     1
102
RTVSPost2010Prop38
140
0.0
102
RTVSPost2010PropOp38
 70
     1
102
RTVSPost2010Prop39
140
1.0
102
RTVSPost2010PropOp39
 70
     1
102
RTVSPost2010Prop40
 90
        0
102
RTVSPost2010PropOp40
 70
     1
102
RTVSPost2010Prop41ColorIndex
 90
       18
102
RTVSPost2010Prop41ColorRGB
 90
        0
102
RTVSPost2010PropOp41
 70
     1
102
RTVSPost2010Prop42
 90
       50
102
RTVSPost2010PropOp42
 70
     1
102
RTVSPost2010Prop43
 90
        3
102
RTVSPost2010PropOp43
 70
     1
102
RTVSPost2010Prop44ColorIndex
 90
        5
102
RTVSPost2010Prop44ColorRGB
 90
      255
102
RTVSPost2010PropOp44
 70
     1
102
RTVSPost2010Prop45
280
     0
102
RTVSPost2010PropOp45
 70
     1
102
RTVSPost2010Prop46
 90
       50
102
RTVSPost2010PropOp46
 70
     1
102
RTVSPost2010Prop47
 90
       50
102
RTVSPost2010PropOp47
 70
     1
102
RTVSPost2010Prop48
 90
       50
102
RTVSPost2010PropOp48
 70
     1
102
RTVSPost2010Prop49
280
     0
102
RTVSPost2010PropOp49
 70
     1
102
RTVSPost2010Prop50
 90
       50
102
RTVSPost2010PropOp50
 70
     1
102
RTVSPost2010Prop51ColorIndex
 90
      256
102
RTVSPost2010Prop51ColorRGB
 90
-16777216
102
RTVSPost2010PropOp51
 70
     0
102
RTVSPost2010Prop52
140
1.0
102
RTVSPost2010PropOp52
 70
     0
102
RTVSPost2010Prop53
 90
        2
102
RTVSPost2010PropOp53
 70
     1
102
RTVSPost2010Prop54
  1
strokes_ogs.tif
102
RTVSPost2010PropOp54
 70
     1
102
RTVSPost2010Prop55
280
     0
102
RTVSPost2010PropOp55
 70
     1
102
RTVSPost2010Prop56
140
1.0
102
RTVSPost2010PropOp56
 70
     1
102
RTVSPost2010Prop57
140
1.0
102
RTVSPost2010PropOp57
 70
     1
  0
XRECORD
  5
220E9
102
{ACAD_REACTORS
330
220E8
102
}
330
220E8
100
AcDbXrecord
280
     1
102
RTVSPost2010Prop28
280
     0
102
RTVSPost2010PropOp28
 70
     1
102
RTVSPost2010Prop29
280
     1
102
RTVSPost2010PropOp29
 70
     1
102
RTVSPost2010Prop30
280
     1
102
RTVSPost2010PropOp30
 70
     1
102
RTVSPost2010Prop31
280
     0
102
RTVSPost2010PropOp31
 70
     1
102
RTVSPost2010Prop32
280
     0
102
RTVSPost2010PropOp32
 70
     1
102
RTVSPost2010Prop33
280
     0
102
RTVSPost2010PropOp33
 70
     1
102
RTVSPost2010Prop34
280
     0
102
RTVSPost2010PropOp34
 70
     1
102
RTVSPost2010Prop35
280
     0
102
RTVSPost2010PropOp35
 70
     1
102
RTVSPost2010Prop36
280
     0
102
RTVSPost2010PropOp36
 70
     1
102
RTVSPost2010Prop37
 90
       50
102
RTVSPost2010PropOp37
 70
     1
102
RTVSPost2010Prop38
140
0.0
102
RTVSPost2010PropOp38
 70
     1
102
RTVSPost2010Prop39
140
1.0
102
RTVSPost2010PropOp39
 70
     1
102
RTVSPost2010Prop40
 90
        0
102
RTVSPost2010PropOp40
 70
     1
102
RTVSPost2010Prop41ColorIndex
 90
       18
102
RTVSPost2010Prop41ColorRGB
 90
        0
102
RTVSPost2010PropOp41
 70
     1
102
RTVSPost2010Prop42
 90
       50
102
RTVSPost2010PropOp42
 70
     1
102
RTVSPost2010Prop43
 90
        3
102
RTVSPost2010PropOp43
 70
     1
102
RTVSPost2010Prop44ColorIndex
 90
        5
102
RTVSPost2010Prop44ColorRGB
 90
      255
102
RTVSPost2010PropOp44
 70
     1
102
RTVSPost2010Prop45
280
     0
102
RTVSPost2010PropOp45
 70
     1
102
RTVSPost2010Prop46
 90
       50
102
RTVSPost2010PropOp46
 70
     1
102
RTVSPost2010Prop47
 90
       50
102
RTVSPost2010PropOp47
 70
     1
102
RTVSPost2010Prop48
 90
       50
102
RTVSPost2010PropOp48
 70
     1
102
RTVSPost2010Prop49
280
     0
102
RTVSPost2010PropOp49
 70
     1
102
RTVSPost2010Prop50
 90
       50
102
RTVSPost2010PropOp50
 70
     1
102
RTVSPost2010Prop51ColorIndex
 90
      256
102
RTVSPost2010Prop51ColorRGB
 90
-16777216
102
RTVSPost2010PropOp51
 70
     0
102
RTVSPost2010Prop52
140
1.0
102
RTVSPost2010PropOp52
 70
     0
102
RTVSPost2010Prop53
 90
        2
102
RTVSPost2010PropOp53
 70
     1
102
RTVSPost2010Prop54
  1
strokes_ogs.tif
102
RTVSPost2010PropOp54
 70
     1
102
RTVSPost2010Prop55
280
     0
102
RTVSPost2010PropOp55
 70
     1
102
RTVSPost2010Prop56
140
1.0
102
RTVSPost2010PropOp56
 70
     1
102
RTVSPost2010Prop57
140
1.0
102
RTVSPost2010PropOp57
 70
     1
  0
XRECORD
  5
220E7
102
{ACAD_REACTORS
330
220E6
102
}
330
220E6
100
AcDbXrecord
280
     1
102
RTVSPost2010Prop28
280
     0
102
RTVSPost2010PropOp28
 70
     1
102
RTVSPost2010Prop29
280
     1
102
RTVSPost2010PropOp29
 70
     1
102
RTVSPost2010Prop30
280
     1
102
RTVSPost2010PropOp30
 70
     1
102
RTVSPost2010Prop31
280
     0
102
RTVSPost2010PropOp31
 70
     1
102
RTVSPost2010Prop32
280
     0
102
RTVSPost2010PropOp32
 70
     1
102
RTVSPost2010Prop33
280
     0
102
RTVSPost2010PropOp33
 70
     1
102
RTVSPost2010Prop34
280
     0
102
RTVSPost2010PropOp34
 70
     1
102
RTVSPost2010Prop35
280
     0
102
RTVSPost2010PropOp35
 70
     1
102
RTVSPost2010Prop36
280
     0
102
RTVSPost2010PropOp36
 70
     1
102
RTVSPost2010Prop37
 90
       50
102
RTVSPost2010PropOp37
 70
     1
102
RTVSPost2010Prop38
140
0.0
102
RTVSPost2010PropOp38
 70
     1
102
RTVSPost2010Prop39
140
1.0
102
RTVSPost2010PropOp39
 70
     1
102
RTVSPost2010Prop40
 90
        0
102
RTVSPost2010PropOp40
 70
     1
102
RTVSPost2010Prop41ColorIndex
 90
       18
102
RTVSPost2010Prop41ColorRGB
 90
        0
102
RTVSPost2010PropOp41
 70
     1
102
RTVSPost2010Prop42
 90
       50
102
RTVSPost2010PropOp42
 70
     1
102
RTVSPost2010Prop43
 90
        3
102
RTVSPost2010PropOp43
 70
     1
102
RTVSPost2010Prop44ColorIndex
 90
        5
102
RTVSPost2010Prop44ColorRGB
 90
      255
102
RTVSPost2010PropOp44
 70
     1
102
RTVSPost2010Prop45
280
     0
102
RTVSPost2010PropOp45
 70
     1
102
RTVSPost2010Prop46
 90
       50
102
RTVSPost2010PropOp46
 70
     1
102
RTVSPost2010Prop47
 90
       50
102
RTVSPost2010PropOp47
 70
     1
102
RTVSPost2010Prop48
 90
       50
102
RTVSPost2010PropOp48
 70
     1
102
RTVSPost2010Prop49
280
     0
102
RTVSPost2010PropOp49
 70
     1
102
RTVSPost2010Prop50
 90
       50
102
RTVSPost2010PropOp50
 70
     1
102
RTVSPost2010Prop51ColorIndex
 90
      256
102
RTVSPost2010Prop51ColorRGB
 90
-16777216
102
RTVSPost2010PropOp51
 70
     0
102
RTVSPost2010Prop52
140
1.0
102
RTVSPost2010PropOp52
 70
     0
102
RTVSPost2010Prop53
 90
        2
102
RTVSPost2010PropOp53
 70
     1
102
RTVSPost2010Prop54
  1
strokes_ogs.tif
102
RTVSPost2010PropOp54
 70
     1
102
RTVSPost2010Prop55
280
     0
102
RTVSPost2010PropOp55
 70
     1
102
RTVSPost2010Prop56
140
1.0
102
RTVSPost2010PropOp56
 70
     1
102
RTVSPost2010Prop57
140
1.0
102
RTVSPost2010PropOp57
 70
     1
  0
XRECORD
  5
220E3
102
{ACAD_REACTORS
330
220E2
102
}
330
220E2
100
AcDbXrecord
280
     1
102
RTVSPost2010Prop28
280
     0
102
RTVSPost2010PropOp28
 70
     1
102
RTVSPost2010Prop29
280
     1
102
RTVSPost2010PropOp29
 70
     1
102
RTVSPost2010Prop30
280
     1
102
RTVSPost2010PropOp30
 70
     1
102
RTVSPost2010Prop31
280
     0
102
RTVSPost2010PropOp31
 70
     1
102
RTVSPost2010Prop32
280
     0
102
RTVSPost2010PropOp32
 70
     1
102
RTVSPost2010Prop33
280
     0
102
RTVSPost2010PropOp33
 70
     1
102
RTVSPost2010Prop34
280
     0
102
RTVSPost2010PropOp34
 70
     1
102
RTVSPost2010Prop35
280
     0
102
RTVSPost2010PropOp35
 70
     1
102
RTVSPost2010Prop36
280
     0
102
RTVSPost2010PropOp36
 70
     1
102
RTVSPost2010Prop37
 90
       50
102
RTVSPost2010PropOp37
 70
     1
102
RTVSPost2010Prop38
140
0.0
102
RTVSPost2010PropOp38
 70
     1
102
RTVSPost2010Prop39
140
1.0
102
RTVSPost2010PropOp39
 70
     1
102
RTVSPost2010Prop40
 90
        0
102
RTVSPost2010PropOp40
 70
     1
102
RTVSPost2010Prop41ColorIndex
 90
       18
102
RTVSPost2010Prop41ColorRGB
 90
        0
102
RTVSPost2010PropOp41
 70
     1
102
RTVSPost2010Prop42
 90
       50
102
RTVSPost2010PropOp42
 70
     1
102
RTVSPost2010Prop43
 90
        3
102
RTVSPost2010PropOp43
 70
     1
102
RTVSPost2010Prop44ColorIndex
 90
        5
102
RTVSPost2010Prop44ColorRGB
 90
      255
102
RTVSPost2010PropOp44
 70
     1
102
RTVSPost2010Prop45
280
     0
102
RTVSPost2010PropOp45
 70
     1
102
RTVSPost2010Prop46
 90
       50
102
RTVSPost2010PropOp46
 70
     1
102
RTVSPost2010Prop47
 90
       50
102
RTVSPost2010PropOp47
 70
     1
102
RTVSPost2010Prop48
 90
       50
102
RTVSPost2010PropOp48
 70
     1
102
RTVSPost2010Prop49
280
     0
102
RTVSPost2010PropOp49
 70
     1
102
RTVSPost2010Prop50
 90
       50
102
RTVSPost2010PropOp50
 70
     1
102
RTVSPost2010Prop51ColorIndex
 90
      256
102
RTVSPost2010Prop51ColorRGB
 90
-16777216
102
RTVSPost2010PropOp51
 70
     0
102
RTVSPost2010Prop52
140
1.0
102
RTVSPost2010PropOp52
 70
     0
102
RTVSPost2010Prop53
 90
        2
102
RTVSPost2010PropOp53
 70
     1
102
RTVSPost2010Prop54
  1
strokes_ogs.tif
102
RTVSPost2010PropOp54
 70
     1
102
RTVSPost2010Prop55
280
     0
102
RTVSPost2010PropOp55
 70
     1
102
RTVSPost2010Prop56
140
1.0
102
RTVSPost2010PropOp56
 70
     1
102
RTVSPost2010Prop57
140
1.0
102
RTVSPost2010PropOp57
 70
     1
  0
XRECORD
  5
220F1
102
{ACAD_REACTORS
330
220F0
102
}
330
220F0
100
AcDbXrecord
280
     1
102
RTVSPost2010Prop28
280
     0
102
RTVSPost2010PropOp28
 70
     1
102
RTVSPost2010Prop29
280
     1
102
RTVSPost2010PropOp29
 70
     1
102
RTVSPost2010Prop30
280
     1
102
RTVSPost2010PropOp30
 70
     1
102
RTVSPost2010Prop31
280
     0
102
RTVSPost2010PropOp31
 70
     1
102
RTVSPost2010Prop32
280
     0
102
RTVSPost2010PropOp32
 70
     1
102
RTVSPost2010Prop33
280
     0
102
RTVSPost2010PropOp33
 70
     1
102
RTVSPost2010Prop34
280
     0
102
RTVSPost2010PropOp34
 70
     1
102
RTVSPost2010Prop35
280
     0
102
RTVSPost2010PropOp35
 70
     1
102
RTVSPost2010Prop36
280
     0
102
RTVSPost2010PropOp36
 70
     1
102
RTVSPost2010Prop37
 90
       50
102
RTVSPost2010PropOp37
 70
     1
102
RTVSPost2010Prop38
140
0.0
102
RTVSPost2010PropOp38
 70
     1
102
RTVSPost2010Prop39
140
1.0
102
RTVSPost2010PropOp39
 70
     1
102
RTVSPost2010Prop40
 90
        0
102
RTVSPost2010PropOp40
 70
     1
102
RTVSPost2010Prop41ColorIndex
 90
       18
102
RTVSPost2010Prop41ColorRGB
 90
        0
102
RTVSPost2010PropOp41
 70
     1
102
RTVSPost2010Prop42
 90
       50
102
RTVSPost2010PropOp42
 70
     1
102
RTVSPost2010Prop43
 90
        3
102
RTVSPost2010PropOp43
 70
     1
102
RTVSPost2010Prop44ColorIndex
 90
        5
102
RTVSPost2010Prop44ColorRGB
 90
      255
102
RTVSPost2010PropOp44
 70
     1
102
RTVSPost2010Prop45
280
     0
102
RTVSPost2010PropOp45
 70
     1
102
RTVSPost2010Prop46
 90
       50
102
RTVSPost2010PropOp46
 70
     1
102
RTVSPost2010Prop47
 90
       50
102
RTVSPost2010PropOp47
 70
     1
102
RTVSPost2010Prop48
 90
       50
102
RTVSPost2010PropOp48
 70
     1
102
RTVSPost2010Prop49
280
     0
102
RTVSPost2010PropOp49
 70
     1
102
RTVSPost2010Prop50
 90
       50
102
RTVSPost2010PropOp50
 70
     1
102
RTVSPost2010Prop51ColorIndex
 90
      256
102
RTVSPost2010Prop51ColorRGB
 90
-16777216
102
RTVSPost2010PropOp51
 70
     0
102
RTVSPost2010Prop52
140
1.0
102
RTVSPost2010PropOp52
 70
     0
102
RTVSPost2010Prop53
 90
        2
102
RTVSPost2010PropOp53
 70
     1
102
RTVSPost2010Prop54
  1
strokes_ogs.tif
102
RTVSPost2010PropOp54
 70
     1
102
RTVSPost2010Prop55
280
     0
102
RTVSPost2010PropOp55
 70
     1
102
RTVSPost2010Prop56
140
1.0
102
RTVSPost2010PropOp56
 70
     1
102
RTVSPost2010Prop57
140
1.0
102
RTVSPost2010PropOp57
 70
     1
  0
XRECORD
  5
220F9
102
{ACAD_REACTORS
330
220F8
102
}
330
220F8
100
AcDbXrecord
280
     1
102
RTVSPost2010Prop28
280
     0
102
RTVSPost2010PropOp28
 70
     1
102
RTVSPost2010Prop29
280
     1
102
RTVSPost2010PropOp29
 70
     1
102
RTVSPost2010Prop30
280
     1
102
RTVSPost2010PropOp30
 70
     1
102
RTVSPost2010Prop31
280
     0
102
RTVSPost2010PropOp31
 70
     1
102
RTVSPost2010Prop32
280
     0
102
RTVSPost2010PropOp32
 70
     1
102
RTVSPost2010Prop33
280
     0
102
RTVSPost2010PropOp33
 70
     1
102
RTVSPost2010Prop34
280
     0
102
RTVSPost2010PropOp34
 70
     1
102
RTVSPost2010Prop35
280
     0
102
RTVSPost2010PropOp35
 70
     1
102
RTVSPost2010Prop36
280
     0
102
RTVSPost2010PropOp36
 70
     1
102
RTVSPost2010Prop37
 90
       50
102
RTVSPost2010PropOp37
 70
     1
102
RTVSPost2010Prop38
140
0.0
102
RTVSPost2010PropOp38
 70
     1
102
RTVSPost2010Prop39
140
1.0
102
RTVSPost2010PropOp39
 70
     1
102
RTVSPost2010Prop40
 90
        0
102
RTVSPost2010PropOp40
 70
     1
102
RTVSPost2010Prop41ColorIndex
 90
       18
102
RTVSPost2010Prop41ColorRGB
 90
        0
102
RTVSPost2010PropOp41
 70
     1
102
RTVSPost2010Prop42
 90
       50
102
RTVSPost2010PropOp42
 70
     1
102
RTVSPost2010Prop43
 90
        3
102
RTVSPost2010PropOp43
 70
     1
102
RTVSPost2010Prop44ColorIndex
 90
        5
102
RTVSPost2010Prop44ColorRGB
 90
      255
102
RTVSPost2010PropOp44
 70
     1
102
RTVSPost2010Prop45
280
     0
102
RTVSPost2010PropOp45
 70
     1
102
RTVSPost2010Prop46
 90
       50
102
RTVSPost2010PropOp46
 70
     1
102
RTVSPost2010Prop47
 90
       50
102
RTVSPost2010PropOp47
 70
     1
102
RTVSPost2010Prop48
 90
       50
102
RTVSPost2010PropOp48
 70
     1
102
RTVSPost2010Prop49
280
     0
102
RTVSPost2010PropOp49
 70
     1
102
RTVSPost2010Prop50
 90
       50
102
RTVSPost2010PropOp50
 70
     1
102
RTVSPost2010Prop51ColorIndex
 90
      256
102
RTVSPost2010Prop51ColorRGB
 90
-16777216
102
RTVSPost2010PropOp51
 70
     0
102
RTVSPost2010Prop52
140
1.0
102
RTVSPost2010PropOp52
 70
     0
102
RTVSPost2010Prop53
 90
        2
102
RTVSPost2010PropOp53
 70
     1
102
RTVSPost2010Prop54
  1
strokes_ogs.tif
102
RTVSPost2010PropOp54
 70
     1
102
RTVSPost2010Prop55
280
     0
102
RTVSPost2010PropOp55
 70
     1
102
RTVSPost2010Prop56
140
1.0
102
RTVSPost2010PropOp56
 70
     1
102
RTVSPost2010Prop57
140
1.0
102
RTVSPost2010PropOp57
 70
     1
  0
XRECORD
  5
220EB
102
{ACAD_REACTORS
330
220EA
102
}
330
220EA
100
AcDbXrecord
280
     1
102
RTVSPost2010Prop28
280
     0
102
RTVSPost2010PropOp28
 70
     1
102
RTVSPost2010Prop29
280
     1
102
RTVSPost2010PropOp29
 70
     1
102
RTVSPost2010Prop30
280
     1
102
RTVSPost2010PropOp30
 70
     1
102
RTVSPost2010Prop31
280
     0
102
RTVSPost2010PropOp31
 70
     1
102
RTVSPost2010Prop32
280
     0
102
RTVSPost2010PropOp32
 70
     1
102
RTVSPost2010Prop33
280
     0
102
RTVSPost2010PropOp33
 70
     1
102
RTVSPost2010Prop34
280
     0
102
RTVSPost2010PropOp34
 70
     1
102
RTVSPost2010Prop35
280
     0
102
RTVSPost2010PropOp35
 70
     1
102
RTVSPost2010Prop36
280
     0
102
RTVSPost2010PropOp36
 70
     1
102
RTVSPost2010Prop37
 90
       50
102
RTVSPost2010PropOp37
 70
     1
102
RTVSPost2010Prop38
140
0.0
102
RTVSPost2010PropOp38
 70
     1
102
RTVSPost2010Prop39
140
1.0
102
RTVSPost2010PropOp39
 70
     1
102
RTVSPost2010Prop40
 90
        0
102
RTVSPost2010PropOp40
 70
     1
102
RTVSPost2010Prop41ColorIndex
 90
       18
102
RTVSPost2010Prop41ColorRGB
 90
        0
102
RTVSPost2010PropOp41
 70
     1
102
RTVSPost2010Prop42
 90
       50
102
RTVSPost2010PropOp42
 70
     1
102
RTVSPost2010Prop43
 90
        3
102
RTVSPost2010PropOp43
 70
     1
102
RTVSPost2010Prop44ColorIndex
 90
        5
102
RTVSPost2010Prop44ColorRGB
 90
      255
102
RTVSPost2010PropOp44
 70
     1
102
RTVSPost2010Prop45
280
     0
102
RTVSPost2010PropOp45
 70
     1
102
RTVSPost2010Prop46
 90
       50
102
RTVSPost2010PropOp46
 70
     1
102
RTVSPost2010Prop47
 90
       50
102
RTVSPost2010PropOp47
 70
     1
102
RTVSPost2010Prop48
 90
       50
102
RTVSPost2010PropOp48
 70
     1
102
RTVSPost2010Prop49
280
     0
102
RTVSPost2010PropOp49
 70
     1
102
RTVSPost2010Prop50
 90
       50
102
RTVSPost2010PropOp50
 70
     1
102
RTVSPost2010Prop51ColorIndex
 90
      256
102
RTVSPost2010Prop51ColorRGB
 90
-16777216
102
RTVSPost2010PropOp51
 70
     0
102
RTVSPost2010Prop52
140
1.0
102
RTVSPost2010PropOp52
 70
     0
102
RTVSPost2010Prop53
 90
        2
102
RTVSPost2010PropOp53
 70
     1
102
RTVSPost2010Prop54
  1
strokes_ogs.tif
102
RTVSPost2010PropOp54
 70
     1
102
RTVSPost2010Prop55
280
     0
102
RTVSPost2010PropOp55
 70
     1
102
RTVSPost2010Prop56
140
1.0
102
RTVSPost2010PropOp56
 70
     1
102
RTVSPost2010Prop57
140
1.0
102
RTVSPost2010PropOp57
 70
     1
  0
XRECORD
  5
220EF
102
{ACAD_REACTORS
330
220EE
102
}
330
220EE
100
AcDbXrecord
280
     1
102
RTVSPost2010Prop28
280
     0
102
RTVSPost2010PropOp28
 70
     1
102
RTVSPost2010Prop29
280
     1
102
RTVSPost2010PropOp29
 70
     1
102
RTVSPost2010Prop30
280
     1
102
RTVSPost2010PropOp30
 70
     1
102
RTVSPost2010Prop31
280
     0
102
RTVSPost2010PropOp31
 70
     1
102
RTVSPost2010Prop32
280
     0
102
RTVSPost2010PropOp32
 70
     1
102
RTVSPost2010Prop33
280
     0
102
RTVSPost2010PropOp33
 70
     1
102
RTVSPost2010Prop34
280
     0
102
RTVSPost2010PropOp34
 70
     1
102
RTVSPost2010Prop35
280
     0
102
RTVSPost2010PropOp35
 70
     1
102
RTVSPost2010Prop36
280
     0
102
RTVSPost2010PropOp36
 70
     1
102
RTVSPost2010Prop37
 90
       50
102
RTVSPost2010PropOp37
 70
     1
102
RTVSPost2010Prop38
140
0.0
102
RTVSPost2010PropOp38
 70
     1
102
RTVSPost2010Prop39
140
1.0
102
RTVSPost2010PropOp39
 70
     1
102
RTVSPost2010Prop40
 90
        0
102
RTVSPost2010PropOp40
 70
     1
102
RTVSPost2010Prop41ColorIndex
 90
       18
102
RTVSPost2010Prop41ColorRGB
 90
        0
102
RTVSPost2010PropOp41
 70
     1
102
RTVSPost2010Prop42
 90
       50
102
RTVSPost2010PropOp42
 70
     1
102
RTVSPost2010Prop43
 90
        3
102
RTVSPost2010PropOp43
 70
     1
102
RTVSPost2010Prop44ColorIndex
 90
        5
102
RTVSPost2010Prop44ColorRGB
 90
      255
102
RTVSPost2010PropOp44
 70
     1
102
RTVSPost2010Prop45
280
     0
102
RTVSPost2010PropOp45
 70
     1
102
RTVSPost2010Prop46
 90
       50
102
RTVSPost2010PropOp46
 70
     1
102
RTVSPost2010Prop47
 90
       50
102
RTVSPost2010PropOp47
 70
     1
102
RTVSPost2010Prop48
 90
       50
102
RTVSPost2010PropOp48
 70
     1
102
RTVSPost2010Prop49
280
     0
102
RTVSPost2010PropOp49
 70
     1
102
RTVSPost2010Prop50
 90
       50
102
RTVSPost2010PropOp50
 70
     1
102
RTVSPost2010Prop51ColorIndex
 90
      256
102
RTVSPost2010Prop51ColorRGB
 90
-16777216
102
RTVSPost2010PropOp51
 70
     0
102
RTVSPost2010Prop52
140
1.0
102
RTVSPost2010PropOp52
 70
     0
102
RTVSPost2010Prop53
 90
        2
102
RTVSPost2010PropOp53
 70
     1
102
RTVSPost2010Prop54
  1
strokes_ogs.tif
102
RTVSPost2010PropOp54
 70
     1
102
RTVSPost2010Prop55
280
     0
102
RTVSPost2010PropOp55
 70
     1
102
RTVSPost2010Prop56
140
1.0
102
RTVSPost2010PropOp56
 70
     1
102
RTVSPost2010Prop57
140
1.0
102
RTVSPost2010PropOp57
 70
     1
  0
XRECORD
  5
2210D
102
{ACAD_REACTORS
330
2210C
102
}
330
2210C
100
AcDbXrecord
280
     1
102
RTVSPost2010Prop28
280
     0
102
RTVSPost2010PropOp28
 70
     1
102
RTVSPost2010Prop29
280
     1
102
RTVSPost2010PropOp29
 70
     1
102
RTVSPost2010Prop30
280
     1
102
RTVSPost2010PropOp30
 70
     1
102
RTVSPost2010Prop31
280
     0
102
RTVSPost2010PropOp31
 70
     1
102
RTVSPost2010Prop32
280
     0
102
RTVSPost2010PropOp32
 70
     1
102
RTVSPost2010Prop33
280
     0
102
RTVSPost2010PropOp33
 70
     1
102
RTVSPost2010Prop34
280
     0
102
RTVSPost2010PropOp34
 70
     1
102
RTVSPost2010Prop35
280
     0
102
RTVSPost2010PropOp35
 70
     1
102
RTVSPost2010Prop36
280
     0
102
RTVSPost2010PropOp36
 70
     1
102
RTVSPost2010Prop37
 90
       50
102
RTVSPost2010PropOp37
 70
     0
102
RTVSPost2010Prop38
140
0.0
102
RTVSPost2010PropOp38
 70
     0
102
RTVSPost2010Prop39
140
1.0
102
RTVSPost2010PropOp39
 70
     0
102
RTVSPost2010Prop40
 90
        0
102
RTVSPost2010PropOp40
 70
     0
102
RTVSPost2010Prop41ColorIndex
 90
       18
102
RTVSPost2010Prop41ColorRGB
 90
        0
102
RTVSPost2010PropOp41
 70
     0
102
RTVSPost2010Prop42
 90
       50
102
RTVSPost2010PropOp42
 70
     0
102
RTVSPost2010Prop43
 90
        3
102
RTVSPost2010PropOp43
 70
     0
102
RTVSPost2010Prop44ColorIndex
 90
        5
102
RTVSPost2010Prop44ColorRGB
 90
      255
102
RTVSPost2010PropOp44
 70
     0
102
RTVSPost2010Prop45
280
     0
102
RTVSPost2010PropOp45
 70
     1
102
RTVSPost2010Prop46
 90
       50
102
RTVSPost2010PropOp46
 70
     0
102
RTVSPost2010Prop47
 90
       50
102
RTVSPost2010PropOp47
 70
     0
102
RTVSPost2010Prop48
 90
       50
102
RTVSPost2010PropOp48
 70
     0
102
RTVSPost2010Prop49
280
     0
102
RTVSPost2010PropOp49
 70
     1
102
RTVSPost2010Prop50
 90
       50
102
RTVSPost2010PropOp50
 70
     0
102
RTVSPost2010Prop51ColorIndex
 90
      256
102
RTVSPost2010Prop51ColorRGB
 90
-16777216
102
RTVSPost2010PropOp51
 70
     0
102
RTVSPost2010Prop52
140
1.0
102
RTVSPost2010PropOp52
 70
     0
102
RTVSPost2010Prop53
 90
        2
102
RTVSPost2010PropOp53
 70
     0
102
RTVSPost2010Prop54
  1
strokes_ogs.tif
102
RTVSPost2010PropOp54
 70
     0
102
RTVSPost2010Prop55
280
     0
102
RTVSPost2010PropOp55
 70
     1
102
RTVSPost2010Prop56
140
1.0
102
RTVSPost2010PropOp56
 70
     0
102
RTVSPost2010Prop57
140
1.0
102
RTVSPost2010PropOp57
 70
     0
  0
XRECORD
  5
220F7
102
{ACAD_REACTORS
330
220F6
102
}
330
220F6
100
AcDbXrecord
280
     1
102
RTVSPost2010Prop28
280
     0
102
RTVSPost2010PropOp28
 70
     1
102
RTVSPost2010Prop29
280
     1
102
RTVSPost2010PropOp29
 70
     1
102
RTVSPost2010Prop30
280
     1
102
RTVSPost2010PropOp30
 70
     1
102
RTVSPost2010Prop31
280
     0
102
RTVSPost2010PropOp31
 70
     1
102
RTVSPost2010Prop32
280
     0
102
RTVSPost2010PropOp32
 70
     1
102
RTVSPost2010Prop33
280
     0
102
RTVSPost2010PropOp33
 70
     1
102
RTVSPost2010Prop34
280
     0
102
RTVSPost2010PropOp34
 70
     1
102
RTVSPost2010Prop35
280
     0
102
RTVSPost2010PropOp35
 70
     1
102
RTVSPost2010Prop36
280
     0
102
RTVSPost2010PropOp36
 70
     1
102
RTVSPost2010Prop37
 90
       50
102
RTVSPost2010PropOp37
 70
     1
102
RTVSPost2010Prop38
140
0.0
102
RTVSPost2010PropOp38
 70
     1
102
RTVSPost2010Prop39
140
1.0
102
RTVSPost2010PropOp39
 70
     1
102
RTVSPost2010Prop40
 90
        0
102
RTVSPost2010PropOp40
 70
     1
102
RTVSPost2010Prop41ColorIndex
 90
       18
102
RTVSPost2010Prop41ColorRGB
 90
        0
102
RTVSPost2010PropOp41
 70
     1
102
RTVSPost2010Prop42
 90
       50
102
RTVSPost2010PropOp42
 70
     1
102
RTVSPost2010Prop43
 90
        3
102
RTVSPost2010PropOp43
 70
     1
102
RTVSPost2010Prop44ColorIndex
 90
        5
102
RTVSPost2010Prop44ColorRGB
 90
      255
102
RTVSPost2010PropOp44
 70
     1
102
RTVSPost2010Prop45
280
     0
102
RTVSPost2010PropOp45
 70
     1
102
RTVSPost2010Prop46
 90
       50
102
RTVSPost2010PropOp46
 70
     1
102
RTVSPost2010Prop47
 90
       50
102
RTVSPost2010PropOp47
 70
     1
102
RTVSPost2010Prop48
 90
       50
102
RTVSPost2010PropOp48
 70
     1
102
RTVSPost2010Prop49
280
     0
102
RTVSPost2010PropOp49
 70
     1
102
RTVSPost2010Prop50
 90
       50
102
RTVSPost2010PropOp50
 70
     1
102
RTVSPost2010Prop51ColorIndex
 90
      256
102
RTVSPost2010Prop51ColorRGB
 90
-16777216
102
RTVSPost2010PropOp51
 70
     0
102
RTVSPost2010Prop52
140
1.0
102
RTVSPost2010PropOp52
 70
     0
102
RTVSPost2010Prop53
 90
        2
102
RTVSPost2010PropOp53
 70
     1
102
RTVSPost2010Prop54
  1
strokes_ogs.tif
102
RTVSPost2010PropOp54
 70
     1
102
RTVSPost2010Prop55
280
     0
102
RTVSPost2010PropOp55
 70
     1
102
RTVSPost2010Prop56
140
1.0
102
RTVSPost2010PropOp56
 70
     1
102
RTVSPost2010Prop57
140
1.0
102
RTVSPost2010PropOp57
 70
     1
  0
XRECORD
  5
220DB
102
{ACAD_REACTORS
330
220DA
102
}
330
220DA
100
AcDbXrecord
280
     1
102
RTVSPost2010Prop28
280
     0
102
RTVSPost2010PropOp28
 70
     1
102
RTVSPost2010Prop29
280
     1
102
RTVSPost2010PropOp29
 70
     1
102
RTVSPost2010Prop30
280
     1
102
RTVSPost2010PropOp30
 70
     1
102
RTVSPost2010Prop31
280
     0
102
RTVSPost2010PropOp31
 70
     1
102
RTVSPost2010Prop32
280
     0
102
RTVSPost2010PropOp32
 70
     1
102
RTVSPost2010Prop33
280
     0
102
RTVSPost2010PropOp33
 70
     1
102
RTVSPost2010Prop34
280
     0
102
RTVSPost2010PropOp34
 70
     1
102
RTVSPost2010Prop35
280
     0
102
RTVSPost2010PropOp35
 70
     1
102
RTVSPost2010Prop36
280
     0
102
RTVSPost2010PropOp36
 70
     1
102
RTVSPost2010Prop37
 90
       50
102
RTVSPost2010PropOp37
 70
     1
102
RTVSPost2010Prop38
140
0.0
102
RTVSPost2010PropOp38
 70
     1
102
RTVSPost2010Prop39
140
1.0
102
RTVSPost2010PropOp39
 70
     1
102
RTVSPost2010Prop40
 90
        0
102
RTVSPost2010PropOp40
 70
     1
102
RTVSPost2010Prop41ColorIndex
 90
       18
102
RTVSPost2010Prop41ColorRGB
 90
        0
102
RTVSPost2010PropOp41
 70
     1
102
RTVSPost2010Prop42
 90
       50
102
RTVSPost2010PropOp42
 70
     1
102
RTVSPost2010Prop43
 90
        3
102
RTVSPost2010PropOp43
 70
     1
102
RTVSPost2010Prop44ColorIndex
 90
        5
102
RTVSPost2010Prop44ColorRGB
 90
      255
102
RTVSPost2010PropOp44
 70
     1
102
RTVSPost2010Prop45
280
     0
102
RTVSPost2010PropOp45
 70
     1
102
RTVSPost2010Prop46
 90
       50
102
RTVSPost2010PropOp46
 70
     1
102
RTVSPost2010Prop47
 90
       50
102
RTVSPost2010PropOp47
 70
     1
102
RTVSPost2010Prop48
 90
       50
102
RTVSPost2010PropOp48
 70
     1
102
RTVSPost2010Prop49
280
     0
102
RTVSPost2010PropOp49
 70
     1
102
RTVSPost2010Prop50
 90
       50
102
RTVSPost2010PropOp50
 70
     1
102
RTVSPost2010Prop51ColorIndex
 90
      256
102
RTVSPost2010Prop51ColorRGB
 90
-16777216
102
RTVSPost2010PropOp51
 70
     0
102
RTVSPost2010Prop52
140
1.0
102
RTVSPost2010PropOp52
 70
     0
102
RTVSPost2010Prop53
 90
        2
102
RTVSPost2010PropOp53
 70
     1
102
RTVSPost2010Prop54
  1
strokes_ogs.tif
102
RTVSPost2010PropOp54
 70
     1
102
RTVSPost2010Prop55
280
     0
102
RTVSPost2010PropOp55
 70
     1
102
RTVSPost2010Prop56
140
1.0
102
RTVSPost2010PropOp56
 70
     1
102
RTVSPost2010Prop57
140
1.0
102
RTVSPost2010PropOp57
 70
     1
  0
XRECORD
  5
220DD
102
{ACAD_REACTORS
330
220DC
102
}
330
220DC
100
AcDbXrecord
280
     1
102
RTVSPost2010Prop28
280
     0
102
RTVSPost2010PropOp28
 70
     1
102
RTVSPost2010Prop29
280
     1
102
RTVSPost2010PropOp29
 70
     1
102
RTVSPost2010Prop30
280
     1
102
RTVSPost2010PropOp30
 70
     1
102
RTVSPost2010Prop31
280
     0
102
RTVSPost2010PropOp31
 70
     1
102
RTVSPost2010Prop32
280
     0
102
RTVSPost2010PropOp32
 70
     1
102
RTVSPost2010Prop33
280
     0
102
RTVSPost2010PropOp33
 70
     1
102
RTVSPost2010Prop34
280
     0
102
RTVSPost2010PropOp34
 70
     1
102
RTVSPost2010Prop35
280
     0
102
RTVSPost2010PropOp35
 70
     1
102
RTVSPost2010Prop36
280
     0
102
RTVSPost2010PropOp36
 70
     1
102
RTVSPost2010Prop37
 90
       50
102
RTVSPost2010PropOp37
 70
     1
102
RTVSPost2010Prop38
140
0.0
102
RTVSPost2010PropOp38
 70
     1
102
RTVSPost2010Prop39
140
1.0
102
RTVSPost2010PropOp39
 70
     1
102
RTVSPost2010Prop40
 90
        0
102
RTVSPost2010PropOp40
 70
     1
102
RTVSPost2010Prop41ColorIndex
 90
       18
102
RTVSPost2010Prop41ColorRGB
 90
        0
102
RTVSPost2010PropOp41
 70
     1
102
RTVSPost2010Prop42
 90
       50
102
RTVSPost2010PropOp42
 70
     1
102
RTVSPost2010Prop43
 90
        3
102
RTVSPost2010PropOp43
 70
     1
102
RTVSPost2010Prop44ColorIndex
 90
        5
102
RTVSPost2010Prop44ColorRGB
 90
      255
102
RTVSPost2010PropOp44
 70
     1
102
RTVSPost2010Prop45
280
     0
102
RTVSPost2010PropOp45
 70
     1
102
RTVSPost2010Prop46
 90
       50
102
RTVSPost2010PropOp46
 70
     1
102
RTVSPost2010Prop47
 90
       50
102
RTVSPost2010PropOp47
 70
     1
102
RTVSPost2010Prop48
 90
       50
102
RTVSPost2010PropOp48
 70
     1
102
RTVSPost2010Prop49
280
     0
102
RTVSPost2010PropOp49
 70
     1
102
RTVSPost2010Prop50
 90
       50
102
RTVSPost2010PropOp50
 70
     1
102
RTVSPost2010Prop51ColorIndex
 90
      256
102
RTVSPost2010Prop51ColorRGB
 90
-16777216
102
RTVSPost2010PropOp51
 70
     0
102
RTVSPost2010Prop52
140
1.0
102
RTVSPost2010PropOp52
 70
     0
102
RTVSPost2010Prop53
 90
        2
102
RTVSPost2010PropOp53
 70
     1
102
RTVSPost2010Prop54
  1
strokes_ogs.tif
102
RTVSPost2010PropOp54
 70
     1
102
RTVSPost2010Prop55
280
     0
102
RTVSPost2010PropOp55
 70
     1
102
RTVSPost2010Prop56
140
1.0
102
RTVSPost2010PropOp56
 70
     1
102
RTVSPost2010Prop57
140
1.0
102
RTVSPost2010PropOp57
 70
     1
  0
XRECORD
  5
220DF
102
{ACAD_REACTORS
330
220DE
102
}
330
220DE
100
AcDbXrecord
280
     1
102
RTVSPost2010Prop28
280
     0
102
RTVSPost2010PropOp28
 70
     1
102
RTVSPost2010Prop29
280
     1
102
RTVSPost2010PropOp29
 70
     1
102
RTVSPost2010Prop30
280
     1
102
RTVSPost2010PropOp30
 70
     1
102
RTVSPost2010Prop31
280
     0
102
RTVSPost2010PropOp31
 70
     1
102
RTVSPost2010Prop32
280
     0
102
RTVSPost2010PropOp32
 70
     1
102
RTVSPost2010Prop33
280
     0
102
RTVSPost2010PropOp33
 70
     1
102
RTVSPost2010Prop34
280
     0
102
RTVSPost2010PropOp34
 70
     1
102
RTVSPost2010Prop35
280
     0
102
RTVSPost2010PropOp35
 70
     1
102
RTVSPost2010Prop36
280
     0
102
RTVSPost2010PropOp36
 70
     1
102
RTVSPost2010Prop37
 90
       50
102
RTVSPost2010PropOp37
 70
     1
102
RTVSPost2010Prop38
140
0.0
102
RTVSPost2010PropOp38
 70
     1
102
RTVSPost2010Prop39
140
1.0
102
RTVSPost2010PropOp39
 70
     1
102
RTVSPost2010Prop40
 90
        0
102
RTVSPost2010PropOp40
 70
     1
102
RTVSPost2010Prop41ColorIndex
 90
       18
102
RTVSPost2010Prop41ColorRGB
 90
        0
102
RTVSPost2010PropOp41
 70
     1
102
RTVSPost2010Prop42
 90
       50
102
RTVSPost2010PropOp42
 70
     1
102
RTVSPost2010Prop43
 90
        3
102
RTVSPost2010PropOp43
 70
     1
102
RTVSPost2010Prop44ColorIndex
 90
        5
102
RTVSPost2010Prop44ColorRGB
 90
      255
102
RTVSPost2010PropOp44
 70
     1
102
RTVSPost2010Prop45
280
     0
102
RTVSPost2010PropOp45
 70
     1
102
RTVSPost2010Prop46
 90
       50
102
RTVSPost2010PropOp46
 70
     1
102
RTVSPost2010Prop47
 90
       50
102
RTVSPost2010PropOp47
 70
     1
102
RTVSPost2010Prop48
 90
       50
102
RTVSPost2010PropOp48
 70
     1
102
RTVSPost2010Prop49
280
     0
102
RTVSPost2010PropOp49
 70
     1
102
RTVSPost2010Prop50
 90
       50
102
RTVSPost2010PropOp50
 70
     1
102
RTVSPost2010Prop51ColorIndex
 90
      256
102
RTVSPost2010Prop51ColorRGB
 90
-16777216
102
RTVSPost2010PropOp51
 70
     0
102
RTVSPost2010Prop52
140
1.0
102
RTVSPost2010PropOp52
 70
     0
102
RTVSPost2010Prop53
 90
        2
102
RTVSPost2010PropOp53
 70
     1
102
RTVSPost2010Prop54
  1
strokes_ogs.tif
102
RTVSPost2010PropOp54
 70
     1
102
RTVSPost2010Prop55
280
     0
102
RTVSPost2010PropOp55
 70
     1
102
RTVSPost2010Prop56
140
1.0
102
RTVSPost2010PropOp56
 70
     1
102
RTVSPost2010Prop57
140
1.0
102
RTVSPost2010PropOp57
 70
     1
  0
XRECORD
  5
220E1
102
{ACAD_REACTORS
330
220E0
102
}
330
220E0
100
AcDbXrecord
280
     1
102
RTVSPost2010Prop28
280
     0
102
RTVSPost2010PropOp28
 70
     1
102
RTVSPost2010Prop29
280
     1
102
RTVSPost2010PropOp29
 70
     1
102
RTVSPost2010Prop30
280
     1
102
RTVSPost2010PropOp30
 70
     1
102
RTVSPost2010Prop31
280
     0
102
RTVSPost2010PropOp31
 70
     1
102
RTVSPost2010Prop32
280
     0
102
RTVSPost2010PropOp32
 70
     1
102
RTVSPost2010Prop33
280
     0
102
RTVSPost2010PropOp33
 70
     1
102
RTVSPost2010Prop34
280
     0
102
RTVSPost2010PropOp34
 70
     1
102
RTVSPost2010Prop35
280
     0
102
RTVSPost2010PropOp35
 70
     1
102
RTVSPost2010Prop36
280
     0
102
RTVSPost2010PropOp36
 70
     1
102
RTVSPost2010Prop37
 90
       50
102
RTVSPost2010PropOp37
 70
     1
102
RTVSPost2010Prop38
140
0.0
102
RTVSPost2010PropOp38
 70
     1
102
RTVSPost2010Prop39
140
1.0
102
RTVSPost2010PropOp39
 70
     1
102
RTVSPost2010Prop40
 90
        0
102
RTVSPost2010PropOp40
 70
     1
102
RTVSPost2010Prop41ColorIndex
 90
       18
102
RTVSPost2010Prop41ColorRGB
 90
        0
102
RTVSPost2010PropOp41
 70
     1
102
RTVSPost2010Prop42
 90
       50
102
RTVSPost2010PropOp42
 70
     1
102
RTVSPost2010Prop43
 90
        3
102
RTVSPost2010PropOp43
 70
     1
102
RTVSPost2010Prop44ColorIndex
 90
        5
102
RTVSPost2010Prop44ColorRGB
 90
      255
102
RTVSPost2010PropOp44
 70
     1
102
RTVSPost2010Prop45
280
     0
102
RTVSPost2010PropOp45
 70
     1
102
RTVSPost2010Prop46
 90
       50
102
RTVSPost2010PropOp46
 70
     1
102
RTVSPost2010Prop47
 90
       50
102
RTVSPost2010PropOp47
 70
     1
102
RTVSPost2010Prop48
 90
       50
102
RTVSPost2010PropOp48
 70
     1
102
RTVSPost2010Prop49
280
     0
102
RTVSPost2010PropOp49
 70
     1
102
RTVSPost2010Prop50
 90
       50
102
RTVSPost2010PropOp50
 70
     1
102
RTVSPost2010Prop51ColorIndex
 90
      256
102
RTVSPost2010Prop51ColorRGB
 90
-16777216
102
RTVSPost2010PropOp51
 70
     0
102
RTVSPost2010Prop52
140
1.0
102
RTVSPost2010PropOp52
 70
     0
102
RTVSPost2010Prop53
 90
        2
102
RTVSPost2010PropOp53
 70
     1
102
RTVSPost2010Prop54
  1
strokes_ogs.tif
102
RTVSPost2010PropOp54
 70
     1
102
RTVSPost2010Prop55
280
     0
102
RTVSPost2010PropOp55
 70
     1
102
RTVSPost2010Prop56
140
1.0
102
RTVSPost2010PropOp56
 70
     1
102
RTVSPost2010Prop57
140
1.0
102
RTVSPost2010PropOp57
 70
     1
  0
XRECORD
  5
220FD
102
{ACAD_REACTORS
330
220FC
102
}
330
220FC
100
AcDbXrecord
280
     1
102
RTVSPost2010Prop28
280
     0
102
RTVSPost2010PropOp28
 70
     1
102
RTVSPost2010Prop29
280
     1
102
RTVSPost2010PropOp29
 70
     1
102
RTVSPost2010Prop30
280
     1
102
RTVSPost2010PropOp30
 70
     1
102
RTVSPost2010Prop31
280
     0
102
RTVSPost2010PropOp31
 70
     1
102
RTVSPost2010Prop32
280
     0
102
RTVSPost2010PropOp32
 70
     1
102
RTVSPost2010Prop33
280
     0
102
RTVSPost2010PropOp33
 70
     1
102
RTVSPost2010Prop34
280
     0
102
RTVSPost2010PropOp34
 70
     1
102
RTVSPost2010Prop35
280
     0
102
RTVSPost2010PropOp35
 70
     1
102
RTVSPost2010Prop36
280
     0
102
RTVSPost2010PropOp36
 70
     1
102
RTVSPost2010Prop37
 90
       50
102
RTVSPost2010PropOp37
 70
     1
102
RTVSPost2010Prop38
140
0.0
102
RTVSPost2010PropOp38
 70
     1
102
RTVSPost2010Prop39
140
1.0
102
RTVSPost2010PropOp39
 70
     1
102
RTVSPost2010Prop40
 90
        0
102
RTVSPost2010PropOp40
 70
     1
102
RTVSPost2010Prop41ColorIndex
 90
       18
102
RTVSPost2010Prop41ColorRGB
 90
        0
102
RTVSPost2010PropOp41
 70
     1
102
RTVSPost2010Prop42
 90
       50
102
RTVSPost2010PropOp42
 70
     1
102
RTVSPost2010Prop43
 90
        3
102
RTVSPost2010PropOp43
 70
     1
102
RTVSPost2010Prop44ColorIndex
 90
        5
102
RTVSPost2010Prop44ColorRGB
 90
      255
102
RTVSPost2010PropOp44
 70
     1
102
RTVSPost2010Prop45
280
     0
102
RTVSPost2010PropOp45
 70
     1
102
RTVSPost2010Prop46
 90
       50
102
RTVSPost2010PropOp46
 70
     1
102
RTVSPost2010Prop47
 90
       50
102
RTVSPost2010PropOp47
 70
     1
102
RTVSPost2010Prop48
 90
       50
102
RTVSPost2010PropOp48
 70
     1
102
RTVSPost2010Prop49
280
     0
102
RTVSPost2010PropOp49
 70
     1
102
RTVSPost2010Prop50
 90
       50
102
RTVSPost2010PropOp50
 70
     1
102
RTVSPost2010Prop51ColorIndex
 90
      256
102
RTVSPost2010Prop51ColorRGB
 90
-16777216
102
RTVSPost2010PropOp51
 70
     0
102
RTVSPost2010Prop52
140
1.0
102
RTVSPost2010PropOp52
 70
     0
102
RTVSPost2010Prop53
 90
        2
102
RTVSPost2010PropOp53
 70
     1
102
RTVSPost2010Prop54
  1
strokes_ogs.tif
102
RTVSPost2010PropOp54
 70
     1
102
RTVSPost2010Prop55
280
     0
102
RTVSPost2010PropOp55
 70
     1
102
RTVSPost2010Prop56
140
1.0
102
RTVSPost2010PropOp56
 70
     1
102
RTVSPost2010Prop57
140
1.0
102
RTVSPost2010PropOp57
 70
     1
  0
XRECORD
  5
22109
102
{ACAD_REACTORS
330
22108
102
}
330
22108
100
AcDbXrecord
280
     1
102
RTVSPost2010Prop28
280
     0
102
RTVSPost2010PropOp28
 70
     1
102
RTVSPost2010Prop29
280
     1
102
RTVSPost2010PropOp29
 70
     1
102
RTVSPost2010Prop30
280
     1
102
RTVSPost2010PropOp30
 70
     1
102
RTVSPost2010Prop31
280
     0
102
RTVSPost2010PropOp31
 70
     1
102
RTVSPost2010Prop32
280
     0
102
RTVSPost2010PropOp32
 70
     1
102
RTVSPost2010Prop33
280
     0
102
RTVSPost2010PropOp33
 70
     1
102
RTVSPost2010Prop34
280
     0
102
RTVSPost2010PropOp34
 70
     1
102
RTVSPost2010Prop35
280
     0
102
RTVSPost2010PropOp35
 70
     1
102
RTVSPost2010Prop36
280
     0
102
RTVSPost2010PropOp36
 70
     1
102
RTVSPost2010Prop37
 90
       50
102
RTVSPost2010PropOp37
 70
     0
102
RTVSPost2010Prop38
140
0.0
102
RTVSPost2010PropOp38
 70
     0
102
RTVSPost2010Prop39
140
1.0
102
RTVSPost2010PropOp39
 70
     0
102
RTVSPost2010Prop40
 90
        0
102
RTVSPost2010PropOp40
 70
     0
102
RTVSPost2010Prop41ColorIndex
 90
       18
102
RTVSPost2010Prop41ColorRGB
 90
        0
102
RTVSPost2010PropOp41
 70
     0
102
RTVSPost2010Prop42
 90
       50
102
RTVSPost2010PropOp42
 70
     0
102
RTVSPost2010Prop43
 90
        3
102
RTVSPost2010PropOp43
 70
     0
102
RTVSPost2010Prop44ColorIndex
 90
        5
102
RTVSPost2010Prop44ColorRGB
 90
      255
102
RTVSPost2010PropOp44
 70
     0
102
RTVSPost2010Prop45
280
     0
102
RTVSPost2010PropOp45
 70
     1
102
RTVSPost2010Prop46
 90
       50
102
RTVSPost2010PropOp46
 70
     0
102
RTVSPost2010Prop47
 90
       50
102
RTVSPost2010PropOp47
 70
     0
102
RTVSPost2010Prop48
 90
       50
102
RTVSPost2010PropOp48
 70
     0
102
RTVSPost2010Prop49
280
     0
102
RTVSPost2010PropOp49
 70
     1
102
RTVSPost2010Prop50
 90
       50
102
RTVSPost2010PropOp50
 70
     0
102
RTVSPost2010Prop51ColorIndex
 90
      256
102
RTVSPost2010Prop51ColorRGB
 90
-16777216
102
RTVSPost2010PropOp51
 70
     0
102
RTVSPost2010Prop52
140
1.0
102
RTVSPost2010PropOp52
 70
     0
102
RTVSPost2010Prop53
 90
        2
102
RTVSPost2010PropOp53
 70
     0
102
RTVSPost2010Prop54
  1
strokes_ogs.tif
102
RTVSPost2010PropOp54
 70
     0
102
RTVSPost2010Prop55
280
     0
102
RTVSPost2010PropOp55
 70
     1
102
RTVSPost2010Prop56
140
1.0
102
RTVSPost2010PropOp56
 70
     0
102
RTVSPost2010Prop57
140
1.0
102
RTVSPost2010PropOp57
 70
     0
  0
XRECORD
  5
220F5
102
{ACAD_REACTORS
330
220F4
102
}
330
220F4
100
AcDbXrecord
280
     1
102
RTVSPost2010Prop28
280
     0
102
RTVSPost2010PropOp28
 70
     1
102
RTVSPost2010Prop29
280
     1
102
RTVSPost2010PropOp29
 70
     1
102
RTVSPost2010Prop30
280
     1
102
RTVSPost2010PropOp30
 70
     1
102
RTVSPost2010Prop31
280
     0
102
RTVSPost2010PropOp31
 70
     1
102
RTVSPost2010Prop32
280
     0
102
RTVSPost2010PropOp32
 70
     1
102
RTVSPost2010Prop33
280
     0
102
RTVSPost2010PropOp33
 70
     1
102
RTVSPost2010Prop34
280
     0
102
RTVSPost2010PropOp34
 70
     1
102
RTVSPost2010Prop35
280
     0
102
RTVSPost2010PropOp35
 70
     1
102
RTVSPost2010Prop36
280
     0
102
RTVSPost2010PropOp36
 70
     1
102
RTVSPost2010Prop37
 90
       50
102
RTVSPost2010PropOp37
 70
     1
102
RTVSPost2010Prop38
140
0.0
102
RTVSPost2010PropOp38
 70
     1
102
RTVSPost2010Prop39
140
1.0
102
RTVSPost2010PropOp39
 70
     1
102
RTVSPost2010Prop40
 90
        0
102
RTVSPost2010PropOp40
 70
     1
102
RTVSPost2010Prop41ColorIndex
 90
       18
102
RTVSPost2010Prop41ColorRGB
 90
        0
102
RTVSPost2010PropOp41
 70
     1
102
RTVSPost2010Prop42
 90
       50
102
RTVSPost2010PropOp42
 70
     1
102
RTVSPost2010Prop43
 90
        3
102
RTVSPost2010PropOp43
 70
     1
102
RTVSPost2010Prop44ColorIndex
 90
        5
102
RTVSPost2010Prop44ColorRGB
 90
      255
102
RTVSPost2010PropOp44
 70
     1
102
RTVSPost2010Prop45
280
     0
102
RTVSPost2010PropOp45
 70
     1
102
RTVSPost2010Prop46
 90
       50
102
RTVSPost2010PropOp46
 70
     1
102
RTVSPost2010Prop47
 90
       50
102
RTVSPost2010PropOp47
 70
     1
102
RTVSPost2010Prop48
 90
       50
102
RTVSPost2010PropOp48
 70
     1
102
RTVSPost2010Prop49
280
     0
102
RTVSPost2010PropOp49
 70
     1
102
RTVSPost2010Prop50
 90
       50
102
RTVSPost2010PropOp50
 70
     1
102
RTVSPost2010Prop51ColorIndex
 90
      256
102
RTVSPost2010Prop51ColorRGB
 90
-16777216
102
RTVSPost2010PropOp51
 70
     0
102
RTVSPost2010Prop52
140
1.0
102
RTVSPost2010PropOp52
 70
     0
102
RTVSPost2010Prop53
 90
        2
102
RTVSPost2010PropOp53
 70
     1
102
RTVSPost2010Prop54
  1
strokes_ogs.tif
102
RTVSPost2010PropOp54
 70
     1
102
RTVSPost2010Prop55
280
     0
102
RTVSPost2010PropOp55
 70
     1
102
RTVSPost2010Prop56
140
1.0
102
RTVSPost2010PropOp56
 70
     1
102
RTVSPost2010Prop57
140
1.0
102
RTVSPost2010PropOp57
 70
     1
  0
XRECORD
  5
2210B
102
{ACAD_REACTORS
330
2210A
102
}
330
2210A
100
AcDbXrecord
280
     1
102
RTVSPost2010Prop28
280
     0
102
RTVSPost2010PropOp28
 70
     1
102
RTVSPost2010Prop29
280
     1
102
RTVSPost2010PropOp29
 70
     1
102
RTVSPost2010Prop30
280
     1
102
RTVSPost2010PropOp30
 70
     1
102
RTVSPost2010Prop31
280
     0
102
RTVSPost2010PropOp31
 70
     1
102
RTVSPost2010Prop32
280
     0
102
RTVSPost2010PropOp32
 70
     1
102
RTVSPost2010Prop33
280
     0
102
RTVSPost2010PropOp33
 70
     1
102
RTVSPost2010Prop34
280
     0
102
RTVSPost2010PropOp34
 70
     1
102
RTVSPost2010Prop35
280
     0
102
RTVSPost2010PropOp35
 70
     1
102
RTVSPost2010Prop36
280
     0
102
RTVSPost2010PropOp36
 70
     1
102
RTVSPost2010Prop37
 90
       50
102
RTVSPost2010PropOp37
 70
     0
102
RTVSPost2010Prop38
140
0.0
102
RTVSPost2010PropOp38
 70
     0
102
RTVSPost2010Prop39
140
1.0
102
RTVSPost2010PropOp39
 70
     0
102
RTVSPost2010Prop40
 90
        0
102
RTVSPost2010PropOp40
 70
     0
102
RTVSPost2010Prop41ColorIndex
 90
       18
102
RTVSPost2010Prop41ColorRGB
 90
        0
102
RTVSPost2010PropOp41
 70
     0
102
RTVSPost2010Prop42
 90
       50
102
RTVSPost2010PropOp42
 70
     0
102
RTVSPost2010Prop43
 90
        3
102
RTVSPost2010PropOp43
 70
     0
102
RTVSPost2010Prop44ColorIndex
 90
        5
102
RTVSPost2010Prop44ColorRGB
 90
      255
102
RTVSPost2010PropOp44
 70
     0
102
RTVSPost2010Prop45
280
     0
102
RTVSPost2010PropOp45
 70
     1
102
RTVSPost2010Prop46
 90
       50
102
RTVSPost2010PropOp46
 70
     0
102
RTVSPost2010Prop47
 90
       50
102
RTVSPost2010PropOp47
 70
     0
102
RTVSPost2010Prop48
 90
       50
102
RTVSPost2010PropOp48
 70
     0
102
RTVSPost2010Prop49
280
     0
102
RTVSPost2010PropOp49
 70
     1
102
RTVSPost2010Prop50
 90
       50
102
RTVSPost2010PropOp50
 70
     0
102
RTVSPost2010Prop51ColorIndex
 90
      256
102
RTVSPost2010Prop51ColorRGB
 90
-16777216
102
RTVSPost2010PropOp51
 70
     0
102
RTVSPost2010Prop52
140
1.0
102
RTVSPost2010PropOp52
 70
     0
102
RTVSPost2010Prop53
 90
        2
102
RTVSPost2010PropOp53
 70
     0
102
RTVSPost2010Prop54
  1
strokes_ogs.tif
102
RTVSPost2010PropOp54
 70
     0
102
RTVSPost2010Prop55
280
     0
102
RTVSPost2010PropOp55
 70
     1
102
RTVSPost2010Prop56
140
1.0
102
RTVSPost2010PropOp56
 70
     0
102
RTVSPost2010Prop57
140
1.0
102
RTVSPost2010PropOp57
 70
     0
  0
XRECORD
  5
220ED
102
{ACAD_REACTORS
330
220EC
102
}
330
220EC
100
AcDbXrecord
280
     1
102
RTVSPost2010Prop28
280
     0
102
RTVSPost2010PropOp28
 70
     1
102
RTVSPost2010Prop29
280
     1
102
RTVSPost2010PropOp29
 70
     1
102
RTVSPost2010Prop30
280
     1
102
RTVSPost2010PropOp30
 70
     1
102
RTVSPost2010Prop31
280
     0
102
RTVSPost2010PropOp31
 70
     1
102
RTVSPost2010Prop32
280
     0
102
RTVSPost2010PropOp32
 70
     1
102
RTVSPost2010Prop33
280
     0
102
RTVSPost2010PropOp33
 70
     1
102
RTVSPost2010Prop34
280
     0
102
RTVSPost2010PropOp34
 70
     1
102
RTVSPost2010Prop35
280
     0
102
RTVSPost2010PropOp35
 70
     1
102
RTVSPost2010Prop36
280
     0
102
RTVSPost2010PropOp36
 70
     1
102
RTVSPost2010Prop37
 90
       50
102
RTVSPost2010PropOp37
 70
     1
102
RTVSPost2010Prop38
140
0.0
102
RTVSPost2010PropOp38
 70
     1
102
RTVSPost2010Prop39
140
1.0
102
RTVSPost2010PropOp39
 70
     1
102
RTVSPost2010Prop40
 90
        0
102
RTVSPost2010PropOp40
 70
     1
102
RTVSPost2010Prop41ColorIndex
 90
       18
102
RTVSPost2010Prop41ColorRGB
 90
        0
102
RTVSPost2010PropOp41
 70
     1
102
RTVSPost2010Prop42
 90
       50
102
RTVSPost2010PropOp42
 70
     1
102
RTVSPost2010Prop43
 90
        3
102
RTVSPost2010PropOp43
 70
     1
102
RTVSPost2010Prop44ColorIndex
 90
        5
102
RTVSPost2010Prop44ColorRGB
 90
      255
102
RTVSPost2010PropOp44
 70
     1
102
RTVSPost2010Prop45
280
     0
102
RTVSPost2010PropOp45
 70
     1
102
RTVSPost2010Prop46
 90
       50
102
RTVSPost2010PropOp46
 70
     1
102
RTVSPost2010Prop47
 90
       50
102
RTVSPost2010PropOp47
 70
     1
102
RTVSPost2010Prop48
 90
       50
102
RTVSPost2010PropOp48
 70
     1
102
RTVSPost2010Prop49
280
     0
102
RTVSPost2010PropOp49
 70
     1
102
RTVSPost2010Prop50
 90
       50
102
RTVSPost2010PropOp50
 70
     1
102
RTVSPost2010Prop51ColorIndex
 90
      256
102
RTVSPost2010Prop51ColorRGB
 90
-16777216
102
RTVSPost2010PropOp51
 70
     0
102
RTVSPost2010Prop52
140
1.0
102
RTVSPost2010PropOp52
 70
     0
102
RTVSPost2010Prop53
 90
        2
102
RTVSPost2010PropOp53
 70
     1
102
RTVSPost2010Prop54
  1
strokes_ogs.tif
102
RTVSPost2010PropOp54
 70
     1
102
RTVSPost2010Prop55
280
     0
102
RTVSPost2010PropOp55
 70
     1
102
RTVSPost2010Prop56
140
1.0
102
RTVSPost2010PropOp56
 70
     1
102
RTVSPost2010Prop57
140
1.0
102
RTVSPost2010PropOp57
 70
     1
  0
XRECORD
  5
22107
102
{ACAD_REACTORS
330
22106
102
}
330
22106
100
AcDbXrecord
280
     1
102
RTVSPost2010Prop28
280
     0
102
RTVSPost2010PropOp28
 70
     1
102
RTVSPost2010Prop29
280
     1
102
RTVSPost2010PropOp29
 70
     1
102
RTVSPost2010Prop30
280
     1
102
RTVSPost2010PropOp30
 70
     1
102
RTVSPost2010Prop31
280
     0
102
RTVSPost2010PropOp31
 70
     1
102
RTVSPost2010Prop32
280
     0
102
RTVSPost2010PropOp32
 70
     1
102
RTVSPost2010Prop33
280
     0
102
RTVSPost2010PropOp33
 70
     1
102
RTVSPost2010Prop34
280
     0
102
RTVSPost2010PropOp34
 70
     1
102
RTVSPost2010Prop35
280
     0
102
RTVSPost2010PropOp35
 70
     1
102
RTVSPost2010Prop36
280
     0
102
RTVSPost2010PropOp36
 70
     1
102
RTVSPost2010Prop37
 90
       50
102
RTVSPost2010PropOp37
 70
     1
102
RTVSPost2010Prop38
140
0.0
102
RTVSPost2010PropOp38
 70
     1
102
RTVSPost2010Prop39
140
1.0
102
RTVSPost2010PropOp39
 70
     1
102
RTVSPost2010Prop40
 90
        0
102
RTVSPost2010PropOp40
 70
     1
102
RTVSPost2010Prop41ColorIndex
 90
       18
102
RTVSPost2010Prop41ColorRGB
 90
        0
102
RTVSPost2010PropOp41
 70
     1
102
RTVSPost2010Prop42
 90
       50
102
RTVSPost2010PropOp42
 70
     1
102
RTVSPost2010Prop43
 90
        3
102
RTVSPost2010PropOp43
 70
     1
102
RTVSPost2010Prop44ColorIndex
 90
        5
102
RTVSPost2010Prop44ColorRGB
 90
      255
102
RTVSPost2010PropOp44
 70
     1
102
RTVSPost2010Prop45
280
     0
102
RTVSPost2010PropOp45
 70
     1
102
RTVSPost2010Prop46
 90
       50
102
RTVSPost2010PropOp46
 70
     1
102
RTVSPost2010Prop47
 90
       50
102
RTVSPost2010PropOp47
 70
     1
102
RTVSPost2010Prop48
 90
       50
102
RTVSPost2010PropOp48
 70
     1
102
RTVSPost2010Prop49
280
     0
102
RTVSPost2010PropOp49
 70
     1
102
RTVSPost2010Prop50
 90
       50
102
RTVSPost2010PropOp50
 70
     1
102
RTVSPost2010Prop51ColorIndex
 90
      256
102
RTVSPost2010Prop51ColorRGB
 90
-16777216
102
RTVSPost2010PropOp51
 70
     0
102
RTVSPost2010Prop52
140
1.0
102
RTVSPost2010PropOp52
 70
     0
102
RTVSPost2010Prop53
 90
        2
102
RTVSPost2010PropOp53
 70
     1
102
RTVSPost2010Prop54
  1
strokes_ogs.tif
102
RTVSPost2010PropOp54
 70
     1
102
RTVSPost2010Prop55
280
     0
102
RTVSPost2010PropOp55
 70
     1
102
RTVSPost2010Prop56
140
1.0
102
RTVSPost2010PropOp56
 70
     1
102
RTVSPost2010Prop57
140
1.0
102
RTVSPost2010PropOp57
 70
     1
  0
XRECORD
  5
22105
102
{ACAD_REACTORS
330
22104
102
}
330
22104
100
AcDbXrecord
280
     1
102
RTVSPost2010Prop28
280
     0
102
RTVSPost2010PropOp28
 70
     1
102
RTVSPost2010Prop29
280
     1
102
RTVSPost2010PropOp29
 70
     1
102
RTVSPost2010Prop30
280
     1
102
RTVSPost2010PropOp30
 70
     1
102
RTVSPost2010Prop31
280
     0
102
RTVSPost2010PropOp31
 70
     1
102
RTVSPost2010Prop32
280
     0
102
RTVSPost2010PropOp32
 70
     1
102
RTVSPost2010Prop33
280
     0
102
RTVSPost2010PropOp33
 70
     1
102
RTVSPost2010Prop34
280
     0
102
RTVSPost2010PropOp34
 70
     1
102
RTVSPost2010Prop35
280
     0
102
RTVSPost2010PropOp35
 70
     1
102
RTVSPost2010Prop36
280
     0
102
RTVSPost2010PropOp36
 70
     1
102
RTVSPost2010Prop37
 90
       50
102
RTVSPost2010PropOp37
 70
     1
102
RTVSPost2010Prop38
140
0.0
102
RTVSPost2010PropOp38
 70
     1
102
RTVSPost2010Prop39
140
1.0
102
RTVSPost2010PropOp39
 70
     1
102
RTVSPost2010Prop40
 90
        0
102
RTVSPost2010PropOp40
 70
     1
102
RTVSPost2010Prop41ColorIndex
 90
       18
102
RTVSPost2010Prop41ColorRGB
 90
        0
102
RTVSPost2010PropOp41
 70
     1
102
RTVSPost2010Prop42
 90
       50
102
RTVSPost2010PropOp42
 70
     1
102
RTVSPost2010Prop43
 90
        3
102
RTVSPost2010PropOp43
 70
     1
102
RTVSPost2010Prop44ColorIndex
 90
        5
102
RTVSPost2010Prop44ColorRGB
 90
      255
102
RTVSPost2010PropOp44
 70
     1
102
RTVSPost2010Prop45
280
     0
102
RTVSPost2010PropOp45
 70
     1
102
RTVSPost2010Prop46
 90
       50
102
RTVSPost2010PropOp46
 70
     1
102
RTVSPost2010Prop47
 90
       50
102
RTVSPost2010PropOp47
 70
     1
102
RTVSPost2010Prop48
 90
       50
102
RTVSPost2010PropOp48
 70
     1
102
RTVSPost2010Prop49
280
     0
102
RTVSPost2010PropOp49
 70
     1
102
RTVSPost2010Prop50
 90
       50
102
RTVSPost2010PropOp50
 70
     1
102
RTVSPost2010Prop51ColorIndex
 90
      256
102
RTVSPost2010Prop51ColorRGB
 90
-16777216
102
RTVSPost2010PropOp51
 70
     0
102
RTVSPost2010Prop52
140
1.0
102
RTVSPost2010PropOp52
 70
     0
102
RTVSPost2010Prop53
 90
        2
102
RTVSPost2010PropOp53
 70
     1
102
RTVSPost2010Prop54
  1
strokes_ogs.tif
102
RTVSPost2010PropOp54
 70
     1
102
RTVSPost2010Prop55
280
     0
102
RTVSPost2010PropOp55
 70
     1
102
RTVSPost2010Prop56
140
1.0
102
RTVSPost2010PropOp56
 70
     1
102
RTVSPost2010Prop57
140
1.0
102
RTVSPost2010PropOp57
 70
     1
  0
XRECORD
  5
220FF
102
{ACAD_REACTORS
330
220FE
102
}
330
220FE
100
AcDbXrecord
280
     1
102
RTVSPost2010Prop28
280
     0
102
RTVSPost2010PropOp28
 70
     1
102
RTVSPost2010Prop29
280
     1
102
RTVSPost2010PropOp29
 70
     1
102
RTVSPost2010Prop30
280
     1
102
RTVSPost2010PropOp30
 70
     1
102
RTVSPost2010Prop31
280
     0
102
RTVSPost2010PropOp31
 70
     1
102
RTVSPost2010Prop32
280
     0
102
RTVSPost2010PropOp32
 70
     1
102
RTVSPost2010Prop33
280
     0
102
RTVSPost2010PropOp33
 70
     1
102
RTVSPost2010Prop34
280
     0
102
RTVSPost2010PropOp34
 70
     1
102
RTVSPost2010Prop35
280
     0
102
RTVSPost2010PropOp35
 70
     1
102
RTVSPost2010Prop36
280
     0
102
RTVSPost2010PropOp36
 70
     1
102
RTVSPost2010Prop37
 90
       50
102
RTVSPost2010PropOp37
 70
     1
102
RTVSPost2010Prop38
140
0.0
102
RTVSPost2010PropOp38
 70
     1
102
RTVSPost2010Prop39
140
1.0
102
RTVSPost2010PropOp39
 70
     1
102
RTVSPost2010Prop40
 90
        0
102
RTVSPost2010PropOp40
 70
     1
102
RTVSPost2010Prop41ColorIndex
 90
       18
102
RTVSPost2010Prop41ColorRGB
 90
        0
102
RTVSPost2010PropOp41
 70
     1
102
RTVSPost2010Prop42
 90
       50
102
RTVSPost2010PropOp42
 70
     1
102
RTVSPost2010Prop43
 90
        3
102
RTVSPost2010PropOp43
 70
     1
102
RTVSPost2010Prop44ColorIndex
 90
        5
102
RTVSPost2010Prop44ColorRGB
 90
      255
102
RTVSPost2010PropOp44
 70
     1
102
RTVSPost2010Prop45
280
     0
102
RTVSPost2010PropOp45
 70
     1
102
RTVSPost2010Prop46
 90
       50
102
RTVSPost2010PropOp46
 70
     1
102
RTVSPost2010Prop47
 90
       50
102
RTVSPost2010PropOp47
 70
     1
102
RTVSPost2010Prop48
 90
       50
102
RTVSPost2010PropOp48
 70
     1
102
RTVSPost2010Prop49
280
     0
102
RTVSPost2010PropOp49
 70
     1
102
RTVSPost2010Prop50
 90
       50
102
RTVSPost2010PropOp50
 70
     1
102
RTVSPost2010Prop51ColorIndex
 90
      256
102
RTVSPost2010Prop51ColorRGB
 90
-16777216
102
RTVSPost2010PropOp51
 70
     0
102
RTVSPost2010Prop52
140
1.0
102
RTVSPost2010PropOp52
 70
     0
102
RTVSPost2010Prop53
 90
        2
102
RTVSPost2010PropOp53
 70
     1
102
RTVSPost2010Prop54
  1
strokes_ogs.tif
102
RTVSPost2010PropOp54
 70
     1
102
RTVSPost2010Prop55
280
     0
102
RTVSPost2010PropOp55
 70
     1
102
RTVSPost2010Prop56
140
1.0
102
RTVSPost2010PropOp56
 70
     1
102
RTVSPost2010Prop57
140
1.0
102
RTVSPost2010PropOp57
 70
     1
  0
XRECORD
  5
22101
102
{ACAD_REACTORS
330
22100
102
}
330
22100
100
AcDbXrecord
280
     1
102
RTVSPost2010Prop28
280
     0
102
RTVSPost2010PropOp28
 70
     1
102
RTVSPost2010Prop29
280
     1
102
RTVSPost2010PropOp29
 70
     1
102
RTVSPost2010Prop30
280
     1
102
RTVSPost2010PropOp30
 70
     1
102
RTVSPost2010Prop31
280
     0
102
RTVSPost2010PropOp31
 70
     1
102
RTVSPost2010Prop32
280
     0
102
RTVSPost2010PropOp32
 70
     1
102
RTVSPost2010Prop33
280
     0
102
RTVSPost2010PropOp33
 70
     1
102
RTVSPost2010Prop34
280
     0
102
RTVSPost2010PropOp34
 70
     1
102
RTVSPost2010Prop35
280
     0
102
RTVSPost2010PropOp35
 70
     1
102
RTVSPost2010Prop36
280
     0
102
RTVSPost2010PropOp36
 70
     1
102
RTVSPost2010Prop37
 90
       50
102
RTVSPost2010PropOp37
 70
     1
102
RTVSPost2010Prop38
140
0.0
102
RTVSPost2010PropOp38
 70
     1
102
RTVSPost2010Prop39
140
1.0
102
RTVSPost2010PropOp39
 70
     1
102
RTVSPost2010Prop40
 90
        0
102
RTVSPost2010PropOp40
 70
     1
102
RTVSPost2010Prop41ColorIndex
 90
       18
102
RTVSPost2010Prop41ColorRGB
 90
        0
102
RTVSPost2010PropOp41
 70
     1
102
RTVSPost2010Prop42
 90
       50
102
RTVSPost2010PropOp42
 70
     1
102
RTVSPost2010Prop43
 90
        3
102
RTVSPost2010PropOp43
 70
     1
102
RTVSPost2010Prop44ColorIndex
 90
        5
102
RTVSPost2010Prop44ColorRGB
 90
      255
102
RTVSPost2010PropOp44
 70
     1
102
RTVSPost2010Prop45
280
     0
102
RTVSPost2010PropOp45
 70
     1
102
RTVSPost2010Prop46
 90
       50
102
RTVSPost2010PropOp46
 70
     1
102
RTVSPost2010Prop47
 90
       50
102
RTVSPost2010PropOp47
 70
     1
102
RTVSPost2010Prop48
 90
       50
102
RTVSPost2010PropOp48
 70
     1
102
RTVSPost2010Prop49
280
     0
102
RTVSPost2010PropOp49
 70
     1
102
RTVSPost2010Prop50
 90
       50
102
RTVSPost2010PropOp50
 70
     1
102
RTVSPost2010Prop51ColorIndex
 90
      256
102
RTVSPost2010Prop51ColorRGB
 90
-16777216
102
RTVSPost2010PropOp51
 70
     0
102
RTVSPost2010Prop52
140
1.0
102
RTVSPost2010PropOp52
 70
     0
102
RTVSPost2010Prop53
 90
        2
102
RTVSPost2010PropOp53
 70
     1
102
RTVSPost2010Prop54
  1
strokes_ogs.tif
102
RTVSPost2010PropOp54
 70
     1
102
RTVSPost2010Prop55
280
     0
102
RTVSPost2010PropOp55
 70
     1
102
RTVSPost2010Prop56
140
1.0
102
RTVSPost2010PropOp56
 70
     1
102
RTVSPost2010Prop57
140
1.0
102
RTVSPost2010PropOp57
 70
     1
  0
XRECORD
  5
220F3
102
{ACAD_REACTORS
330
220F2
102
}
330
220F2
100
AcDbXrecord
280
     1
102
RTVSPost2010Prop28
280
     0
102
RTVSPost2010PropOp28
 70
     1
102
RTVSPost2010Prop29
280
     1
102
RTVSPost2010PropOp29
 70
     1
102
RTVSPost2010Prop30
280
     1
102
RTVSPost2010PropOp30
 70
     1
102
RTVSPost2010Prop31
280
     0
102
RTVSPost2010PropOp31
 70
     1
102
RTVSPost2010Prop32
280
     0
102
RTVSPost2010PropOp32
 70
     1
102
RTVSPost2010Prop33
280
     0
102
RTVSPost2010PropOp33
 70
     1
102
RTVSPost2010Prop34
280
     0
102
RTVSPost2010PropOp34
 70
     1
102
RTVSPost2010Prop35
280
     0
102
RTVSPost2010PropOp35
 70
     1
102
RTVSPost2010Prop36
280
     0
102
RTVSPost2010PropOp36
 70
     1
102
RTVSPost2010Prop37
 90
       50
102
RTVSPost2010PropOp37
 70
     1
102
RTVSPost2010Prop38
140
0.0
102
RTVSPost2010PropOp38
 70
     1
102
RTVSPost2010Prop39
140
1.0
102
RTVSPost2010PropOp39
 70
     1
102
RTVSPost2010Prop40
 90
        0
102
RTVSPost2010PropOp40
 70
     1
102
RTVSPost2010Prop41ColorIndex
 90
       18
102
RTVSPost2010Prop41ColorRGB
 90
        0
102
RTVSPost2010PropOp41
 70
     1
102
RTVSPost2010Prop42
 90
       50
102
RTVSPost2010PropOp42
 70
     1
102
RTVSPost2010Prop43
 90
        3
102
RTVSPost2010PropOp43
 70
     1
102
RTVSPost2010Prop44ColorIndex
 90
        5
102
RTVSPost2010Prop44ColorRGB
 90
      255
102
RTVSPost2010PropOp44
 70
     1
102
RTVSPost2010Prop45
280
     0
102
RTVSPost2010PropOp45
 70
     1
102
RTVSPost2010Prop46
 90
       50
102
RTVSPost2010PropOp46
 70
     1
102
RTVSPost2010Prop47
 90
       50
102
RTVSPost2010PropOp47
 70
     1
102
RTVSPost2010Prop48
 90
       50
102
RTVSPost2010PropOp48
 70
     1
102
RTVSPost2010Prop49
280
     0
102
RTVSPost2010PropOp49
 70
     1
102
RTVSPost2010Prop50
 90
       50
102
RTVSPost2010PropOp50
 70
     1
102
RTVSPost2010Prop51ColorIndex
 90
      256
102
RTVSPost2010Prop51ColorRGB
 90
-16777216
102
RTVSPost2010PropOp51
 70
     0
102
RTVSPost2010Prop52
140
1.0
102
RTVSPost2010PropOp52
 70
     0
102
RTVSPost2010Prop53
 90
        2
102
RTVSPost2010PropOp53
 70
     1
102
RTVSPost2010Prop54
  1
strokes_ogs.tif
102
RTVSPost2010PropOp54
 70
     1
102
RTVSPost2010Prop55
280
     0
102
RTVSPost2010PropOp55
 70
     1
102
RTVSPost2010Prop56
140
1.0
102
RTVSPost2010PropOp56
 70
     1
102
RTVSPost2010Prop57
140
1.0
102
RTVSPost2010PropOp57
 70
     1
  0
XRECORD
  5
220FB
102
{ACAD_REACTORS
330
220FA
102
}
330
220FA
100
AcDbXrecord
280
     1
102
RTVSPost2010Prop28
280
     0
102
RTVSPost2010PropOp28
 70
     1
102
RTVSPost2010Prop29
280
     1
102
RTVSPost2010PropOp29
 70
     1
102
RTVSPost2010Prop30
280
     1
102
RTVSPost2010PropOp30
 70
     1
102
RTVSPost2010Prop31
280
     0
102
RTVSPost2010PropOp31
 70
     1
102
RTVSPost2010Prop32
280
     0
102
RTVSPost2010PropOp32
 70
     1
102
RTVSPost2010Prop33
280
     0
102
RTVSPost2010PropOp33
 70
     1
102
RTVSPost2010Prop34
280
     0
102
RTVSPost2010PropOp34
 70
     1
102
RTVSPost2010Prop35
280
     0
102
RTVSPost2010PropOp35
 70
     1
102
RTVSPost2010Prop36
280
     0
102
RTVSPost2010PropOp36
 70
     1
102
RTVSPost2010Prop37
 90
       50
102
RTVSPost2010PropOp37
 70
     1
102
RTVSPost2010Prop38
140
0.0
102
RTVSPost2010PropOp38
 70
     1
102
RTVSPost2010Prop39
140
1.0
102
RTVSPost2010PropOp39
 70
     1
102
RTVSPost2010Prop40
 90
        0
102
RTVSPost2010PropOp40
 70
     1
102
RTVSPost2010Prop41ColorIndex
 90
       18
102
RTVSPost2010Prop41ColorRGB
 90
        0
102
RTVSPost2010PropOp41
 70
     1
102
RTVSPost2010Prop42
 90
       50
102
RTVSPost2010PropOp42
 70
     1
102
RTVSPost2010Prop43
 90
        3
102
RTVSPost2010PropOp43
 70
     1
102
RTVSPost2010Prop44ColorIndex
 90
        5
102
RTVSPost2010Prop44ColorRGB
 90
      255
102
RTVSPost2010PropOp44
 70
     1
102
RTVSPost2010Prop45
280
     0
102
RTVSPost2010PropOp45
 70
     1
102
RTVSPost2010Prop46
 90
       50
102
RTVSPost2010PropOp46
 70
     1
102
RTVSPost2010Prop47
 90
       50
102
RTVSPost2010PropOp47
 70
     1
102
RTVSPost2010Prop48
 90
       50
102
RTVSPost2010PropOp48
 70
     1
102
RTVSPost2010Prop49
280
     0
102
RTVSPost2010PropOp49
 70
     1
102
RTVSPost2010Prop50
 90
       50
102
RTVSPost2010PropOp50
 70
     1
102
RTVSPost2010Prop51ColorIndex
 90
      256
102
RTVSPost2010Prop51ColorRGB
 90
-16777216
102
RTVSPost2010PropOp51
 70
     0
102
RTVSPost2010Prop52
140
1.0
102
RTVSPost2010PropOp52
 70
     0
102
RTVSPost2010Prop53
 90
        2
102
RTVSPost2010PropOp53
 70
     1
102
RTVSPost2010Prop54
  1
strokes_ogs.tif
102
RTVSPost2010PropOp54
 70
     1
102
RTVSPost2010Prop55
280
     0
102
RTVSPost2010PropOp55
 70
     1
102
RTVSPost2010Prop56
140
1.0
102
RTVSPost2010PropOp56
 70
     1
102
RTVSPost2010Prop57
140
1.0
102
RTVSPost2010PropOp57
 70
     1
  0
XRECORD
  5
22103
102
{ACAD_REACTORS
330
22102
102
}
330
22102
100
AcDbXrecord
280
     1
102
RTVSPost2010Prop28
280
     0
102
RTVSPost2010PropOp28
 70
     1
102
RTVSPost2010Prop29
280
     1
102
RTVSPost2010PropOp29
 70
     1
102
RTVSPost2010Prop30
280
     1
102
RTVSPost2010PropOp30
 70
     1
102
RTVSPost2010Prop31
280
     0
102
RTVSPost2010PropOp31
 70
     1
102
RTVSPost2010Prop32
280
     0
102
RTVSPost2010PropOp32
 70
     1
102
RTVSPost2010Prop33
280
     0
102
RTVSPost2010PropOp33
 70
     1
102
RTVSPost2010Prop34
280
     0
102
RTVSPost2010PropOp34
 70
     1
102
RTVSPost2010Prop35
280
     0
102
RTVSPost2010PropOp35
 70
     1
102
RTVSPost2010Prop36
280
     0
102
RTVSPost2010PropOp36
 70
     1
102
RTVSPost2010Prop37
 90
       50
102
RTVSPost2010PropOp37
 70
     1
102
RTVSPost2010Prop38
140
0.0
102
RTVSPost2010PropOp38
 70
     1
102
RTVSPost2010Prop39
140
1.0
102
RTVSPost2010PropOp39
 70
     1
102
RTVSPost2010Prop40
 90
        0
102
RTVSPost2010PropOp40
 70
     1
102
RTVSPost2010Prop41ColorIndex
 90
       18
102
RTVSPost2010Prop41ColorRGB
 90
        0
102
RTVSPost2010PropOp41
 70
     1
102
RTVSPost2010Prop42
 90
       50
102
RTVSPost2010PropOp42
 70
     1
102
RTVSPost2010Prop43
 90
        3
102
RTVSPost2010PropOp43
 70
     1
102
RTVSPost2010Prop44ColorIndex
 90
        5
102
RTVSPost2010Prop44ColorRGB
 90
      255
102
RTVSPost2010PropOp44
 70
     1
102
RTVSPost2010Prop45
280
     0
102
RTVSPost2010PropOp45
 70
     1
102
RTVSPost2010Prop46
 90
       50
102
RTVSPost2010PropOp46
 70
     1
102
RTVSPost2010Prop47
 90
       50
102
RTVSPost2010PropOp47
 70
     1
102
RTVSPost2010Prop48
 90
       50
102
RTVSPost2010PropOp48
 70
     1
102
RTVSPost2010Prop49
280
     0
102
RTVSPost2010PropOp49
 70
     1
102
RTVSPost2010Prop50
 90
       50
102
RTVSPost2010PropOp50
 70
     1
102
RTVSPost2010Prop51ColorIndex
 90
      256
102
RTVSPost2010Prop51ColorRGB
 90
-16777216
102
RTVSPost2010PropOp51
 70
     0
102
RTVSPost2010Prop52
140
1.0
102
RTVSPost2010PropOp52
 70
     0
102
RTVSPost2010Prop53
 90
        2
102
RTVSPost2010PropOp53
 70
     1
102
RTVSPost2010Prop54
  1
strokes_ogs.tif
102
RTVSPost2010PropOp54
 70
     1
102
RTVSPost2010Prop55
280
     0
102
RTVSPost2010PropOp55
 70
     1
102
RTVSPost2010Prop56
140
1.0
102
RTVSPost2010PropOp56
 70
     1
102
RTVSPost2010Prop57
140
1.0
102
RTVSPost2010PropOp57
 70
     1
  0
ENDSEC
  0
EOF
