  0
SECTION
  2
HEADER
  9
$ACADVER
  1
AC1024
  9
$ACADMAINTVER
 70
   182
  9
$DWGCODEPAGE
  3
ANSI_1252
  9
$LASTSAVEDBY
  1
kamerka
  9
$INSBASE
 10
0.0
 20
0.0
 30
0.0
  9
$EXTMIN
 10
-99.15527257504322
 20
-54.11824535740527
 30
-0.0000000000000057
  9
$EXTMAX
 10
71.54022274019689
 20
54.0087435097862
 30
0.0000000000000104
  9
$LIMMIN
 10
0.0
 20
0.0
  9
$LIMMAX
 10
420.0
 20
297.0
  9
$ORTHOMODE
 70
     0
  9
$REGENMODE
 70
     1
  9
$FILLMODE
 70
     1
  9
$QTEXTMODE
 70
     0
  9
$MIRRTEXT
 70
     0
  9
$LTSCALE
 40
23.1
  9
$ATTMODE
 70
     1
  9
$TEXTSIZE
 40
3.5
  9
$TRACEWID
 40
0.05
  9
$TEXTSTYLE
  7
STANDARD
  9
$CLAYER
  8
0
  9
$CELTYPE
  6
BYLAYER
  9
$CECOLOR
 62
   256
  9
$CELTSCALE
 40
1.0
  9
$DISPSILH
 70
     0
  9
$DIMSCALE
 40
1.0
  9
$DIMASZ
 40
4.57
  9
$DIMEXO
 40
0.0625
  9
$DIMDLI
 40
0.38
  9
$DIMRND
 40
0.0
  9
$DIMDLE
 40
0.0
  9
$DIMEXE
 40
0.18
  9
$DIMTP
 40
0.01
  9
$DIMTM
 40
0.01
  9
$DIMTXT
 40
3.5
  9
$DIMCEN
 40
0.09
  9
$DIMTSZ
 40
0.0
  9
$DIMTOL
 70
     0
  9
$DIMLIM
 70
     0
  9
$DIMTIH
 70
     0
  9
$DIMTOH
 70
     0
  9
$DIMSE1
 70
     0
  9
$DIMSE2
 70
     0
  9
$DIMTAD
 70
     1
  9
$DIMZIN
 70
     8
  9
$DIMBLK
  1

  9
$DIMASO
 70
     1
  9
$DIMSHO
 70
     1
  9
$DIMPOST
  1

  9
$DIMAPOST
  1

  9
$DIMALT
 70
     0
  9
$DIMALTD
 70
     2
  9
$DIMALTF
 40
25.4
  9
$DIMLFAC
 40
1.0
  9
$DIMTOFL
 70
     0
  9
$DIMTVP
 40
0.0
  9
$DIMTIX
 70
     0
  9
$DIMSOXD
 70
     0
  9
$DIMSAH
 70
     0
  9
$DIMBLK1
  1

  9
$DIMBLK2
  1

  9
$DIMSTYLE
  2
STANDARD
  9
$DIMCLRD
 70
     0
  9
$DIMCLRE
 70
     0
  9
$DIMCLRT
 70
     0
  9
$DIMTFAC
 40
1.0
  9
$DIMGAP
 40
0.09
  9
$DIMJUST
 70
     0
  9
$DIMSD1
 70
     0
  9
$DIMSD2
 70
     0
  9
$DIMTOLJ
 70
     1
  9
$DIMTZIN
 70
     8
  9
$DIMALTZ
 70
     0
  9
$DIMALTTZ
 70
     0
  9
$DIMUPT
 70
     0
  9
$DIMDEC
 70
     3
  9
$DIMTDEC
 70
     3
  9
$DIMALTU
 70
     2
  9
$DIMALTTD
 70
     2
  9
$DIMTXSTY
  7
STANDARD
  9
$DIMAUNIT
 70
     0
  9
$DIMADEC
 70
     0
  9
$DIMALTRND
 40
0.0
  9
$DIMAZIN
 70
     0
  9
$DIMDSEP
 70
    46
  9
$DIMATFIT
 70
     0
  9
$DIMFRAC
 70
     0
  9
$DIMLDRBLK
  1

  9
$DIMLUNIT
 70
     2
  9
$DIMLWD
 70
    -2
  9
$DIMLWE
 70
    -2
  9
$DIMTMOVE
 70
     0
  9
$DIMFXL
 40
1.0
  9
$DIMFXLON
 70
     0
  9
$DIMJOGANG
 40
0.7853981633974483
  9
$DIMTFILL
 70
     0
  9
$DIMTFILLCLR
 70
     0
  9
$DIMARCSYM
 70
     0
  9
$DIMLTYPE
  6

  9
$DIMLTEX1
  6

  9
$DIMLTEX2
  6

  9
$DIMTXTDIRECTION
 70
     0
  9
$LUNITS
 70
     2
  9
$LUPREC
 70
     4
  9
$SKETCHINC
 40
0.1
  9
$FILLETRAD
 40
0.0
  9
$AUNITS
 70
     0
  9
$AUPREC
 70
     0
  9
$MENU
  1
.
  9
$ELEVATION
 40
0.0
  9
$PELEVATION
 40
0.0
  9
$THICKNESS
 40
0.0
  9
$LIMCHECK
 70
     0
  9
$CHAMFERA
 40
0.0
  9
$CHAMFERB
 40
0.0
  9
$CHAMFERC
 40
0.0
  9
$CHAMFERD
 40
0.0
  9
$SKPOLY
 70
     0
  9
$TDCREATE
 40
2458446.405227107
  9
$TDUCREATE
 40
2458446.321893773
  9
$TDUPDATE
 40
2458975.488711667
  9
$TDUUPDATE
 40
2458975.405378334
  9
$TDINDWG
 40
0.0288974769
  9
$TDUSRTIMER
 40
0.0288964120
  9
$USRTIMER
 70
     1
  9
$ANGBASE
 50
0.0
  9
$ANGDIR
 70
     0
  9
$PDMODE
 70
     3
  9
$PDSIZE
 40
0.3125
  9
$PLINEWID
 40
0.0
  9
$SPLFRAME
 70
     0
  9
$SPLINETYPE
 70
     6
  9
$SPLINESEGS
 70
     8
  9
$HANDSEED
  5
22145
  9
$SURFTAB1
 70
     6
  9
$SURFTAB2
 70
     6
  9
$SURFTYPE
 70
     6
  9
$SURFU
 70
     6
  9
$SURFV
 70
     6
  9
$UCSBASE
  2

  9
$UCSNAME
  2

  9
$UCSORG
 10
0.0
 20
0.0
 30
0.0
  9
$UCSXDIR
 10
1.0
 20
0.0
 30
0.0
  9
$UCSYDIR
 10
0.0
 20
1.0
 30
0.0
  9
$UCSORTHOREF
  2

  9
$UCSORTHOVIEW
 70
     0
  9
$UCSORGTOP
 10
0.0
 20
0.0
 30
0.0
  9
$UCSORGBOTTOM
 10
0.0
 20
0.0
 30
0.0
  9
$UCSORGLEFT
 10
0.0
 20
0.0
 30
0.0
  9
$UCSORGRIGHT
 10
0.0
 20
0.0
 30
0.0
  9
$UCSORGFRONT
 10
0.0
 20
0.0
 30
0.0
  9
$UCSORGBACK
 10
0.0
 20
0.0
 30
0.0
  9
$PUCSBASE
  2

  9
$PUCSNAME
  2

  9
$PUCSORG
 10
0.0
 20
0.0
 30
0.0
  9
$PUCSXDIR
 10
1.0
 20
0.0
 30
0.0
  9
$PUCSYDIR
 10
0.0
 20
1.0
 30
0.0
  9
$PUCSORTHOREF
  2

  9
$PUCSORTHOVIEW
 70
     0
  9
$PUCSORGTOP
 10
0.0
 20
0.0
 30
0.0
  9
$PUCSORGBOTTOM
 10
0.0
 20
0.0
 30
0.0
  9
$PUCSORGLEFT
 10
0.0
 20
0.0
 30
0.0
  9
$PUCSORGRIGHT
 10
0.0
 20
0.0
 30
0.0
  9
$PUCSORGFRONT
 10
0.0
 20
0.0
 30
0.0
  9
$PUCSORGBACK
 10
0.0
 20
0.0
 30
0.0
  9
$USERI1
 70
     0
  9
$USERI2
 70
     0
  9
$USERI3
 70
     0
  9
$USERI4
 70
     0
  9
$USERI5
 70
     0
  9
$USERR1
 40
0.0
  9
$USERR2
 40
0.0
  9
$USERR3
 40
0.0
  9
$USERR4
 40
0.0
  9
$USERR5
 40
0.0
  9
$WORLDVIEW
 70
     1
  9
$SHADEDGE
 70
     3
  9
$SHADEDIF
 70
    70
  9
$TILEMODE
 70
     1
  9
$MAXACTVP
 70
    64
  9
$PINSBASE
 10
0.0
 20
0.0
 30
0.0
  9
$PLIMCHECK
 70
     0
  9
$PEXTMIN
 10
28.69141678810127
 20
19.6363175392151
 30
0.0
  9
$PEXTMAX
 10
258.2227510929107
 20
176.7268578529358
 30
0.0
  9
$PLIMMIN
 10
-5.027069091796875
 20
-6.805083274841307
  9
$PLIMMAX
 10
291.9412536621094
 20
203.1682443618775
  9
$UNITMODE
 70
     0
  9
$VISRETAIN
 70
     1
  9
$PLINEGEN
 70
     0
  9
$PSLTSCALE
 70
     1
  9
$TREEDEPTH
 70
  3020
  9
$CMLSTYLE
  2
STANDARD
  9
$CMLJUST
 70
     0
  9
$CMLSCALE
 40
1.0
  9
$PROXYGRAPHICS
 70
     1
  9
$MEASUREMENT
 70
     1
  9
$CELWEIGHT
370
    -1
  9
$ENDCAPS
280
     0
  9
$JOINSTYLE
280
     0
  9
$LWDISPLAY
290
     0
  9
$INSUNITS
 70
     0
  9
$HYPERLINKBASE
  1

  9
$STYLESHEET
  1
A1-A2.CTB
  9
$XEDIT
290
     1
  9
$CEPSNTYPE
380
     0
  9
$PSTYLEMODE
290
     1
  9
$FINGERPRINTGUID
  2
{6D3BC7B5-ACA7-406D-8A0D-A7DBBE093430}
  9
$VERSIONGUID
  2
{5D582C06-98A6-4804-9BFC-31C3334F345E}
  9
$EXTNAMES
290
     1
  9
$PSVPSCALE
 40
0.0
  9
$OLESTARTUP
290
     0
  9
$SORTENTS
280
   127
  9
$INDEXCTL
280
     0
  9
$HIDETEXT
280
     0
  9
$XCLIPFRAME
280
     2
  9
$HALOGAP
280
     0
  9
$OBSCOLOR
 70
   257
  9
$OBSLTYPE
280
     0
  9
$INTERSECTIONDISPLAY
280
     0
  9
$INTERSECTIONCOLOR
 70
   257
  9
$DIMASSOC
280
     1
  9
$PROJECTNAME
  1

  9
$CAMERADISPLAY
290
     0
  9
$LENSLENGTH
 40
50.0
  9
$CAMERAHEIGHT
 40
0.0
  9
$STEPSPERSEC
 40
2.0
  9
$STEPSIZE
 40
6.0
  9
$3DDWFPREC
 40
2.0
  9
$PSOLWIDTH
 40
0.25
  9
$PSOLHEIGHT
 40
4.0
  9
$LOFTANG1
 40
1.570796326794896
  9
$LOFTANG2
 40
1.570796326794896
  9
$LOFTMAG1
 40
0.0
  9
$LOFTMAG2
 40
0.0
  9
$LOFTPARAM
 70
     7
  9
$LOFTNORMALS
280
     1
  9
$LATITUDE
 40
37.795
  9
$LONGITUDE
 40
-122.394
  9
$NORTHDIRECTION
 40
0.0
  9
$TIMEZONE
 70
 -8000
  9
$LIGHTGLYPHDISPLAY
280
     1
  9
$TILEMODELIGHTSYNCH
280
     1
  9
$CMATERIAL
347
318C
  9
$SOLIDHIST
280
     0
  9
$SHOWHIST
280
     1
  9
$DWFFRAME
280
     2
  9
$DGNFRAME
280
     0
  9
$REALWORLDSCALE
290
     1
  9
$INTERFERECOLOR
 62
     1
  9
$INTERFEREOBJVS
345
3199
  9
$INTERFEREVPVS
346
1B2E3
  9
$CSHADOW
280
     0
  9
$SHADOWPLANELOCATION
 40
0.0
  0
ENDSEC
  0
SECTION
  2
CLASSES
  0
CLASS
  1
ACDBDICTIONARYWDFLT
  2
AcDbDictionaryWithDefault
  3
ObjectDBX Classes
 90
        0
 91
        1
280
     0
281
     0
  0
CLASS
  1
MATERIAL
  2
AcDbMaterial
  3
ObjectDBX Classes
 90
     1153
 91
        3
280
     0
281
     0
  0
CLASS
  1
VISUALSTYLE
  2
AcDbVisualStyle
  3
ObjectDBX Classes
 90
     4095
 91
       26
280
     0
281
     0
  0
CLASS
  1
TABLESTYLE
  2
AcDbTableStyle
  3
ObjectDBX Classes
 90
     4095
 91
        1
280
     0
281
     0
  0
CLASS
  1
SORTENTSTABLE
  2
AcDbSortentsTable
  3
ObjectDBX Classes
 90
        0
 91
        2
280
     0
281
     0
  0
CLASS
  1
DICTIONARYVAR
  2
AcDbDictionaryVar
  3
ObjectDBX Classes
 90
        0
 91
       13
280
     0
281
     0
  0
CLASS
  1
EXACXREFPANELOBJECT
  2
ExAcXREFPanelObject
  3
EXAC_ESW
 90
     1025
 91
        0
280
     1
281
     0
  0
CLASS
  1
NPOCOLLECTION
  2
AcDbImpNonPersistentObjectsCollection
  3
ObjectDBX Classes
 90
     1153
 91
        0
280
     1
281
     0
  0
CLASS
  1
SCALE
  2
AcDbScale
  3
ObjectDBX Classes
 90
     1153
 91
       33
280
     0
281
     0
  0
CLASS
  1
MLEADERSTYLE
  2
AcDbMLeaderStyle
  3
ACDB_MLEADERSTYLE_CLASS
 90
     4095
 91
        1
280
     0
281
     0
  0
CLASS
  1
ACDBSECTIONVIEWSTYLE
  2
AcDbSectionViewStyle
  3
ObjectDBX Classes
 90
     1025
 91
        2
280
     0
281
     0
  0
CLASS
  1
ACDBDETAILVIEWSTYLE
  2
AcDbDetailViewStyle
  3
ObjectDBX Classes
 90
     1025
 91
        2
280
     0
281
     0
  0
CLASS
  1
CELLSTYLEMAP
  2
AcDbCellStyleMap
  3
ObjectDBX Classes
 90
     1152
 91
        2
280
     0
281
     0
  0
CLASS
  1
ACAD_EVALUATION_GRAPH
  2
AcDbEvalGraph
  3
ObjectDBX Classes
 90
     1153
 91
        0
280
     0
281
     0
  0
CLASS
  1
ACAECUSTOBJ
  2
AcAeEditorObj
  3
AcAeEditorObj
 90
     1024
 91
        0
280
     0
281
     0
  0
CLASS
  1
ACDB_DYNAMICBLOCKPURGEPREVENTER_VERSION
  2
AcDbDynamicBlockPurgePreventer
  3
ObjectDBX Classes
 90
     1153
 91
        0
280
     0
281
     0
  0
CLASS
  1
FIELD
  2
AcDbField
  3
ObjectDBX Classes
 90
     1152
 91
        0
280
     0
281
     0
  0
CLASS
  1
FIELDLIST
  2
AcDbFieldList
  3
ObjectDBX Classes
 90
     1152
 91
        1
280
     0
281
     0
  0
CLASS
  1
ACDB_ALDIMOBJECTCONTEXTDATA_CLASS
  2
AcDbAlignedDimensionObjectContextData
  3
ObjectDBX Classes
 90
     1153
 91
        0
280
     0
281
     0
  0
ENDSEC
  0
SECTION
  2
TABLES
  0
TABLE
  2
VPORT
  5
8
330
0
100
AcDbSymbolTable
 70
     1
  0
VPORT
  5
1F4
330
8
100
AcDbSymbolTableRecord
100
AcDbViewportTableRecord
  2
*ACTIVE
 70
     0
 10
0.0
 20
0.0
 11
1.0
 21
1.0
 12
-13.80752491742318
 22
-0.0547509238095358
 13
0.0
 23
0.0
 14
1.0
 24
1.0
 15
0.0
 25
0.0
 16
0.0
 26
0.0
 36
1.0
 17
0.0
 27
0.0
 37
0.0
 40
109.0537916289102
 41
2.698140200286123
 42
50.0
 43
0.0
 44
0.0
 50
0.0
 51
0.0
 71
     0
 72
  2000
 73
     1
 74
     1
 75
     0
 76
     0
 77
     0
 78
     0
281
     0
 65
     1
110
0.0
120
0.0
130
0.0
111
1.0
121
0.0
131
0.0
112
0.0
122
1.0
132
0.0
 79
     0
146
0.0
348
3195
 60
     3
 61
     5
292
     1
282
     1
141
0.0
142
0.0
 63
   250
421
  3355443
1001
ACAD_NAV_VCDISPLAY
1070
     3
  0
ENDTAB
  0
TABLE
  2
LTYPE
  5
5
330
0
100
AcDbSymbolTable
 70
     6
  0
LTYPE
  5
14
330
5
100
AcDbSymbolTableRecord
100
AcDbLinetypeTableRecord
  2
BYBLOCK
 70
     0
  3

 72
    65
 73
     0
 40
0.0
  0
LTYPE
  5
15
330
5
100
AcDbSymbolTableRecord
100
AcDbLinetypeTableRecord
  2
BYLAYER
 70
     0
  3

 72
    65
 73
     0
 40
0.0
  0
LTYPE
  5
16
330
5
100
AcDbSymbolTableRecord
100
AcDbLinetypeTableRecord
  2
CONTINUOUS
 70
     0
  3
Solid line
 72
    65
 73
     0
 40
0.0
  0
LTYPE
  5
9C48
330
5
100
AcDbSymbolTableRecord
100
AcDbLinetypeTableRecord
  2
CENTER
 70
     0
  3
____ _ ____ _ ____ _ ____ _ ____ _ ____ _ ____
 72
    65
 73
     4
 40
0.6
 49
0.375
 74
     0
 49
-0.075
 74
     0
 49
0.075
 74
     0
 49
-0.075
 74
     0
  0
LTYPE
  5
20A82
330
5
100
AcDbSymbolTableRecord
100
AcDbLinetypeTableRecord
  2
HIDDEN
 70
     0
  3
- - - - - - - - - - - - - - - - - - - -
 72
    65
 73
     2
 40
0.2
 49
0.1
 74
     0
 49
-0.1
 74
     0
  0
LTYPE
  5
21CB3
330
5
100
AcDbSymbolTableRecord
100
AcDbLinetypeTableRecord
  2
CENTER2
 70
     0
  3
Center (.5x) ___ _ ___ _ ___ _ ___ _ ___ _ ___
 72
    65
 73
     4
 40
28.57499999999999
 49
19.05
 74
     4
 75
     0
340
0
 46
1.0
 50
0.0
 44
0.0
 45
0.0
 49
-3.174999999999998
 74
     4
 75
     0
340
0
 46
1.0
 50
0.0
 44
0.0
 45
0.0
 49
3.174999999999998
 74
     4
 75
     0
340
0
 46
1.0
 50
0.0
 44
0.0
 45
0.0
 49
-3.174999999999998
 74
     4
 75
     0
340
0
 46
1.0
 50
0.0
 44
0.0
 45
0.0
  0
ENDTAB
  0
TABLE
  2
LAYER
  5
2
102
{ACAD_XDICTIONARY
360
422A
102
}
330
0
100
AcDbSymbolTable
 70
    16
  0
LAYER
  5
10
102
{ACAD_XDICTIONARY
360
1B2F5
102
}
330
2
100
AcDbSymbolTableRecord
100
AcDbLayerTableRecord
  2
0
 70
     0
 62
     7
  6
CONTINUOUS
370
    -3
390
318A
347
318E
  0
LAYER
  5
3F8C
102
{ACAD_XDICTIONARY
360
1B2F7
102
}
330
2
100
AcDbSymbolTableRecord
100
AcDbLayerTableRecord
  2
1
 70
     0
 62
     4
  6
BYBLOCK
370
    50
390
318A
347
318E
  0
LAYER
  5
3FA7
330
2
100
AcDbSymbolTableRecord
100
AcDbLayerTableRecord
  2
Defpoints
 70
     0
 62
     7
  6
CONTINUOUS
290
     0
370
    -3
390
318A
347
318E
  0
LAYER
  5
9C4A
102
{ACAD_XDICTIONARY
360
1B2F9
102
}
330
2
100
AcDbSymbolTableRecord
100
AcDbLayerTableRecord
  2
2
 70
     0
 62
     7
  6
BYBLOCK
370
    25
390
318A
347
318E
  0
LAYER
  5
9C4B
102
{ACAD_XDICTIONARY
360
1B2FB
102
}
330
2
100
AcDbSymbolTableRecord
100
AcDbLayerTableRecord
  2
4
 70
     0
 62
     2
  6
CENTER
370
    25
390
318A
347
318E
  0
LAYER
  5
9C4D
102
{ACAD_XDICTIONARY
360
1B2FD
102
}
330
2
100
AcDbSymbolTableRecord
100
AcDbLayerTableRecord
  2
CUT
 70
     0
 62
     1
  6
BYBLOCK
370
    25
390
318A
347
318E
  0
LAYER
  5
9C4E
102
{ACAD_XDICTIONARY
360
1B2FF
102
}
330
2
100
AcDbSymbolTableRecord
100
AcDbLayerTableRecord
  2
NOCUT
 70
     0
 62
    -7
  6
BYBLOCK
370
    25
390
318A
347
318E
  0
LAYER
  5
9C4F
102
{ACAD_XDICTIONARY
360
1B301
102
}
330
2
100
AcDbSymbolTableRecord
100
AcDbLayerTableRecord
  2
SK2
 70
     0
 62
     7
  6
BYBLOCK
370
    25
390
318A
347
318E
  0
LAYER
  5
9C50
102
{ACAD_XDICTIONARY
360
1B303
102
}
330
2
100
AcDbSymbolTableRecord
100
AcDbLayerTableRecord
  2
SK1
 70
     0
 62
     4
  6
BYBLOCK
370
    50
390
318A
347
318E
  0
LAYER
  5
9C51
102
{ACAD_XDICTIONARY
360
1B305
102
}
330
2
100
AcDbSymbolTableRecord
100
AcDbLayerTableRecord
  2
SK4
 70
     0
 62
     2
  6
CENTER
370
    25
390
318A
347
318E
  0
LAYER
  5
13335
102
{ACAD_XDICTIONARY
360
1B307
102
}
330
2
100
AcDbSymbolTableRecord
100
AcDbLayerTableRecord
  2
INFTOTAL
 70
     0
 62
     9
  6
BYBLOCK
370
    18
390
318A
347
318E
1001
AcAecLayerStandard
1000

1000

  0
LAYER
  5
1686E
102
{ACAD_XDICTIONARY
360
1B309
102
}
330
2
100
AcDbSymbolTableRecord
100
AcDbLayerTableRecord
  2
SK6
 70
     0
 62
     5
  6
BYBLOCK
370
    -3
390
318A
347
318E
  0
LAYER
  5
21CB4
330
2
100
AcDbSymbolTableRecord
100
AcDbLayerTableRecord
  2
SK3
 70
     0
 62
     1
  6
HIDDEN
370
    35
390
318A
347
318E
  0
LAYER
  5
21CB5
330
2
100
AcDbSymbolTableRecord
100
AcDbLayerTableRecord
  2
SKVIEW1
 70
     0
 62
     4
  6
CONTINUOUS
370
    50
390
318A
347
318E
1001
AcAecLayerStandard
1000

1000

  0
LAYER
  5
21CB6
330
2
100
AcDbSymbolTableRecord
100
AcDbLayerTableRecord
  2
SKVIEW4
 70
     0
 62
     2
  6
CENTER2
370
    25
390
318A
347
318E
1001
AcAecLayerStandard
1000

1000

  0
ENDTAB
  0
TABLE
  2
STYLE
  5
3
330
0
100
AcDbSymbolTable
 70
     2
  0
STYLE
  5
11
330
3
100
AcDbSymbolTableRecord
100
AcDbTextStyleTableRecord
  2
STANDARD
 70
     0
 40
3.5
 41
0.8
 50
0.0
 71
     0
 42
3.5
  3
monos.ttf
  4

1001
ACAD
1000
Monospac821 BT
1071
       49
  0
ENDTAB
  0
TABLE
  2
VIEW
  5
6
330
0
100
AcDbSymbolTable
 70
     0
  0
ENDTAB
  0
TABLE
  2
UCS
  5
7
330
0
100
AcDbSymbolTable
 70
     0
  0
ENDTAB
  0
TABLE
  2
APPID
  5
9
330
0
100
AcDbSymbolTable
 70
    19
  0
APPID
  5
23B
330
9
100
AcDbSymbolTableRecord
100
AcDbRegAppTableRecord
  2
ACAD
 70
     0
  0
APPID
  5
3395
330
9
100
AcDbSymbolTableRecord
100
AcDbRegAppTableRecord
  2
ACAD_EXEMPT_FROM_CAD_STANDARDS
 70
     0
  0
APPID
  5
4229
330
9
100
AcDbSymbolTableRecord
100
AcDbRegAppTableRecord
  2
AcAecLayerStandard
 70
     0
  0
APPID
  5
9A1B
330
9
100
AcDbSymbolTableRecord
100
AcDbRegAppTableRecord
  2
ACAD_PSEXT
 70
     0
  0
APPID
  5
1B313
330
9
100
AcDbSymbolTableRecord
100
AcDbRegAppTableRecord
  2
ACAD_NAV_VCDISPLAY
 70
     0
  0
APPID
  5
1B355
330
9
100
AcDbSymbolTableRecord
100
AcDbRegAppTableRecord
  2
ACAD_MLEADERVER
 70
     0
  0
APPID
  5
1EC7F
330
9
100
AcDbSymbolTableRecord
100
AcDbRegAppTableRecord
  2
ACAUTHENVIRON
 70
     0
  0
APPID
  5
1EC82
330
9
100
AcDbSymbolTableRecord
100
AcDbRegAppTableRecord
  2
AcDbDynamicBlockTrueName
 70
     0
  0
APPID
  5
1EC83
330
9
100
AcDbSymbolTableRecord
100
AcDbRegAppTableRecord
  2
AcDbDynamicBlockGUID
 70
     0
  0
APPID
  5
20A85
330
9
100
AcDbSymbolTableRecord
100
AcDbRegAppTableRecord
  2
AcCmTransparency
 70
     0
  0
APPID
  5
20AE2
330
9
100
AcDbSymbolTableRecord
100
AcDbRegAppTableRecord
  2
ACAD_DSTYLE_DIMRADIAL_EXTENSION
 70
     0
  0
APPID
  5
20CB0
330
9
100
AcDbSymbolTableRecord
100
AcDbRegAppTableRecord
  2
AcadAnnotative
 70
     0
  0
APPID
  5
21667
330
9
100
AcDbSymbolTableRecord
100
AcDbRegAppTableRecord
  2
AcadAnnoMonitorAlertIconDisabled
 70
     0
  0
APPID
  5
21CB9
330
9
100
AcDbSymbolTableRecord
100
AcDbRegAppTableRecord
  2
ACAD_DSTYLE_DIMJAG
 70
     0
  0
APPID
  5
21CBA
330
9
100
AcDbSymbolTableRecord
100
AcDbRegAppTableRecord
  2
ACAD_DSTYLE_DIMTALN
 70
     0
  0
APPID
  5
21CBB
330
9
100
AcDbSymbolTableRecord
100
AcDbRegAppTableRecord
  2
ACAD_DSTYLE_DIM_LINETYPE
 70
     0
  0
APPID
  5
21CBC
330
9
100
AcDbSymbolTableRecord
100
AcDbRegAppTableRecord
  2
ACAD_DSTYLE_DIM_EXT1_LINETYPE
 70
     0
  0
APPID
  5
21CBD
330
9
100
AcDbSymbolTableRecord
100
AcDbRegAppTableRecord
  2
ACAD_DSTYLE_DIM_EXT2_LINETYPE
 70
     0
  0
APPID
  5
21CBE
330
9
100
AcDbSymbolTableRecord
100
AcDbRegAppTableRecord
  2
ACAD_DSTYLE_DIMARC_LENGTH_SYMBOL
 70
     0
  0
ENDTAB
  0
TABLE
  2
DIMSTYLE
  5
A
330
0
100
AcDbSymbolTable
 70
     3
100
AcDbDimStyleTable
 71
     1
340
243
  0
DIMSTYLE
105
243
102
{ACAD_REACTORS
330
21E01
330
21E00
330
21E02
330
21DFF
330
21F28
102
}
330
A
100
AcDbSymbolTableRecord
100
AcDbDimStyleTableRecord
  2
STANDARD
 70
     0
 41
4.57
 47
0.01
 48
0.01
 73
     0
 74
     0
 77
     1
 78
     8
140
3.5
271
     3
272
     3
284
     8
289
     0
340
11
  0
ENDTAB
  0
TABLE
  2
BLOCK_RECORD
  5
1
330
0
100
AcDbSymbolTable
 70
    18
  0
BLOCK_RECORD
  5
1F
102
{ACAD_XDICTIONARY
360
339C
102
}
330
1
100
AcDbSymbolTableRecord
100
AcDbBlockTableRecord
  2
*MODEL_SPACE
340
31A6
 70
     0
280
     1
281
     0
  0
BLOCK_RECORD
  5
1B
330
1
100
AcDbSymbolTableRecord
100
AcDbBlockTableRecord
  2
*PAPER_SPACE
340
31A7
 70
     0
280
     1
281
     0
  0
BLOCK_RECORD
  5
1B3D7
102
{ACAD_XDICTIONARY
360
1DE81
102
}
330
1
100
AcDbSymbolTableRecord
100
AcDbBlockTableRecord
  2
cero_point
340
0
310
28000000200000002000000001002000000000000010000001000000010000000000000000000000302821FF302821FF302821FF302821FF302821FF302821FF302821FF302821FF302821FF302821FF302821FF302821FF302821FF302821FF302821FF302821FF302821FF302821FF302821FF302821FF302821FF302821
310
FF302821FF302821FF302821FF302821FF302821FF302821FF302821FF302821FF302821FF302821FF302821FF302821FF302821FF302821FF302821FF302821FF302821FF302821FF302821FF302821FF302821FF302821FF302821FF302821FF302821FFFFFF00FFFFFF00FFFFFF00FF302821FF302821FF302821FF3028
310
21FF302821FF302821FF302821FF302821FF302821FF302821FF302821FF302821FF302821FF302821FF302821FF302821FF302821FF302821FF302821FF302821FF302821FF302821FF302821FF302821FFFFFF00FFFFFF00FFFFFF00FFFFFF00FFFFFF00FFFFFF00FFFFFF00FF302821FFFFFF00FFFFFF00FFFFFF00FF30
310
2821FF302821FF302821FF302821FF302821FF302821FF302821FF302821FF302821FF302821FF302821FF302821FF302821FF302821FF302821FF302821FF302821FF302821FF302821FFFFFF00FFFFFF00FFFFFF00FFFFFF00FFFFFF00FFFFFF00FFFFFF00FFFFFF00FFFFFF00FF302821FF302821FF302821FF302821FF
310
FFFF00FFFFFF00FF302821FF302821FF302821FF302821FF302821FF302821FF302821FF302821FF302821FF302821FF302821FF302821FF302821FF302821FF302821FF302821FFFFFF00FFFFFF00FFFFFF00FFFFFF00FFFFFF00FFFFFF00FFFFFF00FFFFFF00FFFFFF00FFFFFF00FF302821FF302821FF302821FF302821
310
FF302821FF302821FFFFFF00FFFFFF00FF302821FF302821FF302821FF302821FF302821FF302821FF302821FF302821FF302821FF302821FF302821FF302821FF302821FFFFFF00FFFFFF00FFFFFF00FFFFFF00FFFFFF00FFFFFF00FFFFFF00FFFFFF00FFFFFF00FFFFFF00FFFFFF00FF302821FF302821FF302821FF3028
310
21FF302821FF302821FF302821FF302821FFFFFF00FF302821FF302821FF302821FF302821FF302821FF302821FF302821FF302821FF302821FF302821FF302821FFFFFF00FFFFFF00FFFFFF00FFFFFF00FFFFFF00FFFFFF00FFFFFF00FFFFFF00FFFFFF00FFFFFF00FFFFFF00FFFFFF00FF302821FF302821FF302821FF30
310
2821FF302821FF302821FF302821FF302821FF302821FFFFFF00FF302821FF302821FF302821FF302821FF302821FF302821FF302821FF302821FF302821FFFFFF00FFFFFF00FFFFFF00FFFFFF00FFFFFF00FFFFFF00FFFFFF00FFFFFF00FFFFFF00FFFFFF00FFFFFF00FFFFFF00FFFFFF00FF302821FF302821FF302821FF
310
302821FF302821FF302821FF302821FF302821FF302821FF302821FFFFFF00FF302821FF302821FF302821FF302821FF302821FF302821FF302821FFFFFF00FFFFFF00FFFFFF00FFFFFF00FFFFFF00FFFFFF00FFFFFF00FFFFFF00FFFFFF00FFFFFF00FFFFFF00FFFFFF00FFFFFF00FFFFFF00FF302821FF302821FF302821
310
FF302821FF302821FF302821FF302821FF302821FF302821FF302821FFFFFF00FF302821FF302821FF302821FF302821FF302821FF302821FF302821FFFFFF00FFFFFF00FFFFFF00FFFFFF00FFFFFF00FFFFFF00FFFFFF00FFFFFF00FFFFFF00FFFFFF00FFFFFF00FFFFFF00FFFFFF00FFFFFF00FF302821FF302821FF3028
310
21FF302821FF302821FF302821FF302821FF302821FF302821FF302821FF302821FFFFFF00FF302821FF302821FF302821FF302821FF302821FFFFFF00FFFFFF00FFFFFF00FFFFFF00FFFFFF00FFFFFF00FFFFFF00FFFFFF00FFFFFF00FFFFFF00FFFFFF00FFFFFF00FFFFFF00FFFFFF00FFFFFF00FF302821FF302821FF30
310
2821FF302821FF302821FF302821FF302821FF302821FF302821FF302821FF302821FF302821FFFFFF00FF302821FF302821FF302821FF302821FFFFFF00FFFFFF00FFFFFF00FFFFFF00FFFFFF00FFFFFF00FFFFFF00FFFFFF00FFFFFF00FFFFFF00FFFFFF00FFFFFF00FFFFFF00FFFFFF00FFFFFF00FF302821FF302821FF
310
302821FF302821FF302821FF302821FF302821FF302821FF302821FF302821FF302821FF302821FFFFFF00FF302821FF302821FF302821FF302821FFFFFF00FFFFFF00FFFFFF00FFFFFF00FFFFFF00FFFFFF00FFFFFF00FFFFFF00FFFFFF00FFFFFF00FFFFFF00FFFFFF00FFFFFF00FFFFFF00FFFFFF00FF302821FF302821
310
FF302821FF302821FF302821FF302821FF302821FF302821FF302821FF302821FF302821FF302821FFFFFF00FF302821FF302821FF302821FF302821FFFFFF00FFFFFF00FFFFFF00FFFFFF00FFFFFF00FFFFFF00FFFFFF00FFFFFF00FFFFFF00FFFFFF00FFFFFF00FFFFFF00FFFFFF00FFFFFF00FFFFFF00FF302821FF3028
310
21FF302821FF302821FF302821FF302821FF302821FF302821FF302821FF302821FF302821FF302821FFFFFF00FF302821FF302821FF302821FFFFFF00FFFFFF00FFFFFF00FFFFFF00FFFFFF00FFFFFF00FFFFFF00FFFFFF00FFFFFF00FFFFFF00FFFFFF00FFFFFF00FFFFFF00FFFFFF00FFFFFF00FFFFFF00FF302821FF30
310
2821FF302821FF302821FF302821FF302821FF302821FF302821FF302821FF302821FF302821FF302821FF302821FFFFFF00FF302821FF302821FFFFFF00FFFFFF00FFFFFF00FFFFFF00FFFFFF00FFFFFF00FFFFFF00FFFFFF00FFFFFF00FFFFFF00FFFFFF00FFFFFF00FFFFFF00FFFFFF00FFFFFF00FFFFFF00FFFFFF00FF
310
FFFF00FFFFFF00FFFFFF00FFFFFF00FFFFFF00FFFFFF00FFFFFF00FFFFFF00FFFFFF00FFFFFF00FFFFFF00FFFFFF00FFFFFF00FF302821FF302821FFFFFF00FF302821FF302821FF302821FF302821FF302821FF302821FF302821FF302821FF302821FF302821FF302821FF302821FF302821FF302821FFFFFF00FFFFFF00
310
FFFFFF00FFFFFF00FFFFFF00FFFFFF00FFFFFF00FFFFFF00FFFFFF00FFFFFF00FFFFFF00FFFFFF00FFFFFF00FFFFFF00FFFFFF00FF302821FF302821FFFFFF00FF302821FF302821FF302821FF302821FF302821FF302821FF302821FF302821FF302821FF302821FF302821FF302821FF302821FF302821FFFFFF00FFFFFF
310
00FFFFFF00FFFFFF00FFFFFF00FFFFFF00FFFFFF00FFFFFF00FFFFFF00FFFFFF00FFFFFF00FFFFFF00FFFFFF00FFFFFF00FF302821FF302821FF302821FF302821FFFFFF00FF302821FF302821FF302821FF302821FF302821FF302821FF302821FF302821FF302821FF302821FF302821FF302821FF302821FFFFFF00FFFF
310
FF00FFFFFF00FFFFFF00FFFFFF00FFFFFF00FFFFFF00FFFFFF00FFFFFF00FFFFFF00FFFFFF00FFFFFF00FFFFFF00FFFFFF00FF302821FF302821FF302821FF302821FFFFFF00FF302821FF302821FF302821FF302821FF302821FF302821FF302821FF302821FF302821FF302821FF302821FF302821FF302821FFFFFF00FF
310
FFFF00FFFFFF00FFFFFF00FFFFFF00FFFFFF00FFFFFF00FFFFFF00FFFFFF00FFFFFF00FFFFFF00FFFFFF00FFFFFF00FFFFFF00FF302821FF302821FF302821FF302821FFFFFF00FF302821FF302821FF302821FF302821FF302821FF302821FF302821FF302821FF302821FF302821FF302821FF302821FF302821FFFFFF00
310
FFFFFF00FFFFFF00FFFFFF00FFFFFF00FFFFFF00FFFFFF00FFFFFF00FFFFFF00FFFFFF00FFFFFF00FFFFFF00FFFFFF00FFFFFF00FF302821FF302821FF302821FF302821FF302821FFFFFF00FF302821FF302821FF302821FF302821FF302821FF302821FF302821FF302821FF302821FF302821FF302821FF302821FFFFFF
310
00FFFFFF00FFFFFF00FFFFFF00FFFFFF00FFFFFF00FFFFFF00FFFFFF00FFFFFF00FFFFFF00FFFFFF00FFFFFF00FFFFFF00FFFFFF00FF302821FF302821FF302821FF302821FF302821FFFFFF00FF302821FF302821FF302821FF302821FF302821FF302821FF302821FF302821FF302821FF302821FF302821FF302821FFFF
310
FF00FFFFFF00FFFFFF00FFFFFF00FFFFFF00FFFFFF00FFFFFF00FFFFFF00FFFFFF00FFFFFF00FFFFFF00FFFFFF00FFFFFF00FF302821FF302821FF302821FF302821FF302821FF302821FF302821FFFFFF00FF302821FF302821FF302821FF302821FF302821FF302821FF302821FF302821FF302821FF302821FF302821FF
310
FFFF00FFFFFF00FFFFFF00FFFFFF00FFFFFF00FFFFFF00FFFFFF00FFFFFF00FFFFFF00FFFFFF00FFFFFF00FFFFFF00FFFFFF00FF302821FF302821FF302821FF302821FF302821FF302821FF302821FFFFFF00FF302821FF302821FF302821FF302821FF302821FF302821FF302821FF302821FF302821FF302821FF302821
310
FFFFFF00FFFFFF00FFFFFF00FFFFFF00FFFFFF00FFFFFF00FFFFFF00FFFFFF00FFFFFF00FFFFFF00FFFFFF00FFFFFF00FF302821FF302821FF302821FF302821FF302821FF302821FF302821FF302821FF302821FFFFFF00FF302821FF302821FF302821FF302821FF302821FF302821FF302821FF302821FF302821FF3028
310
21FFFFFF00FFFFFF00FFFFFF00FFFFFF00FFFFFF00FFFFFF00FFFFFF00FFFFFF00FFFFFF00FFFFFF00FFFFFF00FF302821FF302821FF302821FF302821FF302821FF302821FF302821FF302821FF302821FF302821FF302821FFFFFF00FF302821FF302821FF302821FF302821FF302821FF302821FF302821FF302821FF30
310
2821FFFFFF00FFFFFF00FFFFFF00FFFFFF00FFFFFF00FFFFFF00FFFFFF00FFFFFF00FFFFFF00FFFFFF00FF302821FF302821FF302821FF302821FF302821FF302821FF302821FF302821FF302821FF302821FF302821FF302821FF302821FFFFFF00FF302821FF302821FF302821FF302821FF302821FF302821FF302821FF
310
302821FFFFFF00FFFFFF00FFFFFF00FFFFFF00FFFFFF00FFFFFF00FFFFFF00FFFFFF00FFFFFF00FF302821FF302821FF302821FF302821FF302821FF302821FF302821FF302821FF302821FF302821FF302821FF302821FF302821FF302821FF302821FFFFFF00FFFFFF00FF302821FF302821FF302821FF302821FF302821
310
FF302821FFFFFF00FFFFFF00FFFFFF00FFFFFF00FFFFFF00FFFFFF00FFFFFF00FFFFFF00FF302821FF302821FF302821FF302821FF302821FF302821FF302821FF302821FF302821FF302821FF302821FF302821FF302821FF302821FF302821FF302821FF302821FF302821FFFFFF00FFFFFF00FFFFFF00FFFFFF00FFFFFF
310
00FF302821FFFFFF00FFFFFF00FFFFFF00FFFFFF00FFFFFF00FFFFFF00FF302821FF302821FF302821FF302821FF302821FF302821FF302821FF302821FF302821FF302821FF302821FF302821FF302821FF302821FF302821FF302821FF302821FF302821FF302821FF302821FF302821FF302821FF302821FF302821FF30
310
2821FFFFFF00FFFFFF00FFFFFF00FF302821FF302821FF302821FF302821FF302821FF302821FF302821FF302821FF302821FF302821FF302821FF302821FF302821FF302821FF302821FF302821FF302821FF302821FF302821FF302821FF302821FF302821FF302821FF302821FF302821FF302821FF302821FF302821FF
310
302821FF302821FF302821FF302821FF302821FF302821FF302821FF302821FF302821FF302821FF302821FF302821FF302821FF302821FF302821FF302821FF302821FF302821FF
102
{BLKREFS
331
21DF7
102
}
 70
     0
280
     1
281
     1
  0
BLOCK_RECORD
  5
21F29
330
1
100
AcDbSymbolTableRecord
100
AcDbBlockTableRecord
  2
*D12
340
0
 70
     0
280
     1
281
     0
  0
BLOCK_RECORD
  5
21F33
330
1
100
AcDbSymbolTableRecord
100
AcDbBlockTableRecord
  2
*D13
340
0
 70
     0
280
     1
281
     0
  0
BLOCK_RECORD
  5
21F3F
330
1
100
AcDbSymbolTableRecord
100
AcDbBlockTableRecord
  2
*D14
340
0
 70
     0
280
     1
281
     0
  0
BLOCK_RECORD
  5
21F4B
330
1
100
AcDbSymbolTableRecord
100
AcDbBlockTableRecord
  2
*D15
340
0
 70
     0
280
     1
281
     0
  0
BLOCK_RECORD
  5
21F59
330
1
100
AcDbSymbolTableRecord
100
AcDbBlockTableRecord
  2
*D16
340
0
 70
     0
280
     1
281
     0
  0
ENDTAB
  0
ENDSEC
  0
SECTION
  2
BLOCKS
  0
BLOCK
  5
20
330
1F
100
AcDbEntity
  8
0
100
AcDbBlockBegin
  2
*MODEL_SPACE
 70
     0
 10
0.0
 20
0.0
 30
0.0
  3
*MODEL_SPACE
  1

  0
ENDBLK
  5
21
330
1F
100
AcDbEntity
  8
0
100
AcDbBlockEnd
  0
BLOCK
  5
1C
330
1B
100
AcDbEntity
 67
     1
  8
0
100
AcDbBlockBegin
  2
*PAPER_SPACE
 70
     0
 10
0.0
 20
0.0
 30
0.0
  3
*PAPER_SPACE
  1

  0
ENDBLK
  5
1D
330
1B
100
AcDbEntity
 67
     1
  8
0
100
AcDbBlockEnd
  0
BLOCK
  5
1B3D8
330
1B3D7
100
AcDbEntity
  8
0
100
AcDbBlockBegin
  2
cero_point
 70
     0
 10
0.0
 20
0.0
 30
0.0
  3
cero_point
  1

  0
HATCH
  5
1B3DA
330
1B3D7
100
AcDbEntity
  8
1
  6
ByBlock
370
    50
100
AcDbHatch
 10
0.0
 20
0.0
 30
0.0
210
0.0
220
0.0
230
1.0
  2
SOLID
 70
     1
 71
     0
 91
        2
 92
        7
 72
     1
 73
     1
 93
        3
 10
-0.0000000000001137
 20
0.0
 42
0.0
 10
-2.950972054112752
 20
0.0
 42
0.4142135623730968
 10
-0.0000000000001137
 20
-2.950972054112583
 42
0.0
 97
        0
 92
        7
 72
     1
 73
     1
 93
        3
 10
-0.0000000000001137
 20
2.950972054112638
 42
0.0
 10
-0.0000000000001137
 20
0.0
 42
0.0
 10
2.950972054112526
 20
0.0
 42
0.4142135623730966
 97
        0
 75
     0
 76
     1
 47
0.1190009775223266
 98
        2
 10
-0.7445530588121301
 20
-0.9212244733764125
 10
1.279464601852737
 20
1.696796923046345
450
        0
451
        0
460
0.0
461
0.0
452
        0
462
0.0
453
        0
470

  0
LWPOLYLINE
  5
1B3DB
330
1B3D7
100
AcDbEntity
  8
1
  6
ByBlock
370
    50
100
AcDbPolyline
 90
        3
 70
     1
 43
0.0
 10
-0.0000000000001137
 20
0.0
 10
2.950972054112526
 20
0.0
 42
0.4142135623730966
 10
-0.0000000000001137
 20
2.950972054112638
  0
LINE
  5
1B3DC
330
1B3D7
100
AcDbEntity
  8
1
  6
ByBlock
370
    50
100
AcDbLine
 10
-0.0000000000001137
 20
-2.950972054112583
 30
0.0
 11
-0.0000000000001137
 21
2.950972054112638
 31
0.0
  0
LWPOLYLINE
  5
1B3DD
330
1B3D7
100
AcDbEntity
  8
1
  6
ByBlock
370
    50
100
AcDbPolyline
 90
        3
 70
     1
 43
0.0
 10
-0.0000000000001137
 20
-2.950972054112583
 10
-0.0000000000001137
 20
0.0
 10
-2.950972054112752
 20
0.0
 42
0.4142135623730966
  0
LINE
  5
1B3DE
330
1B3D7
100
AcDbEntity
  8
1
  6
ByBlock
370
    50
100
AcDbLine
 10
2.950972054112638
 20
0.0
 30
0.0
 11
-2.950972054112638
 21
0.0
 31
0.0
  0
CIRCLE
  5
1B3DF
330
1B3D7
100
AcDbEntity
  8
1
  6
ByBlock
370
    50
100
AcDbCircle
 10
-0.0000000000001137
 20
0.0
 30
0.0
 40
2.950972054112601
  0
ENDBLK
  5
1B3D9
330
1B3D7
100
AcDbEntity
  8
0
100
AcDbBlockEnd
  0
BLOCK
  5
21F2A
330
21F29
100
AcDbEntity
  8
0
100
AcDbBlockBegin
  2
*D12
 70
     1
 10
0.0
 20
0.0
 30
0.0
  3
*D12
  1

  0
LINE
  5
220FC
330
21F29
100
AcDbEntity
  8
SK2
 62
     0
440
 16777216
370
    -2
100
AcDbLine
 10
-11.46249999999997
 20
5.599999999999994
 30
0.0
 11
-30.35063938332223
 21
5.599999999999999
 31
0.0
  0
LINE
  5
220FD
330
21F29
100
AcDbEntity
  8
SK2
 62
     0
440
 16777216
370
    -2
100
AcDbLine
 10
-11.46249999999997
 20
-5.600000000000001
 30
0.0
 11
-30.35063938332223
 21
-5.599999999999996
 31
0.0
  0
LINE
  5
220FE
330
21F29
100
AcDbEntity
  8
SK2
 62
     0
440
 16777216
370
    -2
100
AcDbLine
 10
-30.17063938332222
 20
10.17
 30
0.0
 11
-30.17063938332222
 21
14.74
 31
0.0
  0
LINE
  5
220FF
330
21F29
100
AcDbEntity
  8
SK2
 62
     0
440
 16777216
370
    -2
100
AcDbLine
 10
-30.17063938332223
 20
-10.16999999999999
 30
0.0
 11
-30.17063938332223
 21
-26.66898102600141
 31
0.0
  0
LINE
  5
22100
330
21F29
100
AcDbEntity
  8
SK2
 62
     0
440
 16777216
370
    -2
100
AcDbLine
 10
-30.17063938332223
 20
5.599999999999999
 30
0.0
 11
-30.17063938332223
 21
-5.599999999999996
 31
0.0
  0
SOLID
  5
22101
330
21F29
100
AcDbEntity
  8
SK2
 62
     0
440
 16777216
100
AcDbTrace
 10
-30.93230604998889
 20
10.17
 30
0.0
 11
-29.40897271665555
 21
10.17
 31
0.0
 12
-30.17063938332223
 22
5.599999999999999
 32
0.0
 13
-30.17063938332223
 23
5.599999999999999
 33
0.0
  0
SOLID
  5
22102
330
21F29
100
AcDbEntity
  8
SK2
 62
     0
440
 16777216
100
AcDbTrace
 10
-30.9323060499889
 20
-10.16999999999999
 30
0.0
 11
-29.40897271665556
 21
-10.16999999999999
 31
0.0
 12
-30.17063938332223
 22
-5.599999999999996
 32
0.0
 13
-30.17063938332223
 23
-5.599999999999996
 33
0.0
  0
MTEXT
  5
22103
330
21F29
100
AcDbEntity
  8
SK2
 62
     0
440
 16777216
100
AcDbMText
 10
-32.12378063420065
 20
-20.7044905130007
 30
0.0
 40
3.5
 41
0.0
 46
0.0
 71
     5
 72
     1
  1
\A1;%%C11.2
 11
0.0000000000000001
 21
1.0
 31
0.0
 73
     1
 44
1.0
  0
POINT
  5
22104
330
21F29
100
AcDbEntity
  8
Defpoints
 62
     0
440
 16777216
100
AcDbPoint
 10
-11.39999999999997
 20
5.599999999999994
 30
0.0
  0
POINT
  5
22105
330
21F29
100
AcDbEntity
  8
Defpoints
 62
     0
440
 16777216
100
AcDbPoint
 10
-11.39999999999997
 20
-5.600000000000001
 30
0.0
  0
POINT
  5
22106
330
21F29
100
AcDbEntity
  8
Defpoints
 62
     0
440
 16777216
100
AcDbPoint
 10
-30.17063938332223
 20
-5.599999999999996
 30
0.0
  0
ENDBLK
  5
21F2B
330
21F29
100
AcDbEntity
  8
0
100
AcDbBlockEnd
  0
BLOCK
  5
21F34
330
21F33
100
AcDbEntity
  8
0
100
AcDbBlockBegin
  2
*D13
 70
     1
 10
0.0
 20
0.0
 30
0.0
  3
*D13
  1

  0
LINE
  5
220D6
330
21F33
100
AcDbEntity
  8
2
 62
     0
440
 16777216
370
    -2
100
AcDbLine
 10
23.47249999998059
 20
7.949998439021145
 30
0.0
 11
39.3247544209878
 21
7.949602518480311
 31
0.0
  0
LINE
  5
220D7
330
21F33
100
AcDbEntity
  8
2
 62
     0
440
 16777216
370
    -2
100
AcDbLine
 10
23.4724999999806
 20
-7.950001560978849
 30
0.0
 11
39.32435730796979
 21
-7.950397471601522
 31
0.0
  0
LINE
  5
220D8
330
21F33
100
AcDbEntity
  8
2
 62
     0
440
 16777216
370
    -2
100
AcDbLine
 10
39.14464028227081
 20
3.379607015524729
 30
0.0
 11
39.14447144679907
 21
-3.380392977407795
 31
0.0
  0
SOLID
  5
220D9
330
21F33
100
AcDbEntity
  8
2
 62
     0
440
 16777216
100
AcDbTrace
 10
38.3829736158417
 20
3.379626038653584
 30
0.0
 11
39.90630694869992
 21
3.379587992395872
 31
0.0
 12
39.14475442104394
 22
7.949607014099384
 32
0.0
 13
39.14475442104394
 23
7.949607014099384
 33
0.0
  0
SOLID
  5
220DA
330
21F33
100
AcDbEntity
  8
2
 62
     0
440
 16777216
100
AcDbTrace
 10
38.38280478036996
 20
-3.380373954278939
 30
0.0
 11
39.90613811322818
 21
-3.380412000536651
 31
0.0
 12
39.14435730802593
 22
-7.95039297598245
 32
0.0
 13
39.14435730802593
 23
-7.95039297598245
 33
0.0
  0
MTEXT
  5
220DB
330
21F33
100
AcDbEntity
  8
2
 62
     0
440
 16777216
100
AcDbMText
 10
37.24306713553208
 20
0.0429231981394949
 30
0.0
 40
3.5
 41
0.0
 46
0.0
 71
     5
 72
     1
  1
\A1;15.9
 11
0.0000249756615177
 21
0.9999999996881081
 31
0.0
 73
     1
 44
1.0
  0
POINT
  5
220DC
330
21F33
100
AcDbEntity
  8
Defpoints
 62
     0
440
 16777216
100
AcDbPoint
 10
23.41000000000009
 20
7.94999999999999
 30
0.0
  0
POINT
  5
220DD
330
21F33
100
AcDbEntity
  8
Defpoints
 62
     0
440
 16777216
100
AcDbPoint
 10
23.41000000000009
 20
-7.950000000000004
 30
0.0
  0
POINT
  5
220DE
330
21F33
100
AcDbEntity
  8
Defpoints
 62
     0
440
 16777216
100
AcDbPoint
 10
39.14435730802593
 20
-7.95039297598245
 30
0.0
  0
ENDBLK
  5
21F35
330
21F33
100
AcDbEntity
  8
0
100
AcDbBlockEnd
  0
BLOCK
  5
21F40
330
21F3F
100
AcDbEntity
  8
0
100
AcDbBlockBegin
  2
*D14
 70
     1
 10
0.0
 20
0.0
 30
0.0
  3
*D14
  1

  0
LINE
  5
220DF
330
21F3F
100
AcDbEntity
  8
2
 62
     0
440
 16777216
370
    -2
100
AcDbLine
 10
26.5800010406525
 20
0.0624999999913364
 30
0.0
 11
26.58062382760526
 21
37.46613093912159
 31
0.0
  0
LINE
  5
220E0
330
21F3F
100
AcDbEntity
  8
2
 62
     0
440
 16777216
370
    -2
100
AcDbLine
 10
0.0000010406525667
 20
14.2197559999913
 30
0.0
 11
0.0003881104176158
 21
37.46657351177003
 31
0.0
  0
LINE
  5
220E1
330
21F3F
100
AcDbEntity
  8
2
 62
     0
440
 16777216
370
    -2
100
AcDbLine
 10
22.01062083115935
 20
37.28620703166222
 30
0.0
 11
4.570385112704737
 21
37.28649741927931
 31
0.0
  0
SOLID
  5
220E2
330
21F3F
100
AcDbEntity
  8
2
 62
     0
440
 16777216
100
AcDbTrace
 10
22.0106335132453
 20
38.04787369822331
 30
0.0
 11
22.01060814907341
 21
36.52454036510113
 31
0.0
 12
26.58062083052587
 22
37.28613093914655
 32
0.0
 13
26.58062083052587
 23
37.28613093914655
 33
0.0
  0
SOLID
  5
220E3
330
21F3F
100
AcDbEntity
  8
2
 62
     0
440
 16777216
100
AcDbTrace
 10
4.570397794790682
 20
38.04816408584039
 30
0.0
 11
4.57037243061879
 21
36.52483075271822
 31
0.0
 12
0.0003851133382236
 22
37.28657351179498
 32
0.0
 13
0.0003851133382236
 23
37.28657351179498
 33
0.0
  0
MTEXT
  5
220E4
330
21F3F
100
AcDbEntity
  8
2
 62
     0
440
 16777216
100
AcDbMText
 10
13.29015038262605
 20
39.18784204186513
 30
0.0
 40
3.5
 41
0.0
 46
0.0
 71
     5
 72
     1
  1
\A1;26.58
 11
0.9999999998613814
 21
-0.0000166504410678
 31
0.0
 73
     1
 44
1.0
  0
POINT
  5
220E5
330
21F3F
100
AcDbEntity
  8
Defpoints
 62
     0
440
 16777216
100
AcDbPoint
 10
26.57999999999993
 20
0.0
 30
0.0
  0
POINT
  5
220E6
330
21F3F
100
AcDbEntity
  8
Defpoints
 62
     0
440
 16777216
100
AcDbPoint
 10
0.0
 20
14.15725599999996
 30
0.0
  0
POINT
  5
220E7
330
21F3F
100
AcDbEntity
  8
Defpoints
 62
     0
440
 16777216
100
AcDbPoint
 10
0.0003851133382236
 20
37.28657351179498
 30
0.0
  0
ENDBLK
  5
21F41
330
21F3F
100
AcDbEntity
  8
0
100
AcDbBlockEnd
  0
BLOCK
  5
21F4C
330
21F4B
100
AcDbEntity
  8
0
100
AcDbBlockBegin
  2
*D15
 70
     1
 10
0.0
 20
0.0
 30
0.0
  3
*D15
  1

  0
LINE
  5
220E8
330
21F4B
100
AcDbEntity
  8
2
 62
     0
440
 16777216
370
    -2
100
AcDbLine
 10
22.61000208130504
 20
13.76249999996533
 30
0.0
 11
22.61042512045519
 21
26.46604185144423
 31
0.0
  0
LINE
  5
220E9
330
21F4B
100
AcDbEntity
  8
2
 62
     0
440
 16777216
370
    -2
100
AcDbLine
 10
26.58000208130506
 20
0.0624999999653454
 30
0.0
 11
26.58088133813772
 21
26.46590963174962
 31
0.0
  0
LINE
  5
220EA
330
21F4B
100
AcDbEntity
  8
2
 62
     0
440
 16777216
370
    -2
100
AcDbLine
 10
31.15087534144499
 20
26.28575744681806
 30
0.0
 11
35.72087533891104
 21
26.28560526178669
 31
0.0
  0
LINE
  5
220EB
330
21F4B
100
AcDbEntity
  8
2
 62
     0
440
 16777216
370
    -2
100
AcDbLine
 10
18.04041912883035
 20
26.2861940365754
 30
0.0
 11
4.020707260286284
 21
26.2866609053482
 31
0.0
  0
LINE
  5
220EC
330
21F4B
100
AcDbEntity
  8
2
 62
     0
440
 16777216
370
    -2
100
AcDbLine
 10
26.58087534397894
 20
26.28590963184943
 30
0.0
 11
22.61041912629641
 21
26.28604185154404
 31
0.0
  0
SOLID
  5
220ED
330
21F4B
100
AcDbEntity
  8
2
 62
     0
440
 16777216
100
AcDbTrace
 10
31.15090070561688
 20
27.0474241130624
 30
0.0
 11
31.15084997727309
 21
25.52409078057372
 31
0.0
 12
26.58087534397894
 22
26.28590963184943
 32
0.0
 13
26.58087534397894
 23
26.28590963184943
 33
0.0
  0
SOLID
  5
220EE
330
21F4B
100
AcDbEntity
  8
2
 62
     0
440
 16777216
100
AcDbTrace
 10
18.04044449300224
 20
27.04786070281974
 30
0.0
 11
18.04039376465846
 21
25.52452737033106
 31
0.0
 12
22.61041912629641
 22
26.28604185154404
 32
0.0
 13
22.61041912629641
 23
26.28604185154404
 33
0.0
  0
MTEXT
  5
220EF
330
21F4B
100
AcDbEntity
  8
2
 62
     0
440
 16777216
100
AcDbMText
 10
8.745626517113349
 20
28.18799337268317
 30
0.0
 40
3.5
 41
0.0
 46
0.0
 71
     5
 72
     1
  1
\A1;3.97
 11
0.9999999994455256
 21
-0.0000333008821372
 31
0.0
 73
     1
 44
1.0
  0
POINT
  5
220F0
330
21F4B
100
AcDbEntity
  8
Defpoints
 62
     0
440
 16777216
100
AcDbPoint
 10
22.6099999999999
 20
13.69999999999999
 30
0.0
  0
POINT
  5
220F1
330
21F4B
100
AcDbEntity
  8
Defpoints
 62
     0
440
 16777216
100
AcDbPoint
 10
26.57999999999993
 20
0.0
 30
0.0
  0
POINT
  5
220F2
330
21F4B
100
AcDbEntity
  8
Defpoints
 62
     0
440
 16777216
100
AcDbPoint
 10
26.58087534397894
 20
26.28590963184943
 30
0.0
  0
ENDBLK
  5
21F4D
330
21F4B
100
AcDbEntity
  8
0
100
AcDbBlockEnd
  0
BLOCK
  5
21F5A
330
21F59
100
AcDbEntity
  8
0
100
AcDbBlockBegin
  2
*D16
 70
     1
 10
0.0
 20
0.0
 30
0.0
  3
*D16
  1

  0
LINE
  5
220F3
330
21F59
100
AcDbEntity
  8
2
 62
     0
440
 16777216
370
    -2
100
AcDbLine
 10
21.87250000000006
 20
-14.49999999999999
 30
0.0
 11
52.3245558761153
 21
-14.5
 31
0.0
  0
LINE
  5
220F4
330
21F59
100
AcDbEntity
  8
2
 62
     0
440
 16777216
370
    -2
100
AcDbLine
 10
21.87250000000006
 20
14.5
 30
0.0
 11
52.3245558761153
 21
14.49999999999999
 31
0.0
  0
LINE
  5
220F5
330
21F59
100
AcDbEntity
  8
2
 62
     0
440
 16777216
370
    -2
100
AcDbLine
 10
52.14455587611531
 20
-9.930000000000001
 30
0.0
 11
52.14455587611531
 21
9.92999999999999
 31
0.0
  0
SOLID
  5
220F6
330
21F59
100
AcDbEntity
  8
2
 62
     0
440
 16777216
100
AcDbTrace
 10
51.38288920944863
 20
-9.929999999999999
 30
0.0
 11
52.90622254278197
 21
-9.930000000000001
 31
0.0
 12
52.14455587611531
 22
-14.5
 32
0.0
 13
52.14455587611531
 23
-14.5
 33
0.0
  0
SOLID
  5
220F7
330
21F59
100
AcDbEntity
  8
2
 62
     0
440
 16777216
100
AcDbTrace
 10
51.38288920944863
 20
9.929999999999992
 30
0.0
 11
52.90622254278197
 21
9.92999999999999
 31
0.0
 12
52.14455587611531
 22
14.49999999999999
 32
0.0
 13
52.14455587611531
 23
14.49999999999999
 33
0.0
  0
MTEXT
  5
220F8
330
21F59
100
AcDbEntity
  8
2
 62
     0
440
 16777216
100
AcDbMText
 10
50.19141462523688
 20
-0.000091665545163
 30
0.0
 40
3.5
 41
0.0
 46
0.0
 71
     5
 72
     1
  1
\A1;%%c29
 11
0.0000000000000001
 21
1.0
 31
0.0
 73
     1
 44
1.0
  0
POINT
  5
220F9
330
21F59
100
AcDbEntity
  8
Defpoints
 62
     0
440
 16777216
100
AcDbPoint
 10
21.81000000000006
 20
-14.49999999999999
 30
0.0
  0
POINT
  5
220FA
330
21F59
100
AcDbEntity
  8
Defpoints
 62
     0
440
 16777216
100
AcDbPoint
 10
21.81000000000006
 20
14.5
 30
0.0
  0
POINT
  5
220FB
330
21F59
100
AcDbEntity
  8
Defpoints
 62
     0
440
 16777216
100
AcDbPoint
 10
52.14455587611531
 20
14.49999999999999
 30
0.0
  0
ENDBLK
  5
21F5B
330
21F59
100
AcDbEntity
  8
0
100
AcDbBlockEnd
  0
ENDSEC
  0
SECTION
  2
ENTITIES
  0
MTEXT
  5
211A0
330
1F
100
AcDbEntity
  8
SK6
100
AcDbMText
 10
-10.91991017787097
 20
-33.80244076833492
 30
0.0
 40
3.5
 41
41.87058589293636
 46
0.0
 71
     2
 72
     1
  1
CD2900027YGR00
 73
     1
 44
1.0
1001
ACAD
1000
MTEXTBEGIN
1070
    73
1070
     1
1070
    44
1040
1.0
1070
    74
1070
     0
1000
MTEXTEND
  0
INSERT
  5
21DF7
330
1F
100
AcDbEntity
  8
1
100
AcDbBlockReference
  2
cero_point
 10
-0.000000000003638
 20
0.0
 30
0.0
  0
LINE
  5
21DFB
330
1F
100
AcDbEntity
  8
INFTOTAL
100
AcDbLine
 10
-99.134829525241
 20
10.40248372928863
 30
0.0
 11
-99.134829525241
 21
53.9942061255274
 31
0.0
  0
LINE
  5
21DFC
330
1F
100
AcDbEntity
  8
INFTOTAL
100
AcDbLine
 10
-99.134829525241
 20
53.9942061255274
 30
0.0
 11
-42.73104315648197
 21
53.9942061255274
 31
0.0
  0
LINE
  5
21DFD
330
1F
100
AcDbEntity
  8
INFTOTAL
100
AcDbLine
 10
16.18134560445651
 20
-54.09905442797207
 30
0.0
 11
71.54012685554062
 21
-54.09905442797207
 31
0.0
  0
LINE
  5
21DFE
330
1F
100
AcDbEntity
  8
INFTOTAL
100
AcDbLine
 10
71.54012685554062
 20
-54.09905442797207
 30
0.0
 11
71.54012685554062
 21
-13.65093823137751
 31
0.0
  0
DIMENSION
  5
21DFF
330
1F
100
AcDbEntity
  8
2
100
AcDbDimension
280
     0
  2
*D13
 10
39.14435730802593
 20
-7.95039297598245
 30
0.0
 11
39.14455694519904
 21
0.0428757071736143
 31
0.0
 70
   160
 71
     5
 42
15.89999999504091
 73
     0
 74
     0
 75
     0
  3
STANDARD
100
AcDbAlignedDimension
 13
23.41000000000008
 23
7.949999999999988
 33
0.0
 14
23.41000000000008
 24
-7.950000000000002
 34
0.0
 50
269.9985690000044
100
AcDbRotatedDimension
1001
ACAD_DSTYLE_DIMARC_LENGTH_SYMBOL
1070
   379
1070
     1
1001
ACAD_DSTYLE_DIM_LINETYPE
1070
   380
1005
14
1001
ACAD_DSTYLE_DIM_EXT1_LINETYPE
1070
   381
1005
14
1001
ACAD_DSTYLE_DIM_EXT2_LINETYPE
1070
   382
1005
14
1001
ACAD
1000
DSTYLE
1002
{
1070
   172
1070
     1
1002
}
  0
DIMENSION
  5
21E00
330
1F
100
AcDbEntity
  8
2
100
AcDbDimension
280
     0
  2
*D14
 10
0.0003851133382236
 20
37.28657351179498
 30
0.0
 11
13.29011872198202
 21
37.2863522318687
 31
0.0
 70
   160
 71
     5
 42
26.58023572087216
 73
     0
 74
     0
 75
     0
  3
STANDARD
100
AcDbAlignedDimension
 13
26.57999999999993
 23
0.0
 33
0.0
 14
0.0
 24
14.15725599999996
 34
0.0
 50
179.9990459999997
100
AcDbRotatedDimension
1001
ACAD_DSTYLE_DIMARC_LENGTH_SYMBOL
1070
   379
1070
     1
1001
ACAD_DSTYLE_DIM_LINETYPE
1070
   380
1005
14
1001
ACAD_DSTYLE_DIM_EXT1_LINETYPE
1070
   381
1005
14
1001
ACAD_DSTYLE_DIM_EXT2_LINETYPE
1070
   382
1005
14
1001
ACAD
1000
DSTYLE
1002
{
1070
   172
1070
     1
1002
}
  0
DIMENSION
  5
21E01
330
1F
100
AcDbEntity
  8
2
100
AcDbDimension
280
     0
  2
*D15
 10
26.58087534397894
 20
26.28590963184943
 30
0.0
 11
8.745563195825292
 21
26.28650356347748
 31
0.0
 70
   160
 71
     5
 42
3.970456219884045
 73
     0
 74
     0
 75
     0
  3
STANDARD
100
AcDbAlignedDimension
 13
22.6099999999999
 23
13.69999999999999
 33
0.0
 14
26.57999999999993
 24
0.0
 34
0.0
 50
359.9980919999991
100
AcDbRotatedDimension
1001
ACAD_DSTYLE_DIMARC_LENGTH_SYMBOL
1070
   379
1070
     1
1001
ACAD_DSTYLE_DIM_LINETYPE
1070
   380
1005
14
1001
ACAD_DSTYLE_DIM_EXT1_LINETYPE
1070
   381
1005
14
1001
ACAD_DSTYLE_DIM_EXT2_LINETYPE
1070
   382
1005
14
1001
ACAD
1000
DSTYLE
1002
{
1070
   172
1070
     1
1002
}
  0
DIMENSION
  5
21E02
330
1F
100
AcDbEntity
  8
2
100
AcDbDimension
280
     0
  2
*D16
 10
52.14455587611531
 20
14.49999999999999
 30
0.0
 11
52.14455587611531
 21
-0.0000916655451633
 31
0.0
 70
   161
  1
%%c<>
 71
     5
 42
29.0
 73
     0
 74
     0
 75
     0
  3
STANDARD
100
AcDbAlignedDimension
 13
21.81000000000006
 23
-14.49999999999999
 33
0.0
 14
21.81000000000006
 24
14.5
 34
0.0
1001
ACAD_DSTYLE_DIMARC_LENGTH_SYMBOL
1070
   379
1070
     1
1001
ACAD_DSTYLE_DIM_LINETYPE
1070
   380
1005
14
1001
ACAD_DSTYLE_DIM_EXT1_LINETYPE
1070
   381
1005
14
1001
ACAD_DSTYLE_DIM_EXT2_LINETYPE
1070
   382
1005
14
1001
ACAD
1000
DSTYLE
1002
{
1070
   172
1070
     1
1002
}
  0
LINE
  5
21E03
330
1F
100
AcDbEntity
  8
SK4
100
AcDbLine
 10
-14.70100000000013
 20
0.0
 30
0.0
 11
0.0
 21
0.0
 31
0.0
  0
LINE
  5
21E06
330
1F
100
AcDbEntity
  8
1
100
AcDbLine
 10
17.85000000000002
 20
7.012713999999967
 30
0.0
 11
17.85000000000002
 21
6.480000000000018
 31
0.0
  0
LINE
  5
21E08
330
1F
100
AcDbEntity
  8
1
100
AcDbLine
 10
21.34800000000007
 20
7.949999999999988
 30
0.0
 11
22.6099999999999
 21
7.949999999999988
 31
0.0
  0
LINE
  5
21E0A
330
1F
100
AcDbEntity
  8
SK3
100
AcDbLine
 10
0.0
 20
7.25
 30
0.0
 11
21.61000000000001
 21
7.25
 31
0.0
  0
LINE
  5
21E0B
330
1F
100
AcDbEntity
  8
SK3
100
AcDbLine
 10
0.0
 20
4.350000000000022
 30
0.0
 11
21.61000000000001
 21
4.350000000000022
 31
0.0
  0
LINE
  5
21E0C
330
1F
100
AcDbEntity
  8
SK3
100
AcDbLine
 10
0.0
 20
-7.25
 30
0.0
 11
21.61000000000001
 21
-7.25
 31
0.0
  0
LINE
  5
21E0D
330
1F
100
AcDbEntity
  8
SK3
100
AcDbLine
 10
0.0
 20
-4.350000000000015
 30
0.0
 11
21.61000000000001
 21
-4.350000000000015
 31
0.0
  0
LINE
  5
21E0F
330
1F
100
AcDbEntity
  8
1
100
AcDbLine
 10
12.31500000000005
 20
3.178992999999998
 30
0.0
 11
12.31500000000005
 21
2.975397999999998
 31
0.0
  0
LINE
  5
21E10
330
1F
100
AcDbEntity
  8
1
100
AcDbLine
 10
12.31500000000005
 20
3.864255999999997
 30
0.0
 11
12.31500000000005
 21
3.178992999999998
 31
0.0
  0
ARC
  5
21E11
330
1F
100
AcDbEntity
  8
1
100
AcDbCircle
 10
-12.04765399999996
 20
-298.472877
 30
0.0
 40
302.634174
100
AcDbArc
 50
84.33042300000025
 51
85.38257800000142
  0
ARC
  5
21E13
330
1F
100
AcDbEntity
  8
1
100
AcDbCircle
 10
20.55843699999991
 20
0.9228319999999996
 30
0.0
 40
1.203006999999999
100
AcDbArc
 50
330.9398350000009
 51
340.8752999999998
  0
SPLINE
  5
21E14
330
1F
100
AcDbEntity
  8
1
100
AcDbSpline
210
0.0
220
0.0
230
1.0
 70
     8
 71
     5
 72
    15
 73
     9
 74
     0
 42
0.000000001
 43
0.0000000001
 40
0.0
 40
0.0
 40
0.0
 40
0.0
 40
0.0
 40
0.0
 40
1.4171375879281
 40
1.4171375879281
 40
1.4171375879281
 40
2.375111019178298
 40
2.375111019178298
 40
2.375111019178298
 40
2.375111019178298
 40
2.375111019178298
 40
2.375111019178298
 10
21.69504498141009
 20
0.5286976667043675
 30
0.0
 10
21.74186475991473
 20
0.6638047595882029
 30
0.0
 10
21.81434285233252
 20
0.7926641356818678
 30
0.0
 10
21.9063243263306
 20
0.9115843883071264
 30
0.0
 10
22.08530116753968
 20
1.088934057513398
 30
0.0
 10
22.2995327821036
 20
1.226439847652358
 30
0.0
 10
22.39141642797904
 20
1.275233842198744
 30
0.0
 10
22.48684876730215
 20
1.316500985345172
 30
0.0
 10
22.58565053793052
 20
1.350953835720396
 30
0.0
  0
ARC
  5
21E15
330
1F
100
AcDbEntity
  8
1
100
AcDbCircle
 10
19.89843200000007
 20
9.330956
 30
0.0
 40
8.419585000000001
100
AcDbArc
 50
288.6106480000009
 51
296.3567689999978
  0
ARC
  5
21E16
330
1F
100
AcDbEntity
  8
1
100
AcDbCircle
 10
-19.443352
 20
-382.3950369999998
 30
0.0
 40
386.589432
100
AcDbArc
 50
83.6019860000019
 51
85.08010100000179
  0
ARC
  5
21E17
330
1F
100
AcDbEntity
  8
1
100
AcDbCircle
 10
28.55438500000003
 20
3.537158000000005
 30
0.0
 40
4.053291999999999
100
AcDbArc
 50
189.3116420000008
 51
197.0910130000006
  0
ARC
  5
21E18
330
1F
100
AcDbEntity
  8
1
100
AcDbCircle
 10
-209.4911039999999
 20
-35.52519700000001
 30
0.0
 40
237.17624
100
AcDbArc
 50
9.319090000000581
 51
10.01947999999963
  0
LINE
  5
21E19
330
1F
100
AcDbEntity
  8
1
100
AcDbLine
 10
24.06817899999988
 20
5.739486999999996
 30
0.0
 11
23.41000000000008
 21
6.221727999999998
 31
0.0
  0
ARC
  5
21E1A
330
1F
100
AcDbEntity
  8
1
100
AcDbCircle
 10
-0.1272689999999557
 20
-134.745434
 30
0.0
 40
142.918652
100
AcDbArc
 50
80.5207760000021
 51
81.35787900000179
  0
ARC
  5
21E1B
330
1F
100
AcDbEntity
  8
1
100
AcDbCircle
 10
30.82091500000001
 20
-73.53820800000002
 30
0.0
 40
80.64717599999999
100
AcDbArc
 50
96.74561699999964
 51
99.25536800000172
  0
ARC
  5
21E1C
330
1F
100
AcDbEntity
  8
1
100
AcDbCircle
 10
10.759951
 20
27.101924
 30
0.0
 40
28.401236
100
AcDbArc
 50
296.9598179999993
 51
299.3486639999971
  0
LINE
  5
21E1D
330
1F
100
AcDbEntity
  8
1
100
AcDbLine
 10
21.34800000000007
 20
6.550536999999998
 30
0.0
 11
21.34800000000007
 21
7.950000000000002
 31
0.0
  0
LINE
  5
21E1E
330
1F
100
AcDbEntity
  8
1
100
AcDbLine
 10
17.85000000000002
 20
7.012713999999995
 30
0.0
 11
21.34800000000007
 21
7.950000000000002
 31
0.0
  0
LINE
  5
21E21
330
1F
100
AcDbEntity
  8
1
100
AcDbLine
 10
21.69504499999982
 20
0.5286979999999986
 30
0.0
 11
26.38622199999986
 21
-0.2299969999999973
 31
0.0
  0
ELLIPSE
  5
21E22
330
1F
100
AcDbEntity
  8
1
100
AcDbEllipse
 10
26.89590600000008
 20
-0.0281680000000009
 30
0.0
 11
7.932633399963377
 21
-1.260928034782407
 31
0.0
210
0.0
220
0.0
230
1.0
 40
0.6029150000000003
 41
4.082699722629635
 42
4.505940818676121
  0
LINE
  5
21E23
330
1F
100
AcDbEntity
  8
1
100
AcDbLine
 10
24.55456099999992
 20
-4.290003999999996
 30
0.0
 11
24.52574800000002
 21
-4.450840999999996
 31
0.0
  0
ARC
  5
21E24
330
1F
100
AcDbEntity
  8
1
100
AcDbCircle
 10
27.04186000000004
 20
-4.721845000000001
 30
0.0
 40
2.524303999999998
100
AcDbArc
 50
154.416860999999
 51
170.1505640000001
  0
LINE
  5
21E25
330
1F
100
AcDbEntity
  8
1
100
AcDbLine
 10
25.02726700000005
 20
-3.091957999999998
 30
0.0
 11
24.76522099999988
 21
-3.631886000000001
 31
0.0
  0
SPLINE
  5
21E26
330
1F
100
AcDbEntity
  8
1
100
AcDbSpline
210
0.0
220
0.0
230
1.0
 70
     8
 71
     5
 72
    24
 73
    18
 74
     0
 42
0.000000001
 43
0.0000000001
 40
0.0
 40
0.0
 40
0.0
 40
0.0
 40
0.0
 40
0.0
 40
26.83182176696283
 40
26.83182176696283
 40
26.83182176696283
 40
42.93671517398477
 40
42.93671517398477
 40
42.93671517398477
 40
49.2430403970849
 40
49.2430403970849
 40
49.2430403970849
 40
52.90747952779636
 40
52.90747952779636
 40
52.90747952779636
 40
53.71224280703346
 40
53.71224280703346
 40
53.71224280703346
 40
53.71224280703346
 40
53.71224280703346
 40
53.71224280703346
 10
26.38622158621251
 20
-0.2299973606335541
 30
0.0
 10
26.37225047586617
 20
-0.2666867822909751
 30
0.0
 10
26.35467002342136
 20
-0.3104560778433125
 30
0.0
 10
26.33306739607804
 20
-0.3615995965179763
 30
0.0
 10
26.2874791449533
 20
-0.466606699191857
 30
0.0
 10
26.18759066459904
 20
-0.682869291268176
 30
0.0
 10
26.14034264434895
 20
-0.7836390863615322
 30
0.0
 10
26.05581210142293
 20
-0.9629276410801779
 30
0.0
 10
25.86264135945987
 20
-1.365422946283871
 30
0.0
 10
25.79679716119097
 20
-1.502274941851297
 30
0.0
 10
25.6655669246536
 20
-1.774409347556627
 30
0.0
 10
25.46435000669976
 20
-2.190305912151551
 30
0.0
 10
25.37354387482969
 20
-2.377835956411296
 30
0.0
 10
25.25110842543052
 20
-2.630469318054309
 30
0.0
 10
25.10826074320971
 20
-2.92500021502137
 30
0.0
 10
25.08188424579453
 20
-2.979378322921476
 30
0.0
 10
25.05488870641955
 20
-3.035025839783635
 30
0.0
 10
25.02726704767065
 20
-3.09195785567936
 30
0.0
  0
SPLINE
  5
21E27
330
1F
100
AcDbEntity
  8
1
100
AcDbSpline
210
0.0
220
0.0
230
1.0
 70
     8
 71
     5
 72
    48
 73
    42
 74
     0
 42
0.000000001
 43
0.0000000001
 40
0.0
 40
0.0
 40
0.0
 40
0.0
 40
0.0
 40
0.0
 40
24.82274329670781
 40
24.82274329670781
 40
24.82274329670781
 40
61.8345401107211
 40
61.8345401107211
 40
61.8345401107211
 40
86.656960251139
 40
86.656960251139
 40
86.656960251139
 40
99.06825114897987
 40
99.06825114897987
 40
99.06825114897987
 40
111.4797286289512
 40
111.4797286289512
 40
111.4797286289512
 40
116.9963590697029
 40
116.9963590697029
 40
116.9963590697029
 40
120.535255881153
 40
120.535255881153
 40
120.535255881153
 40
121.4007877678305
 40
121.4007877678305
 40
121.4007877678305
 40
121.8337021801896
 40
121.8337021801896
 40
121.8337021801896
 40
122.313465573847
 40
122.313465573847
 40
122.313465573847
 40
122.7487974342694
 40
122.7487974342694
 40
122.7487974342694
 40
123.1928424885632
 40
123.1928424885632
 40
123.1928424885632
 40
124.0600590201409
 40
124.0600590201409
 40
124.0600590201409
 40
124.0600590201409
 40
124.0600590201409
 40
124.0600590201409
 10
26.38622158621251
 20
-0.2299973606335399
 30
0.0
 10
26.39914757226302
 20
-0.1960525315683412
 30
0.0
 10
26.40720791995352
 20
-0.1702759206537294
 30
0.0
 10
26.41337090582738
 20
-0.1480263863552409
 30
0.0
 10
26.42528832302321
 20
-0.0962668154241442
 30
0.0
 10
26.42963137542608
 20
-0.052911532575493
 30
0.0
 10
26.43032381115972
 20
-0.0276311705741321
 30
0.0
 10
26.42842283243408
 20
0.0139072351605876
 30
0.0
 10
26.42059331053975
 20
0.0594892778291794
 30
0.0
 10
26.41640633893633
 20
0.0787099292473599
 30
0.0
 10
26.40821220311807
 20
0.1101341775868363
 30
0.0
 10
26.39510274405097
 20
0.1489707690130757
 30
0.0
 10
26.38999016666253
 20
0.1631500709914633
 30
0.0
 10
26.37855062110054
 20
0.1928472147995421
 30
0.0
 10
26.36346121855093
 20
0.2280492876284939
 30
0.0
 10
26.35467002509768
 20
0.2477116131753689
 30
0.0
 10
26.33894049001299
 20
0.2814251238490968
 30
0.0
 10
26.31434752681048
 20
0.329315504964157
 30
0.0
 10
26.30572248813531
 20
0.3457010317984483
 30
0.0
 10
26.28952385694936
 20
0.3758264057543243
 30
0.0
 10
26.26636620516809
 20
0.4165712306408409
 30
0.0
 10
26.25676106141691
 20
0.4330465953004179
 30
0.0
 10
26.24223538012155
 20
0.457854770036505
 30
0.0
 10
26.21917159864949
 20
0.4951142636592181
 30
0.0
 10
26.21416313605903
 20
0.503122853074359
 30
0.0
 10
26.20597634193587
 20
0.5161187685552023
 30
0.0
 10
26.19590031694168
 20
0.5318243997756085
 30
0.0
 10
26.19226861299535
 20
0.5374495890070819
 30
0.0
 10
26.18391715148971
 20
0.5502983463224212
 30
0.0
 10
26.17328174636566
 20
0.5663851845919652
 30
0.0
 10
26.16924616171502
 20
0.5723420971610054
 30
0.0
 10
26.15762857134803
 20
0.5898924015110865
 30
0.0
 10
26.12841688880303
 20
0.6319732319711733
 30
0.0
 10
26.09568272576178
 20
0.6769216158283911
 30
0.0
 10
26.07417986898611
 20
0.7055159654284325
 30
0.0
 10
26.05973604248891
 20
0.7240655005807924
 30
0.0
 10
26.05364251685057
 20
0.7318155686668249
 30
0.0
 10
26.03660040724174
 20
0.753263852308379
 30
0.0
 10
26.02442754670506
 20
0.768105343577318
 30
0.0
 10
26.01653673960209
 20
0.7777292333615407
 30
0.0
 10
26.00727188315114
 20
0.7887362219966576
 30
0.0
 10
25.99849339670732
 20
0.7990012822032498
 30
0.0
  0
LINE
  5
21E28
330
1F
100
AcDbEntity
  8
1
100
AcDbLine
 10
25.99849300000006
 20
0.7990010000000041
 30
0.0
 11
22.58565099999998
 21
1.350953999999994
 31
0.0
  0
LINE
  5
21E29
330
1F
100
AcDbEntity
  8
1
100
AcDbLine
 10
24.76522099999988
 20
2.233835999999996
 30
0.0
 11
25.99849300000006
 21
0.7990010000000041
 31
0.0
  0
ARC
  5
21E2A
330
1F
100
AcDbEntity
  8
1
100
AcDbCircle
 10
25.62685800000009
 20
2.977284999999994
 30
0.0
 40
1.138031
100
AcDbArc
 50
213.6964679999982
 51
220.7887139999986
  0
LINE
  5
21E2B
330
1F
100
AcDbEntity
  8
1
100
AcDbLine
 10
24.55456099999992
 20
4.811591999999997
 30
0.0
 11
24.55456099999992
 21
2.881326999999998
 31
0.0
  0
LINE
  5
21E2C
330
1F
100
AcDbEntity
  8
1
100
AcDbLine
 10
24.76522099999988
 20
4.117869999999996
 30
0.0
 11
24.76522099999988
 21
2.233835999999996
 31
0.0
  0
LINE
  5
21E2D
330
1F
100
AcDbEntity
  8
1
100
AcDbLine
 10
24.06817899999988
 20
7.569999999999993
 30
0.0
 11
24.06817899999988
 21
5.739486999999996
 31
0.0
  0
LINE
  5
21E2E
330
1F
100
AcDbEntity
  8
1
100
AcDbLine
 10
23.41000000000008
 20
7.950000000000002
 30
0.0
 11
23.41000000000008
 21
6.221727999999998
 31
0.0
  0
LINE
  5
21E2F
330
1F
100
AcDbEntity
  8
1
100
AcDbLine
 10
24.76522099999988
 20
-3.631886000000001
 30
0.0
 11
24.76522099999988
 21
-4.117869999999996
 31
0.0
  0
LINE
  5
21E30
330
1F
100
AcDbEntity
  8
1
100
AcDbLine
 10
24.55456099999992
 20
-4.290003999999996
 30
0.0
 11
24.55456099999992
 21
-4.811591999999997
 31
0.0
  0
LINE
  5
21E31
330
1F
100
AcDbEntity
  8
1
100
AcDbLine
 10
24.52574800000002
 20
-4.967238000000001
 30
0.0
 11
24.52574800000002
 21
-4.450840999999996
 31
0.0
  0
LINE
  5
21E32
330
1F
100
AcDbEntity
  8
1
100
AcDbLine
 10
24.52574800000002
 20
-4.967238000000001
 30
0.0
 11
24.50293199999987
 21
-5.104300999999999
 31
0.0
  0
LINE
  5
21E33
330
1F
100
AcDbEntity
  8
1
100
AcDbLine
 10
24.50293199999987
 20
-5.104300999999999
 30
0.0
 11
24.41115300000002
 21
-5.624898000000001
 31
0.0
  0
LINE
  5
21E34
330
1F
100
AcDbEntity
  8
1
100
AcDbLine
 10
24.06817899999988
 20
-7.57
 30
0.0
 11
24.41115300000002
 21
-5.624898000000001
 31
0.0
  0
LINE
  5
21E35
330
1F
100
AcDbEntity
  8
1
100
AcDbLine
 10
24.06817899999988
 20
-7.57
 30
0.0
 11
23.41000000000008
 21
-7.950000000000002
 31
0.0
  0
LINE
  5
21E36
330
1F
100
AcDbEntity
  8
1
100
AcDbLine
 10
23.41000000000008
 20
-7.950000000000002
 30
0.0
 11
22.6099999999999
 21
-7.950000000000002
 31
0.0
  0
LINE
  5
21E37
330
1F
100
AcDbEntity
  8
1
100
AcDbLine
 10
21.60999099999992
 20
-5.624898000000001
 30
0.0
 11
24.41115300000002
 21
-5.624898000000001
 31
0.0
  0
LINE
  5
21E38
330
1F
100
AcDbEntity
  8
1
100
AcDbLine
 10
21.60999099999992
 20
-4.967238000000001
 30
0.0
 11
24.52574800000002
 21
-4.967238000000001
 31
0.0
  0
ARC
  5
21E3C
330
1F
100
AcDbEntity
  8
1
100
AcDbCircle
 10
27.52966500000002
 20
-5.336182999999998
 30
0.0
 40
3.021
100
AcDbArc
 50
156.2165160000006
 51
169.9999999999998
  0
LINE
  5
21E3D
330
1F
100
AcDbEntity
  8
1
100
AcDbLine
 10
24.55456099999992
 20
-4.811591999999997
 30
0.0
 11
24.50294100000008
 21
-5.104343
 31
0.0
  0
LINE
  5
21E3F
330
1F
100
AcDbEntity
  8
1
100
AcDbLine
 10
26.57999999999993
 20
0.0
 30
0.0
 11
24.76522099999988
 21
-4.117869999999996
 31
0.0
  0
LINE
  5
21E40
330
1F
100
AcDbEntity
  8
1
100
AcDbLine
 10
23.41000000000008
 20
-7.950000000000002
 30
0.0
 11
22.6099999999999
 21
-7.950000000000002
 31
0.0
  0
LINE
  5
21E41
330
1F
100
AcDbEntity
  8
1
100
AcDbLine
 10
24.06817899999988
 20
-7.57
 30
0.0
 11
23.41000000000008
 21
-7.950000000000002
 31
0.0
  0
LINE
  5
21E42
330
1F
100
AcDbEntity
  8
1
100
AcDbLine
 10
24.55456099999992
 20
-4.811591999999997
 30
0.0
 11
24.06817899999988
 21
-7.57
 31
0.0
  0
ARC
  5
21E43
330
1F
100
AcDbEntity
  8
1
100
AcDbCircle
 10
27.52966500000002
 20
-5.336182999999998
 30
0.0
 40
3.021
100
AcDbArc
 50
156.2165160000006
 51
169.9999999999998
  0
LINE
  5
21E44
330
1F
100
AcDbEntity
  8
1
100
AcDbLine
 10
26.57999999999993
 20
0.0
 30
0.0
 11
24.76522099999988
 21
-4.117869999999996
 31
0.0
  0
LINE
  5
21E45
330
1F
100
AcDbEntity
  8
1
100
AcDbLine
 10
18.13999999999987
 20
-9.141289000000014
 30
0.0
 11
18.13999999999987
 21
-11.83871599999999
 31
0.0
  0
ARC
  5
21E46
330
1F
100
AcDbEntity
  8
1
100
AcDbCircle
 10
9.396157000000016
 20
-460.977334
 30
0.0
 40
475.2273469999998
100
AcDbArc
 50
90.00165099999833
 51
91.13292099999755
  0
LINE
  5
21E47
330
1F
100
AcDbEntity
  8
1
100
AcDbLine
 10
14.59000000000003
 20
14.25
 30
0.0
 11
9.382460000000037
 21
14.25
 31
0.0
  0
LINE
  5
21E48
330
1F
100
AcDbEntity
  8
1
100
AcDbLine
 10
17.85000000000002
 20
6.479999999999996
 30
0.0
 11
14.59000000000003
 21
6.479999999999996
 31
0.0
  0
LINE
  5
21E49
330
1F
100
AcDbEntity
  8
1
100
AcDbLine
 10
14.59000000000003
 20
6.479999999999996
 30
0.0
 11
14.59000000000003
 21
4.901317999999996
 31
0.0
  0
LINE
  5
21E4A
330
1F
100
AcDbEntity
  8
1
100
AcDbLine
 10
13.33471600000007
 20
4.904761999999998
 30
0.0
 11
14.59000000000003
 21
4.901317999999996
 31
0.0
  0
ARC
  5
21E4B
330
1F
100
AcDbEntity
  8
1
100
AcDbCircle
 10
30.59614599999986
 20
113.744999
 30
0.0
 40
110.200519
100
AcDbArc
 50
260.9882759999993
 51
263.3581189999982
  0
LINE
  5
21E4C
330
1F
100
AcDbEntity
  8
1
100
AcDbLine
 10
8.615592999999876
 20
4.738730999999994
 30
0.0
 11
8.627459000000044
 21
4.830764000000002
 31
0.0
  0
SPLINE
  5
21E4D
330
1F
100
AcDbEntity
  8
1
100
AcDbSpline
210
0.0
220
0.0
230
1.0
 70
     8
 71
     5
 72
    15
 73
     9
 74
     0
 42
0.000000001
 43
0.0000000001
 40
0.0
 40
0.0
 40
0.0
 40
0.0
 40
0.0
 40
0.0
 40
5.216459286327826
 40
5.216459286327826
 40
5.216459286327826
 40
5.804843891945866
 40
5.804843891945866
 40
5.804843891945866
 40
5.804843891945866
 40
5.804843891945866
 40
5.804843891945866
 10
5.516190084849995
 20
4.192848798394926
 30
0.0
 10
6.054486255526967
 20
4.317892267698319
 30
0.0
 10
6.605039766789332
 20
4.429290763670479
 30
0.0
 10
7.159440319356917
 20
4.527312025834064
 30
0.0
 10
7.788050989009889
 20
4.625996385772545
 30
0.0
 10
8.422372662133625
 20
4.712989869847383
 30
0.0
 10
8.486725086513047
 20
4.721688560521286
 30
0.0
 10
8.551132264080024
 20
4.73026890040505
 30
0.0
 10
8.615593249100015
 20
4.738731438800158
 30
0.0
  0
LINE
  5
21E4E
330
1F
100
AcDbEntity
  8
1
100
AcDbLine
 10
12.31500000000005
 20
2.975525999999995
 30
0.0
 11
12.31500000000005
 21
3.864322999999998
 31
0.0
  0
ARC
  5
21E4F
330
1F
100
AcDbEntity
  8
1
100
AcDbCircle
 10
18.19787800000006
 20
-637.5666500000002
 30
0.0
 40
641.4582039999998
100
AcDbArc
 50
90.03107299999703
 51
90.52547299999847
  0
SPLINE
  5
21E50
330
1F
100
AcDbEntity
  8
1
100
AcDbSpline
210
0.0
220
0.0
230
1.0
 70
     8
 71
     5
 72
    12
 73
     6
 74
     0
 42
0.000000001
 43
0.0000000001
 40
0.0
 40
0.0
 40
0.0
 40
0.0
 40
0.0
 40
0.0
 40
8.320320815433817
 40
8.320320815433817
 40
8.320320815433817
 40
8.320320815433817
 40
8.320320815433817
 40
8.320320815433817
 10
8.627458735680079
 20
4.830765108480015
 30
0.0
 10
9.557957015182978
 20
4.870297601192888
 30
0.0
 10
10.49626914386999
 20
4.893422542546339
 30
0.0
 10
11.4401818843553
 20
4.904624258666196
 30
0.0
 10
12.38609897663139
 20
4.907469609106044
 30
0.0
 10
13.33471564540014
 20
4.904761904759993
 30
0.0
  0
LINE
  5
21E51
330
1F
100
AcDbEntity
  8
1
100
AcDbLine
 10
0.0
 20
14.157256
 30
0.0
 11
0.0
 21
5.589028999999996
 31
0.0
  0
ARC
  5
21E52
330
1F
100
AcDbEntity
  8
1
100
AcDbCircle
 10
9.387368999999921
 20
460.8105759999999
 30
0.0
 40
475.060583
100
AcDbArc
 50
268.8677409999968
 51
269.999408000003
  0
ARC
  5
21E53
330
1F
100
AcDbEntity
  8
SK1
100
AcDbCircle
 10
5.199736000000029
 20
1210.922947
 30
0.0
 40
1216.523096
100
AcDbArc
 50
269.2652639999994
 51
269.7551020000032
  0
SPLINE
  5
21E54
330
1F
100
AcDbEntity
  8
SK1
100
AcDbSpline
210
0.0
220
0.0
230
1.0
 70
     8
 71
     5
 72
    12
 73
     6
 74
     0
 42
0.000000001
 43
0.0000000001
 40
0.0
 40
0.0
 40
0.0
 40
0.0
 40
0.0
 40
0.0
 40
19.10700345056951
 40
19.10700345056951
 40
19.10700345056951
 40
19.10700345056951
 40
19.10700345056951
 40
19.10700345056951
 10
-11.37191346748989
 20
-4.62808652924798
 30
0.0
 10
-11.25454338139184
 20
-4.745450016685261
 30
0.0
 10
-11.11176835947037
 20
-4.879865187110482
 30
0.0
 10
-10.93362975038462
 20
-5.040156075782533
 30
0.0
 10
-10.71766327533066
 20
-5.227691809968924
 30
0.0
 10
-10.39999999999543
 20
-5.500133001935466
 30
0.0
  0
LINE
  5
21E55
330
1F
100
AcDbEntity
  8
SK1
100
AcDbLine
 10
-11.39999999999997
 20
-4.036879999999996
 30
0.0
 11
-11.39999999999997
 21
-4.600000000000001
 31
0.0
  0
LINE
  5
21E56
330
1F
100
AcDbEntity
  8
SK1
100
AcDbLine
 10
-11.39999999999997
 20
3.415587999999999
 30
0.0
 11
-11.39999999999997
 21
-4.036879999999996
 31
0.0
  0
LINE
  5
21E57
330
1F
100
AcDbEntity
  8
SK1
100
AcDbLine
 10
-11.39999999999997
 20
3.415587999999999
 30
0.0
 11
-11.39999999999997
 21
3.860081
 31
0.0
  0
LINE
  5
21E58
330
1F
100
AcDbEntity
  8
SK1
100
AcDbLine
 10
-11.39999999999997
 20
4.599999999999994
 30
0.0
 11
-11.39999999999997
 21
3.860081
 31
0.0
  0
LINE
  5
21E59
330
1F
100
AcDbEntity
  8
1
100
AcDbLine
 10
14.59000000000003
 20
6.904761999999998
 30
0.0
 11
14.59000000000003
 21
14.25
 31
0.0
  0
LINE
  5
21E5A
330
1F
100
AcDbEntity
  8
1
100
AcDbLine
 10
14.59000000000003
 20
6.479999999999996
 30
0.0
 11
14.59000000000003
 21
6.904761999999998
 31
0.0
  0
LINE
  5
21E5B
330
1F
100
AcDbEntity
  8
1
100
AcDbLine
 10
9.696995000000015
 20
14.153677
 30
0.0
 11
9.382460000000037
 21
14.25
 31
0.0
  0
ARC
  5
21E5C
330
1F
100
AcDbEntity
  8
SK1
100
AcDbCircle
 10
5.199736000000029
 20
-1210.922947
 30
0.0
 40
1216.523096
100
AcDbArc
 50
90.24489799999678
 51
90.73473600000061
  0
LINE
  5
21E5D
330
1F
100
AcDbEntity
  8
SK1
100
AcDbLine
 10
-11.39999999999997
 20
4.599803000000001
 30
0.0
 11
-11.37191299999995
 21
4.628087
 31
0.0
  0
SPLINE
  5
21E5E
330
1F
100
AcDbEntity
  8
SK1
100
AcDbSpline
210
0.0
220
0.0
230
1.0
 70
     8
 71
     5
 72
    12
 73
     6
 74
     0
 42
0.000000001
 43
0.0000000001
 40
0.0
 40
0.0
 40
0.0
 40
0.0
 40
0.0
 40
0.0
 40
19.10700344999829
 40
19.10700344999829
 40
19.10700344999829
 40
19.10700344999829
 40
19.10700344999829
 40
19.10700344999829
 10
-11.37191346749034
 20
4.628086529247518
 30
0.0
 10
-11.25454338139832
 20
4.745450016679015
 30
0.0
 10
-11.1117683594889
 20
4.879865187096797
 30
0.0
 10
-10.93362975040452
 20
5.04015607575571
 30
0.0
 10
-10.71766327531747
 20
5.227691809980854
 30
0.0
 10
-10.39999999999543
 20
5.500133001935473
 30
0.0
  0
LINE
  5
21E5F
330
1F
100
AcDbEntity
  8
1
100
AcDbLine
 10
8.963488999999981
 20
6.904761999999998
 30
0.0
 11
14.59000000000003
 21
6.904761999999998
 31
0.0
  0
LINE
  5
21E60
330
1F
100
AcDbEntity
  8
1
100
AcDbLine
 10
9.696994000000017
 20
14.15367599999999
 30
0.0
 11
8.963488999999981
 21
6.904761999999998
 31
0.0
  0
ELLIPSE
  5
21E61
330
1F
100
AcDbEntity
  8
1
100
AcDbEllipse
 10
8.544403999999872
 20
6.904761999999998
 30
0.0
 11
0.2996061742305757
 21
2.899683475494381
 31
0.0
210
0.0
220
0.0
230
1.0
 40
0.143017
 41
3.930295065318837
 42
4.727164917279936
  0
SPLINE
  5
21E62
330
1F
100
AcDbEntity
  8
SK1
100
AcDbSpline
210
0.0
220
0.0
230
1.0
 70
     8
 71
     5
 72
    12
 73
     6
 74
     0
 42
0.000000001
 43
0.0000000001
 40
0.0
 40
0.0
 40
0.0
 40
0.0
 40
0.0
 40
0.0
 40
22.47187396650923
 40
22.47187396650923
 40
22.47187396650923
 40
22.47187396650923
 40
22.47187396650923
 40
22.47187396650923
 10
-11.39999999999793
 20
3.415586975428517
 30
0.0
 10
-11.27637487520837
 20
3.369518597543645
 30
0.0
 10
-11.12433038935023
 20
3.326812640937838
 30
0.0
 10
-10.94163970725628
 20
3.28629166489128
 30
0.0
 10
-10.71182776669229
 20
3.250706413503273
 30
0.0
 10
-10.39999999999827
 20
3.226866060259197
 30
0.0
  0
ARC
  5
21E63
330
1F
100
AcDbEntity
  8
SK1
100
AcDbCircle
 10
-139.3906000000002
 20
-2309.662498
 30
0.0
 40
2316.483544
100
AcDbArc
 50
86.55023599999863
 51
86.80790200000148
  0
LINE
  5
21E64
330
1F
100
AcDbEntity
  8
1
100
AcDbLine
 10
14.59000000000003
 20
-14.24999999999999
 30
0.0
 11
9.382460000000037
 21
-14.24999999999999
 31
0.0
  0
LINE
  5
21E65
330
1F
100
AcDbEntity
  8
1
100
AcDbLine
 10
14.59000000000003
 20
-13.68581699999998
 30
0.0
 11
14.59000000000003
 21
-14.24999999999999
 31
0.0
  0
LINE
  5
21E66
330
1F
100
AcDbEntity
  8
1
100
AcDbLine
 10
21.61000000000001
 20
-13.68581699999998
 30
0.0
 11
14.59000000000003
 21
-13.68581699999998
 31
0.0
  0
LINE
  5
21E67
330
1F
100
AcDbEntity
  8
1
100
AcDbLine
 10
21.61000000000001
 20
-12.50555200000001
 30
0.0
 11
21.61000000000001
 21
-13.68581699999998
 31
0.0
  0
LINE
  5
21E68
330
1F
100
AcDbEntity
  8
1
100
AcDbLine
 10
0.0
 20
-12.50555200000001
 30
0.0
 11
0.0
 21
-14.157256
 31
0.0
  0
LINE
  5
21E69
330
1F
100
AcDbEntity
  8
1
100
AcDbLine
 10
0.0
 20
5.426912999999998
 30
0.0
 11
0.0
 21
-12.50555200000001
 31
0.0
  0
LINE
  5
21E6A
330
1F
100
AcDbEntity
  8
SK1
100
AcDbLine
 10
-10.39999999999998
 20
-4.914462
 30
0.0
 11
-10.39999999999998
 21
-5.500132999999998
 31
0.0
  0
LINE
  5
21E6B
330
1F
100
AcDbEntity
  8
SK1
100
AcDbLine
 10
-10.39999999999998
 20
3.226866000000001
 30
0.0
 11
-10.39999999999998
 21
-4.914462
 31
0.0
  0
SPLINE
  5
21E6C
330
1F
100
AcDbEntity
  8
1
100
AcDbSpline
210
0.0
220
0.0
230
1.0
 70
     8
 71
     5
 72
    12
 73
     6
 74
     0
 42
0.000000001
 43
0.0000000001
 40
0.0
 40
0.0
 40
0.0
 40
0.0
 40
0.0
 40
0.0
 40
38.00624157816001
 40
38.00624157816001
 40
38.00624157816001
 40
38.00624157816001
 40
38.00624157816001
 40
38.00624157816001
 10
21.61000000086949
 20
1.902612834416444
 30
0.0
 10
17.23308882935203
 20
2.239547209906284
 30
0.0
 10
12.8725837187535
 20
2.777186106754079
 30
0.0
 10
8.538586747985732
 20
3.504381358036255
 30
0.0
 10
4.244453883703386
 20
4.397884801830855
 30
0.0
 10
-0.0000000003969944
 20
5.426913397153839
 30
0.0
  0
LINE
  5
21E6D
330
1F
100
AcDbEntity
  8
1
100
AcDbLine
 10
21.61000000000001
 20
1.902612999999995
 30
0.0
 11
21.61000000000001
 21
-12.50555200000001
 31
0.0
  0
CIRCLE
  5
21E6E
330
1F
100
AcDbEntity
  8
1
100
AcDbCircle
 10
18.60000000000002
 20
-10.49
 30
0.0
 40
1.588
  0
LINE
  5
21E6F
330
1F
100
AcDbEntity
  8
SK1
100
AcDbLine
 10
-11.39999999999997
 20
-4.600000000000001
 30
0.0
 11
-11.37191299999995
 21
-4.628087
 31
0.0
  0
LINE
  5
21E70
330
1F
100
AcDbEntity
  8
SK1
100
AcDbLine
 10
-11.39999999999997
 20
4.599999999999994
 30
0.0
 11
-11.37191299999995
 21
4.628087
 31
0.0
  0
CIRCLE
  5
21E71
330
1F
100
AcDbEntity
  8
1
100
AcDbCircle
 10
18.60000000000002
 20
10.49000000000001
 30
0.0
 40
1.425
  0
CIRCLE
  5
21E72
330
1F
100
AcDbEntity
  8
1
100
AcDbCircle
 10
18.60001699999998
 20
10.489886
 30
0.0
 40
1.859874999999999
  0
CIRCLE
  5
21E7A
330
1F
100
AcDbEntity
  8
1
100
AcDbCircle
 10
18.60000000000002
 20
-10.49
 30
0.0
 40
1.425
  0
LINE
  5
21E7B
330
1F
100
AcDbEntity
  8
1
100
AcDbLine
 10
21.81000000000006
 20
-6.480000000000003
 30
0.0
 11
21.61000000000001
 21
-6.480000000000003
 31
0.0
  0
ARC
  5
21E7C
330
1F
100
AcDbEntity
  8
1
100
AcDbCircle
 10
21.81000000000006
 20
-7.280000000000001
 30
0.0
 40
0.8
100
AcDbArc
 50
0.0
 51
90.0
  0
LINE
  5
21E7D
330
1F
100
AcDbEntity
  8
1
100
AcDbLine
 10
22.6099999999999
 20
-13.69999999999998
 30
0.0
 11
22.6099999999999
 21
-7.280000000000001
 31
0.0
  0
ARC
  5
21E7E
330
1F
100
AcDbEntity
  8
1
100
AcDbCircle
 10
21.81000000000006
 20
-13.69999999999998
 30
0.0
 40
0.8
100
AcDbArc
 50
270.0
 51
0.0
  0
LINE
  5
21E7F
330
1F
100
AcDbEntity
  8
1
100
AcDbLine
 10
15.38999999999987
 20
-14.49999999999999
 30
0.0
 11
21.81000000000006
 21
-14.49999999999999
 31
0.0
  0
ARC
  5
21E80
330
1F
100
AcDbEntity
  8
1
100
AcDbCircle
 10
15.38999999999987
 20
-13.69999999999998
 30
0.0
 40
0.8
100
AcDbArc
 50
180.0
 51
270.0
  0
LINE
  5
21E81
330
1F
100
AcDbEntity
  8
1
100
AcDbLine
 10
14.59000000000003
 20
-13.68581999999998
 30
0.0
 11
14.59000000000003
 21
-13.69999999999998
 31
0.0
  0
ARC
  5
21E82
330
1F
100
AcDbEntity
  8
1
100
AcDbCircle
 10
15.38999999999987
 20
-13.69999999999998
 30
0.0
 40
0.242053
100
AcDbArc
 50
180.0
 51
270.0
  0
LINE
  5
21E83
330
1F
100
AcDbEntity
  8
1
100
AcDbLine
 10
15.38999999999987
 20
-13.94205300000001
 30
0.0
 11
21.81000000000006
 21
-13.94205300000001
 31
0.0
  0
ARC
  5
21E84
330
1F
100
AcDbEntity
  8
1
100
AcDbCircle
 10
21.81000000000006
 20
-13.69999999999998
 30
0.0
 40
0.242053
100
AcDbArc
 50
270.0000010000014
 51
359.9999989999998
  0
LINE
  5
21E85
330
1F
100
AcDbEntity
  8
1
100
AcDbLine
 10
22.052053
 20
-13.69999999999998
 30
0.0
 11
22.052053
 21
-7.280000000000001
 31
0.0
  0
ARC
  5
21E86
330
1F
100
AcDbEntity
  8
1
100
AcDbCircle
 10
21.81000000000006
 20
-7.280000000000001
 30
0.0
 40
0.242053
100
AcDbArc
 50
0.0
 51
90.0
  0
LINE
  5
21E87
330
1F
100
AcDbEntity
  8
1
100
AcDbLine
 10
21.81000000000006
 20
-7.037947000000002
 30
0.0
 11
21.60999400000003
 21
-7.037947000000002
 31
0.0
  0
LINE
  5
21E88
330
1F
100
AcDbEntity
  8
1
100
AcDbLine
 10
15.14794700000004
 20
-13.68581699999998
 30
0.0
 11
15.14794700000004
 21
-13.69999999999998
 31
0.0
  0
LINE
  5
21E89
330
1F
100
AcDbEntity
  8
1
100
AcDbLine
 10
21.81000000000006
 20
-7.037947000000002
 30
0.0
 11
21.81000000000006
 21
-6.480000000000003
 31
0.0
  0
LINE
  5
21E8A
330
1F
100
AcDbEntity
  8
1
100
AcDbLine
 10
22.052053
 20
-7.280000000000001
 30
0.0
 11
22.6099999999999
 21
-7.280000000000001
 31
0.0
  0
LINE
  5
21E8B
330
1F
100
AcDbEntity
  8
1
100
AcDbLine
 10
22.052053
 20
-13.69999999999998
 30
0.0
 11
22.6099999999999
 21
-13.69999999999998
 31
0.0
  0
LINE
  5
21E8C
330
1F
100
AcDbEntity
  8
1
100
AcDbLine
 10
21.81000000000006
 20
-13.94205300000001
 30
0.0
 11
21.81000000000006
 21
-14.49999999999999
 31
0.0
  0
LINE
  5
21E8D
330
1F
100
AcDbEntity
  8
1
100
AcDbLine
 10
15.38999999999987
 20
-13.94205300000001
 30
0.0
 11
15.38999999999987
 21
-14.49999999999999
 31
0.0
  0
LINE
  5
21E8E
330
1F
100
AcDbEntity
  8
1
100
AcDbLine
 10
15.14794700000004
 20
-13.69999999999998
 30
0.0
 11
14.59000000000003
 21
-13.69999999999998
 31
0.0
  0
LINE
  5
21E97
330
1F
100
AcDbEntity
  8
SKVIEW4
100
AcDbLine
 10
-45.88593568517467
 20
0.0
 30
0.0
 11
-82.9359356851744
 21
0.0
 31
0.0
  0
LINE
  5
21E98
330
1F
100
AcDbEntity
  8
SKVIEW4
100
AcDbLine
 10
-64.41093568517442
 20
18.525
 30
0.0
 11
-64.41093568517442
 21
-18.52499999999998
 31
0.0
  0
ARC
  5
21E99
330
1F
100
AcDbEntity
  8
SKVIEW1
100
AcDbCircle
 10
-64.41093568517442
 20
0.0
 30
0.0
 40
3.975
100
AcDbArc
 50
348.7865319999997
 51
359.4806459999998
  0
ARC
  5
21E9A
330
1F
100
AcDbEntity
  8
SKVIEW1
100
AcDbCircle
 10
-69.07216568517458
 20
2.912887999999995
 30
0.0
 40
2.271552
100
AcDbArc
 50
289.603182999998
 51
313.5883190000026
  0
ARC
  5
21E9B
330
1F
100
AcDbEntity
  8
SKVIEW1
100
AcDbCircle
 10
-59.74970568517438
 20
-2.912887999999995
 30
0.0
 40
2.271552
100
AcDbArc
 50
109.6031840000013
 51
133.5883190000023
  0
LINE
  5
21E9C
330
1F
100
AcDbEntity
  8
SKVIEW1
100
AcDbLine
 10
-59.44323968517437
 20
0.269479000000004
 30
0.0
 11
-59.48818068517437
 21
0.2655479999999954
 31
0.0
  0
ARC
  5
21E9D
330
1F
100
AcDbEntity
  8
SKVIEW1
100
AcDbCircle
 10
-59.29018968517448
 20
-1.997309000000001
 30
0.0
 40
2.271501999999999
100
AcDbArc
 50
95.00040699999688
 51
120.296308999998
  0
SPLINE
  5
21E9E
330
1F
100
AcDbEntity
  8
SKVIEW1
100
AcDbSpline
210
0.0
220
0.0
230
1.0
 70
     8
 71
     5
 72
    18
 73
    12
 74
     0
 42
0.000000001
 43
0.0000000001
 40
0.0
 40
0.0
 40
0.0
 40
0.0
 40
0.0
 40
0.0
 40
1.761348804907188
 40
1.761348804907188
 40
1.761348804907188
 40
3.434400054909529
 40
3.434400054909529
 40
3.434400054909529
 40
5.581690326614106
 40
5.581690326614106
 40
5.581690326614106
 40
5.581690326614106
 40
5.581690326614106
 40
5.581690326614106
 10
-61.20470032281708
 20
-0.5286976667043604
 30
0.0
 10
-61.14103976916704
 20
-0.3605066273897819
 30
0.0
 10
-61.06040916312145
 20
-0.2057803598715111
 30
0.0
 10
-60.96648890354152
 20
-0.0718666558418164
 30
0.0
 10
-60.76758148175736
 20
0.150498222606835
 30
0.0
 10
-60.5478648411189
 20
0.3036838012728111
 30
0.0
 10
-60.43794182873637
 20
0.3636574379016579
 30
0.0
 10
-60.18413770712141
 20
0.4702044760497444
 30
0.0
 10
-59.92843863270945
 20
0.5150527688202189
 30
0.0
 10
-59.78548505877473
 20
0.5237668782629186
 30
0.0
 10
-59.64474799070046
 20
0.5179512134123315
 30
0.0
 10
-59.50634686697458
 20
0.4990476138107809
 30
0.0
  0
ARC
  5
21E9F
330
1F
100
AcDbEntity
  8
SKVIEW1
100
AcDbCircle
 10
-59.35708568517452
 20
-1.231519999999996
 30
0.0
 40
1.976754
100
AcDbArc
 50
159.173467000001
 51
166.2460700000004
  0
SPLINE
  5
21EA0
330
1F
100
AcDbEntity
  8
SKVIEW1
100
AcDbSpline
210
0.0
220
0.0
230
1.0
 70
     8
 71
     5
 72
    12
 73
     6
 74
     0
 42
0.000000001
 43
0.0000000001
 40
0.0
 40
0.0
 40
0.0
 40
0.0
 40
0.0
 40
0.0
 40
1.692196574867744
 40
1.692196574867744
 40
1.692196574867744
 40
1.692196574867744
 40
1.692196574867744
 40
1.692196574867744
 10
-61.27713802867583
 20
-0.7615464003688928
 30
0.0
 10
-61.31417265795653
 20
-0.9139891855308732
 30
0.0
 10
-61.33142998380844
 20
-1.056105083167409
 30
0.0
 10
-61.33037578139294
 20
-1.181934637884246
 30
0.0
 10
-61.31811210976479
 20
-1.280013313724232
 30
0.0
 10
-61.30095898414913
 20
-1.350953835720389
 30
0.0
  0
ARC
  5
21EA1
330
1F
100
AcDbEntity
  8
SKVIEW1
100
AcDbCircle
 10
-59.73506468517439
 20
-0.9486810000000005
 30
0.0
 40
1.617085
100
AcDbArc
 50
194.4075350000003
 51
211.2261749999985
  0
ARC
  5
21EA2
330
1F
100
AcDbEntity
  8
SKVIEW1
100
AcDbCircle
 10
-64.41067768517439
 20
0.0000330000000019
 30
0.0
 40
4.929653
100
AcDbArc
 50
3.087490999999561
 51
5.80984499999966
  0
ARC
  5
21EA3
330
1F
100
AcDbEntity
  8
SKVIEW1
100
AcDbCircle
 10
-64.41093568517442
 20
0.0
 30
0.0
 40
3.975
100
AcDbArc
 50
168.7865319999997
 51
179.4806460000002
  0
SPLINE
  5
21EA4
330
1F
100
AcDbEntity
  8
SKVIEW1
100
AcDbSpline
210
0.0
220
0.0
230
1.0
 70
     8
 71
     5
 72
    18
 73
    12
 74
     0
 42
0.000000001
 43
0.0000000001
 40
0.0
 40
0.0
 40
0.0
 40
0.0
 40
0.0
 40
0.0
 40
1.761348805891755
 40
1.761348805891755
 40
1.761348805891755
 40
3.434400057702616
 40
3.434400057702616
 40
3.434400057702616
 40
5.581690332236826
 40
5.581690332236826
 40
5.581690332236826
 40
5.581690332236826
 40
5.581690332236826
 40
5.581690332236826
 10
-67.61717104753143
 20
0.5286976667043675
 30
0.0
 10
-67.68083160121773
 20
0.3605066272955781
 30
0.0
 10
-67.76146220731766
 20
0.2057803596990197
 30
0.0
 10
-67.85538246690521
 20
0.0718666557157093
 30
0.0
 10
-68.05428988874291
 20
-0.1504982227575269
 30
0.0
 10
-68.27400652959557
 20
-0.3036838015113545
 30
0.0
 10
-68.38392954180085
 20
-0.3636574379675679
 30
0.0
 10
-68.63773366312194
 20
-0.4702044759975053
 30
0.0
 10
-68.89343273742088
 20
-0.5150527687929767
 30
0.0
 10
-69.03638631120191
 20
-0.5237668782783658
 30
0.0
 10
-69.17712337946546
 20
-0.5179512134372715
 30
0.0
 10
-69.31552450337449
 20
-0.499047613810788
 30
0.0
  0
ARC
  5
21EA5
330
1F
100
AcDbEntity
  8
SKVIEW1
100
AcDbCircle
 10
-69.46478568517455
 20
1.231519999999996
 30
0.0
 40
1.976754
100
AcDbArc
 50
339.173467000001
 51
346.2460700000004
  0
SPLINE
  5
21EA6
330
1F
100
AcDbEntity
  8
SKVIEW1
100
AcDbSpline
210
0.0
220
0.0
230
1.0
 70
     8
 71
     5
 72
    12
 73
     6
 74
     0
 42
0.000000001
 43
0.0000000001
 40
0.0
 40
0.0
 40
0.0
 40
0.0
 40
0.0
 40
0.0
 40
1.692196549888907
 40
1.692196549888907
 40
1.692196549888907
 40
1.692196549888907
 40
1.692196549888907
 40
1.692196549888907
 10
-67.54473334167539
 20
0.7615464003598689
 30
0.0
 10
-67.50769871285195
 20
0.913989183637895
 30
0.0
 10
-67.49044138688748
 20
1.05610507997671
 30
0.0
 10
-67.49149558931822
 20
1.181934640778962
 30
0.0
 10
-67.50375926083723
 20
1.280013314771395
 30
0.0
 10
-67.52091238619971
 20
1.350953835720396
 30
0.0
  0
ARC
  5
21EA7
330
1F
100
AcDbEntity
  8
SKVIEW1
100
AcDbCircle
 10
-69.08680668517468
 20
0.9486810000000005
 30
0.0
 40
1.617085
100
AcDbArc
 50
14.40753500000031
 51
31.22617499999886
  0
ARC
  5
21EA8
330
1F
100
AcDbEntity
  8
SKVIEW1
100
AcDbCircle
 10
-69.53168168517436
 20
1.997308999999994
 30
0.0
 40
2.271501999999999
100
AcDbArc
 50
275.0004069999969
 51
300.2963089999981
  0
ARC
  5
21EA9
330
1F
100
AcDbEntity
  8
SKVIEW1
100
AcDbCircle
 10
-64.41119368517457
 20
-0.0000330000000019
 30
0.0
 40
4.929653
100
AcDbArc
 50
183.0874909999991
 51
185.8098440000001
  0
LINE
  5
21EAA
330
1F
100
AcDbEntity
  8
SKVIEW1
100
AcDbLine
 10
-68.05414368517438
 20
2.345917
 30
0.0
 11
-68.26442368517439
 21
2.881326999999998
 31
0.0
  0
ARC
  5
21EAB
330
1F
100
AcDbEntity
  8
SKVIEW1
100
AcDbCircle
 10
12.38669331482526
 20
35.05991399999999
 30
0.0
 40
86.833524
100
AcDbArc
 50
199.7345299999988
 51
201.7512590000021
  0
ARC
  5
21EAC
330
1F
100
AcDbEntity
  8
SKVIEW1
100
AcDbCircle
 10
-57.59227268517441
 20
6.299818999999992
 30
0.0
 40
11.767921
100
AcDbArc
 50
180.3802100000001
 51
182.7291829999994
  0
ARC
  5
21EAD
330
1F
100
AcDbEntity
  8
SKVIEW1
100
AcDbCircle
 10
-78.64669068517457
 20
-4.688490000000001
 30
0.0
 40
12.715501
100
AcDbArc
 50
30.61554199999951
 51
33.5877509999997
  0
LINE
  5
21EAE
330
1F
100
AcDbEntity
  8
SKVIEW1
100
AcDbLine
 10
-60.76772768517435
 20
-2.345917999999997
 30
0.0
 11
-60.55744768517456
 21
-2.881326999999998
 31
0.0
  0
ARC
  5
21EAF
330
1F
100
AcDbEntity
  8
SKVIEW1
100
AcDbCircle
 10
-141.2371606851743
 20
-35.07036100000001
 30
0.0
 40
86.863963
100
AcDbArc
 50
19.73464700000092
 51
21.75066900000111
  0
ARC
  5
21EB0
330
1F
100
AcDbEntity
  8
SKVIEW1
100
AcDbCircle
 10
-71.22894068517439
 20
-6.299801000000002
 30
0.0
 40
11.767262
100
AcDbArc
 50
0.380143999999962
 51
2.729248000000027
  0
ARC
  5
21EB1
330
1F
100
AcDbEntity
  8
SKVIEW1
100
AcDbCircle
 10
-50.17518068517438
 20
4.688490000000001
 30
0.0
 40
12.715501
100
AcDbArc
 50
210.6155419999995
 51
213.5877509999994
  0
ARC
  5
21EB2
330
1F
100
AcDbEntity
  8
SKVIEW1
100
AcDbCircle
 10
-64.41093568517442
 20
0.0
 30
0.0
 40
4.974999999999996
100
AcDbArc
 50
3.105044000000294
 51
63.46239100000273
  0
LINE
  5
21EB3
330
1F
100
AcDbEntity
  8
SKVIEW1
100
AcDbLine
 10
-59.50634668517455
 20
0.499048000000002
 30
0.0
 11
-59.46038568517451
 21
0.4926510000000022
 31
0.0
  0
LINE
  5
21EB4
330
1F
100
AcDbEntity
  8
SKVIEW1
100
AcDbLine
 10
-64.41093568517442
 20
7.569999999999993
 30
0.0
 11
-64.41093568517442
 21
7.950000000000002
 31
0.0
  0
LINE
  5
21EB5
330
1F
100
AcDbEntity
  8
SKVIEW1
100
AcDbLine
 10
-64.41093568517442
 20
5.624898000000001
 30
0.0
 11
-64.41093568517442
 21
7.569999999999993
 31
0.0
  0
ARC
  5
21EB6
330
1F
100
AcDbEntity
  8
SKVIEW1
100
AcDbCircle
 10
-64.11093568517458
 20
5.364117
 30
0.0
 40
0.3975
100
AcDbArc
 50
139.0006459999977
 51
266.7989429999983
  0
ARC
  5
21EB7
330
1F
100
AcDbEntity
  8
SKVIEW1
100
AcDbCircle
 10
-64.41093568517442
 20
0.0
 30
0.0
 40
4.974999999999996
100
AcDbArc
 50
63.46240199999958
 51
86.79894299999828
  0
LINE
  5
21EB8
330
1F
100
AcDbEntity
  8
SKVIEW1
100
AcDbLine
 10
-64.03618868517458
 20
0.2299969999999973
 30
0.0
 11
-61.20470068517454
 21
-0.5286980000000057
 31
0.0
  0
LINE
  5
21EB9
330
1F
100
AcDbEntity
  8
SKVIEW1
100
AcDbLine
 10
-62.23210868517458
 20
4.290003999999996
 30
0.0
 11
-62.18818068517453
 21
4.450840999999996
 31
0.0
  0
ARC
  5
21EBA
330
1F
100
AcDbEntity
  8
SKVIEW1
100
AcDbCircle
 10
-66.25301468517466
 20
5.370632
 30
0.0
 40
4.163415
100
AcDbArc
 50
335.3141330000005
 51
344.9570649999994
  0
LINE
  5
21EBB
330
1F
100
AcDbEntity
  8
SKVIEW1
100
AcDbLine
 10
-62.72179168517448
 20
3.091957999999998
 30
0.0
 11
-62.4702516851745
 21
3.631885999999994
 31
0.0
  0
SPLINE
  5
21EBC
330
1F
100
AcDbEntity
  8
SKVIEW1
100
AcDbSpline
210
0.0
220
0.0
230
1.0
 70
     8
 71
     5
 72
    24
 73
    18
 74
     0
 42
0.000000001
 43
0.0000000001
 40
0.0
 40
0.0
 40
0.0
 40
0.0
 40
0.0
 40
0.0
 40
26.83650213964688
 40
26.83650213964688
 40
26.83650213964688
 40
42.94133471145102
 40
42.94133471145102
 40
42.94133471145102
 40
49.25962735808769
 40
49.25962735808769
 40
49.25962735808769
 40
52.93378077621242
 40
52.93378077621242
 40
52.93378077621242
 40
53.71475226065022
 40
53.71475226065022
 40
53.71475226065022
 40
53.71475226065022
 40
53.71475226065022
 40
53.71475226065022
 10
-64.03618871229776
 20
0.2299973606335541
 30
0.0
 10
-64.02150797468775
 20
0.2666931692539265
 30
0.0
 10
-64.00341844521609
 20
0.3104713174622731
 30
0.0
 10
-63.98163058236537
 20
0.3615767833197196
 30
0.0
 10
-63.93600760852734
 20
0.4665827138020973
 30
0.0
 10
-63.83856298237424
 20
0.6828691248770014
 30
0.0
 10
-63.79261645761369
 20
0.7836424299742078
 30
0.0
 10
-63.71061984891366
 20
0.96301239381323
 30
0.0
 10
-63.52431753083966
 20
1.365871984637138
 30
0.0
 10
-63.46081844448486
 20
1.502927342929687
 30
0.0
 10
-63.33421531657541
 20
1.775849579416522
 30
0.0
 10
-63.13991431342561
 20
2.193756817524977
 30
0.0
 10
-63.05220852969523
 20
2.382308232147011
 30
0.0
 10
-62.93452943550994
 20
2.635126421493318
 30
0.0
 10
-62.79738272470502
 20
2.92965158564349
 30
0.0
 10
-62.77274977377238
 20
2.982547676542836
 30
0.0
 10
-62.74755449600718
 20
3.036645095157588
 30
0.0
 10
-62.72179141012464
 20
3.091957855679993
 30
0.0
  0
LINE
  5
21EBD
330
1F
100
AcDbEntity
  8
SKVIEW1
100
AcDbLine
 10
-63.36087368517451
 20
-0.7990010000000041
 30
0.0
 11
-61.30095868517435
 21
-1.350954000000001
 31
0.0
  0
SPLINE
  5
21EBE
330
1F
100
AcDbEntity
  8
SKVIEW1
100
AcDbSpline
210
0.0
220
0.0
230
1.0
 70
     8
 71
     5
 72
    51
 73
    45
 74
     0
 42
0.000000001
 43
0.0000000001
 40
0.0
 40
0.0
 40
0.0
 40
0.0
 40
0.0
 40
0.0
 40
24.82274897025788
 40
24.82274897025788
 40
24.82274897025788
 40
61.84786161775314
 40
61.84786161775314
 40
61.84786161775314
 40
86.67028941797026
 40
86.67028941797026
 40
86.67028941797026
 40
99.08159485392332
 40
99.08159485392332
 40
99.08159485392332
 40
111.4931251094939
 40
111.4931251094939
 40
111.4931251094939
 40
117.0098914481609
 40
117.0098914481609
 40
117.0098914481609
 40
120.2084304040137
 40
120.2084304040137
 40
120.2084304040137
 40
121.1531858798881
 40
121.1531858798881
 40
121.1531858798881
 40
121.6256823505389
 40
121.6256823505389
 40
121.6256823505389
 40
122.1107152376486
 40
122.1107152376486
 40
122.1107152376486
 40
122.3501274796708
 40
122.3501274796708
 40
122.3501274796708
 40
122.589539721693
 40
122.589539721693
 40
122.589539721693
 40
122.8392058697213
 40
122.8392058697213
 40
122.8392058697213
 40
123.996241958952
 40
123.996241958952
 40
123.996241958952
 40
123.996241958952
 40
123.996241958952
 40
123.996241958952
 10
-64.03618871229776
 20
0.2299973606335541
 30
0.0
 10
-64.04976887543057
 20
0.1960525357501837
 30
0.0
 10
-64.05699733547192
 20
0.1702758948281655
 30
0.0
 10
-64.06230490096186
 20
0.1480263583007968
 30
0.0
 10
-64.07147972443147
 20
0.0962556309768417
 30
0.0
 10
-64.07246670595305
 20
0.0528928213531472
 30
0.0
 10
-64.07107252507183
 20
0.0276490252478965
 30
0.0
 10
-64.06554568140757
 20
-0.0138974585861149
 30
0.0
 10
-64.05350130070246
 20
-0.0594893138261341
 30
0.0
 10
-64.0474925982669
 20
-0.0787099670639222
 30
0.0
 10
-64.03621505505089
 20
-0.1101342279850144
 30
0.0
 10
-64.01852585340998
 20
-0.1489707999987928
 30
0.0
 10
-64.01164250188049
 20
-0.1631500996237705
 30
0.0
 10
-63.99614777995191
 20
-0.19284726664484
 30
0.0
 10
-63.97550578389462
 20
-0.2280492988441765
 30
0.0
 10
-63.96340406152887
 20
-0.2477116007470883
 30
0.0
 10
-63.94159497608882
 20
-0.2814254304277668
 30
0.0
 10
-63.90599399226608
 20
-0.3293150005683572
 30
0.0
 10
-63.89335675351162
 20
-0.345700363456622
 30
0.0
 10
-63.87028457296548
 20
-0.3746929360964089
 30
0.0
 10
-63.83656150942454
 20
-0.4135178128886352
 30
0.0
 10
-63.822852202332
 20
-0.4287832254485267
 30
0.0
 10
-63.80166136192895
 20
-0.4519385988879634
 30
0.0
 10
-63.77016751133727
 20
-0.4838612010754915
 30
0.0
 10
-63.7623292750003
 20
-0.4916947386183424
 30
0.0
 10
-63.74920257869928
 20
-0.5045829736271657
 30
0.0
 10
-63.73322634228157
 20
-0.5198251298545884
 30
0.0
 10
-63.72752445717924
 20
-0.5252156211820278
 30
0.0
 10
-63.71499090865768
 20
-0.5369362281059864
 30
0.0
 10
-63.69950331696088
 20
-0.5510377316526416
 30
0.0
 10
-63.69154658067498
 20
-0.5581557672302111
 30
0.0
 10
-63.67736471673288
 20
-0.5708161221002542
 30
0.0
 10
-63.65500177876367
 20
-0.5899112644617404
 30
0.0
 10
-63.64426765249641
 20
-0.5986010058364926
 30
0.0
 10
-63.63084191280188
 20
-0.6106061320955334
 30
0.0
 10
-63.58084826551953
 20
-0.6504064705966499
 30
0.0
 10
-63.55657277948648
 20
-0.6683861349605707
 30
0.0
 10
-63.53077484681398
 20
-0.6873825644139729
 30
0.0
 10
-63.5115733517373
 20
-0.7010492009691305
 30
0.0
 10
-63.50439426111245
 20
-0.7061295551143943
 30
0.0
 10
-63.45644740433352
 20
-0.7395284799090902
 30
0.0
 10
-63.42760837634933
 20
-0.7577185517129763
 30
0.0
 10
-63.40810804972671
 20
-0.7704043066077518
 30
0.0
 10
-63.38376414118591
 20
-0.7853553671808911
 30
0.0
 10
-63.36087395726554
 20
-0.7990012822032498
 30
0.0
  0
LINE
  5
21EBF
330
1F
100
AcDbEntity
  8
SKVIEW1
100
AcDbLine
 10
-60.95162568517458
 20
-2.233835999999996
 30
0.0
 11
-63.36087368517451
 21
-0.7990010000000041
 31
0.0
  0
LINE
  5
21EC0
330
1F
100
AcDbEntity
  8
SKVIEW1
100
AcDbLine
 10
-60.76772768517435
 20
-2.345917
 30
0.0
 11
-60.95162568517458
 21
-2.233835999999996
 31
0.0
  0
LINE
  5
21EC1
330
1F
100
AcDbEntity
  8
SKVIEW1
100
AcDbLine
 10
-69.37863168517435
 20
-0.269479000000004
 30
0.0
 11
-69.33369068517447
 21
-0.2655479999999954
 31
0.0
  0
LINE
  5
21EC2
330
1F
100
AcDbEntity
  8
SKVIEW1
100
AcDbLine
 10
-67.61717068517453
 20
0.5286979999999986
 30
0.0
 11
-64.78568268517438
 21
-0.2299969999999973
 31
0.0
  0
LINE
  5
21EC3
330
1F
100
AcDbEntity
  8
SKVIEW1
100
AcDbLine
 10
-69.31552468517441
 20
-0.499048000000002
 30
0.0
 11
-69.36148568517467
 21
-0.4926510000000022
 31
0.0
  0
ARC
  5
21EC4
330
1F
100
AcDbEntity
  8
SKVIEW1
100
AcDbCircle
 10
-64.41093568517442
 20
0.0
 30
0.0
 40
4.974999999999996
100
AcDbArc
 50
183.1050439999998
 51
266.7989320000032
  0
LINE
  5
21EC5
330
1F
100
AcDbEntity
  8
SKVIEW1
100
AcDbLine
 10
-66.58976268517438
 20
-4.290003999999996
 30
0.0
 11
-66.63369068517454
 21
-4.450840999999996
 31
0.0
  0
ARC
  5
21EC6
330
1F
100
AcDbEntity
  8
SKVIEW1
100
AcDbCircle
 10
-62.56885668517452
 20
-5.370632
 30
0.0
 40
4.163415
100
AcDbArc
 50
155.3141330000005
 51
164.9570649999994
  0
LINE
  5
21EC7
330
1F
100
AcDbEntity
  8
SKVIEW1
100
AcDbLine
 10
-66.10007968517436
 20
-3.091957999999998
 30
0.0
 11
-66.35161968517457
 21
-3.631886000000001
 31
0.0
  0
SPLINE
  5
21EC8
330
1F
100
AcDbEntity
  8
SKVIEW1
100
AcDbSpline
210
0.0
220
0.0
230
1.0
 70
     8
 71
     5
 72
    24
 73
    18
 74
     0
 42
0.000000001
 43
0.0000000001
 40
0.0
 40
0.0
 40
0.0
 40
0.0
 40
0.0
 40
0.0
 40
26.83650214237109
 40
26.83650214237109
 40
26.83650214237109
 40
42.94133471491831
 40
42.94133471491831
 40
42.94133471491831
 40
49.25962736194539
 40
49.25962736194539
 40
49.25962736194539
 40
52.93378077984293
 40
52.93378077984293
 40
52.93378077984293
 40
53.71475226459168
 40
53.71475226459168
 40
53.71475226459168
 40
53.71475226459168
 40
53.71475226459168
 40
53.71475226459168
 10
-64.78568265805131
 20
-0.2299973606335541
 30
0.0
 10
-64.80036339566345
 20
-0.2666931692581755
 30
0.0
 10
-64.81845292513231
 20
-0.3104713174703306
 30
0.0
 10
-64.84024078798473
 20
-0.3615767833278412
 30
0.0
 10
-64.88586376182252
 20
-0.4665827137949563
 30
0.0
 10
-64.98330838796812
 20
-0.682869124862954
 30
0.0
 10
-65.02925491272947
 20
-0.7836424299649991
 30
0.0
 10
-65.11125152141869
 20
-0.9630123937785981
 30
0.0
 10
-65.297553839501
 20
-1.365871984620653
 30
0.0
 10
-65.36105292585296
 20
-1.502927342900989
 30
0.0
 10
-65.48765605373944
 20
-1.775849579353909
 30
0.0
 10
-65.68195705690107
 20
-2.193756817477513
 30
0.0
 10
-65.76966284061882
 20
-2.382308232072311
 30
0.0
 10
-65.8873419348198
 20
-2.635126421448319
 30
0.0
 10
-66.02448864562131
 20
-2.929651585591749
 30
0.0
 10
-66.04912159656203
 20
-2.982547676508971
 30
0.0
 10
-66.07431687433427
 20
-3.036645095140606
 30
0.0
 10
-66.10007996022398
 20
-3.09195785567936
 30
0.0
  0
SPLINE
  5
21EC9
330
1F
100
AcDbEntity
  8
SKVIEW1
100
AcDbSpline
210
0.0
220
0.0
230
1.0
 70
     8
 71
     5
 72
    51
 73
    45
 74
     0
 42
0.000000001
 43
0.0000000001
 40
0.0
 40
0.0
 40
0.0
 40
0.0
 40
0.0
 40
0.0
 40
24.82274896500861
 40
24.82274896500861
 40
24.82274896500861
 40
61.84786160361896
 40
61.84786160361896
 40
61.84786160361896
 40
86.67028939858679
 40
86.67028939858679
 40
86.67028939858679
 40
99.081594831915
 40
99.081594831915
 40
99.081594831915
 40
111.4931250848582
 40
111.4931250848582
 40
111.4931250848582
 40
117.0098914223522
 40
117.0098914223522
 40
117.0098914223522
 40
120.2084303944825
 40
120.2084303944825
 40
120.2084303944825
 40
121.1531858659427
 40
121.1531858659427
 40
121.1531858659427
 40
121.6256823343602
 40
121.6256823343602
 40
121.6256823343602
 40
122.1107152563852
 40
122.1107152563852
 40
122.1107152563852
 40
122.350127498001
 40
122.350127498001
 40
122.350127498001
 40
122.5895397396168
 40
122.5895397396168
 40
122.5895397396168
 40
122.8392058882412
 40
122.8392058882412
 40
122.8392058882412
 40
123.9962419953201
 40
123.9962419953201
 40
123.9962419953201
 40
123.9962419953201
 40
123.9962419953201
 40
123.9962419953201
 10
-64.78568265805131
 20
-0.2299973606335399
 30
0.0
 10
-64.7721024949218
 20
-0.1960525357576301
 30
0.0
 10
-64.76487403487851
 20
-0.1702758948387952
 30
0.0
 10
-64.75956646939266
 20
-0.1480263583230865
 30
0.0
 10
-64.75039164592033
 20
-0.0962556310111254
 30
0.0
 10
-64.74940466439591
 20
-0.0528928213873172
 30
0.0
 10
-64.75079884527554
 20
-0.0276490252875021
 30
0.0
 10
-64.75632568893138
 20
0.013897458536519
 30
0.0
 10
-64.7683700696275
 20
0.0594893137597268
 30
0.0
 10
-64.77437877205727
 20
0.0787099669858193
 30
0.0
 10
-64.78565631526044
 20
0.1101342278885866
 30
0.0
 10
-64.80334551687895
 20
0.1489707998719041
 30
0.0
 10
-64.81022886840489
 20
0.1631500994944801
 30
0.0
 10
-64.82572359029337
 20
0.1928472664664724
 30
0.0
 10
-64.84636558626005
 20
0.2280492985368951
 30
0.0
 10
-64.85846730857236
 20
0.2477116003559345
 30
0.0
 10
-64.880276393917
 20
0.2814254299189684
 30
0.0
 10
-64.91587737755629
 20
0.3293149998742848
 30
0.0
 10
-64.92851461624036
 20
0.3457003626918293
 30
0.0
 10
-64.9515867966852
 20
0.3746929352465145
 30
0.0
 10
-64.98530986000424
 20
0.4135178118501841
 30
0.0
 10
-64.99901916706233
 20
0.428783224402288
 30
0.0
 10
-65.02021000735635
 20
0.4519385977555786
 30
0.0
 10
-65.05170385764813
 20
0.4838611997052454
 30
0.0
 10
-65.05954209382219
 20
0.4916947371066769
 30
0.0
 10
-65.07266878985683
 20
0.5045829718836075
 30
0.0
 10
-65.08864502585812
 20
0.5198251277589492
 30
0.0
 10
-65.09434691079661
 20
0.5252156189486215
 30
0.0
 10
-65.10688045938946
 20
0.5369362259832613
 30
0.0
 10
-65.12236805112002
 20
0.5510377296144853
 30
0.0
 10
-65.13032478484831
 20
0.5581557628578722
 30
0.0
 10
-65.1445066477371
 20
0.5708161169761681
 30
0.0
 10
-65.1668695846464
 20
0.5899112585734372
 30
0.0
 10
-65.17760370934502
 20
0.598600999527001
 30
0.0
 10
-65.19102945095506
 20
0.6106061253393733
 30
0.0
 10
-65.24102307076748
 20
0.6504064448711376
 30
0.0
 10
-65.26529857784805
 20
0.6683861252627992
 30
0.0
 10
-65.29109651437375
 20
0.6873825578295012
 30
0.0
 10
-65.3102980102276
 20
0.7010491950116205
 30
0.0
 10
-65.31747710120817
 20
0.7061295494792717
 30
0.0
 10
-65.36542396118591
 20
0.7395284768058375
 30
0.0
 10
-65.39426299150353
 20
0.7577185501322746
 30
0.0
 10
-65.41376331987135
 20
0.7704043061466735
 30
0.0
 10
-65.43810722880994
 20
0.7853553669703999
 30
0.0
 10
-65.46099741308342
 20
0.7990012822032498
 30
0.0
  0
LINE
  5
21ECA
330
1F
100
AcDbEntity
  8
SKVIEW1
100
AcDbLine
 10
-65.46099768517456
 20
0.7990010000000041
 30
0.0
 11
-67.52091268517438
 21
1.350953999999994
 31
0.0
  0
LINE
  5
21ECB
330
1F
100
AcDbEntity
  8
SKVIEW1
100
AcDbLine
 10
-67.87024568517438
 20
2.233835999999996
 30
0.0
 11
-65.46099768517456
 21
0.7990010000000041
 31
0.0
  0
LINE
  5
21ECC
330
1F
100
AcDbEntity
  8
SKVIEW1
100
AcDbLine
 10
-68.05414368517438
 20
2.345917
 30
0.0
 11
-67.87024568517438
 21
2.233835999999996
 31
0.0
  0
ARC
  5
21ECD
330
1F
100
AcDbEntity
  8
SKVIEW1
100
AcDbCircle
 10
-64.41093568517442
 20
0.0
 30
0.0
 40
4.811592
100
AcDbArc
 50
63.07468799999851
 51
143.2138329999981
  0
ARC
  5
21ECE
330
1F
100
AcDbEntity
  8
SKVIEW1
100
AcDbCircle
 10
-64.41093568517442
 20
0.0
 30
0.0
 40
4.117869999999999
100
AcDbArc
 50
61.88236099999858
 51
147.1478109999982
  0
ARC
  5
21ECF
330
1F
100
AcDbEntity
  8
SKVIEW1
100
AcDbCircle
 10
-64.41093568517442
 20
0.0
 30
0.0
 40
7.57
100
AcDbArc
 50
90.0
 51
130.6952450000022
  0
ARC
  5
21ED0
330
1F
100
AcDbEntity
  8
SKVIEW1
100
AcDbCircle
 10
-64.41093568517442
 20
0.0
 30
0.0
 40
7.95
100
AcDbArc
 50
90.0
 51
128.5000769999985
  0
ARC
  5
21ED1
330
1F
100
AcDbEntity
  8
SKVIEW1
100
AcDbCircle
 10
-64.41093568517442
 20
0.0
 30
0.0
 40
4.117869999999999
100
AcDbArc
 50
241.8823609999986
 51
327.1478109999983
  0
ARC
  5
21ED2
330
1F
100
AcDbEntity
  8
SKVIEW1
100
AcDbCircle
 10
-64.41093568517442
 20
0.0
 30
0.0
 40
4.811592
100
AcDbArc
 50
243.0746879999985
 51
323.2138329999981
  0
ARC
  5
21ED3
330
1F
100
AcDbEntity
  8
SKVIEW1
100
AcDbCircle
 10
-64.71093568517438
 20
-5.364117
 30
0.0
 40
0.3975
100
AcDbArc
 50
319.0006459999977
 51
86.79894299999828
  0
LINE
  5
21ED4
330
1F
100
AcDbEntity
  8
SKVIEW1
100
AcDbLine
 10
-64.41093568517442
 20
-7.57
 30
0.0
 11
-64.41093568517442
 21
-5.624898000000001
 31
0.0
  0
ARC
  5
21ED5
330
1F
100
AcDbEntity
  8
SKVIEW1
100
AcDbCircle
 10
-64.41093568517442
 20
0.0
 30
0.0
 40
7.57
100
AcDbArc
 50
270.0
 51
310.6952450000022
  0
ARC
  5
21ED6
330
1F
100
AcDbEntity
  8
SKVIEW1
100
AcDbCircle
 10
-64.41093568517442
 20
0.0
 30
0.0
 40
7.95
100
AcDbArc
 50
270.0
 51
308.5000769999985
  0
LINE
  5
21ED7
330
1F
100
AcDbEntity
  8
SKVIEW1
100
AcDbLine
 10
-64.41093568517442
 20
-7.57
 30
0.0
 11
-64.41093568517442
 21
-7.950000000000002
 31
0.0
  0
LINE
  5
21ED8
330
1F
100
AcDbEntity
  8
SKVIEW1
100
AcDbLine
 10
-64.41093568517442
 20
-7.57
 30
0.0
 11
-64.41093568517442
 21
-7.950000000000002
 31
0.0
  0
LINE
  5
21ED9
330
1F
100
AcDbEntity
  8
SKVIEW1
100
AcDbLine
 10
-64.41093568517442
 20
-4.811591999999997
 30
0.0
 11
-64.41093568517442
 21
-7.57
 31
0.0
  0
LINE
  5
21EDA
330
1F
100
AcDbEntity
  8
SKVIEW1
100
AcDbLine
 10
-64.41093568517442
 20
-4.117869999999996
 30
0.0
 11
-64.41093568517442
 21
-4.811591999999997
 31
0.0
  0
LINE
  5
21EDB
330
1F
100
AcDbEntity
  8
SKVIEW1
100
AcDbLine
 10
-64.41093568517442
 20
0.0
 30
0.0
 11
-64.41093568517442
 21
-4.117869999999996
 31
0.0
  0
LINE
  5
21EDC
330
1F
100
AcDbEntity
  8
SKVIEW1
100
AcDbLine
 10
-64.41093568517442
 20
-14.00000000000001
 30
0.0
 11
-64.41093568517442
 21
-13.60000000000001
 31
0.0
  0
LINE
  5
21EDD
330
1F
100
AcDbEntity
  8
SKVIEW1
100
AcDbLine
 10
-64.41093568517442
 20
-14.00000000000001
 30
0.0
 11
-64.41093568517442
 21
-13.60000000000001
 31
0.0
  0
LINE
  5
21EDE
330
1F
100
AcDbEntity
  8
SKVIEW1
100
AcDbLine
 10
-64.41093568517442
 20
-13.60000000000001
 30
0.0
 11
-64.41093568517442
 21
-8.330000000000005
 31
0.0
  0
LINE
  5
21EDF
330
1F
100
AcDbEntity
  8
SKVIEW1
100
AcDbLine
 10
-64.41093568517442
 20
-8.330000000000005
 30
0.0
 11
-64.41093568517442
 21
-7.950032999999997
 31
0.0
  0
LINE
  5
21EE0
330
1F
100
AcDbEntity
  8
SKVIEW1
100
AcDbLine
 10
-64.41093568517442
 20
-8.330000000000005
 30
0.0
 11
-64.41093568517442
 21
-7.929999999999999
 31
0.0
  0
LINE
  5
21EE1
330
1F
100
AcDbEntity
  8
SKVIEW1
100
AcDbLine
 10
-64.41093568517442
 20
-8.648130000000001
 30
0.0
 11
-64.41093568517442
 21
-13.60000000000001
 31
0.0
  0
LINE
  5
21EE2
330
1F
100
AcDbEntity
  8
SKVIEW1
100
AcDbLine
 10
-64.41093568517442
 20
-8.330000000000005
 30
0.0
 11
-64.41093568517442
 21
-8.630192000000015
 31
0.0
  0
ARC
  5
21EE3
330
1F
100
AcDbEntity
  8
SKVIEW1
100
AcDbCircle
 10
-64.41093568517442
 20
0.0
 30
0.0
 40
4.974999999999996
100
AcDbArc
 50
9.478971999999991
 51
86.84301199999763
  0
LINE
  5
21EE4
330
1F
100
AcDbEntity
  8
SKVIEW1
100
AcDbLine
 10
-56.69068268517469
 20
-2.578345999999996
 30
0.0
 11
-56.69068268517469
 21
1.082763999999997
 31
0.0
  0
ARC
  5
21EE5
330
1F
100
AcDbEntity
  8
SKVIEW1
100
AcDbCircle
 10
-58.22267368517453
 20
-2.202609999999999
 30
0.0
 40
3.625005999999998
100
AcDbArc
 50
65.00004799999842
 51
111.8766539999971
  0
LINE
  5
21EE6
330
1F
100
AcDbEntity
  8
SKVIEW1
100
AcDbLine
 10
-60.32082368517433
 20
-2.721434000000002
 30
0.0
 11
-60.32082368517433
 21
0.0267519999999948
 31
0.0
  0
SPLINE
  5
21EE7
330
1F
100
AcDbEntity
  8
SKVIEW1
100
AcDbSpline
210
0.0
220
0.0
230
1.0
 70
     8
 71
     5
 72
    21
 73
    15
 74
     0
 42
0.000000001
 43
0.0000000001
 40
0.0
 40
0.0
 40
0.0
 40
0.0
 40
0.0
 40
0.0
 40
2.210897913663205
 40
2.210897913663205
 40
2.210897913663205
 40
3.849361107243831
 40
3.849361107243831
 40
3.849361107243831
 40
6.981153763254865
 40
6.981153763254865
 40
6.981153763254865
 40
7.702486670138865
 40
7.702486670138865
 40
7.702486670138865
 40
7.702486670138865
 40
7.702486670138865
 40
7.702486670138865
 10
-56.69068096423064
 20
-2.57833718674707
 30
0.0
 10
-56.83601665635433
 20
-2.576895505582157
 30
0.0
 10
-57.00010163894251
 20
-2.57243043712161
 30
0.0
 10
-57.19200635314405
 20
-2.564794348258601
 30
0.0
 10
-57.56531363250122
 20
-2.548607288054569
 30
0.0
 10
-57.99827966001249
 20
-2.536559154540867
 30
0.0
 10
-58.18623762034497
 20
-2.53349089965701
 30
0.0
 10
-58.74621642739999
 20
-2.534028831114184
 30
0.0
 10
-59.27242893576579
 20
-2.563507481254788
 30
0.0
 10
-59.5834135080496
 20
-2.596992141648783
 30
0.0
 10
-59.90517507932565
 20
-2.642855353166233
 30
0.0
 10
-60.17751917407839
 20
-2.69281719456702
 30
0.0
 10
-60.22687310315655
 20
-2.702286293712788
 30
0.0
 10
-60.27461863000088
 20
-2.711833984961941
 30
0.0
 10
-60.32082326697786
 20
-2.721431989268438
 30
0.0
  0
LINE
  5
21EE8
330
1F
100
AcDbEntity
  8
SKVIEW1
100
AcDbLine
 10
-64.41093568517442
 20
5.103510999999997
 30
0.0
 11
-64.41093568517442
 21
6.479999999999996
 31
0.0
  0
LINE
  5
21EE9
330
1F
100
AcDbEntity
  8
SKVIEW1
100
AcDbLine
 10
-56.69068268517469
 20
1.082763999999997
 30
0.0
 11
-50.28852168517471
 21
-1.902612999999995
 31
0.0
  0
ARC
  5
21EEA
330
1F
100
AcDbEntity
  8
SKVIEW1
100
AcDbCircle
 10
-64.41093568517442
 20
0.0
 30
0.0
 40
14.25
100
AcDbArc
 50
337.6145219999992
 51
73.82354300000267
  0
LINE
  5
21EEB
330
1F
100
AcDbEntity
  8
SKVIEW1
100
AcDbLine
 10
-60.44093568517451
 20
6.479999999999996
 30
0.0
 11
-60.44093568517451
 21
13.68581700000001
 31
0.0
  0
LINE
  5
21EEC
330
1F
100
AcDbEntity
  8
SKVIEW1
100
AcDbLine
 10
-60.44093568517451
 20
6.479999999999996
 30
0.0
 11
-64.41093568517442
 21
6.479999999999996
 31
0.0
  0
CIRCLE
  5
21EED
330
1F
100
AcDbEntity
  8
SKVIEW1
100
AcDbCircle
 10
-54.36504068517456
 20
5.799999999999997
 30
0.0
 40
1.45
  0
SPLINE
  5
21EEE
330
1F
100
AcDbEntity
  8
SKVIEW1
100
AcDbSpline
210
0.0
220
0.0
230
1.0
 70
     8
 71
     5
 72
    36
 73
    30
 74
     0
 42
0.000000001
 43
0.0000000001
 40
0.0
 40
0.0
 40
0.0
 40
0.0
 40
0.0
 40
0.0
 40
2.487081581508079
 40
2.487081581508079
 40
2.487081581508079
 40
3.753818620548201
 40
3.753818620548201
 40
3.753818620548201
 40
5.046823710958856
 40
5.046823710958856
 40
5.046823710958856
 40
5.732342390112912
 40
5.732342390112912
 40
5.732342390112912
 40
6.412164130743027
 40
6.412164130743027
 40
6.412164130743027
 40
7.369016008283725
 40
7.369016008283725
 40
7.369016008283725
 40
8.643094318789486
 40
8.643094318789486
 40
8.643094318789486
 40
11.16526965264944
 40
11.16526965264944
 40
11.16526965264944
 40
12.81781964921741
 40
12.81781964921741
 40
12.81781964921741
 40
12.81781964921741
 40
12.81781964921741
 40
12.81781964921741
 10
-56.69068096423064
 20
-2.578337186748029
 30
0.0
 10
-56.52650490220242
 20
-2.579965758044998
 30
0.0
 10
-56.35891125787759
 20
-2.584949236463337
 30
0.0
 10
-56.19035099560528
 20
-2.593814373098545
 30
0.0
 10
-55.92712280647788
 20
-2.61393758479722
 30
0.0
 10
-55.64343717551219
 20
-2.649685251623637
 30
0.0
 10
-55.54672159997494
 20
-2.663581245279679
 30
0.0
 10
-55.34232955590448
 20
-2.697035863655834
 30
0.0
 10
-55.12415470427254
 20
-2.743134836791
 30
0.0
 10
-55.009228529589
 20
-2.770471438078509
 30
0.0
 10
-54.82509018852704
 20
-2.820229772146021
 30
0.0
 10
-54.62797094936195
 20
-2.885975822842283
 30
0.0
 10
-54.55808863653658
 20
-2.910907274105568
 30
0.0
 10
-54.41583393081839
 20
-2.965546323251295
 30
0.0
 10
-54.27040002600427
 20
-3.029983290364128
 30
0.0
 10
-54.19511408740504
 20
-3.065821442162196
 30
0.0
 10
-54.02301582108293
 20
-3.154136391487426
 30
0.0
 10
-53.864197646011
 20
-3.250097077027888
 30
0.0
 10
-53.77437768888308
 20
-3.309836243239047
 30
0.0
 10
-53.59045763665244
 20
-3.442320070943978
 30
0.0
 10
-53.44060168290252
 20
-3.570536312420749
 30
0.0
 10
-53.36260216078779
 20
-3.643001201388599
 30
0.0
 10
-53.15394222714042
 20
-3.85120783307304
 30
0.0
 10
-52.99400529816648
 20
-4.048698115162331
 30
0.0
 10
-52.90337388853743
 20
-4.172460848264414
 30
0.0
 10
-52.76462439379554
 20
-4.381044485405169
 30
0.0
 10
-52.64761373028057
 20
-4.585420811476708
 30
0.0
 10
-52.60414294936379
 20
-4.665845149496611
 30
0.0
 10
-52.56328913654932
 20
-4.745779928554767
 30
0.0
 10
-52.52470127512186
 20
-4.825401259912162
 30
0.0
  0
LINE
  5
21EEF
330
1F
100
AcDbEntity
  8
SKVIEW1
100
AcDbLine
 10
-52.5246906851745
 20
-4.825417999999999
 30
0.0
 11
-51.23477868517466
 21
-5.426912999999998
 31
0.0
  0
ARC
  5
21EF0
330
1F
100
AcDbEntity
  8
SKVIEW1
100
AcDbCircle
 10
-57.99586868517451
 20
-11.241804
 30
0.0
 40
8.831880999999997
100
AcDbArc
 50
105.262736000002
 51
107.0809690000022
  0
ARC
  5
21EF1
330
1F
100
AcDbEntity
  8
SKVIEW1
100
AcDbCircle
 10
-64.41093568517442
 20
0.0
 30
0.0
 40
3.975
100
AcDbArc
 50
353.4052159999999
 51
359.4797549999998
  0
ARC
  5
21EF2
330
1F
100
AcDbEntity
  8
SKVIEW1
100
AcDbCircle
 10
-59.15159668517458
 20
-14.731092
 30
0.0
 40
11.524441
100
AcDbArc
 50
93.39521900000066
 51
96.22519399999928
  0
ARC
  5
21EF3
330
1F
100
AcDbEntity
  8
SKVIEW1
100
AcDbCircle
 10
-64.41093568517442
 20
0.0
 30
0.0
 40
5.599999999999997
100
AcDbArc
 50
324.8144590000016
 51
332.0642679999977
  0
ELLIPSE
  5
21EF4
330
1F
100
AcDbEntity
  8
SKVIEW1
100
AcDbEllipse
 10
-58.34180768517455
 20
-10.84702
 30
0.0
 11
7.26139736175537
 21
4.182317733764647
 31
0.0
210
0.0
220
0.0
230
1.0
 40
0.9888869999999995
 41
0.2830922650631344
 42
1.187688598750125
  0
ARC
  5
21EF5
330
1F
100
AcDbEntity
  8
SKVIEW1
100
AcDbCircle
 10
-70.82600268517456
 20
11.241804
 30
0.0
 40
8.831880999999997
100
AcDbArc
 50
285.262736000002
 51
287.0809690000022
  0
LINE
  5
21EF6
330
1F
100
AcDbEntity
  8
SKVIEW1
100
AcDbLine
 10
-68.50103468517443
 20
2.721484000000003
 30
0.0
 11
-68.50103468517443
 21
-0.0267460000000028
 31
0.0
  0
SPLINE
  5
21EF7
330
1F
100
AcDbEntity
  8
SKVIEW1
100
AcDbSpline
210
0.0
220
0.0
230
1.0
 70
     8
 71
     5
 72
    36
 73
    30
 74
     0
 42
0.000000001
 43
0.0000000001
 40
0.0
 40
0.0
 40
0.0
 40
0.0
 40
0.0
 40
0.0
 40
2.48708158149938
 40
2.48708158149938
 40
2.48708158149938
 40
3.753818620439351
 40
3.753818620439351
 40
3.753818620439351
 40
5.046823710825191
 40
5.046823710825191
 40
5.046823710825191
 40
5.732342389970872
 40
5.732342389970872
 40
5.732342389970872
 40
6.412164131283454
 40
6.412164131283454
 40
6.412164131283454
 40
7.369016008755097
 40
7.369016008755097
 40
7.369016008755097
 40
8.643094319125117
 40
8.643094319125117
 40
8.643094319125117
 40
11.16526965202627
 40
11.16526965202627
 40
11.16526965202627
 40
12.81781964856109
 40
12.81781964856109
 40
12.81781964856109
 40
12.81781964856109
 40
12.81781964856109
 40
12.81781964856109
 10
-72.13119040611843
 20
2.578337186748022
 30
0.0
 10
-72.29536646813835
 20
2.579965758044266
 30
0.0
 10
-72.46296011246215
 20
2.58494923646316
 30
0.0
 10
-72.63152037479597
 20
2.593814373102141
 30
0.0
 10
-72.89474856398101
 20
2.613937584807466
 30
0.0
 10
-73.17843419495543
 20
2.649685251639773
 30
0.0
 10
-73.2751497705259
 20
2.663581245302587
 30
0.0
 10
-73.47954181458954
 20
2.69703586368368
 30
0.0
 10
-73.69771666620057
 20
2.743134836819564
 30
0.0
 10
-73.81264284087456
 20
2.770471438107648
 30
0.0
 10
-73.99678118192696
 20
2.820229772177036
 30
0.0
 10
-74.19390042108933
 20
2.885975822877512
 30
0.0
 10
-74.26378273391185
 20
2.910907274141408
 30
0.0
 10
-74.40603743970791
 20
2.965546323322016
 30
0.0
 10
-74.55147134461594
 20
3.029983290486676
 30
0.0
 10
-74.62675728292992
 20
3.065821442150941
 30
0.0
 10
-74.79885554932491
 20
3.154136391514875
 30
0.0
 10
-74.95767372442561
 20
3.250097077084234
 30
0.0
 10
-75.04749368155194
 20
3.309836243298974
 30
0.0
 10
-75.23141373374335
 20
3.442320070983704
 30
0.0
 10
-75.38126968747599
 20
3.570536312446876
 30
0.0
 10
-75.45926920961244
 20
3.643001201438771
 30
0.0
 10
-75.66792914317534
 20
3.8512078330548
 30
0.0
 10
-75.82786607214166
 20
4.048698115109459
 30
0.0
 10
-75.91849748189622
 20
4.172460848385867
 30
0.0
 10
-76.05724697659571
 20
4.38104448547223
 30
0.0
 10
-76.17425764007521
 20
4.585420811487502
 30
0.0
 10
-76.21772842098915
 20
4.665845149503084
 30
0.0
 10
-76.25858223380248
 20
4.745779928559073
 30
0.0
 10
-76.29717009522721
 20
4.825401259912176
 30
0.0
  0
SPLINE
  5
21EF8
330
1F
100
AcDbEntity
  8
SKVIEW1
100
AcDbSpline
210
0.0
220
0.0
230
1.0
 70
     8
 71
     5
 72
    21
 73
    15
 74
     0
 42
0.000000001
 43
0.0000000001
 40
0.0
 40
0.0
 40
0.0
 40
0.0
 40
0.0
 40
0.0
 40
2.21089791314591
 40
2.21089791314591
 40
2.21089791314591
 40
3.849361105707007
 40
3.849361105707007
 40
3.849361105707007
 40
6.981153761167091
 40
6.981153761167091
 40
6.981153761167091
 40
7.702486668037058
 40
7.702486668037058
 40
7.702486668037058
 40
7.702486668037058
 40
7.702486668037058
 40
7.702486668037058
 10
-72.13119040611843
 20
2.57833718674707
 30
0.0
 10
-71.98585471403498
 20
2.576895505582939
 30
0.0
 10
-71.82176973148433
 20
2.572430437122122
 30
0.0
 10
-71.6298650171866
 20
2.564794348260974
 30
0.0
 10
-71.25655773798598
 20
2.548607288057823
 30
0.0
 10
-70.8235917104879
 20
2.536559154543404
 30
0.0
 10
-70.63563374967817
 20
2.53349089965598
 30
0.0
 10
-70.07565494278106
 20
2.534028831122313
 30
0.0
 10
-69.54944243451302
 20
2.563507481259797
 30
0.0
 10
-69.23845786213849
 20
2.596992141673595
 30
0.0
 10
-68.91669629096736
 20
2.642855353176216
 30
0.0
 10
-68.64435219626443
 20
2.692817194568185
 30
0.0
 10
-68.59499826718843
 20
2.70228629371364
 30
0.0
 10
-68.54725274034558
 20
2.71183398496241
 30
0.0
 10
-68.50104810337097
 20
2.721431989268438
 30
0.0
  0
ARC
  5
21EF9
330
1F
100
AcDbEntity
  8
SKVIEW1
100
AcDbCircle
 10
-69.67029768517443
 20
14.73138500000002
 30
0.0
 40
11.524734
100
AcDbArc
 50
273.3952449999988
 51
276.223522000001
  0
ARC
  5
21EFA
330
1F
100
AcDbEntity
  8
SKVIEW1
100
AcDbCircle
 10
-64.41093568517442
 20
0.0
 30
0.0
 40
5.599999999999997
100
AcDbArc
 50
144.8144590000019
 51
152.0642679999976
  0
ELLIPSE
  5
21EFB
330
1F
100
AcDbEntity
  8
SKVIEW1
100
AcDbEllipse
 10
-70.4800636851744
 20
10.84702
 30
0.0
 11
7.26139736175537
 21
4.182317733764647
 31
0.0
210
0.0
220
0.0
230
1.0
 40
0.9888869999999995
 41
3.424684916232298
 42
4.329281249874536
  0
LINE
  5
21EFC
330
1F
100
AcDbEntity
  8
SKVIEW1
100
AcDbLine
 10
-72.13118868517438
 20
2.578345999999996
 30
0.0
 11
-72.13118868517438
 21
-1.082763999999997
 31
0.0
  0
ARC
  5
21EFD
330
1F
100
AcDbEntity
  8
SKVIEW1
100
AcDbCircle
 10
-70.59922668517458
 20
2.202872999999996
 30
0.0
 40
3.625268
100
AcDbArc
 50
245.0022170000023
 51
291.8755239999991
  0
ARC
  5
21EFE
330
1F
100
AcDbEntity
  8
SKVIEW1
100
AcDbCircle
 10
-64.41093568517442
 20
0.0
 30
0.0
 40
4.974999999999996
100
AcDbArc
 50
189.4789719999996
 51
241.3521100000019
  0
LINE
  5
21EFF
330
1F
100
AcDbEntity
  8
SKVIEW1
100
AcDbLine
 10
-64.41093568517442
 20
-8.769418000000015
 30
0.0
 11
-64.41093568517442
 21
-7.950006000000001
 31
0.0
  0
LINE
  5
21F00
330
1F
100
AcDbEntity
  8
SKVIEW1
100
AcDbLine
 10
-64.41093568517442
 20
-12.18865600000001
 30
0.0
 11
-64.41093568517442
 21
-11.65556600000001
 31
0.0
  0
LINE
  5
21F01
330
1F
100
AcDbEntity
  8
SKVIEW1
100
AcDbLine
 10
-64.41093568517442
 20
-14.24999999999999
 30
0.0
 11
-64.41093568517442
 21
-12.323014
 31
0.0
  0
ARC
  5
21F02
330
1F
100
AcDbEntity
  8
SKVIEW1
100
AcDbCircle
 10
-64.41093568517442
 20
0.0
 30
0.0
 40
14.25
100
AcDbArc
 50
172.3271439999995
 51
253.8235430000027
  0
LINE
  5
21F03
330
1F
100
AcDbEntity
  8
SKVIEW1
100
AcDbLine
 10
-76.29718068517433
 20
4.825417999999999
 30
0.0
 11
-77.58709268517453
 21
5.426912999999998
 31
0.0
  0
LINE
  5
21F04
330
1F
100
AcDbEntity
  8
SKVIEW1
100
AcDbLine
 10
-64.41093568517442
 20
-5.624896999999997
 30
0.0
 11
-64.41093568517442
 21
-5.103341999999997
 31
0.0
  0
LINE
  5
21F05
330
1F
100
AcDbEntity
  8
SKVIEW1
100
AcDbLine
 10
-68.38093568517433
 20
-6.480000000000003
 30
0.0
 11
-64.41093568517442
 21
-6.480000000000003
 31
0.0
  0
ARC
  5
21F06
330
1F
100
AcDbEntity
  8
SKVIEW1
100
AcDbCircle
 10
-64.41093568517442
 20
0.0
 30
0.0
 40
14.25
100
AcDbArc
 50
157.6145219999991
 51
172.3271439999995
  0
LINE
  5
21F07
330
1F
100
AcDbEntity
  8
SKVIEW1
100
AcDbLine
 10
-72.13118868517438
 20
-1.082763999999997
 30
0.0
 11
-78.53334968517458
 21
1.902612999999995
 31
0.0
  0
LINE
  5
21F08
330
1F
100
AcDbEntity
  8
SKVIEW1
100
AcDbLine
 10
-68.38093568517433
 20
-6.480000000000003
 30
0.0
 11
-68.38093568517433
 21
-7.037947000000002
 31
0.0
  0
CIRCLE
  5
21F09
330
1F
100
AcDbEntity
  8
SKVIEW1
100
AcDbCircle
 10
-74.45683068517451
 20
-5.799999999999997
 30
0.0
 40
1.45
  0
LINE
  5
21F0A
330
1F
100
AcDbEntity
  8
SKVIEW1
100
AcDbLine
 10
-64.41093568517442
 20
7.280000000000008
 30
0.0
 11
-64.41093568517442
 21
6.479999999999996
 31
0.0
  0
LINE
  5
21F0B
330
1F
100
AcDbEntity
  8
SKVIEW1
100
AcDbLine
 10
-64.41093568517442
 20
13.7
 30
0.0
 11
-64.41093568517442
 21
7.280000000000008
 31
0.0
  0
LINE
  5
21F0C
330
1F
100
AcDbEntity
  8
SKVIEW1
100
AcDbLine
 10
-64.41093568517442
 20
13.7
 30
0.0
 11
-64.41093568517442
 21
14.5
 31
0.0
  0
LINE
  5
21F0D
330
1F
100
AcDbEntity
  8
SKVIEW1
100
AcDbLine
 10
-60.44093568517451
 20
13.942053
 30
0.0
 11
-60.44093568517451
 21
13.7
 31
0.0
  0
LINE
  5
21F0E
330
1F
100
AcDbEntity
  8
SKVIEW1
100
AcDbLine
 10
-60.44093568517451
 20
13.7
 30
0.0
 11
-60.44093568517451
 21
7.280000000000008
 31
0.0
  0
LINE
  5
21F0F
330
1F
100
AcDbEntity
  8
SKVIEW1
100
AcDbLine
 10
-60.44093568517451
 20
7.280000000000008
 30
0.0
 11
-60.44093568517451
 21
7.037946999999995
 31
0.0
  0
LINE
  5
21F10
330
1F
100
AcDbEntity
  8
SKVIEW1
100
AcDbLine
 10
-60.44093568517451
 20
7.037946999999995
 30
0.0
 11
-64.41093568517442
 21
6.479999999999996
 31
0.0
  0
LINE
  5
21F11
330
1F
100
AcDbEntity
  8
SKVIEW1
100
AcDbLine
 10
-60.44093568517451
 20
7.280000000000008
 30
0.0
 11
-64.41093568517442
 21
7.280000000000008
 31
0.0
  0
LINE
  5
21F12
330
1F
100
AcDbEntity
  8
SKVIEW1
100
AcDbLine
 10
-60.44093568517451
 20
13.7
 30
0.0
 11
-64.41093568517442
 21
13.7
 31
0.0
  0
LINE
  5
21F13
330
1F
100
AcDbEntity
  8
SKVIEW1
100
AcDbLine
 10
-60.44093568517451
 20
13.942053
 30
0.0
 11
-64.41093568517442
 21
14.5
 31
0.0
  0
LINE
  5
21F14
330
1F
100
AcDbEntity
  8
SKVIEW1
100
AcDbLine
 10
-64.41093568517442
 20
-13.69999999999998
 30
0.0
 11
-64.41093568517442
 21
-7.950001
 31
0.0
  0
LINE
  5
21F15
330
1F
100
AcDbEntity
  8
SKVIEW1
100
AcDbLine
 10
-64.41093568517442
 20
-13.69999999999998
 30
0.0
 11
-64.41093568517442
 21
-14.49999999999999
 31
0.0
  0
LINE
  5
21F16
330
1F
100
AcDbEntity
  8
SKVIEW1
100
AcDbLine
 10
-68.38093568517433
 20
-13.94205300000001
 30
0.0
 11
-68.38093568517433
 21
-13.69999999999998
 31
0.0
  0
LINE
  5
21F17
330
1F
100
AcDbEntity
  8
SKVIEW1
100
AcDbLine
 10
-68.38093568517433
 20
-13.69999999999998
 30
0.0
 11
-68.38093568517433
 21
-7.280000000000001
 31
0.0
  0
LINE
  5
21F18
330
1F
100
AcDbEntity
  8
SKVIEW1
100
AcDbLine
 10
-68.38093568517433
 20
-7.280000000000001
 30
0.0
 11
-68.38093568517433
 21
-7.037947000000002
 31
0.0
  0
LINE
  5
21F19
330
1F
100
AcDbEntity
  8
SKVIEW1
100
AcDbLine
 10
-68.38093568517433
 20
-7.037947000000002
 30
0.0
 11
-64.41093568517442
 21
-6.480000000000003
 31
0.0
  0
LINE
  5
21F1A
330
1F
100
AcDbEntity
  8
SKVIEW1
100
AcDbLine
 10
-68.38093568517433
 20
-7.280000000000001
 30
0.0
 11
-64.41093568517442
 21
-7.280000000000001
 31
0.0
  0
LINE
  5
21F1B
330
1F
100
AcDbEntity
  8
SKVIEW1
100
AcDbLine
 10
-68.38093568517433
 20
-13.69999999999998
 30
0.0
 11
-64.41093568517442
 21
-13.69999999999998
 31
0.0
  0
LINE
  5
21F1C
330
1F
100
AcDbEntity
  8
SKVIEW1
100
AcDbLine
 10
-68.38093568517433
 20
-13.94205300000001
 30
0.0
 11
-64.41093568517442
 21
-14.49999999999999
 31
0.0
  0
LINE
  5
21F1D
330
1F
100
AcDbEntity
  8
1
100
AcDbLine
 10
22.6099999999999
 20
7.950000000000045
 30
0.0
 11
23.40999999999985
 21
7.950000000000045
 31
0.0
  0
LINE
  5
21F1E
330
1F
100
AcDbEntity
  8
1
100
AcDbLine
 10
24.06817899999988
 20
7.570000000000057
 30
0.0
 11
23.40999999999985
 21
7.950000000000045
 31
0.0
  0
LINE
  5
21F1F
330
1F
100
AcDbEntity
  8
1
100
AcDbLine
 10
24.50294499999973
 20
5.104323000000022
 30
0.0
 11
24.41115300000002
 21
5.62489800000003
 31
0.0
  0
ARC
  5
21F20
330
1F
100
AcDbEntity
  8
1
100
AcDbCircle
 10
27.52966500000002
 20
5.336183000000005
 30
0.0
 40
3.021
100
AcDbArc
 50
189.9999999999978
 51
203.7834840000011
  0
LINE
  5
21F21
330
1F
100
AcDbEntity
  8
1
100
AcDbLine
 10
24.55456099999992
 20
4.811592000000018
 30
0.0
 11
24.50294499999973
 21
5.104323000000022
 31
0.0
  0
LINE
  5
21F22
330
1F
100
AcDbEntity
  8
1
100
AcDbLine
 10
24.41131099999973
 20
5.624003000000016
 30
0.0
 11
24.06817899999988
 21
7.570000000000057
 31
0.0
  0
LINE
  5
21F23
330
1F
100
AcDbEntity
  8
1
100
AcDbLine
 10
26.57999999999993
 20
0.0
 30
0.0
 11
24.76522099999988
 21
4.117870000000038
 31
0.0
  0
LINE
  5
21F24
330
1F
100
AcDbEntity
  8
1
100
AcDbLine
 10
22.6099999999999
 20
13.70000000000004
 30
0.0
 11
22.6099999999999
 21
7.950000000000045
 31
0.0
  0
ARC
  5
21F25
330
1F
100
AcDbEntity
  8
1
100
AcDbCircle
 10
21.80999999999983
 20
13.70000000000004
 30
0.0
 40
0.8
100
AcDbArc
 50
0.0
 51
90.0
  0
LINE
  5
21F26
330
1F
100
AcDbEntity
  8
1
100
AcDbLine
 10
15.38999999999987
 20
14.5
 30
0.0
 11
21.80999999999983
 21
14.5
 31
0.0
  0
ARC
  5
21F27
330
1F
100
AcDbEntity
  8
1
100
AcDbCircle
 10
15.38999999999987
 20
13.70000000000004
 30
0.0
 40
0.8
100
AcDbArc
 50
90.0
 51
180.0
  0
DIMENSION
  5
21F28
330
1F
100
AcDbEntity
  8
SK2
100
AcDbDimension
280
     0
  2
*D12
 10
-30.17063938332223
 20
-5.599999999999996
 30
0.0
 11
-30.17063938332223
 21
-20.7044905130007
 31
0.0
 70
   160
  1
%%C<>
 71
     5
 42
11.19999999999999
 73
     0
 74
     0
 75
     0
  3
STANDARD
100
AcDbAlignedDimension
 13
-11.39999999999997
 23
5.599999999999994
 33
0.0
 14
-11.39999999999997
 24
-5.600000000000001
 34
0.0
 50
90.0
100
AcDbRotatedDimension
1001
ACAD_DSTYLE_DIMARC_LENGTH_SYMBOL
1070
   379
1070
     1
1001
ACAD_DSTYLE_DIM_LINETYPE
1070
   380
1005
14
1001
ACAD_DSTYLE_DIM_EXT1_LINETYPE
1070
   381
1005
14
1001
ACAD_DSTYLE_DIM_EXT2_LINETYPE
1070
   382
1005
14
1001
ACAD
1000
DSTYLE
1002
{
1070
   172
1070
     1
1002
}
  0
LWPOLYLINE
  5
220B4
330
1F
100
AcDbEntity
  8
CUT
 48
0.240324
100
AcDbPolyline
 90
       19
 70
     0
 43
0.0
 10
24.55456099999992
 20
4.811591999999997
 10
24.50294500000007
 20
5.104323
 10
24.41115300000002
 20
5.624898000000001
 10
24.06817899999988
 20
7.569999999999993
 10
23.41000000000008
 20
7.949999999999988
 10
22.6099999999999
 20
7.950000000000002
 10
22.61000000000007
 20
13.7
 42
0.4142135623730951
 10
21.81000000000006
 20
14.5
 10
15.38999999999987
 20
14.5
 42
0.4142135623730951
 10
14.59000000000003
 20
13.7
 10
14.58999999999986
 20
7.280000000000008
 42
0.4142135623730951
 10
15.38999999999987
 20
6.479999999999996
 10
17.85000000000002
 20
6.480000000000018
 10
17.85000000000002
 20
6.059193999999997
 10
17.85000000000002
 20
2.680953999999985
 10
17.85000000000002
 20
0.0
 10
26.57999999999993
 20
0.0
 10
24.7652205392543
 20
4.117869483924451
 42
-0.0602144112813842
 10
24.55456077815012
 20
4.811591855268211
  0
LWPOLYLINE
  5
220CC
330
1F
100
AcDbEntity
  8
NOCUT
370
    13
100
AcDbPolyline
 90
        9
 70
     1
 43
0.0
 10
0.0
 20
5.599999999999994
 10
-11.39999999999997
 20
5.599999999999994
 10
-11.39999999999997
 20
2.684782999999995
 10
-11.39999999999997
 20
0.0
 10
21.61000000000001
 20
0.0
 10
21.61000000000001
 20
6.831813999999994
 10
21.61000000000001
 20
14.25
 10
0.0
 20
14.25
 10
0.0
 20
6.831813999999994
  0
LINE
  5
220D5
330
1F
100
AcDbEntity
  8
4
100
AcDbLine
 10
0.0
 20
0.0
 30
0.0
 11
24.91099900000006
 21
0.0
 31
0.0
  0
VIEWPORT
  5
9C00
330
1B
100
AcDbEntity
 67
     1
  8
0
348
3195
100
AcDbViewport
 10
108.2280559557949
 20
71.69854161746989
 30
0.0
 40
251.8950231529317
 41
201.8884082081047
 68
     1
 69
     1
 12
108.2280559557949
 22
71.69854161746989
 13
0.0
 23
0.0
 14
10.0
 24
10.0
 15
10.0
 25
10.0
 16
0.0
 26
0.0
 36
1.0
 17
0.0
 27
0.0
 37
0.0
 42
50.0
 43
0.0
 44
0.0
 45
201.8884082081047
 50
0.0
 51
0.0
 72
   100
 90
   557088
  1

281
     0
 71
     1
 74
     0
110
0.0
120
0.0
130
0.0
111
1.0
121
0.0
131
0.0
112
0.0
122
1.0
132
0.0
 79
     0
146
0.0
170
     0
 61
     5
292
     1
282
     1
141
0.0
142
0.0
 63
   250
421
  3355443
  0
VIEWPORT
  5
9C02
330
1B
100
AcDbEntity
 67
     1
  8
1
348
3195
100
AcDbViewport
 10
143.457083940506
 20
98.18158769607544
 30
0.0
 40
229.5313343048095
 41
157.0905403137207
 68
     2
 69
     2
 12
-44.37697124786255
 22
-35.12342998133886
 13
0.0
 23
0.0
 14
10.0
 24
10.0
 15
10.0
 25
10.0
 16
0.0
 26
0.0
 36
1.0
 17
0.0
 27
0.0
 37
0.0
 42
50.0
 43
0.0
 44
0.0
 45
300.3886240724386
 50
0.0
 51
0.0
 72
   100
 90
   557088
  1

281
     0
 71
     1
 74
     0
110
0.0
120
0.0
130
0.0
111
1.0
121
0.0
131
0.0
112
0.0
122
1.0
132
0.0
 79
     0
146
0.0
170
     0
 61
     5
348
3195
292
     1
282
     1
141
0.0
142
0.0
 63
   250
421
  3355443
  0
ENDSEC
  0
SECTION
  2
OBJECTS
  0
DICTIONARY
  5
3182
330
0
100
AcDbDictionary
281
     1
  3
ACAD_CIP_PREVIOUS_PRODUCT_INFO
350
1B2F4
  3
ACAD_COLOR
350
31A0
  3
ACAD_DETAILVIEWSTYLE
350
1B2F0
  3
ACAD_FIELDLIST
350
20CBF
  3
ACAD_GROUP
350
3183
  3
ACAD_LAYOUT
350
31A5
  3
ACAD_MATERIAL
350
318B
  3
ACAD_MLEADERSTYLE
350
1B221
  3
ACAD_MLINESTYLE
350
3184
  3
ACAD_PLOTSETTINGS
350
31A4
  3
ACAD_PLOTSTYLENAME
350
3189
  3
ACAD_SCALELIST
350
1B1FC
  3
ACAD_SECTIONVIEWSTYLE
350
1B2EE
  3
ACAD_TABLESTYLE
350
31A1
  3
ACAD_VISUALSTYLE
350
318F
  3
ACDB_RECOMPOSE_DATA
350
22108
  3
AcDbVariableDictionary
350
33A3
  0
DICTIONARY
  5
422A
330
2
100
AcDbDictionary
280
     1
281
     1
  3
ACAD_LAYERFILTERS
360
1B063
  3
ACAD_LAYERSTATES
360
9A1C
  3
ACLYDICTIONARY
360
1B062
  0
DICTIONARY
  5
1B2F5
330
10
100
AcDbDictionary
280
     1
281
     1
  3
ADSK_XREC_LAYER_RECONCILED
360
21B8E
  0
DICTIONARY
  5
1B2F7
330
3F8C
100
AcDbDictionary
280
     1
281
     1
  3
ADSK_XREC_LAYER_RECONCILED
360
21B8F
  0
DICTIONARY
  5
1B2F9
330
9C4A
100
AcDbDictionary
280
     1
281
     1
  3
ADSK_XREC_LAYER_RECONCILED
360
21B90
  0
DICTIONARY
  5
1B2FB
330
9C4B
100
AcDbDictionary
280
     1
281
     1
  3
ADSK_XREC_LAYER_RECONCILED
360
21B91
  0
DICTIONARY
  5
1B2FD
330
9C4D
100
AcDbDictionary
280
     1
281
     1
  3
ADSK_XREC_LAYER_RECONCILED
360
21B92
  0
DICTIONARY
  5
1B2FF
330
9C4E
100
AcDbDictionary
280
     1
281
     1
  3
ADSK_XREC_LAYER_RECONCILED
360
21B93
  0
DICTIONARY
  5
1B301
330
9C4F
100
AcDbDictionary
280
     1
281
     1
  3
ADSK_XREC_LAYER_RECONCILED
360
21B94
  0
DICTIONARY
  5
1B303
330
9C50
100
AcDbDictionary
280
     1
281
     1
  3
ADSK_XREC_LAYER_RECONCILED
360
21B95
  0
DICTIONARY
  5
1B305
330
9C51
100
AcDbDictionary
280
     1
281
     1
  3
ADSK_XREC_LAYER_RECONCILED
360
21B96
  0
DICTIONARY
  5
1B307
330
13335
100
AcDbDictionary
280
     1
281
     1
  3
ADSK_XREC_LAYER_RECONCILED
360
21B97
  0
DICTIONARY
  5
1B309
330
1686E
100
AcDbDictionary
280
     1
281
     1
  3
ADSK_XREC_LAYER_RECONCILED
360
21B98
  0
DICTIONARY
  5
339C
330
1F
100
AcDbDictionary
280
     1
281
     1
  3
ACAD_SORTENTS
360
339D
  0
DICTIONARY
  5
1DE81
330
1B3D7
100
AcDbDictionary
280
     1
281
     1
  0
XRECORD
  5
1B2F4
102
{ACAD_REACTORS
330
3182
102
}
330
3182
100
AcDbXrecord
280
     1
300
ACDLT
300
2015
300
ACDLT_F_S
  0
DICTIONARY
  5
31A0
102
{ACAD_REACTORS
330
3182
102
}
330
3182
100
AcDbDictionary
281
     1
  0
DICTIONARY
  5
1B2F0
102
{ACAD_REACTORS
330
3182
102
}
330
3182
100
AcDbDictionary
281
     1
  3
Imperial24
350
20CB3
  3
Metric50
350
1B2F1
  0
FIELDLIST
  5
20CBF
102
{ACAD_REACTORS
330
3182
102
}
330
3182
100
AcDbIdSet
 90
        0
100
AcDbFieldList
  0
DICTIONARY
  5
3183
102
{ACAD_REACTORS
330
3182
102
}
330
3182
100
AcDbDictionary
281
     1
  0
DICTIONARY
  5
31A5
102
{ACAD_REACTORS
330
3182
102
}
330
3182
100
AcDbDictionary
281
     1
  3
Layout1
350
31A7
  3
Model
350
31A6
  0
DICTIONARY
  5
318B
102
{ACAD_REACTORS
330
3182
102
}
330
3182
100
AcDbDictionary
281
     1
  3
ByBlock
350
318D
  3
ByLayer
350
318C
  3
Global
350
318E
  0
DICTIONARY
  5
1B221
102
{ACAD_REACTORS
330
3182
102
}
330
3182
100
AcDbDictionary
281
     1
  3
Standard
350
1B2ED
  0
DICTIONARY
  5
3184
102
{ACAD_REACTORS
330
3182
102
}
330
3182
100
AcDbDictionary
281
     1
  3
STANDARD
350
3185
  0
DICTIONARY
  5
31A4
102
{ACAD_REACTORS
330
3182
102
}
330
3182
100
AcDbDictionary
281
     1
  0
ACDBDICTIONARYWDFLT
  5
3189
102
{ACAD_REACTORS
330
3182
102
}
330
3182
100
AcDbDictionary
281
     1
  3
Normal
350
318A
100
AcDbDictionaryWithDefault
340
318A
  0
DICTIONARY
  5
1B1FC
102
{ACAD_REACTORS
330
3182
102
}
330
3182
100
AcDbDictionary
281
     1
  3
A0
350
1B1FD
  3
A1
350
1B1FE
  3
A2
350
1B1FF
  3
A3
350
1B200
  3
A4
350
1B201
  3
A5
350
1B202
  3
A6
350
1B203
  3
A7
350
1B204
  3
A8
350
1B205
  3
A9
350
1B206
  3
B0
350
1B207
  3
B1
350
1B208
  3
B2
350
1B209
  3
B3
350
1B20A
  3
B4
350
1B20B
  3
B5
350
1B20C
  3
B6
350
1B20D
  3
B7
350
1B20E
  3
B8
350
1B20F
  3
B9
350
1B210
  3
C0
350
1B211
  3
C1
350
1B212
  3
C2
350
1B213
  3
C3
350
1B214
  3
C4
350
1B215
  3
C5
350
1B216
  3
C6
350
1B217
  3
C7
350
1B218
  3
C8
350
1B219
  3
C9
350
1B21A
  3
D0
350
1B21B
  3
D1
350
1B21C
  3
D2
350
1B21D
  0
DICTIONARY
  5
1B2EE
102
{ACAD_REACTORS
330
3182
102
}
330
3182
100
AcDbDictionary
281
     1
  3
Imperial24
350
20CB1
  3
Metric50
350
1B2EF
  0
DICTIONARY
  5
31A1
102
{ACAD_REACTORS
330
3182
102
}
330
3182
100
AcDbDictionary
281
     1
  3
Standard
350
31A2
  0
DICTIONARY
  5
318F
102
{ACAD_REACTORS
330
3182
102
}
330
3182
100
AcDbDictionary
281
     1
  3
2dWireframe
350
3195
  3
3D Hidden
350
3197
  3
3dWireframe
350
3196
  3
Basic
350
3194
  3
Brighten
350
319B
  3
ColorChange
350
319F
  3
Conceptual
350
3198
  3
Dim
350
319A
  3
EdgeColorOff
350
1B2EC
  3
Facepattern
350
319E
  3
Flat
350
3190
  3
FlatWithEdges
350
3191
  3
Gouraud
350
3192
  3
GouraudWithEdges
350
3193
  3
Hidden
350
1B2E4
  3
JitterOff
350
1B2EA
  3
Linepattern
350
319D
  3
OverhangOff
350
1B2EB
  3
Realistic
350
3199
  3
Shaded
350
1B2E9
  3
Shaded with edges
350
1B2E8
  3
Shades of Gray
350
1B2E5
  3
Sketchy
350
1B2E6
  3
Thicken
350
319C
  3
Wireframe
350
1B2E3
  3
X-Ray
350
1B2E7
  0
XRECORD
  5
22108
102
{ACAD_REACTORS
330
3182
102
}
330
3182
100
AcDbXrecord
280
     1
 90
        1
330
31A2
  0
DICTIONARY
  5
33A3
102
{ACAD_REACTORS
330
3182
102
}
330
3182
100
AcDbDictionary
281
     1
  3
CANNOSCALE
350
1B222
  3
CMLEADERSTYLE
350
1B30F
  3
CTABLESTYLE
350
33A4
  3
CVIEWDETAILSTYLE
350
1B310
  3
CVIEWSECTIONSTYLE
350
1B311
  3
DIMASSOC
350
9BE8
  3
INDEXCTL
350
9BE7
  3
LAYEREVAL
350
20993
  3
LAYERNOTIFY
350
20994
  3
LIGHTINGUNITS
350
20992
  3
MSLTSCALE
350
20991
  3
SORTENTS
350
9BE6
  0
DICTIONARY
  5
1B063
102
{ACAD_REACTORS
330
422A
102
}
330
422A
100
AcDbDictionary
281
     1
  0
DICTIONARY
  5
9A1C
102
{ACAD_REACTORS
330
422A
102
}
330
422A
100
AcDbDictionary
281
     1
  0
DICTIONARY
  5
1B062
102
{ACAD_REACTORS
330
422A
102
}
330
422A
100
AcDbDictionary
281
     1
1001
ACAD
1000
<All
  0
XRECORD
  5
21B8E
102
{ACAD_REACTORS
330
1B2F5
102
}
330
1B2F5
100
AcDbXrecord
280
     1
290
     1
  0
XRECORD
  5
21B8F
102
{ACAD_REACTORS
330
1B2F7
102
}
330
1B2F7
100
AcDbXrecord
280
     1
290
     1
  0
XRECORD
  5
21B90
102
{ACAD_REACTORS
330
1B2F9
102
}
330
1B2F9
100
AcDbXrecord
280
     1
290
     1
  0
XRECORD
  5
21B91
102
{ACAD_REACTORS
330
1B2FB
102
}
330
1B2FB
100
AcDbXrecord
280
     1
290
     1
  0
XRECORD
  5
21B92
102
{ACAD_REACTORS
330
1B2FD
102
}
330
1B2FD
100
AcDbXrecord
280
     1
290
     1
  0
XRECORD
  5
21B93
102
{ACAD_REACTORS
330
1B2FF
102
}
330
1B2FF
100
AcDbXrecord
280
     1
290
     1
  0
XRECORD
  5
21B94
102
{ACAD_REACTORS
330
1B301
102
}
330
1B301
100
AcDbXrecord
280
     1
290
     1
  0
XRECORD
  5
21B95
102
{ACAD_REACTORS
330
1B303
102
}
330
1B303
100
AcDbXrecord
280
     1
290
     1
  0
XRECORD
  5
21B96
102
{ACAD_REACTORS
330
1B305
102
}
330
1B305
100
AcDbXrecord
280
     1
290
     1
  0
XRECORD
  5
21B97
102
{ACAD_REACTORS
330
1B307
102
}
330
1B307
100
AcDbXrecord
280
     1
290
     1
  0
XRECORD
  5
21B98
102
{ACAD_REACTORS
330
1B309
102
}
330
1B309
100
AcDbXrecord
280
     1
290
     1
  0
SORTENTSTABLE
  5
339D
102
{ACAD_REACTORS
330
339C
102
}
330
339C
100
AcDbSortentsTable
330
1F
331
21EB0
  5
21ECC
331
21EA1
  5
21EBD
331
21E83
  5
21E97
331
21F1B
  5
220C2
331
21E5B
  5
21E68
331
21F0C
  5
21F28
331
21E4C
  5
21E59
331
21E65
  5
21E72
331
21EFD
  5
21F19
331
21E3D
  5
21E4B
331
21EEE
  5
21F0A
331
21E2E
  5
21E37
331
21EDF
  5
21EFB
331
21E10
  5
21E18
331
21ECC
  5
21EE8
331
21EBD
  5
21ED9
331
21EAE
  5
21ECA
331
21E9F
  5
21EBB
331
21E01
  5
21E01
331
211A0
  5
211A0
331
21E60
  5
21E6D
331
21EF8
  5
21F14
331
21E38
  5
21E48
331
21EE9
  5
21F05
331
21E29
  5
21E32
331
21EDA
  5
21EF6
331
21E1A
  5
21E23
331
21E0B
  5
21E10
331
21ED6
  5
21EF2
331
21EC7
  5
21EE3
331
21EB8
  5
21ED4
331
21EA9
  5
21EC5
331
21E9A
  5
21EB6
331
21F23
  5
220D0
331
21E8B
  5
21E9F
331
21E7C
  5
21E90
331
21F14
  5
220BB
331
21E54
  5
21E61
331
21E6D
  5
21E81
331
21F05
  5
21F21
331
21E45
  5
21E52
331
21EF6
  5
21F12
331
21EE7
  5
21F03
331
21E27
  5
21E30
331
21E36
  5
21E43
331
21DFC
  5
21DFC
331
21ED1
  5
21EED
331
21EC2
  5
21EDE
331
21EB3
  5
21ECF
331
21EA4
  5
21EC0
331
21E86
  5
21E9A
331
21F1E
  5
220C5
331
21E5E
  5
21E6B
331
21F0F
  5
220B6
331
21E4F
  5
21E5C
331
21E68
  5
21E7C
331
21F00
  5
21F1C
331
21E40
  5
21E4D
331
21EF1
  5
21F0D
331
21E31
  5
21E3D
331
21EE2
  5
21EFE
331
21E22
  5
21E2B
331
21ECF
  5
21EEB
331
21E13
  5
21E1A
331
21F28
  5
220D5
331
21E81
  5
21E95
331
21F19
  5
220C0
331
21E59
  5
21E66
331
21E72
  5
21E8C
331
21F0A
  5
21F26
331
21E4A
  5
21E57
331
21EFB
  5
21F17
331
21E63
  5
21E70
331
21EEC
  5
21F08
331
21E2C
  5
21E35
331
21EDD
  5
21EF9
331
21E1D
  5
21E28
331
21ECA
  5
21EE6
331
21EBB
  5
21ED7
331
21EAC
  5
21EC8
331
21E9D
  5
21EB9
331
21F26
  5
220D3
331
21E8E
  5
21EB1
331
21E7F
  5
21E93
331
21F17
  5
220BE
331
21E57
  5
21E64
331
21DFF
  5
21DFF
331
21ED8
  5
21EF4
331
21E18
  5
21E21
331
21ED4
  5
21EF0
331
21EC5
  5
21EE1
331
21EB6
  5
21ED2
331
21EA7
  5
21EC3
331
21E98
  5
21EB4
331
21F21
  5
220CE
331
21E89
  5
21E9D
331
21E7A
  5
21E8E
331
21F12
  5
220B9
331
21E6B
  5
21E7F
331
21F03
  5
21F1F
331
21E43
  5
21E50
331
21EF4
  5
21F10
331
21E34
  5
21E41
331
21EE5
  5
21F01
331
21E25
  5
21E2E
331
21E16
  5
21E1D
331
21E52
  5
21E5F
331
21EC0
  5
21EDC
331
21EB1
  5
21ECD
331
21EA2
  5
21EBE
331
21E84
  5
21E98
331
21F1C
  5
220C3
331
220CC
  5
21EB2
331
21E5C
  5
21E69
331
21F0D
  5
220B4
331
21E4D
  5
21E5A
331
21EFE
  5
21F1A
331
21E66
  5
21E7A
331
21EEF
  5
21F0B
331
21E2F
  5
21E38
331
21EE0
  5
21EFC
331
21E11
  5
21E19
331
21ECD
  5
21EE9
331
21EBE
  5
21EDA
331
21EAF
  5
21ECB
331
21E02
  5
21E02
331
21E70
  5
21E84
331
21F08
  5
21F24
331
21E48
  5
21E55
331
21EF9
  5
21F15
331
21E61
  5
21E6E
331
21EEA
  5
21F06
331
21E2A
  5
21E33
331
21EDB
  5
21EF7
331
21E1B
  5
21E24
331
21E0C
  5
21E11
331
21ED7
  5
21EF3
331
21EC8
  5
21EE4
331
21EB9
  5
21ED5
331
21EAA
  5
21EC6
331
21E9B
  5
21EB7
331
21F24
  5
220D1
331
21E8C
  5
21EA0
331
21F15
  5
220BC
331
21E55
  5
21E62
331
21E7D
  5
21E91
331
21E6E
  5
21E82
331
21F06
  5
21F22
331
21E46
  5
21E53
331
21EF7
  5
21F13
331
21E37
  5
21E47
331
21DFD
  5
21DFD
331
21ED2
  5
21EEE
331
21EC3
  5
21EDF
331
21EB4
  5
21ED0
331
21EA5
  5
21EC1
331
220B4
  5
21E8D
331
21E87
  5
21E9B
331
21F1F
  5
220CC
331
21E5F
  5
21E6C
331
21F10
  5
220B7
331
21E50
  5
21E5D
331
21E69
  5
21E7D
331
21F01
  5
21F1D
331
21E41
  5
21E4E
331
21EF2
  5
21F0E
331
21E32
  5
21E3F
331
21EE3
  5
21EFF
331
21E23
  5
21E2C
331
21E14
  5
21E1B
331
21EA0
  5
21EBC
331
21E82
  5
21E96
331
21F1A
  5
220C1
331
21E5A
  5
21E67
331
21F0B
  5
21F27
331
21E4B
  5
21E58
331
21E64
  5
21E71
331
21EFC
  5
21F18
331
21E3C
  5
21E4A
331
21EED
  5
21F09
331
21E2D
  5
21E36
331
21EDE
  5
21EFA
331
21E1E
  5
21E29
331
21E0F
  5
21E16
331
21ECB
  5
21EE7
331
21EBC
  5
21ED8
331
21EAD
  5
21EC9
331
21F27
  5
220D4
331
21E9E
  5
21EBA
331
21E00
  5
21E00
331
21EE8
  5
21F04
331
21E28
  5
21E31
331
21ED9
  5
21EF5
331
21E19
  5
21E22
331
21E0A
  5
21E0F
331
21ED5
  5
21EF1
331
21EC6
  5
21EE2
331
21EB7
  5
21ED3
331
21EA8
  5
21EC4
331
21E99
  5
21EB5
331
21F22
  5
220CF
331
21E8A
  5
21E9E
331
21E7B
  5
21E8F
331
21F13
  5
220BA
331
21E53
  5
21E60
331
21E6C
  5
21E80
331
21F04
  5
21F20
331
21E44
  5
21E51
331
21EF5
  5
21F11
331
21E35
  5
21E42
331
21EE6
  5
21F02
331
21E17
  5
21E1E
331
21E26
  5
21E2F
331
21DFB
  5
21DFB
331
21ED0
  5
21EEC
331
21EC1
  5
21EDD
331
21EB2
  5
21ECE
331
21EA3
  5
21EBF
331
21E85
  5
21E99
331
21F1D
  5
220C4
331
21E5D
  5
21E6A
331
21F0E
  5
220B5
331
21E4E
  5
21E5B
331
21E67
  5
21E7B
331
21EFF
  5
21F1B
331
21E3F
  5
21E4C
331
21EF0
  5
21F0C
331
21E30
  5
21E3C
331
21EE1
  5
21EFD
331
21E21
  5
21E2A
331
21ECE
  5
21EEA
331
21EBF
  5
21EDB
331
21E03
  5
21E03
331
21E80
  5
21E94
331
21F18
  5
220BF
331
21E58
  5
21E65
331
21E71
  5
21E8B
331
21F09
  5
21F25
331
21E49
  5
21E56
331
21EFA
  5
21F16
331
21E62
  5
21E6F
331
21EEB
  5
21F07
331
21E2B
  5
21E34
331
21EDC
  5
21EF8
331
21E1C
  5
21E25
331
21E0D
  5
21E15
331
21EC9
  5
21EE5
331
21EBA
  5
21ED6
331
21EAB
  5
21EC7
331
21E9C
  5
21EB8
331
21E8D
  5
21EA9
331
21F25
  5
220D2
331
21E7E
  5
21E92
331
220D5
  5
21E0A
331
21F16
  5
220BD
331
21E56
  5
21E63
331
21E6F
  5
21E83
331
21F07
  5
21F23
331
21E47
  5
21E54
331
21DFE
  5
21DFE
331
21ED3
  5
21EEF
331
21E08
  5
21E0E
331
21EC4
  5
21EE0
331
21EB5
  5
21ED1
331
21EA6
  5
21EC2
331
21E97
  5
21EB3
331
21F20
  5
220CD
331
21E88
  5
21E9C
331
21F11
  5
220B8
331
21E51
  5
21E5E
331
21E6A
  5
21E7E
331
21F02
  5
21F1E
331
21E42
  5
21E4F
331
21EF3
  5
21F0F
331
21E33
  5
21E40
331
21EE4
  5
21F00
331
21E24
  5
21E2D
331
21E15
  5
21E1C
331
21E06
  5
21E0C
331
21DF7
  5
21DF7
  0
ACDBDETAILVIEWSTYLE
  5
20CB3
102
{ACAD_XDICTIONARY
360
22143
102
}
102
{ACAD_REACTORS
330
1B2F0
102
}
330
1B2F0
100
AcDbModelDocViewStyle
 70
     0
  3
Imperial24
290
     0
100
AcDbDetailViewStyle
 70
     0
 71
     0
 90
        3
 71
     1
340
11
 62
   256
 40
0.24
340
0
 62
   256
 40
0.24
300

 40
0.36
280
     3
 71
     2
340
16
 90
       25
 62
   256
 71
     3
340
11
 62
   256
 40
0.24
 90
        1
 40
0.75
 90
        1
300
%<\AcVar ViewType \f "%tc1">% %<\AcVar ViewDetailId>%\PVARIA %<\AcVar ViewScale \f "%sn">%
 71
     4
340
16
 90
       25
 62
   256
340
16
 90
       25
 62
   256
280
     0
  0
ACDBDETAILVIEWSTYLE
  5
1B2F1
102
{ACAD_XDICTIONARY
360
2213F
102
}
102
{ACAD_REACTORS
330
1B2F0
102
}
330
1B2F0
100
AcDbModelDocViewStyle
 70
     0
  3
Metric50
290
     0
100
AcDbDetailViewStyle
 70
     0
 71
     0
 90
        3
 71
     1
340
11
 62
   256
 40
5.0
340
0
 62
   256
 40
5.0
300

 40
0.0
280
     1
 71
     2
340
16
 90
       25
 62
   256
 71
     3
340
11
 62
   256
 40
5.0
 90
        0
 40
15.0
 90
        1
300
%<\AcVar ViewDetailId>% (%<\AcVar ViewScale \f "%sn">%)
 71
     4
340
16
 90
       25
 62
   256
340
16
 90
       25
 62
   256
280
     0
  0
LAYOUT
  5
31A7
102
{ACAD_REACTORS
330
31A5
102
}
330
31A5
100
AcDbPlotSettings
  1

  2
\\ingdc01\ITB3
  4
A4
  6

 40
6.805083274841307
 41
5.027085781097412
 42
6.805068969726562
 43
5.027069091796875
 44
209.9733276367186
 45
296.9683227539062
 46
0.0
 47
0.0
 48
0.0
 49
0.0
140
0.0
141
0.0
142
1.0
143
1.0
 70
   688
 72
     1
 73
     1
 74
     5
  7

 75
    16
147
1.0
 76
     0
 77
     2
 78
   300
148
0.0
149
0.0
100
AcDbLayout
  1
Layout1
 70
     1
 71
     1
 10
-5.027069091796875
 20
-6.805083274841307
 11
291.9412536621094
 21
203.1682443618775
 12
0.0
 22
0.0
 32
0.0
 14
28.69141678810127
 24
19.6363175392151
 34
0.0
 15
258.2227510929107
 25
176.7268578529358
 35
0.0
146
0.0
 13
0.0
 23
0.0
 33
0.0
 16
1.0
 26
0.0
 36
0.0
 17
0.0
 27
1.0
 37
0.0
 76
     0
330
1B
331
9C00
1001
ACAD_PSEXT
1000
\\ingdc01\ITB3
1000
HP LaserJet 5000 Series PCL
1000
TB
1000

1070
     0
  0
LAYOUT
  5
31A6
102
{ACAD_REACTORS
330
31A5
102
}
330
31A5
100
AcDbPlotSettings
  1

  2
\\ingdc01\ITB3
  4
A4
  6

 40
6.805083274841307
 41
5.027085781097412
 42
6.805068969726562
 43
5.027069091796875
 44
209.9733276367186
 45
296.9683227539062
 46
0.0
 47
0.0
 48
0.0
 49
0.0
140
0.0
141
0.0
142
1.0
143
1.500313223655698
 70
 11952
 72
     1
 73
     1
 74
     0
  7

 75
     0
147
0.6665274852163048
 76
     0
 77
     2
 78
   300
148
239.0155119930048
149
102.2558208723354
100
AcDbLayout
  1
Model
 70
     1
 71
     0
 10
0.0
 20
0.0
 11
12.0
 21
9.0
 12
0.0
 22
0.0
 32
0.0
 14
0.0
 24
0.0
 34
0.0
 15
0.0
 25
0.0
 35
0.0
146
0.0
 13
0.0
 23
0.0
 33
0.0
 16
1.0
 26
0.0
 36
0.0
 17
0.0
 27
1.0
 37
0.0
 76
     0
330
1F
331
1F4
1001
ACAD_PSEXT
1000
\\ingdc01\ITB3
1000
HP LaserJet 5000 Series PCL
1000
TB
1000

1070
     0
  0
MATERIAL
  5
318D
102
{ACAD_XDICTIONARY
360
1B22B
102
}
102
{ACAD_REACTORS
330
318B
102
}
330
318B
100
AcDbMaterial
  1
ByBlock
  0
MATERIAL
  5
318C
102
{ACAD_XDICTIONARY
360
1B22D
102
}
102
{ACAD_REACTORS
330
318B
102
}
330
318B
100
AcDbMaterial
  1
ByLayer
  0
MATERIAL
  5
318E
102
{ACAD_XDICTIONARY
360
1B22F
102
}
102
{ACAD_REACTORS
330
318B
102
}
330
318B
100
AcDbMaterial
  1
Global
  0
MLEADERSTYLE
  5
1B2ED
102
{ACAD_REACTORS
330
1B221
102
}
330
1B221
100
AcDbMLeaderStyle
179
     2
170
     2
171
     1
172
     0
 90
        2
 40
0.0
 41
0.0
173
     1
 91
-1056964608
340
14
 92
       -2
290
     1
 42
2.0
291
     1
 43
0.36
  3
Standard
 44
4.0
300

342
11
174
     1
178
     6
175
     1
176
     0
 93
-1056964608
 45
4.0
292
     0
297
     0
 46
4.0
 94
-1056964608
 47
1.0
 49
1.0
140
1.0
293
     1
141
0.0
294
     1
177
     0
142
1.0
295
     0
296
     0
143
0.125
271
     0
272
     9
273
     9
1001
ACAD_MLEADERVER
1070
     2
  0
MLINESTYLE
  5
3185
102
{ACAD_REACTORS
330
3184
102
}
330
3184
100
AcDbMlineStyle
  2
STANDARD
 70
     0
  3

 62
   256
 51
90.0
 52
90.0
 71
     2
 49
0.5
 62
   256
  6
BYLAYER
 49
-0.5
 62
   256
  6
BYLAYER
  0
ACDBPLACEHOLDER
  5
318A
102
{ACAD_REACTORS
330
3189
102
}
330
3189
  0
SCALE
  5
1B1FD
102
{ACAD_REACTORS
330
1B1FC
102
}
330
1B1FC
100
AcDbScale
 70
     0
300
1:1
140
1.0
141
1.0
290
     1
1001
ACAD
1000
AcRTDxfName
1000
SCALE
  0
SCALE
  5
1B1FE
102
{ACAD_REACTORS
330
1B1FC
102
}
330
1B1FC
100
AcDbScale
 70
     0
300
1:2
140
1.0
141
2.0
290
     0
1001
ACAD
1000
AcRTDxfName
1000
SCALE
  0
SCALE
  5
1B1FF
102
{ACAD_REACTORS
330
1B1FC
102
}
330
1B1FC
100
AcDbScale
 70
     0
300
1:4
140
1.0
141
4.0
290
     0
1001
ACAD
1000
AcRTDxfName
1000
SCALE
  0
SCALE
  5
1B200
102
{ACAD_REACTORS
330
1B1FC
102
}
330
1B1FC
100
AcDbScale
 70
     0
300
1:5
140
1.0
141
5.0
290
     0
1001
ACAD
1000
AcRTDxfName
1000
SCALE
  0
SCALE
  5
1B201
102
{ACAD_REACTORS
330
1B1FC
102
}
330
1B1FC
100
AcDbScale
 70
     0
300
1:8
140
1.0
141
8.0
290
     0
1001
ACAD
1000
AcRTDxfName
1000
SCALE
  0
SCALE
  5
1B202
102
{ACAD_REACTORS
330
1B1FC
102
}
330
1B1FC
100
AcDbScale
 70
     0
300
1:10
140
1.0
141
10.0
290
     0
1001
ACAD
1000
AcRTDxfName
1000
SCALE
  0
SCALE
  5
1B203
102
{ACAD_REACTORS
330
1B1FC
102
}
330
1B1FC
100
AcDbScale
 70
     0
300
1:16
140
1.0
141
16.0
290
     0
1001
ACAD
1000
AcRTDxfName
1000
SCALE
  0
SCALE
  5
1B204
102
{ACAD_REACTORS
330
1B1FC
102
}
330
1B1FC
100
AcDbScale
 70
     0
300
1:20
140
1.0
141
20.0
290
     0
1001
ACAD
1000
AcRTDxfName
1000
SCALE
  0
SCALE
  5
1B205
102
{ACAD_REACTORS
330
1B1FC
102
}
330
1B1FC
100
AcDbScale
 70
     0
300
1:30
140
1.0
141
30.0
290
     0
1001
ACAD
1000
AcRTDxfName
1000
SCALE
  0
SCALE
  5
1B206
102
{ACAD_REACTORS
330
1B1FC
102
}
330
1B1FC
100
AcDbScale
 70
     0
300
1:40
140
1.0
141
40.0
290
     0
1001
ACAD
1000
AcRTDxfName
1000
SCALE
  0
SCALE
  5
1B207
102
{ACAD_REACTORS
330
1B1FC
102
}
330
1B1FC
100
AcDbScale
 70
     0
300
1:50
140
1.0
141
50.0
290
     0
1001
ACAD
1000
AcRTDxfName
1000
SCALE
  0
SCALE
  5
1B208
102
{ACAD_REACTORS
330
1B1FC
102
}
330
1B1FC
100
AcDbScale
 70
     0
300
1:100
140
1.0
141
100.0
290
     0
1001
ACAD
1000
AcRTDxfName
1000
SCALE
  0
SCALE
  5
1B209
102
{ACAD_REACTORS
330
1B1FC
102
}
330
1B1FC
100
AcDbScale
 70
     0
300
2:1
140
2.0
141
1.0
290
     0
1001
ACAD
1000
AcRTDxfName
1000
SCALE
  0
SCALE
  5
1B20A
102
{ACAD_REACTORS
330
1B1FC
102
}
330
1B1FC
100
AcDbScale
 70
     0
300
4:1
140
4.0
141
1.0
290
     0
1001
ACAD
1000
AcRTDxfName
1000
SCALE
  0
SCALE
  5
1B20B
102
{ACAD_REACTORS
330
1B1FC
102
}
330
1B1FC
100
AcDbScale
 70
     0
300
8:1
140
8.0
141
1.0
290
     0
1001
ACAD
1000
AcRTDxfName
1000
SCALE
  0
SCALE
  5
1B20C
102
{ACAD_REACTORS
330
1B1FC
102
}
330
1B1FC
100
AcDbScale
 70
     0
300
10:1
140
10.0
141
1.0
290
     0
1001
ACAD
1000
AcRTDxfName
1000
SCALE
  0
SCALE
  5
1B20D
102
{ACAD_REACTORS
330
1B1FC
102
}
330
1B1FC
100
AcDbScale
 70
     0
300
100:1
140
100.0
141
1.0
290
     0
1001
ACAD
1000
AcRTDxfName
1000
SCALE
  0
SCALE
  5
1B20E
102
{ACAD_REACTORS
330
1B1FC
102
}
330
1B1FC
100
AcDbScale
 70
     0
300
1/128" = 1'-0"
140
0.0078125
141
12.0
290
     0
1001
ACAD
1000
AcRTDxfName
1000
SCALE
  0
SCALE
  5
1B20F
102
{ACAD_REACTORS
330
1B1FC
102
}
330
1B1FC
100
AcDbScale
 70
     0
300
1/64" = 1'-0"
140
0.015625
141
12.0
290
     0
1001
ACAD
1000
AcRTDxfName
1000
SCALE
  0
SCALE
  5
1B210
102
{ACAD_REACTORS
330
1B1FC
102
}
330
1B1FC
100
AcDbScale
 70
     0
300
1/32" = 1'-0"
140
0.03125
141
12.0
290
     0
1001
ACAD
1000
AcRTDxfName
1000
SCALE
  0
SCALE
  5
1B211
102
{ACAD_REACTORS
330
1B1FC
102
}
330
1B1FC
100
AcDbScale
 70
     0
300
1/16" = 1'-0"
140
0.0625
141
12.0
290
     0
1001
ACAD
1000
AcRTDxfName
1000
SCALE
  0
SCALE
  5
1B212
102
{ACAD_REACTORS
330
1B1FC
102
}
330
1B1FC
100
AcDbScale
 70
     0
300
3/32" = 1'-0"
140
0.09375
141
12.0
290
     0
1001
ACAD
1000
AcRTDxfName
1000
SCALE
  0
SCALE
  5
1B213
102
{ACAD_REACTORS
330
1B1FC
102
}
330
1B1FC
100
AcDbScale
 70
     0
300
1/8" = 1'-0"
140
0.125
141
12.0
290
     0
1001
ACAD
1000
AcRTDxfName
1000
SCALE
  0
SCALE
  5
1B214
102
{ACAD_REACTORS
330
1B1FC
102
}
330
1B1FC
100
AcDbScale
 70
     0
300
3/16" = 1'-0"
140
0.1875
141
12.0
290
     0
1001
ACAD
1000
AcRTDxfName
1000
SCALE
  0
SCALE
  5
1B215
102
{ACAD_REACTORS
330
1B1FC
102
}
330
1B1FC
100
AcDbScale
 70
     0
300
1/4" = 1'-0"
140
0.25
141
12.0
290
     0
1001
ACAD
1000
AcRTDxfName
1000
SCALE
  0
SCALE
  5
1B216
102
{ACAD_REACTORS
330
1B1FC
102
}
330
1B1FC
100
AcDbScale
 70
     0
300
3/8" = 1'-0"
140
0.375
141
12.0
290
     0
1001
ACAD
1000
AcRTDxfName
1000
SCALE
  0
SCALE
  5
1B217
102
{ACAD_REACTORS
330
1B1FC
102
}
330
1B1FC
100
AcDbScale
 70
     0
300
1/2" = 1'-0"
140
0.5
141
12.0
290
     0
1001
ACAD
1000
AcRTDxfName
1000
SCALE
  0
SCALE
  5
1B218
102
{ACAD_REACTORS
330
1B1FC
102
}
330
1B1FC
100
AcDbScale
 70
     0
300
3/4" = 1'-0"
140
0.75
141
12.0
290
     0
1001
ACAD
1000
AcRTDxfName
1000
SCALE
  0
SCALE
  5
1B219
102
{ACAD_REACTORS
330
1B1FC
102
}
330
1B1FC
100
AcDbScale
 70
     0
300
1" = 1'-0"
140
1.0
141
12.0
290
     0
1001
ACAD
1000
AcRTDxfName
1000
SCALE
  0
SCALE
  5
1B21A
102
{ACAD_REACTORS
330
1B1FC
102
}
330
1B1FC
100
AcDbScale
 70
     0
300
1-1/2" = 1'-0"
140
1.5
141
12.0
290
     0
1001
ACAD
1000
AcRTDxfName
1000
SCALE
  0
SCALE
  5
1B21B
102
{ACAD_REACTORS
330
1B1FC
102
}
330
1B1FC
100
AcDbScale
 70
     0
300
3" = 1'-0"
140
3.0
141
12.0
290
     0
1001
ACAD
1000
AcRTDxfName
1000
SCALE
  0
SCALE
  5
1B21C
102
{ACAD_REACTORS
330
1B1FC
102
}
330
1B1FC
100
AcDbScale
 70
     0
300
6" = 1'-0"
140
6.0
141
12.0
290
     0
1001
ACAD
1000
AcRTDxfName
1000
SCALE
  0
SCALE
  5
1B21D
102
{ACAD_REACTORS
330
1B1FC
102
}
330
1B1FC
100
AcDbScale
 70
     0
300
1'-0" = 1'-0"
140
12.0
141
12.0
290
     0
1001
ACAD
1000
AcRTDxfName
1000
SCALE
  0
ACDBSECTIONVIEWSTYLE
  5
20CB1
102
{ACAD_XDICTIONARY
360
22141
102
}
102
{ACAD_REACTORS
330
1B2EE
102
}
330
1B2EE
100
AcDbModelDocViewStyle
 70
     0
  3
Imperial24
290
     0
100
AcDbSectionViewStyle
 70
     0
 71
     0
 90
       78
 71
     1
340
11
 62
   256
 40
0.24
340
0
340
0
 62
   256
 40
0.24
300
I, O, Q, S, X, Z
 40
0.48
 90
        3
 40
0.18
 90
        1
 71
     2
340
16
 90
       25
 62
   256
340
16
 90
       50
 62
   256
 40
0.24
 40
0.0
 40
0.24
 71
     3
340
11
 62
   256
 40
0.24
 90
        1
 40
0.75
 90
        1
300
%<\AcVar ViewType \f "%tc1">% %<\AcVar ViewSectionStartId>%-%<\AcVar ViewSectionEndId>%\PVARIA %<\AcVar ViewScale \f "%sn">%
 71
     4
 62
   256
 62
   257
300
ANSI31
 40
1.0
 90
        0
290
     0
290
     0
 90
        6
 40
0.0
 40
1.570796326794896
 40
0.2617993877991494
 40
1.308996938995747
 40
-0.2617993877991494
 40
1.832595714594044
  0
ACDBSECTIONVIEWSTYLE
  5
1B2EF
102
{ACAD_XDICTIONARY
360
2213D
102
}
102
{ACAD_REACTORS
330
1B2EE
102
}
330
1B2EE
100
AcDbModelDocViewStyle
 70
     0
  3
Metric50
290
     0
100
AcDbSectionViewStyle
 70
     0
 71
     0
 90
      102
 71
     1
340
11
 62
   256
 40
5.0
340
0
340
0
 62
   256
 40
5.0
300
I, O, Q, S, X, Z
 40
10.0
 90
        0
 40
2.5
 90
        0
 71
     2
340
16
 90
       25
 62
   256
340
16
 90
       50
 62
   256
 40
5.0
 40
2.5
 40
5.0
 71
     3
340
11
 62
   256
 40
5.0
 90
        0
 40
15.0
 90
        1
300
%<\AcVar ViewSectionStartId>%-%<\AcVar ViewSectionEndId>% (%<\AcVar ViewScale \f "%sn">%)
 71
     4
 62
   256
 62
   257
300
ANSI31
 40
1.0
 90
        0
290
     0
290
     0
 90
        6
 40
0.0
 40
1.570796326794896
 40
0.2617993877991494
 40
1.308996938995747
 40
-0.2617993877991494
 40
1.832595714594044
  0
TABLESTYLE
  5
31A2
102
{ACAD_XDICTIONARY
360
1B314
102
}
102
{ACAD_REACTORS
330
31A1
102
}
330
31A1
100
AcDbTableStyle
280
     0
  3
Standard
 70
     0
 71
     0
 40
1.5
 41
1.5
280
     0
281
     0
  7
STANDARD
140
4.5
170
     2
 62
     0
 63
     7
283
     0
 90
        4
 91
        0
  1

274
    -2
284
     1
 64
     0
275
    -2
285
     1
 65
     0
276
    -2
286
     1
 66
     0
277
    -2
287
     1
 67
     0
278
    -2
288
     1
 68
     0
279
    -2
289
     1
 69
     0
  7
STANDARD
140
6.0
170
     5
 62
     0
 63
     7
283
     0
 90
        4
 91
        0
  1

274
    -2
284
     1
 64
     0
275
    -2
285
     1
 65
     0
276
    -2
286
     1
 66
     0
277
    -2
287
     1
 67
     0
278
    -2
288
     1
 68
     0
279
    -2
289
     1
 69
     0
  7
STANDARD
140
4.5
170
     5
 62
     0
 63
     7
283
     0
 90
        4
 91
        0
  1

274
    -2
284
     1
 64
     0
275
    -2
285
     1
 65
     0
276
    -2
286
     1
 66
     0
277
    -2
287
     1
 67
     0
278
    -2
288
     1
 68
     0
279
    -2
289
     1
 69
     0
  0
VISUALSTYLE
  5
3195
102
{ACAD_XDICTIONARY
360
22113
102
}
102
{ACAD_REACTORS
330
318F
102
}
330
318F
100
AcDbVisualStyle
  2

 70
     4
177
     2
291
     0
 71
     0
176
     1
 72
     2
176
     1
 73
     0
176
     1
 90
        0
176
     1
 40
0.6
176
     1
 41
30.0
176
     1
 63
     7
176
     1
 74
     1
176
     1
 91
        4
176
     1
 64
     7
176
     1
 65
   257
176
     1
 75
     1
176
     1
175
     1
176
     1
 42
1.0
176
     1
 92
        0
176
     1
 66
   257
176
     1
 43
1.0
176
     1
 76
     1
176
     1
 77
     6
176
     1
 78
     2
176
     1
 67
     7
176
     1
 79
     5
176
     1
170
     0
176
     1
171
     0
176
     1
290
     0
176
     1
 93
        1
176
     1
 44
0.0
176
     1
173
     0
176
     1
1001
ACAD
1000
AcDbSavedByObjectVersion
1070
     0
  0
VISUALSTYLE
  5
3197
102
{ACAD_XDICTIONARY
360
22117
102
}
102
{ACAD_REACTORS
330
318F
102
}
330
318F
100
AcDbVisualStyle
  2

 70
     6
177
     2
291
     0
 71
     1
176
     1
 72
     2
176
     1
 73
     2
176
     1
 90
        0
176
     1
 40
0.6
176
     1
 41
30.0
176
     1
 63
     7
176
     1
 74
     2
176
     1
 91
        2
176
     1
 64
     7
176
     1
 65
   257
176
     1
 75
     2
176
     1
175
     1
176
     1
 42
40.0
176
     1
 92
        0
176
     1
 66
   257
176
     1
 43
1.0
176
     1
 76
     1
176
     1
 77
     6
176
     1
 78
     2
176
     1
 67
     7
176
     1
 79
     3
176
     1
170
     0
176
     1
171
     0
176
     1
290
     0
176
     1
 93
        1
176
     1
 44
0.0
176
     1
173
     0
176
     1
1001
ACAD
1000
AcDbSavedByObjectVersion
1070
     0
  0
VISUALSTYLE
  5
3196
102
{ACAD_XDICTIONARY
360
22115
102
}
102
{ACAD_REACTORS
330
318F
102
}
330
318F
100
AcDbVisualStyle
  2

 70
     5
177
     2
291
     0
 71
     0
176
     1
 72
     2
176
     1
 73
     0
176
     1
 90
        0
176
     1
 40
0.6
176
     1
 41
30.0
176
     1
 63
     7
176
     1
 74
     1
176
     1
 91
        4
176
     1
 64
     7
176
     1
 65
   257
176
     1
 75
     1
176
     1
175
     1
176
     1
 42
1.0
176
     1
 92
        0
176
     1
 66
   257
176
     1
 43
1.0
176
     1
 76
     1
176
     1
 77
     6
176
     1
 78
     2
176
     1
 67
     7
176
     1
 79
     5
176
     1
170
     0
176
     1
171
     0
176
     1
290
     0
176
     1
 93
        1
176
     1
 44
0.0
176
     1
173
     0
176
     1
1001
ACAD
1000
AcDbSavedByObjectVersion
1070
     0
  0
VISUALSTYLE
  5
3194
102
{ACAD_XDICTIONARY
360
22111
102
}
102
{ACAD_REACTORS
330
318F
102
}
330
318F
100
AcDbVisualStyle
  2

 70
     7
177
     2
291
     1
 71
     1
176
     1
 72
     0
176
     1
 73
     1
176
     1
 90
        0
176
     1
 40
0.6
176
     1
 41
30.0
176
     1
 63
     7
176
     1
 74
     0
176
     1
 91
        4
176
     1
 64
     7
176
     1
 65
   257
176
     1
 75
     1
176
     1
175
     1
176
     1
 42
1.0
176
     1
 92
        8
176
     1
 66
     7
176
     1
 43
1.0
176
     1
 76
     1
176
     1
 77
     6
176
     1
 78
     2
176
     1
 67
     7
176
     1
 79
     5
176
     1
170
     0
176
     1
171
     0
176
     1
290
     0
176
     1
 93
        1
176
     1
 44
0.0
176
     1
173
     0
176
     1
1001
ACAD
1000
AcDbSavedByObjectVersion
1070
     0
  0
VISUALSTYLE
  5
319B
102
{ACAD_XDICTIONARY
360
2211F
102
}
102
{ACAD_REACTORS
330
318F
102
}
330
318F
100
AcDbVisualStyle
  2

 70
    12
177
     2
291
     1
 71
     2
176
     1
 72
     2
176
     1
 73
     0
176
     1
 90
        0
176
     1
 40
0.6
176
     1
 41
30.0
176
     1
 63
     7
176
     1
 74
     1
176
     1
 91
        4
176
     1
 64
     7
176
     1
 65
   257
176
     1
 75
     1
176
     1
175
     1
176
     1
 42
1.0
176
     1
 92
        8
176
     1
 66
     7
176
     1
 43
1.0
176
     1
 76
     1
176
     1
 77
     6
176
     1
 78
     2
176
     1
 67
     7
176
     1
 79
     5
176
     1
170
     0
176
     1
171
     0
176
     1
290
     0
176
     1
 93
        1
176
     1
 44
50.0
176
     1
173
     0
176
     1
1001
ACAD
1000
AcDbSavedByObjectVersion
1070
     0
  0
VISUALSTYLE
  5
319F
102
{ACAD_XDICTIONARY
360
22127
102
}
102
{ACAD_REACTORS
330
318F
102
}
330
318F
100
AcDbVisualStyle
  2

 70
    16
177
     2
291
     1
 71
     2
176
     1
 72
     2
176
     1
 73
     3
176
     1
 90
        0
176
     1
 40
0.6
176
     1
 41
30.0
176
     1
 63
     8
176
     1
 74
     1
176
     1
 91
        4
176
     1
 64
     7
176
     1
 65
   257
176
     1
 75
     1
176
     1
175
     1
176
     1
 42
1.0
176
     1
 92
        8
176
     1
 66
     8
176
     1
 43
1.0
176
     1
 76
     1
176
     1
 77
     6
176
     1
 78
     2
176
     1
 67
     7
176
     1
 79
     5
176
     1
170
     0
176
     1
171
     0
176
     1
290
     0
176
     1
 93
        1
176
     1
 44
0.0
176
     1
173
     0
176
     1
1001
ACAD
1000
AcDbSavedByObjectVersion
1070
     0
  0
VISUALSTYLE
  5
3198
102
{ACAD_XDICTIONARY
360
22119
102
}
102
{ACAD_REACTORS
330
318F
102
}
330
318F
100
AcDbVisualStyle
  2

 70
     9
177
     2
291
     0
 71
     3
176
     1
 72
     2
176
     1
 73
     0
176
     1
 90
        0
176
     1
 40
0.6
176
     1
 41
30.0
176
     1
 63
     7
176
     1
 74
     2
176
     1
 91
        2
176
     1
 64
     7
176
     1
 65
   257
176
     1
 75
     1
176
     1
175
     1
176
     1
 42
40.0
176
     1
 92
        8
176
     1
 66
     7
176
     1
 43
1.0
176
     1
 76
     1
176
     1
 77
     6
176
     1
 78
     2
176
     1
 67
     7
176
     1
 79
     3
176
     1
170
     0
176
     1
171
     0
176
     1
290
     0
176
     1
 93
        1
176
     1
 44
0.0
176
     1
173
     0
176
     1
1001
ACAD
1000
AcDbSavedByObjectVersion
1070
     0
  0
VISUALSTYLE
  5
319A
102
{ACAD_XDICTIONARY
360
2211D
102
}
102
{ACAD_REACTORS
330
318F
102
}
330
318F
100
AcDbVisualStyle
  2

 70
    11
177
     2
291
     1
 71
     2
176
     1
 72
     2
176
     1
 73
     0
176
     1
 90
        0
176
     1
 40
0.6
176
     1
 41
30.0
176
     1
 63
     7
176
     1
 74
     1
176
     1
 91
        4
176
     1
 64
     7
176
     1
 65
   257
176
     1
 75
     1
176
     1
175
     1
176
     1
 42
1.0
176
     1
 92
        8
176
     1
 66
     7
176
     1
 43
1.0
176
     1
 76
     1
176
     1
 77
     6
176
     1
 78
     2
176
     1
 67
     7
176
     1
 79
     5
176
     1
170
     0
176
     1
171
     0
176
     1
290
     0
176
     1
 93
        1
176
     1
 44
-50.0
176
     1
173
     0
176
     1
1001
ACAD
1000
AcDbSavedByObjectVersion
1070
     0
  0
VISUALSTYLE
  5
1B2EC
102
{ACAD_XDICTIONARY
360
2213B
102
}
102
{ACAD_REACTORS
330
318F
102
}
330
318F
100
AcDbVisualStyle
  2

 70
    22
177
     2
291
     1
 71
     2
176
     0
 72
     2
176
     0
 73
     0
176
     0
 90
        0
176
     0
 40
0.6
176
     0
 41
30.0
176
     0
 63
     7
176
     0
 74
     1
176
     0
 91
        4
176
     0
 64
     7
176
     0
 65
   257
176
     0
 75
     1
176
     0
175
     1
176
     0
 42
1.0
176
     0
 92
        8
176
     2
 66
     7
176
     0
 43
1.0
176
     0
 76
     1
176
     0
 77
     6
176
     0
 78
     2
176
     0
 67
     7
176
     0
 79
     5
176
     0
170
     0
176
     0
171
     0
176
     0
290
     0
176
     0
 93
        1
176
     0
 44
0.0
176
     0
173
     0
176
     0
1001
ACAD
1000
AcDbSavedByObjectVersion
1070
     0
  0
VISUALSTYLE
  5
319E
102
{ACAD_XDICTIONARY
360
22125
102
}
102
{ACAD_REACTORS
330
318F
102
}
330
318F
100
AcDbVisualStyle
  2

 70
    15
177
     2
291
     1
 71
     2
176
     1
 72
     2
176
     1
 73
     0
176
     1
 90
        0
176
     1
 40
0.6
176
     1
 41
30.0
176
     1
 63
     7
176
     1
 74
     1
176
     1
 91
        4
176
     1
 64
     7
176
     1
 65
   257
176
     1
 75
     1
176
     1
175
     1
176
     1
 42
1.0
176
     1
 92
        8
176
     1
 66
     7
176
     1
 43
1.0
176
     1
 76
     1
176
     1
 77
     6
176
     1
 78
     2
176
     1
 67
     7
176
     1
 79
     5
176
     1
170
     0
176
     1
171
     0
176
     1
290
     0
176
     1
 93
        1
176
     1
 44
0.0
176
     1
173
     0
176
     1
1001
ACAD
1000
AcDbSavedByObjectVersion
1070
     0
  0
VISUALSTYLE
  5
3190
102
{ACAD_XDICTIONARY
360
22109
102
}
102
{ACAD_REACTORS
330
318F
102
}
330
318F
100
AcDbVisualStyle
  2

 70
     0
177
     2
291
     1
 71
     2
176
     1
 72
     1
176
     1
 73
     1
176
     1
 90
        2
176
     1
 40
0.6
176
     1
 41
30.0
176
     1
 63
     7
176
     1
 74
     0
176
     1
 91
        4
176
     1
 64
     7
176
     1
 65
   257
176
     1
 75
     1
176
     1
175
     1
176
     1
 42
1.0
176
     1
 92
        8
176
     1
 66
     7
176
     1
 43
1.0
176
     1
 76
     1
176
     1
 77
     6
176
     1
 78
     2
176
     1
 67
     7
176
     1
 79
     5
176
     1
170
     0
176
     1
171
     0
176
     1
290
     0
176
     1
 93
       13
176
     1
 44
0.0
176
     1
173
     0
176
     1
1001
ACAD
1000
AcDbSavedByObjectVersion
1070
     0
  0
VISUALSTYLE
  5
3191
102
{ACAD_XDICTIONARY
360
2210B
102
}
102
{ACAD_REACTORS
330
318F
102
}
330
318F
100
AcDbVisualStyle
  2

 70
     1
177
     2
291
     1
 71
     2
176
     1
 72
     1
176
     1
 73
     1
176
     1
 90
        2
176
     1
 40
0.6
176
     1
 41
30.0
176
     1
 63
     7
176
     1
 74
     1
176
     1
 91
        4
176
     1
 64
     7
176
     1
 65
   257
176
     1
 75
     1
176
     1
175
     1
176
     1
 42
1.0
176
     1
 92
        0
176
     1
 66
   257
176
     1
 43
1.0
176
     1
 76
     1
176
     1
 77
     6
176
     1
 78
     2
176
     1
 67
     7
176
     1
 79
     5
176
     1
170
     0
176
     1
171
     0
176
     1
290
     0
176
     1
 93
       13
176
     1
 44
0.0
176
     1
173
     0
176
     1
1001
ACAD
1000
AcDbSavedByObjectVersion
1070
     0
  0
VISUALSTYLE
  5
3192
102
{ACAD_XDICTIONARY
360
2210D
102
}
102
{ACAD_REACTORS
330
318F
102
}
330
318F
100
AcDbVisualStyle
  2

 70
     2
177
     2
291
     1
 71
     2
176
     1
 72
     2
176
     1
 73
     1
176
     1
 90
        2
176
     1
 40
0.6
176
     1
 41
30.0
176
     1
 63
     7
176
     1
 74
     0
176
     1
 91
        4
176
     1
 64
     7
176
     1
 65
   257
176
     1
 75
     1
176
     1
175
     1
176
     1
 42
1.0
176
     1
 92
        0
176
     1
 66
     7
176
     1
 43
1.0
176
     1
 76
     1
176
     1
 77
     6
176
     1
 78
     2
176
     1
 67
     7
176
     1
 79
     5
176
     1
170
     0
176
     1
171
     0
176
     1
290
     0
176
     1
 93
       13
176
     1
 44
0.0
176
     1
173
     0
176
     1
1001
ACAD
1000
AcDbSavedByObjectVersion
1070
     0
  0
VISUALSTYLE
  5
3193
102
{ACAD_XDICTIONARY
360
2210F
102
}
102
{ACAD_REACTORS
330
318F
102
}
330
318F
100
AcDbVisualStyle
  2

 70
     3
177
     2
291
     1
 71
     2
176
     1
 72
     2
176
     1
 73
     1
176
     1
 90
        2
176
     1
 40
0.6
176
     1
 41
30.0
176
     1
 63
     7
176
     1
 74
     1
176
     1
 91
        4
176
     1
 64
     7
176
     1
 65
   257
176
     1
 75
     1
176
     1
175
     1
176
     1
 42
1.0
176
     1
 92
        0
176
     1
 66
   257
176
     1
 43
1.0
176
     1
 76
     1
176
     1
 77
     6
176
     1
 78
     2
176
     1
 67
     7
176
     1
 79
     5
176
     1
170
     0
176
     1
171
     0
176
     1
290
     0
176
     1
 93
       13
176
     1
 44
0.0
176
     1
173
     0
176
     1
1001
ACAD
1000
AcDbSavedByObjectVersion
1070
     0
  0
VISUALSTYLE
  5
1B2E4
102
{ACAD_XDICTIONARY
360
2212B
102
}
102
{ACAD_REACTORS
330
318F
102
}
330
318F
100
AcDbVisualStyle
  2

 70
     6
177
     2
291
     0
 71
     1
176
     1
 72
     2
176
     1
 73
     2
176
     1
 90
        0
176
     1
 40
0.6
176
     1
 41
30.0
176
     1
 63
     7
176
     1
 74
     2
176
     1
 91
        2
176
     1
 64
     7
176
     1
 65
   257
176
     1
 75
     2
176
     1
175
     1
176
     1
 42
40.0
176
     1
 92
        0
176
     1
 66
   257
176
     1
 43
1.0
176
     1
 76
     1
176
     1
 77
     6
176
     1
 78
     2
176
     1
 67
     7
176
     1
 79
     3
176
     1
170
     0
176
     1
171
     0
176
     1
290
     0
176
     1
 93
        1
176
     1
 44
0.0
176
     1
173
     0
176
     1
1001
ACAD
1000
AcDbSavedByObjectVersion
1070
     0
  0
VISUALSTYLE
  5
1B2EA
102
{ACAD_XDICTIONARY
360
22137
102
}
102
{ACAD_REACTORS
330
318F
102
}
330
318F
100
AcDbVisualStyle
  2

 70
    20
177
     2
291
     1
 71
     2
176
     0
 72
     2
176
     0
 73
     0
176
     0
 90
        0
176
     0
 40
0.6
176
     0
 41
30.0
176
     0
 63
     7
176
     0
 74
     1
176
     0
 91
        4
176
     0
 64
     7
176
     0
 65
   257
176
     0
 75
     1
176
     0
175
     1
176
     0
 42
1.0
176
     0
 92
       10
176
     2
 66
     7
176
     0
 43
1.0
176
     0
 76
     1
176
     0
 77
     6
176
     0
 78
     2
176
     0
 67
     7
176
     0
 79
     5
176
     0
170
     0
176
     0
171
     0
176
     0
290
     0
176
     0
 93
        1
176
     0
 44
0.0
176
     0
173
     0
176
     0
1001
ACAD
1000
AcDbSavedByObjectVersion
1070
     0
  0
VISUALSTYLE
  5
319D
102
{ACAD_XDICTIONARY
360
22123
102
}
102
{ACAD_REACTORS
330
318F
102
}
330
318F
100
AcDbVisualStyle
  2

 70
    14
177
     2
291
     1
 71
     2
176
     1
 72
     2
176
     1
 73
     0
176
     1
 90
        0
176
     1
 40
0.6
176
     1
 41
30.0
176
     1
 63
     7
176
     1
 74
     1
176
     1
 91
        4
176
     1
 64
     7
176
     1
 65
   257
176
     1
 75
     7
176
     1
175
     7
176
     1
 42
1.0
176
     1
 92
        8
176
     1
 66
     7
176
     1
 43
1.0
176
     1
 76
     1
176
     1
 77
     6
176
     1
 78
     2
176
     1
 67
     7
176
     1
 79
     5
176
     1
170
     0
176
     1
171
     0
176
     1
290
     0
176
     1
 93
        1
176
     1
 44
0.0
176
     1
173
     0
176
     1
1001
ACAD
1000
AcDbSavedByObjectVersion
1070
     0
  0
VISUALSTYLE
  5
1B2EB
102
{ACAD_XDICTIONARY
360
22139
102
}
102
{ACAD_REACTORS
330
318F
102
}
330
318F
100
AcDbVisualStyle
  2

 70
    21
177
     2
291
     1
 71
     2
176
     0
 72
     2
176
     0
 73
     0
176
     0
 90
        0
176
     0
 40
0.6
176
     0
 41
30.0
176
     0
 63
     7
176
     0
 74
     1
176
     0
 91
        4
176
     0
 64
     7
176
     0
 65
   257
176
     0
 75
     1
176
     0
175
     1
176
     0
 42
1.0
176
     0
 92
        9
176
     2
 66
     7
176
     0
 43
1.0
176
     0
 76
     1
176
     0
 77
     6
176
     0
 78
     2
176
     0
 67
     7
176
     0
 79
     5
176
     0
170
     0
176
     0
171
     0
176
     0
290
     0
176
     0
 93
        1
176
     0
 44
0.0
176
     0
173
     0
176
     0
1001
ACAD
1000
AcDbSavedByObjectVersion
1070
     0
  0
VISUALSTYLE
  5
3199
102
{ACAD_XDICTIONARY
360
2211B
102
}
102
{ACAD_REACTORS
330
318F
102
}
330
318F
100
AcDbVisualStyle
  2

 70
     8
177
     2
291
     0
 71
     2
176
     1
 72
     2
176
     1
 73
     0
176
     1
 90
        0
176
     1
 40
0.6
176
     1
 41
30.0
176
     1
 63
     7
176
     1
 74
     1
176
     1
 91
        0
176
     1
 64
     7
176
     1
 65
   257
176
     1
 75
     1
176
     1
175
     1
176
     1
 42
1.0
176
     1
 92
        8
176
     1
 66
     8
176
     1
 43
1.0
176
     1
 76
     1
176
     1
 77
     6
176
     1
 78
     2
176
     1
 67
     7
176
     1
 79
     5
176
     1
170
     0
176
     1
171
     0
176
     1
290
     0
176
     1
 93
       13
176
     1
 44
0.0
176
     1
173
     0
176
     1
1001
ACAD
1000
AcDbSavedByObjectVersion
1070
     0
  0
VISUALSTYLE
  5
1B2E9
102
{ACAD_XDICTIONARY
360
22135
102
}
102
{ACAD_REACTORS
330
318F
102
}
330
318F
100
AcDbVisualStyle
  2

 70
    27
177
     2
291
     0
 71
     2
176
     1
 72
     2
176
     1
 73
     1
176
     1
 90
        2
176
     1
 40
0.6
176
     1
 41
30.0
176
     1
 63
     7
176
     1
 74
     0
176
     1
 91
        4
176
     1
 64
     7
176
     1
 65
   257
176
     1
 75
     1
176
     1
175
     1
176
     1
 42
1.0
176
     1
 92
        8
176
     1
 66
   257
176
     1
 43
1.0
176
     1
 76
     1
176
     1
 77
     6
176
     1
 78
     2
176
     1
 67
     8
176
     1
 79
     3
176
     1
170
     0
176
     1
171
     0
176
     1
290
     0
176
     1
 93
        5
176
     1
 44
0.0
176
     1
173
     0
176
     1
1001
ACAD
1000
AcDbSavedByObjectVersion
1070
     0
  0
VISUALSTYLE
  5
1B2E8
102
{ACAD_XDICTIONARY
360
22133
102
}
102
{ACAD_REACTORS
330
318F
102
}
330
318F
100
AcDbVisualStyle
  2

 70
    26
177
     2
291
     0
 71
     2
176
     1
 72
     2
176
     1
 73
     1
176
     1
 90
        2
176
     1
 40
0.6
176
     1
 41
30.0
176
     1
 63
     7
176
     1
 74
     1
176
     1
 91
       10
176
     1
 64
     7
176
     1
 65
   257
176
     1
 75
     2
176
     1
175
     1
176
     1
 42
1.0
176
     1
 92
        8
176
     1
 66
   257
176
     1
 43
1.0
176
     1
 76
     1
176
     1
 77
     6
176
     1
 78
     2
176
     1
 67
     7
176
     1
 79
     3
176
     1
170
     0
176
     1
171
     0
176
     1
290
     0
176
     1
 93
        5
176
     1
 44
0.0
176
     1
173
     0
176
     1
1001
ACAD
1000
AcDbSavedByObjectVersion
1070
     0
  0
VISUALSTYLE
  5
1B2E5
102
{ACAD_XDICTIONARY
360
2212D
102
}
102
{ACAD_REACTORS
330
318F
102
}
330
318F
100
AcDbVisualStyle
  2

 70
    23
177
     2
291
     0
 71
     2
176
     1
 72
     2
176
     1
 73
     3
176
     1
 90
        0
176
     1
 40
0.6
176
     1
 41
30.0
176
     1
 63
     7
176
     1
 74
     2
176
     1
 91
        2
176
     1
 64
     7
176
     1
 65
     7
176
     1
 75
     1
176
     1
175
     1
176
     1
 42
40.0
176
     1
 92
        8
176
     1
 66
     7
176
     1
 43
1.0
176
     1
 76
     1
176
     1
 77
     6
176
     1
 78
     2
176
     1
 67
     7
176
     1
 79
     3
176
     1
170
     0
176
     1
171
     0
176
     1
290
     0
176
     1
 93
        1
176
     1
 44
0.0
176
     1
173
     0
176
     1
1001
ACAD
1000
AcDbSavedByObjectVersion
1070
     0
  0
VISUALSTYLE
  5
1B2E6
102
{ACAD_XDICTIONARY
360
2212F
102
}
102
{ACAD_REACTORS
330
318F
102
}
330
318F
100
AcDbVisualStyle
  2

 70
    24
177
     2
291
     0
 71
     1
176
     1
 72
     2
176
     1
 73
     2
176
     1
 90
        0
176
     1
 40
0.6
176
     1
 41
30.0
176
     1
 63
     7
176
     1
 74
     2
176
     1
 91
        2
176
     1
 64
     7
176
     1
 65
     7
176
     1
 75
     1
176
     1
175
     1
176
     1
 42
40.0
176
     1
 92
       11
176
     1
 66
     7
176
     1
 43
1.0
176
     1
 76
     1
176
     1
 77
     6
176
     1
 78
     2
176
     1
 67
     7
176
     1
 79
     6
176
     1
170
     0
176
     1
171
     0
176
     1
290
     0
176
     1
 93
        1
176
     1
 44
0.0
176
     1
173
     0
176
     1
1001
ACAD
1000
AcDbSavedByObjectVersion
1070
     0
  0
VISUALSTYLE
  5
319C
102
{ACAD_XDICTIONARY
360
22121
102
}
102
{ACAD_REACTORS
330
318F
102
}
330
318F
100
AcDbVisualStyle
  2

 70
    13
177
     2
291
     1
 71
     2
176
     1
 72
     2
176
     1
 73
     0
176
     1
 90
        0
176
     1
 40
0.6
176
     1
 41
30.0
176
     1
 63
     7
176
     1
 74
     1
176
     1
 91
        4
176
     1
 64
     7
176
     1
 65
   257
176
     1
 75
     1
176
     1
175
     1
176
     1
 42
1.0
176
     1
 92
       12
176
     1
 66
     7
176
     1
 43
1.0
176
     1
 76
     1
176
     1
 77
     6
176
     1
 78
     2
176
     1
 67
     7
176
     1
 79
     5
176
     1
170
     0
176
     1
171
     0
176
     1
290
     0
176
     1
 93
        1
176
     1
 44
0.0
176
     1
173
     0
176
     1
1001
ACAD
1000
AcDbSavedByObjectVersion
1070
     0
  0
VISUALSTYLE
  5
1B2E3
102
{ACAD_XDICTIONARY
360
22129
102
}
102
{ACAD_REACTORS
330
318F
102
}
330
318F
100
AcDbVisualStyle
  2

 70
     5
177
     2
291
     0
 71
     0
176
     1
 72
     2
176
     1
 73
     0
176
     1
 90
        0
176
     1
 40
0.6
176
     1
 41
30.0
176
     1
 63
     7
176
     1
 74
     1
176
     1
 91
        4
176
     1
 64
     7
176
     1
 65
   257
176
     1
 75
     1
176
     1
175
     1
176
     1
 42
1.0
176
     1
 92
        0
176
     1
 66
   257
176
     1
 43
1.0
176
     1
 76
     1
176
     1
 77
     6
176
     1
 78
     2
176
     1
 67
     7
176
     1
 79
     3
176
     1
170
     0
176
     1
171
     0
176
     1
290
     0
176
     1
 93
        1
176
     1
 44
0.0
176
     1
173
     0
176
     1
1001
ACAD
1000
AcDbSavedByObjectVersion
1070
     0
  0
VISUALSTYLE
  5
1B2E7
102
{ACAD_XDICTIONARY
360
22131
102
}
102
{ACAD_REACTORS
330
318F
102
}
330
318F
100
AcDbVisualStyle
  2

 70
    25
177
     2
291
     0
 71
     2
176
     1
 72
     2
176
     1
 73
     1
176
     1
 90
        1
176
     1
 40
0.5
176
     1
 41
30.0
176
     1
 63
     7
176
     1
 74
     1
176
     1
 91
        0
176
     1
 64
     7
176
     1
 65
   257
176
     1
 75
     1
176
     1
175
     1
176
     1
 42
1.0
176
     1
 92
        8
176
     1
 66
     7
176
     1
 43
1.0
176
     1
 76
     1
176
     1
 77
     6
176
     1
 78
     2
176
     1
 67
     7
176
     1
 79
     3
176
     1
170
     0
176
     1
171
     0
176
     1
290
     0
176
     1
 93
       13
176
     1
 44
0.0
176
     1
173
     0
176
     1
1001
ACAD
1000
AcDbSavedByObjectVersion
1070
     0
  0
DICTIONARYVAR
  5
1B222
102
{ACAD_REACTORS
330
33A3
102
}
330
33A3
100
DictionaryVariables
280
     0
  1
1:1
  0
DICTIONARYVAR
  5
1B30F
102
{ACAD_REACTORS
330
33A3
102
}
330
33A3
100
DictionaryVariables
280
     0
  1
STANDARD
  0
DICTIONARYVAR
  5
33A4
102
{ACAD_REACTORS
330
33A3
102
}
330
33A3
100
DictionaryVariables
280
     0
  1
STANDARD
  0
DICTIONARYVAR
  5
1B310
102
{ACAD_REACTORS
330
33A3
102
}
330
33A3
100
DictionaryVariables
280
     0
  1
Metric50
  0
DICTIONARYVAR
  5
1B311
102
{ACAD_REACTORS
330
33A3
102
}
330
33A3
100
DictionaryVariables
280
     0
  1
Metric50
  0
DICTIONARYVAR
  5
9BE8
102
{ACAD_REACTORS
330
33A3
102
}
330
33A3
100
DictionaryVariables
280
     0
  1
1
  0
DICTIONARYVAR
  5
9BE7
102
{ACAD_REACTORS
330
33A3
102
}
330
33A3
100
DictionaryVariables
280
     0
  1
0
  0
DICTIONARYVAR
  5
20993
102
{ACAD_REACTORS
330
33A3
102
}
330
33A3
100
DictionaryVariables
280
     0
  1
1
  0
DICTIONARYVAR
  5
20994
102
{ACAD_REACTORS
330
33A3
102
}
330
33A3
100
DictionaryVariables
280
     0
  1
15
  0
DICTIONARYVAR
  5
20992
102
{ACAD_REACTORS
330
33A3
102
}
330
33A3
100
DictionaryVariables
280
     0
  1
0
  0
DICTIONARYVAR
  5
20991
102
{ACAD_REACTORS
330
33A3
102
}
330
33A3
100
DictionaryVariables
280
     0
  1
0
  0
DICTIONARYVAR
  5
9BE6
102
{ACAD_REACTORS
330
33A3
102
}
330
33A3
100
DictionaryVariables
280
     0
  1
127
  0
DICTIONARY
  5
22143
330
20CB3
100
AcDbDictionary
280
     1
281
     1
  3
ACAD_XREC_ROUNDTRIP
360
22144
  0
DICTIONARY
  5
2213F
330
1B2F1
100
AcDbDictionary
280
     1
281
     1
  3
ACAD_XREC_ROUNDTRIP
360
22140
  0
DICTIONARY
  5
1B22B
330
318D
100
AcDbDictionary
280
     1
281
     1
  3
ACAD_XREC_ROUNDTRIP
360
1B22C
  0
DICTIONARY
  5
1B22D
330
318C
100
AcDbDictionary
280
     1
281
     1
  3
ACAD_XREC_ROUNDTRIP
360
1B22E
  0
DICTIONARY
  5
1B22F
330
318E
100
AcDbDictionary
280
     1
281
     1
  3
ACAD_XREC_ROUNDTRIP
360
1B230
  0
DICTIONARY
  5
22141
330
20CB1
100
AcDbDictionary
280
     1
281
     1
  3
ACAD_XREC_ROUNDTRIP
360
22142
  0
DICTIONARY
  5
2213D
330
1B2EF
100
AcDbDictionary
280
     1
281
     1
  3
ACAD_XREC_ROUNDTRIP
360
2213E
  0
DICTIONARY
  5
1B314
330
31A2
100
AcDbDictionary
280
     1
281
     1
  3
ACAD_ROUNDTRIP_2008_TABLESTYLE_CELLSTYLEMAP
360
22107
  0
DICTIONARY
  5
22113
330
3195
100
AcDbDictionary
280
     1
281
     1
  3
ACAD_XREC_ROUNDTRIP
360
22114
  0
DICTIONARY
  5
22117
330
3197
100
AcDbDictionary
280
     1
281
     1
  3
ACAD_XREC_ROUNDTRIP
360
22118
  0
DICTIONARY
  5
22115
330
3196
100
AcDbDictionary
280
     1
281
     1
  3
ACAD_XREC_ROUNDTRIP
360
22116
  0
DICTIONARY
  5
22111
330
3194
100
AcDbDictionary
280
     1
281
     1
  3
ACAD_XREC_ROUNDTRIP
360
22112
  0
DICTIONARY
  5
2211F
330
319B
100
AcDbDictionary
280
     1
281
     1
  3
ACAD_XREC_ROUNDTRIP
360
22120
  0
DICTIONARY
  5
22127
330
319F
100
AcDbDictionary
280
     1
281
     1
  3
ACAD_XREC_ROUNDTRIP
360
22128
  0
DICTIONARY
  5
22119
330
3198
100
AcDbDictionary
280
     1
281
     1
  3
ACAD_XREC_ROUNDTRIP
360
2211A
  0
DICTIONARY
  5
2211D
330
319A
100
AcDbDictionary
280
     1
281
     1
  3
ACAD_XREC_ROUNDTRIP
360
2211E
  0
DICTIONARY
  5
2213B
330
1B2EC
100
AcDbDictionary
280
     1
281
     1
  3
ACAD_XREC_ROUNDTRIP
360
2213C
  0
DICTIONARY
  5
22125
330
319E
100
AcDbDictionary
280
     1
281
     1
  3
ACAD_XREC_ROUNDTRIP
360
22126
  0
DICTIONARY
  5
22109
330
3190
100
AcDbDictionary
280
     1
281
     1
  3
ACAD_XREC_ROUNDTRIP
360
2210A
  0
DICTIONARY
  5
2210B
330
3191
100
AcDbDictionary
280
     1
281
     1
  3
ACAD_XREC_ROUNDTRIP
360
2210C
  0
DICTIONARY
  5
2210D
330
3192
100
AcDbDictionary
280
     1
281
     1
  3
ACAD_XREC_ROUNDTRIP
360
2210E
  0
DICTIONARY
  5
2210F
330
3193
100
AcDbDictionary
280
     1
281
     1
  3
ACAD_XREC_ROUNDTRIP
360
22110
  0
DICTIONARY
  5
2212B
330
1B2E4
100
AcDbDictionary
280
     1
281
     1
  3
ACAD_XREC_ROUNDTRIP
360
2212C
  0
DICTIONARY
  5
22137
330
1B2EA
100
AcDbDictionary
280
     1
281
     1
  3
ACAD_XREC_ROUNDTRIP
360
22138
  0
DICTIONARY
  5
22123
330
319D
100
AcDbDictionary
280
     1
281
     1
  3
ACAD_XREC_ROUNDTRIP
360
22124
  0
DICTIONARY
  5
22139
330
1B2EB
100
AcDbDictionary
280
     1
281
     1
  3
ACAD_XREC_ROUNDTRIP
360
2213A
  0
DICTIONARY
  5
2211B
330
3199
100
AcDbDictionary
280
     1
281
     1
  3
ACAD_XREC_ROUNDTRIP
360
2211C
  0
DICTIONARY
  5
22135
330
1B2E9
100
AcDbDictionary
280
     1
281
     1
  3
ACAD_XREC_ROUNDTRIP
360
22136
  0
DICTIONARY
  5
22133
330
1B2E8
100
AcDbDictionary
280
     1
281
     1
  3
ACAD_XREC_ROUNDTRIP
360
22134
  0
DICTIONARY
  5
2212D
330
1B2E5
100
AcDbDictionary
280
     1
281
     1
  3
ACAD_XREC_ROUNDTRIP
360
2212E
  0
DICTIONARY
  5
2212F
330
1B2E6
100
AcDbDictionary
280
     1
281
     1
  3
ACAD_XREC_ROUNDTRIP
360
22130
  0
DICTIONARY
  5
22121
330
319C
100
AcDbDictionary
280
     1
281
     1
  3
ACAD_XREC_ROUNDTRIP
360
22122
  0
DICTIONARY
  5
22129
330
1B2E3
100
AcDbDictionary
280
     1
281
     1
  3
ACAD_XREC_ROUNDTRIP
360
2212A
  0
DICTIONARY
  5
22131
330
1B2E7
100
AcDbDictionary
280
     1
281
     1
  3
ACAD_XREC_ROUNDTRIP
360
22132
  0
XRECORD
  5
22144
102
{ACAD_REACTORS
330
22143
102
}
330
22143
100
AcDbXrecord
280
     1
102
DISPLAYNAME
  1
Imperial24
102
FLAGS
 90
        0
  0
XRECORD
  5
22140
102
{ACAD_REACTORS
330
2213F
102
}
330
2213F
100
AcDbXrecord
280
     1
102
DISPLAYNAME
  1
Metric50
102
FLAGS
 90
        0
  0
XRECORD
  5
1B22C
102
{ACAD_REACTORS
330
1B22B
102
}
330
1B22B
100
AcDbXrecord
280
     1
102
MATERIAL
148
0.0
149
0.0
149
0.0
 93
        0
 94
      127
282
     0
 72
     1
 77
     1
171
     1
175
     1
179
     1
273
     0
  0
XRECORD
  5
1B22E
102
{ACAD_REACTORS
330
1B22D
102
}
330
1B22D
100
AcDbXrecord
280
     1
102
MATERIAL
148
0.0
149
0.0
149
0.0
 93
        0
 94
      127
282
     0
 72
     1
 77
     1
171
     1
175
     1
179
     1
273
     0
  0
XRECORD
  5
1B230
102
{ACAD_REACTORS
330
1B22F
102
}
330
1B22F
100
AcDbXrecord
280
     1
102
MATERIAL
148
0.0
149
0.0
149
0.0
 93
        0
 94
      127
282
     0
 72
     1
 77
     1
171
     1
175
     1
179
     1
273
     0
  0
XRECORD
  5
22142
102
{ACAD_REACTORS
330
22141
102
}
330
22141
100
AcDbXrecord
280
     1
102
DISPLAYNAME
  1
Imperial24
102
FLAGS
 90
        0
  0
XRECORD
  5
2213E
102
{ACAD_REACTORS
330
2213D
102
}
330
2213D
100
AcDbXrecord
280
     1
102
DISPLAYNAME
  1
Metric50
102
FLAGS
 90
        0
  0
CELLSTYLEMAP
  5
22107
102
{ACAD_REACTORS
330
1B314
102
}
330
1B314
100
AcDbCellStyleMap
 90
        3
300
CELLSTYLE
  1
TABLEFORMAT_BEGIN
 90
        5
170
     1
 91
        0
 92
    32768
 62
   257
 93
        1
300
CONTENTFORMAT
  1
CONTENTFORMAT_BEGIN
 90
        0
 91
        0
 92
        4
 93
        0
300

 40
0.0
140
1.0
 94
        5
 62
     0
340
11
144
6.0
309
CONTENTFORMAT_END
171
     1
301
MARGIN
  1
CELLMARGIN_BEGIN
 40
1.5
 40
1.5
 40
1.5
 40
1.5
 40
0.18
 40
0.18
309
CELLMARGIN_END
 94
        6
 95
        1
302
GRIDFORMAT
  1
GRIDFORMAT_BEGIN
 90
        0
 91
        1
 62
     0
 92
       -2
340
0
 93
        0
 40
0.045
309
GRIDFORMAT_END
 95
        2
302
GRIDFORMAT
  1
GRIDFORMAT_BEGIN
 90
        0
 91
        1
 62
     0
 92
       -2
340
0
 93
        0
 40
0.045
309
GRIDFORMAT_END
 95
        4
302
GRIDFORMAT
  1
GRIDFORMAT_BEGIN
 90
        0
 91
        1
 62
     0
 92
       -2
340
0
 93
        0
 40
0.045
309
GRIDFORMAT_END
 95
        8
302
GRIDFORMAT
  1
GRIDFORMAT_BEGIN
 90
        0
 91
        1
 62
     0
 92
       -2
340
0
 93
        0
 40
0.045
309
GRIDFORMAT_END
 95
       16
302
GRIDFORMAT
  1
GRIDFORMAT_BEGIN
 90
        0
 91
        1
 62
     0
 92
       -2
340
0
 93
        0
 40
0.045
309
GRIDFORMAT_END
 95
       32
302
GRIDFORMAT
  1
GRIDFORMAT_BEGIN
 90
        0
 91
        1
 62
     0
 92
       -2
340
0
 93
        0
 40
0.045
309
GRIDFORMAT_END
309
TABLEFORMAT_END
  1
CELLSTYLE_BEGIN
 90
        1
 91
        1
300
_TITLE
309
CELLSTYLE_END
300
CELLSTYLE
  1
TABLEFORMAT_BEGIN
 90
        5
170
     1
 91
        0
 92
        0
 62
   257
 93
        1
300
CONTENTFORMAT
  1
CONTENTFORMAT_BEGIN
 90
        0
 91
        0
 92
        4
 93
        0
300

 40
0.0
140
1.0
 94
        5
 62
     0
340
11
144
4.5
309
CONTENTFORMAT_END
171
     1
301
MARGIN
  1
CELLMARGIN_BEGIN
 40
1.5
 40
1.5
 40
1.5
 40
1.5
 40
0.18
 40
0.18
309
CELLMARGIN_END
 94
        6
 95
        1
302
GRIDFORMAT
  1
GRIDFORMAT_BEGIN
 90
        0
 91
        1
 62
     0
 92
       -2
340
0
 93
        0
 40
0.045
309
GRIDFORMAT_END
 95
        2
302
GRIDFORMAT
  1
GRIDFORMAT_BEGIN
 90
        0
 91
        1
 62
     0
 92
       -2
340
0
 93
        0
 40
0.045
309
GRIDFORMAT_END
 95
        4
302
GRIDFORMAT
  1
GRIDFORMAT_BEGIN
 90
        0
 91
        1
 62
     0
 92
       -2
340
0
 93
        0
 40
0.045
309
GRIDFORMAT_END
 95
        8
302
GRIDFORMAT
  1
GRIDFORMAT_BEGIN
 90
        0
 91
        1
 62
     0
 92
       -2
340
0
 93
        0
 40
0.045
309
GRIDFORMAT_END
 95
       16
302
GRIDFORMAT
  1
GRIDFORMAT_BEGIN
 90
        0
 91
        1
 62
     0
 92
       -2
340
0
 93
        0
 40
0.045
309
GRIDFORMAT_END
 95
       32
302
GRIDFORMAT
  1
GRIDFORMAT_BEGIN
 90
        0
 91
        1
 62
     0
 92
       -2
340
0
 93
        0
 40
0.045
309
GRIDFORMAT_END
309
TABLEFORMAT_END
  1
CELLSTYLE_BEGIN
 90
        2
 91
        1
300
_HEADER
309
CELLSTYLE_END
300
CELLSTYLE
  1
TABLEFORMAT_BEGIN
 90
        5
170
     1
 91
        0
 92
        0
 62
   257
 93
        1
300
CONTENTFORMAT
  1
CONTENTFORMAT_BEGIN
 90
        0
 91
        0
 92
        4
 93
        0
300

 40
0.0
140
1.0
 94
        2
 62
     0
340
11
144
4.5
309
CONTENTFORMAT_END
171
     1
301
MARGIN
  1
CELLMARGIN_BEGIN
 40
1.5
 40
1.5
 40
1.5
 40
1.5
 40
0.18
 40
0.18
309
CELLMARGIN_END
 94
        6
 95
        1
302
GRIDFORMAT
  1
GRIDFORMAT_BEGIN
 90
        0
 91
        1
 62
     0
 92
       -2
340
0
 93
        0
 40
0.045
309
GRIDFORMAT_END
 95
        2
302
GRIDFORMAT
  1
GRIDFORMAT_BEGIN
 90
        0
 91
        1
 62
     0
 92
       -2
340
0
 93
        0
 40
0.045
309
GRIDFORMAT_END
 95
        4
302
GRIDFORMAT
  1
GRIDFORMAT_BEGIN
 90
        0
 91
        1
 62
     0
 92
       -2
340
0
 93
        0
 40
0.045
309
GRIDFORMAT_END
 95
        8
302
GRIDFORMAT
  1
GRIDFORMAT_BEGIN
 90
        0
 91
        1
 62
     0
 92
       -2
340
0
 93
        0
 40
0.045
309
GRIDFORMAT_END
 95
       16
302
GRIDFORMAT
  1
GRIDFORMAT_BEGIN
 90
        0
 91
        1
 62
     0
 92
       -2
340
0
 93
        0
 40
0.045
309
GRIDFORMAT_END
 95
       32
302
GRIDFORMAT
  1
GRIDFORMAT_BEGIN
 90
        0
 91
        1
 62
     0
 92
       -2
340
0
 93
        0
 40
0.045
309
GRIDFORMAT_END
309
TABLEFORMAT_END
  1
CELLSTYLE_BEGIN
 90
        3
 91
        2
300
_DATA
309
CELLSTYLE_END
  0
XRECORD
  5
22114
102
{ACAD_REACTORS
330
22113
102
}
330
22113
100
AcDbXrecord
280
     1
102
RTVSPost2010Prop28
280
     1
102
RTVSPost2010PropOp28
 70
     1
102
RTVSPost2010Prop29
280
     1
102
RTVSPost2010PropOp29
 70
     1
102
RTVSPost2010Prop30
280
     0
102
RTVSPost2010PropOp30
 70
     1
102
RTVSPost2010Prop31
280
     0
102
RTVSPost2010PropOp31
 70
     1
102
RTVSPost2010Prop32
280
     0
102
RTVSPost2010PropOp32
 70
     1
102
RTVSPost2010Prop33
280
     0
102
RTVSPost2010PropOp33
 70
     1
102
RTVSPost2010Prop34
280
     0
102
RTVSPost2010PropOp34
 70
     1
102
RTVSPost2010Prop35
280
     0
102
RTVSPost2010PropOp35
 70
     1
102
RTVSPost2010Prop36
280
     0
102
RTVSPost2010PropOp36
 70
     1
102
RTVSPost2010Prop37
 90
       50
102
RTVSPost2010PropOp37
 70
     1
102
RTVSPost2010Prop38
140
0.0
102
RTVSPost2010PropOp38
 70
     1
102
RTVSPost2010Prop39
140
1.0
102
RTVSPost2010PropOp39
 70
     1
102
RTVSPost2010Prop40
 90
        0
102
RTVSPost2010PropOp40
 70
     1
102
RTVSPost2010Prop41ColorIndex
 90
       18
102
RTVSPost2010Prop41ColorRGB
 90
        0
102
RTVSPost2010PropOp41
 70
     1
102
RTVSPost2010Prop42
 90
       50
102
RTVSPost2010PropOp42
 70
     1
102
RTVSPost2010Prop43
 90
        3
102
RTVSPost2010PropOp43
 70
     1
102
RTVSPost2010Prop44ColorIndex
 90
        5
102
RTVSPost2010Prop44ColorRGB
 90
      255
102
RTVSPost2010PropOp44
 70
     1
102
RTVSPost2010Prop45
280
     0
102
RTVSPost2010PropOp45
 70
     1
102
RTVSPost2010Prop46
 90
       50
102
RTVSPost2010PropOp46
 70
     1
102
RTVSPost2010Prop47
 90
       50
102
RTVSPost2010PropOp47
 70
     1
102
RTVSPost2010Prop48
 90
       50
102
RTVSPost2010PropOp48
 70
     1
102
RTVSPost2010Prop49
280
     0
102
RTVSPost2010PropOp49
 70
     1
102
RTVSPost2010Prop50
 90
       50
102
RTVSPost2010PropOp50
 70
     1
102
RTVSPost2010Prop51ColorIndex
 90
      256
102
RTVSPost2010Prop51ColorRGB
 90
-16777216
102
RTVSPost2010PropOp51
 70
     0
102
RTVSPost2010Prop52
140
1.0
102
RTVSPost2010PropOp52
 70
     0
102
RTVSPost2010Prop53
 90
        2
102
RTVSPost2010PropOp53
 70
     1
102
RTVSPost2010Prop54
  1
strokes_ogs.tif
102
RTVSPost2010PropOp54
 70
     1
102
RTVSPost2010Prop55
280
     0
102
RTVSPost2010PropOp55
 70
     1
102
RTVSPost2010Prop56
140
1.0
102
RTVSPost2010PropOp56
 70
     1
102
RTVSPost2010Prop57
140
1.0
102
RTVSPost2010PropOp57
 70
     1
  0
XRECORD
  5
22118
102
{ACAD_REACTORS
330
22117
102
}
330
22117
100
AcDbXrecord
280
     1
102
RTVSPost2010Prop28
280
     0
102
RTVSPost2010PropOp28
 70
     1
102
RTVSPost2010Prop29
280
     1
102
RTVSPost2010PropOp29
 70
     1
102
RTVSPost2010Prop30
280
     1
102
RTVSPost2010PropOp30
 70
     1
102
RTVSPost2010Prop31
280
     0
102
RTVSPost2010PropOp31
 70
     1
102
RTVSPost2010Prop32
280
     0
102
RTVSPost2010PropOp32
 70
     1
102
RTVSPost2010Prop33
280
     0
102
RTVSPost2010PropOp33
 70
     1
102
RTVSPost2010Prop34
280
     0
102
RTVSPost2010PropOp34
 70
     1
102
RTVSPost2010Prop35
280
     0
102
RTVSPost2010PropOp35
 70
     1
102
RTVSPost2010Prop36
280
     0
102
RTVSPost2010PropOp36
 70
     1
102
RTVSPost2010Prop37
 90
       50
102
RTVSPost2010PropOp37
 70
     1
102
RTVSPost2010Prop38
140
0.0
102
RTVSPost2010PropOp38
 70
     1
102
RTVSPost2010Prop39
140
1.0
102
RTVSPost2010PropOp39
 70
     1
102
RTVSPost2010Prop40
 90
        0
102
RTVSPost2010PropOp40
 70
     1
102
RTVSPost2010Prop41ColorIndex
 90
       18
102
RTVSPost2010Prop41ColorRGB
 90
        0
102
RTVSPost2010PropOp41
 70
     1
102
RTVSPost2010Prop42
 90
       50
102
RTVSPost2010PropOp42
 70
     1
102
RTVSPost2010Prop43
 90
        3
102
RTVSPost2010PropOp43
 70
     1
102
RTVSPost2010Prop44ColorIndex
 90
        5
102
RTVSPost2010Prop44ColorRGB
 90
      255
102
RTVSPost2010PropOp44
 70
     1
102
RTVSPost2010Prop45
280
     0
102
RTVSPost2010PropOp45
 70
     1
102
RTVSPost2010Prop46
 90
       50
102
RTVSPost2010PropOp46
 70
     1
102
RTVSPost2010Prop47
 90
       50
102
RTVSPost2010PropOp47
 70
     1
102
RTVSPost2010Prop48
 90
       50
102
RTVSPost2010PropOp48
 70
     1
102
RTVSPost2010Prop49
280
     0
102
RTVSPost2010PropOp49
 70
     1
102
RTVSPost2010Prop50
 90
       50
102
RTVSPost2010PropOp50
 70
     1
102
RTVSPost2010Prop51ColorIndex
 90
      256
102
RTVSPost2010Prop51ColorRGB
 90
-16777216
102
RTVSPost2010PropOp51
 70
     0
102
RTVSPost2010Prop52
140
1.0
102
RTVSPost2010PropOp52
 70
     0
102
RTVSPost2010Prop53
 90
        2
102
RTVSPost2010PropOp53
 70
     1
102
RTVSPost2010Prop54
  1
strokes_ogs.tif
102
RTVSPost2010PropOp54
 70
     1
102
RTVSPost2010Prop55
280
     0
102
RTVSPost2010PropOp55
 70
     1
102
RTVSPost2010Prop56
140
1.0
102
RTVSPost2010PropOp56
 70
     1
102
RTVSPost2010Prop57
140
1.0
102
RTVSPost2010PropOp57
 70
     1
  0
XRECORD
  5
22116
102
{ACAD_REACTORS
330
22115
102
}
330
22115
100
AcDbXrecord
280
     1
102
RTVSPost2010Prop28
280
     0
102
RTVSPost2010PropOp28
 70
     1
102
RTVSPost2010Prop29
280
     1
102
RTVSPost2010PropOp29
 70
     1
102
RTVSPost2010Prop30
280
     1
102
RTVSPost2010PropOp30
 70
     1
102
RTVSPost2010Prop31
280
     0
102
RTVSPost2010PropOp31
 70
     1
102
RTVSPost2010Prop32
280
     0
102
RTVSPost2010PropOp32
 70
     1
102
RTVSPost2010Prop33
280
     0
102
RTVSPost2010PropOp33
 70
     1
102
RTVSPost2010Prop34
280
     0
102
RTVSPost2010PropOp34
 70
     1
102
RTVSPost2010Prop35
280
     0
102
RTVSPost2010PropOp35
 70
     1
102
RTVSPost2010Prop36
280
     0
102
RTVSPost2010PropOp36
 70
     1
102
RTVSPost2010Prop37
 90
       50
102
RTVSPost2010PropOp37
 70
     1
102
RTVSPost2010Prop38
140
0.0
102
RTVSPost2010PropOp38
 70
     1
102
RTVSPost2010Prop39
140
1.0
102
RTVSPost2010PropOp39
 70
     1
102
RTVSPost2010Prop40
 90
        0
102
RTVSPost2010PropOp40
 70
     1
102
RTVSPost2010Prop41ColorIndex
 90
       18
102
RTVSPost2010Prop41ColorRGB
 90
        0
102
RTVSPost2010PropOp41
 70
     1
102
RTVSPost2010Prop42
 90
       50
102
RTVSPost2010PropOp42
 70
     1
102
RTVSPost2010Prop43
 90
        3
102
RTVSPost2010PropOp43
 70
     1
102
RTVSPost2010Prop44ColorIndex
 90
        5
102
RTVSPost2010Prop44ColorRGB
 90
      255
102
RTVSPost2010PropOp44
 70
     1
102
RTVSPost2010Prop45
280
     0
102
RTVSPost2010PropOp45
 70
     1
102
RTVSPost2010Prop46
 90
       50
102
RTVSPost2010PropOp46
 70
     1
102
RTVSPost2010Prop47
 90
       50
102
RTVSPost2010PropOp47
 70
     1
102
RTVSPost2010Prop48
 90
       50
102
RTVSPost2010PropOp48
 70
     1
102
RTVSPost2010Prop49
280
     0
102
RTVSPost2010PropOp49
 70
     1
102
RTVSPost2010Prop50
 90
       50
102
RTVSPost2010PropOp50
 70
     1
102
RTVSPost2010Prop51ColorIndex
 90
      256
102
RTVSPost2010Prop51ColorRGB
 90
-16777216
102
RTVSPost2010PropOp51
 70
     0
102
RTVSPost2010Prop52
140
1.0
102
RTVSPost2010PropOp52
 70
     0
102
RTVSPost2010Prop53
 90
        2
102
RTVSPost2010PropOp53
 70
     1
102
RTVSPost2010Prop54
  1
strokes_ogs.tif
102
RTVSPost2010PropOp54
 70
     1
102
RTVSPost2010Prop55
280
     0
102
RTVSPost2010PropOp55
 70
     1
102
RTVSPost2010Prop56
140
1.0
102
RTVSPost2010PropOp56
 70
     1
102
RTVSPost2010Prop57
140
1.0
102
RTVSPost2010PropOp57
 70
     1
  0
XRECORD
  5
22112
102
{ACAD_REACTORS
330
22111
102
}
330
22111
100
AcDbXrecord
280
     1
102
RTVSPost2010Prop28
280
     0
102
RTVSPost2010PropOp28
 70
     1
102
RTVSPost2010Prop29
280
     1
102
RTVSPost2010PropOp29
 70
     1
102
RTVSPost2010Prop30
280
     1
102
RTVSPost2010PropOp30
 70
     1
102
RTVSPost2010Prop31
280
     0
102
RTVSPost2010PropOp31
 70
     1
102
RTVSPost2010Prop32
280
     0
102
RTVSPost2010PropOp32
 70
     1
102
RTVSPost2010Prop33
280
     0
102
RTVSPost2010PropOp33
 70
     1
102
RTVSPost2010Prop34
280
     0
102
RTVSPost2010PropOp34
 70
     1
102
RTVSPost2010Prop35
280
     0
102
RTVSPost2010PropOp35
 70
     1
102
RTVSPost2010Prop36
280
     0
102
RTVSPost2010PropOp36
 70
     1
102
RTVSPost2010Prop37
 90
       50
102
RTVSPost2010PropOp37
 70
     1
102
RTVSPost2010Prop38
140
0.0
102
RTVSPost2010PropOp38
 70
     1
102
RTVSPost2010Prop39
140
1.0
102
RTVSPost2010PropOp39
 70
     1
102
RTVSPost2010Prop40
 90
        0
102
RTVSPost2010PropOp40
 70
     1
102
RTVSPost2010Prop41ColorIndex
 90
       18
102
RTVSPost2010Prop41ColorRGB
 90
        0
102
RTVSPost2010PropOp41
 70
     1
102
RTVSPost2010Prop42
 90
       50
102
RTVSPost2010PropOp42
 70
     1
102
RTVSPost2010Prop43
 90
        3
102
RTVSPost2010PropOp43
 70
     1
102
RTVSPost2010Prop44ColorIndex
 90
        5
102
RTVSPost2010Prop44ColorRGB
 90
      255
102
RTVSPost2010PropOp44
 70
     1
102
RTVSPost2010Prop45
280
     0
102
RTVSPost2010PropOp45
 70
     1
102
RTVSPost2010Prop46
 90
       50
102
RTVSPost2010PropOp46
 70
     1
102
RTVSPost2010Prop47
 90
       50
102
RTVSPost2010PropOp47
 70
     1
102
RTVSPost2010Prop48
 90
       50
102
RTVSPost2010PropOp48
 70
     1
102
RTVSPost2010Prop49
280
     0
102
RTVSPost2010PropOp49
 70
     1
102
RTVSPost2010Prop50
 90
       50
102
RTVSPost2010PropOp50
 70
     1
102
RTVSPost2010Prop51ColorIndex
 90
      256
102
RTVSPost2010Prop51ColorRGB
 90
-16777216
102
RTVSPost2010PropOp51
 70
     0
102
RTVSPost2010Prop52
140
1.0
102
RTVSPost2010PropOp52
 70
     0
102
RTVSPost2010Prop53
 90
        2
102
RTVSPost2010PropOp53
 70
     1
102
RTVSPost2010Prop54
  1
strokes_ogs.tif
102
RTVSPost2010PropOp54
 70
     1
102
RTVSPost2010Prop55
280
     0
102
RTVSPost2010PropOp55
 70
     1
102
RTVSPost2010Prop56
140
1.0
102
RTVSPost2010PropOp56
 70
     1
102
RTVSPost2010Prop57
140
1.0
102
RTVSPost2010PropOp57
 70
     1
  0
XRECORD
  5
22120
102
{ACAD_REACTORS
330
2211F
102
}
330
2211F
100
AcDbXrecord
280
     1
102
RTVSPost2010Prop28
280
     0
102
RTVSPost2010PropOp28
 70
     1
102
RTVSPost2010Prop29
280
     1
102
RTVSPost2010PropOp29
 70
     1
102
RTVSPost2010Prop30
280
     1
102
RTVSPost2010PropOp30
 70
     1
102
RTVSPost2010Prop31
280
     0
102
RTVSPost2010PropOp31
 70
     1
102
RTVSPost2010Prop32
280
     0
102
RTVSPost2010PropOp32
 70
     1
102
RTVSPost2010Prop33
280
     0
102
RTVSPost2010PropOp33
 70
     1
102
RTVSPost2010Prop34
280
     0
102
RTVSPost2010PropOp34
 70
     1
102
RTVSPost2010Prop35
280
     0
102
RTVSPost2010PropOp35
 70
     1
102
RTVSPost2010Prop36
280
     0
102
RTVSPost2010PropOp36
 70
     1
102
RTVSPost2010Prop37
 90
       50
102
RTVSPost2010PropOp37
 70
     1
102
RTVSPost2010Prop38
140
0.0
102
RTVSPost2010PropOp38
 70
     1
102
RTVSPost2010Prop39
140
1.0
102
RTVSPost2010PropOp39
 70
     1
102
RTVSPost2010Prop40
 90
        0
102
RTVSPost2010PropOp40
 70
     1
102
RTVSPost2010Prop41ColorIndex
 90
       18
102
RTVSPost2010Prop41ColorRGB
 90
        0
102
RTVSPost2010PropOp41
 70
     1
102
RTVSPost2010Prop42
 90
       50
102
RTVSPost2010PropOp42
 70
     1
102
RTVSPost2010Prop43
 90
        3
102
RTVSPost2010PropOp43
 70
     1
102
RTVSPost2010Prop44ColorIndex
 90
        5
102
RTVSPost2010Prop44ColorRGB
 90
      255
102
RTVSPost2010PropOp44
 70
     1
102
RTVSPost2010Prop45
280
     0
102
RTVSPost2010PropOp45
 70
     1
102
RTVSPost2010Prop46
 90
       50
102
RTVSPost2010PropOp46
 70
     1
102
RTVSPost2010Prop47
 90
       50
102
RTVSPost2010PropOp47
 70
     1
102
RTVSPost2010Prop48
 90
       50
102
RTVSPost2010PropOp48
 70
     1
102
RTVSPost2010Prop49
280
     0
102
RTVSPost2010PropOp49
 70
     1
102
RTVSPost2010Prop50
 90
       50
102
RTVSPost2010PropOp50
 70
     1
102
RTVSPost2010Prop51ColorIndex
 90
      256
102
RTVSPost2010Prop51ColorRGB
 90
-16777216
102
RTVSPost2010PropOp51
 70
     0
102
RTVSPost2010Prop52
140
1.0
102
RTVSPost2010PropOp52
 70
     0
102
RTVSPost2010Prop53
 90
        2
102
RTVSPost2010PropOp53
 70
     1
102
RTVSPost2010Prop54
  1
strokes_ogs.tif
102
RTVSPost2010PropOp54
 70
     1
102
RTVSPost2010Prop55
280
     0
102
RTVSPost2010PropOp55
 70
     1
102
RTVSPost2010Prop56
140
1.0
102
RTVSPost2010PropOp56
 70
     1
102
RTVSPost2010Prop57
140
1.0
102
RTVSPost2010PropOp57
 70
     1
  0
XRECORD
  5
22128
102
{ACAD_REACTORS
330
22127
102
}
330
22127
100
AcDbXrecord
280
     1
102
RTVSPost2010Prop28
280
     0
102
RTVSPost2010PropOp28
 70
     1
102
RTVSPost2010Prop29
280
     1
102
RTVSPost2010PropOp29
 70
     1
102
RTVSPost2010Prop30
280
     1
102
RTVSPost2010PropOp30
 70
     1
102
RTVSPost2010Prop31
280
     0
102
RTVSPost2010PropOp31
 70
     1
102
RTVSPost2010Prop32
280
     0
102
RTVSPost2010PropOp32
 70
     1
102
RTVSPost2010Prop33
280
     0
102
RTVSPost2010PropOp33
 70
     1
102
RTVSPost2010Prop34
280
     0
102
RTVSPost2010PropOp34
 70
     1
102
RTVSPost2010Prop35
280
     0
102
RTVSPost2010PropOp35
 70
     1
102
RTVSPost2010Prop36
280
     0
102
RTVSPost2010PropOp36
 70
     1
102
RTVSPost2010Prop37
 90
       50
102
RTVSPost2010PropOp37
 70
     1
102
RTVSPost2010Prop38
140
0.0
102
RTVSPost2010PropOp38
 70
     1
102
RTVSPost2010Prop39
140
1.0
102
RTVSPost2010PropOp39
 70
     1
102
RTVSPost2010Prop40
 90
        0
102
RTVSPost2010PropOp40
 70
     1
102
RTVSPost2010Prop41ColorIndex
 90
       18
102
RTVSPost2010Prop41ColorRGB
 90
        0
102
RTVSPost2010PropOp41
 70
     1
102
RTVSPost2010Prop42
 90
       50
102
RTVSPost2010PropOp42
 70
     1
102
RTVSPost2010Prop43
 90
        3
102
RTVSPost2010PropOp43
 70
     1
102
RTVSPost2010Prop44ColorIndex
 90
        5
102
RTVSPost2010Prop44ColorRGB
 90
      255
102
RTVSPost2010PropOp44
 70
     1
102
RTVSPost2010Prop45
280
     0
102
RTVSPost2010PropOp45
 70
     1
102
RTVSPost2010Prop46
 90
       50
102
RTVSPost2010PropOp46
 70
     1
102
RTVSPost2010Prop47
 90
       50
102
RTVSPost2010PropOp47
 70
     1
102
RTVSPost2010Prop48
 90
       50
102
RTVSPost2010PropOp48
 70
     1
102
RTVSPost2010Prop49
280
     0
102
RTVSPost2010PropOp49
 70
     1
102
RTVSPost2010Prop50
 90
       50
102
RTVSPost2010PropOp50
 70
     1
102
RTVSPost2010Prop51ColorIndex
 90
      256
102
RTVSPost2010Prop51ColorRGB
 90
-16777216
102
RTVSPost2010PropOp51
 70
     0
102
RTVSPost2010Prop52
140
1.0
102
RTVSPost2010PropOp52
 70
     0
102
RTVSPost2010Prop53
 90
        2
102
RTVSPost2010PropOp53
 70
     1
102
RTVSPost2010Prop54
  1
strokes_ogs.tif
102
RTVSPost2010PropOp54
 70
     1
102
RTVSPost2010Prop55
280
     0
102
RTVSPost2010PropOp55
 70
     1
102
RTVSPost2010Prop56
140
1.0
102
RTVSPost2010PropOp56
 70
     1
102
RTVSPost2010Prop57
140
1.0
102
RTVSPost2010PropOp57
 70
     1
  0
XRECORD
  5
2211A
102
{ACAD_REACTORS
330
22119
102
}
330
22119
100
AcDbXrecord
280
     1
102
RTVSPost2010Prop28
280
     0
102
RTVSPost2010PropOp28
 70
     1
102
RTVSPost2010Prop29
280
     1
102
RTVSPost2010PropOp29
 70
     1
102
RTVSPost2010Prop30
280
     1
102
RTVSPost2010PropOp30
 70
     1
102
RTVSPost2010Prop31
280
     0
102
RTVSPost2010PropOp31
 70
     1
102
RTVSPost2010Prop32
280
     0
102
RTVSPost2010PropOp32
 70
     1
102
RTVSPost2010Prop33
280
     0
102
RTVSPost2010PropOp33
 70
     1
102
RTVSPost2010Prop34
280
     0
102
RTVSPost2010PropOp34
 70
     1
102
RTVSPost2010Prop35
280
     0
102
RTVSPost2010PropOp35
 70
     1
102
RTVSPost2010Prop36
280
     0
102
RTVSPost2010PropOp36
 70
     1
102
RTVSPost2010Prop37
 90
       50
102
RTVSPost2010PropOp37
 70
     1
102
RTVSPost2010Prop38
140
0.0
102
RTVSPost2010PropOp38
 70
     1
102
RTVSPost2010Prop39
140
1.0
102
RTVSPost2010PropOp39
 70
     1
102
RTVSPost2010Prop40
 90
        0
102
RTVSPost2010PropOp40
 70
     1
102
RTVSPost2010Prop41ColorIndex
 90
       18
102
RTVSPost2010Prop41ColorRGB
 90
        0
102
RTVSPost2010PropOp41
 70
     1
102
RTVSPost2010Prop42
 90
       50
102
RTVSPost2010PropOp42
 70
     1
102
RTVSPost2010Prop43
 90
        3
102
RTVSPost2010PropOp43
 70
     1
102
RTVSPost2010Prop44ColorIndex
 90
        5
102
RTVSPost2010Prop44ColorRGB
 90
      255
102
RTVSPost2010PropOp44
 70
     1
102
RTVSPost2010Prop45
280
     0
102
RTVSPost2010PropOp45
 70
     1
102
RTVSPost2010Prop46
 90
       50
102
RTVSPost2010PropOp46
 70
     1
102
RTVSPost2010Prop47
 90
       50
102
RTVSPost2010PropOp47
 70
     1
102
RTVSPost2010Prop48
 90
       50
102
RTVSPost2010PropOp48
 70
     1
102
RTVSPost2010Prop49
280
     0
102
RTVSPost2010PropOp49
 70
     1
102
RTVSPost2010Prop50
 90
       50
102
RTVSPost2010PropOp50
 70
     1
102
RTVSPost2010Prop51ColorIndex
 90
      256
102
RTVSPost2010Prop51ColorRGB
 90
-16777216
102
RTVSPost2010PropOp51
 70
     0
102
RTVSPost2010Prop52
140
1.0
102
RTVSPost2010PropOp52
 70
     0
102
RTVSPost2010Prop53
 90
        2
102
RTVSPost2010PropOp53
 70
     1
102
RTVSPost2010Prop54
  1
strokes_ogs.tif
102
RTVSPost2010PropOp54
 70
     1
102
RTVSPost2010Prop55
280
     0
102
RTVSPost2010PropOp55
 70
     1
102
RTVSPost2010Prop56
140
1.0
102
RTVSPost2010PropOp56
 70
     1
102
RTVSPost2010Prop57
140
1.0
102
RTVSPost2010PropOp57
 70
     1
  0
XRECORD
  5
2211E
102
{ACAD_REACTORS
330
2211D
102
}
330
2211D
100
AcDbXrecord
280
     1
102
RTVSPost2010Prop28
280
     0
102
RTVSPost2010PropOp28
 70
     1
102
RTVSPost2010Prop29
280
     1
102
RTVSPost2010PropOp29
 70
     1
102
RTVSPost2010Prop30
280
     1
102
RTVSPost2010PropOp30
 70
     1
102
RTVSPost2010Prop31
280
     0
102
RTVSPost2010PropOp31
 70
     1
102
RTVSPost2010Prop32
280
     0
102
RTVSPost2010PropOp32
 70
     1
102
RTVSPost2010Prop33
280
     0
102
RTVSPost2010PropOp33
 70
     1
102
RTVSPost2010Prop34
280
     0
102
RTVSPost2010PropOp34
 70
     1
102
RTVSPost2010Prop35
280
     0
102
RTVSPost2010PropOp35
 70
     1
102
RTVSPost2010Prop36
280
     0
102
RTVSPost2010PropOp36
 70
     1
102
RTVSPost2010Prop37
 90
       50
102
RTVSPost2010PropOp37
 70
     1
102
RTVSPost2010Prop38
140
0.0
102
RTVSPost2010PropOp38
 70
     1
102
RTVSPost2010Prop39
140
1.0
102
RTVSPost2010PropOp39
 70
     1
102
RTVSPost2010Prop40
 90
        0
102
RTVSPost2010PropOp40
 70
     1
102
RTVSPost2010Prop41ColorIndex
 90
       18
102
RTVSPost2010Prop41ColorRGB
 90
        0
102
RTVSPost2010PropOp41
 70
     1
102
RTVSPost2010Prop42
 90
       50
102
RTVSPost2010PropOp42
 70
     1
102
RTVSPost2010Prop43
 90
        3
102
RTVSPost2010PropOp43
 70
     1
102
RTVSPost2010Prop44ColorIndex
 90
        5
102
RTVSPost2010Prop44ColorRGB
 90
      255
102
RTVSPost2010PropOp44
 70
     1
102
RTVSPost2010Prop45
280
     0
102
RTVSPost2010PropOp45
 70
     1
102
RTVSPost2010Prop46
 90
       50
102
RTVSPost2010PropOp46
 70
     1
102
RTVSPost2010Prop47
 90
       50
102
RTVSPost2010PropOp47
 70
     1
102
RTVSPost2010Prop48
 90
       50
102
RTVSPost2010PropOp48
 70
     1
102
RTVSPost2010Prop49
280
     0
102
RTVSPost2010PropOp49
 70
     1
102
RTVSPost2010Prop50
 90
       50
102
RTVSPost2010PropOp50
 70
     1
102
RTVSPost2010Prop51ColorIndex
 90
      256
102
RTVSPost2010Prop51ColorRGB
 90
-16777216
102
RTVSPost2010PropOp51
 70
     0
102
RTVSPost2010Prop52
140
1.0
102
RTVSPost2010PropOp52
 70
     0
102
RTVSPost2010Prop53
 90
        2
102
RTVSPost2010PropOp53
 70
     1
102
RTVSPost2010Prop54
  1
strokes_ogs.tif
102
RTVSPost2010PropOp54
 70
     1
102
RTVSPost2010Prop55
280
     0
102
RTVSPost2010PropOp55
 70
     1
102
RTVSPost2010Prop56
140
1.0
102
RTVSPost2010PropOp56
 70
     1
102
RTVSPost2010Prop57
140
1.0
102
RTVSPost2010PropOp57
 70
     1
  0
XRECORD
  5
2213C
102
{ACAD_REACTORS
330
2213B
102
}
330
2213B
100
AcDbXrecord
280
     1
102
RTVSPost2010Prop28
280
     0
102
RTVSPost2010PropOp28
 70
     1
102
RTVSPost2010Prop29
280
     1
102
RTVSPost2010PropOp29
 70
     1
102
RTVSPost2010Prop30
280
     1
102
RTVSPost2010PropOp30
 70
     1
102
RTVSPost2010Prop31
280
     0
102
RTVSPost2010PropOp31
 70
     1
102
RTVSPost2010Prop32
280
     0
102
RTVSPost2010PropOp32
 70
     1
102
RTVSPost2010Prop33
280
     0
102
RTVSPost2010PropOp33
 70
     1
102
RTVSPost2010Prop34
280
     0
102
RTVSPost2010PropOp34
 70
     1
102
RTVSPost2010Prop35
280
     0
102
RTVSPost2010PropOp35
 70
     1
102
RTVSPost2010Prop36
280
     0
102
RTVSPost2010PropOp36
 70
     1
102
RTVSPost2010Prop37
 90
       50
102
RTVSPost2010PropOp37
 70
     0
102
RTVSPost2010Prop38
140
0.0
102
RTVSPost2010PropOp38
 70
     0
102
RTVSPost2010Prop39
140
1.0
102
RTVSPost2010PropOp39
 70
     0
102
RTVSPost2010Prop40
 90
        0
102
RTVSPost2010PropOp40
 70
     0
102
RTVSPost2010Prop41ColorIndex
 90
       18
102
RTVSPost2010Prop41ColorRGB
 90
        0
102
RTVSPost2010PropOp41
 70
     0
102
RTVSPost2010Prop42
 90
       50
102
RTVSPost2010PropOp42
 70
     0
102
RTVSPost2010Prop43
 90
        3
102
RTVSPost2010PropOp43
 70
     0
102
RTVSPost2010Prop44ColorIndex
 90
        5
102
RTVSPost2010Prop44ColorRGB
 90
      255
102
RTVSPost2010PropOp44
 70
     0
102
RTVSPost2010Prop45
280
     0
102
RTVSPost2010PropOp45
 70
     1
102
RTVSPost2010Prop46
 90
       50
102
RTVSPost2010PropOp46
 70
     0
102
RTVSPost2010Prop47
 90
       50
102
RTVSPost2010PropOp47
 70
     0
102
RTVSPost2010Prop48
 90
       50
102
RTVSPost2010PropOp48
 70
     0
102
RTVSPost2010Prop49
280
     0
102
RTVSPost2010PropOp49
 70
     1
102
RTVSPost2010Prop50
 90
       50
102
RTVSPost2010PropOp50
 70
     0
102
RTVSPost2010Prop51ColorIndex
 90
      256
102
RTVSPost2010Prop51ColorRGB
 90
-16777216
102
RTVSPost2010PropOp51
 70
     0
102
RTVSPost2010Prop52
140
1.0
102
RTVSPost2010PropOp52
 70
     0
102
RTVSPost2010Prop53
 90
        2
102
RTVSPost2010PropOp53
 70
     0
102
RTVSPost2010Prop54
  1
strokes_ogs.tif
102
RTVSPost2010PropOp54
 70
     0
102
RTVSPost2010Prop55
280
     0
102
RTVSPost2010PropOp55
 70
     1
102
RTVSPost2010Prop56
140
1.0
102
RTVSPost2010PropOp56
 70
     0
102
RTVSPost2010Prop57
140
1.0
102
RTVSPost2010PropOp57
 70
     0
  0
XRECORD
  5
22126
102
{ACAD_REACTORS
330
22125
102
}
330
22125
100
AcDbXrecord
280
     1
102
RTVSPost2010Prop28
280
     0
102
RTVSPost2010PropOp28
 70
     1
102
RTVSPost2010Prop29
280
     1
102
RTVSPost2010PropOp29
 70
     1
102
RTVSPost2010Prop30
280
     1
102
RTVSPost2010PropOp30
 70
     1
102
RTVSPost2010Prop31
280
     0
102
RTVSPost2010PropOp31
 70
     1
102
RTVSPost2010Prop32
280
     0
102
RTVSPost2010PropOp32
 70
     1
102
RTVSPost2010Prop33
280
     0
102
RTVSPost2010PropOp33
 70
     1
102
RTVSPost2010Prop34
280
     0
102
RTVSPost2010PropOp34
 70
     1
102
RTVSPost2010Prop35
280
     0
102
RTVSPost2010PropOp35
 70
     1
102
RTVSPost2010Prop36
280
     0
102
RTVSPost2010PropOp36
 70
     1
102
RTVSPost2010Prop37
 90
       50
102
RTVSPost2010PropOp37
 70
     1
102
RTVSPost2010Prop38
140
0.0
102
RTVSPost2010PropOp38
 70
     1
102
RTVSPost2010Prop39
140
1.0
102
RTVSPost2010PropOp39
 70
     1
102
RTVSPost2010Prop40
 90
        0
102
RTVSPost2010PropOp40
 70
     1
102
RTVSPost2010Prop41ColorIndex
 90
       18
102
RTVSPost2010Prop41ColorRGB
 90
        0
102
RTVSPost2010PropOp41
 70
     1
102
RTVSPost2010Prop42
 90
       50
102
RTVSPost2010PropOp42
 70
     1
102
RTVSPost2010Prop43
 90
        3
102
RTVSPost2010PropOp43
 70
     1
102
RTVSPost2010Prop44ColorIndex
 90
        5
102
RTVSPost2010Prop44ColorRGB
 90
      255
102
RTVSPost2010PropOp44
 70
     1
102
RTVSPost2010Prop45
280
     0
102
RTVSPost2010PropOp45
 70
     1
102
RTVSPost2010Prop46
 90
       50
102
RTVSPost2010PropOp46
 70
     1
102
RTVSPost2010Prop47
 90
       50
102
RTVSPost2010PropOp47
 70
     1
102
RTVSPost2010Prop48
 90
       50
102
RTVSPost2010PropOp48
 70
     1
102
RTVSPost2010Prop49
280
     0
102
RTVSPost2010PropOp49
 70
     1
102
RTVSPost2010Prop50
 90
       50
102
RTVSPost2010PropOp50
 70
     1
102
RTVSPost2010Prop51ColorIndex
 90
      256
102
RTVSPost2010Prop51ColorRGB
 90
-16777216
102
RTVSPost2010PropOp51
 70
     0
102
RTVSPost2010Prop52
140
1.0
102
RTVSPost2010PropOp52
 70
     0
102
RTVSPost2010Prop53
 90
        2
102
RTVSPost2010PropOp53
 70
     1
102
RTVSPost2010Prop54
  1
strokes_ogs.tif
102
RTVSPost2010PropOp54
 70
     1
102
RTVSPost2010Prop55
280
     0
102
RTVSPost2010PropOp55
 70
     1
102
RTVSPost2010Prop56
140
1.0
102
RTVSPost2010PropOp56
 70
     1
102
RTVSPost2010Prop57
140
1.0
102
RTVSPost2010PropOp57
 70
     1
  0
XRECORD
  5
2210A
102
{ACAD_REACTORS
330
22109
102
}
330
22109
100
AcDbXrecord
280
     1
102
RTVSPost2010Prop28
280
     0
102
RTVSPost2010PropOp28
 70
     1
102
RTVSPost2010Prop29
280
     1
102
RTVSPost2010PropOp29
 70
     1
102
RTVSPost2010Prop30
280
     1
102
RTVSPost2010PropOp30
 70
     1
102
RTVSPost2010Prop31
280
     0
102
RTVSPost2010PropOp31
 70
     1
102
RTVSPost2010Prop32
280
     0
102
RTVSPost2010PropOp32
 70
     1
102
RTVSPost2010Prop33
280
     0
102
RTVSPost2010PropOp33
 70
     1
102
RTVSPost2010Prop34
280
     0
102
RTVSPost2010PropOp34
 70
     1
102
RTVSPost2010Prop35
280
     0
102
RTVSPost2010PropOp35
 70
     1
102
RTVSPost2010Prop36
280
     0
102
RTVSPost2010PropOp36
 70
     1
102
RTVSPost2010Prop37
 90
       50
102
RTVSPost2010PropOp37
 70
     1
102
RTVSPost2010Prop38
140
0.0
102
RTVSPost2010PropOp38
 70
     1
102
RTVSPost2010Prop39
140
1.0
102
RTVSPost2010PropOp39
 70
     1
102
RTVSPost2010Prop40
 90
        0
102
RTVSPost2010PropOp40
 70
     1
102
RTVSPost2010Prop41ColorIndex
 90
       18
102
RTVSPost2010Prop41ColorRGB
 90
        0
102
RTVSPost2010PropOp41
 70
     1
102
RTVSPost2010Prop42
 90
       50
102
RTVSPost2010PropOp42
 70
     1
102
RTVSPost2010Prop43
 90
        3
102
RTVSPost2010PropOp43
 70
     1
102
RTVSPost2010Prop44ColorIndex
 90
        5
102
RTVSPost2010Prop44ColorRGB
 90
      255
102
RTVSPost2010PropOp44
 70
     1
102
RTVSPost2010Prop45
280
     0
102
RTVSPost2010PropOp45
 70
     1
102
RTVSPost2010Prop46
 90
       50
102
RTVSPost2010PropOp46
 70
     1
102
RTVSPost2010Prop47
 90
       50
102
RTVSPost2010PropOp47
 70
     1
102
RTVSPost2010Prop48
 90
       50
102
RTVSPost2010PropOp48
 70
     1
102
RTVSPost2010Prop49
280
     0
102
RTVSPost2010PropOp49
 70
     1
102
RTVSPost2010Prop50
 90
       50
102
RTVSPost2010PropOp50
 70
     1
102
RTVSPost2010Prop51ColorIndex
 90
      256
102
RTVSPost2010Prop51ColorRGB
 90
-16777216
102
RTVSPost2010PropOp51
 70
     0
102
RTVSPost2010Prop52
140
1.0
102
RTVSPost2010PropOp52
 70
     0
102
RTVSPost2010Prop53
 90
        2
102
RTVSPost2010PropOp53
 70
     1
102
RTVSPost2010Prop54
  1
strokes_ogs.tif
102
RTVSPost2010PropOp54
 70
     1
102
RTVSPost2010Prop55
280
     0
102
RTVSPost2010PropOp55
 70
     1
102
RTVSPost2010Prop56
140
1.0
102
RTVSPost2010PropOp56
 70
     1
102
RTVSPost2010Prop57
140
1.0
102
RTVSPost2010PropOp57
 70
     1
  0
XRECORD
  5
2210C
102
{ACAD_REACTORS
330
2210B
102
}
330
2210B
100
AcDbXrecord
280
     1
102
RTVSPost2010Prop28
280
     0
102
RTVSPost2010PropOp28
 70
     1
102
RTVSPost2010Prop29
280
     1
102
RTVSPost2010PropOp29
 70
     1
102
RTVSPost2010Prop30
280
     1
102
RTVSPost2010PropOp30
 70
     1
102
RTVSPost2010Prop31
280
     0
102
RTVSPost2010PropOp31
 70
     1
102
RTVSPost2010Prop32
280
     0
102
RTVSPost2010PropOp32
 70
     1
102
RTVSPost2010Prop33
280
     0
102
RTVSPost2010PropOp33
 70
     1
102
RTVSPost2010Prop34
280
     0
102
RTVSPost2010PropOp34
 70
     1
102
RTVSPost2010Prop35
280
     0
102
RTVSPost2010PropOp35
 70
     1
102
RTVSPost2010Prop36
280
     0
102
RTVSPost2010PropOp36
 70
     1
102
RTVSPost2010Prop37
 90
       50
102
RTVSPost2010PropOp37
 70
     1
102
RTVSPost2010Prop38
140
0.0
102
RTVSPost2010PropOp38
 70
     1
102
RTVSPost2010Prop39
140
1.0
102
RTVSPost2010PropOp39
 70
     1
102
RTVSPost2010Prop40
 90
        0
102
RTVSPost2010PropOp40
 70
     1
102
RTVSPost2010Prop41ColorIndex
 90
       18
102
RTVSPost2010Prop41ColorRGB
 90
        0
102
RTVSPost2010PropOp41
 70
     1
102
RTVSPost2010Prop42
 90
       50
102
RTVSPost2010PropOp42
 70
     1
102
RTVSPost2010Prop43
 90
        3
102
RTVSPost2010PropOp43
 70
     1
102
RTVSPost2010Prop44ColorIndex
 90
        5
102
RTVSPost2010Prop44ColorRGB
 90
      255
102
RTVSPost2010PropOp44
 70
     1
102
RTVSPost2010Prop45
280
     0
102
RTVSPost2010PropOp45
 70
     1
102
RTVSPost2010Prop46
 90
       50
102
RTVSPost2010PropOp46
 70
     1
102
RTVSPost2010Prop47
 90
       50
102
RTVSPost2010PropOp47
 70
     1
102
RTVSPost2010Prop48
 90
       50
102
RTVSPost2010PropOp48
 70
     1
102
RTVSPost2010Prop49
280
     0
102
RTVSPost2010PropOp49
 70
     1
102
RTVSPost2010Prop50
 90
       50
102
RTVSPost2010PropOp50
 70
     1
102
RTVSPost2010Prop51ColorIndex
 90
      256
102
RTVSPost2010Prop51ColorRGB
 90
-16777216
102
RTVSPost2010PropOp51
 70
     0
102
RTVSPost2010Prop52
140
1.0
102
RTVSPost2010PropOp52
 70
     0
102
RTVSPost2010Prop53
 90
        2
102
RTVSPost2010PropOp53
 70
     1
102
RTVSPost2010Prop54
  1
strokes_ogs.tif
102
RTVSPost2010PropOp54
 70
     1
102
RTVSPost2010Prop55
280
     0
102
RTVSPost2010PropOp55
 70
     1
102
RTVSPost2010Prop56
140
1.0
102
RTVSPost2010PropOp56
 70
     1
102
RTVSPost2010Prop57
140
1.0
102
RTVSPost2010PropOp57
 70
     1
  0
XRECORD
  5
2210E
102
{ACAD_REACTORS
330
2210D
102
}
330
2210D
100
AcDbXrecord
280
     1
102
RTVSPost2010Prop28
280
     0
102
RTVSPost2010PropOp28
 70
     1
102
RTVSPost2010Prop29
280
     1
102
RTVSPost2010PropOp29
 70
     1
102
RTVSPost2010Prop30
280
     1
102
RTVSPost2010PropOp30
 70
     1
102
RTVSPost2010Prop31
280
     0
102
RTVSPost2010PropOp31
 70
     1
102
RTVSPost2010Prop32
280
     0
102
RTVSPost2010PropOp32
 70
     1
102
RTVSPost2010Prop33
280
     0
102
RTVSPost2010PropOp33
 70
     1
102
RTVSPost2010Prop34
280
     0
102
RTVSPost2010PropOp34
 70
     1
102
RTVSPost2010Prop35
280
     0
102
RTVSPost2010PropOp35
 70
     1
102
RTVSPost2010Prop36
280
     0
102
RTVSPost2010PropOp36
 70
     1
102
RTVSPost2010Prop37
 90
       50
102
RTVSPost2010PropOp37
 70
     1
102
RTVSPost2010Prop38
140
0.0
102
RTVSPost2010PropOp38
 70
     1
102
RTVSPost2010Prop39
140
1.0
102
RTVSPost2010PropOp39
 70
     1
102
RTVSPost2010Prop40
 90
        0
102
RTVSPost2010PropOp40
 70
     1
102
RTVSPost2010Prop41ColorIndex
 90
       18
102
RTVSPost2010Prop41ColorRGB
 90
        0
102
RTVSPost2010PropOp41
 70
     1
102
RTVSPost2010Prop42
 90
       50
102
RTVSPost2010PropOp42
 70
     1
102
RTVSPost2010Prop43
 90
        3
102
RTVSPost2010PropOp43
 70
     1
102
RTVSPost2010Prop44ColorIndex
 90
        5
102
RTVSPost2010Prop44ColorRGB
 90
      255
102
RTVSPost2010PropOp44
 70
     1
102
RTVSPost2010Prop45
280
     0
102
RTVSPost2010PropOp45
 70
     1
102
RTVSPost2010Prop46
 90
       50
102
RTVSPost2010PropOp46
 70
     1
102
RTVSPost2010Prop47
 90
       50
102
RTVSPost2010PropOp47
 70
     1
102
RTVSPost2010Prop48
 90
       50
102
RTVSPost2010PropOp48
 70
     1
102
RTVSPost2010Prop49
280
     0
102
RTVSPost2010PropOp49
 70
     1
102
RTVSPost2010Prop50
 90
       50
102
RTVSPost2010PropOp50
 70
     1
102
RTVSPost2010Prop51ColorIndex
 90
      256
102
RTVSPost2010Prop51ColorRGB
 90
-16777216
102
RTVSPost2010PropOp51
 70
     0
102
RTVSPost2010Prop52
140
1.0
102
RTVSPost2010PropOp52
 70
     0
102
RTVSPost2010Prop53
 90
        2
102
RTVSPost2010PropOp53
 70
     1
102
RTVSPost2010Prop54
  1
strokes_ogs.tif
102
RTVSPost2010PropOp54
 70
     1
102
RTVSPost2010Prop55
280
     0
102
RTVSPost2010PropOp55
 70
     1
102
RTVSPost2010Prop56
140
1.0
102
RTVSPost2010PropOp56
 70
     1
102
RTVSPost2010Prop57
140
1.0
102
RTVSPost2010PropOp57
 70
     1
  0
XRECORD
  5
22110
102
{ACAD_REACTORS
330
2210F
102
}
330
2210F
100
AcDbXrecord
280
     1
102
RTVSPost2010Prop28
280
     0
102
RTVSPost2010PropOp28
 70
     1
102
RTVSPost2010Prop29
280
     1
102
RTVSPost2010PropOp29
 70
     1
102
RTVSPost2010Prop30
280
     1
102
RTVSPost2010PropOp30
 70
     1
102
RTVSPost2010Prop31
280
     0
102
RTVSPost2010PropOp31
 70
     1
102
RTVSPost2010Prop32
280
     0
102
RTVSPost2010PropOp32
 70
     1
102
RTVSPost2010Prop33
280
     0
102
RTVSPost2010PropOp33
 70
     1
102
RTVSPost2010Prop34
280
     0
102
RTVSPost2010PropOp34
 70
     1
102
RTVSPost2010Prop35
280
     0
102
RTVSPost2010PropOp35
 70
     1
102
RTVSPost2010Prop36
280
     0
102
RTVSPost2010PropOp36
 70
     1
102
RTVSPost2010Prop37
 90
       50
102
RTVSPost2010PropOp37
 70
     1
102
RTVSPost2010Prop38
140
0.0
102
RTVSPost2010PropOp38
 70
     1
102
RTVSPost2010Prop39
140
1.0
102
RTVSPost2010PropOp39
 70
     1
102
RTVSPost2010Prop40
 90
        0
102
RTVSPost2010PropOp40
 70
     1
102
RTVSPost2010Prop41ColorIndex
 90
       18
102
RTVSPost2010Prop41ColorRGB
 90
        0
102
RTVSPost2010PropOp41
 70
     1
102
RTVSPost2010Prop42
 90
       50
102
RTVSPost2010PropOp42
 70
     1
102
RTVSPost2010Prop43
 90
        3
102
RTVSPost2010PropOp43
 70
     1
102
RTVSPost2010Prop44ColorIndex
 90
        5
102
RTVSPost2010Prop44ColorRGB
 90
      255
102
RTVSPost2010PropOp44
 70
     1
102
RTVSPost2010Prop45
280
     0
102
RTVSPost2010PropOp45
 70
     1
102
RTVSPost2010Prop46
 90
       50
102
RTVSPost2010PropOp46
 70
     1
102
RTVSPost2010Prop47
 90
       50
102
RTVSPost2010PropOp47
 70
     1
102
RTVSPost2010Prop48
 90
       50
102
RTVSPost2010PropOp48
 70
     1
102
RTVSPost2010Prop49
280
     0
102
RTVSPost2010PropOp49
 70
     1
102
RTVSPost2010Prop50
 90
       50
102
RTVSPost2010PropOp50
 70
     1
102
RTVSPost2010Prop51ColorIndex
 90
      256
102
RTVSPost2010Prop51ColorRGB
 90
-16777216
102
RTVSPost2010PropOp51
 70
     0
102
RTVSPost2010Prop52
140
1.0
102
RTVSPost2010PropOp52
 70
     0
102
RTVSPost2010Prop53
 90
        2
102
RTVSPost2010PropOp53
 70
     1
102
RTVSPost2010Prop54
  1
strokes_ogs.tif
102
RTVSPost2010PropOp54
 70
     1
102
RTVSPost2010Prop55
280
     0
102
RTVSPost2010PropOp55
 70
     1
102
RTVSPost2010Prop56
140
1.0
102
RTVSPost2010PropOp56
 70
     1
102
RTVSPost2010Prop57
140
1.0
102
RTVSPost2010PropOp57
 70
     1
  0
XRECORD
  5
2212C
102
{ACAD_REACTORS
330
2212B
102
}
330
2212B
100
AcDbXrecord
280
     1
102
RTVSPost2010Prop28
280
     0
102
RTVSPost2010PropOp28
 70
     1
102
RTVSPost2010Prop29
280
     1
102
RTVSPost2010PropOp29
 70
     1
102
RTVSPost2010Prop30
280
     1
102
RTVSPost2010PropOp30
 70
     1
102
RTVSPost2010Prop31
280
     0
102
RTVSPost2010PropOp31
 70
     1
102
RTVSPost2010Prop32
280
     0
102
RTVSPost2010PropOp32
 70
     1
102
RTVSPost2010Prop33
280
     0
102
RTVSPost2010PropOp33
 70
     1
102
RTVSPost2010Prop34
280
     0
102
RTVSPost2010PropOp34
 70
     1
102
RTVSPost2010Prop35
280
     0
102
RTVSPost2010PropOp35
 70
     1
102
RTVSPost2010Prop36
280
     0
102
RTVSPost2010PropOp36
 70
     1
102
RTVSPost2010Prop37
 90
       50
102
RTVSPost2010PropOp37
 70
     1
102
RTVSPost2010Prop38
140
0.0
102
RTVSPost2010PropOp38
 70
     1
102
RTVSPost2010Prop39
140
1.0
102
RTVSPost2010PropOp39
 70
     1
102
RTVSPost2010Prop40
 90
        0
102
RTVSPost2010PropOp40
 70
     1
102
RTVSPost2010Prop41ColorIndex
 90
       18
102
RTVSPost2010Prop41ColorRGB
 90
        0
102
RTVSPost2010PropOp41
 70
     1
102
RTVSPost2010Prop42
 90
       50
102
RTVSPost2010PropOp42
 70
     1
102
RTVSPost2010Prop43
 90
        3
102
RTVSPost2010PropOp43
 70
     1
102
RTVSPost2010Prop44ColorIndex
 90
        5
102
RTVSPost2010Prop44ColorRGB
 90
      255
102
RTVSPost2010PropOp44
 70
     1
102
RTVSPost2010Prop45
280
     0
102
RTVSPost2010PropOp45
 70
     1
102
RTVSPost2010Prop46
 90
       50
102
RTVSPost2010PropOp46
 70
     1
102
RTVSPost2010Prop47
 90
       50
102
RTVSPost2010PropOp47
 70
     1
102
RTVSPost2010Prop48
 90
       50
102
RTVSPost2010PropOp48
 70
     1
102
RTVSPost2010Prop49
280
     0
102
RTVSPost2010PropOp49
 70
     1
102
RTVSPost2010Prop50
 90
       50
102
RTVSPost2010PropOp50
 70
     1
102
RTVSPost2010Prop51ColorIndex
 90
      256
102
RTVSPost2010Prop51ColorRGB
 90
-16777216
102
RTVSPost2010PropOp51
 70
     0
102
RTVSPost2010Prop52
140
1.0
102
RTVSPost2010PropOp52
 70
     0
102
RTVSPost2010Prop53
 90
        2
102
RTVSPost2010PropOp53
 70
     1
102
RTVSPost2010Prop54
  1
strokes_ogs.tif
102
RTVSPost2010PropOp54
 70
     1
102
RTVSPost2010Prop55
280
     0
102
RTVSPost2010PropOp55
 70
     1
102
RTVSPost2010Prop56
140
1.0
102
RTVSPost2010PropOp56
 70
     1
102
RTVSPost2010Prop57
140
1.0
102
RTVSPost2010PropOp57
 70
     1
  0
XRECORD
  5
22138
102
{ACAD_REACTORS
330
22137
102
}
330
22137
100
AcDbXrecord
280
     1
102
RTVSPost2010Prop28
280
     0
102
RTVSPost2010PropOp28
 70
     1
102
RTVSPost2010Prop29
280
     1
102
RTVSPost2010PropOp29
 70
     1
102
RTVSPost2010Prop30
280
     1
102
RTVSPost2010PropOp30
 70
     1
102
RTVSPost2010Prop31
280
     0
102
RTVSPost2010PropOp31
 70
     1
102
RTVSPost2010Prop32
280
     0
102
RTVSPost2010PropOp32
 70
     1
102
RTVSPost2010Prop33
280
     0
102
RTVSPost2010PropOp33
 70
     1
102
RTVSPost2010Prop34
280
     0
102
RTVSPost2010PropOp34
 70
     1
102
RTVSPost2010Prop35
280
     0
102
RTVSPost2010PropOp35
 70
     1
102
RTVSPost2010Prop36
280
     0
102
RTVSPost2010PropOp36
 70
     1
102
RTVSPost2010Prop37
 90
       50
102
RTVSPost2010PropOp37
 70
     0
102
RTVSPost2010Prop38
140
0.0
102
RTVSPost2010PropOp38
 70
     0
102
RTVSPost2010Prop39
140
1.0
102
RTVSPost2010PropOp39
 70
     0
102
RTVSPost2010Prop40
 90
        0
102
RTVSPost2010PropOp40
 70
     0
102
RTVSPost2010Prop41ColorIndex
 90
       18
102
RTVSPost2010Prop41ColorRGB
 90
        0
102
RTVSPost2010PropOp41
 70
     0
102
RTVSPost2010Prop42
 90
       50
102
RTVSPost2010PropOp42
 70
     0
102
RTVSPost2010Prop43
 90
        3
102
RTVSPost2010PropOp43
 70
     0
102
RTVSPost2010Prop44ColorIndex
 90
        5
102
RTVSPost2010Prop44ColorRGB
 90
      255
102
RTVSPost2010PropOp44
 70
     0
102
RTVSPost2010Prop45
280
     0
102
RTVSPost2010PropOp45
 70
     1
102
RTVSPost2010Prop46
 90
       50
102
RTVSPost2010PropOp46
 70
     0
102
RTVSPost2010Prop47
 90
       50
102
RTVSPost2010PropOp47
 70
     0
102
RTVSPost2010Prop48
 90
       50
102
RTVSPost2010PropOp48
 70
     0
102
RTVSPost2010Prop49
280
     0
102
RTVSPost2010PropOp49
 70
     1
102
RTVSPost2010Prop50
 90
       50
102
RTVSPost2010PropOp50
 70
     0
102
RTVSPost2010Prop51ColorIndex
 90
      256
102
RTVSPost2010Prop51ColorRGB
 90
-16777216
102
RTVSPost2010PropOp51
 70
     0
102
RTVSPost2010Prop52
140
1.0
102
RTVSPost2010PropOp52
 70
     0
102
RTVSPost2010Prop53
 90
        2
102
RTVSPost2010PropOp53
 70
     0
102
RTVSPost2010Prop54
  1
strokes_ogs.tif
102
RTVSPost2010PropOp54
 70
     0
102
RTVSPost2010Prop55
280
     0
102
RTVSPost2010PropOp55
 70
     1
102
RTVSPost2010Prop56
140
1.0
102
RTVSPost2010PropOp56
 70
     0
102
RTVSPost2010Prop57
140
1.0
102
RTVSPost2010PropOp57
 70
     0
  0
XRECORD
  5
22124
102
{ACAD_REACTORS
330
22123
102
}
330
22123
100
AcDbXrecord
280
     1
102
RTVSPost2010Prop28
280
     0
102
RTVSPost2010PropOp28
 70
     1
102
RTVSPost2010Prop29
280
     1
102
RTVSPost2010PropOp29
 70
     1
102
RTVSPost2010Prop30
280
     1
102
RTVSPost2010PropOp30
 70
     1
102
RTVSPost2010Prop31
280
     0
102
RTVSPost2010PropOp31
 70
     1
102
RTVSPost2010Prop32
280
     0
102
RTVSPost2010PropOp32
 70
     1
102
RTVSPost2010Prop33
280
     0
102
RTVSPost2010PropOp33
 70
     1
102
RTVSPost2010Prop34
280
     0
102
RTVSPost2010PropOp34
 70
     1
102
RTVSPost2010Prop35
280
     0
102
RTVSPost2010PropOp35
 70
     1
102
RTVSPost2010Prop36
280
     0
102
RTVSPost2010PropOp36
 70
     1
102
RTVSPost2010Prop37
 90
       50
102
RTVSPost2010PropOp37
 70
     1
102
RTVSPost2010Prop38
140
0.0
102
RTVSPost2010PropOp38
 70
     1
102
RTVSPost2010Prop39
140
1.0
102
RTVSPost2010PropOp39
 70
     1
102
RTVSPost2010Prop40
 90
        0
102
RTVSPost2010PropOp40
 70
     1
102
RTVSPost2010Prop41ColorIndex
 90
       18
102
RTVSPost2010Prop41ColorRGB
 90
        0
102
RTVSPost2010PropOp41
 70
     1
102
RTVSPost2010Prop42
 90
       50
102
RTVSPost2010PropOp42
 70
     1
102
RTVSPost2010Prop43
 90
        3
102
RTVSPost2010PropOp43
 70
     1
102
RTVSPost2010Prop44ColorIndex
 90
        5
102
RTVSPost2010Prop44ColorRGB
 90
      255
102
RTVSPost2010PropOp44
 70
     1
102
RTVSPost2010Prop45
280
     0
102
RTVSPost2010PropOp45
 70
     1
102
RTVSPost2010Prop46
 90
       50
102
RTVSPost2010PropOp46
 70
     1
102
RTVSPost2010Prop47
 90
       50
102
RTVSPost2010PropOp47
 70
     1
102
RTVSPost2010Prop48
 90
       50
102
RTVSPost2010PropOp48
 70
     1
102
RTVSPost2010Prop49
280
     0
102
RTVSPost2010PropOp49
 70
     1
102
RTVSPost2010Prop50
 90
       50
102
RTVSPost2010PropOp50
 70
     1
102
RTVSPost2010Prop51ColorIndex
 90
      256
102
RTVSPost2010Prop51ColorRGB
 90
-16777216
102
RTVSPost2010PropOp51
 70
     0
102
RTVSPost2010Prop52
140
1.0
102
RTVSPost2010PropOp52
 70
     0
102
RTVSPost2010Prop53
 90
        2
102
RTVSPost2010PropOp53
 70
     1
102
RTVSPost2010Prop54
  1
strokes_ogs.tif
102
RTVSPost2010PropOp54
 70
     1
102
RTVSPost2010Prop55
280
     0
102
RTVSPost2010PropOp55
 70
     1
102
RTVSPost2010Prop56
140
1.0
102
RTVSPost2010PropOp56
 70
     1
102
RTVSPost2010Prop57
140
1.0
102
RTVSPost2010PropOp57
 70
     1
  0
XRECORD
  5
2213A
102
{ACAD_REACTORS
330
22139
102
}
330
22139
100
AcDbXrecord
280
     1
102
RTVSPost2010Prop28
280
     0
102
RTVSPost2010PropOp28
 70
     1
102
RTVSPost2010Prop29
280
     1
102
RTVSPost2010PropOp29
 70
     1
102
RTVSPost2010Prop30
280
     1
102
RTVSPost2010PropOp30
 70
     1
102
RTVSPost2010Prop31
280
     0
102
RTVSPost2010PropOp31
 70
     1
102
RTVSPost2010Prop32
280
     0
102
RTVSPost2010PropOp32
 70
     1
102
RTVSPost2010Prop33
280
     0
102
RTVSPost2010PropOp33
 70
     1
102
RTVSPost2010Prop34
280
     0
102
RTVSPost2010PropOp34
 70
     1
102
RTVSPost2010Prop35
280
     0
102
RTVSPost2010PropOp35
 70
     1
102
RTVSPost2010Prop36
280
     0
102
RTVSPost2010PropOp36
 70
     1
102
RTVSPost2010Prop37
 90
       50
102
RTVSPost2010PropOp37
 70
     0
102
RTVSPost2010Prop38
140
0.0
102
RTVSPost2010PropOp38
 70
     0
102
RTVSPost2010Prop39
140
1.0
102
RTVSPost2010PropOp39
 70
     0
102
RTVSPost2010Prop40
 90
        0
102
RTVSPost2010PropOp40
 70
     0
102
RTVSPost2010Prop41ColorIndex
 90
       18
102
RTVSPost2010Prop41ColorRGB
 90
        0
102
RTVSPost2010PropOp41
 70
     0
102
RTVSPost2010Prop42
 90
       50
102
RTVSPost2010PropOp42
 70
     0
102
RTVSPost2010Prop43
 90
        3
102
RTVSPost2010PropOp43
 70
     0
102
RTVSPost2010Prop44ColorIndex
 90
        5
102
RTVSPost2010Prop44ColorRGB
 90
      255
102
RTVSPost2010PropOp44
 70
     0
102
RTVSPost2010Prop45
280
     0
102
RTVSPost2010PropOp45
 70
     1
102
RTVSPost2010Prop46
 90
       50
102
RTVSPost2010PropOp46
 70
     0
102
RTVSPost2010Prop47
 90
       50
102
RTVSPost2010PropOp47
 70
     0
102
RTVSPost2010Prop48
 90
       50
102
RTVSPost2010PropOp48
 70
     0
102
RTVSPost2010Prop49
280
     0
102
RTVSPost2010PropOp49
 70
     1
102
RTVSPost2010Prop50
 90
       50
102
RTVSPost2010PropOp50
 70
     0
102
RTVSPost2010Prop51ColorIndex
 90
      256
102
RTVSPost2010Prop51ColorRGB
 90
-16777216
102
RTVSPost2010PropOp51
 70
     0
102
RTVSPost2010Prop52
140
1.0
102
RTVSPost2010PropOp52
 70
     0
102
RTVSPost2010Prop53
 90
        2
102
RTVSPost2010PropOp53
 70
     0
102
RTVSPost2010Prop54
  1
strokes_ogs.tif
102
RTVSPost2010PropOp54
 70
     0
102
RTVSPost2010Prop55
280
     0
102
RTVSPost2010PropOp55
 70
     1
102
RTVSPost2010Prop56
140
1.0
102
RTVSPost2010PropOp56
 70
     0
102
RTVSPost2010Prop57
140
1.0
102
RTVSPost2010PropOp57
 70
     0
  0
XRECORD
  5
2211C
102
{ACAD_REACTORS
330
2211B
102
}
330
2211B
100
AcDbXrecord
280
     1
102
RTVSPost2010Prop28
280
     0
102
RTVSPost2010PropOp28
 70
     1
102
RTVSPost2010Prop29
280
     1
102
RTVSPost2010PropOp29
 70
     1
102
RTVSPost2010Prop30
280
     1
102
RTVSPost2010PropOp30
 70
     1
102
RTVSPost2010Prop31
280
     0
102
RTVSPost2010PropOp31
 70
     1
102
RTVSPost2010Prop32
280
     0
102
RTVSPost2010PropOp32
 70
     1
102
RTVSPost2010Prop33
280
     0
102
RTVSPost2010PropOp33
 70
     1
102
RTVSPost2010Prop34
280
     0
102
RTVSPost2010PropOp34
 70
     1
102
RTVSPost2010Prop35
280
     0
102
RTVSPost2010PropOp35
 70
     1
102
RTVSPost2010Prop36
280
     0
102
RTVSPost2010PropOp36
 70
     1
102
RTVSPost2010Prop37
 90
       50
102
RTVSPost2010PropOp37
 70
     1
102
RTVSPost2010Prop38
140
0.0
102
RTVSPost2010PropOp38
 70
     1
102
RTVSPost2010Prop39
140
1.0
102
RTVSPost2010PropOp39
 70
     1
102
RTVSPost2010Prop40
 90
        0
102
RTVSPost2010PropOp40
 70
     1
102
RTVSPost2010Prop41ColorIndex
 90
       18
102
RTVSPost2010Prop41ColorRGB
 90
        0
102
RTVSPost2010PropOp41
 70
     1
102
RTVSPost2010Prop42
 90
       50
102
RTVSPost2010PropOp42
 70
     1
102
RTVSPost2010Prop43
 90
        3
102
RTVSPost2010PropOp43
 70
     1
102
RTVSPost2010Prop44ColorIndex
 90
        5
102
RTVSPost2010Prop44ColorRGB
 90
      255
102
RTVSPost2010PropOp44
 70
     1
102
RTVSPost2010Prop45
280
     0
102
RTVSPost2010PropOp45
 70
     1
102
RTVSPost2010Prop46
 90
       50
102
RTVSPost2010PropOp46
 70
     1
102
RTVSPost2010Prop47
 90
       50
102
RTVSPost2010PropOp47
 70
     1
102
RTVSPost2010Prop48
 90
       50
102
RTVSPost2010PropOp48
 70
     1
102
RTVSPost2010Prop49
280
     0
102
RTVSPost2010PropOp49
 70
     1
102
RTVSPost2010Prop50
 90
       50
102
RTVSPost2010PropOp50
 70
     1
102
RTVSPost2010Prop51ColorIndex
 90
      256
102
RTVSPost2010Prop51ColorRGB
 90
-16777216
102
RTVSPost2010PropOp51
 70
     0
102
RTVSPost2010Prop52
140
1.0
102
RTVSPost2010PropOp52
 70
     0
102
RTVSPost2010Prop53
 90
        2
102
RTVSPost2010PropOp53
 70
     1
102
RTVSPost2010Prop54
  1
strokes_ogs.tif
102
RTVSPost2010PropOp54
 70
     1
102
RTVSPost2010Prop55
280
     0
102
RTVSPost2010PropOp55
 70
     1
102
RTVSPost2010Prop56
140
1.0
102
RTVSPost2010PropOp56
 70
     1
102
RTVSPost2010Prop57
140
1.0
102
RTVSPost2010PropOp57
 70
     1
  0
XRECORD
  5
22136
102
{ACAD_REACTORS
330
22135
102
}
330
22135
100
AcDbXrecord
280
     1
102
RTVSPost2010Prop28
280
     0
102
RTVSPost2010PropOp28
 70
     1
102
RTVSPost2010Prop29
280
     1
102
RTVSPost2010PropOp29
 70
     1
102
RTVSPost2010Prop30
280
     1
102
RTVSPost2010PropOp30
 70
     1
102
RTVSPost2010Prop31
280
     0
102
RTVSPost2010PropOp31
 70
     1
102
RTVSPost2010Prop32
280
     0
102
RTVSPost2010PropOp32
 70
     1
102
RTVSPost2010Prop33
280
     0
102
RTVSPost2010PropOp33
 70
     1
102
RTVSPost2010Prop34
280
     0
102
RTVSPost2010PropOp34
 70
     1
102
RTVSPost2010Prop35
280
     0
102
RTVSPost2010PropOp35
 70
     1
102
RTVSPost2010Prop36
280
     0
102
RTVSPost2010PropOp36
 70
     1
102
RTVSPost2010Prop37
 90
       50
102
RTVSPost2010PropOp37
 70
     1
102
RTVSPost2010Prop38
140
0.0
102
RTVSPost2010PropOp38
 70
     1
102
RTVSPost2010Prop39
140
1.0
102
RTVSPost2010PropOp39
 70
     1
102
RTVSPost2010Prop40
 90
        0
102
RTVSPost2010PropOp40
 70
     1
102
RTVSPost2010Prop41ColorIndex
 90
       18
102
RTVSPost2010Prop41ColorRGB
 90
        0
102
RTVSPost2010PropOp41
 70
     1
102
RTVSPost2010Prop42
 90
       50
102
RTVSPost2010PropOp42
 70
     1
102
RTVSPost2010Prop43
 90
        3
102
RTVSPost2010PropOp43
 70
     1
102
RTVSPost2010Prop44ColorIndex
 90
        5
102
RTVSPost2010Prop44ColorRGB
 90
      255
102
RTVSPost2010PropOp44
 70
     1
102
RTVSPost2010Prop45
280
     0
102
RTVSPost2010PropOp45
 70
     1
102
RTVSPost2010Prop46
 90
       50
102
RTVSPost2010PropOp46
 70
     1
102
RTVSPost2010Prop47
 90
       50
102
RTVSPost2010PropOp47
 70
     1
102
RTVSPost2010Prop48
 90
       50
102
RTVSPost2010PropOp48
 70
     1
102
RTVSPost2010Prop49
280
     0
102
RTVSPost2010PropOp49
 70
     1
102
RTVSPost2010Prop50
 90
       50
102
RTVSPost2010PropOp50
 70
     1
102
RTVSPost2010Prop51ColorIndex
 90
      256
102
RTVSPost2010Prop51ColorRGB
 90
-16777216
102
RTVSPost2010PropOp51
 70
     0
102
RTVSPost2010Prop52
140
1.0
102
RTVSPost2010PropOp52
 70
     0
102
RTVSPost2010Prop53
 90
        2
102
RTVSPost2010PropOp53
 70
     1
102
RTVSPost2010Prop54
  1
strokes_ogs.tif
102
RTVSPost2010PropOp54
 70
     1
102
RTVSPost2010Prop55
280
     0
102
RTVSPost2010PropOp55
 70
     1
102
RTVSPost2010Prop56
140
1.0
102
RTVSPost2010PropOp56
 70
     1
102
RTVSPost2010Prop57
140
1.0
102
RTVSPost2010PropOp57
 70
     1
  0
XRECORD
  5
22134
102
{ACAD_REACTORS
330
22133
102
}
330
22133
100
AcDbXrecord
280
     1
102
RTVSPost2010Prop28
280
     0
102
RTVSPost2010PropOp28
 70
     1
102
RTVSPost2010Prop29
280
     1
102
RTVSPost2010PropOp29
 70
     1
102
RTVSPost2010Prop30
280
     1
102
RTVSPost2010PropOp30
 70
     1
102
RTVSPost2010Prop31
280
     0
102
RTVSPost2010PropOp31
 70
     1
102
RTVSPost2010Prop32
280
     0
102
RTVSPost2010PropOp32
 70
     1
102
RTVSPost2010Prop33
280
     0
102
RTVSPost2010PropOp33
 70
     1
102
RTVSPost2010Prop34
280
     0
102
RTVSPost2010PropOp34
 70
     1
102
RTVSPost2010Prop35
280
     0
102
RTVSPost2010PropOp35
 70
     1
102
RTVSPost2010Prop36
280
     0
102
RTVSPost2010PropOp36
 70
     1
102
RTVSPost2010Prop37
 90
       50
102
RTVSPost2010PropOp37
 70
     1
102
RTVSPost2010Prop38
140
0.0
102
RTVSPost2010PropOp38
 70
     1
102
RTVSPost2010Prop39
140
1.0
102
RTVSPost2010PropOp39
 70
     1
102
RTVSPost2010Prop40
 90
        0
102
RTVSPost2010PropOp40
 70
     1
102
RTVSPost2010Prop41ColorIndex
 90
       18
102
RTVSPost2010Prop41ColorRGB
 90
        0
102
RTVSPost2010PropOp41
 70
     1
102
RTVSPost2010Prop42
 90
       50
102
RTVSPost2010PropOp42
 70
     1
102
RTVSPost2010Prop43
 90
        3
102
RTVSPost2010PropOp43
 70
     1
102
RTVSPost2010Prop44ColorIndex
 90
        5
102
RTVSPost2010Prop44ColorRGB
 90
      255
102
RTVSPost2010PropOp44
 70
     1
102
RTVSPost2010Prop45
280
     0
102
RTVSPost2010PropOp45
 70
     1
102
RTVSPost2010Prop46
 90
       50
102
RTVSPost2010PropOp46
 70
     1
102
RTVSPost2010Prop47
 90
       50
102
RTVSPost2010PropOp47
 70
     1
102
RTVSPost2010Prop48
 90
       50
102
RTVSPost2010PropOp48
 70
     1
102
RTVSPost2010Prop49
280
     0
102
RTVSPost2010PropOp49
 70
     1
102
RTVSPost2010Prop50
 90
       50
102
RTVSPost2010PropOp50
 70
     1
102
RTVSPost2010Prop51ColorIndex
 90
      256
102
RTVSPost2010Prop51ColorRGB
 90
-16777216
102
RTVSPost2010PropOp51
 70
     0
102
RTVSPost2010Prop52
140
1.0
102
RTVSPost2010PropOp52
 70
     0
102
RTVSPost2010Prop53
 90
        2
102
RTVSPost2010PropOp53
 70
     1
102
RTVSPost2010Prop54
  1
strokes_ogs.tif
102
RTVSPost2010PropOp54
 70
     1
102
RTVSPost2010Prop55
280
     0
102
RTVSPost2010PropOp55
 70
     1
102
RTVSPost2010Prop56
140
1.0
102
RTVSPost2010PropOp56
 70
     1
102
RTVSPost2010Prop57
140
1.0
102
RTVSPost2010PropOp57
 70
     1
  0
XRECORD
  5
2212E
102
{ACAD_REACTORS
330
2212D
102
}
330
2212D
100
AcDbXrecord
280
     1
102
RTVSPost2010Prop28
280
     0
102
RTVSPost2010PropOp28
 70
     1
102
RTVSPost2010Prop29
280
     1
102
RTVSPost2010PropOp29
 70
     1
102
RTVSPost2010Prop30
280
     1
102
RTVSPost2010PropOp30
 70
     1
102
RTVSPost2010Prop31
280
     0
102
RTVSPost2010PropOp31
 70
     1
102
RTVSPost2010Prop32
280
     0
102
RTVSPost2010PropOp32
 70
     1
102
RTVSPost2010Prop33
280
     0
102
RTVSPost2010PropOp33
 70
     1
102
RTVSPost2010Prop34
280
     0
102
RTVSPost2010PropOp34
 70
     1
102
RTVSPost2010Prop35
280
     0
102
RTVSPost2010PropOp35
 70
     1
102
RTVSPost2010Prop36
280
     0
102
RTVSPost2010PropOp36
 70
     1
102
RTVSPost2010Prop37
 90
       50
102
RTVSPost2010PropOp37
 70
     1
102
RTVSPost2010Prop38
140
0.0
102
RTVSPost2010PropOp38
 70
     1
102
RTVSPost2010Prop39
140
1.0
102
RTVSPost2010PropOp39
 70
     1
102
RTVSPost2010Prop40
 90
        0
102
RTVSPost2010PropOp40
 70
     1
102
RTVSPost2010Prop41ColorIndex
 90
       18
102
RTVSPost2010Prop41ColorRGB
 90
        0
102
RTVSPost2010PropOp41
 70
     1
102
RTVSPost2010Prop42
 90
       50
102
RTVSPost2010PropOp42
 70
     1
102
RTVSPost2010Prop43
 90
        3
102
RTVSPost2010PropOp43
 70
     1
102
RTVSPost2010Prop44ColorIndex
 90
        5
102
RTVSPost2010Prop44ColorRGB
 90
      255
102
RTVSPost2010PropOp44
 70
     1
102
RTVSPost2010Prop45
280
     0
102
RTVSPost2010PropOp45
 70
     1
102
RTVSPost2010Prop46
 90
       50
102
RTVSPost2010PropOp46
 70
     1
102
RTVSPost2010Prop47
 90
       50
102
RTVSPost2010PropOp47
 70
     1
102
RTVSPost2010Prop48
 90
       50
102
RTVSPost2010PropOp48
 70
     1
102
RTVSPost2010Prop49
280
     0
102
RTVSPost2010PropOp49
 70
     1
102
RTVSPost2010Prop50
 90
       50
102
RTVSPost2010PropOp50
 70
     1
102
RTVSPost2010Prop51ColorIndex
 90
      256
102
RTVSPost2010Prop51ColorRGB
 90
-16777216
102
RTVSPost2010PropOp51
 70
     0
102
RTVSPost2010Prop52
140
1.0
102
RTVSPost2010PropOp52
 70
     0
102
RTVSPost2010Prop53
 90
        2
102
RTVSPost2010PropOp53
 70
     1
102
RTVSPost2010Prop54
  1
strokes_ogs.tif
102
RTVSPost2010PropOp54
 70
     1
102
RTVSPost2010Prop55
280
     0
102
RTVSPost2010PropOp55
 70
     1
102
RTVSPost2010Prop56
140
1.0
102
RTVSPost2010PropOp56
 70
     1
102
RTVSPost2010Prop57
140
1.0
102
RTVSPost2010PropOp57
 70
     1
  0
XRECORD
  5
22130
102
{ACAD_REACTORS
330
2212F
102
}
330
2212F
100
AcDbXrecord
280
     1
102
RTVSPost2010Prop28
280
     0
102
RTVSPost2010PropOp28
 70
     1
102
RTVSPost2010Prop29
280
     1
102
RTVSPost2010PropOp29
 70
     1
102
RTVSPost2010Prop30
280
     1
102
RTVSPost2010PropOp30
 70
     1
102
RTVSPost2010Prop31
280
     0
102
RTVSPost2010PropOp31
 70
     1
102
RTVSPost2010Prop32
280
     0
102
RTVSPost2010PropOp32
 70
     1
102
RTVSPost2010Prop33
280
     0
102
RTVSPost2010PropOp33
 70
     1
102
RTVSPost2010Prop34
280
     0
102
RTVSPost2010PropOp34
 70
     1
102
RTVSPost2010Prop35
280
     0
102
RTVSPost2010PropOp35
 70
     1
102
RTVSPost2010Prop36
280
     0
102
RTVSPost2010PropOp36
 70
     1
102
RTVSPost2010Prop37
 90
       50
102
RTVSPost2010PropOp37
 70
     1
102
RTVSPost2010Prop38
140
0.0
102
RTVSPost2010PropOp38
 70
     1
102
RTVSPost2010Prop39
140
1.0
102
RTVSPost2010PropOp39
 70
     1
102
RTVSPost2010Prop40
 90
        0
102
RTVSPost2010PropOp40
 70
     1
102
RTVSPost2010Prop41ColorIndex
 90
       18
102
RTVSPost2010Prop41ColorRGB
 90
        0
102
RTVSPost2010PropOp41
 70
     1
102
RTVSPost2010Prop42
 90
       50
102
RTVSPost2010PropOp42
 70
     1
102
RTVSPost2010Prop43
 90
        3
102
RTVSPost2010PropOp43
 70
     1
102
RTVSPost2010Prop44ColorIndex
 90
        5
102
RTVSPost2010Prop44ColorRGB
 90
      255
102
RTVSPost2010PropOp44
 70
     1
102
RTVSPost2010Prop45
280
     0
102
RTVSPost2010PropOp45
 70
     1
102
RTVSPost2010Prop46
 90
       50
102
RTVSPost2010PropOp46
 70
     1
102
RTVSPost2010Prop47
 90
       50
102
RTVSPost2010PropOp47
 70
     1
102
RTVSPost2010Prop48
 90
       50
102
RTVSPost2010PropOp48
 70
     1
102
RTVSPost2010Prop49
280
     0
102
RTVSPost2010PropOp49
 70
     1
102
RTVSPost2010Prop50
 90
       50
102
RTVSPost2010PropOp50
 70
     1
102
RTVSPost2010Prop51ColorIndex
 90
      256
102
RTVSPost2010Prop51ColorRGB
 90
-16777216
102
RTVSPost2010PropOp51
 70
     0
102
RTVSPost2010Prop52
140
1.0
102
RTVSPost2010PropOp52
 70
     0
102
RTVSPost2010Prop53
 90
        2
102
RTVSPost2010PropOp53
 70
     1
102
RTVSPost2010Prop54
  1
strokes_ogs.tif
102
RTVSPost2010PropOp54
 70
     1
102
RTVSPost2010Prop55
280
     0
102
RTVSPost2010PropOp55
 70
     1
102
RTVSPost2010Prop56
140
1.0
102
RTVSPost2010PropOp56
 70
     1
102
RTVSPost2010Prop57
140
1.0
102
RTVSPost2010PropOp57
 70
     1
  0
XRECORD
  5
22122
102
{ACAD_REACTORS
330
22121
102
}
330
22121
100
AcDbXrecord
280
     1
102
RTVSPost2010Prop28
280
     0
102
RTVSPost2010PropOp28
 70
     1
102
RTVSPost2010Prop29
280
     1
102
RTVSPost2010PropOp29
 70
     1
102
RTVSPost2010Prop30
280
     1
102
RTVSPost2010PropOp30
 70
     1
102
RTVSPost2010Prop31
280
     0
102
RTVSPost2010PropOp31
 70
     1
102
RTVSPost2010Prop32
280
     0
102
RTVSPost2010PropOp32
 70
     1
102
RTVSPost2010Prop33
280
     0
102
RTVSPost2010PropOp33
 70
     1
102
RTVSPost2010Prop34
280
     0
102
RTVSPost2010PropOp34
 70
     1
102
RTVSPost2010Prop35
280
     0
102
RTVSPost2010PropOp35
 70
     1
102
RTVSPost2010Prop36
280
     0
102
RTVSPost2010PropOp36
 70
     1
102
RTVSPost2010Prop37
 90
       50
102
RTVSPost2010PropOp37
 70
     1
102
RTVSPost2010Prop38
140
0.0
102
RTVSPost2010PropOp38
 70
     1
102
RTVSPost2010Prop39
140
1.0
102
RTVSPost2010PropOp39
 70
     1
102
RTVSPost2010Prop40
 90
        0
102
RTVSPost2010PropOp40
 70
     1
102
RTVSPost2010Prop41ColorIndex
 90
       18
102
RTVSPost2010Prop41ColorRGB
 90
        0
102
RTVSPost2010PropOp41
 70
     1
102
RTVSPost2010Prop42
 90
       50
102
RTVSPost2010PropOp42
 70
     1
102
RTVSPost2010Prop43
 90
        3
102
RTVSPost2010PropOp43
 70
     1
102
RTVSPost2010Prop44ColorIndex
 90
        5
102
RTVSPost2010Prop44ColorRGB
 90
      255
102
RTVSPost2010PropOp44
 70
     1
102
RTVSPost2010Prop45
280
     0
102
RTVSPost2010PropOp45
 70
     1
102
RTVSPost2010Prop46
 90
       50
102
RTVSPost2010PropOp46
 70
     1
102
RTVSPost2010Prop47
 90
       50
102
RTVSPost2010PropOp47
 70
     1
102
RTVSPost2010Prop48
 90
       50
102
RTVSPost2010PropOp48
 70
     1
102
RTVSPost2010Prop49
280
     0
102
RTVSPost2010PropOp49
 70
     1
102
RTVSPost2010Prop50
 90
       50
102
RTVSPost2010PropOp50
 70
     1
102
RTVSPost2010Prop51ColorIndex
 90
      256
102
RTVSPost2010Prop51ColorRGB
 90
-16777216
102
RTVSPost2010PropOp51
 70
     0
102
RTVSPost2010Prop52
140
1.0
102
RTVSPost2010PropOp52
 70
     0
102
RTVSPost2010Prop53
 90
        2
102
RTVSPost2010PropOp53
 70
     1
102
RTVSPost2010Prop54
  1
strokes_ogs.tif
102
RTVSPost2010PropOp54
 70
     1
102
RTVSPost2010Prop55
280
     0
102
RTVSPost2010PropOp55
 70
     1
102
RTVSPost2010Prop56
140
1.0
102
RTVSPost2010PropOp56
 70
     1
102
RTVSPost2010Prop57
140
1.0
102
RTVSPost2010PropOp57
 70
     1
  0
XRECORD
  5
2212A
102
{ACAD_REACTORS
330
22129
102
}
330
22129
100
AcDbXrecord
280
     1
102
RTVSPost2010Prop28
280
     0
102
RTVSPost2010PropOp28
 70
     1
102
RTVSPost2010Prop29
280
     1
102
RTVSPost2010PropOp29
 70
     1
102
RTVSPost2010Prop30
280
     1
102
RTVSPost2010PropOp30
 70
     1
102
RTVSPost2010Prop31
280
     0
102
RTVSPost2010PropOp31
 70
     1
102
RTVSPost2010Prop32
280
     0
102
RTVSPost2010PropOp32
 70
     1
102
RTVSPost2010Prop33
280
     0
102
RTVSPost2010PropOp33
 70
     1
102
RTVSPost2010Prop34
280
     0
102
RTVSPost2010PropOp34
 70
     1
102
RTVSPost2010Prop35
280
     0
102
RTVSPost2010PropOp35
 70
     1
102
RTVSPost2010Prop36
280
     0
102
RTVSPost2010PropOp36
 70
     1
102
RTVSPost2010Prop37
 90
       50
102
RTVSPost2010PropOp37
 70
     1
102
RTVSPost2010Prop38
140
0.0
102
RTVSPost2010PropOp38
 70
     1
102
RTVSPost2010Prop39
140
1.0
102
RTVSPost2010PropOp39
 70
     1
102
RTVSPost2010Prop40
 90
        0
102
RTVSPost2010PropOp40
 70
     1
102
RTVSPost2010Prop41ColorIndex
 90
       18
102
RTVSPost2010Prop41ColorRGB
 90
        0
102
RTVSPost2010PropOp41
 70
     1
102
RTVSPost2010Prop42
 90
       50
102
RTVSPost2010PropOp42
 70
     1
102
RTVSPost2010Prop43
 90
        3
102
RTVSPost2010PropOp43
 70
     1
102
RTVSPost2010Prop44ColorIndex
 90
        5
102
RTVSPost2010Prop44ColorRGB
 90
      255
102
RTVSPost2010PropOp44
 70
     1
102
RTVSPost2010Prop45
280
     0
102
RTVSPost2010PropOp45
 70
     1
102
RTVSPost2010Prop46
 90
       50
102
RTVSPost2010PropOp46
 70
     1
102
RTVSPost2010Prop47
 90
       50
102
RTVSPost2010PropOp47
 70
     1
102
RTVSPost2010Prop48
 90
       50
102
RTVSPost2010PropOp48
 70
     1
102
RTVSPost2010Prop49
280
     0
102
RTVSPost2010PropOp49
 70
     1
102
RTVSPost2010Prop50
 90
       50
102
RTVSPost2010PropOp50
 70
     1
102
RTVSPost2010Prop51ColorIndex
 90
      256
102
RTVSPost2010Prop51ColorRGB
 90
-16777216
102
RTVSPost2010PropOp51
 70
     0
102
RTVSPost2010Prop52
140
1.0
102
RTVSPost2010PropOp52
 70
     0
102
RTVSPost2010Prop53
 90
        2
102
RTVSPost2010PropOp53
 70
     1
102
RTVSPost2010Prop54
  1
strokes_ogs.tif
102
RTVSPost2010PropOp54
 70
     1
102
RTVSPost2010Prop55
280
     0
102
RTVSPost2010PropOp55
 70
     1
102
RTVSPost2010Prop56
140
1.0
102
RTVSPost2010PropOp56
 70
     1
102
RTVSPost2010Prop57
140
1.0
102
RTVSPost2010PropOp57
 70
     1
  0
XRECORD
  5
22132
102
{ACAD_REACTORS
330
22131
102
}
330
22131
100
AcDbXrecord
280
     1
102
RTVSPost2010Prop28
280
     0
102
RTVSPost2010PropOp28
 70
     1
102
RTVSPost2010Prop29
280
     1
102
RTVSPost2010PropOp29
 70
     1
102
RTVSPost2010Prop30
280
     1
102
RTVSPost2010PropOp30
 70
     1
102
RTVSPost2010Prop31
280
     0
102
RTVSPost2010PropOp31
 70
     1
102
RTVSPost2010Prop32
280
     0
102
RTVSPost2010PropOp32
 70
     1
102
RTVSPost2010Prop33
280
     0
102
RTVSPost2010PropOp33
 70
     1
102
RTVSPost2010Prop34
280
     0
102
RTVSPost2010PropOp34
 70
     1
102
RTVSPost2010Prop35
280
     0
102
RTVSPost2010PropOp35
 70
     1
102
RTVSPost2010Prop36
280
     0
102
RTVSPost2010PropOp36
 70
     1
102
RTVSPost2010Prop37
 90
       50
102
RTVSPost2010PropOp37
 70
     1
102
RTVSPost2010Prop38
140
0.0
102
RTVSPost2010PropOp38
 70
     1
102
RTVSPost2010Prop39
140
1.0
102
RTVSPost2010PropOp39
 70
     1
102
RTVSPost2010Prop40
 90
        0
102
RTVSPost2010PropOp40
 70
     1
102
RTVSPost2010Prop41ColorIndex
 90
       18
102
RTVSPost2010Prop41ColorRGB
 90
        0
102
RTVSPost2010PropOp41
 70
     1
102
RTVSPost2010Prop42
 90
       50
102
RTVSPost2010PropOp42
 70
     1
102
RTVSPost2010Prop43
 90
        3
102
RTVSPost2010PropOp43
 70
     1
102
RTVSPost2010Prop44ColorIndex
 90
        5
102
RTVSPost2010Prop44ColorRGB
 90
      255
102
RTVSPost2010PropOp44
 70
     1
102
RTVSPost2010Prop45
280
     0
102
RTVSPost2010PropOp45
 70
     1
102
RTVSPost2010Prop46
 90
       50
102
RTVSPost2010PropOp46
 70
     1
102
RTVSPost2010Prop47
 90
       50
102
RTVSPost2010PropOp47
 70
     1
102
RTVSPost2010Prop48
 90
       50
102
RTVSPost2010PropOp48
 70
     1
102
RTVSPost2010Prop49
280
     0
102
RTVSPost2010PropOp49
 70
     1
102
RTVSPost2010Prop50
 90
       50
102
RTVSPost2010PropOp50
 70
     1
102
RTVSPost2010Prop51ColorIndex
 90
      256
102
RTVSPost2010Prop51ColorRGB
 90
-16777216
102
RTVSPost2010PropOp51
 70
     0
102
RTVSPost2010Prop52
140
1.0
102
RTVSPost2010PropOp52
 70
     0
102
RTVSPost2010Prop53
 90
        2
102
RTVSPost2010PropOp53
 70
     1
102
RTVSPost2010Prop54
  1
strokes_ogs.tif
102
RTVSPost2010PropOp54
 70
     1
102
RTVSPost2010Prop55
280
     0
102
RTVSPost2010PropOp55
 70
     1
102
RTVSPost2010Prop56
140
1.0
102
RTVSPost2010PropOp56
 70
     1
102
RTVSPost2010Prop57
140
1.0
102
RTVSPost2010PropOp57
 70
     1
  0
ENDSEC
  0
EOF
