  0
SECTION
  2
HEADER
  9
$ACADVER
  1
AC1024
  9
$ACADMAINTVER
 70
   182
  9
$DWGCODEPAGE
  3
ANSI_1252
  9
$LASTSAVEDBY
  1
kamerka
  9
$INSBASE
 10
0.0
 20
0.0
 30
0.0
  9
$EXTMIN
 10
-94.39451585418124
 20
-54.10959832833555
 30
-0.0000000000112498
  9
$EXTMAX
 10
70.79217737215981
 20
50.59218178723984
 30
0.0000000000002956
  9
$LIMMIN
 10
0.0
 20
0.0
  9
$LIMMAX
 10
420.0
 20
297.0
  9
$ORTHOMODE
 70
     0
  9
$REGENMODE
 70
     1
  9
$FILLMODE
 70
     1
  9
$QTEXTMODE
 70
     0
  9
$MIRRTEXT
 70
     0
  9
$LTSCALE
 40
23.1
  9
$ATTMODE
 70
     1
  9
$TEXTSIZE
 40
3.5
  9
$TRACEWID
 40
0.05
  9
$TEXTSTYLE
  7
STANDARD
  9
$CLAYER
  8
0
  9
$CELTYPE
  6
BYLAYER
  9
$CECOLOR
 62
   256
  9
$CELTSCALE
 40
1.0
  9
$DISPSILH
 70
     0
  9
$DIMSCALE
 40
1.0
  9
$DIMASZ
 40
4.57
  9
$DIMEXO
 40
0.0625
  9
$DIMDLI
 40
0.38
  9
$DIMRND
 40
0.0
  9
$DIMDLE
 40
0.0
  9
$DIMEXE
 40
0.18
  9
$DIMTP
 40
0.01
  9
$DIMTM
 40
0.01
  9
$DIMTXT
 40
3.5
  9
$DIMCEN
 40
0.09
  9
$DIMTSZ
 40
0.0
  9
$DIMTOL
 70
     0
  9
$DIMLIM
 70
     0
  9
$DIMTIH
 70
     0
  9
$DIMTOH
 70
     0
  9
$DIMSE1
 70
     0
  9
$DIMSE2
 70
     0
  9
$DIMTAD
 70
     1
  9
$DIMZIN
 70
     8
  9
$DIMBLK
  1

  9
$DIMASO
 70
     1
  9
$DIMSHO
 70
     1
  9
$DIMPOST
  1

  9
$DIMAPOST
  1

  9
$DIMALT
 70
     0
  9
$DIMALTD
 70
     2
  9
$DIMALTF
 40
25.4
  9
$DIMLFAC
 40
1.0
  9
$DIMTOFL
 70
     0
  9
$DIMTVP
 40
0.0
  9
$DIMTIX
 70
     0
  9
$DIMSOXD
 70
     0
  9
$DIMSAH
 70
     0
  9
$DIMBLK1
  1

  9
$DIMBLK2
  1

  9
$DIMSTYLE
  2
STANDARD
  9
$DIMCLRD
 70
     0
  9
$DIMCLRE
 70
     0
  9
$DIMCLRT
 70
     0
  9
$DIMTFAC
 40
1.0
  9
$DIMGAP
 40
0.09
  9
$DIMJUST
 70
     0
  9
$DIMSD1
 70
     0
  9
$DIMSD2
 70
     0
  9
$DIMTOLJ
 70
     1
  9
$DIMTZIN
 70
     8
  9
$DIMALTZ
 70
     0
  9
$DIMALTTZ
 70
     0
  9
$DIMUPT
 70
     0
  9
$DIMDEC
 70
     3
  9
$DIMTDEC
 70
     3
  9
$DIMALTU
 70
     2
  9
$DIMALTTD
 70
     2
  9
$DIMTXSTY
  7
STANDARD
  9
$DIMAUNIT
 70
     0
  9
$DIMADEC
 70
     0
  9
$DIMALTRND
 40
0.0
  9
$DIMAZIN
 70
     0
  9
$DIMDSEP
 70
    46
  9
$DIMATFIT
 70
     0
  9
$DIMFRAC
 70
     0
  9
$DIMLDRBLK
  1

  9
$DIMLUNIT
 70
     2
  9
$DIMLWD
 70
    -2
  9
$DIMLWE
 70
    -2
  9
$DIMTMOVE
 70
     0
  9
$DIMFXL
 40
1.0
  9
$DIMFXLON
 70
     0
  9
$DIMJOGANG
 40
0.7853981633974483
  9
$DIMTFILL
 70
     0
  9
$DIMTFILLCLR
 70
     0
  9
$DIMARCSYM
 70
     0
  9
$DIMLTYPE
  6

  9
$DIMLTEX1
  6

  9
$DIMLTEX2
  6

  9
$DIMTXTDIRECTION
 70
     0
  9
$LUNITS
 70
     2
  9
$LUPREC
 70
     4
  9
$SKETCHINC
 40
0.1
  9
$FILLETRAD
 40
0.0
  9
$AUNITS
 70
     0
  9
$AUPREC
 70
     0
  9
$MENU
  1
.
  9
$ELEVATION
 40
0.0
  9
$PELEVATION
 40
0.0
  9
$THICKNESS
 40
0.0
  9
$LIMCHECK
 70
     0
  9
$CHAMFERA
 40
0.0
  9
$CHAMFERB
 40
0.0
  9
$CHAMFERC
 40
0.0
  9
$CHAMFERD
 40
0.0
  9
$SKPOLY
 70
     0
  9
$TDCREATE
 40
2458446.405227107
  9
$TDUCREATE
 40
2458446.321893773
  9
$TDUPDATE
 40
2458975.455173692
  9
$TDUUPDATE
 40
2458975.371840359
  9
$TDINDWG
 40
0.0291439352
  9
$TDUSRTIMER
 40
0.0291428704
  9
$USRTIMER
 70
     1
  9
$ANGBASE
 50
0.0
  9
$ANGDIR
 70
     0
  9
$PDMODE
 70
     3
  9
$PDSIZE
 40
0.3125
  9
$PLINEWID
 40
0.0
  9
$SPLFRAME
 70
     0
  9
$SPLINETYPE
 70
     6
  9
$SPLINESEGS
 70
     8
  9
$HANDSEED
  5
22164
  9
$SURFTAB1
 70
     6
  9
$SURFTAB2
 70
     6
  9
$SURFTYPE
 70
     6
  9
$SURFU
 70
     6
  9
$SURFV
 70
     6
  9
$UCSBASE
  2

  9
$UCSNAME
  2

  9
$UCSORG
 10
0.0
 20
0.0
 30
0.0
  9
$UCSXDIR
 10
1.0
 20
0.0
 30
0.0
  9
$UCSYDIR
 10
0.0
 20
1.0
 30
0.0
  9
$UCSORTHOREF
  2

  9
$UCSORTHOVIEW
 70
     0
  9
$UCSORGTOP
 10
0.0
 20
0.0
 30
0.0
  9
$UCSORGBOTTOM
 10
0.0
 20
0.0
 30
0.0
  9
$UCSORGLEFT
 10
0.0
 20
0.0
 30
0.0
  9
$UCSORGRIGHT
 10
0.0
 20
0.0
 30
0.0
  9
$UCSORGFRONT
 10
0.0
 20
0.0
 30
0.0
  9
$UCSORGBACK
 10
0.0
 20
0.0
 30
0.0
  9
$PUCSBASE
  2

  9
$PUCSNAME
  2

  9
$PUCSORG
 10
0.0
 20
0.0
 30
0.0
  9
$PUCSXDIR
 10
1.0
 20
0.0
 30
0.0
  9
$PUCSYDIR
 10
0.0
 20
1.0
 30
0.0
  9
$PUCSORTHOREF
  2

  9
$PUCSORTHOVIEW
 70
     0
  9
$PUCSORGTOP
 10
0.0
 20
0.0
 30
0.0
  9
$PUCSORGBOTTOM
 10
0.0
 20
0.0
 30
0.0
  9
$PUCSORGLEFT
 10
0.0
 20
0.0
 30
0.0
  9
$PUCSORGRIGHT
 10
0.0
 20
0.0
 30
0.0
  9
$PUCSORGFRONT
 10
0.0
 20
0.0
 30
0.0
  9
$PUCSORGBACK
 10
0.0
 20
0.0
 30
0.0
  9
$USERI1
 70
     0
  9
$USERI2
 70
     0
  9
$USERI3
 70
     0
  9
$USERI4
 70
     0
  9
$USERI5
 70
     0
  9
$USERR1
 40
0.0
  9
$USERR2
 40
0.0
  9
$USERR3
 40
0.0
  9
$USERR4
 40
0.0
  9
$USERR5
 40
0.0
  9
$WORLDVIEW
 70
     1
  9
$SHADEDGE
 70
     3
  9
$SHADEDIF
 70
    70
  9
$TILEMODE
 70
     1
  9
$MAXACTVP
 70
    64
  9
$PINSBASE
 10
0.0
 20
0.0
 30
0.0
  9
$PLIMCHECK
 70
     0
  9
$PEXTMIN
 10
28.69141678810127
 20
19.6363175392151
 30
0.0
  9
$PEXTMAX
 10
258.2227510929107
 20
176.7268578529358
 30
0.0
  9
$PLIMMIN
 10
-5.027069091796875
 20
-6.805083274841307
  9
$PLIMMAX
 10
291.9412536621094
 20
203.1682443618775
  9
$UNITMODE
 70
     0
  9
$VISRETAIN
 70
     1
  9
$PLINEGEN
 70
     0
  9
$PSLTSCALE
 70
     1
  9
$TREEDEPTH
 70
  3020
  9
$CMLSTYLE
  2
STANDARD
  9
$CMLJUST
 70
     0
  9
$CMLSCALE
 40
1.0
  9
$PROXYGRAPHICS
 70
     1
  9
$MEASUREMENT
 70
     1
  9
$CELWEIGHT
370
    -1
  9
$ENDCAPS
280
     0
  9
$JOINSTYLE
280
     0
  9
$LWDISPLAY
290
     0
  9
$INSUNITS
 70
     0
  9
$HYPERLINKBASE
  1

  9
$STYLESHEET
  1
A1-A2.CTB
  9
$XEDIT
290
     1
  9
$CEPSNTYPE
380
     0
  9
$PSTYLEMODE
290
     1
  9
$FINGERPRINTGUID
  2
{6D3BC7B5-ACA7-406D-8A0D-A7DBBE093430}
  9
$VERSIONGUID
  2
{4DA222B2-AB4B-44AD-AADD-A1F835922695}
  9
$EXTNAMES
290
     1
  9
$PSVPSCALE
 40
0.0
  9
$OLESTARTUP
290
     0
  9
$SORTENTS
280
   127
  9
$INDEXCTL
280
     0
  9
$HIDETEXT
280
     0
  9
$XCLIPFRAME
280
     2
  9
$HALOGAP
280
     0
  9
$OBSCOLOR
 70
   257
  9
$OBSLTYPE
280
     0
  9
$INTERSECTIONDISPLAY
280
     0
  9
$INTERSECTIONCOLOR
 70
   257
  9
$DIMASSOC
280
     1
  9
$PROJECTNAME
  1

  9
$CAMERADISPLAY
290
     0
  9
$LENSLENGTH
 40
50.0
  9
$CAMERAHEIGHT
 40
0.0
  9
$STEPSPERSEC
 40
2.0
  9
$STEPSIZE
 40
6.0
  9
$3DDWFPREC
 40
2.0
  9
$PSOLWIDTH
 40
0.25
  9
$PSOLHEIGHT
 40
4.0
  9
$LOFTANG1
 40
1.570796326794896
  9
$LOFTANG2
 40
1.570796326794896
  9
$LOFTMAG1
 40
0.0
  9
$LOFTMAG2
 40
0.0
  9
$LOFTPARAM
 70
     7
  9
$LOFTNORMALS
280
     1
  9
$LATITUDE
 40
37.795
  9
$LONGITUDE
 40
-122.394
  9
$NORTHDIRECTION
 40
0.0
  9
$TIMEZONE
 70
 -8000
  9
$LIGHTGLYPHDISPLAY
280
     1
  9
$TILEMODELIGHTSYNCH
280
     1
  9
$CMATERIAL
347
318C
  9
$SOLIDHIST
280
     0
  9
$SHOWHIST
280
     1
  9
$DWFFRAME
280
     2
  9
$DGNFRAME
280
     0
  9
$REALWORLDSCALE
290
     1
  9
$INTERFERECOLOR
 62
     1
  9
$INTERFEREOBJVS
345
3199
  9
$INTERFEREVPVS
346
1B2E3
  9
$CSHADOW
280
     0
  9
$SHADOWPLANELOCATION
 40
0.0
  0
ENDSEC
  0
SECTION
  2
CLASSES
  0
CLASS
  1
ACDBDICTIONARYWDFLT
  2
AcDbDictionaryWithDefault
  3
ObjectDBX Classes
 90
        0
 91
        1
280
     0
281
     0
  0
CLASS
  1
MATERIAL
  2
AcDbMaterial
  3
ObjectDBX Classes
 90
     1153
 91
        3
280
     0
281
     0
  0
CLASS
  1
VISUALSTYLE
  2
AcDbVisualStyle
  3
ObjectDBX Classes
 90
     4095
 91
       26
280
     0
281
     0
  0
CLASS
  1
TABLESTYLE
  2
AcDbTableStyle
  3
ObjectDBX Classes
 90
     4095
 91
        1
280
     0
281
     0
  0
CLASS
  1
SORTENTSTABLE
  2
AcDbSortentsTable
  3
ObjectDBX Classes
 90
        0
 91
        2
280
     0
281
     0
  0
CLASS
  1
DICTIONARYVAR
  2
AcDbDictionaryVar
  3
ObjectDBX Classes
 90
        0
 91
       13
280
     0
281
     0
  0
CLASS
  1
EXACXREFPANELOBJECT
  2
ExAcXREFPanelObject
  3
EXAC_ESW
 90
     1025
 91
        0
280
     1
281
     0
  0
CLASS
  1
NPOCOLLECTION
  2
AcDbImpNonPersistentObjectsCollection
  3
ObjectDBX Classes
 90
     1153
 91
        0
280
     1
281
     0
  0
CLASS
  1
SCALE
  2
AcDbScale
  3
ObjectDBX Classes
 90
     1153
 91
       33
280
     0
281
     0
  0
CLASS
  1
MLEADERSTYLE
  2
AcDbMLeaderStyle
  3
ACDB_MLEADERSTYLE_CLASS
 90
     4095
 91
        1
280
     0
281
     0
  0
CLASS
  1
ACDBSECTIONVIEWSTYLE
  2
AcDbSectionViewStyle
  3
ObjectDBX Classes
 90
     1025
 91
        2
280
     0
281
     0
  0
CLASS
  1
ACDBDETAILVIEWSTYLE
  2
AcDbDetailViewStyle
  3
ObjectDBX Classes
 90
     1025
 91
        2
280
     0
281
     0
  0
CLASS
  1
CELLSTYLEMAP
  2
AcDbCellStyleMap
  3
ObjectDBX Classes
 90
     1152
 91
        2
280
     0
281
     0
  0
CLASS
  1
ACAD_EVALUATION_GRAPH
  2
AcDbEvalGraph
  3
ObjectDBX Classes
 90
     1153
 91
        0
280
     0
281
     0
  0
CLASS
  1
ACAECUSTOBJ
  2
AcAeEditorObj
  3
AcAeEditorObj
 90
     1024
 91
        0
280
     0
281
     0
  0
CLASS
  1
ACDB_DYNAMICBLOCKPURGEPREVENTER_VERSION
  2
AcDbDynamicBlockPurgePreventer
  3
ObjectDBX Classes
 90
     1153
 91
        0
280
     0
281
     0
  0
CLASS
  1
FIELD
  2
AcDbField
  3
ObjectDBX Classes
 90
     1152
 91
        0
280
     0
281
     0
  0
CLASS
  1
FIELDLIST
  2
AcDbFieldList
  3
ObjectDBX Classes
 90
     1152
 91
        1
280
     0
281
     0
  0
CLASS
  1
ACDB_ALDIMOBJECTCONTEXTDATA_CLASS
  2
AcDbAlignedDimensionObjectContextData
  3
ObjectDBX Classes
 90
     1153
 91
        0
280
     0
281
     0
  0
ENDSEC
  0
SECTION
  2
TABLES
  0
TABLE
  2
VPORT
  5
8
330
0
100
AcDbSymbolTable
 70
     1
  0
VPORT
  5
1F4
330
8
100
AcDbSymbolTableRecord
100
AcDbViewportTableRecord
  2
*ACTIVE
 70
     0
 10
0.0
 20
0.0
 11
1.0
 21
1.0
 12
-11.80116924101072
 22
-1.758708270547856
 13
0.0
 23
0.0
 14
1.0
 24
1.0
 15
0.0
 25
0.0
 16
0.0
 26
0.0
 36
1.0
 17
0.0
 27
0.0
 37
0.0
 40
105.5992239451374
 41
2.698140200286123
 42
50.0
 43
0.0
 44
0.0
 50
0.0
 51
0.0
 71
     0
 72
  2000
 73
     1
 74
     1
 75
     0
 76
     0
 77
     0
 78
     0
281
     0
 65
     1
110
0.0
120
0.0
130
0.0
111
1.0
121
0.0
131
0.0
112
0.0
122
1.0
132
0.0
 79
     0
146
0.0
348
3195
 60
     3
 61
     5
292
     1
282
     1
141
0.0
142
0.0
 63
   250
421
  3355443
1001
ACAD_NAV_VCDISPLAY
1070
     3
  0
ENDTAB
  0
TABLE
  2
LTYPE
  5
5
330
0
100
AcDbSymbolTable
 70
     6
  0
LTYPE
  5
14
330
5
100
AcDbSymbolTableRecord
100
AcDbLinetypeTableRecord
  2
BYBLOCK
 70
     0
  3

 72
    65
 73
     0
 40
0.0
  0
LTYPE
  5
15
330
5
100
AcDbSymbolTableRecord
100
AcDbLinetypeTableRecord
  2
BYLAYER
 70
     0
  3

 72
    65
 73
     0
 40
0.0
  0
LTYPE
  5
16
330
5
100
AcDbSymbolTableRecord
100
AcDbLinetypeTableRecord
  2
CONTINUOUS
 70
     0
  3
Solid line
 72
    65
 73
     0
 40
0.0
  0
LTYPE
  5
9C48
330
5
100
AcDbSymbolTableRecord
100
AcDbLinetypeTableRecord
  2
CENTER
 70
     0
  3
____ _ ____ _ ____ _ ____ _ ____ _ ____ _ ____
 72
    65
 73
     4
 40
0.6
 49
0.375
 74
     0
 49
-0.075
 74
     0
 49
0.075
 74
     0
 49
-0.075
 74
     0
  0
LTYPE
  5
20A82
330
5
100
AcDbSymbolTableRecord
100
AcDbLinetypeTableRecord
  2
HIDDEN
 70
     0
  3
- - - - - - - - - - - - - - - - - - - -
 72
    65
 73
     2
 40
0.2
 49
0.1
 74
     0
 49
-0.1
 74
     0
  0
LTYPE
  5
21CB3
330
5
100
AcDbSymbolTableRecord
100
AcDbLinetypeTableRecord
  2
CENTER2
 70
     0
  3
Center (.5x) ___ _ ___ _ ___ _ ___ _ ___ _ ___
 72
    65
 73
     4
 40
28.57499999999999
 49
19.05
 74
     4
 75
     0
340
0
 46
1.0
 50
0.0
 44
0.0
 45
0.0
 49
-3.174999999999998
 74
     4
 75
     0
340
0
 46
1.0
 50
0.0
 44
0.0
 45
0.0
 49
3.174999999999998
 74
     4
 75
     0
340
0
 46
1.0
 50
0.0
 44
0.0
 45
0.0
 49
-3.174999999999998
 74
     4
 75
     0
340
0
 46
1.0
 50
0.0
 44
0.0
 45
0.0
  0
ENDTAB
  0
TABLE
  2
LAYER
  5
2
102
{ACAD_XDICTIONARY
360
422A
102
}
330
0
100
AcDbSymbolTable
 70
    16
  0
LAYER
  5
10
102
{ACAD_XDICTIONARY
360
1B2F5
102
}
330
2
100
AcDbSymbolTableRecord
100
AcDbLayerTableRecord
  2
0
 70
     0
 62
     7
  6
CONTINUOUS
370
    -3
390
318A
347
318E
  0
LAYER
  5
3F8C
102
{ACAD_XDICTIONARY
360
1B2F7
102
}
330
2
100
AcDbSymbolTableRecord
100
AcDbLayerTableRecord
  2
1
 70
     0
 62
     4
  6
BYBLOCK
370
    50
390
318A
347
318E
  0
LAYER
  5
3FA7
330
2
100
AcDbSymbolTableRecord
100
AcDbLayerTableRecord
  2
Defpoints
 70
     0
 62
     7
  6
CONTINUOUS
290
     0
370
    -3
390
318A
347
318E
  0
LAYER
  5
9C4A
102
{ACAD_XDICTIONARY
360
1B2F9
102
}
330
2
100
AcDbSymbolTableRecord
100
AcDbLayerTableRecord
  2
2
 70
     0
 62
     7
  6
BYBLOCK
370
    25
390
318A
347
318E
  0
LAYER
  5
9C4B
102
{ACAD_XDICTIONARY
360
1B2FB
102
}
330
2
100
AcDbSymbolTableRecord
100
AcDbLayerTableRecord
  2
4
 70
     0
 62
     2
  6
CENTER
370
    25
390
318A
347
318E
  0
LAYER
  5
9C4D
102
{ACAD_XDICTIONARY
360
1B2FD
102
}
330
2
100
AcDbSymbolTableRecord
100
AcDbLayerTableRecord
  2
CUT
 70
     0
 62
     1
  6
BYBLOCK
370
    25
390
318A
347
318E
  0
LAYER
  5
9C4E
102
{ACAD_XDICTIONARY
360
1B2FF
102
}
330
2
100
AcDbSymbolTableRecord
100
AcDbLayerTableRecord
  2
NOCUT
 70
     0
 62
     7
  6
BYBLOCK
370
    25
390
318A
347
318E
  0
LAYER
  5
9C4F
102
{ACAD_XDICTIONARY
360
1B301
102
}
330
2
100
AcDbSymbolTableRecord
100
AcDbLayerTableRecord
  2
SK2
 70
     0
 62
     7
  6
BYBLOCK
370
    25
390
318A
347
318E
  0
LAYER
  5
9C50
102
{ACAD_XDICTIONARY
360
1B303
102
}
330
2
100
AcDbSymbolTableRecord
100
AcDbLayerTableRecord
  2
SK1
 70
     0
 62
     4
  6
BYBLOCK
370
    50
390
318A
347
318E
  0
LAYER
  5
9C51
102
{ACAD_XDICTIONARY
360
1B305
102
}
330
2
100
AcDbSymbolTableRecord
100
AcDbLayerTableRecord
  2
SK4
 70
     0
 62
     2
  6
CENTER
370
    25
390
318A
347
318E
  0
LAYER
  5
13335
102
{ACAD_XDICTIONARY
360
1B307
102
}
330
2
100
AcDbSymbolTableRecord
100
AcDbLayerTableRecord
  2
INFTOTAL
 70
     0
 62
     9
  6
BYBLOCK
370
    18
390
318A
347
318E
1001
AcAecLayerStandard
1000

1000

  0
LAYER
  5
1686E
102
{ACAD_XDICTIONARY
360
1B309
102
}
330
2
100
AcDbSymbolTableRecord
100
AcDbLayerTableRecord
  2
SK6
 70
     0
 62
     5
  6
BYBLOCK
370
    -3
390
318A
347
318E
  0
LAYER
  5
21CB4
330
2
100
AcDbSymbolTableRecord
100
AcDbLayerTableRecord
  2
SK3
 70
     0
 62
     1
  6
HIDDEN
370
    35
390
318A
347
318E
  0
LAYER
  5
21CB5
330
2
100
AcDbSymbolTableRecord
100
AcDbLayerTableRecord
  2
SKVIEW1
 70
     0
 62
     4
  6
CONTINUOUS
370
    50
390
318A
347
318E
1001
AcAecLayerStandard
1000

1000

  0
LAYER
  5
21CB6
330
2
100
AcDbSymbolTableRecord
100
AcDbLayerTableRecord
  2
SKVIEW4
 70
     0
 62
     2
  6
CENTER2
370
    25
390
318A
347
318E
1001
AcAecLayerStandard
1000

1000

  0
ENDTAB
  0
TABLE
  2
STYLE
  5
3
330
0
100
AcDbSymbolTable
 70
     2
  0
STYLE
  5
11
330
3
100
AcDbSymbolTableRecord
100
AcDbTextStyleTableRecord
  2
STANDARD
 70
     0
 40
3.5
 41
0.8
 50
0.0
 71
     0
 42
3.5
  3
monos.ttf
  4

1001
ACAD
1000
Monospac821 BT
1071
       49
  0
ENDTAB
  0
TABLE
  2
VIEW
  5
6
330
0
100
AcDbSymbolTable
 70
     0
  0
ENDTAB
  0
TABLE
  2
UCS
  5
7
330
0
100
AcDbSymbolTable
 70
     0
  0
ENDTAB
  0
TABLE
  2
APPID
  5
9
330
0
100
AcDbSymbolTable
 70
    19
  0
APPID
  5
23B
330
9
100
AcDbSymbolTableRecord
100
AcDbRegAppTableRecord
  2
ACAD
 70
     0
  0
APPID
  5
3395
330
9
100
AcDbSymbolTableRecord
100
AcDbRegAppTableRecord
  2
ACAD_EXEMPT_FROM_CAD_STANDARDS
 70
     0
  0
APPID
  5
4229
330
9
100
AcDbSymbolTableRecord
100
AcDbRegAppTableRecord
  2
AcAecLayerStandard
 70
     0
  0
APPID
  5
9A1B
330
9
100
AcDbSymbolTableRecord
100
AcDbRegAppTableRecord
  2
ACAD_PSEXT
 70
     0
  0
APPID
  5
1B313
330
9
100
AcDbSymbolTableRecord
100
AcDbRegAppTableRecord
  2
ACAD_NAV_VCDISPLAY
 70
     0
  0
APPID
  5
1B355
330
9
100
AcDbSymbolTableRecord
100
AcDbRegAppTableRecord
  2
ACAD_MLEADERVER
 70
     0
  0
APPID
  5
1EC7F
330
9
100
AcDbSymbolTableRecord
100
AcDbRegAppTableRecord
  2
ACAUTHENVIRON
 70
     0
  0
APPID
  5
1EC82
330
9
100
AcDbSymbolTableRecord
100
AcDbRegAppTableRecord
  2
AcDbDynamicBlockTrueName
 70
     0
  0
APPID
  5
1EC83
330
9
100
AcDbSymbolTableRecord
100
AcDbRegAppTableRecord
  2
AcDbDynamicBlockGUID
 70
     0
  0
APPID
  5
20A85
330
9
100
AcDbSymbolTableRecord
100
AcDbRegAppTableRecord
  2
AcCmTransparency
 70
     0
  0
APPID
  5
20AE2
330
9
100
AcDbSymbolTableRecord
100
AcDbRegAppTableRecord
  2
ACAD_DSTYLE_DIMRADIAL_EXTENSION
 70
     0
  0
APPID
  5
20CB0
330
9
100
AcDbSymbolTableRecord
100
AcDbRegAppTableRecord
  2
AcadAnnotative
 70
     0
  0
APPID
  5
21667
330
9
100
AcDbSymbolTableRecord
100
AcDbRegAppTableRecord
  2
AcadAnnoMonitorAlertIconDisabled
 70
     0
  0
APPID
  5
21CB9
330
9
100
AcDbSymbolTableRecord
100
AcDbRegAppTableRecord
  2
ACAD_DSTYLE_DIMJAG
 70
     0
  0
APPID
  5
21CBA
330
9
100
AcDbSymbolTableRecord
100
AcDbRegAppTableRecord
  2
ACAD_DSTYLE_DIMTALN
 70
     0
  0
APPID
  5
21CBB
330
9
100
AcDbSymbolTableRecord
100
AcDbRegAppTableRecord
  2
ACAD_DSTYLE_DIM_LINETYPE
 70
     0
  0
APPID
  5
21CBC
330
9
100
AcDbSymbolTableRecord
100
AcDbRegAppTableRecord
  2
ACAD_DSTYLE_DIM_EXT1_LINETYPE
 70
     0
  0
APPID
  5
21CBD
330
9
100
AcDbSymbolTableRecord
100
AcDbRegAppTableRecord
  2
ACAD_DSTYLE_DIM_EXT2_LINETYPE
 70
     0
  0
APPID
  5
21CBE
330
9
100
AcDbSymbolTableRecord
100
AcDbRegAppTableRecord
  2
ACAD_DSTYLE_DIMARC_LENGTH_SYMBOL
 70
     0
  0
ENDTAB
  0
TABLE
  2
DIMSTYLE
  5
A
330
0
100
AcDbSymbolTable
 70
     3
100
AcDbDimStyleTable
 71
     1
340
243
  0
DIMSTYLE
105
243
102
{ACAD_REACTORS
330
21DFD
330
21DFC
330
21DFB
330
21DFA
330
21F1E
102
}
330
A
100
AcDbSymbolTableRecord
100
AcDbDimStyleTableRecord
  2
STANDARD
 70
     0
 41
4.57
 47
0.01
 48
0.01
 73
     0
 74
     0
 77
     1
 78
     8
140
3.5
271
     3
272
     3
284
     8
289
     0
340
11
  0
ENDTAB
  0
TABLE
  2
BLOCK_RECORD
  5
1
330
0
100
AcDbSymbolTable
 70
    18
  0
BLOCK_RECORD
  5
1F
102
{ACAD_XDICTIONARY
360
339C
102
}
330
1
100
AcDbSymbolTableRecord
100
AcDbBlockTableRecord
  2
*MODEL_SPACE
340
31A6
 70
     0
280
     1
281
     0
  0
BLOCK_RECORD
  5
1B
330
1
100
AcDbSymbolTableRecord
100
AcDbBlockTableRecord
  2
*PAPER_SPACE
340
31A7
 70
     0
280
     1
281
     0
  0
BLOCK_RECORD
  5
1B3D7
102
{ACAD_XDICTIONARY
360
1DE81
102
}
330
1
100
AcDbSymbolTableRecord
100
AcDbBlockTableRecord
  2
cero_point
340
0
310
28000000200000002000000001002000000000000010000001000000010000000000000000000000302821FF302821FF302821FF302821FF302821FF302821FF302821FF302821FF302821FF302821FF302821FF302821FF302821FF302821FF302821FF302821FF302821FF302821FF302821FF302821FF302821FF302821
310
FF302821FF302821FF302821FF302821FF302821FF302821FF302821FF302821FF302821FF302821FF302821FF302821FF302821FF302821FF302821FF302821FF302821FF302821FF302821FF302821FF302821FF302821FF302821FF302821FF302821FFFFFF00FFFFFF00FFFFFF00FF302821FF302821FF302821FF3028
310
21FF302821FF302821FF302821FF302821FF302821FF302821FF302821FF302821FF302821FF302821FF302821FF302821FF302821FF302821FF302821FF302821FF302821FF302821FF302821FF302821FFFFFF00FFFFFF00FFFFFF00FFFFFF00FFFFFF00FFFFFF00FFFFFF00FF302821FFFFFF00FFFFFF00FFFFFF00FF30
310
2821FF302821FF302821FF302821FF302821FF302821FF302821FF302821FF302821FF302821FF302821FF302821FF302821FF302821FF302821FF302821FF302821FF302821FF302821FFFFFF00FFFFFF00FFFFFF00FFFFFF00FFFFFF00FFFFFF00FFFFFF00FFFFFF00FFFFFF00FF302821FF302821FF302821FF302821FF
310
FFFF00FFFFFF00FF302821FF302821FF302821FF302821FF302821FF302821FF302821FF302821FF302821FF302821FF302821FF302821FF302821FF302821FF302821FF302821FFFFFF00FFFFFF00FFFFFF00FFFFFF00FFFFFF00FFFFFF00FFFFFF00FFFFFF00FFFFFF00FFFFFF00FF302821FF302821FF302821FF302821
310
FF302821FF302821FFFFFF00FFFFFF00FF302821FF302821FF302821FF302821FF302821FF302821FF302821FF302821FF302821FF302821FF302821FF302821FF302821FFFFFF00FFFFFF00FFFFFF00FFFFFF00FFFFFF00FFFFFF00FFFFFF00FFFFFF00FFFFFF00FFFFFF00FFFFFF00FF302821FF302821FF302821FF3028
310
21FF302821FF302821FF302821FF302821FFFFFF00FF302821FF302821FF302821FF302821FF302821FF302821FF302821FF302821FF302821FF302821FF302821FFFFFF00FFFFFF00FFFFFF00FFFFFF00FFFFFF00FFFFFF00FFFFFF00FFFFFF00FFFFFF00FFFFFF00FFFFFF00FFFFFF00FF302821FF302821FF302821FF30
310
2821FF302821FF302821FF302821FF302821FF302821FFFFFF00FF302821FF302821FF302821FF302821FF302821FF302821FF302821FF302821FF302821FFFFFF00FFFFFF00FFFFFF00FFFFFF00FFFFFF00FFFFFF00FFFFFF00FFFFFF00FFFFFF00FFFFFF00FFFFFF00FFFFFF00FFFFFF00FF302821FF302821FF302821FF
310
302821FF302821FF302821FF302821FF302821FF302821FF302821FFFFFF00FF302821FF302821FF302821FF302821FF302821FF302821FF302821FFFFFF00FFFFFF00FFFFFF00FFFFFF00FFFFFF00FFFFFF00FFFFFF00FFFFFF00FFFFFF00FFFFFF00FFFFFF00FFFFFF00FFFFFF00FFFFFF00FF302821FF302821FF302821
310
FF302821FF302821FF302821FF302821FF302821FF302821FF302821FFFFFF00FF302821FF302821FF302821FF302821FF302821FF302821FF302821FFFFFF00FFFFFF00FFFFFF00FFFFFF00FFFFFF00FFFFFF00FFFFFF00FFFFFF00FFFFFF00FFFFFF00FFFFFF00FFFFFF00FFFFFF00FFFFFF00FF302821FF302821FF3028
310
21FF302821FF302821FF302821FF302821FF302821FF302821FF302821FF302821FFFFFF00FF302821FF302821FF302821FF302821FF302821FFFFFF00FFFFFF00FFFFFF00FFFFFF00FFFFFF00FFFFFF00FFFFFF00FFFFFF00FFFFFF00FFFFFF00FFFFFF00FFFFFF00FFFFFF00FFFFFF00FFFFFF00FF302821FF302821FF30
310
2821FF302821FF302821FF302821FF302821FF302821FF302821FF302821FF302821FF302821FFFFFF00FF302821FF302821FF302821FF302821FFFFFF00FFFFFF00FFFFFF00FFFFFF00FFFFFF00FFFFFF00FFFFFF00FFFFFF00FFFFFF00FFFFFF00FFFFFF00FFFFFF00FFFFFF00FFFFFF00FFFFFF00FF302821FF302821FF
310
302821FF302821FF302821FF302821FF302821FF302821FF302821FF302821FF302821FF302821FFFFFF00FF302821FF302821FF302821FF302821FFFFFF00FFFFFF00FFFFFF00FFFFFF00FFFFFF00FFFFFF00FFFFFF00FFFFFF00FFFFFF00FFFFFF00FFFFFF00FFFFFF00FFFFFF00FFFFFF00FFFFFF00FF302821FF302821
310
FF302821FF302821FF302821FF302821FF302821FF302821FF302821FF302821FF302821FF302821FFFFFF00FF302821FF302821FF302821FF302821FFFFFF00FFFFFF00FFFFFF00FFFFFF00FFFFFF00FFFFFF00FFFFFF00FFFFFF00FFFFFF00FFFFFF00FFFFFF00FFFFFF00FFFFFF00FFFFFF00FFFFFF00FF302821FF3028
310
21FF302821FF302821FF302821FF302821FF302821FF302821FF302821FF302821FF302821FF302821FFFFFF00FF302821FF302821FF302821FFFFFF00FFFFFF00FFFFFF00FFFFFF00FFFFFF00FFFFFF00FFFFFF00FFFFFF00FFFFFF00FFFFFF00FFFFFF00FFFFFF00FFFFFF00FFFFFF00FFFFFF00FFFFFF00FF302821FF30
310
2821FF302821FF302821FF302821FF302821FF302821FF302821FF302821FF302821FF302821FF302821FF302821FFFFFF00FF302821FF302821FFFFFF00FFFFFF00FFFFFF00FFFFFF00FFFFFF00FFFFFF00FFFFFF00FFFFFF00FFFFFF00FFFFFF00FFFFFF00FFFFFF00FFFFFF00FFFFFF00FFFFFF00FFFFFF00FFFFFF00FF
310
FFFF00FFFFFF00FFFFFF00FFFFFF00FFFFFF00FFFFFF00FFFFFF00FFFFFF00FFFFFF00FFFFFF00FFFFFF00FFFFFF00FFFFFF00FF302821FF302821FFFFFF00FF302821FF302821FF302821FF302821FF302821FF302821FF302821FF302821FF302821FF302821FF302821FF302821FF302821FF302821FFFFFF00FFFFFF00
310
FFFFFF00FFFFFF00FFFFFF00FFFFFF00FFFFFF00FFFFFF00FFFFFF00FFFFFF00FFFFFF00FFFFFF00FFFFFF00FFFFFF00FFFFFF00FF302821FF302821FFFFFF00FF302821FF302821FF302821FF302821FF302821FF302821FF302821FF302821FF302821FF302821FF302821FF302821FF302821FF302821FFFFFF00FFFFFF
310
00FFFFFF00FFFFFF00FFFFFF00FFFFFF00FFFFFF00FFFFFF00FFFFFF00FFFFFF00FFFFFF00FFFFFF00FFFFFF00FFFFFF00FF302821FF302821FF302821FF302821FFFFFF00FF302821FF302821FF302821FF302821FF302821FF302821FF302821FF302821FF302821FF302821FF302821FF302821FF302821FFFFFF00FFFF
310
FF00FFFFFF00FFFFFF00FFFFFF00FFFFFF00FFFFFF00FFFFFF00FFFFFF00FFFFFF00FFFFFF00FFFFFF00FFFFFF00FFFFFF00FF302821FF302821FF302821FF302821FFFFFF00FF302821FF302821FF302821FF302821FF302821FF302821FF302821FF302821FF302821FF302821FF302821FF302821FF302821FFFFFF00FF
310
FFFF00FFFFFF00FFFFFF00FFFFFF00FFFFFF00FFFFFF00FFFFFF00FFFFFF00FFFFFF00FFFFFF00FFFFFF00FFFFFF00FFFFFF00FF302821FF302821FF302821FF302821FFFFFF00FF302821FF302821FF302821FF302821FF302821FF302821FF302821FF302821FF302821FF302821FF302821FF302821FF302821FFFFFF00
310
FFFFFF00FFFFFF00FFFFFF00FFFFFF00FFFFFF00FFFFFF00FFFFFF00FFFFFF00FFFFFF00FFFFFF00FFFFFF00FFFFFF00FFFFFF00FF302821FF302821FF302821FF302821FF302821FFFFFF00FF302821FF302821FF302821FF302821FF302821FF302821FF302821FF302821FF302821FF302821FF302821FF302821FFFFFF
310
00FFFFFF00FFFFFF00FFFFFF00FFFFFF00FFFFFF00FFFFFF00FFFFFF00FFFFFF00FFFFFF00FFFFFF00FFFFFF00FFFFFF00FFFFFF00FF302821FF302821FF302821FF302821FF302821FFFFFF00FF302821FF302821FF302821FF302821FF302821FF302821FF302821FF302821FF302821FF302821FF302821FF302821FFFF
310
FF00FFFFFF00FFFFFF00FFFFFF00FFFFFF00FFFFFF00FFFFFF00FFFFFF00FFFFFF00FFFFFF00FFFFFF00FFFFFF00FFFFFF00FF302821FF302821FF302821FF302821FF302821FF302821FF302821FFFFFF00FF302821FF302821FF302821FF302821FF302821FF302821FF302821FF302821FF302821FF302821FF302821FF
310
FFFF00FFFFFF00FFFFFF00FFFFFF00FFFFFF00FFFFFF00FFFFFF00FFFFFF00FFFFFF00FFFFFF00FFFFFF00FFFFFF00FFFFFF00FF302821FF302821FF302821FF302821FF302821FF302821FF302821FFFFFF00FF302821FF302821FF302821FF302821FF302821FF302821FF302821FF302821FF302821FF302821FF302821
310
FFFFFF00FFFFFF00FFFFFF00FFFFFF00FFFFFF00FFFFFF00FFFFFF00FFFFFF00FFFFFF00FFFFFF00FFFFFF00FFFFFF00FF302821FF302821FF302821FF302821FF302821FF302821FF302821FF302821FF302821FFFFFF00FF302821FF302821FF302821FF302821FF302821FF302821FF302821FF302821FF302821FF3028
310
21FFFFFF00FFFFFF00FFFFFF00FFFFFF00FFFFFF00FFFFFF00FFFFFF00FFFFFF00FFFFFF00FFFFFF00FFFFFF00FF302821FF302821FF302821FF302821FF302821FF302821FF302821FF302821FF302821FF302821FF302821FFFFFF00FF302821FF302821FF302821FF302821FF302821FF302821FF302821FF302821FF30
310
2821FFFFFF00FFFFFF00FFFFFF00FFFFFF00FFFFFF00FFFFFF00FFFFFF00FFFFFF00FFFFFF00FFFFFF00FF302821FF302821FF302821FF302821FF302821FF302821FF302821FF302821FF302821FF302821FF302821FF302821FF302821FFFFFF00FF302821FF302821FF302821FF302821FF302821FF302821FF302821FF
310
302821FFFFFF00FFFFFF00FFFFFF00FFFFFF00FFFFFF00FFFFFF00FFFFFF00FFFFFF00FFFFFF00FF302821FF302821FF302821FF302821FF302821FF302821FF302821FF302821FF302821FF302821FF302821FF302821FF302821FF302821FF302821FFFFFF00FFFFFF00FF302821FF302821FF302821FF302821FF302821
310
FF302821FFFFFF00FFFFFF00FFFFFF00FFFFFF00FFFFFF00FFFFFF00FFFFFF00FFFFFF00FF302821FF302821FF302821FF302821FF302821FF302821FF302821FF302821FF302821FF302821FF302821FF302821FF302821FF302821FF302821FF302821FF302821FF302821FFFFFF00FFFFFF00FFFFFF00FFFFFF00FFFFFF
310
00FF302821FFFFFF00FFFFFF00FFFFFF00FFFFFF00FFFFFF00FFFFFF00FF302821FF302821FF302821FF302821FF302821FF302821FF302821FF302821FF302821FF302821FF302821FF302821FF302821FF302821FF302821FF302821FF302821FF302821FF302821FF302821FF302821FF302821FF302821FF302821FF30
310
2821FFFFFF00FFFFFF00FFFFFF00FF302821FF302821FF302821FF302821FF302821FF302821FF302821FF302821FF302821FF302821FF302821FF302821FF302821FF302821FF302821FF302821FF302821FF302821FF302821FF302821FF302821FF302821FF302821FF302821FF302821FF302821FF302821FF302821FF
310
302821FF302821FF302821FF302821FF302821FF302821FF302821FF302821FF302821FF302821FF302821FF302821FF302821FF302821FF302821FF302821FF302821FF302821FF
102
{BLKREFS
331
21DF2
102
}
 70
     0
280
     1
281
     1
  0
BLOCK_RECORD
  5
21F1F
330
1
100
AcDbSymbolTableRecord
100
AcDbBlockTableRecord
  2
*D12
340
0
 70
     0
280
     1
281
     0
  0
BLOCK_RECORD
  5
21F29
330
1
100
AcDbSymbolTableRecord
100
AcDbBlockTableRecord
  2
*D13
340
0
 70
     0
280
     1
281
     0
  0
BLOCK_RECORD
  5
21F35
330
1
100
AcDbSymbolTableRecord
100
AcDbBlockTableRecord
  2
*D14
340
0
 70
     0
280
     1
281
     0
  0
BLOCK_RECORD
  5
21F43
330
1
100
AcDbSymbolTableRecord
100
AcDbBlockTableRecord
  2
*D15
340
0
 70
     0
280
     1
281
     0
  0
BLOCK_RECORD
  5
21F4F
330
1
100
AcDbSymbolTableRecord
100
AcDbBlockTableRecord
  2
*D16
340
0
 70
     0
280
     1
281
     0
  0
ENDTAB
  0
ENDSEC
  0
SECTION
  2
BLOCKS
  0
BLOCK
  5
20
330
1F
100
AcDbEntity
  8
0
100
AcDbBlockBegin
  2
*MODEL_SPACE
 70
     0
 10
0.0
 20
0.0
 30
0.0
  3
*MODEL_SPACE
  1

  0
ENDBLK
  5
21
330
1F
100
AcDbEntity
  8
0
100
AcDbBlockEnd
  0
BLOCK
  5
1C
330
1B
100
AcDbEntity
 67
     1
  8
0
100
AcDbBlockBegin
  2
*PAPER_SPACE
 70
     0
 10
0.0
 20
0.0
 30
0.0
  3
*PAPER_SPACE
  1

  0
ENDBLK
  5
1D
330
1B
100
AcDbEntity
 67
     1
  8
0
100
AcDbBlockEnd
  0
BLOCK
  5
1B3D8
330
1B3D7
100
AcDbEntity
  8
0
100
AcDbBlockBegin
  2
cero_point
 70
     0
 10
0.0
 20
0.0
 30
0.0
  3
cero_point
  1

  0
HATCH
  5
1B3DA
330
1B3D7
100
AcDbEntity
  8
1
  6
ByBlock
370
    50
100
AcDbHatch
 10
0.0
 20
0.0
 30
0.0
210
0.0
220
0.0
230
1.0
  2
SOLID
 70
     1
 71
     0
 91
        2
 92
        7
 72
     1
 73
     1
 93
        3
 10
-0.0000000000001137
 20
0.0
 42
0.0
 10
-2.950972054112752
 20
0.0
 42
0.4142135623730968
 10
-0.0000000000001137
 20
-2.950972054112583
 42
0.0
 97
        0
 92
        7
 72
     1
 73
     1
 93
        3
 10
-0.0000000000001137
 20
2.950972054112638
 42
0.0
 10
-0.0000000000001137
 20
0.0
 42
0.0
 10
2.950972054112526
 20
0.0
 42
0.4142135623730966
 97
        0
 75
     0
 76
     1
 47
0.1190009775223266
 98
        2
 10
-0.7445530588121301
 20
-0.9212244733764125
 10
1.279464601852737
 20
1.696796923046345
450
        0
451
        0
460
0.0
461
0.0
452
        0
462
0.0
453
        0
470

  0
LWPOLYLINE
  5
1B3DB
330
1B3D7
100
AcDbEntity
  8
1
  6
ByBlock
370
    50
100
AcDbPolyline
 90
        3
 70
     1
 43
0.0
 10
-0.0000000000001137
 20
0.0
 10
2.950972054112526
 20
0.0
 42
0.4142135623730966
 10
-0.0000000000001137
 20
2.950972054112638
  0
LINE
  5
1B3DC
330
1B3D7
100
AcDbEntity
  8
1
  6
ByBlock
370
    50
100
AcDbLine
 10
-0.0000000000001137
 20
-2.950972054112583
 30
0.0
 11
-0.0000000000001137
 21
2.950972054112638
 31
0.0
  0
LWPOLYLINE
  5
1B3DD
330
1B3D7
100
AcDbEntity
  8
1
  6
ByBlock
370
    50
100
AcDbPolyline
 90
        3
 70
     1
 43
0.0
 10
-0.0000000000001137
 20
-2.950972054112583
 10
-0.0000000000001137
 20
0.0
 10
-2.950972054112752
 20
0.0
 42
0.4142135623730966
  0
LINE
  5
1B3DE
330
1B3D7
100
AcDbEntity
  8
1
  6
ByBlock
370
    50
100
AcDbLine
 10
2.950972054112638
 20
0.0
 30
0.0
 11
-2.950972054112638
 21
0.0
 31
0.0
  0
CIRCLE
  5
1B3DF
330
1B3D7
100
AcDbEntity
  8
1
  6
ByBlock
370
    50
100
AcDbCircle
 10
-0.0000000000001137
 20
0.0
 30
0.0
 40
2.950972054112601
  0
ENDBLK
  5
1B3D9
330
1B3D7
100
AcDbEntity
  8
0
100
AcDbBlockEnd
  0
BLOCK
  5
21F20
330
21F1F
100
AcDbEntity
  8
0
100
AcDbBlockBegin
  2
*D12
 70
     1
 10
0.0
 20
0.0
 30
0.0
  3
*D12
  1

  0
LINE
  5
2211B
330
21F1F
100
AcDbEntity
  8
SK2
 62
     0
440
 16777216
370
    -2
100
AcDbLine
 10
-11.46250000000009
 20
5.599999999999994
 30
0.0
 11
-29.48321443912681
 21
5.599999999999998
 31
0.0
  0
LINE
  5
2211C
330
21F1F
100
AcDbEntity
  8
SK2
 62
     0
440
 16777216
370
    -2
100
AcDbLine
 10
-11.46250000000009
 20
-5.600000000000001
 30
0.0
 11
-29.48321443912681
 21
-5.599999999999996
 31
0.0
  0
LINE
  5
2211D
330
21F1F
100
AcDbEntity
  8
SK2
 62
     0
440
 16777216
370
    -2
100
AcDbLine
 10
-29.3032144391268
 20
10.17
 30
0.0
 11
-29.3032144391268
 21
14.74
 31
0.0
  0
LINE
  5
2211E
330
21F1F
100
AcDbEntity
  8
SK2
 62
     0
440
 16777216
370
    -2
100
AcDbLine
 10
-29.30321443912681
 20
-10.16999999999999
 30
0.0
 11
-29.30321443912681
 21
-26.66898102600141
 31
0.0
  0
LINE
  5
2211F
330
21F1F
100
AcDbEntity
  8
SK2
 62
     0
440
 16777216
370
    -2
100
AcDbLine
 10
-29.30321443912681
 20
5.599999999999998
 30
0.0
 11
-29.30321443912681
 21
-5.599999999999996
 31
0.0
  0
SOLID
  5
22120
330
21F1F
100
AcDbEntity
  8
SK2
 62
     0
440
 16777216
100
AcDbTrace
 10
-30.06488110579347
 20
10.17
 30
0.0
 11
-28.54154777246014
 21
10.17
 31
0.0
 12
-29.30321443912681
 22
5.599999999999998
 32
0.0
 13
-29.30321443912681
 23
5.599999999999998
 33
0.0
  0
SOLID
  5
22121
330
21F1F
100
AcDbEntity
  8
SK2
 62
     0
440
 16777216
100
AcDbTrace
 10
-30.06488110579347
 20
-10.16999999999999
 30
0.0
 11
-28.54154777246014
 21
-10.16999999999999
 31
0.0
 12
-29.30321443912681
 22
-5.599999999999996
 32
0.0
 13
-29.30321443912681
 23
-5.599999999999996
 33
0.0
  0
MTEXT
  5
22122
330
21F1F
100
AcDbEntity
  8
SK2
 62
     0
440
 16777216
100
AcDbMText
 10
-31.25635569000523
 20
-20.7044905130007
 30
0.0
 40
3.5
 41
0.0
 46
0.0
 71
     5
 72
     1
  1
\A1;%%C11.2
 11
0.0000000000000001
 21
1.0
 31
0.0
 73
     1
 44
1.0
  0
POINT
  5
22123
330
21F1F
100
AcDbEntity
  8
Defpoints
 62
     0
440
 16777216
100
AcDbPoint
 10
-11.40000000000009
 20
5.599999999999994
 30
0.0
  0
POINT
  5
22124
330
21F1F
100
AcDbEntity
  8
Defpoints
 62
     0
440
 16777216
100
AcDbPoint
 10
-11.40000000000009
 20
-5.600000000000001
 30
0.0
  0
POINT
  5
22125
330
21F1F
100
AcDbEntity
  8
Defpoints
 62
     0
440
 16777216
100
AcDbPoint
 10
-29.30321443912681
 20
-5.599999999999996
 30
0.0
  0
ENDBLK
  5
21F21
330
21F1F
100
AcDbEntity
  8
0
100
AcDbBlockEnd
  0
BLOCK
  5
21F2A
330
21F29
100
AcDbEntity
  8
0
100
AcDbBlockBegin
  2
*D13
 70
     1
 10
0.0
 20
0.0
 30
0.0
  3
*D13
  1

  0
LINE
  5
220F5
330
21F29
100
AcDbEntity
  8
2
 62
     0
440
 16777216
370
    -2
100
AcDbLine
 10
26.86000104065259
 20
0.0624999999913364
 30
0.0
 11
26.86059355997529
 21
35.64830341559191
 31
0.0
  0
LINE
  5
220F6
330
21F29
100
AcDbEntity
  8
2
 62
     0
440
 16777216
370
    -2
100
AcDbLine
 10
0.0000010406525667
 20
13.7072129999913
 30
0.0
 11
0.000366376932201
 21
35.64875065022176
 31
0.0
  0
LINE
  5
220F7
330
21F29
100
AcDbEntity
  8
2
 62
     0
440
 16777216
370
    -2
100
AcDbLine
 10
22.29059056352939
 20
35.46837950813254
 30
0.0
 11
4.570363379219323
 21
35.46867455773102
 31
0.0
  0
SOLID
  5
220F8
330
21F29
100
AcDbEntity
  8
2
 62
     0
440
 16777216
100
AcDbTrace
 10
22.29060324561533
 20
36.23004617469363
 30
0.0
 11
22.29057788144344
 21
34.70671284157146
 31
0.0
 12
26.8605905628959
 22
35.46830341561686
 32
0.0
 13
26.8605905628959
 23
35.46830341561686
 33
0.0
  0
SOLID
  5
220F9
330
21F29
100
AcDbEntity
  8
2
 62
     0
440
 16777216
100
AcDbTrace
 10
4.570376061305268
 20
36.2303412242921
 30
0.0
 11
4.570350697133376
 21
34.70700789116994
 31
0.0
 12
0.0003633798528088
 22
35.4687506502467
 32
0.0
 13
0.0003633798528088
 23
35.4687506502467
 33
0.0
  0
MTEXT
  5
220FA
330
21F29
100
AcDbEntity
  8
2
 62
     0
440
 16777216
100
AcDbMText
 10
13.43015205860228
 20
37.37001684886532
 30
0.0
 40
3.5
 41
0.0
 46
0.0
 71
     5
 72
     1
  1
\A1;26.86
 11
0.9999999998613814
 21
-0.0000166504410678
 31
0.0
 73
     1
 44
1.0
  0
POINT
  5
220FB
330
21F29
100
AcDbEntity
  8
Defpoints
 62
     0
440
 16777216
100
AcDbPoint
 10
26.86000000000002
 20
0.0
 30
0.0
  0
POINT
  5
220FC
330
21F29
100
AcDbEntity
  8
Defpoints
 62
     0
440
 16777216
100
AcDbPoint
 10
0.0
 20
13.64471299999997
 30
0.0
  0
POINT
  5
220FD
330
21F29
100
AcDbEntity
  8
Defpoints
 62
     0
440
 16777216
100
AcDbPoint
 10
0.0003633798528088
 20
35.4687506502467
 30
0.0
  0
ENDBLK
  5
21F2B
330
21F29
100
AcDbEntity
  8
0
100
AcDbBlockEnd
  0
BLOCK
  5
21F36
330
21F35
100
AcDbEntity
  8
0
100
AcDbBlockBegin
  2
*D14
 70
     1
 10
0.0
 20
0.0
 30
0.0
  3
*D14
  1

  0
LINE
  5
220FE
330
21F35
100
AcDbEntity
  8
2
 62
     0
440
 16777216
370
    -2
100
AcDbLine
 10
26.86000104065259
 20
0.0624999999913364
 30
0.0
 11
26.86041040512354
 21
24.64830341711667
 31
0.0
  0
LINE
  5
220FF
330
21F35
100
AcDbEntity
  8
2
 62
     0
440
 16777216
370
    -2
100
AcDbLine
 10
22.57000104065273
 20
13.66249999999136
 30
0.0
 11
22.57018396031455
 21
24.64837485127926
 31
0.0
  0
LINE
  5
22100
330
21F35
100
AcDbEntity
  8
2
 62
     0
440
 16777216
370
    -2
100
AcDbLine
 10
31.43040740741066
 20
24.46822732462594
 30
0.0
 11
36.00040740677718
 21
24.46815123211026
 31
0.0
  0
LINE
  5
22101
330
21F35
100
AcDbEntity
  8
2
 62
     0
440
 16777216
370
    -2
100
AcDbLine
 10
18.00018096386864
 20
24.4684509438199
 30
0.0
 11
3.992275133062678
 21
24.46868418163045
 31
0.0
  0
LINE
  5
22102
330
21F35
100
AcDbEntity
  8
2
 62
     0
440
 16777216
370
    -2
100
AcDbLine
 10
26.86040740804415
 20
24.46830341714162
 30
0.0
 11
22.57018096323515
 21
24.46837485130421
 31
0.0
  0
SOLID
  5
22103
330
21F35
100
AcDbEntity
  8
2
 62
     0
440
 16777216
100
AcDbTrace
 10
31.43042008949661
 20
25.22989399118702
 30
0.0
 11
31.43039472532472
 21
23.70656065806485
 31
0.0
 12
26.86040740804415
 22
24.46830341714162
 32
0.0
 13
26.86040740804415
 23
24.46830341714162
 33
0.0
  0
SOLID
  5
22104
330
21F35
100
AcDbEntity
  8
2
 62
     0
440
 16777216
100
AcDbTrace
 10
18.00019364595458
 20
25.23011761038098
 30
0.0
 11
18.00016828178269
 21
23.70678427725881
 31
0.0
 12
22.57018096323515
 22
24.46837485130421
 32
0.0
 13
22.57018096323515
 23
24.46837485130421
 33
0.0
  0
MTEXT
  5
22105
330
21F35
100
AcDbEntity
  8
2
 62
     0
440
 16777216
100
AcDbMText
 10
8.711259709426428
 20
26.37009541897944
 30
0.0
 40
3.5
 41
0.0
 46
0.0
 71
     5
 72
     1
  1
\A1;4.29
 11
0.9999999998613814
 21
-0.0000166504410678
 31
0.0
 73
     1
 44
1.0
  0
POINT
  5
22106
330
21F35
100
AcDbEntity
  8
Defpoints
 62
     0
440
 16777216
100
AcDbPoint
 10
26.86000000000002
 20
0.0
 30
0.0
  0
POINT
  5
22107
330
21F35
100
AcDbEntity
  8
Defpoints
 62
     0
440
 16777216
100
AcDbPoint
 10
22.57000000000016
 20
13.60000000000002
 30
0.0
  0
POINT
  5
22108
330
21F35
100
AcDbEntity
  8
Defpoints
 62
     0
440
 16777216
100
AcDbPoint
 10
22.57018096323515
 20
24.46837485130421
 30
0.0
  0
ENDBLK
  5
21F37
330
21F35
100
AcDbEntity
  8
0
100
AcDbBlockEnd
  0
BLOCK
  5
21F44
330
21F43
100
AcDbEntity
  8
0
100
AcDbBlockBegin
  2
*D15
 70
     1
 10
0.0
 20
0.0
 30
0.0
  3
*D15
  1

  0
LINE
  5
22109
330
21F43
100
AcDbEntity
  8
2
 62
     0
440
 16777216
370
    -2
100
AcDbLine
 10
23.42250000000001
 20
8.949999999999988
 30
0.0
 11
40.20551999999991
 21
8.949999999999983
 31
0.0
  0
LINE
  5
2210A
330
21F43
100
AcDbEntity
  8
2
 62
     0
440
 16777216
370
    -2
100
AcDbLine
 10
23.42250000000001
 20
-8.949999999999988
 30
0.0
 11
40.20551999999991
 21
-8.949999999999993
 31
0.0
  0
LINE
  5
2210B
330
21F43
100
AcDbEntity
  8
2
 62
     0
440
 16777216
370
    -2
100
AcDbLine
 10
40.02551999999991
 20
4.379999999999983
 30
0.0
 11
40.02551999999991
 21
-4.379999999999993
 31
0.0
  0
SOLID
  5
2210C
330
21F43
100
AcDbEntity
  8
2
 62
     0
440
 16777216
100
AcDbTrace
 10
39.26385333333325
 20
4.379999999999983
 30
0.0
 11
40.78718666666659
 21
4.379999999999983
 31
0.0
 12
40.02551999999991
 22
8.949999999999983
 32
0.0
 13
40.02551999999991
 23
8.949999999999983
 33
0.0
  0
SOLID
  5
2210D
330
21F43
100
AcDbEntity
  8
2
 62
     0
440
 16777216
100
AcDbTrace
 10
39.26385333333325
 20
-4.379999999999993
 30
0.0
 11
40.78718666666659
 21
-4.379999999999993
 31
0.0
 12
40.02551999999991
 22
-8.949999999999993
 32
0.0
 13
40.02551999999991
 23
-8.949999999999993
 33
0.0
  0
MTEXT
  5
2210E
330
21F43
100
AcDbEntity
  8
2
 62
     0
440
 16777216
100
AcDbMText
 10
38.1240301897399
 20
0.0000000000000002
 30
0.0
 40
3.5
 41
0.0
 46
0.0
 71
     5
 72
     1
  1
\A1;17.9
 11
0.0000000000000001
 21
1.0
 31
0.0
 73
     1
 44
1.0
  0
POINT
  5
2210F
330
21F43
100
AcDbEntity
  8
Defpoints
 62
     0
440
 16777216
100
AcDbPoint
 10
23.36000000000002
 20
8.949999999999988
 30
0.0
  0
POINT
  5
22110
330
21F43
100
AcDbEntity
  8
Defpoints
 62
     0
440
 16777216
100
AcDbPoint
 10
23.36000000000002
 20
-8.949999999999988
 30
0.0
  0
POINT
  5
22111
330
21F43
100
AcDbEntity
  8
Defpoints
 62
     0
440
 16777216
100
AcDbPoint
 10
40.02551999999991
 20
-8.949999999999993
 30
0.0
  0
ENDBLK
  5
21F45
330
21F43
100
AcDbEntity
  8
0
100
AcDbBlockEnd
  0
BLOCK
  5
21F50
330
21F4F
100
AcDbEntity
  8
0
100
AcDbBlockBegin
  2
*D16
 70
     1
 10
0.0
 20
0.0
 30
0.0
  3
*D16
  1

  0
LINE
  5
22112
330
21F4F
100
AcDbEntity
  8
2
 62
     0
440
 16777216
370
    -2
100
AcDbLine
 10
22.23249999999985
 20
-13.99999999999999
 30
0.0
 11
53.20552000000002
 21
-14.0
 31
0.0
  0
LINE
  5
22113
330
21F4F
100
AcDbEntity
  8
2
 62
     0
440
 16777216
370
    -2
100
AcDbLine
 10
22.23249999999985
 20
14.0
 30
0.0
 11
53.20552000000002
 21
13.99999999999999
 31
0.0
  0
LINE
  5
22114
330
21F4F
100
AcDbEntity
  8
2
 62
     0
440
 16777216
370
    -2
100
AcDbLine
 10
53.02552000000003
 20
-9.430000000000001
 30
0.0
 11
53.02552000000003
 21
9.42999999999999
 31
0.0
  0
SOLID
  5
22115
330
21F4F
100
AcDbEntity
  8
2
 62
     0
440
 16777216
100
AcDbTrace
 10
52.26385333333336
 20
-9.430000000000001
 30
0.0
 11
53.7871866666667
 21
-9.430000000000001
 31
0.0
 12
53.02552000000003
 22
-14.0
 32
0.0
 13
53.02552000000003
 23
-14.0
 33
0.0
  0
SOLID
  5
22116
330
21F4F
100
AcDbEntity
  8
2
 62
     0
440
 16777216
100
AcDbTrace
 10
52.26385333333336
 20
9.42999999999999
 30
0.0
 11
53.7871866666667
 21
9.42999999999999
 31
0.0
 12
53.02552000000003
 22
13.99999999999999
 32
0.0
 13
53.02552000000003
 23
13.99999999999999
 33
0.0
  0
MTEXT
  5
22117
330
21F4F
100
AcDbEntity
  8
2
 62
     0
440
 16777216
100
AcDbMText
 10
51.0723787491216
 20
0.0000000000000002
 30
0.0
 40
3.5
 41
0.0
 46
0.0
 71
     5
 72
     1
  1
\A1;%%c28
 11
0.0000000000000001
 21
1.0
 31
0.0
 73
     1
 44
1.0
  0
POINT
  5
22118
330
21F4F
100
AcDbEntity
  8
Defpoints
 62
     0
440
 16777216
100
AcDbPoint
 10
22.16999999999984
 20
-13.99999999999999
 30
0.0
  0
POINT
  5
22119
330
21F4F
100
AcDbEntity
  8
Defpoints
 62
     0
440
 16777216
100
AcDbPoint
 10
22.16999999999984
 20
14.0
 30
0.0
  0
POINT
  5
2211A
330
21F4F
100
AcDbEntity
  8
Defpoints
 62
     0
440
 16777216
100
AcDbPoint
 10
53.02552000000003
 20
13.99999999999999
 30
0.0
  0
ENDBLK
  5
21F51
330
21F4F
100
AcDbEntity
  8
0
100
AcDbBlockEnd
  0
ENDSEC
  0
SECTION
  2
ENTITIES
  0
MTEXT
  5
211A0
330
1F
100
AcDbEntity
  8
SK6
100
AcDbMText
 10
-9.655274633912654
 20
-32.7773836954796
 30
0.0
 40
3.5
 41
41.87058589293636
 46
0.0
 71
     2
 72
     1
  1
CD2800027YGR00
 73
     1
 44
1.0
1001
ACAD
1000
MTEXTBEGIN
1070
    73
1070
     1
1070
    44
1040
1.0
1070
    74
1070
     0
1000
MTEXTEND
  0
INSERT
  5
21DF2
330
1F
100
AcDbEntity
  8
1
100
AcDbBlockReference
  2
cero_point
 10
-0.000000000003638
 20
0.0
 30
0.0
  0
LINE
  5
21DF6
330
1F
100
AcDbEntity
  8
INFTOTAL
100
AcDbLine
 10
-94.37698867100063
 20
6.978916154523176
 30
0.0
 11
-94.37698867100063
 21
50.57063855076194
 31
0.0
  0
LINE
  5
21DF7
330
1F
100
AcDbEntity
  8
INFTOTAL
100
AcDbLine
 10
-94.37698867100063
 20
50.57063855076194
 30
0.0
 11
-37.97320230224159
 21
50.57063855076194
 31
0.0
  0
LINE
  5
21DF8
330
1F
100
AcDbEntity
  8
INFTOTAL
100
AcDbLine
 10
15.42008786812403
 20
-54.09905442797207
 30
0.0
 11
70.77886911920813
 21
-54.09905442797207
 31
0.0
  0
LINE
  5
21DF9
330
1F
100
AcDbEntity
  8
INFTOTAL
100
AcDbLine
 10
70.77886911920813
 20
-54.09905442797207
 30
0.0
 11
70.77886911920813
 21
-13.65093823137751
 31
0.0
  0
DIMENSION
  5
21DFA
330
1F
100
AcDbEntity
  8
2
100
AcDbDimension
280
     0
  2
*D13
 10
0.0003633798528088
 20
35.4687506502467
 30
0.0
 11
13.43012039795826
 21
35.46852703886889
 31
0.0
 70
   160
 71
     5
 42
26.86022718676641
 73
     0
 74
     0
 75
     0
  3
STANDARD
100
AcDbAlignedDimension
 13
26.86000000000002
 23
0.0
 33
0.0
 14
0.0
 24
13.64471299999997
 34
0.0
 50
179.9990459999997
100
AcDbRotatedDimension
1001
ACAD_DSTYLE_DIMARC_LENGTH_SYMBOL
1070
   379
1070
     1
1001
ACAD_DSTYLE_DIM_LINETYPE
1070
   380
1005
14
1001
ACAD_DSTYLE_DIM_EXT1_LINETYPE
1070
   381
1005
14
1001
ACAD_DSTYLE_DIM_EXT2_LINETYPE
1070
   382
1005
14
1001
ACAD
1000
DSTYLE
1002
{
1070
   172
1070
     1
1002
}
  0
DIMENSION
  5
21DFB
330
1F
100
AcDbEntity
  8
2
100
AcDbDimension
280
     0
  2
*D14
 10
22.57018096323515
 20
24.46837485130421
 30
0.0
 11
8.711228048782402
 21
24.46860560898301
 31
0.0
 70
   160
 71
     5
 42
4.2902264454037
 73
     0
 74
     0
 75
     0
  3
STANDARD
100
AcDbAlignedDimension
 13
26.86000000000002
 23
0.0
 33
0.0
 14
22.57000000000016
 24
13.60000000000002
 34
0.0
 50
179.9990459999997
100
AcDbRotatedDimension
1001
ACAD_DSTYLE_DIMARC_LENGTH_SYMBOL
1070
   379
1070
     1
1001
ACAD_DSTYLE_DIM_LINETYPE
1070
   380
1005
14
1001
ACAD_DSTYLE_DIM_EXT1_LINETYPE
1070
   381
1005
14
1001
ACAD_DSTYLE_DIM_EXT2_LINETYPE
1070
   382
1005
14
1001
ACAD
1000
DSTYLE
1002
{
1070
   172
1070
     1
1002
}
  0
DIMENSION
  5
21DFC
330
1F
100
AcDbEntity
  8
2
100
AcDbDimension
280
     0
  2
*D15
 10
40.02551999999991
 20
-8.949999999999993
 30
0.0
 11
40.02551999999991
 21
0.0
 31
0.0
 70
   161
 71
     5
 42
17.89999999999998
 73
     0
 74
     0
 75
     0
  3
STANDARD
100
AcDbAlignedDimension
 13
23.36000000000002
 23
8.949999999999988
 33
0.0
 14
23.36000000000002
 24
-8.949999999999988
 34
0.0
1001
ACAD_DSTYLE_DIMARC_LENGTH_SYMBOL
1070
   379
1070
     1
1001
ACAD_DSTYLE_DIM_LINETYPE
1070
   380
1005
14
1001
ACAD_DSTYLE_DIM_EXT1_LINETYPE
1070
   381
1005
14
1001
ACAD_DSTYLE_DIM_EXT2_LINETYPE
1070
   382
1005
14
1001
ACAD
1000
DSTYLE
1002
{
1070
   172
1070
     1
1002
}
  0
DIMENSION
  5
21DFD
330
1F
100
AcDbEntity
  8
2
100
AcDbDimension
280
     0
  2
*D16
 10
53.02552000000003
 20
13.99999999999999
 30
0.0
 11
53.02552000000003
 21
0.0
 31
0.0
 70
   161
  1
%%c<>
 71
     5
 42
27.99999999999999
 73
     0
 74
     0
 75
     0
  3
STANDARD
100
AcDbAlignedDimension
 13
22.16999999999984
 23
-13.99999999999999
 33
0.0
 14
22.16999999999984
 24
14.0
 34
0.0
1001
ACAD_DSTYLE_DIMARC_LENGTH_SYMBOL
1070
   379
1070
     1
1001
ACAD_DSTYLE_DIM_LINETYPE
1070
   380
1005
14
1001
ACAD_DSTYLE_DIM_EXT1_LINETYPE
1070
   381
1005
14
1001
ACAD_DSTYLE_DIM_EXT2_LINETYPE
1070
   382
1005
14
1001
ACAD
1000
DSTYLE
1002
{
1070
   172
1070
     1
1002
}
  0
LINE
  5
21DFE
330
1F
100
AcDbEntity
  8
4
100
AcDbLine
 10
28.57508400000018
 20
0.0
 30
0.0
 11
0.0
 21
0.0
 31
0.0
  0
LINE
  5
21E02
330
1F
100
AcDbEntity
  8
1
100
AcDbLine
 10
22.57000000000016
 20
8.949999999999988
 30
0.0
 11
20.89800000000014
 21
8.949999999999988
 31
0.0
  0
LINE
  5
21E03
330
1F
100
AcDbEntity
  8
SK3
100
AcDbLine
 10
0.0
 20
7.0
 30
0.0
 11
21.56999999999982
 21
7.0
 31
0.0
  0
LINE
  5
21E04
330
1F
100
AcDbEntity
  8
SK3
100
AcDbLine
 10
0.0
 20
4.199999999999988
 30
0.0
 11
21.56999999999982
 21
4.199999999999988
 31
0.0
  0
LINE
  5
21E05
330
1F
100
AcDbEntity
  8
SK3
100
AcDbLine
 10
0.0
 20
-4.199999999999988
 30
0.0
 11
21.56999999999982
 21
-4.199999999999988
 31
0.0
  0
LINE
  5
21E06
330
1F
100
AcDbEntity
  8
SK3
100
AcDbLine
 10
0.0
 20
-7.0
 30
0.0
 11
21.56999999999982
 21
-7.0
 31
0.0
  0
LINE
  5
21E07
330
1F
100
AcDbEntity
  8
NOCUT
 62
     7
370
    13
100
AcDbLine
 10
21.57000000000028
 20
0.0
 30
0.0
 11
-11.39999999999997
 21
0.0
 31
0.0
  0
LINE
  5
21E09
330
1F
100
AcDbEntity
  8
1
100
AcDbLine
 10
10.69500000000005
 20
2.99234899999999
 30
0.0
 11
10.69500000000005
 21
4.397851000000002
 31
0.0
  0
LINE
  5
21E0A
330
1F
100
AcDbEntity
  8
1
100
AcDbLine
 10
0.0
 20
13.64471299999999
 30
0.0
 11
0.0
 21
5.574132000000005
 31
0.0
  0
LINE
  5
21E0B
330
1F
100
AcDbEntity
  8
1
100
AcDbLine
 10
16.96000000000026
 20
7.930000000000006
 30
0.0
 11
17.091362
 21
7.930000000000006
 31
0.0
  0
ARC
  5
21E0C
330
1F
100
AcDbEntity
  8
1
100
AcDbCircle
 10
9.843196000000034
 20
-445.5821869999998
 30
0.0
 40
459.332205
100
AcDbArc
 50
90.0020290000014
 51
91.22790599999955
  0
LINE
  5
21E0D
330
1F
100
AcDbEntity
  8
1
100
AcDbLine
 10
16.5
 20
13.75000000000001
 30
0.0
 11
9.826933000000281
 21
13.75000000000001
 31
0.0
  0
CIRCLE
  5
21E0E
330
1F
100
AcDbEntity
  8
1
100
AcDbCircle
 10
19.53500000000019
 20
10.965
 30
0.0
 40
0.9519999999999997
  0
LINE
  5
21E0F
330
1F
100
AcDbEntity
  8
1
100
AcDbLine
 10
16.5
 20
7.930000000000006
 30
0.0
 11
16.5
 21
4.69774000000001
 31
0.0
  0
LINE
  5
21E10
330
1F
100
AcDbEntity
  8
1
100
AcDbLine
 10
12.458124
 20
4.707075000000003
 30
0.0
 11
16.5
 21
4.69774000000001
 31
0.0
  0
ARC
  5
21E11
330
1F
100
AcDbEntity
  8
1
100
AcDbCircle
 10
28.4580880000002
 20
109.896992
 30
0.0
 40
106.3998
100
AcDbArc
 50
261.3512899999973
 51
262.5187780000025
  0
LINE
  5
21E12
330
1F
100
AcDbEntity
  8
1
100
AcDbLine
 10
16.96000000000026
 20
4.402015000000005
 30
0.0
 11
14.60470000000021
 21
4.402911000000003
 31
0.0
  0
ARC
  5
21E13
330
1F
100
AcDbEntity
  8
1
100
AcDbCircle
 10
13.88403500000026
 20
-975.9708909999996
 30
0.0
 40
980.3739919999999
100
AcDbArc
 50
89.95788200000202
 51
90.18637600000039
  0
LINE
  5
21E14
330
1F
100
AcDbEntity
  8
1
100
AcDbLine
 10
9.064045000000191
 20
4.601503000000008
 30
0.0
 11
9.073241000000052
 21
4.678808000000003
 31
0.0
  0
SPLINE
  5
21E15
330
1F
100
AcDbEntity
  8
1
100
AcDbSpline
210
0.0
220
0.0
230
1.0
 70
     8
 71
     5
 72
    15
 73
     9
 74
     0
 42
0.000000001
 43
0.0000000001
 40
0.0
 40
0.0
 40
0.0
 40
0.0
 40
0.0
 40
0.0
 40
6.869310463305143
 40
6.869310463305143
 40
6.869310463305143
 40
7.644001953863322
 40
7.644001953863322
 40
7.644001953863322
 40
7.644001953863322
 40
7.644001953863322
 40
7.644001953863322
 10
4.915175412889425
 20
4.011263845604275
 30
0.0
 10
5.637195240450637
 20
4.154303651374391
 30
0.0
 10
6.375721760153965
 20
4.278271970375186
 30
0.0
 10
7.116642445992738
 20
4.383406407433071
 30
0.0
 10
7.95793833847199
 20
4.486810791706034
 30
0.0
 10
8.805861202865912
 20
4.575447212657678
 30
0.0
 10
8.8918606209578
 20
4.584280493997326
 30
0.0
 10
8.977922527640203
 20
4.592965493038491
 30
0.0
 10
9.064045404199987
 20
4.60150318470994
 30
0.0
  0
ARC
  5
21E16
330
1F
100
AcDbEntity
  8
1
100
AcDbCircle
 10
11.82825200000002
 20
-126.1152439999999
 30
0.0
 40
130.823413
100
AcDbArc
 50
89.72413899999848
 51
91.20668499999927
  0
ARC
  5
21E17
330
1F
100
AcDbEntity
  8
SK1
100
AcDbCircle
 10
-1.816375999999991
 20
25.407082
 30
0.0
 40
22.85008
100
AcDbArc
 50
272.9986569999974
 51
274.5593470000025
  0
ARC
  5
21E18
330
1F
100
AcDbEntity
  8
SK1
100
AcDbCircle
 10
11.39033100000017
 20
38.272131
 30
0.0
 40
37.651076
100
AcDbArc
 50
251.3964340000017
 51
252.3907799999965
  0
ARC
  5
21E19
330
1F
100
AcDbEntity
  8
1
100
AcDbCircle
 10
9.832985000000007
 20
445.3858659999998
 30
0.0
 40
459.135874
100
AcDbArc
 50
268.7728430000027
 51
269.9992450000022
  0
ARC
  5
21E1A
330
1F
100
AcDbEntity
  8
SK1
100
AcDbCircle
 10
7.742990999999847
 20
1134.489209
 30
0.0
 40
1140.089645
100
AcDbArc
 50
269.0881760000021
 51
269.6108689999998
  0
SPLINE
  5
21E1B
330
1F
100
AcDbEntity
  8
SK1
100
AcDbSpline
210
0.0
220
0.0
230
1.0
 70
     8
 71
     5
 72
    12
 73
     6
 74
     0
 42
0.000000001
 43
0.0000000001
 40
0.0
 40
0.0
 40
0.0
 40
0.0
 40
0.0
 40
0.0
 40
17.3701469666304
 40
17.3701469666304
 40
17.3701469666304
 40
17.3701469666304
 40
17.3701469666304
 40
17.3701469666304
 10
-11.39999999999907
 20
-4.592682992959225
 30
0.0
 10
-11.27601419458108
 20
-4.70752564157339
 30
0.0
 10
-11.1277838129688
 20
-4.839149626589659
 30
0.0
 10
-10.94673427401483
 20
-4.995506818448262
 30
0.0
 10
-10.7274218899621
 20
-5.179957801122739
 30
0.0
 10
-10.39999999999554
 20
-5.456077204095649
 30
0.0
  0
LINE
  5
21E1C
330
1F
100
AcDbEntity
  8
SK1
100
AcDbLine
 10
-11.39999999999997
 20
-4.036879999999996
 30
0.0
 11
-11.39999999999997
 21
-4.592683
 31
0.0
  0
LINE
  5
21E1D
330
1F
100
AcDbEntity
  8
SK1
100
AcDbLine
 10
-11.39999999999997
 20
3.298918
 30
0.0
 11
-11.39999999999997
 21
-4.036879999999996
 31
0.0
  0
LINE
  5
21E1E
330
1F
100
AcDbEntity
  8
SK1
100
AcDbLine
 10
-11.39999999999997
 20
3.298918
 30
0.0
 11
-11.39999999999997
 21
3.747326999999998
 31
0.0
  0
LINE
  5
21E1F
330
1F
100
AcDbEntity
  8
SK1
100
AcDbLine
 10
-11.39999999999997
 20
4.592683000000008
 30
0.0
 11
-11.39999999999997
 21
3.747326999999998
 31
0.0
  0
ARC
  5
21E20
330
1F
100
AcDbEntity
  8
SK1
100
AcDbCircle
 10
7.742990999999847
 20
-1134.489209
 30
0.0
 40
1140.089645
100
AcDbArc
 50
90.38913100000014
 51
90.91182399999784
  0
LINE
  5
21E21
330
1F
100
AcDbEntity
  8
1
100
AcDbLine
 10
10.1022710000002
 20
13.66561899999999
 30
0.0
 11
9.826933000000281
 21
13.75000000000001
 31
0.0
  0
SPLINE
  5
21E22
330
1F
100
AcDbEntity
  8
SK1
100
AcDbSpline
210
0.0
220
0.0
230
1.0
 70
     8
 71
     5
 72
    12
 73
     6
 74
     0
 42
0.000000001
 43
0.0000000001
 40
0.0
 40
0.0
 40
0.0
 40
0.0
 40
0.0
 40
0.0
 40
17.3701469733084
 40
17.3701469733084
 40
17.3701469733084
 40
17.3701469733084
 40
17.3701469733084
 40
17.3701469733084
 10
-11.39999999999907
 20
4.592682992959225
 30
0.0
 10
-11.27601419453583
 20
4.707525641615006
 30
0.0
 10
-11.12778381285784
 20
4.839149626685781
 30
0.0
 10
-10.94673427407906
 20
4.995506818414156
 30
0.0
 10
-10.72742189006817
 20
5.179957801035897
 30
0.0
 10
-10.39999999999554
 20
5.456077204095663
 30
0.0
  0
LINE
  5
21E23
330
1F
100
AcDbEntity
  8
1
100
AcDbLine
 10
10.1022700000002
 20
13.66561799999999
 30
0.0
 11
9.3940580000002
 21
6.666667000000003
 31
0.0
  0
ELLIPSE
  5
21E24
330
1F
100
AcDbEntity
  8
1
100
AcDbEllipse
 10
8.98942500000021
 20
6.666667000000003
 30
0.0
 11
0.2892749309539794
 21
2.799694299697871
 31
0.0
210
0.0
220
0.0
230
1.0
 40
0.1430169999999999
 41
3.937738350797745
 42
4.727164917288844
  0
ARC
  5
21E25
330
1F
100
AcDbEntity
  8
SK1
100
AcDbCircle
 10
-10.409536
 20
7.520710000000008
 30
0.0
 40
4.337074999999996
100
AcDbArc
 50
256.7967640000034
 51
267.6257439999986
  0
LINE
  5
21E26
330
1F
100
AcDbEntity
  8
SK1
100
AcDbLine
 10
-10.58923000000004
 20
3.186800000000005
 30
0.0
 11
-10.39999999999998
 21
3.179145000000005
 31
0.0
  0
LINE
  5
21E27
330
1F
100
AcDbEntity
  8
SK1
100
AcDbLine
 10
-10.39999999999998
 20
3.179145000000005
 30
0.0
 11
-8.345565999999735
 21
3.058745000000016
 31
0.0
  0
ARC
  5
21E28
330
1F
100
AcDbEntity
  8
SK1
100
AcDbCircle
 10
-140.6470899999998
 20
-2233.158685000001
 30
0.0
 40
2240.127714999999
100
AcDbArc
 50
86.41621599999883
 51
86.61415199999984
  0
SPLINE
  5
21E29
330
1F
100
AcDbEntity
  8
1
100
AcDbSpline
210
0.0
220
0.0
230
1.0
 70
     8
 71
     5
 72
    12
 73
     6
 74
     0
 42
0.000000001
 43
0.0000000001
 40
0.0
 40
0.0
 40
0.0
 40
0.0
 40
0.0
 40
0.0
 40
37.86697421665573
 40
37.86697421665573
 40
37.86697421665573
 40
37.86697421665573
 40
37.86697421665573
 40
37.86697421665573
 10
21.56999999945424
 20
1.819611687901492
 30
0.0
 10
17.20471831533859
 20
2.086206006587453
 30
0.0
 10
12.85295929806887
 20
2.561146795722265
 30
0.0
 10
8.526847583062021
 20
3.234617286651669
 30
0.0
 10
4.238863399336878
 20
4.083512929518221
 30
0.0
 10
-0.0000000008437837
 20
5.076229030781234
 30
0.0
  0
LINE
  5
21E2A
330
1F
100
AcDbEntity
  8
1
100
AcDbLine
 10
21.57000000000028
 20
1.819611999999999
 30
0.0
 11
21.57000000000028
 21
-12.06676
 31
0.0
  0
LINE
  5
21E2B
330
1F
100
AcDbEntity
  8
1
100
AcDbLine
 10
21.57000000000028
 20
-12.06676
 30
0.0
 11
21.57000000000028
 21
-13.54245499999999
 31
0.0
  0
LINE
  5
21E2C
330
1F
100
AcDbEntity
  8
SK1
100
AcDbLine
 10
-10.39999999999998
 20
3.179145000000005
 30
0.0
 11
-10.39999999999998
 21
-4.914462
 31
0.0
  0
LINE
  5
21E2D
330
1F
100
AcDbEntity
  8
1
100
AcDbLine
 10
0.0
 20
-12.06676
 30
0.0
 11
0.0
 21
-13.644713
 31
0.0
  0
LINE
  5
21E2E
330
1F
100
AcDbEntity
  8
1
100
AcDbLine
 10
0.0
 20
5.076228999999997
 30
0.0
 11
0.0
 21
-12.06676
 31
0.0
  0
LINE
  5
21E2F
330
1F
100
AcDbEntity
  8
1
100
AcDbLine
 10
16.5
 20
-13.75
 30
0.0
 11
9.826933000000281
 21
-13.75
 31
0.0
  0
LINE
  5
21E30
330
1F
100
AcDbEntity
  8
1
100
AcDbLine
 10
16.5
 20
-13.54245499999999
 30
0.0
 11
16.5
 21
-13.75
 31
0.0
  0
LINE
  5
21E31
330
1F
100
AcDbEntity
  8
1
100
AcDbLine
 10
21.57000000000028
 20
-13.54245499999999
 30
0.0
 11
16.5
 21
-13.54245499999999
 31
0.0
  0
LINE
  5
21E32
330
1F
100
AcDbEntity
  8
SK1
100
AcDbLine
 10
-10.39999999999998
 20
-4.914462
 30
0.0
 11
-10.39999999999998
 21
-5.456077
 31
0.0
  0
CIRCLE
  5
21E33
330
1F
100
AcDbEntity
  8
1
100
AcDbCircle
 10
19.53500000000019
 20
-10.965
 30
0.0
 40
0.9519999999999997
  0
LINE
  5
21E34
330
1F
100
AcDbEntity
  8
1
100
AcDbLine
 10
10.69500000000005
 20
2.991771999999997
 30
0.0
 11
10.69500000000005
 21
3.153078999999991
 31
0.0
  0
LINE
  5
21E35
330
1F
100
AcDbEntity
  8
1
100
AcDbLine
 10
10.69500000000005
 20
3.485678000000007
 30
0.0
 11
10.69500000000005
 21
3.153078999999991
 31
0.0
  0
LINE
  5
21E36
330
1F
100
AcDbEntity
  8
1
100
AcDbLine
 10
10.69500000000005
 20
4.397984000000008
 30
0.0
 11
10.69500000000005
 21
3.485678000000007
 31
0.0
  0
ARC
  5
21E37
330
1F
100
AcDbEntity
  8
1
100
AcDbCircle
 10
-18.9161459999998
 20
-347.4896919999999
 30
0.0
 40
352.222378
100
AcDbArc
 50
84.15391500000266
 51
85.17748099999909
  0
ARC
  5
21E3A
330
1F
100
AcDbEntity
  8
1
100
AcDbCircle
 10
22.5876840000002
 20
-0.0496330000000001
 30
0.0
 40
1.613403
100
AcDbArc
 50
108.6416629999968
 51
129.1123080000018
  0
ARC
  5
21E3B
330
1F
100
AcDbEntity
  8
1
100
AcDbCircle
 10
19.2817120000002
 20
9.827350000000009
 30
0.0
 40
8.801283999999997
100
AcDbArc
 50
288.4813070000001
 51
295.9463549999989
  0
ARC
  5
21E3C
330
1F
100
AcDbEntity
  8
1
100
AcDbCircle
 10
-26.70246499999996
 20
-434.5383549999999
 30
0.0
 40
439.287029
100
AcDbArc
 50
83.48609499999833
 51
85.11636500000239
  0
ARC
  5
21E3D
330
1F
100
AcDbEntity
  8
1
100
AcDbCircle
 10
29.12997900000028
 20
3.852327000000002
 30
0.0
 40
4.614364
100
AcDbArc
 50
189.1138870000006
 51
194.1442180000003
  0
ARC
  5
21E3E
330
1F
100
AcDbEntity
  8
1
100
AcDbCircle
 10
-214.809747
 20
-35.64971799999999
 30
0.0
 40
242.503411
100
AcDbArc
 50
9.199873000000906
 51
9.988700999999224
  0
LINE
  5
21E3F
330
1F
100
AcDbEntity
  8
1
100
AcDbLine
 10
24.01817900000003
 20
6.413531000000006
 30
0.0
 11
23.36000000000002
 21
6.899595000000005
 31
0.0
  0
ARC
  5
21E40
330
1F
100
AcDbEntity
  8
1
100
AcDbCircle
 10
-4.120907999999985
 20
-153.9468479999999
 30
0.0
 40
163.177126
100
AcDbArc
 50
80.30452599999874
 51
81.18041400000114
  0
ARC
  5
21E41
330
1F
100
AcDbEntity
  8
1
100
AcDbCircle
 10
31.31970900000022
 20
-82.25182099999994
 30
0.0
 40
90.15722099999999
100
AcDbArc
 50
96.63794700000087
 51
99.1647469999984
  0
ARC
  5
21E42
330
1F
100
AcDbEntity
  8
1
100
AcDbCircle
 10
8.744528000000173
 20
30.77792199999999
 30
0.0
 40
32.251265
100
AcDbArc
 50
296.4945820000004
 51
299.5606620000032
  0
LINE
  5
21E43
330
1F
100
AcDbEntity
  8
1
100
AcDbLine
 10
20.89800000000014
 20
7.300865000000001
 30
0.0
 11
20.89800000000014
 21
8.950000000000002
 31
0.0
  0
LINE
  5
21E44
330
1F
100
AcDbEntity
  8
1
100
AcDbLine
 10
16.96000000000026
 20
7.894816000000005
 30
0.0
 11
20.89800000000014
 21
8.950000000000002
 31
0.0
  0
LINE
  5
21E48
330
1F
100
AcDbEntity
  8
1
100
AcDbLine
 10
21.57000000000028
 20
0.5942050000000024
 30
0.0
 11
26.66561300000001
 21
-0.2298989999999961
 31
0.0
  0
ELLIPSE
  5
21E49
330
1F
100
AcDbEntity
  8
1
100
AcDbEllipse
 10
27.19753100000003
 20
0.0160460000000029
 30
0.0
 11
8.773947715759277
 21
-1.377805829048156
 31
0.0
210
0.0
220
0.0
230
1.0
 40
0.6057160000000003
 41
4.114662058821843
 42
4.503771086875945
  0
LINE
  5
21E4A
330
1F
100
AcDbEntity
  8
1
100
AcDbLine
 10
24.57388800000001
 20
-4.84223
 30
0.0
 11
24.56391100000019
 21
-4.897895999999995
 31
0.0
  0
ARC
  5
21E4B
330
1F
100
AcDbEntity
  8
1
100
AcDbCircle
 10
27.37134200000003
 20
-5.328462999999999
 30
0.0
 40
2.839166999999997
100
AcDbArc
 50
154.3420840000024
 51
170.1397890000001
  0
LINE
  5
21E4C
330
1F
100
AcDbEntity
  8
1
100
AcDbLine
 10
25.28517600000021
 20
-3.127989999999996
 30
0.0
 11
24.81233499999985
 21
-4.099209999999999
 31
0.0
  0
SPLINE
  5
21E4D
330
1F
100
AcDbEntity
  8
1
100
AcDbSpline
210
0.0
220
0.0
230
1.0
 70
     8
 71
     5
 72
    27
 73
    21
 74
     0
 42
0.000000001
 43
0.0000000001
 40
0.0
 40
0.0
 40
0.0
 40
0.0
 40
0.0
 40
0.0
 40
15.88662164981226
 40
15.88662164981226
 40
15.88662164981226
 40
31.75386469933105
 40
31.75386469933105
 40
31.75386469933105
 40
42.39996423970077
 40
42.39996423970077
 40
42.39996423970077
 40
48.69813900072861
 40
48.69813900072861
 40
48.69813900072861
 40
52.33459756246801
 40
52.33459756246801
 40
52.33459756246801
 40
53.20921424895279
 40
53.20921424895279
 40
53.20921424895279
 40
53.20921424895279
 40
53.20921424895279
 40
53.20921424895279
 10
26.66561297423232
 20
-0.2298989309804753
 30
0.0
 10
26.65731628539413
 20
-0.2516276736902299
 30
0.0
 10
26.64775019585432
 20
-0.2758390061712959
 30
0.0
 10
26.63655400613789
 20
-0.3032778656376891
 30
0.0
 10
26.61005723204266
 20
-0.366373956524356
 30
0.0
 10
26.57063852350234
 20
-0.455609692398518
 30
0.0
 10
26.54737001831222
 20
-0.5072835381285757
 30
0.0
 10
26.49767018419538
 20
-0.6159095149987977
 30
0.0
 10
26.41206025785255
 20
-0.79802246526679
 30
0.0
 10
26.37034664909027
 20
-0.8860725461237279
 30
0.0
 10
26.28562791922491
 20
-1.063897393196249
 30
0.0
 10
26.13824606199592
 20
-1.370078938079153
 30
0.0
 10
26.07095033445319
 20
-1.509529464747743
 30
0.0
 10
25.93896269275945
 20
-1.782432309334794
 30
0.0
 10
25.73603423713348
 20
-2.200638137715884
 30
0.0
 10
25.64508340258681
 20
-2.387923123705903
 30
0.0
 10
25.52010679803641
 20
-2.645049155970646
 30
0.0
 10
25.37439369573553
 20
-2.944616291817894
 30
0.0
 10
25.34537756781038
 20
-3.004262312615551
 30
0.0
 10
25.31564427331341
 20
-3.065374358670901
 30
0.0
 10
25.28517604534443
 20
-3.127989732289954
 30
0.0
  0
SPLINE
  5
21E4E
330
1F
100
AcDbEntity
  8
1
100
AcDbSpline
210
0.0
220
0.0
230
1.0
 70
     8
 71
     5
 72
    54
 73
    48
 74
     0
 42
0.000000001
 43
0.0000000001
 40
0.0
 40
0.0
 40
0.0
 40
0.0
 40
0.0
 40
0.0
 40
24.72657414750065
 40
24.72657414750065
 40
24.72657414750065
 40
61.81592837624777
 40
61.81592837624777
 40
61.81592837624777
 40
86.5421794006084
 40
86.5421794006084
 40
86.5421794006084
 40
98.90538449493099
 40
98.90538449493099
 40
98.90538449493099
 40
111.4026395429512
 40
111.4026395429512
 40
111.4026395429512
 40
115.5242306754235
 40
115.5242306754235
 40
115.5242306754235
 40
117.585041603987
 40
117.585041603987
 40
117.585041603987
 40
119.6458525325505
 40
119.6458525325505
 40
119.6458525325505
 40
120.6828619854168
 40
120.6828619854168
 40
120.6828619854168
 40
121.7482557286389
 40
121.7482557286389
 40
121.7482557286389
 40
122.0086236951264
 40
122.0086236951264
 40
122.0086236951264
 40
122.2689916616139
 40
122.2689916616139
 40
122.2689916616139
 40
122.5305192992752
 40
122.5305192992752
 40
122.5305192992752
 40
122.7920469369365
 40
122.7920469369365
 40
122.7920469369365
 40
123.8915491911185
 40
123.8915491911185
 40
123.8915491911185
 40
123.8915491911185
 40
123.8915491911185
 40
123.8915491911185
 10
26.66561297423232
 20
-0.2298989309804753
 30
0.0
 10
26.67852753694842
 20
-0.19607613541028
 30
0.0
 10
26.68659690174639
 20
-0.1703612306904176
 30
0.0
 10
26.69277578489027
 20
-0.1480870833880061
 30
0.0
 10
26.70477003016299
 20
-0.0961828213353471
 30
0.0
 10
26.70912476178285
 20
-0.052900780399419
 30
0.0
 10
26.70981884741002
 20
-0.0282689939210172
 30
0.0
 10
26.70792524278261
 20
0.0133289902993497
 30
0.0
 10
26.70014433530094
 20
0.0588184989251985
 30
0.0
 10
26.69600041339447
 20
0.07798679620619
 30
0.0
 10
26.68786092547577
 20
0.1093261177040645
 30
0.0
 10
26.67487457797597
 20
0.1478782666976102
 30
0.0
 10
26.6698546845671
 20
0.1617951725686879
 30
0.0
 10
26.6585388694449
 20
0.1913375507802044
 30
0.0
 10
26.64314522567679
 20
0.2273123998592084
 30
0.0
 10
26.63437925147889
 20
0.2468403677552047
 30
0.0
 10
26.61952811264223
 20
0.2785501943440636
 30
0.0
 10
26.5973323018718
 20
0.3218679146850221
 30
0.0
 10
26.59128452338382
 20
0.3334678896385412
 30
0.0
 10
26.58121036835303
 20
0.3524372081645595
 30
0.0
 10
26.56890678007858
 20
0.3748418569190406
 30
0.0
 10
26.56451418884421
 20
0.3827565149797536
 30
0.0
 10
26.55504839368564
 20
0.3996253968787116
 30
0.0
 10
26.54380190143104
 20
0.4191863015561453
 30
0.0
 10
26.53744625410741
 20
0.4300953860343242
 30
0.0
 10
26.52761387325199
 20
0.4467481372417268
 30
0.0
 10
26.51580816527496
 20
0.4662835389483178
 30
0.0
 10
26.51155127943037
 20
0.4732767288665088
 30
0.0
 10
26.50202065231543
 20
0.4888062568546446
 30
0.0
 10
26.48983876731188
 20
0.508238428728383
 30
0.0
 10
26.48356052187001
 20
0.5181062262007714
 30
0.0
 10
26.47391517918823
 20
0.5332004140685314
 30
0.0
 10
26.46019604791809
 20
0.5540630111099745
 30
0.0
 10
26.45729834979932
 20
0.5584473748383445
 30
0.0
 10
26.45102912505581
 20
0.5678836745692167
 30
0.0
 10
26.44330901311935
 20
0.5793585773669321
 30
0.0
 10
26.44128124546739
 20
0.5822874220666848
 30
0.0
 10
26.42860552858451
 20
0.6012058400488982
 30
0.0
 10
26.39896161089223
 20
0.6434514033622421
 30
0.0
 10
26.38371481003219
 20
0.6640473681633808
 30
0.0
 10
26.3670860841612
 20
0.6864443174284887
 30
0.0
 10
26.3559657082335
 20
0.7010321421472839
 30
0.0
 10
26.35068333950028
 20
0.7079270674907292
 30
0.0
 10
26.32586011395415
 20
0.7400258668153868
 30
0.0
 10
26.31000837645797
 20
0.7593199811043263
 30
0.0
 10
26.29965486738218
 20
0.7720555746142211
 30
0.0
 10
26.28768693159441
 20
0.7862875660441518
 30
0.0
 10
26.27650623062596
 20
0.7993226627795238
 30
0.0
  0
LINE
  5
21E4F
330
1F
100
AcDbEntity
  8
1
100
AcDbLine
 10
26.27650600000015
 20
0.7993230000000012
 30
0.0
 11
22.07189400000004
 21
1.479326999999997
 31
0.0
  0
LINE
  5
21E50
330
1F
100
AcDbEntity
  8
1
100
AcDbLine
 10
24.81233499999985
 20
2.497275999999999
 30
0.0
 11
26.27650600000015
 21
0.7993230000000012
 31
0.0
  0
ARC
  5
21E51
330
1F
100
AcDbEntity
  8
1
100
AcDbCircle
 10
25.74937500000022
 20
3.311720000000008
 30
0.0
 40
1.24147
100
AcDbArc
 50
208.2180139999982
 51
220.9960830000006
  0
LINE
  5
21E52
330
1F
100
AcDbEntity
  8
1
100
AcDbLine
 10
24.57388800000001
 20
5.418418000000002
 30
0.0
 11
24.57388800000001
 21
3.121426999999997
 31
0.0
  0
LINE
  5
21E53
330
1F
100
AcDbEntity
  8
1
100
AcDbLine
 10
24.81233499999985
 20
4.634514999999993
 30
0.0
 11
24.81233499999985
 21
2.497275999999999
 31
0.0
  0
LINE
  5
21E54
330
1F
100
AcDbEntity
  8
1
100
AcDbLine
 10
24.01817900000003
 20
8.570000000000007
 30
0.0
 11
24.01817900000003
 21
6.413531000000006
 31
0.0
  0
LINE
  5
21E55
330
1F
100
AcDbEntity
  8
1
100
AcDbLine
 10
23.36000000000002
 20
8.950000000000002
 30
0.0
 11
23.36000000000002
 21
6.899595000000005
 31
0.0
  0
LINE
  5
21E56
330
1F
100
AcDbEntity
  8
1
100
AcDbLine
 10
24.81233499999985
 20
-4.099209999999999
 30
0.0
 11
24.81233499999985
 21
-4.634515
 31
0.0
  0
LINE
  5
21E57
330
1F
100
AcDbEntity
  8
1
100
AcDbLine
 10
24.57388800000001
 20
-4.84223
 30
0.0
 11
24.57388800000001
 21
-5.418418000000002
 31
0.0
  0
LINE
  5
21E58
330
1F
100
AcDbEntity
  8
1
100
AcDbLine
 10
24.56391100000019
 20
-5.467970999999998
 30
0.0
 11
24.56391100000019
 21
-4.897895999999995
 31
0.0
  0
LINE
  5
21E59
330
1F
100
AcDbEntity
  8
1
100
AcDbLine
 10
24.56391100000019
 20
-5.467970999999998
 30
0.0
 11
24.54504400000019
 21
-5.581885999999997
 31
0.0
  0
LINE
  5
21E5A
330
1F
100
AcDbEntity
  8
1
100
AcDbLine
 10
24.54504400000019
 20
-5.581885999999997
 30
0.0
 11
24.42779600000029
 21
-6.246946000000001
 31
0.0
  0
LINE
  5
21E5B
330
1F
100
AcDbEntity
  8
1
100
AcDbLine
 10
24.01817900000003
 20
-8.569999999999993
 30
0.0
 11
24.42779600000029
 21
-6.246946000000001
 31
0.0
  0
LINE
  5
21E5C
330
1F
100
AcDbEntity
  8
1
100
AcDbLine
 10
24.01817900000003
 20
-8.569999999999993
 30
0.0
 11
23.36000000000002
 21
-8.950000000000002
 31
0.0
  0
LINE
  5
21E5D
330
1F
100
AcDbEntity
  8
1
100
AcDbLine
 10
23.36000000000002
 20
-8.950000000000002
 30
0.0
 11
22.57000000000028
 21
-8.950000000000002
 31
0.0
  0
LINE
  5
21E5E
330
1F
100
AcDbEntity
  8
1
100
AcDbLine
 10
21.56999100000019
 20
-5.467970999999998
 30
0.0
 11
24.56391100000019
 21
-5.467970999999998
 31
0.0
  0
ARC
  5
21E61
330
1F
100
AcDbEntity
  8
1
100
AcDbCircle
 10
27.92321900000002
 20
-6.008995999999996
 30
0.0
 40
3.401
100
AcDbArc
 50
156.1627450000009
 51
170.000001000001
  0
LINE
  5
21E62
330
1F
100
AcDbEntity
  8
1
100
AcDbLine
 10
24.57388800000001
 20
-5.418418000000002
 30
0.0
 11
24.54514400000028
 21
-5.581434000000001
 31
0.0
  0
LINE
  5
21E64
330
1F
100
AcDbEntity
  8
1
100
AcDbLine
 10
26.86000000000002
 20
0.0
 30
0.0
 11
24.81233499999985
 21
-4.634515
 31
0.0
  0
ARC
  5
21E65
330
1F
100
AcDbEntity
  8
1
100
AcDbCircle
 10
16.9000000000002
 20
13.59999999999999
 30
0.0
 40
0.4
100
AcDbArc
 50
90.0
 51
180.0
  0
LINE
  5
21E66
330
1F
100
AcDbEntity
  8
1
100
AcDbLine
 10
16.9000000000002
 20
14.0
 30
0.0
 11
22.16999999999984
 21
14.0
 31
0.0
  0
ARC
  5
21E67
330
1F
100
AcDbEntity
  8
1
100
AcDbCircle
 10
22.16999999999984
 20
13.59999999999999
 30
0.0
 40
0.4
100
AcDbArc
 50
0.0
 51
90.0
  0
LINE
  5
21E68
330
1F
100
AcDbEntity
  8
1
100
AcDbLine
 10
22.57000000000028
 20
13.59999999999999
 30
0.0
 11
22.57000000000028
 21
8.950000000000002
 31
0.0
  0
LINE
  5
21E69
330
1F
100
AcDbEntity
  8
1
100
AcDbLine
 10
17.091362
 20
7.930000000000006
 30
0.0
 11
16.9000000000002
 21
7.930000000000006
 31
0.0
  0
ARC
  5
21E6A
330
1F
100
AcDbEntity
  8
1
100
AcDbCircle
 10
16.9000000000002
 20
8.329999999999998
 30
0.0
 40
0.4
100
AcDbArc
 50
180.0
 51
270.0
  0
LINE
  5
21E6B
330
1F
100
AcDbEntity
  8
1
100
AcDbLine
 10
16.5
 20
8.329999999999998
 30
0.0
 11
16.5
 21
13.59999999999999
 31
0.0
  0
CIRCLE
  5
21E6C
330
1F
100
AcDbEntity
  8
1
100
AcDbCircle
 10
19.53500000000019
 20
10.965
 30
0.0
 40
1.304999999999999
  0
CIRCLE
  5
21E6D
330
1F
100
AcDbEntity
  8
1
100
AcDbCircle
 10
19.53500000000019
 20
10.965
 30
0.0
 40
1.711879999999999
  0
ARC
  5
21E75
330
1F
100
AcDbEntity
  8
1
100
AcDbCircle
 10
16.9000000000002
 20
-13.6
 30
0.0
 40
0.065513
100
AcDbArc
 50
180.0000019999999
 51
269.9999979999972
  0
LINE
  5
21E76
330
1F
100
AcDbEntity
  8
1
100
AcDbLine
 10
16.9000000000002
 20
-13.665513
 30
0.0
 11
22.16999999999984
 21
-13.665513
 31
0.0
  0
ARC
  5
21E77
330
1F
100
AcDbEntity
  8
1
100
AcDbCircle
 10
22.16999999999984
 20
-13.6
 30
0.0
 40
0.065513
100
AcDbArc
 50
269.9999989999986
 51
359.9999989999998
  0
LINE
  5
21E78
330
1F
100
AcDbEntity
  8
1
100
AcDbLine
 10
22.23551300000019
 20
-13.6
 30
0.0
 11
22.23551300000019
 21
-8.329999999999998
 31
0.0
  0
ARC
  5
21E79
330
1F
100
AcDbEntity
  8
1
100
AcDbCircle
 10
22.16999999999984
 20
-8.329999999999998
 30
0.0
 40
0.065513
100
AcDbArc
 50
0.000000999999775
 51
89.9999989999986
  0
LINE
  5
21E7A
330
1F
100
AcDbEntity
  8
1
100
AcDbLine
 10
22.16999999999984
 20
-8.264487000000002
 30
0.0
 11
21.57000000000028
 21
-8.264487000000002
 31
0.0
  0
LINE
  5
21E7B
330
1F
100
AcDbEntity
  8
1
100
AcDbLine
 10
16.83448699999985
 20
-13.54245499999999
 30
0.0
 11
16.83448699999985
 21
-13.6
 31
0.0
  0
LINE
  5
21E7C
330
1F
100
AcDbEntity
  8
1
100
AcDbLine
 10
16.83448699999985
 20
-13.6
 30
0.0
 11
16.5
 21
-13.6
 31
0.0
  0
ARC
  5
21E7D
330
1F
100
AcDbEntity
  8
1
100
AcDbCircle
 10
16.9000000000002
 20
-13.6
 30
0.0
 40
0.4
100
AcDbArc
 50
180.0
 51
270.0
  0
LINE
  5
21E7E
330
1F
100
AcDbEntity
  8
1
100
AcDbLine
 10
16.9000000000002
 20
-13.665513
 30
0.0
 11
16.9000000000002
 21
-13.99999999999999
 31
0.0
  0
LINE
  5
21E7F
330
1F
100
AcDbEntity
  8
1
100
AcDbLine
 10
16.9000000000002
 20
-13.99999999999999
 30
0.0
 11
22.16999999999984
 21
-13.99999999999999
 31
0.0
  0
LINE
  5
21E80
330
1F
100
AcDbEntity
  8
1
100
AcDbLine
 10
22.16999999999984
 20
-13.665513
 30
0.0
 11
22.16999999999984
 21
-13.99999999999999
 31
0.0
  0
ARC
  5
21E81
330
1F
100
AcDbEntity
  8
1
100
AcDbCircle
 10
22.16999999999984
 20
-13.6
 30
0.0
 40
0.4
100
AcDbArc
 50
270.0
 51
0.0
  0
LINE
  5
21E82
330
1F
100
AcDbEntity
  8
1
100
AcDbLine
 10
22.23551300000019
 20
-13.6
 30
0.0
 11
22.57000000000028
 21
-13.6
 31
0.0
  0
LINE
  5
21E83
330
1F
100
AcDbEntity
  8
1
100
AcDbLine
 10
22.57000000000028
 20
-13.6
 30
0.0
 11
22.57000000000028
 21
-8.329999999999998
 31
0.0
  0
LINE
  5
21E84
330
1F
100
AcDbEntity
  8
1
100
AcDbLine
 10
22.23551300000019
 20
-8.329999999999998
 30
0.0
 11
22.57000000000028
 21
-8.329999999999998
 31
0.0
  0
ARC
  5
21E85
330
1F
100
AcDbEntity
  8
1
100
AcDbCircle
 10
22.16999999999984
 20
-8.329999999999998
 30
0.0
 40
0.4
100
AcDbArc
 50
0.0
 51
90.0
  0
LINE
  5
21E86
330
1F
100
AcDbEntity
  8
1
100
AcDbLine
 10
22.16999999999984
 20
-8.264487000000002
 30
0.0
 11
22.16999999999984
 21
-7.929999999999992
 31
0.0
  0
LINE
  5
21E87
330
1F
100
AcDbEntity
  8
1
100
AcDbLine
 10
16.5
 20
-13.54245699999999
 30
0.0
 11
16.5
 21
-13.6
 31
0.0
  0
ARC
  5
21E88
330
1F
100
AcDbEntity
  8
1
100
AcDbCircle
 10
22.16999999999984
 20
-13.6
 30
0.0
 40
0.4
100
AcDbArc
 50
270.0
 51
0.0
  0
LINE
  5
21E89
330
1F
100
AcDbEntity
  8
1
100
AcDbLine
 10
22.16999999999984
 20
-13.99999999999999
 30
0.0
 11
16.9000000000002
 21
-13.99999999999999
 31
0.0
  0
ARC
  5
21E8A
330
1F
100
AcDbEntity
  8
1
100
AcDbCircle
 10
16.9000000000002
 20
-13.6
 30
0.0
 40
0.4
100
AcDbArc
 50
180.0
 51
270.0
  0
LINE
  5
21E8B
330
1F
100
AcDbEntity
  8
1
100
AcDbLine
 10
16.5
 20
-13.6
 30
0.0
 11
16.5
 21
-13.54245499999999
 31
0.0
  0
LINE
  5
21E8C
330
1F
100
AcDbEntity
  8
1
100
AcDbLine
 10
21.57000000000028
 20
-7.929999999999992
 30
0.0
 11
22.16999999999984
 21
-7.929999999999992
 31
0.0
  0
ARC
  5
21E8D
330
1F
100
AcDbEntity
  8
1
100
AcDbCircle
 10
22.16999999999984
 20
-8.329999999999998
 30
0.0
 40
0.4
100
AcDbArc
 50
0.0
 51
90.0
  0
LINE
  5
21E8E
330
1F
100
AcDbEntity
  8
1
100
AcDbLine
 10
22.57000000000028
 20
-8.329999999999998
 30
0.0
 11
22.57000000000028
 21
-13.6
 31
0.0
  0
LINE
  5
21E8F
330
1F
100
AcDbEntity
  8
NOCUT
 62
     7
370
    13
100
AcDbLine
 10
-11.40000000000009
 20
5.599999999999994
 30
0.0
 11
-11.40000000000009
 21
2.68478300000001
 31
0.0
  0
LINE
  5
21E90
330
1F
100
AcDbEntity
  8
NOCUT
 62
     7
370
    13
100
AcDbLine
 10
-11.40000000000009
 20
2.68478300000001
 30
0.0
 11
-11.39999999999997
 21
0.0
 31
0.0
  0
LINE
  5
21E91
330
1F
100
AcDbEntity
  8
NOCUT
 62
     7
370
    13
100
AcDbLine
 10
-0.0000000000001137
 20
13.75000000000001
 30
0.0
 11
-0.0000000000001137
 21
6.592100999999999
 31
0.0
  0
LINE
  5
21E92
330
1F
100
AcDbEntity
  8
NOCUT
 62
     7
370
    13
100
AcDbLine
 10
21.56999999999982
 20
13.75000000000001
 30
0.0
 11
21.56999999999982
 21
6.592100999999999
 31
0.0
  0
LINE
  5
21E93
330
1F
100
AcDbEntity
  8
NOCUT
 62
     7
370
    13
100
AcDbLine
 10
-0.0000000000001137
 20
6.592100999999999
 30
0.0
 11
-0.0000000000001137
 21
5.599999999999994
 31
0.0
  0
LINE
  5
21E94
330
1F
100
AcDbEntity
  8
NOCUT
 62
     7
370
    13
100
AcDbLine
 10
21.56999999999982
 20
6.592100999999999
 30
0.0
 11
21.57000000000028
 21
0.0
 31
0.0
  0
LINE
  5
21E95
330
1F
100
AcDbEntity
  8
NOCUT
 62
     7
370
    13
100
AcDbLine
 10
-0.0000000000001137
 20
5.599999999999994
 30
0.0
 11
-11.40000000000009
 21
5.599999999999994
 31
0.0
  0
LINE
  5
21E96
330
1F
100
AcDbEntity
  8
NOCUT
 62
     7
370
    13
100
AcDbLine
 10
21.56999999999982
 20
13.75000000000001
 30
0.0
 11
-0.0000000000001137
 21
13.75000000000001
 31
0.0
  0
LINE
  5
21E97
330
1F
100
AcDbEntity
  8
SKVIEW4
100
AcDbLine
 10
-44.54589295328037
 20
0.0
 30
0.0
 11
-80.29589295328014
 21
0.0
 31
0.0
  0
LINE
  5
21E98
330
1F
100
AcDbEntity
  8
SKVIEW4
100
AcDbLine
 10
-62.42089295328037
 20
17.875
 30
0.0
 11
-62.42089295328037
 21
-17.87499999999998
 31
0.0
  0
ARC
  5
21E99
330
1F
100
AcDbEntity
  8
SKVIEW1
100
AcDbCircle
 10
-62.42089295328037
 20
0.0
 30
0.0
 40
5.474999999999997
100
AcDbArc
 50
9.87870400000096
 51
87.11030899999942
  0
LINE
  5
21E9A
330
1F
100
AcDbEntity
  8
SKVIEW1
100
AcDbLine
 10
-54.96685495328017
 20
-2.593311999999997
 30
0.0
 11
-54.96685495328017
 21
1.059852999999996
 31
0.0
  0
ARC
  5
21E9B
330
1F
100
AcDbEntity
  8
SKVIEW1
100
AcDbCircle
 10
-56.44602795328012
 20
-2.112288999999996
 30
0.0
 40
3.500062
100
AcDbArc
 50
65.00031299999825
 51
100.9107550000006
  0
LINE
  5
21E9C
330
1F
100
AcDbEntity
  8
SKVIEW1
100
AcDbLine
 10
-57.95142995328013
 20
-0.2225460000000012
 30
0.0
 11
-57.95039095328013
 21
-0.2005819999999971
 31
0.0
  0
LINE
  5
21E9D
330
1F
100
AcDbEntity
  8
SKVIEW1
100
AcDbLine
 10
-58.38030095328031
 20
-2.369818999999999
 30
0.0
 11
-58.3803059532803
 21
-1.164262
 31
0.0
  0
ARC
  5
21E9E
330
1F
100
AcDbEntity
  8
SKVIEW1
100
AcDbCircle
 10
-57.09506695328014
 20
-11.04623999999998
 30
0.0
 40
8.465458999999999
100
AcDbArc
 50
92.43674300000142
 51
97.48216900000244
  0
ARC
  5
21E9F
330
1F
100
AcDbEntity
  8
SKVIEW1
100
AcDbCircle
 10
-62.42089295328037
 20
0.0
 30
0.0
 40
5.599999999999997
100
AcDbArc
 50
325.4096969999975
 51
334.7894480000018
  0
ARC
  5
21EA0
330
1F
100
AcDbEntity
  8
SKVIEW1
100
AcDbCircle
 10
-56.44601895328037
 20
-5.765415999999994
 30
0.0
 40
3.500023
100
AcDbArc
 50
65.00018999999955
 51
105.0408549999993
  0
LINE
  5
21EA1
330
1F
100
AcDbEntity
  8
SKVIEW1
100
AcDbLine
 10
-62.42089295328037
 20
5.582794000000006
 30
0.0
 11
-62.42089295328037
 21
7.930000000000006
 31
0.0
  0
LINE
  5
21EA2
330
1F
100
AcDbEntity
  8
SKVIEW1
100
AcDbLine
 10
-54.96685495328017
 20
1.059852999999996
 30
0.0
 11
-48.79182395328019
 21
-1.819611999999999
 31
0.0
  0
ARC
  5
21EA3
330
1F
100
AcDbEntity
  8
SKVIEW1
100
AcDbCircle
 10
-62.42089295328037
 20
0.0
 30
0.0
 40
13.75
100
AcDbArc
 50
338.3349270000003
 51
80.03242000000097
  0
LINE
  5
21EA4
330
1F
100
AcDbEntity
  8
SKVIEW1
100
AcDbLine
 10
-60.04089295328004
 20
7.930000000000006
 30
0.0
 11
-60.04089295328004
 21
13.542455
 31
0.0
  0
LINE
  5
21EA5
330
1F
100
AcDbEntity
  8
SKVIEW1
100
AcDbLine
 10
-60.04089295328004
 20
7.930000000000006
 30
0.0
 11
-62.42089295328037
 21
7.930000000000006
 31
0.0
  0
CIRCLE
  5
21EA6
330
1F
100
AcDbEntity
  8
SKVIEW1
100
AcDbCircle
 10
-52.72140795328027
 20
5.599999999999994
 30
0.0
 40
1.399999999999999
  0
LINE
  5
21EA7
330
1F
100
AcDbEntity
  8
SKVIEW1
100
AcDbLine
 10
-54.96685495328017
 20
-2.593311999999997
 30
0.0
 11
-54.66208495328022
 21
-2.735428999999996
 31
0.0
  0
SPLINE
  5
21EA8
330
1F
100
AcDbEntity
  8
SKVIEW1
100
AcDbSpline
210
0.0
220
0.0
230
1.0
 70
     8
 71
     5
 72
    30
 73
    24
 74
     0
 42
0.000000001
 43
0.0000000001
 40
0.0
 40
0.0
 40
0.0
 40
0.0
 40
0.0
 40
0.0
 40
1.987462035572921
 40
1.987462035572921
 40
1.987462035572921
 40
2.669562916516162
 40
2.669562916516162
 40
2.669562916516162
 40
3.374063064685246
 40
3.374063064685246
 40
3.374063064685246
 40
4.105029127182548
 40
4.105029127182548
 40
4.105029127182548
 40
4.846572389201915
 40
4.846572389201915
 40
4.846572389201915
 40
6.224675901344115
 40
6.224675901344115
 40
6.224675901344115
 40
6.869231826641367
 40
6.869231826641367
 40
6.869231826641367
 40
6.869231826641367
 40
6.869231826641367
 40
6.869231826641367
 10
-54.6620928660102
 20
-2.735424349349997
 30
0.0
 10
-54.51330879378963
 20
-2.751332234054096
 30
0.0
 10
-54.36016721550607
 20
-2.771459778603116
 30
0.0
 10
-54.20314389847385
 20
-2.796499934035686
 30
0.0
 10
-53.97863551353373
 20
-2.839604724308671
 30
0.0
 10
-53.73540988341289
 20
-2.901588421460118
 30
0.0
 10
-53.67185611020511
 20
-2.918834874034651
 30
0.0
 10
-53.53982412455014
 20
-2.957092207344764
 30
0.0
 10
-53.40217468249068
 20
-3.002647502360886
 30
0.0
 10
-53.33022521829718
 20
-3.028098707333455
 30
0.0
 10
-53.18173225545456
 20
-3.084506692535391
 30
0.0
 10
-53.03079166221085
 20
-3.150572982511882
 30
0.0
 10
-52.95206186669452
 20
-3.187633893713154
 30
0.0
 10
-52.79933986810897
 20
-3.26509507232673
 30
0.0
 10
-52.65441730556824
 20
-3.349573982870104
 30
0.0
 10
-52.58448930329371
 20
-3.393287711214242
 30
0.0
 10
-52.39526140362045
 20
-3.519344275011079
 30
0.0
 10
-52.23627522376296
 20
-3.64544913887385
 30
0.0
 10
-52.14252050558854
 20
-3.72750786607267
 30
0.0
 10
-52.02138415237925
 20
-3.842446607178864
 30
0.0
 10
-51.9156971523887
 20
-3.954291429605916
 30
0.0
 10
-51.8834136554625
 20
-3.989645119708043
 30
0.0
 10
-51.85242922090288
 20
-4.024695044556871
 30
0.0
 10
-51.82259427362589
 20
-4.059504911214148
 30
0.0
  0
LINE
  5
21EA9
330
1F
100
AcDbEntity
  8
SKVIEW1
100
AcDbLine
 10
-51.82259295328015
 20
-4.059505999999998
 30
0.0
 11
-49.64222295328011
 21
-5.076228999999997
 31
0.0
  0
LINE
  5
21EAA
330
1F
100
AcDbEntity
  8
SKVIEW1
100
AcDbLine
 10
-57.9668389532801
 20
-3.183623999999994
 30
0.0
 11
-57.81079095328016
 21
-3.179144999999998
 31
0.0
  0
ARC
  5
21EAB
330
1F
100
AcDbEntity
  8
SKVIEW1
100
AcDbCircle
 10
-56.55832895328012
 20
-10.509797
 30
0.0
 40
8.002186
100
AcDbArc
 50
53.71427399999898
 51
76.29264499999909
  0
LINE
  5
21EAC
330
1F
100
AcDbEntity
  8
SKVIEW1
100
AcDbLine
 10
-66.4614859532802
 20
2.369821000000001
 30
0.0
 11
-66.4614859532802
 21
1.164259000000001
 31
0.0
  0
LINE
  5
21EAD
330
1F
100
AcDbEntity
  8
SKVIEW1
100
AcDbLine
 10
-69.87493095328011
 20
2.593311999999997
 30
0.0
 11
-69.87493095328011
 21
-1.059852999999996
 31
0.0
  0
ARC
  5
21EAE
330
1F
100
AcDbEntity
  8
SKVIEW1
100
AcDbCircle
 10
-68.39587195328022
 20
2.111919
 30
0.0
 40
3.499694
100
AcDbArc
 50
244.999450000001
 51
280.9137370000012
  0
ARC
  5
21EAF
330
1F
100
AcDbEntity
  8
SKVIEW1
100
AcDbCircle
 10
-62.42089295328037
 20
0.0
 30
0.0
 40
5.474999999999997
100
AcDbArc
 50
189.8787040000009
 51
193.9997860000012
  0
ARC
  5
21EB0
330
1F
100
AcDbEntity
  8
SKVIEW1
100
AcDbCircle
 10
-67.74671895328015
 20
11.04624
 30
0.0
 40
8.465458999999999
100
AcDbArc
 50
272.4367430000015
 51
277.4821710000008
  0
ARC
  5
21EB1
330
1F
100
AcDbEntity
  8
SKVIEW1
100
AcDbCircle
 10
-62.42089295328037
 20
0.0
 30
0.0
 40
5.599999999999997
100
AcDbArc
 50
145.4096969999975
 51
154.7894480000018
  0
ARC
  5
21EB2
330
1F
100
AcDbEntity
  8
SKVIEW1
100
AcDbCircle
 10
-68.39576695328014
 20
5.765416000000016
 30
0.0
 40
3.500023
100
AcDbArc
 50
245.0001899999993
 51
285.0408549999993
  0
LINE
  5
21EB3
330
1F
100
AcDbEntity
  8
SKVIEW1
100
AcDbLine
 10
-66.87497895328021
 20
3.183622999999997
 30
0.0
 11
-67.03099495328046
 21
3.179145000000005
 31
0.0
  0
LINE
  5
21EB4
330
1F
100
AcDbEntity
  8
SKVIEW1
100
AcDbLine
 10
-69.87493095328011
 20
2.593311999999997
 30
0.0
 11
-70.17970095328019
 21
2.735428999999996
 31
0.0
  0
SPLINE
  5
21EB5
330
1F
100
AcDbEntity
  8
SKVIEW1
100
AcDbSpline
210
0.0
220
0.0
230
1.0
 70
     8
 71
     5
 72
    30
 73
    24
 74
     0
 42
0.000000001
 43
0.0000000001
 40
0.0
 40
0.0
 40
0.0
 40
0.0
 40
0.0
 40
0.0
 40
1.987462035047673
 40
1.987462035047673
 40
1.987462035047673
 40
2.669562915995889
 40
2.669562915995889
 40
2.669562915995889
 40
3.374063064150166
 40
3.374063064150166
 40
3.374063064150166
 40
4.10502912639786
 40
4.10502912639786
 40
4.10502912639786
 40
4.846572388428526
 40
4.846572388428526
 40
4.846572388428526
 40
6.224675900671713
 40
6.224675900671713
 40
6.224675900671713
 40
6.869231825958395
 40
6.869231825958395
 40
6.869231825958395
 40
6.869231825958395
 40
6.869231825958395
 40
6.869231825958395
 10
-70.17969304055032
 20
2.735424349349997
 30
0.0
 10
-70.32847711273007
 20
2.751332234048419
 30
0.0
 10
-70.48161869099033
 20
2.771459778595215
 30
0.0
 10
-70.63864200816908
 20
2.796499934050757
 30
0.0
 10
-70.86315039307897
 20
2.839604724321986
 30
0.0
 10
-71.10637602317581
 20
2.901588421467991
 30
0.0
 10
-71.16992979638713
 20
2.918834874043966
 30
0.0
 10
-71.30196178203653
 20
2.957092207353497
 30
0.0
 10
-71.43961122409518
 20
3.002647502370734
 30
0.0
 10
-71.51156068828697
 20
3.028098707343303
 30
0.0
 10
-71.66005365110436
 20
3.084506692536564
 30
0.0
 10
-71.8109942443316
 20
3.150572982505963
 30
0.0
 10
-71.8897240399707
 20
3.187633893765962
 30
0.0
 10
-72.04244603855056
 20
3.265095072381072
 30
0.0
 10
-72.18736860106128
 20
3.349573982912033
 30
0.0
 10
-72.25729660333275
 20
3.393287711256206
 30
0.0
 10
-72.4465245029902
 20
3.51934427504733
 30
0.0
 10
-72.60551068283837
 20
3.645449138909611
 30
0.0
 10
-72.69926540098163
 20
3.727507866080742
 30
0.0
 10
-72.82040175417979
 20
3.842446607179766
 30
0.0
 10
-72.9260887541675
 20
3.954291429603458
 30
0.0
 10
-72.95837225109369
 20
3.989645119703652
 30
0.0
 10
-72.98935668565639
 20
4.024695044553183
 30
0.0
 10
-73.01919163293689
 20
4.059504911211092
 30
0.0
  0
LINE
  5
21EB6
330
1F
100
AcDbEntity
  8
SKVIEW1
100
AcDbLine
 10
-73.01919295328048
 20
4.059505999999998
 30
0.0
 11
-75.19956295328018
 21
5.076228999999997
 31
0.0
  0
ARC
  5
21EB7
330
1F
100
AcDbEntity
  8
SKVIEW1
100
AcDbCircle
 10
-62.42089295328037
 20
0.0
 30
0.0
 40
13.75
100
AcDbArc
 50
158.3349270000003
 51
260.0324200000009
  0
LINE
  5
21EB8
330
1F
100
AcDbEntity
  8
SKVIEW1
100
AcDbLine
 10
-69.87493095328011
 20
-1.059852999999996
 30
0.0
 11
-76.0499619532801
 21
1.819611999999999
 31
0.0
  0
LINE
  5
21EB9
330
1F
100
AcDbEntity
  8
SKVIEW1
100
AcDbLine
 10
-62.42089295328037
 20
-6.246946000000001
 30
0.0
 11
-62.42089295328037
 21
-5.582852000000002
 31
0.0
  0
LINE
  5
21EBA
330
1F
100
AcDbEntity
  8
SKVIEW1
100
AcDbLine
 10
-64.80089295328014
 20
-7.929999999999992
 30
0.0
 11
-64.80089295328014
 21
-8.264487000000002
 31
0.0
  0
LINE
  5
21EBB
330
1F
100
AcDbEntity
  8
SKVIEW1
100
AcDbLine
 10
-64.80089295328014
 20
-7.929999999999992
 30
0.0
 11
-62.42089295328037
 21
-7.929999999999992
 31
0.0
  0
CIRCLE
  5
21EBC
330
1F
100
AcDbEntity
  8
SKVIEW1
100
AcDbCircle
 10
-72.12037795328012
 20
-5.600000000000001
 30
0.0
 40
1.399999999999999
  0
ARC
  5
21EBD
330
1F
100
AcDbEntity
  8
SKVIEW1
100
AcDbCircle
 10
-68.28345695328017
 20
10.509797
 30
0.0
 40
8.002186
100
AcDbArc
 50
233.714273999999
 51
256.2926449999991
  0
LINE
  5
21EBE
330
1F
100
AcDbEntity
  8
SKVIEW1
100
AcDbLine
 10
-62.42089295328037
 20
-13.75
 30
0.0
 11
-62.42089295328037
 21
-8.950005000000004
 31
0.0
  0
ARC
  5
21EBF
330
1F
100
AcDbEntity
  8
SKVIEW1
100
AcDbCircle
 10
-62.42089295328037
 20
0.0
 30
0.0
 40
4.474999999999996
100
AcDbArc
 50
346.6789169999987
 51
357.4309890000001
  0
ARC
  5
21EC0
330
1F
100
AcDbEntity
  8
SKVIEW1
100
AcDbCircle
 10
-67.5029199532803
 20
3.183002999999999
 30
0.0
 40
2.271552
100
AcDbArc
 50
288.6771509999997
 51
311.1424139999966
  0
ARC
  5
21EC1
330
1F
100
AcDbEntity
  8
SKVIEW1
100
AcDbCircle
 10
-57.3388659532801
 20
-3.183002999999999
 30
0.0
 40
2.271552
100
AcDbArc
 50
108.6771509999997
 51
131.1424139999965
  0
LINE
  5
21EC2
330
1F
100
AcDbEntity
  8
SKVIEW1
100
AcDbLine
 10
-56.94665495328013
 20
0.0913570000000022
 30
0.0
 11
-57.0323149532802
 21
0.0838620000000035
 31
0.0
  0
ARC
  5
21EC3
330
1F
100
AcDbEntity
  8
SKVIEW1
100
AcDbCircle
 10
-56.8343249532802
 20
-2.178992999999998
 30
0.0
 40
2.271500999999999
100
AcDbArc
 50
95.00038800000004
 51
119.4283029999981
  0
SPLINE
  5
21EC4
330
1F
100
AcDbEntity
  8
SKVIEW1
100
AcDbSpline
210
0.0
220
0.0
230
1.0
 70
     8
 71
     5
 72
    18
 73
    12
 74
     0
 42
0.000000001
 43
0.0000000001
 40
0.0
 40
0.0
 40
0.0
 40
0.0
 40
0.0
 40
0.0
 40
1.7491460157319
 40
1.7491460157319
 40
1.7491460157319
 40
3.411994413814785
 40
3.411994413814785
 40
3.411994413814785
 40
5.54628547375764
 40
5.54628547375764
 40
5.54628547375764
 40
5.54628547375764
 40
5.54628547375764
 40
5.54628547375764
 10
-58.73040431026755
 20
-0.6584529421904364
 30
0.0
 10
-58.6665730163495
 20
-0.4922808778760839
 30
0.0
 10
-58.58624582674952
 20
-0.3394743931279507
 30
0.0
 10
-58.49304547463248
 20
-0.2068919047413402
 30
0.0
 10
-58.29587958743639
 20
0.0139804737078251
 30
0.0
 10
-58.07832904774329
 20
0.1673663778057559
 30
0.0
 10
-57.96938994786501
 20
0.22783446671707
 30
0.0
 10
-57.71765336358646
 20
0.3361077401364199
 30
0.0
 10
-57.46374174060543
 20
0.3837502184438506
 30
0.0
 10
-57.32177614318255
 20
0.394249810311976
 30
0.0
 10
-57.18207644770302
 20
0.3904471996106409
 30
0.0
 10
-57.04463889927058
 20
0.37377518148962
 30
0.0
  0
ARC
  5
21EC5
330
1F
100
AcDbEntity
  8
SKVIEW1
100
AcDbCircle
 10
-56.88404295328019
 20
-1.371169999999999
 30
0.0
 40
1.979124999999999
100
AcDbArc
 50
158.8928279999979
 51
166.0288590000001
  0
SPLINE
  5
21EC6
330
1F
100
AcDbEntity
  8
SKVIEW1
100
AcDbSpline
210
0.0
220
0.0
230
1.0
 70
     8
 71
     5
 72
    12
 73
     6
 74
     0
 42
0.000000001
 43
0.0000000001
 40
0.0
 40
0.0
 40
0.0
 40
0.0
 40
0.0
 40
0.0
 40
1.693390277658501
 40
1.693390277658501
 40
1.693390277658501
 40
1.693390277658501
 40
1.693390277658501
 40
1.693390277658501
 10
-58.80459996609215
 20
-0.8933487338064765
 30
0.0
 10
-58.84205685809388
 20
-1.045014018537216
 30
0.0
 10
-58.85985072232756
 20
-1.186313360560205
 30
0.0
 10
-58.85954771977878
 20
-1.311312979983121
 30
0.0
 10
-58.84813664771389
 20
-1.408802776509375
 30
0.0
 10
-58.83182265991308
 20
-1.479326576890215
 30
0.0
  0
ARC
  5
21EC7
330
1F
100
AcDbEntity
  8
SKVIEW1
100
AcDbCircle
 10
-57.2698519532803
 20
-1.095264
 30
0.0
 40
1.608828
100
AcDbArc
 50
193.8140390000008
 51
210.5731379999991
  0
ARC
  5
21EC8
330
1F
100
AcDbEntity
  8
SKVIEW1
100
AcDbCircle
 10
-62.42058695328012
 20
0.0000239999999962
 30
0.0
 40
5.388923999999997
100
AcDbArc
 50
0.8914160000000574
 51
3.976966000000136
  0
ARC
  5
21EC9
330
1F
100
AcDbEntity
  8
SKVIEW1
100
AcDbCircle
 10
-62.42089295328037
 20
0.0
 30
0.0
 40
4.474999999999996
100
AcDbArc
 50
166.6789169999987
 51
177.4309890000001
  0
SPLINE
  5
21ECA
330
1F
100
AcDbEntity
  8
SKVIEW1
100
AcDbSpline
210
0.0
220
0.0
230
1.0
 70
     8
 71
     5
 72
    18
 73
    12
 74
     0
 42
0.000000001
 43
0.0000000001
 40
0.0
 40
0.0
 40
0.0
 40
0.0
 40
0.0
 40
0.0
 40
1.749146015301884
 40
1.749146015301884
 40
1.749146015301884
 40
3.411994412645971
 40
3.411994412645971
 40
3.411994412645971
 40
5.546285471672987
 40
5.546285471672987
 40
5.546285471672987
 40
5.546285471672987
 40
5.546285471672987
 40
5.546285471672987
 10
-66.11138159629309
 20
0.6584529421904364
 30
0.0
 10
-66.1752128901951
 20
0.4922808779173664
 30
0.0
 10
-66.25554007977098
 20
0.3394743932036732
 30
0.0
 10
-66.34874043186119
 20
0.2068919048374411
 30
0.0
 10
-66.54590631897656
 20
-0.0139804735626683
 30
0.0
 10
-66.76345685858473
 20
-0.167366377654524
 30
0.0
 10
-66.87239595853895
 20
-0.2278344666467902
 30
0.0
 10
-67.12413254297508
 20
-0.3361077401539347
 30
0.0
 10
-67.37804416607378
 20
-0.3837502184731676
 30
0.0
 10
-67.52000976349859
 20
-0.3942498103089562
 30
0.0
 10
-67.65970945891627
 20
-0.3904471996034786
 30
0.0
 10
-67.79714700728982
 20
-0.3737751814896058
 30
0.0
  0
ARC
  5
21ECB
330
1F
100
AcDbEntity
  8
SKVIEW1
100
AcDbCircle
 10
-67.9577429532801
 20
1.371169999999999
 30
0.0
 40
1.979124999999999
100
AcDbArc
 50
338.8928279999975
 51
346.0288590000005
  0
SPLINE
  5
21ECC
330
1F
100
AcDbEntity
  8
SKVIEW1
100
AcDbSpline
210
0.0
220
0.0
230
1.0
 70
     8
 71
     5
 72
    12
 73
     6
 74
     0
 42
0.000000001
 43
0.0000000001
 40
0.0
 40
0.0
 40
0.0
 40
0.0
 40
0.0
 40
0.0
 40
1.693390277689869
 40
1.693390277689869
 40
1.693390277689869
 40
1.693390277689869
 40
1.693390277689869
 40
1.693390277689869
 10
-66.03718594046836
 20
0.893348733806647
 30
0.0
 10
-65.99972904846651
 20
1.045014018537202
 30
0.0
 10
-65.98193518423352
 20
1.186313360557569
 30
0.0
 10
-65.98223818678047
 20
1.311312979968953
 30
0.0
 10
-65.9936492588464
 20
1.408802776507982
 30
0.0
 10
-66.00996324664743
 20
1.47932657689023
 30
0.0
  0
ARC
  5
21ECD
330
1F
100
AcDbEntity
  8
SKVIEW1
100
AcDbCircle
 10
-67.57193395328022
 20
1.095264
 30
0.0
 40
1.608828
100
AcDbArc
 50
13.81403900000084
 51
30.57313799999914
  0
ARC
  5
21ECE
330
1F
100
AcDbEntity
  8
SKVIEW1
100
AcDbCircle
 10
-68.00746095328031
 20
2.178992999999998
 30
0.0
 40
2.271500999999999
100
AcDbArc
 50
275.000388
 51
299.4283029999981
  0
ARC
  5
21ECF
330
1F
100
AcDbEntity
  8
SKVIEW1
100
AcDbCircle
 10
-62.42119895328028
 20
-0.0000239999999962
 30
0.0
 40
5.388923999999997
100
AcDbArc
 50
180.8914159999996
 51
183.9769659999997
  0
LINE
  5
21ED0
330
1F
100
AcDbEntity
  8
SKVIEW1
100
AcDbLine
 10
-66.69206595328012
 20
2.724739999999997
 30
0.0
 11
-66.84988295328015
 21
3.121426999999997
 31
0.0
  0
ARC
  5
21ED1
330
1F
100
AcDbEntity
  8
SKVIEW1
100
AcDbCircle
 10
24.10658704671971
 20
39.691282
 30
0.0
 40
98.032795
100
AcDbArc
 50
199.8436949999994
 51
201.9030300000021
  0
ARC
  5
21ED2
330
1F
100
AcDbEntity
  8
SKVIEW1
100
AcDbCircle
 10
-54.79332195328026
 20
7.105557000000004
 30
0.0
 40
13.32987
100
AcDbArc
 50
180.8853179999996
 51
182.9758739999999
  0
ARC
  5
21ED3
330
1F
100
AcDbEntity
  8
SKVIEW1
100
AcDbCircle
 10
-78.47399195328012
 20
-5.186340999999998
 30
0.0
 40
14.191418
100
AcDbArc
 50
30.02058000000118
 51
33.87974499999779
  0
LINE
  5
21ED4
330
1F
100
AcDbEntity
  8
SKVIEW1
100
AcDbLine
 10
-58.14971995328028
 20
-2.724739999999997
 30
0.0
 11
-57.99190295328037
 21
-3.121426999999997
 31
0.0
  0
ARC
  5
21ED5
330
1F
100
AcDbEntity
  8
SKVIEW1
100
AcDbCircle
 10
-148.9785459532802
 20
-39.70233599999999
 30
0.0
 40
98.064923
100
AcDbArc
 50
19.84378499999983
 51
21.90244599999882
  0
ARC
  5
21ED6
330
1F
100
AcDbEntity
  8
SKVIEW1
100
AcDbCircle
 10
-70.04784095328012
 20
-7.105536
 30
0.0
 40
13.329247
100
AcDbArc
 50
0.8852700000002762
 51
2.975923000000227
  0
ARC
  5
21ED7
330
1F
100
AcDbEntity
  8
SKVIEW1
100
AcDbCircle
 10
-46.36779395328028
 20
5.186340999999998
 30
0.0
 40
14.191418
100
AcDbArc
 50
210.0205800000008
 51
213.8797449999978
  0
ARC
  5
21ED8
330
1F
100
AcDbEntity
  8
SKVIEW1
100
AcDbCircle
 10
-62.42089295328037
 20
0.0
 30
0.0
 40
5.474999999999997
100
AcDbArc
 50
0.956089000000248
 51
63.45616400000128
  0
LINE
  5
21ED9
330
1F
100
AcDbEntity
  8
SKVIEW1
100
AcDbLine
 10
-57.04463895328013
 20
0.373775000000002
 30
0.0
 11
-56.95792795328021
 21
0.3628789999999995
 31
0.0
  0
LINE
  5
21EDA
330
1F
100
AcDbEntity
  8
SKVIEW1
100
AcDbLine
 10
-62.42089295328037
 20
8.570000000000007
 30
0.0
 11
-62.42089295328037
 21
8.950000000000002
 31
0.0
  0
LINE
  5
21EDB
330
1F
100
AcDbEntity
  8
SKVIEW1
100
AcDbLine
 10
-62.42089295328037
 20
6.246946000000008
 30
0.0
 11
-62.42089295328037
 21
8.570000000000007
 31
0.0
  0
ARC
  5
21EDC
330
1F
100
AcDbEntity
  8
SKVIEW1
100
AcDbCircle
 10
-62.12089295328019
 20
5.914896999999996
 30
0.0
 40
0.4475
100
AcDbArc
 50
132.0972540000016
 51
267.0964809999992
  0
ARC
  5
21EDD
330
1F
100
AcDbEntity
  8
SKVIEW1
100
AcDbCircle
 10
-62.42089295328037
 20
0.0
 30
0.0
 40
5.474999999999997
100
AcDbArc
 50
63.45617299999952
 51
87.09648099999929
  0
LINE
  5
21EDE
330
1F
100
AcDbEntity
  8
SKVIEW1
100
AcDbLine
 10
-62.04577895328021
 20
0.2298989999999961
 30
0.0
 11
-58.7304039532803
 21
-0.6584529999999944
 31
0.0
  0
LINE
  5
21EDF
330
1F
100
AcDbEntity
  8
SKVIEW1
100
AcDbLine
 10
-59.98941895328016
 20
4.84223
 30
0.0
 11
-59.97421295328013
 21
4.897896000000002
 31
0.0
  0
ARC
  5
21EE0
330
1F
100
AcDbEntity
  8
SKVIEW1
100
AcDbCircle
 10
-64.5110469532801
 20
6.057957000000016
 30
0.0
 40
4.682020999999997
100
AcDbArc
 50
335.2680729999976
 51
344.9508310000007
  0
LINE
  5
21EE1
330
1F
100
AcDbEntity
  8
SKVIEW1
100
AcDbLine
 10
-60.71206395328011
 20
3.127989999999996
 30
0.0
 11
-60.25866895328011
 21
4.099209999999999
 31
0.0
  0
SPLINE
  5
21EE2
330
1F
100
AcDbEntity
  8
SKVIEW1
100
AcDbSpline
210
0.0
220
0.0
230
1.0
 70
     8
 71
     5
 72
    27
 73
    21
 74
     0
 42
0.000000001
 43
0.0000000001
 40
0.0
 40
0.0
 40
0.0
 40
0.0
 40
0.0
 40
0.0
 40
15.88662644506499
 40
15.88662644506499
 40
15.88662644506499
 40
31.76294590163696
 40
31.76294590163696
 40
31.76294590163696
 40
42.40961309674996
 40
42.40961309674996
 40
42.40961309674996
 40
48.72016429884133
 40
48.72016429884133
 40
48.72016429884133
 40
52.36639570085449
 40
52.36639570085449
 40
52.36639570085449
 40
53.21656944479997
 40
53.21656944479997
 40
53.21656944479997
 40
53.21656944479997
 40
53.21656944479997
 40
53.21656944479997
 10
-62.04577863593749
 20
0.2298989309804824
 30
0.0
 10
-62.03707153645609
 20
0.2516276727386142
 30
0.0
 10
-62.02716717250485
 20
0.2758390042814653
 30
0.0
 10
-62.01571117220874
 20
0.3032778602789037
 30
0.0
 10
-61.9888989720431
 20
0.3663919738694119
 30
0.0
 10
-61.94976822350361
 20
0.455660724484666
 30
0.0
 10
-61.92691624082783
 20
0.5072090458763512
 30
0.0
 10
-61.87817598705317
 20
0.6158491590203923
 30
0.0
 10
-61.79506686138438
 20
0.7980314299993623
 30
0.0
 10
-61.75466803269364
 20
0.8860585306082526
 30
0.0
 10
-61.67278364894105
 20
1.064012307158954
 30
0.0
 10
-61.53075442405008
 20
1.370546419942328
 30
0.0
 10
-61.46592277426816
 20
1.510192033890866
 30
0.0
 10
-61.33870921680705
 20
1.78391743809081
 30
0.0
 10
-61.1429223774976
 20
2.204201522713148
 30
0.0
 10
-61.05514774542007
 20
2.392553679108829
 30
0.0
 10
-60.93513961141184
 20
2.649873577124644
 30
0.0
 10
-60.7953900044439
 20
2.949418570920911
 30
0.0
 10
-60.76827330815262
 20
3.007537899714989
 30
0.0
 10
-60.74050294599067
 20
3.067050068766434
 30
0.0
 10
-60.7120643743159
 20
3.127989732305763
 30
0.0
  0
LINE
  5
21EE3
330
1F
100
AcDbEntity
  8
SKVIEW1
100
AcDbLine
 10
-61.36963195328019
 20
-0.7993230000000012
 30
0.0
 11
-58.83182295328015
 21
-1.479326999999997
 31
0.0
  0
SPLINE
  5
21EE4
330
1F
100
AcDbEntity
  8
SKVIEW1
100
AcDbSpline
210
0.0
220
0.0
230
1.0
 70
     8
 71
     5
 72
    60
 73
    54
 74
     0
 42
0.000000001
 43
0.0000000001
 40
0.0
 40
0.0
 40
0.0
 40
0.0
 40
0.0
 40
0.0
 40
24.726579666182
 40
24.726579666182
 40
24.726579666182
 40
61.81593264955818
 40
61.81593264955818
 40
61.81593264955818
 40
86.54219119921277
 40
86.54219119921277
 40
86.54219119921277
 40
98.9054104582912
 40
98.9054104582912
 40
98.9054104582912
 40
111.4054844024336
 40
111.4054844024336
 40
111.4054844024336
 40
116.9008788209065
 40
116.9008788209065
 40
116.9008788209065
 40
120.2756624386518
 40
120.2756624386518
 40
120.2756624386518
 40
121.1881522431042
 40
121.1881522431042
 40
121.1881522431042
 40
122.1275706381133
 40
122.1275706381133
 40
122.1275706381133
 40
122.3818193067793
 40
122.3818193067793
 40
122.3818193067793
 40
122.466667543911
 40
122.466667543911
 40
122.466667543911
 40
122.5517791855256
 40
122.5517791855256
 40
122.5517791855256
 40
122.6368908271402
 40
122.6368908271402
 40
122.6368908271402
 40
122.7220861862781
 40
122.7220861862781
 40
122.7220861862781
 40
122.8072815454158
 40
122.8072815454158
 40
122.8072815454158
 40
123.2058653582145
 40
123.2058653582145
 40
123.2058653582145
 40
124.0801494976153
 40
124.0801494976153
 40
124.0801494976153
 40
124.0801494976153
 40
124.0801494976153
 40
124.0801494976153
 10
-62.04577863593749
 20
0.2298989309804824
 30
0.0
 10
-62.05933203967152
 20
0.1960761395538952
 30
0.0
 10
-62.06656985456209
 20
0.170361205146726
 30
0.0
 10
-62.0718685048015
 20
0.148087055386398
 30
0.0
 10
-62.08111291775606
 20
0.0961827843499421
 30
0.0
 10
-62.08213986260159
 20
0.0529007437110281
 30
0.0
 10
-62.08078645503213
 20
0.0282689567406678
 30
0.0
 10
-62.07522509518833
 20
-0.0133290299537237
 30
0.0
 10
-62.06325488710376
 20
-0.0588185343671697
 30
0.0
 10
-62.0573175414014
 20
-0.0779868335107068
 30
0.0
 10
-62.04614352104147
 20
-0.1093261670959293
 30
0.0
 10
-62.02865762143779
 20
-0.1478782971579022
 30
0.0
 10
-62.02190168956088
 20
-0.1617952004794247
 30
0.0
 10
-62.0066414195129
 20
-0.1913408928583067
 30
0.0
 10
-61.98565648074759
 20
-0.2273204166248561
 30
0.0
 10
-61.9736032352398
 20
-0.2468297971167246
 30
0.0
 10
-61.95133210849542
 20
-0.2811641631292403
 30
0.0
 10
-61.91565819923368
 20
-0.3291077443306278
 30
0.0
 10
-61.90310368609164
 20
-0.3454044426628684
 30
0.0
 10
-61.87961321578621
 20
-0.3748933999202464
 30
0.0
 10
-61.84522582013255
 20
-0.4144519684623021
 30
0.0
 10
-61.83335141428654
 20
-0.4275851547669803
 30
0.0
 10
-61.81375087562367
 20
-0.4490595309549193
 30
0.0
 10
-61.78390625511849
 20
-0.4794916843530502
 30
0.0
 10
-61.77693898833513
 20
-0.4865084460734224
 30
0.0
 10
-61.76111959392688
 20
-0.502207701407329
 30
0.0
 10
-61.74069648298484
 20
-0.5217580224202579
 30
0.0
 10
-61.73006703458145
 20
-0.5316573502276185
 30
0.0
 10
-61.7138309227198
 20
-0.5468038823584252
 30
0.0
 10
-61.68777009183805
 20
-0.5697547030988162
 30
0.0
 10
-61.68161406732997
 20
-0.5751229790703434
 30
0.0
 10
-61.67255237501888
 20
-0.5829561846749769
 30
0.0
 10
-61.66096236074941
 20
-0.5927671298089834
 30
0.0
 10
-61.65737566987911
 20
-0.5958043631287353
 30
0.0
 10
-61.64804468899683
 20
-0.6036591892339374
 30
0.0
 10
-61.63567803637988
 20
-0.6138781974346444
 30
0.0
 10
-61.62889478722354
 20
-0.6194176845174866
 30
0.0
 10
-61.61476474099083
 20
-0.6307787700501422
 30
0.0
 10
-61.59993325995992
 20
-0.6423569732560637
 30
0.0
 10
-61.59262625273675
 20
-0.6479466097911342
 30
0.0
 10
-61.57701484133702
 20
-0.6599617348246057
 30
0.0
 10
-61.56466251430959
 20
-0.6692877105653281
 30
0.0
 10
-61.56037427519549
 20
-0.6724007351689992
 30
0.0
 10
-61.55122970555556
 20
-0.6791325437910416
 30
0.0
 10
-61.54270002704947
 20
-0.6853801195391896
 30
0.0
 10
-61.53891604256284
 20
-0.6881111600962342
 30
0.0
 10
-61.51784177286913
 20
-0.703300082117373
 30
0.0
 10
-61.50160945658251
 20
-0.7145776187938609
 30
0.0
 10
-61.49170635013604
 20
-0.7214197409628085
 30
0.0
 10
-61.45451861974277
 20
-0.7465807594841607
 30
0.0
 10
-61.42490583899166
 20
-0.7654883221658367
 30
0.0
 10
-61.40513322947504
 20
-0.7779201421728175
 30
0.0
 10
-61.38696547481868
 20
-0.788995324866022
 30
0.0
 10
-61.3696318167382
 20
-0.7993226627795167
 30
0.0
  0
LINE
  5
21EE5
330
1F
100
AcDbEntity
  8
SKVIEW1
100
AcDbLine
 10
-58.51674795328017
 20
-2.497275999999999
 30
0.0
 11
-61.36963195328019
 21
-0.7993230000000012
 31
0.0
  0
ARC
  5
21EE6
330
1F
100
AcDbEntity
  8
SKVIEW1
100
AcDbCircle
 10
-64.78831995328016
 20
-13.02551499999999
 30
0.0
 40
12.254661
100
AcDbArc
 50
57.19919999999898
 51
59.21814500000183
  0
LINE
  5
21EE7
330
1F
100
AcDbEntity
  8
SKVIEW1
100
AcDbLine
 10
-67.89513095328004
 20
-0.0913570000000022
 30
0.0
 11
-67.8094709532802
 21
-0.0838620000000035
 31
0.0
  0
LINE
  5
21EE8
330
1F
100
AcDbEntity
  8
SKVIEW1
100
AcDbLine
 10
-66.11138195328033
 20
0.6584530000000015
 30
0.0
 11
-62.79600695328031
 21
-0.2298989999999961
 31
0.0
  0
LINE
  5
21EE9
330
1F
100
AcDbEntity
  8
SKVIEW1
100
AcDbLine
 10
-67.79714695328028
 20
-0.3737749999999949
 30
0.0
 11
-67.88385795328043
 21
-0.3628789999999995
 31
0.0
  0
ARC
  5
21EEA
330
1F
100
AcDbEntity
  8
SKVIEW1
100
AcDbCircle
 10
-62.42089295328037
 20
0.0
 30
0.0
 40
5.474999999999997
100
AcDbArc
 50
180.9560889999998
 51
267.0964709999994
  0
LINE
  5
21EEB
330
1F
100
AcDbEntity
  8
SKVIEW1
100
AcDbLine
 10
-64.85236695328012
 20
-4.84223
 30
0.0
 11
-64.86757295328016
 21
-4.897895999999995
 31
0.0
  0
ARC
  5
21EEC
330
1F
100
AcDbEntity
  8
SKVIEW1
100
AcDbCircle
 10
-60.33073895328027
 20
-6.057956999999994
 30
0.0
 40
4.682020999999997
100
AcDbArc
 50
155.2680729999976
 51
164.9508310000006
  0
LINE
  5
21EED
330
1F
100
AcDbEntity
  8
SKVIEW1
100
AcDbLine
 10
-64.1297219532803
 20
-3.127989999999996
 30
0.0
 11
-64.58311695328029
 21
-4.099209999999999
 31
0.0
  0
SPLINE
  5
21EEE
330
1F
100
AcDbEntity
  8
SKVIEW1
100
AcDbSpline
210
0.0
220
0.0
230
1.0
 70
     8
 71
     5
 72
    27
 73
    21
 74
     0
 42
0.000000001
 43
0.0000000001
 40
0.0
 40
0.0
 40
0.0
 40
0.0
 40
0.0
 40
0.0
 40
15.88662644530217
 40
15.88662644530217
 40
15.88662644530217
 40
31.76294590216445
 40
31.76294590216445
 40
31.76294590216445
 40
42.40961309635949
 40
42.40961309635949
 40
42.40961309635949
 40
48.72016430006831
 40
48.72016430006831
 40
48.72016430006831
 40
52.36639570363088
 40
52.36639570363088
 40
52.36639570363088
 40
53.21656944784893
 40
53.21656944784893
 40
53.21656944784893
 40
53.21656944784893
 40
53.21656944784893
 40
53.21656944784893
 10
-62.79600727062291
 20
-0.2298989309804753
 30
0.0
 10
-62.80471437010453
 20
-0.2516276727391045
 30
0.0
 10
-62.81461873405589
 20
-0.2758390042819698
 30
0.0
 10
-62.82607473435291
 20
-0.3032778602794579
 30
0.0
 10
-62.85288693451684
 20
-0.366391973871913
 30
0.0
 10
-62.8920176830577
 20
-0.4556607244873306
 30
0.0
 10
-62.91486966572222
 20
-0.5072090458557313
 30
0.0
 10
-62.96360991948756
 20
-0.6158491589784703
 30
0.0
 10
-63.04671904514646
 20
-0.7980314299375309
 30
0.0
 10
-63.08711787383959
 20
-0.8860585305486026
 30
0.0
 10
-63.16900225761583
 20
-1.064012307153383
 30
0.0
 10
-63.3110314825085
 20
-1.370546419937582
 30
0.0
 10
-63.37586313221686
 20
-1.510192033730625
 30
0.0
 10
-63.5030766896931
 20
-1.783917437958265
 30
0.0
 10
-63.6988635290271
 20
-2.204201522650627
 30
0.0
 10
-63.78663816102903
 20
-2.392553678866377
 30
0.0
 10
-63.90664629505716
 20
-2.649873576933771
 30
0.0
 10
-64.04639590206648
 20
-2.949418570824803
 30
0.0
 10
-64.07351259836525
 20
-3.007537899635629
 30
0.0
 10
-64.10128296053949
 20
-3.067050068711246
 30
0.0
 10
-64.12972153223598
 20
-3.127989732289954
 30
0.0
  0
SPLINE
  5
21EEF
330
1F
100
AcDbEntity
  8
SKVIEW1
100
AcDbSpline
210
0.0
220
0.0
230
1.0
 70
     8
 71
     5
 72
    60
 73
    54
 74
     0
 42
0.000000001
 43
0.0000000001
 40
0.0
 40
0.0
 40
0.0
 40
0.0
 40
0.0
 40
0.0
 40
24.72657966788358
 40
24.72657966788358
 40
24.72657966788358
 40
61.815932653812
 40
61.815932653812
 40
61.815932653812
 40
86.5421912051682
 40
86.5421912051682
 40
86.5421912051682
 40
98.9054104650976
 40
98.9054104650976
 40
98.9054104650976
 40
111.4054844090764
 40
111.4054844090764
 40
111.4054844090764
 40
116.9008788279325
 40
116.9008788279325
 40
116.9008788279325
 40
120.2756624898033
 40
120.2756624898033
 40
120.2756624898033
 40
121.1881523226394
 40
121.1881523226394
 40
121.1881523226394
 40
122.1275707450402
 40
122.1275707450402
 40
122.1275707450402
 40
122.3818194053537
 40
122.3818194053537
 40
122.3818194053537
 40
122.4666676398036
 40
122.4666676398036
 40
122.4666676398036
 40
122.551779278679
 40
122.551779278679
 40
122.551779278679
 40
122.6368909175545
 40
122.6368909175545
 40
122.6368909175545
 40
122.7220862739285
 40
122.7220862739285
 40
122.7220862739285
 40
122.8072816303026
 40
122.8072816303026
 40
122.8072816303026
 40
123.2058654591523
 40
123.2058654591523
 40
123.2058654591523
 40
124.0801495589323
 40
124.0801495589323
 40
124.0801495589323
 40
124.0801495589323
 40
124.0801495589323
 40
124.0801495589323
 10
-62.79600727062291
 20
-0.2298989309804753
 30
0.0
 10
-62.78245386688809
 20
-0.1960761395515647
 30
0.0
 10
-62.77521605199854
 20
-0.170361205144772
 30
0.0
 10
-62.76991740175538
 20
-0.1480870553691744
 30
0.0
 10
-62.7606729888015
 20
-0.0961827843301393
 30
0.0
 10
-62.75964604396051
 20
-0.0529007436931366
 30
0.0
 10
-62.76099945153157
 20
-0.0282689567187333
 30
0.0
 10
-62.76656081137537
 20
0.0133290299768731
 30
0.0
 10
-62.77853101946653
 20
0.0588185343986609
 30
0.0
 10
-62.78446836517048
 20
0.0779868335500211
 30
0.0
 10
-62.79564238553928
 20
0.1093261671446655
 30
0.0
 10
-62.81312828515274
 20
0.1478782972200747
 30
0.0
 10
-62.81988421703147
 20
0.1617952005392738
 30
0.0
 10
-62.83514448713503
 20
0.1913408929960951
 30
0.0
 10
-62.85612942599255
 20
0.2273204169068634
 30
0.0
 10
-62.86818267155002
 20
0.2468297974778792
 30
0.0
 10
-62.89045379835648
 20
0.2811641635575057
 30
0.0
 10
-62.92612770776179
 20
0.3291077449041495
 30
0.0
 10
-62.93868222096444
 20
0.3454044432957417
 30
0.0
 10
-62.96217269150225
 20
0.3748934008121267
 30
0.0
 10
-62.99656008763384
 20
0.4144519698319016
 30
0.0
 10
-63.00843449293177
 20
0.4275851554743042
 30
0.0
 10
-63.02803503095891
 20
0.4490595310125514
 30
0.0
 10
-63.05787965137131
 20
0.4794916842966757
 30
0.0
 10
-63.06484691829303
 20
0.4865084461503955
 30
0.0
 10
-63.08066631315796
 20
0.5022077019279579
 30
0.0
 10
-63.10108942496071
 20
0.5217580237388475
 30
0.0
 10
-63.11171887402747
 20
0.5316573521329247
 30
0.0
 10
-63.12795498628805
 20
0.5468038846276074
 30
0.0
 10
-63.15401581914875
 20
0.5697547069728657
 30
0.0
 10
-63.16017184384782
 20
0.5751229830798721
 30
0.0
 10
-63.16923353649747
 20
0.5829561889277813
 30
0.0
 10
-63.18082355149295
 20
0.5927671346045927
 30
0.0
 10
-63.18441024433878
 20
0.5958043695967917
 30
0.0
 10
-63.19374122762827
 20
0.6036591976397077
 30
0.0
 10
-63.20610788166323
 20
0.6138782068433031
 30
0.0
 10
-63.21289113117052
 20
0.6194176941091456
 30
0.0
 10
-63.22702117773928
 20
0.6307787796834532
 30
0.0
 10
-63.24185265844073
 20
0.6423569824137303
 30
0.0
 10
-63.24915966598746
 20
0.6479466191615586
 30
0.0
 10
-63.26477107624009
 20
0.6599617432636081
 30
0.0
 10
-63.27712339961658
 20
0.6692877160324926
 30
0.0
 10
-63.28141163725672
 20
0.6724007394634626
 30
0.0
 10
-63.29055620732674
 20
0.6791325484835298
 30
0.0
 10
-63.2990858841772
 20
0.6853801228987351
 30
0.0
 10
-63.30286986863416
 20
0.6881111634491859
 30
0.0
 10
-63.32394413795817
 20
0.703300085121839
 30
0.0
 10
-63.34017645438189
 20
0.7145776218558951
 30
0.0
 10
-63.35007956158154
 20
0.7214197444952788
 30
0.0
 10
-63.3872672901706
 20
0.7465807616366434
 30
0.0
 10
-63.4168800702505
 20
0.7654883238519333
 30
0.0
 10
-63.43665267873006
 20
0.7779201431748533
 30
0.0
 10
-63.45482043252594
 20
0.788995325333012
 30
0.0
 10
-63.47215408982208
 20
0.7993226627795238
 30
0.0
  0
LINE
  5
21EF0
330
1F
100
AcDbEntity
  8
SKVIEW1
100
AcDbLine
 10
-63.47215395328021
 20
0.7993230000000012
 30
0.0
 11
-66.00996295328011
 21
1.479326999999997
 31
0.0
  0
LINE
  5
21EF1
330
1F
100
AcDbEntity
  8
SKVIEW1
100
AcDbLine
 10
-66.32503795328012
 20
2.497275999999999
 30
0.0
 11
-63.47215395328021
 21
0.7993230000000012
 31
0.0
  0
ARC
  5
21EF2
330
1F
100
AcDbEntity
  8
SKVIEW1
100
AcDbCircle
 10
-60.05346595328012
 20
13.025515
 30
0.0
 40
12.254661
100
AcDbArc
 50
237.199199999999
 51
239.2181450000018
  0
ARC
  5
21EF3
330
1F
100
AcDbEntity
  8
SKVIEW1
100
AcDbCircle
 10
-62.42089295328037
 20
0.0
 30
0.0
 40
5.418417999999999
100
AcDbArc
 50
63.33697900000231
 51
144.8249059999972
  0
ARC
  5
21EF4
330
1F
100
AcDbEntity
  8
SKVIEW1
100
AcDbCircle
 10
-62.42089295328037
 20
0.0
 30
0.0
 40
4.634515
100
AcDbArc
 50
62.18954199999686
 51
147.3950930000014
  0
ARC
  5
21EF5
330
1F
100
AcDbEntity
  8
SKVIEW1
100
AcDbCircle
 10
-62.42089295328037
 20
0.0
 30
0.0
 40
8.57
100
AcDbArc
 50
90.0
 51
131.5506239999967
  0
ARC
  5
21EF6
330
1F
100
AcDbEntity
  8
SKVIEW1
100
AcDbCircle
 10
-62.42089295328037
 20
0.0
 30
0.0
 40
8.949999999999997
100
AcDbArc
 50
90.0
 51
129.5648169999979
  0
ARC
  5
21EF7
330
1F
100
AcDbEntity
  8
SKVIEW1
100
AcDbCircle
 10
-62.42089295328037
 20
0.0
 30
0.0
 40
4.634515
100
AcDbArc
 50
242.1895419999969
 51
327.3950930000014
  0
ARC
  5
21EF8
330
1F
100
AcDbEntity
  8
SKVIEW1
100
AcDbCircle
 10
-62.42089295328037
 20
0.0
 30
0.0
 40
5.418417999999999
100
AcDbArc
 50
243.3369790000023
 51
324.8249059999973
  0
ARC
  5
21EF9
330
1F
100
AcDbEntity
  8
SKVIEW1
100
AcDbCircle
 10
-62.72089295328021
 20
-5.914896999999996
 30
0.0
 40
0.4475
100
AcDbArc
 50
312.0972540000016
 51
87.09648099999929
  0
LINE
  5
21EFA
330
1F
100
AcDbEntity
  8
SKVIEW1
100
AcDbLine
 10
-62.42089295328037
 20
-8.569999999999993
 30
0.0
 11
-62.42089295328037
 21
-6.246946000000001
 31
0.0
  0
ARC
  5
21EFB
330
1F
100
AcDbEntity
  8
SKVIEW1
100
AcDbCircle
 10
-62.42089295328037
 20
0.0
 30
0.0
 40
8.57
100
AcDbArc
 50
270.0
 51
311.5506239999967
  0
ARC
  5
21EFC
330
1F
100
AcDbEntity
  8
SKVIEW1
100
AcDbCircle
 10
-62.42089295328037
 20
0.0
 30
0.0
 40
8.949999999999997
100
AcDbArc
 50
270.0
 51
309.564816999998
  0
LINE
  5
21EFD
330
1F
100
AcDbEntity
  8
SKVIEW1
100
AcDbLine
 10
-62.42089295328037
 20
-8.569999999999993
 30
0.0
 11
-62.42089295328037
 21
-8.950000000000002
 31
0.0
  0
LINE
  5
21EFE
330
1F
100
AcDbEntity
  8
SKVIEW1
100
AcDbLine
 10
-60.04089295328004
 20
13.665513
 30
0.0
 11
-60.04089295328004
 21
13.59999999999999
 31
0.0
  0
LINE
  5
21EFF
330
1F
100
AcDbEntity
  8
SKVIEW1
100
AcDbLine
 10
-60.04089295328004
 20
13.59999999999999
 30
0.0
 11
-60.04089295328004
 21
8.329999999999998
 31
0.0
  0
LINE
  5
21F00
330
1F
100
AcDbEntity
  8
SKVIEW1
100
AcDbLine
 10
-60.04089295328004
 20
8.329999999999998
 30
0.0
 11
-60.04089295328004
 21
8.264487000000002
 31
0.0
  0
LINE
  5
21F01
330
1F
100
AcDbEntity
  8
SKVIEW1
100
AcDbLine
 10
-60.04089295328004
 20
13.665513
 30
0.0
 11
-62.42089295328037
 21
14.0
 31
0.0
  0
LINE
  5
21F02
330
1F
100
AcDbEntity
  8
SKVIEW1
100
AcDbLine
 10
-62.42089295328037
 20
14.0
 30
0.0
 11
-62.42089295328037
 21
13.59999999999999
 31
0.0
  0
LINE
  5
21F03
330
1F
100
AcDbEntity
  8
SKVIEW1
100
AcDbLine
 10
-60.04089295328004
 20
13.59999999999999
 30
0.0
 11
-62.42089295328037
 21
13.59999999999999
 31
0.0
  0
LINE
  5
21F04
330
1F
100
AcDbEntity
  8
SKVIEW1
100
AcDbLine
 10
-62.42089295328037
 20
13.59999999999999
 30
0.0
 11
-62.42089295328037
 21
8.329999999999998
 31
0.0
  0
LINE
  5
21F05
330
1F
100
AcDbEntity
  8
SKVIEW1
100
AcDbLine
 10
-60.04089295328004
 20
8.329999999999998
 30
0.0
 11
-62.42089295328037
 21
8.329999999999998
 31
0.0
  0
LINE
  5
21F06
330
1F
100
AcDbEntity
  8
SKVIEW1
100
AcDbLine
 10
-62.42089295328037
 20
8.329999999999998
 30
0.0
 11
-62.42089295328037
 21
7.930000000000006
 31
0.0
  0
LINE
  5
21F07
330
1F
100
AcDbEntity
  8
SKVIEW1
100
AcDbLine
 10
-60.04089295328004
 20
8.264487000000002
 30
0.0
 11
-62.42089295328037
 21
7.930000000000006
 31
0.0
  0
LINE
  5
21F08
330
1F
100
AcDbEntity
  8
SKVIEW1
100
AcDbLine
 10
-62.42089295328037
 20
14.0
 30
0.0
 11
-62.42089295328037
 21
13.59999999999999
 31
0.0
  0
LINE
  5
21F09
330
1F
100
AcDbEntity
  8
SKVIEW1
100
AcDbLine
 10
-62.42089295328037
 20
8.329999999999998
 30
0.0
 11
-62.42089295328037
 21
7.930000000000006
 31
0.0
  0
LINE
  5
21F0A
330
1F
100
AcDbEntity
  8
SKVIEW1
100
AcDbLine
 10
-62.42089295328037
 20
8.329999999999998
 30
0.0
 11
-62.42089295328037
 21
13.59999999999999
 31
0.0
  0
LINE
  5
21F0B
330
1F
100
AcDbEntity
  8
SKVIEW1
100
AcDbLine
 10
-64.80089295328014
 20
-13.665513
 30
0.0
 11
-64.80089295328014
 21
-13.6
 31
0.0
  0
LINE
  5
21F0C
330
1F
100
AcDbEntity
  8
SKVIEW1
100
AcDbLine
 10
-64.80089295328014
 20
-13.6
 30
0.0
 11
-64.80089295328014
 21
-8.329999999999998
 31
0.0
  0
LINE
  5
21F0D
330
1F
100
AcDbEntity
  8
SKVIEW1
100
AcDbLine
 10
-64.80089295328014
 20
-8.329999999999998
 30
0.0
 11
-64.80089295328014
 21
-8.264487000000002
 31
0.0
  0
LINE
  5
21F0E
330
1F
100
AcDbEntity
  8
SKVIEW1
100
AcDbLine
 10
-64.80089295328014
 20
-13.665513
 30
0.0
 11
-62.42089295328037
 21
-13.99999999999999
 31
0.0
  0
LINE
  5
21F0F
330
1F
100
AcDbEntity
  8
SKVIEW1
100
AcDbLine
 10
-62.42089295328037
 20
-13.99999999999999
 30
0.0
 11
-62.42089295328037
 21
-13.6
 31
0.0
  0
LINE
  5
21F10
330
1F
100
AcDbEntity
  8
SKVIEW1
100
AcDbLine
 10
-64.80089295328014
 20
-13.6
 30
0.0
 11
-62.42089295328037
 21
-13.6
 31
0.0
  0
LINE
  5
21F11
330
1F
100
AcDbEntity
  8
SKVIEW1
100
AcDbLine
 10
-62.42089295328037
 20
-13.6
 30
0.0
 11
-62.42089295328037
 21
-8.950001
 31
0.0
  0
LINE
  5
21F12
330
1F
100
AcDbEntity
  8
SKVIEW1
100
AcDbLine
 10
-64.80089295328014
 20
-8.329999999999998
 30
0.0
 11
-62.42089295328037
 21
-8.329999999999998
 31
0.0
  0
LINE
  5
21F13
330
1F
100
AcDbEntity
  8
SKVIEW1
100
AcDbLine
 10
-64.80089295328014
 20
-8.264487000000002
 30
0.0
 11
-62.42089295328037
 21
-7.929999999999992
 31
0.0
  0
LINE
  5
21F14
330
1F
100
AcDbEntity
  8
SKVIEW1
100
AcDbLine
 10
-62.42089295328037
 20
-13.99999999999999
 30
0.0
 11
-62.42089295328037
 21
-13.6
 31
0.0
  0
LINE
  5
21F15
330
1F
100
AcDbEntity
  8
SKVIEW1
100
AcDbLine
 10
-62.42089295328037
 20
-13.99999999999999
 30
0.0
 11
-62.42089295328037
 21
-13.6
 31
0.0
  0
LINE
  5
21F16
330
1F
100
AcDbEntity
  8
SKVIEW1
100
AcDbLine
 10
-62.42089295328037
 20
-13.6
 30
0.0
 11
-62.42089295328037
 21
-8.950005000000004
 31
0.0
  0
LINE
  5
21F17
330
1F
100
AcDbEntity
  8
SKVIEW1
100
AcDbLine
 10
-62.42089295328037
 20
-8.950000000000002
 30
0.0
 11
-62.42089295328037
 21
-13.6
 31
0.0
  0
LINE
  5
21F18
330
1F
100
AcDbEntity
  8
1
100
AcDbLine
 10
23.36000000000002
 20
8.949999999999988
 30
0.0
 11
22.57000000000016
 21
8.949999999999988
 31
0.0
  0
LINE
  5
21F19
330
1F
100
AcDbEntity
  8
1
100
AcDbLine
 10
24.01817900000003
 20
8.569999999999993
 30
0.0
 11
23.36000000000002
 21
8.949999999999988
 31
0.0
  0
LINE
  5
21F1A
330
1F
100
AcDbEntity
  8
1
100
AcDbLine
 10
24.42779600000029
 20
6.246945999999923
 30
0.0
 11
24.01817900000003
 21
8.569999999999993
 31
0.0
  0
LINE
  5
21F1B
330
1F
100
AcDbEntity
  8
1
100
AcDbLine
 10
24.54518400000007
 20
5.581208999999887
 30
0.0
 11
24.42779600000029
 21
6.246945999999923
 31
0.0
  0
ARC
  5
21F1C
330
1F
100
AcDbEntity
  8
1
100
AcDbCircle
 10
27.92321900000036
 20
6.008995999999967
 30
0.0
 40
3.401
100
AcDbArc
 50
189.9999989999997
 51
203.8372549999972
  0
LINE
  5
21F1D
330
1F
100
AcDbEntity
  8
1
100
AcDbLine
 10
24.57388800000035
 20
5.418417999999917
 30
0.0
 11
24.54518400000007
 21
5.581208999999887
 31
0.0
  0
DIMENSION
  5
21F1E
330
1F
100
AcDbEntity
  8
SK2
100
AcDbDimension
280
     0
  2
*D12
 10
-29.30321443912681
 20
-5.599999999999996
 30
0.0
 11
-29.30321443912681
 21
-20.7044905130007
 31
0.0
 70
   160
  1
%%C<>
 71
     5
 42
11.19999999999999
 73
     0
 74
     0
 75
     0
  3
STANDARD
100
AcDbAlignedDimension
 13
-11.40000000000009
 23
5.599999999999994
 33
0.0
 14
-11.40000000000009
 24
-5.600000000000001
 34
0.0
 50
90.0
100
AcDbRotatedDimension
1001
ACAD_DSTYLE_DIMARC_LENGTH_SYMBOL
1070
   379
1070
     1
1001
ACAD_DSTYLE_DIM_LINETYPE
1070
   380
1005
14
1001
ACAD_DSTYLE_DIM_EXT1_LINETYPE
1070
   381
1005
14
1001
ACAD_DSTYLE_DIM_EXT2_LINETYPE
1070
   382
1005
14
1001
ACAD
1000
DSTYLE
1002
{
1070
   172
1070
     1
1002
}
  0
LWPOLYLINE
  5
220AA
330
1F
100
AcDbEntity
  8
CUT
 48
0.240324
370
    35
100
AcDbPolyline
 90
       20
 70
     0
 43
0.0
 10
24.57388800000001
 20
5.418418000000002
 10
24.54518400000007
 20
5.581209000000001
 10
24.42779600000029
 20
6.246946000000008
 10
24.01817900000003
 20
8.570000000000007
 10
23.36000000000002
 20
8.949999999999988
 10
22.57000000000028
 20
8.950000000000002
 10
22.56999999999985
 20
13.59999999999999
 42
0.4142135623730951
 10
22.16999999999984
 20
14.0
 10
16.9000000000002
 20
14.0
 42
0.4142135623730951
 10
16.5
 20
13.59999999999999
 10
16.5000000000002
 20
8.329999999999998
 42
0.4142135623730951
 10
16.9000000000002
 20
7.930000000000006
 10
16.96000000000026
 20
7.930000000000006
 10
16.96000000000026
 20
7.808503999999999
 10
16.96000000000026
 20
6.754654999999999
 10
16.96000000000026
 20
2.900924000000031
 10
16.96000000000026
 20
0.0
 10
26.86000000000002
 20
0.0
 10
24.81233423005438
 20
4.634515389689227
 42
-0.0604498899199681
 10
24.57388782169798
 20
5.418418606211687
  0
LINE
  5
220C3
330
1F
100
AcDbEntity
  8
SK4
100
AcDbLine
 10
0.0
 20
0.0
 30
0.0
 11
-14.69716499999981
 21
0.0
 31
0.0
  0
VIEWPORT
  5
9C00
330
1B
100
AcDbEntity
 67
     1
  8
0
348
3195
100
AcDbViewport
 10
108.2280559557949
 20
71.69854161746989
 30
0.0
 40
251.8950231529317
 41
201.8884082081047
 68
     1
 69
     1
 12
108.2280559557949
 22
71.69854161746989
 13
0.0
 23
0.0
 14
10.0
 24
10.0
 15
10.0
 25
10.0
 16
0.0
 26
0.0
 36
1.0
 17
0.0
 27
0.0
 37
0.0
 42
50.0
 43
0.0
 44
0.0
 45
201.8884082081047
 50
0.0
 51
0.0
 72
   100
 90
   557088
  1

281
     0
 71
     1
 74
     0
110
0.0
120
0.0
130
0.0
111
1.0
121
0.0
131
0.0
112
0.0
122
1.0
132
0.0
 79
     0
146
0.0
170
     0
 61
     5
292
     1
282
     1
141
0.0
142
0.0
 63
   250
421
  3355443
  0
VIEWPORT
  5
9C02
330
1B
100
AcDbEntity
 67
     1
  8
1
348
3195
100
AcDbViewport
 10
143.457083940506
 20
98.18158769607544
 30
0.0
 40
229.5313343048095
 41
157.0905403137207
 68
     2
 69
     2
 12
-44.37697124786255
 22
-35.12342998133886
 13
0.0
 23
0.0
 14
10.0
 24
10.0
 15
10.0
 25
10.0
 16
0.0
 26
0.0
 36
1.0
 17
0.0
 27
0.0
 37
0.0
 42
50.0
 43
0.0
 44
0.0
 45
300.3886240724386
 50
0.0
 51
0.0
 72
   100
 90
   557088
  1

281
     0
 71
     1
 74
     0
110
0.0
120
0.0
130
0.0
111
1.0
121
0.0
131
0.0
112
0.0
122
1.0
132
0.0
 79
     0
146
0.0
170
     0
 61
     5
348
3195
292
     1
282
     1
141
0.0
142
0.0
 63
   250
421
  3355443
  0
ENDSEC
  0
SECTION
  2
OBJECTS
  0
DICTIONARY
  5
3182
330
0
100
AcDbDictionary
281
     1
  3
ACAD_CIP_PREVIOUS_PRODUCT_INFO
350
1B2F4
  3
ACAD_COLOR
350
31A0
  3
ACAD_DETAILVIEWSTYLE
350
1B2F0
  3
ACAD_FIELDLIST
350
20CBF
  3
ACAD_GROUP
350
3183
  3
ACAD_LAYOUT
350
31A5
  3
ACAD_MATERIAL
350
318B
  3
ACAD_MLEADERSTYLE
350
1B221
  3
ACAD_MLINESTYLE
350
3184
  3
ACAD_PLOTSETTINGS
350
31A4
  3
ACAD_PLOTSTYLENAME
350
3189
  3
ACAD_SCALELIST
350
1B1FC
  3
ACAD_SECTIONVIEWSTYLE
350
1B2EE
  3
ACAD_TABLESTYLE
350
31A1
  3
ACAD_VISUALSTYLE
350
318F
  3
ACDB_RECOMPOSE_DATA
350
22127
  3
AcDbVariableDictionary
350
33A3
  0
DICTIONARY
  5
422A
330
2
100
AcDbDictionary
280
     1
281
     1
  3
ACAD_LAYERFILTERS
360
1B063
  3
ACAD_LAYERSTATES
360
9A1C
  3
ACLYDICTIONARY
360
1B062
  0
DICTIONARY
  5
1B2F5
330
10
100
AcDbDictionary
280
     1
281
     1
  3
ADSK_XREC_LAYER_RECONCILED
360
21B8E
  0
DICTIONARY
  5
1B2F7
330
3F8C
100
AcDbDictionary
280
     1
281
     1
  3
ADSK_XREC_LAYER_RECONCILED
360
21B8F
  0
DICTIONARY
  5
1B2F9
330
9C4A
100
AcDbDictionary
280
     1
281
     1
  3
ADSK_XREC_LAYER_RECONCILED
360
21B90
  0
DICTIONARY
  5
1B2FB
330
9C4B
100
AcDbDictionary
280
     1
281
     1
  3
ADSK_XREC_LAYER_RECONCILED
360
21B91
  0
DICTIONARY
  5
1B2FD
330
9C4D
100
AcDbDictionary
280
     1
281
     1
  3
ADSK_XREC_LAYER_RECONCILED
360
21B92
  0
DICTIONARY
  5
1B2FF
330
9C4E
100
AcDbDictionary
280
     1
281
     1
  3
ADSK_XREC_LAYER_RECONCILED
360
21B93
  0
DICTIONARY
  5
1B301
330
9C4F
100
AcDbDictionary
280
     1
281
     1
  3
ADSK_XREC_LAYER_RECONCILED
360
21B94
  0
DICTIONARY
  5
1B303
330
9C50
100
AcDbDictionary
280
     1
281
     1
  3
ADSK_XREC_LAYER_RECONCILED
360
21B95
  0
DICTIONARY
  5
1B305
330
9C51
100
AcDbDictionary
280
     1
281
     1
  3
ADSK_XREC_LAYER_RECONCILED
360
21B96
  0
DICTIONARY
  5
1B307
330
13335
100
AcDbDictionary
280
     1
281
     1
  3
ADSK_XREC_LAYER_RECONCILED
360
21B97
  0
DICTIONARY
  5
1B309
330
1686E
100
AcDbDictionary
280
     1
281
     1
  3
ADSK_XREC_LAYER_RECONCILED
360
21B98
  0
DICTIONARY
  5
339C
330
1F
100
AcDbDictionary
280
     1
281
     1
  3
ACAD_SORTENTS
360
339D
  0
DICTIONARY
  5
1DE81
330
1B3D7
100
AcDbDictionary
280
     1
281
     1
  0
XRECORD
  5
1B2F4
102
{ACAD_REACTORS
330
3182
102
}
330
3182
100
AcDbXrecord
280
     1
300
ACDLT
300
2015
300
ACDLT_F_S
  0
DICTIONARY
  5
31A0
102
{ACAD_REACTORS
330
3182
102
}
330
3182
100
AcDbDictionary
281
     1
  0
DICTIONARY
  5
1B2F0
102
{ACAD_REACTORS
330
3182
102
}
330
3182
100
AcDbDictionary
281
     1
  3
Imperial24
350
20CB3
  3
Metric50
350
1B2F1
  0
FIELDLIST
  5
20CBF
102
{ACAD_REACTORS
330
3182
102
}
330
3182
100
AcDbIdSet
 90
        0
100
AcDbFieldList
  0
DICTIONARY
  5
3183
102
{ACAD_REACTORS
330
3182
102
}
330
3182
100
AcDbDictionary
281
     1
  0
DICTIONARY
  5
31A5
102
{ACAD_REACTORS
330
3182
102
}
330
3182
100
AcDbDictionary
281
     1
  3
Layout1
350
31A7
  3
Model
350
31A6
  0
DICTIONARY
  5
318B
102
{ACAD_REACTORS
330
3182
102
}
330
3182
100
AcDbDictionary
281
     1
  3
ByBlock
350
318D
  3
ByLayer
350
318C
  3
Global
350
318E
  0
DICTIONARY
  5
1B221
102
{ACAD_REACTORS
330
3182
102
}
330
3182
100
AcDbDictionary
281
     1
  3
Standard
350
1B2ED
  0
DICTIONARY
  5
3184
102
{ACAD_REACTORS
330
3182
102
}
330
3182
100
AcDbDictionary
281
     1
  3
STANDARD
350
3185
  0
DICTIONARY
  5
31A4
102
{ACAD_REACTORS
330
3182
102
}
330
3182
100
AcDbDictionary
281
     1
  0
ACDBDICTIONARYWDFLT
  5
3189
102
{ACAD_REACTORS
330
3182
102
}
330
3182
100
AcDbDictionary
281
     1
  3
Normal
350
318A
100
AcDbDictionaryWithDefault
340
318A
  0
DICTIONARY
  5
1B1FC
102
{ACAD_REACTORS
330
3182
102
}
330
3182
100
AcDbDictionary
281
     1
  3
A0
350
1B1FD
  3
A1
350
1B1FE
  3
A2
350
1B1FF
  3
A3
350
1B200
  3
A4
350
1B201
  3
A5
350
1B202
  3
A6
350
1B203
  3
A7
350
1B204
  3
A8
350
1B205
  3
A9
350
1B206
  3
B0
350
1B207
  3
B1
350
1B208
  3
B2
350
1B209
  3
B3
350
1B20A
  3
B4
350
1B20B
  3
B5
350
1B20C
  3
B6
350
1B20D
  3
B7
350
1B20E
  3
B8
350
1B20F
  3
B9
350
1B210
  3
C0
350
1B211
  3
C1
350
1B212
  3
C2
350
1B213
  3
C3
350
1B214
  3
C4
350
1B215
  3
C5
350
1B216
  3
C6
350
1B217
  3
C7
350
1B218
  3
C8
350
1B219
  3
C9
350
1B21A
  3
D0
350
1B21B
  3
D1
350
1B21C
  3
D2
350
1B21D
  0
DICTIONARY
  5
1B2EE
102
{ACAD_REACTORS
330
3182
102
}
330
3182
100
AcDbDictionary
281
     1
  3
Imperial24
350
20CB1
  3
Metric50
350
1B2EF
  0
DICTIONARY
  5
31A1
102
{ACAD_REACTORS
330
3182
102
}
330
3182
100
AcDbDictionary
281
     1
  3
Standard
350
31A2
  0
DICTIONARY
  5
318F
102
{ACAD_REACTORS
330
3182
102
}
330
3182
100
AcDbDictionary
281
     1
  3
2dWireframe
350
3195
  3
3D Hidden
350
3197
  3
3dWireframe
350
3196
  3
Basic
350
3194
  3
Brighten
350
319B
  3
ColorChange
350
319F
  3
Conceptual
350
3198
  3
Dim
350
319A
  3
EdgeColorOff
350
1B2EC
  3
Facepattern
350
319E
  3
Flat
350
3190
  3
FlatWithEdges
350
3191
  3
Gouraud
350
3192
  3
GouraudWithEdges
350
3193
  3
Hidden
350
1B2E4
  3
JitterOff
350
1B2EA
  3
Linepattern
350
319D
  3
OverhangOff
350
1B2EB
  3
Realistic
350
3199
  3
Shaded
350
1B2E9
  3
Shaded with edges
350
1B2E8
  3
Shades of Gray
350
1B2E5
  3
Sketchy
350
1B2E6
  3
Thicken
350
319C
  3
Wireframe
350
1B2E3
  3
X-Ray
350
1B2E7
  0
XRECORD
  5
22127
102
{ACAD_REACTORS
330
3182
102
}
330
3182
100
AcDbXrecord
280
     1
 90
        1
330
31A2
  0
DICTIONARY
  5
33A3
102
{ACAD_REACTORS
330
3182
102
}
330
3182
100
AcDbDictionary
281
     1
  3
CANNOSCALE
350
1B222
  3
CMLEADERSTYLE
350
1B30F
  3
CTABLESTYLE
350
33A4
  3
CVIEWDETAILSTYLE
350
1B310
  3
CVIEWSECTIONSTYLE
350
1B311
  3
DIMASSOC
350
9BE8
  3
INDEXCTL
350
9BE7
  3
LAYEREVAL
350
20993
  3
LAYERNOTIFY
350
20994
  3
LIGHTINGUNITS
350
20992
  3
MSLTSCALE
350
20991
  3
SORTENTS
350
9BE6
  0
DICTIONARY
  5
1B063
102
{ACAD_REACTORS
330
422A
102
}
330
422A
100
AcDbDictionary
281
     1
  0
DICTIONARY
  5
9A1C
102
{ACAD_REACTORS
330
422A
102
}
330
422A
100
AcDbDictionary
281
     1
  0
DICTIONARY
  5
1B062
102
{ACAD_REACTORS
330
422A
102
}
330
422A
100
AcDbDictionary
281
     1
1001
ACAD
1000
<All
  0
XRECORD
  5
21B8E
102
{ACAD_REACTORS
330
1B2F5
102
}
330
1B2F5
100
AcDbXrecord
280
     1
290
     1
  0
XRECORD
  5
21B8F
102
{ACAD_REACTORS
330
1B2F7
102
}
330
1B2F7
100
AcDbXrecord
280
     1
290
     1
  0
XRECORD
  5
21B90
102
{ACAD_REACTORS
330
1B2F9
102
}
330
1B2F9
100
AcDbXrecord
280
     1
290
     1
  0
XRECORD
  5
21B91
102
{ACAD_REACTORS
330
1B2FB
102
}
330
1B2FB
100
AcDbXrecord
280
     1
290
     1
  0
XRECORD
  5
21B92
102
{ACAD_REACTORS
330
1B2FD
102
}
330
1B2FD
100
AcDbXrecord
280
     1
290
     1
  0
XRECORD
  5
21B93
102
{ACAD_REACTORS
330
1B2FF
102
}
330
1B2FF
100
AcDbXrecord
280
     1
290
     1
  0
XRECORD
  5
21B94
102
{ACAD_REACTORS
330
1B301
102
}
330
1B301
100
AcDbXrecord
280
     1
290
     1
  0
XRECORD
  5
21B95
102
{ACAD_REACTORS
330
1B303
102
}
330
1B303
100
AcDbXrecord
280
     1
290
     1
  0
XRECORD
  5
21B96
102
{ACAD_REACTORS
330
1B305
102
}
330
1B305
100
AcDbXrecord
280
     1
290
     1
  0
XRECORD
  5
21B97
102
{ACAD_REACTORS
330
1B307
102
}
330
1B307
100
AcDbXrecord
280
     1
290
     1
  0
XRECORD
  5
21B98
102
{ACAD_REACTORS
330
1B309
102
}
330
1B309
100
AcDbXrecord
280
     1
290
     1
  0
SORTENTSTABLE
  5
339D
102
{ACAD_REACTORS
330
339C
102
}
330
339C
100
AcDbSortentsTable
330
1F
331
21E61
  5
21E75
331
21E28
  5
21E2D
331
21E19
  5
21E1E
331
21E0A
  5
21E0F
331
21ED7
  5
21EEB
331
21F11
  5
220B0
331
21EC8
  5
21EDC
331
21F02
  5
21F16
331
21EB9
  5
21ECD
331
21EAA
  5
21EBE
331
21EF3
  5
21F07
331
220AA
  5
21E88
331
21E9B
  5
21EAF
331
21EE4
  5
21EF8
331
21E53
  5
21E5D
331
220C3
  5
21E05
331
21E8C
  5
21EA0
331
21E7D
  5
21E91
331
21E44
  5
21E51
331
21E35
  5
21E3C
331
21E26
  5
21E2B
331
21E17
  5
21E1C
331
21DFB
  5
21DFB
331
21F1B
  5
220BA
331
21ED2
  5
21EE6
331
21F0C
  5
220AB
331
21EC3
  5
21ED7
331
21EFD
  5
21F11
331
21EB4
  5
21EC8
331
21EA5
  5
21EB9
331
21EEE
  5
21F02
331
21E5D
  5
21E6A
331
21E96
  5
21EAA
331
21EDF
  5
21EF3
331
21E4E
  5
21E58
331
21E87
  5
21E9B
331
21E78
  5
21E8C
331
21E3F
  5
21E49
331
21E69
  5
21E7D
331
21E30
  5
21E35
331
21E21
  5
21E26
331
21E03
  5
21E07
331
21E12
  5
21E17
331
21EF8
  5
21F0C
331
21EA0
  5
21EB4
331
21EE9
  5
21EFD
331
21E58
  5
21E65
331
21E91
  5
21EA5
331
21EDA
  5
21EEE
331
21E49
  5
21E53
331
21E82
  5
21E96
331
21E3A
  5
21E41
331
21E64
  5
21E78
331
21E2B
  5
21E30
331
21E1C
  5
21E21
331
21E0D
  5
21E12
331
21F14
  5
220B3
331
21ECB
  5
21EDF
331
21F05
  5
21F19
331
21EBC
  5
21ED0
331
21EF6
  5
21F0A
331
21EAD
  5
21EC1
331
21E9E
  5
21EB2
331
21EE7
  5
21EFB
331
21E56
  5
21E62
331
21E8F
  5
21EA3
331
21DFE
  5
21DFE
331
21F1E
  5
220C3
331
21ED5
  5
21EE9
331
21F0F
  5
220AE
331
21EC6
  5
21EDA
331
21F00
  5
21F14
331
21EB7
  5
21ECB
331
21EF1
  5
21F05
331
21EA8
  5
21EBC
331
21E99
  5
21EAD
331
21EE2
  5
21EF6
331
21E51
  5
21E5B
331
21E8A
  5
21E9E
331
21E7B
  5
21E8F
331
21E42
  5
21E4C
331
21E6C
  5
21E80
331
21E24
  5
21E29
331
21E33
  5
21E3A
331
21E15
  5
21E1A
331
21E06
  5
21E0B
331
21DF9
  5
21DF9
331
21DF7
  5
21DF7
331
21F19
  5
220B8
331
21ED0
  5
21EE4
331
21F0A
  5
21F1E
331
21EC1
  5
21ED5
331
21EFB
  5
21F0F
331
21EB2
  5
21EC6
331
21EA3
  5
21EB7
331
21EEC
  5
21F00
331
21E5B
  5
21E68
331
21E94
  5
21EA8
331
21EDD
  5
21EF1
331
21E4C
  5
21E56
331
21E85
  5
21E99
331
21E76
  5
21E8A
331
21E3D
  5
21E44
331
21E67
  5
21E7B
331
21E2E
  5
21E33
331
21E1F
  5
21E24
331
21E10
  5
21E15
331
21F17
  5
220B6
331
21ECE
  5
21EE2
331
21EBF
  5
21ED3
331
21DF2
  5
21DF2
331
21ED8
  5
21EEC
331
21E80
  5
21E94
331
21E62
  5
21E77
331
21E29
  5
21E2E
331
21E1A
  5
21E1F
331
21E0B
  5
21E10
331
21F12
  5
220B1
331
21EC9
  5
21EDD
331
21F03
  5
21F17
331
21EBA
  5
21ECE
331
21EF4
  5
21F08
331
21EAB
  5
21EBF
331
21E9C
  5
21EB0
331
21EE5
  5
21EF9
331
21E54
  5
21E5E
331
21E8D
  5
21EA1
331
21E7E
  5
21E92
331
21E36
  5
21E3D
331
21E27
  5
21E2C
331
21DFC
  5
21DFC
331
21F1C
  5
220BB
331
21ED3
  5
21EE7
331
21F0D
  5
220AC
331
21EC4
  5
21ED8
331
21EFE
  5
21F12
331
21EB5
  5
21EC9
331
21EA6
  5
21EBA
331
21EEF
  5
21F03
331
21E5E
  5
21E6D
331
21E97
  5
21EAB
331
21EE0
  5
21EF4
331
21E4F
  5
21E59
331
21E88
  5
21E9C
331
21E79
  5
21E8D
331
21E40
  5
21E4A
331
21E6A
  5
21E7E
331
21E31
  5
21E36
331
21E13
  5
21E18
331
21E22
  5
21E27
331
21E04
  5
21E09
331
21F08
  5
21F1C
331
21EF9
  5
21F0D
331
21EB0
  5
21EC4
331
21EA1
  5
21EB5
331
21EEA
  5
21EFE
331
21E59
  5
21E66
331
21E92
  5
21EA6
331
21EDB
  5
21EEF
331
21E4A
  5
21E54
331
21E83
  5
21E97
331
21E3B
  5
21E42
331
21E65
  5
21E79
331
21E2C
  5
21E31
331
21E1D
  5
21E22
331
21F15
  5
220B4
331
21ECC
  5
21EE0
331
21E0E
  5
21E13
331
21F06
  5
21F1A
331
21EF7
  5
21F0B
331
21EAE
  5
21EC2
331
21E9F
  5
21EB3
331
21E57
  5
21E64
331
21EBD
  5
21ED1
331
21E18
  5
21E1D
331
21E09
  5
21E0E
331
21ED6
  5
21EEA
331
21F10
  5
220AF
331
21EC7
  5
21EDB
331
21EB8
  5
21ECC
331
21DFA
  5
21DFA
331
21F01
  5
21F15
331
21EF2
  5
21F06
331
21EA9
  5
21EBD
331
21E9A
  5
21EAE
331
21EE3
  5
21EF7
331
21E52
  5
21E5C
331
21E8B
  5
21E9F
331
21E7C
  5
21E90
331
21E43
  5
21E4D
331
21E6D
  5
21E87
331
21E34
  5
21E3B
331
21E25
  5
21E2A
331
21E16
  5
21E1B
331
21E07
  5
21E0D
331
211A0
  5
211A0
331
21F1A
  5
220B9
331
21ED1
  5
21EE5
331
21F0B
  5
220AA
331
21EC2
  5
21ED6
331
21EFC
  5
21F10
331
21EB3
  5
21EC7
331
21EA4
  5
21EB8
331
21EED
  5
21F01
331
21E5C
  5
21E69
331
21E95
  5
21EA9
331
21EDE
  5
21EF2
331
21E4D
  5
21E57
331
21E86
  5
21E9A
331
21E77
  5
21E8B
331
21E3E
  5
21E48
331
21E68
  5
21E7C
331
21E2F
  5
21E34
331
21E20
  5
21E25
331
21E11
  5
21E16
331
21ECF
  5
21EE3
331
21E02
  5
21E06
331
21EE8
  5
21EFC
331
21E90
  5
21EA4
331
21ED9
  5
21EED
331
21E48
  5
21E52
331
21E81
  5
21E95
331
21E2A
  5
21E2F
331
21E1B
  5
21E20
331
21E0C
  5
21E11
331
21F13
  5
220B2
331
21ECA
  5
21EDE
331
21F04
  5
21F18
331
21EBB
  5
21ECF
331
21EF5
  5
21F09
331
21EAC
  5
21EC0
331
21E9D
  5
21EB1
331
21EE6
  5
21EFA
331
21E55
  5
21E61
331
21E8E
  5
21EA2
331
21E7F
  5
21E93
331
21E37
  5
21E40
331
21DFD
  5
21DFD
331
21F1D
  5
220BC
331
21ED4
  5
21EE8
331
21F0E
  5
220AD
331
21EC5
  5
21ED9
331
21EFF
  5
21F13
331
21EB6
  5
21ECA
331
21EF0
  5
21F04
331
21EA7
  5
21EBB
331
21E98
  5
21EAC
331
21EE1
  5
21EF5
331
21E50
  5
21E5A
331
21E89
  5
21E9D
331
21E7A
  5
21E8E
331
21E41
  5
21E4B
331
21E6B
  5
21E7F
331
21E32
  5
21E37
331
21E14
  5
21E19
331
21E23
  5
21E28
331
21E05
  5
21E0A
331
21DF8
  5
21DF8
331
21DF6
  5
21DF6
331
21F18
  5
220B7
331
21F09
  5
21F1D
331
21EC0
  5
21ED4
331
21EFA
  5
21F0E
331
21EB1
  5
21EC5
331
21EA2
  5
21EB6
331
21EEB
  5
21EFF
331
21E5A
  5
21E67
331
21E93
  5
21EA7
331
21EDC
  5
21EF0
331
21E4B
  5
21E55
331
21E84
  5
21E98
331
21E75
  5
21E89
331
21E3C
  5
21E43
331
21E66
  5
21E7A
331
21E2D
  5
21E32
331
21E1E
  5
21E23
331
21F16
  5
220B5
331
21ECD
  5
21EE1
331
21E0F
  5
21E14
331
21F07
  5
21F1B
331
21EBE
  5
21ED2
331
21EAF
  5
21EC3
  0
ACDBDETAILVIEWSTYLE
  5
20CB3
102
{ACAD_XDICTIONARY
360
22162
102
}
102
{ACAD_REACTORS
330
1B2F0
102
}
330
1B2F0
100
AcDbModelDocViewStyle
 70
     0
  3
Imperial24
290
     0
100
AcDbDetailViewStyle
 70
     0
 71
     0
 90
        3
 71
     1
340
11
 62
   256
 40
0.24
340
0
 62
   256
 40
0.24
300

 40
0.36
280
     3
 71
     2
340
16
 90
       25
 62
   256
 71
     3
340
11
 62
   256
 40
0.24
 90
        1
 40
0.75
 90
        1
300
%<\AcVar ViewType \f "%tc1">% %<\AcVar ViewDetailId>%\PVARIA %<\AcVar ViewScale \f "%sn">%
 71
     4
340
16
 90
       25
 62
   256
340
16
 90
       25
 62
   256
280
     0
  0
ACDBDETAILVIEWSTYLE
  5
1B2F1
102
{ACAD_XDICTIONARY
360
2215E
102
}
102
{ACAD_REACTORS
330
1B2F0
102
}
330
1B2F0
100
AcDbModelDocViewStyle
 70
     0
  3
Metric50
290
     0
100
AcDbDetailViewStyle
 70
     0
 71
     0
 90
        3
 71
     1
340
11
 62
   256
 40
5.0
340
0
 62
   256
 40
5.0
300

 40
0.0
280
     1
 71
     2
340
16
 90
       25
 62
   256
 71
     3
340
11
 62
   256
 40
5.0
 90
        0
 40
15.0
 90
        1
300
%<\AcVar ViewDetailId>% (%<\AcVar ViewScale \f "%sn">%)
 71
     4
340
16
 90
       25
 62
   256
340
16
 90
       25
 62
   256
280
     0
  0
LAYOUT
  5
31A7
102
{ACAD_REACTORS
330
31A5
102
}
330
31A5
100
AcDbPlotSettings
  1

  2
\\ingdc01\ITB3
  4
A4
  6

 40
6.805083274841307
 41
5.027085781097412
 42
6.805068969726562
 43
5.027069091796875
 44
209.9733276367186
 45
296.9683227539062
 46
0.0
 47
0.0
 48
0.0
 49
0.0
140
0.0
141
0.0
142
1.0
143
1.0
 70
   688
 72
     1
 73
     1
 74
     5
  7

 75
    16
147
1.0
 76
     0
 77
     2
 78
   300
148
0.0
149
0.0
100
AcDbLayout
  1
Layout1
 70
     1
 71
     1
 10
-5.027069091796875
 20
-6.805083274841307
 11
291.9412536621094
 21
203.1682443618775
 12
0.0
 22
0.0
 32
0.0
 14
28.69141678810127
 24
19.6363175392151
 34
0.0
 15
258.2227510929107
 25
176.7268578529358
 35
0.0
146
0.0
 13
0.0
 23
0.0
 33
0.0
 16
1.0
 26
0.0
 36
0.0
 17
0.0
 27
1.0
 37
0.0
 76
     0
330
1B
331
9C00
1001
ACAD_PSEXT
1000
\\ingdc01\ITB3
1000
HP LaserJet 5000 Series PCL
1000
TB
1000

1070
     0
  0
LAYOUT
  5
31A6
102
{ACAD_REACTORS
330
31A5
102
}
330
31A5
100
AcDbPlotSettings
  1

  2
\\ingdc01\ITB3
  4
A4
  6

 40
6.805083274841307
 41
5.027085781097412
 42
6.805068969726562
 43
5.027069091796875
 44
209.9733276367186
 45
296.9683227539062
 46
0.0
 47
0.0
 48
0.0
 49
0.0
140
0.0
141
0.0
142
1.0
143
1.500313223655698
 70
 11952
 72
     1
 73
     1
 74
     0
  7

 75
     0
147
0.6665274852163048
 76
     0
 77
     2
 78
   300
148
239.0155119930048
149
102.2558208723354
100
AcDbLayout
  1
Model
 70
     1
 71
     0
 10
0.0
 20
0.0
 11
12.0
 21
9.0
 12
0.0
 22
0.0
 32
0.0
 14
0.0
 24
0.0
 34
0.0
 15
0.0
 25
0.0
 35
0.0
146
0.0
 13
0.0
 23
0.0
 33
0.0
 16
1.0
 26
0.0
 36
0.0
 17
0.0
 27
1.0
 37
0.0
 76
     0
330
1F
331
1F4
1001
ACAD_PSEXT
1000
\\ingdc01\ITB3
1000
HP LaserJet 5000 Series PCL
1000
TB
1000

1070
     0
  0
MATERIAL
  5
318D
102
{ACAD_XDICTIONARY
360
1B22B
102
}
102
{ACAD_REACTORS
330
318B
102
}
330
318B
100
AcDbMaterial
  1
ByBlock
  0
MATERIAL
  5
318C
102
{ACAD_XDICTIONARY
360
1B22D
102
}
102
{ACAD_REACTORS
330
318B
102
}
330
318B
100
AcDbMaterial
  1
ByLayer
  0
MATERIAL
  5
318E
102
{ACAD_XDICTIONARY
360
1B22F
102
}
102
{ACAD_REACTORS
330
318B
102
}
330
318B
100
AcDbMaterial
  1
Global
  0
MLEADERSTYLE
  5
1B2ED
102
{ACAD_REACTORS
330
1B221
102
}
330
1B221
100
AcDbMLeaderStyle
179
     2
170
     2
171
     1
172
     0
 90
        2
 40
0.0
 41
0.0
173
     1
 91
-1056964608
340
14
 92
       -2
290
     1
 42
2.0
291
     1
 43
0.36
  3
Standard
 44
4.0
300

342
11
174
     1
178
     6
175
     1
176
     0
 93
-1056964608
 45
4.0
292
     0
297
     0
 46
4.0
 94
-1056964608
 47
1.0
 49
1.0
140
1.0
293
     1
141
0.0
294
     1
177
     0
142
1.0
295
     0
296
     0
143
0.125
271
     0
272
     9
273
     9
1001
ACAD_MLEADERVER
1070
     2
  0
MLINESTYLE
  5
3185
102
{ACAD_REACTORS
330
3184
102
}
330
3184
100
AcDbMlineStyle
  2
STANDARD
 70
     0
  3

 62
   256
 51
90.0
 52
90.0
 71
     2
 49
0.5
 62
   256
  6
BYLAYER
 49
-0.5
 62
   256
  6
BYLAYER
  0
ACDBPLACEHOLDER
  5
318A
102
{ACAD_REACTORS
330
3189
102
}
330
3189
  0
SCALE
  5
1B1FD
102
{ACAD_REACTORS
330
1B1FC
102
}
330
1B1FC
100
AcDbScale
 70
     0
300
1:1
140
1.0
141
1.0
290
     1
1001
ACAD
1000
AcRTDxfName
1000
SCALE
  0
SCALE
  5
1B1FE
102
{ACAD_REACTORS
330
1B1FC
102
}
330
1B1FC
100
AcDbScale
 70
     0
300
1:2
140
1.0
141
2.0
290
     0
1001
ACAD
1000
AcRTDxfName
1000
SCALE
  0
SCALE
  5
1B1FF
102
{ACAD_REACTORS
330
1B1FC
102
}
330
1B1FC
100
AcDbScale
 70
     0
300
1:4
140
1.0
141
4.0
290
     0
1001
ACAD
1000
AcRTDxfName
1000
SCALE
  0
SCALE
  5
1B200
102
{ACAD_REACTORS
330
1B1FC
102
}
330
1B1FC
100
AcDbScale
 70
     0
300
1:5
140
1.0
141
5.0
290
     0
1001
ACAD
1000
AcRTDxfName
1000
SCALE
  0
SCALE
  5
1B201
102
{ACAD_REACTORS
330
1B1FC
102
}
330
1B1FC
100
AcDbScale
 70
     0
300
1:8
140
1.0
141
8.0
290
     0
1001
ACAD
1000
AcRTDxfName
1000
SCALE
  0
SCALE
  5
1B202
102
{ACAD_REACTORS
330
1B1FC
102
}
330
1B1FC
100
AcDbScale
 70
     0
300
1:10
140
1.0
141
10.0
290
     0
1001
ACAD
1000
AcRTDxfName
1000
SCALE
  0
SCALE
  5
1B203
102
{ACAD_REACTORS
330
1B1FC
102
}
330
1B1FC
100
AcDbScale
 70
     0
300
1:16
140
1.0
141
16.0
290
     0
1001
ACAD
1000
AcRTDxfName
1000
SCALE
  0
SCALE
  5
1B204
102
{ACAD_REACTORS
330
1B1FC
102
}
330
1B1FC
100
AcDbScale
 70
     0
300
1:20
140
1.0
141
20.0
290
     0
1001
ACAD
1000
AcRTDxfName
1000
SCALE
  0
SCALE
  5
1B205
102
{ACAD_REACTORS
330
1B1FC
102
}
330
1B1FC
100
AcDbScale
 70
     0
300
1:30
140
1.0
141
30.0
290
     0
1001
ACAD
1000
AcRTDxfName
1000
SCALE
  0
SCALE
  5
1B206
102
{ACAD_REACTORS
330
1B1FC
102
}
330
1B1FC
100
AcDbScale
 70
     0
300
1:40
140
1.0
141
40.0
290
     0
1001
ACAD
1000
AcRTDxfName
1000
SCALE
  0
SCALE
  5
1B207
102
{ACAD_REACTORS
330
1B1FC
102
}
330
1B1FC
100
AcDbScale
 70
     0
300
1:50
140
1.0
141
50.0
290
     0
1001
ACAD
1000
AcRTDxfName
1000
SCALE
  0
SCALE
  5
1B208
102
{ACAD_REACTORS
330
1B1FC
102
}
330
1B1FC
100
AcDbScale
 70
     0
300
1:100
140
1.0
141
100.0
290
     0
1001
ACAD
1000
AcRTDxfName
1000
SCALE
  0
SCALE
  5
1B209
102
{ACAD_REACTORS
330
1B1FC
102
}
330
1B1FC
100
AcDbScale
 70
     0
300
2:1
140
2.0
141
1.0
290
     0
1001
ACAD
1000
AcRTDxfName
1000
SCALE
  0
SCALE
  5
1B20A
102
{ACAD_REACTORS
330
1B1FC
102
}
330
1B1FC
100
AcDbScale
 70
     0
300
4:1
140
4.0
141
1.0
290
     0
1001
ACAD
1000
AcRTDxfName
1000
SCALE
  0
SCALE
  5
1B20B
102
{ACAD_REACTORS
330
1B1FC
102
}
330
1B1FC
100
AcDbScale
 70
     0
300
8:1
140
8.0
141
1.0
290
     0
1001
ACAD
1000
AcRTDxfName
1000
SCALE
  0
SCALE
  5
1B20C
102
{ACAD_REACTORS
330
1B1FC
102
}
330
1B1FC
100
AcDbScale
 70
     0
300
10:1
140
10.0
141
1.0
290
     0
1001
ACAD
1000
AcRTDxfName
1000
SCALE
  0
SCALE
  5
1B20D
102
{ACAD_REACTORS
330
1B1FC
102
}
330
1B1FC
100
AcDbScale
 70
     0
300
100:1
140
100.0
141
1.0
290
     0
1001
ACAD
1000
AcRTDxfName
1000
SCALE
  0
SCALE
  5
1B20E
102
{ACAD_REACTORS
330
1B1FC
102
}
330
1B1FC
100
AcDbScale
 70
     0
300
1/128" = 1'-0"
140
0.0078125
141
12.0
290
     0
1001
ACAD
1000
AcRTDxfName
1000
SCALE
  0
SCALE
  5
1B20F
102
{ACAD_REACTORS
330
1B1FC
102
}
330
1B1FC
100
AcDbScale
 70
     0
300
1/64" = 1'-0"
140
0.015625
141
12.0
290
     0
1001
ACAD
1000
AcRTDxfName
1000
SCALE
  0
SCALE
  5
1B210
102
{ACAD_REACTORS
330
1B1FC
102
}
330
1B1FC
100
AcDbScale
 70
     0
300
1/32" = 1'-0"
140
0.03125
141
12.0
290
     0
1001
ACAD
1000
AcRTDxfName
1000
SCALE
  0
SCALE
  5
1B211
102
{ACAD_REACTORS
330
1B1FC
102
}
330
1B1FC
100
AcDbScale
 70
     0
300
1/16" = 1'-0"
140
0.0625
141
12.0
290
     0
1001
ACAD
1000
AcRTDxfName
1000
SCALE
  0
SCALE
  5
1B212
102
{ACAD_REACTORS
330
1B1FC
102
}
330
1B1FC
100
AcDbScale
 70
     0
300
3/32" = 1'-0"
140
0.09375
141
12.0
290
     0
1001
ACAD
1000
AcRTDxfName
1000
SCALE
  0
SCALE
  5
1B213
102
{ACAD_REACTORS
330
1B1FC
102
}
330
1B1FC
100
AcDbScale
 70
     0
300
1/8" = 1'-0"
140
0.125
141
12.0
290
     0
1001
ACAD
1000
AcRTDxfName
1000
SCALE
  0
SCALE
  5
1B214
102
{ACAD_REACTORS
330
1B1FC
102
}
330
1B1FC
100
AcDbScale
 70
     0
300
3/16" = 1'-0"
140
0.1875
141
12.0
290
     0
1001
ACAD
1000
AcRTDxfName
1000
SCALE
  0
SCALE
  5
1B215
102
{ACAD_REACTORS
330
1B1FC
102
}
330
1B1FC
100
AcDbScale
 70
     0
300
1/4" = 1'-0"
140
0.25
141
12.0
290
     0
1001
ACAD
1000
AcRTDxfName
1000
SCALE
  0
SCALE
  5
1B216
102
{ACAD_REACTORS
330
1B1FC
102
}
330
1B1FC
100
AcDbScale
 70
     0
300
3/8" = 1'-0"
140
0.375
141
12.0
290
     0
1001
ACAD
1000
AcRTDxfName
1000
SCALE
  0
SCALE
  5
1B217
102
{ACAD_REACTORS
330
1B1FC
102
}
330
1B1FC
100
AcDbScale
 70
     0
300
1/2" = 1'-0"
140
0.5
141
12.0
290
     0
1001
ACAD
1000
AcRTDxfName
1000
SCALE
  0
SCALE
  5
1B218
102
{ACAD_REACTORS
330
1B1FC
102
}
330
1B1FC
100
AcDbScale
 70
     0
300
3/4" = 1'-0"
140
0.75
141
12.0
290
     0
1001
ACAD
1000
AcRTDxfName
1000
SCALE
  0
SCALE
  5
1B219
102
{ACAD_REACTORS
330
1B1FC
102
}
330
1B1FC
100
AcDbScale
 70
     0
300
1" = 1'-0"
140
1.0
141
12.0
290
     0
1001
ACAD
1000
AcRTDxfName
1000
SCALE
  0
SCALE
  5
1B21A
102
{ACAD_REACTORS
330
1B1FC
102
}
330
1B1FC
100
AcDbScale
 70
     0
300
1-1/2" = 1'-0"
140
1.5
141
12.0
290
     0
1001
ACAD
1000
AcRTDxfName
1000
SCALE
  0
SCALE
  5
1B21B
102
{ACAD_REACTORS
330
1B1FC
102
}
330
1B1FC
100
AcDbScale
 70
     0
300
3" = 1'-0"
140
3.0
141
12.0
290
     0
1001
ACAD
1000
AcRTDxfName
1000
SCALE
  0
SCALE
  5
1B21C
102
{ACAD_REACTORS
330
1B1FC
102
}
330
1B1FC
100
AcDbScale
 70
     0
300
6" = 1'-0"
140
6.0
141
12.0
290
     0
1001
ACAD
1000
AcRTDxfName
1000
SCALE
  0
SCALE
  5
1B21D
102
{ACAD_REACTORS
330
1B1FC
102
}
330
1B1FC
100
AcDbScale
 70
     0
300
1'-0" = 1'-0"
140
12.0
141
12.0
290
     0
1001
ACAD
1000
AcRTDxfName
1000
SCALE
  0
ACDBSECTIONVIEWSTYLE
  5
20CB1
102
{ACAD_XDICTIONARY
360
22160
102
}
102
{ACAD_REACTORS
330
1B2EE
102
}
330
1B2EE
100
AcDbModelDocViewStyle
 70
     0
  3
Imperial24
290
     0
100
AcDbSectionViewStyle
 70
     0
 71
     0
 90
       78
 71
     1
340
11
 62
   256
 40
0.24
340
0
340
0
 62
   256
 40
0.24
300
I, O, Q, S, X, Z
 40
0.48
 90
        3
 40
0.18
 90
        1
 71
     2
340
16
 90
       25
 62
   256
340
16
 90
       50
 62
   256
 40
0.24
 40
0.0
 40
0.24
 71
     3
340
11
 62
   256
 40
0.24
 90
        1
 40
0.75
 90
        1
300
%<\AcVar ViewType \f "%tc1">% %<\AcVar ViewSectionStartId>%-%<\AcVar ViewSectionEndId>%\PVARIA %<\AcVar ViewScale \f "%sn">%
 71
     4
 62
   256
 62
   257
300
ANSI31
 40
1.0
 90
        0
290
     0
290
     0
 90
        6
 40
0.0
 40
1.570796326794896
 40
0.2617993877991494
 40
1.308996938995747
 40
-0.2617993877991494
 40
1.832595714594044
  0
ACDBSECTIONVIEWSTYLE
  5
1B2EF
102
{ACAD_XDICTIONARY
360
2215C
102
}
102
{ACAD_REACTORS
330
1B2EE
102
}
330
1B2EE
100
AcDbModelDocViewStyle
 70
     0
  3
Metric50
290
     0
100
AcDbSectionViewStyle
 70
     0
 71
     0
 90
      102
 71
     1
340
11
 62
   256
 40
5.0
340
0
340
0
 62
   256
 40
5.0
300
I, O, Q, S, X, Z
 40
10.0
 90
        0
 40
2.5
 90
        0
 71
     2
340
16
 90
       25
 62
   256
340
16
 90
       50
 62
   256
 40
5.0
 40
2.5
 40
5.0
 71
     3
340
11
 62
   256
 40
5.0
 90
        0
 40
15.0
 90
        1
300
%<\AcVar ViewSectionStartId>%-%<\AcVar ViewSectionEndId>% (%<\AcVar ViewScale \f "%sn">%)
 71
     4
 62
   256
 62
   257
300
ANSI31
 40
1.0
 90
        0
290
     0
290
     0
 90
        6
 40
0.0
 40
1.570796326794896
 40
0.2617993877991494
 40
1.308996938995747
 40
-0.2617993877991494
 40
1.832595714594044
  0
TABLESTYLE
  5
31A2
102
{ACAD_XDICTIONARY
360
1B314
102
}
102
{ACAD_REACTORS
330
31A1
102
}
330
31A1
100
AcDbTableStyle
280
     0
  3
Standard
 70
     0
 71
     0
 40
1.5
 41
1.5
280
     0
281
     0
  7
STANDARD
140
4.5
170
     2
 62
     0
 63
     7
283
     0
 90
        4
 91
        0
  1

274
    -2
284
     1
 64
     0
275
    -2
285
     1
 65
     0
276
    -2
286
     1
 66
     0
277
    -2
287
     1
 67
     0
278
    -2
288
     1
 68
     0
279
    -2
289
     1
 69
     0
  7
STANDARD
140
6.0
170
     5
 62
     0
 63
     7
283
     0
 90
        4
 91
        0
  1

274
    -2
284
     1
 64
     0
275
    -2
285
     1
 65
     0
276
    -2
286
     1
 66
     0
277
    -2
287
     1
 67
     0
278
    -2
288
     1
 68
     0
279
    -2
289
     1
 69
     0
  7
STANDARD
140
4.5
170
     5
 62
     0
 63
     7
283
     0
 90
        4
 91
        0
  1

274
    -2
284
     1
 64
     0
275
    -2
285
     1
 65
     0
276
    -2
286
     1
 66
     0
277
    -2
287
     1
 67
     0
278
    -2
288
     1
 68
     0
279
    -2
289
     1
 69
     0
  0
VISUALSTYLE
  5
3195
102
{ACAD_XDICTIONARY
360
22132
102
}
102
{ACAD_REACTORS
330
318F
102
}
330
318F
100
AcDbVisualStyle
  2

 70
     4
177
     2
291
     0
 71
     0
176
     1
 72
     2
176
     1
 73
     0
176
     1
 90
        0
176
     1
 40
0.6
176
     1
 41
30.0
176
     1
 63
     7
176
     1
 74
     1
176
     1
 91
        4
176
     1
 64
     7
176
     1
 65
   257
176
     1
 75
     1
176
     1
175
     1
176
     1
 42
1.0
176
     1
 92
        0
176
     1
 66
   257
176
     1
 43
1.0
176
     1
 76
     1
176
     1
 77
     6
176
     1
 78
     2
176
     1
 67
     7
176
     1
 79
     5
176
     1
170
     0
176
     1
171
     0
176
     1
290
     0
176
     1
 93
        1
176
     1
 44
0.0
176
     1
173
     0
176
     1
1001
ACAD
1000
AcDbSavedByObjectVersion
1070
     0
  0
VISUALSTYLE
  5
3197
102
{ACAD_XDICTIONARY
360
22136
102
}
102
{ACAD_REACTORS
330
318F
102
}
330
318F
100
AcDbVisualStyle
  2

 70
     6
177
     2
291
     0
 71
     1
176
     1
 72
     2
176
     1
 73
     2
176
     1
 90
        0
176
     1
 40
0.6
176
     1
 41
30.0
176
     1
 63
     7
176
     1
 74
     2
176
     1
 91
        2
176
     1
 64
     7
176
     1
 65
   257
176
     1
 75
     2
176
     1
175
     1
176
     1
 42
40.0
176
     1
 92
        0
176
     1
 66
   257
176
     1
 43
1.0
176
     1
 76
     1
176
     1
 77
     6
176
     1
 78
     2
176
     1
 67
     7
176
     1
 79
     3
176
     1
170
     0
176
     1
171
     0
176
     1
290
     0
176
     1
 93
        1
176
     1
 44
0.0
176
     1
173
     0
176
     1
1001
ACAD
1000
AcDbSavedByObjectVersion
1070
     0
  0
VISUALSTYLE
  5
3196
102
{ACAD_XDICTIONARY
360
22134
102
}
102
{ACAD_REACTORS
330
318F
102
}
330
318F
100
AcDbVisualStyle
  2

 70
     5
177
     2
291
     0
 71
     0
176
     1
 72
     2
176
     1
 73
     0
176
     1
 90
        0
176
     1
 40
0.6
176
     1
 41
30.0
176
     1
 63
     7
176
     1
 74
     1
176
     1
 91
        4
176
     1
 64
     7
176
     1
 65
   257
176
     1
 75
     1
176
     1
175
     1
176
     1
 42
1.0
176
     1
 92
        0
176
     1
 66
   257
176
     1
 43
1.0
176
     1
 76
     1
176
     1
 77
     6
176
     1
 78
     2
176
     1
 67
     7
176
     1
 79
     5
176
     1
170
     0
176
     1
171
     0
176
     1
290
     0
176
     1
 93
        1
176
     1
 44
0.0
176
     1
173
     0
176
     1
1001
ACAD
1000
AcDbSavedByObjectVersion
1070
     0
  0
VISUALSTYLE
  5
3194
102
{ACAD_XDICTIONARY
360
22130
102
}
102
{ACAD_REACTORS
330
318F
102
}
330
318F
100
AcDbVisualStyle
  2

 70
     7
177
     2
291
     1
 71
     1
176
     1
 72
     0
176
     1
 73
     1
176
     1
 90
        0
176
     1
 40
0.6
176
     1
 41
30.0
176
     1
 63
     7
176
     1
 74
     0
176
     1
 91
        4
176
     1
 64
     7
176
     1
 65
   257
176
     1
 75
     1
176
     1
175
     1
176
     1
 42
1.0
176
     1
 92
        8
176
     1
 66
     7
176
     1
 43
1.0
176
     1
 76
     1
176
     1
 77
     6
176
     1
 78
     2
176
     1
 67
     7
176
     1
 79
     5
176
     1
170
     0
176
     1
171
     0
176
     1
290
     0
176
     1
 93
        1
176
     1
 44
0.0
176
     1
173
     0
176
     1
1001
ACAD
1000
AcDbSavedByObjectVersion
1070
     0
  0
VISUALSTYLE
  5
319B
102
{ACAD_XDICTIONARY
360
2213E
102
}
102
{ACAD_REACTORS
330
318F
102
}
330
318F
100
AcDbVisualStyle
  2

 70
    12
177
     2
291
     1
 71
     2
176
     1
 72
     2
176
     1
 73
     0
176
     1
 90
        0
176
     1
 40
0.6
176
     1
 41
30.0
176
     1
 63
     7
176
     1
 74
     1
176
     1
 91
        4
176
     1
 64
     7
176
     1
 65
   257
176
     1
 75
     1
176
     1
175
     1
176
     1
 42
1.0
176
     1
 92
        8
176
     1
 66
     7
176
     1
 43
1.0
176
     1
 76
     1
176
     1
 77
     6
176
     1
 78
     2
176
     1
 67
     7
176
     1
 79
     5
176
     1
170
     0
176
     1
171
     0
176
     1
290
     0
176
     1
 93
        1
176
     1
 44
50.0
176
     1
173
     0
176
     1
1001
ACAD
1000
AcDbSavedByObjectVersion
1070
     0
  0
VISUALSTYLE
  5
319F
102
{ACAD_XDICTIONARY
360
22146
102
}
102
{ACAD_REACTORS
330
318F
102
}
330
318F
100
AcDbVisualStyle
  2

 70
    16
177
     2
291
     1
 71
     2
176
     1
 72
     2
176
     1
 73
     3
176
     1
 90
        0
176
     1
 40
0.6
176
     1
 41
30.0
176
     1
 63
     8
176
     1
 74
     1
176
     1
 91
        4
176
     1
 64
     7
176
     1
 65
   257
176
     1
 75
     1
176
     1
175
     1
176
     1
 42
1.0
176
     1
 92
        8
176
     1
 66
     8
176
     1
 43
1.0
176
     1
 76
     1
176
     1
 77
     6
176
     1
 78
     2
176
     1
 67
     7
176
     1
 79
     5
176
     1
170
     0
176
     1
171
     0
176
     1
290
     0
176
     1
 93
        1
176
     1
 44
0.0
176
     1
173
     0
176
     1
1001
ACAD
1000
AcDbSavedByObjectVersion
1070
     0
  0
VISUALSTYLE
  5
3198
102
{ACAD_XDICTIONARY
360
22138
102
}
102
{ACAD_REACTORS
330
318F
102
}
330
318F
100
AcDbVisualStyle
  2

 70
     9
177
     2
291
     0
 71
     3
176
     1
 72
     2
176
     1
 73
     0
176
     1
 90
        0
176
     1
 40
0.6
176
     1
 41
30.0
176
     1
 63
     7
176
     1
 74
     2
176
     1
 91
        2
176
     1
 64
     7
176
     1
 65
   257
176
     1
 75
     1
176
     1
175
     1
176
     1
 42
40.0
176
     1
 92
        8
176
     1
 66
     7
176
     1
 43
1.0
176
     1
 76
     1
176
     1
 77
     6
176
     1
 78
     2
176
     1
 67
     7
176
     1
 79
     3
176
     1
170
     0
176
     1
171
     0
176
     1
290
     0
176
     1
 93
        1
176
     1
 44
0.0
176
     1
173
     0
176
     1
1001
ACAD
1000
AcDbSavedByObjectVersion
1070
     0
  0
VISUALSTYLE
  5
319A
102
{ACAD_XDICTIONARY
360
2213C
102
}
102
{ACAD_REACTORS
330
318F
102
}
330
318F
100
AcDbVisualStyle
  2

 70
    11
177
     2
291
     1
 71
     2
176
     1
 72
     2
176
     1
 73
     0
176
     1
 90
        0
176
     1
 40
0.6
176
     1
 41
30.0
176
     1
 63
     7
176
     1
 74
     1
176
     1
 91
        4
176
     1
 64
     7
176
     1
 65
   257
176
     1
 75
     1
176
     1
175
     1
176
     1
 42
1.0
176
     1
 92
        8
176
     1
 66
     7
176
     1
 43
1.0
176
     1
 76
     1
176
     1
 77
     6
176
     1
 78
     2
176
     1
 67
     7
176
     1
 79
     5
176
     1
170
     0
176
     1
171
     0
176
     1
290
     0
176
     1
 93
        1
176
     1
 44
-50.0
176
     1
173
     0
176
     1
1001
ACAD
1000
AcDbSavedByObjectVersion
1070
     0
  0
VISUALSTYLE
  5
1B2EC
102
{ACAD_XDICTIONARY
360
2215A
102
}
102
{ACAD_REACTORS
330
318F
102
}
330
318F
100
AcDbVisualStyle
  2

 70
    22
177
     2
291
     1
 71
     2
176
     0
 72
     2
176
     0
 73
     0
176
     0
 90
        0
176
     0
 40
0.6
176
     0
 41
30.0
176
     0
 63
     7
176
     0
 74
     1
176
     0
 91
        4
176
     0
 64
     7
176
     0
 65
   257
176
     0
 75
     1
176
     0
175
     1
176
     0
 42
1.0
176
     0
 92
        8
176
     2
 66
     7
176
     0
 43
1.0
176
     0
 76
     1
176
     0
 77
     6
176
     0
 78
     2
176
     0
 67
     7
176
     0
 79
     5
176
     0
170
     0
176
     0
171
     0
176
     0
290
     0
176
     0
 93
        1
176
     0
 44
0.0
176
     0
173
     0
176
     0
1001
ACAD
1000
AcDbSavedByObjectVersion
1070
     0
  0
VISUALSTYLE
  5
319E
102
{ACAD_XDICTIONARY
360
22144
102
}
102
{ACAD_REACTORS
330
318F
102
}
330
318F
100
AcDbVisualStyle
  2

 70
    15
177
     2
291
     1
 71
     2
176
     1
 72
     2
176
     1
 73
     0
176
     1
 90
        0
176
     1
 40
0.6
176
     1
 41
30.0
176
     1
 63
     7
176
     1
 74
     1
176
     1
 91
        4
176
     1
 64
     7
176
     1
 65
   257
176
     1
 75
     1
176
     1
175
     1
176
     1
 42
1.0
176
     1
 92
        8
176
     1
 66
     7
176
     1
 43
1.0
176
     1
 76
     1
176
     1
 77
     6
176
     1
 78
     2
176
     1
 67
     7
176
     1
 79
     5
176
     1
170
     0
176
     1
171
     0
176
     1
290
     0
176
     1
 93
        1
176
     1
 44
0.0
176
     1
173
     0
176
     1
1001
ACAD
1000
AcDbSavedByObjectVersion
1070
     0
  0
VISUALSTYLE
  5
3190
102
{ACAD_XDICTIONARY
360
22128
102
}
102
{ACAD_REACTORS
330
318F
102
}
330
318F
100
AcDbVisualStyle
  2

 70
     0
177
     2
291
     1
 71
     2
176
     1
 72
     1
176
     1
 73
     1
176
     1
 90
        2
176
     1
 40
0.6
176
     1
 41
30.0
176
     1
 63
     7
176
     1
 74
     0
176
     1
 91
        4
176
     1
 64
     7
176
     1
 65
   257
176
     1
 75
     1
176
     1
175
     1
176
     1
 42
1.0
176
     1
 92
        8
176
     1
 66
     7
176
     1
 43
1.0
176
     1
 76
     1
176
     1
 77
     6
176
     1
 78
     2
176
     1
 67
     7
176
     1
 79
     5
176
     1
170
     0
176
     1
171
     0
176
     1
290
     0
176
     1
 93
       13
176
     1
 44
0.0
176
     1
173
     0
176
     1
1001
ACAD
1000
AcDbSavedByObjectVersion
1070
     0
  0
VISUALSTYLE
  5
3191
102
{ACAD_XDICTIONARY
360
2212A
102
}
102
{ACAD_REACTORS
330
318F
102
}
330
318F
100
AcDbVisualStyle
  2

 70
     1
177
     2
291
     1
 71
     2
176
     1
 72
     1
176
     1
 73
     1
176
     1
 90
        2
176
     1
 40
0.6
176
     1
 41
30.0
176
     1
 63
     7
176
     1
 74
     1
176
     1
 91
        4
176
     1
 64
     7
176
     1
 65
   257
176
     1
 75
     1
176
     1
175
     1
176
     1
 42
1.0
176
     1
 92
        0
176
     1
 66
   257
176
     1
 43
1.0
176
     1
 76
     1
176
     1
 77
     6
176
     1
 78
     2
176
     1
 67
     7
176
     1
 79
     5
176
     1
170
     0
176
     1
171
     0
176
     1
290
     0
176
     1
 93
       13
176
     1
 44
0.0
176
     1
173
     0
176
     1
1001
ACAD
1000
AcDbSavedByObjectVersion
1070
     0
  0
VISUALSTYLE
  5
3192
102
{ACAD_XDICTIONARY
360
2212C
102
}
102
{ACAD_REACTORS
330
318F
102
}
330
318F
100
AcDbVisualStyle
  2

 70
     2
177
     2
291
     1
 71
     2
176
     1
 72
     2
176
     1
 73
     1
176
     1
 90
        2
176
     1
 40
0.6
176
     1
 41
30.0
176
     1
 63
     7
176
     1
 74
     0
176
     1
 91
        4
176
     1
 64
     7
176
     1
 65
   257
176
     1
 75
     1
176
     1
175
     1
176
     1
 42
1.0
176
     1
 92
        0
176
     1
 66
     7
176
     1
 43
1.0
176
     1
 76
     1
176
     1
 77
     6
176
     1
 78
     2
176
     1
 67
     7
176
     1
 79
     5
176
     1
170
     0
176
     1
171
     0
176
     1
290
     0
176
     1
 93
       13
176
     1
 44
0.0
176
     1
173
     0
176
     1
1001
ACAD
1000
AcDbSavedByObjectVersion
1070
     0
  0
VISUALSTYLE
  5
3193
102
{ACAD_XDICTIONARY
360
2212E
102
}
102
{ACAD_REACTORS
330
318F
102
}
330
318F
100
AcDbVisualStyle
  2

 70
     3
177
     2
291
     1
 71
     2
176
     1
 72
     2
176
     1
 73
     1
176
     1
 90
        2
176
     1
 40
0.6
176
     1
 41
30.0
176
     1
 63
     7
176
     1
 74
     1
176
     1
 91
        4
176
     1
 64
     7
176
     1
 65
   257
176
     1
 75
     1
176
     1
175
     1
176
     1
 42
1.0
176
     1
 92
        0
176
     1
 66
   257
176
     1
 43
1.0
176
     1
 76
     1
176
     1
 77
     6
176
     1
 78
     2
176
     1
 67
     7
176
     1
 79
     5
176
     1
170
     0
176
     1
171
     0
176
     1
290
     0
176
     1
 93
       13
176
     1
 44
0.0
176
     1
173
     0
176
     1
1001
ACAD
1000
AcDbSavedByObjectVersion
1070
     0
  0
VISUALSTYLE
  5
1B2E4
102
{ACAD_XDICTIONARY
360
2214A
102
}
102
{ACAD_REACTORS
330
318F
102
}
330
318F
100
AcDbVisualStyle
  2

 70
     6
177
     2
291
     0
 71
     1
176
     1
 72
     2
176
     1
 73
     2
176
     1
 90
        0
176
     1
 40
0.6
176
     1
 41
30.0
176
     1
 63
     7
176
     1
 74
     2
176
     1
 91
        2
176
     1
 64
     7
176
     1
 65
   257
176
     1
 75
     2
176
     1
175
     1
176
     1
 42
40.0
176
     1
 92
        0
176
     1
 66
   257
176
     1
 43
1.0
176
     1
 76
     1
176
     1
 77
     6
176
     1
 78
     2
176
     1
 67
     7
176
     1
 79
     3
176
     1
170
     0
176
     1
171
     0
176
     1
290
     0
176
     1
 93
        1
176
     1
 44
0.0
176
     1
173
     0
176
     1
1001
ACAD
1000
AcDbSavedByObjectVersion
1070
     0
  0
VISUALSTYLE
  5
1B2EA
102
{ACAD_XDICTIONARY
360
22156
102
}
102
{ACAD_REACTORS
330
318F
102
}
330
318F
100
AcDbVisualStyle
  2

 70
    20
177
     2
291
     1
 71
     2
176
     0
 72
     2
176
     0
 73
     0
176
     0
 90
        0
176
     0
 40
0.6
176
     0
 41
30.0
176
     0
 63
     7
176
     0
 74
     1
176
     0
 91
        4
176
     0
 64
     7
176
     0
 65
   257
176
     0
 75
     1
176
     0
175
     1
176
     0
 42
1.0
176
     0
 92
       10
176
     2
 66
     7
176
     0
 43
1.0
176
     0
 76
     1
176
     0
 77
     6
176
     0
 78
     2
176
     0
 67
     7
176
     0
 79
     5
176
     0
170
     0
176
     0
171
     0
176
     0
290
     0
176
     0
 93
        1
176
     0
 44
0.0
176
     0
173
     0
176
     0
1001
ACAD
1000
AcDbSavedByObjectVersion
1070
     0
  0
VISUALSTYLE
  5
319D
102
{ACAD_XDICTIONARY
360
22142
102
}
102
{ACAD_REACTORS
330
318F
102
}
330
318F
100
AcDbVisualStyle
  2

 70
    14
177
     2
291
     1
 71
     2
176
     1
 72
     2
176
     1
 73
     0
176
     1
 90
        0
176
     1
 40
0.6
176
     1
 41
30.0
176
     1
 63
     7
176
     1
 74
     1
176
     1
 91
        4
176
     1
 64
     7
176
     1
 65
   257
176
     1
 75
     7
176
     1
175
     7
176
     1
 42
1.0
176
     1
 92
        8
176
     1
 66
     7
176
     1
 43
1.0
176
     1
 76
     1
176
     1
 77
     6
176
     1
 78
     2
176
     1
 67
     7
176
     1
 79
     5
176
     1
170
     0
176
     1
171
     0
176
     1
290
     0
176
     1
 93
        1
176
     1
 44
0.0
176
     1
173
     0
176
     1
1001
ACAD
1000
AcDbSavedByObjectVersion
1070
     0
  0
VISUALSTYLE
  5
1B2EB
102
{ACAD_XDICTIONARY
360
22158
102
}
102
{ACAD_REACTORS
330
318F
102
}
330
318F
100
AcDbVisualStyle
  2

 70
    21
177
     2
291
     1
 71
     2
176
     0
 72
     2
176
     0
 73
     0
176
     0
 90
        0
176
     0
 40
0.6
176
     0
 41
30.0
176
     0
 63
     7
176
     0
 74
     1
176
     0
 91
        4
176
     0
 64
     7
176
     0
 65
   257
176
     0
 75
     1
176
     0
175
     1
176
     0
 42
1.0
176
     0
 92
        9
176
     2
 66
     7
176
     0
 43
1.0
176
     0
 76
     1
176
     0
 77
     6
176
     0
 78
     2
176
     0
 67
     7
176
     0
 79
     5
176
     0
170
     0
176
     0
171
     0
176
     0
290
     0
176
     0
 93
        1
176
     0
 44
0.0
176
     0
173
     0
176
     0
1001
ACAD
1000
AcDbSavedByObjectVersion
1070
     0
  0
VISUALSTYLE
  5
3199
102
{ACAD_XDICTIONARY
360
2213A
102
}
102
{ACAD_REACTORS
330
318F
102
}
330
318F
100
AcDbVisualStyle
  2

 70
     8
177
     2
291
     0
 71
     2
176
     1
 72
     2
176
     1
 73
     0
176
     1
 90
        0
176
     1
 40
0.6
176
     1
 41
30.0
176
     1
 63
     7
176
     1
 74
     1
176
     1
 91
        0
176
     1
 64
     7
176
     1
 65
   257
176
     1
 75
     1
176
     1
175
     1
176
     1
 42
1.0
176
     1
 92
        8
176
     1
 66
     8
176
     1
 43
1.0
176
     1
 76
     1
176
     1
 77
     6
176
     1
 78
     2
176
     1
 67
     7
176
     1
 79
     5
176
     1
170
     0
176
     1
171
     0
176
     1
290
     0
176
     1
 93
       13
176
     1
 44
0.0
176
     1
173
     0
176
     1
1001
ACAD
1000
AcDbSavedByObjectVersion
1070
     0
  0
VISUALSTYLE
  5
1B2E9
102
{ACAD_XDICTIONARY
360
22154
102
}
102
{ACAD_REACTORS
330
318F
102
}
330
318F
100
AcDbVisualStyle
  2

 70
    27
177
     2
291
     0
 71
     2
176
     1
 72
     2
176
     1
 73
     1
176
     1
 90
        2
176
     1
 40
0.6
176
     1
 41
30.0
176
     1
 63
     7
176
     1
 74
     0
176
     1
 91
        4
176
     1
 64
     7
176
     1
 65
   257
176
     1
 75
     1
176
     1
175
     1
176
     1
 42
1.0
176
     1
 92
        8
176
     1
 66
   257
176
     1
 43
1.0
176
     1
 76
     1
176
     1
 77
     6
176
     1
 78
     2
176
     1
 67
     8
176
     1
 79
     3
176
     1
170
     0
176
     1
171
     0
176
     1
290
     0
176
     1
 93
        5
176
     1
 44
0.0
176
     1
173
     0
176
     1
1001
ACAD
1000
AcDbSavedByObjectVersion
1070
     0
  0
VISUALSTYLE
  5
1B2E8
102
{ACAD_XDICTIONARY
360
22152
102
}
102
{ACAD_REACTORS
330
318F
102
}
330
318F
100
AcDbVisualStyle
  2

 70
    26
177
     2
291
     0
 71
     2
176
     1
 72
     2
176
     1
 73
     1
176
     1
 90
        2
176
     1
 40
0.6
176
     1
 41
30.0
176
     1
 63
     7
176
     1
 74
     1
176
     1
 91
       10
176
     1
 64
     7
176
     1
 65
   257
176
     1
 75
     2
176
     1
175
     1
176
     1
 42
1.0
176
     1
 92
        8
176
     1
 66
   257
176
     1
 43
1.0
176
     1
 76
     1
176
     1
 77
     6
176
     1
 78
     2
176
     1
 67
     7
176
     1
 79
     3
176
     1
170
     0
176
     1
171
     0
176
     1
290
     0
176
     1
 93
        5
176
     1
 44
0.0
176
     1
173
     0
176
     1
1001
ACAD
1000
AcDbSavedByObjectVersion
1070
     0
  0
VISUALSTYLE
  5
1B2E5
102
{ACAD_XDICTIONARY
360
2214C
102
}
102
{ACAD_REACTORS
330
318F
102
}
330
318F
100
AcDbVisualStyle
  2

 70
    23
177
     2
291
     0
 71
     2
176
     1
 72
     2
176
     1
 73
     3
176
     1
 90
        0
176
     1
 40
0.6
176
     1
 41
30.0
176
     1
 63
     7
176
     1
 74
     2
176
     1
 91
        2
176
     1
 64
     7
176
     1
 65
     7
176
     1
 75
     1
176
     1
175
     1
176
     1
 42
40.0
176
     1
 92
        8
176
     1
 66
     7
176
     1
 43
1.0
176
     1
 76
     1
176
     1
 77
     6
176
     1
 78
     2
176
     1
 67
     7
176
     1
 79
     3
176
     1
170
     0
176
     1
171
     0
176
     1
290
     0
176
     1
 93
        1
176
     1
 44
0.0
176
     1
173
     0
176
     1
1001
ACAD
1000
AcDbSavedByObjectVersion
1070
     0
  0
VISUALSTYLE
  5
1B2E6
102
{ACAD_XDICTIONARY
360
2214E
102
}
102
{ACAD_REACTORS
330
318F
102
}
330
318F
100
AcDbVisualStyle
  2

 70
    24
177
     2
291
     0
 71
     1
176
     1
 72
     2
176
     1
 73
     2
176
     1
 90
        0
176
     1
 40
0.6
176
     1
 41
30.0
176
     1
 63
     7
176
     1
 74
     2
176
     1
 91
        2
176
     1
 64
     7
176
     1
 65
     7
176
     1
 75
     1
176
     1
175
     1
176
     1
 42
40.0
176
     1
 92
       11
176
     1
 66
     7
176
     1
 43
1.0
176
     1
 76
     1
176
     1
 77
     6
176
     1
 78
     2
176
     1
 67
     7
176
     1
 79
     6
176
     1
170
     0
176
     1
171
     0
176
     1
290
     0
176
     1
 93
        1
176
     1
 44
0.0
176
     1
173
     0
176
     1
1001
ACAD
1000
AcDbSavedByObjectVersion
1070
     0
  0
VISUALSTYLE
  5
319C
102
{ACAD_XDICTIONARY
360
22140
102
}
102
{ACAD_REACTORS
330
318F
102
}
330
318F
100
AcDbVisualStyle
  2

 70
    13
177
     2
291
     1
 71
     2
176
     1
 72
     2
176
     1
 73
     0
176
     1
 90
        0
176
     1
 40
0.6
176
     1
 41
30.0
176
     1
 63
     7
176
     1
 74
     1
176
     1
 91
        4
176
     1
 64
     7
176
     1
 65
   257
176
     1
 75
     1
176
     1
175
     1
176
     1
 42
1.0
176
     1
 92
       12
176
     1
 66
     7
176
     1
 43
1.0
176
     1
 76
     1
176
     1
 77
     6
176
     1
 78
     2
176
     1
 67
     7
176
     1
 79
     5
176
     1
170
     0
176
     1
171
     0
176
     1
290
     0
176
     1
 93
        1
176
     1
 44
0.0
176
     1
173
     0
176
     1
1001
ACAD
1000
AcDbSavedByObjectVersion
1070
     0
  0
VISUALSTYLE
  5
1B2E3
102
{ACAD_XDICTIONARY
360
22148
102
}
102
{ACAD_REACTORS
330
318F
102
}
330
318F
100
AcDbVisualStyle
  2

 70
     5
177
     2
291
     0
 71
     0
176
     1
 72
     2
176
     1
 73
     0
176
     1
 90
        0
176
     1
 40
0.6
176
     1
 41
30.0
176
     1
 63
     7
176
     1
 74
     1
176
     1
 91
        4
176
     1
 64
     7
176
     1
 65
   257
176
     1
 75
     1
176
     1
175
     1
176
     1
 42
1.0
176
     1
 92
        0
176
     1
 66
   257
176
     1
 43
1.0
176
     1
 76
     1
176
     1
 77
     6
176
     1
 78
     2
176
     1
 67
     7
176
     1
 79
     3
176
     1
170
     0
176
     1
171
     0
176
     1
290
     0
176
     1
 93
        1
176
     1
 44
0.0
176
     1
173
     0
176
     1
1001
ACAD
1000
AcDbSavedByObjectVersion
1070
     0
  0
VISUALSTYLE
  5
1B2E7
102
{ACAD_XDICTIONARY
360
22150
102
}
102
{ACAD_REACTORS
330
318F
102
}
330
318F
100
AcDbVisualStyle
  2

 70
    25
177
     2
291
     0
 71
     2
176
     1
 72
     2
176
     1
 73
     1
176
     1
 90
        1
176
     1
 40
0.5
176
     1
 41
30.0
176
     1
 63
     7
176
     1
 74
     1
176
     1
 91
        0
176
     1
 64
     7
176
     1
 65
   257
176
     1
 75
     1
176
     1
175
     1
176
     1
 42
1.0
176
     1
 92
        8
176
     1
 66
     7
176
     1
 43
1.0
176
     1
 76
     1
176
     1
 77
     6
176
     1
 78
     2
176
     1
 67
     7
176
     1
 79
     3
176
     1
170
     0
176
     1
171
     0
176
     1
290
     0
176
     1
 93
       13
176
     1
 44
0.0
176
     1
173
     0
176
     1
1001
ACAD
1000
AcDbSavedByObjectVersion
1070
     0
  0
DICTIONARYVAR
  5
1B222
102
{ACAD_REACTORS
330
33A3
102
}
330
33A3
100
DictionaryVariables
280
     0
  1
1:1
  0
DICTIONARYVAR
  5
1B30F
102
{ACAD_REACTORS
330
33A3
102
}
330
33A3
100
DictionaryVariables
280
     0
  1
STANDARD
  0
DICTIONARYVAR
  5
33A4
102
{ACAD_REACTORS
330
33A3
102
}
330
33A3
100
DictionaryVariables
280
     0
  1
STANDARD
  0
DICTIONARYVAR
  5
1B310
102
{ACAD_REACTORS
330
33A3
102
}
330
33A3
100
DictionaryVariables
280
     0
  1
Metric50
  0
DICTIONARYVAR
  5
1B311
102
{ACAD_REACTORS
330
33A3
102
}
330
33A3
100
DictionaryVariables
280
     0
  1
Metric50
  0
DICTIONARYVAR
  5
9BE8
102
{ACAD_REACTORS
330
33A3
102
}
330
33A3
100
DictionaryVariables
280
     0
  1
1
  0
DICTIONARYVAR
  5
9BE7
102
{ACAD_REACTORS
330
33A3
102
}
330
33A3
100
DictionaryVariables
280
     0
  1
0
  0
DICTIONARYVAR
  5
20993
102
{ACAD_REACTORS
330
33A3
102
}
330
33A3
100
DictionaryVariables
280
     0
  1
1
  0
DICTIONARYVAR
  5
20994
102
{ACAD_REACTORS
330
33A3
102
}
330
33A3
100
DictionaryVariables
280
     0
  1
15
  0
DICTIONARYVAR
  5
20992
102
{ACAD_REACTORS
330
33A3
102
}
330
33A3
100
DictionaryVariables
280
     0
  1
0
  0
DICTIONARYVAR
  5
20991
102
{ACAD_REACTORS
330
33A3
102
}
330
33A3
100
DictionaryVariables
280
     0
  1
0
  0
DICTIONARYVAR
  5
9BE6
102
{ACAD_REACTORS
330
33A3
102
}
330
33A3
100
DictionaryVariables
280
     0
  1
127
  0
DICTIONARY
  5
22162
330
20CB3
100
AcDbDictionary
280
     1
281
     1
  3
ACAD_XREC_ROUNDTRIP
360
22163
  0
DICTIONARY
  5
2215E
330
1B2F1
100
AcDbDictionary
280
     1
281
     1
  3
ACAD_XREC_ROUNDTRIP
360
2215F
  0
DICTIONARY
  5
1B22B
330
318D
100
AcDbDictionary
280
     1
281
     1
  3
ACAD_XREC_ROUNDTRIP
360
1B22C
  0
DICTIONARY
  5
1B22D
330
318C
100
AcDbDictionary
280
     1
281
     1
  3
ACAD_XREC_ROUNDTRIP
360
1B22E
  0
DICTIONARY
  5
1B22F
330
318E
100
AcDbDictionary
280
     1
281
     1
  3
ACAD_XREC_ROUNDTRIP
360
1B230
  0
DICTIONARY
  5
22160
330
20CB1
100
AcDbDictionary
280
     1
281
     1
  3
ACAD_XREC_ROUNDTRIP
360
22161
  0
DICTIONARY
  5
2215C
330
1B2EF
100
AcDbDictionary
280
     1
281
     1
  3
ACAD_XREC_ROUNDTRIP
360
2215D
  0
DICTIONARY
  5
1B314
330
31A2
100
AcDbDictionary
280
     1
281
     1
  3
ACAD_ROUNDTRIP_2008_TABLESTYLE_CELLSTYLEMAP
360
22126
  0
DICTIONARY
  5
22132
330
3195
100
AcDbDictionary
280
     1
281
     1
  3
ACAD_XREC_ROUNDTRIP
360
22133
  0
DICTIONARY
  5
22136
330
3197
100
AcDbDictionary
280
     1
281
     1
  3
ACAD_XREC_ROUNDTRIP
360
22137
  0
DICTIONARY
  5
22134
330
3196
100
AcDbDictionary
280
     1
281
     1
  3
ACAD_XREC_ROUNDTRIP
360
22135
  0
DICTIONARY
  5
22130
330
3194
100
AcDbDictionary
280
     1
281
     1
  3
ACAD_XREC_ROUNDTRIP
360
22131
  0
DICTIONARY
  5
2213E
330
319B
100
AcDbDictionary
280
     1
281
     1
  3
ACAD_XREC_ROUNDTRIP
360
2213F
  0
DICTIONARY
  5
22146
330
319F
100
AcDbDictionary
280
     1
281
     1
  3
ACAD_XREC_ROUNDTRIP
360
22147
  0
DICTIONARY
  5
22138
330
3198
100
AcDbDictionary
280
     1
281
     1
  3
ACAD_XREC_ROUNDTRIP
360
22139
  0
DICTIONARY
  5
2213C
330
319A
100
AcDbDictionary
280
     1
281
     1
  3
ACAD_XREC_ROUNDTRIP
360
2213D
  0
DICTIONARY
  5
2215A
330
1B2EC
100
AcDbDictionary
280
     1
281
     1
  3
ACAD_XREC_ROUNDTRIP
360
2215B
  0
DICTIONARY
  5
22144
330
319E
100
AcDbDictionary
280
     1
281
     1
  3
ACAD_XREC_ROUNDTRIP
360
22145
  0
DICTIONARY
  5
22128
330
3190
100
AcDbDictionary
280
     1
281
     1
  3
ACAD_XREC_ROUNDTRIP
360
22129
  0
DICTIONARY
  5
2212A
330
3191
100
AcDbDictionary
280
     1
281
     1
  3
ACAD_XREC_ROUNDTRIP
360
2212B
  0
DICTIONARY
  5
2212C
330
3192
100
AcDbDictionary
280
     1
281
     1
  3
ACAD_XREC_ROUNDTRIP
360
2212D
  0
DICTIONARY
  5
2212E
330
3193
100
AcDbDictionary
280
     1
281
     1
  3
ACAD_XREC_ROUNDTRIP
360
2212F
  0
DICTIONARY
  5
2214A
330
1B2E4
100
AcDbDictionary
280
     1
281
     1
  3
ACAD_XREC_ROUNDTRIP
360
2214B
  0
DICTIONARY
  5
22156
330
1B2EA
100
AcDbDictionary
280
     1
281
     1
  3
ACAD_XREC_ROUNDTRIP
360
22157
  0
DICTIONARY
  5
22142
330
319D
100
AcDbDictionary
280
     1
281
     1
  3
ACAD_XREC_ROUNDTRIP
360
22143
  0
DICTIONARY
  5
22158
330
1B2EB
100
AcDbDictionary
280
     1
281
     1
  3
ACAD_XREC_ROUNDTRIP
360
22159
  0
DICTIONARY
  5
2213A
330
3199
100
AcDbDictionary
280
     1
281
     1
  3
ACAD_XREC_ROUNDTRIP
360
2213B
  0
DICTIONARY
  5
22154
330
1B2E9
100
AcDbDictionary
280
     1
281
     1
  3
ACAD_XREC_ROUNDTRIP
360
22155
  0
DICTIONARY
  5
22152
330
1B2E8
100
AcDbDictionary
280
     1
281
     1
  3
ACAD_XREC_ROUNDTRIP
360
22153
  0
DICTIONARY
  5
2214C
330
1B2E5
100
AcDbDictionary
280
     1
281
     1
  3
ACAD_XREC_ROUNDTRIP
360
2214D
  0
DICTIONARY
  5
2214E
330
1B2E6
100
AcDbDictionary
280
     1
281
     1
  3
ACAD_XREC_ROUNDTRIP
360
2214F
  0
DICTIONARY
  5
22140
330
319C
100
AcDbDictionary
280
     1
281
     1
  3
ACAD_XREC_ROUNDTRIP
360
22141
  0
DICTIONARY
  5
22148
330
1B2E3
100
AcDbDictionary
280
     1
281
     1
  3
ACAD_XREC_ROUNDTRIP
360
22149
  0
DICTIONARY
  5
22150
330
1B2E7
100
AcDbDictionary
280
     1
281
     1
  3
ACAD_XREC_ROUNDTRIP
360
22151
  0
XRECORD
  5
22163
102
{ACAD_REACTORS
330
22162
102
}
330
22162
100
AcDbXrecord
280
     1
102
DISPLAYNAME
  1
Imperial24
102
FLAGS
 90
        0
  0
XRECORD
  5
2215F
102
{ACAD_REACTORS
330
2215E
102
}
330
2215E
100
AcDbXrecord
280
     1
102
DISPLAYNAME
  1
Metric50
102
FLAGS
 90
        0
  0
XRECORD
  5
1B22C
102
{ACAD_REACTORS
330
1B22B
102
}
330
1B22B
100
AcDbXrecord
280
     1
102
MATERIAL
148
0.0
149
0.0
149
0.0
 93
        0
 94
      127
282
     0
 72
     1
 77
     1
171
     1
175
     1
179
     1
273
     0
  0
XRECORD
  5
1B22E
102
{ACAD_REACTORS
330
1B22D
102
}
330
1B22D
100
AcDbXrecord
280
     1
102
MATERIAL
148
0.0
149
0.0
149
0.0
 93
        0
 94
      127
282
     0
 72
     1
 77
     1
171
     1
175
     1
179
     1
273
     0
  0
XRECORD
  5
1B230
102
{ACAD_REACTORS
330
1B22F
102
}
330
1B22F
100
AcDbXrecord
280
     1
102
MATERIAL
148
0.0
149
0.0
149
0.0
 93
        0
 94
      127
282
     0
 72
     1
 77
     1
171
     1
175
     1
179
     1
273
     0
  0
XRECORD
  5
22161
102
{ACAD_REACTORS
330
22160
102
}
330
22160
100
AcDbXrecord
280
     1
102
DISPLAYNAME
  1
Imperial24
102
FLAGS
 90
        0
  0
XRECORD
  5
2215D
102
{ACAD_REACTORS
330
2215C
102
}
330
2215C
100
AcDbXrecord
280
     1
102
DISPLAYNAME
  1
Metric50
102
FLAGS
 90
        0
  0
CELLSTYLEMAP
  5
22126
102
{ACAD_REACTORS
330
1B314
102
}
330
1B314
100
AcDbCellStyleMap
 90
        3
300
CELLSTYLE
  1
TABLEFORMAT_BEGIN
 90
        5
170
     1
 91
        0
 92
    32768
 62
   257
 93
        1
300
CONTENTFORMAT
  1
CONTENTFORMAT_BEGIN
 90
        0
 91
        0
 92
        4
 93
        0
300

 40
0.0
140
1.0
 94
        5
 62
     0
340
11
144
6.0
309
CONTENTFORMAT_END
171
     1
301
MARGIN
  1
CELLMARGIN_BEGIN
 40
1.5
 40
1.5
 40
1.5
 40
1.5
 40
0.18
 40
0.18
309
CELLMARGIN_END
 94
        6
 95
        1
302
GRIDFORMAT
  1
GRIDFORMAT_BEGIN
 90
        0
 91
        1
 62
     0
 92
       -2
340
0
 93
        0
 40
0.045
309
GRIDFORMAT_END
 95
        2
302
GRIDFORMAT
  1
GRIDFORMAT_BEGIN
 90
        0
 91
        1
 62
     0
 92
       -2
340
0
 93
        0
 40
0.045
309
GRIDFORMAT_END
 95
        4
302
GRIDFORMAT
  1
GRIDFORMAT_BEGIN
 90
        0
 91
        1
 62
     0
 92
       -2
340
0
 93
        0
 40
0.045
309
GRIDFORMAT_END
 95
        8
302
GRIDFORMAT
  1
GRIDFORMAT_BEGIN
 90
        0
 91
        1
 62
     0
 92
       -2
340
0
 93
        0
 40
0.045
309
GRIDFORMAT_END
 95
       16
302
GRIDFORMAT
  1
GRIDFORMAT_BEGIN
 90
        0
 91
        1
 62
     0
 92
       -2
340
0
 93
        0
 40
0.045
309
GRIDFORMAT_END
 95
       32
302
GRIDFORMAT
  1
GRIDFORMAT_BEGIN
 90
        0
 91
        1
 62
     0
 92
       -2
340
0
 93
        0
 40
0.045
309
GRIDFORMAT_END
309
TABLEFORMAT_END
  1
CELLSTYLE_BEGIN
 90
        1
 91
        1
300
_TITLE
309
CELLSTYLE_END
300
CELLSTYLE
  1
TABLEFORMAT_BEGIN
 90
        5
170
     1
 91
        0
 92
        0
 62
   257
 93
        1
300
CONTENTFORMAT
  1
CONTENTFORMAT_BEGIN
 90
        0
 91
        0
 92
        4
 93
        0
300

 40
0.0
140
1.0
 94
        5
 62
     0
340
11
144
4.5
309
CONTENTFORMAT_END
171
     1
301
MARGIN
  1
CELLMARGIN_BEGIN
 40
1.5
 40
1.5
 40
1.5
 40
1.5
 40
0.18
 40
0.18
309
CELLMARGIN_END
 94
        6
 95
        1
302
GRIDFORMAT
  1
GRIDFORMAT_BEGIN
 90
        0
 91
        1
 62
     0
 92
       -2
340
0
 93
        0
 40
0.045
309
GRIDFORMAT_END
 95
        2
302
GRIDFORMAT
  1
GRIDFORMAT_BEGIN
 90
        0
 91
        1
 62
     0
 92
       -2
340
0
 93
        0
 40
0.045
309
GRIDFORMAT_END
 95
        4
302
GRIDFORMAT
  1
GRIDFORMAT_BEGIN
 90
        0
 91
        1
 62
     0
 92
       -2
340
0
 93
        0
 40
0.045
309
GRIDFORMAT_END
 95
        8
302
GRIDFORMAT
  1
GRIDFORMAT_BEGIN
 90
        0
 91
        1
 62
     0
 92
       -2
340
0
 93
        0
 40
0.045
309
GRIDFORMAT_END
 95
       16
302
GRIDFORMAT
  1
GRIDFORMAT_BEGIN
 90
        0
 91
        1
 62
     0
 92
       -2
340
0
 93
        0
 40
0.045
309
GRIDFORMAT_END
 95
       32
302
GRIDFORMAT
  1
GRIDFORMAT_BEGIN
 90
        0
 91
        1
 62
     0
 92
       -2
340
0
 93
        0
 40
0.045
309
GRIDFORMAT_END
309
TABLEFORMAT_END
  1
CELLSTYLE_BEGIN
 90
        2
 91
        1
300
_HEADER
309
CELLSTYLE_END
300
CELLSTYLE
  1
TABLEFORMAT_BEGIN
 90
        5
170
     1
 91
        0
 92
        0
 62
   257
 93
        1
300
CONTENTFORMAT
  1
CONTENTFORMAT_BEGIN
 90
        0
 91
        0
 92
        4
 93
        0
300

 40
0.0
140
1.0
 94
        2
 62
     0
340
11
144
4.5
309
CONTENTFORMAT_END
171
     1
301
MARGIN
  1
CELLMARGIN_BEGIN
 40
1.5
 40
1.5
 40
1.5
 40
1.5
 40
0.18
 40
0.18
309
CELLMARGIN_END
 94
        6
 95
        1
302
GRIDFORMAT
  1
GRIDFORMAT_BEGIN
 90
        0
 91
        1
 62
     0
 92
       -2
340
0
 93
        0
 40
0.045
309
GRIDFORMAT_END
 95
        2
302
GRIDFORMAT
  1
GRIDFORMAT_BEGIN
 90
        0
 91
        1
 62
     0
 92
       -2
340
0
 93
        0
 40
0.045
309
GRIDFORMAT_END
 95
        4
302
GRIDFORMAT
  1
GRIDFORMAT_BEGIN
 90
        0
 91
        1
 62
     0
 92
       -2
340
0
 93
        0
 40
0.045
309
GRIDFORMAT_END
 95
        8
302
GRIDFORMAT
  1
GRIDFORMAT_BEGIN
 90
        0
 91
        1
 62
     0
 92
       -2
340
0
 93
        0
 40
0.045
309
GRIDFORMAT_END
 95
       16
302
GRIDFORMAT
  1
GRIDFORMAT_BEGIN
 90
        0
 91
        1
 62
     0
 92
       -2
340
0
 93
        0
 40
0.045
309
GRIDFORMAT_END
 95
       32
302
GRIDFORMAT
  1
GRIDFORMAT_BEGIN
 90
        0
 91
        1
 62
     0
 92
       -2
340
0
 93
        0
 40
0.045
309
GRIDFORMAT_END
309
TABLEFORMAT_END
  1
CELLSTYLE_BEGIN
 90
        3
 91
        2
300
_DATA
309
CELLSTYLE_END
  0
XRECORD
  5
22133
102
{ACAD_REACTORS
330
22132
102
}
330
22132
100
AcDbXrecord
280
     1
102
RTVSPost2010Prop28
280
     1
102
RTVSPost2010PropOp28
 70
     1
102
RTVSPost2010Prop29
280
     1
102
RTVSPost2010PropOp29
 70
     1
102
RTVSPost2010Prop30
280
     0
102
RTVSPost2010PropOp30
 70
     1
102
RTVSPost2010Prop31
280
     0
102
RTVSPost2010PropOp31
 70
     1
102
RTVSPost2010Prop32
280
     0
102
RTVSPost2010PropOp32
 70
     1
102
RTVSPost2010Prop33
280
     0
102
RTVSPost2010PropOp33
 70
     1
102
RTVSPost2010Prop34
280
     0
102
RTVSPost2010PropOp34
 70
     1
102
RTVSPost2010Prop35
280
     0
102
RTVSPost2010PropOp35
 70
     1
102
RTVSPost2010Prop36
280
     0
102
RTVSPost2010PropOp36
 70
     1
102
RTVSPost2010Prop37
 90
       50
102
RTVSPost2010PropOp37
 70
     1
102
RTVSPost2010Prop38
140
0.0
102
RTVSPost2010PropOp38
 70
     1
102
RTVSPost2010Prop39
140
1.0
102
RTVSPost2010PropOp39
 70
     1
102
RTVSPost2010Prop40
 90
        0
102
RTVSPost2010PropOp40
 70
     1
102
RTVSPost2010Prop41ColorIndex
 90
       18
102
RTVSPost2010Prop41ColorRGB
 90
        0
102
RTVSPost2010PropOp41
 70
     1
102
RTVSPost2010Prop42
 90
       50
102
RTVSPost2010PropOp42
 70
     1
102
RTVSPost2010Prop43
 90
        3
102
RTVSPost2010PropOp43
 70
     1
102
RTVSPost2010Prop44ColorIndex
 90
        5
102
RTVSPost2010Prop44ColorRGB
 90
      255
102
RTVSPost2010PropOp44
 70
     1
102
RTVSPost2010Prop45
280
     0
102
RTVSPost2010PropOp45
 70
     1
102
RTVSPost2010Prop46
 90
       50
102
RTVSPost2010PropOp46
 70
     1
102
RTVSPost2010Prop47
 90
       50
102
RTVSPost2010PropOp47
 70
     1
102
RTVSPost2010Prop48
 90
       50
102
RTVSPost2010PropOp48
 70
     1
102
RTVSPost2010Prop49
280
     0
102
RTVSPost2010PropOp49
 70
     1
102
RTVSPost2010Prop50
 90
       50
102
RTVSPost2010PropOp50
 70
     1
102
RTVSPost2010Prop51ColorIndex
 90
      256
102
RTVSPost2010Prop51ColorRGB
 90
-16777216
102
RTVSPost2010PropOp51
 70
     0
102
RTVSPost2010Prop52
140
1.0
102
RTVSPost2010PropOp52
 70
     0
102
RTVSPost2010Prop53
 90
        2
102
RTVSPost2010PropOp53
 70
     1
102
RTVSPost2010Prop54
  1
strokes_ogs.tif
102
RTVSPost2010PropOp54
 70
     1
102
RTVSPost2010Prop55
280
     0
102
RTVSPost2010PropOp55
 70
     1
102
RTVSPost2010Prop56
140
1.0
102
RTVSPost2010PropOp56
 70
     1
102
RTVSPost2010Prop57
140
1.0
102
RTVSPost2010PropOp57
 70
     1
  0
XRECORD
  5
22137
102
{ACAD_REACTORS
330
22136
102
}
330
22136
100
AcDbXrecord
280
     1
102
RTVSPost2010Prop28
280
     0
102
RTVSPost2010PropOp28
 70
     1
102
RTVSPost2010Prop29
280
     1
102
RTVSPost2010PropOp29
 70
     1
102
RTVSPost2010Prop30
280
     1
102
RTVSPost2010PropOp30
 70
     1
102
RTVSPost2010Prop31
280
     0
102
RTVSPost2010PropOp31
 70
     1
102
RTVSPost2010Prop32
280
     0
102
RTVSPost2010PropOp32
 70
     1
102
RTVSPost2010Prop33
280
     0
102
RTVSPost2010PropOp33
 70
     1
102
RTVSPost2010Prop34
280
     0
102
RTVSPost2010PropOp34
 70
     1
102
RTVSPost2010Prop35
280
     0
102
RTVSPost2010PropOp35
 70
     1
102
RTVSPost2010Prop36
280
     0
102
RTVSPost2010PropOp36
 70
     1
102
RTVSPost2010Prop37
 90
       50
102
RTVSPost2010PropOp37
 70
     1
102
RTVSPost2010Prop38
140
0.0
102
RTVSPost2010PropOp38
 70
     1
102
RTVSPost2010Prop39
140
1.0
102
RTVSPost2010PropOp39
 70
     1
102
RTVSPost2010Prop40
 90
        0
102
RTVSPost2010PropOp40
 70
     1
102
RTVSPost2010Prop41ColorIndex
 90
       18
102
RTVSPost2010Prop41ColorRGB
 90
        0
102
RTVSPost2010PropOp41
 70
     1
102
RTVSPost2010Prop42
 90
       50
102
RTVSPost2010PropOp42
 70
     1
102
RTVSPost2010Prop43
 90
        3
102
RTVSPost2010PropOp43
 70
     1
102
RTVSPost2010Prop44ColorIndex
 90
        5
102
RTVSPost2010Prop44ColorRGB
 90
      255
102
RTVSPost2010PropOp44
 70
     1
102
RTVSPost2010Prop45
280
     0
102
RTVSPost2010PropOp45
 70
     1
102
RTVSPost2010Prop46
 90
       50
102
RTVSPost2010PropOp46
 70
     1
102
RTVSPost2010Prop47
 90
       50
102
RTVSPost2010PropOp47
 70
     1
102
RTVSPost2010Prop48
 90
       50
102
RTVSPost2010PropOp48
 70
     1
102
RTVSPost2010Prop49
280
     0
102
RTVSPost2010PropOp49
 70
     1
102
RTVSPost2010Prop50
 90
       50
102
RTVSPost2010PropOp50
 70
     1
102
RTVSPost2010Prop51ColorIndex
 90
      256
102
RTVSPost2010Prop51ColorRGB
 90
-16777216
102
RTVSPost2010PropOp51
 70
     0
102
RTVSPost2010Prop52
140
1.0
102
RTVSPost2010PropOp52
 70
     0
102
RTVSPost2010Prop53
 90
        2
102
RTVSPost2010PropOp53
 70
     1
102
RTVSPost2010Prop54
  1
strokes_ogs.tif
102
RTVSPost2010PropOp54
 70
     1
102
RTVSPost2010Prop55
280
     0
102
RTVSPost2010PropOp55
 70
     1
102
RTVSPost2010Prop56
140
1.0
102
RTVSPost2010PropOp56
 70
     1
102
RTVSPost2010Prop57
140
1.0
102
RTVSPost2010PropOp57
 70
     1
  0
XRECORD
  5
22135
102
{ACAD_REACTORS
330
22134
102
}
330
22134
100
AcDbXrecord
280
     1
102
RTVSPost2010Prop28
280
     0
102
RTVSPost2010PropOp28
 70
     1
102
RTVSPost2010Prop29
280
     1
102
RTVSPost2010PropOp29
 70
     1
102
RTVSPost2010Prop30
280
     1
102
RTVSPost2010PropOp30
 70
     1
102
RTVSPost2010Prop31
280
     0
102
RTVSPost2010PropOp31
 70
     1
102
RTVSPost2010Prop32
280
     0
102
RTVSPost2010PropOp32
 70
     1
102
RTVSPost2010Prop33
280
     0
102
RTVSPost2010PropOp33
 70
     1
102
RTVSPost2010Prop34
280
     0
102
RTVSPost2010PropOp34
 70
     1
102
RTVSPost2010Prop35
280
     0
102
RTVSPost2010PropOp35
 70
     1
102
RTVSPost2010Prop36
280
     0
102
RTVSPost2010PropOp36
 70
     1
102
RTVSPost2010Prop37
 90
       50
102
RTVSPost2010PropOp37
 70
     1
102
RTVSPost2010Prop38
140
0.0
102
RTVSPost2010PropOp38
 70
     1
102
RTVSPost2010Prop39
140
1.0
102
RTVSPost2010PropOp39
 70
     1
102
RTVSPost2010Prop40
 90
        0
102
RTVSPost2010PropOp40
 70
     1
102
RTVSPost2010Prop41ColorIndex
 90
       18
102
RTVSPost2010Prop41ColorRGB
 90
        0
102
RTVSPost2010PropOp41
 70
     1
102
RTVSPost2010Prop42
 90
       50
102
RTVSPost2010PropOp42
 70
     1
102
RTVSPost2010Prop43
 90
        3
102
RTVSPost2010PropOp43
 70
     1
102
RTVSPost2010Prop44ColorIndex
 90
        5
102
RTVSPost2010Prop44ColorRGB
 90
      255
102
RTVSPost2010PropOp44
 70
     1
102
RTVSPost2010Prop45
280
     0
102
RTVSPost2010PropOp45
 70
     1
102
RTVSPost2010Prop46
 90
       50
102
RTVSPost2010PropOp46
 70
     1
102
RTVSPost2010Prop47
 90
       50
102
RTVSPost2010PropOp47
 70
     1
102
RTVSPost2010Prop48
 90
       50
102
RTVSPost2010PropOp48
 70
     1
102
RTVSPost2010Prop49
280
     0
102
RTVSPost2010PropOp49
 70
     1
102
RTVSPost2010Prop50
 90
       50
102
RTVSPost2010PropOp50
 70
     1
102
RTVSPost2010Prop51ColorIndex
 90
      256
102
RTVSPost2010Prop51ColorRGB
 90
-16777216
102
RTVSPost2010PropOp51
 70
     0
102
RTVSPost2010Prop52
140
1.0
102
RTVSPost2010PropOp52
 70
     0
102
RTVSPost2010Prop53
 90
        2
102
RTVSPost2010PropOp53
 70
     1
102
RTVSPost2010Prop54
  1
strokes_ogs.tif
102
RTVSPost2010PropOp54
 70
     1
102
RTVSPost2010Prop55
280
     0
102
RTVSPost2010PropOp55
 70
     1
102
RTVSPost2010Prop56
140
1.0
102
RTVSPost2010PropOp56
 70
     1
102
RTVSPost2010Prop57
140
1.0
102
RTVSPost2010PropOp57
 70
     1
  0
XRECORD
  5
22131
102
{ACAD_REACTORS
330
22130
102
}
330
22130
100
AcDbXrecord
280
     1
102
RTVSPost2010Prop28
280
     0
102
RTVSPost2010PropOp28
 70
     1
102
RTVSPost2010Prop29
280
     1
102
RTVSPost2010PropOp29
 70
     1
102
RTVSPost2010Prop30
280
     1
102
RTVSPost2010PropOp30
 70
     1
102
RTVSPost2010Prop31
280
     0
102
RTVSPost2010PropOp31
 70
     1
102
RTVSPost2010Prop32
280
     0
102
RTVSPost2010PropOp32
 70
     1
102
RTVSPost2010Prop33
280
     0
102
RTVSPost2010PropOp33
 70
     1
102
RTVSPost2010Prop34
280
     0
102
RTVSPost2010PropOp34
 70
     1
102
RTVSPost2010Prop35
280
     0
102
RTVSPost2010PropOp35
 70
     1
102
RTVSPost2010Prop36
280
     0
102
RTVSPost2010PropOp36
 70
     1
102
RTVSPost2010Prop37
 90
       50
102
RTVSPost2010PropOp37
 70
     1
102
RTVSPost2010Prop38
140
0.0
102
RTVSPost2010PropOp38
 70
     1
102
RTVSPost2010Prop39
140
1.0
102
RTVSPost2010PropOp39
 70
     1
102
RTVSPost2010Prop40
 90
        0
102
RTVSPost2010PropOp40
 70
     1
102
RTVSPost2010Prop41ColorIndex
 90
       18
102
RTVSPost2010Prop41ColorRGB
 90
        0
102
RTVSPost2010PropOp41
 70
     1
102
RTVSPost2010Prop42
 90
       50
102
RTVSPost2010PropOp42
 70
     1
102
RTVSPost2010Prop43
 90
        3
102
RTVSPost2010PropOp43
 70
     1
102
RTVSPost2010Prop44ColorIndex
 90
        5
102
RTVSPost2010Prop44ColorRGB
 90
      255
102
RTVSPost2010PropOp44
 70
     1
102
RTVSPost2010Prop45
280
     0
102
RTVSPost2010PropOp45
 70
     1
102
RTVSPost2010Prop46
 90
       50
102
RTVSPost2010PropOp46
 70
     1
102
RTVSPost2010Prop47
 90
       50
102
RTVSPost2010PropOp47
 70
     1
102
RTVSPost2010Prop48
 90
       50
102
RTVSPost2010PropOp48
 70
     1
102
RTVSPost2010Prop49
280
     0
102
RTVSPost2010PropOp49
 70
     1
102
RTVSPost2010Prop50
 90
       50
102
RTVSPost2010PropOp50
 70
     1
102
RTVSPost2010Prop51ColorIndex
 90
      256
102
RTVSPost2010Prop51ColorRGB
 90
-16777216
102
RTVSPost2010PropOp51
 70
     0
102
RTVSPost2010Prop52
140
1.0
102
RTVSPost2010PropOp52
 70
     0
102
RTVSPost2010Prop53
 90
        2
102
RTVSPost2010PropOp53
 70
     1
102
RTVSPost2010Prop54
  1
strokes_ogs.tif
102
RTVSPost2010PropOp54
 70
     1
102
RTVSPost2010Prop55
280
     0
102
RTVSPost2010PropOp55
 70
     1
102
RTVSPost2010Prop56
140
1.0
102
RTVSPost2010PropOp56
 70
     1
102
RTVSPost2010Prop57
140
1.0
102
RTVSPost2010PropOp57
 70
     1
  0
XRECORD
  5
2213F
102
{ACAD_REACTORS
330
2213E
102
}
330
2213E
100
AcDbXrecord
280
     1
102
RTVSPost2010Prop28
280
     0
102
RTVSPost2010PropOp28
 70
     1
102
RTVSPost2010Prop29
280
     1
102
RTVSPost2010PropOp29
 70
     1
102
RTVSPost2010Prop30
280
     1
102
RTVSPost2010PropOp30
 70
     1
102
RTVSPost2010Prop31
280
     0
102
RTVSPost2010PropOp31
 70
     1
102
RTVSPost2010Prop32
280
     0
102
RTVSPost2010PropOp32
 70
     1
102
RTVSPost2010Prop33
280
     0
102
RTVSPost2010PropOp33
 70
     1
102
RTVSPost2010Prop34
280
     0
102
RTVSPost2010PropOp34
 70
     1
102
RTVSPost2010Prop35
280
     0
102
RTVSPost2010PropOp35
 70
     1
102
RTVSPost2010Prop36
280
     0
102
RTVSPost2010PropOp36
 70
     1
102
RTVSPost2010Prop37
 90
       50
102
RTVSPost2010PropOp37
 70
     1
102
RTVSPost2010Prop38
140
0.0
102
RTVSPost2010PropOp38
 70
     1
102
RTVSPost2010Prop39
140
1.0
102
RTVSPost2010PropOp39
 70
     1
102
RTVSPost2010Prop40
 90
        0
102
RTVSPost2010PropOp40
 70
     1
102
RTVSPost2010Prop41ColorIndex
 90
       18
102
RTVSPost2010Prop41ColorRGB
 90
        0
102
RTVSPost2010PropOp41
 70
     1
102
RTVSPost2010Prop42
 90
       50
102
RTVSPost2010PropOp42
 70
     1
102
RTVSPost2010Prop43
 90
        3
102
RTVSPost2010PropOp43
 70
     1
102
RTVSPost2010Prop44ColorIndex
 90
        5
102
RTVSPost2010Prop44ColorRGB
 90
      255
102
RTVSPost2010PropOp44
 70
     1
102
RTVSPost2010Prop45
280
     0
102
RTVSPost2010PropOp45
 70
     1
102
RTVSPost2010Prop46
 90
       50
102
RTVSPost2010PropOp46
 70
     1
102
RTVSPost2010Prop47
 90
       50
102
RTVSPost2010PropOp47
 70
     1
102
RTVSPost2010Prop48
 90
       50
102
RTVSPost2010PropOp48
 70
     1
102
RTVSPost2010Prop49
280
     0
102
RTVSPost2010PropOp49
 70
     1
102
RTVSPost2010Prop50
 90
       50
102
RTVSPost2010PropOp50
 70
     1
102
RTVSPost2010Prop51ColorIndex
 90
      256
102
RTVSPost2010Prop51ColorRGB
 90
-16777216
102
RTVSPost2010PropOp51
 70
     0
102
RTVSPost2010Prop52
140
1.0
102
RTVSPost2010PropOp52
 70
     0
102
RTVSPost2010Prop53
 90
        2
102
RTVSPost2010PropOp53
 70
     1
102
RTVSPost2010Prop54
  1
strokes_ogs.tif
102
RTVSPost2010PropOp54
 70
     1
102
RTVSPost2010Prop55
280
     0
102
RTVSPost2010PropOp55
 70
     1
102
RTVSPost2010Prop56
140
1.0
102
RTVSPost2010PropOp56
 70
     1
102
RTVSPost2010Prop57
140
1.0
102
RTVSPost2010PropOp57
 70
     1
  0
XRECORD
  5
22147
102
{ACAD_REACTORS
330
22146
102
}
330
22146
100
AcDbXrecord
280
     1
102
RTVSPost2010Prop28
280
     0
102
RTVSPost2010PropOp28
 70
     1
102
RTVSPost2010Prop29
280
     1
102
RTVSPost2010PropOp29
 70
     1
102
RTVSPost2010Prop30
280
     1
102
RTVSPost2010PropOp30
 70
     1
102
RTVSPost2010Prop31
280
     0
102
RTVSPost2010PropOp31
 70
     1
102
RTVSPost2010Prop32
280
     0
102
RTVSPost2010PropOp32
 70
     1
102
RTVSPost2010Prop33
280
     0
102
RTVSPost2010PropOp33
 70
     1
102
RTVSPost2010Prop34
280
     0
102
RTVSPost2010PropOp34
 70
     1
102
RTVSPost2010Prop35
280
     0
102
RTVSPost2010PropOp35
 70
     1
102
RTVSPost2010Prop36
280
     0
102
RTVSPost2010PropOp36
 70
     1
102
RTVSPost2010Prop37
 90
       50
102
RTVSPost2010PropOp37
 70
     1
102
RTVSPost2010Prop38
140
0.0
102
RTVSPost2010PropOp38
 70
     1
102
RTVSPost2010Prop39
140
1.0
102
RTVSPost2010PropOp39
 70
     1
102
RTVSPost2010Prop40
 90
        0
102
RTVSPost2010PropOp40
 70
     1
102
RTVSPost2010Prop41ColorIndex
 90
       18
102
RTVSPost2010Prop41ColorRGB
 90
        0
102
RTVSPost2010PropOp41
 70
     1
102
RTVSPost2010Prop42
 90
       50
102
RTVSPost2010PropOp42
 70
     1
102
RTVSPost2010Prop43
 90
        3
102
RTVSPost2010PropOp43
 70
     1
102
RTVSPost2010Prop44ColorIndex
 90
        5
102
RTVSPost2010Prop44ColorRGB
 90
      255
102
RTVSPost2010PropOp44
 70
     1
102
RTVSPost2010Prop45
280
     0
102
RTVSPost2010PropOp45
 70
     1
102
RTVSPost2010Prop46
 90
       50
102
RTVSPost2010PropOp46
 70
     1
102
RTVSPost2010Prop47
 90
       50
102
RTVSPost2010PropOp47
 70
     1
102
RTVSPost2010Prop48
 90
       50
102
RTVSPost2010PropOp48
 70
     1
102
RTVSPost2010Prop49
280
     0
102
RTVSPost2010PropOp49
 70
     1
102
RTVSPost2010Prop50
 90
       50
102
RTVSPost2010PropOp50
 70
     1
102
RTVSPost2010Prop51ColorIndex
 90
      256
102
RTVSPost2010Prop51ColorRGB
 90
-16777216
102
RTVSPost2010PropOp51
 70
     0
102
RTVSPost2010Prop52
140
1.0
102
RTVSPost2010PropOp52
 70
     0
102
RTVSPost2010Prop53
 90
        2
102
RTVSPost2010PropOp53
 70
     1
102
RTVSPost2010Prop54
  1
strokes_ogs.tif
102
RTVSPost2010PropOp54
 70
     1
102
RTVSPost2010Prop55
280
     0
102
RTVSPost2010PropOp55
 70
     1
102
RTVSPost2010Prop56
140
1.0
102
RTVSPost2010PropOp56
 70
     1
102
RTVSPost2010Prop57
140
1.0
102
RTVSPost2010PropOp57
 70
     1
  0
XRECORD
  5
22139
102
{ACAD_REACTORS
330
22138
102
}
330
22138
100
AcDbXrecord
280
     1
102
RTVSPost2010Prop28
280
     0
102
RTVSPost2010PropOp28
 70
     1
102
RTVSPost2010Prop29
280
     1
102
RTVSPost2010PropOp29
 70
     1
102
RTVSPost2010Prop30
280
     1
102
RTVSPost2010PropOp30
 70
     1
102
RTVSPost2010Prop31
280
     0
102
RTVSPost2010PropOp31
 70
     1
102
RTVSPost2010Prop32
280
     0
102
RTVSPost2010PropOp32
 70
     1
102
RTVSPost2010Prop33
280
     0
102
RTVSPost2010PropOp33
 70
     1
102
RTVSPost2010Prop34
280
     0
102
RTVSPost2010PropOp34
 70
     1
102
RTVSPost2010Prop35
280
     0
102
RTVSPost2010PropOp35
 70
     1
102
RTVSPost2010Prop36
280
     0
102
RTVSPost2010PropOp36
 70
     1
102
RTVSPost2010Prop37
 90
       50
102
RTVSPost2010PropOp37
 70
     1
102
RTVSPost2010Prop38
140
0.0
102
RTVSPost2010PropOp38
 70
     1
102
RTVSPost2010Prop39
140
1.0
102
RTVSPost2010PropOp39
 70
     1
102
RTVSPost2010Prop40
 90
        0
102
RTVSPost2010PropOp40
 70
     1
102
RTVSPost2010Prop41ColorIndex
 90
       18
102
RTVSPost2010Prop41ColorRGB
 90
        0
102
RTVSPost2010PropOp41
 70
     1
102
RTVSPost2010Prop42
 90
       50
102
RTVSPost2010PropOp42
 70
     1
102
RTVSPost2010Prop43
 90
        3
102
RTVSPost2010PropOp43
 70
     1
102
RTVSPost2010Prop44ColorIndex
 90
        5
102
RTVSPost2010Prop44ColorRGB
 90
      255
102
RTVSPost2010PropOp44
 70
     1
102
RTVSPost2010Prop45
280
     0
102
RTVSPost2010PropOp45
 70
     1
102
RTVSPost2010Prop46
 90
       50
102
RTVSPost2010PropOp46
 70
     1
102
RTVSPost2010Prop47
 90
       50
102
RTVSPost2010PropOp47
 70
     1
102
RTVSPost2010Prop48
 90
       50
102
RTVSPost2010PropOp48
 70
     1
102
RTVSPost2010Prop49
280
     0
102
RTVSPost2010PropOp49
 70
     1
102
RTVSPost2010Prop50
 90
       50
102
RTVSPost2010PropOp50
 70
     1
102
RTVSPost2010Prop51ColorIndex
 90
      256
102
RTVSPost2010Prop51ColorRGB
 90
-16777216
102
RTVSPost2010PropOp51
 70
     0
102
RTVSPost2010Prop52
140
1.0
102
RTVSPost2010PropOp52
 70
     0
102
RTVSPost2010Prop53
 90
        2
102
RTVSPost2010PropOp53
 70
     1
102
RTVSPost2010Prop54
  1
strokes_ogs.tif
102
RTVSPost2010PropOp54
 70
     1
102
RTVSPost2010Prop55
280
     0
102
RTVSPost2010PropOp55
 70
     1
102
RTVSPost2010Prop56
140
1.0
102
RTVSPost2010PropOp56
 70
     1
102
RTVSPost2010Prop57
140
1.0
102
RTVSPost2010PropOp57
 70
     1
  0
XRECORD
  5
2213D
102
{ACAD_REACTORS
330
2213C
102
}
330
2213C
100
AcDbXrecord
280
     1
102
RTVSPost2010Prop28
280
     0
102
RTVSPost2010PropOp28
 70
     1
102
RTVSPost2010Prop29
280
     1
102
RTVSPost2010PropOp29
 70
     1
102
RTVSPost2010Prop30
280
     1
102
RTVSPost2010PropOp30
 70
     1
102
RTVSPost2010Prop31
280
     0
102
RTVSPost2010PropOp31
 70
     1
102
RTVSPost2010Prop32
280
     0
102
RTVSPost2010PropOp32
 70
     1
102
RTVSPost2010Prop33
280
     0
102
RTVSPost2010PropOp33
 70
     1
102
RTVSPost2010Prop34
280
     0
102
RTVSPost2010PropOp34
 70
     1
102
RTVSPost2010Prop35
280
     0
102
RTVSPost2010PropOp35
 70
     1
102
RTVSPost2010Prop36
280
     0
102
RTVSPost2010PropOp36
 70
     1
102
RTVSPost2010Prop37
 90
       50
102
RTVSPost2010PropOp37
 70
     1
102
RTVSPost2010Prop38
140
0.0
102
RTVSPost2010PropOp38
 70
     1
102
RTVSPost2010Prop39
140
1.0
102
RTVSPost2010PropOp39
 70
     1
102
RTVSPost2010Prop40
 90
        0
102
RTVSPost2010PropOp40
 70
     1
102
RTVSPost2010Prop41ColorIndex
 90
       18
102
RTVSPost2010Prop41ColorRGB
 90
        0
102
RTVSPost2010PropOp41
 70
     1
102
RTVSPost2010Prop42
 90
       50
102
RTVSPost2010PropOp42
 70
     1
102
RTVSPost2010Prop43
 90
        3
102
RTVSPost2010PropOp43
 70
     1
102
RTVSPost2010Prop44ColorIndex
 90
        5
102
RTVSPost2010Prop44ColorRGB
 90
      255
102
RTVSPost2010PropOp44
 70
     1
102
RTVSPost2010Prop45
280
     0
102
RTVSPost2010PropOp45
 70
     1
102
RTVSPost2010Prop46
 90
       50
102
RTVSPost2010PropOp46
 70
     1
102
RTVSPost2010Prop47
 90
       50
102
RTVSPost2010PropOp47
 70
     1
102
RTVSPost2010Prop48
 90
       50
102
RTVSPost2010PropOp48
 70
     1
102
RTVSPost2010Prop49
280
     0
102
RTVSPost2010PropOp49
 70
     1
102
RTVSPost2010Prop50
 90
       50
102
RTVSPost2010PropOp50
 70
     1
102
RTVSPost2010Prop51ColorIndex
 90
      256
102
RTVSPost2010Prop51ColorRGB
 90
-16777216
102
RTVSPost2010PropOp51
 70
     0
102
RTVSPost2010Prop52
140
1.0
102
RTVSPost2010PropOp52
 70
     0
102
RTVSPost2010Prop53
 90
        2
102
RTVSPost2010PropOp53
 70
     1
102
RTVSPost2010Prop54
  1
strokes_ogs.tif
102
RTVSPost2010PropOp54
 70
     1
102
RTVSPost2010Prop55
280
     0
102
RTVSPost2010PropOp55
 70
     1
102
RTVSPost2010Prop56
140
1.0
102
RTVSPost2010PropOp56
 70
     1
102
RTVSPost2010Prop57
140
1.0
102
RTVSPost2010PropOp57
 70
     1
  0
XRECORD
  5
2215B
102
{ACAD_REACTORS
330
2215A
102
}
330
2215A
100
AcDbXrecord
280
     1
102
RTVSPost2010Prop28
280
     0
102
RTVSPost2010PropOp28
 70
     1
102
RTVSPost2010Prop29
280
     1
102
RTVSPost2010PropOp29
 70
     1
102
RTVSPost2010Prop30
280
     1
102
RTVSPost2010PropOp30
 70
     1
102
RTVSPost2010Prop31
280
     0
102
RTVSPost2010PropOp31
 70
     1
102
RTVSPost2010Prop32
280
     0
102
RTVSPost2010PropOp32
 70
     1
102
RTVSPost2010Prop33
280
     0
102
RTVSPost2010PropOp33
 70
     1
102
RTVSPost2010Prop34
280
     0
102
RTVSPost2010PropOp34
 70
     1
102
RTVSPost2010Prop35
280
     0
102
RTVSPost2010PropOp35
 70
     1
102
RTVSPost2010Prop36
280
     0
102
RTVSPost2010PropOp36
 70
     1
102
RTVSPost2010Prop37
 90
       50
102
RTVSPost2010PropOp37
 70
     0
102
RTVSPost2010Prop38
140
0.0
102
RTVSPost2010PropOp38
 70
     0
102
RTVSPost2010Prop39
140
1.0
102
RTVSPost2010PropOp39
 70
     0
102
RTVSPost2010Prop40
 90
        0
102
RTVSPost2010PropOp40
 70
     0
102
RTVSPost2010Prop41ColorIndex
 90
       18
102
RTVSPost2010Prop41ColorRGB
 90
        0
102
RTVSPost2010PropOp41
 70
     0
102
RTVSPost2010Prop42
 90
       50
102
RTVSPost2010PropOp42
 70
     0
102
RTVSPost2010Prop43
 90
        3
102
RTVSPost2010PropOp43
 70
     0
102
RTVSPost2010Prop44ColorIndex
 90
        5
102
RTVSPost2010Prop44ColorRGB
 90
      255
102
RTVSPost2010PropOp44
 70
     0
102
RTVSPost2010Prop45
280
     0
102
RTVSPost2010PropOp45
 70
     1
102
RTVSPost2010Prop46
 90
       50
102
RTVSPost2010PropOp46
 70
     0
102
RTVSPost2010Prop47
 90
       50
102
RTVSPost2010PropOp47
 70
     0
102
RTVSPost2010Prop48
 90
       50
102
RTVSPost2010PropOp48
 70
     0
102
RTVSPost2010Prop49
280
     0
102
RTVSPost2010PropOp49
 70
     1
102
RTVSPost2010Prop50
 90
       50
102
RTVSPost2010PropOp50
 70
     0
102
RTVSPost2010Prop51ColorIndex
 90
      256
102
RTVSPost2010Prop51ColorRGB
 90
-16777216
102
RTVSPost2010PropOp51
 70
     0
102
RTVSPost2010Prop52
140
1.0
102
RTVSPost2010PropOp52
 70
     0
102
RTVSPost2010Prop53
 90
        2
102
RTVSPost2010PropOp53
 70
     0
102
RTVSPost2010Prop54
  1
strokes_ogs.tif
102
RTVSPost2010PropOp54
 70
     0
102
RTVSPost2010Prop55
280
     0
102
RTVSPost2010PropOp55
 70
     1
102
RTVSPost2010Prop56
140
1.0
102
RTVSPost2010PropOp56
 70
     0
102
RTVSPost2010Prop57
140
1.0
102
RTVSPost2010PropOp57
 70
     0
  0
XRECORD
  5
22145
102
{ACAD_REACTORS
330
22144
102
}
330
22144
100
AcDbXrecord
280
     1
102
RTVSPost2010Prop28
280
     0
102
RTVSPost2010PropOp28
 70
     1
102
RTVSPost2010Prop29
280
     1
102
RTVSPost2010PropOp29
 70
     1
102
RTVSPost2010Prop30
280
     1
102
RTVSPost2010PropOp30
 70
     1
102
RTVSPost2010Prop31
280
     0
102
RTVSPost2010PropOp31
 70
     1
102
RTVSPost2010Prop32
280
     0
102
RTVSPost2010PropOp32
 70
     1
102
RTVSPost2010Prop33
280
     0
102
RTVSPost2010PropOp33
 70
     1
102
RTVSPost2010Prop34
280
     0
102
RTVSPost2010PropOp34
 70
     1
102
RTVSPost2010Prop35
280
     0
102
RTVSPost2010PropOp35
 70
     1
102
RTVSPost2010Prop36
280
     0
102
RTVSPost2010PropOp36
 70
     1
102
RTVSPost2010Prop37
 90
       50
102
RTVSPost2010PropOp37
 70
     1
102
RTVSPost2010Prop38
140
0.0
102
RTVSPost2010PropOp38
 70
     1
102
RTVSPost2010Prop39
140
1.0
102
RTVSPost2010PropOp39
 70
     1
102
RTVSPost2010Prop40
 90
        0
102
RTVSPost2010PropOp40
 70
     1
102
RTVSPost2010Prop41ColorIndex
 90
       18
102
RTVSPost2010Prop41ColorRGB
 90
        0
102
RTVSPost2010PropOp41
 70
     1
102
RTVSPost2010Prop42
 90
       50
102
RTVSPost2010PropOp42
 70
     1
102
RTVSPost2010Prop43
 90
        3
102
RTVSPost2010PropOp43
 70
     1
102
RTVSPost2010Prop44ColorIndex
 90
        5
102
RTVSPost2010Prop44ColorRGB
 90
      255
102
RTVSPost2010PropOp44
 70
     1
102
RTVSPost2010Prop45
280
     0
102
RTVSPost2010PropOp45
 70
     1
102
RTVSPost2010Prop46
 90
       50
102
RTVSPost2010PropOp46
 70
     1
102
RTVSPost2010Prop47
 90
       50
102
RTVSPost2010PropOp47
 70
     1
102
RTVSPost2010Prop48
 90
       50
102
RTVSPost2010PropOp48
 70
     1
102
RTVSPost2010Prop49
280
     0
102
RTVSPost2010PropOp49
 70
     1
102
RTVSPost2010Prop50
 90
       50
102
RTVSPost2010PropOp50
 70
     1
102
RTVSPost2010Prop51ColorIndex
 90
      256
102
RTVSPost2010Prop51ColorRGB
 90
-16777216
102
RTVSPost2010PropOp51
 70
     0
102
RTVSPost2010Prop52
140
1.0
102
RTVSPost2010PropOp52
 70
     0
102
RTVSPost2010Prop53
 90
        2
102
RTVSPost2010PropOp53
 70
     1
102
RTVSPost2010Prop54
  1
strokes_ogs.tif
102
RTVSPost2010PropOp54
 70
     1
102
RTVSPost2010Prop55
280
     0
102
RTVSPost2010PropOp55
 70
     1
102
RTVSPost2010Prop56
140
1.0
102
RTVSPost2010PropOp56
 70
     1
102
RTVSPost2010Prop57
140
1.0
102
RTVSPost2010PropOp57
 70
     1
  0
XRECORD
  5
22129
102
{ACAD_REACTORS
330
22128
102
}
330
22128
100
AcDbXrecord
280
     1
102
RTVSPost2010Prop28
280
     0
102
RTVSPost2010PropOp28
 70
     1
102
RTVSPost2010Prop29
280
     1
102
RTVSPost2010PropOp29
 70
     1
102
RTVSPost2010Prop30
280
     1
102
RTVSPost2010PropOp30
 70
     1
102
RTVSPost2010Prop31
280
     0
102
RTVSPost2010PropOp31
 70
     1
102
RTVSPost2010Prop32
280
     0
102
RTVSPost2010PropOp32
 70
     1
102
RTVSPost2010Prop33
280
     0
102
RTVSPost2010PropOp33
 70
     1
102
RTVSPost2010Prop34
280
     0
102
RTVSPost2010PropOp34
 70
     1
102
RTVSPost2010Prop35
280
     0
102
RTVSPost2010PropOp35
 70
     1
102
RTVSPost2010Prop36
280
     0
102
RTVSPost2010PropOp36
 70
     1
102
RTVSPost2010Prop37
 90
       50
102
RTVSPost2010PropOp37
 70
     1
102
RTVSPost2010Prop38
140
0.0
102
RTVSPost2010PropOp38
 70
     1
102
RTVSPost2010Prop39
140
1.0
102
RTVSPost2010PropOp39
 70
     1
102
RTVSPost2010Prop40
 90
        0
102
RTVSPost2010PropOp40
 70
     1
102
RTVSPost2010Prop41ColorIndex
 90
       18
102
RTVSPost2010Prop41ColorRGB
 90
        0
102
RTVSPost2010PropOp41
 70
     1
102
RTVSPost2010Prop42
 90
       50
102
RTVSPost2010PropOp42
 70
     1
102
RTVSPost2010Prop43
 90
        3
102
RTVSPost2010PropOp43
 70
     1
102
RTVSPost2010Prop44ColorIndex
 90
        5
102
RTVSPost2010Prop44ColorRGB
 90
      255
102
RTVSPost2010PropOp44
 70
     1
102
RTVSPost2010Prop45
280
     0
102
RTVSPost2010PropOp45
 70
     1
102
RTVSPost2010Prop46
 90
       50
102
RTVSPost2010PropOp46
 70
     1
102
RTVSPost2010Prop47
 90
       50
102
RTVSPost2010PropOp47
 70
     1
102
RTVSPost2010Prop48
 90
       50
102
RTVSPost2010PropOp48
 70
     1
102
RTVSPost2010Prop49
280
     0
102
RTVSPost2010PropOp49
 70
     1
102
RTVSPost2010Prop50
 90
       50
102
RTVSPost2010PropOp50
 70
     1
102
RTVSPost2010Prop51ColorIndex
 90
      256
102
RTVSPost2010Prop51ColorRGB
 90
-16777216
102
RTVSPost2010PropOp51
 70
     0
102
RTVSPost2010Prop52
140
1.0
102
RTVSPost2010PropOp52
 70
     0
102
RTVSPost2010Prop53
 90
        2
102
RTVSPost2010PropOp53
 70
     1
102
RTVSPost2010Prop54
  1
strokes_ogs.tif
102
RTVSPost2010PropOp54
 70
     1
102
RTVSPost2010Prop55
280
     0
102
RTVSPost2010PropOp55
 70
     1
102
RTVSPost2010Prop56
140
1.0
102
RTVSPost2010PropOp56
 70
     1
102
RTVSPost2010Prop57
140
1.0
102
RTVSPost2010PropOp57
 70
     1
  0
XRECORD
  5
2212B
102
{ACAD_REACTORS
330
2212A
102
}
330
2212A
100
AcDbXrecord
280
     1
102
RTVSPost2010Prop28
280
     0
102
RTVSPost2010PropOp28
 70
     1
102
RTVSPost2010Prop29
280
     1
102
RTVSPost2010PropOp29
 70
     1
102
RTVSPost2010Prop30
280
     1
102
RTVSPost2010PropOp30
 70
     1
102
RTVSPost2010Prop31
280
     0
102
RTVSPost2010PropOp31
 70
     1
102
RTVSPost2010Prop32
280
     0
102
RTVSPost2010PropOp32
 70
     1
102
RTVSPost2010Prop33
280
     0
102
RTVSPost2010PropOp33
 70
     1
102
RTVSPost2010Prop34
280
     0
102
RTVSPost2010PropOp34
 70
     1
102
RTVSPost2010Prop35
280
     0
102
RTVSPost2010PropOp35
 70
     1
102
RTVSPost2010Prop36
280
     0
102
RTVSPost2010PropOp36
 70
     1
102
RTVSPost2010Prop37
 90
       50
102
RTVSPost2010PropOp37
 70
     1
102
RTVSPost2010Prop38
140
0.0
102
RTVSPost2010PropOp38
 70
     1
102
RTVSPost2010Prop39
140
1.0
102
RTVSPost2010PropOp39
 70
     1
102
RTVSPost2010Prop40
 90
        0
102
RTVSPost2010PropOp40
 70
     1
102
RTVSPost2010Prop41ColorIndex
 90
       18
102
RTVSPost2010Prop41ColorRGB
 90
        0
102
RTVSPost2010PropOp41
 70
     1
102
RTVSPost2010Prop42
 90
       50
102
RTVSPost2010PropOp42
 70
     1
102
RTVSPost2010Prop43
 90
        3
102
RTVSPost2010PropOp43
 70
     1
102
RTVSPost2010Prop44ColorIndex
 90
        5
102
RTVSPost2010Prop44ColorRGB
 90
      255
102
RTVSPost2010PropOp44
 70
     1
102
RTVSPost2010Prop45
280
     0
102
RTVSPost2010PropOp45
 70
     1
102
RTVSPost2010Prop46
 90
       50
102
RTVSPost2010PropOp46
 70
     1
102
RTVSPost2010Prop47
 90
       50
102
RTVSPost2010PropOp47
 70
     1
102
RTVSPost2010Prop48
 90
       50
102
RTVSPost2010PropOp48
 70
     1
102
RTVSPost2010Prop49
280
     0
102
RTVSPost2010PropOp49
 70
     1
102
RTVSPost2010Prop50
 90
       50
102
RTVSPost2010PropOp50
 70
     1
102
RTVSPost2010Prop51ColorIndex
 90
      256
102
RTVSPost2010Prop51ColorRGB
 90
-16777216
102
RTVSPost2010PropOp51
 70
     0
102
RTVSPost2010Prop52
140
1.0
102
RTVSPost2010PropOp52
 70
     0
102
RTVSPost2010Prop53
 90
        2
102
RTVSPost2010PropOp53
 70
     1
102
RTVSPost2010Prop54
  1
strokes_ogs.tif
102
RTVSPost2010PropOp54
 70
     1
102
RTVSPost2010Prop55
280
     0
102
RTVSPost2010PropOp55
 70
     1
102
RTVSPost2010Prop56
140
1.0
102
RTVSPost2010PropOp56
 70
     1
102
RTVSPost2010Prop57
140
1.0
102
RTVSPost2010PropOp57
 70
     1
  0
XRECORD
  5
2212D
102
{ACAD_REACTORS
330
2212C
102
}
330
2212C
100
AcDbXrecord
280
     1
102
RTVSPost2010Prop28
280
     0
102
RTVSPost2010PropOp28
 70
     1
102
RTVSPost2010Prop29
280
     1
102
RTVSPost2010PropOp29
 70
     1
102
RTVSPost2010Prop30
280
     1
102
RTVSPost2010PropOp30
 70
     1
102
RTVSPost2010Prop31
280
     0
102
RTVSPost2010PropOp31
 70
     1
102
RTVSPost2010Prop32
280
     0
102
RTVSPost2010PropOp32
 70
     1
102
RTVSPost2010Prop33
280
     0
102
RTVSPost2010PropOp33
 70
     1
102
RTVSPost2010Prop34
280
     0
102
RTVSPost2010PropOp34
 70
     1
102
RTVSPost2010Prop35
280
     0
102
RTVSPost2010PropOp35
 70
     1
102
RTVSPost2010Prop36
280
     0
102
RTVSPost2010PropOp36
 70
     1
102
RTVSPost2010Prop37
 90
       50
102
RTVSPost2010PropOp37
 70
     1
102
RTVSPost2010Prop38
140
0.0
102
RTVSPost2010PropOp38
 70
     1
102
RTVSPost2010Prop39
140
1.0
102
RTVSPost2010PropOp39
 70
     1
102
RTVSPost2010Prop40
 90
        0
102
RTVSPost2010PropOp40
 70
     1
102
RTVSPost2010Prop41ColorIndex
 90
       18
102
RTVSPost2010Prop41ColorRGB
 90
        0
102
RTVSPost2010PropOp41
 70
     1
102
RTVSPost2010Prop42
 90
       50
102
RTVSPost2010PropOp42
 70
     1
102
RTVSPost2010Prop43
 90
        3
102
RTVSPost2010PropOp43
 70
     1
102
RTVSPost2010Prop44ColorIndex
 90
        5
102
RTVSPost2010Prop44ColorRGB
 90
      255
102
RTVSPost2010PropOp44
 70
     1
102
RTVSPost2010Prop45
280
     0
102
RTVSPost2010PropOp45
 70
     1
102
RTVSPost2010Prop46
 90
       50
102
RTVSPost2010PropOp46
 70
     1
102
RTVSPost2010Prop47
 90
       50
102
RTVSPost2010PropOp47
 70
     1
102
RTVSPost2010Prop48
 90
       50
102
RTVSPost2010PropOp48
 70
     1
102
RTVSPost2010Prop49
280
     0
102
RTVSPost2010PropOp49
 70
     1
102
RTVSPost2010Prop50
 90
       50
102
RTVSPost2010PropOp50
 70
     1
102
RTVSPost2010Prop51ColorIndex
 90
      256
102
RTVSPost2010Prop51ColorRGB
 90
-16777216
102
RTVSPost2010PropOp51
 70
     0
102
RTVSPost2010Prop52
140
1.0
102
RTVSPost2010PropOp52
 70
     0
102
RTVSPost2010Prop53
 90
        2
102
RTVSPost2010PropOp53
 70
     1
102
RTVSPost2010Prop54
  1
strokes_ogs.tif
102
RTVSPost2010PropOp54
 70
     1
102
RTVSPost2010Prop55
280
     0
102
RTVSPost2010PropOp55
 70
     1
102
RTVSPost2010Prop56
140
1.0
102
RTVSPost2010PropOp56
 70
     1
102
RTVSPost2010Prop57
140
1.0
102
RTVSPost2010PropOp57
 70
     1
  0
XRECORD
  5
2212F
102
{ACAD_REACTORS
330
2212E
102
}
330
2212E
100
AcDbXrecord
280
     1
102
RTVSPost2010Prop28
280
     0
102
RTVSPost2010PropOp28
 70
     1
102
RTVSPost2010Prop29
280
     1
102
RTVSPost2010PropOp29
 70
     1
102
RTVSPost2010Prop30
280
     1
102
RTVSPost2010PropOp30
 70
     1
102
RTVSPost2010Prop31
280
     0
102
RTVSPost2010PropOp31
 70
     1
102
RTVSPost2010Prop32
280
     0
102
RTVSPost2010PropOp32
 70
     1
102
RTVSPost2010Prop33
280
     0
102
RTVSPost2010PropOp33
 70
     1
102
RTVSPost2010Prop34
280
     0
102
RTVSPost2010PropOp34
 70
     1
102
RTVSPost2010Prop35
280
     0
102
RTVSPost2010PropOp35
 70
     1
102
RTVSPost2010Prop36
280
     0
102
RTVSPost2010PropOp36
 70
     1
102
RTVSPost2010Prop37
 90
       50
102
RTVSPost2010PropOp37
 70
     1
102
RTVSPost2010Prop38
140
0.0
102
RTVSPost2010PropOp38
 70
     1
102
RTVSPost2010Prop39
140
1.0
102
RTVSPost2010PropOp39
 70
     1
102
RTVSPost2010Prop40
 90
        0
102
RTVSPost2010PropOp40
 70
     1
102
RTVSPost2010Prop41ColorIndex
 90
       18
102
RTVSPost2010Prop41ColorRGB
 90
        0
102
RTVSPost2010PropOp41
 70
     1
102
RTVSPost2010Prop42
 90
       50
102
RTVSPost2010PropOp42
 70
     1
102
RTVSPost2010Prop43
 90
        3
102
RTVSPost2010PropOp43
 70
     1
102
RTVSPost2010Prop44ColorIndex
 90
        5
102
RTVSPost2010Prop44ColorRGB
 90
      255
102
RTVSPost2010PropOp44
 70
     1
102
RTVSPost2010Prop45
280
     0
102
RTVSPost2010PropOp45
 70
     1
102
RTVSPost2010Prop46
 90
       50
102
RTVSPost2010PropOp46
 70
     1
102
RTVSPost2010Prop47
 90
       50
102
RTVSPost2010PropOp47
 70
     1
102
RTVSPost2010Prop48
 90
       50
102
RTVSPost2010PropOp48
 70
     1
102
RTVSPost2010Prop49
280
     0
102
RTVSPost2010PropOp49
 70
     1
102
RTVSPost2010Prop50
 90
       50
102
RTVSPost2010PropOp50
 70
     1
102
RTVSPost2010Prop51ColorIndex
 90
      256
102
RTVSPost2010Prop51ColorRGB
 90
-16777216
102
RTVSPost2010PropOp51
 70
     0
102
RTVSPost2010Prop52
140
1.0
102
RTVSPost2010PropOp52
 70
     0
102
RTVSPost2010Prop53
 90
        2
102
RTVSPost2010PropOp53
 70
     1
102
RTVSPost2010Prop54
  1
strokes_ogs.tif
102
RTVSPost2010PropOp54
 70
     1
102
RTVSPost2010Prop55
280
     0
102
RTVSPost2010PropOp55
 70
     1
102
RTVSPost2010Prop56
140
1.0
102
RTVSPost2010PropOp56
 70
     1
102
RTVSPost2010Prop57
140
1.0
102
RTVSPost2010PropOp57
 70
     1
  0
XRECORD
  5
2214B
102
{ACAD_REACTORS
330
2214A
102
}
330
2214A
100
AcDbXrecord
280
     1
102
RTVSPost2010Prop28
280
     0
102
RTVSPost2010PropOp28
 70
     1
102
RTVSPost2010Prop29
280
     1
102
RTVSPost2010PropOp29
 70
     1
102
RTVSPost2010Prop30
280
     1
102
RTVSPost2010PropOp30
 70
     1
102
RTVSPost2010Prop31
280
     0
102
RTVSPost2010PropOp31
 70
     1
102
RTVSPost2010Prop32
280
     0
102
RTVSPost2010PropOp32
 70
     1
102
RTVSPost2010Prop33
280
     0
102
RTVSPost2010PropOp33
 70
     1
102
RTVSPost2010Prop34
280
     0
102
RTVSPost2010PropOp34
 70
     1
102
RTVSPost2010Prop35
280
     0
102
RTVSPost2010PropOp35
 70
     1
102
RTVSPost2010Prop36
280
     0
102
RTVSPost2010PropOp36
 70
     1
102
RTVSPost2010Prop37
 90
       50
102
RTVSPost2010PropOp37
 70
     1
102
RTVSPost2010Prop38
140
0.0
102
RTVSPost2010PropOp38
 70
     1
102
RTVSPost2010Prop39
140
1.0
102
RTVSPost2010PropOp39
 70
     1
102
RTVSPost2010Prop40
 90
        0
102
RTVSPost2010PropOp40
 70
     1
102
RTVSPost2010Prop41ColorIndex
 90
       18
102
RTVSPost2010Prop41ColorRGB
 90
        0
102
RTVSPost2010PropOp41
 70
     1
102
RTVSPost2010Prop42
 90
       50
102
RTVSPost2010PropOp42
 70
     1
102
RTVSPost2010Prop43
 90
        3
102
RTVSPost2010PropOp43
 70
     1
102
RTVSPost2010Prop44ColorIndex
 90
        5
102
RTVSPost2010Prop44ColorRGB
 90
      255
102
RTVSPost2010PropOp44
 70
     1
102
RTVSPost2010Prop45
280
     0
102
RTVSPost2010PropOp45
 70
     1
102
RTVSPost2010Prop46
 90
       50
102
RTVSPost2010PropOp46
 70
     1
102
RTVSPost2010Prop47
 90
       50
102
RTVSPost2010PropOp47
 70
     1
102
RTVSPost2010Prop48
 90
       50
102
RTVSPost2010PropOp48
 70
     1
102
RTVSPost2010Prop49
280
     0
102
RTVSPost2010PropOp49
 70
     1
102
RTVSPost2010Prop50
 90
       50
102
RTVSPost2010PropOp50
 70
     1
102
RTVSPost2010Prop51ColorIndex
 90
      256
102
RTVSPost2010Prop51ColorRGB
 90
-16777216
102
RTVSPost2010PropOp51
 70
     0
102
RTVSPost2010Prop52
140
1.0
102
RTVSPost2010PropOp52
 70
     0
102
RTVSPost2010Prop53
 90
        2
102
RTVSPost2010PropOp53
 70
     1
102
RTVSPost2010Prop54
  1
strokes_ogs.tif
102
RTVSPost2010PropOp54
 70
     1
102
RTVSPost2010Prop55
280
     0
102
RTVSPost2010PropOp55
 70
     1
102
RTVSPost2010Prop56
140
1.0
102
RTVSPost2010PropOp56
 70
     1
102
RTVSPost2010Prop57
140
1.0
102
RTVSPost2010PropOp57
 70
     1
  0
XRECORD
  5
22157
102
{ACAD_REACTORS
330
22156
102
}
330
22156
100
AcDbXrecord
280
     1
102
RTVSPost2010Prop28
280
     0
102
RTVSPost2010PropOp28
 70
     1
102
RTVSPost2010Prop29
280
     1
102
RTVSPost2010PropOp29
 70
     1
102
RTVSPost2010Prop30
280
     1
102
RTVSPost2010PropOp30
 70
     1
102
RTVSPost2010Prop31
280
     0
102
RTVSPost2010PropOp31
 70
     1
102
RTVSPost2010Prop32
280
     0
102
RTVSPost2010PropOp32
 70
     1
102
RTVSPost2010Prop33
280
     0
102
RTVSPost2010PropOp33
 70
     1
102
RTVSPost2010Prop34
280
     0
102
RTVSPost2010PropOp34
 70
     1
102
RTVSPost2010Prop35
280
     0
102
RTVSPost2010PropOp35
 70
     1
102
RTVSPost2010Prop36
280
     0
102
RTVSPost2010PropOp36
 70
     1
102
RTVSPost2010Prop37
 90
       50
102
RTVSPost2010PropOp37
 70
     0
102
RTVSPost2010Prop38
140
0.0
102
RTVSPost2010PropOp38
 70
     0
102
RTVSPost2010Prop39
140
1.0
102
RTVSPost2010PropOp39
 70
     0
102
RTVSPost2010Prop40
 90
        0
102
RTVSPost2010PropOp40
 70
     0
102
RTVSPost2010Prop41ColorIndex
 90
       18
102
RTVSPost2010Prop41ColorRGB
 90
        0
102
RTVSPost2010PropOp41
 70
     0
102
RTVSPost2010Prop42
 90
       50
102
RTVSPost2010PropOp42
 70
     0
102
RTVSPost2010Prop43
 90
        3
102
RTVSPost2010PropOp43
 70
     0
102
RTVSPost2010Prop44ColorIndex
 90
        5
102
RTVSPost2010Prop44ColorRGB
 90
      255
102
RTVSPost2010PropOp44
 70
     0
102
RTVSPost2010Prop45
280
     0
102
RTVSPost2010PropOp45
 70
     1
102
RTVSPost2010Prop46
 90
       50
102
RTVSPost2010PropOp46
 70
     0
102
RTVSPost2010Prop47
 90
       50
102
RTVSPost2010PropOp47
 70
     0
102
RTVSPost2010Prop48
 90
       50
102
RTVSPost2010PropOp48
 70
     0
102
RTVSPost2010Prop49
280
     0
102
RTVSPost2010PropOp49
 70
     1
102
RTVSPost2010Prop50
 90
       50
102
RTVSPost2010PropOp50
 70
     0
102
RTVSPost2010Prop51ColorIndex
 90
      256
102
RTVSPost2010Prop51ColorRGB
 90
-16777216
102
RTVSPost2010PropOp51
 70
     0
102
RTVSPost2010Prop52
140
1.0
102
RTVSPost2010PropOp52
 70
     0
102
RTVSPost2010Prop53
 90
        2
102
RTVSPost2010PropOp53
 70
     0
102
RTVSPost2010Prop54
  1
strokes_ogs.tif
102
RTVSPost2010PropOp54
 70
     0
102
RTVSPost2010Prop55
280
     0
102
RTVSPost2010PropOp55
 70
     1
102
RTVSPost2010Prop56
140
1.0
102
RTVSPost2010PropOp56
 70
     0
102
RTVSPost2010Prop57
140
1.0
102
RTVSPost2010PropOp57
 70
     0
  0
XRECORD
  5
22143
102
{ACAD_REACTORS
330
22142
102
}
330
22142
100
AcDbXrecord
280
     1
102
RTVSPost2010Prop28
280
     0
102
RTVSPost2010PropOp28
 70
     1
102
RTVSPost2010Prop29
280
     1
102
RTVSPost2010PropOp29
 70
     1
102
RTVSPost2010Prop30
280
     1
102
RTVSPost2010PropOp30
 70
     1
102
RTVSPost2010Prop31
280
     0
102
RTVSPost2010PropOp31
 70
     1
102
RTVSPost2010Prop32
280
     0
102
RTVSPost2010PropOp32
 70
     1
102
RTVSPost2010Prop33
280
     0
102
RTVSPost2010PropOp33
 70
     1
102
RTVSPost2010Prop34
280
     0
102
RTVSPost2010PropOp34
 70
     1
102
RTVSPost2010Prop35
280
     0
102
RTVSPost2010PropOp35
 70
     1
102
RTVSPost2010Prop36
280
     0
102
RTVSPost2010PropOp36
 70
     1
102
RTVSPost2010Prop37
 90
       50
102
RTVSPost2010PropOp37
 70
     1
102
RTVSPost2010Prop38
140
0.0
102
RTVSPost2010PropOp38
 70
     1
102
RTVSPost2010Prop39
140
1.0
102
RTVSPost2010PropOp39
 70
     1
102
RTVSPost2010Prop40
 90
        0
102
RTVSPost2010PropOp40
 70
     1
102
RTVSPost2010Prop41ColorIndex
 90
       18
102
RTVSPost2010Prop41ColorRGB
 90
        0
102
RTVSPost2010PropOp41
 70
     1
102
RTVSPost2010Prop42
 90
       50
102
RTVSPost2010PropOp42
 70
     1
102
RTVSPost2010Prop43
 90
        3
102
RTVSPost2010PropOp43
 70
     1
102
RTVSPost2010Prop44ColorIndex
 90
        5
102
RTVSPost2010Prop44ColorRGB
 90
      255
102
RTVSPost2010PropOp44
 70
     1
102
RTVSPost2010Prop45
280
     0
102
RTVSPost2010PropOp45
 70
     1
102
RTVSPost2010Prop46
 90
       50
102
RTVSPost2010PropOp46
 70
     1
102
RTVSPost2010Prop47
 90
       50
102
RTVSPost2010PropOp47
 70
     1
102
RTVSPost2010Prop48
 90
       50
102
RTVSPost2010PropOp48
 70
     1
102
RTVSPost2010Prop49
280
     0
102
RTVSPost2010PropOp49
 70
     1
102
RTVSPost2010Prop50
 90
       50
102
RTVSPost2010PropOp50
 70
     1
102
RTVSPost2010Prop51ColorIndex
 90
      256
102
RTVSPost2010Prop51ColorRGB
 90
-16777216
102
RTVSPost2010PropOp51
 70
     0
102
RTVSPost2010Prop52
140
1.0
102
RTVSPost2010PropOp52
 70
     0
102
RTVSPost2010Prop53
 90
        2
102
RTVSPost2010PropOp53
 70
     1
102
RTVSPost2010Prop54
  1
strokes_ogs.tif
102
RTVSPost2010PropOp54
 70
     1
102
RTVSPost2010Prop55
280
     0
102
RTVSPost2010PropOp55
 70
     1
102
RTVSPost2010Prop56
140
1.0
102
RTVSPost2010PropOp56
 70
     1
102
RTVSPost2010Prop57
140
1.0
102
RTVSPost2010PropOp57
 70
     1
  0
XRECORD
  5
22159
102
{ACAD_REACTORS
330
22158
102
}
330
22158
100
AcDbXrecord
280
     1
102
RTVSPost2010Prop28
280
     0
102
RTVSPost2010PropOp28
 70
     1
102
RTVSPost2010Prop29
280
     1
102
RTVSPost2010PropOp29
 70
     1
102
RTVSPost2010Prop30
280
     1
102
RTVSPost2010PropOp30
 70
     1
102
RTVSPost2010Prop31
280
     0
102
RTVSPost2010PropOp31
 70
     1
102
RTVSPost2010Prop32
280
     0
102
RTVSPost2010PropOp32
 70
     1
102
RTVSPost2010Prop33
280
     0
102
RTVSPost2010PropOp33
 70
     1
102
RTVSPost2010Prop34
280
     0
102
RTVSPost2010PropOp34
 70
     1
102
RTVSPost2010Prop35
280
     0
102
RTVSPost2010PropOp35
 70
     1
102
RTVSPost2010Prop36
280
     0
102
RTVSPost2010PropOp36
 70
     1
102
RTVSPost2010Prop37
 90
       50
102
RTVSPost2010PropOp37
 70
     0
102
RTVSPost2010Prop38
140
0.0
102
RTVSPost2010PropOp38
 70
     0
102
RTVSPost2010Prop39
140
1.0
102
RTVSPost2010PropOp39
 70
     0
102
RTVSPost2010Prop40
 90
        0
102
RTVSPost2010PropOp40
 70
     0
102
RTVSPost2010Prop41ColorIndex
 90
       18
102
RTVSPost2010Prop41ColorRGB
 90
        0
102
RTVSPost2010PropOp41
 70
     0
102
RTVSPost2010Prop42
 90
       50
102
RTVSPost2010PropOp42
 70
     0
102
RTVSPost2010Prop43
 90
        3
102
RTVSPost2010PropOp43
 70
     0
102
RTVSPost2010Prop44ColorIndex
 90
        5
102
RTVSPost2010Prop44ColorRGB
 90
      255
102
RTVSPost2010PropOp44
 70
     0
102
RTVSPost2010Prop45
280
     0
102
RTVSPost2010PropOp45
 70
     1
102
RTVSPost2010Prop46
 90
       50
102
RTVSPost2010PropOp46
 70
     0
102
RTVSPost2010Prop47
 90
       50
102
RTVSPost2010PropOp47
 70
     0
102
RTVSPost2010Prop48
 90
       50
102
RTVSPost2010PropOp48
 70
     0
102
RTVSPost2010Prop49
280
     0
102
RTVSPost2010PropOp49
 70
     1
102
RTVSPost2010Prop50
 90
       50
102
RTVSPost2010PropOp50
 70
     0
102
RTVSPost2010Prop51ColorIndex
 90
      256
102
RTVSPost2010Prop51ColorRGB
 90
-16777216
102
RTVSPost2010PropOp51
 70
     0
102
RTVSPost2010Prop52
140
1.0
102
RTVSPost2010PropOp52
 70
     0
102
RTVSPost2010Prop53
 90
        2
102
RTVSPost2010PropOp53
 70
     0
102
RTVSPost2010Prop54
  1
strokes_ogs.tif
102
RTVSPost2010PropOp54
 70
     0
102
RTVSPost2010Prop55
280
     0
102
RTVSPost2010PropOp55
 70
     1
102
RTVSPost2010Prop56
140
1.0
102
RTVSPost2010PropOp56
 70
     0
102
RTVSPost2010Prop57
140
1.0
102
RTVSPost2010PropOp57
 70
     0
  0
XRECORD
  5
2213B
102
{ACAD_REACTORS
330
2213A
102
}
330
2213A
100
AcDbXrecord
280
     1
102
RTVSPost2010Prop28
280
     0
102
RTVSPost2010PropOp28
 70
     1
102
RTVSPost2010Prop29
280
     1
102
RTVSPost2010PropOp29
 70
     1
102
RTVSPost2010Prop30
280
     1
102
RTVSPost2010PropOp30
 70
     1
102
RTVSPost2010Prop31
280
     0
102
RTVSPost2010PropOp31
 70
     1
102
RTVSPost2010Prop32
280
     0
102
RTVSPost2010PropOp32
 70
     1
102
RTVSPost2010Prop33
280
     0
102
RTVSPost2010PropOp33
 70
     1
102
RTVSPost2010Prop34
280
     0
102
RTVSPost2010PropOp34
 70
     1
102
RTVSPost2010Prop35
280
     0
102
RTVSPost2010PropOp35
 70
     1
102
RTVSPost2010Prop36
280
     0
102
RTVSPost2010PropOp36
 70
     1
102
RTVSPost2010Prop37
 90
       50
102
RTVSPost2010PropOp37
 70
     1
102
RTVSPost2010Prop38
140
0.0
102
RTVSPost2010PropOp38
 70
     1
102
RTVSPost2010Prop39
140
1.0
102
RTVSPost2010PropOp39
 70
     1
102
RTVSPost2010Prop40
 90
        0
102
RTVSPost2010PropOp40
 70
     1
102
RTVSPost2010Prop41ColorIndex
 90
       18
102
RTVSPost2010Prop41ColorRGB
 90
        0
102
RTVSPost2010PropOp41
 70
     1
102
RTVSPost2010Prop42
 90
       50
102
RTVSPost2010PropOp42
 70
     1
102
RTVSPost2010Prop43
 90
        3
102
RTVSPost2010PropOp43
 70
     1
102
RTVSPost2010Prop44ColorIndex
 90
        5
102
RTVSPost2010Prop44ColorRGB
 90
      255
102
RTVSPost2010PropOp44
 70
     1
102
RTVSPost2010Prop45
280
     0
102
RTVSPost2010PropOp45
 70
     1
102
RTVSPost2010Prop46
 90
       50
102
RTVSPost2010PropOp46
 70
     1
102
RTVSPost2010Prop47
 90
       50
102
RTVSPost2010PropOp47
 70
     1
102
RTVSPost2010Prop48
 90
       50
102
RTVSPost2010PropOp48
 70
     1
102
RTVSPost2010Prop49
280
     0
102
RTVSPost2010PropOp49
 70
     1
102
RTVSPost2010Prop50
 90
       50
102
RTVSPost2010PropOp50
 70
     1
102
RTVSPost2010Prop51ColorIndex
 90
      256
102
RTVSPost2010Prop51ColorRGB
 90
-16777216
102
RTVSPost2010PropOp51
 70
     0
102
RTVSPost2010Prop52
140
1.0
102
RTVSPost2010PropOp52
 70
     0
102
RTVSPost2010Prop53
 90
        2
102
RTVSPost2010PropOp53
 70
     1
102
RTVSPost2010Prop54
  1
strokes_ogs.tif
102
RTVSPost2010PropOp54
 70
     1
102
RTVSPost2010Prop55
280
     0
102
RTVSPost2010PropOp55
 70
     1
102
RTVSPost2010Prop56
140
1.0
102
RTVSPost2010PropOp56
 70
     1
102
RTVSPost2010Prop57
140
1.0
102
RTVSPost2010PropOp57
 70
     1
  0
XRECORD
  5
22155
102
{ACAD_REACTORS
330
22154
102
}
330
22154
100
AcDbXrecord
280
     1
102
RTVSPost2010Prop28
280
     0
102
RTVSPost2010PropOp28
 70
     1
102
RTVSPost2010Prop29
280
     1
102
RTVSPost2010PropOp29
 70
     1
102
RTVSPost2010Prop30
280
     1
102
RTVSPost2010PropOp30
 70
     1
102
RTVSPost2010Prop31
280
     0
102
RTVSPost2010PropOp31
 70
     1
102
RTVSPost2010Prop32
280
     0
102
RTVSPost2010PropOp32
 70
     1
102
RTVSPost2010Prop33
280
     0
102
RTVSPost2010PropOp33
 70
     1
102
RTVSPost2010Prop34
280
     0
102
RTVSPost2010PropOp34
 70
     1
102
RTVSPost2010Prop35
280
     0
102
RTVSPost2010PropOp35
 70
     1
102
RTVSPost2010Prop36
280
     0
102
RTVSPost2010PropOp36
 70
     1
102
RTVSPost2010Prop37
 90
       50
102
RTVSPost2010PropOp37
 70
     1
102
RTVSPost2010Prop38
140
0.0
102
RTVSPost2010PropOp38
 70
     1
102
RTVSPost2010Prop39
140
1.0
102
RTVSPost2010PropOp39
 70
     1
102
RTVSPost2010Prop40
 90
        0
102
RTVSPost2010PropOp40
 70
     1
102
RTVSPost2010Prop41ColorIndex
 90
       18
102
RTVSPost2010Prop41ColorRGB
 90
        0
102
RTVSPost2010PropOp41
 70
     1
102
RTVSPost2010Prop42
 90
       50
102
RTVSPost2010PropOp42
 70
     1
102
RTVSPost2010Prop43
 90
        3
102
RTVSPost2010PropOp43
 70
     1
102
RTVSPost2010Prop44ColorIndex
 90
        5
102
RTVSPost2010Prop44ColorRGB
 90
      255
102
RTVSPost2010PropOp44
 70
     1
102
RTVSPost2010Prop45
280
     0
102
RTVSPost2010PropOp45
 70
     1
102
RTVSPost2010Prop46
 90
       50
102
RTVSPost2010PropOp46
 70
     1
102
RTVSPost2010Prop47
 90
       50
102
RTVSPost2010PropOp47
 70
     1
102
RTVSPost2010Prop48
 90
       50
102
RTVSPost2010PropOp48
 70
     1
102
RTVSPost2010Prop49
280
     0
102
RTVSPost2010PropOp49
 70
     1
102
RTVSPost2010Prop50
 90
       50
102
RTVSPost2010PropOp50
 70
     1
102
RTVSPost2010Prop51ColorIndex
 90
      256
102
RTVSPost2010Prop51ColorRGB
 90
-16777216
102
RTVSPost2010PropOp51
 70
     0
102
RTVSPost2010Prop52
140
1.0
102
RTVSPost2010PropOp52
 70
     0
102
RTVSPost2010Prop53
 90
        2
102
RTVSPost2010PropOp53
 70
     1
102
RTVSPost2010Prop54
  1
strokes_ogs.tif
102
RTVSPost2010PropOp54
 70
     1
102
RTVSPost2010Prop55
280
     0
102
RTVSPost2010PropOp55
 70
     1
102
RTVSPost2010Prop56
140
1.0
102
RTVSPost2010PropOp56
 70
     1
102
RTVSPost2010Prop57
140
1.0
102
RTVSPost2010PropOp57
 70
     1
  0
XRECORD
  5
22153
102
{ACAD_REACTORS
330
22152
102
}
330
22152
100
AcDbXrecord
280
     1
102
RTVSPost2010Prop28
280
     0
102
RTVSPost2010PropOp28
 70
     1
102
RTVSPost2010Prop29
280
     1
102
RTVSPost2010PropOp29
 70
     1
102
RTVSPost2010Prop30
280
     1
102
RTVSPost2010PropOp30
 70
     1
102
RTVSPost2010Prop31
280
     0
102
RTVSPost2010PropOp31
 70
     1
102
RTVSPost2010Prop32
280
     0
102
RTVSPost2010PropOp32
 70
     1
102
RTVSPost2010Prop33
280
     0
102
RTVSPost2010PropOp33
 70
     1
102
RTVSPost2010Prop34
280
     0
102
RTVSPost2010PropOp34
 70
     1
102
RTVSPost2010Prop35
280
     0
102
RTVSPost2010PropOp35
 70
     1
102
RTVSPost2010Prop36
280
     0
102
RTVSPost2010PropOp36
 70
     1
102
RTVSPost2010Prop37
 90
       50
102
RTVSPost2010PropOp37
 70
     1
102
RTVSPost2010Prop38
140
0.0
102
RTVSPost2010PropOp38
 70
     1
102
RTVSPost2010Prop39
140
1.0
102
RTVSPost2010PropOp39
 70
     1
102
RTVSPost2010Prop40
 90
        0
102
RTVSPost2010PropOp40
 70
     1
102
RTVSPost2010Prop41ColorIndex
 90
       18
102
RTVSPost2010Prop41ColorRGB
 90
        0
102
RTVSPost2010PropOp41
 70
     1
102
RTVSPost2010Prop42
 90
       50
102
RTVSPost2010PropOp42
 70
     1
102
RTVSPost2010Prop43
 90
        3
102
RTVSPost2010PropOp43
 70
     1
102
RTVSPost2010Prop44ColorIndex
 90
        5
102
RTVSPost2010Prop44ColorRGB
 90
      255
102
RTVSPost2010PropOp44
 70
     1
102
RTVSPost2010Prop45
280
     0
102
RTVSPost2010PropOp45
 70
     1
102
RTVSPost2010Prop46
 90
       50
102
RTVSPost2010PropOp46
 70
     1
102
RTVSPost2010Prop47
 90
       50
102
RTVSPost2010PropOp47
 70
     1
102
RTVSPost2010Prop48
 90
       50
102
RTVSPost2010PropOp48
 70
     1
102
RTVSPost2010Prop49
280
     0
102
RTVSPost2010PropOp49
 70
     1
102
RTVSPost2010Prop50
 90
       50
102
RTVSPost2010PropOp50
 70
     1
102
RTVSPost2010Prop51ColorIndex
 90
      256
102
RTVSPost2010Prop51ColorRGB
 90
-16777216
102
RTVSPost2010PropOp51
 70
     0
102
RTVSPost2010Prop52
140
1.0
102
RTVSPost2010PropOp52
 70
     0
102
RTVSPost2010Prop53
 90
        2
102
RTVSPost2010PropOp53
 70
     1
102
RTVSPost2010Prop54
  1
strokes_ogs.tif
102
RTVSPost2010PropOp54
 70
     1
102
RTVSPost2010Prop55
280
     0
102
RTVSPost2010PropOp55
 70
     1
102
RTVSPost2010Prop56
140
1.0
102
RTVSPost2010PropOp56
 70
     1
102
RTVSPost2010Prop57
140
1.0
102
RTVSPost2010PropOp57
 70
     1
  0
XRECORD
  5
2214D
102
{ACAD_REACTORS
330
2214C
102
}
330
2214C
100
AcDbXrecord
280
     1
102
RTVSPost2010Prop28
280
     0
102
RTVSPost2010PropOp28
 70
     1
102
RTVSPost2010Prop29
280
     1
102
RTVSPost2010PropOp29
 70
     1
102
RTVSPost2010Prop30
280
     1
102
RTVSPost2010PropOp30
 70
     1
102
RTVSPost2010Prop31
280
     0
102
RTVSPost2010PropOp31
 70
     1
102
RTVSPost2010Prop32
280
     0
102
RTVSPost2010PropOp32
 70
     1
102
RTVSPost2010Prop33
280
     0
102
RTVSPost2010PropOp33
 70
     1
102
RTVSPost2010Prop34
280
     0
102
RTVSPost2010PropOp34
 70
     1
102
RTVSPost2010Prop35
280
     0
102
RTVSPost2010PropOp35
 70
     1
102
RTVSPost2010Prop36
280
     0
102
RTVSPost2010PropOp36
 70
     1
102
RTVSPost2010Prop37
 90
       50
102
RTVSPost2010PropOp37
 70
     1
102
RTVSPost2010Prop38
140
0.0
102
RTVSPost2010PropOp38
 70
     1
102
RTVSPost2010Prop39
140
1.0
102
RTVSPost2010PropOp39
 70
     1
102
RTVSPost2010Prop40
 90
        0
102
RTVSPost2010PropOp40
 70
     1
102
RTVSPost2010Prop41ColorIndex
 90
       18
102
RTVSPost2010Prop41ColorRGB
 90
        0
102
RTVSPost2010PropOp41
 70
     1
102
RTVSPost2010Prop42
 90
       50
102
RTVSPost2010PropOp42
 70
     1
102
RTVSPost2010Prop43
 90
        3
102
RTVSPost2010PropOp43
 70
     1
102
RTVSPost2010Prop44ColorIndex
 90
        5
102
RTVSPost2010Prop44ColorRGB
 90
      255
102
RTVSPost2010PropOp44
 70
     1
102
RTVSPost2010Prop45
280
     0
102
RTVSPost2010PropOp45
 70
     1
102
RTVSPost2010Prop46
 90
       50
102
RTVSPost2010PropOp46
 70
     1
102
RTVSPost2010Prop47
 90
       50
102
RTVSPost2010PropOp47
 70
     1
102
RTVSPost2010Prop48
 90
       50
102
RTVSPost2010PropOp48
 70
     1
102
RTVSPost2010Prop49
280
     0
102
RTVSPost2010PropOp49
 70
     1
102
RTVSPost2010Prop50
 90
       50
102
RTVSPost2010PropOp50
 70
     1
102
RTVSPost2010Prop51ColorIndex
 90
      256
102
RTVSPost2010Prop51ColorRGB
 90
-16777216
102
RTVSPost2010PropOp51
 70
     0
102
RTVSPost2010Prop52
140
1.0
102
RTVSPost2010PropOp52
 70
     0
102
RTVSPost2010Prop53
 90
        2
102
RTVSPost2010PropOp53
 70
     1
102
RTVSPost2010Prop54
  1
strokes_ogs.tif
102
RTVSPost2010PropOp54
 70
     1
102
RTVSPost2010Prop55
280
     0
102
RTVSPost2010PropOp55
 70
     1
102
RTVSPost2010Prop56
140
1.0
102
RTVSPost2010PropOp56
 70
     1
102
RTVSPost2010Prop57
140
1.0
102
RTVSPost2010PropOp57
 70
     1
  0
XRECORD
  5
2214F
102
{ACAD_REACTORS
330
2214E
102
}
330
2214E
100
AcDbXrecord
280
     1
102
RTVSPost2010Prop28
280
     0
102
RTVSPost2010PropOp28
 70
     1
102
RTVSPost2010Prop29
280
     1
102
RTVSPost2010PropOp29
 70
     1
102
RTVSPost2010Prop30
280
     1
102
RTVSPost2010PropOp30
 70
     1
102
RTVSPost2010Prop31
280
     0
102
RTVSPost2010PropOp31
 70
     1
102
RTVSPost2010Prop32
280
     0
102
RTVSPost2010PropOp32
 70
     1
102
RTVSPost2010Prop33
280
     0
102
RTVSPost2010PropOp33
 70
     1
102
RTVSPost2010Prop34
280
     0
102
RTVSPost2010PropOp34
 70
     1
102
RTVSPost2010Prop35
280
     0
102
RTVSPost2010PropOp35
 70
     1
102
RTVSPost2010Prop36
280
     0
102
RTVSPost2010PropOp36
 70
     1
102
RTVSPost2010Prop37
 90
       50
102
RTVSPost2010PropOp37
 70
     1
102
RTVSPost2010Prop38
140
0.0
102
RTVSPost2010PropOp38
 70
     1
102
RTVSPost2010Prop39
140
1.0
102
RTVSPost2010PropOp39
 70
     1
102
RTVSPost2010Prop40
 90
        0
102
RTVSPost2010PropOp40
 70
     1
102
RTVSPost2010Prop41ColorIndex
 90
       18
102
RTVSPost2010Prop41ColorRGB
 90
        0
102
RTVSPost2010PropOp41
 70
     1
102
RTVSPost2010Prop42
 90
       50
102
RTVSPost2010PropOp42
 70
     1
102
RTVSPost2010Prop43
 90
        3
102
RTVSPost2010PropOp43
 70
     1
102
RTVSPost2010Prop44ColorIndex
 90
        5
102
RTVSPost2010Prop44ColorRGB
 90
      255
102
RTVSPost2010PropOp44
 70
     1
102
RTVSPost2010Prop45
280
     0
102
RTVSPost2010PropOp45
 70
     1
102
RTVSPost2010Prop46
 90
       50
102
RTVSPost2010PropOp46
 70
     1
102
RTVSPost2010Prop47
 90
       50
102
RTVSPost2010PropOp47
 70
     1
102
RTVSPost2010Prop48
 90
       50
102
RTVSPost2010PropOp48
 70
     1
102
RTVSPost2010Prop49
280
     0
102
RTVSPost2010PropOp49
 70
     1
102
RTVSPost2010Prop50
 90
       50
102
RTVSPost2010PropOp50
 70
     1
102
RTVSPost2010Prop51ColorIndex
 90
      256
102
RTVSPost2010Prop51ColorRGB
 90
-16777216
102
RTVSPost2010PropOp51
 70
     0
102
RTVSPost2010Prop52
140
1.0
102
RTVSPost2010PropOp52
 70
     0
102
RTVSPost2010Prop53
 90
        2
102
RTVSPost2010PropOp53
 70
     1
102
RTVSPost2010Prop54
  1
strokes_ogs.tif
102
RTVSPost2010PropOp54
 70
     1
102
RTVSPost2010Prop55
280
     0
102
RTVSPost2010PropOp55
 70
     1
102
RTVSPost2010Prop56
140
1.0
102
RTVSPost2010PropOp56
 70
     1
102
RTVSPost2010Prop57
140
1.0
102
RTVSPost2010PropOp57
 70
     1
  0
XRECORD
  5
22141
102
{ACAD_REACTORS
330
22140
102
}
330
22140
100
AcDbXrecord
280
     1
102
RTVSPost2010Prop28
280
     0
102
RTVSPost2010PropOp28
 70
     1
102
RTVSPost2010Prop29
280
     1
102
RTVSPost2010PropOp29
 70
     1
102
RTVSPost2010Prop30
280
     1
102
RTVSPost2010PropOp30
 70
     1
102
RTVSPost2010Prop31
280
     0
102
RTVSPost2010PropOp31
 70
     1
102
RTVSPost2010Prop32
280
     0
102
RTVSPost2010PropOp32
 70
     1
102
RTVSPost2010Prop33
280
     0
102
RTVSPost2010PropOp33
 70
     1
102
RTVSPost2010Prop34
280
     0
102
RTVSPost2010PropOp34
 70
     1
102
RTVSPost2010Prop35
280
     0
102
RTVSPost2010PropOp35
 70
     1
102
RTVSPost2010Prop36
280
     0
102
RTVSPost2010PropOp36
 70
     1
102
RTVSPost2010Prop37
 90
       50
102
RTVSPost2010PropOp37
 70
     1
102
RTVSPost2010Prop38
140
0.0
102
RTVSPost2010PropOp38
 70
     1
102
RTVSPost2010Prop39
140
1.0
102
RTVSPost2010PropOp39
 70
     1
102
RTVSPost2010Prop40
 90
        0
102
RTVSPost2010PropOp40
 70
     1
102
RTVSPost2010Prop41ColorIndex
 90
       18
102
RTVSPost2010Prop41ColorRGB
 90
        0
102
RTVSPost2010PropOp41
 70
     1
102
RTVSPost2010Prop42
 90
       50
102
RTVSPost2010PropOp42
 70
     1
102
RTVSPost2010Prop43
 90
        3
102
RTVSPost2010PropOp43
 70
     1
102
RTVSPost2010Prop44ColorIndex
 90
        5
102
RTVSPost2010Prop44ColorRGB
 90
      255
102
RTVSPost2010PropOp44
 70
     1
102
RTVSPost2010Prop45
280
     0
102
RTVSPost2010PropOp45
 70
     1
102
RTVSPost2010Prop46
 90
       50
102
RTVSPost2010PropOp46
 70
     1
102
RTVSPost2010Prop47
 90
       50
102
RTVSPost2010PropOp47
 70
     1
102
RTVSPost2010Prop48
 90
       50
102
RTVSPost2010PropOp48
 70
     1
102
RTVSPost2010Prop49
280
     0
102
RTVSPost2010PropOp49
 70
     1
102
RTVSPost2010Prop50
 90
       50
102
RTVSPost2010PropOp50
 70
     1
102
RTVSPost2010Prop51ColorIndex
 90
      256
102
RTVSPost2010Prop51ColorRGB
 90
-16777216
102
RTVSPost2010PropOp51
 70
     0
102
RTVSPost2010Prop52
140
1.0
102
RTVSPost2010PropOp52
 70
     0
102
RTVSPost2010Prop53
 90
        2
102
RTVSPost2010PropOp53
 70
     1
102
RTVSPost2010Prop54
  1
strokes_ogs.tif
102
RTVSPost2010PropOp54
 70
     1
102
RTVSPost2010Prop55
280
     0
102
RTVSPost2010PropOp55
 70
     1
102
RTVSPost2010Prop56
140
1.0
102
RTVSPost2010PropOp56
 70
     1
102
RTVSPost2010Prop57
140
1.0
102
RTVSPost2010PropOp57
 70
     1
  0
XRECORD
  5
22149
102
{ACAD_REACTORS
330
22148
102
}
330
22148
100
AcDbXrecord
280
     1
102
RTVSPost2010Prop28
280
     0
102
RTVSPost2010PropOp28
 70
     1
102
RTVSPost2010Prop29
280
     1
102
RTVSPost2010PropOp29
 70
     1
102
RTVSPost2010Prop30
280
     1
102
RTVSPost2010PropOp30
 70
     1
102
RTVSPost2010Prop31
280
     0
102
RTVSPost2010PropOp31
 70
     1
102
RTVSPost2010Prop32
280
     0
102
RTVSPost2010PropOp32
 70
     1
102
RTVSPost2010Prop33
280
     0
102
RTVSPost2010PropOp33
 70
     1
102
RTVSPost2010Prop34
280
     0
102
RTVSPost2010PropOp34
 70
     1
102
RTVSPost2010Prop35
280
     0
102
RTVSPost2010PropOp35
 70
     1
102
RTVSPost2010Prop36
280
     0
102
RTVSPost2010PropOp36
 70
     1
102
RTVSPost2010Prop37
 90
       50
102
RTVSPost2010PropOp37
 70
     1
102
RTVSPost2010Prop38
140
0.0
102
RTVSPost2010PropOp38
 70
     1
102
RTVSPost2010Prop39
140
1.0
102
RTVSPost2010PropOp39
 70
     1
102
RTVSPost2010Prop40
 90
        0
102
RTVSPost2010PropOp40
 70
     1
102
RTVSPost2010Prop41ColorIndex
 90
       18
102
RTVSPost2010Prop41ColorRGB
 90
        0
102
RTVSPost2010PropOp41
 70
     1
102
RTVSPost2010Prop42
 90
       50
102
RTVSPost2010PropOp42
 70
     1
102
RTVSPost2010Prop43
 90
        3
102
RTVSPost2010PropOp43
 70
     1
102
RTVSPost2010Prop44ColorIndex
 90
        5
102
RTVSPost2010Prop44ColorRGB
 90
      255
102
RTVSPost2010PropOp44
 70
     1
102
RTVSPost2010Prop45
280
     0
102
RTVSPost2010PropOp45
 70
     1
102
RTVSPost2010Prop46
 90
       50
102
RTVSPost2010PropOp46
 70
     1
102
RTVSPost2010Prop47
 90
       50
102
RTVSPost2010PropOp47
 70
     1
102
RTVSPost2010Prop48
 90
       50
102
RTVSPost2010PropOp48
 70
     1
102
RTVSPost2010Prop49
280
     0
102
RTVSPost2010PropOp49
 70
     1
102
RTVSPost2010Prop50
 90
       50
102
RTVSPost2010PropOp50
 70
     1
102
RTVSPost2010Prop51ColorIndex
 90
      256
102
RTVSPost2010Prop51ColorRGB
 90
-16777216
102
RTVSPost2010PropOp51
 70
     0
102
RTVSPost2010Prop52
140
1.0
102
RTVSPost2010PropOp52
 70
     0
102
RTVSPost2010Prop53
 90
        2
102
RTVSPost2010PropOp53
 70
     1
102
RTVSPost2010Prop54
  1
strokes_ogs.tif
102
RTVSPost2010PropOp54
 70
     1
102
RTVSPost2010Prop55
280
     0
102
RTVSPost2010PropOp55
 70
     1
102
RTVSPost2010Prop56
140
1.0
102
RTVSPost2010PropOp56
 70
     1
102
RTVSPost2010Prop57
140
1.0
102
RTVSPost2010PropOp57
 70
     1
  0
XRECORD
  5
22151
102
{ACAD_REACTORS
330
22150
102
}
330
22150
100
AcDbXrecord
280
     1
102
RTVSPost2010Prop28
280
     0
102
RTVSPost2010PropOp28
 70
     1
102
RTVSPost2010Prop29
280
     1
102
RTVSPost2010PropOp29
 70
     1
102
RTVSPost2010Prop30
280
     1
102
RTVSPost2010PropOp30
 70
     1
102
RTVSPost2010Prop31
280
     0
102
RTVSPost2010PropOp31
 70
     1
102
RTVSPost2010Prop32
280
     0
102
RTVSPost2010PropOp32
 70
     1
102
RTVSPost2010Prop33
280
     0
102
RTVSPost2010PropOp33
 70
     1
102
RTVSPost2010Prop34
280
     0
102
RTVSPost2010PropOp34
 70
     1
102
RTVSPost2010Prop35
280
     0
102
RTVSPost2010PropOp35
 70
     1
102
RTVSPost2010Prop36
280
     0
102
RTVSPost2010PropOp36
 70
     1
102
RTVSPost2010Prop37
 90
       50
102
RTVSPost2010PropOp37
 70
     1
102
RTVSPost2010Prop38
140
0.0
102
RTVSPost2010PropOp38
 70
     1
102
RTVSPost2010Prop39
140
1.0
102
RTVSPost2010PropOp39
 70
     1
102
RTVSPost2010Prop40
 90
        0
102
RTVSPost2010PropOp40
 70
     1
102
RTVSPost2010Prop41ColorIndex
 90
       18
102
RTVSPost2010Prop41ColorRGB
 90
        0
102
RTVSPost2010PropOp41
 70
     1
102
RTVSPost2010Prop42
 90
       50
102
RTVSPost2010PropOp42
 70
     1
102
RTVSPost2010Prop43
 90
        3
102
RTVSPost2010PropOp43
 70
     1
102
RTVSPost2010Prop44ColorIndex
 90
        5
102
RTVSPost2010Prop44ColorRGB
 90
      255
102
RTVSPost2010PropOp44
 70
     1
102
RTVSPost2010Prop45
280
     0
102
RTVSPost2010PropOp45
 70
     1
102
RTVSPost2010Prop46
 90
       50
102
RTVSPost2010PropOp46
 70
     1
102
RTVSPost2010Prop47
 90
       50
102
RTVSPost2010PropOp47
 70
     1
102
RTVSPost2010Prop48
 90
       50
102
RTVSPost2010PropOp48
 70
     1
102
RTVSPost2010Prop49
280
     0
102
RTVSPost2010PropOp49
 70
     1
102
RTVSPost2010Prop50
 90
       50
102
RTVSPost2010PropOp50
 70
     1
102
RTVSPost2010Prop51ColorIndex
 90
      256
102
RTVSPost2010Prop51ColorRGB
 90
-16777216
102
RTVSPost2010PropOp51
 70
     0
102
RTVSPost2010Prop52
140
1.0
102
RTVSPost2010PropOp52
 70
     0
102
RTVSPost2010Prop53
 90
        2
102
RTVSPost2010PropOp53
 70
     1
102
RTVSPost2010Prop54
  1
strokes_ogs.tif
102
RTVSPost2010PropOp54
 70
     1
102
RTVSPost2010Prop55
280
     0
102
RTVSPost2010PropOp55
 70
     1
102
RTVSPost2010Prop56
140
1.0
102
RTVSPost2010PropOp56
 70
     1
102
RTVSPost2010Prop57
140
1.0
102
RTVSPost2010PropOp57
 70
     1
  0
ENDSEC
  0
EOF
