  0
SECTION
  2
HEADER
  9
$ACADVER
  1
AC1024
  9
$ACADMAINTVER
 70
   182
  9
$DWGCODEPAGE
  3
ANSI_1252
  9
$LASTSAVEDBY
  1
kamerka
  9
$INSBASE
 10
0.0
 20
0.0
 30
0.0
  9
$EXTMIN
 10
-91.9454947346187
 20
-54.11947568985567
 30
-0.0000000000000057
  9
$EXTMAX
 10
69.29718074539812
 20
49.63746683420322
 30
0.0000000000000104
  9
$LIMMIN
 10
0.0
 20
0.0
  9
$LIMMAX
 10
420.0
 20
297.0
  9
$ORTHOMODE
 70
     0
  9
$REGENMODE
 70
     1
  9
$FILLMODE
 70
     1
  9
$QTEXTMODE
 70
     0
  9
$MIRRTEXT
 70
     0
  9
$LTSCALE
 40
23.1
  9
$ATTMODE
 70
     1
  9
$TEXTSIZE
 40
3.5
  9
$TRACEWID
 40
0.05
  9
$TEXTSTYLE
  7
STANDARD
  9
$CLAYER
  8
0
  9
$CELTYPE
  6
BYLAYER
  9
$CECOLOR
 62
   256
  9
$CELTSCALE
 40
1.0
  9
$DISPSILH
 70
     0
  9
$DIMSCALE
 40
1.0
  9
$DIMASZ
 40
4.57
  9
$DIMEXO
 40
0.0625
  9
$DIMDLI
 40
0.38
  9
$DIMRND
 40
0.0
  9
$DIMDLE
 40
0.0
  9
$DIMEXE
 40
0.18
  9
$DIMTP
 40
0.01
  9
$DIMTM
 40
0.01
  9
$DIMTXT
 40
3.5
  9
$DIMCEN
 40
0.09
  9
$DIMTSZ
 40
0.0
  9
$DIMTOL
 70
     0
  9
$DIMLIM
 70
     0
  9
$DIMTIH
 70
     0
  9
$DIMTOH
 70
     0
  9
$DIMSE1
 70
     0
  9
$DIMSE2
 70
     0
  9
$DIMTAD
 70
     1
  9
$DIMZIN
 70
     8
  9
$DIMBLK
  1

  9
$DIMASO
 70
     1
  9
$DIMSHO
 70
     1
  9
$DIMPOST
  1

  9
$DIMAPOST
  1

  9
$DIMALT
 70
     0
  9
$DIMALTD
 70
     2
  9
$DIMALTF
 40
25.4
  9
$DIMLFAC
 40
1.0
  9
$DIMTOFL
 70
     0
  9
$DIMTVP
 40
0.0
  9
$DIMTIX
 70
     0
  9
$DIMSOXD
 70
     0
  9
$DIMSAH
 70
     0
  9
$DIMBLK1
  1

  9
$DIMBLK2
  1

  9
$DIMSTYLE
  2
STANDARD
  9
$DIMCLRD
 70
     0
  9
$DIMCLRE
 70
     0
  9
$DIMCLRT
 70
     0
  9
$DIMTFAC
 40
1.0
  9
$DIMGAP
 40
0.09
  9
$DIMJUST
 70
     0
  9
$DIMSD1
 70
     0
  9
$DIMSD2
 70
     0
  9
$DIMTOLJ
 70
     1
  9
$DIMTZIN
 70
     8
  9
$DIMALTZ
 70
     0
  9
$DIMALTTZ
 70
     0
  9
$DIMUPT
 70
     0
  9
$DIMDEC
 70
     3
  9
$DIMTDEC
 70
     3
  9
$DIMALTU
 70
     2
  9
$DIMALTTD
 70
     2
  9
$DIMTXSTY
  7
STANDARD
  9
$DIMAUNIT
 70
     0
  9
$DIMADEC
 70
     0
  9
$DIMALTRND
 40
0.0
  9
$DIMAZIN
 70
     0
  9
$DIMDSEP
 70
    46
  9
$DIMATFIT
 70
     0
  9
$DIMFRAC
 70
     0
  9
$DIMLDRBLK
  1

  9
$DIMLUNIT
 70
     2
  9
$DIMLWD
 70
    -2
  9
$DIMLWE
 70
    -2
  9
$DIMTMOVE
 70
     0
  9
$DIMFXL
 40
1.0
  9
$DIMFXLON
 70
     0
  9
$DIMJOGANG
 40
0.7853981633974483
  9
$DIMTFILL
 70
     0
  9
$DIMTFILLCLR
 70
     0
  9
$DIMARCSYM
 70
     0
  9
$DIMLTYPE
  6

  9
$DIMLTEX1
  6

  9
$DIMLTEX2
  6

  9
$DIMTXTDIRECTION
 70
     0
  9
$LUNITS
 70
     2
  9
$LUPREC
 70
     4
  9
$SKETCHINC
 40
0.1
  9
$FILLETRAD
 40
0.0
  9
$AUNITS
 70
     0
  9
$AUPREC
 70
     0
  9
$MENU
  1
.
  9
$ELEVATION
 40
0.0
  9
$PELEVATION
 40
0.0
  9
$THICKNESS
 40
0.0
  9
$LIMCHECK
 70
     0
  9
$CHAMFERA
 40
0.0
  9
$CHAMFERB
 40
0.0
  9
$CHAMFERC
 40
0.0
  9
$CHAMFERD
 40
0.0
  9
$SKPOLY
 70
     0
  9
$TDCREATE
 40
2458446.405227107
  9
$TDUCREATE
 40
2458446.321893773
  9
$TDUPDATE
 40
2458975.412204826
  9
$TDUUPDATE
 40
2458975.328871493
  9
$TDINDWG
 40
0.0295836921
  9
$TDUSRTIMER
 40
0.0295826389
  9
$USRTIMER
 70
     1
  9
$ANGBASE
 50
0.0
  9
$ANGDIR
 70
     0
  9
$PDMODE
 70
     3
  9
$PDSIZE
 40
0.3125
  9
$PLINEWID
 40
0.0
  9
$SPLFRAME
 70
     0
  9
$SPLINETYPE
 70
     6
  9
$SPLINESEGS
 70
     8
  9
$HANDSEED
  5
2214D
  9
$SURFTAB1
 70
     6
  9
$SURFTAB2
 70
     6
  9
$SURFTYPE
 70
     6
  9
$SURFU
 70
     6
  9
$SURFV
 70
     6
  9
$UCSBASE
  2

  9
$UCSNAME
  2

  9
$UCSORG
 10
0.0
 20
0.0
 30
0.0
  9
$UCSXDIR
 10
1.0
 20
0.0
 30
0.0
  9
$UCSYDIR
 10
0.0
 20
1.0
 30
0.0
  9
$UCSORTHOREF
  2

  9
$UCSORTHOVIEW
 70
     0
  9
$UCSORGTOP
 10
0.0
 20
0.0
 30
0.0
  9
$UCSORGBOTTOM
 10
0.0
 20
0.0
 30
0.0
  9
$UCSORGLEFT
 10
0.0
 20
0.0
 30
0.0
  9
$UCSORGRIGHT
 10
0.0
 20
0.0
 30
0.0
  9
$UCSORGFRONT
 10
0.0
 20
0.0
 30
0.0
  9
$UCSORGBACK
 10
0.0
 20
0.0
 30
0.0
  9
$PUCSBASE
  2

  9
$PUCSNAME
  2

  9
$PUCSORG
 10
0.0
 20
0.0
 30
0.0
  9
$PUCSXDIR
 10
1.0
 20
0.0
 30
0.0
  9
$PUCSYDIR
 10
0.0
 20
1.0
 30
0.0
  9
$PUCSORTHOREF
  2

  9
$PUCSORTHOVIEW
 70
     0
  9
$PUCSORGTOP
 10
0.0
 20
0.0
 30
0.0
  9
$PUCSORGBOTTOM
 10
0.0
 20
0.0
 30
0.0
  9
$PUCSORGLEFT
 10
0.0
 20
0.0
 30
0.0
  9
$PUCSORGRIGHT
 10
0.0
 20
0.0
 30
0.0
  9
$PUCSORGFRONT
 10
0.0
 20
0.0
 30
0.0
  9
$PUCSORGBACK
 10
0.0
 20
0.0
 30
0.0
  9
$USERI1
 70
     0
  9
$USERI2
 70
     0
  9
$USERI3
 70
     0
  9
$USERI4
 70
     0
  9
$USERI5
 70
     0
  9
$USERR1
 40
0.0
  9
$USERR2
 40
0.0
  9
$USERR3
 40
0.0
  9
$USERR4
 40
0.0
  9
$USERR5
 40
0.0
  9
$WORLDVIEW
 70
     1
  9
$SHADEDGE
 70
     3
  9
$SHADEDIF
 70
    70
  9
$TILEMODE
 70
     1
  9
$MAXACTVP
 70
    64
  9
$PINSBASE
 10
0.0
 20
0.0
 30
0.0
  9
$PLIMCHECK
 70
     0
  9
$PEXTMIN
 10
28.69141678810127
 20
19.6363175392151
 30
0.0
  9
$PEXTMAX
 10
258.2227510929107
 20
176.7268578529358
 30
0.0
  9
$PLIMMIN
 10
-5.027069091796875
 20
-6.805083274841307
  9
$PLIMMAX
 10
291.9412536621094
 20
203.1682443618775
  9
$UNITMODE
 70
     0
  9
$VISRETAIN
 70
     1
  9
$PLINEGEN
 70
     0
  9
$PSLTSCALE
 70
     1
  9
$TREEDEPTH
 70
  3020
  9
$CMLSTYLE
  2
STANDARD
  9
$CMLJUST
 70
     0
  9
$CMLSCALE
 40
1.0
  9
$PROXYGRAPHICS
 70
     1
  9
$MEASUREMENT
 70
     1
  9
$CELWEIGHT
370
    -1
  9
$ENDCAPS
280
     0
  9
$JOINSTYLE
280
     0
  9
$LWDISPLAY
290
     0
  9
$INSUNITS
 70
     0
  9
$HYPERLINKBASE
  1

  9
$STYLESHEET
  1
A1-A2.CTB
  9
$XEDIT
290
     1
  9
$CEPSNTYPE
380
     0
  9
$PSTYLEMODE
290
     1
  9
$FINGERPRINTGUID
  2
{6D3BC7B5-ACA7-406D-8A0D-A7DBBE093430}
  9
$VERSIONGUID
  2
{B6894ECE-C39F-4B64-928E-45D04F04C68A}
  9
$EXTNAMES
290
     1
  9
$PSVPSCALE
 40
0.0
  9
$OLESTARTUP
290
     0
  9
$SORTENTS
280
   127
  9
$INDEXCTL
280
     0
  9
$HIDETEXT
280
     0
  9
$XCLIPFRAME
280
     2
  9
$HALOGAP
280
     0
  9
$OBSCOLOR
 70
   257
  9
$OBSLTYPE
280
     0
  9
$INTERSECTIONDISPLAY
280
     0
  9
$INTERSECTIONCOLOR
 70
   257
  9
$DIMASSOC
280
     1
  9
$PROJECTNAME
  1

  9
$CAMERADISPLAY
290
     0
  9
$LENSLENGTH
 40
50.0
  9
$CAMERAHEIGHT
 40
0.0
  9
$STEPSPERSEC
 40
2.0
  9
$STEPSIZE
 40
6.0
  9
$3DDWFPREC
 40
2.0
  9
$PSOLWIDTH
 40
0.25
  9
$PSOLHEIGHT
 40
4.0
  9
$LOFTANG1
 40
1.570796326794896
  9
$LOFTANG2
 40
1.570796326794896
  9
$LOFTMAG1
 40
0.0
  9
$LOFTMAG2
 40
0.0
  9
$LOFTPARAM
 70
     7
  9
$LOFTNORMALS
280
     1
  9
$LATITUDE
 40
37.795
  9
$LONGITUDE
 40
-122.394
  9
$NORTHDIRECTION
 40
0.0
  9
$TIMEZONE
 70
 -8000
  9
$LIGHTGLYPHDISPLAY
280
     1
  9
$TILEMODELIGHTSYNCH
280
     1
  9
$CMATERIAL
347
318C
  9
$SOLIDHIST
280
     0
  9
$SHOWHIST
280
     1
  9
$DWFFRAME
280
     2
  9
$DGNFRAME
280
     0
  9
$REALWORLDSCALE
290
     1
  9
$INTERFERECOLOR
 62
     1
  9
$INTERFEREOBJVS
345
3199
  9
$INTERFEREVPVS
346
1B2E3
  9
$CSHADOW
280
     0
  9
$SHADOWPLANELOCATION
 40
0.0
  0
ENDSEC
  0
SECTION
  2
CLASSES
  0
CLASS
  1
ACDBDICTIONARYWDFLT
  2
AcDbDictionaryWithDefault
  3
ObjectDBX Classes
 90
        0
 91
        1
280
     0
281
     0
  0
CLASS
  1
MATERIAL
  2
AcDbMaterial
  3
ObjectDBX Classes
 90
     1153
 91
        3
280
     0
281
     0
  0
CLASS
  1
VISUALSTYLE
  2
AcDbVisualStyle
  3
ObjectDBX Classes
 90
     4095
 91
       26
280
     0
281
     0
  0
CLASS
  1
TABLESTYLE
  2
AcDbTableStyle
  3
ObjectDBX Classes
 90
     4095
 91
        1
280
     0
281
     0
  0
CLASS
  1
SORTENTSTABLE
  2
AcDbSortentsTable
  3
ObjectDBX Classes
 90
        0
 91
        2
280
     0
281
     0
  0
CLASS
  1
DICTIONARYVAR
  2
AcDbDictionaryVar
  3
ObjectDBX Classes
 90
        0
 91
       13
280
     0
281
     0
  0
CLASS
  1
EXACXREFPANELOBJECT
  2
ExAcXREFPanelObject
  3
EXAC_ESW
 90
     1025
 91
        0
280
     1
281
     0
  0
CLASS
  1
NPOCOLLECTION
  2
AcDbImpNonPersistentObjectsCollection
  3
ObjectDBX Classes
 90
     1153
 91
        0
280
     1
281
     0
  0
CLASS
  1
SCALE
  2
AcDbScale
  3
ObjectDBX Classes
 90
     1153
 91
       33
280
     0
281
     0
  0
CLASS
  1
MLEADERSTYLE
  2
AcDbMLeaderStyle
  3
ACDB_MLEADERSTYLE_CLASS
 90
     4095
 91
        1
280
     0
281
     0
  0
CLASS
  1
ACDBSECTIONVIEWSTYLE
  2
AcDbSectionViewStyle
  3
ObjectDBX Classes
 90
     1025
 91
        2
280
     0
281
     0
  0
CLASS
  1
ACDBDETAILVIEWSTYLE
  2
AcDbDetailViewStyle
  3
ObjectDBX Classes
 90
     1025
 91
        2
280
     0
281
     0
  0
CLASS
  1
CELLSTYLEMAP
  2
AcDbCellStyleMap
  3
ObjectDBX Classes
 90
     1152
 91
        2
280
     0
281
     0
  0
CLASS
  1
ACAD_EVALUATION_GRAPH
  2
AcDbEvalGraph
  3
ObjectDBX Classes
 90
     1153
 91
        0
280
     0
281
     0
  0
CLASS
  1
ACAECUSTOBJ
  2
AcAeEditorObj
  3
AcAeEditorObj
 90
     1024
 91
        0
280
     0
281
     0
  0
CLASS
  1
ACDB_DYNAMICBLOCKPURGEPREVENTER_VERSION
  2
AcDbDynamicBlockPurgePreventer
  3
ObjectDBX Classes
 90
     1153
 91
        0
280
     0
281
     0
  0
CLASS
  1
FIELD
  2
AcDbField
  3
ObjectDBX Classes
 90
     1152
 91
        0
280
     0
281
     0
  0
CLASS
  1
FIELDLIST
  2
AcDbFieldList
  3
ObjectDBX Classes
 90
     1152
 91
        1
280
     0
281
     0
  0
CLASS
  1
ACDB_ALDIMOBJECTCONTEXTDATA_CLASS
  2
AcDbAlignedDimensionObjectContextData
  3
ObjectDBX Classes
 90
     1153
 91
        0
280
     0
281
     0
  0
ENDSEC
  0
SECTION
  2
TABLES
  0
TABLE
  2
VPORT
  5
8
330
0
100
AcDbSymbolTable
 70
     1
  0
VPORT
  5
1F4
330
8
100
AcDbSymbolTableRecord
100
AcDbViewportTableRecord
  2
*ACTIVE
 70
     0
 10
0.0
 20
0.0
 11
1.0
 21
1.0
 12
-11.3241569946103
 22
-2.241004427826226
 13
0.0
 23
0.0
 14
1.0
 24
1.0
 15
0.0
 25
0.0
 16
0.0
 26
0.0
 36
1.0
 17
0.0
 27
0.0
 37
0.0
 40
104.6462877456937
 41
2.698140200286123
 42
50.0
 43
0.0
 44
0.0
 50
0.0
 51
0.0
 71
     0
 72
  2000
 73
     1
 74
     1
 75
     0
 76
     0
 77
     0
 78
     0
281
     0
 65
     1
110
0.0
120
0.0
130
0.0
111
1.0
121
0.0
131
0.0
112
0.0
122
1.0
132
0.0
 79
     0
146
0.0
348
3195
 60
     3
 61
     5
292
     1
282
     1
141
0.0
142
0.0
 63
   250
421
  3355443
1001
ACAD_NAV_VCDISPLAY
1070
     3
  0
ENDTAB
  0
TABLE
  2
LTYPE
  5
5
330
0
100
AcDbSymbolTable
 70
     6
  0
LTYPE
  5
14
330
5
100
AcDbSymbolTableRecord
100
AcDbLinetypeTableRecord
  2
BYBLOCK
 70
     0
  3

 72
    65
 73
     0
 40
0.0
  0
LTYPE
  5
15
330
5
100
AcDbSymbolTableRecord
100
AcDbLinetypeTableRecord
  2
BYLAYER
 70
     0
  3

 72
    65
 73
     0
 40
0.0
  0
LTYPE
  5
16
330
5
100
AcDbSymbolTableRecord
100
AcDbLinetypeTableRecord
  2
CONTINUOUS
 70
     0
  3
Solid line
 72
    65
 73
     0
 40
0.0
  0
LTYPE
  5
9C48
330
5
100
AcDbSymbolTableRecord
100
AcDbLinetypeTableRecord
  2
CENTER
 70
     0
  3
____ _ ____ _ ____ _ ____ _ ____ _ ____ _ ____
 72
    65
 73
     4
 40
0.6
 49
0.375
 74
     0
 49
-0.075
 74
     0
 49
0.075
 74
     0
 49
-0.075
 74
     0
  0
LTYPE
  5
20A82
330
5
100
AcDbSymbolTableRecord
100
AcDbLinetypeTableRecord
  2
HIDDEN
 70
     0
  3
- - - - - - - - - - - - - - - - - - - -
 72
    65
 73
     2
 40
0.2
 49
0.1
 74
     0
 49
-0.1
 74
     0
  0
LTYPE
  5
21CB3
330
5
100
AcDbSymbolTableRecord
100
AcDbLinetypeTableRecord
  2
CENTER2
 70
     0
  3
Center (.5x) ___ _ ___ _ ___ _ ___ _ ___ _ ___
 72
    65
 73
     4
 40
28.57499999999999
 49
19.05
 74
     4
 75
     0
340
0
 46
1.0
 50
0.0
 44
0.0
 45
0.0
 49
-3.174999999999998
 74
     4
 75
     0
340
0
 46
1.0
 50
0.0
 44
0.0
 45
0.0
 49
3.174999999999998
 74
     4
 75
     0
340
0
 46
1.0
 50
0.0
 44
0.0
 45
0.0
 49
-3.174999999999998
 74
     4
 75
     0
340
0
 46
1.0
 50
0.0
 44
0.0
 45
0.0
  0
ENDTAB
  0
TABLE
  2
LAYER
  5
2
102
{ACAD_XDICTIONARY
360
422A
102
}
330
0
100
AcDbSymbolTable
 70
    16
  0
LAYER
  5
10
102
{ACAD_XDICTIONARY
360
1B2F5
102
}
330
2
100
AcDbSymbolTableRecord
100
AcDbLayerTableRecord
  2
0
 70
     0
 62
     7
  6
CONTINUOUS
370
    -3
390
318A
347
318E
  0
LAYER
  5
3F8C
102
{ACAD_XDICTIONARY
360
1B2F7
102
}
330
2
100
AcDbSymbolTableRecord
100
AcDbLayerTableRecord
  2
1
 70
     0
 62
     4
  6
BYBLOCK
370
    50
390
318A
347
318E
  0
LAYER
  5
3FA7
330
2
100
AcDbSymbolTableRecord
100
AcDbLayerTableRecord
  2
Defpoints
 70
     0
 62
     7
  6
CONTINUOUS
290
     0
370
    -3
390
318A
347
318E
  0
LAYER
  5
9C4A
102
{ACAD_XDICTIONARY
360
1B2F9
102
}
330
2
100
AcDbSymbolTableRecord
100
AcDbLayerTableRecord
  2
2
 70
     0
 62
     7
  6
BYBLOCK
370
    25
390
318A
347
318E
  0
LAYER
  5
9C4B
102
{ACAD_XDICTIONARY
360
1B2FB
102
}
330
2
100
AcDbSymbolTableRecord
100
AcDbLayerTableRecord
  2
4
 70
     0
 62
     2
  6
CENTER
370
    25
390
318A
347
318E
  0
LAYER
  5
9C4D
102
{ACAD_XDICTIONARY
360
1B2FD
102
}
330
2
100
AcDbSymbolTableRecord
100
AcDbLayerTableRecord
  2
CUT
 70
     0
 62
     1
  6
BYBLOCK
370
    25
390
318A
347
318E
  0
LAYER
  5
9C4E
102
{ACAD_XDICTIONARY
360
1B2FF
102
}
330
2
100
AcDbSymbolTableRecord
100
AcDbLayerTableRecord
  2
NOCUT
 70
     0
 62
     7
  6
BYBLOCK
370
    25
390
318A
347
318E
  0
LAYER
  5
9C4F
102
{ACAD_XDICTIONARY
360
1B301
102
}
330
2
100
AcDbSymbolTableRecord
100
AcDbLayerTableRecord
  2
SK2
 70
     0
 62
     7
  6
BYBLOCK
370
    25
390
318A
347
318E
  0
LAYER
  5
9C50
102
{ACAD_XDICTIONARY
360
1B303
102
}
330
2
100
AcDbSymbolTableRecord
100
AcDbLayerTableRecord
  2
SK1
 70
     0
 62
     4
  6
BYBLOCK
370
    50
390
318A
347
318E
  0
LAYER
  5
9C51
102
{ACAD_XDICTIONARY
360
1B305
102
}
330
2
100
AcDbSymbolTableRecord
100
AcDbLayerTableRecord
  2
SK4
 70
     0
 62
     2
  6
CENTER
370
    25
390
318A
347
318E
  0
LAYER
  5
13335
102
{ACAD_XDICTIONARY
360
1B307
102
}
330
2
100
AcDbSymbolTableRecord
100
AcDbLayerTableRecord
  2
INFTOTAL
 70
     0
 62
     9
  6
BYBLOCK
370
    18
390
318A
347
318E
1001
AcAecLayerStandard
1000

1000

  0
LAYER
  5
1686E
102
{ACAD_XDICTIONARY
360
1B309
102
}
330
2
100
AcDbSymbolTableRecord
100
AcDbLayerTableRecord
  2
SK6
 70
     0
 62
     5
  6
BYBLOCK
370
    -3
390
318A
347
318E
  0
LAYER
  5
21CB4
330
2
100
AcDbSymbolTableRecord
100
AcDbLayerTableRecord
  2
SK3
 70
     0
 62
     1
  6
HIDDEN
370
    35
390
318A
347
318E
  0
LAYER
  5
21CB5
330
2
100
AcDbSymbolTableRecord
100
AcDbLayerTableRecord
  2
SKVIEW1
 70
     0
 62
     4
  6
CONTINUOUS
370
    50
390
318A
347
318E
1001
AcAecLayerStandard
1000

1000

  0
LAYER
  5
21CB6
330
2
100
AcDbSymbolTableRecord
100
AcDbLayerTableRecord
  2
SKVIEW4
 70
     0
 62
     2
  6
CENTER2
370
    25
390
318A
347
318E
1001
AcAecLayerStandard
1000

1000

  0
ENDTAB
  0
TABLE
  2
STYLE
  5
3
330
0
100
AcDbSymbolTable
 70
     2
  0
STYLE
  5
11
330
3
100
AcDbSymbolTableRecord
100
AcDbTextStyleTableRecord
  2
STANDARD
 70
     0
 40
3.5
 41
0.8
 50
0.0
 71
     0
 42
3.5
  3
monos.ttf
  4

1001
ACAD
1000
Monospac821 BT
1071
       49
  0
ENDTAB
  0
TABLE
  2
VIEW
  5
6
330
0
100
AcDbSymbolTable
 70
     0
  0
ENDTAB
  0
TABLE
  2
UCS
  5
7
330
0
100
AcDbSymbolTable
 70
     0
  0
ENDTAB
  0
TABLE
  2
APPID
  5
9
330
0
100
AcDbSymbolTable
 70
    19
  0
APPID
  5
23B
330
9
100
AcDbSymbolTableRecord
100
AcDbRegAppTableRecord
  2
ACAD
 70
     0
  0
APPID
  5
3395
330
9
100
AcDbSymbolTableRecord
100
AcDbRegAppTableRecord
  2
ACAD_EXEMPT_FROM_CAD_STANDARDS
 70
     0
  0
APPID
  5
4229
330
9
100
AcDbSymbolTableRecord
100
AcDbRegAppTableRecord
  2
AcAecLayerStandard
 70
     0
  0
APPID
  5
9A1B
330
9
100
AcDbSymbolTableRecord
100
AcDbRegAppTableRecord
  2
ACAD_PSEXT
 70
     0
  0
APPID
  5
1B313
330
9
100
AcDbSymbolTableRecord
100
AcDbRegAppTableRecord
  2
ACAD_NAV_VCDISPLAY
 70
     0
  0
APPID
  5
1B355
330
9
100
AcDbSymbolTableRecord
100
AcDbRegAppTableRecord
  2
ACAD_MLEADERVER
 70
     0
  0
APPID
  5
1EC7F
330
9
100
AcDbSymbolTableRecord
100
AcDbRegAppTableRecord
  2
ACAUTHENVIRON
 70
     0
  0
APPID
  5
1EC82
330
9
100
AcDbSymbolTableRecord
100
AcDbRegAppTableRecord
  2
AcDbDynamicBlockTrueName
 70
     0
  0
APPID
  5
1EC83
330
9
100
AcDbSymbolTableRecord
100
AcDbRegAppTableRecord
  2
AcDbDynamicBlockGUID
 70
     0
  0
APPID
  5
20A85
330
9
100
AcDbSymbolTableRecord
100
AcDbRegAppTableRecord
  2
AcCmTransparency
 70
     0
  0
APPID
  5
20AE2
330
9
100
AcDbSymbolTableRecord
100
AcDbRegAppTableRecord
  2
ACAD_DSTYLE_DIMRADIAL_EXTENSION
 70
     0
  0
APPID
  5
20CB0
330
9
100
AcDbSymbolTableRecord
100
AcDbRegAppTableRecord
  2
AcadAnnotative
 70
     0
  0
APPID
  5
21667
330
9
100
AcDbSymbolTableRecord
100
AcDbRegAppTableRecord
  2
AcadAnnoMonitorAlertIconDisabled
 70
     0
  0
APPID
  5
21CB9
330
9
100
AcDbSymbolTableRecord
100
AcDbRegAppTableRecord
  2
ACAD_DSTYLE_DIMJAG
 70
     0
  0
APPID
  5
21CBA
330
9
100
AcDbSymbolTableRecord
100
AcDbRegAppTableRecord
  2
ACAD_DSTYLE_DIMTALN
 70
     0
  0
APPID
  5
21CBB
330
9
100
AcDbSymbolTableRecord
100
AcDbRegAppTableRecord
  2
ACAD_DSTYLE_DIM_LINETYPE
 70
     0
  0
APPID
  5
21CBC
330
9
100
AcDbSymbolTableRecord
100
AcDbRegAppTableRecord
  2
ACAD_DSTYLE_DIM_EXT1_LINETYPE
 70
     0
  0
APPID
  5
21CBD
330
9
100
AcDbSymbolTableRecord
100
AcDbRegAppTableRecord
  2
ACAD_DSTYLE_DIM_EXT2_LINETYPE
 70
     0
  0
APPID
  5
21CBE
330
9
100
AcDbSymbolTableRecord
100
AcDbRegAppTableRecord
  2
ACAD_DSTYLE_DIMARC_LENGTH_SYMBOL
 70
     0
  0
ENDTAB
  0
TABLE
  2
DIMSTYLE
  5
A
330
0
100
AcDbSymbolTable
 70
     3
100
AcDbDimStyleTable
 71
     1
340
243
  0
DIMSTYLE
105
243
102
{ACAD_REACTORS
330
21E06
330
21E05
330
21E04
330
21E03
330
21F30
102
}
330
A
100
AcDbSymbolTableRecord
100
AcDbDimStyleTableRecord
  2
STANDARD
 70
     0
 41
4.57
 47
0.01
 48
0.01
 73
     0
 74
     0
 77
     1
 78
     8
140
3.5
271
     3
272
     3
284
     8
289
     0
340
11
  0
ENDTAB
  0
TABLE
  2
BLOCK_RECORD
  5
1
330
0
100
AcDbSymbolTable
 70
    18
  0
BLOCK_RECORD
  5
1F
102
{ACAD_XDICTIONARY
360
339C
102
}
330
1
100
AcDbSymbolTableRecord
100
AcDbBlockTableRecord
  2
*MODEL_SPACE
340
31A6
 70
     0
280
     1
281
     0
  0
BLOCK_RECORD
  5
1B
330
1
100
AcDbSymbolTableRecord
100
AcDbBlockTableRecord
  2
*PAPER_SPACE
340
31A7
 70
     0
280
     1
281
     0
  0
BLOCK_RECORD
  5
1B3D7
102
{ACAD_XDICTIONARY
360
1DE81
102
}
330
1
100
AcDbSymbolTableRecord
100
AcDbBlockTableRecord
  2
cero_point
340
0
310
28000000200000002000000001002000000000000010000001000000010000000000000000000000302821FF302821FF302821FF302821FF302821FF302821FF302821FF302821FF302821FF302821FF302821FF302821FF302821FF302821FF302821FF302821FF302821FF302821FF302821FF302821FF302821FF302821
310
FF302821FF302821FF302821FF302821FF302821FF302821FF302821FF302821FF302821FF302821FF302821FF302821FF302821FF302821FF302821FF302821FF302821FF302821FF302821FF302821FF302821FF302821FF302821FF302821FF302821FFFFFF00FFFFFF00FFFFFF00FF302821FF302821FF302821FF3028
310
21FF302821FF302821FF302821FF302821FF302821FF302821FF302821FF302821FF302821FF302821FF302821FF302821FF302821FF302821FF302821FF302821FF302821FF302821FF302821FF302821FFFFFF00FFFFFF00FFFFFF00FFFFFF00FFFFFF00FFFFFF00FFFFFF00FF302821FFFFFF00FFFFFF00FFFFFF00FF30
310
2821FF302821FF302821FF302821FF302821FF302821FF302821FF302821FF302821FF302821FF302821FF302821FF302821FF302821FF302821FF302821FF302821FF302821FF302821FFFFFF00FFFFFF00FFFFFF00FFFFFF00FFFFFF00FFFFFF00FFFFFF00FFFFFF00FFFFFF00FF302821FF302821FF302821FF302821FF
310
FFFF00FFFFFF00FF302821FF302821FF302821FF302821FF302821FF302821FF302821FF302821FF302821FF302821FF302821FF302821FF302821FF302821FF302821FF302821FFFFFF00FFFFFF00FFFFFF00FFFFFF00FFFFFF00FFFFFF00FFFFFF00FFFFFF00FFFFFF00FFFFFF00FF302821FF302821FF302821FF302821
310
FF302821FF302821FFFFFF00FFFFFF00FF302821FF302821FF302821FF302821FF302821FF302821FF302821FF302821FF302821FF302821FF302821FF302821FF302821FFFFFF00FFFFFF00FFFFFF00FFFFFF00FFFFFF00FFFFFF00FFFFFF00FFFFFF00FFFFFF00FFFFFF00FFFFFF00FF302821FF302821FF302821FF3028
310
21FF302821FF302821FF302821FF302821FFFFFF00FF302821FF302821FF302821FF302821FF302821FF302821FF302821FF302821FF302821FF302821FF302821FFFFFF00FFFFFF00FFFFFF00FFFFFF00FFFFFF00FFFFFF00FFFFFF00FFFFFF00FFFFFF00FFFFFF00FFFFFF00FFFFFF00FF302821FF302821FF302821FF30
310
2821FF302821FF302821FF302821FF302821FF302821FFFFFF00FF302821FF302821FF302821FF302821FF302821FF302821FF302821FF302821FF302821FFFFFF00FFFFFF00FFFFFF00FFFFFF00FFFFFF00FFFFFF00FFFFFF00FFFFFF00FFFFFF00FFFFFF00FFFFFF00FFFFFF00FFFFFF00FF302821FF302821FF302821FF
310
302821FF302821FF302821FF302821FF302821FF302821FF302821FFFFFF00FF302821FF302821FF302821FF302821FF302821FF302821FF302821FFFFFF00FFFFFF00FFFFFF00FFFFFF00FFFFFF00FFFFFF00FFFFFF00FFFFFF00FFFFFF00FFFFFF00FFFFFF00FFFFFF00FFFFFF00FFFFFF00FF302821FF302821FF302821
310
FF302821FF302821FF302821FF302821FF302821FF302821FF302821FFFFFF00FF302821FF302821FF302821FF302821FF302821FF302821FF302821FFFFFF00FFFFFF00FFFFFF00FFFFFF00FFFFFF00FFFFFF00FFFFFF00FFFFFF00FFFFFF00FFFFFF00FFFFFF00FFFFFF00FFFFFF00FFFFFF00FF302821FF302821FF3028
310
21FF302821FF302821FF302821FF302821FF302821FF302821FF302821FF302821FFFFFF00FF302821FF302821FF302821FF302821FF302821FFFFFF00FFFFFF00FFFFFF00FFFFFF00FFFFFF00FFFFFF00FFFFFF00FFFFFF00FFFFFF00FFFFFF00FFFFFF00FFFFFF00FFFFFF00FFFFFF00FFFFFF00FF302821FF302821FF30
310
2821FF302821FF302821FF302821FF302821FF302821FF302821FF302821FF302821FF302821FFFFFF00FF302821FF302821FF302821FF302821FFFFFF00FFFFFF00FFFFFF00FFFFFF00FFFFFF00FFFFFF00FFFFFF00FFFFFF00FFFFFF00FFFFFF00FFFFFF00FFFFFF00FFFFFF00FFFFFF00FFFFFF00FF302821FF302821FF
310
302821FF302821FF302821FF302821FF302821FF302821FF302821FF302821FF302821FF302821FFFFFF00FF302821FF302821FF302821FF302821FFFFFF00FFFFFF00FFFFFF00FFFFFF00FFFFFF00FFFFFF00FFFFFF00FFFFFF00FFFFFF00FFFFFF00FFFFFF00FFFFFF00FFFFFF00FFFFFF00FFFFFF00FF302821FF302821
310
FF302821FF302821FF302821FF302821FF302821FF302821FF302821FF302821FF302821FF302821FFFFFF00FF302821FF302821FF302821FF302821FFFFFF00FFFFFF00FFFFFF00FFFFFF00FFFFFF00FFFFFF00FFFFFF00FFFFFF00FFFFFF00FFFFFF00FFFFFF00FFFFFF00FFFFFF00FFFFFF00FFFFFF00FF302821FF3028
310
21FF302821FF302821FF302821FF302821FF302821FF302821FF302821FF302821FF302821FF302821FFFFFF00FF302821FF302821FF302821FFFFFF00FFFFFF00FFFFFF00FFFFFF00FFFFFF00FFFFFF00FFFFFF00FFFFFF00FFFFFF00FFFFFF00FFFFFF00FFFFFF00FFFFFF00FFFFFF00FFFFFF00FFFFFF00FF302821FF30
310
2821FF302821FF302821FF302821FF302821FF302821FF302821FF302821FF302821FF302821FF302821FF302821FFFFFF00FF302821FF302821FFFFFF00FFFFFF00FFFFFF00FFFFFF00FFFFFF00FFFFFF00FFFFFF00FFFFFF00FFFFFF00FFFFFF00FFFFFF00FFFFFF00FFFFFF00FFFFFF00FFFFFF00FFFFFF00FFFFFF00FF
310
FFFF00FFFFFF00FFFFFF00FFFFFF00FFFFFF00FFFFFF00FFFFFF00FFFFFF00FFFFFF00FFFFFF00FFFFFF00FFFFFF00FFFFFF00FF302821FF302821FFFFFF00FF302821FF302821FF302821FF302821FF302821FF302821FF302821FF302821FF302821FF302821FF302821FF302821FF302821FF302821FFFFFF00FFFFFF00
310
FFFFFF00FFFFFF00FFFFFF00FFFFFF00FFFFFF00FFFFFF00FFFFFF00FFFFFF00FFFFFF00FFFFFF00FFFFFF00FFFFFF00FFFFFF00FF302821FF302821FFFFFF00FF302821FF302821FF302821FF302821FF302821FF302821FF302821FF302821FF302821FF302821FF302821FF302821FF302821FF302821FFFFFF00FFFFFF
310
00FFFFFF00FFFFFF00FFFFFF00FFFFFF00FFFFFF00FFFFFF00FFFFFF00FFFFFF00FFFFFF00FFFFFF00FFFFFF00FFFFFF00FF302821FF302821FF302821FF302821FFFFFF00FF302821FF302821FF302821FF302821FF302821FF302821FF302821FF302821FF302821FF302821FF302821FF302821FF302821FFFFFF00FFFF
310
FF00FFFFFF00FFFFFF00FFFFFF00FFFFFF00FFFFFF00FFFFFF00FFFFFF00FFFFFF00FFFFFF00FFFFFF00FFFFFF00FFFFFF00FF302821FF302821FF302821FF302821FFFFFF00FF302821FF302821FF302821FF302821FF302821FF302821FF302821FF302821FF302821FF302821FF302821FF302821FF302821FFFFFF00FF
310
FFFF00FFFFFF00FFFFFF00FFFFFF00FFFFFF00FFFFFF00FFFFFF00FFFFFF00FFFFFF00FFFFFF00FFFFFF00FFFFFF00FFFFFF00FF302821FF302821FF302821FF302821FFFFFF00FF302821FF302821FF302821FF302821FF302821FF302821FF302821FF302821FF302821FF302821FF302821FF302821FF302821FFFFFF00
310
FFFFFF00FFFFFF00FFFFFF00FFFFFF00FFFFFF00FFFFFF00FFFFFF00FFFFFF00FFFFFF00FFFFFF00FFFFFF00FFFFFF00FFFFFF00FF302821FF302821FF302821FF302821FF302821FFFFFF00FF302821FF302821FF302821FF302821FF302821FF302821FF302821FF302821FF302821FF302821FF302821FF302821FFFFFF
310
00FFFFFF00FFFFFF00FFFFFF00FFFFFF00FFFFFF00FFFFFF00FFFFFF00FFFFFF00FFFFFF00FFFFFF00FFFFFF00FFFFFF00FFFFFF00FF302821FF302821FF302821FF302821FF302821FFFFFF00FF302821FF302821FF302821FF302821FF302821FF302821FF302821FF302821FF302821FF302821FF302821FF302821FFFF
310
FF00FFFFFF00FFFFFF00FFFFFF00FFFFFF00FFFFFF00FFFFFF00FFFFFF00FFFFFF00FFFFFF00FFFFFF00FFFFFF00FFFFFF00FF302821FF302821FF302821FF302821FF302821FF302821FF302821FFFFFF00FF302821FF302821FF302821FF302821FF302821FF302821FF302821FF302821FF302821FF302821FF302821FF
310
FFFF00FFFFFF00FFFFFF00FFFFFF00FFFFFF00FFFFFF00FFFFFF00FFFFFF00FFFFFF00FFFFFF00FFFFFF00FFFFFF00FFFFFF00FF302821FF302821FF302821FF302821FF302821FF302821FF302821FFFFFF00FF302821FF302821FF302821FF302821FF302821FF302821FF302821FF302821FF302821FF302821FF302821
310
FFFFFF00FFFFFF00FFFFFF00FFFFFF00FFFFFF00FFFFFF00FFFFFF00FFFFFF00FFFFFF00FFFFFF00FFFFFF00FFFFFF00FF302821FF302821FF302821FF302821FF302821FF302821FF302821FF302821FF302821FFFFFF00FF302821FF302821FF302821FF302821FF302821FF302821FF302821FF302821FF302821FF3028
310
21FFFFFF00FFFFFF00FFFFFF00FFFFFF00FFFFFF00FFFFFF00FFFFFF00FFFFFF00FFFFFF00FFFFFF00FFFFFF00FF302821FF302821FF302821FF302821FF302821FF302821FF302821FF302821FF302821FF302821FF302821FFFFFF00FF302821FF302821FF302821FF302821FF302821FF302821FF302821FF302821FF30
310
2821FFFFFF00FFFFFF00FFFFFF00FFFFFF00FFFFFF00FFFFFF00FFFFFF00FFFFFF00FFFFFF00FFFFFF00FF302821FF302821FF302821FF302821FF302821FF302821FF302821FF302821FF302821FF302821FF302821FF302821FF302821FFFFFF00FF302821FF302821FF302821FF302821FF302821FF302821FF302821FF
310
302821FFFFFF00FFFFFF00FFFFFF00FFFFFF00FFFFFF00FFFFFF00FFFFFF00FFFFFF00FFFFFF00FF302821FF302821FF302821FF302821FF302821FF302821FF302821FF302821FF302821FF302821FF302821FF302821FF302821FF302821FF302821FFFFFF00FFFFFF00FF302821FF302821FF302821FF302821FF302821
310
FF302821FFFFFF00FFFFFF00FFFFFF00FFFFFF00FFFFFF00FFFFFF00FFFFFF00FFFFFF00FF302821FF302821FF302821FF302821FF302821FF302821FF302821FF302821FF302821FF302821FF302821FF302821FF302821FF302821FF302821FF302821FF302821FF302821FFFFFF00FFFFFF00FFFFFF00FFFFFF00FFFFFF
310
00FF302821FFFFFF00FFFFFF00FFFFFF00FFFFFF00FFFFFF00FFFFFF00FF302821FF302821FF302821FF302821FF302821FF302821FF302821FF302821FF302821FF302821FF302821FF302821FF302821FF302821FF302821FF302821FF302821FF302821FF302821FF302821FF302821FF302821FF302821FF302821FF30
310
2821FFFFFF00FFFFFF00FFFFFF00FF302821FF302821FF302821FF302821FF302821FF302821FF302821FF302821FF302821FF302821FF302821FF302821FF302821FF302821FF302821FF302821FF302821FF302821FF302821FF302821FF302821FF302821FF302821FF302821FF302821FF302821FF302821FF302821FF
310
302821FF302821FF302821FF302821FF302821FF302821FF302821FF302821FF302821FF302821FF302821FF302821FF302821FF302821FF302821FF302821FF302821FF302821FF
102
{BLKREFS
331
21DFB
102
}
 70
     0
280
     1
281
     1
  0
BLOCK_RECORD
  5
21F31
330
1
100
AcDbSymbolTableRecord
100
AcDbBlockTableRecord
  2
*D12
340
0
 70
     0
280
     1
281
     0
  0
BLOCK_RECORD
  5
21F3D
330
1
100
AcDbSymbolTableRecord
100
AcDbBlockTableRecord
  2
*D13
340
0
 70
     0
280
     1
281
     0
  0
BLOCK_RECORD
  5
21F4B
330
1
100
AcDbSymbolTableRecord
100
AcDbBlockTableRecord
  2
*D14
340
0
 70
     0
280
     1
281
     0
  0
BLOCK_RECORD
  5
21F57
330
1
100
AcDbSymbolTableRecord
100
AcDbBlockTableRecord
  2
*D15
340
0
 70
     0
280
     1
281
     0
  0
BLOCK_RECORD
  5
21F63
330
1
100
AcDbSymbolTableRecord
100
AcDbBlockTableRecord
  2
*D16
340
0
 70
     0
280
     1
281
     0
  0
ENDTAB
  0
ENDSEC
  0
SECTION
  2
BLOCKS
  0
BLOCK
  5
20
330
1F
100
AcDbEntity
  8
0
100
AcDbBlockBegin
  2
*MODEL_SPACE
 70
     0
 10
0.0
 20
0.0
 30
0.0
  3
*MODEL_SPACE
  1

  0
ENDBLK
  5
21
330
1F
100
AcDbEntity
  8
0
100
AcDbBlockEnd
  0
BLOCK
  5
1C
330
1B
100
AcDbEntity
 67
     1
  8
0
100
AcDbBlockBegin
  2
*PAPER_SPACE
 70
     0
 10
0.0
 20
0.0
 30
0.0
  3
*PAPER_SPACE
  1

  0
ENDBLK
  5
1D
330
1B
100
AcDbEntity
 67
     1
  8
0
100
AcDbBlockEnd
  0
BLOCK
  5
1B3D8
330
1B3D7
100
AcDbEntity
  8
0
100
AcDbBlockBegin
  2
cero_point
 70
     0
 10
0.0
 20
0.0
 30
0.0
  3
cero_point
  1

  0
HATCH
  5
1B3DA
330
1B3D7
100
AcDbEntity
  8
1
  6
ByBlock
370
    50
100
AcDbHatch
 10
0.0
 20
0.0
 30
0.0
210
0.0
220
0.0
230
1.0
  2
SOLID
 70
     1
 71
     0
 91
        2
 92
        7
 72
     1
 73
     1
 93
        3
 10
-0.0000000000001137
 20
0.0
 42
0.0
 10
-2.950972054112752
 20
0.0
 42
0.4142135623730968
 10
-0.0000000000001137
 20
-2.950972054112583
 42
0.0
 97
        0
 92
        7
 72
     1
 73
     1
 93
        3
 10
-0.0000000000001137
 20
2.950972054112638
 42
0.0
 10
-0.0000000000001137
 20
0.0
 42
0.0
 10
2.950972054112526
 20
0.0
 42
0.4142135623730966
 97
        0
 75
     0
 76
     1
 47
0.1190009775223266
 98
        2
 10
-0.7445530588121301
 20
-0.9212244733764125
 10
1.279464601852737
 20
1.696796923046345
450
        0
451
        0
460
0.0
461
0.0
452
        0
462
0.0
453
        0
470

  0
LWPOLYLINE
  5
1B3DB
330
1B3D7
100
AcDbEntity
  8
1
  6
ByBlock
370
    50
100
AcDbPolyline
 90
        3
 70
     1
 43
0.0
 10
-0.0000000000001137
 20
0.0
 10
2.950972054112526
 20
0.0
 42
0.4142135623730966
 10
-0.0000000000001137
 20
2.950972054112638
  0
LINE
  5
1B3DC
330
1B3D7
100
AcDbEntity
  8
1
  6
ByBlock
370
    50
100
AcDbLine
 10
-0.0000000000001137
 20
-2.950972054112583
 30
0.0
 11
-0.0000000000001137
 21
2.950972054112638
 31
0.0
  0
LWPOLYLINE
  5
1B3DD
330
1B3D7
100
AcDbEntity
  8
1
  6
ByBlock
370
    50
100
AcDbPolyline
 90
        3
 70
     1
 43
0.0
 10
-0.0000000000001137
 20
-2.950972054112583
 10
-0.0000000000001137
 20
0.0
 10
-2.950972054112752
 20
0.0
 42
0.4142135623730966
  0
LINE
  5
1B3DE
330
1B3D7
100
AcDbEntity
  8
1
  6
ByBlock
370
    50
100
AcDbLine
 10
2.950972054112638
 20
0.0
 30
0.0
 11
-2.950972054112638
 21
0.0
 31
0.0
  0
CIRCLE
  5
1B3DF
330
1B3D7
100
AcDbEntity
  8
1
  6
ByBlock
370
    50
100
AcDbCircle
 10
-0.0000000000001137
 20
0.0
 30
0.0
 40
2.950972054112601
  0
ENDBLK
  5
1B3D9
330
1B3D7
100
AcDbEntity
  8
0
100
AcDbBlockEnd
  0
BLOCK
  5
21F32
330
21F31
100
AcDbEntity
  8
0
100
AcDbBlockBegin
  2
*D12
 70
     1
 10
0.0
 20
0.0
 30
0.0
  3
*D12
  1

  0
LINE
  5
220DE
330
21F31
100
AcDbEntity
  8
2
 62
     0
440
 16777216
370
    -2
100
AcDbLine
 10
25.35000104065617
 20
0.0624999999913363
 30
0.0
 11
25.35058264842938
 21
34.99297245780091
 31
0.0
  0
LINE
  5
220DF
330
21F31
100
AcDbEntity
  8
2
 62
     0
440
 16777216
370
    -2
100
AcDbLine
 10
0.0000010406563184
 20
13.22195199999127
 30
0.0
 11
0.0003635447775122
 21
34.99339455013021
 31
0.0
  0
LINE
  5
220E0
330
21F31
100
AcDbEntity
  8
2
 62
     0
440
 16777216
370
    -2
100
AcDbLine
 10
20.78057965198348
 20
34.81304855034154
 30
0.0
 11
4.570360547064632
 21
34.81331845763949
 31
0.0
  0
SOLID
  5
220E1
330
21F31
100
AcDbEntity
  8
2
 62
     0
440
 16777216
100
AcDbTrace
 10
20.78059233406943
 20
35.57471521690263
 30
0.0
 11
20.78056696989753
 21
34.05138188378046
 31
0.0
 12
25.35057965135
 22
34.81297245782586
 32
0.0
 13
25.35057965135
 23
34.81297245782586
 33
0.0
  0
SOLID
  5
220E2
330
21F31
100
AcDbEntity
  8
2
 62
     0
440
 16777216
100
AcDbTrace
 10
4.570373229150579
 20
35.57498512420057
 30
0.0
 11
4.570347864978685
 21
34.05165179107841
 31
0.0
 12
0.00036054769812
 22
34.81339455015516
 32
0.0
 13
0.00036054769812
 23
34.81339455015516
 33
0.0
  0
MTEXT
  5
220E3
330
21F31
100
AcDbEntity
  8
2
 62
     0
440
 16777216
100
AcDbMText
 10
12.6752506330464
 20
36.71467331816833
 30
0.0
 40
3.5
 41
0.0
 46
0.0
 71
     5
 72
     1
  1
\A1;25.35
 11
0.9999999998613814
 21
-0.0000166504410678
 31
0.0
 73
     1
 44
1.0
  0
POINT
  5
220E4
330
21F31
100
AcDbEntity
  8
Defpoints
 62
     0
440
 16777216
100
AcDbPoint
 10
25.35000000000361
 20
0.0
 30
0.0
  0
POINT
  5
220E5
330
21F31
100
AcDbEntity
  8
Defpoints
 62
     0
440
 16777216
100
AcDbPoint
 10
0.0000000000037517
 20
13.15945199999993
 30
0.0
  0
POINT
  5
220E6
330
21F31
100
AcDbEntity
  8
Defpoints
 62
     0
440
 16777216
100
AcDbPoint
 10
0.00036054769812
 20
34.81339455015516
 30
0.0
  0
ENDBLK
  5
21F33
330
21F31
100
AcDbEntity
  8
0
100
AcDbBlockEnd
  0
BLOCK
  5
21F3E
330
21F3D
100
AcDbEntity
  8
0
100
AcDbBlockBegin
  2
*D13
 70
     1
 10
0.0
 20
0.0
 30
0.0
  3
*D13
  1

  0
LINE
  5
220E7
330
21F3D
100
AcDbEntity
  8
2
 62
     0
440
 16777216
370
    -2
100
AcDbLine
 10
21.21000208130875
 20
13.16249999996537
 30
0.0
 11
21.21036274315868
 21
23.99289927435565
 31
0.0
  0
LINE
  5
220E8
330
21F3D
100
AcDbEntity
  8
2
 62
     0
440
 16777216
370
    -2
100
AcDbLine
 10
25.35000208130874
 20
0.0624999999653454
 30
0.0
 11
25.35079898012338
 21
23.99276139417645
 31
0.0
  0
LINE
  5
220E9
330
21F3D
100
AcDbEntity
  8
2
 62
     0
440
 16777216
370
    -2
100
AcDbLine
 10
29.92079298343065
 20
23.81260920924489
 30
0.0
 11
34.4907929808967
 21
23.81245702421352
 31
0.0
  0
LINE
  5
220EA
330
21F3D
100
AcDbEntity
  8
2
 62
     0
440
 16777216
370
    -2
100
AcDbLine
 10
16.64035675153385
 20
23.81305145948682
 30
0.0
 11
2.62064488298978
 21
23.81351832825961
 31
0.0
  0
LINE
  5
220EB
330
21F3D
100
AcDbEntity
  8
2
 62
     0
440
 16777216
370
    -2
100
AcDbLine
 10
25.3507929859646
 20
23.81276139427626
 30
0.0
 11
21.2103567489999
 21
23.81289927445545
 31
0.0
  0
SOLID
  5
220EC
330
21F3D
100
AcDbEntity
  8
2
 62
     0
440
 16777216
100
AcDbTrace
 10
29.92081834760254
 20
24.57427587548923
 30
0.0
 11
29.92076761925876
 21
23.05094254300055
 31
0.0
 12
25.3507929859646
 22
23.81276139427626
 32
0.0
 13
25.3507929859646
 23
23.81276139427626
 33
0.0
  0
SOLID
  5
220ED
330
21F3D
100
AcDbEntity
  8
2
 62
     0
440
 16777216
100
AcDbTrace
 10
16.64038211570574
 20
24.57471812573116
 30
0.0
 11
16.64033138736195
 21
23.05138479324248
 31
0.0
 12
21.2103567489999
 22
23.81289927445545
 32
0.0
 13
21.2103567489999
 23
23.81289927445545
 33
0.0
  0
MTEXT
  5
220EE
330
21F3D
100
AcDbEntity
  8
2
 62
     0
440
 16777216
100
AcDbMText
 10
7.345562460731607
 20
25.66442915120934
 30
0.0
 40
3.5
 41
0.0
 46
0.0
 71
     5
 72
     1
  1
\A1;4.14
 11
0.9999999994455256
 21
-0.0000333008821372
 31
0.0
 73
     1
 44
1.0
  0
POINT
  5
220EF
330
21F3D
100
AcDbEntity
  8
Defpoints
 62
     0
440
 16777216
100
AcDbPoint
 10
21.21000000000361
 20
13.10000000000002
 30
0.0
  0
POINT
  5
220F0
330
21F3D
100
AcDbEntity
  8
Defpoints
 62
     0
440
 16777216
100
AcDbPoint
 10
25.35000000000361
 20
0.0
 30
0.0
  0
POINT
  5
220F1
330
21F3D
100
AcDbEntity
  8
Defpoints
 62
     0
440
 16777216
100
AcDbPoint
 10
25.3507929859646
 20
23.81276139427626
 30
0.0
  0
ENDBLK
  5
21F3F
330
21F3D
100
AcDbEntity
  8
0
100
AcDbBlockEnd
  0
BLOCK
  5
21F4C
330
21F4B
100
AcDbEntity
  8
0
100
AcDbBlockBegin
  2
*D14
 70
     1
 10
0.0
 20
0.0
 30
0.0
  3
*D14
  1

  0
LINE
  5
220F2
330
21F4B
100
AcDbEntity
  8
2
 62
     0
440
 16777216
370
    -2
100
AcDbLine
 10
22.07250000000363
 20
-8.449999999999988
 30
0.0
 11
40.20552100000371
 21
-8.449999999999993
 31
0.0
  0
LINE
  5
220F3
330
21F4B
100
AcDbEntity
  8
2
 62
     0
440
 16777216
370
    -2
100
AcDbLine
 10
22.07250000000363
 20
8.449999999999988
 30
0.0
 11
40.20552100000371
 21
8.449999999999983
 31
0.0
  0
LINE
  5
220F4
330
21F4B
100
AcDbEntity
  8
2
 62
     0
440
 16777216
370
    -2
100
AcDbLine
 10
40.02552100000372
 20
-3.879999999999993
 30
0.0
 11
40.02552100000372
 21
3.879999999999983
 31
0.0
  0
SOLID
  5
220F5
330
21F4B
100
AcDbEntity
  8
2
 62
     0
440
 16777216
100
AcDbTrace
 10
39.26385433333705
 20
-3.879999999999993
 30
0.0
 11
40.78718766667039
 21
-3.879999999999993
 31
0.0
 12
40.02552100000372
 22
-8.449999999999993
 32
0.0
 13
40.02552100000372
 23
-8.449999999999993
 33
0.0
  0
SOLID
  5
220F6
330
21F4B
100
AcDbEntity
  8
2
 62
     0
440
 16777216
100
AcDbTrace
 10
39.26385433333705
 20
3.879999999999983
 30
0.0
 11
40.78718766667039
 21
3.879999999999983
 31
0.0
 12
40.02552100000372
 22
8.449999999999983
 32
0.0
 13
40.02552100000372
 23
8.449999999999983
 33
0.0
  0
MTEXT
  5
220F7
330
21F4B
100
AcDbEntity
  8
2
 62
     0
440
 16777216
100
AcDbMText
 10
38.12403118974371
 20
0.0000000000000002
 30
0.0
 40
3.5
 41
0.0
 46
0.0
 71
     5
 72
     1
  1
\A1;16.9
 11
0.0000000000000001
 21
1.0
 31
0.0
 73
     1
 44
1.0
  0
POINT
  5
220F8
330
21F4B
100
AcDbEntity
  8
Defpoints
 62
     0
440
 16777216
100
AcDbPoint
 10
22.01000000000363
 20
-8.449999999999988
 30
0.0
  0
POINT
  5
220F9
330
21F4B
100
AcDbEntity
  8
Defpoints
 62
     0
440
 16777216
100
AcDbPoint
 10
22.01000000000363
 20
8.449999999999988
 30
0.0
  0
POINT
  5
220FA
330
21F4B
100
AcDbEntity
  8
Defpoints
 62
     0
440
 16777216
100
AcDbPoint
 10
40.02552100000372
 20
8.449999999999983
 30
0.0
  0
ENDBLK
  5
21F4D
330
21F4B
100
AcDbEntity
  8
0
100
AcDbBlockEnd
  0
BLOCK
  5
21F58
330
21F57
100
AcDbEntity
  8
0
100
AcDbBlockBegin
  2
*D15
 70
     1
 10
0.0
 20
0.0
 30
0.0
  3
*D15
  1

  0
LINE
  5
220FB
330
21F57
100
AcDbEntity
  8
2
 62
     0
440
 16777216
370
    -2
100
AcDbLine
 10
20.8725000000037
 20
-13.5
 30
0.0
 11
53.20552100000378
 21
-13.50000000000001
 31
0.0
  0
LINE
  5
220FC
330
21F57
100
AcDbEntity
  8
2
 62
     0
440
 16777216
370
    -2
100
AcDbLine
 10
20.8725000000037
 20
13.5
 30
0.0
 11
53.20552100000377
 21
13.49999999999999
 31
0.0
  0
LINE
  5
220FD
330
21F57
100
AcDbEntity
  8
2
 62
     0
440
 16777216
370
    -2
100
AcDbLine
 10
53.02552100000378
 20
-8.930000000000008
 30
0.0
 11
53.02552100000378
 21
8.92999999999999
 31
0.0
  0
SOLID
  5
220FE
330
21F57
100
AcDbEntity
  8
2
 62
     0
440
 16777216
100
AcDbTrace
 10
52.2638543333371
 20
-8.930000000000008
 30
0.0
 11
53.78718766667045
 21
-8.930000000000008
 31
0.0
 12
53.02552100000378
 22
-13.50000000000001
 32
0.0
 13
53.02552100000378
 23
-13.50000000000001
 33
0.0
  0
SOLID
  5
220FF
330
21F57
100
AcDbEntity
  8
2
 62
     0
440
 16777216
100
AcDbTrace
 10
52.2638543333371
 20
8.92999999999999
 30
0.0
 11
53.78718766667045
 21
8.92999999999999
 31
0.0
 12
53.02552100000378
 22
13.49999999999999
 32
0.0
 13
53.02552100000378
 23
13.49999999999999
 33
0.0
  0
MTEXT
  5
22100
330
21F57
100
AcDbEntity
  8
2
 62
     0
440
 16777216
100
AcDbMText
 10
51.07237974912536
 20
0.0000000000000002
 30
0.0
 40
3.5
 41
0.0
 46
0.0
 71
     5
 72
     1
  1
\A1;%%c27
 11
0.0000000000000001
 21
1.0
 31
0.0
 73
     1
 44
1.0
  0
POINT
  5
22101
330
21F57
100
AcDbEntity
  8
Defpoints
 62
     0
440
 16777216
100
AcDbPoint
 10
20.8100000000037
 20
-13.5
 30
0.0
  0
POINT
  5
22102
330
21F57
100
AcDbEntity
  8
Defpoints
 62
     0
440
 16777216
100
AcDbPoint
 10
20.8100000000037
 20
13.5
 30
0.0
  0
POINT
  5
22103
330
21F57
100
AcDbEntity
  8
Defpoints
 62
     0
440
 16777216
100
AcDbPoint
 10
53.02552100000378
 20
13.49999999999999
 30
0.0
  0
ENDBLK
  5
21F59
330
21F57
100
AcDbEntity
  8
0
100
AcDbBlockEnd
  0
BLOCK
  5
21F64
330
21F63
100
AcDbEntity
  8
0
100
AcDbBlockBegin
  2
*D16
 70
     1
 10
0.0
 20
0.0
 30
0.0
  3
*D16
  1

  0
LINE
  5
22104
330
21F63
100
AcDbEntity
  8
SK2
 62
     0
440
 16777216
370
    -2
100
AcDbLine
 10
-10.66249999999621
 20
5.200000000000002
 30
0.0
 11
-26.64045587703043
 21
5.200000000000007
 31
0.0
  0
LINE
  5
22105
330
21F63
100
AcDbEntity
  8
SK2
 62
     0
440
 16777216
370
    -2
100
AcDbLine
 10
-10.66249999999621
 20
-5.200000000000002
 30
0.0
 11
-26.64045587703043
 21
-5.199999999999998
 31
0.0
  0
LINE
  5
22106
330
21F63
100
AcDbEntity
  8
SK2
 62
     0
440
 16777216
370
    -2
100
AcDbLine
 10
-26.46045587703043
 20
9.770000000000006
 30
0.0
 11
-26.46045587703043
 21
14.34000000000001
 31
0.0
  0
LINE
  5
22107
330
21F63
100
AcDbEntity
  8
SK2
 62
     0
440
 16777216
370
    -2
100
AcDbLine
 10
-26.46045587703043
 20
-9.769999999999999
 30
0.0
 11
-26.46045587703043
 21
-26.31226985242446
 31
0.0
  0
LINE
  5
22108
330
21F63
100
AcDbEntity
  8
SK2
 62
     0
440
 16777216
370
    -2
100
AcDbLine
 10
-26.46045587703043
 20
5.200000000000007
 30
0.0
 11
-26.46045587703043
 21
-5.199999999999998
 31
0.0
  0
SOLID
  5
22109
330
21F63
100
AcDbEntity
  8
SK2
 62
     0
440
 16777216
100
AcDbTrace
 10
-27.22212254369709
 20
9.770000000000006
 30
0.0
 11
-25.69878921036376
 21
9.770000000000006
 31
0.0
 12
-26.46045587703043
 22
5.200000000000007
 32
0.0
 13
-26.46045587703043
 23
5.200000000000007
 33
0.0
  0
SOLID
  5
2210A
330
21F63
100
AcDbEntity
  8
SK2
 62
     0
440
 16777216
100
AcDbTrace
 10
-27.2221225436971
 20
-9.769999999999999
 30
0.0
 11
-25.69878921036377
 21
-9.769999999999999
 31
0.0
 12
-26.46045587703043
 22
-5.199999999999998
 32
0.0
 13
-26.46045587703043
 23
-5.199999999999998
 33
0.0
  0
MTEXT
  5
2210B
330
21F63
100
AcDbEntity
  8
SK2
 62
     0
440
 16777216
100
AcDbMText
 10
-28.41359712790885
 20
-20.32613492621223
 30
0.0
 40
3.5
 41
0.0
 46
0.0
 71
     5
 72
     1
  1
\A1;%%C10.4
 11
0.0000000000000001
 21
1.0
 31
0.0
 73
     1
 44
1.0
  0
POINT
  5
2210C
330
21F63
100
AcDbEntity
  8
Defpoints
 62
     0
440
 16777216
100
AcDbPoint
 10
-10.59999999999621
 20
5.200000000000002
 30
0.0
  0
POINT
  5
2210D
330
21F63
100
AcDbEntity
  8
Defpoints
 62
     0
440
 16777216
100
AcDbPoint
 10
-10.59999999999621
 20
-5.200000000000002
 30
0.0
  0
POINT
  5
2210E
330
21F63
100
AcDbEntity
  8
Defpoints
 62
     0
440
 16777216
100
AcDbPoint
 10
-26.46045587703043
 20
-5.199999999999998
 30
0.0
  0
ENDBLK
  5
21F65
330
21F63
100
AcDbEntity
  8
0
100
AcDbBlockEnd
  0
ENDSEC
  0
SECTION
  2
ENTITIES
  0
MTEXT
  5
211A0
330
1F
100
AcDbEntity
  8
SK6
100
AcDbMText
 10
-6.373276845794919
 20
-34.28722883357388
 30
0.0
 40
3.5
 41
41.87058589293636
 46
0.0
 71
     2
 72
     1
  1
CD2700025YFR00
 73
     1
 44
1.0
1001
ACAD
1000
MTEXTBEGIN
1070
    73
1070
     1
1070
    44
1040
1.0
1070
    74
1070
     0
1000
MTEXTEND
  0
INSERT
  5
21DFB
330
1F
100
AcDbEntity
  8
1
100
AcDbBlockReference
  2
cero_point
 10
0.0000000000001137
 20
0.0
 30
0.0
  0
LINE
  5
21DFF
330
1F
100
AcDbEntity
  8
INFTOTAL
100
AcDbLine
 10
-91.92585354760094
 20
6.036746118164501
 30
0.0
 11
-91.92585354760094
 21
49.62846851440327
 31
0.0
  0
LINE
  5
21E00
330
1F
100
AcDbEntity
  8
INFTOTAL
100
AcDbLine
 10
-91.92585354760094
 20
49.62846851440327
 30
0.0
 11
-35.52206717884189
 21
49.62846851440327
 31
0.0
  0
LINE
  5
21E01
330
1F
100
AcDbEntity
  8
INFTOTAL
100
AcDbLine
 10
13.91170086869999
 20
-54.09905442797207
 30
0.0
 11
69.2704821197841
 21
-54.09905442797207
 31
0.0
  0
LINE
  5
21E02
330
1F
100
AcDbEntity
  8
INFTOTAL
100
AcDbLine
 10
69.2704821197841
 20
-54.09905442797207
 30
0.0
 11
69.2704821197841
 21
-13.65093823137751
 31
0.0
  0
DIMENSION
  5
21E03
330
1F
100
AcDbEntity
  8
2
100
AcDbDimension
280
     0
  2
*D12
 10
0.00036054769812
 20
34.81339455015516
 30
0.0
 11
12.67521897240238
 21
34.81318350817189
 31
0.0
 70
   160
 71
     5
 42
25.35021910716588
 73
     0
 74
     0
 75
     0
  3
STANDARD
100
AcDbAlignedDimension
 13
25.35000000000361
 23
0.0
 33
0.0
 14
0.0000000000037517
 24
13.15945199999993
 34
0.0
 50
179.9990459999997
100
AcDbRotatedDimension
1001
ACAD_DSTYLE_DIMARC_LENGTH_SYMBOL
1070
   379
1070
     1
1001
ACAD_DSTYLE_DIM_LINETYPE
1070
   380
1005
14
1001
ACAD_DSTYLE_DIM_EXT1_LINETYPE
1070
   381
1005
14
1001
ACAD_DSTYLE_DIM_EXT2_LINETYPE
1070
   382
1005
14
1001
ACAD
1000
DSTYLE
1002
{
1070
   172
1070
     1
1002
}
  0
DIMENSION
  5
21E04
330
1F
100
AcDbEntity
  8
2
100
AcDbDimension
280
     0
  2
*D13
 10
25.3507929859646
 20
23.81276139427626
 30
0.0
 11
7.345500818528789
 21
23.8133609863889
 31
0.0
 70
   160
 71
     5
 42
4.140436239260463
 73
     0
 74
     0
 75
     0
  3
STANDARD
100
AcDbAlignedDimension
 13
21.21000000000362
 23
13.10000000000002
 33
0.0
 14
25.35000000000361
 24
0.0
 34
0.0
 50
359.9980919999991
100
AcDbRotatedDimension
1001
ACAD_DSTYLE_DIMARC_LENGTH_SYMBOL
1070
   379
1070
     1
1001
ACAD_DSTYLE_DIM_LINETYPE
1070
   380
1005
14
1001
ACAD_DSTYLE_DIM_EXT1_LINETYPE
1070
   381
1005
14
1001
ACAD_DSTYLE_DIM_EXT2_LINETYPE
1070
   382
1005
14
1001
ACAD
1000
DSTYLE
1002
{
1070
   172
1070
     1
1002
}
  0
DIMENSION
  5
21E05
330
1F
100
AcDbEntity
  8
2
100
AcDbDimension
280
     0
  2
*D14
 10
40.02552100000372
 20
8.449999999999983
 30
0.0
 11
40.02552100000372
 21
0.0
 31
0.0
 70
   161
 71
     5
 42
16.89999999999997
 73
     0
 74
     0
 75
     0
  3
STANDARD
100
AcDbAlignedDimension
 13
22.01000000000363
 23
-8.449999999999988
 33
0.0
 14
22.01000000000363
 24
8.449999999999988
 34
0.0
1001
ACAD_DSTYLE_DIMARC_LENGTH_SYMBOL
1070
   379
1070
     1
1001
ACAD_DSTYLE_DIM_LINETYPE
1070
   380
1005
14
1001
ACAD_DSTYLE_DIM_EXT1_LINETYPE
1070
   381
1005
14
1001
ACAD_DSTYLE_DIM_EXT2_LINETYPE
1070
   382
1005
14
1001
ACAD
1000
DSTYLE
1002
{
1070
   172
1070
     1
1002
}
  0
DIMENSION
  5
21E06
330
1F
100
AcDbEntity
  8
2
100
AcDbDimension
280
     0
  2
*D15
 10
53.02552100000378
 20
13.49999999999999
 30
0.0
 11
53.02552100000378
 21
0.0
 31
0.0
 70
   161
  1
%%c<>
 71
     5
 42
27.0
 73
     0
 74
     0
 75
     0
  3
STANDARD
100
AcDbAlignedDimension
 13
20.8100000000037
 23
-13.5
 33
0.0
 14
20.8100000000037
 24
13.5
 34
0.0
1001
ACAD_DSTYLE_DIMARC_LENGTH_SYMBOL
1070
   379
1070
     1
1001
ACAD_DSTYLE_DIM_LINETYPE
1070
   380
1005
14
1001
ACAD_DSTYLE_DIM_EXT1_LINETYPE
1070
   381
1005
14
1001
ACAD_DSTYLE_DIM_EXT2_LINETYPE
1070
   382
1005
14
1001
ACAD
1000
DSTYLE
1002
{
1070
   172
1070
     1
1002
}
  0
LINE
  5
21E07
330
1F
100
AcDbEntity
  8
1
100
AcDbLine
 10
7.489586000003725
 20
6.428570999999976
 30
0.0
 11
15.83549300000362
 21
6.428570999999976
 31
0.0
  0
LINE
  5
21E08
330
1F
100
AcDbEntity
  8
4
100
AcDbLine
 10
26.71061800000371
 20
0.0
 30
0.0
 11
0.0000000000037517
 21
0.0
 31
0.0
  0
LINE
  5
21E09
330
1F
100
AcDbEntity
  8
SK3
100
AcDbLine
 10
0.0000000000037517
 20
6.5
 30
0.0
 11
19.96000000000367
 21
6.5
 31
0.0
  0
LINE
  5
21E0A
330
1F
100
AcDbEntity
  8
SK3
100
AcDbLine
 10
0.0000000000037517
 20
3.899999999999977
 30
0.0
 11
19.96000000000367
 21
3.899999999999977
 31
0.0
  0
LINE
  5
21E0B
330
1F
100
AcDbEntity
  8
SK3
100
AcDbLine
 10
0.0000000000037517
 20
-3.89999999999997
 30
0.0
 11
19.96000000000367
 21
-3.89999999999997
 31
0.0
  0
LINE
  5
21E0C
330
1F
100
AcDbEntity
  8
SK3
100
AcDbLine
 10
0.0000000000037517
 20
-6.5
 30
0.0
 11
19.96000000000367
 21
-6.5
 31
0.0
  0
LINE
  5
21E0E
330
1F
100
AcDbEntity
  8
1
100
AcDbLine
 10
21.21000000000362
 20
8.449999999999988
 30
0.0
 11
19.76800000000372
 21
8.449999999999988
 31
0.0
  0
LINE
  5
21E12
330
1F
100
AcDbEntity
  8
1
100
AcDbLine
 10
16.0500000000037
 20
7.430000000000006
 30
0.0
 11
16.0500000000037
 21
7.416753999999997
 31
0.0
  0
LINE
  5
21E13
330
1F
100
AcDbEntity
  8
1
100
AcDbLine
 10
10.13500000000368
 20
2.907913000000007
 30
0.0
 11
10.13500000000368
 21
4.141348999999998
 31
0.0
  0
LINE
  5
21E14
330
1F
100
AcDbEntity
  8
1
100
AcDbLine
 10
0.0000000000037517
 20
13.159452
 30
0.0
 11
0.0000000000037517
 21
5.189768
 31
0.0
  0
ARC
  5
21E15
330
1F
100
AcDbEntity
  8
1
100
AcDbCircle
 10
8.964599000003772
 20
-429.8294509999998
 30
0.0
 40
443.079464
100
AcDbArc
 50
90.00171199999929
 51
91.15931499999907
  0
LINE
  5
21E16
330
1F
100
AcDbEntity
  8
1
100
AcDbLine
 10
15.14000000000362
 20
13.25
 30
0.0
 11
8.951363000003709
 21
13.25
 31
0.0
  0
CIRCLE
  5
21E17
330
1F
100
AcDbEntity
  8
1
100
AcDbCircle
 10
18.17500000000376
 20
10.465
 30
0.0
 40
0.9519999999999997
  0
LINE
  5
21E18
330
1F
100
AcDbEntity
  8
1
100
AcDbLine
 10
15.14000000000362
 20
7.430000000000006
 30
0.0
 11
15.14000000000362
 21
4.502504999999999
 31
0.0
  0
LINE
  5
21E19
330
1F
100
AcDbEntity
  8
1
100
AcDbLine
 10
11.8754240000037
 20
4.510238999999998
 30
0.0
 11
15.14000000000362
 21
4.502504999999999
 31
0.0
  0
ARC
  5
21E1A
330
1F
100
AcDbEntity
  8
1
100
AcDbCircle
 10
27.72723000000372
 20
105.878116
 30
0.0
 40
102.599836
100
AcDbArc
 50
261.1121269999997
 51
262.5320149999985
  0
LINE
  5
21E1B
330
1F
100
AcDbEntity
  8
1
100
AcDbLine
 10
16.0500000000037
 20
4.147883999999997
 30
0.0
 11
14.39210500000371
 21
4.148569000000009
 31
0.0
  0
ARC
  5
21E1C
330
1F
100
AcDbEntity
  8
1
100
AcDbCircle
 10
13.63805400000376
 20
-831.4916779999997
 30
0.0
 40
835.6404690000001
100
AcDbArc
 50
89.94829800000049
 51
90.2401879999987
  0
LINE
  5
21E1D
330
1F
100
AcDbEntity
  8
1
100
AcDbLine
 10
8.174390000003768
 20
4.383900999999994
 30
0.0
 11
8.185091000003751
 21
4.471008999999995
 31
0.0
  0
SPLINE
  5
21E1E
330
1F
100
AcDbEntity
  8
1
100
AcDbSpline
210
0.0
220
0.0
230
1.0
 70
     8
 71
     5
 72
    12
 73
     6
 74
     0
 42
0.000000001
 43
0.0000000001
 40
0.0
 40
0.0
 40
0.0
 40
0.0
 40
0.0
 40
0.0
 40
6.327929733366696
 40
6.327929733366696
 40
6.327929733366696
 40
6.327929733366696
 40
6.327929733366696
 40
6.327929733366696
 10
4.753790662680955
 20
3.874679860820585
 30
0.0
 10
5.417917200749116
 20
4.007869029597507
 30
0.0
 10
6.097090470151954
 20
4.123290700847107
 30
0.0
 10
6.778870295456272
 20
4.221429118258967
 30
0.0
 10
7.47411704310889
 20
4.308416474401987
 30
0.0
 10
8.174390472043739
 20
4.383901126549901
 30
0.0
  0
ARC
  5
21E1F
330
1F
100
AcDbEntity
  8
1
100
AcDbCircle
 10
11.23332000000369
 20
-111.9848279999999
 30
0.0
 40
116.496223
100
AcDbArc
 50
89.68419700000003
 51
91.49937300000038
  0
LINE
  5
21E20
330
1F
100
AcDbEntity
  8
SK1
100
AcDbLine
 10
-0.1215829999962921
 20
2.461852000000007
 30
0.0
 11
0.0000030000036304
 21
2.472471999999996
 31
0.0
  0
LINE
  5
21E21
330
1F
100
AcDbEntity
  8
SK1
100
AcDbLine
 10
-0.121586999996282
 20
2.461853999999995
 30
0.0
 11
0.0000000000037517
 21
2.419283
 31
0.0
  0
ARC
  5
21E22
330
1F
100
AcDbEntity
  8
1
100
AcDbCircle
 10
8.956281000003684
 20
429.6693309999998
 30
0.0
 40
442.919337
100
AcDbArc
 50
268.8413419999997
 51
269.9993639999998
  0
ARC
  5
21E23
330
1F
100
AcDbEntity
  8
SK1
100
AcDbCircle
 10
4.851260000003719
 20
1130.36299
 30
0.0
 40
1135.563127
100
AcDbArc
 50
269.2708300000005
 51
269.7552249999993
  0
SPLINE
  5
21E24
330
1F
100
AcDbEntity
  8
SK1
100
AcDbSpline
210
0.0
220
0.0
230
1.0
 70
     8
 71
     5
 72
    12
 73
     6
 74
     0
 42
0.000000001
 43
0.0000000001
 40
0.0
 40
0.0
 40
0.0
 40
0.0
 40
0.0
 40
0.0
 40
19.01190423276684
 40
19.01190423276684
 40
19.01190423276684
 40
19.01190423276684
 40
19.01190423276684
 40
19.01190423276684
 10
-10.49338976012012
 20
-4.306610220909107
 30
0.0
 10
-10.38487350423821
 20
-4.415111179524103
 30
0.0
 10
-10.25243575848901
 20
-4.539820695272695
 30
0.0
 10
-10.09075703433177
 20
-4.685211530146432
 30
0.0
 10
-9.891465552795523
 20
-4.85833825451192
 30
0.0
 10
-9.59999999999178
 20
-5.10818601197559
 30
0.0
  0
LINE
  5
21E25
330
1F
100
AcDbEntity
  8
SK1
100
AcDbLine
 10
-10.59999999999627
 20
4.199999999999995
 30
0.0
 11
-10.59999999999627
 21
4.196518000000004
 31
0.0
  0
LINE
  5
21E26
330
1F
100
AcDbEntity
  8
SK1
100
AcDbLine
 10
-10.59999999999627
 20
-3.685847000000002
 30
0.0
 11
-10.59999999999627
 21
-4.200000000000002
 31
0.0
  0
LINE
  5
21E27
330
1F
100
AcDbEntity
  8
SK1
100
AcDbLine
 10
-10.59999999999627
 20
3.215858999999994
 30
0.0
 11
-10.59999999999627
 21
-3.685847000000002
 31
0.0
  0
LINE
  5
21E28
330
1F
100
AcDbEntity
  8
SK1
100
AcDbLine
 10
-10.59999999999627
 20
3.215858999999994
 30
0.0
 11
-10.59999999999627
 21
3.596526000000004
 31
0.0
  0
LINE
  5
21E29
330
1F
100
AcDbEntity
  8
SK1
100
AcDbLine
 10
-10.59999999999627
 20
4.196518000000004
 30
0.0
 11
-10.59999999999627
 21
3.596526000000004
 31
0.0
  0
ARC
  5
21E2A
330
1F
100
AcDbEntity
  8
SK1
100
AcDbCircle
 10
4.851260000003719
 20
-1130.36299
 30
0.0
 40
1135.563127
100
AcDbArc
 50
90.24477500000065
 51
90.72916999999945
  0
LINE
  5
21E2B
330
1F
100
AcDbEntity
  8
1
100
AcDbLine
 10
9.187546000003635
 20
13.17756099999999
 30
0.0
 11
8.951363000003709
 21
13.25
 31
0.0
  0
LINE
  5
21E2C
330
1F
100
AcDbEntity
  8
SK1
100
AcDbLine
 10
-10.59999999999627
 20
4.196518000000004
 30
0.0
 11
-10.49338999999622
 21
4.306609999999999
 31
0.0
  0
SPLINE
  5
21E2D
330
1F
100
AcDbEntity
  8
SK1
100
AcDbSpline
210
0.0
220
0.0
230
1.0
 70
     8
 71
     5
 72
    12
 73
     6
 74
     0
 42
0.000000001
 43
0.0000000001
 40
0.0
 40
0.0
 40
0.0
 40
0.0
 40
0.0
 40
0.0
 40
19.01190422906076
 40
19.01190422906076
 40
19.01190422906076
 40
19.01190422906076
 40
19.01190422906076
 40
19.01190422906076
 10
-10.4933897601208
 20
4.306610220908225
 30
0.0
 10
-10.38487350425805
 20
4.415111179504137
 30
0.0
 10
-10.25243575853062
 20
4.539820695237978
 30
0.0
 10
-10.09075703427862
 20
4.685211530192169
 30
0.0
 10
-9.891465552740896
 20
4.858338254558539
 30
0.0
 10
-9.59999999999178
 20
5.108186011975604
 30
0.0
  0
LINE
  5
21E2E
330
1F
100
AcDbEntity
  8
1
100
AcDbLine
 10
8.504628000003776
 20
6.428571000000005
 30
0.0
 11
15.14000000000362
 21
6.428571000000005
 31
0.0
  0
LINE
  5
21E2F
330
1F
100
AcDbEntity
  8
1
100
AcDbLine
 10
9.187546000003635
 20
13.17756
 30
0.0
 11
8.504628000003776
 21
6.428571000000005
 31
0.0
  0
ELLIPSE
  5
21E30
330
1F
100
AcDbEntity
  8
1
100
AcDbEllipse
 10
8.114446000003795
 20
6.428571000000005
 30
0.0
 11
0.2789436876773835
 21
2.699705362319944
 31
0.0
210
0.0
220
0.0
230
1.0
 40
0.1430169999999999
 41
3.916096866441391
 42
4.727164917339151
  0
SPLINE
  5
21E31
330
1F
100
AcDbEntity
  8
SK1
100
AcDbSpline
210
0.0
220
0.0
230
1.0
 70
     8
 71
     5
 72
    12
 73
     6
 74
     0
 42
0.000000001
 43
0.0000000001
 40
0.0
 40
0.0
 40
0.0
 40
0.0
 40
0.0
 40
0.0
 40
25.73141502138808
 40
25.73141502138808
 40
25.73141502138808
 40
25.73141502138808
 40
25.73141502138808
 40
25.73141502138808
 10
-10.59999999999689
 20
3.215857920540358
 30
0.0
 10
-10.48523955220918
 20
3.165173549486347
 30
0.0
 10
-10.33902093442572
 20
3.118592250241675
 30
0.0
 10
-10.16051201386858
 20
3.073955229034595
 30
0.0
 10
-9.929597981739675
 20
3.034488394405215
 30
0.0
 10
-9.599999999995588
 20
3.008873187909905
 30
0.0
  0
ARC
  5
21E32
330
1F
100
AcDbEntity
  8
SK1
100
AcDbCircle
 10
-128.6054769999961
 20
-2141.097758
 30
0.0
 40
2147.406745
100
AcDbArc
 50
86.56982399999957
 51
86.82314200000142
  0
SPLINE
  5
21E33
330
1F
100
AcDbEntity
  8
1
100
AcDbSpline
210
0.0
220
0.0
230
1.0
 70
     8
 71
     5
 72
    12
 73
     6
 74
     0
 42
0.000000001
 43
0.0000000001
 40
0.0
 40
0.0
 40
0.0
 40
0.0
 40
0.0
 40
0.0
 40
35.50441442278272
 40
35.50441442278272
 40
35.50441442278272
 40
35.50441442278272
 40
35.50441442278272
 40
35.50441442278272
 10
20.20999999938323
 20
1.760608060302558
 30
0.0
 10
16.11907323362811
 20
2.043464947063668
 30
0.0
 10
12.04201522967543
 20
2.515396624087095
 30
0.0
 10
7.989118708722116
 20
3.166732541035571
 30
0.0
 10
3.971929946007435
 20
3.976435701083907
 30
0.0
 10
0.0000000003516902
 20
4.916220538885674
 30
0.0
  0
LINE
  5
21E34
330
1F
100
AcDbEntity
  8
1
100
AcDbLine
 10
20.21000000000362
 20
1.760608000000004
 30
0.0
 11
20.21000000000362
 21
-11.627969
 31
0.0
  0
LINE
  5
21E35
330
1F
100
AcDbEntity
  8
1
100
AcDbLine
 10
20.21000000000362
 20
-11.627969
 30
0.0
 11
20.21000000000362
 21
-13.034497
 31
0.0
  0
LINE
  5
21E36
330
1F
100
AcDbEntity
  8
SK1
100
AcDbLine
 10
-9.599999999996271
 20
3.008872999999994
 30
0.0
 11
-9.599999999996271
 21
-4.563428999999999
 31
0.0
  0
LINE
  5
21E37
330
1F
100
AcDbEntity
  8
1
100
AcDbLine
 10
0.0000000000037517
 20
-11.627969
 30
0.0
 11
0.0000000000037517
 21
-13.159452
 31
0.0
  0
LINE
  5
21E38
330
1F
100
AcDbEntity
  8
1
100
AcDbLine
 10
0.0000000000037517
 20
4.916221
 30
0.0
 11
0.0000000000037517
 21
-11.627969
 31
0.0
  0
LINE
  5
21E39
330
1F
100
AcDbEntity
  8
1
100
AcDbLine
 10
15.14000000000362
 20
-13.25
 30
0.0
 11
8.951363000003709
 21
-13.25
 31
0.0
  0
LINE
  5
21E3A
330
1F
100
AcDbEntity
  8
1
100
AcDbLine
 10
15.14000000000362
 20
-13.034497
 30
0.0
 11
15.14000000000362
 21
-13.25
 31
0.0
  0
LINE
  5
21E3B
330
1F
100
AcDbEntity
  8
1
100
AcDbLine
 10
20.21000000000362
 20
-13.034497
 30
0.0
 11
15.14000000000362
 21
-13.034497
 31
0.0
  0
LINE
  5
21E3C
330
1F
100
AcDbEntity
  8
SK1
100
AcDbLine
 10
-9.599999999996271
 20
-4.563428999999999
 30
0.0
 11
-9.599999999996271
 21
-5.108186000000003
 31
0.0
  0
CIRCLE
  5
21E3D
330
1F
100
AcDbEntity
  8
1
100
AcDbCircle
 10
18.17500000000376
 20
-10.465
 30
0.0
 40
0.9519999999999997
  0
LINE
  5
21E3E
330
1F
100
AcDbEntity
  8
SK1
100
AcDbLine
 10
-10.59999999999627
 20
-4.200000000000002
 30
0.0
 11
-10.49338999999622
 21
-4.306609999999999
 31
0.0
  0
LINE
  5
21E3F
330
1F
100
AcDbEntity
  8
SK1
100
AcDbLine
 10
-10.59999999999627
 20
4.199999999999995
 30
0.0
 11
-10.49338999999622
 21
4.306609999999999
 31
0.0
  0
LINE
  5
21E40
330
1F
100
AcDbEntity
  8
1
100
AcDbLine
 10
10.13500000000368
 20
2.908108999999996
 30
0.0
 11
10.13500000000368
 21
3.020379000000005
 31
0.0
  0
LINE
  5
21E41
330
1F
100
AcDbEntity
  8
1
100
AcDbLine
 10
10.13500000000368
 20
3.334363999999993
 30
0.0
 11
10.13500000000368
 21
3.020379000000005
 31
0.0
  0
LINE
  5
21E42
330
1F
100
AcDbEntity
  8
1
100
AcDbLine
 10
10.13500000000368
 20
4.141424000000007
 30
0.0
 11
10.13500000000368
 21
3.334363999999993
 31
0.0
  0
ARC
  5
21E43
330
1F
100
AcDbEntity
  8
1
100
AcDbCircle
 10
-16.80566399999628
 20
-322.733772
 30
0.0
 40
327.179298
100
AcDbArc
 50
84.23658900000067
 51
85.27679000000089
  0
SPLINE
  5
21E46
330
1F
100
AcDbEntity
  8
1
100
AcDbSpline
210
0.0
220
0.0
230
1.0
 70
     8
 71
     5
 72
    15
 73
     9
 74
     0
 42
0.000000001
 43
0.0000000001
 40
0.0
 40
0.0
 40
0.0
 40
0.0
 40
0.0
 40
0.0
 40
1.588196691944169
 40
1.588196691944169
 40
1.588196691944169
 40
1.767527118280009
 40
1.767527118280009
 40
1.767527118280009
 40
1.767527118280009
 40
1.767527118280009
 40
1.767527118280009
 10
20.20999966561277
 20
0.8714377605190364
 30
0.0
 10
20.30563232539737
 20
1.005680492666606
 30
0.0
 10
20.42431085791043
 20
1.126627566868741
 30
0.0
 10
20.55983572349817
 20
1.230702182276289
 30
0.0
 10
20.72598714027027
 20
1.324606191347214
 30
0.0
 10
20.90492138153951
 20
1.394949812574076
 30
0.0
 10
20.92320594374996
 20
1.401846596213566
 30
0.0
 10
20.94160884618191
 20
1.408502327520096
 30
0.0
 10
20.96012882438373
 20
1.414920806610012
 30
0.0
  0
ARC
  5
21E47
330
1F
100
AcDbEntity
  8
1
100
AcDbCircle
 10
18.21684800000372
 20
9.604259999999996
 30
0.0
 40
8.635894
100
AcDbArc
 50
288.5199179999998
 51
296.1275260000007
  0
ARC
  5
21E48
330
1F
100
AcDbEntity
  8
1
100
AcDbCircle
 10
-23.81754199999631
 20
-402.5480790000001
 30
0.0
 40
406.9879669999998
100
AcDbArc
 50
83.53334399999935
 51
85.21458900000064
  0
ARC
  5
21E49
330
1F
100
AcDbEntity
  8
1
100
AcDbCircle
 10
27.47344600000378
 20
3.700511000000005
 30
0.0
 40
4.340421
100
AcDbArc
 50
189.206623
 51
195.6343519999997
  0
ARC
  5
21E4A
330
1F
100
AcDbEntity
  8
1
100
AcDbCircle
 10
-213.2503179999963
 20
-35.522122
 30
0.0
 40
239.558167
100
AcDbArc
 50
9.255101000000257
 51
10.00080600000036
  0
LINE
  5
21E4B
330
1F
100
AcDbEntity
  8
1
100
AcDbLine
 10
22.66817900000365
 20
6.080097999999992
 30
0.0
 11
22.01000000000363
 21
6.564367000000004
 31
0.0
  0
ARC
  5
21E4C
330
1F
100
AcDbEntity
  8
1
100
AcDbCircle
 10
-3.469239999996318
 20
-144.2919789999999
 30
0.0
 40
152.992894
100
AcDbArc
 50
80.41336700000011
 51
81.26385100000117
  0
ARC
  5
21E4D
330
1F
100
AcDbEntity
  8
1
100
AcDbCircle
 10
29.71482000000373
 20
-77.900948
 30
0.0
 40
85.40821499999998
100
AcDbArc
 50
96.68797599999845
 51
99.20654299999862
  0
ARC
  5
21E4E
330
1F
100
AcDbEntity
  8
1
100
AcDbCircle
 10
8.370539000003702
 20
28.984085
 30
0.0
 40
30.372318
100
AcDbArc
 50
296.7045449999982
 51
299.4285380000004
  0
LINE
  5
21E4F
330
1F
100
AcDbEntity
  8
1
100
AcDbLine
 10
19.76800000000378
 20
6.92591999999999
 30
0.0
 11
19.76800000000378
 21
8.450000000000002
 31
0.0
  0
LINE
  5
21E50
330
1F
100
AcDbEntity
  8
1
100
AcDbLine
 10
16.0500000000037
 20
7.453765000000004
 30
0.0
 11
19.76800000000378
 21
8.450000000000002
 31
0.0
  0
LINE
  5
21E54
330
1F
100
AcDbEntity
  8
1
100
AcDbLine
 10
20.21000000000362
 20
0.5699460000000088
 30
0.0
 11
25.15532500000364
 21
-0.229852000000001
 31
0.0
  0
ELLIPSE
  5
21E55
330
1F
100
AcDbEntity
  8
1
100
AcDbEllipse
 10
25.63025500000373
 20
-0.0543270000000007
 30
0.0
 11
8.292604446411129
 21
-1.344188094139097
 31
0.0
210
0.0
220
0.0
230
1.0
 40
0.6018560000000003
 41
4.101347865731211
 42
4.509870127434123
  0
LINE
  5
21E56
330
1F
100
AcDbEntity
  8
1
100
AcDbLine
 10
23.18897400000373
 20
-4.566056000000003
 30
0.0
 11
23.16983000000363
 21
-4.672912000000003
 31
0.0
  0
ARC
  5
21E57
330
1F
100
AcDbEntity
  8
1
100
AcDbCircle
 10
25.8305470000036
 20
-5.024770000000003
 30
0.0
 40
2.680884999999999
100
AcDbArc
 50
154.3188949999992
 51
170.1487259999999
  0
LINE
  5
21E58
330
1F
100
AcDbEntity
  8
1
100
AcDbLine
 10
23.76456900000369
 20
-3.145289999999995
 30
0.0
 11
23.41467500000363
 21
-3.863070000000007
 31
0.0
  0
SPLINE
  5
21E59
330
1F
100
AcDbEntity
  8
1
100
AcDbSpline
210
0.0
220
0.0
230
1.0
 70
     8
 71
     5
 72
    30
 73
    24
 74
     0
 42
0.000000001
 43
0.0000000001
 40
0.0
 40
0.0
 40
0.0
 40
0.0
 40
0.0
 40
0.0
 40
27.4670756047878
 40
27.4670756047878
 40
27.4670756047878
 40
38.07744061171319
 40
38.07744061171319
 40
38.07744061171319
 40
43.40441670367525
 40
43.40441670367525
 40
43.40441670367525
 40
49.72287904839654
 40
49.72287904839654
 40
49.72287904839654
 40
51.77646914982454
 40
51.77646914982454
 40
51.77646914982454
 40
53.38805094511108
 40
53.38805094511108
 40
53.38805094511108
 40
54.32009993099879
 40
54.32009993099879
 40
54.32009993099879
 40
54.32009993099879
 40
54.32009993099879
 40
54.32009993099879
 10
25.15532542933391
 20
-0.2298524268930535
 30
0.0
 10
25.14096045434542
 20
-0.2674256609107815
 30
0.0
 10
25.12279494956891
 20
-0.3124212484932798
 30
0.0
 10
25.10187312269022
 20
-0.3615476794534729
 30
0.0
 10
25.06319619808607
 20
-0.4506147376370749
 30
0.0
 10
24.98101167892321
 20
-0.6284055659073431
 30
0.0
 10
24.95357591063839
 20
-0.6872258579026323
 30
0.0
 10
24.90330030496489
 20
-0.7941165225212075
 30
0.0
 10
24.82832362214941
 20
-0.9515115775763334
 30
0.0
 10
24.80054073943393
 20
-1.009642366836892
 30
0.0
 10
24.7283579284707
 20
-1.160263622734269
 30
0.0
 10
24.62686642044008
 20
-1.370833959577282
 30
0.0
 10
24.56098421476202
 20
-1.50717212818288
 30
0.0
 10
24.44949006348049
 20
-1.737384612335461
 30
0.0
 10
24.28828257338546
 20
-2.069284193492364
 30
0.0
 10
24.24343758046359
 20
-2.16152294101704
 30
0.0
 10
24.15692016637769
 20
-2.339499191446371
 30
0.0
 10
24.05996822843241
 20
-2.538755880314958
 30
0.0
 10
24.01813337659866
 20
-2.62469624747338
 30
0.0
 10
23.94242449904624
 20
-2.780192395812299
 30
0.0
 10
23.8601040863166
 20
-2.949202378926884
 30
0.0
 10
23.82907219908446
 20
-3.012904966495867
 30
0.0
 10
23.79723517570096
 20
-3.078250977277953
 30
0.0
 10
23.76456940996837
 20
-3.145289851628703
 30
0.0
  0
SPLINE
  5
21E5A
330
1F
100
AcDbEntity
  8
1
100
AcDbSpline
210
0.0
220
0.0
230
1.0
 70
     8
 71
     5
 72
    51
 73
    45
 74
     0
 42
0.000000001
 43
0.0000000001
 40
0.0
 40
0.0
 40
0.0
 40
0.0
 40
0.0
 40
0.0
 40
24.72862227383788
 40
24.72862227383788
 40
24.72862227383788
 40
61.8210485740497
 40
61.8210485740497
 40
61.8210485740497
 40
86.54934770969825
 40
86.54934770969825
 40
86.54934770969825
 40
98.91357694957683
 40
98.91357694957683
 40
98.91357694957683
 40
111.2779949797928
 40
111.2779949797928
 40
111.2779949797928
 40
115.399919396628
 40
115.399919396628
 40
115.399919396628
 40
117.4608974140047
 40
117.4608974140047
 40
117.4608974140047
 40
119.619714759663
 40
119.619714759663
 40
119.619714759663
 40
120.6572097698314
 40
120.6572097698314
 40
120.6572097698314
 40
121.7295483364937
 40
121.7295483364937
 40
121.7295483364937
 40
122.2529936951171
 40
122.2529936951171
 40
122.2529936951171
 40
122.5183643940648
 40
122.5183643940648
 40
122.5183643940648
 40
122.7837350930123
 40
122.7837350930123
 40
122.7837350930123
 40
123.80703491535
 40
123.80703491535
 40
123.80703491535
 40
123.80703491535
 40
123.80703491535
 40
123.80703491535
 10
25.15532542933391
 20
-0.2298524268930535
 30
0.0
 10
25.16825934473792
 20
-0.1960222927911772
 30
0.0
 10
25.17633913378262
 20
-0.1703027299126205
 30
0.0
 10
25.18252160033171
 20
-0.1480605750427273
 30
0.0
 10
25.19452342047652
 20
-0.0961836235036131
 30
0.0
 10
25.19888346360892
 20
-0.0528359751101419
 30
0.0
 10
25.19957613890773
 20
-0.0282116577630944
 30
0.0
 10
25.19769403672893
 20
0.0133902480805759
 30
0.0
 10
25.18988446554073
 20
0.0589359245447483
 30
0.0
 10
25.18572383512629
 20
0.0780972735738885
 30
0.0
 10
25.17756639088793
 20
0.1094163537667967
 30
0.0
 10
25.16454427638507
 20
0.1479972135088801
 30
0.0
 10
25.15948590156023
 20
0.1620043021560775
 30
0.0
 10
25.14818215756515
 20
0.1914101076208112
 30
0.0
 10
25.13305363331876
 20
0.226714138059954
 30
0.0
 10
25.12416681281178
 20
0.2465494366998158
 30
0.0
 10
25.10944867613051
 20
0.2779389470606617
 30
0.0
 10
25.08758646547994
 20
0.3206270168922742
 30
0.0
 10
25.08157360774777
 20
0.3321555896359456
 30
0.0
 10
25.07158415086349
 20
0.3509737650286979
 30
0.0
 10
25.05941004799491
 20
0.3731558828582777
 30
0.0
 10
25.05506812869794
 20
0.3809847460974538
 30
0.0
 10
25.0454889130952
 20
0.3980644137272833
 30
0.0
 10
25.03410082811758
 20
0.4178785371592327
 30
0.0
 10
25.02912632628613
 20
0.4264557092403223
 30
0.0
 10
25.0184740839307
 20
0.4445073362696377
 30
0.0
 10
25.00691296959741
 20
0.4636289541842374
 30
0.0
 10
25.00304239292774
 20
0.4699845813589221
 30
0.0
 10
24.99465202583844
 20
0.4836812911313189
 30
0.0
 10
24.98413232101439
 20
0.5005571553693784
 30
0.0
 10
24.97879686891781
 20
0.5090084730435294
 30
0.0
 10
24.96837020154845
 20
0.5254635128512178
 30
0.0
 10
24.95336594965579
 20
0.5484017066724931
 30
0.0
 10
24.94776670368992
 20
0.5568850847405145
 30
0.0
 10
24.93870376136641
 20
0.570565485277939
 30
0.0
 10
24.92458052225811
 20
0.5913186097533299
 30
0.0
 10
24.89126461337332
 20
0.6381780799302064
 30
0.0
 10
24.84634284521979
 20
0.7008052386737944
 30
0.0
 10
24.85126329034273
 20
0.6924879607769725
 30
0.0
 10
24.84013499366824
 20
0.7077067952128573
 30
0.0
 10
24.81666798689486
 20
0.7379996588007601
 30
0.0
 10
24.80021348114338
 20
0.7582690426470791
 30
0.0
 10
24.78709972049001
 20
0.7741639970440773
 30
0.0
 10
24.77599192803706
 20
0.7873377438191796
 30
0.0
 10
24.76556706553458
 20
0.7994745521537468
 30
0.0
  0
LINE
  5
21E5B
330
1F
100
AcDbEntity
  8
1
100
AcDbLine
 10
24.76556700000373
 20
0.7994750000000082
 30
0.0
 11
20.96012900000369
 21
1.414920999999992
 31
0.0
  0
LINE
  5
21E5C
330
1F
100
AcDbEntity
  8
1
100
AcDbLine
 10
23.41467500000363
 20
2.364063000000001
 30
0.0
 11
24.76556700000373
 21
0.7994750000000082
 31
0.0
  0
ARC
  5
21E5D
330
1F
100
AcDbEntity
  8
1
100
AcDbCircle
 10
24.31399500000373
 20
3.144974999999995
 30
0.0
 40
1.191027999999997
100
AcDbArc
 50
211.0444950000002
 51
220.9689639999999
  0
LINE
  5
21E5E
330
1F
100
AcDbEntity
  8
1
100
AcDbLine
 10
23.18897400000373
 20
5.116423999999994
 30
0.0
 11
23.18897400000373
 21
3.006070000000008
 31
0.0
  0
LINE
  5
21E5F
330
1F
100
AcDbEntity
  8
1
100
AcDbLine
 10
23.41467500000363
 20
4.375014
 30
0.0
 11
23.41467500000363
 21
2.364063000000001
 31
0.0
  0
LINE
  5
21E60
330
1F
100
AcDbEntity
  8
1
100
AcDbLine
 10
22.66817900000365
 20
8.069999999999993
 30
0.0
 11
22.66817900000365
 21
6.080097999999992
 31
0.0
  0
LINE
  5
21E61
330
1F
100
AcDbEntity
  8
1
100
AcDbLine
 10
22.01000000000363
 20
8.450000000000002
 30
0.0
 11
22.01000000000363
 21
6.564367000000004
 31
0.0
  0
LINE
  5
21E62
330
1F
100
AcDbEntity
  8
1
100
AcDbLine
 10
23.41467500000363
 20
-3.863070000000007
 30
0.0
 11
23.41467500000363
 21
-4.375014
 31
0.0
  0
LINE
  5
21E63
330
1F
100
AcDbEntity
  8
1
100
AcDbLine
 10
23.18897400000373
 20
-4.566056000000003
 30
0.0
 11
23.18897400000373
 21
-5.116424000000002
 31
0.0
  0
LINE
  5
21E64
330
1F
100
AcDbEntity
  8
1
100
AcDbLine
 10
23.16983000000363
 20
-5.217623000000003
 30
0.0
 11
23.16983000000363
 21
-4.672912000000003
 31
0.0
  0
LINE
  5
21E65
330
1F
100
AcDbEntity
  8
1
100
AcDbLine
 10
23.16983000000363
 20
-5.217623000000003
 30
0.0
 11
23.14922600000364
 21
-5.341886999999999
 31
0.0
  0
LINE
  5
21E66
330
1F
100
AcDbEntity
  8
1
100
AcDbLine
 10
23.14922600000364
 20
-5.341886999999999
 30
0.0
 11
23.04428000000371
 21
-5.937026000000003
 31
0.0
  0
LINE
  5
21E67
330
1F
100
AcDbEntity
  8
1
100
AcDbLine
 10
22.66817900000365
 20
-8.070000000000007
 30
0.0
 11
23.04428000000371
 21
-5.937026000000003
 31
0.0
  0
LINE
  5
21E68
330
1F
100
AcDbEntity
  8
1
100
AcDbLine
 10
22.66817900000365
 20
-8.070000000000007
 30
0.0
 11
22.01000000000363
 21
-8.450000000000002
 31
0.0
  0
LINE
  5
21E69
330
1F
100
AcDbEntity
  8
1
100
AcDbLine
 10
22.01000000000363
 20
-8.450000000000002
 30
0.0
 11
21.21000000000362
 21
-8.450000000000002
 31
0.0
  0
LINE
  5
21E6A
330
1F
100
AcDbEntity
  8
1
100
AcDbLine
 10
20.2099910000037
 20
-5.937026000000003
 30
0.0
 11
23.04428000000371
 21
-5.937026000000003
 31
0.0
  0
LINE
  5
21E6B
330
1F
100
AcDbEntity
  8
1
100
AcDbLine
 10
20.2099910000037
 20
-5.217623000000003
 30
0.0
 11
23.16983000000363
 21
-5.217623000000003
 31
0.0
  0
ARC
  5
21E6E
330
1F
100
AcDbEntity
  8
1
100
AcDbCircle
 10
26.35119200000372
 20
-5.674008
 30
0.0
 40
3.211
100
AcDbArc
 50
156.1373809999998
 51
169.9999999999998
  0
LINE
  5
21E6F
330
1F
100
AcDbEntity
  8
1
100
AcDbLine
 10
23.18897400000373
 20
-5.116424000000002
 30
0.0
 11
23.14923700000372
 21
-5.341789000000005
 31
0.0
  0
LINE
  5
21E71
330
1F
100
AcDbEntity
  8
1
100
AcDbLine
 10
25.35000000000361
 20
0.0
 30
0.0
 11
23.41467500000363
 21
-4.375014
 31
0.0
  0
ARC
  5
21E72
330
1F
100
AcDbEntity
  8
1
100
AcDbCircle
 10
15.54000000000377
 20
13.09999999999999
 30
0.0
 40
0.4
100
AcDbArc
 50
90.0
 51
180.0
  0
LINE
  5
21E73
330
1F
100
AcDbEntity
  8
1
100
AcDbLine
 10
15.54000000000377
 20
13.5
 30
0.0
 11
20.8100000000037
 21
13.5
 31
0.0
  0
ARC
  5
21E74
330
1F
100
AcDbEntity
  8
1
100
AcDbCircle
 10
20.8100000000037
 20
13.09999999999999
 30
0.0
 40
0.4
100
AcDbArc
 50
0.0
 51
90.0
  0
LINE
  5
21E75
330
1F
100
AcDbEntity
  8
1
100
AcDbLine
 10
21.21000000000362
 20
13.09999999999999
 30
0.0
 11
21.21000000000362
 21
8.450000000000002
 31
0.0
  0
LINE
  5
21E76
330
1F
100
AcDbEntity
  8
1
100
AcDbLine
 10
16.0500000000037
 20
7.430000000000006
 30
0.0
 11
15.54000000000377
 21
7.430000000000006
 31
0.0
  0
ARC
  5
21E77
330
1F
100
AcDbEntity
  8
1
100
AcDbCircle
 10
15.54000000000377
 20
7.829999999999998
 30
0.0
 40
0.4
100
AcDbArc
 50
180.0
 51
270.0
  0
LINE
  5
21E78
330
1F
100
AcDbEntity
  8
1
100
AcDbLine
 10
15.14000000000362
 20
7.829999999999998
 30
0.0
 11
15.14000000000362
 21
13.09999999999999
 31
0.0
  0
CIRCLE
  5
21E79
330
1F
100
AcDbEntity
  8
1
100
AcDbCircle
 10
18.17500000000376
 20
10.465
 30
0.0
 40
1.304999999999999
  0
CIRCLE
  5
21E7A
330
1F
100
AcDbEntity
  8
1
100
AcDbCircle
 10
18.17500000000376
 20
10.465
 30
0.0
 40
1.711879999999999
  0
ARC
  5
21E82
330
1F
100
AcDbEntity
  8
1
100
AcDbCircle
 10
15.54000000000377
 20
-13.1
 30
0.0
 40
0.065513
100
AcDbArc
 50
180.0000019999999
 51
269.9999980000005
  0
LINE
  5
21E83
330
1F
100
AcDbEntity
  8
1
100
AcDbLine
 10
15.54000000000377
 20
-13.165513
 30
0.0
 11
20.8100000000037
 21
-13.165513
 31
0.0
  0
ARC
  5
21E84
330
1F
100
AcDbEntity
  8
1
100
AcDbCircle
 10
20.8100000000037
 20
-13.1
 30
0.0
 40
0.065513
100
AcDbArc
 50
269.9999989999986
 51
359.9999989999998
  0
LINE
  5
21E85
330
1F
100
AcDbEntity
  8
1
100
AcDbLine
 10
20.87551300000376
 20
-13.1
 30
0.0
 11
20.87551300000376
 21
-7.829999999999998
 31
0.0
  0
ARC
  5
21E86
330
1F
100
AcDbEntity
  8
1
100
AcDbCircle
 10
20.8100000000037
 20
-7.829999999999998
 30
0.0
 40
0.065513
100
AcDbArc
 50
0.000000999999775
 51
89.9999989999986
  0
LINE
  5
21E87
330
1F
100
AcDbEntity
  8
1
100
AcDbLine
 10
20.8100000000037
 20
-7.764487000000002
 30
0.0
 11
20.21000000000362
 21
-7.764487000000002
 31
0.0
  0
LINE
  5
21E88
330
1F
100
AcDbEntity
  8
1
100
AcDbLine
 10
15.47448700000376
 20
-13.034497
 30
0.0
 11
15.47448700000376
 21
-13.1
 31
0.0
  0
LINE
  5
21E89
330
1F
100
AcDbEntity
  8
1
100
AcDbLine
 10
15.47448700000376
 20
-13.1
 30
0.0
 11
15.14000000000362
 21
-13.1
 31
0.0
  0
ARC
  5
21E8A
330
1F
100
AcDbEntity
  8
1
100
AcDbCircle
 10
15.54000000000377
 20
-13.1
 30
0.0
 40
0.4
100
AcDbArc
 50
180.0
 51
270.0
  0
LINE
  5
21E8B
330
1F
100
AcDbEntity
  8
1
100
AcDbLine
 10
15.54000000000377
 20
-13.165513
 30
0.0
 11
15.54000000000377
 21
-13.5
 31
0.0
  0
LINE
  5
21E8C
330
1F
100
AcDbEntity
  8
1
100
AcDbLine
 10
15.54000000000377
 20
-13.5
 30
0.0
 11
20.8100000000037
 21
-13.5
 31
0.0
  0
LINE
  5
21E8D
330
1F
100
AcDbEntity
  8
1
100
AcDbLine
 10
20.8100000000037
 20
-13.165513
 30
0.0
 11
20.8100000000037
 21
-13.5
 31
0.0
  0
ARC
  5
21E8E
330
1F
100
AcDbEntity
  8
1
100
AcDbCircle
 10
20.8100000000037
 20
-13.1
 30
0.0
 40
0.4
100
AcDbArc
 50
270.0
 51
0.0
  0
LINE
  5
21E8F
330
1F
100
AcDbEntity
  8
1
100
AcDbLine
 10
20.87551300000376
 20
-13.1
 30
0.0
 11
21.21000000000362
 21
-13.1
 31
0.0
  0
LINE
  5
21E90
330
1F
100
AcDbEntity
  8
1
100
AcDbLine
 10
21.21000000000362
 20
-13.1
 30
0.0
 11
21.21000000000362
 21
-7.829999999999998
 31
0.0
  0
LINE
  5
21E91
330
1F
100
AcDbEntity
  8
1
100
AcDbLine
 10
20.87551300000376
 20
-7.829999999999998
 30
0.0
 11
21.21000000000362
 21
-7.829999999999998
 31
0.0
  0
ARC
  5
21E92
330
1F
100
AcDbEntity
  8
1
100
AcDbCircle
 10
20.8100000000037
 20
-7.829999999999998
 30
0.0
 40
0.4
100
AcDbArc
 50
0.0
 51
90.0
  0
LINE
  5
21E93
330
1F
100
AcDbEntity
  8
1
100
AcDbLine
 10
20.8100000000037
 20
-7.764487000000002
 30
0.0
 11
20.8100000000037
 21
-7.429999999999999
 31
0.0
  0
LINE
  5
21E94
330
1F
100
AcDbEntity
  8
1
100
AcDbLine
 10
15.14000000000362
 20
-13.034498
 30
0.0
 11
15.14000000000362
 21
-13.1
 31
0.0
  0
ARC
  5
21E95
330
1F
100
AcDbEntity
  8
1
100
AcDbCircle
 10
20.8100000000037
 20
-13.1
 30
0.0
 40
0.4
100
AcDbArc
 50
270.0
 51
0.0
  0
LINE
  5
21E96
330
1F
100
AcDbEntity
  8
1
100
AcDbLine
 10
20.8100000000037
 20
-13.5
 30
0.0
 11
15.54000000000377
 21
-13.5
 31
0.0
  0
ARC
  5
21E97
330
1F
100
AcDbEntity
  8
1
100
AcDbCircle
 10
15.54000000000377
 20
-13.1
 30
0.0
 40
0.4
100
AcDbArc
 50
180.0
 51
270.0
  0
LINE
  5
21E98
330
1F
100
AcDbEntity
  8
1
100
AcDbLine
 10
15.14000000000362
 20
-13.1
 30
0.0
 11
15.14000000000362
 21
-13.034497
 31
0.0
  0
LINE
  5
21E99
330
1F
100
AcDbEntity
  8
1
100
AcDbLine
 10
20.21000000000362
 20
-7.429999999999999
 30
0.0
 11
20.8100000000037
 21
-7.429999999999999
 31
0.0
  0
ARC
  5
21E9A
330
1F
100
AcDbEntity
  8
1
100
AcDbCircle
 10
20.8100000000037
 20
-7.829999999999998
 30
0.0
 40
0.4
100
AcDbArc
 50
0.0
 51
90.0
  0
LINE
  5
21E9B
330
1F
100
AcDbEntity
  8
1
100
AcDbLine
 10
21.21000000000362
 20
-7.829999999999998
 30
0.0
 11
21.21000000000362
 21
-13.1
 31
0.0
  0
LINE
  5
21EA4
330
1F
100
AcDbEntity
  8
SKVIEW4
100
AcDbLine
 10
-42.30292124383374
 20
0.0
 30
0.0
 11
-76.75292124383372
 21
0.0
 31
0.0
  0
LINE
  5
21EA5
330
1F
100
AcDbEntity
  8
SKVIEW4
100
AcDbLine
 10
-59.5279212438337
 20
17.22499999999999
 30
0.0
 11
-59.5279212438337
 21
-17.225
 31
0.0
  0
ARC
  5
21EA6
330
1F
100
AcDbEntity
  8
SKVIEW1
100
AcDbCircle
 10
-59.5279212438337
 20
0.0
 30
0.0
 40
5.224999999999996
100
AcDbArc
 50
9.706185000000523
 51
86.96870300000002
  0
LINE
  5
21EA7
330
1F
100
AcDbEntity
  8
SKVIEW1
100
AcDbLine
 10
-52.34009924383371
 20
-2.508316
 30
0.0
 11
-52.34009924383371
 21
1.011443999999997
 31
0.0
  0
ARC
  5
21EA8
330
1F
100
AcDbEntity
  8
SKVIEW1
100
AcDbCircle
 10
-53.76645524383372
 20
-2.047496999999992
 30
0.0
 40
3.375147
100
AcDbArc
 50
65.00080100000126
 51
101.7925610000004
  0
LINE
  5
21EA9
330
1F
100
AcDbEntity
  8
SKVIEW1
100
AcDbLine
 10
-55.31297224383371
 20
-0.2912539999999879
 30
0.0
 11
-55.30456524383374
 21
-0.1178699999999964
 31
0.0
  0
LINE
  5
21EAA
330
1F
100
AcDbEntity
  8
SKVIEW1
100
AcDbLine
 10
-55.52362524383375
 20
-2.532347000000001
 30
0.0
 11
-55.52362524383375
 21
-0.9502610000000046
 31
0.0
  0
ARC
  5
21EAB
330
1F
100
AcDbEntity
  8
SKVIEW1
100
AcDbCircle
 10
-54.26338324383374
 20
-10.444358
 30
0.0
 40
8.011749999999999
100
AcDbArc
 50
94.89917999999894
 51
99.05015399999994
  0
LINE
  5
21EAC
330
1F
100
AcDbEntity
  8
SKVIEW1
100
AcDbLine
 10
-54.94760724383372
 20
-2.461853999999995
 30
0.0
 11
-54.92498024383383
 21
-2.419283
 31
0.0
  0
ARC
  5
21EAD
330
1F
100
AcDbEntity
  8
SKVIEW1
100
AcDbCircle
 10
-53.76642724383373
 20
-5.589241000000001
 30
0.0
 40
3.375029
100
AcDbArc
 50
65.99685700000114
 51
110.0763240000013
  0
LINE
  5
21EAE
330
1F
100
AcDbEntity
  8
SKVIEW1
100
AcDbLine
 10
-52.34009924383371
 20
-2.508316999999991
 30
0.0
 11
-52.3935142438338
 21
-2.506070999999998
 31
0.0
  0
LINE
  5
21EAF
330
1F
100
AcDbEntity
  8
SKVIEW1
100
AcDbLine
 10
-59.5279212438337
 20
5.341897999999986
 30
0.0
 11
-59.5279212438337
 21
7.430000000000006
 31
0.0
  0
LINE
  5
21EB0
330
1F
100
AcDbEntity
  8
SKVIEW1
100
AcDbLine
 10
-52.34009924383371
 20
1.011443999999997
 30
0.0
 11
-46.39541324383379
 21
-1.760607999999997
 31
0.0
  0
ARC
  5
21EB1
330
1F
100
AcDbEntity
  8
SKVIEW1
100
AcDbCircle
 10
-59.5279212438337
 20
0.0
 30
0.0
 40
13.25
100
AcDbArc
 50
338.2205059999994
 51
79.65221900000101
  0
LINE
  5
21EB2
330
1F
100
AcDbEntity
  8
SKVIEW1
100
AcDbLine
 10
-57.14792124383371
 20
7.430000000000006
 30
0.0
 11
-57.14792124383371
 21
13.034497
 31
0.0
  0
LINE
  5
21EB3
330
1F
100
AcDbEntity
  8
SKVIEW1
100
AcDbLine
 10
-57.14792124383371
 20
7.430000000000006
 30
0.0
 11
-59.5279212438337
 21
7.430000000000006
 31
0.0
  0
CIRCLE
  5
21EB4
330
1F
100
AcDbEntity
  8
SKVIEW1
100
AcDbCircle
 10
-50.17484724383371
 20
5.400000000000005
 30
0.0
 40
1.35
  0
SPLINE
  5
21EB5
330
1F
100
AcDbEntity
  8
SKVIEW1
100
AcDbSpline
210
0.0
220
0.0
230
1.0
 70
     8
 71
     5
 72
    33
 73
    27
 74
     0
 42
0.000000001
 43
0.0000000001
 40
0.0
 40
0.0
 40
0.0
 40
0.0
 40
0.0
 40
0.0
 40
2.694133731957908
 40
2.694133731957908
 40
2.694133731957908
 40
3.617359346551893
 40
3.617359346551893
 40
3.617359346551893
 40
4.576432745701521
 40
4.576432745701521
 40
4.576432745701521
 40
5.083939524109664
 40
5.083939524109664
 40
5.083939524109664
 40
5.591446302517811
 40
5.591446302517811
 40
5.591446302517811
 40
6.610059615511784
 40
6.610059615511784
 40
6.610059615511784
 40
8.462256037595857
 40
8.462256037595857
 40
8.462256037595857
 40
9.318654469002119
 40
9.318654469002119
 40
9.318654469002119
 40
9.318654469002119
 40
9.318654469002119
 40
9.318654469002119
 10
-52.340099344127
 20
-2.508316863912199
 30
0.0
 10
-52.15526030614672
 20
-2.515586132002091
 30
0.0
 10
-51.96498123572405
 20
-2.527990193041048
 30
0.0
 10
-51.77304175476542
 20
-2.546371686135657
 30
0.0
 10
-51.49708946611707
 20
-2.581733413289953
 30
0.0
 10
-51.19244125992776
 20
-2.642626593093623
 30
0.0
 10
-51.11264270670739
 20
-2.66007491915348
 30
0.0
 10
-50.94369480146974
 20
-2.70064889545452
 30
0.0
 10
-50.76181230818355
 20
-2.753662021834564
 30
0.0
 10
-50.66558881153241
 20
-2.784551730840988
 30
0.0
 10
-50.51532576885904
 20
-2.83814180832627
 30
0.0
 10
-50.36178013916071
 20
-2.902475870918614
 30
0.0
 10
-50.30835481405842
 20
-2.926096520293747
 30
0.0
 10
-50.20199975405552
 20
-2.975792124644833
 30
0.0
 10
-50.09769324726756
 20
-3.030004701176331
 30
0.0
 10
-50.04633411227138
 20
-3.058150710744911
 30
0.0
 10
-49.89617494494348
 20
-3.144763485261222
 30
0.0
 10
-49.7602013380789
 20
-3.235657321012446
 30
0.0
 10
-49.67946586930605
 20
-3.295027208398096
 30
0.0
 10
-49.46775716911691
 20
-3.46279563135895
 30
0.0
 10
-49.30441063720775
 20
-3.623032287685582
 30
0.0
 10
-49.21303765363507
 20
-3.722216940340686
 30
0.0
 10
-49.0928077035058
 20
-3.865093206444569
 30
0.0
 10
-48.98911020291848
 20
-4.00441455505927
 30
0.0
 10
-48.95773198962405
 20
-4.048214086391404
 30
0.0
 10
-48.92762296190153
 20
-4.091813773948032
 30
0.0
 10
-48.89872252729174
 20
-4.135155808808292
 30
0.0
  0
LINE
  5
21EB6
330
1F
100
AcDbEntity
  8
SKVIEW1
100
AcDbLine
 10
-48.89872524383372
 20
-4.135154999999997
 30
0.0
 11
-47.22372424383382
 21
-4.916221
 31
0.0
  0
LINE
  5
21EB7
330
1F
100
AcDbEntity
  8
SKVIEW1
100
AcDbLine
 10
-55.57053624383383
 20
-2.542866000000003
 30
0.0
 11
-55.52361824383371
 21
-2.532376999999996
 31
0.0
  0
LINE
  5
21EB8
330
1F
100
AcDbEntity
  8
SKVIEW1
100
AcDbLine
 10
-55.38402024383373
 20
-3.015180999999991
 30
0.0
 11
-55.28685024383372
 21
-3.008873000000001
 31
0.0
  0
ARC
  5
21EB9
330
1F
100
AcDbEntity
  8
SKVIEW1
100
AcDbCircle
 10
-59.5279212438337
 20
0.0
 30
0.0
 40
5.2
100
AcDbArc
 50
324.6457959999987
 51
331.7426040000007
  0
ARC
  5
21EBA
330
1F
100
AcDbEntity
  8
SKVIEW1
100
AcDbCircle
 10
-53.80177824383372
 20
-10.091799
 30
0.0
 40
7.715177999999997
100
AcDbArc
 50
50.54140500000148
 51
79.48293799999895
  0
LINE
  5
21EBB
330
1F
100
AcDbEntity
  8
SKVIEW1
100
AcDbLine
 10
-63.48530624383375
 20
2.542865999999996
 30
0.0
 11
-63.53222424383381
 21
2.532376999999996
 31
0.0
  0
LINE
  5
21EBC
330
1F
100
AcDbEntity
  8
SKVIEW1
100
AcDbLine
 10
-63.53221724383371
 20
2.532356
 30
0.0
 11
-63.53221724383371
 21
0.9502610000000117
 31
0.0
  0
LINE
  5
21EBD
330
1F
100
AcDbEntity
  8
SKVIEW1
100
AcDbLine
 10
-66.71574324383374
 20
2.508315999999993
 30
0.0
 11
-66.71574324383374
 21
-1.011443999999997
 31
0.0
  0
ARC
  5
21EBE
330
1F
100
AcDbEntity
  8
SKVIEW1
100
AcDbCircle
 10
-65.28946124383373
 20
2.047254999999999
 30
0.0
 40
3.374909999999998
100
AcDbArc
 50
245.0002049999989
 51
281.7946290000003
  0
ARC
  5
21EBF
330
1F
100
AcDbEntity
  8
SKVIEW1
100
AcDbCircle
 10
-59.5279212438337
 20
0.0
 30
0.0
 40
5.224999999999996
100
AcDbArc
 50
189.7061850000001
 51
241.3521099999982
  0
ARC
  5
21EC0
330
1F
100
AcDbEntity
  8
SKVIEW1
100
AcDbCircle
 10
-64.79245924383372
 20
10.44435799999999
 30
0.0
 40
8.011749999999999
100
AcDbArc
 50
274.8991799999989
 51
279.050154
  0
LINE
  5
21EC1
330
1F
100
AcDbEntity
  8
SKVIEW1
100
AcDbLine
 10
-64.10823524383374
 20
2.461853999999995
 30
0.0
 11
-64.13086224383381
 21
2.419283
 31
0.0
  0
ARC
  5
21EC2
330
1F
100
AcDbEntity
  8
SKVIEW1
100
AcDbCircle
 10
-65.28941524383373
 20
5.589241000000015
 30
0.0
 40
3.375029
100
AcDbArc
 50
245.9968570000012
 51
290.0763240000013
  0
LINE
  5
21EC3
330
1F
100
AcDbEntity
  8
SKVIEW1
100
AcDbLine
 10
-66.71574324383374
 20
2.508316999999998
 30
0.0
 11
-66.66232824383371
 21
2.506070999999998
 31
0.0
  0
LINE
  5
21EC4
330
1F
100
AcDbEntity
  8
SKVIEW1
100
AcDbLine
 10
-63.67182524383372
 20
3.015180999999998
 30
0.0
 11
-63.76899224383357
 21
3.008872999999994
 31
0.0
  0
ARC
  5
21EC5
330
1F
100
AcDbEntity
  8
SKVIEW1
100
AcDbCircle
 10
-59.5279212438337
 20
0.0
 30
0.0
 40
5.2
100
AcDbArc
 50
144.645795999999
 51
151.7426040000007
  0
SPLINE
  5
21EC6
330
1F
100
AcDbEntity
  8
SKVIEW1
100
AcDbSpline
210
0.0
220
0.0
230
1.0
 70
     8
 71
     5
 72
    33
 73
    27
 74
     0
 42
0.000000001
 43
0.0000000001
 40
0.0
 40
0.0
 40
0.0
 40
0.0
 40
0.0
 40
0.0
 40
2.694133731678654
 40
2.694133731678654
 40
2.694133731678654
 40
3.617359346183011
 40
3.617359346183011
 40
3.617359346183011
 40
4.576432745230363
 40
4.576432745230363
 40
4.576432745230363
 40
5.083939523580792
 40
5.083939523580792
 40
5.083939523580792
 40
5.591446301931221
 40
5.591446301931221
 40
5.591446301931221
 40
6.610059614786558
 40
6.610059614786558
 40
6.610059614786558
 40
8.462256036722099
 40
8.462256036722099
 40
8.462256036722099
 40
9.318654468123344
 40
9.318654468123344
 40
9.318654468123344
 40
9.318654468123344
 40
9.318654468123344
 40
9.318654468123344
 10
-66.71574314354041
 20
2.508316863912185
 30
0.0
 10
-66.90058218149028
 20
2.515586132001288
 30
0.0
 10
-67.09086125188173
 20
2.527990193038156
 30
0.0
 10
-67.28280073308337
 20
2.546371686157165
 30
0.0
 10
-67.55875302173899
 20
2.581733413317969
 30
0.0
 10
-67.86340122788499
 20
2.642626593123935
 30
0.0
 10
-67.94319978109706
 20
2.660074919184346
 30
0.0
 10
-68.11214768631021
 20
2.700648895484185
 30
0.0
 10
-68.29403017957019
 20
2.75366202186089
 30
0.0
 10
-68.39025367620729
 20
2.784551730864883
 30
0.0
 10
-68.54051671885838
 20
2.838141808344822
 30
0.0
 10
-68.69406234853272
 20
2.902475870928881
 30
0.0
 10
-68.7474876736266
 20
2.926096520300653
 30
0.0
 10
-68.85384273361262
 20
2.975792124644343
 30
0.0
 10
-68.95814924038461
 20
3.030004701167385
 30
0.0
 10
-69.00950837537329
 20
3.058150710731638
 30
0.0
 10
-69.15966754267902
 20
3.144763485232964
 30
0.0
 10
-69.29564114952524
 20
3.235657320967924
 30
0.0
 10
-69.3763766183012
 20
3.295027208351456
 30
0.0
 10
-69.58808531848086
 20
3.462795631291029
 30
0.0
 10
-69.75143185036666
 20
3.623032287587356
 30
0.0
 10
-69.84280483390325
 20
3.722216940205768
 30
0.0
 10
-69.96303478410124
 20
3.86509320638364
 30
0.0
 10
-70.06673228473704
 20
4.004414555050317
 30
0.0
 10
-70.09811049804119
 20
4.048214086393187
 30
0.0
 10
-70.12821952576342
 20
4.091813773947798
 30
0.0
 10
-70.15711996037595
 20
4.135155808808157
 30
0.0
  0
LINE
  5
21EC7
330
1F
100
AcDbEntity
  8
SKVIEW1
100
AcDbLine
 10
-70.15711724383357
 20
4.135154999999997
 30
0.0
 11
-71.83211824383381
 21
4.916221
 31
0.0
  0
ARC
  5
21EC8
330
1F
100
AcDbEntity
  8
SKVIEW1
100
AcDbCircle
 10
-59.5279212438337
 20
0.0
 30
0.0
 40
13.25
100
AcDbArc
 50
158.220505999999
 51
259.6522199999987
  0
LINE
  5
21EC9
330
1F
100
AcDbEntity
  8
SKVIEW1
100
AcDbLine
 10
-66.71574324383374
 20
-1.011443999999997
 30
0.0
 11
-72.66042924383373
 21
1.760608000000004
 31
0.0
  0
LINE
  5
21ECA
330
1F
100
AcDbEntity
  8
SKVIEW1
100
AcDbLine
 10
-59.5279212438337
 20
-5.937026000000003
 30
0.0
 11
-59.5279212438337
 21
-5.342030000000001
 31
0.0
  0
LINE
  5
21ECB
330
1F
100
AcDbEntity
  8
SKVIEW1
100
AcDbLine
 10
-61.90792124383375
 20
-7.429999999999999
 30
0.0
 11
-61.90792124383375
 21
-7.764487000000002
 31
0.0
  0
LINE
  5
21ECC
330
1F
100
AcDbEntity
  8
SKVIEW1
100
AcDbLine
 10
-61.90792124383375
 20
-7.429999999999999
 30
0.0
 11
-59.5279212438337
 21
-7.429999999999999
 31
0.0
  0
CIRCLE
  5
21ECD
330
1F
100
AcDbEntity
  8
SKVIEW1
100
AcDbCircle
 10
-68.88099524383375
 20
-5.399999999999991
 30
0.0
 40
1.35
  0
ARC
  5
21ECE
330
1F
100
AcDbEntity
  8
SKVIEW1
100
AcDbCircle
 10
-65.25420324383373
 20
10.09182099999999
 30
0.0
 40
7.715139999999997
100
AcDbArc
 50
230.5423039999991
 51
259.4839819999994
  0
LINE
  5
21ECF
330
1F
100
AcDbEntity
  8
SKVIEW1
100
AcDbLine
 10
-59.5279212438337
 20
-13.25
 30
0.0
 11
-59.5279212438337
 21
-8.450005000000004
 31
0.0
  0
ARC
  5
21ED0
330
1F
100
AcDbEntity
  8
SKVIEW1
100
AcDbCircle
 10
-59.5279212438337
 20
0.0
 30
0.0
 40
4.224999999999996
100
AcDbArc
 50
347.6497189999997
 51
358.4017960000001
  0
ARC
  5
21ED1
330
1F
100
AcDbEntity
  8
SKVIEW1
100
AcDbCircle
 10
-64.39807524383372
 20
3.050302999999999
 30
0.0
 40
2.271552999999999
100
AcDbArc
 50
289.0902720000012
 51
312.3463450000016
  0
ARC
  5
21ED2
330
1F
100
AcDbEntity
  8
SKVIEW1
100
AcDbCircle
 10
-54.65776724383374
 20
-3.050302999999999
 30
0.0
 40
2.271552999999999
100
AcDbArc
 50
109.0902720000012
 51
132.3463460000002
  0
LINE
  5
21ED3
330
1F
100
AcDbEntity
  8
SKVIEW1
100
AcDbLine
 10
-54.3060402438337
 20
0.180498
 30
0.0
 11
-54.3722542438337
 21
0.1747049999999959
 31
0.0
  0
ARC
  5
21ED4
330
1F
100
AcDbEntity
  8
SKVIEW1
100
AcDbCircle
 10
-54.17426524383376
 20
-2.088150999999996
 30
0.0
 40
2.271500999999999
100
AcDbArc
 50
95.000397
 51
119.8413820000006
  0
SPLINE
  5
21ED5
330
1F
100
AcDbEntity
  8
SKVIEW1
100
AcDbSpline
210
0.0
220
0.0
230
1.0
 70
     8
 71
     5
 72
    18
 73
    12
 74
     0
 42
0.000000001
 43
0.0000000001
 40
0.0
 40
0.0
 40
0.0
 40
0.0
 40
0.0
 40
0.0
 40
1.75431338018732
 40
1.75431338018732
 40
1.75431338018732
 40
3.421583271630128
 40
3.421583271630128
 40
3.421583271630128
 40
5.561677834093559
 40
5.561677834093559
 40
5.561677834093559
 40
5.561677834093559
 40
5.561677834093559
 40
5.561677834093559
 10
-56.07922773940288
 20
-0.5936641300737194
 30
0.0
 10
-56.01532411123674
 20
-0.4267808650785483
 30
0.0
 10
-55.93474750610773
 20
-0.2733469165062132
 30
0.0
 10
-55.84115734147662
 20
-0.1404015785875998
 30
0.0
 10
-55.64314196292309
 20
0.0807205205515729
 30
0.0
 10
-55.42463769162958
 20
0.2336693297863945
 30
0.0
 10
-55.31526837600302
 20
0.2937723497486075
 30
0.0
 10
-55.06261368476828
 20
0.4009787429637371
 30
0.0
 10
-54.8079315127087
 20
0.4471280966793572
 30
0.0
 10
-54.66554534971464
 20
0.456706503983753
 30
0.0
 10
-54.52542054695431
 20
0.4518867485675671
 30
0.0
 10
-54.38759295835376
 20
0.4341079799488697
 30
0.0
  0
ARC
  5
21ED6
330
1F
100
AcDbEntity
  8
SKVIEW1
100
AcDbCircle
 10
-54.23465724383373
 20
-1.303522
 30
0.0
 40
1.976425
100
AcDbArc
 50
158.9514629999991
 51
166.1041560000003
  0
SPLINE
  5
21ED7
330
1F
100
AcDbEntity
  8
SKVIEW1
100
AcDbSpline
210
0.0
220
0.0
230
1.0
 70
     8
 71
     5
 72
    12
 73
     6
 74
     0
 42
0.000000001
 43
0.0000000001
 40
0.0
 40
0.0
 40
0.0
 40
0.0
 40
0.0
 40
0.0
 40
1.690652628449883
 40
1.690652628449883
 40
1.690652628449883
 40
1.690652628449883
 40
1.690652628449883
 40
1.690652628449883
 10
-56.15321950182618
 20
-0.8288733481353176
 30
0.0
 10
-56.19045251086095
 20
-0.9805049717974014
 30
0.0
 10
-56.20802819077761
 20
-1.121792812756993
 30
0.0
 10
-56.20747921305071
 20
-1.246820583420053
 30
0.0
 10
-56.19580014138461
 20
-1.344346157032994
 30
0.0
 10
-56.17921655747392
 20
-1.414920806610012
 30
0.0
  0
ARC
  5
21ED8
330
1F
100
AcDbEntity
  8
SKVIEW1
100
AcDbCircle
 10
-54.61635324383371
 20
-1.024398999999995
 30
0.0
 40
1.611256999999999
100
AcDbArc
 50
194.0295619999991
 51
210.8732889999984
  0
ARC
  5
21ED9
330
1F
100
AcDbEntity
  8
SKVIEW1
100
AcDbCircle
 10
-59.52764224383372
 20
0.0000280000000004
 30
0.0
 40
5.158345999999998
100
AcDbArc
 50
1.940577999999745
 51
4.82720700000014
  0
ARC
  5
21EDA
330
1F
100
AcDbEntity
  8
SKVIEW1
100
AcDbCircle
 10
-59.5279212438337
 20
0.0
 30
0.0
 40
4.224999999999996
100
AcDbArc
 50
167.6497190000001
 51
178.4017959999997
  0
SPLINE
  5
21EDB
330
1F
100
AcDbEntity
  8
SKVIEW1
100
AcDbSpline
210
0.0
220
0.0
230
1.0
 70
     8
 71
     5
 72
    18
 73
    12
 74
     0
 42
0.000000001
 43
0.0000000001
 40
0.0
 40
0.0
 40
0.0
 40
0.0
 40
0.0
 40
0.0
 40
1.754313380161178
 40
1.754313380161178
 40
1.754313380161178
 40
3.421583271559988
 40
3.421583271559988
 40
3.421583271559988
 40
5.561677833949723
 40
5.561677833949723
 40
5.561677833949723
 40
5.561677833949723
 40
5.561677833949723
 40
5.561677833949723
 10
-62.97661474826452
 20
0.5936641300737194
 30
0.0
 10
-63.0405183764297
 20
0.4267808650809358
 30
0.0
 10
-63.12109498155712
 20
0.2733469165105262
 30
0.0
 10
-63.21468514619005
 20
0.1404015785885448
 30
0.0
 10
-63.412700524743
 20
-0.0807205205495478
 30
0.0
 10
-63.6312047960306
 20
-0.2336693297815131
 30
0.0
 10
-63.74057411166257
 20
-0.2937723497482807
 30
0.0
 10
-63.99322880290156
 20
-0.4009787429643766
 30
0.0
 10
-64.24791097496182
 20
-0.4471280966808209
 30
0.0
 10
-64.39029713796305
 20
-0.456706503984286
 30
0.0
 10
-64.53042194071787
 20
-0.4518867485669418
 30
0.0
 10
-64.66824952931353
 20
-0.4341079799488626
 30
0.0
  0
ARC
  5
21EDC
330
1F
100
AcDbEntity
  8
SKVIEW1
100
AcDbCircle
 10
-64.82118524383372
 20
1.303521999999993
 30
0.0
 40
1.976425
100
AcDbArc
 50
338.9514629999994
 51
346.1041560000003
  0
SPLINE
  5
21EDD
330
1F
100
AcDbEntity
  8
SKVIEW1
100
AcDbSpline
210
0.0
220
0.0
230
1.0
 70
     8
 71
     5
 72
    12
 73
     6
 74
     0
 42
0.000000001
 43
0.0000000001
 40
0.0
 40
0.0
 40
0.0
 40
0.0
 40
0.0
 40
0.0
 40
1.690652603728311
 40
1.690652603728311
 40
1.690652603728311
 40
1.690652603728311
 40
1.690652603728311
 40
1.690652603728311
 10
-62.90262298584332
 20
0.8288733481268621
 30
0.0
 10
-62.86538997726404
 20
0.9805049699321557
 30
0.0
 10
-62.8478142972437
 20
1.121792809604407
 30
0.0
 10
-62.84836327495776
 20
1.246820586268462
 30
0.0
 10
-62.86004234652506
 20
1.344346158064958
 30
0.0
 10
-62.87662593019354
 20
1.414920806610012
 30
0.0
  0
ARC
  5
21EDE
330
1F
100
AcDbEntity
  8
SKVIEW1
100
AcDbCircle
 10
-64.43948924383374
 20
1.024398999999995
 30
0.0
 40
1.611256999999999
100
AcDbArc
 50
14.02956199999911
 51
30.87328899999805
  0
ARC
  5
21EDF
330
1F
100
AcDbEntity
  8
SKVIEW1
100
AcDbCircle
 10
-64.8815772438337
 20
2.088150999999996
 30
0.0
 40
2.271500999999999
100
AcDbArc
 50
275.000396
 51
299.8413820000006
  0
ARC
  5
21EE0
330
1F
100
AcDbEntity
  8
SKVIEW1
100
AcDbCircle
 10
-59.52820024383374
 20
-0.0000279999999933
 30
0.0
 40
5.158345999999998
100
AcDbArc
 50
181.9405779999997
 51
184.827208
  0
LINE
  5
21EE1
330
1F
100
AcDbEntity
  8
SKVIEW1
100
AcDbLine
 10
-63.48058024383357
 20
2.530770000000003
 30
0.0
 11
-63.66813124383373
 21
3.006070000000008
 31
0.0
  0
ARC
  5
21EE2
330
1F
100
AcDbEntity
  8
SKVIEW1
100
AcDbCircle
 10
22.1550917561662
 20
37.322532
 30
0.0
 40
92.42965600000001
100
AcDbArc
 50
199.7558710000004
 51
201.7940269999992
  0
ARC
  5
21EE3
330
1F
100
AcDbEntity
  8
SKVIEW1
100
AcDbCircle
 10
-52.30062624383378
 20
6.698137000000002
 30
0.0
 40
12.54887
100
AcDbArc
 50
180.6107809999998
 51
182.8229909999997
  0
ARC
  5
21EE4
330
1F
100
AcDbEntity
  8
SKVIEW1
100
AcDbCircle
 10
-74.65383524383373
 20
-4.922036000000005
 30
0.0
 40
13.430723
100
AcDbArc
 50
30.28647700000187
 51
33.70415600000017
  0
LINE
  5
21EE5
330
1F
100
AcDbEntity
  8
SKVIEW1
100
AcDbLine
 10
-55.57526224383372
 20
-2.530769999999996
 30
0.0
 11
-55.38771124383373
 21
-3.006070000000001
 31
0.0
  0
ARC
  5
21EE6
330
1F
100
AcDbEntity
  8
SKVIEW1
100
AcDbCircle
 10
-141.2403522438338
 20
-37.33327599999999
 30
0.0
 40
92.460968
100
AcDbArc
 50
19.75597499999934
 51
21.79343999999984
  0
ARC
  5
21EE7
330
1F
100
AcDbEntity
  8
SKVIEW1
100
AcDbCircle
 10
-66.75457524383358
 20
-6.698118
 30
0.0
 40
12.548229
100
AcDbArc
 50
0.6107240000002257
 51
2.823047000000249
  0
ARC
  5
21EE8
330
1F
100
AcDbEntity
  8
SKVIEW1
100
AcDbCircle
 10
-44.40200724383379
 20
4.922035999999998
 30
0.0
 40
13.430723
100
AcDbArc
 50
210.2864770000015
 51
213.7041560000001
  0
ARC
  5
21EE9
330
1F
100
AcDbEntity
  8
SKVIEW1
100
AcDbCircle
 10
-59.5279212438337
 20
0.0
 30
0.0
 40
5.224999999999996
100
AcDbArc
 50
1.979681000000015
 51
63.42340500000021
  0
LINE
  5
21EEA
330
1F
100
AcDbEntity
  8
SKVIEW1
100
AcDbLine
 10
-54.38759324383375
 20
0.4341079999999949
 30
0.0
 11
-54.3202462438337
 21
0.4251800000000117
 31
0.0
  0
LINE
  5
21EEB
330
1F
100
AcDbEntity
  8
SKVIEW1
100
AcDbLine
 10
-59.5279212438337
 20
8.069999999999993
 30
0.0
 11
-59.5279212438337
 21
8.450000000000002
 31
0.0
  0
LINE
  5
21EEC
330
1F
100
AcDbEntity
  8
SKVIEW1
100
AcDbLine
 10
-59.5279212438337
 20
5.937026000000003
 30
0.0
 11
-59.5279212438337
 21
8.069999999999993
 31
0.0
  0
ARC
  5
21EED
330
1F
100
AcDbEntity
  8
SKVIEW1
100
AcDbCircle
 10
-59.22792124383374
 20
5.639525999999989
 30
0.0
 40
0.4225
100
AcDbArc
 50
135.2397300000006
 51
266.9549659999999
  0
ARC
  5
21EEE
330
1F
100
AcDbEntity
  8
SKVIEW1
100
AcDbCircle
 10
-59.5279212438337
 20
0.0
 30
0.0
 40
5.224999999999996
100
AcDbArc
 50
63.42341500000139
 51
86.954966
  0
LINE
  5
21EEF
330
1F
100
AcDbEntity
  8
SKVIEW1
100
AcDbLine
 10
-59.1526332438338
 20
0.229852000000001
 30
0.0
 11
-56.07922724383371
 21
-0.593664000000004
 31
0.0
  0
LINE
  5
21EF0
330
1F
100
AcDbEntity
  8
SKVIEW1
100
AcDbLine
 10
-57.21947624383375
 20
4.566055999999996
 30
0.0
 11
-57.19028924383372
 21
4.672911999999996
 31
0.0
  0
ARC
  5
21EF1
330
1F
100
AcDbEntity
  8
SKVIEW1
100
AcDbCircle
 10
-61.48880024383373
 20
5.713481999999999
 30
0.0
 40
4.420644999999998
100
AcDbArc
 50
335.2536070000003
 51
344.9566369999998
  0
LINE
  5
21EF2
330
1F
100
AcDbEntity
  8
SKVIEW1
100
AcDbLine
 10
-57.80964124383371
 20
3.145289999999995
 30
0.0
 11
-57.47428124383373
 21
3.863070000000007
 31
0.0
  0
SPLINE
  5
21EF3
330
1F
100
AcDbEntity
  8
SKVIEW1
100
AcDbSpline
210
0.0
220
0.0
230
1.0
 70
     8
 71
     5
 72
    30
 73
    24
 74
     0
 42
0.000000001
 43
0.0000000001
 40
0.0
 40
0.0
 40
0.0
 40
0.0
 40
0.0
 40
0.0
 40
27.46890791900197
 40
27.46890791900197
 40
27.46890791900197
 40
38.07893557398753
 40
38.07893557398753
 40
38.07893557398753
 40
43.40645323895073
 40
43.40645323895073
 40
43.40645323895073
 40
49.7351182792694
 40
49.7351182792694
 40
49.7351182792694
 40
51.78944324206803
 40
51.78944324206803
 40
51.78944324206803
 40
53.40576490036049
 40
53.40576490036049
 40
53.40576490036049
 40
54.31140019280714
 40
54.31140019280714
 40
54.31140019280714
 40
54.31140019280714
 40
54.31140019280714
 40
54.31140019280714
 10
-59.15263337087458
 20
0.2298524268930606
 30
0.0
 10
-59.13756452544902
 20
0.2674281545220083
 30
0.0
 10
-59.11891231586167
 20
0.3124272216995294
 30
0.0
 10
-59.09783761238691
 20
0.3615391759955102
 30
0.0
 10
-59.05931351080972
 20
0.4506051716873927
 30
0.0
 10
-58.9789917530502
 20
0.6284026994632513
 30
0.0
 10
-58.95228447916577
 20
0.6872298068065561
 30
0.0
 10
-58.90349574171853
 20
0.7941230067386727
 30
0.0
 10
-58.83105543017132
 20
0.9515251625477461
 30
0.0
 10
-58.80423415342471
 20
1.009627259835596
 30
0.0
 10
-58.73459051997151
 20
1.160388970480745
 30
0.0
 10
-58.63684115211055
 20
1.371223552421405
 30
0.0
 10
-58.57332571445926
 20
1.507910104093973
 30
0.0
 10
-58.46596325351106
 20
1.738681842861524
 30
0.0
 10
-58.31071081376752
 20
2.07175755208997
 30
0.0
 10
-58.26681675120909
 20
2.165690910137669
 30
0.0
 10
-58.18352702765179
 20
2.344437603345056
 30
0.0
 10
-58.09013702556814
 20
2.544614524696584
 30
0.0
 10
-58.04959523615673
 20
2.631432485927923
 30
0.0
 10
-57.97730594193462
 20
2.786268181567287
 30
0.0
 10
-57.89879453431928
 20
2.954402206094194
 30
0.0
 10
-57.86981658122141
 20
3.016455624317039
 30
0.0
 10
-57.8401053844438
 20
3.080069560395308
 30
0.0
 10
-57.80964156660258
 20
3.145289851631908
 30
0.0
  0
LINE
  5
21EF4
330
1F
100
AcDbEntity
  8
SKVIEW1
100
AcDbLine
 10
-58.47609324383376
 20
-0.7994750000000011
 30
0.0
 11
-56.1792162438337
 21
-1.414920999999992
 31
0.0
  0
SPLINE
  5
21EF5
330
1F
100
AcDbEntity
  8
SKVIEW1
100
AcDbSpline
210
0.0
220
0.0
230
1.0
 70
     8
 71
     5
 72
    57
 73
    51
 74
     0
 42
0.000000001
 43
0.0000000001
 40
0.0
 40
0.0
 40
0.0
 40
0.0
 40
0.0
 40
0.0
 40
24.72862772093421
 40
24.72862772093421
 40
24.72862772093421
 40
61.82105273432865
 40
61.82105273432865
 40
61.82105273432865
 40
86.5493593923421
 40
86.5493593923421
 40
86.5493593923421
 40
98.91360281701441
 40
98.91360281701441
 40
98.91360281701441
 40
111.2780730486465
 40
111.2780730486465
 40
111.2780730486465
 40
118.5545750181114
 40
118.5545750181114
 40
118.5545750181114
 40
120.1575536532695
 40
120.1575536532695
 40
120.1575536532695
 40
121.4852127419106
 40
121.4852127419106
 40
121.4852127419106
 40
122.3651045244989
 40
122.3651045244989
 40
122.3651045244989
 40
122.4234374393187
 40
122.4234374393187
 40
122.4234374393187
 40
122.4817703541384
 40
122.4817703541384
 40
122.4817703541384
 40
122.5962182820432
 40
122.5962182820432
 40
122.5962182820432
 40
122.674889342142
 40
122.674889342142
 40
122.674889342142
 40
122.714227621705
 40
122.714227621705
 40
122.714227621705
 40
123.0529526567849
 40
123.0529526567849
 40
123.0529526567849
 40
124.0079913896912
 40
124.0079913896912
 40
124.0079913896912
 40
124.0079913896912
 40
124.0079913896912
 40
124.0079913896912
 10
-59.15263337087458
 20
0.2298524268930606
 30
0.0
 10
-59.16620013408101
 20
0.1960222969369241
 30
0.0
 10
-59.17344411773007
 20
0.1703027044105667
 30
0.0
 10
-59.17875447814623
 20
0.1480605471899565
 30
0.0
 10
-59.18799902338879
 20
0.0961835866499641
 30
0.0
 10
-59.18901414445741
 20
0.0528359385350896
 30
0.0
 10
-59.18766842382388
 20
0.0282116209608105
 30
0.0
 10
-59.18214251985523
 20
-0.0133902875777139
 30
0.0
 10
-59.17014446116621
 20
-0.0589359596694052
 30
0.0
 10
-59.16418641478521
 20
-0.0780973104742344
 30
0.0
 10
-59.15299025752972
 20
-0.1094164027092717
 30
0.0
 10
-59.13546836534107
 20
-0.147997243352286
 30
0.0
 10
-59.12867025281855
 20
-0.1620043293674556
 30
0.0
 10
-59.11342675872288
 20
-0.1914101599910793
 30
0.0
 10
-59.09281759408611
 20
-0.226714150090416
 30
0.0
 10
-59.08061966765576
 20
-0.2465494371922219
 30
0.0
 10
-59.05634795190974
 20
-0.2839451804708943
 30
0.0
 10
-59.01634039625491
 20
-0.3373754907801754
 30
0.0
 10
-58.99999333181608
 20
-0.357904417373561
 30
0.0
 10
-58.97542498476804
 20
-0.388725488893364
 30
0.0
 10
-58.93195615202109
 20
-0.4363890241278839
 30
0.0
 10
-58.9230997060194
 20
-0.4459148540735783
 30
0.0
 10
-58.90706404490703
 20
-0.4628080136977247
 30
0.0
 10
-58.88833690594913
 20
-0.4818589273713059
 30
0.0
 10
-58.87887404725375
 20
-0.4913512027881098
 30
0.0
 10
-58.85991864779874
 20
-0.5100777023933532
 30
0.0
 10
-58.83108448337231
 20
-0.5370515594367121
 30
0.0
 10
-58.82076119313722
 20
-0.5462957044240398
 30
0.0
 10
-58.80723648821055
 20
-0.5588749476450517
 30
0.0
 10
-58.78107393721467
 20
-0.5813858611708512
 30
0.0
 10
-58.77982291076654
 20
-0.5824943531656573
 30
0.0
 10
-58.77463577642373
 20
-0.5868065431341308
 30
0.0
 10
-58.76505201368724
 20
-0.5945335616209491
 30
0.0
 10
-58.75919219437503
 20
-0.5992252958139091
 30
0.0
 10
-58.7409981920328
 20
-0.6137423647594816
 30
0.0
 10
-58.72007531938152
 20
-0.6303185447220728
 30
0.0
 10
-58.70622795350164
 20
-0.6412568514626856
 30
0.0
 10
-58.68286621763605
 20
-0.6596462779758028
 30
0.0
 10
-58.66295912232425
 20
-0.6751104550411072
 30
0.0
 10
-58.65520152790708
 20
-0.6810799179484093
 30
0.0
 10
-58.64829183561756
 20
-0.6862144595958597
 30
0.0
 10
-58.64331400321589
 20
-0.6897862032420719
 30
0.0
 10
-58.64154439289524
 20
-0.6910663149644947
 30
0.0
 10
-58.62537639067591
 20
-0.7026904894239224
 30
0.0
 10
-58.61230637660975
 20
-0.7118151333922214
 30
0.0
 10
-58.60122888262026
 20
-0.7194673751793914
 30
0.0
 10
-58.56211406575278
 20
-0.7460934945048124
 30
0.0
 10
-58.5324430400513
 20
-0.7649834828740297
 30
0.0
 10
-58.5149848090175
 20
-0.7760100485960209
 30
0.0
 10
-58.49504117160387
 20
-0.788188571866229
 30
0.0
 10
-58.47609324842358
 20
-0.7994745521537397
 30
0.0
  0
LINE
  5
21EF6
330
1F
100
AcDbEntity
  8
SKVIEW1
100
AcDbLine
 10
-55.84662324383373
 20
-2.364063000000001
 30
0.0
 11
-58.47609324383376
 21
-0.7994750000000011
 31
0.0
  0
ARC
  5
21EF7
330
1F
100
AcDbEntity
  8
SKVIEW1
100
AcDbCircle
 10
-61.67111824383358
 20
-12.148512
 30
0.0
 40
11.386848
100
AcDbArc
 50
57.63292599999939
 51
59.23547499999814
  0
LINE
  5
21EF8
330
1F
100
AcDbEntity
  8
SKVIEW1
100
AcDbLine
 10
-64.74980224383358
 20
-0.180498
 30
0.0
 11
-64.68358824383376
 21
-0.1747049999999959
 31
0.0
  0
LINE
  5
21EF9
330
1F
100
AcDbEntity
  8
SKVIEW1
100
AcDbLine
 10
-62.97661524383375
 20
0.5936639999999969
 30
0.0
 11
-59.90320924383372
 21
-0.229852000000001
 31
0.0
  0
LINE
  5
21EFA
330
1F
100
AcDbEntity
  8
SKVIEW1
100
AcDbLine
 10
-64.66824924383371
 20
-0.4341079999999949
 30
0.0
 11
-64.73559624383359
 21
-0.4251800000000046
 31
0.0
  0
ARC
  5
21EFB
330
1F
100
AcDbEntity
  8
SKVIEW1
100
AcDbCircle
 10
-59.5279212438337
 20
0.0
 30
0.0
 40
5.224999999999996
100
AcDbArc
 50
181.979681
 51
266.9549559999985
  0
LINE
  5
21EFC
330
1F
100
AcDbEntity
  8
SKVIEW1
100
AcDbLine
 10
-61.8363662438336
 20
-4.566056000000003
 30
0.0
 11
-61.86555324383357
 21
-4.672912000000003
 31
0.0
  0
ARC
  5
21EFD
330
1F
100
AcDbEntity
  8
SKVIEW1
100
AcDbCircle
 10
-57.56704224383373
 20
-5.713481999999999
 30
0.0
 40
4.420644999999998
100
AcDbArc
 50
155.2536070000011
 51
164.9566369999994
  0
LINE
  5
21EFE
330
1F
100
AcDbEntity
  8
SKVIEW1
100
AcDbLine
 10
-61.24620124383375
 20
-3.145289999999995
 30
0.0
 11
-61.58156124383373
 21
-3.863070000000007
 31
0.0
  0
SPLINE
  5
21EFF
330
1F
100
AcDbEntity
  8
SKVIEW1
100
AcDbSpline
210
0.0
220
0.0
230
1.0
 70
     8
 71
     5
 72
    30
 73
    24
 74
     0
 42
0.000000001
 43
0.0000000001
 40
0.0
 40
0.0
 40
0.0
 40
0.0
 40
0.0
 40
0.0
 40
27.46890787819352
 40
27.46890787819352
 40
27.46890787819352
 40
38.07893553191076
 40
38.07893553191076
 40
38.07893553191076
 40
43.40645319715878
 40
43.40645319715878
 40
43.40645319715878
 40
49.73511823805431
 40
49.73511823805431
 40
49.73511823805431
 40
51.78944320099215
 40
51.78944320099215
 40
51.78944320099215
 40
53.40576485843856
 40
53.40576485843856
 40
53.40576485843856
 40
54.31140015090413
 40
54.31140015090413
 40
54.31140015090413
 40
54.31140015090413
 40
54.31140015090413
 40
54.31140015090413
 10
-59.90320911679271
 20
-0.2298524268930535
 30
0.0
 10
-59.91827796219599
 20
-0.2674281544661881
 30
0.0
 10
-59.93693017175252
 20
-0.312427221567134
 30
0.0
 10
-59.95800487532711
 20
-0.361539176098745
 30
0.0
 10
-59.99652897693914
 20
-0.4506051718580153
 30
0.0
 10
-60.07685073462579
 20
-0.6284026994825212
 30
0.0
 10
-60.10355800850885
 20
-0.687229806818273
 30
0.0
 10
-60.15234674595217
 20
-0.7941230067485279
 30
0.0
 10
-60.22478705750057
 20
-0.9515251625530112
 30
0.0
 10
-60.25160833422723
 20
-1.009627259796836
 30
0.0
 10
-60.32125196770272
 20
-1.160388970489911
 30
0.0
 10
-60.41900133556743
 20
-1.371223552441179
 30
0.0
 10
-60.48251677320241
 20
-1.507910104074859
 30
0.0
 10
-60.5898792341323
 20
-1.738681842814301
 30
0.0
 10
-60.74513167388658
 20
-2.071757552067211
 30
0.0
 10
-60.78902573650629
 20
-2.165690910242012
 30
0.0
 10
-60.87231546011401
 20
-2.344437603563534
 30
0.0
 10
-60.96570546219471
 20
-2.544614524906123
 30
0.0
 10
-61.00624725152744
 20
-2.631432485969192
 30
0.0
 10
-61.07853654575001
 20
-2.786268181596057
 30
0.0
 10
-61.1570479533537
 20
-2.95440220608993
 30
0.0
 10
-61.18602590645441
 20
-3.01645562431684
 30
0.0
 10
-61.21573710323054
 20
-3.080069560393134
 30
0.0
 10
-61.24620092107114
 20
-3.145289851628703
 30
0.0
  0
SPLINE
  5
21F00
330
1F
100
AcDbEntity
  8
SKVIEW1
100
AcDbSpline
210
0.0
220
0.0
230
1.0
 70
     8
 71
     5
 72
    57
 73
    51
 74
     0
 42
0.000000001
 43
0.0000000001
 40
0.0
 40
0.0
 40
0.0
 40
0.0
 40
0.0
 40
0.0
 40
24.7286277453748
 40
24.7286277453748
 40
24.7286277453748
 40
61.8210527954297
 40
61.8210527954297
 40
61.8210527954297
 40
86.54935947788381
 40
86.54935947788381
 40
86.54935947788381
 40
98.91360291477717
 40
98.91360291477717
 40
98.91360291477717
 40
111.2780731586323
 40
111.2780731586323
 40
111.2780731586323
 40
118.5545751245098
 40
118.5545751245098
 40
118.5545751245098
 40
120.1575537424125
 40
120.1575537424125
 40
120.1575537424125
 40
121.4852129589463
 40
121.4852129589463
 40
121.4852129589463
 40
122.3651046583887
 40
122.3651046583887
 40
122.3651046583887
 40
122.4234375690366
 40
122.4234375690366
 40
122.4234375690366
 40
122.4817704796846
 40
122.4817704796846
 40
122.4817704796846
 40
122.5962183987453
 40
122.5962183987453
 40
122.5962183987453
 40
122.6748894604638
 40
122.6748894604638
 40
122.6748894604638
 40
122.7142277408341
 40
122.7142277408341
 40
122.7142277408341
 40
123.0529527913867
 40
123.0529527913867
 40
123.0529527913867
 40
124.0079914901107
 40
124.0079914901107
 40
124.0079914901107
 40
124.0079914901107
 40
124.0079914901107
 40
124.0079914901107
 10
-59.90320911679271
 20
-0.2298524268930535
 30
0.0
 10
-59.88964235357286
 20
-0.1960222969034859
 30
0.0
 10
-59.88239836992204
 20
-0.1703027043591945
 30
0.0
 10
-59.87708800950833
 20
-0.1480605471439773
 30
0.0
 10
-59.86784346426947
 20
-0.0961835865658003
 30
0.0
 10
-59.86682834320771
 20
-0.0528359384163366
 30
0.0
 10
-59.86817406385359
 20
-0.0282116208231145
 30
0.0
 10
-59.87369996784372
 20
0.01339028776016
 30
0.0
 10
-59.88569802657304
 20
0.0589359599184718
 30
0.0
 10
-59.89165607297502
 20
0.0780973107569167
 30
0.0
 10
-59.90285223027263
 20
0.1094164030587379
 30
0.0
 10
-59.92037412254513
 20
0.1479972438162989
 30
0.0
 10
-59.92717223510425
 20
0.1620043298779521
 30
0.0
 10
-59.94241572925182
 20
0.1914101605599754
 30
0.0
 10
-59.96302489398073
 20
0.2267141507617225
 30
0.0
 10
-59.9752228204835
 20
0.2465494379434077
 30
0.0
 10
-59.99949453641306
 20
0.2839451814340634
 30
0.0
 10
-60.03950209244624
 20
0.337375492122689
 30
0.0
 10
-60.05584915700359
 20
0.3579044187896585
 30
0.0
 10
-60.08041750415225
 20
0.3887254904065784
 30
0.0
 10
-60.12388633756552
 20
0.4363890262074719
 30
0.0
 10
-60.13274278368374
 20
0.4459148562356319
 30
0.0
 10
-60.14877844451899
 20
0.4628080155679371
 30
0.0
 10
-60.16750558271832
 20
0.4818589284365658
 30
0.0
 10
-60.1769684418079
 20
0.4913512042152277
 30
0.0
 10
-60.19592384177286
 20
0.5100777042798228
 30
0.0
 10
-60.22475800837526
 20
0.5370515631797162
 30
0.0
 10
-60.23508130019547
 20
0.5462957096120249
 30
0.0
 10
-60.24860600502575
 20
0.5588749525916086
 30
0.0
 10
-60.27476855576901
 20
0.5813858657365856
 30
0.0
 10
-60.27601958289392
 20
0.5824943582609379
 30
0.0
 10
-60.2812067228017
 20
0.586806552547813
 30
0.0
 10
-60.29079048954838
 20
0.5945335741121483
 30
0.0
 10
-60.29665030956175
 20
0.5992253088201807
 30
0.0
 10
-60.31484431333081
 20
0.6137423788035222
 30
0.0
 10
-60.33576718467401
 20
0.6303185576776187
 30
0.0
 10
-60.34961454950724
 20
0.6412568635570964
 30
0.0
 10
-60.37297628399653
 20
0.6596462889163277
 30
0.0
 10
-60.39288337616824
 20
0.6751104633998395
 30
0.0
 10
-60.40064096913045
 20
0.6810799250825284
 30
0.0
 10
-60.40755065738574
 20
0.6862144634495806
 30
0.0
 10
-60.41252848964319
 20
0.6897862069736221
 30
0.0
 10
-60.41429810008276
 20
0.6910663187886712
 30
0.0
 10
-60.43046610214173
 20
0.7026904930579505
 30
0.0
 10
-60.44353611626644
 20
0.711815137010234
 30
0.0
 10
-60.45461361051207
 20
0.719467378940621
 30
0.0
 10
-60.49372842545904
 20
0.7460934967778102
 30
0.0
 10
-60.5233994506242
 20
0.7649834847670789
 30
0.0
 10
-60.54085768007928
 20
0.7760100494691998
 30
0.0
 10
-60.56080131674253
 20
0.7881885722708688
 30
0.0
 10
-60.57974923924371
 20
0.7994745521537468
 30
0.0
  0
LINE
  5
21F01
330
1F
100
AcDbEntity
  8
SKVIEW1
100
AcDbLine
 10
-60.57974924383358
 20
0.7994750000000082
 30
0.0
 11
-62.87662624383358
 21
1.414920999999992
 31
0.0
  0
LINE
  5
21F02
330
1F
100
AcDbEntity
  8
SKVIEW1
100
AcDbLine
 10
-63.20921924383373
 20
2.364063000000001
 30
0.0
 11
-60.57974924383358
 21
0.7994750000000082
 31
0.0
  0
ARC
  5
21F03
330
1F
100
AcDbEntity
  8
SKVIEW1
100
AcDbCircle
 10
-57.38472424383371
 20
12.148512
 30
0.0
 40
11.386848
100
AcDbArc
 50
237.6329259999994
 51
239.235475000002
  0
ARC
  5
21F04
330
1F
100
AcDbEntity
  8
SKVIEW1
100
AcDbCircle
 10
-59.5279212438337
 20
0.0
 30
0.0
 40
5.116423999999998
100
AcDbArc
 50
63.18036500000046
 51
144.0178359999988
  0
ARC
  5
21F05
330
1F
100
AcDbEntity
  8
SKVIEW1
100
AcDbCircle
 10
-59.5279212438337
 20
0.0
 30
0.0
 40
4.375014
100
AcDbArc
 50
62.00452399999909
 51
147.2921570000008
  0
ARC
  5
21F06
330
1F
100
AcDbEntity
  8
SKVIEW1
100
AcDbCircle
 10
-59.5279212438337
 20
0.0
 30
0.0
 40
8.07
100
AcDbArc
 50
90.0
 51
131.1125090000011
  0
ARC
  5
21F07
330
1F
100
AcDbEntity
  8
SKVIEW1
100
AcDbCircle
 10
-59.5279212438337
 20
0.0
 30
0.0
 40
8.449999999999999
100
AcDbArc
 50
90.0
 51
129.0271069999991
  0
ARC
  5
21F08
330
1F
100
AcDbEntity
  8
SKVIEW1
100
AcDbCircle
 10
-59.5279212438337
 20
0.0
 30
0.0
 40
4.375014
100
AcDbArc
 50
242.004523999999
 51
327.2921570000008
  0
ARC
  5
21F09
330
1F
100
AcDbEntity
  8
SKVIEW1
100
AcDbCircle
 10
-59.5279212438337
 20
0.0
 30
0.0
 40
5.116423999999998
100
AcDbArc
 50
243.1803650000004
 51
324.0178359999984
  0
ARC
  5
21F0A
330
1F
100
AcDbEntity
  8
SKVIEW1
100
AcDbCircle
 10
-59.82792124383371
 20
-5.639526000000003
 30
0.0
 40
0.4225
100
AcDbArc
 50
315.2397300000006
 51
86.954966
  0
LINE
  5
21F0B
330
1F
100
AcDbEntity
  8
SKVIEW1
100
AcDbLine
 10
-59.5279212438337
 20
-8.070000000000007
 30
0.0
 11
-59.5279212438337
 21
-5.937026000000003
 31
0.0
  0
ARC
  5
21F0C
330
1F
100
AcDbEntity
  8
SKVIEW1
100
AcDbCircle
 10
-59.5279212438337
 20
0.0
 30
0.0
 40
8.07
100
AcDbArc
 50
270.0
 51
311.1125090000011
  0
ARC
  5
21F0D
330
1F
100
AcDbEntity
  8
SKVIEW1
100
AcDbCircle
 10
-59.5279212438337
 20
0.0
 30
0.0
 40
8.449999999999999
100
AcDbArc
 50
270.0
 51
309.0271069999992
  0
LINE
  5
21F0E
330
1F
100
AcDbEntity
  8
SKVIEW1
100
AcDbLine
 10
-59.5279212438337
 20
-8.070000000000007
 30
0.0
 11
-59.5279212438337
 21
-8.450000000000002
 31
0.0
  0
LINE
  5
21F0F
330
1F
100
AcDbEntity
  8
SKVIEW1
100
AcDbLine
 10
-57.14792124383371
 20
13.165513
 30
0.0
 11
-57.14792124383371
 21
13.09999999999999
 31
0.0
  0
LINE
  5
21F10
330
1F
100
AcDbEntity
  8
SKVIEW1
100
AcDbLine
 10
-57.14792124383371
 20
13.09999999999999
 30
0.0
 11
-57.14792124383371
 21
7.829999999999998
 31
0.0
  0
LINE
  5
21F11
330
1F
100
AcDbEntity
  8
SKVIEW1
100
AcDbLine
 10
-57.14792124383371
 20
7.829999999999998
 30
0.0
 11
-57.14792124383371
 21
7.764487000000002
 31
0.0
  0
LINE
  5
21F12
330
1F
100
AcDbEntity
  8
SKVIEW1
100
AcDbLine
 10
-57.14792124383371
 20
13.165513
 30
0.0
 11
-59.5279212438337
 21
13.5
 31
0.0
  0
LINE
  5
21F13
330
1F
100
AcDbEntity
  8
SKVIEW1
100
AcDbLine
 10
-59.5279212438337
 20
13.5
 30
0.0
 11
-59.5279212438337
 21
13.09999999999999
 31
0.0
  0
LINE
  5
21F14
330
1F
100
AcDbEntity
  8
SKVIEW1
100
AcDbLine
 10
-57.14792124383371
 20
13.09999999999999
 30
0.0
 11
-59.5279212438337
 21
13.09999999999999
 31
0.0
  0
LINE
  5
21F15
330
1F
100
AcDbEntity
  8
SKVIEW1
100
AcDbLine
 10
-59.5279212438337
 20
13.09999999999999
 30
0.0
 11
-59.5279212438337
 21
7.829999999999998
 31
0.0
  0
LINE
  5
21F16
330
1F
100
AcDbEntity
  8
SKVIEW1
100
AcDbLine
 10
-57.14792124383371
 20
7.829999999999998
 30
0.0
 11
-59.5279212438337
 21
7.829999999999998
 31
0.0
  0
LINE
  5
21F17
330
1F
100
AcDbEntity
  8
SKVIEW1
100
AcDbLine
 10
-59.5279212438337
 20
7.829999999999998
 30
0.0
 11
-59.5279212438337
 21
7.430000000000006
 31
0.0
  0
LINE
  5
21F18
330
1F
100
AcDbEntity
  8
SKVIEW1
100
AcDbLine
 10
-57.14792124383371
 20
7.764487000000002
 30
0.0
 11
-59.5279212438337
 21
7.430000000000006
 31
0.0
  0
LINE
  5
21F19
330
1F
100
AcDbEntity
  8
SKVIEW1
100
AcDbLine
 10
-59.5279212438337
 20
13.5
 30
0.0
 11
-59.5279212438337
 21
13.09999999999999
 31
0.0
  0
LINE
  5
21F1A
330
1F
100
AcDbEntity
  8
SKVIEW1
100
AcDbLine
 10
-59.5279212438337
 20
7.829999999999998
 30
0.0
 11
-59.5279212438337
 21
7.430000000000006
 31
0.0
  0
LINE
  5
21F1B
330
1F
100
AcDbEntity
  8
SKVIEW1
100
AcDbLine
 10
-59.5279212438337
 20
7.829999999999998
 30
0.0
 11
-59.5279212438337
 21
13.09999999999999
 31
0.0
  0
LINE
  5
21F1C
330
1F
100
AcDbEntity
  8
SKVIEW1
100
AcDbLine
 10
-61.90792124383375
 20
-13.165513
 30
0.0
 11
-61.90792124383375
 21
-13.1
 31
0.0
  0
LINE
  5
21F1D
330
1F
100
AcDbEntity
  8
SKVIEW1
100
AcDbLine
 10
-61.90792124383375
 20
-13.1
 30
0.0
 11
-61.90792124383375
 21
-7.829999999999998
 31
0.0
  0
LINE
  5
21F1E
330
1F
100
AcDbEntity
  8
SKVIEW1
100
AcDbLine
 10
-61.90792124383375
 20
-7.829999999999998
 30
0.0
 11
-61.90792124383375
 21
-7.764487000000002
 31
0.0
  0
LINE
  5
21F1F
330
1F
100
AcDbEntity
  8
SKVIEW1
100
AcDbLine
 10
-61.90792124383375
 20
-13.165513
 30
0.0
 11
-59.5279212438337
 21
-13.5
 31
0.0
  0
LINE
  5
21F20
330
1F
100
AcDbEntity
  8
SKVIEW1
100
AcDbLine
 10
-59.5279212438337
 20
-13.5
 30
0.0
 11
-59.5279212438337
 21
-13.1
 31
0.0
  0
LINE
  5
21F21
330
1F
100
AcDbEntity
  8
SKVIEW1
100
AcDbLine
 10
-61.90792124383375
 20
-13.1
 30
0.0
 11
-59.5279212438337
 21
-13.1
 31
0.0
  0
LINE
  5
21F22
330
1F
100
AcDbEntity
  8
SKVIEW1
100
AcDbLine
 10
-59.5279212438337
 20
-13.1
 30
0.0
 11
-59.5279212438337
 21
-8.450001
 31
0.0
  0
LINE
  5
21F23
330
1F
100
AcDbEntity
  8
SKVIEW1
100
AcDbLine
 10
-61.90792124383375
 20
-7.829999999999998
 30
0.0
 11
-59.5279212438337
 21
-7.829999999999998
 31
0.0
  0
LINE
  5
21F24
330
1F
100
AcDbEntity
  8
SKVIEW1
100
AcDbLine
 10
-61.90792124383375
 20
-7.764487000000002
 30
0.0
 11
-59.5279212438337
 21
-7.429999999999999
 31
0.0
  0
LINE
  5
21F25
330
1F
100
AcDbEntity
  8
SKVIEW1
100
AcDbLine
 10
-59.5279212438337
 20
-13.5
 30
0.0
 11
-59.5279212438337
 21
-13.1
 31
0.0
  0
LINE
  5
21F26
330
1F
100
AcDbEntity
  8
SKVIEW1
100
AcDbLine
 10
-59.5279212438337
 20
-13.5
 30
0.0
 11
-59.5279212438337
 21
-13.1
 31
0.0
  0
LINE
  5
21F27
330
1F
100
AcDbEntity
  8
SKVIEW1
100
AcDbLine
 10
-59.5279212438337
 20
-13.1
 30
0.0
 11
-59.5279212438337
 21
-8.450005000000004
 31
0.0
  0
LINE
  5
21F28
330
1F
100
AcDbEntity
  8
SKVIEW1
100
AcDbLine
 10
-59.5279212438337
 20
-8.450000000000002
 30
0.0
 11
-59.5279212438337
 21
-13.1
 31
0.0
  0
LINE
  5
21F29
330
1F
100
AcDbEntity
  8
1
100
AcDbLine
 10
22.0100000000038
 20
8.450000000000017
 30
0.0
 11
21.21000000000362
 21
8.450000000000017
 31
0.0
  0
LINE
  5
21F2A
330
1F
100
AcDbEntity
  8
1
100
AcDbLine
 10
22.6681790000037
 20
8.070000000000021
 30
0.0
 11
22.0100000000038
 21
8.450000000000017
 31
0.0
  0
LINE
  5
21F2B
330
1F
100
AcDbEntity
  8
1
100
AcDbLine
 10
23.04428000000371
 20
5.937025999999917
 30
0.0
 11
22.6681790000037
 21
8.070000000000021
 31
0.0
  0
LINE
  5
21F2C
330
1F
100
AcDbEntity
  8
1
100
AcDbLine
 10
23.14929500000369
 20
5.341459999999969
 30
0.0
 11
23.04428000000371
 21
5.937025999999917
 31
0.0
  0
LINE
  5
21F2D
330
1F
100
AcDbEntity
  8
1
100
AcDbLine
 10
23.14929500000369
 20
5.341459999999926
 30
0.0
 11
23.04428000000371
 21
5.937025999999889
 31
0.0
  0
ARC
  5
21F2E
330
1F
100
AcDbEntity
  8
1
100
AcDbCircle
 10
26.35119200000378
 20
5.674007999999901
 30
0.0
 40
3.211
100
AcDbArc
 50
189.9999999999986
 51
203.8626189999992
  0
LINE
  5
21F2F
330
1F
100
AcDbEntity
  8
1
100
AcDbLine
 10
23.18897400000373
 20
5.116423999999994
 30
0.0
 11
23.14929500000369
 21
5.341459999999926
 31
0.0
  0
DIMENSION
  5
21F30
330
1F
100
AcDbEntity
  8
SK2
100
AcDbDimension
280
     0
  2
*D16
 10
-26.46045587703043
 20
-5.199999999999998
 30
0.0
 11
-26.46045587703043
 21
-20.32613492621223
 31
0.0
 70
   160
  1
%%C<>
 71
     5
 42
10.4
 73
     0
 74
     0
 75
     0
  3
STANDARD
100
AcDbAlignedDimension
 13
-10.59999999999621
 23
5.200000000000002
 33
0.0
 14
-10.59999999999621
 24
-5.200000000000002
 34
0.0
 50
90.0
100
AcDbRotatedDimension
1001
ACAD_DSTYLE_DIMARC_LENGTH_SYMBOL
1070
   379
1070
     1
1001
ACAD_DSTYLE_DIM_LINETYPE
1070
   380
1005
14
1001
ACAD_DSTYLE_DIM_EXT1_LINETYPE
1070
   381
1005
14
1001
ACAD_DSTYLE_DIM_EXT2_LINETYPE
1070
   382
1005
14
1001
ACAD
1000
DSTYLE
1002
{
1070
   172
1070
     1
1002
}
  0
LWPOLYLINE
  5
220BC
330
1F
100
AcDbEntity
  8
CUT
 48
0.240324
100
AcDbPolyline
 90
       19
 70
     0
 43
0.0
 10
23.18897400000373
 20
5.116423999999994
 10
23.14929500000364
 20
5.341459999999997
 10
23.04428000000371
 20
5.937026000000003
 10
22.66817900000365
 20
8.069999999999993
 10
22.01000000000363
 20
8.449999999999988
 10
21.21000000000362
 20
8.450000000000002
 10
21.2100000000037
 20
13.09999999999999
 42
0.4142135623730951
 10
20.8100000000037
 20
13.5
 10
15.54000000000377
 20
13.5
 42
0.4142135623730951
 10
15.14000000000362
 20
13.09999999999999
 10
15.14000000000376
 20
7.829999999999998
 42
0.4142135623730951
 10
15.54000000000377
 20
7.430000000000006
 10
16.05005000000369
 20
7.430000000000006
 10
16.0500000000037
 20
6.407191999999994
 10
16.0500000000037
 20
2.791749000000038
 10
16.0500000000037
 20
0.0
 10
25.35000000000361
 20
0.0
 10
23.41467443314465
 20
4.375013935530091
 42
-0.0605609620260472
 10
23.18897430508153
 20
5.1164237015115
  0
LWPOLYLINE
  5
220D4
330
1F
100
AcDbEntity
  8
NOCUT
370
    18
100
AcDbPolyline
 90
        9
 70
     1
 43
0.0
 10
-10.59999999999627
 20
0.0
 10
20.21000000000362
 20
0.0
 10
20.21000000000362
 20
6.35238799999999
 10
20.21000000000362
 20
13.25
 10
0.0000000000037517
 20
13.25
 10
0.0000000000037517
 20
6.35238799999999
 10
0.0000000000037517
 20
5.200000000000002
 10
-10.59999999999621
 20
5.200000000000002
 10
-10.59999999999621
 20
2.493012999999997
  0
LINE
  5
220DD
330
1F
100
AcDbEntity
  8
SK4
100
AcDbLine
 10
0.0000000000037517
 20
-0.0000000000000284
 30
0.0
 11
-12.57192899999637
 21
0.0
 31
0.0
  0
VIEWPORT
  5
9C00
330
1B
100
AcDbEntity
 67
     1
  8
0
348
3195
100
AcDbViewport
 10
108.2280559557949
 20
71.69854161746989
 30
0.0
 40
251.8950231529317
 41
201.8884082081047
 68
     1
 69
     1
 12
108.2280559557949
 22
71.69854161746989
 13
0.0
 23
0.0
 14
10.0
 24
10.0
 15
10.0
 25
10.0
 16
0.0
 26
0.0
 36
1.0
 17
0.0
 27
0.0
 37
0.0
 42
50.0
 43
0.0
 44
0.0
 45
201.8884082081047
 50
0.0
 51
0.0
 72
   100
 90
   557088
  1

281
     0
 71
     1
 74
     0
110
0.0
120
0.0
130
0.0
111
1.0
121
0.0
131
0.0
112
0.0
122
1.0
132
0.0
 79
     0
146
0.0
170
     0
 61
     5
292
     1
282
     1
141
0.0
142
0.0
 63
   250
421
  3355443
  0
VIEWPORT
  5
9C02
330
1B
100
AcDbEntity
 67
     1
  8
1
348
3195
100
AcDbViewport
 10
143.457083940506
 20
98.18158769607544
 30
0.0
 40
229.5313343048095
 41
157.0905403137207
 68
     2
 69
     2
 12
-44.37697124786255
 22
-35.12342998133886
 13
0.0
 23
0.0
 14
10.0
 24
10.0
 15
10.0
 25
10.0
 16
0.0
 26
0.0
 36
1.0
 17
0.0
 27
0.0
 37
0.0
 42
50.0
 43
0.0
 44
0.0
 45
300.3886240724386
 50
0.0
 51
0.0
 72
   100
 90
   557088
  1

281
     0
 71
     1
 74
     0
110
0.0
120
0.0
130
0.0
111
1.0
121
0.0
131
0.0
112
0.0
122
1.0
132
0.0
 79
     0
146
0.0
170
     0
 61
     5
348
3195
292
     1
282
     1
141
0.0
142
0.0
 63
   250
421
  3355443
  0
ENDSEC
  0
SECTION
  2
OBJECTS
  0
DICTIONARY
  5
3182
330
0
100
AcDbDictionary
281
     1
  3
ACAD_CIP_PREVIOUS_PRODUCT_INFO
350
1B2F4
  3
ACAD_COLOR
350
31A0
  3
ACAD_DETAILVIEWSTYLE
350
1B2F0
  3
ACAD_FIELDLIST
350
20CBF
  3
ACAD_GROUP
350
3183
  3
ACAD_LAYOUT
350
31A5
  3
ACAD_MATERIAL
350
318B
  3
ACAD_MLEADERSTYLE
350
1B221
  3
ACAD_MLINESTYLE
350
3184
  3
ACAD_PLOTSETTINGS
350
31A4
  3
ACAD_PLOTSTYLENAME
350
3189
  3
ACAD_SCALELIST
350
1B1FC
  3
ACAD_SECTIONVIEWSTYLE
350
1B2EE
  3
ACAD_TABLESTYLE
350
31A1
  3
ACAD_VISUALSTYLE
350
318F
  3
ACDB_RECOMPOSE_DATA
350
22110
  3
AcDbVariableDictionary
350
33A3
  0
DICTIONARY
  5
422A
330
2
100
AcDbDictionary
280
     1
281
     1
  3
ACAD_LAYERFILTERS
360
1B063
  3
ACAD_LAYERSTATES
360
9A1C
  3
ACLYDICTIONARY
360
1B062
  0
DICTIONARY
  5
1B2F5
330
10
100
AcDbDictionary
280
     1
281
     1
  3
ADSK_XREC_LAYER_RECONCILED
360
21B8E
  0
DICTIONARY
  5
1B2F7
330
3F8C
100
AcDbDictionary
280
     1
281
     1
  3
ADSK_XREC_LAYER_RECONCILED
360
21B8F
  0
DICTIONARY
  5
1B2F9
330
9C4A
100
AcDbDictionary
280
     1
281
     1
  3
ADSK_XREC_LAYER_RECONCILED
360
21B90
  0
DICTIONARY
  5
1B2FB
330
9C4B
100
AcDbDictionary
280
     1
281
     1
  3
ADSK_XREC_LAYER_RECONCILED
360
21B91
  0
DICTIONARY
  5
1B2FD
330
9C4D
100
AcDbDictionary
280
     1
281
     1
  3
ADSK_XREC_LAYER_RECONCILED
360
21B92
  0
DICTIONARY
  5
1B2FF
330
9C4E
100
AcDbDictionary
280
     1
281
     1
  3
ADSK_XREC_LAYER_RECONCILED
360
21B93
  0
DICTIONARY
  5
1B301
330
9C4F
100
AcDbDictionary
280
     1
281
     1
  3
ADSK_XREC_LAYER_RECONCILED
360
21B94
  0
DICTIONARY
  5
1B303
330
9C50
100
AcDbDictionary
280
     1
281
     1
  3
ADSK_XREC_LAYER_RECONCILED
360
21B95
  0
DICTIONARY
  5
1B305
330
9C51
100
AcDbDictionary
280
     1
281
     1
  3
ADSK_XREC_LAYER_RECONCILED
360
21B96
  0
DICTIONARY
  5
1B307
330
13335
100
AcDbDictionary
280
     1
281
     1
  3
ADSK_XREC_LAYER_RECONCILED
360
21B97
  0
DICTIONARY
  5
1B309
330
1686E
100
AcDbDictionary
280
     1
281
     1
  3
ADSK_XREC_LAYER_RECONCILED
360
21B98
  0
DICTIONARY
  5
339C
330
1F
100
AcDbDictionary
280
     1
281
     1
  3
ACAD_SORTENTS
360
339D
  0
DICTIONARY
  5
1DE81
330
1B3D7
100
AcDbDictionary
280
     1
281
     1
  0
XRECORD
  5
1B2F4
102
{ACAD_REACTORS
330
3182
102
}
330
3182
100
AcDbXrecord
280
     1
300
ACDLT
300
2015
300
ACDLT_F_S
  0
DICTIONARY
  5
31A0
102
{ACAD_REACTORS
330
3182
102
}
330
3182
100
AcDbDictionary
281
     1
  0
DICTIONARY
  5
1B2F0
102
{ACAD_REACTORS
330
3182
102
}
330
3182
100
AcDbDictionary
281
     1
  3
Imperial24
350
20CB3
  3
Metric50
350
1B2F1
  0
FIELDLIST
  5
20CBF
102
{ACAD_REACTORS
330
3182
102
}
330
3182
100
AcDbIdSet
 90
        0
100
AcDbFieldList
  0
DICTIONARY
  5
3183
102
{ACAD_REACTORS
330
3182
102
}
330
3182
100
AcDbDictionary
281
     1
  0
DICTIONARY
  5
31A5
102
{ACAD_REACTORS
330
3182
102
}
330
3182
100
AcDbDictionary
281
     1
  3
Layout1
350
31A7
  3
Model
350
31A6
  0
DICTIONARY
  5
318B
102
{ACAD_REACTORS
330
3182
102
}
330
3182
100
AcDbDictionary
281
     1
  3
ByBlock
350
318D
  3
ByLayer
350
318C
  3
Global
350
318E
  0
DICTIONARY
  5
1B221
102
{ACAD_REACTORS
330
3182
102
}
330
3182
100
AcDbDictionary
281
     1
  3
Standard
350
1B2ED
  0
DICTIONARY
  5
3184
102
{ACAD_REACTORS
330
3182
102
}
330
3182
100
AcDbDictionary
281
     1
  3
STANDARD
350
3185
  0
DICTIONARY
  5
31A4
102
{ACAD_REACTORS
330
3182
102
}
330
3182
100
AcDbDictionary
281
     1
  0
ACDBDICTIONARYWDFLT
  5
3189
102
{ACAD_REACTORS
330
3182
102
}
330
3182
100
AcDbDictionary
281
     1
  3
Normal
350
318A
100
AcDbDictionaryWithDefault
340
318A
  0
DICTIONARY
  5
1B1FC
102
{ACAD_REACTORS
330
3182
102
}
330
3182
100
AcDbDictionary
281
     1
  3
A0
350
1B1FD
  3
A1
350
1B1FE
  3
A2
350
1B1FF
  3
A3
350
1B200
  3
A4
350
1B201
  3
A5
350
1B202
  3
A6
350
1B203
  3
A7
350
1B204
  3
A8
350
1B205
  3
A9
350
1B206
  3
B0
350
1B207
  3
B1
350
1B208
  3
B2
350
1B209
  3
B3
350
1B20A
  3
B4
350
1B20B
  3
B5
350
1B20C
  3
B6
350
1B20D
  3
B7
350
1B20E
  3
B8
350
1B20F
  3
B9
350
1B210
  3
C0
350
1B211
  3
C1
350
1B212
  3
C2
350
1B213
  3
C3
350
1B214
  3
C4
350
1B215
  3
C5
350
1B216
  3
C6
350
1B217
  3
C7
350
1B218
  3
C8
350
1B219
  3
C9
350
1B21A
  3
D0
350
1B21B
  3
D1
350
1B21C
  3
D2
350
1B21D
  0
DICTIONARY
  5
1B2EE
102
{ACAD_REACTORS
330
3182
102
}
330
3182
100
AcDbDictionary
281
     1
  3
Imperial24
350
20CB1
  3
Metric50
350
1B2EF
  0
DICTIONARY
  5
31A1
102
{ACAD_REACTORS
330
3182
102
}
330
3182
100
AcDbDictionary
281
     1
  3
Standard
350
31A2
  0
DICTIONARY
  5
318F
102
{ACAD_REACTORS
330
3182
102
}
330
3182
100
AcDbDictionary
281
     1
  3
2dWireframe
350
3195
  3
3D Hidden
350
3197
  3
3dWireframe
350
3196
  3
Basic
350
3194
  3
Brighten
350
319B
  3
ColorChange
350
319F
  3
Conceptual
350
3198
  3
Dim
350
319A
  3
EdgeColorOff
350
1B2EC
  3
Facepattern
350
319E
  3
Flat
350
3190
  3
FlatWithEdges
350
3191
  3
Gouraud
350
3192
  3
GouraudWithEdges
350
3193
  3
Hidden
350
1B2E4
  3
JitterOff
350
1B2EA
  3
Linepattern
350
319D
  3
OverhangOff
350
1B2EB
  3
Realistic
350
3199
  3
Shaded
350
1B2E9
  3
Shaded with edges
350
1B2E8
  3
Shades of Gray
350
1B2E5
  3
Sketchy
350
1B2E6
  3
Thicken
350
319C
  3
Wireframe
350
1B2E3
  3
X-Ray
350
1B2E7
  0
XRECORD
  5
22110
102
{ACAD_REACTORS
330
3182
102
}
330
3182
100
AcDbXrecord
280
     1
 90
        1
330
31A2
  0
DICTIONARY
  5
33A3
102
{ACAD_REACTORS
330
3182
102
}
330
3182
100
AcDbDictionary
281
     1
  3
CANNOSCALE
350
1B222
  3
CMLEADERSTYLE
350
1B30F
  3
CTABLESTYLE
350
33A4
  3
CVIEWDETAILSTYLE
350
1B310
  3
CVIEWSECTIONSTYLE
350
1B311
  3
DIMASSOC
350
9BE8
  3
INDEXCTL
350
9BE7
  3
LAYEREVAL
350
20993
  3
LAYERNOTIFY
350
20994
  3
LIGHTINGUNITS
350
20992
  3
MSLTSCALE
350
20991
  3
SORTENTS
350
9BE6
  0
DICTIONARY
  5
1B063
102
{ACAD_REACTORS
330
422A
102
}
330
422A
100
AcDbDictionary
281
     1
  0
DICTIONARY
  5
9A1C
102
{ACAD_REACTORS
330
422A
102
}
330
422A
100
AcDbDictionary
281
     1
  0
DICTIONARY
  5
1B062
102
{ACAD_REACTORS
330
422A
102
}
330
422A
100
AcDbDictionary
281
     1
1001
ACAD
1000
<All
  0
XRECORD
  5
21B8E
102
{ACAD_REACTORS
330
1B2F5
102
}
330
1B2F5
100
AcDbXrecord
280
     1
290
     1
  0
XRECORD
  5
21B8F
102
{ACAD_REACTORS
330
1B2F7
102
}
330
1B2F7
100
AcDbXrecord
280
     1
290
     1
  0
XRECORD
  5
21B90
102
{ACAD_REACTORS
330
1B2F9
102
}
330
1B2F9
100
AcDbXrecord
280
     1
290
     1
  0
XRECORD
  5
21B91
102
{ACAD_REACTORS
330
1B2FB
102
}
330
1B2FB
100
AcDbXrecord
280
     1
290
     1
  0
XRECORD
  5
21B92
102
{ACAD_REACTORS
330
1B2FD
102
}
330
1B2FD
100
AcDbXrecord
280
     1
290
     1
  0
XRECORD
  5
21B93
102
{ACAD_REACTORS
330
1B2FF
102
}
330
1B2FF
100
AcDbXrecord
280
     1
290
     1
  0
XRECORD
  5
21B94
102
{ACAD_REACTORS
330
1B301
102
}
330
1B301
100
AcDbXrecord
280
     1
290
     1
  0
XRECORD
  5
21B95
102
{ACAD_REACTORS
330
1B303
102
}
330
1B303
100
AcDbXrecord
280
     1
290
     1
  0
XRECORD
  5
21B96
102
{ACAD_REACTORS
330
1B305
102
}
330
1B305
100
AcDbXrecord
280
     1
290
     1
  0
XRECORD
  5
21B97
102
{ACAD_REACTORS
330
1B307
102
}
330
1B307
100
AcDbXrecord
280
     1
290
     1
  0
XRECORD
  5
21B98
102
{ACAD_REACTORS
330
1B309
102
}
330
1B309
100
AcDbXrecord
280
     1
290
     1
  0
SORTENTSTABLE
  5
339D
102
{ACAD_REACTORS
330
339C
102
}
330
339C
100
AcDbSortentsTable
330
1F
331
21E91
  5
21EA5
331
21F2A
  5
220D7
331
21E82
  5
21E96
331
21E59
  5
21E63
331
21F1B
  5
220C2
331
21E73
  5
21E87
331
21E4A
  5
21E54
331
21F0C
  5
21F28
331
21E64
  5
21E71
331
21E3B
  5
21E40
331
21EFD
  5
21F19
331
21E2C
  5
21E31
331
21EEE
  5
21F0A
331
21E1D
  5
21E22
331
21EDF
  5
21EFB
331
21E0E
  5
21E16
331
21ECB
  5
21EE7
331
21EBC
  5
21ED8
331
21EAD
  5
21EC9
331
21E8F
  5
21EA3
331
21E57
  5
21E61
331
21DFF
  5
21DFF
331
21EF8
  5
21F14
331
21EE9
  5
21F05
331
21E18
  5
21E1D
331
21EDA
  5
21EF6
331
21E09
  5
21E0A
331
21EC6
  5
21EE2
331
21EB7
  5
21ED3
331
21EA8
  5
21EC4
331
21E99
  5
21EAD
331
21F23
  5
220CA
331
21E8A
  5
21E9E
331
21F14
  5
21F30
331
21E43
  5
21E4C
331
21F05
  5
21F21
331
21E34
  5
21E39
331
21EF6
  5
21F12
331
21E25
  5
21E2A
331
21EE7
  5
21F03
331
21E16
  5
21E1B
331
21ED5
  5
21EF1
331
21E07
  5
21E07
331
21ED0
  5
21EEC
331
21EC1
  5
21EDD
331
21EB2
  5
21ECE
331
21E94
  5
21EA8
331
21F2D
  5
220DA
331
21E85
  5
21E99
331
21E5C
  5
21E66
331
21F1E
  5
220C5
331
21E76
  5
21E8A
331
21E4D
  5
21E57
331
21F0F
  5
21F2B
331
21E67
  5
21E74
331
21E3E
  5
21E43
331
21F00
  5
21F1C
331
21E2F
  5
21E34
331
21EF1
  5
21F0D
331
21E20
  5
21E25
331
21EE2
  5
21EFE
331
21ECE
  5
21EEA
331
21EBF
  5
21EDB
331
21E02
  5
21E02
331
21F28
  5
220D5
331
21F19
  5
220C0
331
21E71
  5
21E85
331
21E48
  5
21E4F
331
21F0A
  5
21F26
331
21E62
  5
21E6E
331
21E39
  5
21E3E
331
21EFB
  5
21F17
331
21E2A
  5
21E2F
331
21EEC
  5
21F08
331
21E1B
  5
21E20
331
21EDD
  5
21EF9
331
21E0C
  5
21E11
331
21EC9
  5
21EE5
331
21EBA
  5
21ED6
331
21EAB
  5
21EC7
331
220D4
  5
21EBF
331
21E8D
  5
21EA1
331
21F26
  5
220CD
331
21E55
  5
21E5F
331
21F17
  5
220BE
331
21E6F
  5
21E84
331
21E46
  5
21E4D
331
21E37
  5
21E3C
331
211A0
  5
211A0
331
21ED8
  5
21EF4
331
21ED3
  5
21EEF
331
21EC4
  5
21EE0
331
21EB5
  5
21ED1
331
21EA6
  5
21EC2
331
21E97
  5
21EAB
331
21F30
  5
220DD
331
21E88
  5
21E9C
331
21E5F
  5
21E69
331
21F21
  5
220C8
331
21E79
  5
21E93
331
21E50
  5
21E5D
331
21F12
  5
21F2E
331
21E6A
  5
21E79
331
21E41
  5
21E48
331
21F03
  5
21F1F
331
21E32
  5
21E37
331
21EF4
  5
21F10
331
21E23
  5
21E28
331
21EE5
  5
21F01
331
21E14
  5
21E19
331
21E05
  5
21E05
331
21EB0
  5
21ECC
331
21E92
  5
21EA6
331
21F2B
  5
220D8
331
21E83
  5
21E97
331
21E5A
  5
21E64
331
21F1C
  5
220C3
331
21E74
  5
21E88
331
21E4B
  5
21E55
331
21F0D
  5
21F29
331
21E65
  5
21E72
331
21E3C
  5
21E41
331
21EFE
  5
21F1A
331
21E2D
  5
21E32
331
21EEF
  5
21F0B
331
21E1E
  5
21E23
331
21EE0
  5
21EFC
331
21ECC
  5
21EE8
331
21EBD
  5
21ED9
331
21EAE
  5
21ECA
331
21E00
  5
21E00
331
21F08
  5
21F24
331
21E60
  5
21E6A
331
21EF9
  5
21F15
331
21E28
  5
21E2D
331
21EEA
  5
21F06
331
21E19
  5
21E1E
331
21EDB
  5
21EF7
331
21E0A
  5
21E0B
331
21ED6
  5
21EF2
331
21EC7
  5
21EE3
331
21EB8
  5
21ED4
331
21EA9
  5
21EC5
331
21E9A
  5
21EB6
331
21F24
  5
220CB
331
21E8B
  5
21E9F
331
21F15
  5
220BC
331
21F06
  5
21F22
331
21EF7
  5
21F13
331
21E26
  5
21E2B
331
21E35
  5
21E3A
331
21E17
  5
21E1C
331
21DFB
  5
21DFB
331
21ED1
  5
21EED
331
21EC2
  5
21EDE
331
21EB3
  5
21ECF
331
21EA4
  5
21EC0
331
21E95
  5
21EA9
331
21F2E
  5
220DB
331
21E86
  5
21E9A
331
21E5D
  5
21E67
331
21F1F
  5
220C6
331
21E77
  5
21E8B
331
21E4E
  5
21E58
331
21F10
  5
21F2C
331
21E68
  5
21E75
331
21E3F
  5
21E46
331
21F01
  5
21F1D
331
21E30
  5
21E35
331
21EF2
  5
21F0E
331
21E21
  5
21E26
331
21EE3
  5
21EFF
331
21E12
  5
21E17
331
21ECF
  5
21EEB
331
21E03
  5
21E03
331
21E90
  5
21EA4
331
21F29
  5
220D6
331
21E58
  5
21E62
331
21F1A
  5
220C1
331
21E72
  5
21E86
331
21E49
  5
21E50
331
21F0B
  5
21F27
331
21E63
  5
21E6F
331
21E3A
  5
21E3F
331
21EFC
  5
21F18
331
21E2B
  5
21E30
331
21EED
  5
21F09
331
21E1C
  5
21E21
331
21EDE
  5
21EFA
331
21EBB
  5
21ED7
331
21EAC
  5
21EC8
331
21E8E
  5
21EA2
331
21F27
  5
220D4
331
21E56
  5
21E60
331
21ECA
  5
21EE6
331
21E47
  5
21E4E
331
21EE8
  5
21F04
331
21ED9
  5
21EF5
331
21ED4
  5
21EF0
331
21EC5
  5
21EE1
331
21EB6
  5
21ED2
331
21EA7
  5
21EC3
331
21E98
  5
21EAC
331
21E89
  5
21E9D
331
21F22
  5
220C9
331
21E7A
  5
21E94
331
21F13
  5
21F2F
331
21E6B
  5
21E7A
331
21E42
  5
21E4B
331
21F04
  5
21F20
331
21E33
  5
21E38
331
21EF5
  5
21F11
331
21E24
  5
21E29
331
21EE6
  5
21F02
331
21E15
  5
21E1A
331
21E08
  5
21E08
331
21E06
  5
21E06
331
21EC0
  5
21EDC
331
21EB1
  5
21ECD
331
21E93
  5
21EA7
331
21F2C
  5
220D9
331
21E84
  5
21E98
331
220BC
  5
21E95
331
21E5B
  5
21E65
331
21F1D
  5
220C4
331
21E75
  5
21E89
331
21E4C
  5
21E56
331
21F0E
  5
21F2A
331
21E66
  5
21E73
331
21E3D
  5
21E42
331
21EFF
  5
21F1B
331
21E2E
  5
21E33
331
21EF0
  5
21F0C
331
21E1F
  5
21E24
331
21EE1
  5
21EFD
331
21ECD
  5
21EE9
331
21EBE
  5
21EDA
331
21EAF
  5
21ECB
331
21E01
  5
21E01
331
21F18
  5
220BF
331
21F09
  5
21F25
331
21E61
  5
21E6B
331
21E38
  5
21E3D
331
21EFA
  5
21F16
331
21E29
  5
21E2E
331
21EEB
  5
21F07
331
21E1A
  5
21E1F
331
21EDC
  5
21EF8
331
21E0B
  5
21E0C
331
21EC8
  5
21EE4
331
21EB9
  5
21ED5
331
21EAA
  5
21EC6
331
21E9B
  5
21EBE
331
21E8C
  5
21EA0
331
21F25
  5
220CC
331
21E54
  5
21E5E
331
21F16
  5
220BD
331
21E6E
  5
21E83
331
21F07
  5
21F23
331
21E36
  5
21E3B
331
21E27
  5
21E2C
331
21ED7
  5
21EF3
331
21ED2
  5
21EEE
331
21EC3
  5
21EDF
331
21EB4
  5
21ED0
331
21EA5
  5
21EC1
331
220DD
  5
21E09
331
21E96
  5
21EAA
331
21F2F
  5
220DC
331
21E87
  5
21E9B
331
21E5E
  5
21E68
331
21F20
  5
220C7
331
21E78
  5
21E8C
331
21E4F
  5
21E5C
331
21F11
  5
21F2D
331
21E69
  5
21E76
331
21E40
  5
21E47
331
21F02
  5
21F1E
331
21E31
  5
21E36
331
21EF3
  5
21F0F
331
21E22
  5
21E27
331
21EE4
  5
21F00
331
21E13
  5
21E18
331
21E04
  5
21E04
  0
ACDBDETAILVIEWSTYLE
  5
20CB3
102
{ACAD_XDICTIONARY
360
2214B
102
}
102
{ACAD_REACTORS
330
1B2F0
102
}
330
1B2F0
100
AcDbModelDocViewStyle
 70
     0
  3
Imperial24
290
     0
100
AcDbDetailViewStyle
 70
     0
 71
     0
 90
        3
 71
     1
340
11
 62
   256
 40
0.24
340
0
 62
   256
 40
0.24
300

 40
0.36
280
     3
 71
     2
340
16
 90
       25
 62
   256
 71
     3
340
11
 62
   256
 40
0.24
 90
        1
 40
0.75
 90
        1
300
%<\AcVar ViewType \f "%tc1">% %<\AcVar ViewDetailId>%\PVARIA %<\AcVar ViewScale \f "%sn">%
 71
     4
340
16
 90
       25
 62
   256
340
16
 90
       25
 62
   256
280
     0
  0
ACDBDETAILVIEWSTYLE
  5
1B2F1
102
{ACAD_XDICTIONARY
360
22147
102
}
102
{ACAD_REACTORS
330
1B2F0
102
}
330
1B2F0
100
AcDbModelDocViewStyle
 70
     0
  3
Metric50
290
     0
100
AcDbDetailViewStyle
 70
     0
 71
     0
 90
        3
 71
     1
340
11
 62
   256
 40
5.0
340
0
 62
   256
 40
5.0
300

 40
0.0
280
     1
 71
     2
340
16
 90
       25
 62
   256
 71
     3
340
11
 62
   256
 40
5.0
 90
        0
 40
15.0
 90
        1
300
%<\AcVar ViewDetailId>% (%<\AcVar ViewScale \f "%sn">%)
 71
     4
340
16
 90
       25
 62
   256
340
16
 90
       25
 62
   256
280
     0
  0
LAYOUT
  5
31A7
102
{ACAD_REACTORS
330
31A5
102
}
330
31A5
100
AcDbPlotSettings
  1

  2
\\ingdc01\ITB3
  4
A4
  6

 40
6.805083274841307
 41
5.027085781097412
 42
6.805068969726562
 43
5.027069091796875
 44
209.9733276367186
 45
296.9683227539062
 46
0.0
 47
0.0
 48
0.0
 49
0.0
140
0.0
141
0.0
142
1.0
143
1.0
 70
   688
 72
     1
 73
     1
 74
     5
  7

 75
    16
147
1.0
 76
     0
 77
     2
 78
   300
148
0.0
149
0.0
100
AcDbLayout
  1
Layout1
 70
     1
 71
     1
 10
-5.027069091796875
 20
-6.805083274841307
 11
291.9412536621094
 21
203.1682443618775
 12
0.0
 22
0.0
 32
0.0
 14
28.69141678810127
 24
19.6363175392151
 34
0.0
 15
258.2227510929107
 25
176.7268578529358
 35
0.0
146
0.0
 13
0.0
 23
0.0
 33
0.0
 16
1.0
 26
0.0
 36
0.0
 17
0.0
 27
1.0
 37
0.0
 76
     0
330
1B
331
9C00
1001
ACAD_PSEXT
1000
\\ingdc01\ITB3
1000
HP LaserJet 5000 Series PCL
1000
TB
1000

1070
     0
  0
LAYOUT
  5
31A6
102
{ACAD_REACTORS
330
31A5
102
}
330
31A5
100
AcDbPlotSettings
  1

  2
\\ingdc01\ITB3
  4
A4
  6

 40
6.805083274841307
 41
5.027085781097412
 42
6.805068969726562
 43
5.027069091796875
 44
209.9733276367186
 45
296.9683227539062
 46
0.0
 47
0.0
 48
0.0
 49
0.0
140
0.0
141
0.0
142
1.0
143
1.500313223655698
 70
 11952
 72
     1
 73
     1
 74
     0
  7

 75
     0
147
0.6665274852163048
 76
     0
 77
     2
 78
   300
148
239.0155119930048
149
102.2558208723354
100
AcDbLayout
  1
Model
 70
     1
 71
     0
 10
0.0
 20
0.0
 11
12.0
 21
9.0
 12
0.0
 22
0.0
 32
0.0
 14
0.0
 24
0.0
 34
0.0
 15
0.0
 25
0.0
 35
0.0
146
0.0
 13
0.0
 23
0.0
 33
0.0
 16
1.0
 26
0.0
 36
0.0
 17
0.0
 27
1.0
 37
0.0
 76
     0
330
1F
331
1F4
1001
ACAD_PSEXT
1000
\\ingdc01\ITB3
1000
HP LaserJet 5000 Series PCL
1000
TB
1000

1070
     0
  0
MATERIAL
  5
318D
102
{ACAD_XDICTIONARY
360
1B22B
102
}
102
{ACAD_REACTORS
330
318B
102
}
330
318B
100
AcDbMaterial
  1
ByBlock
  0
MATERIAL
  5
318C
102
{ACAD_XDICTIONARY
360
1B22D
102
}
102
{ACAD_REACTORS
330
318B
102
}
330
318B
100
AcDbMaterial
  1
ByLayer
  0
MATERIAL
  5
318E
102
{ACAD_XDICTIONARY
360
1B22F
102
}
102
{ACAD_REACTORS
330
318B
102
}
330
318B
100
AcDbMaterial
  1
Global
  0
MLEADERSTYLE
  5
1B2ED
102
{ACAD_REACTORS
330
1B221
102
}
330
1B221
100
AcDbMLeaderStyle
179
     2
170
     2
171
     1
172
     0
 90
        2
 40
0.0
 41
0.0
173
     1
 91
-1056964608
340
14
 92
       -2
290
     1
 42
2.0
291
     1
 43
0.36
  3
Standard
 44
4.0
300

342
11
174
     1
178
     6
175
     1
176
     0
 93
-1056964608
 45
4.0
292
     0
297
     0
 46
4.0
 94
-1056964608
 47
1.0
 49
1.0
140
1.0
293
     1
141
0.0
294
     1
177
     0
142
1.0
295
     0
296
     0
143
0.125
271
     0
272
     9
273
     9
1001
ACAD_MLEADERVER
1070
     2
  0
MLINESTYLE
  5
3185
102
{ACAD_REACTORS
330
3184
102
}
330
3184
100
AcDbMlineStyle
  2
STANDARD
 70
     0
  3

 62
   256
 51
90.0
 52
90.0
 71
     2
 49
0.5
 62
   256
  6
BYLAYER
 49
-0.5
 62
   256
  6
BYLAYER
  0
ACDBPLACEHOLDER
  5
318A
102
{ACAD_REACTORS
330
3189
102
}
330
3189
  0
SCALE
  5
1B1FD
102
{ACAD_REACTORS
330
1B1FC
102
}
330
1B1FC
100
AcDbScale
 70
     0
300
1:1
140
1.0
141
1.0
290
     1
1001
ACAD
1000
AcRTDxfName
1000
SCALE
  0
SCALE
  5
1B1FE
102
{ACAD_REACTORS
330
1B1FC
102
}
330
1B1FC
100
AcDbScale
 70
     0
300
1:2
140
1.0
141
2.0
290
     0
1001
ACAD
1000
AcRTDxfName
1000
SCALE
  0
SCALE
  5
1B1FF
102
{ACAD_REACTORS
330
1B1FC
102
}
330
1B1FC
100
AcDbScale
 70
     0
300
1:4
140
1.0
141
4.0
290
     0
1001
ACAD
1000
AcRTDxfName
1000
SCALE
  0
SCALE
  5
1B200
102
{ACAD_REACTORS
330
1B1FC
102
}
330
1B1FC
100
AcDbScale
 70
     0
300
1:5
140
1.0
141
5.0
290
     0
1001
ACAD
1000
AcRTDxfName
1000
SCALE
  0
SCALE
  5
1B201
102
{ACAD_REACTORS
330
1B1FC
102
}
330
1B1FC
100
AcDbScale
 70
     0
300
1:8
140
1.0
141
8.0
290
     0
1001
ACAD
1000
AcRTDxfName
1000
SCALE
  0
SCALE
  5
1B202
102
{ACAD_REACTORS
330
1B1FC
102
}
330
1B1FC
100
AcDbScale
 70
     0
300
1:10
140
1.0
141
10.0
290
     0
1001
ACAD
1000
AcRTDxfName
1000
SCALE
  0
SCALE
  5
1B203
102
{ACAD_REACTORS
330
1B1FC
102
}
330
1B1FC
100
AcDbScale
 70
     0
300
1:16
140
1.0
141
16.0
290
     0
1001
ACAD
1000
AcRTDxfName
1000
SCALE
  0
SCALE
  5
1B204
102
{ACAD_REACTORS
330
1B1FC
102
}
330
1B1FC
100
AcDbScale
 70
     0
300
1:20
140
1.0
141
20.0
290
     0
1001
ACAD
1000
AcRTDxfName
1000
SCALE
  0
SCALE
  5
1B205
102
{ACAD_REACTORS
330
1B1FC
102
}
330
1B1FC
100
AcDbScale
 70
     0
300
1:30
140
1.0
141
30.0
290
     0
1001
ACAD
1000
AcRTDxfName
1000
SCALE
  0
SCALE
  5
1B206
102
{ACAD_REACTORS
330
1B1FC
102
}
330
1B1FC
100
AcDbScale
 70
     0
300
1:40
140
1.0
141
40.0
290
     0
1001
ACAD
1000
AcRTDxfName
1000
SCALE
  0
SCALE
  5
1B207
102
{ACAD_REACTORS
330
1B1FC
102
}
330
1B1FC
100
AcDbScale
 70
     0
300
1:50
140
1.0
141
50.0
290
     0
1001
ACAD
1000
AcRTDxfName
1000
SCALE
  0
SCALE
  5
1B208
102
{ACAD_REACTORS
330
1B1FC
102
}
330
1B1FC
100
AcDbScale
 70
     0
300
1:100
140
1.0
141
100.0
290
     0
1001
ACAD
1000
AcRTDxfName
1000
SCALE
  0
SCALE
  5
1B209
102
{ACAD_REACTORS
330
1B1FC
102
}
330
1B1FC
100
AcDbScale
 70
     0
300
2:1
140
2.0
141
1.0
290
     0
1001
ACAD
1000
AcRTDxfName
1000
SCALE
  0
SCALE
  5
1B20A
102
{ACAD_REACTORS
330
1B1FC
102
}
330
1B1FC
100
AcDbScale
 70
     0
300
4:1
140
4.0
141
1.0
290
     0
1001
ACAD
1000
AcRTDxfName
1000
SCALE
  0
SCALE
  5
1B20B
102
{ACAD_REACTORS
330
1B1FC
102
}
330
1B1FC
100
AcDbScale
 70
     0
300
8:1
140
8.0
141
1.0
290
     0
1001
ACAD
1000
AcRTDxfName
1000
SCALE
  0
SCALE
  5
1B20C
102
{ACAD_REACTORS
330
1B1FC
102
}
330
1B1FC
100
AcDbScale
 70
     0
300
10:1
140
10.0
141
1.0
290
     0
1001
ACAD
1000
AcRTDxfName
1000
SCALE
  0
SCALE
  5
1B20D
102
{ACAD_REACTORS
330
1B1FC
102
}
330
1B1FC
100
AcDbScale
 70
     0
300
100:1
140
100.0
141
1.0
290
     0
1001
ACAD
1000
AcRTDxfName
1000
SCALE
  0
SCALE
  5
1B20E
102
{ACAD_REACTORS
330
1B1FC
102
}
330
1B1FC
100
AcDbScale
 70
     0
300
1/128" = 1'-0"
140
0.0078125
141
12.0
290
     0
1001
ACAD
1000
AcRTDxfName
1000
SCALE
  0
SCALE
  5
1B20F
102
{ACAD_REACTORS
330
1B1FC
102
}
330
1B1FC
100
AcDbScale
 70
     0
300
1/64" = 1'-0"
140
0.015625
141
12.0
290
     0
1001
ACAD
1000
AcRTDxfName
1000
SCALE
  0
SCALE
  5
1B210
102
{ACAD_REACTORS
330
1B1FC
102
}
330
1B1FC
100
AcDbScale
 70
     0
300
1/32" = 1'-0"
140
0.03125
141
12.0
290
     0
1001
ACAD
1000
AcRTDxfName
1000
SCALE
  0
SCALE
  5
1B211
102
{ACAD_REACTORS
330
1B1FC
102
}
330
1B1FC
100
AcDbScale
 70
     0
300
1/16" = 1'-0"
140
0.0625
141
12.0
290
     0
1001
ACAD
1000
AcRTDxfName
1000
SCALE
  0
SCALE
  5
1B212
102
{ACAD_REACTORS
330
1B1FC
102
}
330
1B1FC
100
AcDbScale
 70
     0
300
3/32" = 1'-0"
140
0.09375
141
12.0
290
     0
1001
ACAD
1000
AcRTDxfName
1000
SCALE
  0
SCALE
  5
1B213
102
{ACAD_REACTORS
330
1B1FC
102
}
330
1B1FC
100
AcDbScale
 70
     0
300
1/8" = 1'-0"
140
0.125
141
12.0
290
     0
1001
ACAD
1000
AcRTDxfName
1000
SCALE
  0
SCALE
  5
1B214
102
{ACAD_REACTORS
330
1B1FC
102
}
330
1B1FC
100
AcDbScale
 70
     0
300
3/16" = 1'-0"
140
0.1875
141
12.0
290
     0
1001
ACAD
1000
AcRTDxfName
1000
SCALE
  0
SCALE
  5
1B215
102
{ACAD_REACTORS
330
1B1FC
102
}
330
1B1FC
100
AcDbScale
 70
     0
300
1/4" = 1'-0"
140
0.25
141
12.0
290
     0
1001
ACAD
1000
AcRTDxfName
1000
SCALE
  0
SCALE
  5
1B216
102
{ACAD_REACTORS
330
1B1FC
102
}
330
1B1FC
100
AcDbScale
 70
     0
300
3/8" = 1'-0"
140
0.375
141
12.0
290
     0
1001
ACAD
1000
AcRTDxfName
1000
SCALE
  0
SCALE
  5
1B217
102
{ACAD_REACTORS
330
1B1FC
102
}
330
1B1FC
100
AcDbScale
 70
     0
300
1/2" = 1'-0"
140
0.5
141
12.0
290
     0
1001
ACAD
1000
AcRTDxfName
1000
SCALE
  0
SCALE
  5
1B218
102
{ACAD_REACTORS
330
1B1FC
102
}
330
1B1FC
100
AcDbScale
 70
     0
300
3/4" = 1'-0"
140
0.75
141
12.0
290
     0
1001
ACAD
1000
AcRTDxfName
1000
SCALE
  0
SCALE
  5
1B219
102
{ACAD_REACTORS
330
1B1FC
102
}
330
1B1FC
100
AcDbScale
 70
     0
300
1" = 1'-0"
140
1.0
141
12.0
290
     0
1001
ACAD
1000
AcRTDxfName
1000
SCALE
  0
SCALE
  5
1B21A
102
{ACAD_REACTORS
330
1B1FC
102
}
330
1B1FC
100
AcDbScale
 70
     0
300
1-1/2" = 1'-0"
140
1.5
141
12.0
290
     0
1001
ACAD
1000
AcRTDxfName
1000
SCALE
  0
SCALE
  5
1B21B
102
{ACAD_REACTORS
330
1B1FC
102
}
330
1B1FC
100
AcDbScale
 70
     0
300
3" = 1'-0"
140
3.0
141
12.0
290
     0
1001
ACAD
1000
AcRTDxfName
1000
SCALE
  0
SCALE
  5
1B21C
102
{ACAD_REACTORS
330
1B1FC
102
}
330
1B1FC
100
AcDbScale
 70
     0
300
6" = 1'-0"
140
6.0
141
12.0
290
     0
1001
ACAD
1000
AcRTDxfName
1000
SCALE
  0
SCALE
  5
1B21D
102
{ACAD_REACTORS
330
1B1FC
102
}
330
1B1FC
100
AcDbScale
 70
     0
300
1'-0" = 1'-0"
140
12.0
141
12.0
290
     0
1001
ACAD
1000
AcRTDxfName
1000
SCALE
  0
ACDBSECTIONVIEWSTYLE
  5
20CB1
102
{ACAD_XDICTIONARY
360
22149
102
}
102
{ACAD_REACTORS
330
1B2EE
102
}
330
1B2EE
100
AcDbModelDocViewStyle
 70
     0
  3
Imperial24
290
     0
100
AcDbSectionViewStyle
 70
     0
 71
     0
 90
       78
 71
     1
340
11
 62
   256
 40
0.24
340
0
340
0
 62
   256
 40
0.24
300
I, O, Q, S, X, Z
 40
0.48
 90
        3
 40
0.18
 90
        1
 71
     2
340
16
 90
       25
 62
   256
340
16
 90
       50
 62
   256
 40
0.24
 40
0.0
 40
0.24
 71
     3
340
11
 62
   256
 40
0.24
 90
        1
 40
0.75
 90
        1
300
%<\AcVar ViewType \f "%tc1">% %<\AcVar ViewSectionStartId>%-%<\AcVar ViewSectionEndId>%\PVARIA %<\AcVar ViewScale \f "%sn">%
 71
     4
 62
   256
 62
   257
300
ANSI31
 40
1.0
 90
        0
290
     0
290
     0
 90
        6
 40
0.0
 40
1.570796326794896
 40
0.2617993877991494
 40
1.308996938995747
 40
-0.2617993877991494
 40
1.832595714594044
  0
ACDBSECTIONVIEWSTYLE
  5
1B2EF
102
{ACAD_XDICTIONARY
360
22145
102
}
102
{ACAD_REACTORS
330
1B2EE
102
}
330
1B2EE
100
AcDbModelDocViewStyle
 70
     0
  3
Metric50
290
     0
100
AcDbSectionViewStyle
 70
     0
 71
     0
 90
      102
 71
     1
340
11
 62
   256
 40
5.0
340
0
340
0
 62
   256
 40
5.0
300
I, O, Q, S, X, Z
 40
10.0
 90
        0
 40
2.5
 90
        0
 71
     2
340
16
 90
       25
 62
   256
340
16
 90
       50
 62
   256
 40
5.0
 40
2.5
 40
5.0
 71
     3
340
11
 62
   256
 40
5.0
 90
        0
 40
15.0
 90
        1
300
%<\AcVar ViewSectionStartId>%-%<\AcVar ViewSectionEndId>% (%<\AcVar ViewScale \f "%sn">%)
 71
     4
 62
   256
 62
   257
300
ANSI31
 40
1.0
 90
        0
290
     0
290
     0
 90
        6
 40
0.0
 40
1.570796326794896
 40
0.2617993877991494
 40
1.308996938995747
 40
-0.2617993877991494
 40
1.832595714594044
  0
TABLESTYLE
  5
31A2
102
{ACAD_XDICTIONARY
360
1B314
102
}
102
{ACAD_REACTORS
330
31A1
102
}
330
31A1
100
AcDbTableStyle
280
     0
  3
Standard
 70
     0
 71
     0
 40
1.5
 41
1.5
280
     0
281
     0
  7
STANDARD
140
4.5
170
     2
 62
     0
 63
     7
283
     0
 90
        4
 91
        0
  1

274
    -2
284
     1
 64
     0
275
    -2
285
     1
 65
     0
276
    -2
286
     1
 66
     0
277
    -2
287
     1
 67
     0
278
    -2
288
     1
 68
     0
279
    -2
289
     1
 69
     0
  7
STANDARD
140
6.0
170
     5
 62
     0
 63
     7
283
     0
 90
        4
 91
        0
  1

274
    -2
284
     1
 64
     0
275
    -2
285
     1
 65
     0
276
    -2
286
     1
 66
     0
277
    -2
287
     1
 67
     0
278
    -2
288
     1
 68
     0
279
    -2
289
     1
 69
     0
  7
STANDARD
140
4.5
170
     5
 62
     0
 63
     7
283
     0
 90
        4
 91
        0
  1

274
    -2
284
     1
 64
     0
275
    -2
285
     1
 65
     0
276
    -2
286
     1
 66
     0
277
    -2
287
     1
 67
     0
278
    -2
288
     1
 68
     0
279
    -2
289
     1
 69
     0
  0
VISUALSTYLE
  5
3195
102
{ACAD_XDICTIONARY
360
2211B
102
}
102
{ACAD_REACTORS
330
318F
102
}
330
318F
100
AcDbVisualStyle
  2

 70
     4
177
     2
291
     0
 71
     0
176
     1
 72
     2
176
     1
 73
     0
176
     1
 90
        0
176
     1
 40
0.6
176
     1
 41
30.0
176
     1
 63
     7
176
     1
 74
     1
176
     1
 91
        4
176
     1
 64
     7
176
     1
 65
   257
176
     1
 75
     1
176
     1
175
     1
176
     1
 42
1.0
176
     1
 92
        0
176
     1
 66
   257
176
     1
 43
1.0
176
     1
 76
     1
176
     1
 77
     6
176
     1
 78
     2
176
     1
 67
     7
176
     1
 79
     5
176
     1
170
     0
176
     1
171
     0
176
     1
290
     0
176
     1
 93
        1
176
     1
 44
0.0
176
     1
173
     0
176
     1
1001
ACAD
1000
AcDbSavedByObjectVersion
1070
     0
  0
VISUALSTYLE
  5
3197
102
{ACAD_XDICTIONARY
360
2211F
102
}
102
{ACAD_REACTORS
330
318F
102
}
330
318F
100
AcDbVisualStyle
  2

 70
     6
177
     2
291
     0
 71
     1
176
     1
 72
     2
176
     1
 73
     2
176
     1
 90
        0
176
     1
 40
0.6
176
     1
 41
30.0
176
     1
 63
     7
176
     1
 74
     2
176
     1
 91
        2
176
     1
 64
     7
176
     1
 65
   257
176
     1
 75
     2
176
     1
175
     1
176
     1
 42
40.0
176
     1
 92
        0
176
     1
 66
   257
176
     1
 43
1.0
176
     1
 76
     1
176
     1
 77
     6
176
     1
 78
     2
176
     1
 67
     7
176
     1
 79
     3
176
     1
170
     0
176
     1
171
     0
176
     1
290
     0
176
     1
 93
        1
176
     1
 44
0.0
176
     1
173
     0
176
     1
1001
ACAD
1000
AcDbSavedByObjectVersion
1070
     0
  0
VISUALSTYLE
  5
3196
102
{ACAD_XDICTIONARY
360
2211D
102
}
102
{ACAD_REACTORS
330
318F
102
}
330
318F
100
AcDbVisualStyle
  2

 70
     5
177
     2
291
     0
 71
     0
176
     1
 72
     2
176
     1
 73
     0
176
     1
 90
        0
176
     1
 40
0.6
176
     1
 41
30.0
176
     1
 63
     7
176
     1
 74
     1
176
     1
 91
        4
176
     1
 64
     7
176
     1
 65
   257
176
     1
 75
     1
176
     1
175
     1
176
     1
 42
1.0
176
     1
 92
        0
176
     1
 66
   257
176
     1
 43
1.0
176
     1
 76
     1
176
     1
 77
     6
176
     1
 78
     2
176
     1
 67
     7
176
     1
 79
     5
176
     1
170
     0
176
     1
171
     0
176
     1
290
     0
176
     1
 93
        1
176
     1
 44
0.0
176
     1
173
     0
176
     1
1001
ACAD
1000
AcDbSavedByObjectVersion
1070
     0
  0
VISUALSTYLE
  5
3194
102
{ACAD_XDICTIONARY
360
22119
102
}
102
{ACAD_REACTORS
330
318F
102
}
330
318F
100
AcDbVisualStyle
  2

 70
     7
177
     2
291
     1
 71
     1
176
     1
 72
     0
176
     1
 73
     1
176
     1
 90
        0
176
     1
 40
0.6
176
     1
 41
30.0
176
     1
 63
     7
176
     1
 74
     0
176
     1
 91
        4
176
     1
 64
     7
176
     1
 65
   257
176
     1
 75
     1
176
     1
175
     1
176
     1
 42
1.0
176
     1
 92
        8
176
     1
 66
     7
176
     1
 43
1.0
176
     1
 76
     1
176
     1
 77
     6
176
     1
 78
     2
176
     1
 67
     7
176
     1
 79
     5
176
     1
170
     0
176
     1
171
     0
176
     1
290
     0
176
     1
 93
        1
176
     1
 44
0.0
176
     1
173
     0
176
     1
1001
ACAD
1000
AcDbSavedByObjectVersion
1070
     0
  0
VISUALSTYLE
  5
319B
102
{ACAD_XDICTIONARY
360
22127
102
}
102
{ACAD_REACTORS
330
318F
102
}
330
318F
100
AcDbVisualStyle
  2

 70
    12
177
     2
291
     1
 71
     2
176
     1
 72
     2
176
     1
 73
     0
176
     1
 90
        0
176
     1
 40
0.6
176
     1
 41
30.0
176
     1
 63
     7
176
     1
 74
     1
176
     1
 91
        4
176
     1
 64
     7
176
     1
 65
   257
176
     1
 75
     1
176
     1
175
     1
176
     1
 42
1.0
176
     1
 92
        8
176
     1
 66
     7
176
     1
 43
1.0
176
     1
 76
     1
176
     1
 77
     6
176
     1
 78
     2
176
     1
 67
     7
176
     1
 79
     5
176
     1
170
     0
176
     1
171
     0
176
     1
290
     0
176
     1
 93
        1
176
     1
 44
50.0
176
     1
173
     0
176
     1
1001
ACAD
1000
AcDbSavedByObjectVersion
1070
     0
  0
VISUALSTYLE
  5
319F
102
{ACAD_XDICTIONARY
360
2212F
102
}
102
{ACAD_REACTORS
330
318F
102
}
330
318F
100
AcDbVisualStyle
  2

 70
    16
177
     2
291
     1
 71
     2
176
     1
 72
     2
176
     1
 73
     3
176
     1
 90
        0
176
     1
 40
0.6
176
     1
 41
30.0
176
     1
 63
     8
176
     1
 74
     1
176
     1
 91
        4
176
     1
 64
     7
176
     1
 65
   257
176
     1
 75
     1
176
     1
175
     1
176
     1
 42
1.0
176
     1
 92
        8
176
     1
 66
     8
176
     1
 43
1.0
176
     1
 76
     1
176
     1
 77
     6
176
     1
 78
     2
176
     1
 67
     7
176
     1
 79
     5
176
     1
170
     0
176
     1
171
     0
176
     1
290
     0
176
     1
 93
        1
176
     1
 44
0.0
176
     1
173
     0
176
     1
1001
ACAD
1000
AcDbSavedByObjectVersion
1070
     0
  0
VISUALSTYLE
  5
3198
102
{ACAD_XDICTIONARY
360
22121
102
}
102
{ACAD_REACTORS
330
318F
102
}
330
318F
100
AcDbVisualStyle
  2

 70
     9
177
     2
291
     0
 71
     3
176
     1
 72
     2
176
     1
 73
     0
176
     1
 90
        0
176
     1
 40
0.6
176
     1
 41
30.0
176
     1
 63
     7
176
     1
 74
     2
176
     1
 91
        2
176
     1
 64
     7
176
     1
 65
   257
176
     1
 75
     1
176
     1
175
     1
176
     1
 42
40.0
176
     1
 92
        8
176
     1
 66
     7
176
     1
 43
1.0
176
     1
 76
     1
176
     1
 77
     6
176
     1
 78
     2
176
     1
 67
     7
176
     1
 79
     3
176
     1
170
     0
176
     1
171
     0
176
     1
290
     0
176
     1
 93
        1
176
     1
 44
0.0
176
     1
173
     0
176
     1
1001
ACAD
1000
AcDbSavedByObjectVersion
1070
     0
  0
VISUALSTYLE
  5
319A
102
{ACAD_XDICTIONARY
360
22125
102
}
102
{ACAD_REACTORS
330
318F
102
}
330
318F
100
AcDbVisualStyle
  2

 70
    11
177
     2
291
     1
 71
     2
176
     1
 72
     2
176
     1
 73
     0
176
     1
 90
        0
176
     1
 40
0.6
176
     1
 41
30.0
176
     1
 63
     7
176
     1
 74
     1
176
     1
 91
        4
176
     1
 64
     7
176
     1
 65
   257
176
     1
 75
     1
176
     1
175
     1
176
     1
 42
1.0
176
     1
 92
        8
176
     1
 66
     7
176
     1
 43
1.0
176
     1
 76
     1
176
     1
 77
     6
176
     1
 78
     2
176
     1
 67
     7
176
     1
 79
     5
176
     1
170
     0
176
     1
171
     0
176
     1
290
     0
176
     1
 93
        1
176
     1
 44
-50.0
176
     1
173
     0
176
     1
1001
ACAD
1000
AcDbSavedByObjectVersion
1070
     0
  0
VISUALSTYLE
  5
1B2EC
102
{ACAD_XDICTIONARY
360
22143
102
}
102
{ACAD_REACTORS
330
318F
102
}
330
318F
100
AcDbVisualStyle
  2

 70
    22
177
     2
291
     1
 71
     2
176
     0
 72
     2
176
     0
 73
     0
176
     0
 90
        0
176
     0
 40
0.6
176
     0
 41
30.0
176
     0
 63
     7
176
     0
 74
     1
176
     0
 91
        4
176
     0
 64
     7
176
     0
 65
   257
176
     0
 75
     1
176
     0
175
     1
176
     0
 42
1.0
176
     0
 92
        8
176
     2
 66
     7
176
     0
 43
1.0
176
     0
 76
     1
176
     0
 77
     6
176
     0
 78
     2
176
     0
 67
     7
176
     0
 79
     5
176
     0
170
     0
176
     0
171
     0
176
     0
290
     0
176
     0
 93
        1
176
     0
 44
0.0
176
     0
173
     0
176
     0
1001
ACAD
1000
AcDbSavedByObjectVersion
1070
     0
  0
VISUALSTYLE
  5
319E
102
{ACAD_XDICTIONARY
360
2212D
102
}
102
{ACAD_REACTORS
330
318F
102
}
330
318F
100
AcDbVisualStyle
  2

 70
    15
177
     2
291
     1
 71
     2
176
     1
 72
     2
176
     1
 73
     0
176
     1
 90
        0
176
     1
 40
0.6
176
     1
 41
30.0
176
     1
 63
     7
176
     1
 74
     1
176
     1
 91
        4
176
     1
 64
     7
176
     1
 65
   257
176
     1
 75
     1
176
     1
175
     1
176
     1
 42
1.0
176
     1
 92
        8
176
     1
 66
     7
176
     1
 43
1.0
176
     1
 76
     1
176
     1
 77
     6
176
     1
 78
     2
176
     1
 67
     7
176
     1
 79
     5
176
     1
170
     0
176
     1
171
     0
176
     1
290
     0
176
     1
 93
        1
176
     1
 44
0.0
176
     1
173
     0
176
     1
1001
ACAD
1000
AcDbSavedByObjectVersion
1070
     0
  0
VISUALSTYLE
  5
3190
102
{ACAD_XDICTIONARY
360
22111
102
}
102
{ACAD_REACTORS
330
318F
102
}
330
318F
100
AcDbVisualStyle
  2

 70
     0
177
     2
291
     1
 71
     2
176
     1
 72
     1
176
     1
 73
     1
176
     1
 90
        2
176
     1
 40
0.6
176
     1
 41
30.0
176
     1
 63
     7
176
     1
 74
     0
176
     1
 91
        4
176
     1
 64
     7
176
     1
 65
   257
176
     1
 75
     1
176
     1
175
     1
176
     1
 42
1.0
176
     1
 92
        8
176
     1
 66
     7
176
     1
 43
1.0
176
     1
 76
     1
176
     1
 77
     6
176
     1
 78
     2
176
     1
 67
     7
176
     1
 79
     5
176
     1
170
     0
176
     1
171
     0
176
     1
290
     0
176
     1
 93
       13
176
     1
 44
0.0
176
     1
173
     0
176
     1
1001
ACAD
1000
AcDbSavedByObjectVersion
1070
     0
  0
VISUALSTYLE
  5
3191
102
{ACAD_XDICTIONARY
360
22113
102
}
102
{ACAD_REACTORS
330
318F
102
}
330
318F
100
AcDbVisualStyle
  2

 70
     1
177
     2
291
     1
 71
     2
176
     1
 72
     1
176
     1
 73
     1
176
     1
 90
        2
176
     1
 40
0.6
176
     1
 41
30.0
176
     1
 63
     7
176
     1
 74
     1
176
     1
 91
        4
176
     1
 64
     7
176
     1
 65
   257
176
     1
 75
     1
176
     1
175
     1
176
     1
 42
1.0
176
     1
 92
        0
176
     1
 66
   257
176
     1
 43
1.0
176
     1
 76
     1
176
     1
 77
     6
176
     1
 78
     2
176
     1
 67
     7
176
     1
 79
     5
176
     1
170
     0
176
     1
171
     0
176
     1
290
     0
176
     1
 93
       13
176
     1
 44
0.0
176
     1
173
     0
176
     1
1001
ACAD
1000
AcDbSavedByObjectVersion
1070
     0
  0
VISUALSTYLE
  5
3192
102
{ACAD_XDICTIONARY
360
22115
102
}
102
{ACAD_REACTORS
330
318F
102
}
330
318F
100
AcDbVisualStyle
  2

 70
     2
177
     2
291
     1
 71
     2
176
     1
 72
     2
176
     1
 73
     1
176
     1
 90
        2
176
     1
 40
0.6
176
     1
 41
30.0
176
     1
 63
     7
176
     1
 74
     0
176
     1
 91
        4
176
     1
 64
     7
176
     1
 65
   257
176
     1
 75
     1
176
     1
175
     1
176
     1
 42
1.0
176
     1
 92
        0
176
     1
 66
     7
176
     1
 43
1.0
176
     1
 76
     1
176
     1
 77
     6
176
     1
 78
     2
176
     1
 67
     7
176
     1
 79
     5
176
     1
170
     0
176
     1
171
     0
176
     1
290
     0
176
     1
 93
       13
176
     1
 44
0.0
176
     1
173
     0
176
     1
1001
ACAD
1000
AcDbSavedByObjectVersion
1070
     0
  0
VISUALSTYLE
  5
3193
102
{ACAD_XDICTIONARY
360
22117
102
}
102
{ACAD_REACTORS
330
318F
102
}
330
318F
100
AcDbVisualStyle
  2

 70
     3
177
     2
291
     1
 71
     2
176
     1
 72
     2
176
     1
 73
     1
176
     1
 90
        2
176
     1
 40
0.6
176
     1
 41
30.0
176
     1
 63
     7
176
     1
 74
     1
176
     1
 91
        4
176
     1
 64
     7
176
     1
 65
   257
176
     1
 75
     1
176
     1
175
     1
176
     1
 42
1.0
176
     1
 92
        0
176
     1
 66
   257
176
     1
 43
1.0
176
     1
 76
     1
176
     1
 77
     6
176
     1
 78
     2
176
     1
 67
     7
176
     1
 79
     5
176
     1
170
     0
176
     1
171
     0
176
     1
290
     0
176
     1
 93
       13
176
     1
 44
0.0
176
     1
173
     0
176
     1
1001
ACAD
1000
AcDbSavedByObjectVersion
1070
     0
  0
VISUALSTYLE
  5
1B2E4
102
{ACAD_XDICTIONARY
360
22133
102
}
102
{ACAD_REACTORS
330
318F
102
}
330
318F
100
AcDbVisualStyle
  2

 70
     6
177
     2
291
     0
 71
     1
176
     1
 72
     2
176
     1
 73
     2
176
     1
 90
        0
176
     1
 40
0.6
176
     1
 41
30.0
176
     1
 63
     7
176
     1
 74
     2
176
     1
 91
        2
176
     1
 64
     7
176
     1
 65
   257
176
     1
 75
     2
176
     1
175
     1
176
     1
 42
40.0
176
     1
 92
        0
176
     1
 66
   257
176
     1
 43
1.0
176
     1
 76
     1
176
     1
 77
     6
176
     1
 78
     2
176
     1
 67
     7
176
     1
 79
     3
176
     1
170
     0
176
     1
171
     0
176
     1
290
     0
176
     1
 93
        1
176
     1
 44
0.0
176
     1
173
     0
176
     1
1001
ACAD
1000
AcDbSavedByObjectVersion
1070
     0
  0
VISUALSTYLE
  5
1B2EA
102
{ACAD_XDICTIONARY
360
2213F
102
}
102
{ACAD_REACTORS
330
318F
102
}
330
318F
100
AcDbVisualStyle
  2

 70
    20
177
     2
291
     1
 71
     2
176
     0
 72
     2
176
     0
 73
     0
176
     0
 90
        0
176
     0
 40
0.6
176
     0
 41
30.0
176
     0
 63
     7
176
     0
 74
     1
176
     0
 91
        4
176
     0
 64
     7
176
     0
 65
   257
176
     0
 75
     1
176
     0
175
     1
176
     0
 42
1.0
176
     0
 92
       10
176
     2
 66
     7
176
     0
 43
1.0
176
     0
 76
     1
176
     0
 77
     6
176
     0
 78
     2
176
     0
 67
     7
176
     0
 79
     5
176
     0
170
     0
176
     0
171
     0
176
     0
290
     0
176
     0
 93
        1
176
     0
 44
0.0
176
     0
173
     0
176
     0
1001
ACAD
1000
AcDbSavedByObjectVersion
1070
     0
  0
VISUALSTYLE
  5
319D
102
{ACAD_XDICTIONARY
360
2212B
102
}
102
{ACAD_REACTORS
330
318F
102
}
330
318F
100
AcDbVisualStyle
  2

 70
    14
177
     2
291
     1
 71
     2
176
     1
 72
     2
176
     1
 73
     0
176
     1
 90
        0
176
     1
 40
0.6
176
     1
 41
30.0
176
     1
 63
     7
176
     1
 74
     1
176
     1
 91
        4
176
     1
 64
     7
176
     1
 65
   257
176
     1
 75
     7
176
     1
175
     7
176
     1
 42
1.0
176
     1
 92
        8
176
     1
 66
     7
176
     1
 43
1.0
176
     1
 76
     1
176
     1
 77
     6
176
     1
 78
     2
176
     1
 67
     7
176
     1
 79
     5
176
     1
170
     0
176
     1
171
     0
176
     1
290
     0
176
     1
 93
        1
176
     1
 44
0.0
176
     1
173
     0
176
     1
1001
ACAD
1000
AcDbSavedByObjectVersion
1070
     0
  0
VISUALSTYLE
  5
1B2EB
102
{ACAD_XDICTIONARY
360
22141
102
}
102
{ACAD_REACTORS
330
318F
102
}
330
318F
100
AcDbVisualStyle
  2

 70
    21
177
     2
291
     1
 71
     2
176
     0
 72
     2
176
     0
 73
     0
176
     0
 90
        0
176
     0
 40
0.6
176
     0
 41
30.0
176
     0
 63
     7
176
     0
 74
     1
176
     0
 91
        4
176
     0
 64
     7
176
     0
 65
   257
176
     0
 75
     1
176
     0
175
     1
176
     0
 42
1.0
176
     0
 92
        9
176
     2
 66
     7
176
     0
 43
1.0
176
     0
 76
     1
176
     0
 77
     6
176
     0
 78
     2
176
     0
 67
     7
176
     0
 79
     5
176
     0
170
     0
176
     0
171
     0
176
     0
290
     0
176
     0
 93
        1
176
     0
 44
0.0
176
     0
173
     0
176
     0
1001
ACAD
1000
AcDbSavedByObjectVersion
1070
     0
  0
VISUALSTYLE
  5
3199
102
{ACAD_XDICTIONARY
360
22123
102
}
102
{ACAD_REACTORS
330
318F
102
}
330
318F
100
AcDbVisualStyle
  2

 70
     8
177
     2
291
     0
 71
     2
176
     1
 72
     2
176
     1
 73
     0
176
     1
 90
        0
176
     1
 40
0.6
176
     1
 41
30.0
176
     1
 63
     7
176
     1
 74
     1
176
     1
 91
        0
176
     1
 64
     7
176
     1
 65
   257
176
     1
 75
     1
176
     1
175
     1
176
     1
 42
1.0
176
     1
 92
        8
176
     1
 66
     8
176
     1
 43
1.0
176
     1
 76
     1
176
     1
 77
     6
176
     1
 78
     2
176
     1
 67
     7
176
     1
 79
     5
176
     1
170
     0
176
     1
171
     0
176
     1
290
     0
176
     1
 93
       13
176
     1
 44
0.0
176
     1
173
     0
176
     1
1001
ACAD
1000
AcDbSavedByObjectVersion
1070
     0
  0
VISUALSTYLE
  5
1B2E9
102
{ACAD_XDICTIONARY
360
2213D
102
}
102
{ACAD_REACTORS
330
318F
102
}
330
318F
100
AcDbVisualStyle
  2

 70
    27
177
     2
291
     0
 71
     2
176
     1
 72
     2
176
     1
 73
     1
176
     1
 90
        2
176
     1
 40
0.6
176
     1
 41
30.0
176
     1
 63
     7
176
     1
 74
     0
176
     1
 91
        4
176
     1
 64
     7
176
     1
 65
   257
176
     1
 75
     1
176
     1
175
     1
176
     1
 42
1.0
176
     1
 92
        8
176
     1
 66
   257
176
     1
 43
1.0
176
     1
 76
     1
176
     1
 77
     6
176
     1
 78
     2
176
     1
 67
     8
176
     1
 79
     3
176
     1
170
     0
176
     1
171
     0
176
     1
290
     0
176
     1
 93
        5
176
     1
 44
0.0
176
     1
173
     0
176
     1
1001
ACAD
1000
AcDbSavedByObjectVersion
1070
     0
  0
VISUALSTYLE
  5
1B2E8
102
{ACAD_XDICTIONARY
360
2213B
102
}
102
{ACAD_REACTORS
330
318F
102
}
330
318F
100
AcDbVisualStyle
  2

 70
    26
177
     2
291
     0
 71
     2
176
     1
 72
     2
176
     1
 73
     1
176
     1
 90
        2
176
     1
 40
0.6
176
     1
 41
30.0
176
     1
 63
     7
176
     1
 74
     1
176
     1
 91
       10
176
     1
 64
     7
176
     1
 65
   257
176
     1
 75
     2
176
     1
175
     1
176
     1
 42
1.0
176
     1
 92
        8
176
     1
 66
   257
176
     1
 43
1.0
176
     1
 76
     1
176
     1
 77
     6
176
     1
 78
     2
176
     1
 67
     7
176
     1
 79
     3
176
     1
170
     0
176
     1
171
     0
176
     1
290
     0
176
     1
 93
        5
176
     1
 44
0.0
176
     1
173
     0
176
     1
1001
ACAD
1000
AcDbSavedByObjectVersion
1070
     0
  0
VISUALSTYLE
  5
1B2E5
102
{ACAD_XDICTIONARY
360
22135
102
}
102
{ACAD_REACTORS
330
318F
102
}
330
318F
100
AcDbVisualStyle
  2

 70
    23
177
     2
291
     0
 71
     2
176
     1
 72
     2
176
     1
 73
     3
176
     1
 90
        0
176
     1
 40
0.6
176
     1
 41
30.0
176
     1
 63
     7
176
     1
 74
     2
176
     1
 91
        2
176
     1
 64
     7
176
     1
 65
     7
176
     1
 75
     1
176
     1
175
     1
176
     1
 42
40.0
176
     1
 92
        8
176
     1
 66
     7
176
     1
 43
1.0
176
     1
 76
     1
176
     1
 77
     6
176
     1
 78
     2
176
     1
 67
     7
176
     1
 79
     3
176
     1
170
     0
176
     1
171
     0
176
     1
290
     0
176
     1
 93
        1
176
     1
 44
0.0
176
     1
173
     0
176
     1
1001
ACAD
1000
AcDbSavedByObjectVersion
1070
     0
  0
VISUALSTYLE
  5
1B2E6
102
{ACAD_XDICTIONARY
360
22137
102
}
102
{ACAD_REACTORS
330
318F
102
}
330
318F
100
AcDbVisualStyle
  2

 70
    24
177
     2
291
     0
 71
     1
176
     1
 72
     2
176
     1
 73
     2
176
     1
 90
        0
176
     1
 40
0.6
176
     1
 41
30.0
176
     1
 63
     7
176
     1
 74
     2
176
     1
 91
        2
176
     1
 64
     7
176
     1
 65
     7
176
     1
 75
     1
176
     1
175
     1
176
     1
 42
40.0
176
     1
 92
       11
176
     1
 66
     7
176
     1
 43
1.0
176
     1
 76
     1
176
     1
 77
     6
176
     1
 78
     2
176
     1
 67
     7
176
     1
 79
     6
176
     1
170
     0
176
     1
171
     0
176
     1
290
     0
176
     1
 93
        1
176
     1
 44
0.0
176
     1
173
     0
176
     1
1001
ACAD
1000
AcDbSavedByObjectVersion
1070
     0
  0
VISUALSTYLE
  5
319C
102
{ACAD_XDICTIONARY
360
22129
102
}
102
{ACAD_REACTORS
330
318F
102
}
330
318F
100
AcDbVisualStyle
  2

 70
    13
177
     2
291
     1
 71
     2
176
     1
 72
     2
176
     1
 73
     0
176
     1
 90
        0
176
     1
 40
0.6
176
     1
 41
30.0
176
     1
 63
     7
176
     1
 74
     1
176
     1
 91
        4
176
     1
 64
     7
176
     1
 65
   257
176
     1
 75
     1
176
     1
175
     1
176
     1
 42
1.0
176
     1
 92
       12
176
     1
 66
     7
176
     1
 43
1.0
176
     1
 76
     1
176
     1
 77
     6
176
     1
 78
     2
176
     1
 67
     7
176
     1
 79
     5
176
     1
170
     0
176
     1
171
     0
176
     1
290
     0
176
     1
 93
        1
176
     1
 44
0.0
176
     1
173
     0
176
     1
1001
ACAD
1000
AcDbSavedByObjectVersion
1070
     0
  0
VISUALSTYLE
  5
1B2E3
102
{ACAD_XDICTIONARY
360
22131
102
}
102
{ACAD_REACTORS
330
318F
102
}
330
318F
100
AcDbVisualStyle
  2

 70
     5
177
     2
291
     0
 71
     0
176
     1
 72
     2
176
     1
 73
     0
176
     1
 90
        0
176
     1
 40
0.6
176
     1
 41
30.0
176
     1
 63
     7
176
     1
 74
     1
176
     1
 91
        4
176
     1
 64
     7
176
     1
 65
   257
176
     1
 75
     1
176
     1
175
     1
176
     1
 42
1.0
176
     1
 92
        0
176
     1
 66
   257
176
     1
 43
1.0
176
     1
 76
     1
176
     1
 77
     6
176
     1
 78
     2
176
     1
 67
     7
176
     1
 79
     3
176
     1
170
     0
176
     1
171
     0
176
     1
290
     0
176
     1
 93
        1
176
     1
 44
0.0
176
     1
173
     0
176
     1
1001
ACAD
1000
AcDbSavedByObjectVersion
1070
     0
  0
VISUALSTYLE
  5
1B2E7
102
{ACAD_XDICTIONARY
360
22139
102
}
102
{ACAD_REACTORS
330
318F
102
}
330
318F
100
AcDbVisualStyle
  2

 70
    25
177
     2
291
     0
 71
     2
176
     1
 72
     2
176
     1
 73
     1
176
     1
 90
        1
176
     1
 40
0.5
176
     1
 41
30.0
176
     1
 63
     7
176
     1
 74
     1
176
     1
 91
        0
176
     1
 64
     7
176
     1
 65
   257
176
     1
 75
     1
176
     1
175
     1
176
     1
 42
1.0
176
     1
 92
        8
176
     1
 66
     7
176
     1
 43
1.0
176
     1
 76
     1
176
     1
 77
     6
176
     1
 78
     2
176
     1
 67
     7
176
     1
 79
     3
176
     1
170
     0
176
     1
171
     0
176
     1
290
     0
176
     1
 93
       13
176
     1
 44
0.0
176
     1
173
     0
176
     1
1001
ACAD
1000
AcDbSavedByObjectVersion
1070
     0
  0
DICTIONARYVAR
  5
1B222
102
{ACAD_REACTORS
330
33A3
102
}
330
33A3
100
DictionaryVariables
280
     0
  1
1:1
  0
DICTIONARYVAR
  5
1B30F
102
{ACAD_REACTORS
330
33A3
102
}
330
33A3
100
DictionaryVariables
280
     0
  1
STANDARD
  0
DICTIONARYVAR
  5
33A4
102
{ACAD_REACTORS
330
33A3
102
}
330
33A3
100
DictionaryVariables
280
     0
  1
STANDARD
  0
DICTIONARYVAR
  5
1B310
102
{ACAD_REACTORS
330
33A3
102
}
330
33A3
100
DictionaryVariables
280
     0
  1
Metric50
  0
DICTIONARYVAR
  5
1B311
102
{ACAD_REACTORS
330
33A3
102
}
330
33A3
100
DictionaryVariables
280
     0
  1
Metric50
  0
DICTIONARYVAR
  5
9BE8
102
{ACAD_REACTORS
330
33A3
102
}
330
33A3
100
DictionaryVariables
280
     0
  1
1
  0
DICTIONARYVAR
  5
9BE7
102
{ACAD_REACTORS
330
33A3
102
}
330
33A3
100
DictionaryVariables
280
     0
  1
0
  0
DICTIONARYVAR
  5
20993
102
{ACAD_REACTORS
330
33A3
102
}
330
33A3
100
DictionaryVariables
280
     0
  1
1
  0
DICTIONARYVAR
  5
20994
102
{ACAD_REACTORS
330
33A3
102
}
330
33A3
100
DictionaryVariables
280
     0
  1
15
  0
DICTIONARYVAR
  5
20992
102
{ACAD_REACTORS
330
33A3
102
}
330
33A3
100
DictionaryVariables
280
     0
  1
0
  0
DICTIONARYVAR
  5
20991
102
{ACAD_REACTORS
330
33A3
102
}
330
33A3
100
DictionaryVariables
280
     0
  1
0
  0
DICTIONARYVAR
  5
9BE6
102
{ACAD_REACTORS
330
33A3
102
}
330
33A3
100
DictionaryVariables
280
     0
  1
127
  0
DICTIONARY
  5
2214B
330
20CB3
100
AcDbDictionary
280
     1
281
     1
  3
ACAD_XREC_ROUNDTRIP
360
2214C
  0
DICTIONARY
  5
22147
330
1B2F1
100
AcDbDictionary
280
     1
281
     1
  3
ACAD_XREC_ROUNDTRIP
360
22148
  0
DICTIONARY
  5
1B22B
330
318D
100
AcDbDictionary
280
     1
281
     1
  3
ACAD_XREC_ROUNDTRIP
360
1B22C
  0
DICTIONARY
  5
1B22D
330
318C
100
AcDbDictionary
280
     1
281
     1
  3
ACAD_XREC_ROUNDTRIP
360
1B22E
  0
DICTIONARY
  5
1B22F
330
318E
100
AcDbDictionary
280
     1
281
     1
  3
ACAD_XREC_ROUNDTRIP
360
1B230
  0
DICTIONARY
  5
22149
330
20CB1
100
AcDbDictionary
280
     1
281
     1
  3
ACAD_XREC_ROUNDTRIP
360
2214A
  0
DICTIONARY
  5
22145
330
1B2EF
100
AcDbDictionary
280
     1
281
     1
  3
ACAD_XREC_ROUNDTRIP
360
22146
  0
DICTIONARY
  5
1B314
330
31A2
100
AcDbDictionary
280
     1
281
     1
  3
ACAD_ROUNDTRIP_2008_TABLESTYLE_CELLSTYLEMAP
360
2210F
  0
DICTIONARY
  5
2211B
330
3195
100
AcDbDictionary
280
     1
281
     1
  3
ACAD_XREC_ROUNDTRIP
360
2211C
  0
DICTIONARY
  5
2211F
330
3197
100
AcDbDictionary
280
     1
281
     1
  3
ACAD_XREC_ROUNDTRIP
360
22120
  0
DICTIONARY
  5
2211D
330
3196
100
AcDbDictionary
280
     1
281
     1
  3
ACAD_XREC_ROUNDTRIP
360
2211E
  0
DICTIONARY
  5
22119
330
3194
100
AcDbDictionary
280
     1
281
     1
  3
ACAD_XREC_ROUNDTRIP
360
2211A
  0
DICTIONARY
  5
22127
330
319B
100
AcDbDictionary
280
     1
281
     1
  3
ACAD_XREC_ROUNDTRIP
360
22128
  0
DICTIONARY
  5
2212F
330
319F
100
AcDbDictionary
280
     1
281
     1
  3
ACAD_XREC_ROUNDTRIP
360
22130
  0
DICTIONARY
  5
22121
330
3198
100
AcDbDictionary
280
     1
281
     1
  3
ACAD_XREC_ROUNDTRIP
360
22122
  0
DICTIONARY
  5
22125
330
319A
100
AcDbDictionary
280
     1
281
     1
  3
ACAD_XREC_ROUNDTRIP
360
22126
  0
DICTIONARY
  5
22143
330
1B2EC
100
AcDbDictionary
280
     1
281
     1
  3
ACAD_XREC_ROUNDTRIP
360
22144
  0
DICTIONARY
  5
2212D
330
319E
100
AcDbDictionary
280
     1
281
     1
  3
ACAD_XREC_ROUNDTRIP
360
2212E
  0
DICTIONARY
  5
22111
330
3190
100
AcDbDictionary
280
     1
281
     1
  3
ACAD_XREC_ROUNDTRIP
360
22112
  0
DICTIONARY
  5
22113
330
3191
100
AcDbDictionary
280
     1
281
     1
  3
ACAD_XREC_ROUNDTRIP
360
22114
  0
DICTIONARY
  5
22115
330
3192
100
AcDbDictionary
280
     1
281
     1
  3
ACAD_XREC_ROUNDTRIP
360
22116
  0
DICTIONARY
  5
22117
330
3193
100
AcDbDictionary
280
     1
281
     1
  3
ACAD_XREC_ROUNDTRIP
360
22118
  0
DICTIONARY
  5
22133
330
1B2E4
100
AcDbDictionary
280
     1
281
     1
  3
ACAD_XREC_ROUNDTRIP
360
22134
  0
DICTIONARY
  5
2213F
330
1B2EA
100
AcDbDictionary
280
     1
281
     1
  3
ACAD_XREC_ROUNDTRIP
360
22140
  0
DICTIONARY
  5
2212B
330
319D
100
AcDbDictionary
280
     1
281
     1
  3
ACAD_XREC_ROUNDTRIP
360
2212C
  0
DICTIONARY
  5
22141
330
1B2EB
100
AcDbDictionary
280
     1
281
     1
  3
ACAD_XREC_ROUNDTRIP
360
22142
  0
DICTIONARY
  5
22123
330
3199
100
AcDbDictionary
280
     1
281
     1
  3
ACAD_XREC_ROUNDTRIP
360
22124
  0
DICTIONARY
  5
2213D
330
1B2E9
100
AcDbDictionary
280
     1
281
     1
  3
ACAD_XREC_ROUNDTRIP
360
2213E
  0
DICTIONARY
  5
2213B
330
1B2E8
100
AcDbDictionary
280
     1
281
     1
  3
ACAD_XREC_ROUNDTRIP
360
2213C
  0
DICTIONARY
  5
22135
330
1B2E5
100
AcDbDictionary
280
     1
281
     1
  3
ACAD_XREC_ROUNDTRIP
360
22136
  0
DICTIONARY
  5
22137
330
1B2E6
100
AcDbDictionary
280
     1
281
     1
  3
ACAD_XREC_ROUNDTRIP
360
22138
  0
DICTIONARY
  5
22129
330
319C
100
AcDbDictionary
280
     1
281
     1
  3
ACAD_XREC_ROUNDTRIP
360
2212A
  0
DICTIONARY
  5
22131
330
1B2E3
100
AcDbDictionary
280
     1
281
     1
  3
ACAD_XREC_ROUNDTRIP
360
22132
  0
DICTIONARY
  5
22139
330
1B2E7
100
AcDbDictionary
280
     1
281
     1
  3
ACAD_XREC_ROUNDTRIP
360
2213A
  0
XRECORD
  5
2214C
102
{ACAD_REACTORS
330
2214B
102
}
330
2214B
100
AcDbXrecord
280
     1
102
DISPLAYNAME
  1
Imperial24
102
FLAGS
 90
        0
  0
XRECORD
  5
22148
102
{ACAD_REACTORS
330
22147
102
}
330
22147
100
AcDbXrecord
280
     1
102
DISPLAYNAME
  1
Metric50
102
FLAGS
 90
        0
  0
XRECORD
  5
1B22C
102
{ACAD_REACTORS
330
1B22B
102
}
330
1B22B
100
AcDbXrecord
280
     1
102
MATERIAL
148
0.0
149
0.0
149
0.0
 93
        0
 94
      127
282
     0
 72
     1
 77
     1
171
     1
175
     1
179
     1
273
     0
  0
XRECORD
  5
1B22E
102
{ACAD_REACTORS
330
1B22D
102
}
330
1B22D
100
AcDbXrecord
280
     1
102
MATERIAL
148
0.0
149
0.0
149
0.0
 93
        0
 94
      127
282
     0
 72
     1
 77
     1
171
     1
175
     1
179
     1
273
     0
  0
XRECORD
  5
1B230
102
{ACAD_REACTORS
330
1B22F
102
}
330
1B22F
100
AcDbXrecord
280
     1
102
MATERIAL
148
0.0
149
0.0
149
0.0
 93
        0
 94
      127
282
     0
 72
     1
 77
     1
171
     1
175
     1
179
     1
273
     0
  0
XRECORD
  5
2214A
102
{ACAD_REACTORS
330
22149
102
}
330
22149
100
AcDbXrecord
280
     1
102
DISPLAYNAME
  1
Imperial24
102
FLAGS
 90
        0
  0
XRECORD
  5
22146
102
{ACAD_REACTORS
330
22145
102
}
330
22145
100
AcDbXrecord
280
     1
102
DISPLAYNAME
  1
Metric50
102
FLAGS
 90
        0
  0
CELLSTYLEMAP
  5
2210F
102
{ACAD_REACTORS
330
1B314
102
}
330
1B314
100
AcDbCellStyleMap
 90
        3
300
CELLSTYLE
  1
TABLEFORMAT_BEGIN
 90
        5
170
     1
 91
        0
 92
    32768
 62
   257
 93
        1
300
CONTENTFORMAT
  1
CONTENTFORMAT_BEGIN
 90
        0
 91
        0
 92
        4
 93
        0
300

 40
0.0
140
1.0
 94
        5
 62
     0
340
11
144
6.0
309
CONTENTFORMAT_END
171
     1
301
MARGIN
  1
CELLMARGIN_BEGIN
 40
1.5
 40
1.5
 40
1.5
 40
1.5
 40
0.18
 40
0.18
309
CELLMARGIN_END
 94
        6
 95
        1
302
GRIDFORMAT
  1
GRIDFORMAT_BEGIN
 90
        0
 91
        1
 62
     0
 92
       -2
340
0
 93
        0
 40
0.045
309
GRIDFORMAT_END
 95
        2
302
GRIDFORMAT
  1
GRIDFORMAT_BEGIN
 90
        0
 91
        1
 62
     0
 92
       -2
340
0
 93
        0
 40
0.045
309
GRIDFORMAT_END
 95
        4
302
GRIDFORMAT
  1
GRIDFORMAT_BEGIN
 90
        0
 91
        1
 62
     0
 92
       -2
340
0
 93
        0
 40
0.045
309
GRIDFORMAT_END
 95
        8
302
GRIDFORMAT
  1
GRIDFORMAT_BEGIN
 90
        0
 91
        1
 62
     0
 92
       -2
340
0
 93
        0
 40
0.045
309
GRIDFORMAT_END
 95
       16
302
GRIDFORMAT
  1
GRIDFORMAT_BEGIN
 90
        0
 91
        1
 62
     0
 92
       -2
340
0
 93
        0
 40
0.045
309
GRIDFORMAT_END
 95
       32
302
GRIDFORMAT
  1
GRIDFORMAT_BEGIN
 90
        0
 91
        1
 62
     0
 92
       -2
340
0
 93
        0
 40
0.045
309
GRIDFORMAT_END
309
TABLEFORMAT_END
  1
CELLSTYLE_BEGIN
 90
        1
 91
        1
300
_TITLE
309
CELLSTYLE_END
300
CELLSTYLE
  1
TABLEFORMAT_BEGIN
 90
        5
170
     1
 91
        0
 92
        0
 62
   257
 93
        1
300
CONTENTFORMAT
  1
CONTENTFORMAT_BEGIN
 90
        0
 91
        0
 92
        4
 93
        0
300

 40
0.0
140
1.0
 94
        5
 62
     0
340
11
144
4.5
309
CONTENTFORMAT_END
171
     1
301
MARGIN
  1
CELLMARGIN_BEGIN
 40
1.5
 40
1.5
 40
1.5
 40
1.5
 40
0.18
 40
0.18
309
CELLMARGIN_END
 94
        6
 95
        1
302
GRIDFORMAT
  1
GRIDFORMAT_BEGIN
 90
        0
 91
        1
 62
     0
 92
       -2
340
0
 93
        0
 40
0.045
309
GRIDFORMAT_END
 95
        2
302
GRIDFORMAT
  1
GRIDFORMAT_BEGIN
 90
        0
 91
        1
 62
     0
 92
       -2
340
0
 93
        0
 40
0.045
309
GRIDFORMAT_END
 95
        4
302
GRIDFORMAT
  1
GRIDFORMAT_BEGIN
 90
        0
 91
        1
 62
     0
 92
       -2
340
0
 93
        0
 40
0.045
309
GRIDFORMAT_END
 95
        8
302
GRIDFORMAT
  1
GRIDFORMAT_BEGIN
 90
        0
 91
        1
 62
     0
 92
       -2
340
0
 93
        0
 40
0.045
309
GRIDFORMAT_END
 95
       16
302
GRIDFORMAT
  1
GRIDFORMAT_BEGIN
 90
        0
 91
        1
 62
     0
 92
       -2
340
0
 93
        0
 40
0.045
309
GRIDFORMAT_END
 95
       32
302
GRIDFORMAT
  1
GRIDFORMAT_BEGIN
 90
        0
 91
        1
 62
     0
 92
       -2
340
0
 93
        0
 40
0.045
309
GRIDFORMAT_END
309
TABLEFORMAT_END
  1
CELLSTYLE_BEGIN
 90
        2
 91
        1
300
_HEADER
309
CELLSTYLE_END
300
CELLSTYLE
  1
TABLEFORMAT_BEGIN
 90
        5
170
     1
 91
        0
 92
        0
 62
   257
 93
        1
300
CONTENTFORMAT
  1
CONTENTFORMAT_BEGIN
 90
        0
 91
        0
 92
        4
 93
        0
300

 40
0.0
140
1.0
 94
        2
 62
     0
340
11
144
4.5
309
CONTENTFORMAT_END
171
     1
301
MARGIN
  1
CELLMARGIN_BEGIN
 40
1.5
 40
1.5
 40
1.5
 40
1.5
 40
0.18
 40
0.18
309
CELLMARGIN_END
 94
        6
 95
        1
302
GRIDFORMAT
  1
GRIDFORMAT_BEGIN
 90
        0
 91
        1
 62
     0
 92
       -2
340
0
 93
        0
 40
0.045
309
GRIDFORMAT_END
 95
        2
302
GRIDFORMAT
  1
GRIDFORMAT_BEGIN
 90
        0
 91
        1
 62
     0
 92
       -2
340
0
 93
        0
 40
0.045
309
GRIDFORMAT_END
 95
        4
302
GRIDFORMAT
  1
GRIDFORMAT_BEGIN
 90
        0
 91
        1
 62
     0
 92
       -2
340
0
 93
        0
 40
0.045
309
GRIDFORMAT_END
 95
        8
302
GRIDFORMAT
  1
GRIDFORMAT_BEGIN
 90
        0
 91
        1
 62
     0
 92
       -2
340
0
 93
        0
 40
0.045
309
GRIDFORMAT_END
 95
       16
302
GRIDFORMAT
  1
GRIDFORMAT_BEGIN
 90
        0
 91
        1
 62
     0
 92
       -2
340
0
 93
        0
 40
0.045
309
GRIDFORMAT_END
 95
       32
302
GRIDFORMAT
  1
GRIDFORMAT_BEGIN
 90
        0
 91
        1
 62
     0
 92
       -2
340
0
 93
        0
 40
0.045
309
GRIDFORMAT_END
309
TABLEFORMAT_END
  1
CELLSTYLE_BEGIN
 90
        3
 91
        2
300
_DATA
309
CELLSTYLE_END
  0
XRECORD
  5
2211C
102
{ACAD_REACTORS
330
2211B
102
}
330
2211B
100
AcDbXrecord
280
     1
102
RTVSPost2010Prop28
280
     1
102
RTVSPost2010PropOp28
 70
     1
102
RTVSPost2010Prop29
280
     1
102
RTVSPost2010PropOp29
 70
     1
102
RTVSPost2010Prop30
280
     0
102
RTVSPost2010PropOp30
 70
     1
102
RTVSPost2010Prop31
280
     0
102
RTVSPost2010PropOp31
 70
     1
102
RTVSPost2010Prop32
280
     0
102
RTVSPost2010PropOp32
 70
     1
102
RTVSPost2010Prop33
280
     0
102
RTVSPost2010PropOp33
 70
     1
102
RTVSPost2010Prop34
280
     0
102
RTVSPost2010PropOp34
 70
     1
102
RTVSPost2010Prop35
280
     0
102
RTVSPost2010PropOp35
 70
     1
102
RTVSPost2010Prop36
280
     0
102
RTVSPost2010PropOp36
 70
     1
102
RTVSPost2010Prop37
 90
       50
102
RTVSPost2010PropOp37
 70
     1
102
RTVSPost2010Prop38
140
0.0
102
RTVSPost2010PropOp38
 70
     1
102
RTVSPost2010Prop39
140
1.0
102
RTVSPost2010PropOp39
 70
     1
102
RTVSPost2010Prop40
 90
        0
102
RTVSPost2010PropOp40
 70
     1
102
RTVSPost2010Prop41ColorIndex
 90
       18
102
RTVSPost2010Prop41ColorRGB
 90
        0
102
RTVSPost2010PropOp41
 70
     1
102
RTVSPost2010Prop42
 90
       50
102
RTVSPost2010PropOp42
 70
     1
102
RTVSPost2010Prop43
 90
        3
102
RTVSPost2010PropOp43
 70
     1
102
RTVSPost2010Prop44ColorIndex
 90
        5
102
RTVSPost2010Prop44ColorRGB
 90
      255
102
RTVSPost2010PropOp44
 70
     1
102
RTVSPost2010Prop45
280
     0
102
RTVSPost2010PropOp45
 70
     1
102
RTVSPost2010Prop46
 90
       50
102
RTVSPost2010PropOp46
 70
     1
102
RTVSPost2010Prop47
 90
       50
102
RTVSPost2010PropOp47
 70
     1
102
RTVSPost2010Prop48
 90
       50
102
RTVSPost2010PropOp48
 70
     1
102
RTVSPost2010Prop49
280
     0
102
RTVSPost2010PropOp49
 70
     1
102
RTVSPost2010Prop50
 90
       50
102
RTVSPost2010PropOp50
 70
     1
102
RTVSPost2010Prop51ColorIndex
 90
      256
102
RTVSPost2010Prop51ColorRGB
 90
-16777216
102
RTVSPost2010PropOp51
 70
     0
102
RTVSPost2010Prop52
140
1.0
102
RTVSPost2010PropOp52
 70
     0
102
RTVSPost2010Prop53
 90
        2
102
RTVSPost2010PropOp53
 70
     1
102
RTVSPost2010Prop54
  1
strokes_ogs.tif
102
RTVSPost2010PropOp54
 70
     1
102
RTVSPost2010Prop55
280
     0
102
RTVSPost2010PropOp55
 70
     1
102
RTVSPost2010Prop56
140
1.0
102
RTVSPost2010PropOp56
 70
     1
102
RTVSPost2010Prop57
140
1.0
102
RTVSPost2010PropOp57
 70
     1
  0
XRECORD
  5
22120
102
{ACAD_REACTORS
330
2211F
102
}
330
2211F
100
AcDbXrecord
280
     1
102
RTVSPost2010Prop28
280
     0
102
RTVSPost2010PropOp28
 70
     1
102
RTVSPost2010Prop29
280
     1
102
RTVSPost2010PropOp29
 70
     1
102
RTVSPost2010Prop30
280
     1
102
RTVSPost2010PropOp30
 70
     1
102
RTVSPost2010Prop31
280
     0
102
RTVSPost2010PropOp31
 70
     1
102
RTVSPost2010Prop32
280
     0
102
RTVSPost2010PropOp32
 70
     1
102
RTVSPost2010Prop33
280
     0
102
RTVSPost2010PropOp33
 70
     1
102
RTVSPost2010Prop34
280
     0
102
RTVSPost2010PropOp34
 70
     1
102
RTVSPost2010Prop35
280
     0
102
RTVSPost2010PropOp35
 70
     1
102
RTVSPost2010Prop36
280
     0
102
RTVSPost2010PropOp36
 70
     1
102
RTVSPost2010Prop37
 90
       50
102
RTVSPost2010PropOp37
 70
     1
102
RTVSPost2010Prop38
140
0.0
102
RTVSPost2010PropOp38
 70
     1
102
RTVSPost2010Prop39
140
1.0
102
RTVSPost2010PropOp39
 70
     1
102
RTVSPost2010Prop40
 90
        0
102
RTVSPost2010PropOp40
 70
     1
102
RTVSPost2010Prop41ColorIndex
 90
       18
102
RTVSPost2010Prop41ColorRGB
 90
        0
102
RTVSPost2010PropOp41
 70
     1
102
RTVSPost2010Prop42
 90
       50
102
RTVSPost2010PropOp42
 70
     1
102
RTVSPost2010Prop43
 90
        3
102
RTVSPost2010PropOp43
 70
     1
102
RTVSPost2010Prop44ColorIndex
 90
        5
102
RTVSPost2010Prop44ColorRGB
 90
      255
102
RTVSPost2010PropOp44
 70
     1
102
RTVSPost2010Prop45
280
     0
102
RTVSPost2010PropOp45
 70
     1
102
RTVSPost2010Prop46
 90
       50
102
RTVSPost2010PropOp46
 70
     1
102
RTVSPost2010Prop47
 90
       50
102
RTVSPost2010PropOp47
 70
     1
102
RTVSPost2010Prop48
 90
       50
102
RTVSPost2010PropOp48
 70
     1
102
RTVSPost2010Prop49
280
     0
102
RTVSPost2010PropOp49
 70
     1
102
RTVSPost2010Prop50
 90
       50
102
RTVSPost2010PropOp50
 70
     1
102
RTVSPost2010Prop51ColorIndex
 90
      256
102
RTVSPost2010Prop51ColorRGB
 90
-16777216
102
RTVSPost2010PropOp51
 70
     0
102
RTVSPost2010Prop52
140
1.0
102
RTVSPost2010PropOp52
 70
     0
102
RTVSPost2010Prop53
 90
        2
102
RTVSPost2010PropOp53
 70
     1
102
RTVSPost2010Prop54
  1
strokes_ogs.tif
102
RTVSPost2010PropOp54
 70
     1
102
RTVSPost2010Prop55
280
     0
102
RTVSPost2010PropOp55
 70
     1
102
RTVSPost2010Prop56
140
1.0
102
RTVSPost2010PropOp56
 70
     1
102
RTVSPost2010Prop57
140
1.0
102
RTVSPost2010PropOp57
 70
     1
  0
XRECORD
  5
2211E
102
{ACAD_REACTORS
330
2211D
102
}
330
2211D
100
AcDbXrecord
280
     1
102
RTVSPost2010Prop28
280
     0
102
RTVSPost2010PropOp28
 70
     1
102
RTVSPost2010Prop29
280
     1
102
RTVSPost2010PropOp29
 70
     1
102
RTVSPost2010Prop30
280
     1
102
RTVSPost2010PropOp30
 70
     1
102
RTVSPost2010Prop31
280
     0
102
RTVSPost2010PropOp31
 70
     1
102
RTVSPost2010Prop32
280
     0
102
RTVSPost2010PropOp32
 70
     1
102
RTVSPost2010Prop33
280
     0
102
RTVSPost2010PropOp33
 70
     1
102
RTVSPost2010Prop34
280
     0
102
RTVSPost2010PropOp34
 70
     1
102
RTVSPost2010Prop35
280
     0
102
RTVSPost2010PropOp35
 70
     1
102
RTVSPost2010Prop36
280
     0
102
RTVSPost2010PropOp36
 70
     1
102
RTVSPost2010Prop37
 90
       50
102
RTVSPost2010PropOp37
 70
     1
102
RTVSPost2010Prop38
140
0.0
102
RTVSPost2010PropOp38
 70
     1
102
RTVSPost2010Prop39
140
1.0
102
RTVSPost2010PropOp39
 70
     1
102
RTVSPost2010Prop40
 90
        0
102
RTVSPost2010PropOp40
 70
     1
102
RTVSPost2010Prop41ColorIndex
 90
       18
102
RTVSPost2010Prop41ColorRGB
 90
        0
102
RTVSPost2010PropOp41
 70
     1
102
RTVSPost2010Prop42
 90
       50
102
RTVSPost2010PropOp42
 70
     1
102
RTVSPost2010Prop43
 90
        3
102
RTVSPost2010PropOp43
 70
     1
102
RTVSPost2010Prop44ColorIndex
 90
        5
102
RTVSPost2010Prop44ColorRGB
 90
      255
102
RTVSPost2010PropOp44
 70
     1
102
RTVSPost2010Prop45
280
     0
102
RTVSPost2010PropOp45
 70
     1
102
RTVSPost2010Prop46
 90
       50
102
RTVSPost2010PropOp46
 70
     1
102
RTVSPost2010Prop47
 90
       50
102
RTVSPost2010PropOp47
 70
     1
102
RTVSPost2010Prop48
 90
       50
102
RTVSPost2010PropOp48
 70
     1
102
RTVSPost2010Prop49
280
     0
102
RTVSPost2010PropOp49
 70
     1
102
RTVSPost2010Prop50
 90
       50
102
RTVSPost2010PropOp50
 70
     1
102
RTVSPost2010Prop51ColorIndex
 90
      256
102
RTVSPost2010Prop51ColorRGB
 90
-16777216
102
RTVSPost2010PropOp51
 70
     0
102
RTVSPost2010Prop52
140
1.0
102
RTVSPost2010PropOp52
 70
     0
102
RTVSPost2010Prop53
 90
        2
102
RTVSPost2010PropOp53
 70
     1
102
RTVSPost2010Prop54
  1
strokes_ogs.tif
102
RTVSPost2010PropOp54
 70
     1
102
RTVSPost2010Prop55
280
     0
102
RTVSPost2010PropOp55
 70
     1
102
RTVSPost2010Prop56
140
1.0
102
RTVSPost2010PropOp56
 70
     1
102
RTVSPost2010Prop57
140
1.0
102
RTVSPost2010PropOp57
 70
     1
  0
XRECORD
  5
2211A
102
{ACAD_REACTORS
330
22119
102
}
330
22119
100
AcDbXrecord
280
     1
102
RTVSPost2010Prop28
280
     0
102
RTVSPost2010PropOp28
 70
     1
102
RTVSPost2010Prop29
280
     1
102
RTVSPost2010PropOp29
 70
     1
102
RTVSPost2010Prop30
280
     1
102
RTVSPost2010PropOp30
 70
     1
102
RTVSPost2010Prop31
280
     0
102
RTVSPost2010PropOp31
 70
     1
102
RTVSPost2010Prop32
280
     0
102
RTVSPost2010PropOp32
 70
     1
102
RTVSPost2010Prop33
280
     0
102
RTVSPost2010PropOp33
 70
     1
102
RTVSPost2010Prop34
280
     0
102
RTVSPost2010PropOp34
 70
     1
102
RTVSPost2010Prop35
280
     0
102
RTVSPost2010PropOp35
 70
     1
102
RTVSPost2010Prop36
280
     0
102
RTVSPost2010PropOp36
 70
     1
102
RTVSPost2010Prop37
 90
       50
102
RTVSPost2010PropOp37
 70
     1
102
RTVSPost2010Prop38
140
0.0
102
RTVSPost2010PropOp38
 70
     1
102
RTVSPost2010Prop39
140
1.0
102
RTVSPost2010PropOp39
 70
     1
102
RTVSPost2010Prop40
 90
        0
102
RTVSPost2010PropOp40
 70
     1
102
RTVSPost2010Prop41ColorIndex
 90
       18
102
RTVSPost2010Prop41ColorRGB
 90
        0
102
RTVSPost2010PropOp41
 70
     1
102
RTVSPost2010Prop42
 90
       50
102
RTVSPost2010PropOp42
 70
     1
102
RTVSPost2010Prop43
 90
        3
102
RTVSPost2010PropOp43
 70
     1
102
RTVSPost2010Prop44ColorIndex
 90
        5
102
RTVSPost2010Prop44ColorRGB
 90
      255
102
RTVSPost2010PropOp44
 70
     1
102
RTVSPost2010Prop45
280
     0
102
RTVSPost2010PropOp45
 70
     1
102
RTVSPost2010Prop46
 90
       50
102
RTVSPost2010PropOp46
 70
     1
102
RTVSPost2010Prop47
 90
       50
102
RTVSPost2010PropOp47
 70
     1
102
RTVSPost2010Prop48
 90
       50
102
RTVSPost2010PropOp48
 70
     1
102
RTVSPost2010Prop49
280
     0
102
RTVSPost2010PropOp49
 70
     1
102
RTVSPost2010Prop50
 90
       50
102
RTVSPost2010PropOp50
 70
     1
102
RTVSPost2010Prop51ColorIndex
 90
      256
102
RTVSPost2010Prop51ColorRGB
 90
-16777216
102
RTVSPost2010PropOp51
 70
     0
102
RTVSPost2010Prop52
140
1.0
102
RTVSPost2010PropOp52
 70
     0
102
RTVSPost2010Prop53
 90
        2
102
RTVSPost2010PropOp53
 70
     1
102
RTVSPost2010Prop54
  1
strokes_ogs.tif
102
RTVSPost2010PropOp54
 70
     1
102
RTVSPost2010Prop55
280
     0
102
RTVSPost2010PropOp55
 70
     1
102
RTVSPost2010Prop56
140
1.0
102
RTVSPost2010PropOp56
 70
     1
102
RTVSPost2010Prop57
140
1.0
102
RTVSPost2010PropOp57
 70
     1
  0
XRECORD
  5
22128
102
{ACAD_REACTORS
330
22127
102
}
330
22127
100
AcDbXrecord
280
     1
102
RTVSPost2010Prop28
280
     0
102
RTVSPost2010PropOp28
 70
     1
102
RTVSPost2010Prop29
280
     1
102
RTVSPost2010PropOp29
 70
     1
102
RTVSPost2010Prop30
280
     1
102
RTVSPost2010PropOp30
 70
     1
102
RTVSPost2010Prop31
280
     0
102
RTVSPost2010PropOp31
 70
     1
102
RTVSPost2010Prop32
280
     0
102
RTVSPost2010PropOp32
 70
     1
102
RTVSPost2010Prop33
280
     0
102
RTVSPost2010PropOp33
 70
     1
102
RTVSPost2010Prop34
280
     0
102
RTVSPost2010PropOp34
 70
     1
102
RTVSPost2010Prop35
280
     0
102
RTVSPost2010PropOp35
 70
     1
102
RTVSPost2010Prop36
280
     0
102
RTVSPost2010PropOp36
 70
     1
102
RTVSPost2010Prop37
 90
       50
102
RTVSPost2010PropOp37
 70
     1
102
RTVSPost2010Prop38
140
0.0
102
RTVSPost2010PropOp38
 70
     1
102
RTVSPost2010Prop39
140
1.0
102
RTVSPost2010PropOp39
 70
     1
102
RTVSPost2010Prop40
 90
        0
102
RTVSPost2010PropOp40
 70
     1
102
RTVSPost2010Prop41ColorIndex
 90
       18
102
RTVSPost2010Prop41ColorRGB
 90
        0
102
RTVSPost2010PropOp41
 70
     1
102
RTVSPost2010Prop42
 90
       50
102
RTVSPost2010PropOp42
 70
     1
102
RTVSPost2010Prop43
 90
        3
102
RTVSPost2010PropOp43
 70
     1
102
RTVSPost2010Prop44ColorIndex
 90
        5
102
RTVSPost2010Prop44ColorRGB
 90
      255
102
RTVSPost2010PropOp44
 70
     1
102
RTVSPost2010Prop45
280
     0
102
RTVSPost2010PropOp45
 70
     1
102
RTVSPost2010Prop46
 90
       50
102
RTVSPost2010PropOp46
 70
     1
102
RTVSPost2010Prop47
 90
       50
102
RTVSPost2010PropOp47
 70
     1
102
RTVSPost2010Prop48
 90
       50
102
RTVSPost2010PropOp48
 70
     1
102
RTVSPost2010Prop49
280
     0
102
RTVSPost2010PropOp49
 70
     1
102
RTVSPost2010Prop50
 90
       50
102
RTVSPost2010PropOp50
 70
     1
102
RTVSPost2010Prop51ColorIndex
 90
      256
102
RTVSPost2010Prop51ColorRGB
 90
-16777216
102
RTVSPost2010PropOp51
 70
     0
102
RTVSPost2010Prop52
140
1.0
102
RTVSPost2010PropOp52
 70
     0
102
RTVSPost2010Prop53
 90
        2
102
RTVSPost2010PropOp53
 70
     1
102
RTVSPost2010Prop54
  1
strokes_ogs.tif
102
RTVSPost2010PropOp54
 70
     1
102
RTVSPost2010Prop55
280
     0
102
RTVSPost2010PropOp55
 70
     1
102
RTVSPost2010Prop56
140
1.0
102
RTVSPost2010PropOp56
 70
     1
102
RTVSPost2010Prop57
140
1.0
102
RTVSPost2010PropOp57
 70
     1
  0
XRECORD
  5
22130
102
{ACAD_REACTORS
330
2212F
102
}
330
2212F
100
AcDbXrecord
280
     1
102
RTVSPost2010Prop28
280
     0
102
RTVSPost2010PropOp28
 70
     1
102
RTVSPost2010Prop29
280
     1
102
RTVSPost2010PropOp29
 70
     1
102
RTVSPost2010Prop30
280
     1
102
RTVSPost2010PropOp30
 70
     1
102
RTVSPost2010Prop31
280
     0
102
RTVSPost2010PropOp31
 70
     1
102
RTVSPost2010Prop32
280
     0
102
RTVSPost2010PropOp32
 70
     1
102
RTVSPost2010Prop33
280
     0
102
RTVSPost2010PropOp33
 70
     1
102
RTVSPost2010Prop34
280
     0
102
RTVSPost2010PropOp34
 70
     1
102
RTVSPost2010Prop35
280
     0
102
RTVSPost2010PropOp35
 70
     1
102
RTVSPost2010Prop36
280
     0
102
RTVSPost2010PropOp36
 70
     1
102
RTVSPost2010Prop37
 90
       50
102
RTVSPost2010PropOp37
 70
     1
102
RTVSPost2010Prop38
140
0.0
102
RTVSPost2010PropOp38
 70
     1
102
RTVSPost2010Prop39
140
1.0
102
RTVSPost2010PropOp39
 70
     1
102
RTVSPost2010Prop40
 90
        0
102
RTVSPost2010PropOp40
 70
     1
102
RTVSPost2010Prop41ColorIndex
 90
       18
102
RTVSPost2010Prop41ColorRGB
 90
        0
102
RTVSPost2010PropOp41
 70
     1
102
RTVSPost2010Prop42
 90
       50
102
RTVSPost2010PropOp42
 70
     1
102
RTVSPost2010Prop43
 90
        3
102
RTVSPost2010PropOp43
 70
     1
102
RTVSPost2010Prop44ColorIndex
 90
        5
102
RTVSPost2010Prop44ColorRGB
 90
      255
102
RTVSPost2010PropOp44
 70
     1
102
RTVSPost2010Prop45
280
     0
102
RTVSPost2010PropOp45
 70
     1
102
RTVSPost2010Prop46
 90
       50
102
RTVSPost2010PropOp46
 70
     1
102
RTVSPost2010Prop47
 90
       50
102
RTVSPost2010PropOp47
 70
     1
102
RTVSPost2010Prop48
 90
       50
102
RTVSPost2010PropOp48
 70
     1
102
RTVSPost2010Prop49
280
     0
102
RTVSPost2010PropOp49
 70
     1
102
RTVSPost2010Prop50
 90
       50
102
RTVSPost2010PropOp50
 70
     1
102
RTVSPost2010Prop51ColorIndex
 90
      256
102
RTVSPost2010Prop51ColorRGB
 90
-16777216
102
RTVSPost2010PropOp51
 70
     0
102
RTVSPost2010Prop52
140
1.0
102
RTVSPost2010PropOp52
 70
     0
102
RTVSPost2010Prop53
 90
        2
102
RTVSPost2010PropOp53
 70
     1
102
RTVSPost2010Prop54
  1
strokes_ogs.tif
102
RTVSPost2010PropOp54
 70
     1
102
RTVSPost2010Prop55
280
     0
102
RTVSPost2010PropOp55
 70
     1
102
RTVSPost2010Prop56
140
1.0
102
RTVSPost2010PropOp56
 70
     1
102
RTVSPost2010Prop57
140
1.0
102
RTVSPost2010PropOp57
 70
     1
  0
XRECORD
  5
22122
102
{ACAD_REACTORS
330
22121
102
}
330
22121
100
AcDbXrecord
280
     1
102
RTVSPost2010Prop28
280
     0
102
RTVSPost2010PropOp28
 70
     1
102
RTVSPost2010Prop29
280
     1
102
RTVSPost2010PropOp29
 70
     1
102
RTVSPost2010Prop30
280
     1
102
RTVSPost2010PropOp30
 70
     1
102
RTVSPost2010Prop31
280
     0
102
RTVSPost2010PropOp31
 70
     1
102
RTVSPost2010Prop32
280
     0
102
RTVSPost2010PropOp32
 70
     1
102
RTVSPost2010Prop33
280
     0
102
RTVSPost2010PropOp33
 70
     1
102
RTVSPost2010Prop34
280
     0
102
RTVSPost2010PropOp34
 70
     1
102
RTVSPost2010Prop35
280
     0
102
RTVSPost2010PropOp35
 70
     1
102
RTVSPost2010Prop36
280
     0
102
RTVSPost2010PropOp36
 70
     1
102
RTVSPost2010Prop37
 90
       50
102
RTVSPost2010PropOp37
 70
     1
102
RTVSPost2010Prop38
140
0.0
102
RTVSPost2010PropOp38
 70
     1
102
RTVSPost2010Prop39
140
1.0
102
RTVSPost2010PropOp39
 70
     1
102
RTVSPost2010Prop40
 90
        0
102
RTVSPost2010PropOp40
 70
     1
102
RTVSPost2010Prop41ColorIndex
 90
       18
102
RTVSPost2010Prop41ColorRGB
 90
        0
102
RTVSPost2010PropOp41
 70
     1
102
RTVSPost2010Prop42
 90
       50
102
RTVSPost2010PropOp42
 70
     1
102
RTVSPost2010Prop43
 90
        3
102
RTVSPost2010PropOp43
 70
     1
102
RTVSPost2010Prop44ColorIndex
 90
        5
102
RTVSPost2010Prop44ColorRGB
 90
      255
102
RTVSPost2010PropOp44
 70
     1
102
RTVSPost2010Prop45
280
     0
102
RTVSPost2010PropOp45
 70
     1
102
RTVSPost2010Prop46
 90
       50
102
RTVSPost2010PropOp46
 70
     1
102
RTVSPost2010Prop47
 90
       50
102
RTVSPost2010PropOp47
 70
     1
102
RTVSPost2010Prop48
 90
       50
102
RTVSPost2010PropOp48
 70
     1
102
RTVSPost2010Prop49
280
     0
102
RTVSPost2010PropOp49
 70
     1
102
RTVSPost2010Prop50
 90
       50
102
RTVSPost2010PropOp50
 70
     1
102
RTVSPost2010Prop51ColorIndex
 90
      256
102
RTVSPost2010Prop51ColorRGB
 90
-16777216
102
RTVSPost2010PropOp51
 70
     0
102
RTVSPost2010Prop52
140
1.0
102
RTVSPost2010PropOp52
 70
     0
102
RTVSPost2010Prop53
 90
        2
102
RTVSPost2010PropOp53
 70
     1
102
RTVSPost2010Prop54
  1
strokes_ogs.tif
102
RTVSPost2010PropOp54
 70
     1
102
RTVSPost2010Prop55
280
     0
102
RTVSPost2010PropOp55
 70
     1
102
RTVSPost2010Prop56
140
1.0
102
RTVSPost2010PropOp56
 70
     1
102
RTVSPost2010Prop57
140
1.0
102
RTVSPost2010PropOp57
 70
     1
  0
XRECORD
  5
22126
102
{ACAD_REACTORS
330
22125
102
}
330
22125
100
AcDbXrecord
280
     1
102
RTVSPost2010Prop28
280
     0
102
RTVSPost2010PropOp28
 70
     1
102
RTVSPost2010Prop29
280
     1
102
RTVSPost2010PropOp29
 70
     1
102
RTVSPost2010Prop30
280
     1
102
RTVSPost2010PropOp30
 70
     1
102
RTVSPost2010Prop31
280
     0
102
RTVSPost2010PropOp31
 70
     1
102
RTVSPost2010Prop32
280
     0
102
RTVSPost2010PropOp32
 70
     1
102
RTVSPost2010Prop33
280
     0
102
RTVSPost2010PropOp33
 70
     1
102
RTVSPost2010Prop34
280
     0
102
RTVSPost2010PropOp34
 70
     1
102
RTVSPost2010Prop35
280
     0
102
RTVSPost2010PropOp35
 70
     1
102
RTVSPost2010Prop36
280
     0
102
RTVSPost2010PropOp36
 70
     1
102
RTVSPost2010Prop37
 90
       50
102
RTVSPost2010PropOp37
 70
     1
102
RTVSPost2010Prop38
140
0.0
102
RTVSPost2010PropOp38
 70
     1
102
RTVSPost2010Prop39
140
1.0
102
RTVSPost2010PropOp39
 70
     1
102
RTVSPost2010Prop40
 90
        0
102
RTVSPost2010PropOp40
 70
     1
102
RTVSPost2010Prop41ColorIndex
 90
       18
102
RTVSPost2010Prop41ColorRGB
 90
        0
102
RTVSPost2010PropOp41
 70
     1
102
RTVSPost2010Prop42
 90
       50
102
RTVSPost2010PropOp42
 70
     1
102
RTVSPost2010Prop43
 90
        3
102
RTVSPost2010PropOp43
 70
     1
102
RTVSPost2010Prop44ColorIndex
 90
        5
102
RTVSPost2010Prop44ColorRGB
 90
      255
102
RTVSPost2010PropOp44
 70
     1
102
RTVSPost2010Prop45
280
     0
102
RTVSPost2010PropOp45
 70
     1
102
RTVSPost2010Prop46
 90
       50
102
RTVSPost2010PropOp46
 70
     1
102
RTVSPost2010Prop47
 90
       50
102
RTVSPost2010PropOp47
 70
     1
102
RTVSPost2010Prop48
 90
       50
102
RTVSPost2010PropOp48
 70
     1
102
RTVSPost2010Prop49
280
     0
102
RTVSPost2010PropOp49
 70
     1
102
RTVSPost2010Prop50
 90
       50
102
RTVSPost2010PropOp50
 70
     1
102
RTVSPost2010Prop51ColorIndex
 90
      256
102
RTVSPost2010Prop51ColorRGB
 90
-16777216
102
RTVSPost2010PropOp51
 70
     0
102
RTVSPost2010Prop52
140
1.0
102
RTVSPost2010PropOp52
 70
     0
102
RTVSPost2010Prop53
 90
        2
102
RTVSPost2010PropOp53
 70
     1
102
RTVSPost2010Prop54
  1
strokes_ogs.tif
102
RTVSPost2010PropOp54
 70
     1
102
RTVSPost2010Prop55
280
     0
102
RTVSPost2010PropOp55
 70
     1
102
RTVSPost2010Prop56
140
1.0
102
RTVSPost2010PropOp56
 70
     1
102
RTVSPost2010Prop57
140
1.0
102
RTVSPost2010PropOp57
 70
     1
  0
XRECORD
  5
22144
102
{ACAD_REACTORS
330
22143
102
}
330
22143
100
AcDbXrecord
280
     1
102
RTVSPost2010Prop28
280
     0
102
RTVSPost2010PropOp28
 70
     1
102
RTVSPost2010Prop29
280
     1
102
RTVSPost2010PropOp29
 70
     1
102
RTVSPost2010Prop30
280
     1
102
RTVSPost2010PropOp30
 70
     1
102
RTVSPost2010Prop31
280
     0
102
RTVSPost2010PropOp31
 70
     1
102
RTVSPost2010Prop32
280
     0
102
RTVSPost2010PropOp32
 70
     1
102
RTVSPost2010Prop33
280
     0
102
RTVSPost2010PropOp33
 70
     1
102
RTVSPost2010Prop34
280
     0
102
RTVSPost2010PropOp34
 70
     1
102
RTVSPost2010Prop35
280
     0
102
RTVSPost2010PropOp35
 70
     1
102
RTVSPost2010Prop36
280
     0
102
RTVSPost2010PropOp36
 70
     1
102
RTVSPost2010Prop37
 90
       50
102
RTVSPost2010PropOp37
 70
     0
102
RTVSPost2010Prop38
140
0.0
102
RTVSPost2010PropOp38
 70
     0
102
RTVSPost2010Prop39
140
1.0
102
RTVSPost2010PropOp39
 70
     0
102
RTVSPost2010Prop40
 90
        0
102
RTVSPost2010PropOp40
 70
     0
102
RTVSPost2010Prop41ColorIndex
 90
       18
102
RTVSPost2010Prop41ColorRGB
 90
        0
102
RTVSPost2010PropOp41
 70
     0
102
RTVSPost2010Prop42
 90
       50
102
RTVSPost2010PropOp42
 70
     0
102
RTVSPost2010Prop43
 90
        3
102
RTVSPost2010PropOp43
 70
     0
102
RTVSPost2010Prop44ColorIndex
 90
        5
102
RTVSPost2010Prop44ColorRGB
 90
      255
102
RTVSPost2010PropOp44
 70
     0
102
RTVSPost2010Prop45
280
     0
102
RTVSPost2010PropOp45
 70
     1
102
RTVSPost2010Prop46
 90
       50
102
RTVSPost2010PropOp46
 70
     0
102
RTVSPost2010Prop47
 90
       50
102
RTVSPost2010PropOp47
 70
     0
102
RTVSPost2010Prop48
 90
       50
102
RTVSPost2010PropOp48
 70
     0
102
RTVSPost2010Prop49
280
     0
102
RTVSPost2010PropOp49
 70
     1
102
RTVSPost2010Prop50
 90
       50
102
RTVSPost2010PropOp50
 70
     0
102
RTVSPost2010Prop51ColorIndex
 90
      256
102
RTVSPost2010Prop51ColorRGB
 90
-16777216
102
RTVSPost2010PropOp51
 70
     0
102
RTVSPost2010Prop52
140
1.0
102
RTVSPost2010PropOp52
 70
     0
102
RTVSPost2010Prop53
 90
        2
102
RTVSPost2010PropOp53
 70
     0
102
RTVSPost2010Prop54
  1
strokes_ogs.tif
102
RTVSPost2010PropOp54
 70
     0
102
RTVSPost2010Prop55
280
     0
102
RTVSPost2010PropOp55
 70
     1
102
RTVSPost2010Prop56
140
1.0
102
RTVSPost2010PropOp56
 70
     0
102
RTVSPost2010Prop57
140
1.0
102
RTVSPost2010PropOp57
 70
     0
  0
XRECORD
  5
2212E
102
{ACAD_REACTORS
330
2212D
102
}
330
2212D
100
AcDbXrecord
280
     1
102
RTVSPost2010Prop28
280
     0
102
RTVSPost2010PropOp28
 70
     1
102
RTVSPost2010Prop29
280
     1
102
RTVSPost2010PropOp29
 70
     1
102
RTVSPost2010Prop30
280
     1
102
RTVSPost2010PropOp30
 70
     1
102
RTVSPost2010Prop31
280
     0
102
RTVSPost2010PropOp31
 70
     1
102
RTVSPost2010Prop32
280
     0
102
RTVSPost2010PropOp32
 70
     1
102
RTVSPost2010Prop33
280
     0
102
RTVSPost2010PropOp33
 70
     1
102
RTVSPost2010Prop34
280
     0
102
RTVSPost2010PropOp34
 70
     1
102
RTVSPost2010Prop35
280
     0
102
RTVSPost2010PropOp35
 70
     1
102
RTVSPost2010Prop36
280
     0
102
RTVSPost2010PropOp36
 70
     1
102
RTVSPost2010Prop37
 90
       50
102
RTVSPost2010PropOp37
 70
     1
102
RTVSPost2010Prop38
140
0.0
102
RTVSPost2010PropOp38
 70
     1
102
RTVSPost2010Prop39
140
1.0
102
RTVSPost2010PropOp39
 70
     1
102
RTVSPost2010Prop40
 90
        0
102
RTVSPost2010PropOp40
 70
     1
102
RTVSPost2010Prop41ColorIndex
 90
       18
102
RTVSPost2010Prop41ColorRGB
 90
        0
102
RTVSPost2010PropOp41
 70
     1
102
RTVSPost2010Prop42
 90
       50
102
RTVSPost2010PropOp42
 70
     1
102
RTVSPost2010Prop43
 90
        3
102
RTVSPost2010PropOp43
 70
     1
102
RTVSPost2010Prop44ColorIndex
 90
        5
102
RTVSPost2010Prop44ColorRGB
 90
      255
102
RTVSPost2010PropOp44
 70
     1
102
RTVSPost2010Prop45
280
     0
102
RTVSPost2010PropOp45
 70
     1
102
RTVSPost2010Prop46
 90
       50
102
RTVSPost2010PropOp46
 70
     1
102
RTVSPost2010Prop47
 90
       50
102
RTVSPost2010PropOp47
 70
     1
102
RTVSPost2010Prop48
 90
       50
102
RTVSPost2010PropOp48
 70
     1
102
RTVSPost2010Prop49
280
     0
102
RTVSPost2010PropOp49
 70
     1
102
RTVSPost2010Prop50
 90
       50
102
RTVSPost2010PropOp50
 70
     1
102
RTVSPost2010Prop51ColorIndex
 90
      256
102
RTVSPost2010Prop51ColorRGB
 90
-16777216
102
RTVSPost2010PropOp51
 70
     0
102
RTVSPost2010Prop52
140
1.0
102
RTVSPost2010PropOp52
 70
     0
102
RTVSPost2010Prop53
 90
        2
102
RTVSPost2010PropOp53
 70
     1
102
RTVSPost2010Prop54
  1
strokes_ogs.tif
102
RTVSPost2010PropOp54
 70
     1
102
RTVSPost2010Prop55
280
     0
102
RTVSPost2010PropOp55
 70
     1
102
RTVSPost2010Prop56
140
1.0
102
RTVSPost2010PropOp56
 70
     1
102
RTVSPost2010Prop57
140
1.0
102
RTVSPost2010PropOp57
 70
     1
  0
XRECORD
  5
22112
102
{ACAD_REACTORS
330
22111
102
}
330
22111
100
AcDbXrecord
280
     1
102
RTVSPost2010Prop28
280
     0
102
RTVSPost2010PropOp28
 70
     1
102
RTVSPost2010Prop29
280
     1
102
RTVSPost2010PropOp29
 70
     1
102
RTVSPost2010Prop30
280
     1
102
RTVSPost2010PropOp30
 70
     1
102
RTVSPost2010Prop31
280
     0
102
RTVSPost2010PropOp31
 70
     1
102
RTVSPost2010Prop32
280
     0
102
RTVSPost2010PropOp32
 70
     1
102
RTVSPost2010Prop33
280
     0
102
RTVSPost2010PropOp33
 70
     1
102
RTVSPost2010Prop34
280
     0
102
RTVSPost2010PropOp34
 70
     1
102
RTVSPost2010Prop35
280
     0
102
RTVSPost2010PropOp35
 70
     1
102
RTVSPost2010Prop36
280
     0
102
RTVSPost2010PropOp36
 70
     1
102
RTVSPost2010Prop37
 90
       50
102
RTVSPost2010PropOp37
 70
     1
102
RTVSPost2010Prop38
140
0.0
102
RTVSPost2010PropOp38
 70
     1
102
RTVSPost2010Prop39
140
1.0
102
RTVSPost2010PropOp39
 70
     1
102
RTVSPost2010Prop40
 90
        0
102
RTVSPost2010PropOp40
 70
     1
102
RTVSPost2010Prop41ColorIndex
 90
       18
102
RTVSPost2010Prop41ColorRGB
 90
        0
102
RTVSPost2010PropOp41
 70
     1
102
RTVSPost2010Prop42
 90
       50
102
RTVSPost2010PropOp42
 70
     1
102
RTVSPost2010Prop43
 90
        3
102
RTVSPost2010PropOp43
 70
     1
102
RTVSPost2010Prop44ColorIndex
 90
        5
102
RTVSPost2010Prop44ColorRGB
 90
      255
102
RTVSPost2010PropOp44
 70
     1
102
RTVSPost2010Prop45
280
     0
102
RTVSPost2010PropOp45
 70
     1
102
RTVSPost2010Prop46
 90
       50
102
RTVSPost2010PropOp46
 70
     1
102
RTVSPost2010Prop47
 90
       50
102
RTVSPost2010PropOp47
 70
     1
102
RTVSPost2010Prop48
 90
       50
102
RTVSPost2010PropOp48
 70
     1
102
RTVSPost2010Prop49
280
     0
102
RTVSPost2010PropOp49
 70
     1
102
RTVSPost2010Prop50
 90
       50
102
RTVSPost2010PropOp50
 70
     1
102
RTVSPost2010Prop51ColorIndex
 90
      256
102
RTVSPost2010Prop51ColorRGB
 90
-16777216
102
RTVSPost2010PropOp51
 70
     0
102
RTVSPost2010Prop52
140
1.0
102
RTVSPost2010PropOp52
 70
     0
102
RTVSPost2010Prop53
 90
        2
102
RTVSPost2010PropOp53
 70
     1
102
RTVSPost2010Prop54
  1
strokes_ogs.tif
102
RTVSPost2010PropOp54
 70
     1
102
RTVSPost2010Prop55
280
     0
102
RTVSPost2010PropOp55
 70
     1
102
RTVSPost2010Prop56
140
1.0
102
RTVSPost2010PropOp56
 70
     1
102
RTVSPost2010Prop57
140
1.0
102
RTVSPost2010PropOp57
 70
     1
  0
XRECORD
  5
22114
102
{ACAD_REACTORS
330
22113
102
}
330
22113
100
AcDbXrecord
280
     1
102
RTVSPost2010Prop28
280
     0
102
RTVSPost2010PropOp28
 70
     1
102
RTVSPost2010Prop29
280
     1
102
RTVSPost2010PropOp29
 70
     1
102
RTVSPost2010Prop30
280
     1
102
RTVSPost2010PropOp30
 70
     1
102
RTVSPost2010Prop31
280
     0
102
RTVSPost2010PropOp31
 70
     1
102
RTVSPost2010Prop32
280
     0
102
RTVSPost2010PropOp32
 70
     1
102
RTVSPost2010Prop33
280
     0
102
RTVSPost2010PropOp33
 70
     1
102
RTVSPost2010Prop34
280
     0
102
RTVSPost2010PropOp34
 70
     1
102
RTVSPost2010Prop35
280
     0
102
RTVSPost2010PropOp35
 70
     1
102
RTVSPost2010Prop36
280
     0
102
RTVSPost2010PropOp36
 70
     1
102
RTVSPost2010Prop37
 90
       50
102
RTVSPost2010PropOp37
 70
     1
102
RTVSPost2010Prop38
140
0.0
102
RTVSPost2010PropOp38
 70
     1
102
RTVSPost2010Prop39
140
1.0
102
RTVSPost2010PropOp39
 70
     1
102
RTVSPost2010Prop40
 90
        0
102
RTVSPost2010PropOp40
 70
     1
102
RTVSPost2010Prop41ColorIndex
 90
       18
102
RTVSPost2010Prop41ColorRGB
 90
        0
102
RTVSPost2010PropOp41
 70
     1
102
RTVSPost2010Prop42
 90
       50
102
RTVSPost2010PropOp42
 70
     1
102
RTVSPost2010Prop43
 90
        3
102
RTVSPost2010PropOp43
 70
     1
102
RTVSPost2010Prop44ColorIndex
 90
        5
102
RTVSPost2010Prop44ColorRGB
 90
      255
102
RTVSPost2010PropOp44
 70
     1
102
RTVSPost2010Prop45
280
     0
102
RTVSPost2010PropOp45
 70
     1
102
RTVSPost2010Prop46
 90
       50
102
RTVSPost2010PropOp46
 70
     1
102
RTVSPost2010Prop47
 90
       50
102
RTVSPost2010PropOp47
 70
     1
102
RTVSPost2010Prop48
 90
       50
102
RTVSPost2010PropOp48
 70
     1
102
RTVSPost2010Prop49
280
     0
102
RTVSPost2010PropOp49
 70
     1
102
RTVSPost2010Prop50
 90
       50
102
RTVSPost2010PropOp50
 70
     1
102
RTVSPost2010Prop51ColorIndex
 90
      256
102
RTVSPost2010Prop51ColorRGB
 90
-16777216
102
RTVSPost2010PropOp51
 70
     0
102
RTVSPost2010Prop52
140
1.0
102
RTVSPost2010PropOp52
 70
     0
102
RTVSPost2010Prop53
 90
        2
102
RTVSPost2010PropOp53
 70
     1
102
RTVSPost2010Prop54
  1
strokes_ogs.tif
102
RTVSPost2010PropOp54
 70
     1
102
RTVSPost2010Prop55
280
     0
102
RTVSPost2010PropOp55
 70
     1
102
RTVSPost2010Prop56
140
1.0
102
RTVSPost2010PropOp56
 70
     1
102
RTVSPost2010Prop57
140
1.0
102
RTVSPost2010PropOp57
 70
     1
  0
XRECORD
  5
22116
102
{ACAD_REACTORS
330
22115
102
}
330
22115
100
AcDbXrecord
280
     1
102
RTVSPost2010Prop28
280
     0
102
RTVSPost2010PropOp28
 70
     1
102
RTVSPost2010Prop29
280
     1
102
RTVSPost2010PropOp29
 70
     1
102
RTVSPost2010Prop30
280
     1
102
RTVSPost2010PropOp30
 70
     1
102
RTVSPost2010Prop31
280
     0
102
RTVSPost2010PropOp31
 70
     1
102
RTVSPost2010Prop32
280
     0
102
RTVSPost2010PropOp32
 70
     1
102
RTVSPost2010Prop33
280
     0
102
RTVSPost2010PropOp33
 70
     1
102
RTVSPost2010Prop34
280
     0
102
RTVSPost2010PropOp34
 70
     1
102
RTVSPost2010Prop35
280
     0
102
RTVSPost2010PropOp35
 70
     1
102
RTVSPost2010Prop36
280
     0
102
RTVSPost2010PropOp36
 70
     1
102
RTVSPost2010Prop37
 90
       50
102
RTVSPost2010PropOp37
 70
     1
102
RTVSPost2010Prop38
140
0.0
102
RTVSPost2010PropOp38
 70
     1
102
RTVSPost2010Prop39
140
1.0
102
RTVSPost2010PropOp39
 70
     1
102
RTVSPost2010Prop40
 90
        0
102
RTVSPost2010PropOp40
 70
     1
102
RTVSPost2010Prop41ColorIndex
 90
       18
102
RTVSPost2010Prop41ColorRGB
 90
        0
102
RTVSPost2010PropOp41
 70
     1
102
RTVSPost2010Prop42
 90
       50
102
RTVSPost2010PropOp42
 70
     1
102
RTVSPost2010Prop43
 90
        3
102
RTVSPost2010PropOp43
 70
     1
102
RTVSPost2010Prop44ColorIndex
 90
        5
102
RTVSPost2010Prop44ColorRGB
 90
      255
102
RTVSPost2010PropOp44
 70
     1
102
RTVSPost2010Prop45
280
     0
102
RTVSPost2010PropOp45
 70
     1
102
RTVSPost2010Prop46
 90
       50
102
RTVSPost2010PropOp46
 70
     1
102
RTVSPost2010Prop47
 90
       50
102
RTVSPost2010PropOp47
 70
     1
102
RTVSPost2010Prop48
 90
       50
102
RTVSPost2010PropOp48
 70
     1
102
RTVSPost2010Prop49
280
     0
102
RTVSPost2010PropOp49
 70
     1
102
RTVSPost2010Prop50
 90
       50
102
RTVSPost2010PropOp50
 70
     1
102
RTVSPost2010Prop51ColorIndex
 90
      256
102
RTVSPost2010Prop51ColorRGB
 90
-16777216
102
RTVSPost2010PropOp51
 70
     0
102
RTVSPost2010Prop52
140
1.0
102
RTVSPost2010PropOp52
 70
     0
102
RTVSPost2010Prop53
 90
        2
102
RTVSPost2010PropOp53
 70
     1
102
RTVSPost2010Prop54
  1
strokes_ogs.tif
102
RTVSPost2010PropOp54
 70
     1
102
RTVSPost2010Prop55
280
     0
102
RTVSPost2010PropOp55
 70
     1
102
RTVSPost2010Prop56
140
1.0
102
RTVSPost2010PropOp56
 70
     1
102
RTVSPost2010Prop57
140
1.0
102
RTVSPost2010PropOp57
 70
     1
  0
XRECORD
  5
22118
102
{ACAD_REACTORS
330
22117
102
}
330
22117
100
AcDbXrecord
280
     1
102
RTVSPost2010Prop28
280
     0
102
RTVSPost2010PropOp28
 70
     1
102
RTVSPost2010Prop29
280
     1
102
RTVSPost2010PropOp29
 70
     1
102
RTVSPost2010Prop30
280
     1
102
RTVSPost2010PropOp30
 70
     1
102
RTVSPost2010Prop31
280
     0
102
RTVSPost2010PropOp31
 70
     1
102
RTVSPost2010Prop32
280
     0
102
RTVSPost2010PropOp32
 70
     1
102
RTVSPost2010Prop33
280
     0
102
RTVSPost2010PropOp33
 70
     1
102
RTVSPost2010Prop34
280
     0
102
RTVSPost2010PropOp34
 70
     1
102
RTVSPost2010Prop35
280
     0
102
RTVSPost2010PropOp35
 70
     1
102
RTVSPost2010Prop36
280
     0
102
RTVSPost2010PropOp36
 70
     1
102
RTVSPost2010Prop37
 90
       50
102
RTVSPost2010PropOp37
 70
     1
102
RTVSPost2010Prop38
140
0.0
102
RTVSPost2010PropOp38
 70
     1
102
RTVSPost2010Prop39
140
1.0
102
RTVSPost2010PropOp39
 70
     1
102
RTVSPost2010Prop40
 90
        0
102
RTVSPost2010PropOp40
 70
     1
102
RTVSPost2010Prop41ColorIndex
 90
       18
102
RTVSPost2010Prop41ColorRGB
 90
        0
102
RTVSPost2010PropOp41
 70
     1
102
RTVSPost2010Prop42
 90
       50
102
RTVSPost2010PropOp42
 70
     1
102
RTVSPost2010Prop43
 90
        3
102
RTVSPost2010PropOp43
 70
     1
102
RTVSPost2010Prop44ColorIndex
 90
        5
102
RTVSPost2010Prop44ColorRGB
 90
      255
102
RTVSPost2010PropOp44
 70
     1
102
RTVSPost2010Prop45
280
     0
102
RTVSPost2010PropOp45
 70
     1
102
RTVSPost2010Prop46
 90
       50
102
RTVSPost2010PropOp46
 70
     1
102
RTVSPost2010Prop47
 90
       50
102
RTVSPost2010PropOp47
 70
     1
102
RTVSPost2010Prop48
 90
       50
102
RTVSPost2010PropOp48
 70
     1
102
RTVSPost2010Prop49
280
     0
102
RTVSPost2010PropOp49
 70
     1
102
RTVSPost2010Prop50
 90
       50
102
RTVSPost2010PropOp50
 70
     1
102
RTVSPost2010Prop51ColorIndex
 90
      256
102
RTVSPost2010Prop51ColorRGB
 90
-16777216
102
RTVSPost2010PropOp51
 70
     0
102
RTVSPost2010Prop52
140
1.0
102
RTVSPost2010PropOp52
 70
     0
102
RTVSPost2010Prop53
 90
        2
102
RTVSPost2010PropOp53
 70
     1
102
RTVSPost2010Prop54
  1
strokes_ogs.tif
102
RTVSPost2010PropOp54
 70
     1
102
RTVSPost2010Prop55
280
     0
102
RTVSPost2010PropOp55
 70
     1
102
RTVSPost2010Prop56
140
1.0
102
RTVSPost2010PropOp56
 70
     1
102
RTVSPost2010Prop57
140
1.0
102
RTVSPost2010PropOp57
 70
     1
  0
XRECORD
  5
22134
102
{ACAD_REACTORS
330
22133
102
}
330
22133
100
AcDbXrecord
280
     1
102
RTVSPost2010Prop28
280
     0
102
RTVSPost2010PropOp28
 70
     1
102
RTVSPost2010Prop29
280
     1
102
RTVSPost2010PropOp29
 70
     1
102
RTVSPost2010Prop30
280
     1
102
RTVSPost2010PropOp30
 70
     1
102
RTVSPost2010Prop31
280
     0
102
RTVSPost2010PropOp31
 70
     1
102
RTVSPost2010Prop32
280
     0
102
RTVSPost2010PropOp32
 70
     1
102
RTVSPost2010Prop33
280
     0
102
RTVSPost2010PropOp33
 70
     1
102
RTVSPost2010Prop34
280
     0
102
RTVSPost2010PropOp34
 70
     1
102
RTVSPost2010Prop35
280
     0
102
RTVSPost2010PropOp35
 70
     1
102
RTVSPost2010Prop36
280
     0
102
RTVSPost2010PropOp36
 70
     1
102
RTVSPost2010Prop37
 90
       50
102
RTVSPost2010PropOp37
 70
     1
102
RTVSPost2010Prop38
140
0.0
102
RTVSPost2010PropOp38
 70
     1
102
RTVSPost2010Prop39
140
1.0
102
RTVSPost2010PropOp39
 70
     1
102
RTVSPost2010Prop40
 90
        0
102
RTVSPost2010PropOp40
 70
     1
102
RTVSPost2010Prop41ColorIndex
 90
       18
102
RTVSPost2010Prop41ColorRGB
 90
        0
102
RTVSPost2010PropOp41
 70
     1
102
RTVSPost2010Prop42
 90
       50
102
RTVSPost2010PropOp42
 70
     1
102
RTVSPost2010Prop43
 90
        3
102
RTVSPost2010PropOp43
 70
     1
102
RTVSPost2010Prop44ColorIndex
 90
        5
102
RTVSPost2010Prop44ColorRGB
 90
      255
102
RTVSPost2010PropOp44
 70
     1
102
RTVSPost2010Prop45
280
     0
102
RTVSPost2010PropOp45
 70
     1
102
RTVSPost2010Prop46
 90
       50
102
RTVSPost2010PropOp46
 70
     1
102
RTVSPost2010Prop47
 90
       50
102
RTVSPost2010PropOp47
 70
     1
102
RTVSPost2010Prop48
 90
       50
102
RTVSPost2010PropOp48
 70
     1
102
RTVSPost2010Prop49
280
     0
102
RTVSPost2010PropOp49
 70
     1
102
RTVSPost2010Prop50
 90
       50
102
RTVSPost2010PropOp50
 70
     1
102
RTVSPost2010Prop51ColorIndex
 90
      256
102
RTVSPost2010Prop51ColorRGB
 90
-16777216
102
RTVSPost2010PropOp51
 70
     0
102
RTVSPost2010Prop52
140
1.0
102
RTVSPost2010PropOp52
 70
     0
102
RTVSPost2010Prop53
 90
        2
102
RTVSPost2010PropOp53
 70
     1
102
RTVSPost2010Prop54
  1
strokes_ogs.tif
102
RTVSPost2010PropOp54
 70
     1
102
RTVSPost2010Prop55
280
     0
102
RTVSPost2010PropOp55
 70
     1
102
RTVSPost2010Prop56
140
1.0
102
RTVSPost2010PropOp56
 70
     1
102
RTVSPost2010Prop57
140
1.0
102
RTVSPost2010PropOp57
 70
     1
  0
XRECORD
  5
22140
102
{ACAD_REACTORS
330
2213F
102
}
330
2213F
100
AcDbXrecord
280
     1
102
RTVSPost2010Prop28
280
     0
102
RTVSPost2010PropOp28
 70
     1
102
RTVSPost2010Prop29
280
     1
102
RTVSPost2010PropOp29
 70
     1
102
RTVSPost2010Prop30
280
     1
102
RTVSPost2010PropOp30
 70
     1
102
RTVSPost2010Prop31
280
     0
102
RTVSPost2010PropOp31
 70
     1
102
RTVSPost2010Prop32
280
     0
102
RTVSPost2010PropOp32
 70
     1
102
RTVSPost2010Prop33
280
     0
102
RTVSPost2010PropOp33
 70
     1
102
RTVSPost2010Prop34
280
     0
102
RTVSPost2010PropOp34
 70
     1
102
RTVSPost2010Prop35
280
     0
102
RTVSPost2010PropOp35
 70
     1
102
RTVSPost2010Prop36
280
     0
102
RTVSPost2010PropOp36
 70
     1
102
RTVSPost2010Prop37
 90
       50
102
RTVSPost2010PropOp37
 70
     0
102
RTVSPost2010Prop38
140
0.0
102
RTVSPost2010PropOp38
 70
     0
102
RTVSPost2010Prop39
140
1.0
102
RTVSPost2010PropOp39
 70
     0
102
RTVSPost2010Prop40
 90
        0
102
RTVSPost2010PropOp40
 70
     0
102
RTVSPost2010Prop41ColorIndex
 90
       18
102
RTVSPost2010Prop41ColorRGB
 90
        0
102
RTVSPost2010PropOp41
 70
     0
102
RTVSPost2010Prop42
 90
       50
102
RTVSPost2010PropOp42
 70
     0
102
RTVSPost2010Prop43
 90
        3
102
RTVSPost2010PropOp43
 70
     0
102
RTVSPost2010Prop44ColorIndex
 90
        5
102
RTVSPost2010Prop44ColorRGB
 90
      255
102
RTVSPost2010PropOp44
 70
     0
102
RTVSPost2010Prop45
280
     0
102
RTVSPost2010PropOp45
 70
     1
102
RTVSPost2010Prop46
 90
       50
102
RTVSPost2010PropOp46
 70
     0
102
RTVSPost2010Prop47
 90
       50
102
RTVSPost2010PropOp47
 70
     0
102
RTVSPost2010Prop48
 90
       50
102
RTVSPost2010PropOp48
 70
     0
102
RTVSPost2010Prop49
280
     0
102
RTVSPost2010PropOp49
 70
     1
102
RTVSPost2010Prop50
 90
       50
102
RTVSPost2010PropOp50
 70
     0
102
RTVSPost2010Prop51ColorIndex
 90
      256
102
RTVSPost2010Prop51ColorRGB
 90
-16777216
102
RTVSPost2010PropOp51
 70
     0
102
RTVSPost2010Prop52
140
1.0
102
RTVSPost2010PropOp52
 70
     0
102
RTVSPost2010Prop53
 90
        2
102
RTVSPost2010PropOp53
 70
     0
102
RTVSPost2010Prop54
  1
strokes_ogs.tif
102
RTVSPost2010PropOp54
 70
     0
102
RTVSPost2010Prop55
280
     0
102
RTVSPost2010PropOp55
 70
     1
102
RTVSPost2010Prop56
140
1.0
102
RTVSPost2010PropOp56
 70
     0
102
RTVSPost2010Prop57
140
1.0
102
RTVSPost2010PropOp57
 70
     0
  0
XRECORD
  5
2212C
102
{ACAD_REACTORS
330
2212B
102
}
330
2212B
100
AcDbXrecord
280
     1
102
RTVSPost2010Prop28
280
     0
102
RTVSPost2010PropOp28
 70
     1
102
RTVSPost2010Prop29
280
     1
102
RTVSPost2010PropOp29
 70
     1
102
RTVSPost2010Prop30
280
     1
102
RTVSPost2010PropOp30
 70
     1
102
RTVSPost2010Prop31
280
     0
102
RTVSPost2010PropOp31
 70
     1
102
RTVSPost2010Prop32
280
     0
102
RTVSPost2010PropOp32
 70
     1
102
RTVSPost2010Prop33
280
     0
102
RTVSPost2010PropOp33
 70
     1
102
RTVSPost2010Prop34
280
     0
102
RTVSPost2010PropOp34
 70
     1
102
RTVSPost2010Prop35
280
     0
102
RTVSPost2010PropOp35
 70
     1
102
RTVSPost2010Prop36
280
     0
102
RTVSPost2010PropOp36
 70
     1
102
RTVSPost2010Prop37
 90
       50
102
RTVSPost2010PropOp37
 70
     1
102
RTVSPost2010Prop38
140
0.0
102
RTVSPost2010PropOp38
 70
     1
102
RTVSPost2010Prop39
140
1.0
102
RTVSPost2010PropOp39
 70
     1
102
RTVSPost2010Prop40
 90
        0
102
RTVSPost2010PropOp40
 70
     1
102
RTVSPost2010Prop41ColorIndex
 90
       18
102
RTVSPost2010Prop41ColorRGB
 90
        0
102
RTVSPost2010PropOp41
 70
     1
102
RTVSPost2010Prop42
 90
       50
102
RTVSPost2010PropOp42
 70
     1
102
RTVSPost2010Prop43
 90
        3
102
RTVSPost2010PropOp43
 70
     1
102
RTVSPost2010Prop44ColorIndex
 90
        5
102
RTVSPost2010Prop44ColorRGB
 90
      255
102
RTVSPost2010PropOp44
 70
     1
102
RTVSPost2010Prop45
280
     0
102
RTVSPost2010PropOp45
 70
     1
102
RTVSPost2010Prop46
 90
       50
102
RTVSPost2010PropOp46
 70
     1
102
RTVSPost2010Prop47
 90
       50
102
RTVSPost2010PropOp47
 70
     1
102
RTVSPost2010Prop48
 90
       50
102
RTVSPost2010PropOp48
 70
     1
102
RTVSPost2010Prop49
280
     0
102
RTVSPost2010PropOp49
 70
     1
102
RTVSPost2010Prop50
 90
       50
102
RTVSPost2010PropOp50
 70
     1
102
RTVSPost2010Prop51ColorIndex
 90
      256
102
RTVSPost2010Prop51ColorRGB
 90
-16777216
102
RTVSPost2010PropOp51
 70
     0
102
RTVSPost2010Prop52
140
1.0
102
RTVSPost2010PropOp52
 70
     0
102
RTVSPost2010Prop53
 90
        2
102
RTVSPost2010PropOp53
 70
     1
102
RTVSPost2010Prop54
  1
strokes_ogs.tif
102
RTVSPost2010PropOp54
 70
     1
102
RTVSPost2010Prop55
280
     0
102
RTVSPost2010PropOp55
 70
     1
102
RTVSPost2010Prop56
140
1.0
102
RTVSPost2010PropOp56
 70
     1
102
RTVSPost2010Prop57
140
1.0
102
RTVSPost2010PropOp57
 70
     1
  0
XRECORD
  5
22142
102
{ACAD_REACTORS
330
22141
102
}
330
22141
100
AcDbXrecord
280
     1
102
RTVSPost2010Prop28
280
     0
102
RTVSPost2010PropOp28
 70
     1
102
RTVSPost2010Prop29
280
     1
102
RTVSPost2010PropOp29
 70
     1
102
RTVSPost2010Prop30
280
     1
102
RTVSPost2010PropOp30
 70
     1
102
RTVSPost2010Prop31
280
     0
102
RTVSPost2010PropOp31
 70
     1
102
RTVSPost2010Prop32
280
     0
102
RTVSPost2010PropOp32
 70
     1
102
RTVSPost2010Prop33
280
     0
102
RTVSPost2010PropOp33
 70
     1
102
RTVSPost2010Prop34
280
     0
102
RTVSPost2010PropOp34
 70
     1
102
RTVSPost2010Prop35
280
     0
102
RTVSPost2010PropOp35
 70
     1
102
RTVSPost2010Prop36
280
     0
102
RTVSPost2010PropOp36
 70
     1
102
RTVSPost2010Prop37
 90
       50
102
RTVSPost2010PropOp37
 70
     0
102
RTVSPost2010Prop38
140
0.0
102
RTVSPost2010PropOp38
 70
     0
102
RTVSPost2010Prop39
140
1.0
102
RTVSPost2010PropOp39
 70
     0
102
RTVSPost2010Prop40
 90
        0
102
RTVSPost2010PropOp40
 70
     0
102
RTVSPost2010Prop41ColorIndex
 90
       18
102
RTVSPost2010Prop41ColorRGB
 90
        0
102
RTVSPost2010PropOp41
 70
     0
102
RTVSPost2010Prop42
 90
       50
102
RTVSPost2010PropOp42
 70
     0
102
RTVSPost2010Prop43
 90
        3
102
RTVSPost2010PropOp43
 70
     0
102
RTVSPost2010Prop44ColorIndex
 90
        5
102
RTVSPost2010Prop44ColorRGB
 90
      255
102
RTVSPost2010PropOp44
 70
     0
102
RTVSPost2010Prop45
280
     0
102
RTVSPost2010PropOp45
 70
     1
102
RTVSPost2010Prop46
 90
       50
102
RTVSPost2010PropOp46
 70
     0
102
RTVSPost2010Prop47
 90
       50
102
RTVSPost2010PropOp47
 70
     0
102
RTVSPost2010Prop48
 90
       50
102
RTVSPost2010PropOp48
 70
     0
102
RTVSPost2010Prop49
280
     0
102
RTVSPost2010PropOp49
 70
     1
102
RTVSPost2010Prop50
 90
       50
102
RTVSPost2010PropOp50
 70
     0
102
RTVSPost2010Prop51ColorIndex
 90
      256
102
RTVSPost2010Prop51ColorRGB
 90
-16777216
102
RTVSPost2010PropOp51
 70
     0
102
RTVSPost2010Prop52
140
1.0
102
RTVSPost2010PropOp52
 70
     0
102
RTVSPost2010Prop53
 90
        2
102
RTVSPost2010PropOp53
 70
     0
102
RTVSPost2010Prop54
  1
strokes_ogs.tif
102
RTVSPost2010PropOp54
 70
     0
102
RTVSPost2010Prop55
280
     0
102
RTVSPost2010PropOp55
 70
     1
102
RTVSPost2010Prop56
140
1.0
102
RTVSPost2010PropOp56
 70
     0
102
RTVSPost2010Prop57
140
1.0
102
RTVSPost2010PropOp57
 70
     0
  0
XRECORD
  5
22124
102
{ACAD_REACTORS
330
22123
102
}
330
22123
100
AcDbXrecord
280
     1
102
RTVSPost2010Prop28
280
     0
102
RTVSPost2010PropOp28
 70
     1
102
RTVSPost2010Prop29
280
     1
102
RTVSPost2010PropOp29
 70
     1
102
RTVSPost2010Prop30
280
     1
102
RTVSPost2010PropOp30
 70
     1
102
RTVSPost2010Prop31
280
     0
102
RTVSPost2010PropOp31
 70
     1
102
RTVSPost2010Prop32
280
     0
102
RTVSPost2010PropOp32
 70
     1
102
RTVSPost2010Prop33
280
     0
102
RTVSPost2010PropOp33
 70
     1
102
RTVSPost2010Prop34
280
     0
102
RTVSPost2010PropOp34
 70
     1
102
RTVSPost2010Prop35
280
     0
102
RTVSPost2010PropOp35
 70
     1
102
RTVSPost2010Prop36
280
     0
102
RTVSPost2010PropOp36
 70
     1
102
RTVSPost2010Prop37
 90
       50
102
RTVSPost2010PropOp37
 70
     1
102
RTVSPost2010Prop38
140
0.0
102
RTVSPost2010PropOp38
 70
     1
102
RTVSPost2010Prop39
140
1.0
102
RTVSPost2010PropOp39
 70
     1
102
RTVSPost2010Prop40
 90
        0
102
RTVSPost2010PropOp40
 70
     1
102
RTVSPost2010Prop41ColorIndex
 90
       18
102
RTVSPost2010Prop41ColorRGB
 90
        0
102
RTVSPost2010PropOp41
 70
     1
102
RTVSPost2010Prop42
 90
       50
102
RTVSPost2010PropOp42
 70
     1
102
RTVSPost2010Prop43
 90
        3
102
RTVSPost2010PropOp43
 70
     1
102
RTVSPost2010Prop44ColorIndex
 90
        5
102
RTVSPost2010Prop44ColorRGB
 90
      255
102
RTVSPost2010PropOp44
 70
     1
102
RTVSPost2010Prop45
280
     0
102
RTVSPost2010PropOp45
 70
     1
102
RTVSPost2010Prop46
 90
       50
102
RTVSPost2010PropOp46
 70
     1
102
RTVSPost2010Prop47
 90
       50
102
RTVSPost2010PropOp47
 70
     1
102
RTVSPost2010Prop48
 90
       50
102
RTVSPost2010PropOp48
 70
     1
102
RTVSPost2010Prop49
280
     0
102
RTVSPost2010PropOp49
 70
     1
102
RTVSPost2010Prop50
 90
       50
102
RTVSPost2010PropOp50
 70
     1
102
RTVSPost2010Prop51ColorIndex
 90
      256
102
RTVSPost2010Prop51ColorRGB
 90
-16777216
102
RTVSPost2010PropOp51
 70
     0
102
RTVSPost2010Prop52
140
1.0
102
RTVSPost2010PropOp52
 70
     0
102
RTVSPost2010Prop53
 90
        2
102
RTVSPost2010PropOp53
 70
     1
102
RTVSPost2010Prop54
  1
strokes_ogs.tif
102
RTVSPost2010PropOp54
 70
     1
102
RTVSPost2010Prop55
280
     0
102
RTVSPost2010PropOp55
 70
     1
102
RTVSPost2010Prop56
140
1.0
102
RTVSPost2010PropOp56
 70
     1
102
RTVSPost2010Prop57
140
1.0
102
RTVSPost2010PropOp57
 70
     1
  0
XRECORD
  5
2213E
102
{ACAD_REACTORS
330
2213D
102
}
330
2213D
100
AcDbXrecord
280
     1
102
RTVSPost2010Prop28
280
     0
102
RTVSPost2010PropOp28
 70
     1
102
RTVSPost2010Prop29
280
     1
102
RTVSPost2010PropOp29
 70
     1
102
RTVSPost2010Prop30
280
     1
102
RTVSPost2010PropOp30
 70
     1
102
RTVSPost2010Prop31
280
     0
102
RTVSPost2010PropOp31
 70
     1
102
RTVSPost2010Prop32
280
     0
102
RTVSPost2010PropOp32
 70
     1
102
RTVSPost2010Prop33
280
     0
102
RTVSPost2010PropOp33
 70
     1
102
RTVSPost2010Prop34
280
     0
102
RTVSPost2010PropOp34
 70
     1
102
RTVSPost2010Prop35
280
     0
102
RTVSPost2010PropOp35
 70
     1
102
RTVSPost2010Prop36
280
     0
102
RTVSPost2010PropOp36
 70
     1
102
RTVSPost2010Prop37
 90
       50
102
RTVSPost2010PropOp37
 70
     1
102
RTVSPost2010Prop38
140
0.0
102
RTVSPost2010PropOp38
 70
     1
102
RTVSPost2010Prop39
140
1.0
102
RTVSPost2010PropOp39
 70
     1
102
RTVSPost2010Prop40
 90
        0
102
RTVSPost2010PropOp40
 70
     1
102
RTVSPost2010Prop41ColorIndex
 90
       18
102
RTVSPost2010Prop41ColorRGB
 90
        0
102
RTVSPost2010PropOp41
 70
     1
102
RTVSPost2010Prop42
 90
       50
102
RTVSPost2010PropOp42
 70
     1
102
RTVSPost2010Prop43
 90
        3
102
RTVSPost2010PropOp43
 70
     1
102
RTVSPost2010Prop44ColorIndex
 90
        5
102
RTVSPost2010Prop44ColorRGB
 90
      255
102
RTVSPost2010PropOp44
 70
     1
102
RTVSPost2010Prop45
280
     0
102
RTVSPost2010PropOp45
 70
     1
102
RTVSPost2010Prop46
 90
       50
102
RTVSPost2010PropOp46
 70
     1
102
RTVSPost2010Prop47
 90
       50
102
RTVSPost2010PropOp47
 70
     1
102
RTVSPost2010Prop48
 90
       50
102
RTVSPost2010PropOp48
 70
     1
102
RTVSPost2010Prop49
280
     0
102
RTVSPost2010PropOp49
 70
     1
102
RTVSPost2010Prop50
 90
       50
102
RTVSPost2010PropOp50
 70
     1
102
RTVSPost2010Prop51ColorIndex
 90
      256
102
RTVSPost2010Prop51ColorRGB
 90
-16777216
102
RTVSPost2010PropOp51
 70
     0
102
RTVSPost2010Prop52
140
1.0
102
RTVSPost2010PropOp52
 70
     0
102
RTVSPost2010Prop53
 90
        2
102
RTVSPost2010PropOp53
 70
     1
102
RTVSPost2010Prop54
  1
strokes_ogs.tif
102
RTVSPost2010PropOp54
 70
     1
102
RTVSPost2010Prop55
280
     0
102
RTVSPost2010PropOp55
 70
     1
102
RTVSPost2010Prop56
140
1.0
102
RTVSPost2010PropOp56
 70
     1
102
RTVSPost2010Prop57
140
1.0
102
RTVSPost2010PropOp57
 70
     1
  0
XRECORD
  5
2213C
102
{ACAD_REACTORS
330
2213B
102
}
330
2213B
100
AcDbXrecord
280
     1
102
RTVSPost2010Prop28
280
     0
102
RTVSPost2010PropOp28
 70
     1
102
RTVSPost2010Prop29
280
     1
102
RTVSPost2010PropOp29
 70
     1
102
RTVSPost2010Prop30
280
     1
102
RTVSPost2010PropOp30
 70
     1
102
RTVSPost2010Prop31
280
     0
102
RTVSPost2010PropOp31
 70
     1
102
RTVSPost2010Prop32
280
     0
102
RTVSPost2010PropOp32
 70
     1
102
RTVSPost2010Prop33
280
     0
102
RTVSPost2010PropOp33
 70
     1
102
RTVSPost2010Prop34
280
     0
102
RTVSPost2010PropOp34
 70
     1
102
RTVSPost2010Prop35
280
     0
102
RTVSPost2010PropOp35
 70
     1
102
RTVSPost2010Prop36
280
     0
102
RTVSPost2010PropOp36
 70
     1
102
RTVSPost2010Prop37
 90
       50
102
RTVSPost2010PropOp37
 70
     1
102
RTVSPost2010Prop38
140
0.0
102
RTVSPost2010PropOp38
 70
     1
102
RTVSPost2010Prop39
140
1.0
102
RTVSPost2010PropOp39
 70
     1
102
RTVSPost2010Prop40
 90
        0
102
RTVSPost2010PropOp40
 70
     1
102
RTVSPost2010Prop41ColorIndex
 90
       18
102
RTVSPost2010Prop41ColorRGB
 90
        0
102
RTVSPost2010PropOp41
 70
     1
102
RTVSPost2010Prop42
 90
       50
102
RTVSPost2010PropOp42
 70
     1
102
RTVSPost2010Prop43
 90
        3
102
RTVSPost2010PropOp43
 70
     1
102
RTVSPost2010Prop44ColorIndex
 90
        5
102
RTVSPost2010Prop44ColorRGB
 90
      255
102
RTVSPost2010PropOp44
 70
     1
102
RTVSPost2010Prop45
280
     0
102
RTVSPost2010PropOp45
 70
     1
102
RTVSPost2010Prop46
 90
       50
102
RTVSPost2010PropOp46
 70
     1
102
RTVSPost2010Prop47
 90
       50
102
RTVSPost2010PropOp47
 70
     1
102
RTVSPost2010Prop48
 90
       50
102
RTVSPost2010PropOp48
 70
     1
102
RTVSPost2010Prop49
280
     0
102
RTVSPost2010PropOp49
 70
     1
102
RTVSPost2010Prop50
 90
       50
102
RTVSPost2010PropOp50
 70
     1
102
RTVSPost2010Prop51ColorIndex
 90
      256
102
RTVSPost2010Prop51ColorRGB
 90
-16777216
102
RTVSPost2010PropOp51
 70
     0
102
RTVSPost2010Prop52
140
1.0
102
RTVSPost2010PropOp52
 70
     0
102
RTVSPost2010Prop53
 90
        2
102
RTVSPost2010PropOp53
 70
     1
102
RTVSPost2010Prop54
  1
strokes_ogs.tif
102
RTVSPost2010PropOp54
 70
     1
102
RTVSPost2010Prop55
280
     0
102
RTVSPost2010PropOp55
 70
     1
102
RTVSPost2010Prop56
140
1.0
102
RTVSPost2010PropOp56
 70
     1
102
RTVSPost2010Prop57
140
1.0
102
RTVSPost2010PropOp57
 70
     1
  0
XRECORD
  5
22136
102
{ACAD_REACTORS
330
22135
102
}
330
22135
100
AcDbXrecord
280
     1
102
RTVSPost2010Prop28
280
     0
102
RTVSPost2010PropOp28
 70
     1
102
RTVSPost2010Prop29
280
     1
102
RTVSPost2010PropOp29
 70
     1
102
RTVSPost2010Prop30
280
     1
102
RTVSPost2010PropOp30
 70
     1
102
RTVSPost2010Prop31
280
     0
102
RTVSPost2010PropOp31
 70
     1
102
RTVSPost2010Prop32
280
     0
102
RTVSPost2010PropOp32
 70
     1
102
RTVSPost2010Prop33
280
     0
102
RTVSPost2010PropOp33
 70
     1
102
RTVSPost2010Prop34
280
     0
102
RTVSPost2010PropOp34
 70
     1
102
RTVSPost2010Prop35
280
     0
102
RTVSPost2010PropOp35
 70
     1
102
RTVSPost2010Prop36
280
     0
102
RTVSPost2010PropOp36
 70
     1
102
RTVSPost2010Prop37
 90
       50
102
RTVSPost2010PropOp37
 70
     1
102
RTVSPost2010Prop38
140
0.0
102
RTVSPost2010PropOp38
 70
     1
102
RTVSPost2010Prop39
140
1.0
102
RTVSPost2010PropOp39
 70
     1
102
RTVSPost2010Prop40
 90
        0
102
RTVSPost2010PropOp40
 70
     1
102
RTVSPost2010Prop41ColorIndex
 90
       18
102
RTVSPost2010Prop41ColorRGB
 90
        0
102
RTVSPost2010PropOp41
 70
     1
102
RTVSPost2010Prop42
 90
       50
102
RTVSPost2010PropOp42
 70
     1
102
RTVSPost2010Prop43
 90
        3
102
RTVSPost2010PropOp43
 70
     1
102
RTVSPost2010Prop44ColorIndex
 90
        5
102
RTVSPost2010Prop44ColorRGB
 90
      255
102
RTVSPost2010PropOp44
 70
     1
102
RTVSPost2010Prop45
280
     0
102
RTVSPost2010PropOp45
 70
     1
102
RTVSPost2010Prop46
 90
       50
102
RTVSPost2010PropOp46
 70
     1
102
RTVSPost2010Prop47
 90
       50
102
RTVSPost2010PropOp47
 70
     1
102
RTVSPost2010Prop48
 90
       50
102
RTVSPost2010PropOp48
 70
     1
102
RTVSPost2010Prop49
280
     0
102
RTVSPost2010PropOp49
 70
     1
102
RTVSPost2010Prop50
 90
       50
102
RTVSPost2010PropOp50
 70
     1
102
RTVSPost2010Prop51ColorIndex
 90
      256
102
RTVSPost2010Prop51ColorRGB
 90
-16777216
102
RTVSPost2010PropOp51
 70
     0
102
RTVSPost2010Prop52
140
1.0
102
RTVSPost2010PropOp52
 70
     0
102
RTVSPost2010Prop53
 90
        2
102
RTVSPost2010PropOp53
 70
     1
102
RTVSPost2010Prop54
  1
strokes_ogs.tif
102
RTVSPost2010PropOp54
 70
     1
102
RTVSPost2010Prop55
280
     0
102
RTVSPost2010PropOp55
 70
     1
102
RTVSPost2010Prop56
140
1.0
102
RTVSPost2010PropOp56
 70
     1
102
RTVSPost2010Prop57
140
1.0
102
RTVSPost2010PropOp57
 70
     1
  0
XRECORD
  5
22138
102
{ACAD_REACTORS
330
22137
102
}
330
22137
100
AcDbXrecord
280
     1
102
RTVSPost2010Prop28
280
     0
102
RTVSPost2010PropOp28
 70
     1
102
RTVSPost2010Prop29
280
     1
102
RTVSPost2010PropOp29
 70
     1
102
RTVSPost2010Prop30
280
     1
102
RTVSPost2010PropOp30
 70
     1
102
RTVSPost2010Prop31
280
     0
102
RTVSPost2010PropOp31
 70
     1
102
RTVSPost2010Prop32
280
     0
102
RTVSPost2010PropOp32
 70
     1
102
RTVSPost2010Prop33
280
     0
102
RTVSPost2010PropOp33
 70
     1
102
RTVSPost2010Prop34
280
     0
102
RTVSPost2010PropOp34
 70
     1
102
RTVSPost2010Prop35
280
     0
102
RTVSPost2010PropOp35
 70
     1
102
RTVSPost2010Prop36
280
     0
102
RTVSPost2010PropOp36
 70
     1
102
RTVSPost2010Prop37
 90
       50
102
RTVSPost2010PropOp37
 70
     1
102
RTVSPost2010Prop38
140
0.0
102
RTVSPost2010PropOp38
 70
     1
102
RTVSPost2010Prop39
140
1.0
102
RTVSPost2010PropOp39
 70
     1
102
RTVSPost2010Prop40
 90
        0
102
RTVSPost2010PropOp40
 70
     1
102
RTVSPost2010Prop41ColorIndex
 90
       18
102
RTVSPost2010Prop41ColorRGB
 90
        0
102
RTVSPost2010PropOp41
 70
     1
102
RTVSPost2010Prop42
 90
       50
102
RTVSPost2010PropOp42
 70
     1
102
RTVSPost2010Prop43
 90
        3
102
RTVSPost2010PropOp43
 70
     1
102
RTVSPost2010Prop44ColorIndex
 90
        5
102
RTVSPost2010Prop44ColorRGB
 90
      255
102
RTVSPost2010PropOp44
 70
     1
102
RTVSPost2010Prop45
280
     0
102
RTVSPost2010PropOp45
 70
     1
102
RTVSPost2010Prop46
 90
       50
102
RTVSPost2010PropOp46
 70
     1
102
RTVSPost2010Prop47
 90
       50
102
RTVSPost2010PropOp47
 70
     1
102
RTVSPost2010Prop48
 90
       50
102
RTVSPost2010PropOp48
 70
     1
102
RTVSPost2010Prop49
280
     0
102
RTVSPost2010PropOp49
 70
     1
102
RTVSPost2010Prop50
 90
       50
102
RTVSPost2010PropOp50
 70
     1
102
RTVSPost2010Prop51ColorIndex
 90
      256
102
RTVSPost2010Prop51ColorRGB
 90
-16777216
102
RTVSPost2010PropOp51
 70
     0
102
RTVSPost2010Prop52
140
1.0
102
RTVSPost2010PropOp52
 70
     0
102
RTVSPost2010Prop53
 90
        2
102
RTVSPost2010PropOp53
 70
     1
102
RTVSPost2010Prop54
  1
strokes_ogs.tif
102
RTVSPost2010PropOp54
 70
     1
102
RTVSPost2010Prop55
280
     0
102
RTVSPost2010PropOp55
 70
     1
102
RTVSPost2010Prop56
140
1.0
102
RTVSPost2010PropOp56
 70
     1
102
RTVSPost2010Prop57
140
1.0
102
RTVSPost2010PropOp57
 70
     1
  0
XRECORD
  5
2212A
102
{ACAD_REACTORS
330
22129
102
}
330
22129
100
AcDbXrecord
280
     1
102
RTVSPost2010Prop28
280
     0
102
RTVSPost2010PropOp28
 70
     1
102
RTVSPost2010Prop29
280
     1
102
RTVSPost2010PropOp29
 70
     1
102
RTVSPost2010Prop30
280
     1
102
RTVSPost2010PropOp30
 70
     1
102
RTVSPost2010Prop31
280
     0
102
RTVSPost2010PropOp31
 70
     1
102
RTVSPost2010Prop32
280
     0
102
RTVSPost2010PropOp32
 70
     1
102
RTVSPost2010Prop33
280
     0
102
RTVSPost2010PropOp33
 70
     1
102
RTVSPost2010Prop34
280
     0
102
RTVSPost2010PropOp34
 70
     1
102
RTVSPost2010Prop35
280
     0
102
RTVSPost2010PropOp35
 70
     1
102
RTVSPost2010Prop36
280
     0
102
RTVSPost2010PropOp36
 70
     1
102
RTVSPost2010Prop37
 90
       50
102
RTVSPost2010PropOp37
 70
     1
102
RTVSPost2010Prop38
140
0.0
102
RTVSPost2010PropOp38
 70
     1
102
RTVSPost2010Prop39
140
1.0
102
RTVSPost2010PropOp39
 70
     1
102
RTVSPost2010Prop40
 90
        0
102
RTVSPost2010PropOp40
 70
     1
102
RTVSPost2010Prop41ColorIndex
 90
       18
102
RTVSPost2010Prop41ColorRGB
 90
        0
102
RTVSPost2010PropOp41
 70
     1
102
RTVSPost2010Prop42
 90
       50
102
RTVSPost2010PropOp42
 70
     1
102
RTVSPost2010Prop43
 90
        3
102
RTVSPost2010PropOp43
 70
     1
102
RTVSPost2010Prop44ColorIndex
 90
        5
102
RTVSPost2010Prop44ColorRGB
 90
      255
102
RTVSPost2010PropOp44
 70
     1
102
RTVSPost2010Prop45
280
     0
102
RTVSPost2010PropOp45
 70
     1
102
RTVSPost2010Prop46
 90
       50
102
RTVSPost2010PropOp46
 70
     1
102
RTVSPost2010Prop47
 90
       50
102
RTVSPost2010PropOp47
 70
     1
102
RTVSPost2010Prop48
 90
       50
102
RTVSPost2010PropOp48
 70
     1
102
RTVSPost2010Prop49
280
     0
102
RTVSPost2010PropOp49
 70
     1
102
RTVSPost2010Prop50
 90
       50
102
RTVSPost2010PropOp50
 70
     1
102
RTVSPost2010Prop51ColorIndex
 90
      256
102
RTVSPost2010Prop51ColorRGB
 90
-16777216
102
RTVSPost2010PropOp51
 70
     0
102
RTVSPost2010Prop52
140
1.0
102
RTVSPost2010PropOp52
 70
     0
102
RTVSPost2010Prop53
 90
        2
102
RTVSPost2010PropOp53
 70
     1
102
RTVSPost2010Prop54
  1
strokes_ogs.tif
102
RTVSPost2010PropOp54
 70
     1
102
RTVSPost2010Prop55
280
     0
102
RTVSPost2010PropOp55
 70
     1
102
RTVSPost2010Prop56
140
1.0
102
RTVSPost2010PropOp56
 70
     1
102
RTVSPost2010Prop57
140
1.0
102
RTVSPost2010PropOp57
 70
     1
  0
XRECORD
  5
22132
102
{ACAD_REACTORS
330
22131
102
}
330
22131
100
AcDbXrecord
280
     1
102
RTVSPost2010Prop28
280
     0
102
RTVSPost2010PropOp28
 70
     1
102
RTVSPost2010Prop29
280
     1
102
RTVSPost2010PropOp29
 70
     1
102
RTVSPost2010Prop30
280
     1
102
RTVSPost2010PropOp30
 70
     1
102
RTVSPost2010Prop31
280
     0
102
RTVSPost2010PropOp31
 70
     1
102
RTVSPost2010Prop32
280
     0
102
RTVSPost2010PropOp32
 70
     1
102
RTVSPost2010Prop33
280
     0
102
RTVSPost2010PropOp33
 70
     1
102
RTVSPost2010Prop34
280
     0
102
RTVSPost2010PropOp34
 70
     1
102
RTVSPost2010Prop35
280
     0
102
RTVSPost2010PropOp35
 70
     1
102
RTVSPost2010Prop36
280
     0
102
RTVSPost2010PropOp36
 70
     1
102
RTVSPost2010Prop37
 90
       50
102
RTVSPost2010PropOp37
 70
     1
102
RTVSPost2010Prop38
140
0.0
102
RTVSPost2010PropOp38
 70
     1
102
RTVSPost2010Prop39
140
1.0
102
RTVSPost2010PropOp39
 70
     1
102
RTVSPost2010Prop40
 90
        0
102
RTVSPost2010PropOp40
 70
     1
102
RTVSPost2010Prop41ColorIndex
 90
       18
102
RTVSPost2010Prop41ColorRGB
 90
        0
102
RTVSPost2010PropOp41
 70
     1
102
RTVSPost2010Prop42
 90
       50
102
RTVSPost2010PropOp42
 70
     1
102
RTVSPost2010Prop43
 90
        3
102
RTVSPost2010PropOp43
 70
     1
102
RTVSPost2010Prop44ColorIndex
 90
        5
102
RTVSPost2010Prop44ColorRGB
 90
      255
102
RTVSPost2010PropOp44
 70
     1
102
RTVSPost2010Prop45
280
     0
102
RTVSPost2010PropOp45
 70
     1
102
RTVSPost2010Prop46
 90
       50
102
RTVSPost2010PropOp46
 70
     1
102
RTVSPost2010Prop47
 90
       50
102
RTVSPost2010PropOp47
 70
     1
102
RTVSPost2010Prop48
 90
       50
102
RTVSPost2010PropOp48
 70
     1
102
RTVSPost2010Prop49
280
     0
102
RTVSPost2010PropOp49
 70
     1
102
RTVSPost2010Prop50
 90
       50
102
RTVSPost2010PropOp50
 70
     1
102
RTVSPost2010Prop51ColorIndex
 90
      256
102
RTVSPost2010Prop51ColorRGB
 90
-16777216
102
RTVSPost2010PropOp51
 70
     0
102
RTVSPost2010Prop52
140
1.0
102
RTVSPost2010PropOp52
 70
     0
102
RTVSPost2010Prop53
 90
        2
102
RTVSPost2010PropOp53
 70
     1
102
RTVSPost2010Prop54
  1
strokes_ogs.tif
102
RTVSPost2010PropOp54
 70
     1
102
RTVSPost2010Prop55
280
     0
102
RTVSPost2010PropOp55
 70
     1
102
RTVSPost2010Prop56
140
1.0
102
RTVSPost2010PropOp56
 70
     1
102
RTVSPost2010Prop57
140
1.0
102
RTVSPost2010PropOp57
 70
     1
  0
XRECORD
  5
2213A
102
{ACAD_REACTORS
330
22139
102
}
330
22139
100
AcDbXrecord
280
     1
102
RTVSPost2010Prop28
280
     0
102
RTVSPost2010PropOp28
 70
     1
102
RTVSPost2010Prop29
280
     1
102
RTVSPost2010PropOp29
 70
     1
102
RTVSPost2010Prop30
280
     1
102
RTVSPost2010PropOp30
 70
     1
102
RTVSPost2010Prop31
280
     0
102
RTVSPost2010PropOp31
 70
     1
102
RTVSPost2010Prop32
280
     0
102
RTVSPost2010PropOp32
 70
     1
102
RTVSPost2010Prop33
280
     0
102
RTVSPost2010PropOp33
 70
     1
102
RTVSPost2010Prop34
280
     0
102
RTVSPost2010PropOp34
 70
     1
102
RTVSPost2010Prop35
280
     0
102
RTVSPost2010PropOp35
 70
     1
102
RTVSPost2010Prop36
280
     0
102
RTVSPost2010PropOp36
 70
     1
102
RTVSPost2010Prop37
 90
       50
102
RTVSPost2010PropOp37
 70
     1
102
RTVSPost2010Prop38
140
0.0
102
RTVSPost2010PropOp38
 70
     1
102
RTVSPost2010Prop39
140
1.0
102
RTVSPost2010PropOp39
 70
     1
102
RTVSPost2010Prop40
 90
        0
102
RTVSPost2010PropOp40
 70
     1
102
RTVSPost2010Prop41ColorIndex
 90
       18
102
RTVSPost2010Prop41ColorRGB
 90
        0
102
RTVSPost2010PropOp41
 70
     1
102
RTVSPost2010Prop42
 90
       50
102
RTVSPost2010PropOp42
 70
     1
102
RTVSPost2010Prop43
 90
        3
102
RTVSPost2010PropOp43
 70
     1
102
RTVSPost2010Prop44ColorIndex
 90
        5
102
RTVSPost2010Prop44ColorRGB
 90
      255
102
RTVSPost2010PropOp44
 70
     1
102
RTVSPost2010Prop45
280
     0
102
RTVSPost2010PropOp45
 70
     1
102
RTVSPost2010Prop46
 90
       50
102
RTVSPost2010PropOp46
 70
     1
102
RTVSPost2010Prop47
 90
       50
102
RTVSPost2010PropOp47
 70
     1
102
RTVSPost2010Prop48
 90
       50
102
RTVSPost2010PropOp48
 70
     1
102
RTVSPost2010Prop49
280
     0
102
RTVSPost2010PropOp49
 70
     1
102
RTVSPost2010Prop50
 90
       50
102
RTVSPost2010PropOp50
 70
     1
102
RTVSPost2010Prop51ColorIndex
 90
      256
102
RTVSPost2010Prop51ColorRGB
 90
-16777216
102
RTVSPost2010PropOp51
 70
     0
102
RTVSPost2010Prop52
140
1.0
102
RTVSPost2010PropOp52
 70
     0
102
RTVSPost2010Prop53
 90
        2
102
RTVSPost2010PropOp53
 70
     1
102
RTVSPost2010Prop54
  1
strokes_ogs.tif
102
RTVSPost2010PropOp54
 70
     1
102
RTVSPost2010Prop55
280
     0
102
RTVSPost2010PropOp55
 70
     1
102
RTVSPost2010Prop56
140
1.0
102
RTVSPost2010PropOp56
 70
     1
102
RTVSPost2010Prop57
140
1.0
102
RTVSPost2010PropOp57
 70
     1
  0
ENDSEC
  0
EOF
