  0
SECTION
  2
HEADER
  9
$ACADVER
  1
AC1015
  9
$ACADMAINTVER
 70
    20
  9
$DWGCODEPAGE
  3
ANSI_1252
  9
$INSBASE
 10
0.0
 20
0.0
 30
0.0
  9
$EXTMIN
 10
-32.33411265883774
 20
-42.51051584006904
 30
-0.0000000349181948
  9
$EXTMAX
 10
59.72177961000148
 20
29.35579296456081
 30
0.0000000814935747
  9
$LIMMIN
 10
0.0
 20
0.0
  9
$LIMMAX
 10
420.0
 20
297.0
  9
$ORTHOMODE
 70
     0
  9
$REGENMODE
 70
     1
  9
$FILLMODE
 70
     1
  9
$QTEXTMODE
 70
     0
  9
$MIRRTEXT
 70
     0
  9
$LTSCALE
 40
23.1
  9
$ATTMODE
 70
     1
  9
$TEXTSIZE
 40
3.5
  9
$TRACEWID
 40
0.05
  9
$TEXTSTYLE
  7
STANDARD
  9
$CLAYER
  8
0
  9
$CELTYPE
  6
BYLAYER
  9
$CECOLOR
 62
   256
  9
$CELTSCALE
 40
1.0
  9
$DISPSILH
 70
     0
  9
$DIMSCALE
 40
1.0
  9
$DIMASZ
 40
4.57
  9
$DIMEXO
 40
0.0625
  9
$DIMDLI
 40
0.38
  9
$DIMRND
 40
0.0
  9
$DIMDLE
 40
0.0
  9
$DIMEXE
 40
0.18
  9
$DIMTP
 40
0.01
  9
$DIMTM
 40
0.01
  9
$DIMTXT
 40
3.5
  9
$DIMCEN
 40
0.09
  9
$DIMTSZ
 40
0.0
  9
$DIMTOL
 70
     0
  9
$DIMLIM
 70
     0
  9
$DIMTIH
 70
     0
  9
$DIMTOH
 70
     0
  9
$DIMSE1
 70
     0
  9
$DIMSE2
 70
     0
  9
$DIMTAD
 70
     1
  9
$DIMZIN
 70
     8
  9
$DIMBLK
  1

  9
$DIMASO
 70
     1
  9
$DIMSHO
 70
     1
  9
$DIMPOST
  1

  9
$DIMAPOST
  1

  9
$DIMALT
 70
     0
  9
$DIMALTD
 70
     2
  9
$DIMALTF
 40
25.4
  9
$DIMLFAC
 40
1.0
  9
$DIMTOFL
 70
     0
  9
$DIMTVP
 40
0.0
  9
$DIMTIX
 70
     0
  9
$DIMSOXD
 70
     0
  9
$DIMSAH
 70
     0
  9
$DIMBLK1
  1

  9
$DIMBLK2
  1

  9
$DIMSTYLE
  2
STANDARD
  9
$DIMCLRD
 70
     0
  9
$DIMCLRE
 70
     0
  9
$DIMCLRT
 70
     0
  9
$DIMTFAC
 40
1.0
  9
$DIMGAP
 40
0.09
  9
$DIMJUST
 70
     0
  9
$DIMSD1
 70
     0
  9
$DIMSD2
 70
     0
  9
$DIMTOLJ
 70
     1
  9
$DIMTZIN
 70
     8
  9
$DIMALTZ
 70
     0
  9
$DIMALTTZ
 70
     0
  9
$DIMUPT
 70
     0
  9
$DIMDEC
 70
     3
  9
$DIMTDEC
 70
     3
  9
$DIMALTU
 70
     2
  9
$DIMALTTD
 70
     2
  9
$DIMTXSTY
  7
STANDARD
  9
$DIMAUNIT
 70
     0
  9
$DIMADEC
 70
     0
  9
$DIMALTRND
 40
0.0
  9
$DIMAZIN
 70
     0
  9
$DIMDSEP
 70
    46
  9
$DIMATFIT
 70
     0
  9
$DIMFRAC
 70
     0
  9
$DIMLDRBLK
  1

  9
$DIMLUNIT
 70
     2
  9
$DIMLWD
 70
    -2
  9
$DIMLWE
 70
    -2
  9
$DIMTMOVE
 70
     0
  9
$LUNITS
 70
     2
  9
$LUPREC
 70
     4
  9
$SKETCHINC
 40
0.1
  9
$FILLETRAD
 40
0.0
  9
$AUNITS
 70
     0
  9
$AUPREC
 70
     0
  9
$MENU
  1
.
  9
$ELEVATION
 40
0.0
  9
$PELEVATION
 40
0.0
  9
$THICKNESS
 40
0.0
  9
$LIMCHECK
 70
     0
  9
$CHAMFERA
 40
0.0
  9
$CHAMFERB
 40
0.0
  9
$CHAMFERC
 40
0.0
  9
$CHAMFERD
 40
0.0
  9
$SKPOLY
 70
     0
  9
$TDCREATE
 40
2457366.477918172
  9
$TDUCREATE
 40
2457366.436251505
  9
$TDUPDATE
 40
2458066.460016065
  9
$TDUUPDATE
 40
2458066.418349399
  9
$TDINDWG
 40
0.0102645602
  9
$TDUSRTIMER
 40
0.0102632639
  9
$USRTIMER
 70
     1
  9
$ANGBASE
 50
0.0
  9
$ANGDIR
 70
     0
  9
$PDMODE
 70
     3
  9
$PDSIZE
 40
0.3125
  9
$PLINEWID
 40
0.0
  9
$SPLFRAME
 70
     0
  9
$SPLINETYPE
 70
     6
  9
$SPLINESEGS
 70
     8
  9
$HANDSEED
  5
21892
  9
$SURFTAB1
 70
     6
  9
$SURFTAB2
 70
     6
  9
$SURFTYPE
 70
     6
  9
$SURFU
 70
     6
  9
$SURFV
 70
     6
  9
$UCSBASE
  2

  9
$UCSNAME
  2

  9
$UCSORG
 10
0.0
 20
0.0
 30
0.0
  9
$UCSXDIR
 10
1.0
 20
0.0
 30
0.0
  9
$UCSYDIR
 10
0.0
 20
1.0
 30
0.0
  9
$UCSORTHOREF
  2

  9
$UCSORTHOVIEW
 70
     0
  9
$UCSORGTOP
 10
0.0
 20
0.0
 30
0.0
  9
$UCSORGBOTTOM
 10
0.0
 20
0.0
 30
0.0
  9
$UCSORGLEFT
 10
0.0
 20
0.0
 30
0.0
  9
$UCSORGRIGHT
 10
0.0
 20
0.0
 30
0.0
  9
$UCSORGFRONT
 10
0.0
 20
0.0
 30
0.0
  9
$UCSORGBACK
 10
0.0
 20
0.0
 30
0.0
  9
$PUCSBASE
  2

  9
$PUCSNAME
  2

  9
$PUCSORG
 10
0.0
 20
0.0
 30
0.0
  9
$PUCSXDIR
 10
1.0
 20
0.0
 30
0.0
  9
$PUCSYDIR
 10
0.0
 20
1.0
 30
0.0
  9
$PUCSORTHOREF
  2

  9
$PUCSORTHOVIEW
 70
     0
  9
$PUCSORGTOP
 10
0.0
 20
0.0
 30
0.0
  9
$PUCSORGBOTTOM
 10
0.0
 20
0.0
 30
0.0
  9
$PUCSORGLEFT
 10
0.0
 20
0.0
 30
0.0
  9
$PUCSORGRIGHT
 10
0.0
 20
0.0
 30
0.0
  9
$PUCSORGFRONT
 10
0.0
 20
0.0
 30
0.0
  9
$PUCSORGBACK
 10
0.0
 20
0.0
 30
0.0
  9
$USERI1
 70
     0
  9
$USERI2
 70
     0
  9
$USERI3
 70
     0
  9
$USERI4
 70
     0
  9
$USERI5
 70
     0
  9
$USERR1
 40
0.0
  9
$USERR2
 40
0.0
  9
$USERR3
 40
0.0
  9
$USERR4
 40
0.0
  9
$USERR5
 40
0.0
  9
$WORLDVIEW
 70
     1
  9
$SHADEDGE
 70
     3
  9
$SHADEDIF
 70
    70
  9
$TILEMODE
 70
     1
  9
$MAXACTVP
 70
    64
  9
$PINSBASE
 10
0.0
 20
0.0
 30
0.0
  9
$PLIMCHECK
 70
     0
  9
$PEXTMIN
 10
28.69141678810127
 20
19.6363175392151
 30
0.0
  9
$PEXTMAX
 10
258.2227510929107
 20
176.7268578529358
 30
0.0
  9
$PLIMMIN
 10
-5.027069091796875
 20
-6.805083274841307
  9
$PLIMMAX
 10
291.9412536621094
 20
203.1682443618775
  9
$UNITMODE
 70
     0
  9
$VISRETAIN
 70
     1
  9
$PLINEGEN
 70
     0
  9
$PSLTSCALE
 70
     1
  9
$TREEDEPTH
 70
  3020
  9
$CMLSTYLE
  2
STANDARD
  9
$CMLJUST
 70
     0
  9
$CMLSCALE
 40
1.0
  9
$PROXYGRAPHICS
 70
     1
  9
$MEASUREMENT
 70
     1
  9
$CELWEIGHT
370
    -1
  9
$ENDCAPS
280
     0
  9
$JOINSTYLE
280
     0
  9
$LWDISPLAY
290
     0
  9
$INSUNITS
 70
     0
  9
$HYPERLINKBASE
  1

  9
$STYLESHEET
  1
A1-A2.CTB
  9
$XEDIT
290
     1
  9
$CEPSNTYPE
380
     0
  9
$PSTYLEMODE
290
     1
  9
$FINGERPRINTGUID
  2
{BB41FDDA-7EE9-4E2E-B38B-711FF532F34D}
  9
$VERSIONGUID
  2
{4B182593-7073-4970-9DEB-570580E25026}
  9
$EXTNAMES
290
     1
  9
$PSVPSCALE
 40
0.0
  9
$OLESTARTUP
290
     0
  0
ENDSEC
  0
SECTION
  2
CLASSES
  0
CLASS
  1
ACDBDICTIONARYWDFLT
  2
AcDbDictionaryWithDefault
  3
ObjectDBX Classes
 90
        0
280
     0
281
     0
  0
CLASS
  1
MATERIAL
  2
AcDbMaterial
  3
ObjectDBX Classes
 90
     1153
280
     0
281
     0
  0
CLASS
  1
VISUALSTYLE
  2
AcDbVisualStyle
  3
ObjectDBX Classes
 90
     4095
280
     0
281
     0
  0
CLASS
  1
TABLESTYLE
  2
AcDbTableStyle
  3
ObjectDBX Classes
 90
     4095
280
     0
281
     0
  0
CLASS
  1
SORTENTSTABLE
  2
AcDbSortentsTable
  3
ObjectDBX Classes
 90
        0
280
     0
281
     0
  0
CLASS
  1
DICTIONARYVAR
  2
AcDbDictionaryVar
  3
ObjectDBX Classes
 90
        0
280
     0
281
     0
  0
CLASS
  1
EXACXREFPANELOBJECT
  2
ExAcXREFPanelObject
  3
EXAC_ESW
 90
    33793
280
     1
281
     0
  0
CLASS
  1
NPOCOLLECTION
  2
AcDbImpNonPersistentObjectsCollection
  3
ObjectDBX Classes
 90
    33921
280
     1
281
     0
  0
CLASS
  1
ACDBPLACEHOLDER
  2
AcDbPlaceHolder
  3
ObjectDBX Classes
 90
        0
280
     0
281
     0
  0
CLASS
  1
LAYOUT
  2
AcDbLayout
  3
ObjectDBX Classes
 90
        0
280
     0
281
     0
  0
CLASS
  1
SCALE
  2
AcDbScale
  3
ObjectDBX Classes
 90
     1153
280
     0
281
     0
  0
CLASS
  1
MLEADERSTYLE
  2
AcDbMLeaderStyle
  3
ACDB_MLEADERSTYLE_CLASS
 90
     4095
280
     0
281
     0
  0
CLASS
  1
ACDBSECTIONVIEWSTYLE
  2
AcDbSectionViewStyle
  3
ObjectDBX Classes
 90
     1025
280
     0
281
     0
  0
CLASS
  1
ACDBDETAILVIEWSTYLE
  2
AcDbDetailViewStyle
  3
ObjectDBX Classes
 90
     1025
280
     0
281
     0
  0
CLASS
  1
CELLSTYLEMAP
  2
AcDbCellStyleMap
  3
ObjectDBX Classes
 90
     1152
280
     0
281
     0
  0
CLASS
  1
ACAD_EVALUATION_GRAPH
  2
AcDbEvalGraph
  3
ObjectDBX Classes
 90
    33921
280
     0
281
     0
  0
CLASS
  1
ACAECUSTOBJ
  2
AcAeEditorObj
  3
AcAeEditorObj
 90
    33792
280
     0
281
     0
  0
CLASS
  1
ACDB_DYNAMICBLOCKPURGEPREVENTER_VERSION
  2
AcDbDynamicBlockPurgePreventer
  3
ObjectDBX Classes
 90
    33921
280
     0
281
     0
  0
CLASS
  1
FIELD
  2
AcDbField
  3
ObjectDBX Classes
 90
     1152
280
     0
281
     0
  0
CLASS
  1
FIELDLIST
  2
AcDbFieldList
  3
ObjectDBX Classes
 90
     1152
280
     0
281
     0
  0
CLASS
  1
ACDB_ALDIMOBJECTCONTEXTDATA_CLASS
  2
AcDbAlignedDimensionObjectContextData
  3
ObjectDBX Classes
 90
     1153
280
     0
281
     0
  0
ENDSEC
  0
SECTION
  2
TABLES
  0
TABLE
  2
VPORT
  5
8
330
0
100
AcDbSymbolTable
 70
     1
  0
VPORT
  5
1F4
330
8
100
AcDbSymbolTableRecord
100
AcDbViewportTableRecord
  2
*ACTIVE
 70
     0
 10
0.0
 20
0.0
 11
1.0
 21
1.0
 12
13.69383347558187
 22
-6.57736143775412
 13
0.0
 23
0.0
 14
1.0
 24
1.0
 15
0.0
 25
0.0
 16
0.0
 26
0.0
 36
1.0
 17
0.0
 27
0.0
 37
0.0
 40
72.43894871542372
 41
2.490691489361702
 42
50.0
 43
0.0
 44
0.0
 50
0.0
 51
0.0
 71
     0
 72
  2000
 73
     1
 74
     1
 75
     0
 76
     0
 77
     0
 78
     0
281
     0
 65
     1
110
0.0
120
0.0
130
0.0
111
1.0
121
0.0
131
0.0
112
0.0
122
1.0
132
0.0
 79
     0
146
0.0
1001
ACAD_NAV_VCDISPLAY
1070
     3
  0
ENDTAB
  0
TABLE
  2
LTYPE
  5
5
330
0
100
AcDbSymbolTable
 70
     5
  0
LTYPE
  5
14
330
5
100
AcDbSymbolTableRecord
100
AcDbLinetypeTableRecord
  2
BYBLOCK
 70
     0
  3

 72
    65
 73
     0
 40
0.0
  0
LTYPE
  5
15
330
5
100
AcDbSymbolTableRecord
100
AcDbLinetypeTableRecord
  2
BYLAYER
 70
     0
  3

 72
    65
 73
     0
 40
0.0
  0
LTYPE
  5
16
330
5
100
AcDbSymbolTableRecord
100
AcDbLinetypeTableRecord
  2
CONTINUOUS
 70
     0
  3
Solid line
 72
    65
 73
     0
 40
0.0
  0
LTYPE
  5
9C48
330
5
100
AcDbSymbolTableRecord
100
AcDbLinetypeTableRecord
  2
CENTER
 70
     0
  3
____ _ ____ _ ____ _ ____ _ ____ _ ____ _ ____
 72
    65
 73
     4
 40
0.6
 49
0.375
 74
     0
 49
-0.075
 74
     0
 49
0.075
 74
     0
 49
-0.075
 74
     0
  0
LTYPE
  5
20ADC
330
5
100
AcDbSymbolTableRecord
100
AcDbLinetypeTableRecord
  2
MITTE
 70
     0
  3
Mitte ____ _ ____ _ ____ _ ____ _ ____ _ ____
 72
    65
 73
     4
 40
50.8
 49
31.75
 74
     0
 49
-6.349999999999997
 74
     0
 49
6.349999999999997
 74
     0
 49
-6.349999999999997
 74
     0
  0
ENDTAB
  0
TABLE
  2
LAYER
  5
2
102
{ACAD_XDICTIONARY
360
422A
102
}
330
0
100
AcDbSymbolTable
 70
    24
  0
LAYER
  5
10
102
{ACAD_XDICTIONARY
360
1B2F5
102
}
330
2
100
AcDbSymbolTableRecord
100
AcDbLayerTableRecord
  2
0
 70
     0
 62
     7
  6
CONTINUOUS
370
    -3
390
318A
  0
LAYER
  5
3F8C
102
{ACAD_XDICTIONARY
360
1B2F7
102
}
330
2
100
AcDbSymbolTableRecord
100
AcDbLayerTableRecord
  2
1
 70
     0
 62
     4
  6
BYBLOCK
370
    50
390
318A
  0
LAYER
  5
3FA7
330
2
100
AcDbSymbolTableRecord
100
AcDbLayerTableRecord
  2
Defpoints
 70
     0
 62
     7
  6
CONTINUOUS
290
     0
370
    -3
390
318A
  0
LAYER
  5
9C4A
102
{ACAD_XDICTIONARY
360
1B2F9
102
}
330
2
100
AcDbSymbolTableRecord
100
AcDbLayerTableRecord
  2
2
 70
     0
 62
     7
  6
BYBLOCK
370
    25
390
318A
  0
LAYER
  5
9C4B
102
{ACAD_XDICTIONARY
360
1B2FB
102
}
330
2
100
AcDbSymbolTableRecord
100
AcDbLayerTableRecord
  2
4
 70
     0
 62
     2
  6
CENTER
370
    25
390
318A
  0
LAYER
  5
9C4D
102
{ACAD_XDICTIONARY
360
1B2FD
102
}
330
2
100
AcDbSymbolTableRecord
100
AcDbLayerTableRecord
  2
CUT
 70
     0
 62
     1
  6
BYBLOCK
370
    25
390
318A
  0
LAYER
  5
13335
102
{ACAD_XDICTIONARY
360
1B307
102
}
330
2
100
AcDbSymbolTableRecord
100
AcDbLayerTableRecord
  2
INFTOTAL
 70
     0
 62
     9
  6
BYBLOCK
370
    18
390
318A
1001
AcAecLayerStandard
1000

1000

  0
LAYER
  5
1686E
102
{ACAD_XDICTIONARY
360
1B309
102
}
330
2
100
AcDbSymbolTableRecord
100
AcDbLayerTableRecord
  2
SK6
 70
     0
 62
     5
  6
BYBLOCK
370
    -3
390
318A
  0
LAYER
  5
20ADD
102
{ACAD_XDICTIONARY
360
20CEC
102
}
330
2
100
AcDbSymbolTableRecord
100
AcDbLayerTableRecord
  2
SKVIEW4
 70
     0
 62
     2
  6
MITTE
370
    25
390
318A
1001
AcAecLayerStandard
1000

1000

  0
LAYER
  5
20ADE
102
{ACAD_XDICTIONARY
360
20CEE
102
}
330
2
100
AcDbSymbolTableRecord
100
AcDbLayerTableRecord
  2
SKVIEW1
 70
     0
 62
     4
  6
CONTINUOUS
370
    50
390
318A
1001
AcAecLayerStandard
1000

1000

  0
LAYER
  5
20ADF
102
{ACAD_XDICTIONARY
360
20CF0
102
}
330
2
100
AcDbSymbolTableRecord
100
AcDbLayerTableRecord
  2
SKVIEW2
 70
     0
 62
     7
  6
CONTINUOUS
370
    25
390
318A
1001
AcAecLayerStandard
1000

1000

1001
AcCmTransparency
1071
        0
  0
ENDTAB
  0
TABLE
  2
STYLE
  5
3
330
0
100
AcDbSymbolTable
 70
     3
  0
STYLE
  5
11
330
3
100
AcDbSymbolTableRecord
100
AcDbTextStyleTableRecord
  2
STANDARD
 70
     0
 40
3.5
 41
0.8
 50
0.0
 71
     0
 42
3.5
  3
monos.ttf
  4

1001
ACAD
1000
Monospac821 BT
1071
       49
  0
ENDTAB
  0
TABLE
  2
VIEW
  5
6
330
0
100
AcDbSymbolTable
 70
     0
  0
ENDTAB
  0
TABLE
  2
UCS
  5
7
330
0
100
AcDbSymbolTable
 70
     0
  0
ENDTAB
  0
TABLE
  2
APPID
  5
9
330
0
100
AcDbSymbolTable
 70
    13
  0
APPID
  5
23B
330
9
100
AcDbSymbolTableRecord
100
AcDbRegAppTableRecord
  2
ACAD
 70
     0
  0
APPID
  5
3395
330
9
100
AcDbSymbolTableRecord
100
AcDbRegAppTableRecord
  2
ACAD_EXEMPT_FROM_CAD_STANDARDS
 70
     0
  0
APPID
  5
4229
330
9
100
AcDbSymbolTableRecord
100
AcDbRegAppTableRecord
  2
AcAecLayerStandard
 70
     0
  0
APPID
  5
9A1B
330
9
100
AcDbSymbolTableRecord
100
AcDbRegAppTableRecord
  2
ACAD_PSEXT
 70
     0
  0
APPID
  5
1B313
330
9
100
AcDbSymbolTableRecord
100
AcDbRegAppTableRecord
  2
ACAD_NAV_VCDISPLAY
 70
     0
  0
APPID
  5
1B355
330
9
100
AcDbSymbolTableRecord
100
AcDbRegAppTableRecord
  2
ACAD_MLEADERVER
 70
     0
  0
APPID
  5
1EC7F
330
9
100
AcDbSymbolTableRecord
100
AcDbRegAppTableRecord
  2
ACAUTHENVIRON
 70
     0
  0
APPID
  5
1EC82
330
9
100
AcDbSymbolTableRecord
100
AcDbRegAppTableRecord
  2
AcDbDynamicBlockTrueName
 70
     0
  0
APPID
  5
1EC83
330
9
100
AcDbSymbolTableRecord
100
AcDbRegAppTableRecord
  2
AcDbDynamicBlockGUID
 70
     0
  0
APPID
  5
20A85
330
9
100
AcDbSymbolTableRecord
100
AcDbRegAppTableRecord
  2
AcCmTransparency
 70
     0
  0
APPID
  5
20AE2
330
9
100
AcDbSymbolTableRecord
100
AcDbRegAppTableRecord
  2
ACAD_DSTYLE_DIMRADIAL_EXTENSION
 70
     0
  0
APPID
  5
20CB0
330
9
100
AcDbSymbolTableRecord
100
AcDbRegAppTableRecord
  2
AcadAnnotative
 70
     0
  0
APPID
  5
21444
330
9
100
AcDbSymbolTableRecord
100
AcDbRegAppTableRecord
  2
AcadAnnoMonitorAlertIconDisabled
 70
     0
  0
ENDTAB
  0
TABLE
  2
DIMSTYLE
  5
A
330
0
100
AcDbSymbolTable
 70
     4
100
AcDbDimStyleTable
 71
     1
340
243
  0
DIMSTYLE
105
243
102
{ACAD_REACTORS
330
2104D
330
2104E
330
2104C
330
2104B
330
214C0
102
}
330
A
100
AcDbSymbolTableRecord
100
AcDbDimStyleTableRecord
  2
STANDARD
 70
     0
 41
4.57
 47
0.01
 48
0.01
 73
     0
 74
     0
 77
     1
 78
     8
140
3.5
271
     3
272
     3
284
     8
289
     0
340
11
  0
ENDTAB
  0
TABLE
  2
BLOCK_RECORD
  5
1
330
0
100
AcDbSymbolTable
 70
    37
  0
BLOCK_RECORD
  5
1F
102
{ACAD_XDICTIONARY
360
339C
102
}
330
1
100
AcDbSymbolTableRecord
100
AcDbBlockTableRecord
  2
*MODEL_SPACE
340
31A6
  0
BLOCK_RECORD
  5
1B
330
1
100
AcDbSymbolTableRecord
100
AcDbBlockTableRecord
  2
*PAPER_SPACE
340
31A7
  0
BLOCK_RECORD
  5
211AE
330
1
100
AcDbSymbolTableRecord
100
AcDbBlockTableRecord
  2
*D23
340
0
  0
BLOCK_RECORD
  5
211BA
330
1
100
AcDbSymbolTableRecord
100
AcDbBlockTableRecord
  2
*D24
340
0
  0
BLOCK_RECORD
  5
211C6
330
1
100
AcDbSymbolTableRecord
100
AcDbBlockTableRecord
  2
*D25
340
0
  0
BLOCK_RECORD
  5
211D2
330
1
100
AcDbSymbolTableRecord
100
AcDbBlockTableRecord
  2
*D26
340
0
  0
BLOCK_RECORD
  5
214C1
330
1
100
AcDbSymbolTableRecord
100
AcDbBlockTableRecord
  2
*D27
340
0
  0
ENDTAB
  0
ENDSEC
  0
SECTION
  2
BLOCKS
  0
BLOCK
  5
20
330
1F
100
AcDbEntity
  8
0
100
AcDbBlockBegin
  2
*MODEL_SPACE
 70
     0
 10
0.0
 20
0.0
 30
0.0
  3
*MODEL_SPACE
  1

  0
ENDBLK
  5
21
330
1F
100
AcDbEntity
  8
0
100
AcDbBlockEnd
  0
BLOCK
  5
1C
330
1B
100
AcDbEntity
 67
     1
  8
0
100
AcDbBlockBegin
  2
*PAPER_SPACE
 70
     0
 10
0.0
 20
0.0
 30
0.0
  3
*PAPER_SPACE
  1

  0
ENDBLK
  5
1D
330
1B
100
AcDbEntity
 67
     1
  8
0
100
AcDbBlockEnd
  0
BLOCK
  5
211AF
330
211AE
100
AcDbEntity
  8
0
100
AcDbBlockBegin
  2
*D23
 70
     1
 10
0.0
 20
0.0
 30
0.0
  3
*D23
  1

  0
LINE
  5
21816
330
211AE
100
AcDbEntity
  8
2
 62
     0
370
    -2
100
AcDbLine
 10
1.84050000000002
 20
4.651378672139998
 30
0.0
 11
14.37632639261408
 21
4.651378672139993
 31
0.0
  0
LINE
  5
21817
330
211AE
100
AcDbEntity
  8
2
 62
     0
370
    -2
100
AcDbLine
 10
1.078500000000076
 20
-4.651378672140005
 30
0.0
 11
14.37632639261408
 21
-4.651378672140009
 31
0.0
  0
LINE
  5
21818
330
211AE
100
AcDbEntity
  8
2
 62
     0
370
    -2
100
AcDbLine
 10
14.19632639261408
 20
7.151378672139993
 30
0.0
 11
14.19632639261408
 21
9.651378672139994
 31
0.0
  0
LINE
  5
21819
330
211AE
100
AcDbEntity
  8
2
 62
     0
370
    -2
100
AcDbLine
 10
14.19632639261408
 20
-7.151378672140009
 30
0.0
 11
14.19632639261408
 21
-19.04009265667957
 31
0.0
  0
LINE
  5
2181A
330
211AE
100
AcDbEntity
  8
2
 62
     0
370
    -2
100
AcDbLine
 10
14.19632639261408
 20
4.651378672139993
 30
0.0
 11
14.19632639261408
 21
-4.651378672140009
 31
0.0
  0
SOLID
  5
2181B
330
211AE
100
AcDbEntity
  8
2
 62
     0
100
AcDbTrace
 10
13.77965972594742
 20
7.151378672139994
 30
0.0
 11
14.61299305928075
 21
7.151378672139993
 31
0.0
 12
14.19632639261408
 22
4.651378672139993
 32
0.0
 13
14.19632639261408
 23
4.651378672139993
 33
0.0
  0
SOLID
  5
2181C
330
211AE
100
AcDbEntity
  8
2
 62
     0
100
AcDbTrace
 10
13.77965972594741
 20
-7.151378672140008
 30
0.0
 11
14.61299305928075
 21
-7.151378672140009
 31
0.0
 12
14.19632639261408
 22
-4.651378672140009
 32
0.0
 13
14.19632639261408
 23
-4.651378672140009
 33
0.0
  0
MTEXT
  5
2181D
330
211AE
100
AcDbEntity
  8
2
 62
     0
100
AcDbMText
 10
12.29483658235407
 20
-15.55880664121928
 30
0.0
 40
3.5
 41
0.0
 71
     5
 72
     1
  1
\A1;9.3
 11
0.0000000000000001
 21
1.0
 31
0.0
 73
     1
 44
1.0
1001
ACAD
1000
MTEXTBEGIN
1070
    73
1070
     1
1070
    44
1040
1.0
1070
    74
1070
     0
1000
MTEXTEND
  0
POINT
  5
2181E
330
211AE
100
AcDbEntity
  8
Defpoints
 62
     0
100
AcDbPoint
 10
1.77800000000002
 20
4.651378672139998
 30
0.0
  0
POINT
  5
2181F
330
211AE
100
AcDbEntity
  8
Defpoints
 62
     0
100
AcDbPoint
 10
1.016000000000076
 20
-4.651378672140005
 30
0.0
  0
POINT
  5
21820
330
211AE
100
AcDbEntity
  8
Defpoints
 62
     0
100
AcDbPoint
 10
14.19632639261408
 20
-4.651378672140009
 30
0.0
  0
ENDBLK
  5
211B0
330
211AE
100
AcDbEntity
  8
0
100
AcDbBlockEnd
  0
BLOCK
  5
211BB
330
211BA
100
AcDbEntity
  8
0
100
AcDbBlockBegin
  2
*D24
 70
     1
 10
0.0
 20
0.0
 30
0.0
  3
*D24
  1

  0
LINE
  5
21821
330
211BA
100
AcDbEntity
  8
2
 62
     0
370
    -2
100
AcDbLine
 10
-4.651378672139912
 20
1.840499999999991
 30
0.0
 11
-4.651378672139911
 21
15.24793091689343
 31
0.0
  0
LINE
  5
21822
330
211BA
100
AcDbEntity
  8
2
 62
     0
370
    -2
100
AcDbLine
 10
4.651378672140026
 20
1.078499999999991
 30
0.0
 11
4.651378672140027
 21
15.24793091689343
 31
0.0
  0
LINE
  5
21823
330
211BA
100
AcDbEntity
  8
2
 62
     0
370
    -2
100
AcDbLine
 10
7.151378672140027
 20
15.06793091689343
 30
0.0
 11
9.651378672140026
 21
15.06793091689343
 31
0.0
  0
LINE
  5
21824
330
211BA
100
AcDbEntity
  8
2
 62
     0
370
    -2
100
AcDbLine
 10
-7.151378672139911
 20
15.06793091689343
 30
0.0
 11
-19.04009265667964
 21
15.06793091689343
 31
0.0
  0
LINE
  5
21825
330
211BA
100
AcDbEntity
  8
2
 62
     0
370
    -2
100
AcDbLine
 10
4.651378672140027
 20
15.06793091689343
 30
0.0
 11
-4.651378672139911
 21
15.06793091689343
 31
0.0
  0
SOLID
  5
21826
330
211BA
100
AcDbEntity
  8
2
 62
     0
100
AcDbTrace
 10
7.151378672140027
 20
15.4845975835601
 30
0.0
 11
7.151378672140027
 21
14.65126425022676
 31
0.0
 12
4.651378672140027
 22
15.06793091689343
 32
0.0
 13
4.651378672140027
 23
15.06793091689343
 33
0.0
  0
SOLID
  5
21827
330
211BA
100
AcDbEntity
  8
2
 62
     0
100
AcDbTrace
 10
-7.151378672139911
 20
15.4845975835601
 30
0.0
 11
-7.151378672139911
 21
14.65126425022676
 31
0.0
 12
-4.651378672139911
 22
15.06793091689343
 32
0.0
 13
-4.651378672139911
 23
15.06793091689343
 33
0.0
  0
MTEXT
  5
21828
330
211BA
100
AcDbEntity
  8
2
 62
     0
100
AcDbMText
 10
-15.55880664121935
 20
16.96942072715344
 30
0.0
 40
3.5
 41
0.0
 71
     5
 72
     1
  1
\A1;9.3
 73
     1
 44
1.0
1001
ACAD
1000
MTEXTBEGIN
1070
    73
1070
     1
1070
    44
1040
1.0
1070
    74
1070
     0
1000
MTEXTEND
  0
POINT
  5
21829
330
211BA
100
AcDbEntity
  8
Defpoints
 62
     0
100
AcDbPoint
 10
-4.651378672139912
 20
1.777999999999991
 30
0.0
  0
POINT
  5
2182A
330
211BA
100
AcDbEntity
  8
Defpoints
 62
     0
100
AcDbPoint
 10
4.651378672140026
 20
1.015999999999991
 30
0.0
  0
POINT
  5
2182B
330
211BA
100
AcDbEntity
  8
Defpoints
 62
     0
100
AcDbPoint
 10
4.651378672140027
 20
15.06793091689343
 30
0.0
  0
ENDBLK
  5
211BC
330
211BA
100
AcDbEntity
  8
0
100
AcDbBlockEnd
  0
BLOCK
  5
211C7
330
211C6
100
AcDbEntity
  8
0
100
AcDbBlockBegin
  2
*D25
 70
     1
 10
0.0
 20
0.0
 30
0.0
  3
*D25
  1

  0
LINE
  5
2182C
330
211C6
100
AcDbEntity
  8
SKVIEW2
 62
     0
370
    -2
100
AcDbLine
 10
29.42716650428008
 20
-3.672927286660005
 30
0.0
 11
29.42716650428008
 21
-10.39348528320726
 31
0.0
  0
LINE
  5
2182D
330
211C6
100
AcDbEntity
  8
SKVIEW2
 62
     0
370
    -2
100
AcDbLine
 10
25.60446650428003
 20
-3.107303642940003
 30
0.0
 11
25.60446650428003
 21
-10.39348528320726
 31
0.0
  0
LINE
  5
2182E
330
211C6
100
AcDbEntity
  8
SKVIEW2
 62
     0
370
    -2
100
AcDbLine
 10
23.10446650428003
 20
-10.21348528320726
 30
0.0
 11
20.60446650428003
 21
-10.21348528320726
 31
0.0
  0
LINE
  5
2182F
330
211C6
100
AcDbEntity
  8
SKVIEW2
 62
     0
370
    -2
100
AcDbLine
 10
31.92716650428008
 20
-10.21348528320726
 30
0.0
 11
45.05453122669757
 21
-10.21348528320726
 31
0.0
  0
LINE
  5
21830
330
211C6
100
AcDbEntity
  8
SKVIEW2
 62
     0
370
    -2
100
AcDbLine
 10
25.60446650428003
 20
-10.21348528320726
 30
0.0
 11
29.42716650428008
 21
-10.21348528320726
 31
0.0
  0
SOLID
  5
21831
330
211C6
100
AcDbEntity
  8
SKVIEW2
 62
     0
100
AcDbTrace
 10
23.10446650428003
 20
-9.796818616540596
 30
0.0
 11
23.10446650428003
 21
-10.63015194987393
 31
0.0
 12
25.60446650428003
 22
-10.21348528320726
 32
0.0
 13
25.60446650428003
 23
-10.21348528320726
 33
0.0
  0
SOLID
  5
21832
330
211C6
100
AcDbEntity
  8
SKVIEW2
 62
     0
100
AcDbTrace
 10
31.92716650428008
 20
-9.796818616540596
 30
0.0
 11
31.92716650428008
 21
-10.63015194987393
 31
0.0
 12
29.42716650428008
 22
-10.21348528320726
 32
0.0
 13
29.42716650428008
 23
-10.21348528320726
 33
0.0
  0
MTEXT
  5
21833
330
211C6
100
AcDbEntity
  8
SKVIEW2
 62
     0
100
AcDbMText
 10
40.34738435389363
 20
-8.311995472947248
 30
0.0
 40
3.5
 41
0.0
 71
     5
 72
     1
  1
\A1;3.82
 73
     1
 44
1.0
1001
ACAD
1000
MTEXTBEGIN
1070
    73
1070
     1
1070
    44
1040
1.0
1070
    74
1070
     0
1000
MTEXTEND
  0
POINT
  5
21834
330
211C6
100
AcDbEntity
  8
Defpoints
 62
     0
100
AcDbPoint
 10
29.42716650428008
 20
-3.610427286660005
 30
0.0
  0
POINT
  5
21835
330
211C6
100
AcDbEntity
  8
Defpoints
 62
     0
100
AcDbPoint
 10
25.60446650428003
 20
-3.044803642940003
 30
0.0
  0
POINT
  5
21836
330
211C6
100
AcDbEntity
  8
Defpoints
 62
     0
100
AcDbPoint
 10
25.60446650428003
 20
-10.21348528320726
 30
0.0
  0
ENDBLK
  5
211C8
330
211C6
100
AcDbEntity
  8
0
100
AcDbBlockEnd
  0
BLOCK
  5
211D3
330
211D2
100
AcDbEntity
  8
0
100
AcDbBlockBegin
  2
*D26
 70
     1
 10
0.0
 20
0.0
 30
0.0
  3
*D26
  1

  0
LINE
  5
21837
330
211D2
100
AcDbEntity
  8
2
 62
     0
370
    -2
100
AcDbLine
 10
-1.951883976360022
 20
0.0626542998799948
 30
0.0
 11
-1.951883976360022
 21
7.520925891665449
 31
0.0
  0
LINE
  5
21838
330
211D2
100
AcDbEntity
  8
2
 62
     0
370
    -2
100
AcDbLine
 10
1.951883976380031
 20
0.0623457001199981
 30
0.0
 11
1.951883976380031
 21
7.520925891665449
 31
0.0
  0
LINE
  5
21839
330
211D2
100
AcDbEntity
  8
2
 62
     0
370
    -2
100
AcDbLine
 10
4.451883976380031
 20
7.340925891665449
 30
0.0
 11
6.951883976380031
 21
7.340925891665449
 31
0.0
  0
LINE
  5
2183A
330
211D2
100
AcDbEntity
  8
2
 62
     0
370
    -2
100
AcDbLine
 10
-4.451883976360022
 20
7.340925891665449
 30
0.0
 11
-16.40356352660596
 21
7.340925891665449
 31
0.0
  0
LINE
  5
2183B
330
211D2
100
AcDbEntity
  8
2
 62
     0
370
    -2
100
AcDbLine
 10
1.951883976380031
 20
7.340925891665449
 30
0.0
 11
-1.951883976360022
 21
7.340925891665449
 31
0.0
  0
SOLID
  5
2183C
330
211D2
100
AcDbEntity
  8
2
 62
     0
100
AcDbTrace
 10
4.451883976380031
 20
7.757592558332116
 30
0.0
 11
4.451883976380031
 21
6.924259224998782
 31
0.0
 12
1.951883976380031
 22
7.340925891665449
 32
0.0
 13
1.951883976380031
 23
7.340925891665449
 33
0.0
  0
SOLID
  5
2183D
330
211D2
100
AcDbEntity
  8
2
 62
     0
100
AcDbTrace
 10
-4.451883976360022
 20
7.757592558332116
 30
0.0
 11
-4.451883976360022
 21
6.924259224998782
 31
0.0
 12
-1.951883976360022
 22
7.340925891665449
 32
0.0
 13
-1.951883976360022
 23
7.340925891665449
 33
0.0
  0
MTEXT
  5
2183E
330
211D2
100
AcDbEntity
  8
2
 62
     0
100
AcDbMText
 10
-12.89374623918502
 20
9.242415701925462
 30
0.0
 40
3.5
 41
0.0
 71
     5
 72
     1
  1
\A1;3.9
 73
     1
 44
1.0
1001
ACAD
1000
MTEXTBEGIN
1070
    73
1070
     1
1070
    44
1040
1.0
1070
    74
1070
     0
1000
MTEXTEND
  0
POINT
  5
2183F
330
211D2
100
AcDbEntity
  8
Defpoints
 62
     0
100
AcDbPoint
 10
-1.951883976360022
 20
0.0001542998799948
 30
0.0
  0
POINT
  5
21840
330
211D2
100
AcDbEntity
  8
Defpoints
 62
     0
100
AcDbPoint
 10
1.951883976380031
 20
-0.0001542998800019
 30
0.0
  0
POINT
  5
21841
330
211D2
100
AcDbEntity
  8
Defpoints
 62
     0
100
AcDbPoint
 10
1.951883976380031
 20
7.340925891665449
 30
0.0
  0
ENDBLK
  5
211D4
330
211D2
100
AcDbEntity
  8
0
100
AcDbBlockEnd
  0
BLOCK
  5
214C2
330
214C1
100
AcDbEntity
  8
0
100
AcDbBlockBegin
  2
*D27
 70
     1
 10
0.0
 20
0.0
 30
0.0
  3
*D27
  1

  0
LINE
  5
21842
330
214C1
100
AcDbEntity
  8
2
 62
     0
370
    -2
100
AcDbLine
 10
5.883246742495465
 20
-5.703429199108615
 30
0.0
 11
10.56658953771496
 21
-9.915087069927238
 31
0.0
  0
SOLID
  5
21843
330
214C1
100
AcDbEntity
  8
2
 62
     0
100
AcDbTrace
 10
6.16185956453694
 20
-5.393613114140134
 30
0.0
 11
5.604633920453991
 21
-6.013245284077095
 31
0.0
 12
4.024350232684582
 22
-4.031752266859768
 32
0.0
 13
4.024350232684582
 23
-4.031752266859768
 33
0.0
  0
MTEXT
  5
21844
330
214C1
100
AcDbEntity
  8
2
 62
     0
100
AcDbMText
 10
10.39212157615717
 20
-7.268718939476488
 30
0.0
 40
3.5
 41
0.0
 71
     5
 72
     1
  1
\A1;R1
 11
0.7435586039243535
 21
-0.6686707728995387
 31
0.0
 73
     1
 44
1.0
1001
ACAD
1000
MTEXTBEGIN
1070
    73
1070
     1
1070
    44
1040
1.0
1070
    74
1070
     0
1000
MTEXTEND
  0
LINE
  5
21845
330
214C1
100
AcDbEntity
  8
2
 62
     0
370
    -2
100
AcDbLine
 10
3.190791628759858
 20
-3.363081493959897
 30
0.0
 11
3.370791628759858
 21
-3.363081493959896
 31
0.0
  0
LINE
  5
21846
330
214C1
100
AcDbEntity
  8
2
 62
     0
370
    -2
100
AcDbLine
 10
3.280791628759857
 20
-3.453081493959896
 30
0.0
 11
3.280791628759858
 21
-3.273081493959896
 31
0.0
  0
POINT
  5
21847
330
214C1
100
AcDbEntity
  8
Defpoints
 62
     0
100
AcDbPoint
 10
4.024350232684582
 20
-4.031752266859768
 30
0.0
  0
POINT
  5
21848
330
214C1
100
AcDbEntity
  8
Defpoints
 62
     0
100
AcDbPoint
 10
3.280791628759858
 20
-3.363081493959896
 30
0.0
  0
ENDBLK
  5
214C3
330
214C1
100
AcDbEntity
  8
0
100
AcDbBlockEnd
  0
ENDSEC
  0
SECTION
  2
ENTITIES
  0
LINE
  5
20B14
330
1F
100
AcDbEntity
  8
INFTOTAL
370
    18
100
AcDbLine
 10
59.68380408362418
 20
-42.50594454232902
 30
0.0
 11
59.68380408362418
 21
-17.18376447277094
 31
0.0
  0
LINE
  5
20B15
330
1F
100
AcDbEntity
  8
INFTOTAL
370
    18
100
AcDbLine
 10
-32.32672687959939
 20
29.34606337841791
 30
0.0
 11
-4.011012852593466
 21
29.34606337841791
 31
0.0
  0
LINE
  5
20B16
330
1F
100
AcDbEntity
  8
INFTOTAL
370
    18
100
AcDbLine
 10
33.5362084143128
 20
-42.50594454232902
 30
0.0
 11
59.68380408362418
 21
-42.50594454232902
 31
0.0
  0
LINE
  5
20B17
330
1F
100
AcDbEntity
  8
INFTOTAL
370
    18
100
AcDbLine
 10
-32.32672687959939
 20
3.426997738189342
 30
0.0
 11
-32.32672687959939
 21
29.34606337841785
 31
0.0
  0
DIMENSION
  5
2104B
330
1F
100
AcDbEntity
  8
2
100
AcDbDimension
  2
*D23
 10
14.19632639261408
 20
-4.651378672140009
 30
0.0
 11
14.19632639261408
 21
-15.55880664121928
 31
0.0
 70
   160
  1
9.3
 71
     5
 42
9.302757344280003
  3
STANDARD
100
AcDbAlignedDimension
 13
1.77800000000002
 23
4.651378672139998
 33
0.0
 14
1.016000000000076
 24
-4.651378672140005
 34
0.0
 50
270.0
100
AcDbRotatedDimension
1001
ACAD
1000
DSTYLE
1002
{
1070
    41
1040
2.5
1070
   172
1070
     1
1002
}
  0
DIMENSION
  5
2104C
330
1F
100
AcDbEntity
  8
2
100
AcDbDimension
  2
*D24
 10
4.651378672140027
 20
15.06793091689343
 30
0.0
 11
-15.55880664121935
 21
15.06793091689343
 31
0.0
 70
   160
  1
9.3
 71
     5
 42
9.302757344279939
  3
STANDARD
100
AcDbAlignedDimension
 13
-4.651378672139912
 23
1.777999999999991
 33
0.0
 14
4.651378672140026
 24
1.015999999999991
 34
0.0
100
AcDbRotatedDimension
1001
ACAD
1000
DSTYLE
1002
{
1070
    41
1040
2.5
1070
   172
1070
     1
1002
}
  0
DIMENSION
  5
2104D
330
1F
100
AcDbEntity
  8
SKVIEW2
100
AcDbDimension
  2
*D25
 10
25.60446650428003
 20
-10.21348528320726
 30
0.0
 11
40.34738435389363
 21
-10.21348528320726
 31
0.0
 70
   160
  1
3.82
 71
     5
 42
3.822700000000054
  3
STANDARD
100
AcDbAlignedDimension
 13
29.42716650428008
 23
-3.610427286660005
 33
0.0
 14
25.60446650428003
 24
-3.044803642940003
 34
0.0
 50
180.0
100
AcDbRotatedDimension
1001
ACAD
1000
DSTYLE
1002
{
1070
    41
1040
2.5
1070
   172
1070
     1
1002
}
  0
DIMENSION
  5
2104E
330
1F
100
AcDbEntity
  8
2
100
AcDbDimension
  2
*D26
 10
1.951883976380031
 20
7.340925891665449
 30
0.0
 11
-12.89374623918502
 21
7.340925891665449
 31
0.0
 70
   160
  1
3.9
 71
     5
 42
3.903767952740054
  3
STANDARD
100
AcDbAlignedDimension
 13
-1.951883976360022
 23
0.0001542998799948
 33
0.0
 14
1.951883976380031
 24
-0.0001542998800019
 34
0.0
100
AcDbRotatedDimension
1001
ACAD
1000
DSTYLE
1002
{
1070
    41
1040
2.5
1070
   172
1070
     1
1002
}
  0
TEXT
  5
2104F
330
1F
100
AcDbEntity
  8
SK6
100
AcDbText
 10
3.561013334680911
 20
-29.47369057352734
 30
0.0
 40
3.5
  1
SDXS0904MPR-MRH
 41
0.8158730159
 72
     1
 11
22.11811101625039
 21
-29.47369057352734
 31
0.0
100
AcDbText
  0
LINE
  5
21052
330
1F
100
AcDbEntity
  8
1
100
AcDbLine
 10
-4.617422170519944
 20
2.10107453194
 30
0.0
 11
-4.30688149639991
 21
3.562053537659998
 31
0.0
  0
LINE
  5
21053
330
1F
100
AcDbEntity
  8
1
100
AcDbLine
 10
-2.101074531919948
 20
-4.617422170520001
 30
0.0
 11
-3.56205353763994
 21
-4.306881496400002
 31
0.0
  0
LINE
  5
21054
330
1F
100
AcDbEntity
  8
1
100
AcDbLine
 10
-4.651378672139912
 20
-1.016000000000005
 30
0.0
 11
-4.651378672139912
 21
1.777999999999991
 31
0.0
  0
LINE
  5
21055
330
1F
100
AcDbEntity
  8
1
100
AcDbLine
 10
-4.56288025916001
 20
-1.016000000000005
 30
0.0
 11
-4.56288025916001
 21
1.777999999999991
 31
0.0
  0
LINE
  5
21056
330
1F
100
AcDbEntity
  8
1
100
AcDbLine
 10
-4.530857660199899
 20
2.082674677260001
 30
0.0
 11
-4.22031698605997
 21
3.543653682979993
 31
0.0
  0
LINE
  5
21057
330
1F
100
AcDbEntity
  8
1
100
AcDbLine
 10
1.016000000000076
 20
-4.651378672140005
 30
0.0
 11
-1.77800000000002
 21
-4.651378672140005
 31
0.0
  0
LINE
  5
21058
330
1F
100
AcDbEntity
  8
1
100
AcDbLine
 10
1.016000000000076
 20
-4.562880259159996
 30
0.0
 11
-1.77800000000002
 21
-4.562880259159996
 31
0.0
  0
LINE
  5
21059
330
1F
100
AcDbEntity
  8
1
100
AcDbLine
 10
-2.082674677239992
 20
-4.530857660199998
 30
0.0
 11
-3.543653682959984
 21
-4.220316986059998
 31
0.0
  0
LWPOLYLINE
  5
2105A
330
1F
100
AcDbEntity
  8
1
100
AcDbPolyline
 90
        4
 70
     0
 43
0.0
 10
-2.486079707219914
 20
0.9214782304999928
 10
-2.517240847159996
 20
0.8025428535199949
 10
-2.527137428599985
 20
0.766063585779996
 10
-2.53689601845997
 20
0.7316345597799981
  0
LWPOLYLINE
  5
2105B
330
1F
100
AcDbEntity
  8
1
100
AcDbPolyline
 90
        7
 70
     0
 43
0.0
 10
-2.479029939680003
 20
1.317912736940002
 10
-2.523268866099897
 20
1.231234031339994
 10
-2.564410043019961
 20
1.143171138699997
 10
-2.602476342539944
 20
1.053667026419994
 10
-2.637399148359918
 20
0.962892792319991
 10
-2.669109844199965
 20
0.8710195341999948
 10
-2.697631302159948
 20
0.7779902194999977
  0
LWPOLYLINE
  5
2105C
330
1F
100
AcDbEntity
  8
1
100
AcDbPolyline
 90
       10
 70
     0
 43
0.0
 10
-2.361704868679908
 20
1.255539869659997
 10
-2.377582303099984
 20
1.22461434262
 10
-2.393427139899927
 20
1.191317234599992
 10
-2.409243412219893
 20
1.155222017279996
 10
-2.424400911879956
 20
1.117470566639994
 10
-2.438532411539995
 20
1.079016363699999
 10
-2.451689776479952
 20
1.03997076441999
 10
-2.463834223699905
 20
1.000845993819993
 10
-2.475203550380001
 20
0.9614134011799961
 10
-2.486079707219914
 20
0.9214782304999928
  0
LWPOLYLINE
  5
2105D
330
1F
100
AcDbEntity
  8
1
100
AcDbPolyline
 90
        7
 70
     0
 43
0.0
 10
-0.7779902194799888
 20
2.697631302179992
 10
-0.8710206343199615
 20
2.669109460739996
 10
-0.9628945395999153
 20
2.637398511819995
 10
-1.053668955799935
 20
2.602475561760002
 10
-1.143172821419966
 20
2.56440929152
 10
-1.231235074959954
 20
2.523268382059995
 10
-1.317912736939888
 20
2.479029939699998
  0
LWPOLYLINE
  5
2105E
330
1F
100
AcDbEntity
  8
1
100
AcDbPolyline
 90
        3
 70
     0
 43
0.0
 10
0.7316345597801046
 20
-2.536896018459998
 10
0.7653038158200616
 20
-2.527347872060005
 10
0.8011394970800438
 20
-2.517615047740001
  0
LWPOLYLINE
  5
2105F
330
1F
100
AcDbEntity
  8
1
100
AcDbPolyline
 90
       10
 70
     0
 43
0.0
 10
0.9189013223400479
 20
-2.48676582142
 10
0.9587277694400881
 20
-2.475952096280003
 10
0.9981072609200509
 20
-2.464649644860003
 10
1.037255390980021
 20
-2.452564334279998
 10
1.076381524499993
 20
-2.439456243920005
 10
1.115037859600079
 20
-2.425332427800007
 10
1.153186920820076
 20
-2.41009539526
 10
1.189829520279999
 20
-2.394106226719998
 10
1.223801711319993
 20
-2.377984097500004
 10
1.255539869660083
 20
-2.361704868680007
  0
LINE
  5
21060
330
1F
100
AcDbEntity
  8
1
100
AcDbLine
 10
0.8011394970800438
 20
-2.517615047740001
 30
0.0
 11
0.9189013223400479
 21
-2.48676582142
 31
0.0
  0
LWPOLYLINE
  5
21061
330
1F
100
AcDbEntity
  8
1
100
AcDbPolyline
 90
        4
 70
     0
 43
0.0
 10
-0.9214782304999289
 20
-2.48607970722
 10
-0.8025428534999718
 20
-2.517240847160003
 10
-0.7660635857599801
 20
-2.527137428600006
 10
-0.731634559779991
 20
-2.536896018459998
  0
LWPOLYLINE
  5
21062
330
1F
100
AcDbEntity
  8
1
100
AcDbPolyline
 90
        7
 70
     0
 43
0.0
 10
-1.317912736939888
 20
-2.479029939680003
 10
-1.2312340313199
 20
-2.523268866100004
 10
-1.143171138679917
 20
-2.564410043020004
 10
-1.053667026399921
 20
-2.602476342540001
 10
-0.9628927922999537
 20
-2.637399148360003
 10
-0.8710195341999451
 20
-2.669109844200008
 10
-0.7779902194799888
 20
-2.697631302160004
  0
LWPOLYLINE
  5
21063
330
1F
100
AcDbEntity
  8
1
100
AcDbPolyline
 90
       10
 70
     0
 43
0.0
 10
-1.25553986963996
 20
-2.361704868680007
 10
-1.224614342619929
 20
-2.377582303100005
 10
-1.191317234579969
 20
-2.393427139900005
 10
-1.155222017259916
 20
-2.409243412220007
 10
-1.117470566619999
 20
-2.424400911879999
 10
-1.079016363680011
 20
-2.438532411540002
 10
-1.039970764399981
 20
-2.451689776480009
 10
-1.000845993799998
 20
-2.463834223700004
 10
-0.9614134011799251
 20
-2.475203550380001
 10
-0.9214782304999289
 20
-2.48607970722
  0
LWPOLYLINE
  5
21064
330
1F
100
AcDbEntity
  8
1
100
AcDbPolyline
 90
        7
 70
     0
 43
0.0
 10
-2.697631302159948
 20
-0.7779902194800031
 10
-2.669109460719937
 20
-0.8710206343200042
 10
-2.637398511799915
 20
-0.9628945396000005
 10
-2.602475561739993
 20
-1.053668955800006
 10
-2.564409291499941
 20
-1.143172821420002
 10
-2.523268382039987
 20
-1.231235074960004
 10
-2.479029939680003
 20
-1.317912736940002
  0
LWPOLYLINE
  5
21065
330
1F
100
AcDbEntity
  8
1
100
AcDbPolyline
 90
        3
 70
     0
 43
0.0
 10
-2.53689601845997
 20
-0.7316345597800052
 10
-2.527347872059976
 20
-0.765303815800003
 10
-2.517615047739923
 20
-0.8011394970800012
  0
LWPOLYLINE
  5
21066
330
1F
100
AcDbEntity
  8
1
100
AcDbPolyline
 90
       10
 70
     0
 43
0.0
 10
-2.486765821419908
 20
-0.9189013223200035
 10
-2.475952096279911
 20
-0.9587277694200011
 10
-2.464649644859946
 20
-0.9981072609000065
 10
-2.452564334279941
 20
-1.037255390960005
 10
-2.439456243919948
 20
-1.076381524480005
 10
-2.425332427799958
 20
-1.115037859600001
 10
-2.410095395259986
 20
-1.153186920800003
 10
-2.394106226719941
 20
-1.189829520279999
 10
-2.377984097499961
 20
-1.223801711320007
 10
-2.361704868679908
 20
-1.255539869640003
  0
LINE
  5
21067
330
1F
100
AcDbEntity
  8
1
100
AcDbLine
 10
-2.517615047739923
 20
-0.8011394970800012
 30
0.0
 11
-2.486765821419908
 21
-0.9189013223200035
 31
0.0
  0
LINE
  5
21068
330
1F
100
AcDbEntity
  8
1
100
AcDbLine
 10
-3.56205353763994
 20
-4.306881496400002
 30
0.0
 11
-3.543653682959984
 21
-4.220316986059998
 31
0.0
  0
LWPOLYLINE
  5
21069
330
1F
100
AcDbEntity
  8
1
100
AcDbPolyline
 90
       13
 70
     0
 43
0.0
 10
-2.186761239679981
 20
1.162535572619994
 10
-2.205489537759945
 20
1.127172764459999
 10
-2.224853551779915
 20
1.089889294919991
 10
-2.24489161391989
 20
1.050203701079993
 10
-2.264731363659961
 20
1.009370771939998
 10
-2.283635822140013
 20
0.9685031074199912
 10
-2.301525998839906
 20
0.9274137797999983
 10
-2.3181718395399
 20
0.8863689274799924
 10
-2.333699388099944
 20
0.8451625637800006
 10
-2.348419922859989
 20
0.8030931311599971
 10
-2.361801649659923
 20
0.761952072699998
 10
-2.373452793459932
 20
0.7236070069199983
 10
-2.383775035639928
 20
0.6874748456999953
  0
LWPOLYLINE
  5
2106A
330
1F
100
AcDbEntity
  8
1
100
AcDbPolyline
 90
       11
 70
     0
 43
0.0
 10
-1.996690657619978
 20
1.061489418619999
 10
-2.026720989239947
 20
1.0104951542
 10
-2.059263489759928
 20
0.9630171434199894
 10
-2.092423019299985
 20
0.9185841152199998
 10
-2.124697557739978
 20
0.8767160267399987
 10
-2.154609034719896
 20
0.8373732884199966
 10
-2.182104643999991
 20
0.799184039919993
 10
-2.207458689799977
 20
0.7605066959999931
 10
-2.228999291799937
 20
0.7225817938599946
 10
-2.2457741625999
 20
0.6862898662399957
 10
-2.257823588039968
 20
0.6511507585999965
  0
LWPOLYLINE
  5
2106B
330
1F
100
AcDbEntity
  8
1
100
AcDbPolyline
 90
       11
 70
     0
 43
0.0
 10
-0.6511507585998971
 20
2.257823588059991
 10
-0.6873253464399341
 20
2.24535376352
 10
-0.7242772920399148
 20
2.228118240939998
 10
-0.7624431234598888
 20
2.20626324826
 10
-0.8011194972199291
 20
2.180762313719995
 10
-0.8392317859600098
 20
2.153224318659994
 10
-0.8783748510199984
 20
2.123417961719994
 10
-0.9199020001199187
 20
2.091415720719993
 10
-0.9639156600399019
 20
2.058615082639995
 10
-1.010967298359901
 20
2.026417363299998
 10
-1.061489418619999
 20
1.996690657639994
  0
LINE
  5
2106C
330
1F
100
AcDbEntity
  8
1
100
AcDbLine
 10
4.282934544820022
 20
3.634845561359995
 30
0.0
 11
4.197871527180041
 21
3.61042728684
 31
0.0
  0
LWPOLYLINE
  5
2106D
330
1F
100
AcDbEntity
  8
1
100
AcDbPolyline
 90
       13
 70
     0
 43
0.0
 10
-0.687474845679958
 20
2.383775035639992
 10
-0.722781152180005
 20
2.373695587019994
 10
-0.7604637797599026
 20
2.362268129299998
 10
-0.801089418179913
 20
2.349094128259991
 10
-0.8428151967199255
 20
2.334550020720001
 10
-0.8838985594600217
 20
2.319135302020001
 10
-0.9249517518599077
 20
2.302559192059987
 10
-0.9660848033399815
 20
2.284721233099993
 10
-1.007113377379937
 20
2.265801907919993
 10
-1.0482879292
 20
2.245841345039991
 10
-1.088466080519992
 20
2.225583266759997
 10
-1.126384820379939
 20
2.205903258120002
 10
-1.162535572599949
 20
2.186761239699997
  0
LINE
  5
2106F
330
1F
100
AcDbEntity
  8
1
100
AcDbLine
 10
4.306881496400023
 20
-3.562053537640004
 30
0.0
 11
4.220316986079978
 21
-3.543653682960005
 31
0.0
  0
LWPOLYLINE
  5
21070
330
1F
100
AcDbEntity
  8
1
100
AcDbPolyline
 90
       13
 70
     0
 43
0.0
 10
-1.162535572599949
 20
-2.186761239680009
 10
-1.127172764439933
 20
-2.205489537760001
 10
-1.08988929489999
 20
-2.22485355178
 10
-1.050203701059899
 20
-2.244891613920003
 10
-1.009370771919975
 20
-2.264731363660004
 10
-0.9685031074000107
 20
-2.283635822140006
 10
-0.9274137797799539
 20
-2.301525998840006
 10
-0.8863689274598982
 20
-2.318171839540006
 10
-0.8451625637599136
 20
-2.333699388100001
 10
-0.803093131159926
 20
-2.348419922860003
 10
-0.7619520726999554
 20
-2.361801649660009
 10
-0.7236070069000107
 20
-2.373452793460003
 10
-0.687474845679958
 20
-2.383775035640006
  0
LWPOLYLINE
  5
21071
330
1F
100
AcDbEntity
  8
1
100
AcDbPolyline
 90
       11
 70
     0
 43
0.0
 10
-1.061489418619999
 20
-1.996690657620007
 10
-1.01049515417992
 20
-2.026720989240004
 10
-0.9630171433999521
 20
-2.059263489760006
 10
-0.9185841152000193
 20
-2.092423019300007
 10
-0.8767160267199187
 20
-2.124697557740006
 10
-0.8373732883999309
 20
-2.154609034720003
 10
-0.7991840398999557
 20
-2.182104644000006
 10
-0.7605066959799843
 20
-2.207458689800006
 10
-0.722581793839936
 20
-2.228999291800001
 10
-0.6862898662199087
 20
-2.245774162600007
 10
-0.6511507585998971
 20
-2.257823588040004
  0
LWPOLYLINE
  5
21072
330
1F
100
AcDbEntity
  8
1
100
AcDbPolyline
 90
       11
 70
     0
 43
0.0
 10
-2.257823588039968
 20
-0.6511507586000036
 10
-2.245353763499906
 20
-0.6873253464400051
 10
-2.228118240919911
 20
-0.7242772920400072
 10
-2.206263248259915
 20
-0.7624431234600025
 10
-2.180762313719924
 20
-0.8011194972200001
 10
-2.153224318660022
 20
-0.8392317859600026
 10
-2.123417961699942
 20
-0.8783748510200055
 10
-2.091415720699956
 20
-0.919902000120004
 10
-2.058615082620008
 20
-0.9639156600400085
 10
-2.02641736329997
 20
-1.010967298360007
 10
-1.996690657619978
 20
-1.061489418619999
  0
LINE
  5
21073
330
1F
100
AcDbEntity
  8
1
100
AcDbLine
 10
-3.634845561359952
 20
4.282934544819994
 30
0.0
 11
-3.610427286839922
 21
4.197871527179991
 31
0.0
  0
LWPOLYLINE
  5
21074
330
1F
100
AcDbEntity
  8
1
100
AcDbPolyline
 90
       13
 70
     0
 43
0.0
 10
-2.383775035639928
 20
-0.6874748456800078
 10
-2.373695586999929
 20
-0.722781152180005
 10
-2.362268129279982
 20
-0.7604637797600021
 10
-2.349094128259935
 20
-0.8010894181800054
 10
-2.334550020699907
 20
-0.8428151967200037
 10
-2.319135301999949
 20
-0.8838985594600003
 10
-2.302559192040007
 20
-0.9249517518600072
 10
-2.284721233079949
 20
-0.96608480334001
 10
-2.265801907899913
 20
-1.007113377380001
 10
-2.245841345019925
 20
-1.0482879292
 10
-2.225583266739931
 20
-1.088466080520007
 10
-2.205903258099965
 20
-1.126384820379996
 10
-2.186761239679981
 20
-1.162535572600006
  0
LWPOLYLINE
  5
21075
330
1F
100
AcDbEntity
  8
1
100
AcDbPolyline
 90
        7
 70
     0
 43
0.0
 10
-1.951128045979999
 20
-0.6167747353600035
 10
-1.952049632119951
 20
-0.6068338691000008
 10
-1.952846422959964
 20
-0.5973590454200064
 10
-1.953535298919973
 20
-0.5883294601400025
 10
-1.954128989799983
 20
-0.579753377080003
 10
-1.954641453659974
 20
-0.5716331567199973
 10
-1.955082953539886
 20
-0.5639551816200026
  0
LWPOLYLINE
  5
21076
330
1F
100
AcDbEntity
  8
1
100
AcDbPolyline
 90
        3
 70
     0
 43
0.0
 10
-1.955087028179946
 20
-0.5639563727400017
 10
-1.955191537199993
 20
-0.5568568825800071
 10
-1.955242328039958
 20
-0.5498061741000058
  0
LINE
  5
21077
330
1F
100
AcDbEntity
  8
1
100
AcDbLine
 10
-1.952932244039971
 20
0.2945963610799964
 30
0.0
 11
-1.955239855660011
 21
0.5428186461399918
 31
0.0
  0
LINE
  5
21078
330
1F
100
AcDbEntity
  8
1
100
AcDbLine
 10
-1.951947179799958
 20
0.0721899034799947
 30
0.0
 11
-1.952932244039971
 21
0.2945963610799964
 31
0.0
  0
LWPOLYLINE
  5
21079
330
1F
100
AcDbEntity
  8
1
100
AcDbPolyline
 90
        3
 70
     0
 43
0.0
 10
-1.955239855660011
 20
0.5428186461399918
 10
-1.955242328899885
 20
0.549806132439997
 10
-1.955192004880018
 20
0.5568142178599942
  0
LINE
  5
2107A
330
1F
100
AcDbEntity
  8
1
100
AcDbLine
 10
-1.943099999999958
 20
-0.5603796519800071
 30
0.0
 11
-1.943099999999958
 21
0.5603855860399918
 31
0.0
  0
LINE
  5
2107B
330
1F
100
AcDbEntity
  8
1
100
AcDbLine
 10
-1.77800000000002
 20
-4.651378672140005
 30
0.0
 11
-1.77800000000002
 21
-4.562880259159996
 31
0.0
  0
LINE
  5
2107C
330
1F
100
AcDbEntity
  8
1
100
AcDbLine
 10
-1.955242328039958
 20
-0.5498061741000058
 30
0.0
 11
-1.95523990943991
 21
-0.5428044898600036
 31
0.0
  0
LINE
  5
2107D
330
1F
100
AcDbEntity
  8
1
100
AcDbLine
 10
-1.952094566139976
 20
-0.1451618012600022
 30
0.0
 11
-1.951947179799958
 21
0.0721899034799947
 31
0.0
  0
LWPOLYLINE
  5
2107E
330
1F
100
AcDbEntity
  8
1
100
AcDbPolyline
 90
        3
 70
     0
 43
0.0
 10
-1.95523990943991
 20
-0.5428044898600036
 10
-1.95353476345997
 20
-0.3733286269000047
 10
-1.952094566139976
 20
-0.1451618012600022
  0
LINE
  5
2107F
330
1F
100
AcDbEntity
  8
1
100
AcDbLine
 10
-1.955192004880018
 20
0.5568142178599942
 30
0.0
 11
-1.955088682099926
 21
0.5638425926599951
 31
0.0
  0
LWPOLYLINE
  5
21080
330
1F
100
AcDbEntity
  8
1
100
AcDbPolyline
 90
        7
 70
     0
 43
0.0
 10
-1.955088687959914
 20
0.5638425943399952
 10
-1.954609447759935
 20
0.5721720268599953
 10
-1.954051205699897
 20
0.5809249120399969
 10
-1.953405700659914
 20
0.5900956321600006
 10
-1.952654808799934
 20
0.5997237704399936
 10
-1.951780334379918
 20
0.6098398423199925
 10
-1.95076249893998
 20
0.6204694006000011
  0
LWPOLYLINE
  5
21081
330
1F
100
AcDbEntity
  8
1
100
AcDbPolyline
 90
       20
 70
     0
 43
0.0
 10
-1.95076249893998
 20
0.6204694006000011
 10
-1.949579021559884
 20
0.6316403762799965
 10
-1.948206058959954
 20
0.6433755883599943
 10
-1.946616470060007
 20
0.6556997418799995
 10
-1.944782844739961
 20
0.6686293404199973
 10
-1.942674963739932
 20
0.6821703764199967
 10
-1.940257055219944
 20
0.6963666422599957
 10
-1.937488078219985
 20
0.7112383987799973
 10
-1.934322963300019
 20
0.7268478084399988
 10
-1.930706181859932
 20
0.743234047919998
 10
-1.926575135219991
 20
0.7604619873599959
 10
-1.921855548259941
 20
0.7786038207799991
 10
-1.916476748379977
 20
0.7976333243599925
 10
-1.910385288479915
 20
0.8175410813999945
 10
-1.903522343019972
 20
0.8382862085599924
 10
-1.895850876199915
 20
0.8597657800999982
 10
-1.887276550199999
 20
0.8820578324599921
 10
-1.87771806417993
 20
0.9051186898799983
 10
-1.867079109539986
 20
0.9290324855599934
 10
-1.855219834459944
 20
0.9538803712799932
  0
LWPOLYLINE
  5
21082
330
1F
100
AcDbEntity
  8
1
100
AcDbPolyline
 90
        4
 70
     0
 43
0.0
 10
-1.946031419079986
 20
0.5747743155599992
 10
-1.944271249459916
 20
0.578643561859991
 10
-1.943163130299922
 20
0.5825840058799941
 10
-1.942714287160015
 20
0.5865699536399945
  0
LINE
  5
21083
330
1F
100
AcDbEntity
  8
1
100
AcDbLine
 10
-1.855219834459944
 20
0.9538803712799932
 30
0.0
 11
-1.842143662079934
 21
0.9792835270399962
 31
0.0
  0
LWPOLYLINE
  5
21084
330
1F
100
AcDbEntity
  8
1
100
AcDbPolyline
 90
        7
 70
     0
 43
0.0
 10
-1.955184791339888
 20
0.5358520667399987
 10
-1.951544436319977
 20
0.5396830327199993
 10
-1.94853190985998
 20
0.5436535226999979
 10
-1.946167515139904
 20
0.5477367772399973
 10
-1.944467187139935
 20
0.5519052770199977
 10
-1.943442385339949
 20
0.5561309280999965
 10
-1.943100016459993
 20
0.5603852514200014
  0
LWPOLYLINE
  5
21085
330
1F
100
AcDbEntity
  8
1
100
AcDbPolyline
 90
        4
 70
     0
 43
0.0
 10
-0.5638427571999501
 20
1.955088680119999
 10
-0.5673497074599255
 20
1.951457828439998
 10
-0.571001497819907
 20
1.948432166839999
 10
-0.5747743165200064
 20
1.946031424319997
  0
LWPOLYLINE
  5
21086
330
1F
100
AcDbEntity
  8
1
100
AcDbPolyline
 90
        4
 70
     0
 43
0.0
 10
-1.955088675199931
 20
0.5638427557999961
 10
-1.95145782359998
 20
0.5673497061799964
 10
-1.948432161879964
 20
0.5710014966999993
 10
-1.946031419079986
 20
0.5747743155599992
  0
LWPOLYLINE
  5
21087
330
1F
100
AcDbEntity
  8
1
100
AcDbPolyline
 90
        7
 70
     0
 43
0.0
 10
-0.5358522511399997
 20
1.955185464079995
 10
-0.5396831794799937
 20
1.951544987939996
 10
-0.5436536321799395
 20
1.948532312999994
 10
-0.5477368515998933
 20
1.946167742619998
 10
-0.5519053202199303
 20
1.944467212419993
 10
-0.5561309459199038
 20
1.943442182799998
 10
-0.560385251400021
 20
1.943099561759993
  0
LINE
  5
21088
330
1F
100
AcDbEntity
  8
1
100
AcDbLine
 10
-0.9792907053799808
 20
1.842139804599995
 30
0.0
 11
-0.9559381925399748
 21
1.854192308919991
 31
0.0
  0
LWPOLYLINE
  5
21089
330
1F
100
AcDbEntity
  8
1
100
AcDbPolyline
 90
       22
 70
     0
 43
0.0
 10
-0.9559381925399748
 20
1.854192308919991
 10
-0.9330724238200218
 20
1.865204081279991
 10
-0.9109922966599697
 20
1.875175705719996
 10
-0.8896516248399848
 20
1.884208827519998
 10
-0.8690104531199267
 20
1.892371352159997
 10
-0.8490890492399785
 20
1.899737627999996
 10
-0.8298319697798888
 20
1.906382776939999
 10
-0.8112788101000205
 20
1.912353135059987
 10
-0.7934193972399726
 20
1.917705591939999
 10
-0.7762649747999149
 20
1.922484084279993
 10
-0.7598239553599342
 20
1.926737866299994
 10
-0.7440424778799298
 20
1.930519371499997
 10
-0.728862205339965
 20
1.933893167759997
 10
-0.7142781092200039
 20
1.936894182119999
 10
-0.700263914299967
 20
1.939554403359998
 10
-0.6868006349000098
 20
1.941910401899995
 10
-0.6738546331799853
 20
1.943992148899994
 10
-0.6614292379399558
 20
1.94582533834
 10
-0.6495132031999447
 20
1.947433515879993
 10
-0.6381037985199783
 20
1.948839564779994
 10
-0.6271944415399276
 20
1.950064266939996
 10
-0.616774735359968
 20
1.951128045999993
  0
LWPOLYLINE
  5
2108A
330
1F
100
AcDbEntity
  8
1
100
AcDbPolyline
 90
        4
 70
     0
 43
0.0
 10
-0.5747743165200064
 20
1.946031424319997
 10
-0.5786435625999502
 20
1.944271255160003
 10
-0.5825840063599799
 20
1.943163136639995
 10
-0.5865699538398986
 20
1.942714294319991
  0
LWPOLYLINE
  5
2108B
330
1F
100
AcDbEntity
  8
1
100
AcDbPolyline
 90
        7
 70
     0
 43
0.0
 10
0.6167747353600817
 20
-1.951128045979999
 10
0.6068338691000008
 20
-1.952049632120008
 10
0.5973590454400437
 20
-1.95284642296
 10
0.5883294601400167
 20
-1.953535298920002
 10
0.579753377100019
 20
-1.954128989800004
 10
0.5716331567200541
 20
-1.954641453660002
 10
0.563955181620031
 20
-1.955082953540006
  0
LWPOLYLINE
  5
2108C
330
1F
100
AcDbEntity
  8
1
100
AcDbPolyline
 90
        3
 70
     0
 43
0.0
 10
0.5639563727399946
 20
-1.955087028180003
 10
0.556856882580064
 20
-1.955191537200008
 10
0.5498061741000129
 20
-1.955242328040007
  0
LINE
  5
2108D
330
1F
100
AcDbEntity
  8
1
100
AcDbLine
 10
-0.2945963610599165
 20
-1.952932244040006
 30
0.0
 11
-0.5428186461399492
 21
-1.955239855660003
 31
0.0
  0
LINE
  5
2108E
330
1F
100
AcDbEntity
  8
1
100
AcDbLine
 10
-0.0721899034599574
 20
-1.951947179800008
 30
0.0
 11
-0.2945963610599165
 21
-1.952932244040006
 31
0.0
  0
LWPOLYLINE
  5
2108F
330
1F
100
AcDbEntity
  8
1
100
AcDbPolyline
 90
        3
 70
     0
 43
0.0
 10
-0.5428186461399492
 20
-1.955239855660003
 10
-0.5498061324199171
 20
-1.955242328899998
 10
-0.5568142178599374
 20
-1.955192004880004
  0
LINE
  5
21090
330
1F
100
AcDbEntity
  8
1
100
AcDbLine
 10
0.5603796520000515
 20
-1.943100000000008
 30
0.0
 11
-0.5603855860199474
 21
-1.943100000000008
 31
0.0
  0
LINE
  5
21091
330
1F
100
AcDbEntity
  8
1
100
AcDbLine
 10
4.651378672140026
 20
-1.778000000000005
 30
0.0
 11
4.56288025916001
 21
-1.778000000000005
 31
0.0
  0
LINE
  5
21092
330
1F
100
AcDbEntity
  8
1
100
AcDbLine
 10
0.5498061741000129
 20
-1.955242328040007
 30
0.0
 11
0.5428044898800409
 21
-1.955239909440003
 31
0.0
  0
LINE
  5
21093
330
1F
100
AcDbEntity
  8
1
100
AcDbLine
 10
0.1451618012799827
 20
-1.952094566140004
 30
0.0
 11
-0.0721899034599574
 21
-1.951947179800008
 31
0.0
  0
LWPOLYLINE
  5
21094
330
1F
100
AcDbEntity
  8
1
100
AcDbPolyline
 90
        3
 70
     0
 43
0.0
 10
0.5428044898800409
 20
-1.955239909440003
 10
0.3733286269200562
 20
-1.953534763459998
 10
0.1451618012799827
 20
-1.952094566140004
  0
LINE
  5
21095
330
1F
100
AcDbEntity
  8
1
100
AcDbLine
 10
-0.5568142178599374
 20
-1.955192004880004
 30
0.0
 11
-0.5638425926399578
 21
-1.955088682100004
 31
0.0
  0
LWPOLYLINE
  5
21096
330
1F
100
AcDbEntity
  8
1
100
AcDbPolyline
 90
        7
 70
     0
 43
0.0
 10
-0.5638425943200219
 20
-1.95508868796
 10
-0.5721720268400077
 20
-1.954609447759999
 10
-0.5809249120400182
 20
-1.954051205700004
 10
-0.5900956321399918
 20
-1.953405700659999
 10
-0.5997237704199279
 20
-1.952654808800005
 10
-0.6098398422999481
 20
-1.951780334380003
 10
-0.6204694005799638
 20
-1.950762498940008
  0
LWPOLYLINE
  5
21097
330
1F
100
AcDbEntity
  8
1
100
AcDbPolyline
 90
       20
 70
     0
 43
0.0
 10
-0.6204694005799638
 20
-1.950762498940008
 10
-0.631640376279961
 20
-1.949579021559998
 10
-0.6433755883599588
 20
-1.948206058960003
 10
-0.6556997418599622
 20
-1.946616470060007
 10
-0.6686293404000026
 20
-1.944782844740004
 10
-0.6821703764198901
 20
-1.942674963740003
 10
-0.6963666422399229
 20
-1.940257055220001
 10
-0.7112383987799831
 20
-1.937488078219999
 10
-0.7268478084199615
 20
-1.934322963300004
 10
-0.7432340478999322
 20
-1.930706181860003
 10
-0.7604619873400225
 20
-1.926575135219998
 10
-0.7786038207799493
 20
-1.921855548259998
 10
-0.7976333243399268
 20
-1.916476748380006
 10
-0.8175410813798862
 20
-1.91038528848
 10
-0.838286208540012
 20
-1.90352234302
 10
-0.859765780079897
 20
-1.8958508762
 10
-0.8820578324399548
 20
-1.887276550200006
 10
-0.9051186898599326
 20
-1.877718064180008
 10
-0.9290324855398921
 20
-1.867079109540007
 10
-0.953880371279979
 20
-1.855219834460001
  0
LWPOLYLINE
  5
21099
330
1F
100
AcDbEntity
  8
1
100
AcDbPolyline
 90
        4
 70
     0
 43
0.0
 10
-0.574774315559921
 20
-1.94603141908
 10
-0.5786435618399537
 20
-1.944271249460001
 10
-0.5825840058599852
 20
-1.943163130300007
 10
-0.5865699536399234
 20
-1.942714287160008
  0
LINE
  5
2109A
330
1F
100
AcDbEntity
  8
1
100
AcDbLine
 10
-0.953880371279979
 20
-1.855219834460001
 30
0.0
 11
-0.9792835270200157
 21
-1.842143662080005
 31
0.0
  0
LWPOLYLINE
  5
2109B
330
1F
100
AcDbEntity
  8
1
100
AcDbPolyline
 90
        7
 70
     0
 43
0.0
 10
-0.5358520667199401
 20
-1.955184791340002
 10
-0.5396830327199496
 20
-1.951544436320006
 10
-0.5436535226799606
 20
-1.948531909860008
 10
-0.5477367772399476
 20
-1.946167515140004
 10
-0.5519052769999462
 20
-1.944467187140006
 10
-0.5561309280799378
 20
-1.943442385340006
 10
-0.560385251400021
 20
-1.94310001646
  0
LWPOLYLINE
  5
2109C
330
1F
100
AcDbEntity
  8
1
100
AcDbPolyline
 90
        4
 70
     0
 43
0.0
 10
-1.955088680119956
 20
-0.5638427572000069
 10
-1.95145782843997
 20
-0.5673497074600036
 10
-1.948432166819998
 20
-0.5710014978200065
 10
-1.946031424319926
 20
-0.5747743165200064
  0
LWPOLYLINE
  5
2109D
330
1F
100
AcDbEntity
  8
1
100
AcDbPolyline
 90
        4
 70
     0
 43
0.0
 10
-0.5638427557998967
 20
-1.955088675200009
 10
-0.5673497061799253
 20
-1.951457823600001
 10
-0.5710014966799691
 20
-1.948432161879999
 10
-0.574774315559921
 20
-1.94603141908
  0
LWPOLYLINE
  5
2109E
330
1F
100
AcDbEntity
  8
1
100
AcDbPolyline
 90
        7
 70
     0
 43
0.0
 10
-1.955185464079931
 20
-0.5358522511399997
 10
-1.951544987919987
 20
-0.5396831794800008
 10
-1.948532312979978
 20
-0.5436536321800034
 10
-1.946167742599982
 20
-0.547736851600007
 10
-1.944467212400013
 20
-0.5519053202200013
 10
-1.943442182780017
 20
-0.5561309459200033
 10
-1.943099561739927
 20
-0.5603852513999997
  0
LINE
  5
2109F
330
1F
100
AcDbEntity
  8
1
100
AcDbLine
 10
-1.842139804579915
 20
-0.9792907053800021
 30
0.0
 11
-1.854192308899996
 21
-0.9559381925400032
 31
0.0
  0
LWPOLYLINE
  5
210A0
330
1F
100
AcDbEntity
  8
1
100
AcDbPolyline
 90
       22
 70
     0
 43
0.0
 10
-1.854192308899996
 20
-0.9559381925400032
 10
-1.865204081259889
 20
-0.9330724238200005
 10
-1.875175705699916
 20
-0.9109922966600052
 10
-1.884208827499946
 20
-0.8896516248400061
 10
-1.892371352159898
 20
-0.8690104531200049
 10
-1.899737627979902
 20
-0.8490890492400069
 10
-1.90638277691994
 20
-0.8298319697800025
 10
-1.912353135059902
 20
-0.8112788100999992
 10
-1.917705591919911
 20
-0.793419397240001
 10
-1.922484084279972
 20
-0.7762649748000002
 10
-1.92673786627995
 20
-0.7598239553600053
 10
-1.930519371479931
 20
-0.7440424778800008
 10
-1.933893167739938
 20
-0.7288622053400076
 10
-1.936894182119885
 20
-0.7142781092200039
 10
-1.93955440335992
 20
-0.7002639143000025
 10
-1.941910401879908
 20
-0.6868006349000027
 10
-1.943992148879942
 20
-0.6738546331800066
 10
-1.94582533834
 20
-0.6614292379400056
 10
-1.947433515859984
 20
-0.6495132032000015
 10
-1.948839564759964
 20
-0.6381037985200067
 10
-1.95006426691998
 20
-0.6271944415400057
 10
-1.951128045979999
 20
-0.6167747353600035
  0
LWPOLYLINE
  5
210A1
330
1F
100
AcDbEntity
  8
1
100
AcDbPolyline
 90
        4
 70
     0
 43
0.0
 10
-1.946031424319926
 20
-0.5747743165200064
 10
-1.944271255139938
 20
-0.5786435626000071
 10
-1.943163136619887
 20
-0.5825840063600083
 10
-1.942714294300003
 20
-0.5865699538400051
  0
LINE
  5
210A3
330
1F
100
AcDbEntity
  8
1
100
AcDbLine
 10
-1.015999999999962
 20
4.651378672139998
 30
0.0
 11
-1.015999999999962
 21
4.562880259159996
 31
0.0
  0
LINE
  5
210A4
330
1F
100
AcDbEntity
  8
1
100
AcDbLine
 10
-2.101074531919948
 20
-4.617422170520001
 30
0.0
 11
-2.082674677239992
 21
-4.530857660199998
 31
0.0
  0
LINE
  5
210A5
330
1F
100
AcDbEntity
  8
1
100
AcDbLine
 10
-4.651378672139912
 20
-1.016000000000005
 30
0.0
 11
-4.56288025916001
 21
-1.016000000000005
 31
0.0
  0
LINE
  5
210A6
330
1F
100
AcDbEntity
  8
1
100
AcDbLine
 10
4.617422170540066
 20
-2.101074531920005
 30
0.0
 11
4.530857660220021
 21
-2.082674677239999
 31
0.0
  0
LINE
  5
210AA
330
1F
100
AcDbEntity
  8
4
100
AcDbLine
 10
0.0
 20
0.0
 30
0.0
 11
0.0
 21
-5.079829054420002
 31
0.0
  0
LINE
  5
210AB
330
1F
100
AcDbEntity
  8
4
100
AcDbLine
 10
0.0
 20
0.0
 30
0.0
 11
0.0
 21
5.079829054439997
 31
0.0
  0
LWPOLYLINE
  5
210AC
330
1F
100
AcDbEntity
  8
1
100
AcDbPolyline
 90
        4
 70
     0
 43
0.0
 10
0.6511507586000107
 20
2.257823588059991
 10
0.6553225249600701
 20
2.273087696359993
 10
0.6603434201600749
 20
2.290670479660001
 10
0.6731491810800208
 20
2.333482271659995
  0
LWPOLYLINE
  5
210AD
330
1F
100
AcDbEntity
  8
1
100
AcDbPolyline
 90
        3
 70
     0
 43
0.0
 10
0.6731491810800208
 20
2.333482271659995
 10
0.6801324968400877
 20
2.357721453059994
 10
0.6874748457000806
 20
2.383775035639992
  0
LINE
  5
210AE
330
1F
100
AcDbEntity
  8
1
100
AcDbLine
 10
0.5638425926600803
 20
1.955088682119992
 30
0.0
 11
0.6511507586000107
 21
2.257823588059991
 31
0.0
  0
LINE
  5
210AF
330
1F
100
AcDbEntity
  8
1
100
AcDbLine
 10
-0.7779902194799888
 20
-2.697631302160004
 30
0.0
 11
-0.731634559779991
 21
-2.536896018459998
 31
0.0
  0
LINE
  5
210B0
330
1F
100
AcDbEntity
  8
1
100
AcDbLine
 10
0.6874748457000806
 20
2.383775035639992
 30
0.0
 11
0.7316345597801046
 21
2.53689601848
 31
0.0
  0
LINE
  5
210B1
330
1F
100
AcDbEntity
  8
1
100
AcDbLine
 10
0.7316345597801046
 20
2.53689601848
 30
0.0
 11
0.7779902194999977
 21
2.697631302179992
 31
0.0
  0
LINE
  5
210B2
330
1F
100
AcDbEntity
  8
1
100
AcDbLine
 10
-0.731634559779991
 20
-2.536896018459998
 30
0.0
 11
-0.5638425926399578
 21
-1.955088682100004
 31
0.0
  0
LINE
  5
210B3
330
1F
100
AcDbEntity
  8
1
100
AcDbLine
 10
-1.162535572599949
 20
-2.186761239680009
 30
0.0
 11
-1.236579841999969
 21
-2.327545073760006
 31
0.0
  0
LINE
  5
210B4
330
1F
100
AcDbEntity
  8
1
100
AcDbLine
 10
1.162535572620072
 20
2.186761239699997
 30
0.0
 11
1.236579842020091
 21
2.327545073779994
 31
0.0
  0
LINE
  5
210B5
330
1F
100
AcDbEntity
  8
1
100
AcDbLine
 10
-1.25553986963996
 20
-2.361704868680007
 30
0.0
 11
-1.317912736939888
 21
-2.479029939680003
 31
0.0
  0
LINE
  5
210B6
330
1F
100
AcDbEntity
  8
1
100
AcDbLine
 10
1.255539869660083
 20
2.361704868700002
 30
0.0
 11
1.317912736940002
 21
2.479029939699998
 31
0.0
  0
LINE
  5
210B7
330
1F
100
AcDbEntity
  8
1
100
AcDbLine
 10
0.9776934172800793
 20
1.839068085159993
 30
0.0
 11
1.162535572620072
 21
2.186761239699997
 31
0.0
  0
LINE
  5
210B8
330
1F
100
AcDbEntity
  8
1
100
AcDbLine
 10
-0.9776934172599567
 20
-1.839068085140006
 30
0.0
 11
-1.162535572599949
 21
-2.186761239680009
 31
0.0
  0
LWPOLYLINE
  5
210B9
330
1F
100
AcDbEntity
  8
1
100
AcDbPolyline
 90
        3
 70
     0
 43
0.0
 10
1.236579842020091
 20
2.327545073779994
 10
1.247652711340037
 20
2.347920620319996
 10
1.255539869660083
 20
2.361704868700002
  0
LWPOLYLINE
  5
210BA
330
1F
100
AcDbEntity
  8
1
100
AcDbPolyline
 90
        3
 70
     0
 43
0.0
 10
-1.236579841999969
 20
-2.327545073760006
 10
-1.247652711319915
 20
-2.347920620300001
 10
-1.25553986963996
 20
-2.361704868680007
  0
LWPOLYLINE
  5
210BB
330
1F
100
AcDbEntity
  8
1
100
AcDbPolyline
 90
        3
 70
     0
 43
0.0
 10
-2.361704868679908
 20
-1.255539869640003
 10
-2.347919131139974
 20
-1.24765206664
 10
-2.327541648319993
 20
-1.236578207680004
  0
LINE
  5
210BC
330
1F
100
AcDbEntity
  8
1
100
AcDbLine
 10
2.479029939700012
 20
1.317912736940002
 30
0.0
 11
2.36170486870003
 21
1.255539869659997
 31
0.0
  0
LINE
  5
210BD
330
1F
100
AcDbEntity
  8
1
100
AcDbLine
 10
-2.479029939680003
 20
-1.317912736940002
 30
0.0
 11
-2.361704868679908
 21
-1.255539869640003
 31
0.0
  0
LINE
  5
210BE
330
1F
100
AcDbEntity
  8
1
100
AcDbLine
 10
2.229814410459994
 20
1.185257015079997
 30
0.0
 11
1.839068085160079
 21
0.977693417279994
 31
0.0
  0
LINE
  5
210BF
330
1F
100
AcDbEntity
  8
1
100
AcDbLine
 10
-2.229814410459994
 20
-1.185257015079997
 30
0.0
 11
-1.839068085139956
 21
-0.9776934172800011
 31
0.0
  0
LINE
  5
210C0
330
1F
100
AcDbEntity
  8
1
100
AcDbLine
 10
2.327541648319993
 20
1.236578207679997
 30
0.0
 11
2.229814410459994
 21
1.185257015079997
 31
0.0
  0
LINE
  5
210C1
330
1F
100
AcDbEntity
  8
1
100
AcDbLine
 10
-2.327541648319993
 20
-1.236578207680004
 30
0.0
 11
-2.229814410459994
 21
-1.185257015079997
 31
0.0
  0
LWPOLYLINE
  5
210C2
330
1F
100
AcDbEntity
  8
1
100
AcDbPolyline
 90
        4
 70
     0
 43
0.0
 10
-2.290670535539902
 20
-0.6603434364400016
 10
-2.333482194119937
 20
-0.6731491582600029
 10
-2.357721381700002
 20
-0.6801324758800007
 10
-2.383775035639928
 20
-0.6874748456800078
  0
LWPOLYLINE
  5
210C3
330
1F
100
AcDbEntity
  8
1
100
AcDbPolyline
 90
        4
 70
     0
 43
0.0
 10
2.290670535540016
 20
0.6603434364599963
 10
2.33348219414006
 20
0.6731491582799976
 10
2.357721381700002
 20
0.6801324758999954
 10
2.383775035640042
 20
0.6874748456999953
  0
LINE
  5
210C4
330
1F
100
AcDbEntity
  8
1
100
AcDbLine
 10
-2.383775035639928
 20
-0.6874748456800078
 30
0.0
 11
-2.53689601845997
 21
-0.7316345597800052
 31
0.0
  0
LINE
  5
210C5
330
1F
100
AcDbEntity
  8
1
100
AcDbLine
 10
-2.53689601845997
 20
-0.7316345597800052
 30
0.0
 11
-2.697631302159948
 21
-0.7779902194800031
 31
0.0
  0
LINE
  5
210C6
330
1F
100
AcDbEntity
  8
1
100
AcDbLine
 10
2.383775035640042
 20
0.6874748456999953
 30
0.0
 11
2.536896018480092
 21
0.7316345597799981
 31
0.0
  0
LINE
  5
210C7
330
1F
100
AcDbEntity
  8
1
100
AcDbLine
 10
2.536896018480092
 20
0.7316345597799981
 30
0.0
 11
2.69763130218007
 21
0.7779902194999977
 31
0.0
  0
LINE
  5
210C8
330
1F
100
AcDbEntity
  8
1
100
AcDbLine
 10
1.955087028200068
 20
0.5639563727399946
 30
0.0
 11
2.257823588060091
 21
0.6511507585999965
 31
0.0
  0
LINE
  5
210C9
330
1F
100
AcDbEntity
  8
1
100
AcDbLine
 10
-1.955087028179946
 20
-0.5639563727400017
 30
0.0
 11
-2.257823588039968
 21
-0.6511507586000036
 31
0.0
  0
LWPOLYLINE
  5
210CA
330
1F
100
AcDbEntity
  8
1
100
AcDbPolyline
 90
        3
 70
     0
 43
0.0
 10
-2.257823588039968
 20
-0.6511507586000036
 10
-2.273087741859967
 20
-0.6553225382600019
 10
-2.290670535539902
 20
-0.6603434364400016
  0
LWPOLYLINE
  5
210CB
330
1F
100
AcDbEntity
  8
1
100
AcDbPolyline
 90
        3
 70
     0
 43
0.0
 10
2.257823588060091
 20
0.6511507585999965
 10
2.27308774188009
 20
0.6553225382599948
 10
2.290670535540016
 20
0.6603434364599963
  0
LINE
  5
210CC
330
1F
100
AcDbEntity
  8
4
100
AcDbLine
 10
0.0
 20
0.0
 30
0.0
 11
-5.079829054419974
 21
0.0
 31
0.0
  0
LINE
  5
210CD
330
1F
100
AcDbEntity
  8
4
100
AcDbLine
 10
0.0
 20
0.0
 30
0.0
 11
5.079829054440097
 21
0.0
 31
0.0
  0
LINE
  5
210CE
330
1F
100
AcDbEntity
  8
1
100
AcDbLine
 10
2.69763130218007
 20
-0.7779902194800031
 30
0.0
 11
2.536896018480092
 21
-0.7316345597800052
 31
0.0
  0
LINE
  5
210CF
330
1F
100
AcDbEntity
  8
1
100
AcDbLine
 10
-2.697631302159948
 20
0.7779902194999977
 30
0.0
 11
-2.53689601845997
 21
0.7316345597799981
 31
0.0
  0
LINE
  5
210D0
330
1F
100
AcDbEntity
  8
1
100
AcDbLine
 10
-2.53689601845997
 20
0.7316345597799981
 30
0.0
 11
-1.955088682099926
 21
0.5638425926599951
 31
0.0
  0
LINE
  5
210D1
330
1F
100
AcDbEntity
  8
1
100
AcDbLine
 10
2.536896018480092
 20
-0.7316345597800052
 30
0.0
 11
1.955088682120049
 21
-0.5638425926400075
 31
0.0
  0
LINE
  5
210D2
330
1F
100
AcDbEntity
  8
1
100
AcDbLine
 10
2.18676123969999
 20
-1.162535572600006
 30
0.0
 11
2.327545073780015
 21
-1.236579842000004
 31
0.0
  0
LINE
  5
210D3
330
1F
100
AcDbEntity
  8
1
100
AcDbLine
 10
-2.186761239679981
 20
1.162535572619994
 30
0.0
 11
-2.327545073759893
 21
1.236579842019999
 31
0.0
  0
LINE
  5
210D4
330
1F
100
AcDbEntity
  8
1
100
AcDbLine
 10
-2.361704868679908
 20
1.255539869659997
 30
0.0
 11
-2.479029939680003
 21
1.317912736940002
 31
0.0
  0
LINE
  5
210D5
330
1F
100
AcDbEntity
  8
1
100
AcDbLine
 10
2.36170486870003
 20
-1.255539869640003
 30
0.0
 11
2.479029939700012
 21
-1.317912736940002
 31
0.0
  0
LINE
  5
210D6
330
1F
100
AcDbEntity
  8
1
100
AcDbLine
 10
-1.839068085139956
 20
0.977693417279994
 30
0.0
 11
-2.186761239679981
 21
1.162535572619994
 31
0.0
  0
LINE
  5
210D7
330
1F
100
AcDbEntity
  8
1
100
AcDbLine
 10
1.839068085160079
 20
-0.9776934172600064
 30
0.0
 11
2.18676123969999
 21
-1.162535572600006
 31
0.0
  0
LWPOLYLINE
  5
210D8
330
1F
100
AcDbEntity
  8
1
100
AcDbPolyline
 90
        3
 70
     0
 43
0.0
 10
-2.327545073759893
 20
1.236579842019999
 10
-2.347920620299987
 20
1.247652711340002
 10
-2.361704868679908
 20
1.255539869659997
  0
LWPOLYLINE
  5
210D9
330
1F
100
AcDbEntity
  8
1
100
AcDbPolyline
 90
        3
 70
     0
 43
0.0
 10
2.327545073780015
 20
-1.236579842000004
 10
2.34792062032011
 20
-1.24765271132
 10
2.36170486870003
 20
-1.255539869640003
  0
LWPOLYLINE
  5
210DB
330
1F
100
AcDbEntity
  8
1
100
AcDbPolyline
 90
        3
 70
     0
 43
0.0
 10
1.255539869660083
 20
-2.361704868680007
 10
1.247652066660066
 20
-2.347919131140002
 10
1.236578207680054
 20
-2.32754164832
  0
LINE
  5
210DC
330
1F
100
AcDbEntity
  8
1
100
AcDbLine
 10
-1.317912736939888
 20
2.479029939699998
 30
0.0
 11
-1.25553986963996
 21
2.361704868700002
 31
0.0
  0
LINE
  5
210DD
330
1F
100
AcDbEntity
  8
1
100
AcDbLine
 10
1.317912736940002
 20
-2.479029939680003
 30
0.0
 11
1.255539869660083
 21
-2.361704868680007
 31
0.0
  0
LINE
  5
210DE
330
1F
100
AcDbEntity
  8
1
100
AcDbLine
 10
-1.185257015079969
 20
2.229814410459994
 30
0.0
 11
-0.9776934172799656
 21
1.839068085159993
 31
0.0
  0
LINE
  5
210DF
330
1F
100
AcDbEntity
  8
1
100
AcDbLine
 10
1.185257015080082
 20
-2.229814410460001
 30
0.0
 11
0.9776934172800793
 21
-1.839068085140006
 31
0.0
  0
LINE
  5
210E0
330
1F
100
AcDbEntity
  8
1
100
AcDbLine
 10
-1.23657820767994
 20
2.327541648319993
 30
0.0
 11
-1.185257015079969
 21
2.229814410459994
 31
0.0
  0
LINE
  5
210E1
330
1F
100
AcDbEntity
  8
1
100
AcDbLine
 10
1.236578207680054
 20
-2.32754164832
 30
0.0
 11
1.185257015080082
 21
-2.229814410460001
 31
0.0
  0
LWPOLYLINE
  5
210E2
330
1F
100
AcDbEntity
  8
1
100
AcDbPolyline
 90
        4
 70
     0
 43
0.0
 10
0.6603434364600389
 20
-2.290670535540009
 10
0.6731491582800118
 20
-2.333482194120001
 10
0.6801324759001091
 20
-2.357721381700002
 10
0.6874748457000806
 20
-2.383775035640006
  0
LWPOLYLINE
  5
210E3
330
1F
100
AcDbEntity
  8
1
100
AcDbPolyline
 90
        4
 70
     0
 43
0.0
 10
-0.6603434364399164
 20
2.290670535539995
 10
-0.6731491582600029
 20
2.333482194139996
 10
-0.6801324758799865
 20
2.357721381700002
 10
-0.687474845679958
 20
2.383775035639992
  0
LINE
  5
210E4
330
1F
100
AcDbEntity
  8
1
100
AcDbLine
 10
0.6874748457000806
 20
-2.383775035640006
 30
0.0
 11
0.7316345597801046
 21
-2.536896018459998
 31
0.0
  0
LINE
  5
210E5
330
1F
100
AcDbEntity
  8
1
100
AcDbLine
 10
0.7316345597801046
 20
-2.536896018459998
 30
0.0
 11
0.7779902194999977
 21
-2.697631302160004
 31
0.0
  0
LINE
  5
210E6
330
1F
100
AcDbEntity
  8
1
100
AcDbLine
 10
-0.687474845679958
 20
2.383775035639992
 30
0.0
 11
-0.731634559779991
 21
2.53689601848
 31
0.0
  0
LINE
  5
210E7
330
1F
100
AcDbEntity
  8
1
100
AcDbLine
 10
-0.731634559779991
 20
2.53689601848
 30
0.0
 11
-0.7779902194799888
 21
2.697631302179992
 31
0.0
  0
LINE
  5
210E8
330
1F
100
AcDbEntity
  8
1
100
AcDbLine
 10
-0.5639563727399946
 20
1.955087028199997
 30
0.0
 11
-0.6511507585998971
 21
2.257823588059991
 31
0.0
  0
LINE
  5
210E9
330
1F
100
AcDbEntity
  8
1
100
AcDbLine
 10
0.5639563727399946
 20
-1.955087028180003
 30
0.0
 11
0.6511507586000107
 21
-2.257823588040004
 31
0.0
  0
LWPOLYLINE
  5
210EA
330
1F
100
AcDbEntity
  8
1
100
AcDbPolyline
 90
        3
 70
     0
 43
0.0
 10
-0.6511507585998971
 20
2.257823588059991
 10
-0.6553225382599522
 20
2.27308774187999
 10
-0.6603434364399164
 20
2.290670535539995
  0
LWPOLYLINE
  5
210EB
330
1F
100
AcDbEntity
  8
1
100
AcDbPolyline
 90
        3
 70
     0
 43
0.0
 10
0.6511507586000107
 20
-2.257823588040004
 10
0.6553225382600659
 20
-2.273087741860003
 10
0.6603434364600389
 20
-2.290670535540009
  0
LWPOLYLINE
  5
210EC
330
1F
100
AcDbEntity
  8
1
100
AcDbPolyline
 90
        3
 70
     0
 43
0.0
 10
2.36170486870003
 20
1.255539869659997
 10
2.347919131140088
 20
1.247652066660002
 10
2.327541648319993
 20
1.236578207679997
  0
LWPOLYLINE
  5
210EE
330
1F
100
AcDbEntity
  8
1
100
AcDbPolyline
 90
        3
 70
     0
 43
0.0
 10
-1.25553986963996
 20
2.361704868700002
 10
-1.247652066639943
 20
2.347919131139995
 10
-1.23657820767994
 20
2.327541648319993
  0
LINE
  5
210F1
330
1F
100
AcDbEntity
  8
1
100
AcDbLine
 10
1.016000000000076
 20
-4.651378672140005
 30
0.0
 11
1.016000000000076
 21
-4.562880259159996
 31
0.0
  0
LINE
  5
210F2
330
1F
100
AcDbEntity
  8
1
100
AcDbLine
 10
2.101074531940071
 20
4.617422170539995
 30
0.0
 11
2.082674677260001
 21
4.530857660219993
 31
0.0
  0
LINE
  5
210F3
330
1F
100
AcDbEntity
  8
1
100
AcDbLine
 10
4.651378672140026
 20
1.015999999999991
 30
0.0
 11
4.56288025916001
 21
1.015999999999991
 31
0.0
  0
LINE
  5
210F4
330
1F
100
AcDbEntity
  8
1
100
AcDbLine
 10
-4.617422170519944
 20
2.10107453194
 30
0.0
 11
-4.530857660199899
 21
2.082674677260001
 31
0.0
  0
LINE
  5
210F6
330
1F
100
AcDbEntity
  8
1
100
AcDbLine
 10
1.77800000000002
 20
4.651378672139998
 30
0.0
 11
1.77800000000002
 21
4.562880259159996
 31
0.0
  0
LWPOLYLINE
  5
210F7
330
1F
100
AcDbEntity
  8
1
100
AcDbPolyline
 90
        7
 70
     0
 43
0.0
 10
1.955184791360011
 20
-0.5358520667199969
 10
1.951544436320091
 20
-0.5396830327200064
 10
1.948531909880102
 20
-0.5436535226800033
 10
1.946167515160027
 20
-0.5477367772400044
 10
1.944467187160057
 20
-0.5519052770000031
 10
1.943442385360071
 20
-0.5561309280800018
 10
1.943100016480002
 20
-0.5603852513999997
  0
LWPOLYLINE
  5
210F8
330
1F
100
AcDbEntity
  8
1
100
AcDbPolyline
 90
        4
 70
     0
 43
0.0
 10
0.5638427572200726
 20
-1.955088680120006
 10
0.567349707480048
 20
-1.951457828439998
 10
0.5710014978400296
 20
-1.948432166820005
 10
0.5747743165200064
 20
-1.946031424320004
  0
LWPOLYLINE
  5
210F9
330
1F
100
AcDbEntity
  8
1
100
AcDbPolyline
 90
        4
 70
     0
 43
0.0
 10
1.955088675220054
 20
-0.5638427558000032
 10
1.951457823620103
 20
-0.5673497061800106
 10
1.948432161900086
 20
-0.5710014966800046
 10
1.946031419100108
 20
-0.5747743155600063
  0
LWPOLYLINE
  5
210FA
330
1F
100
AcDbEntity
  8
1
100
AcDbPolyline
 90
        7
 70
     0
 43
0.0
 10
0.5358522511399997
 20
-1.955185464080003
 10
0.5396831795000026
 20
-1.951544987920001
 10
0.5436536321800532
 20
-1.948532312980006
 10
0.5477368516200159
 20
-1.946167742600003
 10
0.5519053202400528
 20
-1.944467212400006
 10
0.5561309459400264
 20
-1.943442182780003
 10
0.5603852514200299
 20
-1.943099561740005
  0
LINE
  5
210FB
330
1F
100
AcDbEntity
  8
1
100
AcDbLine
 10
-4.651378672139912
 20
1.777999999999991
 30
0.0
 11
-4.56288025916001
 21
1.777999999999991
 31
0.0
  0
LWPOLYLINE
  5
210FC
330
1F
100
AcDbEntity
  8
1
100
AcDbPolyline
 90
        7
 70
     0
 43
0.0
 10
0.5358520667400626
 20
1.955184791359997
 10
0.5396830327200633
 20
1.951544436319998
 10
0.5436535227000832
 20
1.948531909879989
 10
0.5477367772400612
 20
1.946167515159999
 10
0.5519052770200688
 20
1.94446718716
 10
0.5561309281000604
 20
1.943442385359993
 10
0.5603852514200299
 20
1.943100016480002
  0
LWPOLYLINE
  5
210FD
330
1F
100
AcDbEntity
  8
1
100
AcDbPolyline
 90
        4
 70
     0
 43
0.0
 10
1.95508868012007
 20
0.5638427572199945
 10
1.951457828440084
 20
0.5673497074799912
 10
1.948432166840007
 20
0.571001497839994
 10
1.94603142432004
 20
0.5747743165199993
  0
LWPOLYLINE
  5
210FE
330
1F
100
AcDbEntity
  8
1
100
AcDbPolyline
 90
        4
 70
     0
 43
0.0
 10
0.5638427558000103
 20
1.955088675219997
 10
0.567349706180039
 20
1.951457823619996
 10
0.5710014967000916
 20
1.948432161900001
 10
0.5747743155600347
 20
1.946031419099995
  0
LWPOLYLINE
  5
210FF
330
1F
100
AcDbEntity
  8
1
100
AcDbPolyline
 90
        7
 70
     0
 43
0.0
 10
1.955185464080045
 20
0.5358522511399997
 10
1.951544987939996
 20
0.5396831794999955
 10
1.948532312999986
 20
0.5436536321799963
 10
1.946167742619991
 20
0.5477368516199946
 10
1.944467212420022
 20
0.551905320239996
 10
1.943442182800026
 20
0.5561309459399979
 10
1.94309956176005
 20
0.5603852514200014
  0
LWPOLYLINE
  5
21100
330
1F
100
AcDbEntity
  8
1
100
AcDbPolyline
 90
        7
 70
     0
 43
0.0
 10
1.951128046000007
 20
0.6167747353599964
 10
1.952049632140074
 20
0.6068338691000008
 10
1.952846422980087
 20
0.597359045439994
 10
1.953535298940096
 20
0.5883294601399954
 10
1.954128989799983
 20
0.5797533770999977
 10
1.954641453680096
 20
0.5716331567199973
 10
1.955082953560008
 20
0.5639551816200026
  0
LWPOLYLINE
  5
21101
330
1F
100
AcDbEntity
  8
1
100
AcDbPolyline
 90
        3
 70
     0
 43
0.0
 10
1.955087028200068
 20
0.5639563727399946
 10
1.955191537220002
 20
0.55685688258
 10
1.95524232806008
 20
0.5498061740999987
  0
LINE
  5
21102
330
1F
100
AcDbEntity
  8
1
100
AcDbLine
 10
1.952932244060093
 20
-0.2945963610600017
 30
0.0
 11
1.955239855680019
 21
-0.542818646140006
 31
0.0
  0
LINE
  5
21103
330
1F
100
AcDbEntity
  8
1
100
AcDbLine
 10
1.951947179800072
 20
-0.0721899034600071
 30
0.0
 11
1.952932244060093
 21
-0.2945963610600017
 31
0.0
  0
LWPOLYLINE
  5
21104
330
1F
100
AcDbEntity
  8
1
100
AcDbPolyline
 90
        3
 70
     0
 43
0.0
 10
1.955239855680019
 20
-0.542818646140006
 10
1.955242328920007
 20
-0.5498061324200024
 10
1.955192004900027
 20
-0.5568142178600013
  0
LINE
  5
21105
330
1F
100
AcDbEntity
  8
1
100
AcDbLine
 10
1.943100000000072
 20
0.5603796519999947
 30
0.0
 11
1.943100000000072
 21
-0.5603855860200043
 31
0.0
  0
LINE
  5
21106
330
1F
100
AcDbEntity
  8
1
100
AcDbLine
 10
1.95524232806008
 20
0.5498061740999987
 30
0.0
 11
1.955239909460033
 21
0.5428044898799982
 31
0.0
  0
LINE
  5
21107
330
1F
100
AcDbEntity
  8
1
100
AcDbLine
 10
1.952094566139976
 20
0.1451618012799969
 30
0.0
 11
1.951947179800072
 21
-0.0721899034600071
 31
0.0
  0
LWPOLYLINE
  5
21108
330
1F
100
AcDbEntity
  8
1
100
AcDbPolyline
 90
        3
 70
     0
 43
0.0
 10
1.955239909460033
 20
0.5428044898799982
 10
1.953534763480092
 20
0.3733286269199993
 10
1.952094566139976
 20
0.1451618012799969
  0
LINE
  5
21109
330
1F
100
AcDbEntity
  8
1
100
AcDbLine
 10
1.955192004900027
 20
-0.5568142178600013
 30
0.0
 11
1.955088682120049
 21
-0.5638425926400075
 31
0.0
  0
LWPOLYLINE
  5
2110A
330
1F
100
AcDbEntity
  8
1
100
AcDbPolyline
 90
        7
 70
     0
 43
0.0
 10
1.955088687980037
 20
-0.5638425943200005
 10
1.954609447780057
 20
-0.5721720268400077
 10
1.954051205700011
 20
-0.580924912040004
 10
1.953405700680036
 20
-0.590095632140006
 10
1.952654808820057
 20
-0.5997237704200061
 10
1.951780334400041
 20
-0.6098398423000049
 10
1.950762498960102
 20
-0.6204694005799994
  0
LWPOLYLINE
  5
2110B
330
1F
100
AcDbEntity
  8
1
100
AcDbPolyline
 90
       20
 70
     0
 43
0.0
 10
1.950762498960102
 20
-0.6204694005799994
 10
1.949579021580007
 20
-0.6316403762800036
 10
1.948206058980076
 20
-0.6433755883600086
 10
1.946616470080016
 20
-0.6556997418600048
 10
1.944782844760084
 20
-0.6686293404000026
 10
1.942674963740046
 20
-0.6821703764200038
 10
1.940257055220058
 20
-0.6963666422400081
 10
1.937488078219985
 20
-0.7112383987800044
 10
1.934322963320028
 20
-0.7268478084200041
 10
1.930706181880054
 20
-0.7432340479000033
 10
1.92657513524
 20
-0.7604619873400012
 10
1.921855548280063
 20
-0.7786038207800062
 10
1.916476748380091
 20
-0.7976333243400049
 10
1.910385288500037
 20
-0.8175410813799999
 10
1.903522343040094
 20
-0.8382862085400049
 10
1.895850876220038
 20
-0.8597657800800035
 10
1.887276550220008
 20
-0.8820578324400045
 10
1.877718064200053
 20
-0.9051186898600036
 10
1.867079109560108
 20
-0.9290324855400058
 10
1.855219834480067
 20
-0.9538803712800074
  0
LWPOLYLINE
  5
2110C
330
1F
100
AcDbEntity
  8
1
100
AcDbPolyline
 90
        4
 70
     0
 43
0.0
 10
1.946031419100108
 20
-0.5747743155600063
 10
1.944271249480038
 20
-0.5786435618400106
 10
1.943163130300035
 20
-0.5825840058600065
 10
1.942714287180024
 20
-0.5865699536400087
  0
LINE
  5
2110D
330
1F
100
AcDbEntity
  8
1
100
AcDbLine
 10
1.855219834480067
 20
-0.9538803712800074
 30
0.0
 11
1.842143662100056
 21
-0.9792835270200086
 31
0.0
  0
LWPOLYLINE
  5
2110E
330
1F
100
AcDbEntity
  8
1
100
AcDbPolyline
 90
       11
 70
     0
 43
0.0
 10
1.996690657640101
 20
-1.061489418619999
 10
2.026720989240061
 20
-1.010495154180006
 10
2.05926348978005
 20
-0.9630171434000018
 10
2.092423019319994
 20
-0.9185841152000051
 10
2.1246975577601
 20
-0.876716026720004
 10
2.154609034740019
 20
-0.837373288400002
 10
2.18210464402
 20
-0.7991840399000055
 10
2.207458689819986
 20
-0.7605066959800056
 10
2.228999291820059
 20
-0.722581793840007
 10
2.245774162620023
 20
-0.686289866220001
 10
2.257823588060091
 20
-0.6511507586000036
  0
LINE
  5
2110F
330
1F
100
AcDbEntity
  8
1
100
AcDbLine
 10
0.9792907053999897
 20
-1.84213980458
 30
0.0
 11
0.9559381925600973
 21
-1.854192308900003
 31
0.0
  0
LWPOLYLINE
  5
21110
330
1F
100
AcDbEntity
  8
1
100
AcDbPolyline
 90
       22
 70
     0
 43
0.0
 10
0.9559381925600973
 20
-1.854192308900003
 10
0.9330724238400307
 20
-1.865204081260003
 10
0.9109922966799786
 20
-1.875175705700002
 10
0.8896516248400985
 20
-1.884208827500003
 10
0.8690104531200404
 20
-1.892371352160004
 10
0.849089049260101
 20
-1.899737627980002
 10
0.8298319697800025
 20
-1.906382776919997
 10
0.8112788101000205
 20
-1.912353135060001
 10
0.7934193972400863
 20
-1.917705591920004
 10
0.7762649748200375
 20
-1.92248408428
 10
0.7598239553600479
 20
-1.926737866280006
 10
0.7440424779000523
 20
-1.930519371480002
 10
0.7288622053600875
 20
-1.933893167740002
 10
0.7142781092200039
 20
-1.936894182119999
 10
0.7002639143199758
 20
-1.939554403360006
 10
0.6868006349200187
 20
-1.941910401880001
 10
0.673854633180099
 20
-1.943992148879999
 10
0.6614292379400695
 20
-1.94582533834
 10
0.6495132032200673
 20
-1.947433515860005
 10
0.6381037985399871
 20
-1.94883956476
 10
0.6271944415600501
 20
-1.950064266920001
 10
0.6167747353600817
 20
-1.951128045979999
  0
LWPOLYLINE
  5
21111
330
1F
100
AcDbEntity
  8
1
100
AcDbPolyline
 90
        4
 70
     0
 43
0.0
 10
0.5747743165200064
 20
-1.946031424320004
 10
0.5786435626000639
 20
-1.944271255140002
 10
0.5825840063801025
 20
-1.94316313662
 10
0.5865699538600211
 20
-1.942714294300003
  0
LWPOLYLINE
  5
21112
330
1F
100
AcDbEntity
  8
1
100
AcDbPolyline
 90
        7
 70
     0
 43
0.0
 10
-0.616774735359968
 20
1.951128045999993
 10
-0.6068338691000008
 20
1.952049632139988
 10
-0.5973590454199212
 20
1.952846422980002
 10
-0.588329460139903
 20
1.953535298939996
 10
-0.5797533770798964
 20
1.954128989799997
 10
-0.5716331567199405
 20
1.954641453679997
 10
-0.5639551816199174
 20
1.955082953559994
  0
LWPOLYLINE
  5
21113
330
1F
100
AcDbEntity
  8
1
100
AcDbPolyline
 90
        3
 70
     0
 43
0.0
 10
-0.5639563727399946
 20
1.955087028199997
 10
-0.5568568825799503
 20
1.955191537219995
 10
-0.5498061741000129
 20
1.955242328059995
  0
LINE
  5
21114
330
1F
100
AcDbEntity
  8
1
100
AcDbLine
 10
0.2945963610600302
 20
1.952932244059994
 30
0.0
 11
0.5428186461400628
 21
1.955239855679991
 31
0.0
  0
LINE
  5
21115
330
1F
100
AcDbEntity
  8
1
100
AcDbLine
 10
0.0721899034800799
 20
1.951947179799994
 30
0.0
 11
0.2945963610600302
 21
1.952932244059994
 31
0.0
  0
LWPOLYLINE
  5
21116
330
1F
100
AcDbEntity
  8
1
100
AcDbPolyline
 90
        3
 70
     0
 43
0.0
 10
0.5428186461400628
 20
1.955239855679991
 10
0.5498061324400397
 20
1.955242328919993
 10
0.5568142178600511
 20
1.955192004899998
  0
LINE
  5
21117
330
1F
100
AcDbEntity
  8
1
100
AcDbLine
 10
-0.5603796519799289
 20
1.943099999999994
 30
0.0
 11
0.56038558604007
 21
1.943099999999994
 31
0.0
  0
LINE
  5
21118
330
1F
100
AcDbEntity
  8
1
100
AcDbLine
 10
-0.5498061741000129
 20
1.955242328059995
 30
0.0
 11
-0.5428044898599183
 21
1.955239909459997
 31
0.0
  0
LINE
  5
21119
330
1F
100
AcDbEntity
  8
1
100
AcDbLine
 10
-0.1451618012599738
 20
1.952094566139997
 30
0.0
 11
0.0721899034800799
 21
1.951947179799994
 31
0.0
  0
LWPOLYLINE
  5
2111A
330
1F
100
AcDbEntity
  8
1
100
AcDbPolyline
 90
        3
 70
     0
 43
0.0
 10
-0.5428044898599183
 20
1.955239909459997
 10
-0.3733286268999336
 20
1.95353476348
 10
-0.1451618012599738
 20
1.952094566139997
  0
LINE
  5
2111B
330
1F
100
AcDbEntity
  8
1
100
AcDbLine
 10
0.5568142178600511
 20
1.955192004899998
 30
0.0
 11
0.5638425926600803
 21
1.955088682119992
 31
0.0
  0
LWPOLYLINE
  5
2111C
330
1F
100
AcDbEntity
  8
1
100
AcDbPolyline
 90
        7
 70
     0
 43
0.0
 10
0.5638425943400307
 20
1.955088687980001
 10
0.5721720268600166
 20
1.954609447779994
 10
0.5809249120400182
 20
1.954051205699997
 10
0.5900956321600006
 20
1.953405700679994
 10
0.5997237704400505
 20
1.95265480882
 10
0.6098398423200706
 20
1.951780334399998
 10
0.6204694006000864
 20
1.950762498959988
  0
LWPOLYLINE
  5
2111D
330
1F
100
AcDbEntity
  8
1
100
AcDbPolyline
 90
       20
 70
     0
 43
0.0
 10
0.6204694006000864
 20
1.950762498959988
 10
0.6316403762800747
 20
1.949579021579999
 10
0.6433755883600725
 20
1.948206058979998
 10
0.6556997418800848
 20
1.946616470079995
 10
0.6686293404200115
 20
1.944782844759998
 10
0.6821703764200038
 20
1.942674963739989
 10
0.6963666422600454
 20
1.940257055220001
 10
0.7112383987800968
 20
1.937488078219992
 10
0.726847808440084
 20
1.934322963319999
 10
0.7432340479200548
 20
1.930706181879997
 10
0.7604619873600314
 20
1.926575135239993
 10
0.778603820780063
 20
1.921855548279992
 10
0.7976333243600493
 20
1.916476748379992
 10
0.8175410814000088
 20
1.910385288499995
 10
0.8382862085600208
 20
1.903522343039995
 10
0.8597657801000195
 20
1.895850876219995
 10
0.8820578324600774
 20
1.887276550219993
 10
0.9051186898800551
 20
1.877718064199996
 10
0.9290324855600147
 20
1.867079109559995
 10
0.9538803712800927
 20
1.855219834479996
  0
LWPOLYLINE
  5
2111E
330
1F
100
AcDbEntity
  8
1
100
AcDbPolyline
 90
        4
 70
     0
 43
0.0
 10
0.5747743155600347
 20
1.946031419099995
 10
0.5786435618600763
 20
1.944271249479996
 10
0.5825840058801078
 20
1.9431631303
 10
0.5865699536400371
 20
1.942714287179995
  0
LINE
  5
2111F
330
1F
100
AcDbEntity
  8
1
100
AcDbLine
 10
0.9538803712800927
 20
1.855219834479996
 30
0.0
 11
0.9792835270400246
 21
1.842143662099992
 31
0.0
  0
LWPOLYLINE
  5
21120
330
1F
100
AcDbEntity
  8
1
100
AcDbPolyline
 90
       11
 70
     0
 43
0.0
 10
1.061489418620112
 20
1.996690657639994
 10
1.010495154200043
 20
2.02672098923999
 10
0.9630171434200747
 20
2.059263489779993
 10
0.9185841152200282
 20
2.092423019319994
 10
0.8767160267400413
 20
2.124697557759994
 10
0.8373732884200535
 20
2.154609034739991
 10
0.7991840399200783
 20
2.18210464402
 10
0.7605066959999931
 20
2.207458689819993
 10
0.7225817938600585
 20
2.228999291819995
 10
0.6862898662400312
 20
2.245774162619994
 10
0.6511507586000107
 20
2.257823588059991
  0
LINE
  5
21121
330
1F
100
AcDbEntity
  8
1
100
AcDbLine
 10
1.842139804600037
 20
0.9792907053999968
 30
0.0
 11
1.854192308920005
 21
0.9559381925599907
 31
0.0
  0
LWPOLYLINE
  5
21122
330
1F
100
AcDbEntity
  8
1
100
AcDbPolyline
 90
       22
 70
     0
 43
0.0
 10
1.854192308920005
 20
0.9559381925599907
 10
1.865204081280012
 20
0.9330724238400023
 10
1.875175705720039
 20
0.9109922966799928
 10
1.884208827520069
 20
0.8896516248399919
 10
1.892371352160012
 20
0.8690104531199978
 10
1.899737628000025
 20
0.8490890492599945
 10
1.906382776940063
 20
0.8298319697999971
 10
1.912353135060016
 20
0.8112788100999921
 10
1.917705591940034
 20
0.793419397240001
 10
1.922484084280085
 20
0.7762649748199948
 10
1.926737866300072
 20
0.7598239553599911
 10
1.930519371500054
 20
0.7440424778999955
 10
1.933893167760061
 20
0.7288622053599952
 10
1.936894182120113
 20
0.7142781092199968
 10
1.939554403360034
 20
0.7002639143199972
 10
1.941910401900031
 20
0.6868006349199974
 10
1.943992148900065
 20
0.6738546331799924
 10
1.94582533834
 20
0.6614292379399985
 10
1.947433515879993
 20
0.6495132032199962
 10
1.948839564780087
 20
0.6381037985399943
 10
1.950064266939989
 20
0.6271944415599933
 10
1.951128046000007
 20
0.6167747353599964
  0
LWPOLYLINE
  5
21123
330
1F
100
AcDbEntity
  8
1
100
AcDbPolyline
 90
        4
 70
     0
 43
0.0
 10
1.94603142432004
 20
0.5747743165199993
 10
1.94427125516006
 20
0.5786435626
 10
1.943163136640009
 20
0.5825840063799959
 10
1.942714294320012
 20
0.5865699538599927
  0
LINE
  5
21125
330
1F
100
AcDbEntity
  8
1
100
AcDbLine
 10
3.562053537660062
 20
4.306881496399995
 30
0.0
 11
3.543653682979993
 21
4.22031698608
 31
0.0
  0
LWPOLYLINE
  5
21126
330
1F
100
AcDbEntity
  8
1
100
AcDbPolyline
 90
        4
 70
     0
 43
0.0
 10
2.486079707220028
 20
-0.9214782305000071
 10
2.517240847180005
 20
-0.8025428535000003
 10
2.527137428620108
 20
-0.7660635857600085
 10
2.536896018480092
 20
-0.7316345597800052
  0
LWPOLYLINE
  5
21127
330
1F
100
AcDbEntity
  8
1
100
AcDbPolyline
 90
       10
 70
     0
 43
0.0
 10
2.36170486870003
 20
-1.255539869640003
 10
2.377582303100098
 20
-1.224614342620007
 10
2.393427139920049
 20
-1.191317234579997
 10
2.409243412240016
 20
-1.155222017260001
 10
2.424400911900079
 20
-1.117470566619999
 10
2.438532411560004
 20
-1.079016363680004
 10
2.451689776480066
 20
-1.039970764400003
 10
2.463834223720027
 20
-1.000845993799998
 10
2.475203550380001
 20
-0.9614134011800103
 10
2.486079707220028
 20
-0.9214782305000071
  0
LWPOLYLINE
  5
21128
330
1F
100
AcDbEntity
  8
1
100
AcDbPolyline
 90
       13
 70
     0
 43
0.0
 10
2.18676123969999
 20
-1.162535572600006
 10
2.205489537780067
 20
-1.127172764440004
 10
2.224853551800038
 20
-1.089889294900004
 10
2.244891613940012
 20
-1.050203701060006
 10
2.264731363660075
 20
-1.009370771920004
 10
2.283635822140013
 20
-0.9685031074000036
 10
2.301525998860029
 20
-0.9274137797800037
 10
2.318171839540013
 20
-0.8863689274600048
 10
2.333699388100058
 20
-0.8451625637599988
 10
2.348419922880111
 20
-0.8030931311600042
 10
2.361801649680046
 20
-0.7619520727000051
 10
2.373452793460046
 20
-0.7236070069000036
 10
2.383775035640042
 20
-0.6874748456800078
  0
LWPOLYLINE
  5
21129
330
1F
100
AcDbEntity
  8
1
100
AcDbPolyline
 90
       11
 70
     0
 43
0.0
 10
0.6511507586000107
 20
-2.257823588040004
 10
0.6873253464600566
 20
-2.245353763500006
 10
0.7242772920600374
 20
-2.228118240920004
 10
0.7624431234800113
 20
-2.20626324826
 10
0.8011194972400517
 20
-2.180762313720002
 10
0.8392317859600098
 20
-2.153224318660001
 10
0.8783748510199984
 20
-2.123417961700006
 10
0.9199020001400413
 20
-2.091415720700005
 10
0.9639156600600244
 20
-2.058615082620008
 10
1.010967298380023
 20
-2.026417363299998
 10
1.061489418620112
 20
-1.996690657620007
  0
LINE
  5
2112A
330
1F
100
AcDbEntity
  8
1
100
AcDbLine
 10
-4.282934544819909
 20
-3.634845561360009
 30
0.0
 11
-4.197871527179927
 21
-3.610427286840007
 31
0.0
  0
LWPOLYLINE
  5
2112B
330
1F
100
AcDbEntity
  8
1
100
AcDbPolyline
 90
       13
 70
     0
 43
0.0
 10
0.6874748457000806
 20
-2.383775035640006
 10
0.7227811522000139
 20
-2.373695587000007
 10
0.7604637797800251
 20
-2.362268129280003
 10
0.8010894181800267
 20
-2.349094128259999
 10
0.8428151967400481
 20
-2.334550020700007
 10
0.8838985594800305
 20
-2.319135302000006
 10
0.9249517518600214
 20
-2.302559192040007
 10
0.9660848033599904
 20
-2.284721233080006
 10
1.00711337740006
 20
-2.265801907899998
 10
1.0482879292
 20
-2.245841345020004
 10
1.088466080540001
 20
-2.225583266740002
 10
1.126384820380053
 20
-2.205903258100001
 10
1.162535572620072
 20
-2.186761239680009
  0
LWPOLYLINE
  5
2112C
330
1F
100
AcDbEntity
  8
1
100
AcDbPolyline
 90
        3
 70
     0
 43
0.0
 10
-0.731634559779991
 20
2.53689601848
 10
-0.765303815799939
 20
2.527347872079992
 10
-0.8011394970799301
 20
2.517615047759996
  0
LWPOLYLINE
  5
2112D
330
1F
100
AcDbEntity
  8
1
100
AcDbPolyline
 90
       10
 70
     0
 43
0.0
 10
-0.9189013223199253
 20
2.486765821440002
 10
-0.9587277694199656
 20
2.475952096299998
 10
-0.9981072608999284
 20
2.46464964487999
 10
-1.037255390959899
 20
2.452564334299999
 10
-1.076381524479984
 20
2.439456243939993
 10
-1.115037859599965
 20
2.425332427819995
 10
-1.153186920799953
 20
2.410095395279995
 10
-1.189829520279999
 20
2.394106226739992
 10
-1.223801711319993
 20
2.377984097519998
 10
-1.25553986963996
 20
2.361704868700002
  0
LINE
  5
2112E
330
1F
100
AcDbEntity
  8
1
100
AcDbLine
 10
-0.8011394970799301
 20
2.517615047759996
 30
0.0
 11
-0.9189013223199253
 21
2.486765821440002
 31
0.0
  0
LINE
  5
2112F
330
1F
100
AcDbEntity
  8
1
100
AcDbLine
 10
-4.30688149639991
 20
3.562053537659998
 30
0.0
 11
-4.22031698605997
 21
3.543653682979993
 31
0.0
  0
LWPOLYLINE
  5
21130
330
1F
100
AcDbEntity
  8
1
100
AcDbPolyline
 90
        4
 70
     0
 43
0.0
 10
0.9214782305000426
 20
2.48607970722
 10
0.8025428535199807
 20
2.517240847179998
 10
0.7660635857801026
 20
2.527137428619994
 10
0.7316345597801046
 20
2.53689601848
  0
LWPOLYLINE
  5
21131
330
1F
100
AcDbEntity
  8
1
100
AcDbPolyline
 90
       10
 70
     0
 43
0.0
 10
1.255539869660083
 20
2.361704868700002
 10
1.224614342620043
 20
2.377582303099991
 10
1.191317234600091
 20
2.393427139919992
 10
1.155222017280038
 20
2.409243412239987
 10
1.117470566640008
 20
2.424400911899994
 10
1.07901636370002
 20
2.43853241155999
 10
1.039970764420104
 20
2.451689776480002
 10
1.000845993820007
 20
2.463834223719999
 10
0.9614134011800388
 20
2.475203550379994
 10
0.9214782305000426
 20
2.48607970722
  0
LWPOLYLINE
  5
21132
330
1F
100
AcDbEntity
  8
1
100
AcDbPolyline
 90
       13
 70
     0
 43
0.0
 10
1.162535572620072
 20
2.186761239699997
 10
1.127172764460055
 20
2.205489537779996
 10
1.089889294920112
 20
2.224853551799995
 10
1.050203701080022
 20
2.244891613939998
 10
1.009370771939984
 20
2.264731363659997
 10
0.9685031074200196
 20
2.283635822139991
 10
0.9274137798000765
 20
2.30152599886
 10
0.8863689274800208
 20
2.318171839539992
 10
0.8451625637800361
 20
2.333699388099994
 10
0.8030931311600397
 20
2.348419922879998
 10
0.7619520727000691
 20
2.361801649679996
 10
0.7236070069200196
 20
2.373452793459989
 10
0.6874748457000806
 20
2.383775035639992
  0
LWPOLYLINE
  5
21133
330
1F
100
AcDbEntity
  8
1
100
AcDbPolyline
 90
       11
 70
     0
 43
0.0
 10
2.257823588060091
 20
0.6511507585999965
 10
2.245353763520029
 20
0.6873253464599998
 10
2.228118240940034
 20
0.7242772920599947
 10
2.206263248260029
 20
0.7624431234799971
 10
2.180762313720038
 20
0.8011194972399948
 10
2.153224318660022
 20
0.8392317859599955
 10
2.123417961720065
 20
0.8783748510199984
 10
2.091415720720078
 20
0.9199020001399915
 10
2.058615082640017
 20
0.963915660059996
 10
2.026417363300083
 20
1.010967298379995
 10
1.996690657640101
 20
1.061489418619999
  0
LINE
  5
21134
330
1F
100
AcDbEntity
  8
1
100
AcDbLine
 10
3.634845561360066
 20
-4.282934544820001
 30
0.0
 11
3.610427286840035
 21
-4.197871527180005
 31
0.0
  0
LWPOLYLINE
  5
21135
330
1F
100
AcDbEntity
  8
1
100
AcDbPolyline
 90
       13
 70
     0
 43
0.0
 10
2.383775035640042
 20
0.6874748456999953
 10
2.373695587020051
 20
0.7227811521999925
 10
2.362268129299991
 20
0.7604637797799967
 10
2.349094128260048
 20
0.8010894181799983
 10
2.33455002072003
 20
0.8428151967399912
 10
2.319135302020072
 20
0.883898559479995
 10
2.302559192060016
 20
0.924951751859993
 10
2.284721233100071
 20
0.9660848033599904
 10
2.265801907920035
 20
1.007113377399996
 10
2.245841345040048
 20
1.0482879292
 10
2.225583266760054
 20
1.088466080539994
 10
2.205903258120088
 20
1.126384820379996
 10
2.18676123969999
 20
1.162535572619994
  0
LWPOLYLINE
  5
21136
330
1F
100
AcDbEntity
  8
1
100
AcDbPolyline
 90
        3
 70
     0
 43
0.0
 10
2.536896018480092
 20
0.7316345597799981
 10
2.527347872080099
 20
0.7653038158199977
 10
2.517615047760045
 20
0.8011394970799941
  0
LWPOLYLINE
  5
21137
330
1F
100
AcDbEntity
  8
1
100
AcDbPolyline
 90
       10
 70
     0
 43
0.0
 10
2.48676582144003
 20
0.9189013223399911
 10
2.475952096300034
 20
0.9587277694400029
 10
2.464649644880068
 20
0.9981072609199941
 10
2.452564334300063
 20
1.037255390979993
 10
2.439456243940071
 20
1.076381524499993
 10
2.42533242782008
 20
1.115037859599993
 10
2.410095395279995
 20
1.15318692081999
 10
2.394106226740063
 20
1.189829520279992
 10
2.377984097520084
 20
1.223801711319993
 10
2.36170486870003
 20
1.255539869659997
  0
LINE
  5
21138
330
1F
100
AcDbEntity
  8
1
100
AcDbLine
 10
2.517615047760045
 20
0.8011394970799941
 30
0.0
 11
2.48676582144003
 21
0.9189013223399911
 31
0.0
  0
LWPOLYLINE
  5
2113A
330
1F
100
AcDbEntity
  8
1
100
AcDbPolyline
 90
        7
 70
     0
 43
0.0
 10
2.479029939700012
 20
-1.317912736940002
 10
2.523268866120019
 20
-1.231234031320006
 10
2.564410043040084
 20
-1.143171138680003
 10
2.602476342560066
 20
-1.053667026400006
 10
2.63739914838004
 20
-0.9628927923000034
 10
2.669109844220088
 20
-0.8710195342000019
 10
2.69763130218007
 20
-0.7779902194800031
  0
LWPOLYLINE
  5
2113C
330
1F
100
AcDbEntity
  8
1
100
AcDbPolyline
 90
        7
 70
     0
 43
0.0
 10
0.7779902194999977
 20
-2.697631302160004
 10
0.8710206343400841
 20
-2.669109460720001
 10
0.962894539600029
 20
-2.6373985118
 10
1.053668955800048
 20
-2.60247556174
 10
1.143172821440089
 20
-2.564409291500005
 10
1.231235074980077
 20
-2.523268382040008
 10
1.317912736940002
 20
-2.479029939680003
  0
LWPOLYLINE
  5
2113D
330
1F
100
AcDbEntity
  8
1
100
AcDbPolyline
 90
        7
 70
     0
 43
0.0
 10
1.317912736940002
 20
2.479029939699998
 10
1.231234031340022
 20
2.523268866119998
 10
1.14317113870004
 20
2.564410043039998
 10
1.053667026420043
 20
2.602476342559988
 10
0.9628927923200762
 20
2.637399148379991
 10
0.8710195342000588
 20
2.669109844219995
 10
0.7779902194999977
 20
2.697631302179992
  0
LWPOLYLINE
  5
2113E
330
1F
100
AcDbEntity
  8
1
100
AcDbPolyline
 90
        7
 70
     0
 43
0.0
 10
2.69763130218007
 20
0.7779902194999977
 10
2.66910946074006
 20
0.8710206343399988
 10
2.637398511820038
 20
0.9628945396199952
 10
2.602475561760002
 20
1.053668955799999
 10
2.564409291520064
 20
1.143172821439996
 10
2.523268382059995
 20
1.231235074979998
 10
2.479029939700012
 20
1.317912736940002
  0
LINE
  5
21141
330
1F
100
AcDbEntity
  8
1
100
AcDbLine
 10
4.56288025916001
 20
1.015999999999991
 30
0.0
 11
4.56288025916001
 21
-1.778000000000005
 31
0.0
  0
LINE
  5
21142
330
1F
100
AcDbEntity
  8
1
100
AcDbLine
 10
4.651378672140026
 20
1.015999999999991
 30
0.0
 11
4.651378672140026
 21
-1.778000000000005
 31
0.0
  0
LINE
  5
21143
330
1F
100
AcDbEntity
  8
1
100
AcDbLine
 10
4.530857660220021
 20
-2.082674677239999
 30
0.0
 11
4.220316986079978
 21
-3.543653682960005
 31
0.0
  0
LINE
  5
21144
330
1F
100
AcDbEntity
  8
1
100
AcDbLine
 10
4.617422170540066
 20
-2.101074531920005
 30
0.0
 11
4.306881496400023
 21
-3.562053537640004
 31
0.0
  0
LINE
  5
21145
330
1F
100
AcDbEntity
  8
1
100
AcDbLine
 10
-1.015999999999962
 20
4.562880259159996
 30
0.0
 11
1.77800000000002
 21
4.562880259159996
 31
0.0
  0
LINE
  5
21146
330
1F
100
AcDbEntity
  8
1
100
AcDbLine
 10
-1.015999999999962
 20
4.651378672139998
 30
0.0
 11
1.77800000000002
 21
4.651378672139998
 31
0.0
  0
LINE
  5
21147
330
1F
100
AcDbEntity
  8
1
100
AcDbLine
 10
2.082674677260001
 20
4.530857660219993
 30
0.0
 11
3.543653682979993
 21
4.22031698608
 31
0.0
  0
LINE
  5
21148
330
1F
100
AcDbEntity
  8
1
100
AcDbLine
 10
2.101074531940071
 20
4.617422170539995
 30
0.0
 11
3.562053537660062
 21
4.306881496399995
 31
0.0
  0
LINE
  5
21149
330
1F
100
AcDbEntity
  8
SKVIEW1
100
AcDbLine
 10
28.43650118142
 20
-4.436910660340004
 30
0.0
 11
29.38589901658009
 21
-4.617422170520001
 31
0.0
  0
LINE
  5
2114A
330
1F
100
AcDbEntity
  8
SKVIEW1
100
AcDbLine
 10
28.84324606806001
 20
-4.545897624239998
 30
0.0
 11
29.38589901658009
 21
-4.651378672140005
 31
0.0
  0
LINE
  5
2114B
330
1F
100
AcDbEntity
  8
SKVIEW1
100
AcDbLine
 10
25.60446650428003
 20
-3.678069255680007
 30
0.0
 11
28.43650118142
 21
-4.436910660340004
 31
0.0
  0
LINE
  5
2114C
330
1F
100
AcDbEntity
  8
SKVIEW1
100
AcDbLine
 10
28.43650118142
 20
-4.436910660340004
 30
0.0
 11
28.84324606806001
 21
-4.545897624239998
 31
0.0
  0
LINE
  5
2114D
330
1F
100
AcDbEntity
  8
SKVIEW1
100
AcDbLine
 10
25.60446650428003
 20
-3.432036146540006
 30
0.0
 11
29.38589901658009
 21
-3.634845561180007
 31
0.0
  0
LINE
  5
2114E
330
1F
100
AcDbEntity
  8
SKVIEW1
100
AcDbLine
 10
25.60446650428003
 20
-3.587907776280005
 30
0.0
 11
29.38589901658009
 21
-4.306881496400002
 31
0.0
  0
LINE
  5
2114F
330
1F
100
AcDbEntity
  8
SKVIEW1
100
AcDbLine
 10
25.60446650428003
 20
3.678069255679993
 30
0.0
 11
25.60446650428003
 21
-3.678069255680007
 31
0.0
  0
LINE
  5
21150
330
1F
100
AcDbEntity
  8
SKVIEW1
100
AcDbLine
 10
28.84324606806001
 20
-1.016000000000005
 30
0.0
 11
29.42716650428008
 21
-1.016000000000005
 31
0.0
  0
LINE
  5
21151
330
1F
100
AcDbEntity
  8
SKVIEW4
100
AcDbLine
 10
30.04807754010005
 20
0.0
 30
0.0
 11
24.9418375401001
 21
0.0
 31
0.0
  0
LINE
  5
21152
330
1F
100
AcDbEntity
  8
SKVIEW1
100
AcDbLine
 10
28.84324606806001
 20
1.777999999999991
 30
0.0
 11
28.84324606806001
 21
-1.016000000000005
 31
0.0
  0
LINE
  5
21153
330
1F
100
AcDbEntity
  8
SKVIEW1
100
AcDbLine
 10
28.84324606806001
 20
1.777999999999991
 30
0.0
 11
29.42716650428008
 21
1.777999999999991
 31
0.0
  0
LINE
  5
21154
330
1F
100
AcDbEntity
  8
SKVIEW1
100
AcDbLine
 10
29.38589901658009
 20
-4.651378672140005
 30
0.0
 11
29.38589901658009
 21
4.651378672139998
 31
0.0
  0
LINE
  5
21155
330
1F
100
AcDbEntity
  8
SKVIEW1
100
AcDbLine
 10
29.42716650428008
 20
-4.562880259159996
 30
0.0
 11
29.42716650428008
 21
4.562880259159996
 31
0.0
  0
LINE
  5
21156
330
1F
100
AcDbEntity
  8
SKVIEW1
100
AcDbLine
 10
28.43650118142
 20
2.062705625999996
 30
0.0
 11
29.38589901658009
 21
2.10107453194
 31
0.0
  0
LINE
  5
21157
330
1F
100
AcDbEntity
  8
SKVIEW1
100
AcDbLine
 10
25.60446650428003
 20
2.985054545079997
 30
0.0
 11
28.43650118142
 21
2.062705625999996
 31
0.0
  0
LINE
  5
21158
330
1F
100
AcDbEntity
  8
SKVIEW1
100
AcDbLine
 10
29.38589901658009
 20
2.10107453194
 30
0.0
 11
29.42716650428008
 21
2.082674677260001
 31
0.0
  0
LINE
  5
21159
330
1F
100
AcDbEntity
  8
SKVIEW1
100
AcDbLine
 10
25.60446650428003
 20
3.409230955779996
 30
0.0
 11
29.38589901658009
 21
3.562053537659998
 31
0.0
  0
LINE
  5
2115A
330
1F
100
AcDbEntity
  8
SKVIEW1
100
AcDbLine
 10
29.38589901658009
 20
-4.651378672140005
 30
0.0
 11
29.42716650428008
 21
-4.562880259159996
 31
0.0
  0
LINE
  5
2115B
330
1F
100
AcDbEntity
  8
SKVIEW1
100
AcDbLine
 10
29.38589901658009
 20
-4.306881496400002
 30
0.0
 11
29.42716650428008
 21
-4.220316986059998
 31
0.0
  0
LINE
  5
2115C
330
1F
100
AcDbEntity
  8
SKVIEW1
100
AcDbLine
 10
29.38589901658009
 20
-4.617422170520001
 30
0.0
 11
29.42716650428008
 21
-4.530857660199998
 31
0.0
  0
LINE
  5
2115D
330
1F
100
AcDbEntity
  8
SKVIEW1
100
AcDbLine
 10
28.84324606806001
 20
4.545897624259993
 30
0.0
 11
25.60446650428003
 21
3.678069255679993
 31
0.0
  0
LINE
  5
2115E
330
1F
100
AcDbEntity
  8
SKVIEW1
100
AcDbLine
 10
25.60446650428003
 20
3.576431683539993
 30
0.0
 11
29.38589901658009
 21
4.282934544879992
 31
0.0
  0
LINE
  5
2115F
330
1F
100
AcDbEntity
  8
SKVIEW1
100
AcDbLine
 10
29.38589901658009
 20
4.282934544819994
 30
0.0
 11
29.42716650428008
 21
4.197871527179991
 31
0.0
  0
LINE
  5
21160
330
1F
100
AcDbEntity
  8
SKVIEW1
100
AcDbLine
 10
29.38589901658009
 20
4.651378672139998
 30
0.0
 11
29.42716650428008
 21
4.562880259159996
 31
0.0
  0
LINE
  5
21161
330
1F
100
AcDbEntity
  8
SKVIEW1
100
AcDbLine
 10
29.38589901658009
 20
-3.634845561360009
 30
0.0
 11
29.42716650428008
 21
-3.610427286840007
 31
0.0
  0
LINE
  5
21162
330
1F
100
AcDbEntity
  8
SKVIEW1
100
AcDbLine
 10
28.84324606806001
 20
4.545897624259993
 30
0.0
 11
29.38589901658009
 21
4.651378672139998
 31
0.0
  0
LINE
  5
21163
330
1F
100
AcDbEntity
  8
SKVIEW1
100
AcDbLine
 10
29.38589901658009
 20
3.562053537659998
 30
0.0
 11
29.42716650428008
 21
3.543653682979993
 31
0.0
  0
ARC
  5
21164
330
1F
100
AcDbEntity
  8
1
100
AcDbCircle
 10
-1.015999999999962
 20
-4.840023999999999
 30
0.0
 40
9.491402672139999
100
AcDbArc
 50
90.0
 51
106.0167078238029
  0
ARC
  5
21165
330
1F
100
AcDbEntity
  8
1
100
AcDbCircle
 10
-1.015999999999962
 20
-4.840023999999999
 30
0.0
 40
9.402904259160001
100
AcDbArc
 50
90.0
 51
106.0167078238029
  0
ARC
  5
21166
330
1F
100
AcDbEntity
  8
1
100
AcDbCircle
 10
-1.77800000000002
 20
-3.097476
 30
0.0
 40
1.55390267214
100
AcDbArc
 50
257.9999999999837
 51
270.0
  0
ARC
  5
21167
330
1F
100
AcDbEntity
  8
1
100
AcDbCircle
 10
-1.77800000000002
 20
-3.097476
 30
0.0
 40
1.46540425916
100
AcDbArc
 50
257.9999999999837
 51
270.0
  0
ARC
  5
21168
330
1F
100
AcDbEntity
  8
1
100
AcDbCircle
 10
-3.363081493959953
 20
-3.370791628740001
 30
0.0
 40
0.9570026721399999
100
AcDbArc
 50
196.0167078237986
 51
257.9999999999837
  0
ARC
  5
21169
330
1F
100
AcDbEntity
  8
1
100
AcDbCircle
 10
-0.560385251400021
 20
-1.054100000000005
 30
0.0
 40
0.889
100
AcDbArc
 50
242.0039074206906
 51
269.9999784338974
  0
ARC
  5
2116A
330
1F
100
AcDbEntity
  8
1
100
AcDbCircle
 10
-1.054099999999948
 20
-0.5603852513999997
 30
0.0
 40
0.889
100
AcDbArc
 50
179.9996391199009
 51
207.9961122661046
  0
ARC
  5
2116B
330
1F
100
AcDbEntity
  8
1
100
AcDbCircle
 10
-3.363081493959953
 20
-3.370791628740001
 30
0.0
 40
0.86850425916
100
AcDbArc
 50
196.0167078237986
 51
257.9999999999837
  0
ARC
  5
2116C
330
1F
100
AcDbEntity
  8
1
100
AcDbCircle
 10
-4.840023999999971
 20
1.015999999999991
 30
0.0
 40
9.491402672139999
100
AcDbArc
 50
0.0
 51
16.0167078237986
  0
ARC
  5
2116D
330
1F
100
AcDbEntity
  8
1
100
AcDbCircle
 10
-4.840023999999971
 20
1.015999999999991
 30
0.0
 40
9.402904259160001
100
AcDbArc
 50
0.0
 51
16.0167078237986
  0
ARC
  5
2116E
330
1F
100
AcDbEntity
  8
1
100
AcDbCircle
 10
-3.097475999999915
 20
1.777999999999991
 30
0.0
 40
1.55390267214
100
AcDbArc
 50
168.0000000000014
 51
180.0
  0
ARC
  5
2116F
330
1F
100
AcDbEntity
  8
1
100
AcDbCircle
 10
-3.097475999999915
 20
1.777999999999991
 30
0.0
 40
1.46540425916
100
AcDbArc
 50
168.0000000000014
 51
180.0
  0
ARC
  5
21170
330
1F
100
AcDbEntity
  8
1
100
AcDbCircle
 10
-3.370791628739993
 20
3.363081493979997
 30
0.0
 40
0.9570026721399999
100
AcDbArc
 50
106.0167078238029
 51
168.0000000000014
  0
ARC
  5
21171
330
1F
100
AcDbEntity
  8
1
100
AcDbCircle
 10
-1.054099999999948
 20
0.5603852514200014
 30
0.0
 40
0.889
100
AcDbArc
 50
152.0039074207007
 51
179.9999784339014
  0
ARC
  5
21172
330
1F
100
AcDbEntity
  8
1
100
AcDbCircle
 10
-0.560385251400021
 20
1.054099999999998
 30
0.0
 40
0.889
100
AcDbArc
 50
89.99963911990702
 51
117.9961122660871
  0
ARC
  5
21173
330
1F
100
AcDbEntity
  8
1
100
AcDbCircle
 10
-3.370791628739993
 20
3.363081493979997
 30
0.0
 40
0.86850425916
100
AcDbArc
 50
106.0167078238029
 51
168.0000000000014
  0
ARC
  5
21174
330
1F
100
AcDbEntity
  8
1
100
AcDbCircle
 10
4.840024000000084
 20
-1.016000000000005
 30
0.0
 40
9.491402672139999
100
AcDbArc
 50
180.0
 51
196.0167078237986
  0
ARC
  5
21175
330
1F
100
AcDbEntity
  8
1
100
AcDbCircle
 10
4.840024000000084
 20
-1.016000000000005
 30
0.0
 40
9.402904259160001
100
AcDbArc
 50
180.0
 51
196.0167078237986
  0
ARC
  5
21176
330
1F
100
AcDbEntity
  8
1
100
AcDbCircle
 10
3.097476000000028
 20
-1.778000000000005
 30
0.0
 40
1.55390267214
100
AcDbArc
 50
348.0000000000014
 51
0.0
  0
ARC
  5
21177
330
1F
100
AcDbEntity
  8
1
100
AcDbCircle
 10
3.097476000000028
 20
-1.778000000000005
 30
0.0
 40
1.46540425916
100
AcDbArc
 50
348.0000000000014
 51
0.0
  0
ARC
  5
21178
330
1F
100
AcDbEntity
  8
1
100
AcDbCircle
 10
3.370791628760002
 20
-3.363081493960002
 30
0.0
 40
0.9570026721399999
100
AcDbArc
 50
286.0167078238029
 51
348.0000000000014
  0
ARC
  5
21179
330
1F
100
AcDbEntity
  8
1
100
AcDbCircle
 10
1.054100000000062
 20
-0.5603852513999997
 30
0.0
 40
0.889
100
AcDbArc
 50
332.0039074207007
 51
359.9999784339014
  0
ARC
  5
2117A
330
1F
100
AcDbEntity
  8
1
100
AcDbCircle
 10
0.5603852514200299
 20
-1.054100000000005
 30
0.0
 40
0.889
100
AcDbArc
 50
269.999639119907
 51
297.9961122660871
  0
ARC
  5
2117B
330
1F
100
AcDbEntity
  8
1
100
AcDbCircle
 10
3.370791628760002
 20
-3.363081493960002
 30
0.0
 40
0.86850425916
100
AcDbArc
 50
286.0167078238029
 51
348.0000000000014
  0
ARC
  5
2117C
330
1F
100
AcDbEntity
  8
1
100
AcDbCircle
 10
0.0
 20
0.0
 30
0.0
 40
2.80757607628
100
AcDbArc
 50
73.91256910410382
 51
106.0874308958962
  0
ARC
  5
2117D
330
1F
100
AcDbEntity
  8
1
100
AcDbCircle
 10
0.0
 20
0.0
 30
0.0
 40
2.80757607628
100
AcDbArc
 50
117.9962004938046
 51
152.0037995061922
  0
ARC
  5
2117E
330
1F
100
AcDbEntity
  8
1
100
AcDbCircle
 10
0.0
 20
0.0
 30
0.0
 40
2.80757607628
100
AcDbArc
 50
163.9125691040995
 51
196.0874308959004
  0
ARC
  5
2117F
330
1F
100
AcDbEntity
  8
1
100
AcDbCircle
 10
0.0
 20
0.0
 30
0.0
 40
2.80757607628
100
AcDbArc
 50
207.9962004938078
 51
242.0037995061954
  0
ARC
  5
21180
330
1F
100
AcDbEntity
  8
1
100
AcDbCircle
 10
0.0
 20
0.0
 30
0.0
 40
2.80757607628
100
AcDbArc
 50
253.9125691041038
 51
286.0874308958962
  0
ARC
  5
21181
330
1F
100
AcDbEntity
  8
1
100
AcDbCircle
 10
0.0
 20
0.0
 30
0.0
 40
2.80757607628
100
AcDbArc
 50
297.9962004938044
 51
332.0037995061922
  0
ARC
  5
21182
330
1F
100
AcDbEntity
  8
1
100
AcDbCircle
 10
0.0
 20
0.0
 30
0.0
 40
2.80757607628
100
AcDbArc
 50
343.9125691040996
 51
16.08743089590043
  0
ARC
  5
21183
330
1F
100
AcDbEntity
  8
1
100
AcDbCircle
 10
0.0
 20
0.0
 30
0.0
 40
2.80757607628
100
AcDbArc
 50
27.99620049380779
 51
62.0037995061954
  0
ARC
  5
21184
330
1F
100
AcDbEntity
  8
1
100
AcDbCircle
 10
0.0
 20
0.0
 30
0.0
 40
2.67470189948
100
AcDbArc
 50
117.9962004938046
 51
152.0037995061922
  0
ARC
  5
21185
330
1F
100
AcDbEntity
  8
1
100
AcDbCircle
 10
0.0
 20
0.0
 30
0.0
 40
2.67470189948
100
AcDbArc
 50
207.9962004938078
 51
242.0037995061954
  0
ARC
  5
21186
330
1F
100
AcDbEntity
  8
1
100
AcDbCircle
 10
0.0
 20
0.0
 30
0.0
 40
2.67470189948
100
AcDbArc
 50
297.9962004938044
 51
332.0037995061922
  0
ARC
  5
21187
330
1F
100
AcDbEntity
  8
1
100
AcDbCircle
 10
0.0
 20
0.0
 30
0.0
 40
2.67470189948
100
AcDbArc
 50
27.99620049380779
 51
62.0037995061954
  0
ARC
  5
21188
330
1F
100
AcDbEntity
  8
1
100
AcDbCircle
 10
0.0
 20
0.0
 30
0.0
 40
2.64028985862
100
AcDbArc
 50
73.91256910410382
 51
106.0874308958962
  0
ARC
  5
21189
330
1F
100
AcDbEntity
  8
1
100
AcDbCircle
 10
0.0
 20
0.0
 30
0.0
 40
2.64028985862
100
AcDbArc
 50
163.9125691040995
 51
196.0874308959004
  0
ARC
  5
2118A
330
1F
100
AcDbEntity
  8
1
100
AcDbCircle
 10
0.0
 20
0.0
 30
0.0
 40
2.64028985862
100
AcDbArc
 50
253.9125691041038
 51
286.0874308958962
  0
ARC
  5
2118B
330
1F
100
AcDbEntity
  8
1
100
AcDbCircle
 10
0.0
 20
0.0
 30
0.0
 40
2.64028985862
100
AcDbArc
 50
343.9125691040996
 51
16.08743089590043
  0
ARC
  5
2118C
330
1F
100
AcDbEntity
  8
1
100
AcDbCircle
 10
0.0
 20
0.0
 30
0.0
 40
2.480928270619999
100
AcDbArc
 50
73.91256910410382
 51
106.0874308958962
  0
ARC
  5
2118D
330
1F
100
AcDbEntity
  8
1
100
AcDbCircle
 10
0.0
 20
0.0
 30
0.0
 40
2.480928270619999
100
AcDbArc
 50
163.9125691040995
 51
196.0874308959004
  0
ARC
  5
2118E
330
1F
100
AcDbEntity
  8
1
100
AcDbCircle
 10
0.0
 20
0.0
 30
0.0
 40
2.480928270619999
100
AcDbArc
 50
253.9125691041038
 51
286.0874308958962
  0
ARC
  5
2118F
330
1F
100
AcDbEntity
  8
1
100
AcDbCircle
 10
0.0
 20
0.0
 30
0.0
 40
2.480928270619999
100
AcDbArc
 50
343.9125691040996
 51
16.08743089590043
  0
ARC
  5
21190
330
1F
100
AcDbEntity
  8
1
100
AcDbCircle
 10
0.0
 20
0.0
 30
0.0
 40
2.47657297026
100
AcDbArc
 50
117.9962004938046
 51
152.0037995061922
  0
ARC
  5
21191
330
1F
100
AcDbEntity
  8
1
100
AcDbCircle
 10
0.0
 20
0.0
 30
0.0
 40
2.47657297026
100
AcDbArc
 50
207.9962004938078
 51
242.0037995061954
  0
ARC
  5
21192
330
1F
100
AcDbEntity
  8
1
100
AcDbCircle
 10
0.0
 20
0.0
 30
0.0
 40
2.47657297026
100
AcDbArc
 50
297.9962004938044
 51
332.0037995061922
  0
ARC
  5
21193
330
1F
100
AcDbEntity
  8
1
100
AcDbCircle
 10
0.0
 20
0.0
 30
0.0
 40
2.47657297026
100
AcDbArc
 50
27.99620049380779
 51
62.0037995061954
  0
ARC
  5
21194
330
1F
100
AcDbEntity
  8
1
100
AcDbCircle
 10
0.0
 20
0.0
 30
0.0
 40
2.349843540579999
100
AcDbArc
 50
73.91256910410382
 51
106.0874308958962
  0
ARC
  5
21195
330
1F
100
AcDbEntity
  8
1
100
AcDbCircle
 10
0.0
 20
0.0
 30
0.0
 40
2.349843540579999
100
AcDbArc
 50
163.9125691040995
 51
196.0874308959004
  0
ARC
  5
21196
330
1F
100
AcDbEntity
  8
1
100
AcDbCircle
 10
0.0
 20
0.0
 30
0.0
 40
2.349843540579999
100
AcDbArc
 50
253.9125691041038
 51
286.0874308958962
  0
ARC
  5
21197
330
1F
100
AcDbEntity
  8
1
100
AcDbCircle
 10
0.0
 20
0.0
 30
0.0
 40
2.349843540579999
100
AcDbArc
 50
343.9125691040996
 51
16.08743089590043
  0
ARC
  5
21198
330
1F
100
AcDbEntity
  8
1
100
AcDbCircle
 10
0.0
 20
0.0
 30
0.0
 40
2.26131231104
100
AcDbArc
 50
117.9962004938046
 51
152.0037995061922
  0
ARC
  5
21199
330
1F
100
AcDbEntity
  8
1
100
AcDbCircle
 10
0.0
 20
0.0
 30
0.0
 40
2.26131231104
100
AcDbArc
 50
207.9962004938078
 51
242.0037995061954
  0
ARC
  5
2119A
330
1F
100
AcDbEntity
  8
1
100
AcDbCircle
 10
0.0
 20
0.0
 30
0.0
 40
2.26131231104
100
AcDbArc
 50
297.9962004938044
 51
332.0037995061922
  0
ARC
  5
2119B
330
1F
100
AcDbEntity
  8
1
100
AcDbCircle
 10
0.0
 20
0.0
 30
0.0
 40
2.26131231104
100
AcDbArc
 50
27.99620049380779
 51
62.0037995061954
  0
ARC
  5
2119C
330
1F
100
AcDbEntity
  8
1
100
AcDbCircle
 10
0.0
 20
0.0
 30
0.0
 40
2.08626193604
100
AcDbArc
 50
117.9953344566948
 51
152.0048893534054
  0
ARC
  5
2119D
330
1F
100
AcDbEntity
  8
1
100
AcDbCircle
 10
0.0
 20
0.0
 30
0.0
 40
2.08626193604
100
AcDbArc
 50
207.9953344566945
 51
242.004889353408
  0
ARC
  5
2119E
330
1F
100
AcDbEntity
  8
1
100
AcDbCircle
 10
0.0
 20
0.0
 30
0.0
 40
2.08626193604
100
AcDbArc
 50
297.9953344566947
 51
332.0048893534054
  0
ARC
  5
2119F
330
1F
100
AcDbEntity
  8
1
100
AcDbCircle
 10
0.0
 20
0.0
 30
0.0
 40
2.08626193604
100
AcDbArc
 50
27.99533445669455
 51
62.00488935340795
  0
ARC
  5
211A0
330
1F
100
AcDbEntity
  8
1
100
AcDbCircle
 10
0.0
 20
0.0
 30
0.0
 40
2.0828
100
AcDbArc
 50
117.9961628356066
 51
152.0038455672028
  0
ARC
  5
211A1
330
1F
100
AcDbEntity
  8
1
100
AcDbCircle
 10
0.0
 20
0.0
 30
0.0
 40
2.0828
100
AcDbArc
 50
27.99616283560232
 51
62.00384556721497
  0
ARC
  5
211A2
330
1F
100
AcDbEntity
  8
1
100
AcDbCircle
 10
0.0
 20
0.0
 30
0.0
 40
2.0828
100
AcDbArc
 50
297.9961628356067
 51
332.0038455671984
  0
ARC
  5
211A3
330
1F
100
AcDbEntity
  8
1
100
AcDbCircle
 10
0.0
 20
0.0
 30
0.0
 40
2.0828
100
AcDbArc
 50
207.9961628356023
 51
242.003845567215
  0
ARC
  5
211A4
330
1F
100
AcDbEntity
  8
1
100
AcDbCircle
 10
0.5603852514200299
 20
1.054099999999998
 30
0.0
 40
0.889
100
AcDbArc
 50
62.00390742069062
 51
89.99997843389733
  0
ARC
  5
211A5
330
1F
100
AcDbEntity
  8
1
100
AcDbCircle
 10
1.054100000000062
 20
0.5603852514200014
 30
0.0
 40
0.889
100
AcDbArc
 50
359.9996391199009
 51
27.99611226610461
  0
ARC
  5
211A6
330
1F
100
AcDbEntity
  8
1
100
AcDbCircle
 10
1.016000000000076
 20
4.840023999999999
 30
0.0
 40
9.491402672139999
100
AcDbArc
 50
270.0
 51
286.0167078238029
  0
ARC
  5
211A7
330
1F
100
AcDbEntity
  8
1
100
AcDbCircle
 10
1.016000000000076
 20
4.840023999999999
 30
0.0
 40
9.402904259160001
100
AcDbArc
 50
270.0
 51
286.0167078238029
  0
ARC
  5
211A8
330
1F
100
AcDbEntity
  8
1
100
AcDbCircle
 10
1.77800000000002
 20
3.097476
 30
0.0
 40
1.55390267214
100
AcDbArc
 50
77.99999999998377
 51
90.0
  0
ARC
  5
211A9
330
1F
100
AcDbEntity
  8
1
100
AcDbCircle
 10
1.77800000000002
 20
3.097476
 30
0.0
 40
1.46540425916
100
AcDbArc
 50
77.99999999998377
 51
90.0
  0
ARC
  5
211AA
330
1F
100
AcDbEntity
  8
1
100
AcDbCircle
 10
3.363081493980075
 20
3.370791628760002
 30
0.0
 40
0.9570026721399999
100
AcDbArc
 50
16.0167078237986
 51
77.99999999998377
  0
ARC
  5
211AB
330
1F
100
AcDbEntity
  8
1
100
AcDbCircle
 10
3.363081493980075
 20
3.370791628760002
 30
0.0
 40
0.86850425916
100
AcDbArc
 50
16.0167078237986
 51
77.99999999998377
  0
ELLIPSE
  5
211AC
330
1F
100
AcDbEntity
  8
SKVIEW1
100
AcDbEllipse
 10
25.7103687168601
 20
1.777999999999991
 30
0.0
 11
3.132877351199999
 21
0.0
 31
0.0
210
0.0
220
0.0
230
1.0
 40
0.1844263136
 41
0.0
 42
0.5152513254
  0
ELLIPSE
  5
211AD
330
1F
100
AcDbEntity
  8
SKVIEW1
100
AcDbEllipse
 10
8.541877471840052
 20
-1.016000000000005
 30
0.0
 11
20.30136859622
 21
0.0
 31
0.0
210
0.0
220
0.0
230
1.0
 40
0.1844263136
 41
-0.5726555946000001
 42
0.0
  0
DIMENSION
  5
214C0
330
1F
100
AcDbEntity
  8
2
100
AcDbDimension
  2
*D27
 10
3.280791628759858
 20
-3.363081493959896
 30
0.0
 11
10.39212157615717
 21
-7.268718939476488
 31
0.0
 70
    36
 71
     5
 42
1.000000000000499
  3
STANDARD
100
AcDbRadialDimension
 15
4.024350232684582
 25
-4.031752266859768
 35
0.0
 40
0.0
1001
ACAD_DSTYLE_DIMRADIAL_EXTENSION
1070
   387
1070
     1
1070
   388
1040
0.0
1070
   390
1040
0.0
1001
ACAD
1000
DSTYLE
1002
{
1070
    41
1040
2.5
1002
}
  0
LWPOLYLINE
  5
217F9
330
1F
100
AcDbEntity
  8
CUT
100
AcDbPolyline
 90
       20
 70
     1
 43
0.0
 10
4.617422170349641
 20
-2.101074531981979
 42
0.0524077792830386
 10
4.651378671961992
 20
-1.778000000051129
 10
4.651378671961992
 20
1.015999999948867
 42
0.0700000704225511
 10
4.282934544698946
 20
3.634845561152296
 42
0.2772460372281147
 10
3.562053537482029
 20
4.306881496348871
 10
2.101074531753283
 20
4.617422170476373
 42
0.0524077792831122
 10
1.777999999821986
 20
4.651378672088874
 10
-1.016000000177996
 20
4.651378672088874
 42
0.0700000704225702
 10
-3.634845561361544
 20
4.282934544825714
 42
0.2772460372281734
 10
-4.306881496577943
 20
3.562053537608875
 10
-4.617422170705594
 20
2.10107453187971
 42
0.0524077792830385
 10
-4.651378672317946
 20
1.777999999948868
 10
-4.651378672317946
 20
-1.016000000051128
 42
0.0700000704225511
 10
-4.282934545034891
 20
-3.634845561234541
 42
0.2772460372281146
 10
-3.562053537817973
 20
-4.306881496451126
 10
-2.10107453210935
 20
-4.61742217057862
 42
0.0524077792831123
 10
-1.778000000178053
 20
-4.651378672191128
 10
1.015999999822042
 20
-4.651378672191121
 42
0.0700000704225702
 10
3.634845561025485
 20
-4.282934544907966
 42
0.2772460372281733
 10
4.30688149622199
 20
-3.562053537691127
  0
VIEWPORT
  5
9C00
102
{ACAD_XDICTIONARY
360
21872
102
}
330
1B
100
AcDbEntity
 67
     1
  8
0
100
AcDbViewport
 10
108.2280559557949
 20
71.69854161746989
 30
0.0
 40
251.8950231529317
 41
201.8884082081047
 68
     1
 69
     1
 12
108.2280559557949
 22
71.69854161746989
 13
0.0
 23
0.0
 14
10.0
 24
10.0
 15
10.0
 25
10.0
 16
0.0
 26
0.0
 36
1.0
 17
0.0
 27
0.0
 37
0.0
 42
50.0
 43
0.0
 44
0.0
 45
201.8884082081047
 50
0.0
 51
0.0
 72
   100
 90
   557088
  1

281
     0
 71
     1
 74
     0
110
0.0
120
0.0
130
0.0
111
1.0
121
0.0
131
0.0
112
0.0
122
1.0
132
0.0
 79
     0
146
0.0
  0
VIEWPORT
  5
9C02
102
{ACAD_XDICTIONARY
360
21874
102
}
330
1B
100
AcDbEntity
 67
     1
  8
1
100
AcDbViewport
 10
143.457083940506
 20
98.18158769607544
 30
0.0
 40
229.5313343048095
 41
157.0905403137207
 68
     2
 69
     2
 12
-44.37697124786255
 22
-35.12342998133886
 13
0.0
 23
0.0
 14
10.0
 24
10.0
 15
10.0
 25
10.0
 16
0.0
 26
0.0
 36
1.0
 17
0.0
 27
0.0
 37
0.0
 42
50.0
 43
0.0
 44
0.0
 45
300.3886240724386
 50
0.0
 51
0.0
 72
   100
 90
   557088
  1

281
     0
 71
     1
 74
     0
110
0.0
120
0.0
130
0.0
111
1.0
121
0.0
131
0.0
112
0.0
122
1.0
132
0.0
 79
     0
146
0.0
  0
ENDSEC
  0
SECTION
  2
OBJECTS
  0
DICTIONARY
  5
3182
330
0
100
AcDbDictionary
281
     1
  3
ACAD_CIP_PREVIOUS_PRODUCT_INFO
350
1B2F4
  3
ACAD_COLOR
350
31A0
  3
ACAD_DETAILVIEWSTYLE
350
1B2F0
  3
ACAD_FIELDLIST
350
20CBF
  3
ACAD_GROUP
350
3183
  3
ACAD_LAYOUT
350
31A5
  3
ACAD_MATERIAL
350
318B
  3
ACAD_MLEADERSTYLE
350
1B221
  3
ACAD_MLINESTYLE
350
3184
  3
ACAD_PLOTSETTINGS
350
31A4
  3
ACAD_PLOTSTYLENAME
350
3189
  3
ACAD_SCALELIST
350
1B1FC
  3
ACAD_SECTIONVIEWSTYLE
350
1B2EE
  3
ACAD_TABLESTYLE
350
31A1
  3
ACAD_VISUALSTYLE
350
318F
  3
ACDB_RECOMPOSE_DATA
350
2184B
  3
AcDbVariableDictionary
350
33A3
  3
DWGPROPS
350
2184C
  0
DICTIONARY
  5
422A
330
2
100
AcDbDictionary
280
     1
281
     1
  3
ACAD_LAYERFILTERS
360
1B063
  3
ACAD_LAYERSTATES
360
9A1C
  3
ACLYDICTIONARY
360
1B062
  0
DICTIONARY
  5
1B2F5
330
10
100
AcDbDictionary
280
     1
281
     1
  3
ADSK_XREC_LAYER_RECONCILED
360
20CDE
  0
DICTIONARY
  5
1B2F7
330
3F8C
100
AcDbDictionary
280
     1
281
     1
  3
ADSK_XREC_LAYER_RECONCILED
360
20CDF
  0
DICTIONARY
  5
1B2F9
330
9C4A
100
AcDbDictionary
280
     1
281
     1
  3
ADSK_XREC_LAYER_RECONCILED
360
20CE0
  0
DICTIONARY
  5
1B2FB
330
9C4B
100
AcDbDictionary
280
     1
281
     1
  3
ADSK_XREC_LAYER_RECONCILED
360
20CE1
  0
DICTIONARY
  5
1B2FD
330
9C4D
100
AcDbDictionary
280
     1
281
     1
  3
ADSK_XREC_LAYER_RECONCILED
360
20CE2
  0
DICTIONARY
  5
1B307
330
13335
100
AcDbDictionary
280
     1
281
     1
  3
ADSK_XREC_LAYER_RECONCILED
360
20CE7
  0
DICTIONARY
  5
1B309
330
1686E
100
AcDbDictionary
280
     1
281
     1
  3
ADSK_XREC_LAYER_RECONCILED
360
20CE8
  0
DICTIONARY
  5
20CEC
330
20ADD
100
AcDbDictionary
280
     1
281
     1
  3
ADSK_XREC_LAYER_RECONCILED
360
20CED
  0
DICTIONARY
  5
20CEE
330
20ADE
100
AcDbDictionary
280
     1
281
     1
  3
ADSK_XREC_LAYER_RECONCILED
360
20CEF
  0
DICTIONARY
  5
20CF0
330
20ADF
100
AcDbDictionary
280
     1
281
     1
  3
ADSK_XREC_LAYER_RECONCILED
360
20CF1
  0
DICTIONARY
  5
339C
330
1F
100
AcDbDictionary
280
     1
281
     1
  3
ACAD_SORTENTS
360
339D
  0
DICTIONARY
  5
21872
330
9C00
100
AcDbDictionary
280
     1
281
     1
  3
ACAD_XREC_ROUNDTRIP
360
21873
  0
DICTIONARY
  5
21874
330
9C02
100
AcDbDictionary
280
     1
281
     1
  3
ACAD_XREC_ROUNDTRIP
360
21875
  0
XRECORD
  5
1B2F4
102
{ACAD_REACTORS
330
3182
102
}
330
3182
100
AcDbXrecord
280
     1
300
ACDLT
300
2015
300
ACDLT_F_S
  0
DICTIONARY
  5
31A0
102
{ACAD_REACTORS
330
3182
102
}
330
3182
100
AcDbDictionary
281
     1
  0
DICTIONARY
  5
1B2F0
102
{ACAD_REACTORS
330
3182
102
}
330
3182
100
AcDbDictionary
281
     1
  3
Imperial24
350
20CB3
  3
Metric50
350
1B2F1
  0
FIELDLIST
  5
20CBF
102
{ACAD_REACTORS
330
3182
102
}
330
3182
100
AcDbIdSet
 90
        4
330
20CAB
330
20CAC
330
20CC6
330
20CC7
100
AcDbFieldList
  0
DICTIONARY
  5
3183
102
{ACAD_REACTORS
330
3182
102
}
330
3182
100
AcDbDictionary
281
     1
  0
DICTIONARY
  5
31A5
102
{ACAD_REACTORS
330
3182
102
}
330
3182
100
AcDbDictionary
281
     1
  3
Layout1
350
31A7
  3
Model
350
31A6
  0
DICTIONARY
  5
318B
102
{ACAD_REACTORS
330
3182
102
}
330
3182
100
AcDbDictionary
281
     1
  3
ByBlock
350
318D
  3
ByLayer
350
318C
  3
Global
350
318E
  0
DICTIONARY
  5
1B221
102
{ACAD_REACTORS
330
3182
102
}
330
3182
100
AcDbDictionary
281
     1
  3
Standard
350
1B2ED
  0
DICTIONARY
  5
3184
102
{ACAD_REACTORS
330
3182
102
}
330
3182
100
AcDbDictionary
281
     1
  3
STANDARD
350
3185
  0
DICTIONARY
  5
31A4
102
{ACAD_REACTORS
330
3182
102
}
330
3182
100
AcDbDictionary
281
     1
  0
ACDBDICTIONARYWDFLT
  5
3189
102
{ACAD_REACTORS
330
3182
102
}
330
3182
100
AcDbDictionary
281
     1
  3
Normal
350
318A
100
AcDbDictionaryWithDefault
340
318A
  0
DICTIONARY
  5
1B1FC
102
{ACAD_REACTORS
330
3182
102
}
330
3182
100
AcDbDictionary
281
     1
  3
A0
350
1B1FD
  3
A1
350
1B1FE
  3
A2
350
1B1FF
  3
A3
350
1B200
  3
A4
350
1B201
  3
A5
350
1B202
  3
A6
350
1B203
  3
A7
350
1B204
  3
A8
350
1B205
  3
A9
350
1B206
  3
B0
350
1B207
  3
B1
350
1B208
  3
B2
350
1B209
  3
B3
350
1B20A
  3
B4
350
1B20B
  3
B5
350
1B20C
  3
B6
350
1B20D
  3
B7
350
1B20E
  3
B8
350
1B20F
  3
B9
350
1B210
  3
C0
350
1B211
  3
C1
350
1B212
  3
C2
350
1B213
  3
C3
350
1B214
  3
C4
350
1B215
  3
C5
350
1B216
  3
C6
350
1B217
  3
C7
350
1B218
  3
C8
350
1B219
  3
C9
350
1B21A
  3
D0
350
1B21B
  3
D1
350
1B21C
  3
D2
350
1B21D
  0
DICTIONARY
  5
1B2EE
102
{ACAD_REACTORS
330
3182
102
}
330
3182
100
AcDbDictionary
281
     1
  3
Imperial24
350
20CB1
  3
Metric50
350
1B2EF
  0
DICTIONARY
  5
31A1
102
{ACAD_REACTORS
330
3182
102
}
330
3182
100
AcDbDictionary
281
     1
  3
Standard
350
31A2
  0
DICTIONARY
  5
318F
102
{ACAD_REACTORS
330
3182
102
}
330
3182
100
AcDbDictionary
281
     1
  3
2dWireframe
350
3195
  3
3D Hidden
350
3197
  3
3dWireframe
350
3196
  3
Basic
350
3194
  3
Brighten
350
319B
  3
ColorChange
350
319F
  3
Conceptual
350
3198
  3
Dim
350
319A
  3
EdgeColorOff
350
1B2EC
  3
Facepattern
350
319E
  3
Flat
350
3190
  3
FlatWithEdges
350
3191
  3
Gouraud
350
3192
  3
GouraudWithEdges
350
3193
  3
Hidden
350
1B2E4
  3
JitterOff
350
1B2EA
  3
Linepattern
350
319D
  3
OverhangOff
350
1B2EB
  3
Realistic
350
3199
  3
Shaded
350
1B2E9
  3
Shaded with edges
350
1B2E8
  3
Shades of Gray
350
1B2E5
  3
Sketchy
350
1B2E6
  3
Thicken
350
319C
  3
Wireframe
350
1B2E3
  3
X-Ray
350
1B2E7
  0
XRECORD
  5
2184B
102
{ACAD_REACTORS
330
3182
102
}
330
3182
100
AcDbXrecord
280
     1
 90
        1
330
31A2
  0
DICTIONARY
  5
33A3
102
{ACAD_REACTORS
330
3182
102
}
330
3182
100
AcDbDictionary
281
     1
  3
CANNOSCALE
350
1B222
  3
CMLEADERSTYLE
350
1B30F
  3
CTABLESTYLE
350
33A4
  3
CVIEWDETAILSTYLE
350
1B310
  3
CVIEWSECTIONSTYLE
350
1B311
  3
DIMASSOC
350
9BE8
  3
INDEXCTL
350
9BE7
  3
LAYEREVAL
350
20993
  3
LAYERNOTIFY
350
20994
  3
LIGHTINGUNITS
350
20992
  3
MSLTSCALE
350
20991
  3
SORTENTS
350
9BE6
  3
XCLIPFRAME
350
21849
  0
XRECORD
  5
2184C
102
{ACAD_REACTORS
330
3182
102
}
330
3182
100
AcDbXrecord
280
     1
  1
DWGPROPS COOKIE
  2

  3

  4

  6

  7

  8
kamerka
  9

300
=
301
=
302
=
303
=
304
=
305
=
306
=
307
=
308
=
309
=
 40
0.0102630787037037
 41
2457366.477918172
 42
2458066.460016065
  1

 90
        0
  0
DICTIONARY
  5
1B063
102
{ACAD_REACTORS
330
422A
102
}
330
422A
100
AcDbDictionary
281
     1
  0
DICTIONARY
  5
9A1C
102
{ACAD_REACTORS
330
422A
102
}
330
422A
100
AcDbDictionary
281
     1
  0
DICTIONARY
  5
1B062
102
{ACAD_REACTORS
330
422A
102
}
330
422A
100
AcDbDictionary
281
     1
1001
ACAD
1000
<All
  0
XRECORD
  5
20CDE
102
{ACAD_REACTORS
330
1B2F5
102
}
330
1B2F5
100
AcDbXrecord
280
     1
290
     1
  0
XRECORD
  5
20CDF
102
{ACAD_REACTORS
330
1B2F7
102
}
330
1B2F7
100
AcDbXrecord
280
     1
290
     1
  0
XRECORD
  5
20CE0
102
{ACAD_REACTORS
330
1B2F9
102
}
330
1B2F9
100
AcDbXrecord
280
     1
290
     1
  0
XRECORD
  5
20CE1
102
{ACAD_REACTORS
330
1B2FB
102
}
330
1B2FB
100
AcDbXrecord
280
     1
290
     1
  0
XRECORD
  5
20CE2
102
{ACAD_REACTORS
330
1B2FD
102
}
330
1B2FD
100
AcDbXrecord
280
     1
290
     1
  0
XRECORD
  5
20CE7
102
{ACAD_REACTORS
330
1B307
102
}
330
1B307
100
AcDbXrecord
280
     1
290
     1
  0
XRECORD
  5
20CE8
102
{ACAD_REACTORS
330
1B309
102
}
330
1B309
100
AcDbXrecord
280
     1
290
     1
  0
XRECORD
  5
20CED
102
{ACAD_REACTORS
330
20CEC
102
}
330
20CEC
100
AcDbXrecord
280
     1
290
     1
  0
XRECORD
  5
20CEF
102
{ACAD_REACTORS
330
20CEE
102
}
330
20CEE
100
AcDbXrecord
280
     1
290
     1
  0
XRECORD
  5
20CF1
102
{ACAD_REACTORS
330
20CF0
102
}
330
20CF0
100
AcDbXrecord
280
     1
290
     1
  0
SORTENTSTABLE
  5
339D
102
{ACAD_REACTORS
330
339C
102
}
330
339C
100
AcDbSortentsTable
330
1F
331
2116F
  5
2116F
331
21132
  5
21132
331
210B3
  5
210B3
331
210CE
  5
210CE
331
2118A
  5
2118A
331
21073
  5
21073
331
21102
  5
21102
331
210C0
  5
210C0
331
210DB
  5
210DB
331
2109E
  5
2109E
331
21197
  5
21197
331
21080
  5
21080
331
2105E
  5
2105E
331
2114C
  5
2114C
331
2110F
  5
2110F
331
21167
  5
21167
331
21090
  5
21090
331
210E8
  5
210E8
331
210AB
  5
210AB
331
211A4
  5
211A4
331
2106B
  5
2106B
331
21159
  5
21159
331
2111C
  5
2111C
331
21137
  5
21137
331
210B8
  5
210B8
331
21174
  5
21174
331
2118F
  5
2118F
331
21078
  5
21078
331
21129
  5
21129
331
21144
  5
21144
331
21107
  5
21107
331
210C5
  5
210C5
331
21088
  5
21088
331
21181
  5
21181
331
2119C
  5
2119C
331
21085
  5
21085
331
210F9
  5
210F9
331
21151
  5
21151
331
21114
  5
21114
331
210D2
  5
210D2
331
21095
  5
21095
331
211A9
  5
211A9
331
21055
  5
21055
331
214C0
  5
214C0
331
2115E
  5
2115E
331
21121
  5
21121
331
210BD
  5
210BD
331
21179
  5
21179
331
21062
  5
21062
331
2107D
  5
2107D
331
2116B
  5
2116B
331
2112E
  5
2112E
331
210CA
  5
210CA
331
2108D
  5
2108D
331
21186
  5
21186
331
2104D
  5
2104D
331
210FE
  5
210FE
331
21156
  5
21156
331
210D7
  5
210D7
331
2109A
  5
2109A
331
21193
  5
21193
331
2105A
  5
2105A
331
21148
  5
21148
331
2110B
  5
2110B
331
21163
  5
21163
331
21126
  5
21126
331
210E4
  5
210E4
331
211A0
  5
211A0
331
2117E
  5
2117E
331
21067
  5
21067
331
21118
  5
21118
331
21133
  5
21133
331
210F1
  5
210F1
331
210B4
  5
210B4
331
21170
  5
21170
331
210CF
  5
210CF
331
2118B
  5
2118B
331
21074
  5
21074
331
21103
  5
21103
331
210C1
  5
210C1
331
210DC
  5
210DC
331
2109F
  5
2109F
331
21198
  5
21198
331
21081
  5
21081
331
2105F
  5
2105F
331
2114D
  5
2114D
331
21110
  5
21110
331
21091
  5
21091
331
210E9
  5
210E9
331
210AC
  5
210AC
331
211A5
  5
211A5
331
2106C
  5
2106C
331
2115A
  5
2115A
331
2111D
  5
2111D
331
210F6
  5
210F6
331
210B9
  5
210B9
331
21175
  5
21175
331
21079
  5
21079
331
2112A
  5
2112A
331
21145
  5
21145
331
210C6
  5
210C6
331
21089
  5
21089
331
21182
  5
21182
331
2119D
  5
2119D
331
21086
  5
21086
331
210FA
  5
210FA
331
21152
  5
21152
331
21115
  5
21115
331
20B14
  5
20B14
331
210D3
  5
210D3
331
21096
  5
21096
331
210EE
  5
210EE
331
211AA
  5
211AA
331
21056
  5
21056
331
2115F
  5
2115F
331
21122
  5
21122
331
210E0
  5
210E0
331
210A3
  5
210A3
331
210BE
  5
210BE
331
2117A
  5
2117A
331
21063
  5
21063
331
2107E
  5
2107E
331
2116C
  5
2116C
331
2112F
  5
2112F
331
210B0
  5
210B0
331
210CB
  5
210CB
331
2108E
  5
2108E
331
21187
  5
21187
331
21070
  5
21070
331
2104E
  5
2104E
331
2113C
  5
2113C
331
210FF
  5
210FF
331
21157
  5
21157
331
210D8
  5
210D8
331
2109B
  5
2109B
331
21194
  5
21194
331
2105B
  5
2105B
331
21149
  5
21149
331
2110C
  5
2110C
331
21164
  5
21164
331
21127
  5
21127
331
210E5
  5
210E5
331
211A1
  5
211A1
331
2117F
  5
2117F
331
21068
  5
21068
331
21119
  5
21119
331
21134
  5
21134
331
210F2
  5
210F2
331
210B5
  5
210B5
331
21171
  5
21171
331
2118C
  5
2118C
331
21075
  5
21075
331
21141
  5
21141
331
21104
  5
21104
331
210C2
  5
210C2
331
210DD
  5
210DD
331
21199
  5
21199
331
21082
  5
21082
331
2114E
  5
2114E
331
21111
  5
21111
331
21092
  5
21092
331
210EA
  5
210EA
331
210AD
  5
210AD
331
211A6
  5
211A6
331
21052
  5
21052
331
2106D
  5
2106D
331
2115B
  5
2115B
331
2111E
  5
2111E
331
210F7
  5
210F7
331
210BA
  5
210BA
331
21176
  5
21176
331
2107A
  5
2107A
331
21168
  5
21168
331
2112B
  5
2112B
331
21146
  5
21146
331
210C7
  5
210C7
331
2108A
  5
2108A
331
21183
  5
21183
331
2119E
  5
2119E
331
21087
  5
21087
331
21138
  5
21138
331
210FB
  5
210FB
331
21153
  5
21153
331
21116
  5
21116
331
20B15
  5
20B15
331
210D4
  5
210D4
331
21097
  5
21097
331
21190
  5
21190
331
211AB
  5
211AB
331
21057
  5
21057
331
21108
  5
21108
331
21160
  5
21160
331
21123
  5
21123
331
210E1
  5
210E1
331
210A4
  5
210A4
331
210BF
  5
210BF
331
2117B
  5
2117B
331
21064
  5
21064
331
2107F
  5
2107F
331
2116D
  5
2116D
331
21130
  5
21130
331
210B1
  5
210B1
331
210CC
  5
210CC
331
2108F
  5
2108F
331
21188
  5
21188
331
21071
  5
21071
331
2104F
  5
2104F
331
2113D
  5
2113D
331
21100
  5
21100
331
210D9
  5
210D9
331
2109C
  5
2109C
331
21195
  5
21195
331
2105C
  5
2105C
331
2114A
  5
2114A
331
2110D
  5
2110D
331
21165
  5
21165
331
210E6
  5
210E6
331
211A2
  5
211A2
331
21069
  5
21069
331
2111A
  5
2111A
331
21135
  5
21135
331
210F3
  5
210F3
331
210B6
  5
210B6
331
21172
  5
21172
331
2118D
  5
2118D
331
21076
  5
21076
331
21142
  5
21142
331
21105
  5
21105
331
210C3
  5
210C3
331
210DE
  5
210DE
331
2119A
  5
2119A
331
21083
  5
21083
331
2114F
  5
2114F
331
21112
  5
21112
331
210D0
  5
210D0
331
21093
  5
21093
331
210EB
  5
210EB
331
210AE
  5
210AE
331
211A7
  5
211A7
331
21053
  5
21053
331
2115C
  5
2115C
331
2111F
  5
2111F
331
210A0
  5
210A0
331
210BB
  5
210BB
331
21177
  5
21177
331
21060
  5
21060
331
2107B
  5
2107B
331
21169
  5
21169
331
2112C
  5
2112C
331
21147
  5
21147
331
210C8
  5
210C8
331
2108B
  5
2108B
331
21184
  5
21184
331
2119F
  5
2119F
331
2104B
  5
2104B
331
210FC
  5
210FC
331
21154
  5
21154
331
21117
  5
21117
331
20B16
  5
20B16
331
217F9
  5
2180C
331
210D5
  5
210D5
331
21191
  5
21191
331
211AC
  5
211AC
331
21058
  5
21058
331
21109
  5
21109
331
21161
  5
21161
331
210E2
  5
210E2
331
210A5
  5
210A5
331
2117C
  5
2117C
331
21065
  5
21065
331
2116E
  5
2116E
331
21131
  5
21131
331
210B2
  5
210B2
331
210CD
  5
210CD
331
21189
  5
21189
331
21072
  5
21072
331
2113E
  5
2113E
331
21101
  5
21101
331
2109D
  5
2109D
331
21196
  5
21196
331
2105D
  5
2105D
331
2114B
  5
2114B
331
2110E
  5
2110E
331
21166
  5
21166
331
210E7
  5
210E7
331
210AA
  5
210AA
331
211A3
  5
211A3
331
2106A
  5
2106A
331
21158
  5
21158
331
2111B
  5
2111B
331
21136
  5
21136
331
210F4
  5
210F4
331
210B7
  5
210B7
331
21173
  5
21173
331
2118E
  5
2118E
331
21077
  5
21077
331
21128
  5
21128
331
21143
  5
21143
331
21106
  5
21106
331
210C4
  5
210C4
331
21180
  5
21180
331
210DF
  5
210DF
331
2119B
  5
2119B
331
21084
  5
21084
331
210F8
  5
210F8
331
21150
  5
21150
331
21113
  5
21113
331
210D1
  5
210D1
331
21094
  5
21094
331
210EC
  5
210EC
331
210AF
  5
210AF
331
211A8
  5
211A8
331
21054
  5
21054
331
2106F
  5
2106F
331
2115D
  5
2115D
331
21120
  5
21120
331
210A1
  5
210A1
331
210BC
  5
210BC
331
21178
  5
21178
331
21061
  5
21061
331
2107C
  5
2107C
331
2116A
  5
2116A
331
2112D
  5
2112D
331
210C9
  5
210C9
331
2108C
  5
2108C
331
21185
  5
21185
331
2104C
  5
2104C
331
2113A
  5
2113A
331
210FD
  5
210FD
331
21155
  5
21155
331
20B17
  5
20B17
331
210D6
  5
210D6
331
21099
  5
21099
331
21192
  5
21192
331
211AD
  5
211AD
331
21059
  5
21059
331
2110A
  5
2110A
331
21162
  5
21162
331
21125
  5
21125
331
210E3
  5
210E3
331
210A6
  5
210A6
331
2117D
  5
2117D
331
21066
  5
21066
  0
XRECORD
  5
21873
102
{ACAD_REACTORS
330
21872
102
}
330
21872
100
AcDbXrecord
280
     1
102
SHADEPLOT
 70
     0
  0
XRECORD
  5
21875
102
{ACAD_REACTORS
330
21874
102
}
330
21874
100
AcDbXrecord
280
     1
102
SHADEPLOT
 70
     0
  0
ACDBDETAILVIEWSTYLE
  5
20CB3
102
{ACAD_XDICTIONARY
360
21890
102
}
102
{ACAD_REACTORS
330
1B2F0
102
}
330
1B2F0
100
AcDbModelDocViewStyle
 70
     0
  3
Imperial24
290
     0
100
AcDbDetailViewStyle
 70
     0
 71
     0
 90
        3
 71
     1
340
11
 40
0.24
340
0
 40
0.24
300

 40
0.36
280
     3
 71
     2
340
16
 90
       25
 71
     3
340
11
 40
0.24
 90
        1
 40
0.75
 90
        1
300
%<\AcVar ViewType \f "%tc1">% %<\AcVar ViewDetailId>%\PVARIA %<\AcVar ViewScale \f "%sn">%
 71
     4
340
16
 90
       25
340
16
 90
       25
280
     0
  0
ACDBDETAILVIEWSTYLE
  5
1B2F1
102
{ACAD_XDICTIONARY
360
2188C
102
}
102
{ACAD_REACTORS
330
1B2F0
102
}
330
1B2F0
100
AcDbModelDocViewStyle
 70
     0
  3
Metric50
290
     0
100
AcDbDetailViewStyle
 70
     0
 71
     0
 90
        3
 71
     1
340
11
 40
5.0
340
0
 40
5.0
300

 40
0.0
280
     1
 71
     2
340
16
 90
       25
 71
     3
340
11
 40
5.0
 90
        0
 40
15.0
 90
        1
300
%<\AcVar ViewDetailId>% (%<\AcVar ViewScale \f "%sn">%)
 71
     4
340
16
 90
       25
340
16
 90
       25
280
     0
  0
LAYOUT
  5
31A7
102
{ACAD_XDICTIONARY
360
21870
102
}
102
{ACAD_REACTORS
330
31A5
102
}
330
31A5
100
AcDbPlotSettings
  1

  2
\\ingdc01\ITB3
  4
A4
  6

 40
6.805083274841307
 41
5.027085781097412
 42
6.805068969726562
 43
5.027069091796875
 44
209.9733276367186
 45
296.9683227539062
 46
0.0
 47
0.0
 48
0.0
 49
0.0
140
0.0
141
0.0
142
1.0
143
1.0
 70
   688
 72
     1
 73
     1
 74
     5
  7

 75
    16
147
1.0
148
0.0
149
0.0
100
AcDbLayout
  1
Layout1
 70
     1
 71
     1
 10
-5.027069091796875
 20
-6.805083274841307
 11
291.9412536621094
 21
203.1682443618775
 12
0.0
 22
0.0
 32
0.0
 14
28.69141678810127
 24
19.6363175392151
 34
0.0
 15
258.2227510929107
 25
176.7268578529358
 35
0.0
146
0.0
 13
0.0
 23
0.0
 33
0.0
 16
1.0
 26
0.0
 36
0.0
 17
0.0
 27
1.0
 37
0.0
 76
     0
330
1B
331
9C00
1001
ACAD_PSEXT
1000
\\ingdc01\ITB3
1000
HP LaserJet 5000 Series PCL
1000
TB
1000

1070
     0
  0
LAYOUT
  5
31A6
102
{ACAD_XDICTIONARY
360
2186E
102
}
102
{ACAD_REACTORS
330
31A5
102
}
330
31A5
100
AcDbPlotSettings
  1

  2
\\ingdc01\ITB3
  4
A4
  6

 40
6.805083274841307
 41
5.027085781097412
 42
6.805068969726562
 43
5.027069091796875
 44
209.9733276367186
 45
296.9683227539062
 46
0.0
 47
0.0
 48
0.0
 49
0.0
140
0.0
141
0.0
142
1.0
143
1.500313223655698
 70
 11952
 72
     1
 73
     1
 74
     0
  7

 75
     0
147
0.6665274852163048
148
239.0155119930048
149
102.2558208723354
100
AcDbLayout
  1
Model
 70
     1
 71
     0
 10
0.0
 20
0.0
 11
12.0
 21
9.0
 12
0.0
 22
0.0
 32
0.0
 14
0.0
 24
0.0
 34
0.0
 15
0.0
 25
0.0
 35
0.0
146
0.0
 13
0.0
 23
0.0
 33
0.0
 16
1.0
 26
0.0
 36
0.0
 17
0.0
 27
1.0
 37
0.0
 76
     0
330
1F
331
1F4
1001
ACAD_PSEXT
1000
\\ingdc01\ITB3
1000
HP LaserJet 5000 Series PCL
1000
TB
1000

1070
     0
  0
MATERIAL
  5
318D
102
{ACAD_XDICTIONARY
360
1B22B
102
}
102
{ACAD_REACTORS
330
318B
102
}
330
318B
100
AcDbMaterial
  1
ByBlock
  0
MATERIAL
  5
318C
102
{ACAD_XDICTIONARY
360
1B22D
102
}
102
{ACAD_REACTORS
330
318B
102
}
330
318B
100
AcDbMaterial
  1
ByLayer
  0
MATERIAL
  5
318E
102
{ACAD_XDICTIONARY
360
1B22F
102
}
102
{ACAD_REACTORS
330
318B
102
}
330
318B
100
AcDbMaterial
  1
Global
  0
MLEADERSTYLE
  5
1B2ED
102
{ACAD_REACTORS
330
1B221
102
}
330
1B221
100
AcDbMLeaderStyle
170
     2
171
     1
172
     0
 90
        2
 40
0.0
 41
0.0
173
     1
 91
-1056964608
340
14
 92
       -2
290
     1
 42
2.0
291
     1
 43
0.36
  3
Standard
 44
4.0
300

342
11
174
     1
178
     6
175
     1
176
     0
 93
-1056964608
 45
4.0
292
     0
297
     0
 46
4.0
 94
-1056964608
 47
1.0
 49
1.0
140
1.0
293
     1
141
0.0
294
     1
177
     0
142
1.0
295
     0
296
     0
143
0.125
1001
ACAD_MLEADERVER
1070
     2
  0
MLINESTYLE
  5
3185
102
{ACAD_REACTORS
330
3184
102
}
330
3184
100
AcDbMlineStyle
  2
STANDARD
 70
     0
  3

 62
   256
 51
90.0
 52
90.0
 71
     2
 49
0.5
 62
   256
  6
BYLAYER
 49
-0.5
 62
   256
  6
BYLAYER
  0
ACDBPLACEHOLDER
  5
318A
102
{ACAD_REACTORS
330
3189
102
}
330
3189
  0
SCALE
  5
1B1FD
102
{ACAD_REACTORS
330
1B1FC
102
}
330
1B1FC
100
AcDbScale
 70
     0
300
1:1
140
1.0
141
1.0
290
     1
1001
ACAD
1000
AcRTDxfName
1000
SCALE
  0
SCALE
  5
1B1FE
102
{ACAD_REACTORS
330
1B1FC
102
}
330
1B1FC
100
AcDbScale
 70
     0
300
1:2
140
1.0
141
2.0
290
     0
1001
ACAD
1000
AcRTDxfName
1000
SCALE
  0
SCALE
  5
1B1FF
102
{ACAD_REACTORS
330
1B1FC
102
}
330
1B1FC
100
AcDbScale
 70
     0
300
1:4
140
1.0
141
4.0
290
     0
1001
ACAD
1000
AcRTDxfName
1000
SCALE
  0
SCALE
  5
1B200
102
{ACAD_REACTORS
330
1B1FC
102
}
330
1B1FC
100
AcDbScale
 70
     0
300
1:5
140
1.0
141
5.0
290
     0
1001
ACAD
1000
AcRTDxfName
1000
SCALE
  0
SCALE
  5
1B201
102
{ACAD_REACTORS
330
1B1FC
102
}
330
1B1FC
100
AcDbScale
 70
     0
300
1:8
140
1.0
141
8.0
290
     0
1001
ACAD
1000
AcRTDxfName
1000
SCALE
  0
SCALE
  5
1B202
102
{ACAD_REACTORS
330
1B1FC
102
}
330
1B1FC
100
AcDbScale
 70
     0
300
1:10
140
1.0
141
10.0
290
     0
1001
ACAD
1000
AcRTDxfName
1000
SCALE
  0
SCALE
  5
1B203
102
{ACAD_REACTORS
330
1B1FC
102
}
330
1B1FC
100
AcDbScale
 70
     0
300
1:16
140
1.0
141
16.0
290
     0
1001
ACAD
1000
AcRTDxfName
1000
SCALE
  0
SCALE
  5
1B204
102
{ACAD_REACTORS
330
1B1FC
102
}
330
1B1FC
100
AcDbScale
 70
     0
300
1:20
140
1.0
141
20.0
290
     0
1001
ACAD
1000
AcRTDxfName
1000
SCALE
  0
SCALE
  5
1B205
102
{ACAD_REACTORS
330
1B1FC
102
}
330
1B1FC
100
AcDbScale
 70
     0
300
1:30
140
1.0
141
30.0
290
     0
1001
ACAD
1000
AcRTDxfName
1000
SCALE
  0
SCALE
  5
1B206
102
{ACAD_REACTORS
330
1B1FC
102
}
330
1B1FC
100
AcDbScale
 70
     0
300
1:40
140
1.0
141
40.0
290
     0
1001
ACAD
1000
AcRTDxfName
1000
SCALE
  0
SCALE
  5
1B207
102
{ACAD_REACTORS
330
1B1FC
102
}
330
1B1FC
100
AcDbScale
 70
     0
300
1:50
140
1.0
141
50.0
290
     0
1001
ACAD
1000
AcRTDxfName
1000
SCALE
  0
SCALE
  5
1B208
102
{ACAD_REACTORS
330
1B1FC
102
}
330
1B1FC
100
AcDbScale
 70
     0
300
1:100
140
1.0
141
100.0
290
     0
1001
ACAD
1000
AcRTDxfName
1000
SCALE
  0
SCALE
  5
1B209
102
{ACAD_REACTORS
330
1B1FC
102
}
330
1B1FC
100
AcDbScale
 70
     0
300
2:1
140
2.0
141
1.0
290
     0
1001
ACAD
1000
AcRTDxfName
1000
SCALE
  0
SCALE
  5
1B20A
102
{ACAD_REACTORS
330
1B1FC
102
}
330
1B1FC
100
AcDbScale
 70
     0
300
4:1
140
4.0
141
1.0
290
     0
1001
ACAD
1000
AcRTDxfName
1000
SCALE
  0
SCALE
  5
1B20B
102
{ACAD_REACTORS
330
1B1FC
102
}
330
1B1FC
100
AcDbScale
 70
     0
300
8:1
140
8.0
141
1.0
290
     0
1001
ACAD
1000
AcRTDxfName
1000
SCALE
  0
SCALE
  5
1B20C
102
{ACAD_REACTORS
330
1B1FC
102
}
330
1B1FC
100
AcDbScale
 70
     0
300
10:1
140
10.0
141
1.0
290
     0
1001
ACAD
1000
AcRTDxfName
1000
SCALE
  0
SCALE
  5
1B20D
102
{ACAD_REACTORS
330
1B1FC
102
}
330
1B1FC
100
AcDbScale
 70
     0
300
100:1
140
100.0
141
1.0
290
     0
1001
ACAD
1000
AcRTDxfName
1000
SCALE
  0
SCALE
  5
1B20E
102
{ACAD_REACTORS
330
1B1FC
102
}
330
1B1FC
100
AcDbScale
 70
     0
300
1/128" = 1'-0"
140
0.0078125
141
12.0
290
     0
1001
ACAD
1000
AcRTDxfName
1000
SCALE
  0
SCALE
  5
1B20F
102
{ACAD_REACTORS
330
1B1FC
102
}
330
1B1FC
100
AcDbScale
 70
     0
300
1/64" = 1'-0"
140
0.015625
141
12.0
290
     0
1001
ACAD
1000
AcRTDxfName
1000
SCALE
  0
SCALE
  5
1B210
102
{ACAD_REACTORS
330
1B1FC
102
}
330
1B1FC
100
AcDbScale
 70
     0
300
1/32" = 1'-0"
140
0.03125
141
12.0
290
     0
1001
ACAD
1000
AcRTDxfName
1000
SCALE
  0
SCALE
  5
1B211
102
{ACAD_REACTORS
330
1B1FC
102
}
330
1B1FC
100
AcDbScale
 70
     0
300
1/16" = 1'-0"
140
0.0625
141
12.0
290
     0
1001
ACAD
1000
AcRTDxfName
1000
SCALE
  0
SCALE
  5
1B212
102
{ACAD_REACTORS
330
1B1FC
102
}
330
1B1FC
100
AcDbScale
 70
     0
300
3/32" = 1'-0"
140
0.09375
141
12.0
290
     0
1001
ACAD
1000
AcRTDxfName
1000
SCALE
  0
SCALE
  5
1B213
102
{ACAD_REACTORS
330
1B1FC
102
}
330
1B1FC
100
AcDbScale
 70
     0
300
1/8" = 1'-0"
140
0.125
141
12.0
290
     0
1001
ACAD
1000
AcRTDxfName
1000
SCALE
  0
SCALE
  5
1B214
102
{ACAD_REACTORS
330
1B1FC
102
}
330
1B1FC
100
AcDbScale
 70
     0
300
3/16" = 1'-0"
140
0.1875
141
12.0
290
     0
1001
ACAD
1000
AcRTDxfName
1000
SCALE
  0
SCALE
  5
1B215
102
{ACAD_REACTORS
330
1B1FC
102
}
330
1B1FC
100
AcDbScale
 70
     0
300
1/4" = 1'-0"
140
0.25
141
12.0
290
     0
1001
ACAD
1000
AcRTDxfName
1000
SCALE
  0
SCALE
  5
1B216
102
{ACAD_REACTORS
330
1B1FC
102
}
330
1B1FC
100
AcDbScale
 70
     0
300
3/8" = 1'-0"
140
0.375
141
12.0
290
     0
1001
ACAD
1000
AcRTDxfName
1000
SCALE
  0
SCALE
  5
1B217
102
{ACAD_REACTORS
330
1B1FC
102
}
330
1B1FC
100
AcDbScale
 70
     0
300
1/2" = 1'-0"
140
0.5
141
12.0
290
     0
1001
ACAD
1000
AcRTDxfName
1000
SCALE
  0
SCALE
  5
1B218
102
{ACAD_REACTORS
330
1B1FC
102
}
330
1B1FC
100
AcDbScale
 70
     0
300
3/4" = 1'-0"
140
0.75
141
12.0
290
     0
1001
ACAD
1000
AcRTDxfName
1000
SCALE
  0
SCALE
  5
1B219
102
{ACAD_REACTORS
330
1B1FC
102
}
330
1B1FC
100
AcDbScale
 70
     0
300
1" = 1'-0"
140
1.0
141
12.0
290
     0
1001
ACAD
1000
AcRTDxfName
1000
SCALE
  0
SCALE
  5
1B21A
102
{ACAD_REACTORS
330
1B1FC
102
}
330
1B1FC
100
AcDbScale
 70
     0
300
1-1/2" = 1'-0"
140
1.5
141
12.0
290
     0
1001
ACAD
1000
AcRTDxfName
1000
SCALE
  0
SCALE
  5
1B21B
102
{ACAD_REACTORS
330
1B1FC
102
}
330
1B1FC
100
AcDbScale
 70
     0
300
3" = 1'-0"
140
3.0
141
12.0
290
     0
1001
ACAD
1000
AcRTDxfName
1000
SCALE
  0
SCALE
  5
1B21C
102
{ACAD_REACTORS
330
1B1FC
102
}
330
1B1FC
100
AcDbScale
 70
     0
300
6" = 1'-0"
140
6.0
141
12.0
290
     0
1001
ACAD
1000
AcRTDxfName
1000
SCALE
  0
SCALE
  5
1B21D
102
{ACAD_REACTORS
330
1B1FC
102
}
330
1B1FC
100
AcDbScale
 70
     0
300
1'-0" = 1'-0"
140
12.0
141
12.0
290
     0
1001
ACAD
1000
AcRTDxfName
1000
SCALE
  0
ACDBSECTIONVIEWSTYLE
  5
20CB1
102
{ACAD_XDICTIONARY
360
2188E
102
}
102
{ACAD_REACTORS
330
1B2EE
102
}
330
1B2EE
100
AcDbModelDocViewStyle
 70
     0
  3
Imperial24
290
     0
100
AcDbSectionViewStyle
 70
     0
 71
     0
 90
       78
 71
     1
340
11
 40
0.24
340
0
340
0
 40
0.24
300
I, O, Q, S, X, Z
 40
0.48
 90
        3
 40
0.18
 90
        1
 71
     2
340
16
 90
       25
340
16
 90
       50
 40
0.24
 40
0.0
 40
0.24
 71
     3
340
11
 40
0.24
 90
        1
 40
0.75
 90
        1
300
%<\AcVar ViewType \f "%tc1">% %<\AcVar ViewSectionStartId>%-%<\AcVar ViewSectionEndId>%\PVARIA %<\AcVar ViewScale \f "%sn">%
 71
     4
300
ANSI31
 40
1.0
 90
        0
290
     0
290
     0
 90
        6
 40
0.0
 40
1.570796326794896
 40
0.2617993877991494
 40
1.308996938995747
 40
-0.2617993877991494
 40
1.832595714594044
  0
ACDBSECTIONVIEWSTYLE
  5
1B2EF
102
{ACAD_XDICTIONARY
360
2188A
102
}
102
{ACAD_REACTORS
330
1B2EE
102
}
330
1B2EE
100
AcDbModelDocViewStyle
 70
     0
  3
Metric50
290
     0
100
AcDbSectionViewStyle
 70
     0
 71
     0
 90
      102
 71
     1
340
11
 40
5.0
340
0
340
0
 40
5.0
300
I, O, Q, S, X, Z
 40
10.0
 90
        0
 40
2.5
 90
        0
 71
     2
340
16
 90
       25
340
16
 90
       50
 40
5.0
 40
2.5
 40
5.0
 71
     3
340
11
 40
5.0
 90
        0
 40
15.0
 90
        1
300
%<\AcVar ViewSectionStartId>%-%<\AcVar ViewSectionEndId>% (%<\AcVar ViewScale \f "%sn">%)
 71
     4
300
ANSI31
 40
1.0
 90
        0
290
     0
290
     0
 90
        6
 40
0.0
 40
1.570796326794896
 40
0.2617993877991494
 40
1.308996938995747
 40
-0.2617993877991494
 40
1.832595714594044
  0
TABLESTYLE
  5
31A2
102
{ACAD_XDICTIONARY
360
1B314
102
}
102
{ACAD_REACTORS
330
31A1
102
}
330
31A1
100
AcDbTableStyle
  3
Standard
 70
     0
 71
     0
 40
1.5
 41
1.5
280
     0
281
     0
  7
STANDARD
140
4.5
170
     2
 62
     0
 63
     7
283
     0
274
    -2
284
     1
 64
     0
275
    -2
285
     1
 65
     0
276
    -2
286
     1
 66
     0
277
    -2
287
     1
 67
     0
278
    -2
288
     1
 68
     0
279
    -2
289
     1
 69
     0
  7
STANDARD
140
6.0
170
     5
 62
     0
 63
     7
283
     0
274
    -2
284
     1
 64
     0
275
    -2
285
     1
 65
     0
276
    -2
286
     1
 66
     0
277
    -2
287
     1
 67
     0
278
    -2
288
     1
 68
     0
279
    -2
289
     1
 69
     0
  7
STANDARD
140
4.5
170
     5
 62
     0
 63
     7
283
     0
274
    -2
284
     1
 64
     0
275
    -2
285
     1
 65
     0
276
    -2
286
     1
 66
     0
277
    -2
287
     1
 67
     0
278
    -2
288
     1
 68
     0
279
    -2
289
     1
 69
     0
  0
VISUALSTYLE
  5
3195
102
{ACAD_XDICTIONARY
360
21857
102
}
102
{ACAD_REACTORS
330
318F
102
}
330
318F
100
AcDbVisualStyle
  2

 70
     4
 71
     0
 72
     2
 73
     0
 90
        0
 40
-0.6
 41
-30.0
 62
     5
 63
     7
 74
     1
 91
        4
 64
     7
 65
   257
 75
     1
175
     1
 42
1.0
 92
        0
 66
   257
 43
1.0
 76
     1
 77
     6
 78
     2
 67
     7
 79
     5
170
     0
171
     0
290
     0
174
     0
 93
        1
 44
0.0
173
     0
291
     0
 45
0.0
1001
ACAD
1000
AcDbSavedByObjectVersion
1070
     0
  0
VISUALSTYLE
  5
3197
102
{ACAD_XDICTIONARY
360
2185B
102
}
102
{ACAD_REACTORS
330
318F
102
}
330
318F
100
AcDbVisualStyle
  2

 70
     6
 71
     1
 72
     2
 73
     2
 90
        0
 40
-0.6
 41
-30.0
 62
     5
 63
     7
 74
     2
 91
        2
 64
     7
 65
   257
 75
     2
175
     1
 42
40.0
 92
        0
 66
   257
 43
1.0
 76
     1
 77
     6
 78
     2
 67
     7
 79
     3
170
     0
171
     0
290
     0
174
     0
 93
        1
 44
0.0
173
     0
291
     0
 45
0.0
1001
ACAD
1000
AcDbSavedByObjectVersion
1070
     0
  0
VISUALSTYLE
  5
3196
102
{ACAD_XDICTIONARY
360
21859
102
}
102
{ACAD_REACTORS
330
318F
102
}
330
318F
100
AcDbVisualStyle
  2

 70
     5
 71
     0
 72
     2
 73
     0
 90
        0
 40
-0.6
 41
-30.0
 62
     5
 63
     7
 74
     1
 91
        4
 64
     7
 65
   257
 75
     1
175
     1
 42
1.0
 92
        0
 66
   257
 43
1.0
 76
     1
 77
     6
 78
     2
 67
     7
 79
     5
170
     0
171
     0
290
     0
174
     0
 93
        1
 44
0.0
173
     0
291
     0
 45
0.0
1001
ACAD
1000
AcDbSavedByObjectVersion
1070
     0
  0
VISUALSTYLE
  5
3194
102
{ACAD_XDICTIONARY
360
21855
102
}
102
{ACAD_REACTORS
330
318F
102
}
330
318F
100
AcDbVisualStyle
  2

 70
     7
 71
     1
 72
     0
 73
     1
 90
        0
 40
-0.6
 41
-30.0
 62
     5
 63
     7
 74
     0
 91
        4
 64
     7
 65
   257
 75
     1
175
     1
 42
1.0
 92
        8
 66
     7
 43
1.0
 76
     1
 77
     6
 78
     2
 67
     7
 79
     5
170
     0
171
     0
290
     0
174
     0
 93
        1
 44
0.0
173
     0
291
     1
 45
0.0
1001
ACAD
1000
AcDbSavedByObjectVersion
1070
     0
  0
VISUALSTYLE
  5
319B
102
{ACAD_XDICTIONARY
360
21863
102
}
102
{ACAD_REACTORS
330
318F
102
}
330
318F
100
AcDbVisualStyle
  2

 70
    12
 71
     2
 72
     2
 73
     0
 90
        0
 40
-0.6
 41
-30.0
 62
     5
 63
     7
 74
     1
 91
        4
 64
     7
 65
   257
 75
     1
175
     1
 42
1.0
 92
        8
 66
     7
 43
1.0
 76
     1
 77
     6
 78
     2
 67
     7
 79
     5
170
     0
171
     0
290
     0
174
     0
 93
        1
 44
50.0
173
     0
291
     1
 45
0.0
1001
ACAD
1000
AcDbSavedByObjectVersion
1070
     0
  0
VISUALSTYLE
  5
319F
102
{ACAD_XDICTIONARY
360
2186B
102
}
102
{ACAD_REACTORS
330
318F
102
}
330
318F
100
AcDbVisualStyle
  2

 70
    16
 71
     2
 72
     2
 73
     3
 90
        0
 40
-0.6
 41
-30.0
 62
     5
 63
     8
 74
     1
 91
        4
 64
     7
 65
   257
 75
     1
175
     1
 42
1.0
 92
        8
 66
     8
 43
1.0
 76
     1
 77
     6
 78
     2
 67
     7
 79
     5
170
     0
171
     0
290
     0
174
     0
 93
        1
 44
0.0
173
     0
291
     1
 45
0.0
1001
ACAD
1000
AcDbSavedByObjectVersion
1070
     0
  0
VISUALSTYLE
  5
3198
102
{ACAD_XDICTIONARY
360
2185D
102
}
102
{ACAD_REACTORS
330
318F
102
}
330
318F
100
AcDbVisualStyle
  2

 70
     9
 71
     3
 72
     2
 73
     0
 90
        0
 40
-0.6
 41
-30.0
 62
     5
 63
     7
 74
     2
 91
        2
 64
     7
 65
   257
 75
     1
175
     1
 42
40.0
 92
        8
 66
     7
 43
1.0
 76
     1
 77
     6
 78
     2
 67
     7
 79
     3
170
     0
171
     0
290
     0
174
     0
 93
        1
 44
0.0
173
     0
291
     0
 45
0.0
1001
ACAD
1000
AcDbSavedByObjectVersion
1070
     0
  0
VISUALSTYLE
  5
319A
102
{ACAD_XDICTIONARY
360
21861
102
}
102
{ACAD_REACTORS
330
318F
102
}
330
318F
100
AcDbVisualStyle
  2

 70
    11
 71
     2
 72
     2
 73
     0
 90
        0
 40
-0.6
 41
-30.0
 62
     5
 63
     7
 74
     1
 91
        4
 64
     7
 65
   257
 75
     1
175
     1
 42
1.0
 92
        8
 66
     7
 43
1.0
 76
     1
 77
     6
 78
     2
 67
     7
 79
     5
170
     0
171
     0
290
     0
174
     0
 93
        1
 44
-50.0
173
     0
291
     1
 45
0.0
1001
ACAD
1000
AcDbSavedByObjectVersion
1070
     0
  0
VISUALSTYLE
  5
1B2EC
102
{ACAD_XDICTIONARY
360
21888
102
}
102
{ACAD_REACTORS
330
318F
102
}
330
318F
100
AcDbVisualStyle
  2

 70
    22
 71
     2
 72
     2
 73
     0
 90
        0
 40
-0.6
 41
-30.0
 62
     5
 63
     7
 74
     1
 91
        4
 64
     7
 65
   257
 75
     1
175
     1
 42
1.0
 92
        8
 66
     7
 43
1.0
 76
     1
 77
     6
 78
     2
 67
     7
 79
     5
170
     0
171
     0
290
     0
174
     0
 93
        1
 44
0.0
173
     0
291
     1
 45
0.0
1001
ACAD
1000
AcDbSavedByObjectVersion
1070
     0
  0
VISUALSTYLE
  5
319E
102
{ACAD_XDICTIONARY
360
21869
102
}
102
{ACAD_REACTORS
330
318F
102
}
330
318F
100
AcDbVisualStyle
  2

 70
    15
 71
     2
 72
     2
 73
     0
 90
        0
 40
-0.6
 41
-30.0
 62
     5
 63
     7
 74
     1
 91
        4
 64
     7
 65
   257
 75
     1
175
     1
 42
1.0
 92
        8
 66
     7
 43
1.0
 76
     1
 77
     6
 78
     2
 67
     7
 79
     5
170
     0
171
     0
290
     0
174
     0
 93
        1
 44
0.0
173
     0
291
     1
 45
0.0
1001
ACAD
1000
AcDbSavedByObjectVersion
1070
     0
  0
VISUALSTYLE
  5
3190
102
{ACAD_XDICTIONARY
360
2184D
102
}
102
{ACAD_REACTORS
330
318F
102
}
330
318F
100
AcDbVisualStyle
  2

 70
     0
 71
     2
 72
     1
 73
     1
 90
        2
 40
-0.6
 41
30.0
 62
     5
 63
     7
 74
     0
 91
        4
 64
     7
 65
   257
 75
     1
175
     1
 42
1.0
 92
        8
 66
     7
 43
1.0
 76
     1
 77
     6
 78
     2
 67
     7
 79
     5
170
     0
171
     0
290
     0
174
     0
 93
       13
 44
0.0
173
     0
291
     1
 45
0.0
1001
ACAD
1000
AcDbSavedByObjectVersion
1070
     0
  0
VISUALSTYLE
  5
3191
102
{ACAD_XDICTIONARY
360
2184F
102
}
102
{ACAD_REACTORS
330
318F
102
}
330
318F
100
AcDbVisualStyle
  2

 70
     1
 71
     2
 72
     1
 73
     1
 90
        2
 40
-0.6
 41
30.0
 62
     5
 63
     7
 74
     1
 91
        4
 64
     7
 65
   257
 75
     1
175
     1
 42
1.0
 92
        0
 66
   257
 43
1.0
 76
     1
 77
     6
 78
     2
 67
     7
 79
     5
170
     0
171
     0
290
     0
174
     0
 93
       13
 44
0.0
173
     0
291
     1
 45
0.0
1001
ACAD
1000
AcDbSavedByObjectVersion
1070
     0
  0
VISUALSTYLE
  5
3192
102
{ACAD_XDICTIONARY
360
21851
102
}
102
{ACAD_REACTORS
330
318F
102
}
330
318F
100
AcDbVisualStyle
  2

 70
     2
 71
     2
 72
     2
 73
     1
 90
        2
 40
-0.6
 41
30.0
 62
     5
 63
     7
 74
     0
 91
        4
 64
     7
 65
   257
 75
     1
175
     1
 42
1.0
 92
        0
 66
     7
 43
1.0
 76
     1
 77
     6
 78
     2
 67
     7
 79
     5
170
     0
171
     0
290
     0
174
     0
 93
       13
 44
0.0
173
     0
291
     1
 45
0.0
1001
ACAD
1000
AcDbSavedByObjectVersion
1070
     0
  0
VISUALSTYLE
  5
3193
102
{ACAD_XDICTIONARY
360
21853
102
}
102
{ACAD_REACTORS
330
318F
102
}
330
318F
100
AcDbVisualStyle
  2

 70
     3
 71
     2
 72
     2
 73
     1
 90
        2
 40
-0.6
 41
30.0
 62
     5
 63
     7
 74
     1
 91
        4
 64
     7
 65
   257
 75
     1
175
     1
 42
1.0
 92
        0
 66
   257
 43
1.0
 76
     1
 77
     6
 78
     2
 67
     7
 79
     5
170
     0
171
     0
290
     0
174
     0
 93
       13
 44
0.0
173
     0
291
     1
 45
0.0
1001
ACAD
1000
AcDbSavedByObjectVersion
1070
     0
  0
VISUALSTYLE
  5
1B2E4
102
{ACAD_XDICTIONARY
360
21878
102
}
102
{ACAD_REACTORS
330
318F
102
}
330
318F
100
AcDbVisualStyle
  2

 70
     6
 71
     1
 72
     2
 73
     2
 90
        0
 40
-0.6
 41
-30.0
 62
     5
 63
     7
 74
     2
 91
        2
 64
     7
 65
   257
 75
     2
175
     1
 42
40.0
 92
        0
 66
   257
 43
1.0
 76
     1
 77
     6
 78
     2
 67
     7
 79
     3
170
     0
171
     0
290
     0
174
     0
 93
        1
 44
0.0
173
     0
291
     0
 45
0.0
1001
ACAD
1000
AcDbSavedByObjectVersion
1070
     0
  0
VISUALSTYLE
  5
1B2EA
102
{ACAD_XDICTIONARY
360
21884
102
}
102
{ACAD_REACTORS
330
318F
102
}
330
318F
100
AcDbVisualStyle
  2

 70
    20
 71
     2
 72
     2
 73
     0
 90
        0
 40
-0.6
 41
-30.0
 62
     5
 63
     7
 74
     1
 91
        4
 64
     7
 65
   257
 75
     1
175
     1
 42
1.0
 92
       10
 66
     7
 43
1.0
 76
     1
 77
     6
 78
     2
 67
     7
 79
     5
170
     0
171
     0
290
     0
174
     0
 93
        1
 44
0.0
173
     0
291
     1
 45
0.0
1001
ACAD
1000
AcDbSavedByObjectVersion
1070
     0
  0
VISUALSTYLE
  5
319D
102
{ACAD_XDICTIONARY
360
21867
102
}
102
{ACAD_REACTORS
330
318F
102
}
330
318F
100
AcDbVisualStyle
  2

 70
    14
 71
     2
 72
     2
 73
     0
 90
        0
 40
-0.6
 41
-30.0
 62
     5
 63
     7
 74
     1
 91
        4
 64
     7
 65
   257
 75
     7
175
     7
 42
1.0
 92
        8
 66
     7
 43
1.0
 76
     1
 77
     6
 78
     2
 67
     7
 79
     5
170
     0
171
     0
290
     0
174
     0
 93
        1
 44
0.0
173
     0
291
     1
 45
0.0
1001
ACAD
1000
AcDbSavedByObjectVersion
1070
     0
  0
VISUALSTYLE
  5
1B2EB
102
{ACAD_XDICTIONARY
360
21886
102
}
102
{ACAD_REACTORS
330
318F
102
}
330
318F
100
AcDbVisualStyle
  2

 70
    21
 71
     2
 72
     2
 73
     0
 90
        0
 40
-0.6
 41
-30.0
 62
     5
 63
     7
 74
     1
 91
        4
 64
     7
 65
   257
 75
     1
175
     1
 42
1.0
 92
        9
 66
     7
 43
1.0
 76
     1
 77
     6
 78
     2
 67
     7
 79
     5
170
     0
171
     0
290
     0
174
     0
 93
        1
 44
0.0
173
     0
291
     1
 45
0.0
1001
ACAD
1000
AcDbSavedByObjectVersion
1070
     0
  0
VISUALSTYLE
  5
3199
102
{ACAD_XDICTIONARY
360
2185F
102
}
102
{ACAD_REACTORS
330
318F
102
}
330
318F
100
AcDbVisualStyle
  2

 70
     8
 71
     2
 72
     2
 73
     0
 90
        0
 40
-0.6
 41
-30.0
 62
     5
 63
     7
 74
     1
 91
        0
 64
     7
 65
   257
 75
     1
175
     1
 42
1.0
 92
        8
 66
     8
 43
1.0
 76
     1
 77
     6
 78
     2
 67
     7
 79
     5
170
     0
171
     0
290
     0
174
     0
 93
       13
 44
0.0
173
     0
291
     0
 45
0.0
1001
ACAD
1000
AcDbSavedByObjectVersion
1070
     0
  0
VISUALSTYLE
  5
1B2E9
102
{ACAD_XDICTIONARY
360
21882
102
}
102
{ACAD_REACTORS
330
318F
102
}
330
318F
100
AcDbVisualStyle
  2

 70
    27
 71
     2
 72
     2
 73
     1
 90
        2
 40
-0.6
 41
30.0
 62
     5
 63
     7
 74
     0
 91
        4
 64
     7
 65
   257
 75
     1
175
     1
 42
1.0
 92
        8
 66
   257
 43
1.0
 76
     1
 77
     6
 78
     2
 67
     8
 79
     3
170
     0
171
     0
290
     0
174
     0
 93
        5
 44
0.0
173
     0
291
     0
 45
0.0
1001
ACAD
1000
AcDbSavedByObjectVersion
1070
     0
  0
VISUALSTYLE
  5
1B2E8
102
{ACAD_XDICTIONARY
360
21880
102
}
102
{ACAD_REACTORS
330
318F
102
}
330
318F
100
AcDbVisualStyle
  2

 70
    26
 71
     2
 72
     2
 73
     1
 90
        2
 40
-0.6
 41
30.0
 62
     5
 63
     7
 74
     1
 91
       10
 64
     7
 65
   257
 75
     2
175
     1
 42
1.0
 92
        8
 66
   257
 43
1.0
 76
     1
 77
     6
 78
     2
 67
     7
 79
     3
170
     0
171
     0
290
     0
174
     0
 93
        5
 44
0.0
173
     0
291
     0
 45
0.0
1001
ACAD
1000
AcDbSavedByObjectVersion
1070
     0
  0
VISUALSTYLE
  5
1B2E5
102
{ACAD_XDICTIONARY
360
2187A
102
}
102
{ACAD_REACTORS
330
318F
102
}
330
318F
100
AcDbVisualStyle
  2

 70
    23
 71
     2
 72
     2
 73
     3
 90
        0
 40
-0.6
 41
-30.0
 62
     5
 63
     7
 74
     2
 91
        2
 64
     7
 65
     7
 75
     1
175
     1
 42
40.0
 92
        8
 66
     7
 43
1.0
 76
     1
 77
     6
 78
     2
 67
     7
 79
     3
170
     0
171
     0
290
     0
174
     0
 93
        1
 44
0.0
173
     0
291
     0
 45
0.0
1001
ACAD
1000
AcDbSavedByObjectVersion
1070
     0
  0
VISUALSTYLE
  5
1B2E6
102
{ACAD_XDICTIONARY
360
2187C
102
}
102
{ACAD_REACTORS
330
318F
102
}
330
318F
100
AcDbVisualStyle
  2

 70
    24
 71
     1
 72
     2
 73
     2
 90
        0
 40
-0.6
 41
-30.0
 62
     5
 63
     7
 74
     2
 91
        2
 64
     7
 65
     7
 75
     1
175
     1
 42
40.0
 92
       11
 66
     7
 43
1.0
 76
     1
 77
     6
 78
     2
 67
     7
 79
     6
170
     0
171
     0
290
     0
174
     0
 93
        1
 44
0.0
173
     0
291
     0
 45
0.0
1001
ACAD
1000
AcDbSavedByObjectVersion
1070
     0
  0
VISUALSTYLE
  5
319C
102
{ACAD_XDICTIONARY
360
21865
102
}
102
{ACAD_REACTORS
330
318F
102
}
330
318F
100
AcDbVisualStyle
  2

 70
    13
 71
     2
 72
     2
 73
     0
 90
        0
 40
-0.6
 41
-30.0
 62
     5
 63
     7
 74
     1
 91
        4
 64
     7
 65
   257
 75
     1
175
     1
 42
1.0
 92
       12
 66
     7
 43
1.0
 76
     1
 77
     6
 78
     2
 67
     7
 79
     5
170
     0
171
     0
290
     0
174
     0
 93
        1
 44
0.0
173
     0
291
     1
 45
0.0
1001
ACAD
1000
AcDbSavedByObjectVersion
1070
     0
  0
VISUALSTYLE
  5
1B2E3
102
{ACAD_XDICTIONARY
360
21876
102
}
102
{ACAD_REACTORS
330
318F
102
}
330
318F
100
AcDbVisualStyle
  2

 70
     5
 71
     0
 72
     2
 73
     0
 90
        0
 40
-0.6
 41
-30.0
 62
     5
 63
     7
 74
     1
 91
        4
 64
     7
 65
   257
 75
     1
175
     1
 42
1.0
 92
        0
 66
   257
 43
1.0
 76
     1
 77
     6
 78
     2
 67
     7
 79
     3
170
     0
171
     0
290
     0
174
     0
 93
        1
 44
0.0
173
     0
291
     0
 45
0.0
1001
ACAD
1000
AcDbSavedByObjectVersion
1070
     0
  0
VISUALSTYLE
  5
1B2E7
102
{ACAD_XDICTIONARY
360
2187E
102
}
102
{ACAD_REACTORS
330
318F
102
}
330
318F
100
AcDbVisualStyle
  2

 70
    25
 71
     2
 72
     2
 73
     1
 90
        1
 40
0.5
 41
-30.0
 62
     5
 63
     7
 74
     1
 91
        0
 64
     7
 65
   257
 75
     1
175
     1
 42
1.0
 92
        8
 66
     7
 43
1.0
 76
     1
 77
     6
 78
     2
 67
     7
 79
     3
170
     0
171
     0
290
     0
174
     0
 93
       13
 44
0.0
173
     0
291
     0
 45
0.0
1001
ACAD
1000
AcDbSavedByObjectVersion
1070
     0
  0
DICTIONARYVAR
  5
1B222
102
{ACAD_REACTORS
330
33A3
102
}
330
33A3
100
DictionaryVariables
280
     0
  1
1:1
  0
DICTIONARYVAR
  5
1B30F
102
{ACAD_REACTORS
330
33A3
102
}
330
33A3
100
DictionaryVariables
280
     0
  1
STANDARD
  0
DICTIONARYVAR
  5
33A4
102
{ACAD_REACTORS
330
33A3
102
}
330
33A3
100
DictionaryVariables
280
     0
  1
STANDARD
  0
DICTIONARYVAR
  5
1B310
102
{ACAD_REACTORS
330
33A3
102
}
330
33A3
100
DictionaryVariables
280
     0
  1
Metric50
  0
DICTIONARYVAR
  5
1B311
102
{ACAD_REACTORS
330
33A3
102
}
330
33A3
100
DictionaryVariables
280
     0
  1
Metric50
  0
DICTIONARYVAR
  5
9BE8
102
{ACAD_REACTORS
330
33A3
102
}
330
33A3
100
DictionaryVariables
280
     0
  1
1
  0
DICTIONARYVAR
  5
9BE7
102
{ACAD_REACTORS
330
33A3
102
}
330
33A3
100
DictionaryVariables
280
     0
  1
0
  0
DICTIONARYVAR
  5
20993
102
{ACAD_REACTORS
330
33A3
102
}
330
33A3
100
DictionaryVariables
280
     0
  1
1
  0
DICTIONARYVAR
  5
20994
102
{ACAD_REACTORS
330
33A3
102
}
330
33A3
100
DictionaryVariables
280
     0
  1
15
  0
DICTIONARYVAR
  5
20992
102
{ACAD_REACTORS
330
33A3
102
}
330
33A3
100
DictionaryVariables
280
     0
  1
0
  0
DICTIONARYVAR
  5
20991
102
{ACAD_REACTORS
330
33A3
102
}
330
33A3
100
DictionaryVariables
280
     0
  1
0
  0
DICTIONARYVAR
  5
9BE6
102
{ACAD_REACTORS
330
33A3
102
}
330
33A3
100
DictionaryVariables
280
     0
  1
127
  0
DICTIONARYVAR
  5
21849
102
{ACAD_REACTORS
330
33A3
102
}
330
33A3
100
DictionaryVariables
280
     0
  1
2
  0
DICTIONARY
  5
21890
330
20CB3
100
AcDbDictionary
280
     1
281
     1
  3
ACAD_XREC_ROUNDTRIP
360
21891
  0
DICTIONARY
  5
2188C
330
1B2F1
100
AcDbDictionary
280
     1
281
     1
  3
ACAD_XREC_ROUNDTRIP
360
2188D
  0
DICTIONARY
  5
21870
330
31A7
100
AcDbDictionary
280
     1
281
     1
  3
ACAD_XREC_ROUNDTRIP
360
21871
  0
DICTIONARY
  5
2186E
330
31A6
100
AcDbDictionary
280
     1
281
     1
  3
ACAD_XREC_ROUNDTRIP
360
2186F
  0
DICTIONARY
  5
1B22B
330
318D
100
AcDbDictionary
280
     1
281
     1
  3
ACAD_XREC_ROUNDTRIP
360
1B22C
  0
DICTIONARY
  5
1B22D
330
318C
100
AcDbDictionary
280
     1
281
     1
  3
ACAD_XREC_ROUNDTRIP
360
1B22E
  0
DICTIONARY
  5
1B22F
330
318E
100
AcDbDictionary
280
     1
281
     1
  3
ACAD_XREC_ROUNDTRIP
360
1B230
  0
DICTIONARY
  5
2188E
330
20CB1
100
AcDbDictionary
280
     1
281
     1
  3
ACAD_XREC_ROUNDTRIP
360
2188F
  0
DICTIONARY
  5
2188A
330
1B2EF
100
AcDbDictionary
280
     1
281
     1
  3
ACAD_XREC_ROUNDTRIP
360
2188B
  0
DICTIONARY
  5
1B314
330
31A2
100
AcDbDictionary
280
     1
281
     1
  3
ACAD_ROUNDTRIP_2008_TABLESTYLE_CELLSTYLEMAP
360
2184A
  3
ACAD_XREC_ROUNDTRIP
360
2186D
  0
DICTIONARY
  5
21857
330
3195
100
AcDbDictionary
280
     1
281
     1
  3
ACAD_XREC_ROUNDTRIP
360
21858
  0
DICTIONARY
  5
2185B
330
3197
100
AcDbDictionary
280
     1
281
     1
  3
ACAD_XREC_ROUNDTRIP
360
2185C
  0
DICTIONARY
  5
21859
330
3196
100
AcDbDictionary
280
     1
281
     1
  3
ACAD_XREC_ROUNDTRIP
360
2185A
  0
DICTIONARY
  5
21855
330
3194
100
AcDbDictionary
280
     1
281
     1
  3
ACAD_XREC_ROUNDTRIP
360
21856
  0
DICTIONARY
  5
21863
330
319B
100
AcDbDictionary
280
     1
281
     1
  3
ACAD_XREC_ROUNDTRIP
360
21864
  0
DICTIONARY
  5
2186B
330
319F
100
AcDbDictionary
280
     1
281
     1
  3
ACAD_XREC_ROUNDTRIP
360
2186C
  0
DICTIONARY
  5
2185D
330
3198
100
AcDbDictionary
280
     1
281
     1
  3
ACAD_XREC_ROUNDTRIP
360
2185E
  0
DICTIONARY
  5
21861
330
319A
100
AcDbDictionary
280
     1
281
     1
  3
ACAD_XREC_ROUNDTRIP
360
21862
  0
DICTIONARY
  5
21888
330
1B2EC
100
AcDbDictionary
280
     1
281
     1
  3
ACAD_XREC_ROUNDTRIP
360
21889
  0
DICTIONARY
  5
21869
330
319E
100
AcDbDictionary
280
     1
281
     1
  3
ACAD_XREC_ROUNDTRIP
360
2186A
  0
DICTIONARY
  5
2184D
330
3190
100
AcDbDictionary
280
     1
281
     1
  3
ACAD_XREC_ROUNDTRIP
360
2184E
  0
DICTIONARY
  5
2184F
330
3191
100
AcDbDictionary
280
     1
281
     1
  3
ACAD_XREC_ROUNDTRIP
360
21850
  0
DICTIONARY
  5
21851
330
3192
100
AcDbDictionary
280
     1
281
     1
  3
ACAD_XREC_ROUNDTRIP
360
21852
  0
DICTIONARY
  5
21853
330
3193
100
AcDbDictionary
280
     1
281
     1
  3
ACAD_XREC_ROUNDTRIP
360
21854
  0
DICTIONARY
  5
21878
330
1B2E4
100
AcDbDictionary
280
     1
281
     1
  3
ACAD_XREC_ROUNDTRIP
360
21879
  0
DICTIONARY
  5
21884
330
1B2EA
100
AcDbDictionary
280
     1
281
     1
  3
ACAD_XREC_ROUNDTRIP
360
21885
  0
DICTIONARY
  5
21867
330
319D
100
AcDbDictionary
280
     1
281
     1
  3
ACAD_XREC_ROUNDTRIP
360
21868
  0
DICTIONARY
  5
21886
330
1B2EB
100
AcDbDictionary
280
     1
281
     1
  3
ACAD_XREC_ROUNDTRIP
360
21887
  0
DICTIONARY
  5
2185F
330
3199
100
AcDbDictionary
280
     1
281
     1
  3
ACAD_XREC_ROUNDTRIP
360
21860
  0
DICTIONARY
  5
21882
330
1B2E9
100
AcDbDictionary
280
     1
281
     1
  3
ACAD_XREC_ROUNDTRIP
360
21883
  0
DICTIONARY
  5
21880
330
1B2E8
100
AcDbDictionary
280
     1
281
     1
  3
ACAD_XREC_ROUNDTRIP
360
21881
  0
DICTIONARY
  5
2187A
330
1B2E5
100
AcDbDictionary
280
     1
281
     1
  3
ACAD_XREC_ROUNDTRIP
360
2187B
  0
DICTIONARY
  5
2187C
330
1B2E6
100
AcDbDictionary
280
     1
281
     1
  3
ACAD_XREC_ROUNDTRIP
360
2187D
  0
DICTIONARY
  5
21865
330
319C
100
AcDbDictionary
280
     1
281
     1
  3
ACAD_XREC_ROUNDTRIP
360
21866
  0
DICTIONARY
  5
21876
330
1B2E3
100
AcDbDictionary
280
     1
281
     1
  3
ACAD_XREC_ROUNDTRIP
360
21877
  0
DICTIONARY
  5
2187E
330
1B2E7
100
AcDbDictionary
280
     1
281
     1
  3
ACAD_XREC_ROUNDTRIP
360
2187F
  0
XRECORD
  5
21891
102
{ACAD_REACTORS
330
21890
102
}
330
21890
100
AcDbXrecord
280
     1
102
DISPLAYNAME
  1
Imperial24
102
FLAGS
 90
        0
  0
XRECORD
  5
2188D
102
{ACAD_REACTORS
330
2188C
102
}
330
2188C
100
AcDbXrecord
280
     1
102
DISPLAYNAME
  1
Metric50
102
FLAGS
 90
        0
  0
XRECORD
  5
21871
102
{ACAD_REACTORS
330
21870
102
}
330
21870
100
AcDbXrecord
280
     1
102
SHADEPLOT
 70
     0
102
SHADEPLOTRESLEVEL
 70
     2
102
SHADEPLOTCUSTOMDPI
 70
   300
  0
XRECORD
  5
2186F
102
{ACAD_REACTORS
330
2186E
102
}
330
2186E
100
AcDbXrecord
280
     1
102
SHADEPLOT
 70
     0
102
SHADEPLOTRESLEVEL
 70
     2
102
SHADEPLOTCUSTOMDPI
 70
   300
  0
XRECORD
  5
1B22C
102
{ACAD_REACTORS
330
1B22B
102
}
330
1B22B
100
AcDbXrecord
280
     1
102
MATERIAL
148
0.0
149
0.0
149
0.0
 93
        0
 94
      127
282
     0
 72
     1
 77
     1
171
     1
175
     1
179
     1
273
     0
  0
XRECORD
  5
1B22E
102
{ACAD_REACTORS
330
1B22D
102
}
330
1B22D
100
AcDbXrecord
280
     1
102
MATERIAL
148
0.0
149
0.0
149
0.0
 93
        0
 94
      127
282
     0
 72
     1
 77
     1
171
     1
175
     1
179
     1
273
     0
  0
XRECORD
  5
1B230
102
{ACAD_REACTORS
330
1B22F
102
}
330
1B22F
100
AcDbXrecord
280
     1
102
MATERIAL
148
0.0
149
0.0
149
0.0
 93
        0
 94
      127
282
     0
 72
     1
 77
     1
171
     1
175
     1
179
     1
273
     0
  0
XRECORD
  5
2188F
102
{ACAD_REACTORS
330
2188E
102
}
330
2188E
100
AcDbXrecord
280
     1
102
DISPLAYNAME
  1
Imperial24
102
FLAGS
 90
        0
  0
XRECORD
  5
2188B
102
{ACAD_REACTORS
330
2188A
102
}
330
2188A
100
AcDbXrecord
280
     1
102
DISPLAYNAME
  1
Metric50
102
FLAGS
 90
        0
  0
CELLSTYLEMAP
  5
2184A
102
{ACAD_REACTORS
330
1B314
102
}
330
1B314
100
AcDbCellStyleMap
 90
        3
300
CELLSTYLE
  1
TABLEFORMAT_BEGIN
 90
        5
170
     1
 91
        0
 92
    32768
 62
   257
 93
        1
300
CONTENTFORMAT
  1
CONTENTFORMAT_BEGIN
 90
        0
 91
        0
 92
        4
 93
        0
300

 40
0.0
140
1.0
 94
        5
 62
     0
340
11
144
6.0
309
CONTENTFORMAT_END
171
     1
301
MARGIN
  1
CELLMARGIN_BEGIN
 40
1.5
 40
1.5
 40
1.5
 40
1.5
 40
0.18
 40
0.18
309
CELLMARGIN_END
 94
        6
 95
        1
302
GRIDFORMAT
  1
GRIDFORMAT_BEGIN
 90
        0
 91
        1
 62
     0
 92
       -2
340
0
 93
        0
 40
0.045
309
GRIDFORMAT_END
 95
        2
302
GRIDFORMAT
  1
GRIDFORMAT_BEGIN
 90
        0
 91
        1
 62
     0
 92
       -2
340
0
 93
        0
 40
0.045
309
GRIDFORMAT_END
 95
        4
302
GRIDFORMAT
  1
GRIDFORMAT_BEGIN
 90
        0
 91
        1
 62
     0
 92
       -2
340
0
 93
        0
 40
0.045
309
GRIDFORMAT_END
 95
        8
302
GRIDFORMAT
  1
GRIDFORMAT_BEGIN
 90
        0
 91
        1
 62
     0
 92
       -2
340
0
 93
        0
 40
0.045
309
GRIDFORMAT_END
 95
       16
302
GRIDFORMAT
  1
GRIDFORMAT_BEGIN
 90
        0
 91
        1
 62
     0
 92
       -2
340
0
 93
        0
 40
0.045
309
GRIDFORMAT_END
 95
       32
302
GRIDFORMAT
  1
GRIDFORMAT_BEGIN
 90
        0
 91
        1
 62
     0
 92
       -2
340
0
 93
        0
 40
0.045
309
GRIDFORMAT_END
309
TABLEFORMAT_END
  1
CELLSTYLE_BEGIN
 90
        1
 91
        1
300
_TITLE
309
CELLSTYLE_END
300
CELLSTYLE
  1
TABLEFORMAT_BEGIN
 90
        5
170
     1
 91
        0
 92
        0
 62
   257
 93
        1
300
CONTENTFORMAT
  1
CONTENTFORMAT_BEGIN
 90
        0
 91
        0
 92
        4
 93
        0
300

 40
0.0
140
1.0
 94
        5
 62
     0
340
11
144
4.5
309
CONTENTFORMAT_END
171
     1
301
MARGIN
  1
CELLMARGIN_BEGIN
 40
1.5
 40
1.5
 40
1.5
 40
1.5
 40
0.18
 40
0.18
309
CELLMARGIN_END
 94
        6
 95
        1
302
GRIDFORMAT
  1
GRIDFORMAT_BEGIN
 90
        0
 91
        1
 62
     0
 92
       -2
340
0
 93
        0
 40
0.045
309
GRIDFORMAT_END
 95
        2
302
GRIDFORMAT
  1
GRIDFORMAT_BEGIN
 90
        0
 91
        1
 62
     0
 92
       -2
340
0
 93
        0
 40
0.045
309
GRIDFORMAT_END
 95
        4
302
GRIDFORMAT
  1
GRIDFORMAT_BEGIN
 90
        0
 91
        1
 62
     0
 92
       -2
340
0
 93
        0
 40
0.045
309
GRIDFORMAT_END
 95
        8
302
GRIDFORMAT
  1
GRIDFORMAT_BEGIN
 90
        0
 91
        1
 62
     0
 92
       -2
340
0
 93
        0
 40
0.045
309
GRIDFORMAT_END
 95
       16
302
GRIDFORMAT
  1
GRIDFORMAT_BEGIN
 90
        0
 91
        1
 62
     0
 92
       -2
340
0
 93
        0
 40
0.045
309
GRIDFORMAT_END
 95
       32
302
GRIDFORMAT
  1
GRIDFORMAT_BEGIN
 90
        0
 91
        1
 62
     0
 92
       -2
340
0
 93
        0
 40
0.045
309
GRIDFORMAT_END
309
TABLEFORMAT_END
  1
CELLSTYLE_BEGIN
 90
        2
 91
        1
300
_HEADER
309
CELLSTYLE_END
300
CELLSTYLE
  1
TABLEFORMAT_BEGIN
 90
        5
170
     1
 91
        0
 92
        0
 62
   257
 93
        1
300
CONTENTFORMAT
  1
CONTENTFORMAT_BEGIN
 90
        0
 91
        0
 92
        4
 93
        0
300

 40
0.0
140
1.0
 94
        2
 62
     0
340
11
144
4.5
309
CONTENTFORMAT_END
171
     1
301
MARGIN
  1
CELLMARGIN_BEGIN
 40
1.5
 40
1.5
 40
1.5
 40
1.5
 40
0.18
 40
0.18
309
CELLMARGIN_END
 94
        6
 95
        1
302
GRIDFORMAT
  1
GRIDFORMAT_BEGIN
 90
        0
 91
        1
 62
     0
 92
       -2
340
0
 93
        0
 40
0.045
309
GRIDFORMAT_END
 95
        2
302
GRIDFORMAT
  1
GRIDFORMAT_BEGIN
 90
        0
 91
        1
 62
     0
 92
       -2
340
0
 93
        0
 40
0.045
309
GRIDFORMAT_END
 95
        4
302
GRIDFORMAT
  1
GRIDFORMAT_BEGIN
 90
        0
 91
        1
 62
     0
 92
       -2
340
0
 93
        0
 40
0.045
309
GRIDFORMAT_END
 95
        8
302
GRIDFORMAT
  1
GRIDFORMAT_BEGIN
 90
        0
 91
        1
 62
     0
 92
       -2
340
0
 93
        0
 40
0.045
309
GRIDFORMAT_END
 95
       16
302
GRIDFORMAT
  1
GRIDFORMAT_BEGIN
 90
        0
 91
        1
 62
     0
 92
       -2
340
0
 93
        0
 40
0.045
309
GRIDFORMAT_END
 95
       32
302
GRIDFORMAT
  1
GRIDFORMAT_BEGIN
 90
        0
 91
        1
 62
     0
 92
       -2
340
0
 93
        0
 40
0.045
309
GRIDFORMAT_END
309
TABLEFORMAT_END
  1
CELLSTYLE_BEGIN
 90
        3
 91
        2
300
_DATA
309
CELLSTYLE_END
  0
XRECORD
  5
2186D
102
{ACAD_REACTORS
330
1B314
102
}
330
1B314
100
AcDbXrecord
280
     1
102
ACAD_ROUNDTRIP_PRE2007_TABLESTYLE
 90
        4
 91
        0
  1

 92
        4
 93
        0
  2

 94
        4
 95
        0
  3

  0
XRECORD
  5
21858
102
{ACAD_REACTORS
330
21857
102
}
330
21857
100
AcDbXrecord
280
     1
102
RTVSPost2010Prop28
280
     1
102
RTVSPost2010PropOp28
 70
     1
102
RTVSPost2010Prop29
280
     1
102
RTVSPost2010PropOp29
 70
     1
102
RTVSPost2010Prop30
280
     0
102
RTVSPost2010PropOp30
 70
     1
102
RTVSPost2010Prop31
280
     0
102
RTVSPost2010PropOp31
 70
     1
102
RTVSPost2010Prop32
280
     0
102
RTVSPost2010PropOp32
 70
     1
102
RTVSPost2010Prop33
280
     0
102
RTVSPost2010PropOp33
 70
     1
102
RTVSPost2010Prop34
280
     0
102
RTVSPost2010PropOp34
 70
     1
102
RTVSPost2010Prop35
280
     0
102
RTVSPost2010PropOp35
 70
     1
102
RTVSPost2010Prop36
280
     0
102
RTVSPost2010PropOp36
 70
     1
102
RTVSPost2010Prop37
 90
       50
102
RTVSPost2010PropOp37
 70
     1
102
RTVSPost2010Prop38
140
0.0
102
RTVSPost2010PropOp38
 70
     1
102
RTVSPost2010Prop39
140
1.0
102
RTVSPost2010PropOp39
 70
     1
102
RTVSPost2010Prop40
 90
        0
102
RTVSPost2010PropOp40
 70
     1
102
RTVSPost2010Prop41ColorIndex
 90
       18
102
RTVSPost2010Prop41ColorRGB
 90
        0
102
RTVSPost2010PropOp41
 70
     1
102
RTVSPost2010Prop42
 90
       50
102
RTVSPost2010PropOp42
 70
     1
102
RTVSPost2010Prop43
 90
        3
102
RTVSPost2010PropOp43
 70
     1
102
RTVSPost2010Prop44ColorIndex
 90
        5
102
RTVSPost2010Prop44ColorRGB
 90
      255
102
RTVSPost2010PropOp44
 70
     1
102
RTVSPost2010Prop45
280
     0
102
RTVSPost2010PropOp45
 70
     1
102
RTVSPost2010Prop46
 90
       50
102
RTVSPost2010PropOp46
 70
     1
102
RTVSPost2010Prop47
 90
       50
102
RTVSPost2010PropOp47
 70
     1
102
RTVSPost2010Prop48
 90
       50
102
RTVSPost2010PropOp48
 70
     1
102
RTVSPost2010Prop49
280
     0
102
RTVSPost2010PropOp49
 70
     1
102
RTVSPost2010Prop50
 90
       50
102
RTVSPost2010PropOp50
 70
     1
102
RTVSPost2010Prop51ColorIndex
 90
      256
102
RTVSPost2010Prop51ColorRGB
 90
-16777216
102
RTVSPost2010PropOp51
 70
     0
102
RTVSPost2010Prop52
140
1.0
102
RTVSPost2010PropOp52
 70
     0
102
RTVSPost2010Prop53
 90
        2
102
RTVSPost2010PropOp53
 70
     1
102
RTVSPost2010Prop54
  1
strokes_ogs.tif
102
RTVSPost2010PropOp54
 70
     1
102
RTVSPost2010Prop55
280
     0
102
RTVSPost2010PropOp55
 70
     1
102
RTVSPost2010Prop56
140
1.0
102
RTVSPost2010PropOp56
 70
     1
102
RTVSPost2010Prop57
140
1.0
102
RTVSPost2010PropOp57
 70
     1
102
RTVSPropertyOp0
 70
     1
102
RTVSPropertyOp1
 70
     1
102
RTVSPropertyOp2
 70
     1
102
RTVSPropertyOp3
 70
     1
102
RTVSPropertyOp4
 70
     1
102
RTVSPropertyOp5
 70
     1
102
RTVSPropertyOp6
 70
     1
102
RTVSPropertyOp7
 70
     1
102
RTVSPropertyOp8
 70
     1
102
RTVSPropertyOp9
 70
     1
102
RTVSPropertyOp10
 70
     1
102
RTVSPropertyOp11
 70
     1
102
RTVSPropertyOp12
 70
     1
102
RTVSPropertyOp13
 70
     1
102
RTVSPropertyOp14
 70
     1
102
RTVSPropertyOp15
 70
     1
102
RTVSPropertyOp16
 70
     1
102
RTVSPropertyOp17
 70
     1
102
RTVSPropertyOp18
 70
     1
102
RTVSPropertyOp19
 70
     1
102
RTVSPropertyOp20
 70
     1
102
RTVSPropertyOp21
 70
     1
102
RTVSPropertyOp22
 70
     1
102
RTVSPropertyOp23
 70
     1
102
RTVSPropertyOp24
 70
     1
102
RTVSPropertyOp25
 70
     1
102
RTVSPropertyOp26
 70
     1
102
RTVSPropertyOp27
 70
     1
102
RTVSPropertyOp28
 70
     1
102
RTVSPropertyOp29
 70
     1
102
RTVSPropertyOp30
 70
     1
102
RTVSPropertyOp31
 70
     1
102
RTVSPropertyOp32
 70
     1
102
RTVSPropertyOp33
 70
     1
102
RTVSPropertyOp34
 70
     1
102
RTVSPropertyOp35
 70
     1
102
RTVSPropertyOp36
 70
     1
102
RTVSPropertyOp37
 70
     1
102
RTVSPropertyOp38
 70
     1
102
RTVSPropertyOp39
 70
     1
102
RTVSPropertyOp40
 70
     1
102
RTVSPropertyOp41
 70
     1
102
RTVSPropertyOp42
 70
     1
102
RTVSPropertyOp43
 70
     1
102
RTVSPropertyOp44
 70
     1
102
RTVSPropertyOp45
 70
     1
102
RTVSPropertyOp46
 70
     1
102
RTVSPropertyOp47
 70
     1
102
RTVSPropertyOp48
 70
     1
102
RTVSPropertyOp49
 70
     1
102
RTVSPropertyOp50
 70
     1
102
RTVSPropertyOp51
 70
     0
102
RTVSPropertyOp52
 70
     0
102
RTVSPropertyOp53
 70
     1
102
RTVSPropertyOp54
 70
     1
102
RTVSPropertyOp55
 70
     1
102
RTVSPropertyOp56
 70
     1
102
RTVSPropertyOp57
 70
     1
102
RTVSPropertyOp58
 70
     1
102
RTVSPropertyOp59
 70
     1
102
RTVSPropertyOp60
 70
     1
102
RTVSPropertyOp61
 70
     1
102
RTVSPropertyOp62
 70
     1
  0
XRECORD
  5
2185C
102
{ACAD_REACTORS
330
2185B
102
}
330
2185B
100
AcDbXrecord
280
     1
102
RTVSPost2010Prop28
280
     0
102
RTVSPost2010PropOp28
 70
     1
102
RTVSPost2010Prop29
280
     1
102
RTVSPost2010PropOp29
 70
     1
102
RTVSPost2010Prop30
280
     1
102
RTVSPost2010PropOp30
 70
     1
102
RTVSPost2010Prop31
280
     0
102
RTVSPost2010PropOp31
 70
     1
102
RTVSPost2010Prop32
280
     0
102
RTVSPost2010PropOp32
 70
     1
102
RTVSPost2010Prop33
280
     0
102
RTVSPost2010PropOp33
 70
     1
102
RTVSPost2010Prop34
280
     0
102
RTVSPost2010PropOp34
 70
     1
102
RTVSPost2010Prop35
280
     0
102
RTVSPost2010PropOp35
 70
     1
102
RTVSPost2010Prop36
280
     0
102
RTVSPost2010PropOp36
 70
     1
102
RTVSPost2010Prop37
 90
       50
102
RTVSPost2010PropOp37
 70
     1
102
RTVSPost2010Prop38
140
0.0
102
RTVSPost2010PropOp38
 70
     1
102
RTVSPost2010Prop39
140
1.0
102
RTVSPost2010PropOp39
 70
     1
102
RTVSPost2010Prop40
 90
        0
102
RTVSPost2010PropOp40
 70
     1
102
RTVSPost2010Prop41ColorIndex
 90
       18
102
RTVSPost2010Prop41ColorRGB
 90
        0
102
RTVSPost2010PropOp41
 70
     1
102
RTVSPost2010Prop42
 90
       50
102
RTVSPost2010PropOp42
 70
     1
102
RTVSPost2010Prop43
 90
        3
102
RTVSPost2010PropOp43
 70
     1
102
RTVSPost2010Prop44ColorIndex
 90
        5
102
RTVSPost2010Prop44ColorRGB
 90
      255
102
RTVSPost2010PropOp44
 70
     1
102
RTVSPost2010Prop45
280
     0
102
RTVSPost2010PropOp45
 70
     1
102
RTVSPost2010Prop46
 90
       50
102
RTVSPost2010PropOp46
 70
     1
102
RTVSPost2010Prop47
 90
       50
102
RTVSPost2010PropOp47
 70
     1
102
RTVSPost2010Prop48
 90
       50
102
RTVSPost2010PropOp48
 70
     1
102
RTVSPost2010Prop49
280
     0
102
RTVSPost2010PropOp49
 70
     1
102
RTVSPost2010Prop50
 90
       50
102
RTVSPost2010PropOp50
 70
     1
102
RTVSPost2010Prop51ColorIndex
 90
      256
102
RTVSPost2010Prop51ColorRGB
 90
-16777216
102
RTVSPost2010PropOp51
 70
     0
102
RTVSPost2010Prop52
140
1.0
102
RTVSPost2010PropOp52
 70
     0
102
RTVSPost2010Prop53
 90
        2
102
RTVSPost2010PropOp53
 70
     1
102
RTVSPost2010Prop54
  1
strokes_ogs.tif
102
RTVSPost2010PropOp54
 70
     1
102
RTVSPost2010Prop55
280
     0
102
RTVSPost2010PropOp55
 70
     1
102
RTVSPost2010Prop56
140
1.0
102
RTVSPost2010PropOp56
 70
     1
102
RTVSPost2010Prop57
140
1.0
102
RTVSPost2010PropOp57
 70
     1
102
RTVSPropertyOp0
 70
     1
102
RTVSPropertyOp1
 70
     1
102
RTVSPropertyOp2
 70
     1
102
RTVSPropertyOp3
 70
     1
102
RTVSPropertyOp4
 70
     1
102
RTVSPropertyOp5
 70
     1
102
RTVSPropertyOp6
 70
     1
102
RTVSPropertyOp7
 70
     1
102
RTVSPropertyOp8
 70
     1
102
RTVSPropertyOp9
 70
     1
102
RTVSPropertyOp10
 70
     1
102
RTVSPropertyOp11
 70
     1
102
RTVSPropertyOp12
 70
     1
102
RTVSPropertyOp13
 70
     1
102
RTVSPropertyOp14
 70
     1
102
RTVSPropertyOp15
 70
     1
102
RTVSPropertyOp16
 70
     1
102
RTVSPropertyOp17
 70
     1
102
RTVSPropertyOp18
 70
     1
102
RTVSPropertyOp19
 70
     1
102
RTVSPropertyOp20
 70
     1
102
RTVSPropertyOp21
 70
     1
102
RTVSPropertyOp22
 70
     1
102
RTVSPropertyOp23
 70
     1
102
RTVSPropertyOp24
 70
     1
102
RTVSPropertyOp25
 70
     1
102
RTVSPropertyOp26
 70
     1
102
RTVSPropertyOp27
 70
     1
102
RTVSPropertyOp28
 70
     1
102
RTVSPropertyOp29
 70
     1
102
RTVSPropertyOp30
 70
     1
102
RTVSPropertyOp31
 70
     1
102
RTVSPropertyOp32
 70
     1
102
RTVSPropertyOp33
 70
     1
102
RTVSPropertyOp34
 70
     1
102
RTVSPropertyOp35
 70
     1
102
RTVSPropertyOp36
 70
     1
102
RTVSPropertyOp37
 70
     1
102
RTVSPropertyOp38
 70
     1
102
RTVSPropertyOp39
 70
     1
102
RTVSPropertyOp40
 70
     1
102
RTVSPropertyOp41
 70
     1
102
RTVSPropertyOp42
 70
     1
102
RTVSPropertyOp43
 70
     1
102
RTVSPropertyOp44
 70
     1
102
RTVSPropertyOp45
 70
     1
102
RTVSPropertyOp46
 70
     1
102
RTVSPropertyOp47
 70
     1
102
RTVSPropertyOp48
 70
     1
102
RTVSPropertyOp49
 70
     1
102
RTVSPropertyOp50
 70
     1
102
RTVSPropertyOp51
 70
     0
102
RTVSPropertyOp52
 70
     0
102
RTVSPropertyOp53
 70
     1
102
RTVSPropertyOp54
 70
     1
102
RTVSPropertyOp55
 70
     1
102
RTVSPropertyOp56
 70
     1
102
RTVSPropertyOp57
 70
     1
102
RTVSPropertyOp58
 70
     1
102
RTVSPropertyOp59
 70
     1
102
RTVSPropertyOp60
 70
     1
102
RTVSPropertyOp61
 70
     1
102
RTVSPropertyOp62
 70
     1
  0
XRECORD
  5
2185A
102
{ACAD_REACTORS
330
21859
102
}
330
21859
100
AcDbXrecord
280
     1
102
RTVSPost2010Prop28
280
     0
102
RTVSPost2010PropOp28
 70
     1
102
RTVSPost2010Prop29
280
     1
102
RTVSPost2010PropOp29
 70
     1
102
RTVSPost2010Prop30
280
     1
102
RTVSPost2010PropOp30
 70
     1
102
RTVSPost2010Prop31
280
     0
102
RTVSPost2010PropOp31
 70
     1
102
RTVSPost2010Prop32
280
     0
102
RTVSPost2010PropOp32
 70
     1
102
RTVSPost2010Prop33
280
     0
102
RTVSPost2010PropOp33
 70
     1
102
RTVSPost2010Prop34
280
     0
102
RTVSPost2010PropOp34
 70
     1
102
RTVSPost2010Prop35
280
     0
102
RTVSPost2010PropOp35
 70
     1
102
RTVSPost2010Prop36
280
     0
102
RTVSPost2010PropOp36
 70
     1
102
RTVSPost2010Prop37
 90
       50
102
RTVSPost2010PropOp37
 70
     1
102
RTVSPost2010Prop38
140
0.0
102
RTVSPost2010PropOp38
 70
     1
102
RTVSPost2010Prop39
140
1.0
102
RTVSPost2010PropOp39
 70
     1
102
RTVSPost2010Prop40
 90
        0
102
RTVSPost2010PropOp40
 70
     1
102
RTVSPost2010Prop41ColorIndex
 90
       18
102
RTVSPost2010Prop41ColorRGB
 90
        0
102
RTVSPost2010PropOp41
 70
     1
102
RTVSPost2010Prop42
 90
       50
102
RTVSPost2010PropOp42
 70
     1
102
RTVSPost2010Prop43
 90
        3
102
RTVSPost2010PropOp43
 70
     1
102
RTVSPost2010Prop44ColorIndex
 90
        5
102
RTVSPost2010Prop44ColorRGB
 90
      255
102
RTVSPost2010PropOp44
 70
     1
102
RTVSPost2010Prop45
280
     0
102
RTVSPost2010PropOp45
 70
     1
102
RTVSPost2010Prop46
 90
       50
102
RTVSPost2010PropOp46
 70
     1
102
RTVSPost2010Prop47
 90
       50
102
RTVSPost2010PropOp47
 70
     1
102
RTVSPost2010Prop48
 90
       50
102
RTVSPost2010PropOp48
 70
     1
102
RTVSPost2010Prop49
280
     0
102
RTVSPost2010PropOp49
 70
     1
102
RTVSPost2010Prop50
 90
       50
102
RTVSPost2010PropOp50
 70
     1
102
RTVSPost2010Prop51ColorIndex
 90
      256
102
RTVSPost2010Prop51ColorRGB
 90
-16777216
102
RTVSPost2010PropOp51
 70
     0
102
RTVSPost2010Prop52
140
1.0
102
RTVSPost2010PropOp52
 70
     0
102
RTVSPost2010Prop53
 90
        2
102
RTVSPost2010PropOp53
 70
     1
102
RTVSPost2010Prop54
  1
strokes_ogs.tif
102
RTVSPost2010PropOp54
 70
     1
102
RTVSPost2010Prop55
280
     0
102
RTVSPost2010PropOp55
 70
     1
102
RTVSPost2010Prop56
140
1.0
102
RTVSPost2010PropOp56
 70
     1
102
RTVSPost2010Prop57
140
1.0
102
RTVSPost2010PropOp57
 70
     1
102
RTVSPropertyOp0
 70
     1
102
RTVSPropertyOp1
 70
     1
102
RTVSPropertyOp2
 70
     1
102
RTVSPropertyOp3
 70
     1
102
RTVSPropertyOp4
 70
     1
102
RTVSPropertyOp5
 70
     1
102
RTVSPropertyOp6
 70
     1
102
RTVSPropertyOp7
 70
     1
102
RTVSPropertyOp8
 70
     1
102
RTVSPropertyOp9
 70
     1
102
RTVSPropertyOp10
 70
     1
102
RTVSPropertyOp11
 70
     1
102
RTVSPropertyOp12
 70
     1
102
RTVSPropertyOp13
 70
     1
102
RTVSPropertyOp14
 70
     1
102
RTVSPropertyOp15
 70
     1
102
RTVSPropertyOp16
 70
     1
102
RTVSPropertyOp17
 70
     1
102
RTVSPropertyOp18
 70
     1
102
RTVSPropertyOp19
 70
     1
102
RTVSPropertyOp20
 70
     1
102
RTVSPropertyOp21
 70
     1
102
RTVSPropertyOp22
 70
     1
102
RTVSPropertyOp23
 70
     1
102
RTVSPropertyOp24
 70
     1
102
RTVSPropertyOp25
 70
     1
102
RTVSPropertyOp26
 70
     1
102
RTVSPropertyOp27
 70
     1
102
RTVSPropertyOp28
 70
     1
102
RTVSPropertyOp29
 70
     1
102
RTVSPropertyOp30
 70
     1
102
RTVSPropertyOp31
 70
     1
102
RTVSPropertyOp32
 70
     1
102
RTVSPropertyOp33
 70
     1
102
RTVSPropertyOp34
 70
     1
102
RTVSPropertyOp35
 70
     1
102
RTVSPropertyOp36
 70
     1
102
RTVSPropertyOp37
 70
     1
102
RTVSPropertyOp38
 70
     1
102
RTVSPropertyOp39
 70
     1
102
RTVSPropertyOp40
 70
     1
102
RTVSPropertyOp41
 70
     1
102
RTVSPropertyOp42
 70
     1
102
RTVSPropertyOp43
 70
     1
102
RTVSPropertyOp44
 70
     1
102
RTVSPropertyOp45
 70
     1
102
RTVSPropertyOp46
 70
     1
102
RTVSPropertyOp47
 70
     1
102
RTVSPropertyOp48
 70
     1
102
RTVSPropertyOp49
 70
     1
102
RTVSPropertyOp50
 70
     1
102
RTVSPropertyOp51
 70
     0
102
RTVSPropertyOp52
 70
     0
102
RTVSPropertyOp53
 70
     1
102
RTVSPropertyOp54
 70
     1
102
RTVSPropertyOp55
 70
     1
102
RTVSPropertyOp56
 70
     1
102
RTVSPropertyOp57
 70
     1
102
RTVSPropertyOp58
 70
     1
102
RTVSPropertyOp59
 70
     1
102
RTVSPropertyOp60
 70
     1
102
RTVSPropertyOp61
 70
     1
102
RTVSPropertyOp62
 70
     1
  0
XRECORD
  5
21856
102
{ACAD_REACTORS
330
21855
102
}
330
21855
100
AcDbXrecord
280
     1
102
RTVSPost2010Prop28
280
     0
102
RTVSPost2010PropOp28
 70
     1
102
RTVSPost2010Prop29
280
     1
102
RTVSPost2010PropOp29
 70
     1
102
RTVSPost2010Prop30
280
     1
102
RTVSPost2010PropOp30
 70
     1
102
RTVSPost2010Prop31
280
     0
102
RTVSPost2010PropOp31
 70
     1
102
RTVSPost2010Prop32
280
     0
102
RTVSPost2010PropOp32
 70
     1
102
RTVSPost2010Prop33
280
     0
102
RTVSPost2010PropOp33
 70
     1
102
RTVSPost2010Prop34
280
     0
102
RTVSPost2010PropOp34
 70
     1
102
RTVSPost2010Prop35
280
     0
102
RTVSPost2010PropOp35
 70
     1
102
RTVSPost2010Prop36
280
     0
102
RTVSPost2010PropOp36
 70
     1
102
RTVSPost2010Prop37
 90
       50
102
RTVSPost2010PropOp37
 70
     1
102
RTVSPost2010Prop38
140
0.0
102
RTVSPost2010PropOp38
 70
     1
102
RTVSPost2010Prop39
140
1.0
102
RTVSPost2010PropOp39
 70
     1
102
RTVSPost2010Prop40
 90
        0
102
RTVSPost2010PropOp40
 70
     1
102
RTVSPost2010Prop41ColorIndex
 90
       18
102
RTVSPost2010Prop41ColorRGB
 90
        0
102
RTVSPost2010PropOp41
 70
     1
102
RTVSPost2010Prop42
 90
       50
102
RTVSPost2010PropOp42
 70
     1
102
RTVSPost2010Prop43
 90
        3
102
RTVSPost2010PropOp43
 70
     1
102
RTVSPost2010Prop44ColorIndex
 90
        5
102
RTVSPost2010Prop44ColorRGB
 90
      255
102
RTVSPost2010PropOp44
 70
     1
102
RTVSPost2010Prop45
280
     0
102
RTVSPost2010PropOp45
 70
     1
102
RTVSPost2010Prop46
 90
       50
102
RTVSPost2010PropOp46
 70
     1
102
RTVSPost2010Prop47
 90
       50
102
RTVSPost2010PropOp47
 70
     1
102
RTVSPost2010Prop48
 90
       50
102
RTVSPost2010PropOp48
 70
     1
102
RTVSPost2010Prop49
280
     0
102
RTVSPost2010PropOp49
 70
     1
102
RTVSPost2010Prop50
 90
       50
102
RTVSPost2010PropOp50
 70
     1
102
RTVSPost2010Prop51ColorIndex
 90
      256
102
RTVSPost2010Prop51ColorRGB
 90
-16777216
102
RTVSPost2010PropOp51
 70
     0
102
RTVSPost2010Prop52
140
1.0
102
RTVSPost2010PropOp52
 70
     0
102
RTVSPost2010Prop53
 90
        2
102
RTVSPost2010PropOp53
 70
     1
102
RTVSPost2010Prop54
  1
strokes_ogs.tif
102
RTVSPost2010PropOp54
 70
     1
102
RTVSPost2010Prop55
280
     0
102
RTVSPost2010PropOp55
 70
     1
102
RTVSPost2010Prop56
140
1.0
102
RTVSPost2010PropOp56
 70
     1
102
RTVSPost2010Prop57
140
1.0
102
RTVSPost2010PropOp57
 70
     1
102
RTVSPropertyOp0
 70
     1
102
RTVSPropertyOp1
 70
     1
102
RTVSPropertyOp2
 70
     1
102
RTVSPropertyOp3
 70
     1
102
RTVSPropertyOp4
 70
     1
102
RTVSPropertyOp5
 70
     1
102
RTVSPropertyOp6
 70
     1
102
RTVSPropertyOp7
 70
     1
102
RTVSPropertyOp8
 70
     1
102
RTVSPropertyOp9
 70
     1
102
RTVSPropertyOp10
 70
     1
102
RTVSPropertyOp11
 70
     1
102
RTVSPropertyOp12
 70
     1
102
RTVSPropertyOp13
 70
     1
102
RTVSPropertyOp14
 70
     1
102
RTVSPropertyOp15
 70
     1
102
RTVSPropertyOp16
 70
     1
102
RTVSPropertyOp17
 70
     1
102
RTVSPropertyOp18
 70
     1
102
RTVSPropertyOp19
 70
     1
102
RTVSPropertyOp20
 70
     1
102
RTVSPropertyOp21
 70
     1
102
RTVSPropertyOp22
 70
     1
102
RTVSPropertyOp23
 70
     1
102
RTVSPropertyOp24
 70
     1
102
RTVSPropertyOp25
 70
     1
102
RTVSPropertyOp26
 70
     1
102
RTVSPropertyOp27
 70
     1
102
RTVSPropertyOp28
 70
     1
102
RTVSPropertyOp29
 70
     1
102
RTVSPropertyOp30
 70
     1
102
RTVSPropertyOp31
 70
     1
102
RTVSPropertyOp32
 70
     1
102
RTVSPropertyOp33
 70
     1
102
RTVSPropertyOp34
 70
     1
102
RTVSPropertyOp35
 70
     1
102
RTVSPropertyOp36
 70
     1
102
RTVSPropertyOp37
 70
     1
102
RTVSPropertyOp38
 70
     1
102
RTVSPropertyOp39
 70
     1
102
RTVSPropertyOp40
 70
     1
102
RTVSPropertyOp41
 70
     1
102
RTVSPropertyOp42
 70
     1
102
RTVSPropertyOp43
 70
     1
102
RTVSPropertyOp44
 70
     1
102
RTVSPropertyOp45
 70
     1
102
RTVSPropertyOp46
 70
     1
102
RTVSPropertyOp47
 70
     1
102
RTVSPropertyOp48
 70
     1
102
RTVSPropertyOp49
 70
     1
102
RTVSPropertyOp50
 70
     1
102
RTVSPropertyOp51
 70
     0
102
RTVSPropertyOp52
 70
     0
102
RTVSPropertyOp53
 70
     1
102
RTVSPropertyOp54
 70
     1
102
RTVSPropertyOp55
 70
     1
102
RTVSPropertyOp56
 70
     1
102
RTVSPropertyOp57
 70
     1
102
RTVSPropertyOp58
 70
     1
102
RTVSPropertyOp59
 70
     1
102
RTVSPropertyOp60
 70
     1
102
RTVSPropertyOp61
 70
     1
102
RTVSPropertyOp62
 70
     1
  0
XRECORD
  5
21864
102
{ACAD_REACTORS
330
21863
102
}
330
21863
100
AcDbXrecord
280
     1
102
RTVSPost2010Prop28
280
     0
102
RTVSPost2010PropOp28
 70
     1
102
RTVSPost2010Prop29
280
     1
102
RTVSPost2010PropOp29
 70
     1
102
RTVSPost2010Prop30
280
     1
102
RTVSPost2010PropOp30
 70
     1
102
RTVSPost2010Prop31
280
     0
102
RTVSPost2010PropOp31
 70
     1
102
RTVSPost2010Prop32
280
     0
102
RTVSPost2010PropOp32
 70
     1
102
RTVSPost2010Prop33
280
     0
102
RTVSPost2010PropOp33
 70
     1
102
RTVSPost2010Prop34
280
     0
102
RTVSPost2010PropOp34
 70
     1
102
RTVSPost2010Prop35
280
     0
102
RTVSPost2010PropOp35
 70
     1
102
RTVSPost2010Prop36
280
     0
102
RTVSPost2010PropOp36
 70
     1
102
RTVSPost2010Prop37
 90
       50
102
RTVSPost2010PropOp37
 70
     1
102
RTVSPost2010Prop38
140
0.0
102
RTVSPost2010PropOp38
 70
     1
102
RTVSPost2010Prop39
140
1.0
102
RTVSPost2010PropOp39
 70
     1
102
RTVSPost2010Prop40
 90
        0
102
RTVSPost2010PropOp40
 70
     1
102
RTVSPost2010Prop41ColorIndex
 90
       18
102
RTVSPost2010Prop41ColorRGB
 90
        0
102
RTVSPost2010PropOp41
 70
     1
102
RTVSPost2010Prop42
 90
       50
102
RTVSPost2010PropOp42
 70
     1
102
RTVSPost2010Prop43
 90
        3
102
RTVSPost2010PropOp43
 70
     1
102
RTVSPost2010Prop44ColorIndex
 90
        5
102
RTVSPost2010Prop44ColorRGB
 90
      255
102
RTVSPost2010PropOp44
 70
     1
102
RTVSPost2010Prop45
280
     0
102
RTVSPost2010PropOp45
 70
     1
102
RTVSPost2010Prop46
 90
       50
102
RTVSPost2010PropOp46
 70
     1
102
RTVSPost2010Prop47
 90
       50
102
RTVSPost2010PropOp47
 70
     1
102
RTVSPost2010Prop48
 90
       50
102
RTVSPost2010PropOp48
 70
     1
102
RTVSPost2010Prop49
280
     0
102
RTVSPost2010PropOp49
 70
     1
102
RTVSPost2010Prop50
 90
       50
102
RTVSPost2010PropOp50
 70
     1
102
RTVSPost2010Prop51ColorIndex
 90
      256
102
RTVSPost2010Prop51ColorRGB
 90
-16777216
102
RTVSPost2010PropOp51
 70
     0
102
RTVSPost2010Prop52
140
1.0
102
RTVSPost2010PropOp52
 70
     0
102
RTVSPost2010Prop53
 90
        2
102
RTVSPost2010PropOp53
 70
     1
102
RTVSPost2010Prop54
  1
strokes_ogs.tif
102
RTVSPost2010PropOp54
 70
     1
102
RTVSPost2010Prop55
280
     0
102
RTVSPost2010PropOp55
 70
     1
102
RTVSPost2010Prop56
140
1.0
102
RTVSPost2010PropOp56
 70
     1
102
RTVSPost2010Prop57
140
1.0
102
RTVSPost2010PropOp57
 70
     1
102
RTVSPropertyOp0
 70
     1
102
RTVSPropertyOp1
 70
     1
102
RTVSPropertyOp2
 70
     1
102
RTVSPropertyOp3
 70
     1
102
RTVSPropertyOp4
 70
     1
102
RTVSPropertyOp5
 70
     1
102
RTVSPropertyOp6
 70
     1
102
RTVSPropertyOp7
 70
     1
102
RTVSPropertyOp8
 70
     1
102
RTVSPropertyOp9
 70
     1
102
RTVSPropertyOp10
 70
     1
102
RTVSPropertyOp11
 70
     1
102
RTVSPropertyOp12
 70
     1
102
RTVSPropertyOp13
 70
     1
102
RTVSPropertyOp14
 70
     1
102
RTVSPropertyOp15
 70
     1
102
RTVSPropertyOp16
 70
     1
102
RTVSPropertyOp17
 70
     1
102
RTVSPropertyOp18
 70
     1
102
RTVSPropertyOp19
 70
     1
102
RTVSPropertyOp20
 70
     1
102
RTVSPropertyOp21
 70
     1
102
RTVSPropertyOp22
 70
     1
102
RTVSPropertyOp23
 70
     1
102
RTVSPropertyOp24
 70
     1
102
RTVSPropertyOp25
 70
     1
102
RTVSPropertyOp26
 70
     1
102
RTVSPropertyOp27
 70
     1
102
RTVSPropertyOp28
 70
     1
102
RTVSPropertyOp29
 70
     1
102
RTVSPropertyOp30
 70
     1
102
RTVSPropertyOp31
 70
     1
102
RTVSPropertyOp32
 70
     1
102
RTVSPropertyOp33
 70
     1
102
RTVSPropertyOp34
 70
     1
102
RTVSPropertyOp35
 70
     1
102
RTVSPropertyOp36
 70
     1
102
RTVSPropertyOp37
 70
     1
102
RTVSPropertyOp38
 70
     1
102
RTVSPropertyOp39
 70
     1
102
RTVSPropertyOp40
 70
     1
102
RTVSPropertyOp41
 70
     1
102
RTVSPropertyOp42
 70
     1
102
RTVSPropertyOp43
 70
     1
102
RTVSPropertyOp44
 70
     1
102
RTVSPropertyOp45
 70
     1
102
RTVSPropertyOp46
 70
     1
102
RTVSPropertyOp47
 70
     1
102
RTVSPropertyOp48
 70
     1
102
RTVSPropertyOp49
 70
     1
102
RTVSPropertyOp50
 70
     1
102
RTVSPropertyOp51
 70
     0
102
RTVSPropertyOp52
 70
     0
102
RTVSPropertyOp53
 70
     1
102
RTVSPropertyOp54
 70
     1
102
RTVSPropertyOp55
 70
     1
102
RTVSPropertyOp56
 70
     1
102
RTVSPropertyOp57
 70
     1
102
RTVSPropertyOp58
 70
     1
102
RTVSPropertyOp59
 70
     1
102
RTVSPropertyOp60
 70
     1
102
RTVSPropertyOp61
 70
     1
102
RTVSPropertyOp62
 70
     1
  0
XRECORD
  5
2186C
102
{ACAD_REACTORS
330
2186B
102
}
330
2186B
100
AcDbXrecord
280
     1
102
RTVSPost2010Prop28
280
     0
102
RTVSPost2010PropOp28
 70
     1
102
RTVSPost2010Prop29
280
     1
102
RTVSPost2010PropOp29
 70
     1
102
RTVSPost2010Prop30
280
     1
102
RTVSPost2010PropOp30
 70
     1
102
RTVSPost2010Prop31
280
     0
102
RTVSPost2010PropOp31
 70
     1
102
RTVSPost2010Prop32
280
     0
102
RTVSPost2010PropOp32
 70
     1
102
RTVSPost2010Prop33
280
     0
102
RTVSPost2010PropOp33
 70
     1
102
RTVSPost2010Prop34
280
     0
102
RTVSPost2010PropOp34
 70
     1
102
RTVSPost2010Prop35
280
     0
102
RTVSPost2010PropOp35
 70
     1
102
RTVSPost2010Prop36
280
     0
102
RTVSPost2010PropOp36
 70
     1
102
RTVSPost2010Prop37
 90
       50
102
RTVSPost2010PropOp37
 70
     1
102
RTVSPost2010Prop38
140
0.0
102
RTVSPost2010PropOp38
 70
     1
102
RTVSPost2010Prop39
140
1.0
102
RTVSPost2010PropOp39
 70
     1
102
RTVSPost2010Prop40
 90
        0
102
RTVSPost2010PropOp40
 70
     1
102
RTVSPost2010Prop41ColorIndex
 90
       18
102
RTVSPost2010Prop41ColorRGB
 90
        0
102
RTVSPost2010PropOp41
 70
     1
102
RTVSPost2010Prop42
 90
       50
102
RTVSPost2010PropOp42
 70
     1
102
RTVSPost2010Prop43
 90
        3
102
RTVSPost2010PropOp43
 70
     1
102
RTVSPost2010Prop44ColorIndex
 90
        5
102
RTVSPost2010Prop44ColorRGB
 90
      255
102
RTVSPost2010PropOp44
 70
     1
102
RTVSPost2010Prop45
280
     0
102
RTVSPost2010PropOp45
 70
     1
102
RTVSPost2010Prop46
 90
       50
102
RTVSPost2010PropOp46
 70
     1
102
RTVSPost2010Prop47
 90
       50
102
RTVSPost2010PropOp47
 70
     1
102
RTVSPost2010Prop48
 90
       50
102
RTVSPost2010PropOp48
 70
     1
102
RTVSPost2010Prop49
280
     0
102
RTVSPost2010PropOp49
 70
     1
102
RTVSPost2010Prop50
 90
       50
102
RTVSPost2010PropOp50
 70
     1
102
RTVSPost2010Prop51ColorIndex
 90
      256
102
RTVSPost2010Prop51ColorRGB
 90
-16777216
102
RTVSPost2010PropOp51
 70
     0
102
RTVSPost2010Prop52
140
1.0
102
RTVSPost2010PropOp52
 70
     0
102
RTVSPost2010Prop53
 90
        2
102
RTVSPost2010PropOp53
 70
     1
102
RTVSPost2010Prop54
  1
strokes_ogs.tif
102
RTVSPost2010PropOp54
 70
     1
102
RTVSPost2010Prop55
280
     0
102
RTVSPost2010PropOp55
 70
     1
102
RTVSPost2010Prop56
140
1.0
102
RTVSPost2010PropOp56
 70
     1
102
RTVSPost2010Prop57
140
1.0
102
RTVSPost2010PropOp57
 70
     1
102
RTVSPropertyOp0
 70
     1
102
RTVSPropertyOp1
 70
     1
102
RTVSPropertyOp2
 70
     1
102
RTVSPropertyOp3
 70
     1
102
RTVSPropertyOp4
 70
     1
102
RTVSPropertyOp5
 70
     1
102
RTVSPropertyOp6
 70
     1
102
RTVSPropertyOp7
 70
     1
102
RTVSPropertyOp8
 70
     1
102
RTVSPropertyOp9
 70
     1
102
RTVSPropertyOp10
 70
     1
102
RTVSPropertyOp11
 70
     1
102
RTVSPropertyOp12
 70
     1
102
RTVSPropertyOp13
 70
     1
102
RTVSPropertyOp14
 70
     1
102
RTVSPropertyOp15
 70
     1
102
RTVSPropertyOp16
 70
     1
102
RTVSPropertyOp17
 70
     1
102
RTVSPropertyOp18
 70
     1
102
RTVSPropertyOp19
 70
     1
102
RTVSPropertyOp20
 70
     1
102
RTVSPropertyOp21
 70
     1
102
RTVSPropertyOp22
 70
     1
102
RTVSPropertyOp23
 70
     1
102
RTVSPropertyOp24
 70
     1
102
RTVSPropertyOp25
 70
     1
102
RTVSPropertyOp26
 70
     1
102
RTVSPropertyOp27
 70
     1
102
RTVSPropertyOp28
 70
     1
102
RTVSPropertyOp29
 70
     1
102
RTVSPropertyOp30
 70
     1
102
RTVSPropertyOp31
 70
     1
102
RTVSPropertyOp32
 70
     1
102
RTVSPropertyOp33
 70
     1
102
RTVSPropertyOp34
 70
     1
102
RTVSPropertyOp35
 70
     1
102
RTVSPropertyOp36
 70
     1
102
RTVSPropertyOp37
 70
     1
102
RTVSPropertyOp38
 70
     1
102
RTVSPropertyOp39
 70
     1
102
RTVSPropertyOp40
 70
     1
102
RTVSPropertyOp41
 70
     1
102
RTVSPropertyOp42
 70
     1
102
RTVSPropertyOp43
 70
     1
102
RTVSPropertyOp44
 70
     1
102
RTVSPropertyOp45
 70
     1
102
RTVSPropertyOp46
 70
     1
102
RTVSPropertyOp47
 70
     1
102
RTVSPropertyOp48
 70
     1
102
RTVSPropertyOp49
 70
     1
102
RTVSPropertyOp50
 70
     1
102
RTVSPropertyOp51
 70
     0
102
RTVSPropertyOp52
 70
     0
102
RTVSPropertyOp53
 70
     1
102
RTVSPropertyOp54
 70
     1
102
RTVSPropertyOp55
 70
     1
102
RTVSPropertyOp56
 70
     1
102
RTVSPropertyOp57
 70
     1
102
RTVSPropertyOp58
 70
     1
102
RTVSPropertyOp59
 70
     1
102
RTVSPropertyOp60
 70
     1
102
RTVSPropertyOp61
 70
     1
102
RTVSPropertyOp62
 70
     1
  0
XRECORD
  5
2185E
102
{ACAD_REACTORS
330
2185D
102
}
330
2185D
100
AcDbXrecord
280
     1
102
RTVSPost2010Prop28
280
     0
102
RTVSPost2010PropOp28
 70
     1
102
RTVSPost2010Prop29
280
     1
102
RTVSPost2010PropOp29
 70
     1
102
RTVSPost2010Prop30
280
     1
102
RTVSPost2010PropOp30
 70
     1
102
RTVSPost2010Prop31
280
     0
102
RTVSPost2010PropOp31
 70
     1
102
RTVSPost2010Prop32
280
     0
102
RTVSPost2010PropOp32
 70
     1
102
RTVSPost2010Prop33
280
     0
102
RTVSPost2010PropOp33
 70
     1
102
RTVSPost2010Prop34
280
     0
102
RTVSPost2010PropOp34
 70
     1
102
RTVSPost2010Prop35
280
     0
102
RTVSPost2010PropOp35
 70
     1
102
RTVSPost2010Prop36
280
     0
102
RTVSPost2010PropOp36
 70
     1
102
RTVSPost2010Prop37
 90
       50
102
RTVSPost2010PropOp37
 70
     1
102
RTVSPost2010Prop38
140
0.0
102
RTVSPost2010PropOp38
 70
     1
102
RTVSPost2010Prop39
140
1.0
102
RTVSPost2010PropOp39
 70
     1
102
RTVSPost2010Prop40
 90
        0
102
RTVSPost2010PropOp40
 70
     1
102
RTVSPost2010Prop41ColorIndex
 90
       18
102
RTVSPost2010Prop41ColorRGB
 90
        0
102
RTVSPost2010PropOp41
 70
     1
102
RTVSPost2010Prop42
 90
       50
102
RTVSPost2010PropOp42
 70
     1
102
RTVSPost2010Prop43
 90
        3
102
RTVSPost2010PropOp43
 70
     1
102
RTVSPost2010Prop44ColorIndex
 90
        5
102
RTVSPost2010Prop44ColorRGB
 90
      255
102
RTVSPost2010PropOp44
 70
     1
102
RTVSPost2010Prop45
280
     0
102
RTVSPost2010PropOp45
 70
     1
102
RTVSPost2010Prop46
 90
       50
102
RTVSPost2010PropOp46
 70
     1
102
RTVSPost2010Prop47
 90
       50
102
RTVSPost2010PropOp47
 70
     1
102
RTVSPost2010Prop48
 90
       50
102
RTVSPost2010PropOp48
 70
     1
102
RTVSPost2010Prop49
280
     0
102
RTVSPost2010PropOp49
 70
     1
102
RTVSPost2010Prop50
 90
       50
102
RTVSPost2010PropOp50
 70
     1
102
RTVSPost2010Prop51ColorIndex
 90
      256
102
RTVSPost2010Prop51ColorRGB
 90
-16777216
102
RTVSPost2010PropOp51
 70
     0
102
RTVSPost2010Prop52
140
1.0
102
RTVSPost2010PropOp52
 70
     0
102
RTVSPost2010Prop53
 90
        2
102
RTVSPost2010PropOp53
 70
     1
102
RTVSPost2010Prop54
  1
strokes_ogs.tif
102
RTVSPost2010PropOp54
 70
     1
102
RTVSPost2010Prop55
280
     0
102
RTVSPost2010PropOp55
 70
     1
102
RTVSPost2010Prop56
140
1.0
102
RTVSPost2010PropOp56
 70
     1
102
RTVSPost2010Prop57
140
1.0
102
RTVSPost2010PropOp57
 70
     1
102
RTVSPropertyOp0
 70
     1
102
RTVSPropertyOp1
 70
     1
102
RTVSPropertyOp2
 70
     1
102
RTVSPropertyOp3
 70
     1
102
RTVSPropertyOp4
 70
     1
102
RTVSPropertyOp5
 70
     1
102
RTVSPropertyOp6
 70
     1
102
RTVSPropertyOp7
 70
     1
102
RTVSPropertyOp8
 70
     1
102
RTVSPropertyOp9
 70
     1
102
RTVSPropertyOp10
 70
     1
102
RTVSPropertyOp11
 70
     1
102
RTVSPropertyOp12
 70
     1
102
RTVSPropertyOp13
 70
     1
102
RTVSPropertyOp14
 70
     1
102
RTVSPropertyOp15
 70
     1
102
RTVSPropertyOp16
 70
     1
102
RTVSPropertyOp17
 70
     1
102
RTVSPropertyOp18
 70
     1
102
RTVSPropertyOp19
 70
     1
102
RTVSPropertyOp20
 70
     1
102
RTVSPropertyOp21
 70
     1
102
RTVSPropertyOp22
 70
     1
102
RTVSPropertyOp23
 70
     1
102
RTVSPropertyOp24
 70
     1
102
RTVSPropertyOp25
 70
     1
102
RTVSPropertyOp26
 70
     1
102
RTVSPropertyOp27
 70
     1
102
RTVSPropertyOp28
 70
     1
102
RTVSPropertyOp29
 70
     1
102
RTVSPropertyOp30
 70
     1
102
RTVSPropertyOp31
 70
     1
102
RTVSPropertyOp32
 70
     1
102
RTVSPropertyOp33
 70
     1
102
RTVSPropertyOp34
 70
     1
102
RTVSPropertyOp35
 70
     1
102
RTVSPropertyOp36
 70
     1
102
RTVSPropertyOp37
 70
     1
102
RTVSPropertyOp38
 70
     1
102
RTVSPropertyOp39
 70
     1
102
RTVSPropertyOp40
 70
     1
102
RTVSPropertyOp41
 70
     1
102
RTVSPropertyOp42
 70
     1
102
RTVSPropertyOp43
 70
     1
102
RTVSPropertyOp44
 70
     1
102
RTVSPropertyOp45
 70
     1
102
RTVSPropertyOp46
 70
     1
102
RTVSPropertyOp47
 70
     1
102
RTVSPropertyOp48
 70
     1
102
RTVSPropertyOp49
 70
     1
102
RTVSPropertyOp50
 70
     1
102
RTVSPropertyOp51
 70
     0
102
RTVSPropertyOp52
 70
     0
102
RTVSPropertyOp53
 70
     1
102
RTVSPropertyOp54
 70
     1
102
RTVSPropertyOp55
 70
     1
102
RTVSPropertyOp56
 70
     1
102
RTVSPropertyOp57
 70
     1
102
RTVSPropertyOp58
 70
     1
102
RTVSPropertyOp59
 70
     1
102
RTVSPropertyOp60
 70
     1
102
RTVSPropertyOp61
 70
     1
102
RTVSPropertyOp62
 70
     1
  0
XRECORD
  5
21862
102
{ACAD_REACTORS
330
21861
102
}
330
21861
100
AcDbXrecord
280
     1
102
RTVSPost2010Prop28
280
     0
102
RTVSPost2010PropOp28
 70
     1
102
RTVSPost2010Prop29
280
     1
102
RTVSPost2010PropOp29
 70
     1
102
RTVSPost2010Prop30
280
     1
102
RTVSPost2010PropOp30
 70
     1
102
RTVSPost2010Prop31
280
     0
102
RTVSPost2010PropOp31
 70
     1
102
RTVSPost2010Prop32
280
     0
102
RTVSPost2010PropOp32
 70
     1
102
RTVSPost2010Prop33
280
     0
102
RTVSPost2010PropOp33
 70
     1
102
RTVSPost2010Prop34
280
     0
102
RTVSPost2010PropOp34
 70
     1
102
RTVSPost2010Prop35
280
     0
102
RTVSPost2010PropOp35
 70
     1
102
RTVSPost2010Prop36
280
     0
102
RTVSPost2010PropOp36
 70
     1
102
RTVSPost2010Prop37
 90
       50
102
RTVSPost2010PropOp37
 70
     1
102
RTVSPost2010Prop38
140
0.0
102
RTVSPost2010PropOp38
 70
     1
102
RTVSPost2010Prop39
140
1.0
102
RTVSPost2010PropOp39
 70
     1
102
RTVSPost2010Prop40
 90
        0
102
RTVSPost2010PropOp40
 70
     1
102
RTVSPost2010Prop41ColorIndex
 90
       18
102
RTVSPost2010Prop41ColorRGB
 90
        0
102
RTVSPost2010PropOp41
 70
     1
102
RTVSPost2010Prop42
 90
       50
102
RTVSPost2010PropOp42
 70
     1
102
RTVSPost2010Prop43
 90
        3
102
RTVSPost2010PropOp43
 70
     1
102
RTVSPost2010Prop44ColorIndex
 90
        5
102
RTVSPost2010Prop44ColorRGB
 90
      255
102
RTVSPost2010PropOp44
 70
     1
102
RTVSPost2010Prop45
280
     0
102
RTVSPost2010PropOp45
 70
     1
102
RTVSPost2010Prop46
 90
       50
102
RTVSPost2010PropOp46
 70
     1
102
RTVSPost2010Prop47
 90
       50
102
RTVSPost2010PropOp47
 70
     1
102
RTVSPost2010Prop48
 90
       50
102
RTVSPost2010PropOp48
 70
     1
102
RTVSPost2010Prop49
280
     0
102
RTVSPost2010PropOp49
 70
     1
102
RTVSPost2010Prop50
 90
       50
102
RTVSPost2010PropOp50
 70
     1
102
RTVSPost2010Prop51ColorIndex
 90
      256
102
RTVSPost2010Prop51ColorRGB
 90
-16777216
102
RTVSPost2010PropOp51
 70
     0
102
RTVSPost2010Prop52
140
1.0
102
RTVSPost2010PropOp52
 70
     0
102
RTVSPost2010Prop53
 90
        2
102
RTVSPost2010PropOp53
 70
     1
102
RTVSPost2010Prop54
  1
strokes_ogs.tif
102
RTVSPost2010PropOp54
 70
     1
102
RTVSPost2010Prop55
280
     0
102
RTVSPost2010PropOp55
 70
     1
102
RTVSPost2010Prop56
140
1.0
102
RTVSPost2010PropOp56
 70
     1
102
RTVSPost2010Prop57
140
1.0
102
RTVSPost2010PropOp57
 70
     1
102
RTVSPropertyOp0
 70
     1
102
RTVSPropertyOp1
 70
     1
102
RTVSPropertyOp2
 70
     1
102
RTVSPropertyOp3
 70
     1
102
RTVSPropertyOp4
 70
     1
102
RTVSPropertyOp5
 70
     1
102
RTVSPropertyOp6
 70
     1
102
RTVSPropertyOp7
 70
     1
102
RTVSPropertyOp8
 70
     1
102
RTVSPropertyOp9
 70
     1
102
RTVSPropertyOp10
 70
     1
102
RTVSPropertyOp11
 70
     1
102
RTVSPropertyOp12
 70
     1
102
RTVSPropertyOp13
 70
     1
102
RTVSPropertyOp14
 70
     1
102
RTVSPropertyOp15
 70
     1
102
RTVSPropertyOp16
 70
     1
102
RTVSPropertyOp17
 70
     1
102
RTVSPropertyOp18
 70
     1
102
RTVSPropertyOp19
 70
     1
102
RTVSPropertyOp20
 70
     1
102
RTVSPropertyOp21
 70
     1
102
RTVSPropertyOp22
 70
     1
102
RTVSPropertyOp23
 70
     1
102
RTVSPropertyOp24
 70
     1
102
RTVSPropertyOp25
 70
     1
102
RTVSPropertyOp26
 70
     1
102
RTVSPropertyOp27
 70
     1
102
RTVSPropertyOp28
 70
     1
102
RTVSPropertyOp29
 70
     1
102
RTVSPropertyOp30
 70
     1
102
RTVSPropertyOp31
 70
     1
102
RTVSPropertyOp32
 70
     1
102
RTVSPropertyOp33
 70
     1
102
RTVSPropertyOp34
 70
     1
102
RTVSPropertyOp35
 70
     1
102
RTVSPropertyOp36
 70
     1
102
RTVSPropertyOp37
 70
     1
102
RTVSPropertyOp38
 70
     1
102
RTVSPropertyOp39
 70
     1
102
RTVSPropertyOp40
 70
     1
102
RTVSPropertyOp41
 70
     1
102
RTVSPropertyOp42
 70
     1
102
RTVSPropertyOp43
 70
     1
102
RTVSPropertyOp44
 70
     1
102
RTVSPropertyOp45
 70
     1
102
RTVSPropertyOp46
 70
     1
102
RTVSPropertyOp47
 70
     1
102
RTVSPropertyOp48
 70
     1
102
RTVSPropertyOp49
 70
     1
102
RTVSPropertyOp50
 70
     1
102
RTVSPropertyOp51
 70
     0
102
RTVSPropertyOp52
 70
     0
102
RTVSPropertyOp53
 70
     1
102
RTVSPropertyOp54
 70
     1
102
RTVSPropertyOp55
 70
     1
102
RTVSPropertyOp56
 70
     1
102
RTVSPropertyOp57
 70
     1
102
RTVSPropertyOp58
 70
     1
102
RTVSPropertyOp59
 70
     1
102
RTVSPropertyOp60
 70
     1
102
RTVSPropertyOp61
 70
     1
102
RTVSPropertyOp62
 70
     1
  0
XRECORD
  5
21889
102
{ACAD_REACTORS
330
21888
102
}
330
21888
100
AcDbXrecord
280
     1
102
RTVSPost2010Prop28
280
     0
102
RTVSPost2010PropOp28
 70
     1
102
RTVSPost2010Prop29
280
     1
102
RTVSPost2010PropOp29
 70
     1
102
RTVSPost2010Prop30
280
     1
102
RTVSPost2010PropOp30
 70
     1
102
RTVSPost2010Prop31
280
     0
102
RTVSPost2010PropOp31
 70
     1
102
RTVSPost2010Prop32
280
     0
102
RTVSPost2010PropOp32
 70
     1
102
RTVSPost2010Prop33
280
     0
102
RTVSPost2010PropOp33
 70
     1
102
RTVSPost2010Prop34
280
     0
102
RTVSPost2010PropOp34
 70
     1
102
RTVSPost2010Prop35
280
     0
102
RTVSPost2010PropOp35
 70
     1
102
RTVSPost2010Prop36
280
     0
102
RTVSPost2010PropOp36
 70
     1
102
RTVSPost2010Prop37
 90
       50
102
RTVSPost2010PropOp37
 70
     0
102
RTVSPost2010Prop38
140
0.0
102
RTVSPost2010PropOp38
 70
     0
102
RTVSPost2010Prop39
140
1.0
102
RTVSPost2010PropOp39
 70
     0
102
RTVSPost2010Prop40
 90
        0
102
RTVSPost2010PropOp40
 70
     0
102
RTVSPost2010Prop41ColorIndex
 90
       18
102
RTVSPost2010Prop41ColorRGB
 90
        0
102
RTVSPost2010PropOp41
 70
     0
102
RTVSPost2010Prop42
 90
       50
102
RTVSPost2010PropOp42
 70
     0
102
RTVSPost2010Prop43
 90
        3
102
RTVSPost2010PropOp43
 70
     0
102
RTVSPost2010Prop44ColorIndex
 90
        5
102
RTVSPost2010Prop44ColorRGB
 90
      255
102
RTVSPost2010PropOp44
 70
     0
102
RTVSPost2010Prop45
280
     0
102
RTVSPost2010PropOp45
 70
     1
102
RTVSPost2010Prop46
 90
       50
102
RTVSPost2010PropOp46
 70
     0
102
RTVSPost2010Prop47
 90
       50
102
RTVSPost2010PropOp47
 70
     0
102
RTVSPost2010Prop48
 90
       50
102
RTVSPost2010PropOp48
 70
     0
102
RTVSPost2010Prop49
280
     0
102
RTVSPost2010PropOp49
 70
     1
102
RTVSPost2010Prop50
 90
       50
102
RTVSPost2010PropOp50
 70
     0
102
RTVSPost2010Prop51ColorIndex
 90
      256
102
RTVSPost2010Prop51ColorRGB
 90
-16777216
102
RTVSPost2010PropOp51
 70
     0
102
RTVSPost2010Prop52
140
1.0
102
RTVSPost2010PropOp52
 70
     0
102
RTVSPost2010Prop53
 90
        2
102
RTVSPost2010PropOp53
 70
     0
102
RTVSPost2010Prop54
  1
strokes_ogs.tif
102
RTVSPost2010PropOp54
 70
     0
102
RTVSPost2010Prop55
280
     0
102
RTVSPost2010PropOp55
 70
     1
102
RTVSPost2010Prop56
140
1.0
102
RTVSPost2010PropOp56
 70
     0
102
RTVSPost2010Prop57
140
1.0
102
RTVSPost2010PropOp57
 70
     0
102
RTVSPropertyOp0
 70
     0
102
RTVSPropertyOp1
 70
     0
102
RTVSPropertyOp2
 70
     0
102
RTVSPropertyOp3
 70
     0
102
RTVSPropertyOp4
 70
     0
102
RTVSPropertyOp5
 70
     0
102
RTVSPropertyOp6
 70
     0
102
RTVSPropertyOp7
 70
     0
102
RTVSPropertyOp8
 70
     0
102
RTVSPropertyOp9
 70
     0
102
RTVSPropertyOp10
 70
     0
102
RTVSPropertyOp11
 70
     0
102
RTVSPropertyOp12
 70
     0
102
RTVSPropertyOp13
 70
     0
102
RTVSPropertyOp14
 70
     2
102
RTVSPropertyOp15
 70
     0
102
RTVSPropertyOp16
 70
     0
102
RTVSPropertyOp17
 70
     0
102
RTVSPropertyOp18
 70
     0
102
RTVSPropertyOp19
 70
     0
102
RTVSPropertyOp20
 70
     0
102
RTVSPropertyOp21
 70
     0
102
RTVSPropertyOp22
 70
     0
102
RTVSPropertyOp23
 70
     0
102
RTVSPropertyOp24
 70
     0
102
RTVSPropertyOp25
 70
     0
102
RTVSPropertyOp26
 70
     0
102
RTVSPropertyOp27
 70
     0
102
RTVSPropertyOp28
 70
     1
102
RTVSPropertyOp29
 70
     1
102
RTVSPropertyOp30
 70
     1
102
RTVSPropertyOp31
 70
     1
102
RTVSPropertyOp32
 70
     1
102
RTVSPropertyOp33
 70
     1
102
RTVSPropertyOp34
 70
     1
102
RTVSPropertyOp35
 70
     1
102
RTVSPropertyOp36
 70
     1
102
RTVSPropertyOp37
 70
     0
102
RTVSPropertyOp38
 70
     0
102
RTVSPropertyOp39
 70
     0
102
RTVSPropertyOp40
 70
     0
102
RTVSPropertyOp41
 70
     0
102
RTVSPropertyOp42
 70
     0
102
RTVSPropertyOp43
 70
     0
102
RTVSPropertyOp44
 70
     0
102
RTVSPropertyOp45
 70
     1
102
RTVSPropertyOp46
 70
     0
102
RTVSPropertyOp47
 70
     0
102
RTVSPropertyOp48
 70
     0
102
RTVSPropertyOp49
 70
     1
102
RTVSPropertyOp50
 70
     0
102
RTVSPropertyOp51
 70
     0
102
RTVSPropertyOp52
 70
     0
102
RTVSPropertyOp53
 70
     0
102
RTVSPropertyOp54
 70
     0
102
RTVSPropertyOp55
 70
     1
102
RTVSPropertyOp56
 70
     0
102
RTVSPropertyOp57
 70
     0
102
RTVSPropertyOp58
 70
     1
102
RTVSPropertyOp59
 70
     1
102
RTVSPropertyOp60
 70
     1
102
RTVSPropertyOp61
 70
     1
102
RTVSPropertyOp62
 70
     1
  0
XRECORD
  5
2186A
102
{ACAD_REACTORS
330
21869
102
}
330
21869
100
AcDbXrecord
280
     1
102
RTVSPost2010Prop28
280
     0
102
RTVSPost2010PropOp28
 70
     1
102
RTVSPost2010Prop29
280
     1
102
RTVSPost2010PropOp29
 70
     1
102
RTVSPost2010Prop30
280
     1
102
RTVSPost2010PropOp30
 70
     1
102
RTVSPost2010Prop31
280
     0
102
RTVSPost2010PropOp31
 70
     1
102
RTVSPost2010Prop32
280
     0
102
RTVSPost2010PropOp32
 70
     1
102
RTVSPost2010Prop33
280
     0
102
RTVSPost2010PropOp33
 70
     1
102
RTVSPost2010Prop34
280
     0
102
RTVSPost2010PropOp34
 70
     1
102
RTVSPost2010Prop35
280
     0
102
RTVSPost2010PropOp35
 70
     1
102
RTVSPost2010Prop36
280
     0
102
RTVSPost2010PropOp36
 70
     1
102
RTVSPost2010Prop37
 90
       50
102
RTVSPost2010PropOp37
 70
     1
102
RTVSPost2010Prop38
140
0.0
102
RTVSPost2010PropOp38
 70
     1
102
RTVSPost2010Prop39
140
1.0
102
RTVSPost2010PropOp39
 70
     1
102
RTVSPost2010Prop40
 90
        0
102
RTVSPost2010PropOp40
 70
     1
102
RTVSPost2010Prop41ColorIndex
 90
       18
102
RTVSPost2010Prop41ColorRGB
 90
        0
102
RTVSPost2010PropOp41
 70
     1
102
RTVSPost2010Prop42
 90
       50
102
RTVSPost2010PropOp42
 70
     1
102
RTVSPost2010Prop43
 90
        3
102
RTVSPost2010PropOp43
 70
     1
102
RTVSPost2010Prop44ColorIndex
 90
        5
102
RTVSPost2010Prop44ColorRGB
 90
      255
102
RTVSPost2010PropOp44
 70
     1
102
RTVSPost2010Prop45
280
     0
102
RTVSPost2010PropOp45
 70
     1
102
RTVSPost2010Prop46
 90
       50
102
RTVSPost2010PropOp46
 70
     1
102
RTVSPost2010Prop47
 90
       50
102
RTVSPost2010PropOp47
 70
     1
102
RTVSPost2010Prop48
 90
       50
102
RTVSPost2010PropOp48
 70
     1
102
RTVSPost2010Prop49
280
     0
102
RTVSPost2010PropOp49
 70
     1
102
RTVSPost2010Prop50
 90
       50
102
RTVSPost2010PropOp50
 70
     1
102
RTVSPost2010Prop51ColorIndex
 90
      256
102
RTVSPost2010Prop51ColorRGB
 90
-16777216
102
RTVSPost2010PropOp51
 70
     0
102
RTVSPost2010Prop52
140
1.0
102
RTVSPost2010PropOp52
 70
     0
102
RTVSPost2010Prop53
 90
        2
102
RTVSPost2010PropOp53
 70
     1
102
RTVSPost2010Prop54
  1
strokes_ogs.tif
102
RTVSPost2010PropOp54
 70
     1
102
RTVSPost2010Prop55
280
     0
102
RTVSPost2010PropOp55
 70
     1
102
RTVSPost2010Prop56
140
1.0
102
RTVSPost2010PropOp56
 70
     1
102
RTVSPost2010Prop57
140
1.0
102
RTVSPost2010PropOp57
 70
     1
102
RTVSPropertyOp0
 70
     1
102
RTVSPropertyOp1
 70
     1
102
RTVSPropertyOp2
 70
     1
102
RTVSPropertyOp3
 70
     1
102
RTVSPropertyOp4
 70
     1
102
RTVSPropertyOp5
 70
     1
102
RTVSPropertyOp6
 70
     1
102
RTVSPropertyOp7
 70
     1
102
RTVSPropertyOp8
 70
     1
102
RTVSPropertyOp9
 70
     1
102
RTVSPropertyOp10
 70
     1
102
RTVSPropertyOp11
 70
     1
102
RTVSPropertyOp12
 70
     1
102
RTVSPropertyOp13
 70
     1
102
RTVSPropertyOp14
 70
     1
102
RTVSPropertyOp15
 70
     1
102
RTVSPropertyOp16
 70
     1
102
RTVSPropertyOp17
 70
     1
102
RTVSPropertyOp18
 70
     1
102
RTVSPropertyOp19
 70
     1
102
RTVSPropertyOp20
 70
     1
102
RTVSPropertyOp21
 70
     1
102
RTVSPropertyOp22
 70
     1
102
RTVSPropertyOp23
 70
     1
102
RTVSPropertyOp24
 70
     1
102
RTVSPropertyOp25
 70
     1
102
RTVSPropertyOp26
 70
     1
102
RTVSPropertyOp27
 70
     1
102
RTVSPropertyOp28
 70
     1
102
RTVSPropertyOp29
 70
     1
102
RTVSPropertyOp30
 70
     1
102
RTVSPropertyOp31
 70
     1
102
RTVSPropertyOp32
 70
     1
102
RTVSPropertyOp33
 70
     1
102
RTVSPropertyOp34
 70
     1
102
RTVSPropertyOp35
 70
     1
102
RTVSPropertyOp36
 70
     1
102
RTVSPropertyOp37
 70
     1
102
RTVSPropertyOp38
 70
     1
102
RTVSPropertyOp39
 70
     1
102
RTVSPropertyOp40
 70
     1
102
RTVSPropertyOp41
 70
     1
102
RTVSPropertyOp42
 70
     1
102
RTVSPropertyOp43
 70
     1
102
RTVSPropertyOp44
 70
     1
102
RTVSPropertyOp45
 70
     1
102
RTVSPropertyOp46
 70
     1
102
RTVSPropertyOp47
 70
     1
102
RTVSPropertyOp48
 70
     1
102
RTVSPropertyOp49
 70
     1
102
RTVSPropertyOp50
 70
     1
102
RTVSPropertyOp51
 70
     0
102
RTVSPropertyOp52
 70
     0
102
RTVSPropertyOp53
 70
     1
102
RTVSPropertyOp54
 70
     1
102
RTVSPropertyOp55
 70
     1
102
RTVSPropertyOp56
 70
     1
102
RTVSPropertyOp57
 70
     1
102
RTVSPropertyOp58
 70
     1
102
RTVSPropertyOp59
 70
     1
102
RTVSPropertyOp60
 70
     1
102
RTVSPropertyOp61
 70
     1
102
RTVSPropertyOp62
 70
     1
  0
XRECORD
  5
2184E
102
{ACAD_REACTORS
330
2184D
102
}
330
2184D
100
AcDbXrecord
280
     1
102
RTVSPost2010Prop28
280
     0
102
RTVSPost2010PropOp28
 70
     1
102
RTVSPost2010Prop29
280
     1
102
RTVSPost2010PropOp29
 70
     1
102
RTVSPost2010Prop30
280
     1
102
RTVSPost2010PropOp30
 70
     1
102
RTVSPost2010Prop31
280
     0
102
RTVSPost2010PropOp31
 70
     1
102
RTVSPost2010Prop32
280
     0
102
RTVSPost2010PropOp32
 70
     1
102
RTVSPost2010Prop33
280
     0
102
RTVSPost2010PropOp33
 70
     1
102
RTVSPost2010Prop34
280
     0
102
RTVSPost2010PropOp34
 70
     1
102
RTVSPost2010Prop35
280
     0
102
RTVSPost2010PropOp35
 70
     1
102
RTVSPost2010Prop36
280
     0
102
RTVSPost2010PropOp36
 70
     1
102
RTVSPost2010Prop37
 90
       50
102
RTVSPost2010PropOp37
 70
     1
102
RTVSPost2010Prop38
140
0.0
102
RTVSPost2010PropOp38
 70
     1
102
RTVSPost2010Prop39
140
1.0
102
RTVSPost2010PropOp39
 70
     1
102
RTVSPost2010Prop40
 90
        0
102
RTVSPost2010PropOp40
 70
     1
102
RTVSPost2010Prop41ColorIndex
 90
       18
102
RTVSPost2010Prop41ColorRGB
 90
        0
102
RTVSPost2010PropOp41
 70
     1
102
RTVSPost2010Prop42
 90
       50
102
RTVSPost2010PropOp42
 70
     1
102
RTVSPost2010Prop43
 90
        3
102
RTVSPost2010PropOp43
 70
     1
102
RTVSPost2010Prop44ColorIndex
 90
        5
102
RTVSPost2010Prop44ColorRGB
 90
      255
102
RTVSPost2010PropOp44
 70
     1
102
RTVSPost2010Prop45
280
     0
102
RTVSPost2010PropOp45
 70
     1
102
RTVSPost2010Prop46
 90
       50
102
RTVSPost2010PropOp46
 70
     1
102
RTVSPost2010Prop47
 90
       50
102
RTVSPost2010PropOp47
 70
     1
102
RTVSPost2010Prop48
 90
       50
102
RTVSPost2010PropOp48
 70
     1
102
RTVSPost2010Prop49
280
     0
102
RTVSPost2010PropOp49
 70
     1
102
RTVSPost2010Prop50
 90
       50
102
RTVSPost2010PropOp50
 70
     1
102
RTVSPost2010Prop51ColorIndex
 90
      256
102
RTVSPost2010Prop51ColorRGB
 90
-16777216
102
RTVSPost2010PropOp51
 70
     0
102
RTVSPost2010Prop52
140
1.0
102
RTVSPost2010PropOp52
 70
     0
102
RTVSPost2010Prop53
 90
        2
102
RTVSPost2010PropOp53
 70
     1
102
RTVSPost2010Prop54
  1
strokes_ogs.tif
102
RTVSPost2010PropOp54
 70
     1
102
RTVSPost2010Prop55
280
     0
102
RTVSPost2010PropOp55
 70
     1
102
RTVSPost2010Prop56
140
1.0
102
RTVSPost2010PropOp56
 70
     1
102
RTVSPost2010Prop57
140
1.0
102
RTVSPost2010PropOp57
 70
     1
102
RTVSPropertyOp0
 70
     1
102
RTVSPropertyOp1
 70
     1
102
RTVSPropertyOp2
 70
     1
102
RTVSPropertyOp3
 70
     1
102
RTVSPropertyOp4
 70
     1
102
RTVSPropertyOp5
 70
     1
102
RTVSPropertyOp6
 70
     1
102
RTVSPropertyOp7
 70
     1
102
RTVSPropertyOp8
 70
     1
102
RTVSPropertyOp9
 70
     1
102
RTVSPropertyOp10
 70
     1
102
RTVSPropertyOp11
 70
     1
102
RTVSPropertyOp12
 70
     1
102
RTVSPropertyOp13
 70
     1
102
RTVSPropertyOp14
 70
     1
102
RTVSPropertyOp15
 70
     1
102
RTVSPropertyOp16
 70
     1
102
RTVSPropertyOp17
 70
     1
102
RTVSPropertyOp18
 70
     1
102
RTVSPropertyOp19
 70
     1
102
RTVSPropertyOp20
 70
     1
102
RTVSPropertyOp21
 70
     1
102
RTVSPropertyOp22
 70
     1
102
RTVSPropertyOp23
 70
     1
102
RTVSPropertyOp24
 70
     1
102
RTVSPropertyOp25
 70
     1
102
RTVSPropertyOp26
 70
     1
102
RTVSPropertyOp27
 70
     1
102
RTVSPropertyOp28
 70
     1
102
RTVSPropertyOp29
 70
     1
102
RTVSPropertyOp30
 70
     1
102
RTVSPropertyOp31
 70
     1
102
RTVSPropertyOp32
 70
     1
102
RTVSPropertyOp33
 70
     1
102
RTVSPropertyOp34
 70
     1
102
RTVSPropertyOp35
 70
     1
102
RTVSPropertyOp36
 70
     1
102
RTVSPropertyOp37
 70
     1
102
RTVSPropertyOp38
 70
     1
102
RTVSPropertyOp39
 70
     1
102
RTVSPropertyOp40
 70
     1
102
RTVSPropertyOp41
 70
     1
102
RTVSPropertyOp42
 70
     1
102
RTVSPropertyOp43
 70
     1
102
RTVSPropertyOp44
 70
     1
102
RTVSPropertyOp45
 70
     1
102
RTVSPropertyOp46
 70
     1
102
RTVSPropertyOp47
 70
     1
102
RTVSPropertyOp48
 70
     1
102
RTVSPropertyOp49
 70
     1
102
RTVSPropertyOp50
 70
     1
102
RTVSPropertyOp51
 70
     0
102
RTVSPropertyOp52
 70
     0
102
RTVSPropertyOp53
 70
     1
102
RTVSPropertyOp54
 70
     1
102
RTVSPropertyOp55
 70
     1
102
RTVSPropertyOp56
 70
     1
102
RTVSPropertyOp57
 70
     1
102
RTVSPropertyOp58
 70
     1
102
RTVSPropertyOp59
 70
     1
102
RTVSPropertyOp60
 70
     1
102
RTVSPropertyOp61
 70
     1
102
RTVSPropertyOp62
 70
     1
  0
XRECORD
  5
21850
102
{ACAD_REACTORS
330
2184F
102
}
330
2184F
100
AcDbXrecord
280
     1
102
RTVSPost2010Prop28
280
     0
102
RTVSPost2010PropOp28
 70
     1
102
RTVSPost2010Prop29
280
     1
102
RTVSPost2010PropOp29
 70
     1
102
RTVSPost2010Prop30
280
     1
102
RTVSPost2010PropOp30
 70
     1
102
RTVSPost2010Prop31
280
     0
102
RTVSPost2010PropOp31
 70
     1
102
RTVSPost2010Prop32
280
     0
102
RTVSPost2010PropOp32
 70
     1
102
RTVSPost2010Prop33
280
     0
102
RTVSPost2010PropOp33
 70
     1
102
RTVSPost2010Prop34
280
     0
102
RTVSPost2010PropOp34
 70
     1
102
RTVSPost2010Prop35
280
     0
102
RTVSPost2010PropOp35
 70
     1
102
RTVSPost2010Prop36
280
     0
102
RTVSPost2010PropOp36
 70
     1
102
RTVSPost2010Prop37
 90
       50
102
RTVSPost2010PropOp37
 70
     1
102
RTVSPost2010Prop38
140
0.0
102
RTVSPost2010PropOp38
 70
     1
102
RTVSPost2010Prop39
140
1.0
102
RTVSPost2010PropOp39
 70
     1
102
RTVSPost2010Prop40
 90
        0
102
RTVSPost2010PropOp40
 70
     1
102
RTVSPost2010Prop41ColorIndex
 90
       18
102
RTVSPost2010Prop41ColorRGB
 90
        0
102
RTVSPost2010PropOp41
 70
     1
102
RTVSPost2010Prop42
 90
       50
102
RTVSPost2010PropOp42
 70
     1
102
RTVSPost2010Prop43
 90
        3
102
RTVSPost2010PropOp43
 70
     1
102
RTVSPost2010Prop44ColorIndex
 90
        5
102
RTVSPost2010Prop44ColorRGB
 90
      255
102
RTVSPost2010PropOp44
 70
     1
102
RTVSPost2010Prop45
280
     0
102
RTVSPost2010PropOp45
 70
     1
102
RTVSPost2010Prop46
 90
       50
102
RTVSPost2010PropOp46
 70
     1
102
RTVSPost2010Prop47
 90
       50
102
RTVSPost2010PropOp47
 70
     1
102
RTVSPost2010Prop48
 90
       50
102
RTVSPost2010PropOp48
 70
     1
102
RTVSPost2010Prop49
280
     0
102
RTVSPost2010PropOp49
 70
     1
102
RTVSPost2010Prop50
 90
       50
102
RTVSPost2010PropOp50
 70
     1
102
RTVSPost2010Prop51ColorIndex
 90
      256
102
RTVSPost2010Prop51ColorRGB
 90
-16777216
102
RTVSPost2010PropOp51
 70
     0
102
RTVSPost2010Prop52
140
1.0
102
RTVSPost2010PropOp52
 70
     0
102
RTVSPost2010Prop53
 90
        2
102
RTVSPost2010PropOp53
 70
     1
102
RTVSPost2010Prop54
  1
strokes_ogs.tif
102
RTVSPost2010PropOp54
 70
     1
102
RTVSPost2010Prop55
280
     0
102
RTVSPost2010PropOp55
 70
     1
102
RTVSPost2010Prop56
140
1.0
102
RTVSPost2010PropOp56
 70
     1
102
RTVSPost2010Prop57
140
1.0
102
RTVSPost2010PropOp57
 70
     1
102
RTVSPropertyOp0
 70
     1
102
RTVSPropertyOp1
 70
     1
102
RTVSPropertyOp2
 70
     1
102
RTVSPropertyOp3
 70
     1
102
RTVSPropertyOp4
 70
     1
102
RTVSPropertyOp5
 70
     1
102
RTVSPropertyOp6
 70
     1
102
RTVSPropertyOp7
 70
     1
102
RTVSPropertyOp8
 70
     1
102
RTVSPropertyOp9
 70
     1
102
RTVSPropertyOp10
 70
     1
102
RTVSPropertyOp11
 70
     1
102
RTVSPropertyOp12
 70
     1
102
RTVSPropertyOp13
 70
     1
102
RTVSPropertyOp14
 70
     1
102
RTVSPropertyOp15
 70
     1
102
RTVSPropertyOp16
 70
     1
102
RTVSPropertyOp17
 70
     1
102
RTVSPropertyOp18
 70
     1
102
RTVSPropertyOp19
 70
     1
102
RTVSPropertyOp20
 70
     1
102
RTVSPropertyOp21
 70
     1
102
RTVSPropertyOp22
 70
     1
102
RTVSPropertyOp23
 70
     1
102
RTVSPropertyOp24
 70
     1
102
RTVSPropertyOp25
 70
     1
102
RTVSPropertyOp26
 70
     1
102
RTVSPropertyOp27
 70
     1
102
RTVSPropertyOp28
 70
     1
102
RTVSPropertyOp29
 70
     1
102
RTVSPropertyOp30
 70
     1
102
RTVSPropertyOp31
 70
     1
102
RTVSPropertyOp32
 70
     1
102
RTVSPropertyOp33
 70
     1
102
RTVSPropertyOp34
 70
     1
102
RTVSPropertyOp35
 70
     1
102
RTVSPropertyOp36
 70
     1
102
RTVSPropertyOp37
 70
     1
102
RTVSPropertyOp38
 70
     1
102
RTVSPropertyOp39
 70
     1
102
RTVSPropertyOp40
 70
     1
102
RTVSPropertyOp41
 70
     1
102
RTVSPropertyOp42
 70
     1
102
RTVSPropertyOp43
 70
     1
102
RTVSPropertyOp44
 70
     1
102
RTVSPropertyOp45
 70
     1
102
RTVSPropertyOp46
 70
     1
102
RTVSPropertyOp47
 70
     1
102
RTVSPropertyOp48
 70
     1
102
RTVSPropertyOp49
 70
     1
102
RTVSPropertyOp50
 70
     1
102
RTVSPropertyOp51
 70
     0
102
RTVSPropertyOp52
 70
     0
102
RTVSPropertyOp53
 70
     1
102
RTVSPropertyOp54
 70
     1
102
RTVSPropertyOp55
 70
     1
102
RTVSPropertyOp56
 70
     1
102
RTVSPropertyOp57
 70
     1
102
RTVSPropertyOp58
 70
     1
102
RTVSPropertyOp59
 70
     1
102
RTVSPropertyOp60
 70
     1
102
RTVSPropertyOp61
 70
     1
102
RTVSPropertyOp62
 70
     1
  0
XRECORD
  5
21852
102
{ACAD_REACTORS
330
21851
102
}
330
21851
100
AcDbXrecord
280
     1
102
RTVSPost2010Prop28
280
     0
102
RTVSPost2010PropOp28
 70
     1
102
RTVSPost2010Prop29
280
     1
102
RTVSPost2010PropOp29
 70
     1
102
RTVSPost2010Prop30
280
     1
102
RTVSPost2010PropOp30
 70
     1
102
RTVSPost2010Prop31
280
     0
102
RTVSPost2010PropOp31
 70
     1
102
RTVSPost2010Prop32
280
     0
102
RTVSPost2010PropOp32
 70
     1
102
RTVSPost2010Prop33
280
     0
102
RTVSPost2010PropOp33
 70
     1
102
RTVSPost2010Prop34
280
     0
102
RTVSPost2010PropOp34
 70
     1
102
RTVSPost2010Prop35
280
     0
102
RTVSPost2010PropOp35
 70
     1
102
RTVSPost2010Prop36
280
     0
102
RTVSPost2010PropOp36
 70
     1
102
RTVSPost2010Prop37
 90
       50
102
RTVSPost2010PropOp37
 70
     1
102
RTVSPost2010Prop38
140
0.0
102
RTVSPost2010PropOp38
 70
     1
102
RTVSPost2010Prop39
140
1.0
102
RTVSPost2010PropOp39
 70
     1
102
RTVSPost2010Prop40
 90
        0
102
RTVSPost2010PropOp40
 70
     1
102
RTVSPost2010Prop41ColorIndex
 90
       18
102
RTVSPost2010Prop41ColorRGB
 90
        0
102
RTVSPost2010PropOp41
 70
     1
102
RTVSPost2010Prop42
 90
       50
102
RTVSPost2010PropOp42
 70
     1
102
RTVSPost2010Prop43
 90
        3
102
RTVSPost2010PropOp43
 70
     1
102
RTVSPost2010Prop44ColorIndex
 90
        5
102
RTVSPost2010Prop44ColorRGB
 90
      255
102
RTVSPost2010PropOp44
 70
     1
102
RTVSPost2010Prop45
280
     0
102
RTVSPost2010PropOp45
 70
     1
102
RTVSPost2010Prop46
 90
       50
102
RTVSPost2010PropOp46
 70
     1
102
RTVSPost2010Prop47
 90
       50
102
RTVSPost2010PropOp47
 70
     1
102
RTVSPost2010Prop48
 90
       50
102
RTVSPost2010PropOp48
 70
     1
102
RTVSPost2010Prop49
280
     0
102
RTVSPost2010PropOp49
 70
     1
102
RTVSPost2010Prop50
 90
       50
102
RTVSPost2010PropOp50
 70
     1
102
RTVSPost2010Prop51ColorIndex
 90
      256
102
RTVSPost2010Prop51ColorRGB
 90
-16777216
102
RTVSPost2010PropOp51
 70
     0
102
RTVSPost2010Prop52
140
1.0
102
RTVSPost2010PropOp52
 70
     0
102
RTVSPost2010Prop53
 90
        2
102
RTVSPost2010PropOp53
 70
     1
102
RTVSPost2010Prop54
  1
strokes_ogs.tif
102
RTVSPost2010PropOp54
 70
     1
102
RTVSPost2010Prop55
280
     0
102
RTVSPost2010PropOp55
 70
     1
102
RTVSPost2010Prop56
140
1.0
102
RTVSPost2010PropOp56
 70
     1
102
RTVSPost2010Prop57
140
1.0
102
RTVSPost2010PropOp57
 70
     1
102
RTVSPropertyOp0
 70
     1
102
RTVSPropertyOp1
 70
     1
102
RTVSPropertyOp2
 70
     1
102
RTVSPropertyOp3
 70
     1
102
RTVSPropertyOp4
 70
     1
102
RTVSPropertyOp5
 70
     1
102
RTVSPropertyOp6
 70
     1
102
RTVSPropertyOp7
 70
     1
102
RTVSPropertyOp8
 70
     1
102
RTVSPropertyOp9
 70
     1
102
RTVSPropertyOp10
 70
     1
102
RTVSPropertyOp11
 70
     1
102
RTVSPropertyOp12
 70
     1
102
RTVSPropertyOp13
 70
     1
102
RTVSPropertyOp14
 70
     1
102
RTVSPropertyOp15
 70
     1
102
RTVSPropertyOp16
 70
     1
102
RTVSPropertyOp17
 70
     1
102
RTVSPropertyOp18
 70
     1
102
RTVSPropertyOp19
 70
     1
102
RTVSPropertyOp20
 70
     1
102
RTVSPropertyOp21
 70
     1
102
RTVSPropertyOp22
 70
     1
102
RTVSPropertyOp23
 70
     1
102
RTVSPropertyOp24
 70
     1
102
RTVSPropertyOp25
 70
     1
102
RTVSPropertyOp26
 70
     1
102
RTVSPropertyOp27
 70
     1
102
RTVSPropertyOp28
 70
     1
102
RTVSPropertyOp29
 70
     1
102
RTVSPropertyOp30
 70
     1
102
RTVSPropertyOp31
 70
     1
102
RTVSPropertyOp32
 70
     1
102
RTVSPropertyOp33
 70
     1
102
RTVSPropertyOp34
 70
     1
102
RTVSPropertyOp35
 70
     1
102
RTVSPropertyOp36
 70
     1
102
RTVSPropertyOp37
 70
     1
102
RTVSPropertyOp38
 70
     1
102
RTVSPropertyOp39
 70
     1
102
RTVSPropertyOp40
 70
     1
102
RTVSPropertyOp41
 70
     1
102
RTVSPropertyOp42
 70
     1
102
RTVSPropertyOp43
 70
     1
102
RTVSPropertyOp44
 70
     1
102
RTVSPropertyOp45
 70
     1
102
RTVSPropertyOp46
 70
     1
102
RTVSPropertyOp47
 70
     1
102
RTVSPropertyOp48
 70
     1
102
RTVSPropertyOp49
 70
     1
102
RTVSPropertyOp50
 70
     1
102
RTVSPropertyOp51
 70
     0
102
RTVSPropertyOp52
 70
     0
102
RTVSPropertyOp53
 70
     1
102
RTVSPropertyOp54
 70
     1
102
RTVSPropertyOp55
 70
     1
102
RTVSPropertyOp56
 70
     1
102
RTVSPropertyOp57
 70
     1
102
RTVSPropertyOp58
 70
     1
102
RTVSPropertyOp59
 70
     1
102
RTVSPropertyOp60
 70
     1
102
RTVSPropertyOp61
 70
     1
102
RTVSPropertyOp62
 70
     1
  0
XRECORD
  5
21854
102
{ACAD_REACTORS
330
21853
102
}
330
21853
100
AcDbXrecord
280
     1
102
RTVSPost2010Prop28
280
     0
102
RTVSPost2010PropOp28
 70
     1
102
RTVSPost2010Prop29
280
     1
102
RTVSPost2010PropOp29
 70
     1
102
RTVSPost2010Prop30
280
     1
102
RTVSPost2010PropOp30
 70
     1
102
RTVSPost2010Prop31
280
     0
102
RTVSPost2010PropOp31
 70
     1
102
RTVSPost2010Prop32
280
     0
102
RTVSPost2010PropOp32
 70
     1
102
RTVSPost2010Prop33
280
     0
102
RTVSPost2010PropOp33
 70
     1
102
RTVSPost2010Prop34
280
     0
102
RTVSPost2010PropOp34
 70
     1
102
RTVSPost2010Prop35
280
     0
102
RTVSPost2010PropOp35
 70
     1
102
RTVSPost2010Prop36
280
     0
102
RTVSPost2010PropOp36
 70
     1
102
RTVSPost2010Prop37
 90
       50
102
RTVSPost2010PropOp37
 70
     1
102
RTVSPost2010Prop38
140
0.0
102
RTVSPost2010PropOp38
 70
     1
102
RTVSPost2010Prop39
140
1.0
102
RTVSPost2010PropOp39
 70
     1
102
RTVSPost2010Prop40
 90
        0
102
RTVSPost2010PropOp40
 70
     1
102
RTVSPost2010Prop41ColorIndex
 90
       18
102
RTVSPost2010Prop41ColorRGB
 90
        0
102
RTVSPost2010PropOp41
 70
     1
102
RTVSPost2010Prop42
 90
       50
102
RTVSPost2010PropOp42
 70
     1
102
RTVSPost2010Prop43
 90
        3
102
RTVSPost2010PropOp43
 70
     1
102
RTVSPost2010Prop44ColorIndex
 90
        5
102
RTVSPost2010Prop44ColorRGB
 90
      255
102
RTVSPost2010PropOp44
 70
     1
102
RTVSPost2010Prop45
280
     0
102
RTVSPost2010PropOp45
 70
     1
102
RTVSPost2010Prop46
 90
       50
102
RTVSPost2010PropOp46
 70
     1
102
RTVSPost2010Prop47
 90
       50
102
RTVSPost2010PropOp47
 70
     1
102
RTVSPost2010Prop48
 90
       50
102
RTVSPost2010PropOp48
 70
     1
102
RTVSPost2010Prop49
280
     0
102
RTVSPost2010PropOp49
 70
     1
102
RTVSPost2010Prop50
 90
       50
102
RTVSPost2010PropOp50
 70
     1
102
RTVSPost2010Prop51ColorIndex
 90
      256
102
RTVSPost2010Prop51ColorRGB
 90
-16777216
102
RTVSPost2010PropOp51
 70
     0
102
RTVSPost2010Prop52
140
1.0
102
RTVSPost2010PropOp52
 70
     0
102
RTVSPost2010Prop53
 90
        2
102
RTVSPost2010PropOp53
 70
     1
102
RTVSPost2010Prop54
  1
strokes_ogs.tif
102
RTVSPost2010PropOp54
 70
     1
102
RTVSPost2010Prop55
280
     0
102
RTVSPost2010PropOp55
 70
     1
102
RTVSPost2010Prop56
140
1.0
102
RTVSPost2010PropOp56
 70
     1
102
RTVSPost2010Prop57
140
1.0
102
RTVSPost2010PropOp57
 70
     1
102
RTVSPropertyOp0
 70
     1
102
RTVSPropertyOp1
 70
     1
102
RTVSPropertyOp2
 70
     1
102
RTVSPropertyOp3
 70
     1
102
RTVSPropertyOp4
 70
     1
102
RTVSPropertyOp5
 70
     1
102
RTVSPropertyOp6
 70
     1
102
RTVSPropertyOp7
 70
     1
102
RTVSPropertyOp8
 70
     1
102
RTVSPropertyOp9
 70
     1
102
RTVSPropertyOp10
 70
     1
102
RTVSPropertyOp11
 70
     1
102
RTVSPropertyOp12
 70
     1
102
RTVSPropertyOp13
 70
     1
102
RTVSPropertyOp14
 70
     1
102
RTVSPropertyOp15
 70
     1
102
RTVSPropertyOp16
 70
     1
102
RTVSPropertyOp17
 70
     1
102
RTVSPropertyOp18
 70
     1
102
RTVSPropertyOp19
 70
     1
102
RTVSPropertyOp20
 70
     1
102
RTVSPropertyOp21
 70
     1
102
RTVSPropertyOp22
 70
     1
102
RTVSPropertyOp23
 70
     1
102
RTVSPropertyOp24
 70
     1
102
RTVSPropertyOp25
 70
     1
102
RTVSPropertyOp26
 70
     1
102
RTVSPropertyOp27
 70
     1
102
RTVSPropertyOp28
 70
     1
102
RTVSPropertyOp29
 70
     1
102
RTVSPropertyOp30
 70
     1
102
RTVSPropertyOp31
 70
     1
102
RTVSPropertyOp32
 70
     1
102
RTVSPropertyOp33
 70
     1
102
RTVSPropertyOp34
 70
     1
102
RTVSPropertyOp35
 70
     1
102
RTVSPropertyOp36
 70
     1
102
RTVSPropertyOp37
 70
     1
102
RTVSPropertyOp38
 70
     1
102
RTVSPropertyOp39
 70
     1
102
RTVSPropertyOp40
 70
     1
102
RTVSPropertyOp41
 70
     1
102
RTVSPropertyOp42
 70
     1
102
RTVSPropertyOp43
 70
     1
102
RTVSPropertyOp44
 70
     1
102
RTVSPropertyOp45
 70
     1
102
RTVSPropertyOp46
 70
     1
102
RTVSPropertyOp47
 70
     1
102
RTVSPropertyOp48
 70
     1
102
RTVSPropertyOp49
 70
     1
102
RTVSPropertyOp50
 70
     1
102
RTVSPropertyOp51
 70
     0
102
RTVSPropertyOp52
 70
     0
102
RTVSPropertyOp53
 70
     1
102
RTVSPropertyOp54
 70
     1
102
RTVSPropertyOp55
 70
     1
102
RTVSPropertyOp56
 70
     1
102
RTVSPropertyOp57
 70
     1
102
RTVSPropertyOp58
 70
     1
102
RTVSPropertyOp59
 70
     1
102
RTVSPropertyOp60
 70
     1
102
RTVSPropertyOp61
 70
     1
102
RTVSPropertyOp62
 70
     1
  0
XRECORD
  5
21879
102
{ACAD_REACTORS
330
21878
102
}
330
21878
100
AcDbXrecord
280
     1
102
RTVSPost2010Prop28
280
     0
102
RTVSPost2010PropOp28
 70
     1
102
RTVSPost2010Prop29
280
     1
102
RTVSPost2010PropOp29
 70
     1
102
RTVSPost2010Prop30
280
     1
102
RTVSPost2010PropOp30
 70
     1
102
RTVSPost2010Prop31
280
     0
102
RTVSPost2010PropOp31
 70
     1
102
RTVSPost2010Prop32
280
     0
102
RTVSPost2010PropOp32
 70
     1
102
RTVSPost2010Prop33
280
     0
102
RTVSPost2010PropOp33
 70
     1
102
RTVSPost2010Prop34
280
     0
102
RTVSPost2010PropOp34
 70
     1
102
RTVSPost2010Prop35
280
     0
102
RTVSPost2010PropOp35
 70
     1
102
RTVSPost2010Prop36
280
     0
102
RTVSPost2010PropOp36
 70
     1
102
RTVSPost2010Prop37
 90
       50
102
RTVSPost2010PropOp37
 70
     1
102
RTVSPost2010Prop38
140
0.0
102
RTVSPost2010PropOp38
 70
     1
102
RTVSPost2010Prop39
140
1.0
102
RTVSPost2010PropOp39
 70
     1
102
RTVSPost2010Prop40
 90
        0
102
RTVSPost2010PropOp40
 70
     1
102
RTVSPost2010Prop41ColorIndex
 90
       18
102
RTVSPost2010Prop41ColorRGB
 90
        0
102
RTVSPost2010PropOp41
 70
     1
102
RTVSPost2010Prop42
 90
       50
102
RTVSPost2010PropOp42
 70
     1
102
RTVSPost2010Prop43
 90
        3
102
RTVSPost2010PropOp43
 70
     1
102
RTVSPost2010Prop44ColorIndex
 90
        5
102
RTVSPost2010Prop44ColorRGB
 90
      255
102
RTVSPost2010PropOp44
 70
     1
102
RTVSPost2010Prop45
280
     0
102
RTVSPost2010PropOp45
 70
     1
102
RTVSPost2010Prop46
 90
       50
102
RTVSPost2010PropOp46
 70
     1
102
RTVSPost2010Prop47
 90
       50
102
RTVSPost2010PropOp47
 70
     1
102
RTVSPost2010Prop48
 90
       50
102
RTVSPost2010PropOp48
 70
     1
102
RTVSPost2010Prop49
280
     0
102
RTVSPost2010PropOp49
 70
     1
102
RTVSPost2010Prop50
 90
       50
102
RTVSPost2010PropOp50
 70
     1
102
RTVSPost2010Prop51ColorIndex
 90
      256
102
RTVSPost2010Prop51ColorRGB
 90
-16777216
102
RTVSPost2010PropOp51
 70
     0
102
RTVSPost2010Prop52
140
1.0
102
RTVSPost2010PropOp52
 70
     0
102
RTVSPost2010Prop53
 90
        2
102
RTVSPost2010PropOp53
 70
     1
102
RTVSPost2010Prop54
  1
strokes_ogs.tif
102
RTVSPost2010PropOp54
 70
     1
102
RTVSPost2010Prop55
280
     0
102
RTVSPost2010PropOp55
 70
     1
102
RTVSPost2010Prop56
140
1.0
102
RTVSPost2010PropOp56
 70
     1
102
RTVSPost2010Prop57
140
1.0
102
RTVSPost2010PropOp57
 70
     1
102
RTVSPropertyOp0
 70
     1
102
RTVSPropertyOp1
 70
     1
102
RTVSPropertyOp2
 70
     1
102
RTVSPropertyOp3
 70
     1
102
RTVSPropertyOp4
 70
     1
102
RTVSPropertyOp5
 70
     1
102
RTVSPropertyOp6
 70
     1
102
RTVSPropertyOp7
 70
     1
102
RTVSPropertyOp8
 70
     1
102
RTVSPropertyOp9
 70
     1
102
RTVSPropertyOp10
 70
     1
102
RTVSPropertyOp11
 70
     1
102
RTVSPropertyOp12
 70
     1
102
RTVSPropertyOp13
 70
     1
102
RTVSPropertyOp14
 70
     1
102
RTVSPropertyOp15
 70
     1
102
RTVSPropertyOp16
 70
     1
102
RTVSPropertyOp17
 70
     1
102
RTVSPropertyOp18
 70
     1
102
RTVSPropertyOp19
 70
     1
102
RTVSPropertyOp20
 70
     1
102
RTVSPropertyOp21
 70
     1
102
RTVSPropertyOp22
 70
     1
102
RTVSPropertyOp23
 70
     1
102
RTVSPropertyOp24
 70
     1
102
RTVSPropertyOp25
 70
     1
102
RTVSPropertyOp26
 70
     1
102
RTVSPropertyOp27
 70
     1
102
RTVSPropertyOp28
 70
     1
102
RTVSPropertyOp29
 70
     1
102
RTVSPropertyOp30
 70
     1
102
RTVSPropertyOp31
 70
     1
102
RTVSPropertyOp32
 70
     1
102
RTVSPropertyOp33
 70
     1
102
RTVSPropertyOp34
 70
     1
102
RTVSPropertyOp35
 70
     1
102
RTVSPropertyOp36
 70
     1
102
RTVSPropertyOp37
 70
     1
102
RTVSPropertyOp38
 70
     1
102
RTVSPropertyOp39
 70
     1
102
RTVSPropertyOp40
 70
     1
102
RTVSPropertyOp41
 70
     1
102
RTVSPropertyOp42
 70
     1
102
RTVSPropertyOp43
 70
     1
102
RTVSPropertyOp44
 70
     1
102
RTVSPropertyOp45
 70
     1
102
RTVSPropertyOp46
 70
     1
102
RTVSPropertyOp47
 70
     1
102
RTVSPropertyOp48
 70
     1
102
RTVSPropertyOp49
 70
     1
102
RTVSPropertyOp50
 70
     1
102
RTVSPropertyOp51
 70
     0
102
RTVSPropertyOp52
 70
     0
102
RTVSPropertyOp53
 70
     1
102
RTVSPropertyOp54
 70
     1
102
RTVSPropertyOp55
 70
     1
102
RTVSPropertyOp56
 70
     1
102
RTVSPropertyOp57
 70
     1
102
RTVSPropertyOp58
 70
     1
102
RTVSPropertyOp59
 70
     1
102
RTVSPropertyOp60
 70
     1
102
RTVSPropertyOp61
 70
     1
102
RTVSPropertyOp62
 70
     1
  0
XRECORD
  5
21885
102
{ACAD_REACTORS
330
21884
102
}
330
21884
100
AcDbXrecord
280
     1
102
RTVSPost2010Prop28
280
     0
102
RTVSPost2010PropOp28
 70
     1
102
RTVSPost2010Prop29
280
     1
102
RTVSPost2010PropOp29
 70
     1
102
RTVSPost2010Prop30
280
     1
102
RTVSPost2010PropOp30
 70
     1
102
RTVSPost2010Prop31
280
     0
102
RTVSPost2010PropOp31
 70
     1
102
RTVSPost2010Prop32
280
     0
102
RTVSPost2010PropOp32
 70
     1
102
RTVSPost2010Prop33
280
     0
102
RTVSPost2010PropOp33
 70
     1
102
RTVSPost2010Prop34
280
     0
102
RTVSPost2010PropOp34
 70
     1
102
RTVSPost2010Prop35
280
     0
102
RTVSPost2010PropOp35
 70
     1
102
RTVSPost2010Prop36
280
     0
102
RTVSPost2010PropOp36
 70
     1
102
RTVSPost2010Prop37
 90
       50
102
RTVSPost2010PropOp37
 70
     0
102
RTVSPost2010Prop38
140
0.0
102
RTVSPost2010PropOp38
 70
     0
102
RTVSPost2010Prop39
140
1.0
102
RTVSPost2010PropOp39
 70
     0
102
RTVSPost2010Prop40
 90
        0
102
RTVSPost2010PropOp40
 70
     0
102
RTVSPost2010Prop41ColorIndex
 90
       18
102
RTVSPost2010Prop41ColorRGB
 90
        0
102
RTVSPost2010PropOp41
 70
     0
102
RTVSPost2010Prop42
 90
       50
102
RTVSPost2010PropOp42
 70
     0
102
RTVSPost2010Prop43
 90
        3
102
RTVSPost2010PropOp43
 70
     0
102
RTVSPost2010Prop44ColorIndex
 90
        5
102
RTVSPost2010Prop44ColorRGB
 90
      255
102
RTVSPost2010PropOp44
 70
     0
102
RTVSPost2010Prop45
280
     0
102
RTVSPost2010PropOp45
 70
     1
102
RTVSPost2010Prop46
 90
       50
102
RTVSPost2010PropOp46
 70
     0
102
RTVSPost2010Prop47
 90
       50
102
RTVSPost2010PropOp47
 70
     0
102
RTVSPost2010Prop48
 90
       50
102
RTVSPost2010PropOp48
 70
     0
102
RTVSPost2010Prop49
280
     0
102
RTVSPost2010PropOp49
 70
     1
102
RTVSPost2010Prop50
 90
       50
102
RTVSPost2010PropOp50
 70
     0
102
RTVSPost2010Prop51ColorIndex
 90
      256
102
RTVSPost2010Prop51ColorRGB
 90
-16777216
102
RTVSPost2010PropOp51
 70
     0
102
RTVSPost2010Prop52
140
1.0
102
RTVSPost2010PropOp52
 70
     0
102
RTVSPost2010Prop53
 90
        2
102
RTVSPost2010PropOp53
 70
     0
102
RTVSPost2010Prop54
  1
strokes_ogs.tif
102
RTVSPost2010PropOp54
 70
     0
102
RTVSPost2010Prop55
280
     0
102
RTVSPost2010PropOp55
 70
     1
102
RTVSPost2010Prop56
140
1.0
102
RTVSPost2010PropOp56
 70
     0
102
RTVSPost2010Prop57
140
1.0
102
RTVSPost2010PropOp57
 70
     0
102
RTVSPropertyOp0
 70
     0
102
RTVSPropertyOp1
 70
     0
102
RTVSPropertyOp2
 70
     0
102
RTVSPropertyOp3
 70
     0
102
RTVSPropertyOp4
 70
     0
102
RTVSPropertyOp5
 70
     0
102
RTVSPropertyOp6
 70
     0
102
RTVSPropertyOp7
 70
     0
102
RTVSPropertyOp8
 70
     0
102
RTVSPropertyOp9
 70
     0
102
RTVSPropertyOp10
 70
     0
102
RTVSPropertyOp11
 70
     0
102
RTVSPropertyOp12
 70
     0
102
RTVSPropertyOp13
 70
     0
102
RTVSPropertyOp14
 70
     2
102
RTVSPropertyOp15
 70
     0
102
RTVSPropertyOp16
 70
     0
102
RTVSPropertyOp17
 70
     0
102
RTVSPropertyOp18
 70
     0
102
RTVSPropertyOp19
 70
     0
102
RTVSPropertyOp20
 70
     0
102
RTVSPropertyOp21
 70
     0
102
RTVSPropertyOp22
 70
     0
102
RTVSPropertyOp23
 70
     0
102
RTVSPropertyOp24
 70
     0
102
RTVSPropertyOp25
 70
     0
102
RTVSPropertyOp26
 70
     0
102
RTVSPropertyOp27
 70
     0
102
RTVSPropertyOp28
 70
     1
102
RTVSPropertyOp29
 70
     1
102
RTVSPropertyOp30
 70
     1
102
RTVSPropertyOp31
 70
     1
102
RTVSPropertyOp32
 70
     1
102
RTVSPropertyOp33
 70
     1
102
RTVSPropertyOp34
 70
     1
102
RTVSPropertyOp35
 70
     1
102
RTVSPropertyOp36
 70
     1
102
RTVSPropertyOp37
 70
     0
102
RTVSPropertyOp38
 70
     0
102
RTVSPropertyOp39
 70
     0
102
RTVSPropertyOp40
 70
     0
102
RTVSPropertyOp41
 70
     0
102
RTVSPropertyOp42
 70
     0
102
RTVSPropertyOp43
 70
     0
102
RTVSPropertyOp44
 70
     0
102
RTVSPropertyOp45
 70
     1
102
RTVSPropertyOp46
 70
     0
102
RTVSPropertyOp47
 70
     0
102
RTVSPropertyOp48
 70
     0
102
RTVSPropertyOp49
 70
     1
102
RTVSPropertyOp50
 70
     0
102
RTVSPropertyOp51
 70
     0
102
RTVSPropertyOp52
 70
     0
102
RTVSPropertyOp53
 70
     0
102
RTVSPropertyOp54
 70
     0
102
RTVSPropertyOp55
 70
     1
102
RTVSPropertyOp56
 70
     0
102
RTVSPropertyOp57
 70
     0
102
RTVSPropertyOp58
 70
     1
102
RTVSPropertyOp59
 70
     1
102
RTVSPropertyOp60
 70
     1
102
RTVSPropertyOp61
 70
     1
102
RTVSPropertyOp62
 70
     1
  0
XRECORD
  5
21868
102
{ACAD_REACTORS
330
21867
102
}
330
21867
100
AcDbXrecord
280
     1
102
RTVSPost2010Prop28
280
     0
102
RTVSPost2010PropOp28
 70
     1
102
RTVSPost2010Prop29
280
     1
102
RTVSPost2010PropOp29
 70
     1
102
RTVSPost2010Prop30
280
     1
102
RTVSPost2010PropOp30
 70
     1
102
RTVSPost2010Prop31
280
     0
102
RTVSPost2010PropOp31
 70
     1
102
RTVSPost2010Prop32
280
     0
102
RTVSPost2010PropOp32
 70
     1
102
RTVSPost2010Prop33
280
     0
102
RTVSPost2010PropOp33
 70
     1
102
RTVSPost2010Prop34
280
     0
102
RTVSPost2010PropOp34
 70
     1
102
RTVSPost2010Prop35
280
     0
102
RTVSPost2010PropOp35
 70
     1
102
RTVSPost2010Prop36
280
     0
102
RTVSPost2010PropOp36
 70
     1
102
RTVSPost2010Prop37
 90
       50
102
RTVSPost2010PropOp37
 70
     1
102
RTVSPost2010Prop38
140
0.0
102
RTVSPost2010PropOp38
 70
     1
102
RTVSPost2010Prop39
140
1.0
102
RTVSPost2010PropOp39
 70
     1
102
RTVSPost2010Prop40
 90
        0
102
RTVSPost2010PropOp40
 70
     1
102
RTVSPost2010Prop41ColorIndex
 90
       18
102
RTVSPost2010Prop41ColorRGB
 90
        0
102
RTVSPost2010PropOp41
 70
     1
102
RTVSPost2010Prop42
 90
       50
102
RTVSPost2010PropOp42
 70
     1
102
RTVSPost2010Prop43
 90
        3
102
RTVSPost2010PropOp43
 70
     1
102
RTVSPost2010Prop44ColorIndex
 90
        5
102
RTVSPost2010Prop44ColorRGB
 90
      255
102
RTVSPost2010PropOp44
 70
     1
102
RTVSPost2010Prop45
280
     0
102
RTVSPost2010PropOp45
 70
     1
102
RTVSPost2010Prop46
 90
       50
102
RTVSPost2010PropOp46
 70
     1
102
RTVSPost2010Prop47
 90
       50
102
RTVSPost2010PropOp47
 70
     1
102
RTVSPost2010Prop48
 90
       50
102
RTVSPost2010PropOp48
 70
     1
102
RTVSPost2010Prop49
280
     0
102
RTVSPost2010PropOp49
 70
     1
102
RTVSPost2010Prop50
 90
       50
102
RTVSPost2010PropOp50
 70
     1
102
RTVSPost2010Prop51ColorIndex
 90
      256
102
RTVSPost2010Prop51ColorRGB
 90
-16777216
102
RTVSPost2010PropOp51
 70
     0
102
RTVSPost2010Prop52
140
1.0
102
RTVSPost2010PropOp52
 70
     0
102
RTVSPost2010Prop53
 90
        2
102
RTVSPost2010PropOp53
 70
     1
102
RTVSPost2010Prop54
  1
strokes_ogs.tif
102
RTVSPost2010PropOp54
 70
     1
102
RTVSPost2010Prop55
280
     0
102
RTVSPost2010PropOp55
 70
     1
102
RTVSPost2010Prop56
140
1.0
102
RTVSPost2010PropOp56
 70
     1
102
RTVSPost2010Prop57
140
1.0
102
RTVSPost2010PropOp57
 70
     1
102
RTVSPropertyOp0
 70
     1
102
RTVSPropertyOp1
 70
     1
102
RTVSPropertyOp2
 70
     1
102
RTVSPropertyOp3
 70
     1
102
RTVSPropertyOp4
 70
     1
102
RTVSPropertyOp5
 70
     1
102
RTVSPropertyOp6
 70
     1
102
RTVSPropertyOp7
 70
     1
102
RTVSPropertyOp8
 70
     1
102
RTVSPropertyOp9
 70
     1
102
RTVSPropertyOp10
 70
     1
102
RTVSPropertyOp11
 70
     1
102
RTVSPropertyOp12
 70
     1
102
RTVSPropertyOp13
 70
     1
102
RTVSPropertyOp14
 70
     1
102
RTVSPropertyOp15
 70
     1
102
RTVSPropertyOp16
 70
     1
102
RTVSPropertyOp17
 70
     1
102
RTVSPropertyOp18
 70
     1
102
RTVSPropertyOp19
 70
     1
102
RTVSPropertyOp20
 70
     1
102
RTVSPropertyOp21
 70
     1
102
RTVSPropertyOp22
 70
     1
102
RTVSPropertyOp23
 70
     1
102
RTVSPropertyOp24
 70
     1
102
RTVSPropertyOp25
 70
     1
102
RTVSPropertyOp26
 70
     1
102
RTVSPropertyOp27
 70
     1
102
RTVSPropertyOp28
 70
     1
102
RTVSPropertyOp29
 70
     1
102
RTVSPropertyOp30
 70
     1
102
RTVSPropertyOp31
 70
     1
102
RTVSPropertyOp32
 70
     1
102
RTVSPropertyOp33
 70
     1
102
RTVSPropertyOp34
 70
     1
102
RTVSPropertyOp35
 70
     1
102
RTVSPropertyOp36
 70
     1
102
RTVSPropertyOp37
 70
     1
102
RTVSPropertyOp38
 70
     1
102
RTVSPropertyOp39
 70
     1
102
RTVSPropertyOp40
 70
     1
102
RTVSPropertyOp41
 70
     1
102
RTVSPropertyOp42
 70
     1
102
RTVSPropertyOp43
 70
     1
102
RTVSPropertyOp44
 70
     1
102
RTVSPropertyOp45
 70
     1
102
RTVSPropertyOp46
 70
     1
102
RTVSPropertyOp47
 70
     1
102
RTVSPropertyOp48
 70
     1
102
RTVSPropertyOp49
 70
     1
102
RTVSPropertyOp50
 70
     1
102
RTVSPropertyOp51
 70
     0
102
RTVSPropertyOp52
 70
     0
102
RTVSPropertyOp53
 70
     1
102
RTVSPropertyOp54
 70
     1
102
RTVSPropertyOp55
 70
     1
102
RTVSPropertyOp56
 70
     1
102
RTVSPropertyOp57
 70
     1
102
RTVSPropertyOp58
 70
     1
102
RTVSPropertyOp59
 70
     1
102
RTVSPropertyOp60
 70
     1
102
RTVSPropertyOp61
 70
     1
102
RTVSPropertyOp62
 70
     1
  0
XRECORD
  5
21887
102
{ACAD_REACTORS
330
21886
102
}
330
21886
100
AcDbXrecord
280
     1
102
RTVSPost2010Prop28
280
     0
102
RTVSPost2010PropOp28
 70
     1
102
RTVSPost2010Prop29
280
     1
102
RTVSPost2010PropOp29
 70
     1
102
RTVSPost2010Prop30
280
     1
102
RTVSPost2010PropOp30
 70
     1
102
RTVSPost2010Prop31
280
     0
102
RTVSPost2010PropOp31
 70
     1
102
RTVSPost2010Prop32
280
     0
102
RTVSPost2010PropOp32
 70
     1
102
RTVSPost2010Prop33
280
     0
102
RTVSPost2010PropOp33
 70
     1
102
RTVSPost2010Prop34
280
     0
102
RTVSPost2010PropOp34
 70
     1
102
RTVSPost2010Prop35
280
     0
102
RTVSPost2010PropOp35
 70
     1
102
RTVSPost2010Prop36
280
     0
102
RTVSPost2010PropOp36
 70
     1
102
RTVSPost2010Prop37
 90
       50
102
RTVSPost2010PropOp37
 70
     0
102
RTVSPost2010Prop38
140
0.0
102
RTVSPost2010PropOp38
 70
     0
102
RTVSPost2010Prop39
140
1.0
102
RTVSPost2010PropOp39
 70
     0
102
RTVSPost2010Prop40
 90
        0
102
RTVSPost2010PropOp40
 70
     0
102
RTVSPost2010Prop41ColorIndex
 90
       18
102
RTVSPost2010Prop41ColorRGB
 90
        0
102
RTVSPost2010PropOp41
 70
     0
102
RTVSPost2010Prop42
 90
       50
102
RTVSPost2010PropOp42
 70
     0
102
RTVSPost2010Prop43
 90
        3
102
RTVSPost2010PropOp43
 70
     0
102
RTVSPost2010Prop44ColorIndex
 90
        5
102
RTVSPost2010Prop44ColorRGB
 90
      255
102
RTVSPost2010PropOp44
 70
     0
102
RTVSPost2010Prop45
280
     0
102
RTVSPost2010PropOp45
 70
     1
102
RTVSPost2010Prop46
 90
       50
102
RTVSPost2010PropOp46
 70
     0
102
RTVSPost2010Prop47
 90
       50
102
RTVSPost2010PropOp47
 70
     0
102
RTVSPost2010Prop48
 90
       50
102
RTVSPost2010PropOp48
 70
     0
102
RTVSPost2010Prop49
280
     0
102
RTVSPost2010PropOp49
 70
     1
102
RTVSPost2010Prop50
 90
       50
102
RTVSPost2010PropOp50
 70
     0
102
RTVSPost2010Prop51ColorIndex
 90
      256
102
RTVSPost2010Prop51ColorRGB
 90
-16777216
102
RTVSPost2010PropOp51
 70
     0
102
RTVSPost2010Prop52
140
1.0
102
RTVSPost2010PropOp52
 70
     0
102
RTVSPost2010Prop53
 90
        2
102
RTVSPost2010PropOp53
 70
     0
102
RTVSPost2010Prop54
  1
strokes_ogs.tif
102
RTVSPost2010PropOp54
 70
     0
102
RTVSPost2010Prop55
280
     0
102
RTVSPost2010PropOp55
 70
     1
102
RTVSPost2010Prop56
140
1.0
102
RTVSPost2010PropOp56
 70
     0
102
RTVSPost2010Prop57
140
1.0
102
RTVSPost2010PropOp57
 70
     0
102
RTVSPropertyOp0
 70
     0
102
RTVSPropertyOp1
 70
     0
102
RTVSPropertyOp2
 70
     0
102
RTVSPropertyOp3
 70
     0
102
RTVSPropertyOp4
 70
     0
102
RTVSPropertyOp5
 70
     0
102
RTVSPropertyOp6
 70
     0
102
RTVSPropertyOp7
 70
     0
102
RTVSPropertyOp8
 70
     0
102
RTVSPropertyOp9
 70
     0
102
RTVSPropertyOp10
 70
     0
102
RTVSPropertyOp11
 70
     0
102
RTVSPropertyOp12
 70
     0
102
RTVSPropertyOp13
 70
     0
102
RTVSPropertyOp14
 70
     2
102
RTVSPropertyOp15
 70
     0
102
RTVSPropertyOp16
 70
     0
102
RTVSPropertyOp17
 70
     0
102
RTVSPropertyOp18
 70
     0
102
RTVSPropertyOp19
 70
     0
102
RTVSPropertyOp20
 70
     0
102
RTVSPropertyOp21
 70
     0
102
RTVSPropertyOp22
 70
     0
102
RTVSPropertyOp23
 70
     0
102
RTVSPropertyOp24
 70
     0
102
RTVSPropertyOp25
 70
     0
102
RTVSPropertyOp26
 70
     0
102
RTVSPropertyOp27
 70
     0
102
RTVSPropertyOp28
 70
     1
102
RTVSPropertyOp29
 70
     1
102
RTVSPropertyOp30
 70
     1
102
RTVSPropertyOp31
 70
     1
102
RTVSPropertyOp32
 70
     1
102
RTVSPropertyOp33
 70
     1
102
RTVSPropertyOp34
 70
     1
102
RTVSPropertyOp35
 70
     1
102
RTVSPropertyOp36
 70
     1
102
RTVSPropertyOp37
 70
     0
102
RTVSPropertyOp38
 70
     0
102
RTVSPropertyOp39
 70
     0
102
RTVSPropertyOp40
 70
     0
102
RTVSPropertyOp41
 70
     0
102
RTVSPropertyOp42
 70
     0
102
RTVSPropertyOp43
 70
     0
102
RTVSPropertyOp44
 70
     0
102
RTVSPropertyOp45
 70
     1
102
RTVSPropertyOp46
 70
     0
102
RTVSPropertyOp47
 70
     0
102
RTVSPropertyOp48
 70
     0
102
RTVSPropertyOp49
 70
     1
102
RTVSPropertyOp50
 70
     0
102
RTVSPropertyOp51
 70
     0
102
RTVSPropertyOp52
 70
     0
102
RTVSPropertyOp53
 70
     0
102
RTVSPropertyOp54
 70
     0
102
RTVSPropertyOp55
 70
     1
102
RTVSPropertyOp56
 70
     0
102
RTVSPropertyOp57
 70
     0
102
RTVSPropertyOp58
 70
     1
102
RTVSPropertyOp59
 70
     1
102
RTVSPropertyOp60
 70
     1
102
RTVSPropertyOp61
 70
     1
102
RTVSPropertyOp62
 70
     1
  0
XRECORD
  5
21860
102
{ACAD_REACTORS
330
2185F
102
}
330
2185F
100
AcDbXrecord
280
     1
102
RTVSPost2010Prop28
280
     0
102
RTVSPost2010PropOp28
 70
     1
102
RTVSPost2010Prop29
280
     1
102
RTVSPost2010PropOp29
 70
     1
102
RTVSPost2010Prop30
280
     1
102
RTVSPost2010PropOp30
 70
     1
102
RTVSPost2010Prop31
280
     0
102
RTVSPost2010PropOp31
 70
     1
102
RTVSPost2010Prop32
280
     0
102
RTVSPost2010PropOp32
 70
     1
102
RTVSPost2010Prop33
280
     0
102
RTVSPost2010PropOp33
 70
     1
102
RTVSPost2010Prop34
280
     0
102
RTVSPost2010PropOp34
 70
     1
102
RTVSPost2010Prop35
280
     0
102
RTVSPost2010PropOp35
 70
     1
102
RTVSPost2010Prop36
280
     0
102
RTVSPost2010PropOp36
 70
     1
102
RTVSPost2010Prop37
 90
       50
102
RTVSPost2010PropOp37
 70
     1
102
RTVSPost2010Prop38
140
0.0
102
RTVSPost2010PropOp38
 70
     1
102
RTVSPost2010Prop39
140
1.0
102
RTVSPost2010PropOp39
 70
     1
102
RTVSPost2010Prop40
 90
        0
102
RTVSPost2010PropOp40
 70
     1
102
RTVSPost2010Prop41ColorIndex
 90
       18
102
RTVSPost2010Prop41ColorRGB
 90
        0
102
RTVSPost2010PropOp41
 70
     1
102
RTVSPost2010Prop42
 90
       50
102
RTVSPost2010PropOp42
 70
     1
102
RTVSPost2010Prop43
 90
        3
102
RTVSPost2010PropOp43
 70
     1
102
RTVSPost2010Prop44ColorIndex
 90
        5
102
RTVSPost2010Prop44ColorRGB
 90
      255
102
RTVSPost2010PropOp44
 70
     1
102
RTVSPost2010Prop45
280
     0
102
RTVSPost2010PropOp45
 70
     1
102
RTVSPost2010Prop46
 90
       50
102
RTVSPost2010PropOp46
 70
     1
102
RTVSPost2010Prop47
 90
       50
102
RTVSPost2010PropOp47
 70
     1
102
RTVSPost2010Prop48
 90
       50
102
RTVSPost2010PropOp48
 70
     1
102
RTVSPost2010Prop49
280
     0
102
RTVSPost2010PropOp49
 70
     1
102
RTVSPost2010Prop50
 90
       50
102
RTVSPost2010PropOp50
 70
     1
102
RTVSPost2010Prop51ColorIndex
 90
      256
102
RTVSPost2010Prop51ColorRGB
 90
-16777216
102
RTVSPost2010PropOp51
 70
     0
102
RTVSPost2010Prop52
140
1.0
102
RTVSPost2010PropOp52
 70
     0
102
RTVSPost2010Prop53
 90
        2
102
RTVSPost2010PropOp53
 70
     1
102
RTVSPost2010Prop54
  1
strokes_ogs.tif
102
RTVSPost2010PropOp54
 70
     1
102
RTVSPost2010Prop55
280
     0
102
RTVSPost2010PropOp55
 70
     1
102
RTVSPost2010Prop56
140
1.0
102
RTVSPost2010PropOp56
 70
     1
102
RTVSPost2010Prop57
140
1.0
102
RTVSPost2010PropOp57
 70
     1
102
RTVSPropertyOp0
 70
     1
102
RTVSPropertyOp1
 70
     1
102
RTVSPropertyOp2
 70
     1
102
RTVSPropertyOp3
 70
     1
102
RTVSPropertyOp4
 70
     1
102
RTVSPropertyOp5
 70
     1
102
RTVSPropertyOp6
 70
     1
102
RTVSPropertyOp7
 70
     1
102
RTVSPropertyOp8
 70
     1
102
RTVSPropertyOp9
 70
     1
102
RTVSPropertyOp10
 70
     1
102
RTVSPropertyOp11
 70
     1
102
RTVSPropertyOp12
 70
     1
102
RTVSPropertyOp13
 70
     1
102
RTVSPropertyOp14
 70
     1
102
RTVSPropertyOp15
 70
     1
102
RTVSPropertyOp16
 70
     1
102
RTVSPropertyOp17
 70
     1
102
RTVSPropertyOp18
 70
     1
102
RTVSPropertyOp19
 70
     1
102
RTVSPropertyOp20
 70
     1
102
RTVSPropertyOp21
 70
     1
102
RTVSPropertyOp22
 70
     1
102
RTVSPropertyOp23
 70
     1
102
RTVSPropertyOp24
 70
     1
102
RTVSPropertyOp25
 70
     1
102
RTVSPropertyOp26
 70
     1
102
RTVSPropertyOp27
 70
     1
102
RTVSPropertyOp28
 70
     1
102
RTVSPropertyOp29
 70
     1
102
RTVSPropertyOp30
 70
     1
102
RTVSPropertyOp31
 70
     1
102
RTVSPropertyOp32
 70
     1
102
RTVSPropertyOp33
 70
     1
102
RTVSPropertyOp34
 70
     1
102
RTVSPropertyOp35
 70
     1
102
RTVSPropertyOp36
 70
     1
102
RTVSPropertyOp37
 70
     1
102
RTVSPropertyOp38
 70
     1
102
RTVSPropertyOp39
 70
     1
102
RTVSPropertyOp40
 70
     1
102
RTVSPropertyOp41
 70
     1
102
RTVSPropertyOp42
 70
     1
102
RTVSPropertyOp43
 70
     1
102
RTVSPropertyOp44
 70
     1
102
RTVSPropertyOp45
 70
     1
102
RTVSPropertyOp46
 70
     1
102
RTVSPropertyOp47
 70
     1
102
RTVSPropertyOp48
 70
     1
102
RTVSPropertyOp49
 70
     1
102
RTVSPropertyOp50
 70
     1
102
RTVSPropertyOp51
 70
     0
102
RTVSPropertyOp52
 70
     0
102
RTVSPropertyOp53
 70
     1
102
RTVSPropertyOp54
 70
     1
102
RTVSPropertyOp55
 70
     1
102
RTVSPropertyOp56
 70
     1
102
RTVSPropertyOp57
 70
     1
102
RTVSPropertyOp58
 70
     1
102
RTVSPropertyOp59
 70
     1
102
RTVSPropertyOp60
 70
     1
102
RTVSPropertyOp61
 70
     1
102
RTVSPropertyOp62
 70
     1
  0
XRECORD
  5
21883
102
{ACAD_REACTORS
330
21882
102
}
330
21882
100
AcDbXrecord
280
     1
102
RTVSPost2010Prop28
280
     0
102
RTVSPost2010PropOp28
 70
     1
102
RTVSPost2010Prop29
280
     1
102
RTVSPost2010PropOp29
 70
     1
102
RTVSPost2010Prop30
280
     1
102
RTVSPost2010PropOp30
 70
     1
102
RTVSPost2010Prop31
280
     0
102
RTVSPost2010PropOp31
 70
     1
102
RTVSPost2010Prop32
280
     0
102
RTVSPost2010PropOp32
 70
     1
102
RTVSPost2010Prop33
280
     0
102
RTVSPost2010PropOp33
 70
     1
102
RTVSPost2010Prop34
280
     0
102
RTVSPost2010PropOp34
 70
     1
102
RTVSPost2010Prop35
280
     0
102
RTVSPost2010PropOp35
 70
     1
102
RTVSPost2010Prop36
280
     0
102
RTVSPost2010PropOp36
 70
     1
102
RTVSPost2010Prop37
 90
       50
102
RTVSPost2010PropOp37
 70
     1
102
RTVSPost2010Prop38
140
0.0
102
RTVSPost2010PropOp38
 70
     1
102
RTVSPost2010Prop39
140
1.0
102
RTVSPost2010PropOp39
 70
     1
102
RTVSPost2010Prop40
 90
        0
102
RTVSPost2010PropOp40
 70
     1
102
RTVSPost2010Prop41ColorIndex
 90
       18
102
RTVSPost2010Prop41ColorRGB
 90
        0
102
RTVSPost2010PropOp41
 70
     1
102
RTVSPost2010Prop42
 90
       50
102
RTVSPost2010PropOp42
 70
     1
102
RTVSPost2010Prop43
 90
        3
102
RTVSPost2010PropOp43
 70
     1
102
RTVSPost2010Prop44ColorIndex
 90
        5
102
RTVSPost2010Prop44ColorRGB
 90
      255
102
RTVSPost2010PropOp44
 70
     1
102
RTVSPost2010Prop45
280
     0
102
RTVSPost2010PropOp45
 70
     1
102
RTVSPost2010Prop46
 90
       50
102
RTVSPost2010PropOp46
 70
     1
102
RTVSPost2010Prop47
 90
       50
102
RTVSPost2010PropOp47
 70
     1
102
RTVSPost2010Prop48
 90
       50
102
RTVSPost2010PropOp48
 70
     1
102
RTVSPost2010Prop49
280
     0
102
RTVSPost2010PropOp49
 70
     1
102
RTVSPost2010Prop50
 90
       50
102
RTVSPost2010PropOp50
 70
     1
102
RTVSPost2010Prop51ColorIndex
 90
      256
102
RTVSPost2010Prop51ColorRGB
 90
-16777216
102
RTVSPost2010PropOp51
 70
     0
102
RTVSPost2010Prop52
140
1.0
102
RTVSPost2010PropOp52
 70
     0
102
RTVSPost2010Prop53
 90
        2
102
RTVSPost2010PropOp53
 70
     1
102
RTVSPost2010Prop54
  1
strokes_ogs.tif
102
RTVSPost2010PropOp54
 70
     1
102
RTVSPost2010Prop55
280
     0
102
RTVSPost2010PropOp55
 70
     1
102
RTVSPost2010Prop56
140
1.0
102
RTVSPost2010PropOp56
 70
     1
102
RTVSPost2010Prop57
140
1.0
102
RTVSPost2010PropOp57
 70
     1
102
RTVSPropertyOp0
 70
     1
102
RTVSPropertyOp1
 70
     1
102
RTVSPropertyOp2
 70
     1
102
RTVSPropertyOp3
 70
     1
102
RTVSPropertyOp4
 70
     1
102
RTVSPropertyOp5
 70
     1
102
RTVSPropertyOp6
 70
     1
102
RTVSPropertyOp7
 70
     1
102
RTVSPropertyOp8
 70
     1
102
RTVSPropertyOp9
 70
     1
102
RTVSPropertyOp10
 70
     1
102
RTVSPropertyOp11
 70
     1
102
RTVSPropertyOp12
 70
     1
102
RTVSPropertyOp13
 70
     1
102
RTVSPropertyOp14
 70
     1
102
RTVSPropertyOp15
 70
     1
102
RTVSPropertyOp16
 70
     1
102
RTVSPropertyOp17
 70
     1
102
RTVSPropertyOp18
 70
     1
102
RTVSPropertyOp19
 70
     1
102
RTVSPropertyOp20
 70
     1
102
RTVSPropertyOp21
 70
     1
102
RTVSPropertyOp22
 70
     1
102
RTVSPropertyOp23
 70
     1
102
RTVSPropertyOp24
 70
     1
102
RTVSPropertyOp25
 70
     1
102
RTVSPropertyOp26
 70
     1
102
RTVSPropertyOp27
 70
     1
102
RTVSPropertyOp28
 70
     1
102
RTVSPropertyOp29
 70
     1
102
RTVSPropertyOp30
 70
     1
102
RTVSPropertyOp31
 70
     1
102
RTVSPropertyOp32
 70
     1
102
RTVSPropertyOp33
 70
     1
102
RTVSPropertyOp34
 70
     1
102
RTVSPropertyOp35
 70
     1
102
RTVSPropertyOp36
 70
     1
102
RTVSPropertyOp37
 70
     1
102
RTVSPropertyOp38
 70
     1
102
RTVSPropertyOp39
 70
     1
102
RTVSPropertyOp40
 70
     1
102
RTVSPropertyOp41
 70
     1
102
RTVSPropertyOp42
 70
     1
102
RTVSPropertyOp43
 70
     1
102
RTVSPropertyOp44
 70
     1
102
RTVSPropertyOp45
 70
     1
102
RTVSPropertyOp46
 70
     1
102
RTVSPropertyOp47
 70
     1
102
RTVSPropertyOp48
 70
     1
102
RTVSPropertyOp49
 70
     1
102
RTVSPropertyOp50
 70
     1
102
RTVSPropertyOp51
 70
     0
102
RTVSPropertyOp52
 70
     0
102
RTVSPropertyOp53
 70
     1
102
RTVSPropertyOp54
 70
     1
102
RTVSPropertyOp55
 70
     1
102
RTVSPropertyOp56
 70
     1
102
RTVSPropertyOp57
 70
     1
102
RTVSPropertyOp58
 70
     1
102
RTVSPropertyOp59
 70
     1
102
RTVSPropertyOp60
 70
     1
102
RTVSPropertyOp61
 70
     1
102
RTVSPropertyOp62
 70
     1
  0
XRECORD
  5
21881
102
{ACAD_REACTORS
330
21880
102
}
330
21880
100
AcDbXrecord
280
     1
102
RTVSPost2010Prop28
280
     0
102
RTVSPost2010PropOp28
 70
     1
102
RTVSPost2010Prop29
280
     1
102
RTVSPost2010PropOp29
 70
     1
102
RTVSPost2010Prop30
280
     1
102
RTVSPost2010PropOp30
 70
     1
102
RTVSPost2010Prop31
280
     0
102
RTVSPost2010PropOp31
 70
     1
102
RTVSPost2010Prop32
280
     0
102
RTVSPost2010PropOp32
 70
     1
102
RTVSPost2010Prop33
280
     0
102
RTVSPost2010PropOp33
 70
     1
102
RTVSPost2010Prop34
280
     0
102
RTVSPost2010PropOp34
 70
     1
102
RTVSPost2010Prop35
280
     0
102
RTVSPost2010PropOp35
 70
     1
102
RTVSPost2010Prop36
280
     0
102
RTVSPost2010PropOp36
 70
     1
102
RTVSPost2010Prop37
 90
       50
102
RTVSPost2010PropOp37
 70
     1
102
RTVSPost2010Prop38
140
0.0
102
RTVSPost2010PropOp38
 70
     1
102
RTVSPost2010Prop39
140
1.0
102
RTVSPost2010PropOp39
 70
     1
102
RTVSPost2010Prop40
 90
        0
102
RTVSPost2010PropOp40
 70
     1
102
RTVSPost2010Prop41ColorIndex
 90
       18
102
RTVSPost2010Prop41ColorRGB
 90
        0
102
RTVSPost2010PropOp41
 70
     1
102
RTVSPost2010Prop42
 90
       50
102
RTVSPost2010PropOp42
 70
     1
102
RTVSPost2010Prop43
 90
        3
102
RTVSPost2010PropOp43
 70
     1
102
RTVSPost2010Prop44ColorIndex
 90
        5
102
RTVSPost2010Prop44ColorRGB
 90
      255
102
RTVSPost2010PropOp44
 70
     1
102
RTVSPost2010Prop45
280
     0
102
RTVSPost2010PropOp45
 70
     1
102
RTVSPost2010Prop46
 90
       50
102
RTVSPost2010PropOp46
 70
     1
102
RTVSPost2010Prop47
 90
       50
102
RTVSPost2010PropOp47
 70
     1
102
RTVSPost2010Prop48
 90
       50
102
RTVSPost2010PropOp48
 70
     1
102
RTVSPost2010Prop49
280
     0
102
RTVSPost2010PropOp49
 70
     1
102
RTVSPost2010Prop50
 90
       50
102
RTVSPost2010PropOp50
 70
     1
102
RTVSPost2010Prop51ColorIndex
 90
      256
102
RTVSPost2010Prop51ColorRGB
 90
-16777216
102
RTVSPost2010PropOp51
 70
     0
102
RTVSPost2010Prop52
140
1.0
102
RTVSPost2010PropOp52
 70
     0
102
RTVSPost2010Prop53
 90
        2
102
RTVSPost2010PropOp53
 70
     1
102
RTVSPost2010Prop54
  1
strokes_ogs.tif
102
RTVSPost2010PropOp54
 70
     1
102
RTVSPost2010Prop55
280
     0
102
RTVSPost2010PropOp55
 70
     1
102
RTVSPost2010Prop56
140
1.0
102
RTVSPost2010PropOp56
 70
     1
102
RTVSPost2010Prop57
140
1.0
102
RTVSPost2010PropOp57
 70
     1
102
RTVSPropertyOp0
 70
     1
102
RTVSPropertyOp1
 70
     1
102
RTVSPropertyOp2
 70
     1
102
RTVSPropertyOp3
 70
     1
102
RTVSPropertyOp4
 70
     1
102
RTVSPropertyOp5
 70
     1
102
RTVSPropertyOp6
 70
     1
102
RTVSPropertyOp7
 70
     1
102
RTVSPropertyOp8
 70
     1
102
RTVSPropertyOp9
 70
     1
102
RTVSPropertyOp10
 70
     1
102
RTVSPropertyOp11
 70
     1
102
RTVSPropertyOp12
 70
     1
102
RTVSPropertyOp13
 70
     1
102
RTVSPropertyOp14
 70
     1
102
RTVSPropertyOp15
 70
     1
102
RTVSPropertyOp16
 70
     1
102
RTVSPropertyOp17
 70
     1
102
RTVSPropertyOp18
 70
     1
102
RTVSPropertyOp19
 70
     1
102
RTVSPropertyOp20
 70
     1
102
RTVSPropertyOp21
 70
     1
102
RTVSPropertyOp22
 70
     1
102
RTVSPropertyOp23
 70
     1
102
RTVSPropertyOp24
 70
     1
102
RTVSPropertyOp25
 70
     1
102
RTVSPropertyOp26
 70
     1
102
RTVSPropertyOp27
 70
     1
102
RTVSPropertyOp28
 70
     1
102
RTVSPropertyOp29
 70
     1
102
RTVSPropertyOp30
 70
     1
102
RTVSPropertyOp31
 70
     1
102
RTVSPropertyOp32
 70
     1
102
RTVSPropertyOp33
 70
     1
102
RTVSPropertyOp34
 70
     1
102
RTVSPropertyOp35
 70
     1
102
RTVSPropertyOp36
 70
     1
102
RTVSPropertyOp37
 70
     1
102
RTVSPropertyOp38
 70
     1
102
RTVSPropertyOp39
 70
     1
102
RTVSPropertyOp40
 70
     1
102
RTVSPropertyOp41
 70
     1
102
RTVSPropertyOp42
 70
     1
102
RTVSPropertyOp43
 70
     1
102
RTVSPropertyOp44
 70
     1
102
RTVSPropertyOp45
 70
     1
102
RTVSPropertyOp46
 70
     1
102
RTVSPropertyOp47
 70
     1
102
RTVSPropertyOp48
 70
     1
102
RTVSPropertyOp49
 70
     1
102
RTVSPropertyOp50
 70
     1
102
RTVSPropertyOp51
 70
     0
102
RTVSPropertyOp52
 70
     0
102
RTVSPropertyOp53
 70
     1
102
RTVSPropertyOp54
 70
     1
102
RTVSPropertyOp55
 70
     1
102
RTVSPropertyOp56
 70
     1
102
RTVSPropertyOp57
 70
     1
102
RTVSPropertyOp58
 70
     1
102
RTVSPropertyOp59
 70
     1
102
RTVSPropertyOp60
 70
     1
102
RTVSPropertyOp61
 70
     1
102
RTVSPropertyOp62
 70
     1
  0
XRECORD
  5
2187B
102
{ACAD_REACTORS
330
2187A
102
}
330
2187A
100
AcDbXrecord
280
     1
102
RTVSPost2010Prop28
280
     0
102
RTVSPost2010PropOp28
 70
     1
102
RTVSPost2010Prop29
280
     1
102
RTVSPost2010PropOp29
 70
     1
102
RTVSPost2010Prop30
280
     1
102
RTVSPost2010PropOp30
 70
     1
102
RTVSPost2010Prop31
280
     0
102
RTVSPost2010PropOp31
 70
     1
102
RTVSPost2010Prop32
280
     0
102
RTVSPost2010PropOp32
 70
     1
102
RTVSPost2010Prop33
280
     0
102
RTVSPost2010PropOp33
 70
     1
102
RTVSPost2010Prop34
280
     0
102
RTVSPost2010PropOp34
 70
     1
102
RTVSPost2010Prop35
280
     0
102
RTVSPost2010PropOp35
 70
     1
102
RTVSPost2010Prop36
280
     0
102
RTVSPost2010PropOp36
 70
     1
102
RTVSPost2010Prop37
 90
       50
102
RTVSPost2010PropOp37
 70
     1
102
RTVSPost2010Prop38
140
0.0
102
RTVSPost2010PropOp38
 70
     1
102
RTVSPost2010Prop39
140
1.0
102
RTVSPost2010PropOp39
 70
     1
102
RTVSPost2010Prop40
 90
        0
102
RTVSPost2010PropOp40
 70
     1
102
RTVSPost2010Prop41ColorIndex
 90
       18
102
RTVSPost2010Prop41ColorRGB
 90
        0
102
RTVSPost2010PropOp41
 70
     1
102
RTVSPost2010Prop42
 90
       50
102
RTVSPost2010PropOp42
 70
     1
102
RTVSPost2010Prop43
 90
        3
102
RTVSPost2010PropOp43
 70
     1
102
RTVSPost2010Prop44ColorIndex
 90
        5
102
RTVSPost2010Prop44ColorRGB
 90
      255
102
RTVSPost2010PropOp44
 70
     1
102
RTVSPost2010Prop45
280
     0
102
RTVSPost2010PropOp45
 70
     1
102
RTVSPost2010Prop46
 90
       50
102
RTVSPost2010PropOp46
 70
     1
102
RTVSPost2010Prop47
 90
       50
102
RTVSPost2010PropOp47
 70
     1
102
RTVSPost2010Prop48
 90
       50
102
RTVSPost2010PropOp48
 70
     1
102
RTVSPost2010Prop49
280
     0
102
RTVSPost2010PropOp49
 70
     1
102
RTVSPost2010Prop50
 90
       50
102
RTVSPost2010PropOp50
 70
     1
102
RTVSPost2010Prop51ColorIndex
 90
      256
102
RTVSPost2010Prop51ColorRGB
 90
-16777216
102
RTVSPost2010PropOp51
 70
     0
102
RTVSPost2010Prop52
140
1.0
102
RTVSPost2010PropOp52
 70
     0
102
RTVSPost2010Prop53
 90
        2
102
RTVSPost2010PropOp53
 70
     1
102
RTVSPost2010Prop54
  1
strokes_ogs.tif
102
RTVSPost2010PropOp54
 70
     1
102
RTVSPost2010Prop55
280
     0
102
RTVSPost2010PropOp55
 70
     1
102
RTVSPost2010Prop56
140
1.0
102
RTVSPost2010PropOp56
 70
     1
102
RTVSPost2010Prop57
140
1.0
102
RTVSPost2010PropOp57
 70
     1
102
RTVSPropertyOp0
 70
     1
102
RTVSPropertyOp1
 70
     1
102
RTVSPropertyOp2
 70
     1
102
RTVSPropertyOp3
 70
     1
102
RTVSPropertyOp4
 70
     1
102
RTVSPropertyOp5
 70
     1
102
RTVSPropertyOp6
 70
     1
102
RTVSPropertyOp7
 70
     1
102
RTVSPropertyOp8
 70
     1
102
RTVSPropertyOp9
 70
     1
102
RTVSPropertyOp10
 70
     1
102
RTVSPropertyOp11
 70
     1
102
RTVSPropertyOp12
 70
     1
102
RTVSPropertyOp13
 70
     1
102
RTVSPropertyOp14
 70
     1
102
RTVSPropertyOp15
 70
     1
102
RTVSPropertyOp16
 70
     1
102
RTVSPropertyOp17
 70
     1
102
RTVSPropertyOp18
 70
     1
102
RTVSPropertyOp19
 70
     1
102
RTVSPropertyOp20
 70
     1
102
RTVSPropertyOp21
 70
     1
102
RTVSPropertyOp22
 70
     1
102
RTVSPropertyOp23
 70
     1
102
RTVSPropertyOp24
 70
     1
102
RTVSPropertyOp25
 70
     1
102
RTVSPropertyOp26
 70
     1
102
RTVSPropertyOp27
 70
     1
102
RTVSPropertyOp28
 70
     1
102
RTVSPropertyOp29
 70
     1
102
RTVSPropertyOp30
 70
     1
102
RTVSPropertyOp31
 70
     1
102
RTVSPropertyOp32
 70
     1
102
RTVSPropertyOp33
 70
     1
102
RTVSPropertyOp34
 70
     1
102
RTVSPropertyOp35
 70
     1
102
RTVSPropertyOp36
 70
     1
102
RTVSPropertyOp37
 70
     1
102
RTVSPropertyOp38
 70
     1
102
RTVSPropertyOp39
 70
     1
102
RTVSPropertyOp40
 70
     1
102
RTVSPropertyOp41
 70
     1
102
RTVSPropertyOp42
 70
     1
102
RTVSPropertyOp43
 70
     1
102
RTVSPropertyOp44
 70
     1
102
RTVSPropertyOp45
 70
     1
102
RTVSPropertyOp46
 70
     1
102
RTVSPropertyOp47
 70
     1
102
RTVSPropertyOp48
 70
     1
102
RTVSPropertyOp49
 70
     1
102
RTVSPropertyOp50
 70
     1
102
RTVSPropertyOp51
 70
     0
102
RTVSPropertyOp52
 70
     0
102
RTVSPropertyOp53
 70
     1
102
RTVSPropertyOp54
 70
     1
102
RTVSPropertyOp55
 70
     1
102
RTVSPropertyOp56
 70
     1
102
RTVSPropertyOp57
 70
     1
102
RTVSPropertyOp58
 70
     1
102
RTVSPropertyOp59
 70
     1
102
RTVSPropertyOp60
 70
     1
102
RTVSPropertyOp61
 70
     1
102
RTVSPropertyOp62
 70
     1
  0
XRECORD
  5
2187D
102
{ACAD_REACTORS
330
2187C
102
}
330
2187C
100
AcDbXrecord
280
     1
102
RTVSPost2010Prop28
280
     0
102
RTVSPost2010PropOp28
 70
     1
102
RTVSPost2010Prop29
280
     1
102
RTVSPost2010PropOp29
 70
     1
102
RTVSPost2010Prop30
280
     1
102
RTVSPost2010PropOp30
 70
     1
102
RTVSPost2010Prop31
280
     0
102
RTVSPost2010PropOp31
 70
     1
102
RTVSPost2010Prop32
280
     0
102
RTVSPost2010PropOp32
 70
     1
102
RTVSPost2010Prop33
280
     0
102
RTVSPost2010PropOp33
 70
     1
102
RTVSPost2010Prop34
280
     0
102
RTVSPost2010PropOp34
 70
     1
102
RTVSPost2010Prop35
280
     0
102
RTVSPost2010PropOp35
 70
     1
102
RTVSPost2010Prop36
280
     0
102
RTVSPost2010PropOp36
 70
     1
102
RTVSPost2010Prop37
 90
       50
102
RTVSPost2010PropOp37
 70
     1
102
RTVSPost2010Prop38
140
0.0
102
RTVSPost2010PropOp38
 70
     1
102
RTVSPost2010Prop39
140
1.0
102
RTVSPost2010PropOp39
 70
     1
102
RTVSPost2010Prop40
 90
        0
102
RTVSPost2010PropOp40
 70
     1
102
RTVSPost2010Prop41ColorIndex
 90
       18
102
RTVSPost2010Prop41ColorRGB
 90
        0
102
RTVSPost2010PropOp41
 70
     1
102
RTVSPost2010Prop42
 90
       50
102
RTVSPost2010PropOp42
 70
     1
102
RTVSPost2010Prop43
 90
        3
102
RTVSPost2010PropOp43
 70
     1
102
RTVSPost2010Prop44ColorIndex
 90
        5
102
RTVSPost2010Prop44ColorRGB
 90
      255
102
RTVSPost2010PropOp44
 70
     1
102
RTVSPost2010Prop45
280
     0
102
RTVSPost2010PropOp45
 70
     1
102
RTVSPost2010Prop46
 90
       50
102
RTVSPost2010PropOp46
 70
     1
102
RTVSPost2010Prop47
 90
       50
102
RTVSPost2010PropOp47
 70
     1
102
RTVSPost2010Prop48
 90
       50
102
RTVSPost2010PropOp48
 70
     1
102
RTVSPost2010Prop49
280
     0
102
RTVSPost2010PropOp49
 70
     1
102
RTVSPost2010Prop50
 90
       50
102
RTVSPost2010PropOp50
 70
     1
102
RTVSPost2010Prop51ColorIndex
 90
      256
102
RTVSPost2010Prop51ColorRGB
 90
-16777216
102
RTVSPost2010PropOp51
 70
     0
102
RTVSPost2010Prop52
140
1.0
102
RTVSPost2010PropOp52
 70
     0
102
RTVSPost2010Prop53
 90
        2
102
RTVSPost2010PropOp53
 70
     1
102
RTVSPost2010Prop54
  1
strokes_ogs.tif
102
RTVSPost2010PropOp54
 70
     1
102
RTVSPost2010Prop55
280
     0
102
RTVSPost2010PropOp55
 70
     1
102
RTVSPost2010Prop56
140
1.0
102
RTVSPost2010PropOp56
 70
     1
102
RTVSPost2010Prop57
140
1.0
102
RTVSPost2010PropOp57
 70
     1
102
RTVSPropertyOp0
 70
     1
102
RTVSPropertyOp1
 70
     1
102
RTVSPropertyOp2
 70
     1
102
RTVSPropertyOp3
 70
     1
102
RTVSPropertyOp4
 70
     1
102
RTVSPropertyOp5
 70
     1
102
RTVSPropertyOp6
 70
     1
102
RTVSPropertyOp7
 70
     1
102
RTVSPropertyOp8
 70
     1
102
RTVSPropertyOp9
 70
     1
102
RTVSPropertyOp10
 70
     1
102
RTVSPropertyOp11
 70
     1
102
RTVSPropertyOp12
 70
     1
102
RTVSPropertyOp13
 70
     1
102
RTVSPropertyOp14
 70
     1
102
RTVSPropertyOp15
 70
     1
102
RTVSPropertyOp16
 70
     1
102
RTVSPropertyOp17
 70
     1
102
RTVSPropertyOp18
 70
     1
102
RTVSPropertyOp19
 70
     1
102
RTVSPropertyOp20
 70
     1
102
RTVSPropertyOp21
 70
     1
102
RTVSPropertyOp22
 70
     1
102
RTVSPropertyOp23
 70
     1
102
RTVSPropertyOp24
 70
     1
102
RTVSPropertyOp25
 70
     1
102
RTVSPropertyOp26
 70
     1
102
RTVSPropertyOp27
 70
     1
102
RTVSPropertyOp28
 70
     1
102
RTVSPropertyOp29
 70
     1
102
RTVSPropertyOp30
 70
     1
102
RTVSPropertyOp31
 70
     1
102
RTVSPropertyOp32
 70
     1
102
RTVSPropertyOp33
 70
     1
102
RTVSPropertyOp34
 70
     1
102
RTVSPropertyOp35
 70
     1
102
RTVSPropertyOp36
 70
     1
102
RTVSPropertyOp37
 70
     1
102
RTVSPropertyOp38
 70
     1
102
RTVSPropertyOp39
 70
     1
102
RTVSPropertyOp40
 70
     1
102
RTVSPropertyOp41
 70
     1
102
RTVSPropertyOp42
 70
     1
102
RTVSPropertyOp43
 70
     1
102
RTVSPropertyOp44
 70
     1
102
RTVSPropertyOp45
 70
     1
102
RTVSPropertyOp46
 70
     1
102
RTVSPropertyOp47
 70
     1
102
RTVSPropertyOp48
 70
     1
102
RTVSPropertyOp49
 70
     1
102
RTVSPropertyOp50
 70
     1
102
RTVSPropertyOp51
 70
     0
102
RTVSPropertyOp52
 70
     0
102
RTVSPropertyOp53
 70
     1
102
RTVSPropertyOp54
 70
     1
102
RTVSPropertyOp55
 70
     1
102
RTVSPropertyOp56
 70
     1
102
RTVSPropertyOp57
 70
     1
102
RTVSPropertyOp58
 70
     1
102
RTVSPropertyOp59
 70
     1
102
RTVSPropertyOp60
 70
     1
102
RTVSPropertyOp61
 70
     1
102
RTVSPropertyOp62
 70
     1
  0
XRECORD
  5
21866
102
{ACAD_REACTORS
330
21865
102
}
330
21865
100
AcDbXrecord
280
     1
102
RTVSPost2010Prop28
280
     0
102
RTVSPost2010PropOp28
 70
     1
102
RTVSPost2010Prop29
280
     1
102
RTVSPost2010PropOp29
 70
     1
102
RTVSPost2010Prop30
280
     1
102
RTVSPost2010PropOp30
 70
     1
102
RTVSPost2010Prop31
280
     0
102
RTVSPost2010PropOp31
 70
     1
102
RTVSPost2010Prop32
280
     0
102
RTVSPost2010PropOp32
 70
     1
102
RTVSPost2010Prop33
280
     0
102
RTVSPost2010PropOp33
 70
     1
102
RTVSPost2010Prop34
280
     0
102
RTVSPost2010PropOp34
 70
     1
102
RTVSPost2010Prop35
280
     0
102
RTVSPost2010PropOp35
 70
     1
102
RTVSPost2010Prop36
280
     0
102
RTVSPost2010PropOp36
 70
     1
102
RTVSPost2010Prop37
 90
       50
102
RTVSPost2010PropOp37
 70
     1
102
RTVSPost2010Prop38
140
0.0
102
RTVSPost2010PropOp38
 70
     1
102
RTVSPost2010Prop39
140
1.0
102
RTVSPost2010PropOp39
 70
     1
102
RTVSPost2010Prop40
 90
        0
102
RTVSPost2010PropOp40
 70
     1
102
RTVSPost2010Prop41ColorIndex
 90
       18
102
RTVSPost2010Prop41ColorRGB
 90
        0
102
RTVSPost2010PropOp41
 70
     1
102
RTVSPost2010Prop42
 90
       50
102
RTVSPost2010PropOp42
 70
     1
102
RTVSPost2010Prop43
 90
        3
102
RTVSPost2010PropOp43
 70
     1
102
RTVSPost2010Prop44ColorIndex
 90
        5
102
RTVSPost2010Prop44ColorRGB
 90
      255
102
RTVSPost2010PropOp44
 70
     1
102
RTVSPost2010Prop45
280
     0
102
RTVSPost2010PropOp45
 70
     1
102
RTVSPost2010Prop46
 90
       50
102
RTVSPost2010PropOp46
 70
     1
102
RTVSPost2010Prop47
 90
       50
102
RTVSPost2010PropOp47
 70
     1
102
RTVSPost2010Prop48
 90
       50
102
RTVSPost2010PropOp48
 70
     1
102
RTVSPost2010Prop49
280
     0
102
RTVSPost2010PropOp49
 70
     1
102
RTVSPost2010Prop50
 90
       50
102
RTVSPost2010PropOp50
 70
     1
102
RTVSPost2010Prop51ColorIndex
 90
      256
102
RTVSPost2010Prop51ColorRGB
 90
-16777216
102
RTVSPost2010PropOp51
 70
     0
102
RTVSPost2010Prop52
140
1.0
102
RTVSPost2010PropOp52
 70
     0
102
RTVSPost2010Prop53
 90
        2
102
RTVSPost2010PropOp53
 70
     1
102
RTVSPost2010Prop54
  1
strokes_ogs.tif
102
RTVSPost2010PropOp54
 70
     1
102
RTVSPost2010Prop55
280
     0
102
RTVSPost2010PropOp55
 70
     1
102
RTVSPost2010Prop56
140
1.0
102
RTVSPost2010PropOp56
 70
     1
102
RTVSPost2010Prop57
140
1.0
102
RTVSPost2010PropOp57
 70
     1
102
RTVSPropertyOp0
 70
     1
102
RTVSPropertyOp1
 70
     1
102
RTVSPropertyOp2
 70
     1
102
RTVSPropertyOp3
 70
     1
102
RTVSPropertyOp4
 70
     1
102
RTVSPropertyOp5
 70
     1
102
RTVSPropertyOp6
 70
     1
102
RTVSPropertyOp7
 70
     1
102
RTVSPropertyOp8
 70
     1
102
RTVSPropertyOp9
 70
     1
102
RTVSPropertyOp10
 70
     1
102
RTVSPropertyOp11
 70
     1
102
RTVSPropertyOp12
 70
     1
102
RTVSPropertyOp13
 70
     1
102
RTVSPropertyOp14
 70
     1
102
RTVSPropertyOp15
 70
     1
102
RTVSPropertyOp16
 70
     1
102
RTVSPropertyOp17
 70
     1
102
RTVSPropertyOp18
 70
     1
102
RTVSPropertyOp19
 70
     1
102
RTVSPropertyOp20
 70
     1
102
RTVSPropertyOp21
 70
     1
102
RTVSPropertyOp22
 70
     1
102
RTVSPropertyOp23
 70
     1
102
RTVSPropertyOp24
 70
     1
102
RTVSPropertyOp25
 70
     1
102
RTVSPropertyOp26
 70
     1
102
RTVSPropertyOp27
 70
     1
102
RTVSPropertyOp28
 70
     1
102
RTVSPropertyOp29
 70
     1
102
RTVSPropertyOp30
 70
     1
102
RTVSPropertyOp31
 70
     1
102
RTVSPropertyOp32
 70
     1
102
RTVSPropertyOp33
 70
     1
102
RTVSPropertyOp34
 70
     1
102
RTVSPropertyOp35
 70
     1
102
RTVSPropertyOp36
 70
     1
102
RTVSPropertyOp37
 70
     1
102
RTVSPropertyOp38
 70
     1
102
RTVSPropertyOp39
 70
     1
102
RTVSPropertyOp40
 70
     1
102
RTVSPropertyOp41
 70
     1
102
RTVSPropertyOp42
 70
     1
102
RTVSPropertyOp43
 70
     1
102
RTVSPropertyOp44
 70
     1
102
RTVSPropertyOp45
 70
     1
102
RTVSPropertyOp46
 70
     1
102
RTVSPropertyOp47
 70
     1
102
RTVSPropertyOp48
 70
     1
102
RTVSPropertyOp49
 70
     1
102
RTVSPropertyOp50
 70
     1
102
RTVSPropertyOp51
 70
     0
102
RTVSPropertyOp52
 70
     0
102
RTVSPropertyOp53
 70
     1
102
RTVSPropertyOp54
 70
     1
102
RTVSPropertyOp55
 70
     1
102
RTVSPropertyOp56
 70
     1
102
RTVSPropertyOp57
 70
     1
102
RTVSPropertyOp58
 70
     1
102
RTVSPropertyOp59
 70
     1
102
RTVSPropertyOp60
 70
     1
102
RTVSPropertyOp61
 70
     1
102
RTVSPropertyOp62
 70
     1
  0
XRECORD
  5
21877
102
{ACAD_REACTORS
330
21876
102
}
330
21876
100
AcDbXrecord
280
     1
102
RTVSPost2010Prop28
280
     0
102
RTVSPost2010PropOp28
 70
     1
102
RTVSPost2010Prop29
280
     1
102
RTVSPost2010PropOp29
 70
     1
102
RTVSPost2010Prop30
280
     1
102
RTVSPost2010PropOp30
 70
     1
102
RTVSPost2010Prop31
280
     0
102
RTVSPost2010PropOp31
 70
     1
102
RTVSPost2010Prop32
280
     0
102
RTVSPost2010PropOp32
 70
     1
102
RTVSPost2010Prop33
280
     0
102
RTVSPost2010PropOp33
 70
     1
102
RTVSPost2010Prop34
280
     0
102
RTVSPost2010PropOp34
 70
     1
102
RTVSPost2010Prop35
280
     0
102
RTVSPost2010PropOp35
 70
     1
102
RTVSPost2010Prop36
280
     0
102
RTVSPost2010PropOp36
 70
     1
102
RTVSPost2010Prop37
 90
       50
102
RTVSPost2010PropOp37
 70
     1
102
RTVSPost2010Prop38
140
0.0
102
RTVSPost2010PropOp38
 70
     1
102
RTVSPost2010Prop39
140
1.0
102
RTVSPost2010PropOp39
 70
     1
102
RTVSPost2010Prop40
 90
        0
102
RTVSPost2010PropOp40
 70
     1
102
RTVSPost2010Prop41ColorIndex
 90
       18
102
RTVSPost2010Prop41ColorRGB
 90
        0
102
RTVSPost2010PropOp41
 70
     1
102
RTVSPost2010Prop42
 90
       50
102
RTVSPost2010PropOp42
 70
     1
102
RTVSPost2010Prop43
 90
        3
102
RTVSPost2010PropOp43
 70
     1
102
RTVSPost2010Prop44ColorIndex
 90
        5
102
RTVSPost2010Prop44ColorRGB
 90
      255
102
RTVSPost2010PropOp44
 70
     1
102
RTVSPost2010Prop45
280
     0
102
RTVSPost2010PropOp45
 70
     1
102
RTVSPost2010Prop46
 90
       50
102
RTVSPost2010PropOp46
 70
     1
102
RTVSPost2010Prop47
 90
       50
102
RTVSPost2010PropOp47
 70
     1
102
RTVSPost2010Prop48
 90
       50
102
RTVSPost2010PropOp48
 70
     1
102
RTVSPost2010Prop49
280
     0
102
RTVSPost2010PropOp49
 70
     1
102
RTVSPost2010Prop50
 90
       50
102
RTVSPost2010PropOp50
 70
     1
102
RTVSPost2010Prop51ColorIndex
 90
      256
102
RTVSPost2010Prop51ColorRGB
 90
-16777216
102
RTVSPost2010PropOp51
 70
     0
102
RTVSPost2010Prop52
140
1.0
102
RTVSPost2010PropOp52
 70
     0
102
RTVSPost2010Prop53
 90
        2
102
RTVSPost2010PropOp53
 70
     1
102
RTVSPost2010Prop54
  1
strokes_ogs.tif
102
RTVSPost2010PropOp54
 70
     1
102
RTVSPost2010Prop55
280
     0
102
RTVSPost2010PropOp55
 70
     1
102
RTVSPost2010Prop56
140
1.0
102
RTVSPost2010PropOp56
 70
     1
102
RTVSPost2010Prop57
140
1.0
102
RTVSPost2010PropOp57
 70
     1
102
RTVSPropertyOp0
 70
     1
102
RTVSPropertyOp1
 70
     1
102
RTVSPropertyOp2
 70
     1
102
RTVSPropertyOp3
 70
     1
102
RTVSPropertyOp4
 70
     1
102
RTVSPropertyOp5
 70
     1
102
RTVSPropertyOp6
 70
     1
102
RTVSPropertyOp7
 70
     1
102
RTVSPropertyOp8
 70
     1
102
RTVSPropertyOp9
 70
     1
102
RTVSPropertyOp10
 70
     1
102
RTVSPropertyOp11
 70
     1
102
RTVSPropertyOp12
 70
     1
102
RTVSPropertyOp13
 70
     1
102
RTVSPropertyOp14
 70
     1
102
RTVSPropertyOp15
 70
     1
102
RTVSPropertyOp16
 70
     1
102
RTVSPropertyOp17
 70
     1
102
RTVSPropertyOp18
 70
     1
102
RTVSPropertyOp19
 70
     1
102
RTVSPropertyOp20
 70
     1
102
RTVSPropertyOp21
 70
     1
102
RTVSPropertyOp22
 70
     1
102
RTVSPropertyOp23
 70
     1
102
RTVSPropertyOp24
 70
     1
102
RTVSPropertyOp25
 70
     1
102
RTVSPropertyOp26
 70
     1
102
RTVSPropertyOp27
 70
     1
102
RTVSPropertyOp28
 70
     1
102
RTVSPropertyOp29
 70
     1
102
RTVSPropertyOp30
 70
     1
102
RTVSPropertyOp31
 70
     1
102
RTVSPropertyOp32
 70
     1
102
RTVSPropertyOp33
 70
     1
102
RTVSPropertyOp34
 70
     1
102
RTVSPropertyOp35
 70
     1
102
RTVSPropertyOp36
 70
     1
102
RTVSPropertyOp37
 70
     1
102
RTVSPropertyOp38
 70
     1
102
RTVSPropertyOp39
 70
     1
102
RTVSPropertyOp40
 70
     1
102
RTVSPropertyOp41
 70
     1
102
RTVSPropertyOp42
 70
     1
102
RTVSPropertyOp43
 70
     1
102
RTVSPropertyOp44
 70
     1
102
RTVSPropertyOp45
 70
     1
102
RTVSPropertyOp46
 70
     1
102
RTVSPropertyOp47
 70
     1
102
RTVSPropertyOp48
 70
     1
102
RTVSPropertyOp49
 70
     1
102
RTVSPropertyOp50
 70
     1
102
RTVSPropertyOp51
 70
     0
102
RTVSPropertyOp52
 70
     0
102
RTVSPropertyOp53
 70
     1
102
RTVSPropertyOp54
 70
     1
102
RTVSPropertyOp55
 70
     1
102
RTVSPropertyOp56
 70
     1
102
RTVSPropertyOp57
 70
     1
102
RTVSPropertyOp58
 70
     1
102
RTVSPropertyOp59
 70
     1
102
RTVSPropertyOp60
 70
     1
102
RTVSPropertyOp61
 70
     1
102
RTVSPropertyOp62
 70
     1
  0
XRECORD
  5
2187F
102
{ACAD_REACTORS
330
2187E
102
}
330
2187E
100
AcDbXrecord
280
     1
102
RTVSPost2010Prop28
280
     0
102
RTVSPost2010PropOp28
 70
     1
102
RTVSPost2010Prop29
280
     1
102
RTVSPost2010PropOp29
 70
     1
102
RTVSPost2010Prop30
280
     1
102
RTVSPost2010PropOp30
 70
     1
102
RTVSPost2010Prop31
280
     0
102
RTVSPost2010PropOp31
 70
     1
102
RTVSPost2010Prop32
280
     0
102
RTVSPost2010PropOp32
 70
     1
102
RTVSPost2010Prop33
280
     0
102
RTVSPost2010PropOp33
 70
     1
102
RTVSPost2010Prop34
280
     0
102
RTVSPost2010PropOp34
 70
     1
102
RTVSPost2010Prop35
280
     0
102
RTVSPost2010PropOp35
 70
     1
102
RTVSPost2010Prop36
280
     0
102
RTVSPost2010PropOp36
 70
     1
102
RTVSPost2010Prop37
 90
       50
102
RTVSPost2010PropOp37
 70
     1
102
RTVSPost2010Prop38
140
0.0
102
RTVSPost2010PropOp38
 70
     1
102
RTVSPost2010Prop39
140
1.0
102
RTVSPost2010PropOp39
 70
     1
102
RTVSPost2010Prop40
 90
        0
102
RTVSPost2010PropOp40
 70
     1
102
RTVSPost2010Prop41ColorIndex
 90
       18
102
RTVSPost2010Prop41ColorRGB
 90
        0
102
RTVSPost2010PropOp41
 70
     1
102
RTVSPost2010Prop42
 90
       50
102
RTVSPost2010PropOp42
 70
     1
102
RTVSPost2010Prop43
 90
        3
102
RTVSPost2010PropOp43
 70
     1
102
RTVSPost2010Prop44ColorIndex
 90
        5
102
RTVSPost2010Prop44ColorRGB
 90
      255
102
RTVSPost2010PropOp44
 70
     1
102
RTVSPost2010Prop45
280
     0
102
RTVSPost2010PropOp45
 70
     1
102
RTVSPost2010Prop46
 90
       50
102
RTVSPost2010PropOp46
 70
     1
102
RTVSPost2010Prop47
 90
       50
102
RTVSPost2010PropOp47
 70
     1
102
RTVSPost2010Prop48
 90
       50
102
RTVSPost2010PropOp48
 70
     1
102
RTVSPost2010Prop49
280
     0
102
RTVSPost2010PropOp49
 70
     1
102
RTVSPost2010Prop50
 90
       50
102
RTVSPost2010PropOp50
 70
     1
102
RTVSPost2010Prop51ColorIndex
 90
      256
102
RTVSPost2010Prop51ColorRGB
 90
-16777216
102
RTVSPost2010PropOp51
 70
     0
102
RTVSPost2010Prop52
140
1.0
102
RTVSPost2010PropOp52
 70
     0
102
RTVSPost2010Prop53
 90
        2
102
RTVSPost2010PropOp53
 70
     1
102
RTVSPost2010Prop54
  1
strokes_ogs.tif
102
RTVSPost2010PropOp54
 70
     1
102
RTVSPost2010Prop55
280
     0
102
RTVSPost2010PropOp55
 70
     1
102
RTVSPost2010Prop56
140
1.0
102
RTVSPost2010PropOp56
 70
     1
102
RTVSPost2010Prop57
140
1.0
102
RTVSPost2010PropOp57
 70
     1
102
RTVSPropertyOp0
 70
     1
102
RTVSPropertyOp1
 70
     1
102
RTVSPropertyOp2
 70
     1
102
RTVSPropertyOp3
 70
     1
102
RTVSPropertyOp4
 70
     1
102
RTVSPropertyOp5
 70
     1
102
RTVSPropertyOp6
 70
     1
102
RTVSPropertyOp7
 70
     1
102
RTVSPropertyOp8
 70
     1
102
RTVSPropertyOp9
 70
     1
102
RTVSPropertyOp10
 70
     1
102
RTVSPropertyOp11
 70
     1
102
RTVSPropertyOp12
 70
     1
102
RTVSPropertyOp13
 70
     1
102
RTVSPropertyOp14
 70
     1
102
RTVSPropertyOp15
 70
     1
102
RTVSPropertyOp16
 70
     1
102
RTVSPropertyOp17
 70
     1
102
RTVSPropertyOp18
 70
     1
102
RTVSPropertyOp19
 70
     1
102
RTVSPropertyOp20
 70
     1
102
RTVSPropertyOp21
 70
     1
102
RTVSPropertyOp22
 70
     1
102
RTVSPropertyOp23
 70
     1
102
RTVSPropertyOp24
 70
     1
102
RTVSPropertyOp25
 70
     1
102
RTVSPropertyOp26
 70
     1
102
RTVSPropertyOp27
 70
     1
102
RTVSPropertyOp28
 70
     1
102
RTVSPropertyOp29
 70
     1
102
RTVSPropertyOp30
 70
     1
102
RTVSPropertyOp31
 70
     1
102
RTVSPropertyOp32
 70
     1
102
RTVSPropertyOp33
 70
     1
102
RTVSPropertyOp34
 70
     1
102
RTVSPropertyOp35
 70
     1
102
RTVSPropertyOp36
 70
     1
102
RTVSPropertyOp37
 70
     1
102
RTVSPropertyOp38
 70
     1
102
RTVSPropertyOp39
 70
     1
102
RTVSPropertyOp40
 70
     1
102
RTVSPropertyOp41
 70
     1
102
RTVSPropertyOp42
 70
     1
102
RTVSPropertyOp43
 70
     1
102
RTVSPropertyOp44
 70
     1
102
RTVSPropertyOp45
 70
     1
102
RTVSPropertyOp46
 70
     1
102
RTVSPropertyOp47
 70
     1
102
RTVSPropertyOp48
 70
     1
102
RTVSPropertyOp49
 70
     1
102
RTVSPropertyOp50
 70
     1
102
RTVSPropertyOp51
 70
     0
102
RTVSPropertyOp52
 70
     0
102
RTVSPropertyOp53
 70
     1
102
RTVSPropertyOp54
 70
     1
102
RTVSPropertyOp55
 70
     1
102
RTVSPropertyOp56
 70
     1
102
RTVSPropertyOp57
 70
     1
102
RTVSPropertyOp58
 70
     1
102
RTVSPropertyOp59
 70
     1
102
RTVSPropertyOp60
 70
     1
102
RTVSPropertyOp61
 70
     1
102
RTVSPropertyOp62
 70
     1
  0
ENDSEC
  0
EOF
