  0
SECTION
  2
HEADER
  9
$ACADVER
  1
AC1014
  9
$ACADMAINTVER
 70
     9
  9
$DWGCODEPAGE
  3
ANSI_1252
  9
$INSBASE
 10
0.0
 20
0.0
 30
0.0
  9
$EXTMIN
 10
-10.77941797997266
 20
-29.1489251236768
 30
-0.0015258207003583
  9
$EXTMAX
 10
61.31835993532831
 20
20.86015356828011
 30
0.0000000349246037
  9
$LIMMIN
 10
0.0
 20
0.0
  9
$LIMMAX
 10
420.0
 20
297.0
  9
$ORTHOMODE
 70
     0
  9
$REGENMODE
 70
     1
  9
$FILLMODE
 70
     1
  9
$QTEXTMODE
 70
     0
  9
$MIRRTEXT
 70
     1
  9
$DRAGMODE
 70
     2
  9
$LTSCALE
 40
23.1
  9
$OSMODE
 70
   167
  9
$ATTMODE
 70
     1
  9
$TEXTSIZE
 40
0.2
  9
$TRACEWID
 40
0.05
  9
$TEXTSTYLE
  7
STANDARD
  9
$CLAYER
  8
0
  9
$CELTYPE
  6
BYLAYER
  9
$CECOLOR
 62
   256
  9
$CELTSCALE
 40
1.0
  9
$DELOBJ
 70
     1
  9
$DISPSILH
 70
     0
  9
$DIMSCALE
 40
1.0
  9
$DIMASZ
 40
2.5
  9
$DIMEXO
 40
2.625
  9
$DIMDLI
 40
15.96
  9
$DIMRND
 40
0.0
  9
$DIMDLE
 40
0.0
  9
$DIMEXE
 40
7.559999999999999
  9
$DIMTP
 40
0.01
  9
$DIMTM
 40
0.01
  9
$DIMTXT
 40
3.5
  9
$DIMCEN
 40
3.779999999999999
  9
$DIMTSZ
 40
0.0
  9
$DIMTOL
 70
     1
  9
$DIMLIM
 70
     0
  9
$DIMTIH
 70
     1
  9
$DIMTOH
 70
     1
  9
$DIMSE1
 70
     0
  9
$DIMSE2
 70
     0
  9
$DIMTAD
 70
     0
  9
$DIMZIN
 70
     0
  9
$DIMBLK
  1
_ARROW_FILLED
  9
$DIMASO
 70
     1
  9
$DIMSHO
 70
     1
  9
$DIMPOST
  1

  9
$DIMAPOST
  1

  9
$DIMALT
 70
     0
  9
$DIMALTD
 70
     2
  9
$DIMALTF
 40
25.4
  9
$DIMLFAC
 40
1.0
  9
$DIMTOFL
 70
     0
  9
$DIMTVP
 40
0.0
  9
$DIMTIX
 70
     0
  9
$DIMSOXD
 70
     0
  9
$DIMSAH
 70
     0
  9
$DIMBLK1
  1

  9
$DIMBLK2
  1

  9
$DIMSTYLE
  2
STANDARD
  9
$DIMCLRD
 70
     0
  9
$DIMCLRE
 70
     0
  9
$DIMCLRT
 70
     0
  9
$DIMTFAC
 40
1.0
  9
$DIMGAP
 40
0.09
  9
$DIMJUST
 70
     0
  9
$DIMSD1
 70
     0
  9
$DIMSD2
 70
     0
  9
$DIMTOLJ
 70
     1
  9
$DIMTZIN
 70
     0
  9
$DIMALTZ
 70
     0
  9
$DIMALTTZ
 70
     0
  9
$DIMFIT
 70
     3
  9
$DIMUPT
 70
     0
  9
$DIMUNIT
 70
     2
  9
$DIMDEC
 70
     4
  9
$DIMTDEC
 70
     4
  9
$DIMALTU
 70
     2
  9
$DIMALTTD
 70
     2
  9
$DIMTXSTY
  7
STANDARD
  9
$DIMAUNIT
 70
     0
  9
$LUNITS
 70
     2
  9
$LUPREC
 70
     4
  9
$SKETCHINC
 40
0.1
  9
$FILLETRAD
 40
0.0
  9
$AUNITS
 70
     0
  9
$AUPREC
 70
     0
  9
$MENU
  1
.
  9
$ELEVATION
 40
0.0
  9
$PELEVATION
 40
0.0
  9
$THICKNESS
 40
0.0
  9
$LIMCHECK
 70
     0
  9
$BLIPMODE
 70
     0
  9
$CHAMFERA
 40
0.0
  9
$CHAMFERB
 40
0.0
  9
$CHAMFERC
 40
0.0
  9
$CHAMFERD
 40
0.0
  9
$SKPOLY
 70
     0
  9
$TDCREATE
 40
2453896.476014120
  9
$TDUPDATE
 40
2453896.477866343
  9
$TDINDWG
 40
0.0018523958
  9
$TDUSRTIMER
 40
0.0018523958
  9
$USRTIMER
 70
     1
  9
$ANGBASE
 50
0.0
  9
$ANGDIR
 70
     0
  9
$PDMODE
 70
     3
  9
$PDSIZE
 40
0.3125
  9
$PLINEWID
 40
0.0
  9
$COORDS
 70
     0
  9
$SPLFRAME
 70
     0
  9
$SPLINETYPE
 70
     6
  9
$SPLINESEGS
 70
     8
  9
$ATTDIA
 70
     0
  9
$ATTREQ
 70
     1
  9
$HANDLING
 70
-16383
  9
$HANDSEED
  5
92A
  9
$SURFTAB1
 70
     6
  9
$SURFTAB2
 70
     6
  9
$SURFTYPE
 70
     6
  9
$SURFU
 70
     6
  9
$SURFV
 70
     6
  9
$UCSNAME
  2

  9
$UCSORG
 10
0.0
 20
0.0
 30
0.0
  9
$UCSXDIR
 10
1.0
 20
0.0
 30
0.0
  9
$UCSYDIR
 10
0.0
 20
1.0
 30
0.0
  9
$PUCSNAME
  2

  9
$PUCSORG
 10
0.0
 20
0.0
 30
0.0
  9
$PUCSXDIR
 10
1.0
 20
0.0
 30
0.0
  9
$PUCSYDIR
 10
0.0
 20
1.0
 30
0.0
  9
$USERI1
 70
     0
  9
$USERI2
 70
     0
  9
$USERI3
 70
     0
  9
$USERI4
 70
     0
  9
$USERI5
 70
     0
  9
$USERR1
 40
0.0
  9
$USERR2
 40
0.0
  9
$USERR3
 40
0.0
  9
$USERR4
 40
0.0
  9
$USERR5
 40
0.0
  9
$WORLDVIEW
 70
     1
  9
$SHADEDGE
 70
     3
  9
$SHADEDIF
 70
    70
  9
$TILEMODE
 70
     1
  9
$MAXACTVP
 70
    64
  9
$PINSBASE
 10
0.0
 20
0.0
 30
0.0
  9
$PLIMCHECK
 70
     0
  9
$PEXTMIN
 10
1.000000000000000E+20
 20
1.000000000000000E+20
 30
1.000000000000000E+20
  9
$PEXTMAX
 10
-1.000000000000000E+20
 20
-1.000000000000000E+20
 30
-1.000000000000000E+20
  9
$PLIMMIN
 10
0.0
 20
0.0
  9
$PLIMMAX
 10
12.0
 20
9.0
  9
$UNITMODE
 70
     0
  9
$VISRETAIN
 70
     1
  9
$PLINEGEN
 70
     0
  9
$PSLTSCALE
 70
     1
  9
$TREEDEPTH
 70
  3020
  9
$PICKSTYLE
 70
     1
  9
$CMLSTYLE
  2
STANDARD
  9
$CMLJUST
 70
     0
  9
$CMLSCALE
 40
1.0
  9
$PROXYGRAPHICS
 70
     1
  9
$MEASUREMENT
 70
     1
  0
ENDSEC
  0
SECTION
  2
CLASSES
  0
CLASS
  1
ACDBDICTIONARYWDFLT
  2
AcDbDictionaryWithDefault
  3
AutoCAD 2000
 90
        0
280
     0
281
     0
  0
CLASS
  1
ACDBPLACEHOLDER
  2
AcDbPlaceHolder
  3
AutoCAD 2000
 90
        0
280
     0
281
     0
  0
CLASS
  1
LAYOUT
  2
AcDbLayout
  3
AutoCAD 2000
 90
        0
280
     0
281
     0
  0
CLASS
  1
LONG_TRANSACTION
  2
AcDbLongTransaction
  3
AutoCAD 2000
 90
        0
280
     0
281
     0
  0
CLASS
  1
LWPOLYLINE
  2
AcDbPolyline
  3
AutoCAD 2000
 90
        0
280
     0
281
     1
  0
CLASS
  1
HATCH
  2
AcDbHatch
  3
AutoCAD 2000
 90
        0
280
     0
281
     1
  0
CLASS
  1
XRECORD
  2
AcDbXrecord
  3
AutoCAD 2000
 90
        0
280
     0
281
     0
  0
ENDSEC
  0
SECTION
  2
TABLES
  0
TABLE
  2
VPORT
  5
8
330
0
100
AcDbSymbolTable
 70
     6
  0
VPORT
  5
904
330
8
100
AcDbSymbolTableRecord
100
AcDbViewportTableRecord
  2
*ACTIVE
 70
     0
 10
0.0
 20
0.0
 11
1.0
 21
1.0
 12
25.26947097767783
 22
-4.144385777698346
 13
0.0
 23
0.0
 14
1.0
 24
1.0
 15
0.0
 25
0.0
 16
0.0
 26
0.0
 36
1.0
 17
0.0
 27
0.0
 37
0.0
 40
55.68790021453605
 41
1.300595238095238
 42
50.0
 43
0.0
 44
0.0
 50
0.0
 51
0.0
 71
     0
 72
   100
 73
     1
 74
     1
 75
     0
 76
     0
 77
     0
 78
     0
  0
ENDTAB
  0
TABLE
  2
LTYPE
  5
5
330
0
100
AcDbSymbolTable
 70
     6
  0
LTYPE
  5
14
330
5
100
AcDbSymbolTableRecord
100
AcDbLinetypeTableRecord
  2
BYBLOCK
 70
     0
  3

 72
    65
 73
     0
 40
0.0
  0
LTYPE
  5
15
330
5
100
AcDbSymbolTableRecord
100
AcDbLinetypeTableRecord
  2
BYLAYER
 70
     0
  3

 72
    65
 73
     0
 40
0.0
  0
LTYPE
  5
16
330
5
100
AcDbSymbolTableRecord
100
AcDbLinetypeTableRecord
  2
CONTINUOUS
 70
     0
  3
Solid line
 72
    65
 73
     0
 40
0.0
  0
LTYPE
  5
1F5
330
5
100
AcDbSymbolTableRecord
100
AcDbLinetypeTableRecord
  2
CENTER
 70
     0
  3
____ _ ____ _ ____ _ ____ _ ____ _ ____ _ ____
 72
    65
 73
     4
 40
0.6
 49
0.375
 74
     0
 49
-0.075
 74
     0
 49
0.075
 74
     0
 49
-0.075
 74
     0
  0
ENDTAB
  0
TABLE
  2
LAYER
  5
2
330
0
100
AcDbSymbolTable
 70
    24
  0
LAYER
  5
10
330
2
100
AcDbSymbolTableRecord
100
AcDbLayerTableRecord
  2
0
 70
     0
 62
     7
  6
CONTINUOUS
  0
LAYER
  5
20A
330
2
100
AcDbSymbolTableRecord
100
AcDbLayerTableRecord
  2
PNCU0805GNTR_4
 70
     0
 62
     7
  6
CONTINUOUS
  0
LAYER
  5
3F3
330
2
100
AcDbSymbolTableRecord
100
AcDbLayerTableRecord
  2
DEFPOINTS
 70
     0
 62
     7
  6
CONTINUOUS
  0
LAYER
  5
3F4
330
2
100
AcDbSymbolTableRecord
100
AcDbLayerTableRecord
  2
4
 70
     0
 62
     2
  6
CENTER
  0
LAYER
  5
3F5
330
2
100
AcDbSymbolTableRecord
100
AcDbLayerTableRecord
  2
2
 70
     0
 62
     7
  6
CONTINUOUS
  0
LAYER
  5
3F6
330
2
100
AcDbSymbolTableRecord
100
AcDbLayerTableRecord
  2
1
 70
     0
 62
     4
  6
CONTINUOUS
  0
LAYER
  5
3F7
330
2
100
AcDbSymbolTableRecord
100
AcDbLayerTableRecord
  2
6
 70
     0
 62
     5
  6
CONTINUOUS
  0
ENDTAB
  0
TABLE
  2
STYLE
  5
3
330
0
100
AcDbSymbolTable
 70
     1
  0
STYLE
  5
11
330
3
100
AcDbSymbolTableRecord
100
AcDbTextStyleTableRecord
  2
STANDARD
 70
     0
 40
0.0
 41
0.8
 50
0.0
 71
     0
 42
0.2
  3
txt
  4

  0
ENDTAB
  0
TABLE
  2
VIEW
  5
6
330
0
100
AcDbSymbolTable
 70
     0
  0
ENDTAB
  0
TABLE
  2
UCS
  5
7
330
0
100
AcDbSymbolTable
 70
     0
  0
ENDTAB
  0
TABLE
  2
APPID
  5
9
330
0
100
AcDbSymbolTable
 70
     1
  0
APPID
  5
20B
330
9
100
AcDbSymbolTableRecord
100
AcDbRegAppTableRecord
  2
ACAD
 70
     0
  0
ENDTAB
  0
TABLE
  2
DIMSTYLE
  5
A
330
0
100
AcDbSymbolTable
 70
     4
  0
DIMSTYLE
105
20F
330
A
100
AcDbSymbolTableRecord
100
AcDbDimStyleTableRecord
  2
STANDARD
 70
     0
  3

  4

  5
_ARROW_FILLED
  6
_ARROW_FILLED
  7
_ARROW_FILLED
 40
1.0
 41
2.5
 42
0.0625
 43
0.38
 44
0.18
 45
0.0
 46
0.0
 47
0.01
 48
0.01
140
3.5
141
0.09
142
0.0
143
25.4
144
1.0
145
0.0
146
1.0
147
0.09
 71
     1
 72
     0
 73
     0
 74
     0
 75
     0
 76
     0
 77
     1
 78
     8
170
     0
171
     2
172
     0
173
     0
174
     0
175
     0
176
     0
177
     0
178
     5
270
     2
271
     3
272
     3
273
     2
274
     2
340
11
275
     0
280
     0
281
     0
282
     0
283
     1
284
     8
285
     0
286
     0
287
     3
288
     0
  0
DIMSTYLE
105
3F9
102
{ACAD_REACTORS
330
432
330
431
330
430
330
42E
330
42B
330
416
330
411
330
407
330
719
330
71A
330
723
102
}
330
A
100
AcDbSymbolTableRecord
100
AcDbDimStyleTableRecord
  2
ISO-25
 70
     0
  3

  4

  5

  6

  7

 40
1.0
 41
2.5
 42
0.625
 43
3.75
 44
1.25
 45
0.0
 46
0.0
 47
0.0
 48
0.0
140
2.5
141
2.5
142
0.0
143
0.03937007874016
144
1.0
145
0.0
146
1.0
147
0.625
 71
     0
 72
     0
 73
     0
 74
     0
 75
     0
 76
     0
 77
     1
 78
     8
170
     0
171
     3
172
     1
173
     0
174
     0
175
     0
176
     0
177
     0
178
     0
270
     2
271
     2
272
     2
273
     2
274
     3
340
11
275
     0
280
     0
281
     0
282
     0
283
     0
284
     8
285
     0
286
     0
287
     3
288
     0
  0
ENDTAB
  0
TABLE
  2
BLOCK_RECORD
  5
1
330
0
100
AcDbSymbolTable
 70
    28
  0
BLOCK_RECORD
  5
1F
102
{ACAD_XDICTIONARY
360
928
102
}
330
1
100
AcDbSymbolTableRecord
100
AcDbBlockTableRecord
  2
*MODEL_SPACE
  0
BLOCK_RECORD
  5
1B
102
{ACAD_XDICTIONARY
360
926
102
}
330
1
100
AcDbSymbolTableRecord
100
AcDbBlockTableRecord
  2
*PAPER_SPACE
  0
BLOCK_RECORD
  5
20C
330
1
100
AcDbSymbolTableRecord
100
AcDbBlockTableRecord
  2
_ARROW_FILLED
  0
BLOCK_RECORD
  5
86D
330
1
100
AcDbSymbolTableRecord
100
AcDbBlockTableRecord
  2
*D25
  0
BLOCK_RECORD
  5
87B
330
1
100
AcDbSymbolTableRecord
100
AcDbBlockTableRecord
  2
*D26
  0
BLOCK_RECORD
  5
889
330
1
100
AcDbSymbolTableRecord
100
AcDbBlockTableRecord
  2
*D27
  0
ENDTAB
  0
ENDSEC
  0
SECTION
  2
BLOCKS
  0
BLOCK
  5
20
330
1F
100
AcDbEntity
  8
0
100
AcDbBlockBegin
  2
*MODEL_SPACE
 70
     0
 10
0.0
 20
0.0
 30
0.0
  3
*MODEL_SPACE
  1

  0
ENDBLK
  5
21
330
1F
100
AcDbEntity
  8
0
100
AcDbBlockEnd
  0
BLOCK
  5
1C
330
1B
100
AcDbEntity
 67
     1
  8
0
100
AcDbBlockBegin
  2
*PAPER_SPACE
 70
     0
 10
0.0
 20
0.0
 30
0.0
  3
*PAPER_SPACE
  1

  0
ENDBLK
  5
1D
330
1B
100
AcDbEntity
 67
     1
  8
0
100
AcDbBlockEnd
  0
BLOCK
  5
224
330
20C
100
AcDbEntity
  8
0
100
AcDbBlockBegin
  2
_ARROW_FILLED
 70
     0
 10
0.0
 20
0.0
 30
0.0
  3
_ARROW_FILLED
  1

  0
SOLID
  5
225
330
20C
100
AcDbEntity
  8
0
  6
BYBLOCK
 62
     0
100
AcDbTrace
 10
0.0
 20
0.0
 30
0.0
 11
-1.0
 21
0.132
 31
0.0
 12
-1.0
 22
-0.132
 32
0.0
 13
-1.0
 23
-0.132
 33
0.0
  0
ENDBLK
  5
226
330
20C
100
AcDbEntity
  8
0
  6
BYBLOCK
 62
     0
100
AcDbBlockEnd
  0
BLOCK
  5
879
330
86D
100
AcDbEntity
  8
0
100
AcDbBlockBegin
  2
*D25
 70
     1
 10
0.0
 20
0.0
 30
0.0
  3
*D25
  1

  0
LINE
  5
897
330
86D
100
AcDbEntity
  8
2
 62
     0
100
AcDbLine
 10
5.750106728699989
 20
0.625
 30
0.0
 11
5.75010672869999
 21
18.97630310554782
 31
0.0
  0
LINE
  5
898
330
86D
100
AcDbEntity
  8
2
 62
     0
100
AcDbLine
 10
-5.750106728699989
 20
0.625
 30
0.0
 11
-5.750106728699988
 21
18.97630310554782
 31
0.0
  0
LINE
  5
899
330
86D
100
AcDbEntity
  8
2
 62
     0
100
AcDbLine
 10
8.250106728699989
 20
17.72630310554782
 30
0.0
 11
10.75010672869999
 21
17.72630310554782
 31
0.0
  0
LINE
  5
89A
330
86D
100
AcDbEntity
  8
2
 62
     0
100
AcDbLine
 10
-8.250106728699989
 20
17.72630310554782
 30
0.0
 11
-10.75010672869999
 21
17.72630310554782
 31
0.0
  0
LINE
  5
89B
330
86D
100
AcDbEntity
  8
2
 62
     0
100
AcDbLine
 10
5.75010672869999
 20
17.72630310554782
 30
0.0
 11
-5.750106728699988
 21
17.72630310554782
 31
0.0
  0
SOLID
  5
89C
330
86D
100
AcDbEntity
  8
2
 62
     0
100
AcDbTrace
 10
8.250106728699989
 20
18.14296977221449
 30
0.0
 11
8.250106728699989
 21
17.30963643888116
 31
0.0
 12
5.75010672869999
 22
17.72630310554782
 32
0.0
 13
5.75010672869999
 23
17.72630310554782
 33
0.0
  0
SOLID
  5
89D
330
86D
100
AcDbEntity
  8
2
 62
     0
100
AcDbTrace
 10
-8.250106728699989
 20
18.14296977221449
 30
0.0
 11
-8.250106728699989
 21
17.30963643888116
 31
0.0
 12
-5.750106728699988
 22
17.72630310554782
 32
0.0
 13
-5.750106728699988
 23
17.72630310554782
 33
0.0
  0
MTEXT
  5
89E
330
86D
100
AcDbEntity
  8
2
 62
     0
100
AcDbMText
 10
0.0000000000000001
 20
19.60130310554782
 30
0.0
 40
2.5
 41
0.0
 71
     5
 72
     1
  1
%%C11.5
1001
ACAD
1000
MTEXTBEGIN
1070
    73
1070
     1
1070
    44
1040
1.0
1070
    74
1070
     0
1000
MTEXTEND
  0
POINT
  5
89F
330
86D
100
AcDbEntity
  8
DEFPOINTS
 62
     0
100
AcDbPoint
 10
5.750106728699989
 20
0.0
 30
0.0
  0
POINT
  5
8A0
330
86D
100
AcDbEntity
  8
DEFPOINTS
 62
     0
100
AcDbPoint
 10
-5.750106728699989
 20
0.0
 30
0.0
  0
POINT
  5
8A1
330
86D
100
AcDbEntity
  8
DEFPOINTS
 62
     0
100
AcDbPoint
 10
-5.750106728699988
 20
17.72630310554782
 30
0.0
  0
ENDBLK
  5
87A
330
86D
100
AcDbEntity
  8
0
100
AcDbBlockEnd
  0
BLOCK
  5
887
330
87B
100
AcDbEntity
  8
0
100
AcDbBlockBegin
  2
*D26
 70
     1
 10
0.0
 20
0.0
 30
0.0
  3
*D26
  1

  0
LINE
  5
8A2
330
87B
100
AcDbEntity
  8
2
 62
     0
100
AcDbLine
 10
27.89427067649998
 20
2.802521665499995
 30
0.0
 11
27.89427067649998
 21
18.97630310554782
 31
0.0
  0
LINE
  5
8A3
330
87B
100
AcDbEntity
  8
2
 62
     0
100
AcDbLine
 10
33.14059485439997
 20
3.610877940100039
 30
0.0
 11
33.14059485439997
 21
18.97630310554782
 31
0.0
  0
LINE
  5
8A4
330
87B
100
AcDbEntity
  8
2
 62
     0
100
AcDbLine
 10
25.39427067649998
 20
17.72630310554782
 30
0.0
 11
22.89427067649998
 21
17.72630310554782
 31
0.0
  0
LINE
  5
8A5
330
87B
100
AcDbEntity
  8
2
 62
     0
100
AcDbLine
 10
35.64059485439997
 20
17.72630310554782
 30
0.0
 11
38.14059485439997
 21
17.72630310554782
 31
0.0
  0
LINE
  5
8A6
330
87B
100
AcDbEntity
  8
2
 62
     0
100
AcDbLine
 10
27.89427067649998
 20
17.72630310554782
 30
0.0
 11
33.14059485439997
 21
17.72630310554782
 31
0.0
  0
SOLID
  5
8A7
330
87B
100
AcDbEntity
  8
2
 62
     0
100
AcDbTrace
 10
25.39427067649998
 20
18.14296977221449
 30
0.0
 11
25.39427067649998
 21
17.30963643888116
 31
0.0
 12
27.89427067649998
 22
17.72630310554782
 32
0.0
 13
27.89427067649998
 23
17.72630310554782
 33
0.0
  0
SOLID
  5
8A8
330
87B
100
AcDbEntity
  8
2
 62
     0
100
AcDbTrace
 10
35.64059485439997
 20
18.14296977221449
 30
0.0
 11
35.64059485439997
 21
17.30963643888116
 31
0.0
 12
33.14059485439997
 22
17.72630310554782
 32
0.0
 13
33.14059485439997
 23
17.72630310554782
 33
0.0
  0
MTEXT
  5
8A9
330
87B
100
AcDbEntity
  8
2
 62
     0
100
AcDbMText
 10
30.51743276544998
 20
19.60130310554782
 30
0.0
 40
2.5
 41
0.0
 71
     5
 72
     1
  1
5.25
1001
ACAD
1000
MTEXTBEGIN
1070
    73
1070
     1
1070
    44
1040
1.0
1070
    74
1070
     0
1000
MTEXTEND
  0
POINT
  5
8AA
330
87B
100
AcDbEntity
  8
DEFPOINTS
 62
     0
100
AcDbPoint
 10
27.89427067649998
 20
2.177521665499995
 30
0.0
  0
POINT
  5
8AB
330
87B
100
AcDbEntity
  8
DEFPOINTS
 62
     0
100
AcDbPoint
 10
33.14059485439997
 20
2.985877940100039
 30
0.0
  0
POINT
  5
8AC
330
87B
100
AcDbEntity
  8
DEFPOINTS
 62
     0
100
AcDbPoint
 10
33.14059485439997
 20
17.72630310554782
 30
0.0
  0
ENDBLK
  5
888
330
87B
100
AcDbEntity
  8
0
100
AcDbBlockEnd
  0
BLOCK
  5
895
330
889
100
AcDbEntity
  8
0
100
AcDbBlockBegin
  2
*D27
 70
     1
 10
0.0
 20
0.0
 30
0.0
  3
*D27
  1

  0
LINE
  5
8AD
330
889
100
AcDbEntity
  8
2
 62
     0
100
AcDbLine
 10
5.198255054484465
 20
-6.029532635684322
 30
0.0
 11
16.44321068978
 21
-9.683240204857176
 31
0.0
  0
LINE
  5
8AE
330
889
100
AcDbEntity
  8
2
 62
     0
100
AcDbLine
 10
7.749581095384488
 20
1.822641518515663
 30
0.0
 11
18.99453673072579
 21
-1.831066050672059
 31
0.0
  0
LINE
  5
8AF
330
889
100
AcDbEntity
  8
2
 62
     0
100
AcDbLine
 10
14.48184755847367
 20
-11.67461025262635
 30
0.0
 11
13.70930507253628
 21
-14.05225154336423
 31
0.0
  0
LINE
  5
8B0
330
889
100
AcDbEntity
  8
2
 62
     0
100
AcDbLine
 10
18.57825857129424
 20
0.9328464830345133
 30
0.0
 11
19.35080105723163
 21
3.31048777377239
 31
0.0
  0
LINE
  5
8B1
330
889
100
AcDbEntity
  8
2
 62
     0
100
AcDbLine
 10
15.25439004441107
 20
-9.296968961888479
 30
0.0
 11
17.80571608535685
 21
-1.444794807703363
 31
0.0
  0
SOLID
  5
8B2
330
889
100
AcDbEntity
  8
2
 62
     0
100
AcDbTrace
 10
14.08557401001736
 20
-11.54585317163679
 30
0.0
 11
14.87812110692999
 21
-11.80336733361592
 31
0.0
 12
15.25439004441107
 22
-9.296968961888479
 32
0.0
 13
15.25439004441107
 23
-9.296968961888479
 33
0.0
  0
SOLID
  5
8B3
330
889
100
AcDbEntity
  8
2
 62
     0
100
AcDbTrace
 10
18.18198502283793
 20
1.061603564024078
 30
0.0
 11
18.97453211975055
 21
0.8040894020449478
 31
0.0
 12
17.80571608535685
 22
-1.444794807703363
 32
0.0
 13
17.80571608535685
 23
-1.444794807703363
 33
0.0
  0
MTEXT
  5
8B4
330
889
100
AcDbEntity
  8
2
 62
     0
100
AcDbMText
 10
14.65273811269306
 20
-5.081035749434692
 30
0.0
 40
2.5
 41
0.0
 71
     5
 72
     1
  1
8.26
 11
0.3090169943749563
 21
0.9510565162951506
 31
0.0
1001
ACAD
1000
MTEXTBEGIN
1070
    73
1070
     1
1070
    44
1040
1.0
1070
    74
1070
     0
1000
MTEXTEND
  0
POINT
  5
8B5
330
889
100
AcDbEntity
  8
DEFPOINTS
 62
     0
100
AcDbPoint
 10
4.603844731799996
 20
-5.836397014199975
 30
0.0
  0
POINT
  5
8B6
330
889
100
AcDbEntity
  8
DEFPOINTS
 62
     0
100
AcDbPoint
 10
7.155170772700019
 20
2.015777140000011
 30
0.0
  0
POINT
  5
8B7
330
889
100
AcDbEntity
  8
DEFPOINTS
 62
     0
100
AcDbPoint
 10
17.80571608535685
 20
-1.444794807703363
 30
0.0
  0
ENDBLK
  5
896
330
889
100
AcDbEntity
  8
0
100
AcDbBlockEnd
  0
ENDSEC
  0
SECTION
  2
ENTITIES
  0
TEXT
  5
718
330
1F
100
AcDbEntity
  8
6
100
AcDbText
 10
15.97160609895836
 20
-29.14641752326201
 30
0.0
 40
5.0
  1
PNCU0805GNTR
 41
0.8
 72
     2
 11
61.30493943229168
 21
-29.14641752326201
 31
0.0
100
AcDbText
  0
DIMENSION
  5
719
330
1F
100
AcDbEntity
  8
2
100
AcDbDimension
  2
*D25
 10
-5.750106728699988
 20
17.72630310554782
 30
0.0
 11
0.0
 21
17.72630310554782
 31
0.0
 70
   160
  1
%%C<>
  3
ISO-25
100
AcDbAlignedDimension
 13
5.750106728699989
 23
0.0
 33
0.0
 14
-5.750106728699989
 24
0.0
 34
0.0
100
AcDbRotatedDimension
  0
DIMENSION
  5
71A
330
1F
100
AcDbEntity
  8
2
100
AcDbDimension
  2
*D26
 10
33.14059485439997
 20
17.72630310554782
 30
0.0
 11
30.51743276544998
 21
17.72630310554782
 31
0.0
 70
   160
  3
ISO-25
100
AcDbAlignedDimension
 13
27.89427067649998
 23
2.177521665499995
 33
0.0
 14
33.14059485439997
 24
2.985877940100039
 34
0.0
100
AcDbRotatedDimension
  0
LINE
  5
71B
330
1F
100
AcDbEntity
  8
4
100
AcDbLine
 10
0.0
 20
0.0
 30
0.0
 11
7.436948876899975
 21
0.0
 31
0.0
  0
LINE
  5
71C
330
1F
100
AcDbEntity
  8
1
100
AcDbLine
 10
6.275687341399986
 20
2.485890007700021
 30
0.0
 11
5.141680635599982
 21
3.371873147299993
 31
0.0
  0
SPLINE
  5
71D
330
1F
100
AcDbEntity
  8
1
100
AcDbSpline
210
0.0
220
0.0
230
1.0
 70
     8
 71
     3
 72
     8
 73
     4
 74
     2
 42
0.0000000001
 43
0.0000000001
 44
0.0000000001
 12
-0.9697260869899618
 22
0.2441952419911921
 32
0.0
 13
-0.9752621129526637
 23
0.2210516026612469
 33
0.0
 40
0.0
 40
0.0
 40
0.0
 40
0.0
 40
0.2108415773201316
 40
0.2108415773201316
 40
0.2108415773201316
 40
0.2108415773201316
 10
6.259230067700002
 20
-26.94829910589999
 30
0.0
 10
6.191077208450188
 20
-26.93113693590149
 30
0.0
 10
6.122716215365132
 20
-26.91478072595806
 30
0.0
 10
6.054174281299964
 20
-26.89924510309998
 30
0.0
 11
6.259230067700002
 21
-26.94829910589999
 31
0.0
 11
6.054174281299964
 21
-26.89924510309998
 31
0.0
  0
SPLINE
  5
71E
330
1F
100
AcDbEntity
  8
1
100
AcDbSpline
210
0.0
220
0.0
230
1.0
 70
     8
 71
     3
 72
    10
 73
     6
 74
     4
 42
0.0000000001
 43
0.0000000001
 44
0.0000000001
 12
0.9888392396060526
 22
0.1489864363468155
 32
0.0
 13
0.9987900757928656
 23
0.0491770728864758
 33
0.0
 40
0.0
 40
0.0
 40
0.0
 40
0.0
 40
0.3906236770013987
 40
0.7631513416987677
 40
1.12394077482253
 40
1.12394077482253
 40
1.12394077482253
 40
1.12394077482253
 10
5.141680635599982
 20
-21.96887488679999
 30
0.0
 10
5.270435308846043
 20
-21.94947567693695
 30
0.0
 10
5.522498393221668
 20
-21.91488297034804
 30
0.0
 10
5.895161610158582
 20
-21.87570401243513
 30
0.0
 10
6.13911243261502
 20
-21.85922781181644
 30
0.0
 10
6.259230067700002
 20
-21.85331362239998
 30
0.0
 11
5.141680635599982
 21
-21.96887488679999
 31
0.0
 11
5.528730492000022
 21
-21.91615614539998
 31
0.0
 11
5.89926165540001
 21
-21.87763968249999
 31
0.0
 11
6.259230067700002
 21
-21.85331362239998
 31
0.0
  0
SPLINE
  5
71F
330
1F
100
AcDbEntity
  8
1
100
AcDbSpline
210
0.0
220
0.0
230
1.0
 70
     8
 71
     3
 72
    13
 73
     9
 74
     7
 42
0.0000000001
 43
0.0000000001
 44
0.0000000001
 12
0.9693826151865691
 22
-0.2455551778603914
 32
0.0
 13
0.9034084547290262
 23
-0.4287810209467218
 33
0.0
 40
0.0
 40
0.0
 40
0.0
 40
0.0
 40
0.0578095175471105
 40
0.1114553101014605
 40
0.136486843359698
 40
0.1601652761374019
 40
0.1823964039635365
 40
0.1900527204920286
 40
0.1900527204920286
 40
0.1900527204920286
 40
0.1900527204920286
 10
6.048388232999997
 20
-26.92580636419998
 30
0.0
 10
6.067068080100828
 20
-26.93053817298775
 30
0.0
 10
6.102870631646917
 20
-26.94052690745743
 30
0.0
 10
6.146030530531616
 20
-26.95498466993426
 30
0.0
 10
6.177927946357037
 20
-26.96710374898393
 30
0.0
 10
6.199804630810229
 20
-26.97608857271204
 30
0.0
 10
6.216130422911995
 20
-26.98332571607653
 30
0.0
 10
6.225154010805371
 20
-26.98754818829406
 30
0.0
 10
6.227459604500012
 20
-26.98864248269998
 30
0.0
 11
6.048388232999997
 21
-26.92580636419998
 31
0.0
 11
6.104057983799975
 21
-26.94138902009999
 31
0.0
 11
6.154911140099983
 21
-26.958471981
 31
0.0
 11
6.178307750599969
 21
-26.96737008609997
 31
0.0
 11
6.200207002000013
 21
-26.97637513839998
 31
0.0
 11
6.220525224899972
 21
-26.98539693769999
 31
0.0
 11
6.227459604500012
 21
-26.98864248269998
 31
0.0
  0
LINE
  5
720
330
1F
100
AcDbEntity
  8
1
100
AcDbLine
 10
6.307631451800006
 20
-27.07580636419999
 30
0.0
 11
6.146533293299995
 21
-27.02368752159998
 31
0.0
  0
LINE
  5
721
330
1F
100
AcDbEntity
  8
1
100
AcDbLine
 10
6.538343509100002
 20
1.677517444599999
 30
0.0
 11
6.141680635599982
 21
0.2941896102000214
 31
0.0
  0
SPLINE
  5
722
330
1F
100
AcDbEntity
  8
1
100
AcDbSpline
210
0.0
220
0.0
230
1.0
 70
     8
 71
     3
 72
    15
 73
    11
 74
     9
 42
0.0000000001
 43
0.0000000001
 44
0.0000000001
 12
0.7880793796592235
 22
-0.61557362789185
 32
0.0
 13
-0.275745644929701
 23
-0.9612306379336352
 33
0.0
 40
0.0
 40
0.0
 40
0.0
 40
0.0
 40
0.0735713599640111
 40
0.1474060875201581
 40
0.2210485087256124
 40
0.2940667753691171
 40
0.4403844727073855
 40
0.5888803857478947
 40
0.7389981863096656
 40
0.8891155994658944
 40
0.8891155994658944
 40
0.8891155994658944
 40
0.8891155994658944
 10
6.048388232999997
 20
2.406229594900025
 30
0.0
 10
6.067714923573705
 20
2.391133398579364
 30
0.0
 10
6.104964404185055
 20
2.358943781807353
 30
0.0
 10
6.155767432327307
 20
2.305424230880516
 30
0.0
 10
6.201072017261797
 20
2.247393107610705
 30
0.0
 10
6.253399826515487
 20
2.164782849999012
 30
0.0
 10
6.303427914721963
 20
2.051901400103371
 30
0.0
 10
6.33596023045901
 20
1.906226748204697
 30
0.0
 10
6.339366303083128
 20
1.755734283258659
 30
0.0
 10
6.321429526101987
 20
1.656460160771062
 30
0.0
 10
6.307631451800006
 20
1.608361008500025
 30
0.0
 11
6.048388232999997
 21
2.406229594900025
 31
0.0
 11
6.104057983799975
 21
2.358129450900008
 31
0.0
 11
6.154911140099983
 21
2.304598866300011
 31
0.0
 11
6.200207002000013
 21
2.246534323800005
 31
0.0
 11
6.239272590200016
 21
2.18484520740003
 31
0.0
 11
6.298564662599972
 21
2.051079297299992
 31
0.0
 11
6.331002810499995
 21
1.906169660800031
 31
0.0
 11
6.334312368399992
 21
1.756088346599995
 31
0.0
 11
6.307631451800006
 21
1.608361008500025
 31
0.0
  0
DIMENSION
  5
723
330
1F
100
AcDbEntity
  8
2
100
AcDbDimension
  2
*D27
 10
17.80571608535685
 20
-1.444794807703363
 30
0.0
 11
16.43596908074646
 21
-5.660442613887735
 31
0.0
 70
   160
  3
ISO-25
100
AcDbAlignedDimension
 13
4.603844731799995
 23
-5.836397014199974
 33
0.0
 14
7.155170772700017
 24
2.015777140000011
 34
0.0
 50
71.99999999999945
100
AcDbRotatedDimension
  0
LINE
  5
724
330
1F
100
AcDbEntity
  8
4
100
AcDbLine
 10
0.0
 20
0.0
 30
0.0
 11
0.0
 21
-7.436948876899975
 31
0.0
  0
SPLINE
  5
725
330
1F
100
AcDbEntity
  8
1
100
AcDbSpline
210
0.0
220
0.0
230
1.0
 70
     8
 71
     3
 72
    13
 73
     9
 74
     7
 42
0.0000000001
 43
0.0000000001
 44
0.0000000001
 12
0.9956589220195636
 22
-0.0930769090743809
 32
0.0
 13
0.9880323100100078
 23
0.1542470562969936
 33
0.0
 40
0.0
 40
0.0
 40
0.0
 40
0.0
 40
0.3434199390103141
 40
0.8766564361439497
 40
1.408103813916938
 40
1.979665281269033
 40
2.626679281888645
 40
3.344159129731369
 40
3.344159129731369
 40
3.344159129731369
 40
3.344159129731369
 10
-4.939864591799988
 20
-22.23003915089998
 30
0.0
 10
-4.825888216374977
 20
-22.24069397304584
 30
0.0
 10
-4.53439829128389
 20
-22.26237687977559
 30
0.0
 10
-4.064832120950719
 20
-22.27324925689673
 30
0.0
 10
-3.519489366369545
 20
-22.25113471379518
 30
0.0
 10
-2.939062358256218
 20
-22.1890744811246
 30
0.0
 10
-2.301924340930413
 20
-22.08564214075313
 30
0.0
 10
-1.854147522849906
 20
-22.00576460496071
 30
0.0
 10
-1.617849765700015
 20
-21.96887488679999
 30
0.0
 11
-4.939864591799988
 21
-22.23003915089998
 31
0.0
 11
-4.597381862899993
 21
-22.25539334019998
 31
0.0
 11
-4.064284903900016
 21
-22.26759146219998
 31
0.0
 11
-3.533273993899996
 21
-22.24605709889999
 31
0.0
 11
-2.964778540400004
 21
-22.18693493459997
 31
0.0
 11
-2.325398561900016
 21
-22.08783720459999
 31
0.0
 11
-1.617849765700015
 21
-21.96887488679999
 31
0.0
  0
SPLINE
  5
726
330
1F
100
AcDbEntity
  8
1
100
AcDbSpline
210
0.0
220
0.0
230
1.0
 70
     8
 71
     3
 72
    13
 73
     9
 74
     7
 42
0.0000000001
 43
0.0000000001
 44
0.0000000001
 12
-0.9933679754762046
 22
0.1149785427734528
 32
0.0
 13
-0.9880323100102216
 23
-0.1542470562956239
 33
0.0
 40
0.0
 40
0.0
 40
0.0
 40
0.0
 40
0.5459090373993842
 40
1.079145534630722
 40
1.610592912399631
 40
2.182154379751723
 40
2.829168380371367
 40
3.546648228115459
 40
3.546648228115459
 40
3.546648228115459
 40
3.546648228115459
 10
-1.617849765700015
 20
-26.74265726929999
 30
0.0
 10
-1.798612617458545
 20
-26.72173466076431
 30
0.0
 10
-2.157261694325392
 20
-26.6907976770649
 30
0.0
 10
-2.694323797805362
 20
-26.67836390604044
 30
0.0
 10
-3.239674333823021
 20
-26.70047788887899
 30
0.0
 10
-3.820099043569185
 20
-26.76253828703446
 30
0.0
 10
-4.457237800330061
 20
-26.86597057415023
 30
0.0
 10
-4.905014432482541
 20
-26.94584812334466
 30
0.0
 10
-5.1413121896
 20
-26.98273784149998
 30
0.0
 11
-1.617849765700015
 21
-26.74265726929999
 31
0.0
 11
-2.161780092400022
 21
-26.69621938809999
 31
0.0
 11
-2.694877051500014
 21
-26.68402126619997
 31
0.0
 11
-3.225887961500006
 21
-26.70555562939998
 31
0.0
 11
-3.794383414999998
 21
-26.76467779369997
 31
0.0
 11
-4.433763393500015
 21
-26.86377552369998
 31
0.0
 11
-5.1413121896
 21
-26.98273784149998
 31
0.0
  0
SPLINE
  5
727
330
1F
100
AcDbEntity
  8
1
100
AcDbSpline
210
0.0
220
0.0
230
1.0
 70
     8
 71
     3
 72
     8
 73
     4
 74
     2
 42
0.0000000001
 43
0.0000000001
 44
0.0000000001
 12
0.9956443407782892
 22
0.0932327553822471
 32
0.0
 13
0.9974750007266163
 23
0.0710184689037768
 33
0.0
 40
0.0
 40
0.0
 40
0.0
 40
0.0
 40
0.3103578622282593
 40
0.3103578622282593
 40
0.3103578622282593
 40
0.3103578622282593
 10
-2.177435313000017
 20
-26.74265726929999
 30
0.0
 10
-2.074433296618813
 20
-26.73301209641663
 30
0.0
 10
-1.971319147150543
 20
-26.72449293562921
 30
0.0
 10
-1.868127744199995
 20
-26.71714588889997
 30
0.0
 11
-2.177435313000017
 21
-26.74265726929999
 31
0.0
 11
-1.868127744199995
 21
-26.71714588889997
 31
0.0
  0
SPLINE
  5
728
330
1F
100
AcDbEntity
  8
1
100
AcDbSpline
210
0.0
220
0.0
230
1.0
 70
     8
 71
     3
 72
     8
 73
     4
 74
     2
 42
0.0000000001
 43
0.0000000001
 44
0.0000000001
 12
-0.990887899141369
 22
0.1346891656192301
 32
0.0
 13
-0.9921183240119564
 23
0.1253045536271809
 33
0.0
 40
0.0
 40
0.0
 40
0.0
 40
0.0
 40
0.3122803165531659
 40
0.3122803165531659
 40
0.3122803165531659
 40
0.3122803165531659
 10
-1.867825649700023
 20
-22.00962844489998
 30
0.0
 10
-1.970970578637546
 20
-21.9956081864747
 30
0.0
 10
-2.074162304906467
 20
-21.98191826869074
 30
0.0
 10
-2.177435313000017
 20
-21.96887488679999
 30
0.0
 11
-1.867825649700023
 21
-22.00962844489998
 31
0.0
 11
-2.177435313000017
 21
-21.96887488679999
 31
0.0
  0
LINE
  5
729
330
1F
100
AcDbEntity
  8
1
100
AcDbLine
 10
-5.1413121896
 20
-26.98273784149998
 30
0.0
 11
-5.1413121896
 21
-22.20895545909999
 31
0.0
  0
LINE
  5
72A
330
1F
100
AcDbEntity
  8
1
100
AcDbLine
 10
-6.567397911200004
 20
-21.86407579609999
 30
0.0
 11
-6.567397911200004
 21
-26.99866998069998
 31
0.0
  0
SPLINE
  5
72B
330
1F
100
AcDbEntity
  8
1
100
AcDbSpline
210
0.0
220
0.0
230
1.0
 70
     8
 71
     3
 72
    10
 73
     6
 74
     4
 42
0.0000000001
 43
0.0000000001
 44
0.0000000001
 12
0.9987900757922201
 22
0.0491770728995862
 32
0.0
 13
0.9888392396132356
 23
0.1489864362991411
 33
0.0
 40
0.0
 40
0.0
 40
0.0
 40
0.0
 40
0.3607972254877944
 40
0.7333270538173949
 40
1.123940774474411
 40
1.123940774474411
 40
1.123940774474411
 40
1.123940774474411
 10
-6.258861621699992
 20
-27.09829910589999
 30
0.0
 10
-6.138741392303133
 20
-27.09238478874674
 30
0.0
 10
-5.894787261938761
 20
-27.07590825983119
 30
0.0
 10
-5.522124077425744
 20
-27.03672899327004
 30
0.0
 10
-5.27006358110566
 20
-27.00213655690339
 30
0.0
 10
-5.1413121896
 20
-26.98273784149998
 30
0.0
 11
-6.258861621699992
 21
-27.09829910589999
 31
0.0
 11
-5.898885444499995
 21
-27.07397237639998
 31
0.0
 11
-5.528352160300016
 21
-27.03545538930001
 31
0.0
 11
-5.1413121896
 21
-26.98273784149998
 31
0.0
  0
SPLINE
  5
72C
330
1F
100
AcDbEntity
  8
1
100
AcDbSpline
210
0.0
220
0.0
230
1.0
 70
     8
 71
     3
 72
    12
 73
     8
 74
     6
 42
0.0000000001
 43
0.0000000001
 44
0.0000000001
 12
0.0291755747819498
 22
-0.9995743023088094
 32
0.0
 13
0.9994867658127617
 23
0.0320344340537791
 33
0.0
 40
0.0
 40
0.0
 40
0.0
 40
0.0
 40
0.0226774794912752
 40
0.0704725351254809
 40
0.1387226062543412
 40
0.2258977281297687
 40
0.3279367306548107
 40
0.3279367306548107
 40
0.3279367306548107
 40
0.3279367306548107
 10
-6.566747584900014
 20
-26.99864523669998
 30
0.0
 10
-6.566527042067092
 20
-27.00620117861352
 30
0.0
 10
-6.560310649870912
 20
-27.0300467827747
 30
0.0
 10
-6.52045825594921
 20
-27.05899503441157
 30
0.0
 10
-6.45779141028246
 20
-27.0834014203646
 30
0.0
 10
-6.372457295318177
 20
-27.09837581539794
 30
0.0
 10
-6.309305011106849
 20
-27.10005804033242
 30
0.0
 10
-6.275309466900012
 20
-27.09896845309998
 30
0.0
 11
-6.566747584900014
 21
-26.99864523669998
 31
0.0
 11
-6.56107356870001
 21
-27.02060141159998
 31
0.0
 11
-6.5259194777
 21
-27.052982845
 31
0.0
 11
-6.462935858300028
 21
-27.07927230859997
 31
0.0
 11
-6.377290601699996
 21
-27.09553244069999
 31
0.0
 11
-6.275309466900012
 21
-27.09896845309998
 31
0.0
  0
SPLINE
  5
72D
330
1F
100
AcDbEntity
  8
1
100
AcDbSpline
210
0.0
220
0.0
230
1.0
 70
     8
 71
     3
 72
    10
 73
     6
 74
     4
 42
0.0000000001
 43
0.0000000001
 44
0.0000000001
 12
0.9994867121782277
 22
0.0320361074282865
 32
0.0
 13
0.99879014302977
 23
0.0491757072808499
 33
0.0
 40
0.0
 40
0.0
 40
0.0
 40
0.0
 40
0.0055089236220538
 40
0.0109993415347719
 40
0.0164710553734451
 40
0.0164710553734451
 40
0.0164710553734451
 40
0.0164710553734451
 10
-6.275318895400005
 20
-27.09896845309998
 30
0.0
 10
-6.273483530080455
 20
-27.09890962494366
 30
0.0
 10
-6.269819322514785
 20
-27.09878079672472
 30
0.0
 10
-6.264333468172443
 20
-27.09855800884112
 30
0.0
 10
-6.260683319649174
 20
-27.09838879769935
 30
0.0
 10
-6.258861621699992
 20
-27.09829910589999
 30
0.0
 11
-6.275318895400005
 21
-27.09896845309998
 31
0.0
 11
-6.269813349299994
 21
-27.09877557589999
 31
0.0
 11
-6.26432746490002
 21
-27.09855250369997
 31
0.0
 11
-6.258861621699992
 21
-27.09829910589999
 31
0.0
  0
SPLINE
  5
72E
330
1F
100
AcDbEntity
  8
1
100
AcDbSpline
210
0.0
220
0.0
230
1.0
 70
     8
 71
     3
 72
    10
 73
     6
 74
     4
 42
0.0000000001
 43
0.0000000001
 44
0.0000000001
 12
-0.9920437236857072
 22
-0.1258938056291743
 32
0.0
 13
-0.9768083896806039
 23
0.2141153190446343
 33
0.0
 40
0.0
 40
0.0
 40
0.0
 40
0.0
 40
0.0024912065289855
 40
0.0386345773969561
 40
0.0679523058357041
 40
0.0679523058357041
 40
0.0679523058357041
 40
0.0679523058357041
 10
-4.089556866799995
 20
-27.07600672329999
 30
0.0
 10
-4.090380662067157
 20
-27.07611126579017
 30
0.0
 10
-4.103160758593215
 20
-27.0776967640738
 30
0.0
 10
-4.125771769527144
 20
-27.07948083808379
 30
0.0
 10
-4.147729831031567
 20
-27.07789882245943
 30
0.0
 10
-4.157275765400015
 20
-27.07580636419999
 30
0.0
 11
-4.089556866799995
 21
-27.07600672329999
 31
0.0
 11
-4.092029129600007
 21
-27.0763133609
 31
0.0
 11
-4.128096642800016
 21
-27.07865382009998
 31
0.0
 11
-4.157275765400015
 21
-27.07580636419999
 31
0.0
  0
SPLINE
  5
72F
330
1F
100
AcDbEntity
  8
1
100
AcDbSpline
210
0.0
220
0.0
230
1.0
 70
     8
 71
     3
 72
     8
 73
     4
 74
     2
 42
0.0000000001
 43
0.0000000001
 44
0.0000000001
 12
0.9153938783820303
 22
-0.4025593712990727
 32
0.0
 13
0.9256687158963512
 23
-0.3783350742540275
 33
0.0
 40
0.0
 40
0.0
 40
0.0
 40
0.0
 40
0.1047386473433684
 40
0.1047386473433684
 40
0.1047386473433684
 40
0.1047386473433684
 10
-4.891835432699991
 20
-26.94170428129999
 30
0.0
 10
-4.859876393830614
 20
-26.95575878930841
 30
0.0
 10
-4.827787064863697
 20
-26.96952907352667
 30
0.0
 10
-4.795469301800011
 20
-26.98273784149998
 30
0.0
 11
-4.891835432699991
 21
-26.94170428129999
 31
0.0
 11
-4.795469301800011
 21
-26.98273784149998
 31
0.0
  0
SPLINE
  5
730
330
1F
100
AcDbEntity
  8
1
100
AcDbSpline
210
0.0
220
0.0
230
1.0
 70
     8
 71
     3
 72
     8
 73
     4
 74
     2
 42
0.0000000001
 43
0.0000000001
 44
0.0000000001
 12
-0.9983971774517714
 22
-0.056595724717828
 32
0.0
 13
-0.9972849056399073
 23
0.0736397785357973
 33
0.0
 40
0.0
 40
0.0
 40
0.0
 40
0.0
 40
0.0266957235272288
 40
0.0266957235272288
 40
0.0266957235272288
 40
0.0266957235272288
 10
-4.276566697400028
 20
-27.09907284949997
 30
0.0
 10
-4.285451009073233
 20
-27.09957647077327
 30
0.0
 10
-4.294387802760379
 20
-27.09962374215612
 30
0.0
 10
-4.303262216799993
 20
-27.09896845309998
 30
0.0
 11
-4.276566697400028
 21
-27.09907284949997
 31
0.0
 11
-4.303262216799993
 21
-27.09896845309998
 31
0.0
  0
SPLINE
  5
731
330
1F
100
AcDbEntity
  8
1
100
AcDbSpline
210
0.0
220
0.0
230
1.0
 70
     8
 71
     3
 72
     8
 73
     4
 74
     2
 42
0.0000000001
 43
0.0000000001
 44
0.0000000001
 12
-0.9912498944686621
 22
-0.1319986617957414
 32
0.0
 13
-0.9983971772734165
 23
-0.0565957278641614
 33
0.0
 40
0.0
 40
0.0
 40
0.0
 40
0.0
 40
0.0270489537822291
 40
0.0270489537822291
 40
0.0270489537822291
 40
0.0270489537822291
 10
-4.249650521000006
 20
-27.09639603259998
 30
0.0
 10
-4.258587945194047
 20
-27.09758617450072
 30
0.0
 10
-4.267564831031902
 20
-27.09856256442422
 30
0.0
 10
-4.276566697400028
 20
-27.09907284949997
 30
0.0
 11
-4.249650521000006
 21
-27.09639603259998
 31
0.0
 11
-4.276566697400028
 21
-27.09907284949997
 31
0.0
  0
SPLINE
  5
732
330
1F
100
AcDbEntity
  8
1
100
AcDbSpline
210
0.0
220
0.0
230
1.0
 70
     8
 71
     3
 72
    10
 73
     6
 74
     4
 42
0.0000000001
 43
0.0000000001
 44
0.0000000001
 12
0.9834267382970141
 22
0.1813059579895161
 32
0.0
 13
0.9958015710237308
 23
0.0915381403933348
 33
0.0
 40
0.0
 40
0.0
 40
0.0
 40
0.0
 40
0.2886111556504219
 40
0.766115489402639
 40
1.243486926394569
 40
1.243486926394569
 40
1.243486926394569
 40
1.243486926394569
 10
-3.40886780080001
 20
-26.91270915359999
 30
0.0
 10
-3.314258491654201
 20
-26.8952668462461
 30
0.0
 10
-3.062629043091126
 20
-26.85159042252277
 30
0.0
 10
-2.652342912400002
 20
-26.79210084081367
 30
0.0
 10
-2.335891055306158
 20
-26.75722316717304
 30
0.0
 10
-2.177435313000017
 20
-26.74265726929999
 30
0.0
 11
-3.40886780080001
 21
-26.91270915359999
 31
0.0
 11
-3.12450766720002
 21
-26.86335620449998
 31
0.0
 11
-2.65195086029999
 21
-26.79479635469999
 31
0.0
 11
-2.177435313000017
 21
-26.74265726929999
 31
0.0
  0
SPLINE
  5
733
330
1F
100
AcDbEntity
  8
1
100
AcDbSpline
210
0.0
220
0.0
230
1.0
 70
     8
 71
     3
 72
    10
 73
     6
 74
     4
 42
0.0000000001
 43
0.0000000001
 44
0.0000000001
 12
-0.9972842830242159
 22
0.0736482099774021
 32
0.0
 13
-0.9936273978574396
 23
0.1127146584391469
 33
0.0
 40
0.0
 40
0.0
 40
0.0
 40
0.0
 40
0.0023973426238684
 40
0.0047888065751891
 40
0.0071746400464272
 40
0.0071746400464272
 40
0.0071746400464272
 40
0.0071746400464272
 10
-4.303276607300006
 20
-27.09896845309998
 30
0.0
 10
-4.304073551339942
 20
-27.098909599769
 30
0.0
 10
-4.30566466353912
 20
-27.09878070296889
 30
0.0
 10
-4.308045863838145
 20
-27.09855788395667
 30
0.0
 10
-4.309629344565416
 20
-27.09838874536826
 30
0.0
 10
-4.310419554399999
 20
-27.09829910589999
 30
0.0
 11
-4.303276607300006
 21
-27.09896845309998
 31
0.0
 11
-4.305666178400002
 21
-27.09877557589999
 31
0.0
 11
-4.308047215700014
 21
-27.09855250369997
 31
0.0
 11
-4.310419554399999
 21
-27.09829910589999
 31
0.0
  0
SPLINE
  5
734
330
1F
100
AcDbEntity
  8
1
100
AcDbSpline
210
0.0
220
0.0
230
1.0
 70
     8
 71
     3
 72
    10
 73
     6
 74
     4
 42
0.0000000001
 43
0.0000000001
 44
0.0000000001
 12
-0.993627046859892
 22
0.1127177525880025
 32
0.0
 13
-0.9446984695313435
 23
0.327940240996949
 33
0.0
 40
0.0
 40
0.0
 40
0.0
 40
0.0
 40
0.1581228881815102
 40
0.3234934711747298
 40
0.4995580360156991
 40
0.4995580360156991
 40
0.4995580360156991
 40
0.4995580360156991
 10
-4.310419554399999
 20
-27.09829910589999
 30
0.0
 10
-4.362791280541582
 20
-27.09235802037048
 30
0.0
 10
-4.469482958185324
 20
-27.07570585203466
 30
0.0
 10
-4.631446257222857
 20
-27.03637501460231
 30
0.0
 10
-4.740026660152023
 20
-27.0019840601083
 30
0.0
 10
-4.795469301800011
 20
-26.98273784149998
 30
0.0
 11
-4.310419554399999
 21
-27.09829910589999
 31
0.0
 11
-4.466659939700008
 21
-27.07397237639998
 31
0.0
 11
-4.627482423900005
 21
-27.03545538930001
 31
0.0
 11
-4.795469301800011
 21
-26.98273784149998
 31
0.0
  0
SPLINE
  5
735
330
1F
100
AcDbEntity
  8
1
100
AcDbSpline
210
0.0
220
0.0
230
1.0
 70
     8
 71
     3
 72
    16
 73
    12
 74
    10
 42
0.0000000001
 43
0.0000000001
 44
0.0000000001
 12
-0.9806277929756108
 22
-0.1958804013774292
 32
0.0
 13
-0.9920437236830879
 23
-0.1258938056498131
 33
0.0
 40
0.0
 40
0.0
 40
0.0
 40
0.0
 40
0.0749481394406939
 40
0.1495363039585293
 40
0.2225401915405569
 40
0.2927550347211998
 40
0.4240350255623618
 40
0.4840576012986625
 40
0.5392838949004169
 40
0.5888279878223737
 40
0.6294342135251519
 40
0.6294342135251519
 40
0.6294342135251519
 40
0.6294342135251519
 10
-3.478568207400002
 20
-26.92580636419998
 30
0.0
 10
-3.503066950255787
 20
-26.93069998807869
 30
0.0
 10
-3.551821638002423
 20
-26.94109825599099
 30
0.0
 10
-3.62402022983351
 20
-26.95814724319202
 30
0.0
 10
-3.69439357862903
 20
-26.97600869850672
 30
0.0
 10
-3.78281833120809
 20
-26.9995351186115
 30
0.0
 10
-3.86680557694974
 20
-27.02288818036182
 30
0.0
 10
-3.946053488442733
 20
-27.04462969791499
 30
0.0
 10
-3.999232986897778
 20
-27.05840996743877
 30
0.0
 10
-4.046493296801057
 20
-27.06915934436783
 30
0.0
 10
-4.076129149683028
 20
-27.0743026992044
 30
0.0
 10
-4.089556866799995
 20
-27.07600672329999
 30
0.0
 11
-3.478568207400002
 21
-26.92580636419998
 31
0.0
 11
-3.551878537100009
 21
-26.94138902009999
 31
0.0
 11
-3.624484092900019
 21
-26.958471981
 31
0.0
 11
-3.69525869680001
 21
-26.97637513839998
 31
0.0
 11
-3.763123374400009
 21
-26.99438929219999
 31
0.0
 11
-3.889717297800018
 21
-27.02915154979999
 31
0.0
 11
-3.947634352400001
 21
-27.04490986139998
 31
0.0
 11
-4.001136058000014
 21
-27.05860332709997
 31
0.0
 11
-4.049498263000003
 21
-27.06936038389997
 31
0.0
 11
-4.089556866799995
 21
-27.07600672329999
 31
0.0
  0
LINE
  5
736
330
1F
100
AcDbEntity
  8
1
100
AcDbLine
 10
-3.408984554100015
 20
-26.9120895517
 30
0.0
 11
-3.478568207400002
 21
-26.92580636419998
 31
0.0
  0
LINE
  5
737
330
1F
100
AcDbEntity
  8
1
100
AcDbLine
 10
-4.249656774700014
 20
-27.09637532709999
 30
0.0
 11
-4.1431151612
 21
-27.08280567149998
 31
0.0
  0
SPLINE
  5
738
330
1F
100
AcDbEntity
  8
1
100
AcDbSpline
210
0.0
220
0.0
230
1.0
 70
     8
 71
     3
 72
     8
 73
     4
 74
     2
 42
0.0000000001
 43
0.0000000001
 44
0.0000000001
 12
-0.9752621122771444
 22
0.2210516056415853
 32
0.0
 13
-0.9697260869851149
 23
0.2441952420104398
 33
0.0
 40
0.0
 40
0.0
 40
0.0
 40
0.0
 40
0.2108414997929437
 40
0.2108414997929437
 40
0.2108414997929437
 40
0.2108414997929437
 10
-6.053805910899995
 20
-22.05236760799999
 30
0.0
 10
-6.122347819714578
 20
-22.03683199064495
 30
0.0
 10
-6.190708787510564
 20
-22.02047578608924
 30
0.0
 10
-6.258861621699992
 20
-22.00331362239998
 30
0.0
 11
-6.053805910899995
 21
-22.05236760799999
 31
0.0
 11
-6.258861621699992
 21
-22.00331362239998
 31
0.0
  0
SPLINE
  5
739
330
1F
100
AcDbEntity
  8
1
100
AcDbSpline
210
0.0
220
0.0
230
1.0
 70
     8
 71
     3
 72
    13
 73
     9
 74
     7
 42
0.0000000001
 43
0.0000000001
 44
0.0000000001
 12
-0.969382615096576
 22
0.2455551782156584
 32
0.0
 13
-0.9034084588807717
 23
0.428781012199315
 33
0.0
 40
0.0
 40
0.0
 40
0.0
 40
0.0
 40
0.0578095175471105
 40
0.1114553101014605
 40
0.1364868433952779
 40
0.1601652761729292
 40
0.1823964039991157
 40
0.1900527136404643
 40
0.1900527136404643
 40
0.1900527136404643
 40
0.1900527136404643
 10
-6.048019787000015
 20
-22.0258063642
 30
0.0
 10
-6.066699634099111
 20
-22.02107455540539
 30
0.0
 10
-6.102502185635719
 20
-22.0110858209145
 30
0.0
 10
-6.145662084572727
 20
-21.99662805853924
 30
0.0
 10
-6.177559500332205
 20
-21.98450897928573
 30
0.0
 10
-6.199436184825056
 20
-21.97552415562096
 30
0.0
 10
-6.215761974781912
 20
-21.96828701308719
 30
0.0
 10
-6.224785560668737
 20
-21.96406454199923
 30
0.0
 10
-6.227091152300005
 20
-21.96297024859998
 30
0.0
 11
-6.048019787000015
 21
-22.0258063642
 31
0.0
 11
-6.103689537799994
 21
-22.0102237083
 31
0.0
 11
-6.154542694100001
 21
-21.99314074739999
 31
0.0
 11
-6.177939304600016
 21
-21.9842426422
 31
0.0
 11
-6.199838556000003
 21
-21.97523758989999
 31
0.0
 11
-6.220156778900019
 21
-21.96621579059998
 31
0.0
 11
-6.227091152300005
 21
-21.96297024859998
 31
0.0
  0
LWPOLYLINE
  5
73A
330
1F
100
AcDbEntity
  8
1
100
AcDbPolyline
 90
        5
 70
     0
 43
0.0
 10
-5.994563441400003
 20
-21.98566168779998
 10
-6.033134277599998
 20
-21.9704638485
 10
-6.060274568099998
 20
-21.96004722679998
 10
-6.082690330700017
 20
-21.95156582499998
 10
-6.146113205299997
 20
-21.92787211309999
  0
SPLINE
  5
73B
330
1F
100
AcDbEntity
  8
1
100
AcDbSpline
210
0.0
220
0.0
230
1.0
 70
     8
 71
     3
 72
    10
 73
     6
 74
     4
 42
0.0000000001
 43
0.0000000001
 44
0.0000000001
 12
-0.9697262989100476
 22
0.2441944004317488
 32
0.0
 13
-0.9683547092926938
 23
0.2495779577419898
 33
0.0
 40
0.0
 40
0.0
 40
0.0
 40
0.0
 40
0.0056456310240427
 40
0.0113068555565732
 40
0.0169831735850229
 40
0.0169831735850229
 40
0.0169831735850229
 40
0.0169831735850229
 10
-6.258861621699992
 20
-22.00331362239998
 30
0.0
 10
-6.260686527325978
 20
-22.00285407857232
 30
0.0
 10
-6.264340491571492
 20
-22.00193019324954
 30
0.0
 10
-6.269826219206714
 20
-22.00053219447378
 30
0.0
 10
-6.273486665635241
 20
-21.99959232295367
 30
0.0
 10
-6.275318895400005
 20
-21.99912009499999
 30
0.0
 11
-6.258861621699992
 21
-22.00331362239998
 31
0.0
 11
-6.264335018100013
 21
-22.00192975769999
 31
0.0
 11
-6.269820922900009
 21
-22.00053179069999
 31
0.0
 11
-6.275318895400005
 21
-21.99912009499999
 31
0.0
  0
SPLINE
  5
73C
330
1F
100
AcDbEntity
  8
1
100
AcDbSpline
210
0.0
220
0.0
230
1.0
 70
     8
 71
     3
 72
    12
 73
     8
 74
     6
 42
0.0000000001
 43
0.0000000001
 44
0.0000000001
 12
-0.9683538778727037
 22
0.2495811836034466
 32
0.0
 13
-0.0015017679589873
 23
0.9999988723458629
 33
0.0
 40
0.0
 40
0.0
 40
0.0
 40
0.0
 40
0.1162302144457399
 40
0.2108420377484589
 40
0.2786799880566882
 40
0.3182026420977845
 40
0.328083109141608
 40
0.328083109141608
 40
0.328083109141608
 40
0.328083109141608
 10
-6.275309466900012
 20
-21.99912009499999
 30
0.0
 10
-6.312826793194847
 20
-21.98945047016937
 30
0.0
 10
-6.379812447772804
 20
-21.9692917558043
 30
0.0
 10
-6.468287247579054
 20
-21.93652052772113
 30
0.0
 10
-6.524551065149016
 20
-21.90411660719184
 30
0.0
 10
-6.562176148338878
 20
-21.88272508315797
 30
0.0
 10
-6.565649998043728
 20
-21.86593582470066
 30
0.0
 10
-6.565654944100003
 20
-21.86264233939997
 30
0.0
 11
-6.275309466900012
 21
-21.99912009499999
 31
0.0
 11
-6.386666164800004
 21
-21.9658162126
 31
0.0
 11
-6.474643527400019
 21
-21.93101131669999
 31
0.0
 11
-6.534254183100017
 21
-21.8986298833
 31
0.0
 11
-6.563765270700002
 21
-21.87234041979999
 31
0.0
 11
-6.565654944100003
 21
-21.86264233939997
 31
0.0
  0
SPLINE
  5
73D
330
1F
100
AcDbEntity
  8
1
100
AcDbSpline
210
0.0
220
0.0
230
1.0
 70
     8
 71
     3
 72
    21
 73
    17
 74
    15
 42
0.0000000001
 43
0.0000000001
 44
0.0000000001
 12
-0.9034084589106942
 22
0.4287810121362702
 32
0.0
 13
0.995831795140775
 23
-0.0912087484110019
 33
0.0
 40
0.0
 40
0.0
 40
0.0
 40
0.0
 40
0.0131366902810309
 40
0.0504813856236051
 40
0.0819182740201027
 40
0.0953450397999028
 40
0.1071791342797835
 40
0.1173700799581287
 40
0.1258832017975792
 40
0.1327225730045689
 40
0.1379867151380519
 40
0.1419941131267622
 40
0.145548317826015
 40
0.149823885444895
 40
0.1556112588558602
 40
0.1589320170645924
 40
0.1589320170645924
 40
0.1589320170645924
 40
0.1589320170645924
 10
-6.227091152300005
 20
-21.96297024859998
 30
0.0
 10
-6.231047084673996
 20
-21.96109266081504
 30
0.0
 10
-6.246180949018146
 20
-21.95373483022263
 30
0.0
 10
-6.27027291539144
 20
-21.94084144121853
 30
0.0
 10
-6.293451681072411
 20
-21.92615032572445
 30
0.0
 10
-6.308579460993643
 20
-21.91480677266068
 30
0.0
 10
-6.31760716847844
 20
-21.90716908823497
 30
0.0
 10
-6.324899851945307
 20
-21.90005101014912
 30
0.0
 10
-6.330433182611748
 20
-21.89356150702914
 30
0.0
 10
-6.334194385279259
 20
-21.88776957895987
 30
0.0
 10
-6.336205259496241
 20
-21.88275359869636
 30
0.0
 10
-6.336382485971559
 20
-21.87828848219074
 30
0.0
 10
-6.333995028602739
 20
-21.8748111016007
 30
0.0
 10
-6.329589239331323
 20
-21.8731432791844
 30
0.0
 10
-6.325119389267934
 20
-21.87286351618217
 30
0.0
 10
-6.322085025636082
 20
-21.87303710216665
 30
0.0
 10
-6.320982720100005
 20
-21.87313806289998
 30
0.0
 11
-6.227091152300005
 21
-21.96297024859998
 31
0.0
 11
-6.238904144200006
 21
-21.95722343609998
 31
0.0
 11
-6.271764110800006
 21
-21.93947945499999
 31
0.0
 11
-6.298196216600018
 21
-21.92246117849998
 31
0.0
 11
-6.308917575999998
 21
-21.91437845049998
 31
0.0
 11
-6.317924862500007
 21
-21.90670286699997
 31
0.0
 11
-6.32517736310001
 21
-21.8995434949
 31
0.0
 11
-6.330634364500014
 21
-21.89300940129999
 31
0.0
 11
-6.334259072599991
 21
-21.88720953149999
 31
0.0
 11
-6.336030368300015
 21
-21.88225234439997
 31
0.0
 11
-6.335931051600027
 21
-21.87824617729998
 31
0.0
 11
-6.33394392240001
 21
-21.8752993674
 31
0.0
 11
-6.330059432599995
 21
-21.87351296949998
 31
0.0
 11
-6.324298642100018
 21
-21.8729589083
 31
0.0
 11
-6.320982720100005
 21
-21.87313806289998
 31
0.0
  0
SPLINE
  5
73E
330
1F
100
AcDbEntity
  8
1
100
AcDbSpline
210
0.0
220
0.0
230
1.0
 70
     8
 71
     3
 72
     9
 73
     5
 74
     3
 42
0.0000000001
 43
0.0000000001
 44
0.0000000001
 12
-0.0015017687314067
 22
0.999998872344703
 32
0.0
 13
0.9958278930356785
 23
-0.0912513421935337
 33
0.0
 40
0.0
 40
0.0
 40
0.0
 40
0.0
 40
0.0067680561553203
 40
0.0330312702858069
 40
0.0330312702858069
 40
0.0330312702858069
 40
0.0330312702858069
 10
-6.565654944100003
 20
-21.86264233939997
 30
0.0
 10
-6.565658332118372
 20
-21.86038632322554
 30
0.0
 10
-6.56300767674683
 20
-21.84827123900299
 30
0.0
 10
-6.546678222497309
 20
-21.85184542402008
 30
0.0
 10
-6.537960342100006
 20
-21.85264427519999
 30
0.0
 11
-6.565654944100003
 21
-21.86264233939997
 31
0.0
 11
-6.563997819600018
 21
-21.85608028769999
 31
0.0
 11
-6.537960342100006
 21
-21.85264427519999
 31
0.0
  0
LINE
  5
73F
330
1F
100
AcDbEntity
  8
1
100
AcDbLine
 10
-6.321005910899998
 20
-21.87313753519998
 30
0.0
 11
-6.53797506310002
 21
-21.85264427519999
 31
0.0
  0
LINE
  5
740
330
1F
100
AcDbEntity
  8
1
100
AcDbLine
 10
-6.320982866200012
 20
-21.8731396581
 30
0.0
 11
-6.307263005800024
 21
-21.8758063642
 31
0.0
  0
LINE
  5
741
330
1F
100
AcDbEntity
  8
1
100
AcDbLine
 10
-6.307263005800024
 20
-21.8758063642
 30
0.0
 11
-6.146164847300013
 21
-21.92792520669999
 31
0.0
  0
SPLINE
  5
742
330
1F
100
AcDbEntity
  8
1
100
AcDbSpline
210
0.0
220
0.0
230
1.0
 70
     8
 71
     3
 72
     8
 73
     4
 74
     2
 42
0.0000000001
 43
0.0000000001
 44
0.0000000001
 12
0.9938667422580714
 22
-0.1105843507614367
 32
0.0
 13
0.9955010842321417
 23
-0.0947501519398806
 33
0.0
 40
0.0
 40
0.0
 40
0.0
 40
0.0
 40
0.1461182486260389
 40
0.1461182486260389
 40
0.1461182486260389
 40
0.1461182486260389
 10
-5.100375394499991
 20
-22.2136021268
 30
0.0
 10
-5.051968038584519
 20
-22.2189882573529
 30
0.0
 10
-5.003516736611109
 20
-22.22399369774715
 30
0.0
 10
-4.955029778300001
 20
-22.22860860649999
 30
0.0
 11
-5.100375394499991
 21
-22.2136021268
 31
0.0
 11
-4.955029778300001
 21
-22.22860860649999
 31
0.0
  0
SPLINE
  5
743
330
1F
100
AcDbEntity
  8
1
100
AcDbSpline
210
0.0
220
0.0
230
1.0
 70
     8
 71
     3
 72
     8
 73
     4
 74
     2
 42
0.0000000001
 43
0.0000000001
 44
0.0000000001
 12
0.9933679755850711
 22
-0.1149785418328918
 32
0.0
 13
0.9938667424047174
 23
-0.1105843494434693
 33
0.0
 40
0.0
 40
0.0
 40
0.0
 40
0.0
 40
0.0411996688551544
 40
0.0411996688551544
 40
0.0411996688551544
 40
0.0411996688551544
 10
-5.1413121896
 20
-22.20895545909999
 30
0.0
 10
-5.127670045718193
 20
-22.21053448504965
 30
0.0
 10
-5.114024388057733
 20
-22.21208344727412
 30
0.0
 10
-5.100375394499991
 20
-22.2136021268
 30
0.0
 11
-5.1413121896
 21
-22.20895545909999
 31
0.0
 11
-5.100375394499991
 21
-22.2136021268
 31
0.0
  0
SPLINE
  5
744
330
1F
100
AcDbEntity
  8
1
100
AcDbSpline
210
0.0
220
0.0
230
1.0
 70
     8
 71
     3
 72
    15
 73
    11
 74
     9
 42
0.0000000001
 43
0.0000000001
 44
0.0000000001
 12
0.8635826696423723
 22
0.504207271559379
 32
0.0
 13
0.9971998586368684
 23
-0.074782631236203
 33
0.0
 40
0.0
 40
0.0
 40
0.0
 40
0.0
 40
0.0325196130596805
 40
0.0716424266455115
 40
0.11658753158667
 40
0.1665462598010502
 40
0.280856810551852
 40
0.41200000934634
 40
0.5548154448130127
 40
0.7035582130768982
 40
0.7035582130768982
 40
0.7035582130768982
 40
0.7035582130768982
 10
-4.157275765400015
 20
-22.0258063642
 30
0.0
 10
-4.147914640646076
 20
-22.02034082240901
 30
0.0
 10
-4.126897029722766
 20
-22.00897436571016
 30
0.0
 10
-4.091892359613994
 20
-21.99207027928413
 30
0.0
 10
-4.050887011662689
 20
-21.97430350906991
 30
0.0
 10
-3.985798718772294
 20
-21.94921834477045
 30
0.0
 10
-3.891834846025923
 20
-21.91942073070082
 30
0.0
 10
-3.765619393462201
 20
-21.89004879891317
 30
0.0
 10
-3.625581658594817
 20
-21.87206131564697
 30
0.0
 10
-3.528010296562003
 20
-21.87209857233729
 30
0.0
 10
-3.478568207400002
 20
-21.8758063642
 30
0.0
 11
-4.157275765400015
 21
-22.0258063642
 31
0.0
 11
-4.128732709000018
 21
-22.0102237083
 31
0.0
 11
-4.09353658720002
 21
-21.99314074739999
 31
0.0
 11
-4.052311116800012
 21
-21.97523758989999
 31
0.0
 11
-4.005713211400006
 21
-21.95722343609998
 31
0.0
 11
-3.896816528900018
 21
-21.92246117849998
 31
0.0
 11
-3.769023213699995
 21
-21.89300940129999
 31
0.0
 11
-3.627310111600024
 21
-21.8752993674
 31
0.0
 11
-3.478568207400002
 21
-21.8758063642
 31
0.0
  0
SPLINE
  5
745
330
1F
100
AcDbEntity
  8
1
100
AcDbSpline
210
0.0
220
0.0
230
1.0
 70
     8
 71
     3
 72
    10
 73
     6
 74
     4
 42
0.0000000001
 43
0.0000000001
 44
0.0000000001
 12
-0.9882201855364122
 22
0.1530387692657621
 32
0.0
 13
-0.9752621122336188
 23
0.2210516058336162
 33
0.0
 40
0.0
 40
0.0
 40
0.0
 40
0.0
 40
0.0591566947774863
 40
0.4380413705634166
 40
0.6075422860318096
 40
0.6075422860318096
 40
0.6075422860318096
 40
0.6075422860318096
 10
-5.457087025500015
 20
-22.16605893859997
 30
0.0
 10
-5.476573638796258
 20
-22.16304118267911
 30
0.0
 10
-5.620790210452216
 20
-22.1402057951612
 30
0.0
 10
-5.820042211907171
 20
-22.10355102105777
 30
0.0
 10
-5.998703303951583
 20
-22.06485709118485
 30
0.0
 10
-6.053805910899995
 20
-22.05236760799999
 30
0.0
 11
-5.457087025500015
 21
-22.16605893859997
 31
0.0
 11
-5.515515895199996
 21
-22.15680789959998
 31
0.0
 11
-5.8881446659
 21
-22.08824116719998
 31
0.0
 11
-6.053805910899995
 21
-22.05236760799999
 31
0.0
  0
SPLINE
  5
746
330
1F
100
AcDbEntity
  8
1
100
AcDbSpline
210
0.0
220
0.0
230
1.0
 70
     8
 71
     3
 72
     8
 73
     4
 74
     2
 42
0.0000000001
 43
0.0000000001
 44
0.0000000001
 12
-0.9932727847719158
 22
0.115797992346342
 32
0.0
 13
-0.9882201855252302
 23
0.1530387693379674
 33
0.0
 40
0.0
 40
0.0
 40
0.0
 40
0.0
 40
0.3186751613456725
 40
0.3186751613456725
 40
0.3186751613456725
 40
0.3186751613456725
 10
-5.1413121896
 20
-22.20895545909999
 30
0.0
 10
-5.246822644582485
 20
-22.19665481113517
 30
0.0
 10
-5.352113283144248
 20
-22.18231549010361
 30
0.0
 10
-5.457087025500015
 20
-22.16605893859997
 30
0.0
 11
-5.1413121896
 21
-22.20895545909999
 31
0.0
 11
-5.457087025500015
 21
-22.16605893859997
 31
0.0
  0
SPLINE
  5
747
330
1F
100
AcDbEntity
  8
1
100
AcDbSpline
210
0.0
220
0.0
230
1.0
 70
     8
 71
     3
 72
     8
 73
     4
 74
     2
 42
0.0000000001
 43
0.0000000001
 44
0.0000000001
 12
0.9955010839384334
 22
-0.0947501550257529
 32
0.0
 13
0.9956589218687696
 23
-0.0930769106874495
 33
0.0
 40
0.0
 40
0.0
 40
0.0
 40
0.0
 40
0.0152325092765618
 40
0.0152325092765618
 40
0.0152325092765618
 40
0.0152325092765618
 10
-4.955029778300001
 20
-22.22860860649999
 30
0.0
 10
-4.949975118468028
 20
-22.22908970070511
 30
0.0
 10
-4.94492005305454
 20
-22.22956655259815
 30
0.0
 10
-4.939864591799988
 20
-22.23003915089998
 30
0.0
 11
-4.955029778300001
 21
-22.22860860649999
 31
0.0
 11
-4.939864591799988
 21
-22.23003915089998
 31
0.0
  0
SPLINE
  5
748
330
1F
100
AcDbEntity
  8
1
100
AcDbSpline
210
0.0
220
0.0
230
1.0
 70
     8
 71
     3
 72
     8
 73
     4
 74
     2
 42
0.0000000001
 43
0.0000000001
 44
0.0000000001
 12
-0.9839761977028073
 22
0.1782998663889734
 32
0.0
 13
-0.9693830440927236
 23
0.245553484653598
 33
0.0
 40
0.0
 40
0.0
 40
0.0
 40
0.0
 40
0.6064828996763419
 40
0.6064828996763419
 40
0.6064828996763419
 40
0.6064828996763419
 10
-5.455339485600006
 20
-22.15445926129999
 30
0.0
 10
-5.65426106479844
 20
-22.11841398797349
 30
0.0
 10
-5.852048373840537
 20
-22.07544769399945
 30
0.0
 10
-6.048019787000015
 20
-22.0258063642
 30
0.0
 11
-5.455339485600006
 21
-22.15445926129999
 31
0.0
 11
-6.048019787000015
 21
-22.0258063642
 31
0.0
  0
SPLINE
  5
749
330
1F
100
AcDbEntity
  8
1
100
AcDbSpline
210
0.0
220
0.0
230
1.0
 70
     8
 71
     3
 72
    10
 73
     6
 74
     4
 42
0.0000000001
 43
0.0000000001
 44
0.0000000001
 12
-0.9992472933773738
 22
0.0387923533443452
 32
0.0
 13
-0.9996807866173494
 23
0.0252650918881692
 33
0.0
 40
0.0
 40
0.0
 40
0.0
 40
0.0
 40
0.0069366419754534
 40
0.013897665370508
 40
0.020882726333385
 40
0.020882726333385
 40
0.020882726333385
 40
0.020882726333385
 10
-3.594761975200015
 20
-21.85331362239998
 30
0.0
 10
-3.597072448773048
 20
-21.8532239261778
 30
0.0
 10
-3.601701931714981
 20
-21.8530547087813
 30
0.0
 10
-3.608659293821947
 20
-21.85283192367152
 30
0.0
 10
-3.613306222587357
 20
-21.85270310126901
 30
0.0
 10
-3.615633833000003
 20
-21.85264427519999
 30
0.0
 11
-3.594761975200015
 21
-21.85331362239998
 31
0.0
 11
-3.601693987300023
 21
-21.85306022520001
 31
0.0
 11
-3.608651435500007
 21
-21.85283715289997
 31
0.0
 11
-3.615633833000003
 21
-21.85264427519999
 31
0.0
  0
SPLINE
  5
74A
330
1F
100
AcDbEntity
  8
1
100
AcDbSpline
210
0.0
220
0.0
230
1.0
 70
     8
 71
     3
 72
    10
 73
     6
 74
     4
 42
0.0000000001
 43
0.0000000001
 44
0.0000000001
 12
-0.9930170640790112
 22
0.1179708033705837
 32
0.0
 13
-0.99924725149652
 23
0.038793432132911
 33
0.0
 40
0.0
 40
0.0
 40
0.0
 40
0.0
 40
0.4936969272664044
 40
0.9651971056145656
 40
1.42237294998719
 40
1.42237294998719
 40
1.42237294998719
 40
1.42237294998719
 10
-2.177435313000017
 20
-21.96887488679999
 30
0.0
 10
-2.340851804086322
 20
-21.94946094575626
 30
0.0
 10
-2.660750747004346
 20
-21.91484992247941
 30
0.0
 10
-3.133310559413688
 20
-21.87568573375723
 30
0.0
 10
-3.442484739886699
 20
-21.85922542909714
 30
0.0
 10
-3.594761975200015
 20
-21.85331362239998
 30
0.0
 11
-2.177435313000017
 21
-21.96887488679999
 31
0.0
 11
-2.66830942140001
 21
-21.91615614539998
 31
0.0
 11
-3.138233777300001
 21
-21.87763968249999
 31
0.0
 11
-3.594761975200015
 21
-21.85331362239998
 31
0.0
  0
SPLINE
  5
74B
330
1F
100
AcDbEntity
  8
1
100
AcDbSpline
210
0.0
220
0.0
230
1.0
 70
     8
 71
     3
 72
    13
 73
     9
 74
     7
 42
0.0000000001
 43
0.0000000001
 44
0.0000000001
 12
0.8598406393329931
 22
0.5105625083683976
 32
0.0
 13
0.9996808285011685
 23
-0.0252634345887051
 33
0.0
 40
0.0
 40
0.0
 40
0.0
 40
0.0
 40
0.0750489758980009
 40
0.1759248185717685
 40
0.2968328409292906
 40
0.4308572517391713
 40
0.5706158473590469
 40
0.7096297827696629
 40
0.7096297827696629
 40
0.7096297827696629
 40
0.7096297827696629
 10
-4.303262216799993
 20
-21.99912009499999
 30
0.0
 10
-4.281752163660851
 20
-21.986347697205
 30
0.0
 10
-4.228571713860271
 20
-21.96114554936913
 30
0.0
 10
-4.135397880534104
 20
-21.92762373574175
 30
0.0
 10
-4.02092261095602
 20
-21.89616834011421
 30
0.0
 10
-3.891820200108845
 20
-21.87023692740567
 30
0.0
 10
-3.755023690895557
 20
-21.85398033926418
 30
0.0
 10
-3.661956487008189
 20
-21.85147361871194
 30
0.0
 10
-3.615633298300025
 20
-21.85264427519999
 30
0.0
 11
-4.303262216799993
 21
-21.99912009499999
 31
0.0
 11
-4.236007475700006
 21
-21.9658162126
 31
0.0
 11
-4.141326142499991
 21
-21.93101131669999
 31
0.0
 11
-4.024834972700006
 21
-21.8986298833
 31
0.0
 11
-3.893414248300018
 21
-21.87234041979999
 31
0.0
 11
-3.754604763200006
 21
-21.85608028769999
 31
0.0
 11
-3.615633298300025
 21
-21.85264427519999
 31
0.0
  0
SPLINE
  5
74C
330
1F
100
AcDbEntity
  8
1
100
AcDbSpline
210
0.0
220
0.0
230
1.0
 70
     8
 71
     3
 72
    10
 73
     6
 74
     4
 42
0.0000000001
 43
0.0000000001
 44
0.0000000001
 12
0.8649614866101019
 22
0.5018382475272709
 32
0.0
 13
0.859829661574359
 23
0.5105809956088489
 33
0.0
 40
0.0
 40
0.0
 40
0.0
 40
0.0
 40
0.0027492977491876
 40
0.0055104011995156
 40
0.0082829876455569
 40
0.0082829876455569
 40
0.0082829876455569
 40
0.0082829876455569
 10
-4.310419554399999
 20
-22.00331362239998
 30
0.0
 10
-4.309626875510575
 20
-22.00285372147852
 30
0.0
 10
-4.308039744817294
 20
-22.00192913055937
 30
0.0
 10
-4.305658824606114
 20
-22.00053115249647
 30
0.0
 10
-4.304071257988534
 20
-21.99959197164933
 30
0.0
 10
-4.303276607300006
 20
-21.99912009499999
 30
0.0
 11
-4.310419554399999
 21
-22.00331362239998
 31
0.0
 11
-4.308043937299999
 21
-22.00192975769999
 31
0.0
 11
-4.3056628912
 21
-22.00053179069999
 31
0.0
 11
-4.303276607300006
 21
-21.99912009499999
 31
0.0
  0
SPLINE
  5
74D
330
1F
100
AcDbEntity
  8
1
100
AcDbSpline
210
0.0
220
0.0
230
1.0
 70
     8
 71
     3
 72
    10
 73
     6
 74
     4
 42
0.0000000001
 43
0.0000000001
 44
0.0000000001
 12
0.9657674767376603
 22
0.2594092921924209
 32
0.0
 13
0.8649606885804722
 23
0.5018396229976219
 33
0.0
 40
0.0
 40
0.0
 40
0.0
 40
0.0
 40
0.1705818891984917
 40
0.3462481428437379
 40
0.5281882617300698
 40
0.5281882617300698
 40
0.5281882617300698
 40
0.5281882617300698
 10
-4.795469301800011
 20
-22.20895545909999
 30
0.0
 10
-4.74055515489722
 20
-22.19420528338738
 30
0.0
 10
-4.630544055618581
 20
-22.15862714369872
 30
0.0
 10
-4.468346888062812
 20
-22.08963642957454
 30
0.0
 10
-4.362876571237443
 20
-22.03374854262333
 30
0.0
 10
-4.310419554399999
 20
-22.00331362239998
 30
0.0
 11
-4.795469301800011
 21
-22.20895545909999
 31
0.0
 11
-4.633053745400019
 21
-22.15680789959998
 31
0.0
 11
-4.471321757600009
 21
-22.08824116719998
 31
0.0
 11
-4.310419554399999
 21
-22.00331362239998
 31
0.0
  0
SPLINE
  5
74E
330
1F
100
AcDbEntity
  8
1
100
AcDbSpline
210
0.0
220
0.0
230
1.0
 70
     8
 71
     3
 72
     8
 73
     4
 74
     2
 42
0.0000000001
 43
0.0000000001
 44
0.0000000001
 12
-0.9570251706805951
 22
-0.290004866655334
 32
0.0
 13
-0.9745704651283704
 23
-0.2240812542348683
 33
0.0
 40
0.0
 40
0.0
 40
0.0
 40
0.0
 40
0.0995571051093964
 40
0.0995571051093964
 40
0.0995571051093964
 40
0.0995571051093964
 10
-4.795469301800011
 20
-22.20895545909999
 30
0.0
 10
-4.827228853636606
 20
-22.21857947409727
 30
0.0
 10
-4.859323861455565
 20
-22.22716827173969
 30
0.0
 10
-4.891665666199997
 20
-22.23460456539999
 30
0.0
 11
-4.795469301800011
 21
-22.20895545909999
 31
0.0
 11
-4.891665666199997
 21
-22.23460456539999
 31
0.0
  0
LWPOLYLINE
  5
74F
330
1F
100
AcDbEntity
  8
1
100
AcDbPolyline
 90
        4
 70
     0
 43
0.0
 10
-5.135221694800009
 20
-22.20618163779997
 10
-5.244726983700019
 20
-22.1897594941
 10
-5.398649249199991
 20
-22.16434089539998
 10
-5.45533173519999
 20
-22.15427798829998
  0
LINE
  5
750
330
1F
100
AcDbEntity
  8
1
100
AcDbLine
 10
-5.100129148900009
 20
-22.21128488109997
 30
0.0
 11
-5.135215865500015
 21
-22.2063405138
 31
0.0
  0
LWPOLYLINE
  5
751
330
1F
100
AcDbEntity
  8
1
100
AcDbPolyline
 90
        5
 70
     0
 43
0.0
 10
-5.721220976000012
 20
-22.09832501829998
 10
-5.7246078302
 20
-22.09703613029998
 10
-5.764725058599992
 20
-22.0814623976
 10
-5.793835625300005
 20
-22.06987198289999
 10
-5.827709223200002
 20
-22.05596580129997
  0
LWPOLYLINE
  5
752
330
1F
100
AcDbEntity
  8
1
100
AcDbPolyline
 90
        3
 70
     0
 43
0.0
 10
-5.827709223200002
 20
-22.05596580129997
 10
-5.947078251300013
 20
-22.00511583369999
 10
-5.994563441400003
 20
-21.98566168779998
  0
LINE
  5
753
330
1F
100
AcDbEntity
  8
4
100
AcDbLine
 10
0.0
 20
-27.6258063642
 30
0.0
 11
0.0
 21
-21.32580636419999
 31
0.0
  0
LINE
  5
754
330
1F
100
AcDbEntity
  8
1
100
AcDbLine
 10
5.141680635599982
 20
-26.74265726929999
 30
0.0
 11
5.141680635599982
 21
-21.96887488679999
 31
0.0
  0
LINE
  5
755
330
1F
100
AcDbEntity
  8
1
100
AcDbLine
 10
1.618218211699996
 20
-26.98273784149998
 30
0.0
 11
1.618218211699996
 21
-22.20895545909999
 31
0.0
  0
LINE
  5
756
330
1F
100
AcDbEntity
  8
1
100
AcDbLine
 10
-1.617849765700015
 20
-21.96887488679999
 30
0.0
 11
-1.617849765700015
 21
-26.74265726929999
 31
0.0
  0
SPLINE
  5
757
330
1F
100
AcDbEntity
  8
1
100
AcDbSpline
210
0.0
220
0.0
230
1.0
 70
     8
 71
     3
 72
    13
 73
     9
 74
     7
 42
0.0000000001
 43
0.0000000001
 44
0.0000000001
 12
0.9880323100107027
 22
0.1542470562925414
 32
0.0
 13
0.9956588853395739
 23
-0.0930773014453971
 33
0.0
 40
0.0
 40
0.0
 40
0.0
 40
0.0
 40
0.7196584392196089
 40
1.368025899996783
 40
1.938388356506574
 40
2.468999613261234
 40
3.001512989601102
 40
3.344159702731378
 40
3.344159702731378
 40
3.344159702731378
 40
3.344159702731378
 10
1.618218211699996
 20
-26.98273784149998
 30
0.0
 10
1.855233475073612
 20
-26.94573610957141
 30
0.0
 10
2.304163675426212
 20
-26.86562121695644
 30
0.0
 10
2.942087628939501
 20
-26.76215923421463
 30
0.0
 10
3.52230901348896
 20
-26.70031938321164
 30
0.0
 10
4.066736156336961
 20
-26.67836670793048
 30
0.0
 10
4.535522222547577
 20
-26.68928422356348
 30
0.0
 10
4.826513287446467
 20
-26.71094265026421
 30
0.0
 10
4.940233035599987
 20
-26.72157352739998
 30
0.0
 11
1.618218211699996
 21
-26.98273784149998
 31
0.0
 11
2.3279147211
 21
-26.86341000029997
 31
0.0
 11
2.968648936899995
 21
-26.76421308049998
 31
0.0
 11
3.535969828299982
 21
-26.70538844299997
 31
0.0
 11
4.066150162700012
 21
-26.68400810599999
 31
0.0
 11
4.598522548600016
 21
-26.69626121629997
 31
0.0
 11
4.940233035599987
 21
-26.72157352739998
 31
0.0
  0
SPLINE
  5
758
330
1F
100
AcDbEntity
  8
1
100
AcDbSpline
210
0.0
220
0.0
230
1.0
 70
     8
 71
     3
 72
     8
 73
     4
 74
     2
 42
0.0000000001
 43
0.0000000001
 44
0.0000000001
 12
0.9908878033811827
 22
-0.1346898701106168
 32
0.0
 13
0.9921183240235363
 23
-0.1253045535354947
 33
0.0
 40
0.0
 40
0.0
 40
0.0
 40
0.0
 40
0.312314966578258
 40
0.312314966578258
 40
0.312314966578258
 40
0.312314966578258
 10
1.868159761100002
 20
-26.94197961639997
 30
0.0
 10
1.971316124831935
 20
-26.95600150382732
 30
0.0
 10
2.074519291930275
 20
-26.96969301235013
 30
0.0
 10
2.177803758999971
 20
-26.98273784149998
 30
0.0
 11
1.868159761100002
 21
-26.94197961639997
 31
0.0
 11
2.177803758999971
 21
-26.98273784149998
 31
0.0
  0
SPLINE
  5
759
330
1F
100
AcDbEntity
  8
1
100
AcDbSpline
210
0.0
220
0.0
230
1.0
 70
     8
 71
     3
 72
    10
 73
     6
 74
     4
 42
0.0000000001
 43
0.0000000001
 44
0.0000000001
 12
-0.9725290391733221
 22
0.2327815885430272
 32
0.0
 13
-0.9939162200469402
 23
0.1101387648723296
 33
0.0
 40
0.0
 40
0.0
 40
0.0
 40
0.0
 40
0.3992371275551192
 40
0.7971934980773197
 40
1.194262577283944
 40
1.194262577283944
 40
1.194262577283944
 40
1.194262577283944
 10
-0.4421164853000051
 20
-26.94829910589999
 30
0.0
 10
-0.5715397186545041
 20
-26.91732075498078
 30
0.0
 10
-0.8312695894826969
 20
-26.86073647012936
 30
0.0
 10
-1.223507010593231
 20
-26.79215948211632
 30
0.0
 10
-1.486298632932492
 20
-26.75723483528427
 30
0.0
 10
-1.617849765700015
 20
-26.74265726929999
 30
0.0
 11
-0.4421164853000051
 21
-26.94829910589999
 31
0.0
 11
-0.8322126113000081
 21
-26.86335620449998
 31
0.0
 11
-1.224218759000024
 21
-26.79479635469999
 31
0.0
 11
-1.617849765700015
 21
-26.74265726929999
 31
0.0
  0
SPLINE
  5
75A
330
1F
100
AcDbEntity
  8
1
100
AcDbSpline
210
0.0
220
0.0
230
1.0
 70
     8
 71
     3
 72
    10
 73
     6
 74
     4
 42
0.0000000001
 43
0.0000000001
 44
0.0000000001
 12
-0.9712790172501243
 22
0.2379434190088737
 32
0.0
 13
-0.9725292329092876
 23
0.2327807791396717
 33
0.0
 40
0.0
 40
0.0
 40
0.0
 40
0.0
 40
0.005953985937253
 40
0.0118923998716057
 40
0.0178147256204931
 40
0.0178147256204931
 40
0.0178147256204931
 40
0.0178147256204931
 10
-0.4248023835999959
 20
-26.95249263329998
 30
0.0
 10
-0.4267300441366146
 20
-26.9520203960431
 30
0.0
 10
-0.4305811450100082
 20
-26.95108050587611
 30
0.0
 10
-0.4363524833536336
 20
-26.9496825063724
 30
0.0
 10
-0.4401966069941369
 20
-26.94875864043404
 30
0.0
 10
-0.4421164853000051
 20
-26.94829910589999
 30
0.0
 11
-0.4248023835999959
 21
-26.95249263329998
 31
0.0
 11
-0.430586592300017
 21
-26.95108093989998
 31
0.0
 11
-0.4363581128000078
 21
-26.94968297309998
 31
0.0
 11
-0.4421164853000051
 21
-26.94829910589999
 31
0.0
  0
SPLINE
  5
75B
330
1F
100
AcDbEntity
  8
1
100
AcDbSpline
210
0.0
220
0.0
230
1.0
 70
     8
 71
     3
 72
    13
 73
     9
 74
     7
 42
0.0000000001
 43
0.0000000001
 44
0.0000000001
 12
0.9712796831445588
 22
-0.2379407008281802
 32
0.0
 13
0.9995362955779057
 23
0.030449857510299
 33
0.0
 40
0.0
 40
0.0
 40
0.0
 40
0.0
 40
0.1400931442583017
 40
0.2931571018503177
 40
0.449871611984178
 40
0.6018226753645237
 40
0.74172401895063
 40
0.8646514681652547
 40
0.8646514681652547
 40
0.8646514681652547
 40
0.8646514681652547
 10
-0.4247938203000104
 20
-26.95249263329998
 30
0.0
 10
-0.3794372787113676
 20
-26.96360392027532
 30
0.0
 10
-0.2845845311068351
 20
-26.98709861427378
 30
0.0
 10
-0.1385926953648922
 20
-27.02138857755188
 30
0.0
 10
0.0119484126272891
 20
-27.05347539409229
 30
0.0
 10
0.1591484375139486
 20
-27.0800044968562
 30
0.0
 10
0.2964512306078408
 20
-27.09696022781099
 30
0.0
 10
0.384205450562383
 20
-27.10021616087088
 30
0.0
 10
0.4251622662999921
 20
-27.09896845309998
 30
0.0
 11
-0.4247938203000104
 21
-26.95249263329998
 31
0.0
 11
-0.2887168549999899
 21
-26.9857965157
 31
0.0
 11
-0.1396625215000142
 21
-27.02060141159998
 31
0.0
 11
0.0136700596999901
 21
-27.052982845
 31
0.0
 11
0.1633296392999739
 21
-27.07927230859997
 31
0.0
 11
0.3022828473999937
 21
-27.09553244069999
 31
0.0
 11
0.4251622662999921
 21
-27.09896845309998
 31
0.0
  0
SPLINE
  5
75C
330
1F
100
AcDbEntity
  8
1
100
AcDbSpline
210
0.0
220
0.0
230
1.0
 70
     8
 71
     3
 72
    10
 73
     6
 74
     4
 42
0.0000000001
 43
0.0000000001
 44
0.0000000001
 12
0.9995362230116274
 22
0.0304522394521409
 32
0.0
 13
0.9989067338736374
 23
0.0467475884073423
 33
0.0
 40
0.0
 40
0.0
 40
0.0
 40
0.0
 40
0.0057953961726034
 40
0.0115712059057752
 40
0.0173272019114626
 40
0.0173272019114626
 40
0.0173272019114626
 40
0.0173272019114626
 10
0.4251708296000061
 20
-27.09896845309998
 30
0.0
 10
0.4271017324004128
 20
-27.09890962550266
 30
0.0
 10
0.4309566722244919
 20
-27.09878079883877
 30
0.0
 10
0.4367281311677523
 20
-27.09855801166889
 30
0.0
 10
0.4405683635765766
 20
-27.09838879887738
 30
0.0
 10
0.4424849312999868
 20
-27.09829910589999
 30
0.0
 11
0.4251708296000061
 21
-27.09896845309998
 31
0.0
 11
0.4309630152999944
 21
-27.09877557589999
 31
0.0
 11
0.4367345157000102
 21
-27.09855250369997
 31
0.0
 11
0.4424849312999868
 21
-27.09829910589999
 31
0.0
  0
SPLINE
  5
75D
330
1F
100
AcDbEntity
  8
1
100
AcDbSpline
210
0.0
220
0.0
230
1.0
 70
     8
 71
     3
 72
    10
 73
     6
 74
     4
 42
0.0000000001
 43
0.0000000001
 44
0.0000000001
 12
0.9989066729675545
 22
0.0467488898359215
 32
0.0
 13
0.9899002756691571
 23
0.1417654549956611
 33
0.0
 40
0.0
 40
0.0
 40
0.0
 40
0.0
 40
0.3794984004682553
 40
0.7712212799732356
 40
1.181810410700728
 40
1.181810410700728
 40
1.181810410700728
 40
1.181810410700728
 10
0.4424849312999868
 20
-27.09829910589999
 30
0.0
 10
0.5688460928360712
 20
-27.09238539626119
 30
0.0
 10
0.8254559324889957
 20
-27.07591291622694
 30
0.0
 10
1.21750705107107
 20
-27.03673739414907
 30
0.0
 10
1.482737447135361
 20
-27.0021402931446
 30
0.0
 10
1.618218211699996
 20
-26.98273784149998
 30
0.0
 11
0.4424849312999868
 21
-27.09829910589999
 31
0.0
 11
0.8212028291999899
 21
-27.07397237639998
 31
0.0
 11
1.211027477000016
 21
-27.03545538930001
 31
0.0
 11
1.618218211699996
 21
-26.98273784149998
 31
0.0
  0
SPLINE
  5
75E
330
1F
100
AcDbEntity
  8
1
100
AcDbSpline
210
0.0
220
0.0
230
1.0
 70
     8
 71
     3
 72
    15
 73
    11
 74
     9
 42
0.0000000001
 43
0.0000000001
 44
0.0000000001
 12
-0.8635826696423723
 22
-0.504207271559379
 32
0.0
 13
-0.9971998586368684
 23
0.074782631236203
 33
0.0
 40
0.0
 40
0.0
 40
0.0
 40
0.0
 40
0.0325196130596805
 40
0.0716424266455115
 40
0.1165875315468302
 40
0.1665462597612104
 40
0.2808568105120393
 40
0.4120000093289545
 40
0.5548154447832598
 40
0.7035582130467476
 40
0.7035582130467476
 40
0.7035582130467476
 40
0.7035582130467476
 10
4.157644211399997
 20
-26.92580636419998
 30
0.0
 10
4.148283086646058
 20
-26.93127190599098
 30
0.0
 10
4.127265475720215
 20
-26.94263836268397
 30
0.0
 10
4.092260805637438
 20
-26.95954244913663
 30
0.0
 10
4.051255457635319
 20
-26.97730921920005
 30
0.0
 10
3.986167164783381
 20
-27.00239438355736
 30
0.0
 10
3.892203292006514
 20
-27.0321919975509
 30
0.0
 10
3.765987839488112
 20
-27.06156392957133
 30
0.0
 10
3.625950104582647
 20
-27.07955141255474
 30
0.0
 10
3.528378742561881
 20
-27.07951415606268
 30
0.0
 10
3.478936653400012
 20
-27.07580636419999
 30
0.0
 11
4.157644211399997
 21
-26.92580636419998
 31
0.0
 11
4.129101155
 21
-26.94138902009999
 31
0.0
 11
4.093905033200002
 21
-26.958471981
 31
0.0
 11
4.052679562799994
 21
-26.97637513839998
 31
0.0
 11
4.006081657399988
 21
-26.99438929219999
 31
0.0
 11
3.897184974899971
 21
-27.02915154979999
 31
0.0
 11
3.769391659699977
 21
-27.05860332709997
 31
0.0
 11
3.627678557599978
 21
-27.0763133609
 31
0.0
 11
3.478936653400012
 21
-27.07580636419999
 31
0.0
  0
SPLINE
  5
75F
330
1F
100
AcDbEntity
  8
1
100
AcDbSpline
210
0.0
220
0.0
230
1.0
 70
     8
 71
     3
 72
     8
 73
     4
 74
     2
 42
0.0000000001
 43
0.0000000001
 44
0.0000000001
 12
0.9938667283232476
 22
-0.1105844759993201
 32
0.0
 13
0.9933679754335873
 23
-0.1149785431416496
 33
0.0
 40
0.0
 40
0.0
 40
0.0
 40
0.0
 40
0.041199664941366
 40
0.041199664941366
 40
0.041199664941366
 40
0.041199664941366
 10
5.100743844699962
 20
-26.73801059929999
 30
0.0
 10
5.114392836767725
 20
-26.73952928041963
 30
0.0
 10
5.1280384930162
 20
-26.74107824348237
 30
0.0
 10
5.141680635599982
 20
-26.74265726929999
 30
0.0
 11
5.100743844699962
 21
-26.73801059929999
 31
0.0
 11
5.141680635599982
 21
-26.74265726929999
 31
0.0
  0
SPLINE
  5
760
330
1F
100
AcDbEntity
  8
1
100
AcDbSpline
210
0.0
220
0.0
230
1.0
 70
     8
 71
     3
 72
     8
 73
     4
 74
     2
 42
0.0000000001
 43
0.0000000001
 44
0.0000000001
 12
0.9955010478817754
 22
-0.0947505338575303
 32
0.0
 13
0.9938667282459757
 23
-0.1105844766937919
 33
0.0
 40
0.0
 40
0.0
 40
0.0
 40
0.0
 40
0.1461182663302343
 40
0.1461182663302343
 40
0.1461182663302343
 40
0.1461182663302343
 10
4.95539821509999
 20
-26.72300407699998
 30
0.0
 10
5.003885177515462
 20
-26.72761900491369
 30
0.0
 10
5.052336483601761
 20
-26.73262446196082
 30
0.0
 10
5.100743844699962
 20
-26.73801059929999
 30
0.0
 11
4.95539821509999
 21
-26.72300407699998
 31
0.0
 11
5.100743844699962
 21
-26.73801059929999
 31
0.0
  0
SPLINE
  5
761
330
1F
100
AcDbEntity
  8
1
100
AcDbSpline
210
0.0
220
0.0
230
1.0
 70
     8
 71
     3
 72
     8
 73
     4
 74
     2
 42
0.0000000001
 43
0.0000000001
 44
0.0000000001
 12
-0.9882201881459579
 22
0.1530387524150919
 32
0.0
 13
-0.9932727847814282
 23
0.1157979922647482
 33
0.0
 40
0.0
 40
0.0
 40
0.0
 40
0.0
 40
0.3186751202394483
 40
0.3186751202394483
 40
0.3186751202394483
 40
0.3186751202394483
 10
5.457455429500015
 20
-26.78555379359997
 30
0.0
 10
5.352481700406527
 20
-26.76929724599091
 30
0.0
 10
5.24719107697358
 20
-26.75495791566948
 30
0.0
 10
5.141680635599982
 20
-26.74265726929999
 30
0.0
 11
5.457455429500015
 21
-26.78555379359997
 31
0.0
 11
5.141680635599982
 21
-26.74265726929999
 31
0.0
  0
SPLINE
  5
762
330
1F
100
AcDbEntity
  8
1
100
AcDbSpline
210
0.0
220
0.0
230
1.0
 70
     8
 71
     3
 72
    10
 73
     6
 74
     4
 42
0.0000000001
 43
0.0000000001
 44
0.0000000001
 12
-0.9752621129239081
 22
0.221051602788114
 32
0.0
 13
-0.9882201881607207
 23
0.1530387523197628
 33
0.0
 40
0.0
 40
0.0
 40
0.0
 40
0.0
 40
0.169576775216167
 40
0.5484386246794497
 40
0.6075422513994619
 40
0.6075422513994619
 40
0.6075422513994619
 40
0.6075422513994619
 10
6.054174281299964
 20
-26.89924510309998
 30
0.0
 10
5.999047013266583
 20
-26.88675003044759
 30
0.0
 10
5.820368465923497
 20
-26.84805312379211
 30
0.0
 10
5.621116216592644
 20
-26.81139982854016
 30
0.0
 10
5.476924561872759
 20
-26.78856884203024
 30
0.0
 10
5.457455429500015
 20
-26.78555379359997
 30
0.0
 11
6.054174281299964
 21
-26.89924510309998
 31
0.0
 11
5.888438739999998
 21
-26.86335620449998
 31
0.0
 11
5.515831912399988
 21
-26.79479635469999
 31
0.0
 11
5.457455429500015
 21
-26.78555379359997
 31
0.0
  0
SPLINE
  5
763
330
1F
100
AcDbEntity
  8
1
100
AcDbSpline
210
0.0
220
0.0
230
1.0
 70
     8
 71
     3
 72
     8
 73
     4
 74
     2
 42
0.0000000001
 43
0.0000000001
 44
0.0000000001
 12
0.9956588855861737
 22
-0.0930772988074888
 32
0.0
 13
0.995501047730667
 23
-0.0947505354451597
 33
0.0
 40
0.0
 40
0.0
 40
0.0
 40
0.0
 40
0.0152325027958425
 40
0.0152325027958425
 40
0.0152325027958425
 40
0.0152325027958425
 10
4.940233035599987
 20
-26.72157352739998
 30
0.0
 10
4.945288494519453
 20
-26.72204612747142
 30
0.0
 10
4.950343557602383
 20
-26.72252298106796
 30
0.0
 10
4.95539821509999
 20
-26.72300407699998
 30
0.0
 11
4.940233035599987
 21
-26.72157352739998
 31
0.0
 11
4.95539821509999
 21
-26.72300407699998
 31
0.0
  0
SPLINE
  5
764
330
1F
100
AcDbEntity
  8
1
100
AcDbSpline
210
0.0
220
0.0
230
1.0
 70
     8
 71
     3
 72
     8
 73
     4
 74
     2
 42
0.0000000001
 43
0.0000000001
 44
0.0000000001
 12
0.957025170698307
 22
0.2900048665968841
 32
0.0
 13
0.9745713263676371
 23
0.2240775085144082
 33
0.0
 40
0.0
 40
0.0
 40
0.0
 40
0.0
 40
0.0995624910314447
 40
0.0995624910314447
 40
0.0995624910314447
 40
0.0995624910314447
 10
4.795837747799993
 20
-26.74265726929999
 30
0.0
 10
4.827599017791499
 20
-26.73303273365679
 30
0.0
 10
4.859695781319691
 20
-26.72444352704393
 30
0.0
 10
4.892039364300018
 20
-26.71700695539999
 30
0.0
 11
4.795837747799993
 21
-26.74265726929999
 31
0.0
 11
4.892039364300018
 21
-26.71700695539999
 31
0.0
  0
SPLINE
  5
765
330
1F
100
AcDbEntity
  8
1
100
AcDbSpline
210
0.0
220
0.0
230
1.0
 70
     8
 71
     3
 72
    10
 73
     6
 74
     4
 42
0.0000000001
 43
0.0000000001
 44
0.0000000001
 12
0.8649606886269875
 22
0.5018396229174491
 32
0.0
 13
0.9657674767092558
 23
0.2594092922981694
 33
0.0
 40
0.0
 40
0.0
 40
0.0
 40
0.0
 40
0.181975834253772
 40
0.3576306329418228
 40
0.5281882653656163
 40
0.5281882653656163
 40
0.5281882653656163
 40
0.5281882653656163
 10
4.310788000400009
 20
-26.94829910589999
 30
0.0
 10
4.363255314703213
 20
-26.91785821121932
 30
0.0
 10
4.46873327511437
 20
-26.86196729440088
 30
0.0
 10
4.63093146489773
 20
-26.79297904282148
 30
0.0
 10
4.740931409700182
 20
-26.75740534754103
 30
0.0
 10
4.795837747799993
 20
-26.74265726929999
 30
0.0
 11
4.310788000400009
 21
-26.94829910589999
 31
0.0
 11
4.471722483200011
 21
-26.86335620449998
 31
0.0
 11
4.633444947000015
 21
-26.79479635469999
 31
0.0
 11
4.795837747799993
 21
-26.74265726929999
 31
0.0
  0
SPLINE
  5
766
330
1F
100
AcDbEntity
  8
1
100
AcDbSpline
210
0.0
220
0.0
230
1.0
 70
     8
 71
     3
 72
    10
 73
     6
 74
     4
 42
0.0000000001
 43
0.0000000001
 44
0.0000000001
 12
0.859829661574359
 22
0.5105809956088489
 32
0.0
 13
0.8649614866101019
 23
0.5018382475272709
 33
0.0
 40
0.0
 40
0.0
 40
0.0
 40
0.0
 40
0.0027725820044358
 40
0.0055336850085531
 40
0.0082829876452795
 40
0.0082829876452795
 40
0.0082829876452795
 40
0.0082829876452795
 10
4.303645053299987
 20
-26.95249263329998
 30
0.0
 10
4.304439702715508
 20
-26.95202075740657
 30
0.0
 10
4.306027267967549
 20
-26.9510815774511
 30
0.0
 10
4.308408188153271
 20
-26.94968359934537
 30
0.0
 10
4.309995320101408
 20
-26.94875900763904
 30
0.0
 10
4.310788000400009
 20
-26.94829910589999
 30
0.0
 11
4.303645053299987
 21
-26.95249263329998
 31
0.0
 11
4.306031333399999
 21
-26.95108093989998
 31
0.0
 11
4.308412379099991
 21
-26.94968297309998
 31
0.0
 11
4.310788000400009
 21
-26.94829910589999
 31
0.0
  0
SPLINE
  5
767
330
1F
100
AcDbEntity
  8
1
100
AcDbSpline
210
0.0
220
0.0
230
1.0
 70
     8
 71
     3
 72
    13
 73
     9
 74
     7
 42
0.0000000001
 43
0.0000000001
 44
0.0000000001
 12
-0.8598406393329931
 22
-0.5105625083683976
 32
0.0
 13
-0.9996808285011685
 23
0.0252634345887051
 33
0.0
 40
0.0
 40
0.0
 40
0.0
 40
0.0
 40
0.075048975898039
 40
0.1759248185717968
 40
0.2968328409293265
 40
0.4308572517588145
 40
0.5706158473786935
 40
0.7096297827868375
 40
0.7096297827868375
 40
0.7096297827868375
 40
0.7096297827868375
 10
4.303630662800003
 20
-26.95249263329998
 30
0.0
 10
4.282120609660851
 20
-26.96526503109497
 30
0.0
 10
4.228940159860016
 20
-26.9904671789297
 30
0.0
 10
4.13576632653541
 20
-27.02398899256435
 30
0.0
 10
4.021291056943419
 20
-27.05544438815865
 30
0.0
 10
3.892188646122511
 20
-27.08137580101887
 30
0.0
 10
3.755392136895352
 20
-27.09763238917165
 30
0.0
 10
3.662324933007347
 20
-27.10013910958802
 30
0.0
 10
3.616001744300007
 20
-27.09896845309998
 30
0.0
 11
4.303630662800003
 21
-26.95249263329998
 31
0.0
 11
4.236375921699988
 21
-26.9857965157
 31
0.0
 11
4.141694588499973
 21
-27.02060141159998
 31
0.0
 11
4.025203418699987
 21
-27.052982845
 31
0.0
 11
3.8937826943
 21
-27.07927230859997
 31
0.0
 11
3.754973209199988
 21
-27.09553244069999
 31
0.0
 11
3.616001744300007
 21
-27.09896845309998
 31
0.0
  0
SPLINE
  5
768
330
1F
100
AcDbEntity
  8
1
100
AcDbSpline
210
0.0
220
0.0
230
1.0
 70
     8
 71
     3
 72
    10
 73
     6
 74
     4
 42
0.0000000001
 43
0.0000000001
 44
0.0000000001
 12
-0.9996807866173494
 22
0.0252650918881692
 32
0.0
 13
-0.9992472933773738
 23
0.0387923533443452
 33
0.0
 40
0.0
 40
0.0
 40
0.0
 40
0.0
 40
0.0069850456549016
 40
0.0139460672476719
 40
0.0208827263336372
 40
0.0208827263336372
 40
0.0208827263336372
 40
0.0208827263336372
 10
3.616002278999985
 20
-27.09896845309998
 30
0.0
 10
3.613674673688369
 20
-27.09890962715988
 30
0.0
 10
3.609027750621595
 20
-27.09878080501184
 30
0.0
 10
3.6020703885144
 20
-27.0985580199025
 30
0.0
 10
3.59744090047224
 20
-27.09838880234343
 30
0.0
 10
3.595130421199996
 20
-27.09829910589999
 30
0.0
 11
3.616002278999985
 21
-27.09896845309998
 31
0.0
 11
3.609019896799992
 21
-27.09877557589999
 31
0.0
 11
3.602062450400012
 21
-27.09855250369997
 31
0.0
 11
3.595130421199996
 21
-27.09829910589999
 31
0.0
  0
SPLINE
  5
769
330
1F
100
AcDbEntity
  8
1
100
AcDbSpline
210
0.0
220
0.0
230
1.0
 70
     8
 71
     3
 72
    10
 73
     6
 74
     4
 42
0.0000000001
 43
0.0000000001
 44
0.0000000001
 12
-0.9992472514963084
 22
0.0387934321383616
 32
0.0
 13
-0.9930170640760758
 23
0.1179708033952917
 33
0.0
 40
0.0
 40
0.0
 40
0.0
 40
0.0
 40
0.4571857139402313
 40
0.9286886157209433
 40
1.422372949716348
 40
1.422372949716348
 40
1.422372949716348
 40
1.422372949716348
 10
3.595130421199996
 20
-27.09829910589999
 30
0.0
 10
3.442849898507279
 20
-27.0923871715772
 30
0.0
 10
3.133671528820181
 20
-27.07592653929855
 30
0.0
 10
2.661111742050661
 20
-27.03676204078364
 30
0.0
 10
2.341216081641461
 20
-27.00215128733502
 30
0.0
 10
2.177803758999971
 20
-26.98273784149998
 30
0.0
 11
3.595130421199996
 21
-27.09829910589999
 31
0.0
 11
3.138592375400008
 21
-27.07397237639998
 31
0.0
 11
2.668665329899994
 21
-27.03545538930001
 31
0.0
 11
2.177803758999971
 21
-26.98273784149998
 31
0.0
  0
SPLINE
  5
76A
330
1F
100
AcDbEntity
  8
1
100
AcDbSpline
210
0.0
220
0.0
230
1.0
 70
     8
 71
     3
 72
     8
 73
     4
 74
     2
 42
0.0000000001
 43
0.0000000001
 44
0.0000000001
 12
0.9839761977028073
 22
-0.1782998663889734
 32
0.0
 13
0.9693830440927236
 23
-0.245553484653598
 33
0.0
 40
0.0
 40
0.0
 40
0.0
 40
0.0
 40
0.606482899676348
 40
0.606482899676348
 40
0.606482899676348
 40
0.606482899676348
 10
5.455707931599988
 20
-26.79715346709997
 30
0.0
 10
5.654629510798423
 20
-26.83319874042647
 30
0.0
 10
5.852416819840517
 20
-26.87616503440053
 30
0.0
 10
6.048388232999997
 20
-26.92580636419998
 30
0.0
 11
5.455707931599988
 21
-26.79715346709997
 31
0.0
 11
6.048388232999997
 21
-26.92580636419998
 31
0.0
  0
LWPOLYLINE
  5
76B
330
1F
100
AcDbEntity
  8
1
100
AcDbPolyline
 90
        5
 70
     0
 43
0.0
 10
5.994931887399985
 20
-26.9659510406
 10
6.033502723600008
 20
-26.9811488798
 10
6.060643014100008
 20
-26.99156550149999
 10
6.083058776699971
 20
-27.00004690329999
 10
6.146481651299978
 20
-27.02374061520001
  0
LWPOLYLINE
  5
76C
330
1F
100
AcDbEntity
  8
1
100
AcDbPolyline
 90
        8
 70
     0
 43
0.0
 10
5.721589422000022
 20
-26.85328770999999
 10
5.724976276099994
 20
-26.85457659799999
 10
5.765093504600002
 20
-26.8701503307
 10
5.794204071299986
 20
-26.88174074539998
 10
5.828077669199984
 20
-26.89564692699997
 10
5.886236704199973
 20
-26.92030223109998
 10
5.947446697199978
 20
-26.94649689459998
 10
5.994931887399985
 20
-26.9659510406
  0
LWPOLYLINE
  5
76D
330
1F
100
AcDbEntity
  8
1
100
AcDbPolyline
 90
        4
 70
     0
 43
0.0
 10
5.13559014079999
 20
-26.74543109049997
 10
5.245095429699972
 20
-26.7618532342
 10
5.399017695200001
 20
-26.78727183289999
 10
5.4557001812
 20
-26.79733474009998
  0
LINE
  5
76E
330
1F
100
AcDbEntity
  8
1
100
AcDbLine
 10
5.100497594899991
 20
-26.74032784729999
 30
0.0
 11
5.135584311499968
 21
-26.74527221449997
 31
0.0
  0
SPLINE
  5
76F
330
1F
100
AcDbEntity
  8
1
100
AcDbSpline
210
0.0
220
0.0
230
1.0
 70
     8
 71
     3
 72
    13
 73
     9
 74
     7
 42
0.0000000001
 43
0.0000000001
 44
0.0000000001
 12
-0.9880323100103456
 22
-0.1542470562948283
 32
0.0
 13
-0.9933679754779092
 23
0.1149785427587255
 33
0.0
 40
0.0
 40
0.0
 40
0.0
 40
0.0
 40
0.7196584392196089
 40
1.368025899897944
 40
1.938388356418048
 40
2.468999613168679
 40
3.001512989506247
 40
3.546649028780931
 40
3.546649028780931
 40
3.546649028780931
 40
3.546649028780931
 10
5.141680635599982
 20
-21.96887488679999
 30
0.0
 10
4.904665372226452
 20
-22.00587661872911
 30
0.0
 10
4.455735358438133
 20
-22.08599152478583
 30
0.0
 10
3.817810664414053
 20
-22.18945345413352
 30
0.0
 10
3.23759157239899
 20
-22.25129347048639
 30
0.0
 10
2.69315667139896
 20
-22.27324558671211
 30
0.0
 10
2.156874849025201
 20
-22.26075757555996
 30
0.0
 10
1.798725106264776
 20
-22.22984844156701
 30
0.0
 10
1.618218211699996
 20
-22.20895545909999
 30
0.0
 11
5.141680635599982
 21
-21.96887488679999
 31
0.0
 11
4.431984126199978
 21
-22.088202728
 31
0.0
 11
3.791249910499999
 21
-22.18739964779999
 31
0.0
 11
3.223929019100012
 21
-22.24622428539999
 31
0.0
 11
2.693748684699983
 21
-22.26760462229998
 31
0.0
 11
2.161376298799979
 21
-22.25535151209999
 31
0.0
 11
1.618218211699996
 21
-22.20895545909999
 31
0.0
  0
SPLINE
  5
770
330
1F
100
AcDbEntity
  8
1
100
AcDbSpline
210
0.0
220
0.0
230
1.0
 70
     8
 71
     3
 72
     8
 73
     4
 74
     2
 42
0.0000000001
 43
0.0000000001
 44
0.0000000001
 12
-0.9956443407703405
 22
-0.0932327554671334
 32
0.0
 13
-0.9974751696188324
 23
-0.0710160967237816
 33
0.0
 40
0.0
 40
0.0
 40
0.0
 40
0.0
 40
0.3103903619412788
 40
0.3103903619412788
 40
0.3103903619412788
 40
0.3103903619412788
 10
2.177803758999971
 20
-22.20895545909999
 30
0.0
 10
2.074790956567807
 20
-22.21860164200474
 30
0.0
 10
1.971665996808475
 20
-22.22712157694475
 30
0.0
 10
1.8684637705
 20
-22.23446914760001
 30
0.0
 11
2.177803758999971
 21
-22.20895545909999
 31
0.0
 11
1.8684637705
 21
-22.23446914760001
 31
0.0
  0
SPLINE
  5
771
330
1F
100
AcDbEntity
  8
1
100
AcDbSpline
210
0.0
220
0.0
230
1.0
 70
     8
 71
     3
 72
    10
 73
     6
 74
     4
 42
0.0000000001
 43
0.0000000001
 44
0.0000000001
 12
0.9989067338736374
 22
0.0467475884073423
 32
0.0
 13
0.9995362230116274
 23
0.0304522394521409
 33
0.0
 40
0.0
 40
0.0
 40
0.0
 40
0.0
 40
0.0057559818929612
 40
0.0115317930289478
 40
0.0173272019111697
 40
0.0173272019111697
 40
0.0173272019111697
 40
0.0173272019111697
 10
-0.4421164853000051
 20
-21.85331362239998
 30
0.0
 10
-0.4401999222756939
 20
-21.85322392964251
 30
0.0
 10
-0.4363596941001742
 20
-21.85305471702056
 30
0.0
 10
-0.4305882351575444
 20
-21.85283192984133
 30
0.0
 10
-0.4267332906349772
 20
-21.85270310292632
 30
0.0
 10
-0.4248023835999959
 20
-21.85264427519999
 30
0.0
 11
-0.4421164853000051
 21
-21.85331362239998
 31
0.0
 11
-0.4363660838000101
 21
-21.85306022520001
 31
0.0
 11
-0.4305945819999977
 21
-21.85283715289997
 31
0.0
 11
-0.4248023835999959
 21
-21.85264427519999
 31
0.0
  0
SPLINE
  5
772
330
1F
100
AcDbEntity
  8
1
100
AcDbSpline
210
0.0
220
0.0
230
1.0
 70
     8
 71
     3
 72
    10
 73
     6
 74
     4
 42
0.0000000001
 43
0.0000000001
 44
0.0000000001
 12
0.9899002756742588
 22
0.1417654549600377
 32
0.0
 13
0.9989066729681093
 23
0.0467488898240673
 33
0.0
 40
0.0
 40
0.0
 40
0.0
 40
0.0
 40
0.4105995982968402
 40
0.8023202058708974
 40
1.181810411030437
 40
1.181810411030437
 40
1.181810411030437
 40
1.181810411030437
 10
-1.617849765700015
 20
-21.96887488679999
 30
0.0
 10
-1.482365547184754
 20
-21.94947194051367
 30
0.0
 10
-1.217132428266899
 20
-21.91487456937566
 30
0.0
 10
-0.8250812788422457
 20
-21.87569935624154
 30
0.0
 10
-0.5684749180533054
 20
-21.85922720433008
 30
0.0
 10
-0.4421164853000051
 20
-21.85331362239998
 30
0.0
 11
-1.617849765700015
 21
-21.96887488679999
 31
0.0
 11
-1.210648630600019
 21
-21.91615614539998
 31
0.0
 11
-0.8208262140000215
 21
-21.87763968249999
 31
0.0
 11
-0.4421164853000051
 21
-21.85331362239998
 31
0.0
  0
SPLINE
  5
773
330
1F
100
AcDbEntity
  8
1
100
AcDbSpline
210
0.0
220
0.0
230
1.0
 70
     8
 71
     3
 72
    13
 73
     9
 74
     7
 42
0.0000000001
 43
0.0000000001
 44
0.0000000001
 12
-0.9712796831445588
 22
0.2379407008281802
 32
0.0
 13
-0.9995362955779057
 23
-0.030449857510299
 33
0.0
 40
0.0
 40
0.0
 40
0.0
 40
0.0
 40
0.1400931442582673
 40
0.2931571018503175
 40
0.4498716119841719
 40
0.6018226753472514
 40
0.7417240189333264
 40
0.8646514681507467
 40
0.8646514681507467
 40
0.8646514681507467
 40
0.8646514681507467
 10
0.4251622662999921
 20
-21.99912009499999
 30
0.0
 10
0.3798057247113605
 20
-21.98800880802465
 30
0.0
 10
0.2849529771072587
 20
-21.96451411402399
 30
0.0
 10
0.1389611413631798
 20
-21.93022415075676
 30
0.0
 10
-0.0115799666152591
 20
-21.8981373341763
 30
0.0
 10
-0.1587799915249669
 20
-21.87160823155927
 30
0.0
 10
-0.2960827846089043
 20
-21.85465250063401
 30
0.0
 10
-0.3838370045614698
 20
-21.85139656742906
 30
0.0
 10
-0.4247938203000104
 20
-21.85264427519999
 30
0.0
 11
0.4251622662999921
 21
-21.99912009499999
 31
0.0
 11
0.2890853010000001
 21
-21.9658162126
 31
0.0
 11
0.140030967499996
 21
-21.93101131669999
 31
0.0
 11
-0.0133016137000084
 21
-21.8986298833
 31
0.0
 11
-0.1629611933000206
 21
-21.87234041979999
 31
0.0
 11
-0.3019144014000119
 21
-21.85608028769999
 31
0.0
 11
-0.4247938203000104
 21
-21.85264427519999
 31
0.0
  0
SPLINE
  5
774
330
1F
100
AcDbEntity
  8
1
100
AcDbSpline
210
0.0
220
0.0
230
1.0
 70
     8
 71
     3
 72
    10
 73
     6
 74
     4
 42
0.0000000001
 43
0.0000000001
 44
0.0000000001
 12
-0.9725292329092876
 22
0.2327807791396717
 32
0.0
 13
-0.9712790172501243
 23
0.2379434190088737
 33
0.0
 40
0.0
 40
0.0
 40
0.0
 40
0.0
 40
0.0059223151498584
 40
0.0118607302003849
 40
0.0178147256205981
 40
0.0178147256205981
 40
0.0178147256205981
 40
0.0178147256205981
 10
0.4424849312999868
 20
-22.00331362239998
 30
0.0
 10
0.4405650564300739
 20
-22.00285408868835
 30
0.0
 10
0.4367209358628717
 20
-22.00193022348952
 30
0.0
 10
0.430949597488535
 20
-22.00053222411211
 30
0.0
 10
0.4270984932068249
 20
-21.99959233300901
 30
0.0
 10
0.4251708296000061
 20
-21.99912009499999
 30
0.0
 11
0.4424849312999868
 21
-22.00331362239998
 31
0.0
 11
0.4367265690999887
 21
-22.00192975769999
 31
0.0
 11
0.4309550474999924
 21
-22.00053179069999
 31
0.0
 11
0.4251708296000061
 21
-21.99912009499999
 31
0.0
  0
SPLINE
  5
775
330
1F
100
AcDbEntity
  8
1
100
AcDbSpline
210
0.0
220
0.0
230
1.0
 70
     8
 71
     3
 72
    10
 73
     6
 74
     4
 42
0.0000000001
 43
0.0000000001
 44
0.0000000001
 12
-0.9939162200459245
 22
0.1101387648814958
 32
0.0
 13
-0.9725290391642474
 23
0.2327815885809396
 33
0.0
 40
0.0
 40
0.0
 40
0.0
 40
0.0
 40
0.3971248728444335
 40
0.7951051694363463
 40
1.194262577166075
 40
1.194262577166075
 40
1.194262577166075
 40
1.194262577166075
 10
1.618218211699996
 20
-22.20895545909999
 30
0.0
 10
1.486648594198744
 20
-22.19437584476706
 30
0.0
 10
1.223830697828779
 20
-22.15944692179963
 30
0.0
 10
0.8315937437354246
 20
-22.0908671642408
 30
0.0
 10
0.5718823213715486
 20
-22.03428578755504
 30
0.0
 10
0.4424849312999868
 20
-22.00331362239998
 30
0.0
 11
1.618218211699996
 21
-22.20895545909999
 31
0.0
 11
1.224532046499973
 21
-22.15680789959998
 31
0.0
 11
0.8325028132999818
 21
-22.08824116719998
 31
0.0
 11
0.4424849312999868
 21
-22.00331362239998
 31
0.0
  0
SPLINE
  5
776
330
1F
100
AcDbEntity
  8
1
100
AcDbSpline
210
0.0
220
0.0
230
1.0
 70
     8
 71
     3
 72
    10
 73
     6
 74
     4
 42
0.0000000001
 43
0.0000000001
 44
0.0000000001
 12
0.9920462855984998
 22
0.1258736161005151
 32
0.0
 13
0.976808389755028
 23
-0.2141153187051063
 33
0.0
 40
0.0
 40
0.0
 40
0.0
 40
0.0
 40
0.002482152745461
 40
0.0386255236069286
 40
0.0679432520457049
 40
0.0679432520457049
 40
0.0679432520457049
 40
0.0679432520457049
 10
4.089934294599999
 20
-21.87560486529997
 30
0.0
 10
4.090755098070473
 20
-21.87550071945271
 30
0.0
 10
4.103532216354834
 20
-21.87391572640501
 30
0.0
 10
4.126140215865995
 20
-21.87213189039734
 30
0.0
 10
4.148098277030811
 20
-21.87371390594387
 30
0.0
 10
4.157644211399997
 20
-21.8758063642
 30
0.0
 11
4.089934294599999
 21
-21.87560486529997
 31
0.0
 11
4.092397575599989
 21
-21.8752993674
 31
0.0
 11
4.12846508879997
 21
-21.8729589083
 31
0.0
 11
4.157644211399997
 21
-21.8758063642
 31
0.0
  0
SPLINE
  5
777
330
1F
100
AcDbEntity
  8
1
100
AcDbSpline
210
0.0
220
0.0
230
1.0
 70
     8
 71
     3
 72
     8
 73
     4
 74
     2
 42
0.0000000001
 43
0.0000000001
 44
0.0000000001
 12
-0.9153925847069873
 22
0.4025623130193151
 32
0.0
 13
-0.9256687162677859
 23
0.3783350733452413
 33
0.0
 40
0.0
 40
0.0
 40
0.0
 40
0.0
 40
0.1047574560126149
 40
0.1047574560126149
 40
0.1047574560126149
 40
0.1047574560126149
 10
4.892221097199978
 20
-22.0099160192
 30
0.0
 10
4.860256364391073
 20
-21.99585888460052
 30
0.0
 10
4.828161314408885
 20
-21.98208602673465
 30
0.0
 10
4.795837747799993
 20
-21.96887488679999
 30
0.0
 11
4.892221097199978
 21
-22.0099160192
 31
0.0
 11
4.795837747799993
 21
-21.96887488679999
 31
0.0
  0
SPLINE
  5
778
330
1F
100
AcDbEntity
  8
1
100
AcDbSpline
210
0.0
220
0.0
230
1.0
 70
     8
 71
     3
 72
     8
 73
     4
 74
     2
 42
0.0000000001
 43
0.0000000001
 44
0.0000000001
 12
0.9983971774517714
 22
0.056595724717828
 32
0.0
 13
0.9972849056399073
 23
-0.0736397785357973
 33
0.0
 40
0.0
 40
0.0
 40
0.0
 40
0.0
 40
0.0266957235272573
 40
0.0266957235272573
 40
0.0266957235272573
 40
0.0266957235272573
 10
4.27693514340001
 20
-21.85253987879997
 30
0.0
 10
4.285819455073225
 20
-21.85203625752667
 30
0.0
 10
4.294756248760379
 20
-21.85198898614385
 30
0.0
 10
4.303630662800003
 20
-21.85264427519999
 30
0.0
 11
4.27693514340001
 21
-21.85253987879997
 31
0.0
 11
4.303630662800003
 21
-21.85264427519999
 31
0.0
  0
SPLINE
  5
779
330
1F
100
AcDbEntity
  8
1
100
AcDbSpline
210
0.0
220
0.0
230
1.0
 70
     8
 71
     3
 72
     8
 73
     4
 74
     2
 42
0.0000000001
 43
0.0000000001
 44
0.0000000001
 12
0.9912498944686621
 22
0.1319986617957414
 32
0.0
 13
0.9983971772734165
 23
0.0565957278641614
 33
0.0
 40
0.0
 40
0.0
 40
0.0
 40
0.0
 40
0.0270489537822036
 40
0.0270489537822036
 40
0.0270489537822036
 40
0.0270489537822036
 10
4.250018967000016
 20
-21.85521669569999
 30
0.0
 10
4.258956391194049
 20
-21.85402655379925
 30
0.0
 10
4.267933277031892
 20
-21.85305016387573
 30
0.0
 10
4.27693514340001
 20
-21.85253987879997
 30
0.0
 11
4.250018967000016
 21
-21.85521669569999
 31
0.0
 11
4.27693514340001
 21
-21.85253987879997
 31
0.0
  0
SPLINE
  5
77A
330
1F
100
AcDbEntity
  8
1
100
AcDbSpline
210
0.0
220
0.0
230
1.0
 70
     8
 71
     3
 72
    10
 73
     6
 74
     4
 42
0.0000000001
 43
0.0000000001
 44
0.0000000001
 12
-0.9936273978574396
 22
0.1127146584391469
 32
0.0
 13
-0.9972842830242159
 23
0.0736482099774021
 33
0.0
 40
0.0
 40
0.0
 40
0.0
 40
0.0
 40
0.0023858276403275
 40
0.0047772921983723
 40
0.0071746400456181
 40
0.0071746400456181
 40
0.0071746400456181
 40
0.0071746400456181
 10
4.310788000400009
 20
-21.85331362239998
 30
0.0
 10
4.309997792496678
 20
-21.85322398315078
 30
0.0
 10
4.308414313502634
 20
-21.85305484473198
 30
0.0
 10
4.306033113204774
 20
-21.85283202571506
 30
0.0
 10
4.30444199907632
 20
-21.8527031286592
 30
0.0
 10
4.303645053299987
 20
-21.85264427519999
 30
0.0
 11
4.310788000400009
 21
-21.85331362239998
 31
0.0
 11
4.308415667500014
 21
-21.85306022520001
 31
0.0
 11
4.306034629599992
 21
-21.85283715289997
 31
0.0
 11
4.303645053299987
 21
-21.85264427519999
 31
0.0
  0
SPLINE
  5
77B
330
1F
100
AcDbEntity
  8
1
100
AcDbSpline
210
0.0
220
0.0
230
1.0
 70
     8
 71
     3
 72
    10
 73
     6
 74
     4
 42
0.0000000001
 43
0.0000000001
 44
0.0000000001
 12
-0.9446984695175205
 22
0.32794024103677
 32
0.0
 13
-0.9936270468603622
 23
0.1127177525838589
 33
0.0
 40
0.0
 40
0.0
 40
0.0
 40
0.0
 40
0.1760690160772022
 40
0.3414385817936401
 40
0.4995580369133034
 40
0.4995580369133034
 40
0.4995580369133034
 40
0.4995580369133034
 10
4.795837747799993
 20
-21.96887488679999
 30
0.0
 10
4.740393704460797
 20
-21.9496281816095
 30
0.0
 10
4.631812180717197
 20
-21.91523695305258
 30
0.0
 10
4.469848809383883
 20
-21.87590641170245
 30
0.0
 10
4.363158589480582
 20
-21.85925457894027
 30
0.0
 10
4.310788000400009
 20
-21.85331362239998
 30
0.0
 11
4.795837747799993
 21
-21.96887488679999
 31
0.0
 11
4.627846579199996
 21
-21.91615614539998
 31
0.0
 11
4.467025015499984
 21
-21.87763968249999
 31
0.0
 11
4.310788000400009
 21
-21.85331362239998
 31
0.0
  0
SPLINE
  5
77C
330
1F
100
AcDbEntity
  8
1
100
AcDbSpline
210
0.0
220
0.0
230
1.0
 70
     8
 71
     3
 72
    10
 73
     6
 74
     4
 42
0.0000000001
 43
0.0000000001
 44
0.0000000001
 12
0.9958015710201976
 22
0.0915381404317684
 32
0.0
 13
0.9834267386270191
 23
0.1813059561995266
 33
0.0
 40
0.0
 40
0.0
 40
0.0
 40
0.0
 40
0.4774384572513343
 40
0.9549713201668867
 40
1.243486916482646
 40
1.243486916482646
 40
1.243486916482646
 40
1.243486916482646
 10
2.177803758999971
 20
-22.20895545909999
 30
0.0
 10
2.33628174759875
 20
-22.19438751625086
 30
0.0
 10
2.652765206685655
 20
-22.15950557890349
 30
0.0
 10
3.063050995441481
 20
-22.10001357561728
 30
0.0
 10
3.314658262024031
 20
-22.05634010692282
 30
0.0
 10
3.409236245999977
 20
-22.03890357489999
 30
0.0
 11
2.177803758999971
 21
-22.20895545909999
 31
0.0
 11
2.652385798799969
 21
-22.15680789959998
 31
0.0
 11
3.124970434999994
 21
-22.08824116719998
 31
0.0
 11
3.409236245999977
 21
-22.03890357489999
 31
0.0
  0
SPLINE
  5
77D
330
1F
100
AcDbEntity
  8
1
100
AcDbSpline
210
0.0
220
0.0
230
1.0
 70
     8
 71
     3
 72
    16
 73
    12
 74
    10
 42
0.0000000001
 43
0.0000000001
 44
0.0000000001
 12
0.9806277929757932
 22
0.1958804013765162
 32
0.0
 13
0.9920462856435765
 23
0.125873615745253
 33
0.0
 40
0.0
 40
0.0
 40
0.0
 40
0.0
 40
0.0749481394406661
 40
0.1495363039585015
 40
0.2225401915650566
 40
0.2927550347457269
 40
0.4240350255868341
 40
0.484057601296939
 40
0.5392838948986383
 40
0.5888279878423384
 40
0.6294432607602851
 40
0.6294432607602851
 40
0.6294432607602851
 40
0.6294432607602851
 10
3.478936653400012
 20
-22.0258063642
 30
0.0
 10
3.503435396255793
 20
-22.02091274032132
 30
0.0
 10
3.552190084000523
 20
-22.01051447239842
 30
0.0
 10
3.624388675847964
 20
-21.99346548524256
 30
0.0
 10
3.694762024621601
 20
-21.97560402975903
 30
0.0
 10
3.783186777170196
 20
-21.95207760972541
 30
0.0
 10
3.86717402318052
 20
-21.92872454782669
 30
0.0
 10
3.946421934065027
 20
-21.9069830305575
 30
0.0
 10
3.999601434214681
 20
-21.89320276079944
 30
0.0
 10
4.046864679935734
 20
-21.88245271553574
 30
0.0
 10
4.076503551053782
 20
-21.87730899571886
 30
0.0
 10
4.089934294599999
 20
-21.87560486529997
 30
0.0
 11
3.478936653400012
 21
-22.0258063642
 31
0.0
 11
3.55224698309999
 21
-22.0102237083
 31
0.0
 11
3.6248525389
 21
-21.99314074739999
 31
0.0
 11
3.695627142799992
 21
-21.97523758989999
 31
0.0
 11
3.76349182040002
 21
-21.95722343609998
 31
0.0
 11
3.890085743799971
 21
-21.92246117849998
 31
0.0
 11
3.948002798400011
 21
-21.90670286699997
 31
0.0
 11
4.001504503999967
 21
-21.89300940129999
 31
0.0
 11
4.049866708999985
 21
-21.88225234439997
 31
0.0
 11
4.089934294599999
 21
-21.87560486529997
 31
0.0
  0
LINE
  5
77E
330
1F
100
AcDbEntity
  8
1
100
AcDbLine
 10
4.250025220699995
 20
-21.85523740119998
 30
0.0
 11
4.143483607199982
 21
-21.86880705679999
 31
0.0
  0
LINE
  5
77F
330
1F
100
AcDbEntity
  8
1
100
AcDbLine
 10
3.409353000099997
 20
-22.0395231766
 30
0.0
 11
3.478936653400012
 21
-22.0258063642
 31
0.0
  0
LINE
  5
780
330
1F
100
AcDbEntity
  8
4
100
AcDbLine
 10
0.0
 20
0.0
 30
0.0
 11
0.0
 21
7.436948876900004
 31
0.0
  0
CIRCLE
  5
781
330
1F
100
AcDbEntity
  8
PNCU0805GNTR_4
  6
CENTER
 62
     2
100
AcDbCircle
 10
0.0
 20
0.0
 30
0.0
 40
5.750106728699999
  0
SPLINE
  5
782
330
1F
100
AcDbEntity
  8
1
100
AcDbSpline
210
0.0
220
0.0
230
1.0
 70
     8
 71
     3
 72
    10
 73
     6
 74
     4
 42
0.0000000001
 43
0.0000000001
 44
0.0000000001
 12
0.7870017562242868
 22
-0.6169507563006053
 32
0.0
 13
0.7784620740727391
 23
-0.6276916434288173
 33
0.0
 40
0.0
 40
0.0
 40
0.0
 40
0.0
 40
0.4826923395870485
 40
0.9653919028271911
 40
1.448087594964076
 40
1.448087594964076
 40
1.448087594964076
 40
1.448087594964076
 10
0.6703161332999912
 20
5.570152912200029
 30
0.0
 10
0.7969427062903302
 20
5.470887110877116
 30
0.0
 10
1.049910212498457
 20
5.271986085348778
 30
0.0
 10
1.427677073721632
 20
4.971501435446166
 30
0.0
 10
1.67821124931769
 20
4.769542116391125
 30
0.0
 10
1.803464679199976
 20
4.668547432299988
 30
0.0
 11
0.6703161332999912
 21
5.570152912200029
 31
0.0
 11
1.049627602100002
 21
5.27163205139999
 31
0.0
 11
1.427350251399985
 21
4.97109175700001
 31
0.0
 11
1.803464679199976
 21
4.668547432299988
 31
0.0
  0
SPLINE
  5
783
330
1F
100
AcDbEntity
  8
1
100
AcDbSpline
210
0.0
220
0.0
230
1.0
 70
     8
 71
     3
 72
    10
 73
     6
 74
     4
 42
0.0000000001
 43
0.0000000001
 44
0.0000000001
 12
0.8543708030562516
 22
0.5196638633626702
 32
0.0
 13
0.8638982988795365
 23
0.5036662875287993
 33
0.0
 40
0.0
 40
0.0
 40
0.0
 40
0.0
 40
0.7457398219268773
 40
1.513487185450215
 40
2.269576081695761
 40
2.269576081695761
 40
2.269576081695761
 40
2.269576081695761
 10
-1.763140619100028
 20
4.318245184900007
 30
0.0
 10
-1.550761175589797
 20
4.447423197208644
 30
0.0
 10
-1.118857152605714
 20
4.708150888260022
 30
0.0
 10
-0.468822903701424
 20
5.095180858303312
 30
0.0
 10
-0.0308241365227404
 20
5.352415250162095
 30
0.0
 10
0.1869038339000042
 20
5.479354079300009
 30
0.0
 11
-1.763140619100028
 21
4.318245184900007
 31
0.0
 11
-1.12475454279999
 21
4.703720345699991
 31
0.0
 11
-0.4650894383000264
 21
5.096502682500016
 31
0.0
 11
0.1869038339000042
 21
5.479354079300009
 31
0.0
  0
SPLINE
  5
784
330
1F
100
AcDbEntity
  8
1
100
AcDbSpline
210
0.0
220
0.0
230
1.0
 70
     8
 71
     3
 72
    10
 73
     6
 74
     4
 42
0.0000000001
 43
0.0000000001
 44
0.0000000001
 12
0.7825212016700141
 22
-0.6226239386153712
 32
0.0
 13
0.7825212016700141
 23
-0.6226239386153712
 33
0.0
 40
0.0
 40
0.0
 40
0.0
 40
0.0
 40
0.4818902853992321
 40
0.9637840361998526
 40
1.445674321604473
 40
1.445674321604473
 40
1.445674321604473
 40
1.445674321604473
 10
0.5778607204999844
 20
5.452015710600022
 30
0.0
 10
0.7035571755678888
 20
5.352003568108104
 30
0.0
 10
0.9570878793833127
 20
5.154682042866169
 30
0.0
 10
1.334184657438989
 20
4.854639718859431
 30
0.0
 10
1.583424230430672
 20
4.651925049093031
 30
0.0
 10
1.709120685499982
 20
4.551912906599994
 30
0.0
 11
0.5778607204999844
 21
5.452015710600022
 31
0.0
 11
0.9565538339999761
 21
5.154006024599993
 31
0.0
 11
1.333645912399987
 21
4.853967441300028
 31
0.0
 11
1.709120685499982
 21
4.551912906599994
 31
0.0
  0
SPLINE
  5
785
330
1F
100
AcDbEntity
  8
1
100
AcDbSpline
210
0.0
220
0.0
230
1.0
 70
     8
 71
     3
 72
    10
 73
     6
 74
     4
 42
0.0000000001
 43
0.0000000001
 44
0.0000000001
 12
-0.8641249641037614
 22
-0.5032773056801521
 32
0.0
 13
-0.8571041939272218
 23
-0.5151430876488275
 33
0.0
 40
0.0
 40
0.0
 40
0.0
 40
0.0
 40
0.7577829119760782
 40
1.515593894013737
 40
2.27338962447405
 40
2.27338962447405
 40
2.27338962447405
 40
2.27338962447405
 10
0.1117783458999781
 20
5.609227840800031
 30
0.0
 10
-0.1064946979699459
 20
5.48210286005677
 30
0.0
 10
-0.5431100167252785
 20
5.22795317613321
 30
0.0
 10
-1.194674721133133
 20
4.840971016470959
 30
0.0
 10
-1.625018307427445
 20
4.576304945098805
 30
0.0
 10
-1.841521607000004
 20
4.446180534299998
 30
0.0
 11
0.1117783458999781
 21
5.609227840800031
 31
0.0
 11
-0.5425422968000078
 21
5.226998278600007
 31
0.0
 11
-1.193669874600004
 21
4.839299475499984
 31
0.0
 11
-1.841521607000004
 21
4.446180534299998
 31
0.0
  0
LINE
  5
786
330
1F
100
AcDbEntity
  8
1
100
AcDbLine
 10
1.618218211699996
 20
5.931818444100002
 30
0.0
 11
5.141680635599982
 21
3.371873147299993
 31
0.0
  0
LINE
  5
787
330
1F
100
AcDbEntity
  8
1
100
AcDbLine
 10
-1.617849765700015
 20
5.931818444100002
 30
0.0
 11
-5.1413121896
 21
3.371873147299993
 31
0.0
  0
LINE
  5
788
330
1F
100
AcDbEntity
  8
4
100
AcDbLine
 10
0.0
 20
0.0
 30
0.0
 11
-7.436948876900004
 21
0.0
 31
0.0
  0
SPLINE
  5
789
330
1F
100
AcDbEntity
  8
1
100
AcDbSpline
210
0.0
220
0.0
230
1.0
 70
     8
 71
     3
 72
    10
 73
     6
 74
     4
 42
0.0000000001
 43
0.0000000001
 44
0.0000000001
 12
-0.9966512542031624
 22
0.0817696612152914
 32
0.0
 13
-0.9949560210921374
 23
0.1003120934509023
 33
0.0
 40
0.0
 40
0.0
 40
0.0
 40
0.0
 40
0.7457398218913247
 40
1.513487185444473
 40
2.269576081607608
 40
2.269576081607608
 40
2.269576081607608
 40
2.269576081607608
 10
-1.111457978300023
 20
-4.529993554500009
 30
0.0
 10
-1.359205487899101
 20
-4.50966725696974
 30
0.0
 10
-1.861875074083286
 20
-4.46673357468901
 30
0.0
 10
-2.615254336939964
 20
-4.397766852908372
 30
0.0
 10
-3.120801364993873
 20
-4.348424631503014
 30
0.0
 10
-3.371559764900013
 20
-4.323143011499979
 30
0.0
 11
-1.111457978300023
 21
-4.529993554500009
 31
0.0
 11
-1.854499777600011
 21
-4.466615589500008
 31
0.0
 11
-2.619051722699992
 21
-4.396641755199993
 31
0.0
 11
-3.371559764900013
 21
-4.323143011499979
 31
0.0
  0
SPLINE
  5
78A
330
1F
100
AcDbEntity
  8
1
100
AcDbSpline
210
0.0
220
0.0
230
1.0
 70
     8
 71
     3
 72
    10
 73
     6
 74
     4
 42
0.0000000001
 43
0.0000000001
 44
0.0000000001
 12
0.9949107593154067
 22
-0.1007600168640366
 32
0.0
 13
0.9962053685753812
 23
-0.0870336924506217
 33
0.0
 40
0.0
 40
0.0
 40
0.0
 40
0.0
 40
0.7577829120022093
 40
1.515593894001376
 40
2.273389624485951
 40
2.273389624485951
 40
2.273389624485951
 40
2.273389624485951
 10
-3.387119850200008
 20
-4.472370745700004
 30
0.0
 10
-3.135811059407889
 20
-4.497822152030878
 30
0.0
 10
-2.633196410437498
 20
-4.548846783792002
 30
0.0
 10
-1.878607085288048
 20
-4.618751764318954
 30
0.0
 10
-1.374884997030743
 20
-4.657582028250856
 30
0.0
 10
-1.123244938699997
 20
-4.679566615099986
 30
0.0
 11
-3.387119850200008
 21
-4.472370745700004
 31
0.0
 11
-2.633094430800014
 21
-4.547740558100002
 31
0.0
 11
-1.878437516100007
 21
-4.616808825299983
 31
0.0
 11
-1.123244938699997
 21
-4.679566615099986
 31
0.0
  0
SPLINE
  5
78B
330
1F
100
AcDbEntity
  8
1
100
AcDbSpline
210
0.0
220
0.0
230
1.0
 70
     8
 71
     3
 72
    26
 73
    22
 74
    20
 42
0.0000000001
 43
0.0000000001
 44
0.0000000001
 12
0.4279791725558472
 22
0.9037885968844774
 32
0.0
 13
-0.4283801723416337
 23
-0.9035985989058151
 33
0.0
 40
0.0
 40
0.0
 40
0.0
 40
0.0
 40
0.5272257268189432
 40
1.058858528694799
 40
1.591800043375825
 40
2.124273545466476
 40
2.655642275623076
 40
3.186731740474055
 40
3.718039698842998
 40
4.249481449849647
 40
4.780958165114234
 40
5.312293451921267
 40
5.84372047374008
 40
6.375106220469263
 40
6.906475718250394
 40
7.437783833122344
 40
7.96915816378716
 40
8.500947559225357
 40
9.032543728684775
 40
9.562630526266945
 40
10.08860767439718
 40
10.08860767439718
 40
10.08860767439718
 40
10.08860767439718
 10
-2.905264989900018
 20
1.376631959999997
 30
0.0
 10
-2.830051113128643
 20
1.535465493294361
 30
0.0
 10
-2.652019344504838
 20
1.842392259443961
 30
0.0
 10
-2.313320431441358
 20
2.253804303209667
 30
0.0
 10
-1.909554672434427
 20
2.604589117510269
 30
0.0
 10
-1.453626793252032
 20
2.883862353294466
 30
0.0
 10
-0.9585605556271849
 20
3.084309374429746
 30
0.0
 10
-0.4374943579287994
 20
3.199600209405289
 30
0.0
 10
0.0954282154784107
 20
3.228515685025673
 30
0.0
 10
0.6258793239779547
 20
3.168289798773667
 30
0.0
 10
1.139313852862419
 20
3.022184831161837
 30
0.0
 10
1.621609022750968
 20
2.793233065276363
 30
0.0
 10
2.059384414167576
 20
2.487822403807709
 30
0.0
 10
2.441393546990468
 20
2.114916431088736
 30
0.0
 10
2.755959707734203
 20
1.683673469732345
 30
0.0
 10
2.996090017511019
 20
1.206971572806704
 30
0.0
 10
3.153681158158582
 20
0.6968049077219887
 30
0.0
 10
3.225482489122482
 20
0.1676759947262066
 30
0.0
 10
3.209179315808352
 20
-0.3657265513537563
 30
0.0
 10
3.105247043637518
 20
-0.886960160352039
 30
0.0
 10
2.980739496354597
 20
-1.218211732531015
 30
0.0
 10
2.9056334359
 20
-1.376635803900001
 30
0.0
 11
-2.905264989900018
 21
1.376631959999997
 31
0.0
 11
-2.641041173399997
 21
1.832869553600005
 31
0.0
 11
-2.302967952499983
 21
2.243162050899996
 31
0.0
 11
-1.900716581600022
 21
2.592762526700028
 31
0.0
 11
-1.446682960900005
 21
2.87093783420002
 31
0.0
 11
-0.9540781551999941
 21
3.070169440100016
 31
0.0
 11
-0.4355948202000093
 21
3.185195745800029
 31
0.0
 11
0.0949501256000076
 21
3.213659883100007
 31
0.0
 11
0.623030044199993
 21
3.153977940400011
 31
0.0
 11
1.134168985099989
 21
3.008360352300002
 31
0.0
 11
1.614167195799979
 21
2.780503149800011
 31
0.0
 11
2.050098869500004
 21
2.476565236100014
 31
0.0
 11
2.430160860699999
 21
2.105184441399984
 31
0.0
 11
2.743565064400002
 21
1.676079153300037
 31
0.0
 11
2.982318556899997
 21
1.201437095800031
 31
0.0
 11
3.139348382199983
 21
0.6937951813999917
 31
0.0
 11
3.210796637800001
 21
0.1668273381000063
 31
0.0
 11
3.194462622999992
 21
-0.36451782970002
 31
0.0
 11
3.091026332399991
 21
-0.884414883699975
 31
0.0
 11
2.9056334359
 21
-1.376635803900001
 31
0.0
  0
SPLINE
  5
78C
330
1F
100
AcDbEntity
  8
1
100
AcDbSpline
210
0.0
220
0.0
230
1.0
 70
     8
 71
     3
 72
    12
 73
     8
 74
     6
 42
0.0000000001
 43
0.0000000001
 44
0.0000000001
 12
-0.8526916796766974
 22
-0.5224144900461056
 32
0.0
 13
-0.8383752295987953
 23
-0.5450935464625932
 33
0.0
 40
0.0
 40
0.0
 40
0.0
 40
0.0
 40
0.0273548160436521
 40
0.7942698139111528
 40
1.561184811800522
 40
2.328099809605758
 40
2.413844905734986
 40
2.413844905734986
 40
2.413844905734986
 40
2.413844905734986
 10
-1.841502792900001
 20
4.446148936599996
 30
0.0
 10
-1.849277867579838
 20
4.441385419175413
 30
0.0
 10
-2.07501258199126
 20
4.303038436169652
 30
0.0
 10
-2.517509842578744
 20
4.029149992640554
 30
0.0
 10
-3.166160327442248
 20
3.619975120721819
 30
0.0
 10
-3.620298687068652
 20
3.328061222274545
 30
0.0
 10
-3.8586554707819
 20
3.173248259713641
 30
0.0
 10
-3.882617659000004
 20
3.157668560200022
 30
0.0
 11
-1.841502792900001
 21
4.446148936599996
 31
0.0
 11
-1.864825844900025
 21
4.431854839700008
 31
0.0
 11
-2.516932282100015
 21
4.028226534800012
 31
0.0
 11
-3.165575646200011
 21
3.619056154399999
 31
0.0
 11
-3.810708837699991
 21
3.204373409300018
 31
0.0
 11
-3.882617659000004
 21
3.157668560200022
 31
0.0
  0
LINE
  5
78D
330
1F
100
AcDbEntity
  8
1
100
AcDbLine
 10
-2.177435313000017
 20
-5.750001921899979
 30
0.0
 11
2.177803758999971
 21
-5.750001921899979
 31
0.0
  0
ARC
  5
78E
330
1F
100
AcDbEntity
  8
1
100
AcDbCircle
 10
0.0001036925999927
 20
-0.0001167050999697
 30
0.0
 40
2.282376844799999
100
AcDbArc
 50
334.6513591647989
 51
154.6444202764003
  0
CIRCLE
  5
78F
330
1F
100
AcDbEntity
  8
1
100
AcDbCircle
 10
-0.0000091000999873
 20
0.000000094599983
 30
0.0
 40
2.371542667399999
  0
ARC
  5
790
330
1F
100
AcDbEntity
  8
1
100
AcDbCircle
 10
0.00090784759999
 20
0.0002564309000093
 30
0.0
 40
2.401287315399999
100
AcDbArc
 50
334.6349252290003
 51
154.6608481703997
  0
ARC
  5
791
330
1F
100
AcDbEntity
  8
1
100
AcDbCircle
 10
-0.0000115411000081
 20
0.0000001200000099
 30
0.0
 40
2.401468513199999
100
AcDbArc
 50
154.6459338397001
 51
334.6498453360004
  0
ARC
  5
792
330
1F
100
AcDbEntity
  8
1
100
AcDbCircle
 10
-0.0000439564000203
 20
0.0000004581999917
 30
0.0
 40
2.799109368099999
100
AcDbArc
 50
154.6459337902997
 51
334.6498451872994
  0
ARC
  5
793
330
1F
100
AcDbEntity
  8
1
100
AcDbCircle
 10
0.0010276953999835
 20
0.0002992197000253
 30
0.0
 40
2.7989198547
100
AcDbArc
 50
334.6349235896005
 51
154.6608457975
  0
CIRCLE
  5
794
330
1F
100
AcDbEntity
  8
1
100
AcDbCircle
 10
0.0000751222999895
 20
-0.0001574275999872
 30
0.0
 40
3.092128927599999
  0
ARC
  5
795
330
1F
100
AcDbEntity
  8
1
100
AcDbCircle
 10
0.0001008393999768
 20
-0.0001207722000061
 30
0.0
 40
2.363359684999999
100
AcDbArc
 50
334.6513590912008
 51
154.6444203499005
  0
ARC
  5
796
330
1F
100
AcDbEntity
  8
1
100
AcDbCircle
 10
0.0000989181000079
 20
-0.0001269127000114
 30
0.0
 40
3.4649396273
100
AcDbArc
 50
216.5329020596997
 51
254.8408287114993
  0
ARC
  5
797
330
1F
100
AcDbEntity
  8
1
100
AcDbCircle
 10
-0.000077854500006
 20
0.0000008118999801
 30
0.0
 40
3.2147629514
100
AcDbArc
 50
154.6459338385994
 51
334.6498453849002
  0
ARC
  5
798
330
1F
100
AcDbEntity
  8
1
100
AcDbCircle
 10
0.000412143099993
 20
0.0003320319000011
 30
0.0
 40
3.3154645158
100
AcDbArc
 50
216.5360155011999
 51
254.8377152700998
  0
ARC
  5
799
330
1F
100
AcDbEntity
  8
1
100
AcDbCircle
 10
-1.447499623300018
 20
3.803053616200003
 30
0.0
 40
0.7541232495
100
AcDbArc
 50
121.4944196964004
 51
290.8399386762994
  0
ARC
  5
79A
330
1F
100
AcDbEntity
  8
1
100
AcDbCircle
 10
-1.447500444000013
 20
3.803053212999998
 30
0.0
 40
0.6041533798
100
AcDbArc
 50
121.4943504946002
 51
290.8400078780006
  0
CIRCLE
  5
79B
330
1F
100
AcDbEntity
  8
1
100
AcDbCircle
 10
0.0
 20
0.0
 30
0.0
 40
2.2599147179
  0
SPLINE
  5
79C
330
1F
100
AcDbEntity
  8
1
100
AcDbSpline
210
0.0
220
0.0
230
1.0
 70
     8
 71
     3
 72
    12
 73
     8
 74
     6
 42
0.0000000001
 43
0.0000000001
 44
0.0000000001
 12
0.2333494849888059
 22
-0.9723929338777915
 32
0.0
 13
0.2593425757661337
 23
-0.9657853945856643
 33
0.0
 40
0.0
 40
0.0
 40
0.0
 40
0.0
 40
0.0273548161026792
 40
0.7942698139294114
 40
1.561184811787444
 40
2.328099809649168
 40
2.413844905821629
 40
2.413844905821629
 40
2.413844905821629
 40
2.413844905821629
 10
-4.797469109700017
 20
-0.3776141845000041
 30
0.0
 10
-4.795341365616843
 20
-0.3864807277952613
 30
0.0
 10
-4.733521428688322
 20
-0.6439187677166727
 30
0.0
 10
-4.609777213471136
 20
-1.149394854510865
 30
0.0
 10
-4.42107280840199
 20
-1.892740114012643
 30
0.0
 10
-4.28378266412724
 20
-2.414857715804912
 30
0.0
 10
-4.210203083966892
 20
-2.68938832451973
 30
0.0
 10
-4.202790632599999
 20
-2.716992111699966
 30
0.0
 11
-4.797469109700017
 21
-0.3776141845000041
 31
0.0
 11
-4.791081835099987
 21
-0.4042128439999715
 31
0.0
 11
-4.608720476799987
 21
-1.149130925999969
 31
0.0
 11
-4.420018143100008
 21
-1.89246802529999
 31
0.0
 11
-4.224988535899996
 21
-2.634170166499984
 31
0.0
 11
-4.202790632599999
 21
-2.716992111699966
 31
0.0
  0
LINE
  5
79D
330
1F
100
AcDbEntity
  8
1
100
AcDbLine
 10
-6.1413121896
 20
0.2941896102000214
 30
0.0
 11
-4.795469301800011
 21
-3.847888889300008
 31
0.0
  0
ARC
  5
79E
330
1F
100
AcDbEntity
  8
1
100
AcDbCircle
 10
-4.064095439400006
 20
-0.2016222855999956
 30
0.0
 40
0.7541232495
100
AcDbArc
 50
193.4944196964003
 51
2.839938676300826
  0
ARC
  5
79F
330
1F
100
AcDbEntity
  8
1
100
AcDbCircle
 10
-4.064095309500004
 20
-0.2016231907999781
 30
0.0
 40
0.6041533798
100
AcDbArc
 50
193.4943504946004
 51
2.84000787799988
  0
SPLINE
  5
7A0
330
1F
100
AcDbEntity
  8
1
100
AcDbSpline
210
0.0
220
0.0
230
1.0
 70
     8
 71
     3
 72
    15
 73
    11
 74
     9
 42
0.0000000001
 43
0.0000000001
 44
0.0000000001
 12
-0.9993947112370321
 22
0.0347880892181433
 32
0.0
 13
-0.3419142801856021
 23
0.9397311450649922
 33
0.0
 40
0.0
 40
0.0
 40
0.0
 40
0.0
 40
0.0735713599172811
 40
0.1474060874435532
 40
0.2210485087204674
 40
0.2940667753605788
 40
0.4403844726797328
 40
0.5888803857914395
 40
0.7389981862821423
 40
0.8891155995075955
 40
0.8891155995075955
 40
0.8891155995075955
 40
0.8891155995075955
 10
-3.478568207400002
 20
-5.501729231399991
 30
0.0
 10
-3.503077150066618
 20
-5.500876095722424
 30
0.0
 10
-3.552133194908714
 20
-5.496728844104032
 30
0.0
 10
-3.624691710759821
 20
-5.483291888468395
 30
0.0
 10
-3.695453728369118
 20
-5.462973090538953
 30
0.0
 10
-3.786344906467014
 20
-5.426897502779725
 30
0.0
 10
-3.893168531532812
 20
-5.364980263897638
 30
0.0
 10
-4.005113139851856
 20
-5.266249010270787
 30
0.0
 10
-4.096325961843029
 20
-5.146500087747316
 30
0.0
 10
-4.140166669637913
 20
-5.055642662608163
 30
0.0
 10
-4.157275765400015
 20
-5.00861932639998
 30
0.0
 11
-3.478568207400002
 21
-5.501729231399991
 31
0.0
 11
-3.551878537100009
 21
-5.495537255999977
 31
0.0
 11
-3.624484092900019
 21
-5.482120838599996
 31
0.0
 11
-3.69525869680001
 21
-5.461769876599987
 31
0.0
 11
-3.763123374400009
 21
-5.434824509700007
 31
0.0
 11
-3.889717297800018
 21
-5.361456620899986
 31
0.0
 11
-4.001136058000014
 21
-5.263288927199994
 31
0.0
 11
-4.092029129600007
 21
-5.143815902799985
 31
0.0
 11
-4.157275765400015
 21
-5.00861932639998
 31
0.0
  0
SPLINE
  5
7A1
330
1F
100
AcDbEntity
  8
1
100
AcDbSpline
210
0.0
220
0.0
230
1.0
 70
     8
 71
     3
 72
    10
 73
     6
 74
     4
 42
0.0000000001
 43
0.0000000001
 44
0.0000000001
 12
-0.2671037817588215
 22
0.9636677693946891
 32
0.0
 13
-0.2671037817588215
 23
0.9636677693946891
 33
0.0
 40
0.0
 40
0.0
 40
0.0
 40
0.0
 40
0.4818902854040914
 40
0.9637840362103029
 40
1.445674321576571
 40
1.445674321576571
 40
1.445674321576571
 40
1.445674321576571
 10
-3.671781440300009
 20
-4.071227114399988
 30
0.0
 10
-3.714686346174766
 20
-3.916433068923878
 30
0.0
 10
-3.803814311798759
 20
-3.607774992976726
 30
0.0
 10
-3.93253156061512
 20
-3.143383728993614
 30
0.0
 10
-4.015017917528601
 20
-2.832884770863972
 30
0.0
 10
-4.057922823399991
 20
-2.678090725400011
 30
0.0
 11
-3.671781440300009
 21
-4.071227114399988
 31
0.0
 11
-3.802984906400013
 21
-3.60754198669997
 31
0.0
 11
-3.931700551900007
 21
-3.143156511399979
 31
0.0
 11
-4.057922823399991
 21
-2.678090725400011
 31
0.0
  0
SPLINE
  5
7A2
330
1F
100
AcDbEntity
  8
1
100
AcDbSpline
210
0.0
220
0.0
230
1.0
 70
     8
 71
     3
 72
    10
 73
     6
 74
     4
 42
0.0000000001
 43
0.0000000001
 44
0.0000000001
 12
-0.2740632394604083
 22
0.9617116723719572
 32
0.0
 13
-0.2608411564394111
 23
0.9653817333611357
 33
0.0
 40
0.0
 40
0.0
 40
0.0
 40
0.0
 40
0.4826923395291018
 40
0.9653919026991211
 40
1.448087594866624
 40
1.448087594866624
 40
1.448087594866624
 40
1.448087594866624
 10
-3.816018745400015
 20
-4.112458189999983
 30
0.0
 10
-3.860114820811371
 20
-3.957721237636762
 30
0.0
 10
-3.947858742816773
 20
-3.648116358351995
 30
0.0
 10
-4.076858107795246
 20
-3.182973380258965
 30
0.0
 10
-4.160835804182223
 20
-2.872324565363527
 30
0.0
 10
-4.202804771699987
 20
-2.716996030699988
 30
0.0
 11
-3.816018745400015
 21
-4.112458189999983
 31
0.0
 11
-3.947422010300016
 21
-3.647996053100001
 31
0.0
 11
-4.076352899999989
 21
-3.182834044799989
 31
0.0
 11
-4.202804771699987
 21
-2.716996030699988
 31
0.0
  0
SPLINE
  5
7A3
330
1F
100
AcDbEntity
  8
1
100
AcDbSpline
210
0.0
220
0.0
230
1.0
 70
     8
 71
     3
 72
    19
 73
    15
 74
    13
 42
0.0000000001
 43
0.0000000001
 44
0.0000000001
 12
-0.2580672774208912
 22
0.9661269483481811
 32
0.0
 13
0.5965782042611235
 23
-0.802554949022541
 33
0.0
 40
0.0
 40
0.0
 40
0.0
 40
0.0
 40
0.1960635587580884
 40
0.3962613017989036
 40
0.5990357157089559
 40
0.8017065485703072
 40
1.00375175234874
 40
1.20463343924719
 40
1.40518124753983
 40
1.606195878777101
 40
1.807244677451506
 40
2.008110914928831
 40
2.206337305262896
 40
2.400763760934623
 40
2.400763760934623
 40
2.400763760934623
 40
2.400763760934623
 10
-4.202790632599999
 20
-2.716992111699966
 30
0.0
 10
-4.219656495536716
 20
-2.653851349131553
 30
0.0
 10
-4.239156916268639
 20
-2.521870264584789
 30
0.0
 10
-4.223525317846296
 20
-2.321219761839927
 30
0.0
 10
-4.162291819028935
 20
-2.126792791878095
 30
0.0
 10
-4.055251261289086
 20
-1.952588226258125
 30
0.0
 10
-3.911945616568379
 20
-1.808016792646581
 30
0.0
 10
-3.74032527090421
 20
-1.69962214629563
 30
0.0
 10
-3.548433003587269
 20
-1.634548833118209
 30
0.0
 10
-3.346936127916141
 20
-1.613995258943567
 30
0.0
 10
-3.145678153184345
 20
-1.639782007427392
 30
0.0
 10
-2.95747928889672
 20
-1.71301803254891
 30
0.0
 10
-2.79247005223898
 20
-1.82492291610494
 30
0.0
 10
-2.702170106995153
 20
-1.92144407272656
 30
0.0
 10
-2.663506578399989
 20
-1.973456710799979
 30
0.0
 11
-4.202790632599999
 21
-2.716992111699966
 31
0.0
 11
-4.231648145099995
 21
-2.523063869699996
 31
0.0
 11
-4.216132114999993
 21
-2.323468305799963
 31
0.0
 11
-4.154665599499992
 21
-2.130234430900003
 31
0.0
 11
-4.049007470800006
 21
-1.957284072899994
 31
0.0
 11
-3.906832333099998
 21
-1.813727482699988
 31
0.0
 11
-3.736798824800018
 21
-1.706759925999989
 31
0.0
 11
-3.546994205099991
 21
-1.6420016852
 31
0.0
 11
-3.347005121100011
 21
-1.621722428499992
 31
0.0
 11
-3.147649657599998
 21
-1.647761219199963
 31
0.0
 11
-2.960247739700008
 21
-1.720064514599982
 31
0.0
 11
-2.796221519400006
 21
-1.831370852599974
 31
0.0
 11
-2.663506578399989
 21
-1.973456710799979
 31
0.0
  0
LINE
  5
7A4
330
1F
100
AcDbEntity
  8
1
100
AcDbLine
 10
-4.303276607300006
 20
-5.200177203299972
 30
0.0
 11
-4.795469301800011
 21
-3.847888889300008
 31
0.0
  0
LINE
  5
7A5
330
1F
100
AcDbEntity
  8
1
100
AcDbLine
 10
-3.615633833000003
 20
-5.699778922900009
 30
0.0
 11
-2.177435313000017
 21
-5.750001921899979
 31
0.0
  0
ARC
  5
7A6
330
1F
100
AcDbEntity
  8
1
100
AcDbCircle
 10
-3.335203344600017
 20
-3.974962038299963
 30
0.0
 40
0.5000739617000001
100
AcDbArc
 50
195.9586647295998
 51
264.0413352703993
  0
ARC
  5
7A7
330
1F
100
AcDbEntity
  8
1
100
AcDbCircle
 10
-3.335543064900008
 20
-3.975366901199976
 30
0.0
 40
0.3496361331
100
AcDbArc
 50
195.9126385675992
 51
264.0873614324992
  0
ARC
  5
7A8
330
1F
100
AcDbEntity
  8
1
100
AcDbCircle
 10
-3.362615452
 20
-2.491278010900003
 30
0.0
 40
0.7200187504000001
100
AcDbArc
 50
36.52546729780023
 51
195.0388703058994
  0
ARC
  5
7A9
330
1F
100
AcDbEntity
  8
1
100
AcDbCircle
 10
-3.589096009900003
 20
-4.940222342099986
 30
0.0
 40
0.7600047220999999
100
AcDbArc
 50
200.0010188267002
 51
267.9989811733003
  0
SPLINE
  5
7AA
330
1F
100
AcDbEntity
  8
1
100
AcDbSpline
210
0.0
220
0.0
230
1.0
 70
     8
 71
     3
 72
    15
 73
    11
 74
     9
 42
0.0000000001
 43
0.0000000001
 44
0.0000000001
 12
-0.2757445108956479
 22
0.9612309632502066
 32
0.0
 13
0.7880801059141933
 23
0.6155726981131266
 33
0.0
 40
0.0
 40
0.0
 40
0.0
 40
0.0
 40
0.0735713599197946
 40
0.147406087497964
 40
0.2210485087359561
 40
0.2940667753280466
 40
0.4403844726895071
 40
0.588880385826093
 40
0.7389981863193227
 40
0.8891155994687556
 40
0.8891155994687556
 40
0.8891155994687556
 40
0.8891155994687556
 10
-6.307263005800024
 20
1.608361008500025
 30
0.0
 10
-6.314025305352361
 20
1.631934031554469
 30
0.0
 10
-6.325240186242313
 20
1.679870673906844
 30
0.0
 10
-6.334882696451884
 20
1.753030170879193
 30
0.0
 10
-6.337425037222035
 20
1.826607702687534
 30
0.0
 10
-6.331202033037096
 20
1.92419831957032
 30
0.0
 10
-6.305325555136149
 20
2.044927103368185
 30
0.0
 10
-6.246019339333299
 20
2.181902387799111
 30
0.0
 10
-6.160317658555079
 20
2.305655388777885
 30
0.0
 10
-6.087454635951472
 20
2.375426867884639
 30
0.0
 10
-6.048019787000015
 20
2.406229594900025
 30
0.0
 11
-6.307263005800024
 21
1.608361008500025
 31
0.0
 11
-6.324028225000006
 21
1.679996700900005
 31
0.0
 11
-6.333704804400014
 21
1.753194588899987
 31
0.0
 11
-6.336220444700018
 21
1.826794030200005
 31
0.0
 11
-6.331565216600012
 21
1.899663750299993
 31
0.0
 11
-6.300907881600011
 21
2.042733650600013
 31
0.0
 11
-6.241975147200008
 21
2.179034674200011
 31
0.0
 11
-6.156437052699999
 21
2.302398317200015
 31
0.0
 11
-6.048019787000015
 21
2.406229594900025
 31
0.0
  0
LINE
  5
7AB
330
1F
100
AcDbEntity
  8
1
100
AcDbLine
 10
-6.275318895400005
 20
2.485890007700021
 30
0.0
 11
-5.1413121896
 21
3.371873147299993
 31
0.0
  0
LINE
  5
7AC
330
1F
100
AcDbEntity
  8
1
100
AcDbLine
 10
-6.53797506310002
 20
1.677517444599999
 30
0.0
 11
-6.1413121896
 21
0.2941896102000214
 31
0.0
  0
ARC
  5
7AD
330
1F
100
AcDbEntity
  8
1
100
AcDbCircle
 10
-5.807393189000009
 20
1.886994366599992
 30
0.0
 40
0.7600047220999999
100
AcDbArc
 50
128.0010188267008
 51
195.9989811733005
  0
SPLINE
  5
7AE
330
1F
100
AcDbEntity
  8
1
100
AcDbSpline
210
0.0
220
0.0
230
1.0
 70
     8
 71
     3
 72
    19
 73
    15
 74
    13
 42
0.0000000001
 43
0.0000000001
 44
0.0000000001
 12
0.8390941553833602
 22
0.5439862115913284
 32
0.0
 13
-0.5789223103784173
 23
-0.815382706798541
 33
0.0
 40
0.0
 40
0.0
 40
0.0
 40
0.0
 40
0.1960635587964572
 40
0.3962613018760785
 40
0.5990357157194715
 40
0.8017065485726085
 40
1.003751752339378
 40
1.204633439236759
 40
1.405181247568006
 40
1.60619587874881
 40
1.807244677351151
 40
2.008110914913801
 40
2.20633730524615
 40
2.400763760819038
 40
2.400763760819038
 40
2.400763760819038
 40
2.400763760819038
 10
-3.882617659000004
 20
3.157668560100034
 30
0.0
 10
-3.827779063576748
 20
3.193220517626967
 30
0.0
 10
-3.708283554478976
 20
3.252550917938012
 30
0.0
 10
-3.512623156772039
 20
3.299688799589445
 30
0.0
 10
-3.308789928289439
 20
3.301533519591012
 30
0.0
 10
-3.110034189638646
 20
3.253564070686693
 30
0.0
 10
-2.92825470598962
 20
3.161947333462909
 30
0.0
 10
-2.772131667859544
 20
3.032222473165037
 30
0.0
 10
-2.650945297691933
 20
2.869830841543019
 30
0.0
 10
-2.569131728035501
 20
2.684547328711328
 30
0.0
 10
-2.531464248908835
 20
2.485171076858063
 30
0.0
 10
-2.542959200382552
 20
2.283552144264914
 30
0.0
 10
-2.598396410638769
 20
2.092038523687566
 30
0.0
 10
-2.662289267947034
 20
1.976331494672749
 30
0.0
 10
-2.699808538900015
 20
1.923487504799993
 30
0.0
 11
-3.882617659000004
 21
3.157668560100034
 31
0.0
 11
-3.707098402500008
 21
3.245040807900011
 31
0.0
 11
-3.512477023800016
 21
3.291962607600027
 31
0.0
 11
-3.309706490100012
 21
3.293217028800029
 31
0.0
 11
-3.112570767800008
 21
3.24617477670003
 31
0.0
 11
-2.932105803500007
 21
3.155319611599992
 31
0.0
 11
-2.777830367999996
 21
3.026662928400014
 31
0.0
 11
-2.65758876800001
 21
2.866159404900031
 31
0.0
 11
-2.576502023100005
 21
2.682225118399998
 31
0.0
 11
-2.539662158600009
 21
2.484580377000014
 31
0.0
 11
-2.550516301400023
 21
2.284007614700016
 31
0.0
 11
-2.605688029800006
 21
2.093613859000015
 31
0.0
 11
-2.699808538900015
 21
1.923487504799993
 31
0.0
  0
SPLINE
  5
7AF
330
1F
100
AcDbEntity
  8
1
100
AcDbSpline
210
0.0
220
0.0
230
1.0
 70
     8
 71
     3
 72
    10
 73
     6
 74
     4
 42
0.0000000001
 43
0.0000000001
 44
0.0000000001
 12
0.8299519542718606
 22
0.5578348802291943
 32
0.0
 13
0.8375282380764337
 23
0.5463940431818272
 33
0.0
 40
0.0
 40
0.0
 40
0.0
 40
0.0
 40
0.4826923395333578
 40
0.9653919027770989
 40
1.448087594947664
 40
1.448087594947664
 40
1.448087594947664
 40
1.448087594947664
 10
-5.090265679999987
 20
2.358603903199991
 30
0.0
 10
-4.956728529830732
 20
2.448358111003705
 30
0.0
 10
-4.689391154960993
 20
2.627480709076774
 30
0.0
 10
-4.286876890585125
 20
2.893903480689799
 30
0.0
 10
-4.017382846263565
 20
3.069766779242822
 30
0.0
 10
-3.882625755399999
 20
3.157680796199997
 30
0.0
 11
-5.090265679999987
 21
2.358603903199991
 31
0.0
 11
-4.689141780099987
 21
2.62710252810001
 31
0.0
 11
-4.286588256899989
 21
2.893466056600004
 31
0.0
 11
-3.882625755399999
 21
3.157680796199997
 31
0.0
  0
SPLINE
  5
7B0
330
1F
100
AcDbEntity
  8
1
100
AcDbSpline
210
0.0
220
0.0
230
1.0
 70
     8
 71
     3
 72
    10
 73
     6
 74
     4
 42
0.0000000001
 43
0.0000000001
 44
0.0000000001
 12
-0.2302146058969745
 22
0.973139884719407
 32
0.0
 13
-0.2120558490169851
 23
0.977257548908007
 33
0.0
 40
0.0
 40
0.0
 40
0.0
 40
0.0
 40
0.7457398218549813
 40
1.513487185428135
 40
2.269576081621424
 40
2.269576081621424
 40
2.269576081621424
 40
2.269576081621424
 10
-4.651610169700006
 20
-0.3426117613999793
 30
0.0
 10
-4.708836902763348
 20
-0.1007087066431034
 30
0.0
 10
-4.823337989259137
 20
0.3906257162649578
 30
0.0
 10
-4.990553734589224
 20
1.128443862515706
 30
0.0
 10
-5.099849116495163
 20
1.624495242816559
 30
0.0
 10
-5.153293474100024
 20
1.87079310330003
 30
0.0
 11
-4.651610169700006
 21
-0.3426117613999793
 31
0.0
 11
-4.820946686700011
 21
0.3836478518999797
 31
0.0
 11
-4.990657159800008
 21
1.132403065299996
 31
0.0
 11
-5.153293474100024
 21
1.87079310330003
 31
0.0
  0
LINE
  5
7B1
330
1F
100
AcDbEntity
  8
1
100
AcDbLine
 10
-2.905271161900003
 20
1.376635112600013
 30
0.0
 11
-2.793286329700009
 21
1.323575489700004
 31
0.0
  0
LINE
  5
7B2
330
1F
100
AcDbEntity
  8
1
100
AcDbLine
 10
-2.169513164900024
 20
1.028024831099997
 30
0.0
 11
-2.142318417000012
 21
1.015139662900025
 31
0.0
  0
SPLINE
  5
7B3
330
1F
100
AcDbEntity
  8
1
100
AcDbSpline
210
0.0
220
0.0
230
1.0
 70
     8
 71
     3
 72
    10
 73
     6
 74
     4
 42
0.0000000001
 43
0.0000000001
 44
0.0000000001
 12
0.8339629038067402
 22
0.5518205098347017
 32
0.0
 13
0.8339629038067402
 23
0.5518205098347017
 33
0.0
 40
0.0
 40
0.0
 40
0.0
 40
0.0
 40
0.4818902853834778
 40
0.9637840361928343
 40
1.445674321662358
 40
1.445674321662358
 40
1.445674321662358
 40
1.445674321662358
 10
-5.006480818400007
 20
2.234167177400024
 30
0.0
 10
-4.872521277828452
 20
2.322806158388257
 30
0.0
 10
-4.606512059333892
 20
2.50295248162255
 30
0.0
 10
-4.204625539134693
 20
2.768874652786702
 30
0.0
 10
-3.934813167595483
 20
2.943273294595945
 30
0.0
 10
-3.800853627000009
 20
3.031912275600006
 30
0.0
 11
-5.006480818400007
 21
2.234167177400024
 31
0.0
 11
-4.606034156899994
 21
2.502235673200004
 31
0.0
 11
-4.204152646500006
 21
2.768154530499998
 31
0.0
 11
-3.800853627000009
 21
3.031912275600006
 31
0.0
  0
SPLINE
  5
7B4
330
1F
100
AcDbEntity
  8
1
100
AcDbSpline
210
0.0
220
0.0
230
1.0
 70
     8
 71
     3
 72
    10
 73
     6
 74
     4
 42
0.0000000001
 43
0.0000000001
 44
0.0000000001
 12
0.211615861935439
 22
-0.9773529183346829
 32
0.0
 13
0.2250704284412484
 23
-0.9743424974008229
 33
0.0
 40
0.0
 40
0.0
 40
0.0
 40
0.0
 40
0.7577829120194995
 40
1.515593893995438
 40
2.273389624506522
 40
2.273389624506522
 40
2.273389624506522
 40
2.273389624506522
 10
-5.300025813800004
 20
1.839477717900024
 30
0.0
 10
-5.246572852437687
 20
1.592603937724553
 30
0.0
 10
-5.139783692949908
 20
1.098821522261818
 30
0.0
 10
-4.973086354842745
 20
0.3595626004957448
 30
0.0
 10
-4.854357444712365
 20
-0.1315047854047164
 30
0.0
 10
-4.797504974800006
 20
-0.3776223135999999
 30
0.0
 11
-5.300025813800004
 21
1.839477717900024
 31
0.0
 11
-5.138700096299999
 21
1.099066376400003
 31
0.0
 11
-4.97118611030001
 21
0.3600017317999971
 31
0.0
 11
-4.797504974800006
 21
-0.3776223135999999
 31
0.0
  0
ARC
  5
7B5
330
1F
100
AcDbEntity
  8
1
100
AcDbCircle
 10
0.0005722632000129
 20
-0.000115489399974
 30
0.0
 40
3.3154645158
100
AcDbArc
 50
144.5360155011999
 51
182.8377152701003
  0
ARC
  5
7B6
330
1F
100
AcDbEntity
  8
1
100
AcDbCircle
 10
0.0000389889999894
 20
0.000040583599997
 30
0.0
 40
3.4649396273
100
AcDbArc
 50
144.5329020596999
 51
182.8408287115
  0
ARC
  5
7B7
330
1F
100
AcDbEntity
  8
1
100
AcDbCircle
 10
-4.811408965800012
 20
1.944007914400003
 30
0.0
 40
0.3496361331
100
AcDbArc
 50
123.9126385676008
 51
192.0873614324993
  0
ARC
  5
7B8
330
1F
100
AcDbEntity
  8
1
100
AcDbCircle
 10
-3.408322511699992
 20
2.428364088699993
 30
0.0
 40
0.7200187577000001
100
AcDbArc
 50
324.5254657057997
 51
123.0388667824995
  0
ARC
  5
7B9
330
1F
100
AcDbEntity
  8
1
100
AcDbCircle
 10
-4.810918938900016
 20
1.943809930700012
 30
0.0
 40
0.5000739617000001
100
AcDbArc
 50
123.9586647295997
 51
192.0413352703994
  0
SPLINE
  5
7BA
330
1F
100
AcDbEntity
  8
1
100
AcDbSpline
210
0.0
220
0.0
230
1.0
 70
     8
 71
     3
 72
    12
 73
     8
 74
     6
 42
0.0000000001
 43
0.0000000001
 44
0.0000000001
 12
0.38277452697188
 22
0.9238417946279836
 32
0.0
 13
0.3578618606664622
 23
0.933774538462223
 33
0.0
 40
0.0
 40
0.0
 40
0.0
 40
0.0
 40
0.0273548161309843
 40
0.7942698139158447
 40
1.561184811821636
 40
2.328099809671107
 40
2.413844905766071
 40
2.413844905766071
 40
2.413844905766071
 40
2.413844905766071
 10
4.103522221299982
 20
-2.514497058800003
 30
0.0
 10
4.107012463568295
 20
-2.506073217991281
 30
0.0
 10
4.208317367297859
 20
-2.2614646214981
 30
0.0
 10
4.405317583493568
 20
-1.779790852280135
 30
0.0
 10
4.689579893430984
 20
-1.067494238179266
 30
0.0
 10
4.885402860221756
 20
-0.5643951033373986
 30
0.0
 10
4.987240772422802
 20
-0.2990461833104748
 30
0.0
 10
4.997469072299992
 20
-0.2723573207999834
 30
0.0
 11
4.103522221299982
 21
-2.514497058800003
 31
0.0
 11
4.113989107399987
 21
-2.489223945399999
 31
0.0
 11
4.404307532199965
 21
-1.779383240699985
 31
0.0
 11
4.68856672169997
 21
-1.067094445899982
 31
0.0
 11
4.966746035400007
 21
-0.352409282099984
 31
0.0
 11
4.997469072299992
 21
-0.2723573207999834
 31
0.0
  0
SPLINE
  5
7BB
330
1F
100
AcDbEntity
  8
1
100
AcDbSpline
210
0.0
220
0.0
230
1.0
 70
     8
 71
     3
 72
    19
 73
    15
 74
    13
 42
0.0000000001
 43
0.0000000001
 44
0.0000000001
 12
-0.3590943589469822
 22
-0.9333012597079552
 32
0.0
 13
-0.0109119425357883
 23
0.9999404629827196
 33
0.0
 40
0.0
 40
0.0
 40
0.0
 40
0.0
 40
0.1960635587611516
 40
0.396261301831211
 40
0.5990357157362253
 40
0.8017065485490292
 40
1.003751752370234
 40
1.204633439241689
 40
1.405181247594124
 40
1.606195878732689
 40
1.807244677384896
 40
2.008110914965989
 40
2.206337305300963
 40
2.400763760854847
 40
2.400763760854847
 40
2.400763760854847
 40
2.400763760854847
 10
4.997469072199976
 20
-0.2723573206999958
 30
0.0
 10
4.974000632884576
 20
-0.3333527761581983
 30
0.0
 10
4.912200269779755
 20
-0.4515897763426548
 30
0.0
 10
4.781614634422558
 20
-0.6047314198189823
 30
0.0
 10
4.617794387783701
 20
-0.7260339952670045
 30
0.0
 10
4.428801882865712
 20
-0.8040515879657357
 30
0.0
 10
4.227888224359556
 20
-0.8367793902516899
 30
0.0
 10
4.025331673547585
 20
-0.823596592986868
 30
0.0
 10
3.831838434450504
 20
-0.7634505644177886
 30
0.0
 10
3.656742949897403
 20
-0.6616418634219219
 30
0.0
 10
3.509078898603812
 20
-0.5224834761600343
 30
0.0
 10
3.39986987452989
 20
-0.352613770311448
 30
0.0
 10
3.332150638061875
 20
-0.1650908219677591
 30
0.0
 10
3.315830160103484
 20
-0.033926589894187
 30
0.0
 10
3.315122970000004
 20
0.0308783701000266
 30
0.0
 11
4.997469072199976
 21
-0.2723573206999958
 31
0.0
 11
4.906827129699962
 21
-0.446210584499994
 31
0.0
 11
4.776955068700004
 21
-0.5985666939999704
 31
0.0
 11
4.613647591199992
 21
-0.7187670713999808
 31
0.0
 11
4.426510699699974
 21
-0.7965825602999815
 31
0.0
 11
4.227108150499987
 21
-0.829153832299994
 31
0.0
 11
4.026674200400009
 21
-0.8157492148999665
 31
0.0
 11
3.835055098499992
 21
-0.7565753758999847
 31
0.0
 11
3.661340682900004
 21
-0.6554310050999846
 31
0.0
 11
3.515363942199968
 21
-0.5171869794999964
 31
0.0
 11
3.406251416499969
 21
-0.3485403011000017
 31
0.0
 11
3.338975640699999
 21
-0.1620793888000094
 31
0.0
 11
3.315122970000004
 21
0.0308783701000266
 31
0.0
  0
LINE
  5
7BC
330
1F
100
AcDbEntity
  8
1
100
AcDbLine
 10
4.795837747799993
 20
-3.847888889300008
 30
0.0
 11
6.141680635599982
 21
0.2941896102000214
 31
0.0
  0
ARC
  5
7BD
330
1F
100
AcDbEntity
  8
1
100
AcDbCircle
 10
4.185081542299997
 20
0.0388787126000239
 30
0.0
 40
0.7200188073999999
100
AcDbArc
 50
180.5254670820997
 51
339.0388737388007
  0
SPLINE
  5
7BE
330
1F
100
AcDbEntity
  8
1
100
AcDbSpline
210
0.0
220
0.0
230
1.0
 70
     8
 71
     3
 72
    10
 73
     6
 74
     4
 42
0.0000000001
 43
0.0000000001
 44
0.0000000001
 12
-0.9993323513329029
 22
0.0365356206933956
 32
0.0
 13
-0.9987369383972852
 23
0.0502446801245392
 33
0.0
 40
0.0
 40
0.0
 40
0.0
 40
0.0
 40
0.482692339587537
 40
0.9653919028135556
 40
1.448087595007207
 40
1.448087595007207
 40
1.448087595007207
 40
1.448087595007207
 10
2.732090983600016
 20
-4.900245497999975
 30
0.0
 10
2.571300960036552
 20
-4.894367009923049
 30
0.0
 10
2.249734859024924
 20
-4.882143269474443
 30
0.0
 10
1.767494602611856
 20
-4.861091871088807
 30
0.0
 10
1.446099487566337
 20
-4.844963643383905
 30
0.0
 10
1.285404148299988
 20
-4.836879346499983
 30
0.0
 11
2.732090983600016
 21
-4.900245497999975
 31
0.0
 11
2.249755399699978
 21
-4.881690735799963
 31
0.0
 11
1.767518204500021
 21
-4.860568332900015
 31
0.0
 11
1.285404148299988
 21
-4.836879346499983
 31
0.0
  0
SPLINE
  5
7BF
330
1F
100
AcDbEntity
  8
1
100
AcDbSpline
210
0.0
220
0.0
230
1.0
 70
     8
 71
     3
 72
    10
 73
     6
 74
     4
 42
0.0000000001
 43
0.0000000001
 44
0.0000000001
 12
-0.9990421194500552
 22
0.0437589255437304
 32
0.0
 13
-0.9990421194500552
 23
0.0437589255437304
 33
0.0
 40
0.0
 40
0.0
 40
0.0
 40
0.0
 40
0.4818902854536988
 40
0.9637840362013914
 40
1.44567432162599
 40
1.44567432162599
 40
1.44567432162599
 40
1.44567432162599
 10
2.737449678899992
 20
-4.7503265661
 30
0.0
 10
2.57697344819264
 20
-4.743297565726194
 30
0.0
 10
2.255880117712258
 20
-4.732682707163322
 30
0.0
 10
1.774441962617531
 20
-4.71159529287533
 30
0.0
 10
1.453650219097674
 20
-4.694095025273343
 30
0.0
 10
1.293173988400013
 20
-4.687066024899962
 30
0.0
 11
2.737449678899992
 21
-4.7503265661
 31
0.0
 11
2.255914815900013
 21
-4.731821892900001
 31
0.0
 11
1.774482661699977
 21
-4.710734742499994
 31
0.0
 11
1.293173988400013
 21
-4.687066024899962
 31
0.0
  0
ARC
  5
7C0
330
1F
100
AcDbEntity
  8
1
100
AcDbCircle
 10
0.0002767356000106
 20
-0.000121675999992
 30
0.0
 40
3.4649396273
100
AcDbArc
 50
288.5329020597004
 51
326.8408287115004
  0
ARC
  5
7C1
330
1F
100
AcDbEntity
  8
1
100
AcDbCircle
 10
-0.0000629548000006
 20
0.0003180404000034
 30
0.0
 40
3.3154645158
100
AcDbArc
 50
288.5360155011992
 51
326.8377152701009
  0
SPLINE
  5
7C2
330
1F
100
AcDbEntity
  8
1
100
AcDbSpline
210
0.0
220
0.0
230
1.0
 70
     8
 71
     3
 72
    12
 73
     8
 74
     6
 42
0.0000000001
 43
0.0000000001
 44
0.0000000001
 12
0.9969095926544095
 22
-0.0785573935006721
 32
0.0
 13
0.9986577561403443
 23
-0.0517946532060289
 33
0.0
 40
0.0
 40
0.0
 40
0.0
 40
0.0
 40
0.0273548159631055
 40
0.7942698138711149
 40
1.561184811736033
 40
2.328099809634181
 40
2.413844905773215
 40
2.413844905773215
 40
2.413844905773215
 40
2.413844905773215
 10
-1.123241586900007
 20
-4.679529993299979
 30
0.0
 10
-1.114151494087035
 20
-4.680246300980563
 30
0.0
 10
-0.8502099576272176
 20
-4.701004776872551
 30
0.0
 10
-0.3312345659770044
 20
-4.739517735306291
 30
0.0
 10
0.4340416550530659
 20
-4.789755499007251
 30
0.0
 10
0.9730299902488072
 20
-4.820528024789201
 30
0.0
 10
1.256861455296592
 20
-4.835384309227118
 30
0.0
 10
1.285404790400008
 20
-4.836864688399998
 30
0.0
 11
-1.123241586900007
 21
-4.679529993299979
 31
0.0
 11
-1.095970982200014
 21
-4.681674772000008
 31
0.0
 11
-0.3311590273000036
 21
-4.738431160700002
 31
0.0
 11
0.4341087928000036
 21
-4.788668372699987
 31
0.0
 11
1.199776910400004
 21
-4.832382760400008
 31
0.0
 11
1.285404790400008
 21
-4.836864688399998
 31
0.0
  0
SPLINE
  5
7C3
330
1F
100
AcDbEntity
  8
1
100
AcDbSpline
210
0.0
220
0.0
230
1.0
 70
     8
 71
     3
 72
    19
 73
    15
 74
    13
 42
0.0000000001
 43
0.0000000001
 44
0.0000000001
 12
-0.9985885042104916
 22
0.0531130799206097
 32
0.0
 13
0.9476279175407798
 23
0.3193764704816639
 33
0.0
 40
0.0
 40
0.0
 40
0.0
 40
0.0
 40
0.1960635588215064
 40
0.3962613017915139
 40
0.599035715748806
 40
0.8017065485353022
 40
1.003751752349215
 40
1.204633439307882
 40
1.405181247578879
 40
1.606195878713887
 40
1.807244677441705
 40
2.008110914984276
 40
2.206337305313693
 40
2.400763760859118
 40
2.400763760859118
 40
2.400763760859118
 40
2.400763760859118
 10
1.285404790400008
 20
-4.836864688299982
 30
0.0
 10
1.22014251842209
 20
-4.833393508476913
 30
0.0
 10
1.088595086502535
 20
-4.811155112755914
 30
0.0
 10
0.9025955479904837
 20
-4.73428416377302
 30
0.0
 10
0.7366067029279926
 20
-4.615966408009425
 30
0.0
 10
0.6040056672098655
 20
-4.460332616648365
 30
0.0
 10
0.5107939426739378
 20
-4.279365819600888
 30
0.0
 10
0.4607381114489378
 20
-4.082649383630419
 30
0.0
 10
0.4581476846076253
 20
-3.880040232766253
 30
0.0
 10
0.5008660326722274
 20
-3.682053912406503
 30
0.0
 10
0.5875828224405125
 20
-3.498614747636486
 30
0.0
 10
0.7153910687752257
 20
-3.342258167766392
 30
0.0
 10
0.8728095957230584
 20
-3.219905568628933
 30
0.0
 10
0.9925108883722067
 20
-3.163851895113451
 30
0.0
 10
1.053925534099988
 20
-3.143153483399999
 30
0.0
 11
1.285404790400008
 21
-4.836864688299982
 31
0.0
 11
1.092050610299992
 21
-4.804382691199975
 31
0.0
 11
0.9070186657000078
 21
-4.727947648400004
 31
0.0
 11
0.7422365275999994
 21
-4.609776967099975
 31
0.0
 11
0.6104011200999935
 21
-4.455845515499987
 31
0.0
 11
0.5178052231999857
 21
-4.276267498299972
 31
0.0
 11
0.4686162750999756
 21
-4.081501229299988
 31
0.0
 11
0.4656803812999897
 21
-3.880974911999999
 31
0.0
 11
0.5081936875999987
 21
-3.684507355600004
 31
0.0
 11
0.5945622753999942
 21
-3.502955471799992
 31
0.0
 11
0.7212371731000076
 21
-3.347068603600007
 31
0.0
 11
0.8777826806999939
 21
-3.225465947900005
 31
0.0
 11
1.053925534099988
 21
-3.143153483399999
 31
0.0
  0
ARC
  5
7C4
330
1F
100
AcDbEntity
  8
1
100
AcDbCircle
 10
-1.063994000800022
 20
-3.927665853799993
 30
0.0
 40
0.6041533798
100
AcDbArc
 50
265.4943504945994
 51
74.84000787800029
  0
ARC
  5
7C5
330
1F
100
AcDbEntity
  8
1
100
AcDbCircle
 10
1.330366295200008
 20
-3.968061010699983
 30
0.0
 40
0.7200188073999999
100
AcDbArc
 50
108.5254670830996
 51
267.0388737377996
  0
ARC
  5
7C6
330
1F
100
AcDbEntity
  8
1
100
AcDbCircle
 10
-1.063994901900002
 20
-3.927665697700007
 30
0.0
 40
0.7541232495
100
AcDbArc
 50
265.4944196963999
 51
74.83993867629965
  0
SPLINE
  5
7C7
330
1F
100
AcDbEntity
  8
1
100
AcDbSpline
210
0.0
220
0.0
230
1.0
 70
     8
 71
     3
 72
    10
 73
     6
 74
     4
 42
0.0000000001
 43
0.0000000001
 44
0.0000000001
 12
-0.3857497441340727
 22
-0.922603454849643
 32
0.0
 13
-0.4028607893317419
 23
-0.9152612656607981
 33
0.0
 40
0.0
 40
0.0
 40
0.0
 40
0.0
 40
0.745739821930653
 40
1.513487185469168
 40
2.269576081612908
 40
2.269576081612908
 40
2.269576081612908
 40
2.269576081612908
 10
3.964945952000022
 20
-2.457080880099965
 30
0.0
 10
3.869056303499909
 20
-2.686421592144025
 30
0.0
 10
3.672890500512416
 20
-3.151221540180887
 30
0.0
 10
3.374492255086121
 20
-3.84641590835796
 30
0.0
 10
3.171342390701787
 20
-4.311972118687791
 30
0.0
 10
3.069809534199976
 20
-4.54264507869999
 30
0.0
 11
3.964945952000022
 21
-2.457080880099965
 31
0.0
 11
3.675057381899989
 21
-3.144170757000011
 31
0.0
 11
3.372248766799998
 21
-3.849679762499988
 31
0.0
 11
3.069809534199976
 21
-4.54264507869999
 31
0.0
  0
SPLINE
  5
7C8
330
1F
100
AcDbEntity
  8
1
100
AcDbSpline
210
0.0
220
0.0
230
1.0
 70
     8
 71
     3
 72
    10
 73
     6
 74
     4
 42
0.0000000001
 43
0.0000000001
 44
0.0000000001
 12
0.4032728031415587
 22
0.9150798032119109
 32
0.0
 13
0.39061834911214
 23
0.9205527173046126
 33
0.0
 40
0.0
 40
0.0
 40
0.0
 40
0.0
 40
0.7577829119306065
 40
1.515593893988281
 40
2.273389624426789
 40
2.273389624426789
 40
2.273389624426789
 40
2.273389624426789
 10
3.206925212399994
 20
-4.603557504999997
 30
0.0
 10
3.308789625422337
 20
-4.372413559024394
 30
0.0
 10
3.512633402124696
 20
-3.910166100295731
 30
0.0
 10
3.812297914673799
 20
-3.214110832503273
 30
0.0
 10
4.004886375837287
 20
-2.747041869472322
 30
0.0
 10
4.103556014899993
 20
-2.514511563199988
 30
0.0
 11
3.206925212399994
 21
-4.603557504999997
 31
0.0
 11
3.511612832399976
 21
-3.909727269399979
 31
0.0
 11
3.810502469599981
 21
-3.213349161399975
 31
0.0
 11
4.103556014899993
 21
-2.514511563199988
 31
0.0
  0
LINE
  5
7C9
330
1F
100
AcDbEntity
  8
1
100
AcDbLine
 10
4.303645053299987
 20
-5.200177203299972
 30
0.0
 11
4.795837747799993
 21
-3.847888889300008
 31
0.0
  0
LINE
  5
7CA
330
1F
100
AcDbEntity
  8
1
100
AcDbLine
 10
2.794962120900009
 20
-1.324198634399976
 30
0.0
 11
2.905635388900009
 21
-1.376636844899962
 31
0.0
  0
LINE
  5
7CB
330
1F
100
AcDbEntity
  8
1
100
AcDbLine
 10
2.143668155299991
 20
-1.015608321799987
 30
0.0
 11
2.170726578299991
 21
-1.028428874399992
 31
0.0
  0
LINE
  5
7CC
330
1F
100
AcDbEntity
  8
1
100
AcDbLine
 10
3.616002278999985
 20
-5.699778922900009
 30
0.0
 11
2.177803758999971
 21
-5.750001921899979
 31
0.0
  0
SPLINE
  5
7CD
330
1F
100
AcDbEntity
  8
1
100
AcDbSpline
210
0.0
220
0.0
230
1.0
 70
     8
 71
     3
 72
    15
 73
    11
 74
     9
 42
0.0000000001
 43
0.0000000001
 44
0.0000000001
 12
-0.3419153888007582
 22
-0.9397307417027638
 32
0.0
 13
-0.9993947522776284
 23
-0.034786910180958
 33
0.0
 40
0.0
 40
0.0
 40
0.0
 40
0.0
 40
0.0735713600087627
 40
0.1474060876278446
 40
0.2210485088084408
 40
0.2940667753528483
 40
0.4403844727846539
 40
0.5888803858785221
 40
0.7389981863264624
 40
0.8891155994909309
 40
0.8891155994909309
 40
0.8891155994909309
 40
0.8891155994909309
 10
4.157644211399997
 20
-5.00861932639998
 30
0.0
 10
4.149259151345998
 20
-5.031665082636352
 30
0.0
 10
4.130155728976405
 20
-5.077038582511751
 30
0.0
 10
4.094954610448162
 20
-5.141893584306082
 30
0.0
 10
4.053763619157028
 20
-5.202913408280961
 30
0.0
 10
3.991366777738278
 20
-5.278208085794676
 30
0.0
 10
3.899469668715619
 20
-5.360669911516112
 30
0.0
 10
3.770977880092579
 20
-5.43662592531494
 30
0.0
 10
3.628903575025361
 20
-5.486370022130246
 30
0.0
 10
3.528945505047366
 20
-5.499988524410541
 30
0.0
 10
3.478936653400012
 20
-5.501729231399991
 30
0.0
 11
4.157644211399997
 21
-5.00861932639998
 31
0.0
 11
4.129101155
 21
-5.076428167599971
 31
0.0
 11
4.093905033200002
 21
-5.141334253699994
 31
0.0
 11
4.052679562799994
 21
-5.202356108699973
 31
0.0
 11
4.006081657399988
 21
-5.258572676199975
 31
0.0
 11
3.897184974899971
 21
-5.356298727599977
 31
0.0
 11
3.769391659699977
 21
-5.431928779799989
 31
0.0
 11
3.627678557599978
 21
-5.481454032999977
 31
0.0
 11
3.478936653400012
 21
-5.501729231399991
 31
0.0
  0
ARC
  5
7CE
330
1F
100
AcDbEntity
  8
1
100
AcDbCircle
 10
3.40676544309997
 20
-2.22581045939998
 30
0.0
 40
0.6041533798
100
AcDbArc
 50
337.4943504945996
 51
146.8400078780002
  0
ARC
  5
7CF
330
1F
100
AcDbEntity
  8
1
100
AcDbCircle
 10
2.750184570699985
 20
-4.40092243319998
 30
0.0
 40
0.3496361331
100
AcDbArc
 50
267.9126385676004
 51
336.0873614324996
  0
ARC
  5
7D0
330
1F
100
AcDbEntity
  8
1
100
AcDbCircle
 10
3.406765016099996
 20
-2.225811268000001
 30
0.0
 40
0.7541232495
100
AcDbArc
 50
337.4944196963992
 51
146.8399386762998
  0
ARC
  5
7D1
330
1F
100
AcDbEntity
  8
1
100
AcDbCircle
 10
2.749904502500015
 20
-4.400474230399993
 30
0.0
 40
0.5000739617000001
100
AcDbArc
 50
267.9586647296004
 51
336.0413352703997
  0
ARC
  5
7D2
330
1F
100
AcDbEntity
  8
1
100
AcDbCircle
 10
3.589464455900014
 20
-4.940222342099986
 30
0.0
 40
0.7600047220999999
100
AcDbArc
 50
272.0010188266996
 51
339.9989811732997
  0
SPLINE
  5
7D3
330
1F
100
AcDbEntity
  8
1
100
AcDbSpline
210
0.0
220
0.0
230
1.0
 70
     8
 71
     3
 72
    12
 73
     8
 74
     6
 42
0.0000000001
 43
0.0000000001
 44
0.0000000001
 12
-0.7603419249583541
 22
0.6495230228025984
 32
0.0
 13
-0.7774869629620606
 23
0.6288990558301319
 33
0.0
 40
0.0
 40
0.0
 40
0.0
 40
0.0
 40
0.0273548160057901
 40
0.794269813899415
 40
1.561184811724596
 40
2.328099809618166
 40
2.413844905689117
 40
2.413844905689117
 40
2.413844905689117
 40
2.413844905689117
 10
3.659612383199998
 20
3.125482690400019
 30
0.0
 10
3.652679378713757
 20
3.131405217993449
 30
0.0
 10
3.451347716064981
 20
3.303340120239054
 30
0.0
 10
3.054125153625789
 20
3.639543839715911
 30
0.0
 10
2.464532702058635
 20
4.130005120961038
 30
0.0
 10
2.046569616072317
 20
4.471710011961269
 30
0.0
 10
1.825677442111004
 20
4.650560947679662
 30
0.0
 10
1.803455543999973
 20
4.668535951000023
 30
0.0
 11
3.659612383199998
 21
3.125482690400019
 31
0.0
 11
3.638810669799994
 21
3.143247112099999
 31
0.0
 11
3.053425368999967
 21
3.638709182900015
 31
0.0
 11
2.463839389699984
 21
4.129165079900019
 31
0.0
 11
1.870095542900003
 21
4.614579190100016
 31
0.0
 11
1.803455543999973
 21
4.668535951000023
 31
0.0
  0
SPLINE
  5
7D4
330
1F
100
AcDbEntity
  8
1
100
AcDbSpline
210
0.0
220
0.0
230
1.0
 70
     8
 71
     3
 72
    19
 73
    15
 74
    13
 42
0.0000000001
 43
0.0000000001
 44
0.0000000001
 12
0.7766559852110962
 22
-0.6299249801649255
 32
0.0
 13
-0.9543718689144037
 23
0.2986207223633821
 33
0.0
 40
0.0
 40
0.0
 40
0.0
 40
0.0
 40
0.1960635587718313
 40
0.3962613018186581
 40
0.5990357156664955
 40
0.8017065485798561
 40
1.003751752336007
 40
1.20463343927006
 40
1.405181247588449
 40
1.60619587873014
 40
1.80724467743541
 40
2.008110914933512
 40
2.206337305260041
 40
2.400763760952327
 40
2.400763760952327
 40
2.400763760952327
 40
2.400763760952327
 10
1.803455543899985
 20
4.668535951000023
 30
0.0
 10
1.854213522700629
 20
4.62736750654322
 30
0.0
 10
1.947566229606164
 20
4.532054625956931
 30
0.0
 10
2.05285940703238
 20
4.360536936214508
 30
0.0
 10
2.117601771772104
 20
4.167250065896796
 30
0.0
 10
2.133399015731294
 20
3.963398750553704
 30
0.0
 10
2.102439270573745
 20
3.762205059285424
 30
0.0
 10
2.0273082687621
 20
3.573636040123958
 30
0.0
 10
1.910313297165161
 20
3.40819917920807
 30
0.0
 10
1.75937998834513
 20
3.273134096370186
 30
0.0
 10
1.581401796014973
 20
3.175699544780234
 30
0.0
 10
1.386098660998364
 20
3.124328216721124
 30
0.0
 10
1.186827344078829
 20
3.117871173398921
 30
0.0
 10
1.057039441395128
 20
3.142881453384872
 30
0.0
 10
0.9951877280999781
 20
3.162234709599999
 30
0.0
 11
1.803455543899985
 21
4.668535951000023
 31
0.0
 11
1.940789922599975
 21
4.528606727799996
 31
0.0
 11
2.04555651939998
 21
4.358010430900009
 31
0.0
 11
2.109409085799995
 21
4.165551831000016
 31
0.0
 11
2.125587533799972
 21
3.963527762300003
 31
0.0
 11
2.094945877900016
 21
3.763819592000004
 31
0.0
 11
2.020259832299984
 21
3.577337832200015
 31
0.0
 11
1.904768608199987
 21
3.41338295860001
 31
0.0
 11
1.754893888699996
 21
3.279426061099997
 31
0.0
 11
1.578306713599999
 21
3.183313683899996
 31
0.0
 11
1.38419656649998
 21
3.131656195000005
 31
0.0
 11
1.186072342800002
 21
3.125292720700002
 31
0.0
 11
0.9951877280999781
 21
3.162234709599999
 31
0.0
  0
ARC
  5
7D5
330
1F
100
AcDbEntity
  8
1
100
AcDbCircle
 10
1.256410972899999
 20
3.992086843100025
 30
0.0
 40
0.7200187497
100
AcDbArc
 50
252.5254670240992
 51
51.03887003870074
  0
ARC
  5
7D6
330
1F
100
AcDbEntity
  8
1
100
AcDbCircle
 10
0.0001961248999862
 20
-0.0004060642999946
 30
0.0
 40
3.3154645158
100
AcDbArc
 50
72.53601550120016
 51
110.8377152700999
  0
ARC
  5
7D7
330
1F
100
AcDbEntity
  8
1
100
AcDbCircle
 10
0.0001797683999882
 20
0.0001493386999982
 30
0.0
 40
3.4649396273
100
AcDbArc
 50
72.53290205969982
 51
110.8408287115002
  0
SPLINE
  5
7D8
330
1F
100
AcDbEntity
  8
1
100
AcDbSpline
210
0.0
220
0.0
230
1.0
 70
     8
 71
     3
 72
    10
 73
     6
 74
     4
 42
0.0000000001
 43
0.0000000001
 44
0.0000000001
 12
-0.3435581197063729
 22
-0.9391314169932883
 32
0.0
 13
-0.3564122173332111
 23
-0.9343288132855713
 33
0.0
 40
0.0
 40
0.0
 40
0.0
 40
0.0
 40
0.4826923395232671
 40
0.9653919026958828
 40
1.448087594927694
 40
1.448087594927694
 40
1.448087594927694
 40
1.448087594927694
 10
5.504798423499977
 20
1.083937262999995
 30
0.0
 10
5.449520799312216
 20
0.9328334160705653
 30
0.0
 10
5.338525941260609
 20
0.6307832238654133
 30
0.0
 10
5.169484437131226
 20
0.1786507254366578
 30
0.0
 10
5.054829028588514
 20
-0.1220302965663031
 30
0.0
 10
4.997482814600004
 20
-0.2723624609999717
 30
0.0
 11
5.504798423499977
 21
1.083937262999995
 31
0.0
 11
5.338101903600005
 21
0.6309425997999938
 31
0.0
 11
5.168993816099998
 21
0.1788349544000027
 31
0.0
 11
4.997482814600004
 21
-0.2723624609999717
 31
0.0
  0
SPLINE
  5
7D9
330
1F
100
AcDbEntity
  8
1
100
AcDbSpline
210
0.0
220
0.0
230
1.0
 70
     8
 71
     3
 72
    10
 73
     6
 74
     4
 42
0.0000000001
 43
0.0000000001
 44
0.0000000001
 12
0.7582448011672194
 22
-0.651969954447967
 32
0.0
 13
0.745974360570795
 23
-0.6659746642110296
 33
0.0
 40
0.0
 40
0.0
 40
0.0
 40
0.0
 40
0.7457398219411964
 40
1.513487185445002
 40
2.269576081686727
 40
2.269576081686727
 40
2.269576081686727
 40
2.269576081686727
 10
3.56218393009999
 20
3.011431401399988
 30
0.0
 10
3.750668377770084
 20
2.849364748819643
 30
0.0
 10
4.132100830338534
 20
2.51916890075899
 30
0.0
 10
4.701059835256655
 20
2.020548430683306
 30
0.0
 10
5.0810533423638
 20
1.683476647596078
 30
0.0
 10
5.269060985999999
 20
1.515631297999988
 30
0.0
 11
3.56218393009999
 21
3.011431401399988
 31
0.0
 11
4.126064740200007
 21
2.523408539200033
 31
0.0
 11
4.703470668999983
 21
2.01740616020001
 31
0.0
 11
5.269060985999999
 21
1.515631297999988
 31
0.0
  0
SPLINE
  5
7DA
330
1F
100
AcDbEntity
  8
1
100
AcDbSpline
210
0.0
220
0.0
230
1.0
 70
     8
 71
     3
 72
    10
 73
     6
 74
     4
 42
0.0000000001
 43
0.0000000001
 44
0.0000000001
 12
-0.3503382042624639
 22
-0.9366232661183214
 32
0.0
 13
-0.3503382042624639
 23
-0.9366232661183214
 33
0.0
 40
0.0
 40
0.0
 40
0.0
 40
0.0
 40
0.4818902853461261
 40
0.9637840362216266
 40
1.445674321631106
 40
1.445674321631106
 40
1.445674321631106
 40
1.445674321631106
 10
5.363872974299994
 20
1.135361182900027
 30
0.0
 10
5.307598115226764
 20
0.9849112985761676
 30
0.0
 10
5.198279488961817
 20
0.6828135659510353
 30
0.0
 10
5.029451594564155
 20
0.2314550407214343
 30
0.0
 10
4.913677750580615
 20
-0.0682281572563471
 30
0.0
 10
4.857402891499987
 20
-0.2186780415999863
 30
0.0
 11
5.363872974299994
 21
1.135361182900027
 31
0.0
 11
5.197471528299985
 21
0.6831125722000309
 31
0.0
 11
5.028645739199987
 21
0.2317596725000044
 31
0.0
 11
4.857402891499987
 21
-0.2186780415999863
 31
0.0
  0
SPLINE
  5
7DB
330
1F
100
AcDbEntity
  8
1
100
AcDbSpline
210
0.0
220
0.0
230
1.0
 70
     8
 71
     3
 72
    10
 73
     6
 74
     4
 42
0.0000000001
 43
0.0000000001
 44
0.0000000001
 12
-0.7456744602450741
 22
0.6663104376626691
 32
0.0
 13
-0.754789952199217
 23
0.6559665601683549
 33
0.0
 40
0.0
 40
0.0
 40
0.0
 40
0.0
 40
0.7577829120217027
 40
1.5155938940309
 40
2.273389624558185
 40
2.273389624558185
 40
2.273389624558185
 40
2.273389624558185
 10
5.369363220699995
 20
1.627213082299988
 30
0.0
 10
5.18101009939842
 20
1.795519303554145
 30
0.0
 10
4.804377832969538
 20
2.132228576222776
 30
0.0
 10
4.234991361634309
 20
2.632319370209433
 30
0.0
 10
3.850295488240467
 20
2.959814128345268
 30
0.0
 10
3.659636620499981
 20
3.125510347900018
 30
0.0
 11
5.369363220699995
 21
1.627213082299988
 31
0.0
 11
4.803645106499971
 21
2.131393562900001
 31
0.0
 11
4.233712146399994
 21
2.630847169800006
 31
0.0
 11
3.659636620499981
 21
3.125510347900018
 31
0.0
  0
ARC
  5
7DC
330
1F
100
AcDbEntity
  8
1
100
AcDbCircle
 10
0.0003267038999866
 20
0.0000490568000089
 30
0.0
 40
3.4649396273
100
AcDbArc
 50
0.5329020597007776
 51
38.84082871149976
  0
ARC
  5
7DD
330
1F
100
AcDbEntity
  8
1
100
AcDbCircle
 10
-0.0001964614000087
 20
-0.0001381281999784
 30
0.0
 40
3.3154645158
100
AcDbArc
 50
0.5360155011993611
 51
38.83771527009924
  0
ARC
  5
7DE
330
1F
100
AcDbEntity
  8
1
100
AcDbCircle
 10
3.169745426299982
 20
2.552036681400011
 30
0.0
 40
0.6041531675999999
100
AcDbArc
 50
49.49435049449957
 51
218.8400078782001
  0
ARC
  5
7DF
330
1F
100
AcDbEntity
  8
1
100
AcDbCircle
 10
3.169746063399998
 20
2.552036025500001
 30
0.0
 40
0.7541232495
100
AcDbArc
 50
49.49441969629894
 51
218.8399386762996
  0
ARC
  5
7E0
330
1F
100
AcDbEntity
  8
1
100
AcDbCircle
 10
5.035505194899968
 20
1.255444599700012
 30
0.0
 40
0.3496361331
100
AcDbArc
 50
339.9126385675998
 51
48.08736143249991
  0
ARC
  5
7E1
330
1F
100
AcDbEntity
  8
1
100
AcDbCircle
 10
5.034992382900014
 20
1.255316741300021
 30
0.0
 40
0.5000739617000001
100
AcDbArc
 50
339.9586647296001
 51
48.04133527040082
  0
LINE
  5
7E2
330
1F
100
AcDbEntity
  8
1
100
AcDbLine
 10
0.4251708296000061
 20
6.736539064300018
 30
0.0
 11
1.618218211699996
 21
5.931818444100002
 31
0.0
  0
LINE
  5
7E3
330
1F
100
AcDbEntity
  8
1
100
AcDbLine
 10
-0.4248023835999959
 20
6.736539064300018
 30
0.0
 11
-1.617849765700015
 21
5.931818444100002
 31
0.0
  0
SPLINE
  5
7E4
330
1F
100
AcDbEntity
  8
1
100
AcDbSpline
210
0.0
220
0.0
230
1.0
 70
     8
 71
     3
 72
    15
 73
    11
 74
     9
 42
0.0000000001
 43
0.0000000001
 44
0.0000000001
 12
0.8289752312722072
 22
0.5592853171121075
 32
0.0
 13
0.8289745714946569
 23
-0.5592862950361379
 33
0.0
 40
0.0
 40
0.0
 40
0.0
 40
0.0
 40
0.0735713599858409
 40
0.147406087519016
 40
0.2210485088006812
 40
0.2940667753896244
 40
0.4403844727623538
 40
0.5888803858690965
 40
0.7389981863496736
 40
0.8891155995709116
 40
0.8891155995709116
 40
0.8891155995709116
 40
0.8891155995709116
 10
-0.4192801163000013
 20
6.495748344800006
 30
0.0
 10
-0.3989505045802435
 20
6.509464138600022
 30
0.0
 10
-0.3568256372119312
 20
6.534943361169451
 30
0.0
 10
-0.2902265204934442
 20
6.566721461429976
 30
0.0
 10
-0.2210357558470793
 20
6.591876078719622
 30
0.0
 10
-0.1262985497573075
 20
6.616114809491611
 30
0.0
 10
-0.003482381751239
 20
6.628812062210022
 30
0.0
 10
0.1451154836116185
 20
6.614736190049682
 30
0.0
 10
0.2892948574172764
 20
6.571470828433673
 30
0.0
 10
0.3781673895336907
 20
6.523734548753644
 30
0.0
 10
0.4196485623000115
 20
6.495748344800006
 30
0.0
 11
-0.4192801163000013
 21
6.495748344800006
 31
0.0
 11
-0.3563312617999941
 21
6.533829662100004
 31
0.0
 11
-0.289706160999998
 21
6.565652027400034
 31
0.0
 11
-0.2204863083000248
 21
6.59078802159999
 31
0.0
 11
-0.1497445416000289
 21
6.608878618600016
 31
0.0
 11
-0.0042033431000164
 21
6.623932790899999
 31
0.0
 11
0.1436378500000046
 21
6.610003762500014
 31
0.0
 11
0.2873963714000069
 21
6.566773662499997
 31
0.0
 11
0.4196485623000115
 21
6.495748344800006
 31
0.0
  0
ARC
  5
7E5
330
1F
100
AcDbEntity
  8
1
100
AcDbCircle
 10
0.3621833801999799
 20
5.176827210699997
 30
0.0
 40
0.3496361331
100
AcDbArc
 50
51.91263856760089
 51
120.0873614324997
  0
ARC
  5
7E6
330
1F
100
AcDbEntity
  8
1
100
AcDbCircle
 10
0.3621465132000026
 20
5.176299987100009
 30
0.0
 40
0.5000739617000001
100
AcDbArc
 50
51.95866472960023
 51
120.0413352704003
  0
ARC
  5
7E7
330
1F
100
AcDbEntity
  8
1
100
AcDbCircle
 10
0.0001842229999909
 20
6.106446341199983
 30
0.0
 40
0.7600047220999999
100
AcDbArc
 50
56.00101882670001
 51
123.9989811732999
  0
LINE
  5
7E8
330
1F
100
AcDbEntity
  8
1
100
AcDbLine
 10
6.567766357199985
 20
-21.95294274759999
 30
0.0
 11
6.567766357199985
 21
-27.08753693219998
 31
0.0
  0
SPLINE
  5
7E9
330
1F
100
AcDbEntity
  8
1
100
AcDbSpline
210
0.0
220
0.0
230
1.0
 70
     8
 71
     3
 72
    10
 73
     6
 74
     4
 42
0.0000000001
 43
0.0000000001
 44
0.0000000001
 12
-0.9683547092926938
 22
0.2495779577419898
 32
0.0
 13
-0.9697262989100476
 23
0.2441944004317488
 33
0.0
 40
0.0
 40
0.0
 40
0.0
 40
0.0
 40
0.0056763090297902
 40
0.0113375324469925
 40
0.0169831735848414
 40
0.0169831735848414
 40
0.0169831735848414
 40
0.0169831735848414
 10
6.275687341399986
 20
-26.95249263329998
 30
0.0
 10
6.273855114539854
 20
-26.95202040609492
 30
0.0
 10
6.270194671346192
 20
-26.95108053553239
 30
0.0
 10
6.264708943751093
 20
-26.94968253659981
 30
0.0
 10
6.261054976595196
 20
-26.94875865055089
 30
0.0
 10
6.259230067700002
 20
-26.94829910589999
 30
0.0
 11
6.275687341399986
 21
-26.95249263329998
 31
0.0
 11
6.27018937759999
 21
-26.95108093989998
 31
0.0
 11
6.264703473899999
 21
-26.94968297309998
 31
0.0
 11
6.259230067700002
 21
-26.94829910589999
 31
0.0
  0
SPLINE
  5
7EA
330
1F
100
AcDbEntity
  8
1
100
AcDbSpline
210
0.0
220
0.0
230
1.0
 70
     8
 71
     3
 72
    21
 73
    17
 74
    15
 42
0.0000000001
 43
0.0000000001
 44
0.0000000001
 12
0.9034084548284987
 22
-0.428781020737141
 32
0.0
 13
-0.9958317951277473
 23
0.0912087485532422
 33
0.0
 40
0.0
 40
0.0
 40
0.0
 40
0.0
 40
0.0131366833933803
 40
0.0504813787359545
 40
0.0819182671324043
 40
0.0953450329122498
 40
0.1071791274569608
 40
0.1173700730650824
 40
0.1258831949812547
 40
0.1327225661034688
 40
0.1379867082369155
 40
0.1419941062256549
 40
0.1455483109249154
 40
0.1498238785437577
 40
0.1556112519643546
 40
0.1589320101784259
 40
0.1589320101784259
 40
0.1589320101784259
 40
0.1589320101784259
 10
6.227459604500012
 20
-26.98864248269998
 30
0.0
 10
6.231415534782007
 20
-26.99052006953816
 30
0.0
 10
6.246549397072694
 20
-26.99787789909997
 30
0.0
 10
6.270641361391572
 20
-27.01077128709071
 30
0.0
 10
6.293820127051541
 20
-27.02546240259747
 30
0.0
 10
6.308947907041089
 20
-27.03680595561935
 30
0.0
 10
6.317975614398429
 20
-27.04444364018213
 30
0.0
 10
6.325268298026212
 20
-27.05156171814479
 30
0.0
 10
6.330801628540827
 20
-27.05805122135643
 30
0.0
 10
6.33456283130654
 20
-27.06384314935489
 30
0.0
 10
6.33657370549334
 20
-27.06885912960656
 30
0.0
 10
6.336750931972005
 20
-27.07332424610624
 30
0.0
 10
6.33436347460289
 20
-27.07680162670861
 30
0.0
 10
6.329957685326536
 20
-27.07846944906799
 30
0.0
 10
6.325487835267022
 20
-27.07874921232383
 30
0.0
 10
6.322453471637849
 20
-27.07857562613364
 30
0.0
 10
6.321351166100015
 20
-27.07847466539999
 30
0.0
 11
6.227459604500012
 21
-26.98864248269998
 31
0.0
 11
6.239272590200016
 21
-26.99438929219999
 31
0.0
 11
6.272132556800016
 21
-27.01213327329998
 31
0.0
 11
6.298564662599972
 21
-27.02915154979999
 31
0.0
 11
6.309286022000009
 21
-27.03723427779999
 31
0.0
 11
6.318293308499988
 21
-27.04490986139998
 31
0.0
 11
6.325545809099992
 21
-27.0520692334
 31
0.0
 11
6.331002810499995
 21
-27.05860332709997
 31
0.0
 11
6.334627518600001
 21
-27.06440319679998
 31
0.0
 11
6.336398814299997
 21
-27.06936038389997
 31
0.0
 11
6.336299497599981
 21
-27.07336655099999
 31
0.0
 11
6.334312368399992
 21
-27.0763133609
 31
0.0
 11
6.330427878600005
 21
-27.07809975879999
 31
0.0
 11
6.324667088099971
 21
-27.07865382009998
 31
0.0
 11
6.321351166100015
 21
-27.07847466539999
 31
0.0
  0
SPLINE
  5
7EB
330
1F
100
AcDbEntity
  8
1
100
AcDbSpline
210
0.0
220
0.0
230
1.0
 70
     8
 71
     3
 72
    12
 73
     8
 74
     6
 42
0.0000000001
 43
0.0000000001
 44
0.0000000001
 12
0.9683538778727037
 22
-0.2495811836034466
 32
0.0
 13
0.0015017679589873
 23
-0.9999988723458629
 33
0.0
 40
0.0
 40
0.0
 40
0.0
 40
0.0
 40
0.1162302144457209
 40
0.2108420377484294
 40
0.2786799880566723
 40
0.3182026421642589
 40
0.3280831091099126
 40
0.3280831091099126
 40
0.3280831091099126
 40
0.3280831091099126
 10
6.275677912900022
 20
-26.95249263329998
 30
0.0
 10
6.313195239194851
 20
-26.96216225813059
 30
0.0
 10
6.380180893783256
 20
-26.98232097248792
 30
0.0
 10
6.468655693553131
 20
-27.01509220059817
 30
0.0
 10
6.524919511223046
 20
-27.04749612107736
 30
0.0
 10
6.56254459426998
 20
-27.06888764520848
 30
0.0
 10
6.566018444043759
 20
-27.08567690363201
 30
0.0
 10
6.566023390099985
 20
-27.08897038889998
 30
0.0
 11
6.275677912900022
 21
-26.95249263329998
 31
0.0
 11
6.387034610799986
 21
-26.9857965157
 31
0.0
 11
6.4750119734
 21
-27.02060141159998
 31
0.0
 11
6.534622629099999
 21
-27.052982845
 31
0.0
 11
6.564133716699984
 21
-27.07927230859997
 31
0.0
 11
6.566023390099985
 21
-27.08897038889998
 31
0.0
  0
SPLINE
  5
7EC
330
1F
100
AcDbEntity
  8
1
100
AcDbSpline
210
0.0
220
0.0
230
1.0
 70
     8
 71
     3
 72
     9
 73
     5
 74
     3
 42
0.0000000001
 43
0.0000000001
 44
0.0000000001
 12
0.0015017687314067
 22
-0.999998872344703
 32
0.0
 13
-0.9958278930356785
 23
0.0912513421935337
 33
0.0
 40
0.0
 40
0.0
 40
0.0
 40
0.0
 40
0.0067680562523265
 40
0.0330312703696999
 40
0.0330312703696999
 40
0.0330312703696999
 40
0.0330312703696999
 10
6.566023390099985
 20
-27.08897038889998
 30
0.0
 10
6.566026778118403
 20
-27.09122640510674
 30
0.0
 10
6.563376122828077
 20
-27.10334148940931
 30
0.0
 10
6.547046668492938
 20
-27.09976730427949
 30
0.0
 10
6.538328788099988
 20
-27.09896845309998
 30
0.0
 11
6.566023390099985
 21
-27.08897038889998
 31
0.0
 11
6.564366265599971
 21
-27.09553244069999
 31
0.0
 11
6.538328788099988
 21
-27.09896845309998
 31
0.0
  0
LINE
  5
7ED
330
1F
100
AcDbEntity
  8
1
100
AcDbLine
 10
6.321351312199965
 20
-27.07847307029999
 30
0.0
 11
6.307631451800006
 21
-27.07580636419999
 31
0.0
  0
LINE
  5
7EE
330
1F
100
AcDbEntity
  8
1
100
AcDbLine
 10
6.32137435689998
 20
-27.07847519309999
 30
0.0
 11
6.538343509100002
 21
-27.09896845309998
 31
0.0
  0
SPLINE
  5
7EF
330
1F
100
AcDbEntity
  8
1
100
AcDbSpline
210
0.0
220
0.0
230
1.0
 70
     8
 71
     3
 72
    12
 73
     8
 74
     6
 42
0.0000000001
 43
0.0000000001
 44
0.0000000001
 12
-0.0291755747819498
 22
0.9995743023088094
 32
0.0
 13
-0.9994867658127617
 23
-0.0320344340537791
 33
0.0
 40
0.0
 40
0.0
 40
0.0
 40
0.0
 40
0.0226774794912823
 40
0.0704725351254479
 40
0.1387226062158045
 40
0.2258977280911988
 40
0.3279367306196088
 40
0.3279367306196088
 40
0.3279367306196088
 40
0.3279367306196088
 10
6.567116030899995
 20
-21.95296749159999
 30
0.0
 10
6.566895488067074
 20
-21.94541154968645
 30
0.0
 10
6.56067909586987
 20
-21.92156594552753
 30
0.0
 10
6.520826701969291
 20
-21.89261769387566
 30
0.0
 10
6.458159856252446
 20
-21.86821130806716
 30
0.0
 10
6.372825741322231
 20
-21.85323691302616
 30
0.0
 10
6.309673457107982
 20
-21.85155468796752
 30
0.0
 10
6.275677912900022
 20
-21.85264427519999
 30
0.0
 11
6.567116030899995
 21
-21.95296749159999
 31
0.0
 11
6.561442014699963
 21
-21.93101131669999
 31
0.0
 11
6.526287923699982
 21
-21.8986298833
 31
0.0
 11
6.46330430430001
 21
-21.87234041979999
 31
0.0
 11
6.377659047700007
 21
-21.85608028769999
 31
0.0
 11
6.275677912900022
 21
-21.85264427519999
 31
0.0
  0
SPLINE
  5
7F0
330
1F
100
AcDbEntity
  8
1
100
AcDbSpline
210
0.0
220
0.0
230
1.0
 70
     8
 71
     3
 72
    10
 73
     6
 74
     4
 42
0.0000000001
 43
0.0000000001
 44
0.0000000001
 12
0.99879014302977
 22
0.0491757072808499
 32
0.0
 13
0.9994867121782277
 23
0.0320361074282865
 33
0.0
 40
0.0
 40
0.0
 40
0.0
 40
0.0
 40
0.0054717003253145
 40
0.0109621196409937
 40
0.016471055373109
 40
0.016471055373109
 40
0.016471055373109
 40
0.016471055373109
 10
6.259230067700002
 20
-21.85331362239998
 30
0.0
 10
6.261051761150181
 20
-21.85322393082214
 30
0.0
 10
6.264701905639823
 20
-21.85305471984282
 30
0.0
 10
6.270187759981805
 20
-21.85283193195713
 30
0.0
 10
6.273851972045823
 20
-21.85270310348563
 30
0.0
 10
6.275687341399986
 20
-21.85264427519999
 30
0.0
 11
6.259230067700002
 21
-21.85331362239998
 31
0.0
 11
6.264695897399974
 21
-21.85306022520001
 31
0.0
 11
6.270181783200001
 21
-21.85283715289997
 31
0.0
 11
6.275687341399986
 21
-21.85264427519999
 31
0.0
  0
ARC
  5
7F1
330
1F
100
AcDbEntity
  8
1
100
AcDbCircle
 10
5.807761634999991
 20
1.886994366599992
 30
0.0
 40
0.7600047220999999
100
AcDbArc
 50
344.0010188266994
 51
51.99898117329915
  0
SPLINE
  5
7F2
330
1F
100
AcDbEntity
  8
1
100
AcDbSpline
210
0.0
220
0.0
230
1.0
 70
     8
 71
     3
 72
    13
 73
     9
 74
     7
 42
0.0000000001
 43
0.0000000001
 44
0.0000000001
 12
-0.082467465678056
 22
-0.9965937573076798
 32
0.0
 13
0.2100793456048687
 23
-0.9776843399330022
 33
0.0
 40
0.0
 40
0.0
 40
0.0
 40
0.0
 40
0.0364402839325013
 40
0.4239499315260757
 40
0.8103524662926096
 40
1.227598520846134
 40
1.70258772954726
 40
2.230237356137183
 40
2.230237356137183
 40
2.230237356137183
 40
2.230237356137183
 10
32.74070607809997
 20
5.572957784399989
 30
0.0
 10
32.73970436547847
 20
5.560852397906105
 30
0.0
 10
32.72861028260763
 20
5.419973614604035
 30
0.0
 10
32.7199758121313
 20
5.149601875866586
 30
0.0
 10
32.74217559395722
 20
4.752665453496859
 30
0.0
 10
32.80441774785327
 20
4.330477877267156
 30
0.0
 10
32.90771748259329
 20
3.868422720898648
 30
0.0
 10
32.98741481337909
 20
3.543831406262814
 30
0.0
 10
33.02436424279997
 20
3.371873147299993
 30
0.0
 11
32.74070607809997
 21
5.572957784399989
 31
0.0
 11
32.73784578939998
 21
5.536629929500008
 31
0.0
 11
32.72564766739998
 21
5.149312317200013
 31
0.0
 11
32.7471820307
 21
4.763510308300027
 31
0.0
 11
32.80630419499999
 21
4.350474184299997
 31
0.0
 11
32.905401925
 21
3.885937438399992
 31
0.0
 11
33.02436424279997
 21
3.371873147299993
 31
0.0
  0
SPLINE
  5
7F3
330
1F
100
AcDbEntity
  8
1
100
AcDbSpline
210
0.0
220
0.0
230
1.0
 70
     8
 71
     3
 72
    10
 73
     6
 74
     4
 42
0.0000000001
 43
0.0000000001
 44
0.0000000001
 12
-0.108608163222533
 22
0.9940846376850553
 32
0.0
 13
-0.2100793456112143
 23
0.9776843399316387
 33
0.0
 40
0.0
 40
0.0
 40
0.0
 40
0.0
 40
0.3747885663099173
 40
0.8497777750110369
 40
1.377427401503531
 40
1.377427401503531
 40
1.377427401503531
 40
1.377427401503531
 10
28.2832671269
 20
4.582442885600016
 30
0.0
 10
28.26969876097209
 20
4.706633404316248
 30
0.0
 10
28.2273586193241
 20
4.987033255048491
 30
0.0
 10
28.12714814964562
 20
5.435267768377921
 30
0.0
 10
28.04745071751517
 20
5.759860185169173
 30
0.0
 10
28.01050128809999
 20
5.931818444100002
 30
0.0
 11
28.2832671269
 21
4.582442885600016
 31
0.0
 11
28.22856133589999
 21
4.953217407200014
 31
0.0
 11
28.12946360590001
 21
5.41775415310002
 31
0.0
 11
28.01050128809999
 21
5.931818444100002
 31
0.0
  0
SPLINE
  5
7F4
330
1F
100
AcDbEntity
  8
1
100
AcDbSpline
210
0.0
220
0.0
230
1.0
 70
     8
 71
     3
 72
    10
 73
     6
 74
     4
 42
0.0000000001
 43
0.0000000001
 44
0.0000000001
 12
-0.2100793455923913
 22
-0.9776843399356833
 32
0.0
 13
-0.1235002651394936
 23
-0.9923445392153245
 33
0.0
 40
0.0
 40
0.0
 40
0.0
 40
0.0
 40
0.5292522657585069
 40
1.005224440258695
 40
1.307382656621646
 40
1.307382656621646
 40
1.307382656621646
 40
1.307382656621646
 10
33.02436424279997
 20
5.931818444100002
 30
0.0
 10
32.98730258625202
 20
5.759337893397479
 30
0.0
 10
32.90737093281696
 20
5.433922834355507
 30
0.0
 10
32.81233709055444
 20
5.00843496311536
 30
0.0
 10
32.77217658797828
 20
4.752000923495613
 30
0.0
 10
32.75973771469998
 20
4.652052571500007
 30
0.0
 11
33.02436424279997
 21
5.931818444100002
 31
0.0
 11
32.9050364016
 21
5.416193748100027
 31
0.0
 11
32.8058394818
 21
4.950673091200002
 31
0.0
 11
32.75973771469998
 21
4.652052571500007
 31
0.0
  0
LINE
  5
7F5
330
1F
100
AcDbEntity
  8
4
100
AcDbLine
 10
33.66743276540001
 20
0.0
 30
0.0
 11
27.36743276540002
 21
0.0
 31
0.0
  0
LINE
  5
7F6
330
1F
100
AcDbEntity
  8
1
100
AcDbLine
 10
28.01050128809999
 20
0.2941896102000214
 30
0.0
 11
32.7842836705
 21
0.2941896102000214
 31
0.0
  0
LINE
  5
7F7
330
1F
100
AcDbEntity
  8
1
100
AcDbLine
 10
33.02436424279997
 20
-3.847888889300008
 30
0.0
 11
28.2505818603
 21
-3.847888889300008
 31
0.0
  0
LINE
  5
7F8
330
1F
100
AcDbEntity
  8
1
100
AcDbLine
 10
32.7842836705
 20
-5.750001921899979
 30
0.0
 11
28.01050128809999
 21
-5.750001921899979
 31
0.0
  0
LINE
  5
7F9
330
1F
100
AcDbEntity
  8
1
100
AcDbLine
 10
33.02436424279997
 20
3.371873147299993
 30
0.0
 11
28.2505818603
 21
3.371873147299993
 31
0.0
  0
SPLINE
  5
7FA
330
1F
100
AcDbEntity
  8
1
100
AcDbSpline
210
0.0
220
0.0
230
1.0
 70
     8
 71
     3
 72
    13
 73
     9
 74
     7
 42
0.0000000001
 43
0.0000000001
 44
0.0000000001
 12
0.09798577104407
 22
0.9951878157779562
 32
0.0
 13
-0.1316439416827154
 23
0.9912970657770747
 33
0.0
 40
0.0
 40
0.0
 40
0.0
 40
0.0
 40
0.6411124843282286
 40
1.267924248047225
 40
1.892536335260545
 40
2.563452865944594
 40
3.321593620181708
 40
4.16183119404993
 40
4.16183119404993
 40
4.16183119404993
 40
4.16183119404993
 10
28.2505818603
 20
-3.847888889300008
 30
0.0
 10
28.2715218273343
 20
-3.635213111651145
 30
0.0
 10
28.30245123268598
 20
-3.213477505758944
 30
0.0
 10
28.31487125189902
 20
-2.582464011936665
 30
0.0
 10
28.29278308254805
 20
-1.941738443452759
 30
0.0
 10
28.23078062200055
 20
-1.259658984401818
 30
0.0
 10
28.12730710077609
 20
-0.5102266692486774
 30
0.0
 10
28.04737201682463
 20
0.0165479296896161
 30
0.0
 10
28.01050128809999
 20
0.2941896102000214
 30
0.0
 11
28.2505818603
 21
-3.847888889300008
 31
0.0
 11
28.29701974149998
 21
-3.208460440799967
 31
0.0
 11
28.30921786349998
 21
-2.581767379599995
 31
0.0
 11
28.28768350020002
 21
-1.95752661619997
 31
0.0
 11
28.22856133589999
 21
-1.289220128999971
 31
0.0
 11
28.12946360590001
 21
-0.5375838850999913
 31
0.0
 11
28.01050128809999
 21
0.2941896102000214
 31
0.0
  0
SPLINE
  5
7FB
330
1F
100
AcDbEntity
  8
1
100
AcDbSpline
210
0.0
220
0.0
230
1.0
 70
     8
 71
     3
 72
    10
 73
     6
 74
     4
 42
0.0000000001
 43
0.0000000001
 44
0.0000000001
 12
-0.3531603752034607
 22
0.9355627982055244
 32
0.0
 13
0.0795014677578667
 23
0.996834748904925
 33
0.0
 40
0.0
 40
0.0
 40
0.0
 40
0.0
 40
0.0992209110604435
 40
0.2199994226280321
 40
0.3551969496613931
 40
0.3551969496613931
 40
0.3551969496613931
 40
0.3551969496613931
 10
27.9629220182
 20
-5.358392445499987
 30
0.0
 10
27.95124172014062
 20
-5.327449981102583
 30
0.0
 10
27.93057815295621
 20
-5.25680273576646
 30
0.0
 10
27.91335177372021
 20
-5.139275612706573
 30
0.0
 10
27.91384996478788
 20
-5.053542524037602
 30
0.0
 10
27.9174327654
 20
-5.00861932639998
 30
0.0
 11
27.9629220182
 21
-5.358392445499987
 31
0.0
 11
27.9346358025
 21
-5.263288927199994
 31
0.0
 11
27.9169257687
 21
-5.143815902799985
 31
0.0
 11
27.9174327654
 21
-5.00861932639998
 31
0.0
  0
SPLINE
  5
7FC
330
1F
100
AcDbEntity
  8
1
100
AcDbSpline
210
0.0
220
0.0
230
1.0
 70
     8
 71
     3
 72
     8
 73
     4
 74
     2
 42
0.0000000001
 43
0.0000000001
 44
0.0000000001
 12
-0.1928403516535905
 22
-0.9812301456712996
 32
0.0
 13
-0.206614522883597
 23
-0.978422423564374
 33
0.0
 40
0.0
 40
0.0
 40
0.0
 40
0.0
 40
0.172988953775153
 40
0.172988953775153
 40
0.172988953775153
 40
0.172988953775153
 10
28.07949216700001
 20
-5.011048938899989
 30
0.0
 10
28.06837241677395
 20
-5.067629597670762
 30
0.0
 10
28.05685403374944
 20
-5.124133360265785
 30
0.0
 10
28.04494002369997
 20
-5.180552117399969
 30
0.0
 11
28.07949216700001
 21
-5.011048938899989
 31
0.0
 11
28.04494002369997
 21
-5.180552117399969
 31
0.0
  0
SPLINE
  5
7FD
330
1F
100
AcDbEntity
  8
1
100
AcDbSpline
210
0.0
220
0.0
230
1.0
 70
     8
 71
     3
 72
     9
 73
     5
 74
     3
 42
0.0000000001
 43
0.0000000001
 44
0.0000000001
 12
-0.1344416832596536
 22
-0.9909215073870944
 32
0.0
 13
-0.1928403515863903
 23
-0.9812301456845064
 33
0.0
 40
0.0
 40
0.0
 40
0.0
 40
0.0
 40
0.4496139998687717
 40
0.7268019714006642
 40
0.7268019714006642
 40
0.7268019714006642
 40
0.7268019714006642
 10
28.1984343009
 20
-4.294121963199984
 30
0.0
 10
28.17828534658018
 20
-4.442632690697418
 30
0.0
 10
28.14134794089267
 20
-4.682137069983536
 30
0.0
 10
28.09730984229526
 20
-4.920387207670579
 30
0.0
 10
28.07949216700001
 20
-5.011048938899989
 30
0.0
 11
28.1984343009
 21
-4.294121963199984
 31
0.0
 11
28.12986756840001
 21
-4.738476947500004
 31
0.0
 11
28.07949216700001
 21
-5.011048938899989
 31
0.0
  0
SPLINE
  5
7FE
330
1F
100
AcDbEntity
  8
1
100
AcDbSpline
210
0.0
220
0.0
230
1.0
 70
     8
 71
     3
 72
     8
 73
     4
 74
     2
 42
0.0000000001
 43
0.0000000001
 44
0.0000000001
 12
-0.1332799344974582
 22
-0.9910784323454695
 32
0.0
 13
-0.1344416832920192
 23
-0.9909215073827031
 33
0.0
 40
0.0
 40
0.0
 40
0.0
 40
0.0
 40
0.0144912912419797
 40
0.0144912912419797
 40
0.0144912912419797
 40
0.0144912912419797
 10
28.20037411979999
 20
-4.279761091899985
 30
0.0
 10
28.19973032035081
 20
-4.284548427302238
 30
0.0
 10
28.19908371209589
 20
-4.289335385812842
 30
0.0
 10
28.1984343009
 20
-4.294121963199984
 30
0.0
 11
28.20037411979999
 21
-4.279761091899985
 31
0.0
 11
28.1984343009
 21
-4.294121963199984
 31
0.0
  0
SPLINE
  5
7FF
330
1F
100
AcDbEntity
  8
1
100
AcDbSpline
210
0.0
220
0.0
230
1.0
 70
     8
 71
     3
 72
     8
 73
     4
 74
     2
 42
0.0000000001
 43
0.0000000001
 44
0.0000000001
 12
-0.1244846852142909
 22
-0.9922215292701014
 32
0.0
 13
-0.1332799315705723
 23
-0.9910784327390762
 33
0.0
 40
0.0
 40
0.0
 40
0.0
 40
0.0
 40
0.1087557882753577
 40
0.1087557882753577
 40
0.1087557882753577
 40
0.1087557882753577
 10
28.21439208680001
 20
-4.17191250319999
 30
0.0
 10
28.20987927677712
 20
-4.207882448053174
 30
0.0
 10
28.20520577447306
 20
-4.24383258650157
 30
0.0
 10
28.20037411979999
 20
-4.279761091899985
 30
0.0
 11
28.21439208680001
 21
-4.17191250319999
 31
0.0
 11
28.20037411979999
 21
-4.279761091899985
 31
0.0
  0
SPLINE
  5
800
330
1F
100
AcDbEntity
  8
1
100
AcDbSpline
210
0.0
220
0.0
230
1.0
 70
     8
 71
     3
 72
    11
 73
     7
 74
     5
 42
0.0000000001
 43
0.0000000001
 44
0.0000000001
 12
-0.3001431149979734
 22
-0.9538941820345238
 32
0.0
 13
0.1698830215006678
 23
-0.9854642352748291
 33
0.0
 40
0.0
 40
0.0
 40
0.0
 40
0.0
 40
0.0597672594889914
 40
0.1380449233485161
 40
0.1862184909345552
 40
0.2016628089747119
 40
0.2016628089747119
 40
0.2016628089747119
 40
0.2016628089747119
 10
27.959268613
 20
-5.506246391399997
 30
0.0
 10
27.95328903585403
 20
-5.525250271767562
 30
0.0
 10
27.93891588962345
 20
-5.568812762883339
 30
0.0
 10
27.91530339198928
 20
-5.627127974337842
 30
0.0
 10
27.90457507186582
 20
-5.671811587226128
 30
0.0
 10
27.89210238619544
 20
-5.691615468144392
 30
0.0
 10
27.892976962
 20
-5.696688742499986
 30
0.0
 11
27.959268613
 21
-5.506246391399997
 31
0.0
 11
27.9402562846
 21
-5.562909048199998
 31
0.0
 11
27.91396682099997
 21
-5.636640023799998
 31
0.0
 11
27.8977066889
 21
-5.681986475900004
 31
0.0
 11
27.892976962
 21
-5.696688742499986
 31
0.0
  0
SPLINE
  5
801
330
1F
100
AcDbEntity
  8
1
100
AcDbSpline
210
0.0
220
0.0
230
1.0
 70
     8
 71
     3
 72
    10
 73
     6
 74
     4
 42
0.0000000001
 43
0.0000000001
 44
0.0000000001
 12
-0.2112549782498688
 22
-0.9774309869063124
 32
0.0
 13
-0.3001431151169691
 23
-0.9538941819970819
 33
0.0
 40
0.0
 40
0.0
 40
0.0
 40
0.0
 40
0.142875481011356
 40
0.2709635523393465
 40
0.3168215550800567
 40
0.3168215550800567
 40
0.3168215550800567
 40
0.3168215550800567
 10
28.04074649629999
 20
-5.200171965299972
 30
0.0
 10
28.03068544408882
 20
-5.246722272769853
 30
0.0
 10
28.00964081841044
 20
-5.334599048671517
 30
0.0
 10
27.98062003823464
 20
-5.436157706822799
 30
0.0
 10
27.96385660093188
 20
-5.491665164062541
 30
0.0
 10
27.959268613
 20
-5.506246391399997
 30
0.0
 11
28.04074649629999
 21
-5.200171965299972
 31
0.0
 11
28.00744261389999
 21
-5.339111716600001
 31
0.0
 11
27.97263771799999
 21
-5.462380419999988
 31
0.0
 11
27.959268613
 21
-5.506246391399997
 31
0.0
  0
SPLINE
  5
802
330
1F
100
AcDbEntity
  8
1
100
AcDbSpline
210
0.0
220
0.0
230
1.0
 70
     8
 71
     3
 72
    10
 73
     6
 74
     4
 42
0.0000000001
 43
0.0000000001
 44
0.0000000001
 12
-0.206613798003234
 22
-0.978422576637865
 32
0.0
 13
-0.2112536943931181
 23
-0.9774312643890921
 33
0.0
 40
0.0
 40
0.0
 40
0.0
 40
0.0
 40
0.0066720473055699
 40
0.0133616198138271
 40
0.0200681423164449
 40
0.0200681423164449
 40
0.0200681423164449
 40
0.0200681423164449
 10
28.04494002369997
 20
-5.180552117399969
 30
0.0
 10
28.04448051135522
 20
-5.182728144638691
 30
0.0
 10
28.04355668860563
 20
-5.187085157348262
 30
0.0
 10
28.04215868802035
 20
-5.193626827029758
 30
0.0
 10
28.04121875551839
 20
-5.197992148376843
 30
0.0
 10
28.04074649629999
 20
-5.200177203299972
 30
0.0
 11
28.04494002369997
 21
-5.180552117399969
 31
0.0
 11
28.04355615899999
 21
-5.187079071799985
 31
0.0
 11
28.0421581919
 21
-5.193620942199999
 31
0.0
 11
28.04074649629999
 21
-5.200177203299972
 31
0.0
  0
SPLINE
  5
803
330
1F
100
AcDbEntity
  8
1
100
AcDbSpline
210
0.0
220
0.0
230
1.0
 70
     8
 71
     3
 72
     8
 73
     4
 74
     2
 42
0.0000000001
 43
0.0000000001
 44
0.0000000001
 12
-0.1487683422758999
 22
-0.988872074808709
 32
0.0
 13
-0.207793912775981
 23
-0.9781726278184482
 33
0.0
 40
0.0
 40
0.0
 40
0.0
 40
0.0
 40
0.7408444914521426
 40
0.7408444914521426
 40
0.7408444914521426
 40
0.7408444914521426
 10
28.19959815629997
 20
-4.279659197200004
 30
0.0
 10
28.16286008734078
 20
-4.523859340324298
 30
0.0
 10
28.11874709061247
 20
-4.767061392063792
 30
0.0
 10
28.06743276540001
 20
-5.00861932639998
 30
0.0
 11
28.19959815629997
 21
-4.279659197200004
 31
0.0
 11
28.06743276540001
 21
-5.00861932639998
 31
0.0
  0
SPLINE
  5
804
330
1F
100
AcDbEntity
  8
1
100
AcDbSpline
210
0.0
220
0.0
230
1.0
 70
     8
 71
     3
 72
    10
 73
     6
 74
     4
 42
0.0000000001
 43
0.0000000001
 44
0.0000000001
 12
-0.0766668826656595
 22
-0.9970567632298225
 32
0.0
 13
-0.1316439416952858
 23
-0.9912970657754053
 33
0.0
 40
0.0
 40
0.0
 40
0.0
 40
0.0
 40
0.4897615594499768
 40
1.247902313786249
 40
2.088139887555489
 40
2.088139887555489
 40
2.088139887555489
 40
2.088139887555489
 10
28.2751480691
 20
-1.776938319599992
 30
0.0
 10
28.26263190509583
 20
-1.93971167800652
 30
0.0
 10
28.22252131145884
 20
-2.353858983737073
 30
0.0
 10
28.12730678123594
 20
-3.043475446163736
 30
0.0
 10
28.04737201682381
 20
-3.570247208822777
 30
0.0
 10
28.01050128809999
 20
-3.847888889300008
 30
0.0
 11
28.2751480691
 21
-1.776938319599992
 31
0.0
 11
28.22856133589999
 21
-2.264479150099987
 31
0.0
 11
28.12946360590001
 21
-3.016115394099983
 31
0.0
 11
28.01050128809999
 21
-3.847888889300008
 31
0.0
  0
SPLINE
  5
805
330
1F
100
AcDbEntity
  8
1
100
AcDbSpline
210
0.0
220
0.0
230
1.0
 70
     8
 71
     3
 72
    10
 73
     6
 74
     4
 42
0.0000000001
 43
0.0000000001
 44
0.0000000001
 12
-0.0412527406680459
 22
-0.9991487433747664
 32
0.0
 13
-0.0268690458129636
 23
-0.999638962014337
 33
0.0
 40
0.0
 40
0.0
 40
0.0
 40
0.0
 40
0.0065228549937285
 40
0.0130685049946144
 40
0.0196366444921751
 40
0.0196366444921751
 40
0.0196366444921751
 40
0.0196366444921751
 10
27.8949400237
 20
-5.180552117399969
 30
0.0
 10
27.89485032848484
 20
-5.182724551523369
 30
0.0
 10
27.89468111251821
 20
-5.187077452661268
 30
0.0
 10
27.89445832656914
 20
-5.193619228936629
 30
0.0
 10
27.894329503047
 20
-5.197988613916736
 30
0.0
 10
27.89427067649998
 20
-5.200177203299972
 30
0.0
 11
27.8949400237
 21
-5.180552117399969
 31
0.0
 11
27.89468662649997
 21
-5.187070048599991
 31
0.0
 11
27.89446355410001
 21
-5.1936118964
 31
0.0
 11
27.89427067649998
 21
-5.200177203299972
 31
0.0
  0
SPLINE
  5
806
330
1F
100
AcDbEntity
  8
1
100
AcDbSpline
210
0.0
220
0.0
230
1.0
 70
     8
 71
     3
 72
     8
 73
     4
 74
     2
 42
0.0000000001
 43
0.0000000001
 44
0.0000000001
 12
-0.0535612655345621
 22
-0.9985645651806079
 32
0.0
 13
-0.0412538901125079
 23
-0.9991486959159708
 33
0.0
 40
0.0
 40
0.0
 40
0.0
 40
0.0
 40
0.1728254974658956
 40
0.1728254974658956
 40
0.1728254974658956
 40
0.1728254974658956
 10
27.9031328412
 20
-5.007920920000003
 30
0.0
 10
27.9000472570797
 20
-5.065446725909721
 30
0.0
 10
27.8973165983937
 20
-5.122992660595276
 30
0.0
 10
27.8949400237
 20
-5.180552117399969
 30
0.0
 11
27.9031328412
 21
-5.007920920000003
 31
0.0
 11
27.8949400237
 21
-5.180552117399969
 31
0.0
  0
SPLINE
  5
807
330
1F
100
AcDbEntity
  8
1
100
AcDbSpline
210
0.0
220
0.0
230
1.0
 70
     8
 71
     3
 72
     8
 73
     4
 74
     2
 42
0.0000000001
 43
0.0000000001
 44
0.0000000001
 12
-0.0564489386122946
 22
-0.9984054874296042
 32
0.0
 13
-0.0535612660477833
 23
-0.9985645651530795
 33
0.0
 40
0.0
 40
0.0
 40
0.0
 40
0.0
 40
0.0404827172603647
 40
0.0404827172603647
 40
0.0404827172603647
 40
0.0404827172603647
 10
27.90535959169997
 20
-4.967499490299985
 30
0.0
 10
27.90459785622614
 20
-4.980972212652922
 30
0.0
 10
27.90385560972984
 20
-4.994446051014233
 30
0.0
 10
27.9031328412
 20
-5.007920920000003
 30
0.0
 11
27.90535959169997
 21
-4.967499490299985
 31
0.0
 11
27.9031328412
 21
-5.007920920000003
 31
0.0
  0
SPLINE
  5
808
330
1F
100
AcDbEntity
  8
1
100
AcDbSpline
210
0.0
220
0.0
230
1.0
 70
     8
 71
     3
 72
    10
 73
     6
 74
     4
 42
0.0000000001
 43
0.0000000001
 44
0.0000000001
 12
-0.1253511328523665
 22
-0.9921124399444995
 32
0.0
 13
-0.0564489378883779
 23
-0.9984054874705337
 33
0.0
 40
0.0
 40
0.0
 40
0.0
 40
0.0
 40
0.4645529692381641
 40
0.9080821507202138
 40
1.124733971592078
 40
1.124733971592078
 40
1.124733971592078
 40
1.124733971592078
 10
28.01050128809999
 20
-3.847888889300008
 30
0.0
 10
27.991090541112
 20
-4.001518482564788
 30
0.0
 10
27.95648359635194
 20
-4.302261557142688
 30
0.0
 10
27.92355941600962
 20
-4.675781123420148
 30
0.0
 10
27.90943618009324
 20
-4.895397368023667
 30
0.0
 10
27.90535959169997
 20
-4.967499490299985
 30
0.0
 11
28.01050128809999
 21
-3.847888889300008
 31
0.0
 11
27.95778254669997
 21
-4.309440831699987
 31
0.0
 11
27.91926608379998
 21
-4.751294446499969
 31
0.0
 11
27.90535959169997
 21
-4.967499490299985
 31
0.0
  0
SPLINE
  5
809
330
1F
100
AcDbEntity
  8
1
100
AcDbSpline
210
0.0
220
0.0
230
1.0
 70
     8
 71
     3
 72
    10
 73
     6
 74
     4
 42
0.0000000001
 43
0.0000000001
 44
0.0000000001
 12
-0.2200463504341244
 22
0.9754894175031436
 32
0.0
 13
0.0268674411106284
 23
0.9996390051454412
 33
0.0
 40
0.0
 40
0.0
 40
0.0
 40
0.0
 40
0.0275150368709502
 40
0.1466328876742256
 40
0.2733557571170197
 40
0.2733557571170197
 40
0.2733557571170197
 40
0.2733557571170197
 10
27.91963470399997
 20
-5.471776023800003
 30
0.0
 10
27.91761650951813
 20
-5.46282914803673
 30
0.0
 10
27.90756778225981
 20
-5.414990821860289
 30
0.0
 10
27.89526819376957
 20
-5.32449950022007
 30
0.0
 10
27.89313577008927
 20
-5.242397673012962
 30
0.0
 10
27.89427067649998
 20
-5.200171965299972
 30
0.0
 11
27.91963470399997
 21
-5.471776023800003
 31
0.0
 11
27.91396682099997
 21
-5.444851084500015
 31
0.0
 11
27.8977066889
 21
-5.326848243499966
 31
0.0
 11
27.89427067649998
 21
-5.200171965299972
 31
0.0
  0
SPLINE
  5
80A
330
1F
100
AcDbEntity
  8
1
100
AcDbSpline
210
0.0
220
0.0
230
1.0
 70
     8
 71
     3
 72
     8
 73
     4
 74
     2
 42
0.0000000001
 43
0.0000000001
 44
0.0000000001
 12
-0.743471684456817
 22
0.6687674142861204
 32
0.0
 13
-0.5862922725285412
 23
0.8100996057111244
 33
0.0
 40
0.0
 40
0.0
 40
0.0
 40
0.0
 40
0.000989577998213
 40
0.000989577998213
 40
0.000989577998213
 40
0.000989577998213
 10
27.8949400237
 20
-5.700507784299986
 30
0.0
 10
27.89469478262625
 20
-5.700287185126953
 30
0.0
 10
27.89446407047779
 20
-5.700046141815399
 30
0.0
 10
27.89427067649998
 20
-5.699778922900009
 30
0.0
 11
27.8949400237
 21
-5.700507784299986
 31
0.0
 11
27.89427067649998
 21
-5.699778922900009
 31
0.0
  0
SPLINE
  5
80B
330
1F
100
AcDbEntity
  8
1
100
AcDbSpline
210
0.0
220
0.0
230
1.0
 70
     8
 71
     3
 72
    10
 73
     6
 74
     4
 42
0.0000000001
 43
0.0000000001
 44
0.0000000001
 12
-0.9594103454037002
 22
0.2820138101801983
 32
0.0
 13
-0.74348095518895
 23
0.6687571078286396
 33
0.0
 40
0.0
 40
0.0
 40
0.0
 40
0.0
 40
0.0554355808893968
 40
0.0973021541432719
 40
0.1263867658175557
 40
0.1263867658175557
 40
0.1263867658175557
 40
0.1263867658175557
 10
28.01050128809999
 20
-5.750001921899979
 30
0.0
 10
27.99277279816374
 20
-5.744790722104589
 30
0.0
 10
27.9618078293314
 20
-5.73498310709527
 30
0.0
 10
27.92275902988588
 20
-5.71922182546825
 30
0.0
 10
27.90214797532296
 20
-5.70699129789519
 30
0.0
 10
27.8949400237
 20
-5.700507784299986
 30
0.0
 11
28.01050128809999
 21
-5.750001921899979
 31
0.0
 11
27.95778254669997
 21
-5.732860220299983
 31
0.0
 11
27.91926608379998
 21
-5.716450100200006
 31
0.0
 11
27.8949400237
 21
-5.700507784299986
 31
0.0
  0
SPLINE
  5
80C
330
1F
100
AcDbEntity
  8
1
100
AcDbSpline
210
0.0
220
0.0
230
1.0
 70
     8
 71
     3
 72
     8
 73
     4
 74
     2
 42
0.0000000001
 43
0.0000000001
 44
0.0000000001
 12
-0.1238280386919565
 22
-0.9923036918371831
 32
0.0
 13
-0.1244846884595951
 23
-0.9922215288629438
 33
0.0
 40
0.0
 40
0.0
 40
0.0
 40
0.0
 40
0.0080530813470735
 40
0.0080530813470735
 40
0.0080530813470735
 40
0.0080530813470735
 10
28.21539192860001
 20
-4.163921731300007
 30
0.0
 10
28.21505952951047
 20
-4.166585432083795
 30
0.0
 10
28.21472624857422
 20
-4.16924902297124
 30
0.0
 10
28.21439208680001
 20
-4.17191250319999
 30
0.0
 11
28.21539192860001
 21
-4.163921731300007
 31
0.0
 11
28.21439208680001
 21
-4.17191250319999
 31
0.0
  0
SPLINE
  5
80D
330
1F
100
AcDbEntity
  8
1
100
AcDbSpline
210
0.0
220
0.0
230
1.0
 70
     8
 71
     3
 72
     8
 73
     4
 74
     2
 42
0.0000000001
 43
0.0000000001
 44
0.0000000001
 12
-0.0973000869397781
 22
-0.9952550894527048
 32
0.0
 13
-0.1238280435857074
 23
-0.9923036912264995
 33
0.0
 40
0.0
 40
0.0
 40
0.0
 40
0.0
 40
0.3179859879234396
 40
0.3179859879234396
 40
0.3179859879234396
 40
0.3179859879234396
 10
28.2505818603
 20
-3.847888889300008
 30
0.0
 10
28.24026850554314
 20
-3.953381280251825
 30
0.0
 10
28.22851712285742
 20
-4.058742174775096
 30
0.0
 10
28.21539192860001
 20
-4.163921731300007
 30
0.0
 11
28.2505818603
 21
-3.847888889300008
 31
0.0
 11
28.21539192860001
 21
-4.163921731300007
 31
0.0
  0
SPLINE
  5
80E
330
1F
100
AcDbEntity
  8
1
100
AcDbSpline
210
0.0
220
0.0
230
1.0
 70
     8
 71
     3
 72
    18
 73
    14
 74
    12
 42
0.0000000001
 43
0.0000000001
 44
0.0000000001
 12
-0.297776729117922
 22
-0.9546355428098367
 32
0.0
 13
-0.1007958990356467
 23
-0.9949071246792817
 33
0.0
 40
0.0
 40
0.0
 40
0.0
 40
0.0
 40
0.0490589480930679
 40
0.1034502899974838
 40
0.1527886613041029
 40
0.1965454763272188
 40
0.2339513288269649
 40
0.2500141037184593
 40
0.2641921874134987
 40
0.2764015258614388
 40
0.2865675132020811
 40
0.2946466106527066
 40
0.2976438092808624
 40
0.2976438092808624
 40
0.2976438092808624
 40
0.2976438092808624
 10
28.01391293840001
 20
-5.211883454999991
 30
0.0
 10
28.00904340070097
 20
-5.22749459351416
 30
0.0
 10
27.99845301579241
 20
-5.260314162164004
 30
0.0
 10
27.98183282466801
 20
-5.308459353595175
 30
0.0
 10
27.96487247100481
 20
-5.354606626141706
 30
0.0
 10
27.94915151931948
 20
-5.395168184581711
 30
0.0
 10
27.93720350672898
 20
-5.425293807806648
 30
0.0
 10
27.92903296112395
 20
-5.446310586206031
 30
0.0
 10
27.92405801251595
 20
-5.459557794102657
 30
0.0
 10
27.92002106035241
 20
-5.471055860018141
 30
0.0
 10
27.91701051419338
 20
-5.48075386999202
 30
0.0
 10
27.91536646469488
 20
-5.487651865141287
 30
0.0
 10
27.91482163957675
 20
-5.491307025710264
 30
0.0
 10
27.91472093779998
 20
-5.492301003800008
 30
0.0
 11
28.01391293840001
 21
-5.211883454999991
 31
0.0
 11
27.99884983739997
 21
-5.258572676199975
 31
0.0
 11
27.98110585629996
 21
-5.309988327599967
 31
0.0
 11
27.9640875798
 21
-5.356298727599977
 31
0.0
 11
27.94832926829997
 21
-5.397119487999987
 31
0.0
 11
27.9346358025
 21
-5.431928779799989
 31
0.0
 11
27.92883593279998
 21
-5.44690790689998
 31
0.0
 11
27.92387874569999
 21
-5.460191142700011
 31
0.0
 11
27.9198725786
 21
-5.471724510400008
 31
0.0
 11
27.9169257687
 21
-5.481454032999977
 31
0.0
 11
27.91513937079997
 21
-5.489333157200007
 31
0.0
 11
27.91472093779998
 21
-5.492301003800008
 31
0.0
  0
SPLINE
  5
80F
330
1F
100
AcDbEntity
  8
1
100
AcDbSpline
210
0.0
220
0.0
230
1.0
 70
     8
 71
     3
 72
     9
 73
     5
 74
     3
 42
0.0000000001
 43
0.0000000001
 44
0.0000000001
 12
-0.2905573065875379
 22
-0.9568575921152506
 32
0.0
 13
-0.2977767264489232
 23
-0.9546355436423699
 33
0.0
 40
0.0
 40
0.0
 40
0.0
 40
0.0
 40
0.008892963698073
 40
0.0188668816919555
 40
0.0188668816919555
 40
0.0188668816919555
 40
0.0188668816919555
 10
28.01946312639998
 20
-5.193851445299969
 30
0.0
 10
28.01860182120675
 20
-5.196687878576939
 30
0.0
 10
28.01676371686924
 20
-5.202702242994315
 30
0.0
 10
28.0149029386167
 20
-5.208709636124546
 30
0.0
 10
28.01391293840001
 20
-5.211883454999991
 30
0.0
 11
28.01946312639998
 21
-5.193851445299969
 31
0.0
 11
28.01686399119998
 21
-5.202356108699973
 31
0.0
 11
28.01391293840001
 21
-5.211883454999991
 31
0.0
  0
SPLINE
  5
810
330
1F
100
AcDbEntity
  8
1
100
AcDbSpline
210
0.0
220
0.0
230
1.0
 70
     8
 71
     3
 72
    10
 73
     6
 74
     4
 42
0.0000000001
 43
0.0000000001
 44
0.0000000001
 12
-0.2077953248098252
 22
-0.9781723278580207
 32
0.0
 13
-0.2905573088819951
 23
-0.9568575914185208
 33
0.0
 40
0.0
 40
0.0
 40
0.0
 40
0.0
 40
0.0695762754808242
 40
0.1366927977829744
 40
0.191394429468391
 40
0.191394429468391
 40
0.191394429468391
 40
0.191394429468391
 10
28.06743276540001
 20
-5.00861932639998
 30
0.0
 10
28.06261355714581
 20
-5.031305188850236
 30
0.0
 10
28.05239665485182
 20
-5.075719411414046
 30
0.0
 10
28.03613098920297
 20
-5.137418363161078
 30
0.0
 10
28.02476111269797
 20
-5.176404221452912
 30
0.0
 10
28.01946312639998
 20
-5.193851445299969
 30
0.0
 11
28.06743276540001
 21
-5.00861932639998
 31
0.0
 11
28.05185010950001
 21
-5.076428167599971
 31
0.0
 11
28.0347671486
 21
-5.141334253699994
 31
0.0
 11
28.01946312639998
 21
-5.193851445299969
 31
0.0
  0
LINE
  5
811
330
1F
100
AcDbEntity
  8
1
100
AcDbLine
 10
27.914721528
 20
-5.49239083270001
 30
0.0
 11
27.89501889159998
 21
-5.685879011399975
 31
0.0
  0
LINE
  5
812
330
1F
100
AcDbEntity
  8
1
100
AcDbLine
 10
27.89401705899999
 20
-5.696509441399996
 30
0.0
 11
27.89427067649998
 21
-5.699763618100007
 31
0.0
  0
SPLINE
  5
813
330
1F
100
AcDbEntity
  8
1
100
AcDbSpline
210
0.0
220
0.0
230
1.0
 70
     8
 71
     3
 72
    12
 73
     8
 74
     6
 42
0.0000000001
 43
0.0000000001
 44
0.0000000001
 12
-0.2068112086836473
 22
0.9783808685592788
 32
0.0
 13
0.1208595513463077
 23
0.9926696171679525
 33
0.0
 40
0.0
 40
0.0
 40
0.0
 40
0.0
 40
0.0506715587431037
 40
0.1153010759796131
 40
0.1753406604719486
 40
0.230104193075665
 40
0.2793044409001878
 40
0.2793044409001878
 40
0.2793044409001878
 40
0.2793044409001878
 10
27.94460047669997
 20
2.129352563400004
 30
0.0
 10
27.94110732793012
 20
2.145877924618114
 30
0.0
 10
27.93350810432476
 20
2.183555629818278
 30
0.0
 10
27.92358769939111
 20
2.241169243945109
 30
0.0
 10
27.91638522988589
 20
2.300584134719706
 30
0.0
 10
27.91373156667332
 20
2.355240678764175
 30
0.0
 10
27.91545065877394
 20
2.389949731175846
 30
0.0
 10
27.9174327654
 20
2.406229594900025
 30
0.0
 11
27.94460047669997
 21
2.129352563400004
 31
0.0
 11
27.9346358025
 21
2.179034674200011
 31
0.0
 11
27.92387874569999
 21
2.24276269180001
 31
0.0
 11
27.9169257687
 21
2.302398317200015
 31
0.0
 11
27.91458530950001
 21
2.357111814200038
 31
0.0
 11
27.9174327654
 21
2.406229594900025
 31
0.0
  0
SPLINE
  5
814
330
1F
100
AcDbEntity
  8
1
100
AcDbSpline
210
0.0
220
0.0
230
1.0
 70
     8
 71
     3
 72
    11
 73
     7
 74
     5
 42
0.0000000001
 43
0.0000000001
 44
0.0000000001
 12
0.1573269735328195
 22
0.9875465677116212
 32
0.0
 13
-0.1086081632354236
 23
0.994084637683647
 33
0.0
 40
0.0
 40
0.0
 40
0.0
 40
0.0
 40
0.3979075758038451
 40
0.7854172233974479
 40
1.171819758263839
 40
1.214311491466205
 40
1.214311491466205
 40
1.214311491466205
 40
1.214311491466205
 10
28.2505818603
 20
3.371873147299993
 30
0.0
 10
28.27144905851566
 20
3.502857234217173
 30
0.0
 10
28.3024091885243
 20
3.763194254061716
 30
0.0
 10
28.31488963141745
 20
4.15405608166997
 30
0.0
 10
28.29967073124047
 20
4.426174635307743
 30
0.0
 10
28.28480544326526
 20
4.568362759198342
 30
0.0
 10
28.2832671269
 20
4.582442885600016
 30
0.0
 11
28.2505818603
 21
3.371873147299993
 31
0.0
 11
28.29701974149998
 21
3.767061661899987
 31
0.0
 11
28.30921786349998
 21
4.15437927420001
 31
0.0
 11
28.28768350020002
 21
4.540181283200013
 31
0.0
 11
28.2832671269
 21
4.582442885600016
 31
0.0
  0
SPLINE
  5
815
330
1F
100
AcDbEntity
  8
1
100
AcDbSpline
210
0.0
220
0.0
230
1.0
 70
     8
 71
     3
 72
    10
 73
     6
 74
     4
 42
0.0000000001
 43
0.0000000001
 44
0.0000000001
 12
0.2100793455923913
 22
0.9776843399356833
 32
0.0
 13
0.1235002651394936
 23
0.9923445392153245
 33
0.0
 40
0.0
 40
0.0
 40
0.0
 40
0.0
 40
0.5292522658559817
 40
1.00522444035612
 40
1.307382656620273
 40
1.307382656620273
 40
1.307382656620273
 40
1.307382656620273
 10
28.01050128809999
 20
3.371873147299993
 30
0.0
 10
28.04756294465476
 20
3.544353698034283
 30
0.0
 10
28.12749459807044
 20
3.869768757114387
 30
0.0
 10
28.22252844032942
 20
4.295256628353726
 30
0.0
 10
28.26268894292574
 20
4.551690667937092
 30
0.0
 10
28.27512781619998
 20
4.651639019900017
 30
0.0
 11
28.01050128809999
 21
3.371873147299993
 31
0.0
 11
28.12982912929999
 21
3.887497843400012
 31
0.0
 11
28.22902604910001
 21
4.353018500299981
 31
0.0
 11
28.27512781619998
 21
4.651639019900017
 31
0.0
  0
SPLINE
  5
816
330
1F
100
AcDbEntity
  8
1
100
AcDbSpline
210
0.0
220
0.0
230
1.0
 70
     8
 71
     3
 72
    10
 73
     6
 74
     4
 42
0.0000000001
 43
0.0000000001
 44
0.0000000001
 12
-0.0628935129817248
 22
-0.9980202432941014
 32
0.0
 13
-0.0409909274186072
 23
-0.9991595187302991
 33
0.0
 40
0.0
 40
0.0
 40
0.0
 40
0.0
 40
0.0042778856867809
 40
0.008569730599092
 40
0.0128754662930645
 40
0.0128754662930645
 40
0.0128754662930645
 40
0.0128754662930645
 10
27.8949400237
 20
2.498747839200035
 30
0.0
 10
27.89485033994701
 20
2.497324700362066
 30
0.0
 10
27.8946811398176
 20
2.494473107449407
 30
0.0
 10
27.89445834703303
 20
2.490187040542224
 30
0.0
 10
27.89432950853309
 20
2.487324046634611
 30
0.0
 10
27.89427067649998
 20
2.485890007700021
 30
0.0
 11
27.8949400237
 21
2.498747839200035
 31
0.0
 11
27.89468662649997
 21
2.494477465000016
 31
0.0
 11
27.89446355410001
 21
2.490191421199995
 31
0.0
 11
27.89427067649998
 21
2.485890007700021
 31
0.0
  0
SPLINE
  5
817
330
1F
100
AcDbEntity
  8
1
100
AcDbSpline
210
0.0
220
0.0
230
1.0
 70
     8
 71
     3
 72
    10
 73
     6
 74
     4
 42
0.0000000001
 43
0.0000000001
 44
0.0000000001
 12
-0.1893573262559996
 22
-0.9819082457099437
 32
0.0
 13
-0.0628952611323289
 23
-0.9980201331271311
 33
0.0
 40
0.0
 40
0.0
 40
0.0
 40
0.0
 40
0.3069574930780032
 40
0.5989992146645406
 40
0.8812874578606047
 40
0.8812874578606047
 40
0.8812874578606047
 40
0.8812874578606047
 10
28.01050128809999
 20
3.371873147299993
 30
0.0
 10
27.99112640471215
 20
3.271405116121412
 30
0.0
 10
27.95656437900845
 20
3.074699331427511
 30
0.0
 10
27.91736106527223
 20
2.783474825616977
 30
0.0
 10
27.90085822129013
 20
2.592657622551622
 30
0.0
 10
27.8949400237
 20
2.498747839200035
 30
0.0
 11
28.01050128809999
 21
3.371873147299993
 31
0.0
 11
27.95778254669997
 21
3.069476657799981
 31
0.0
 11
27.91926608379998
 21
2.779985985699994
 31
0.0
 11
27.8949400237
 21
2.498747839200035
 31
0.0
  0
SPLINE
  5
818
330
1F
100
AcDbEntity
  8
1
100
AcDbSpline
210
0.0
220
0.0
230
1.0
 70
     8
 71
     3
 72
     8
 73
     4
 74
     2
 42
0.0000000001
 43
0.0000000001
 44
0.0000000001
 12
-0.03603671520203
 22
0.9993504666319257
 32
0.0
 13
0.0409872847223889
 23
0.9991596681667479
 33
0.0
 40
0.0
 40
0.0
 40
0.0
 40
0.0
 40
0.0451738439534266
 40
0.0451738439534266
 40
0.0451738439534266
 40
0.0451738439534266
 10
27.894248277
 20
2.440704101700021
 30
0.0
 10
27.89370563801696
 20
2.455752269044825
 30
0.0
 10
27.89365349209861
 20
2.470832645788598
 30
0.0
 10
27.89427067649998
 20
2.485877940100039
 30
0.0
 11
27.894248277
 21
2.440704101700021
 31
0.0
 11
27.89427067649998
 21
2.485877940100039
 31
0.0
  0
SPLINE
  5
819
330
1F
100
AcDbEntity
  8
1
100
AcDbSpline
210
0.0
220
0.0
230
1.0
 70
     8
 71
     3
 72
     8
 73
     4
 74
     2
 42
0.0000000001
 43
0.0000000001
 44
0.0000000001
 12
-0.0945737460807425
 22
0.9955178584798241
 32
0.0
 13
-0.0360367150411364
 23
0.9993504666377276
 33
0.0
 40
0.0
 40
0.0
 40
0.0
 40
0.0
 40
0.0510109201369677
 40
0.0510109201369677
 40
0.0510109201369677
 40
0.0510109201369677
 10
27.8977066889
 20
2.389810552400035
 30
0.0
 10
27.89609859096387
 20
2.406737979724648
 30
0.0
 10
27.89486103233099
 20
2.423711506085854
 30
0.0
 10
27.894248277
 20
2.440704101700021
 30
0.0
 11
27.8977066889
 21
2.389810552400035
 31
0.0
 11
27.894248277
 21
2.440704101700021
 31
0.0
  0
SPLINE
  5
81A
330
1F
100
AcDbEntity
  8
1
100
AcDbSpline
210
0.0
220
0.0
230
1.0
 70
     8
 71
     3
 72
    10
 73
     6
 74
     4
 42
0.0000000001
 43
0.0000000001
 44
0.0000000001
 12
-0.2051207467448433
 22
0.9787366751352674
 32
0.0
 13
-0.0945737455423197
 23
0.9955178585309742
 33
0.0
 40
0.0
 40
0.0
 40
0.0
 40
0.0
 40
0.0132515128598286
 40
0.1526497307400847
 40
0.2720384059089426
 40
0.2720384059089426
 40
0.2720384059089426
 40
0.2720384059089426
 10
27.9429632604
 20
2.121665477400028
 30
0.0
 10
27.94205720699557
 20
2.125988724612342
 30
0.0
 10
27.93166213194752
 20
2.175798899269808
 30
0.0
 10
27.91405195401933
 20
2.264754650622192
 30
0.0
 10
27.90147036696202
 20
2.350192699654385
 30
0.0
 10
27.8977066889
 20
2.389810552400035
 30
0.0
 11
27.9429632604
 21
2.121665477400028
 31
0.0
 11
27.9402562846
 21
2.134637558000008
 31
0.0
 11
27.91396682099997
 21
2.271534333900007
 31
0.0
 11
27.8977066889
 21
2.389810552400035
 31
0.0
  0
SPLINE
  5
81B
330
1F
100
AcDbEntity
  8
1
100
AcDbSpline
210
0.0
220
0.0
230
1.0
 70
     8
 71
     3
 72
    10
 73
     6
 74
     4
 42
0.0000000001
 43
0.0000000001
 44
0.0000000001
 12
-0.0403286253033782
 22
0.9991864700751005
 32
0.0
 13
-0.0262665721609455
 23
0.9996549740720116
 33
0.0
 40
0.0
 40
0.0
 40
0.0
 40
0.0
 40
0.0066723527927805
 40
0.013368074726637
 40
0.0200868463920393
 40
0.0200868463920393
 40
0.0200868463920393
 40
0.0200868463920393
 10
27.8949400237
 20
1.657441897600023
 30
0.0
 10
27.89485032809478
 20
1.659664205811394
 30
0.0
 10
27.89468111160827
 20
1.664117036777159
 30
0.0
 10
27.89445832588241
 20
1.670808964946511
 30
0.0
 10
27.89432950286691
 20
1.675278626761674
 30
0.0
 10
27.89427067649998
 20
1.677517444599999
 30
0.0
 11
27.8949400237
 21
1.657441897600023
 31
0.0
 11
27.89468662649997
 21
1.664109437000007
 31
0.0
 11
27.89446355410001
 21
1.670801441999998
 31
0.0
 11
27.89427067649998
 21
1.677517444599999
 31
0.0
  0
SPLINE
  5
81C
330
1F
100
AcDbEntity
  8
1
100
AcDbSpline
210
0.0
220
0.0
230
1.0
 70
     8
 71
     3
 72
    10
 73
     6
 74
     4
 42
0.0000000001
 43
0.0000000001
 44
0.0000000001
 12
-0.1225812080486654
 22
0.992458486503758
 32
0.0
 13
-0.0403297461979854
 23
0.9991864248335273
 33
0.0
 40
0.0
 40
0.0
 40
0.0
 40
0.0
 40
0.4750802061014725
 40
0.9287139400329893
 40
1.368497801283477
 40
1.368497801283477
 40
1.368497801283477
 40
1.368497801283477
 10
28.01050128809999
 20
0.2941896102000214
 30
0.0
 10
27.99108931957201
 20
0.4513554043051417
 30
0.0
 10
27.9564807374968
 20
0.7590210634564687
 30
0.0
 10
27.91731457038927
 20
1.213560485992712
 30
0.0
 10
27.9008521475354
 20
1.510966542925903
 30
0.0
 10
27.8949400237
 20
1.657441897600023
 30
0.0
 11
28.01050128809999
 21
0.2941896102000214
 31
0.0
 11
27.95778254669997
 21
0.766335706800021
 31
0.0
 11
27.91926608379998
 21
1.218331333600019
 31
0.0
 11
27.8949400237
 21
1.657441897600023
 31
0.0
  0
SPLINE
  5
81D
330
1F
100
AcDbEntity
  8
1
100
AcDbSpline
210
0.0
220
0.0
230
1.0
 70
     8
 71
     3
 72
    13
 73
     9
 74
     7
 42
0.0000000001
 43
0.0000000001
 44
0.0000000001
 12
-0.3132720858013101
 22
-0.9496634141935219
 32
0.0
 13
0.0262646984768668
 23
-0.9996550233024986
 33
0.0
 40
0.0
 40
0.0
 40
0.0
 40
0.0
 40
0.1119655710668134
 40
0.2447476953569967
 40
0.3902513883964026
 40
0.5403443435151861
 40
0.6872753193874011
 40
0.8249813496972507
 40
0.8249813496972507
 40
0.8249813496972507
 40
0.8249813496972507
 10
28.04074649629999
 20
2.485877940100039
 30
0.0
 10
28.02905460030464
 20
2.450434737936226
 30
0.0
 10
28.00476065043639
 20
2.372534525463532
 30
0.0
 10
27.97071470968649
 20
2.246950508097058
 30
0.0
 10
27.93884067183184
 20
2.1077201379186
 30
0.0
 10
27.91255060002574
 20
1.962496302934141
 30
0.0
 10
27.89591797732962
 20
1.818425249578764
 30
0.0
 10
27.89306507404514
 20
1.723407840479424
 30
0.0
 10
27.89427067649998
 20
1.677521665499995
 30
0.0
 11
28.04074649629999
 21
2.485877940100039
 31
0.0
 11
28.00744261389999
 21
2.378980136000024
 31
0.0
 11
27.97263771799999
 21
2.250840712900014
 31
0.0
 11
27.9402562846
 21
2.108985972200002
 31
0.0
 11
27.91396682099997
 21
1.961213311400001
 31
0.0
 11
27.8977066889
 21
1.815184821800016
 31
0.0
 11
27.89427067649998
 21
1.677521665499995
 31
0.0
  0
SPLINE
  5
81E
330
1F
100
AcDbEntity
  8
1
100
AcDbSpline
210
0.0
220
0.0
230
1.0
 70
     8
 71
     3
 72
    10
 73
     6
 74
     4
 42
0.0000000001
 43
0.0000000001
 44
0.0000000001
 12
-0.3067713208461125
 22
-0.9517832509065977
 32
0.0
 13
-0.3132785464879343
 23
-0.949661282937452
 33
0.0
 40
0.0
 40
0.0
 40
0.0
 40
0.0
 40
0.0044946305144972
 40
0.0090029128346226
 40
0.0135244272970928
 40
0.0135244272970928
 40
0.0135244272970928
 40
0.0135244272970928
 10
28.04494002369997
 20
2.498747839200035
 30
0.0
 10
28.04448041578676
 20
2.497321867852464
 30
0.0
 10
28.04355640351866
 20
2.494466688713677
 30
0.0
 10
28.04215840772357
 20
2.490180783104318
 30
0.0
 10
28.0412186607929
 20
2.487321310108438
 30
0.0
 10
28.04074649629999
 20
2.485890007700021
 30
0.0
 11
28.04494002369997
 21
2.498747839200035
 31
0.0
 11
28.04355615899999
 21
2.494471553200014
 31
0.0
 11
28.0421581919
 21
2.490185494700028
 31
0.0
 11
28.04074649629999
 21
2.485890007700021
 31
0.0
  0
SPLINE
  5
81F
330
1F
100
AcDbEntity
  8
1
100
AcDbSpline
210
0.0
220
0.0
230
1.0
 70
     8
 71
     3
 72
    10
 73
     6
 74
     4
 42
0.0000000001
 43
0.0000000001
 44
0.0000000001
 12
-0.147584472158294
 22
-0.9890494545662305
 32
0.0
 13
-0.3067723358741117
 23
-0.9517829237501276
 33
0.0
 40
0.0
 40
0.0
 40
0.0
 40
0.0
 40
0.2969742813956072
 40
0.5960692229941993
 40
0.8978996410922965
 40
0.8978996410922965
 40
0.8978996410922965
 40
0.8978996410922965
 10
28.2505818603
 20
3.371873147299993
 30
0.0
 10
28.23597226277854
 20
3.273965730288485
 30
0.0
 10
28.20092487362963
 20
3.078265457542626
 30
0.0
 10
28.1322596872415
 20
2.786815407588007
 30
0.0
 10
28.07580443116592
 20
2.594506851804745
 30
0.0
 10
28.04494002369997
 20
2.498747839200035
 30
0.0
 11
28.2505818603
 21
3.371873147299993
 31
0.0
 11
28.1984343009
 21
3.079513170800026
 31
0.0
 11
28.12986756840001
 21
2.788383668199998
 31
0.0
 11
28.04494002369997
 21
2.498747839200035
 31
0.0
  0
SPLINE
  5
820
330
1F
100
AcDbEntity
  8
1
100
AcDbSpline
210
0.0
220
0.0
230
1.0
 70
     8
 71
     3
 72
    10
 73
     6
 74
     4
 42
0.0000000001
 43
0.0000000001
 44
0.0000000001
 12
0.0766668826656595
 22
0.9970567632298225
 32
0.0
 13
0.1316439416952858
 23
0.9912970657754053
 33
0.0
 40
0.0
 40
0.0
 40
0.0
 40
0.0
 40
0.4897615595495392
 40
1.247902313786657
 40
2.08813988765487
 40
2.08813988765487
 40
2.08813988765487
 40
2.08813988765487
 10
32.75971746179999
 20
-1.776760959599982
 30
0.0
 10
32.7722336258067
 20
-1.613987601160365
 30
0.0
 10
32.81234421942228
 20
-1.199840295427442
 30
0.0
 10
32.90755874968799
 20
-0.5102238329727531
 30
0.0
 10
32.98749351407181
 20
0.0165479296900864
 30
0.0
 10
33.02436424279997
 20
0.2941896102000214
 30
0.0
 11
32.75971746179999
 21
-1.776760959599982
 31
0.0
 11
32.80630419499999
 21
-1.289220128999971
 31
0.0
 11
32.905401925
 21
-0.5375838850999913
 31
0.0
 11
33.02436424279997
 21
0.2941896102000214
 31
0.0
  0
SPLINE
  5
821
330
1F
100
AcDbEntity
  8
1
100
AcDbSpline
210
0.0
220
0.0
230
1.0
 70
     8
 71
     3
 72
    13
 73
     9
 74
     7
 42
0.0000000001
 43
0.0000000001
 44
0.0000000001
 12
-0.09798577104407
 22
-0.9951878157779562
 32
0.0
 13
0.1316439416827154
 23
-0.9912970657770747
 33
0.0
 40
0.0
 40
0.0
 40
0.0
 40
0.0
 40
0.6411124844207131
 40
1.267924248039741
 40
1.892536335352962
 40
2.563452865937411
 40
3.321593620273687
 40
4.16183119404292
 40
4.16183119404292
 40
4.16183119404292
 40
4.16183119404292
 10
32.7842836705
 20
0.2941896102000214
 30
0.0
 10
32.76334370346269
 20
0.0815138325204787
 30
0.0
 10
32.73241429826502
 20
-0.3402217733805184
 30
0.0
 10
32.71999427899039
 20
-0.9712352672288254
 30
0.0
 10
32.74208244834632
 20
-1.611960835681581
 30
0.0
 10
32.80408490891495
 20
-2.29404029476282
 30
0.0
 10
32.90755843010231
 20
-3.043472609887621
 30
0.0
 10
32.98749351407967
 20
-3.570247208822312
 30
0.0
 10
33.02436424279997
 20
-3.847888889300008
 30
0.0
 11
32.7842836705
 21
0.2941896102000214
 31
0.0
 11
32.73784578939998
 21
-0.3452388384000073
 31
0.0
 11
32.72564766739998
 21
-0.9719318994999923
 31
0.0
 11
32.7471820307
 21
-1.596172662999975
 31
0.0
 11
32.80630419499999
 21
-2.264479150099987
 31
0.0
 11
32.905401925
 21
-3.016115394099983
 31
0.0
 11
33.02436424279997
 21
-3.847888889300008
 31
0.0
  0
SPLINE
  5
822
330
1F
100
AcDbEntity
  8
1
100
AcDbSpline
210
0.0
220
0.0
230
1.0
 70
     8
 71
     3
 72
    11
 73
     7
 74
     5
 42
0.0000000001
 43
0.0000000001
 44
0.0000000001
 12
0.1007959043942476
 22
-0.9949071241363917
 32
0.0
 13
-0.9070552759749762
 23
-0.4210115512975383
 33
0.0
 40
0.0
 40
0.0
 40
0.0
 40
0.0
 40
0.0030470391021139
 40
0.0053589340904817
 40
0.0072685826374759
 40
0.0103487213846657
 40
0.0103487213846657
 40
0.0103487213846657
 40
0.0103487213846657
 10
33.12014459309998
 20
-5.492301003800008
 30
0.0
 10
33.12024696945398
 20
-5.49331151077008
 30
0.0
 10
33.1203417732078
 20
-5.495099104271858
 30
0.0
 10
33.12015756385431
 20
-5.497526618734989
 30
0.0
 10
33.11955472030076
 20
-5.499889213391913
 30
0.0
 10
33.11836405076714
 20
-5.501296973402602
 30
0.0
 10
33.11743276540002
 20
-5.501729231399991
 30
0.0
 11
33.12014459309998
 21
-5.492301003800008
 31
0.0
 11
33.12028022129996
 21
-5.495345022900011
 31
0.0
 11
33.1200749251
 21
-5.497647784700006
 31
0.0
 11
33.11953730379997
 21
-5.499480193199985
 31
0.0
 11
33.11743276540002
 21
-5.501729231399991
 31
0.0
  0
SPLINE
  5
823
330
1F
100
AcDbEntity
  8
1
100
AcDbSpline
210
0.0
220
0.0
230
1.0
 70
     8
 71
     3
 72
     8
 73
     4
 74
     2
 42
0.0000000001
 43
0.0000000001
 44
0.0000000001
 12
-0.586292294527874
 22
-0.8100995897895769
 32
0.0
 13
-0.7237877428365081
 23
-0.6900226831921057
 33
0.0
 40
0.0
 40
0.0
 40
0.0
 40
0.0
 40
0.0008123852665351
 40
0.0008123852665351
 40
0.0008123852665351
 40
0.0008123852665351
 10
33.14059485439997
 20
-5.699778922900009
 30
0.0
 10
33.14043608932599
 20
-5.699998293890399
 30
0.0
 10
33.1402520737661
 20
-5.700200087246193
 30
0.0
 10
33.14005607559997
 20
-5.700386941999994
 30
0.0
 11
33.14059485439997
 21
-5.699778922900009
 31
0.0
 11
33.14005607559997
 21
-5.700386941999994
 31
0.0
  0
SPLINE
  5
824
330
1F
100
AcDbEntity
  8
1
100
AcDbSpline
210
0.0
220
0.0
230
1.0
 70
     8
 71
     3
 72
    10
 73
     6
 74
     4
 42
0.0000000001
 43
0.0000000001
 44
0.0000000001
 12
-0.8352196966727328
 22
-0.5499164102751513
 32
0.0
 13
-0.9594103453546789
 23
-0.2820138103469678
 33
0.0
 40
0.0
 40
0.0
 40
0.0
 40
0.0
 40
0.0160862105193088
 40
0.057953302964019
 40
0.1133876132486747
 40
0.1133876132486747
 40
0.1133876132486747
 40
0.1133876132486747
 10
33.12954864279999
 20
-5.70843998639998
 30
0.0
 10
33.12507013617647
 20
-5.711388676781217
 30
0.0
 10
33.10815305042863
 20
-5.720806762365773
 30
0.0
 10
33.0730241244011
 20
-5.735002237359938
 30
0.0
 10
33.04209232639154
 20
-5.744790841544202
 30
0.0
 10
33.02436424279997
 20
-5.750001921899979
 30
0.0
 11
33.12954864279999
 21
-5.70843998639998
 31
0.0
 11
33.1155987777
 21
-5.71645044409999
 31
0.0
 11
33.07708179049999
 21
-5.732860658199996
 31
0.0
 11
33.02436424279997
 21
-5.750001921899979
 31
0.0
  0
SPLINE
  5
825
330
1F
100
AcDbEntity
  8
1
100
AcDbSpline
210
0.0
220
0.0
230
1.0
 70
     8
 71
     3
 72
     8
 73
     4
 74
     2
 42
0.0000000001
 43
0.0000000001
 44
0.0000000001
 12
-0.7434809569441036
 22
-0.6687571058773731
 32
0.0
 13
-0.8352196948872705
 23
-0.5499164129869325
 33
0.0
 40
0.0
 40
0.0
 40
0.0
 40
0.0
 40
0.0130613607610831
 40
0.0130613607610831
 40
0.0130613607610831
 40
0.0130613607610831
 10
33.13992550719999
 20
-5.700507784299986
 30
0.0
 10
33.13668854953411
 20
-5.703419410240454
 30
0.0
 10
33.13318501138322
 20
-5.706045767513826
 30
0.0
 10
33.12954864279999
 20
-5.70843998639998
 30
0.0
 11
33.13992550719999
 21
-5.700507784299986
 31
0.0
 11
33.12954864279999
 21
-5.70843998639998
 31
0.0
  0
SPLINE
  5
826
330
1F
100
AcDbEntity
  8
1
100
AcDbSpline
210
0.0
220
0.0
230
1.0
 70
     8
 71
     3
 72
    10
 73
     6
 74
     4
 42
0.0000000001
 43
0.0000000001
 44
0.0000000001
 12
-0.9848841377188813
 22
-0.1732144199243695
 32
0.0
 13
-0.9348186264678105
 23
-0.3551255209201902
 33
0.0
 40
0.0
 40
0.0
 40
0.0
 40
0.0
 40
0.0865157028179362
 40
0.1570335769328568
 40
0.2117424791672752
 40
0.2117424791672752
 40
0.2117424791672752
 40
0.2117424791672752
 10
32.98992550719998
 20
-5.700507784299986
 30
0.0
 10
32.96152285941032
 20
-5.705503040059306
 30
0.0
 10
32.91007720176422
 20
-5.715260988484358
 30
0.0
 10
32.84135893987799
 20
-5.731414169039743
 30
0.0
 10
32.80133130411411
 20
-5.743525746098322
 30
0.0
 10
32.7842836705
 20
-5.750001921899979
 30
0.0
 11
32.98992550719998
 21
-5.700507784299986
 31
0.0
 11
32.90498260579997
 21
-5.716929426599989
 31
0.0
 11
32.83642275599999
 21
-5.733431473899997
 31
0.0
 11
32.7842836705
 21
-5.750001921899979
 31
0.0
  0
SPLINE
  5
827
330
1F
100
AcDbEntity
  8
1
100
AcDbSpline
210
0.0
220
0.0
230
1.0
 70
     8
 71
     3
 72
    10
 73
     6
 74
     4
 42
0.0000000001
 43
0.0000000001
 44
0.0000000001
 12
-0.9855552330803739
 22
-0.1693543106858821
 32
0.0
 13
-0.9848840289199708
 23
-0.1732150385456364
 33
0.0
 40
0.0
 40
0.0
 40
0.0
 40
0.0
 40
0.0014325389273675
 40
0.0028514613469412
 40
0.0042563988843055
 40
0.0042563988843055
 40
0.0042563988843055
 40
0.0042563988843055
 10
32.9941190346
 20
-5.699778922900009
 30
0.0
 10
32.99364841918785
 20
-5.699859791780867
 30
0.0
 10
32.99271176232739
 20
-5.70002134750223
 30
0.0
 10
32.99131391279001
 20
-5.700264267361568
 30
0.0
 10
32.99038674071404
 20
-5.70042666553009
 30
0.0
 10
32.98992550719998
 20
-5.700507784299986
 30
0.0
 11
32.9941190346
 21
-5.699778922900009
 31
0.0
 11
32.9927073412
 21
-5.700022417299976
 31
0.0
 11
32.99130937439997
 21
-5.700265377499988
 31
0.0
 11
32.98992550719998
 21
-5.700507784299986
 31
0.0
  0
SPLINE
  5
828
330
1F
100
AcDbEntity
  8
1
100
AcDbSpline
210
0.0
220
0.0
230
1.0
 70
     8
 71
     3
 72
    13
 73
     9
 74
     7
 42
0.0000000001
 43
0.0000000001
 44
0.0000000001
 12
0.9855408347573002
 22
0.16943808021187
 32
0.0
 13
-0.0268674412016885
 23
0.9996390051429935
 33
0.0
 40
0.0
 40
0.0
 40
0.0
 40
0.0
 40
0.0393870363912121
 40
0.1019227938161912
 40
0.1879726288700125
 40
0.2935040350129293
 40
0.4126218858162048
 40
0.5393447552617099
 40
0.5393447552617099
 40
0.5393447552617099
 40
0.5393447552617099
 10
32.9941190346
 20
-5.699763618100007
 30
0.0
 10
33.00705821217454
 20
-5.697539063489553
 30
0.0
 10
33.03557892492837
 20
-5.674332004775802
 30
0.0
 10
33.06745105556882
 20
-5.620818690967166
 30
0.0
 10
33.09860232757241
 20
-5.541400625499354
 30
0.0
 10
33.12378821679875
 20
-5.440813420156701
 30
0.0
 10
33.13959708044991
 20
-5.324500731024305
 30
0.0
 10
33.14172976081455
 20
-5.242397673013762
 30
0.0
 10
33.14059485439997
 20
-5.200171965299972
 30
0.0
 11
32.9941190346
 21
-5.699763618100007
 31
0.0
 11
33.02742291700002
 21
-5.678735302599989
 31
0.0
 11
33.0622278129
 21
-5.626780127899991
 31
0.0
 11
33.09460924629997
 21
-5.547055496300004
 31
0.0
 11
33.1208987098
 21
-5.444851084500015
 31
0.0
 11
33.13715884189997
 21
-5.326848243499966
 31
0.0
 11
33.14059485439997
 21
-5.200171965299972
 31
0.0
  0
SPLINE
  5
829
330
1F
100
AcDbEntity
  8
1
100
AcDbSpline
210
0.0
220
0.0
230
1.0
 70
     8
 71
     3
 72
    10
 73
     6
 74
     4
 42
0.0000000001
 43
0.0000000001
 44
0.0000000001
 12
-0.0268690458129636
 22
0.999638962014337
 32
0.0
 13
-0.0412527406680459
 23
0.9991487433747664
 33
0.0
 40
0.0
 40
0.0
 40
0.0
 40
0.0
 40
0.0065681250920507
 40
0.0131137734870225
 40
0.0196366444919826
 40
0.0196366444919826
 40
0.0196366444919826
 40
0.0196366444919826
 10
33.14059485439997
 20
-5.200177203299972
 30
0.0
 10
33.14053602798198
 20
-5.19798861871684
 30
0.0
 10
33.14040720452478
 20
-5.193619239074541
 30
0.0
 10
33.1401844188233
 20
-5.187077462790935
 30
0.0
 10
33.14001520263532
 20
-5.182724556855903
 30
0.0
 10
33.13992550719999
 20
-5.180552117399969
 30
0.0
 11
33.14059485439997
 21
-5.200177203299972
 31
0.0
 11
33.14040197719998
 21
-5.193611910799972
 31
0.0
 11
33.140178905
 21
-5.187070064599993
 31
0.0
 11
33.13992550719999
 21
-5.180552117399969
 31
0.0
  0
SPLINE
  5
82A
330
1F
100
AcDbEntity
  8
1
100
AcDbSpline
210
0.0
220
0.0
230
1.0
 70
     8
 71
     3
 72
    10
 73
     6
 74
     4
 42
0.0000000001
 43
0.0000000001
 44
0.0000000001
 12
-0.0412538904065508
 22
0.9991486959038301
 32
0.0
 13
-0.1253511328175276
 23
0.9921124399489015
 33
0.0
 40
0.0
 40
0.0
 40
0.0
 40
0.0
 40
0.4299556807265585
 40
0.8734874271853161
 40
1.338028548513915
 40
1.338028548513915
 40
1.338028548513915
 40
1.338028548513915
 10
33.13992550719999
 20
-5.180552117399969
 30
0.0
 10
33.13401305902253
 20
-5.037355564835174
 30
0.0
 10
33.11754899510255
 20
-4.746602123198079
 30
0.0
 10
33.0783812931588
 20
-4.302256447307248
 30
0.0
 10
33.04377449473292
 20
-4.001514564412647
 30
0.0
 10
33.02436424279997
 20
-3.847888889300008
 30
0.0
 11
33.13992550719999
 21
-5.180552117399969
 31
0.0
 11
33.1155987777
 21
-4.751285186899991
 31
0.0
 11
33.07708179049999
 21
-4.30942904310001
 31
0.0
 11
33.02436424279997
 21
-3.847888889300008
 31
0.0
  0
SPLINE
  5
82B
330
1F
100
AcDbEntity
  8
1
100
AcDbSpline
210
0.0
220
0.0
230
1.0
 70
     8
 71
     3
 72
    10
 73
     6
 74
     4
 42
0.0000000001
 43
0.0000000001
 44
0.0000000001
 12
0.3126072248646012
 22
-0.9498824785006053
 32
0.0
 13
0.1007958981856345
 23
-0.9949071247653979
 33
0.0
 40
0.0
 40
0.0
 40
0.0
 40
0.0
 40
0.0102622983136592
 40
0.0183413957642847
 40
0.0213385943924405
 40
0.0213385943924405
 40
0.0213385943924405
 40
0.0213385943924405
 10
33.11496285090001
 20
-5.471632996099998
 30
0.0
 10
33.11603220709887
 20
-5.474882321885762
 30
0.0
 10
33.11784762126112
 20
-5.480722665069476
 30
0.0
 10
33.11949906102783
 20
-5.487651858945832
 30
0.0
 10
33.12004389132406
 20
-5.491307025710178
 30
0.0
 10
33.12014459309998
 20
-5.492301003800008
 30
0.0
 11
33.11496285090001
 21
-5.471632996099998
 31
0.0
 11
33.11793976219997
 21
-5.481454032999977
 31
0.0
 11
33.11972616009998
 21
-5.489333157200007
 31
0.0
 11
33.12014459309998
 21
-5.492301003800008
 31
0.0
  0
LINE
  5
82C
330
1F
100
AcDbEntity
  8
1
100
AcDbLine
 10
32.80630419499999
 20
-5.750001921899979
 30
0.0
 11
33.02436424279997
 21
-5.750001921899979
 31
0.0
  0
LINE
  5
82D
330
1F
100
AcDbEntity
  8
1
100
AcDbLine
 10
33.1408484719
 20
-5.696509441399996
 30
0.0
 11
33.14059485439997
 21
-5.699763618100007
 31
0.0
  0
LINE
  5
82E
330
1F
100
AcDbEntity
  8
1
100
AcDbLine
 10
33.14094750919997
 20
-5.696509333800008
 30
0.0
 11
33.12014400290002
 21
-5.492390832799969
 31
0.0
  0
SPLINE
  5
82F
330
1F
100
AcDbEntity
  8
1
100
AcDbSpline
210
0.0
220
0.0
230
1.0
 70
     8
 71
     3
 72
    10
 73
     6
 74
     4
 42
0.0000000001
 43
0.0000000001
 44
0.0000000001
 12
0.2244069310229089
 22
-0.9744955255458485
 32
0.0
 13
-0.0777341545522263
 23
-0.9969741226411299
 33
0.0
 40
0.0
 40
0.0
 40
0.0
 40
0.0
 40
0.1340066115649356
 40
0.2851292312244322
 40
0.432857439322472
 40
0.432857439322472
 40
0.432857439322472
 40
0.432857439322472
 10
33.07392526999999
 20
2.037569232400016
 30
0.0
 10
33.08394927414601
 20
1.994039617945486
 30
0.0
 10
33.10297203387116
 20
1.900853878462382
 30
0.0
 10
33.12085150161496
 20
1.75747665691397
 30
0.0
 10
33.12126060785336
 20
1.657454742052655
 30
0.0
 10
33.11743276540002
 20
1.608361008500025
 30
0.0
 11
33.07392526999999
 21
2.037569232400016
 31
0.0
 11
33.10022972829997
 21
1.906169660800031
 31
0.0
 11
33.11793976219997
 21
1.756088346599995
 31
0.0
 11
33.11743276540002
 21
1.608361008500025
 31
0.0
  0
SPLINE
  5
830
330
1F
100
AcDbEntity
  8
1
100
AcDbSpline
210
0.0
220
0.0
230
1.0
 70
     8
 71
     3
 72
    11
 73
     7
 74
     5
 42
0.0000000001
 43
0.0000000001
 44
0.0000000001
 12
0.204985593163194
 22
-0.978764990483177
 32
0.0
 13
-0.0262646985581851
 23
-0.9996550233003624
 33
0.0
 40
0.0
 40
0.0
 40
0.0
 40
0.0
 40
0.012984182225231
 40
0.1630771373265011
 40
0.3100081131987161
 40
0.4477141435110608
 40
0.4477141435110608
 40
0.4477141435110608
 40
0.4477141435110608
 10
33.091973212
 20
2.121699756500021
 30
0.0
 10
33.09286040209839
 20
2.117463602169317
 30
0.0
 10
33.10389648294764
 20
2.064237192018346
 30
0.0
 10
33.12231545223784
 20
1.962493788192275
 30
0.0
 10
33.13894741570904
 20
1.818425913696519
 30
0.0
 10
33.14180045685857
 20
1.723407840480157
 30
0.0
 10
33.14059485439997
 20
1.677521665499995
 30
0.0
 11
33.091973212
 21
2.121699756500021
 31
0.0
 11
33.09460924629997
 21
2.108985972200002
 31
0.0
 11
33.1208987098
 21
1.961213311400001
 31
0.0
 11
33.13715884189997
 21
1.815184821800016
 31
0.0
 11
33.14059485439997
 21
1.677521665499995
 31
0.0
  0
SPLINE
  5
831
330
1F
100
AcDbEntity
  8
1
100
AcDbSpline
210
0.0
220
0.0
230
1.0
 70
     8
 71
     3
 72
    10
 73
     6
 74
     4
 42
0.0000000001
 43
0.0000000001
 44
0.0000000001
 12
-0.0262665721609455
 22
-0.9996549740720116
 32
0.0
 13
-0.0403286253033782
 23
-0.9991864700751005
 33
0.0
 40
0.0
 40
0.0
 40
0.0
 40
0.0
 40
0.0067187569599561
 40
0.0134144771881063
 40
0.02008684639185
 40
0.02008684639185
 40
0.02008684639185
 40
0.02008684639185
 10
33.14059485439997
 20
1.677517444599999
 30
0.0
 10
33.1405360281618
 20
1.675278631661799
 30
0.0
 10
33.1404072052139
 20
1.670808975317595
 30
0.0
 10
33.14018441973056
 20
1.664117047140355
 30
0.0
 10
33.14001520302582
 20
1.659664211277265
 30
0.0
 10
33.13992550719999
 20
1.657441897600023
 30
0.0
 11
33.14059485439997
 21
1.677517444599999
 31
0.0
 11
33.14040197719998
 21
1.670801456700019
 31
0.0
 11
33.140178905
 21
1.664109453400016
 31
0.0
 11
33.13992550719999
 21
1.657441897600023
 31
0.0
  0
SPLINE
  5
832
330
1F
100
AcDbEntity
  8
1
100
AcDbSpline
210
0.0
220
0.0
230
1.0
 70
     8
 71
     3
 72
    10
 73
     6
 74
     4
 42
0.0000000001
 43
0.0000000001
 44
0.0000000001
 12
-0.0437361545842413
 22
-0.9990431165781503
 32
0.0
 13
-0.1225812080745467
 23
-0.9924584865005613
 33
0.0
 40
0.0
 40
0.0
 40
0.0
 40
0.0
 40
0.3897024383087611
 40
0.8433387945146478
 40
1.318406883332116
 40
1.318406883332116
 40
1.318406883332116
 40
1.318406883332116
 10
33.13781983809997
 20
1.607390255000012
 30
0.0
 10
33.13213847607206
 20
1.477613742164649
 30
0.0
 10
33.11611698517619
 20
1.196917278663346
 30
0.0
 10
33.07838400122553
 20
0.7590134434227022
 30
0.0
 10
33.04377571621494
 20
0.4513513956708546
 30
0.0
 10
33.02436424279997
 20
0.2941896102000214
 30
0.0
 11
33.13781983809997
 21
1.607390255000012
 31
0.0
 11
33.1155987777
 21
1.218321861399999
 31
0.0
 11
33.07708179049999
 21
0.766323647500002
 31
0.0
 11
33.02436424279997
 21
0.2941896102000214
 31
0.0
  0
SPLINE
  5
833
330
1F
100
AcDbEntity
  8
1
100
AcDbSpline
210
0.0
220
0.0
230
1.0
 70
     8
 71
     3
 72
     8
 73
     4
 74
     2
 42
0.0000000001
 43
0.0000000001
 44
0.0000000001
 12
-0.040329746012603
 22
-0.9991864248410099
 32
0.0
 13
-0.0437361544912724
 23
-0.9990431165822203
 33
0.0
 40
0.0
 40
0.0
 40
0.0
 40
0.0
 40
0.050095915694974
 40
0.050095915694974
 40
0.050095915694974
 40
0.050095915694974
 10
33.13992550719999
 20
1.657441897600023
 30
0.0
 10
33.13925205534791
 20
1.640756844632557
 30
0.0
 10
33.13855017233604
 20
1.624072914914661
 30
0.0
 10
33.13781983809997
 20
1.607390255000012
 30
0.0
 11
33.13992550719999
 21
1.657441897600023
 31
0.0
 11
33.13781983809997
 21
1.607390255000012
 31
0.0
  0
SPLINE
  5
834
330
1F
100
AcDbEntity
  8
1
100
AcDbSpline
210
0.0
220
0.0
230
1.0
 70
     8
 71
     3
 72
    10
 73
     6
 74
     4
 42
0.0000000001
 43
0.0000000001
 44
0.0000000001
 12
-0.2021700175459842
 22
-0.979350439835229
 32
0.0
 13
-0.0951368239946821
 23
-0.9954642056448866
 33
0.0
 40
0.0
 40
0.0
 40
0.0
 40
0.0
 40
0.4602198799197211
 40
0.9198891434137618
 40
1.379269249104909
 40
1.379269249104909
 40
1.379269249104909
 40
1.379269249104909
 10
32.98992550719998
 20
1.657441897600023
 30
0.0
 10
32.95891128680052
 20
1.507203050326591
 30
0.0
 10
32.90228641895982
 20
1.205765812808588
 30
0.0
 10
32.83373806266061
 20
0.7510604708421838
 30
0.0
 10
32.79885165858726
 20
0.4466217608669889
 30
0.0
 10
32.7842836705
 20
0.2941896102000214
 30
0.0
 11
32.98992550719998
 21
1.657441897600023
 31
0.0
 11
32.90498260579997
 21
1.205128907100004
 31
0.0
 11
32.83642275599999
 21
0.7506012635000161
 31
0.0
 11
32.7842836705
 21
0.2941896102000214
 31
0.0
  0
SPLINE
  5
835
330
1F
100
AcDbEntity
  8
1
100
AcDbSpline
210
0.0
220
0.0
230
1.0
 70
     8
 71
     3
 72
    10
 73
     6
 74
     4
 42
0.0000000001
 43
0.0000000001
 44
0.0000000001
 12
-0.2067183035820886
 22
-0.9784005023323237
 32
0.0
 13
-0.20216930653925
 23
-0.9793505866100449
 33
0.0
 40
0.0
 40
0.0
 40
0.0
 40
0.0
 40
0.0068537011579731
 40
0.0136901866487816
 40
0.0205088743741726
 40
0.0205088743741726
 40
0.0205088743741726
 40
0.0205088743741726
 10
32.9941190346
 20
1.677517444599999
 30
0.0
 10
32.99364677277446
 20
1.675282223048067
 30
0.0
 10
32.99270683448119
 20
1.670816675607859
 30
0.0
 10
32.99130883381428
 20
1.664124851653063
 30
0.0
 10
32.99038501698963
 20
1.65966785954128
 30
0.0
 10
32.98992550719998
 20
1.657441897600023
 30
0.0
 11
32.9941190346
 21
1.677517444599999
 31
0.0
 11
32.9927073412
 21
1.670810706100013
 31
0.0
 11
32.99130937439997
 21
1.664118679300003
 31
0.0
 11
32.98992550719998
 21
1.657441897600023
 31
0.0
  0
SPLINE
  5
836
330
1F
100
AcDbEntity
  8
1
100
AcDbSpline
210
0.0
220
0.0
230
1.0
 70
     8
 71
     3
 72
    13
 73
     9
 74
     7
 42
0.0000000001
 43
0.0000000001
 44
0.0000000001
 12
0.2067172728062306
 22
0.9784007201160241
 32
0.0
 13
-0.0409872849255352
 23
0.9991596681584146
 33
0.0
 40
0.0
 40
0.0
 40
0.0
 40
0.0
 40
0.1555431967120314
 40
0.3147724089946089
 40
0.4680334441151485
 40
0.6074316619765476
 40
0.7268203371454055
 40
0.822949152603638
 40
0.822949152603638
 40
0.822949152603638
 40
0.822949152603638
 10
32.9941190346
 20
1.677521665499995
 30
0.0
 10
33.0048368564093
 20
1.728249524057395
 30
0.0
 10
33.0276056810797
 20
1.830676553697073
 30
0.0
 10
33.0619711871764
 20
1.982856068846277
 30
0.0
 10
33.09413986569169
 20
2.130007743866558
 30
0.0
 10
33.12081575005187
 20
2.264779161331204
 30
0.0
 10
33.13806207110209
 20
2.381858950117953
 30
0.0
 10
33.14190820744956
 20
2.453861928315469
 30
0.0
 10
33.14059485439997
 20
2.485877940100039
 30
0.0
 11
32.9941190346
 21
1.677521665499995
 31
0.0
 11
33.02742291700002
 21
1.829457630500002
 31
0.0
 11
33.0622278129
 21
1.98483639760002
 31
0.0
 11
33.09460924629997
 21
2.134637558000008
 31
0.0
 11
33.1208987098
 21
2.271534333900007
 31
0.0
 11
33.13715884189997
 21
2.389810552400035
 31
0.0
 11
33.14059485439997
 21
2.485877940100039
 31
0.0
  0
SPLINE
  5
837
330
1F
100
AcDbEntity
  8
1
100
AcDbSpline
210
0.0
220
0.0
230
1.0
 70
     8
 71
     3
 72
    10
 73
     6
 74
     4
 42
0.0000000001
 43
0.0000000001
 44
0.0000000001
 12
-0.0409909274186072
 22
0.9991595187302991
 32
0.0
 13
-0.0628935129817248
 23
0.9980202432941014
 33
0.0
 40
0.0
 40
0.0
 40
0.0
 40
0.0
 40
0.0043057262854914
 40
0.00859757008889
 40
0.0128754662927762
 40
0.0128754662927762
 40
0.0128754662927762
 40
0.0128754662927762
 10
33.14059485439997
 20
2.485890007700021
 30
0.0
 10
33.14053602249542
 20
2.487324043501086
 30
0.0
 10
33.14040718406443
 20
2.490187033902064
 30
0.0
 10
33.14018439152073
 20
2.494473100821484
 30
0.0
 10
33.14001519117347
 20
2.497324696863305
 30
0.0
 10
33.13992550719999
 20
2.498747839200035
 30
0.0
 11
33.14059485439997
 21
2.485890007700021
 31
0.0
 11
33.14040197719998
 21
2.490191411799997
 31
0.0
 11
33.140178905
 21
2.494477454500014
 31
0.0
 11
33.13992550719999
 21
2.498747839200035
 31
0.0
  0
SPLINE
  5
838
330
1F
100
AcDbEntity
  8
1
100
AcDbSpline
210
0.0
220
0.0
230
1.0
 70
     8
 71
     3
 72
    10
 73
     6
 74
     4
 42
0.0000000001
 43
0.0000000001
 44
0.0000000001
 12
-0.0628952611608193
 22
0.9980201331253354
 32
0.0
 13
-0.1893573263614882
 23
0.9819082456896007
 33
0.0
 40
0.0
 40
0.0
 40
0.0
 40
0.0
 40
0.2822943449139308
 40
0.5743377781746507
 40
0.8812874574024073
 40
0.8812874574024073
 40
0.8812874574024073
 40
0.8812874574024073
 10
33.13992550719999
 20
2.498747839200035
 30
0.0
 10
33.13400718168412
 20
2.592659652430545
 30
0.0
 10
33.11750400833754
 20
2.783479446119762
 30
0.0
 10
33.07830038761488
 20
3.07470391059335
 30
0.0
 10
33.04373863299533
 20
3.271407673618155
 30
0.0
 10
33.02436424279997
 20
3.371873147299993
 30
0.0
 11
33.13992550719999
 21
2.498747839200035
 31
0.0
 11
33.1155987777
 21
2.779992052300002
 31
0.0
 11
33.07708179049999
 21
3.069484381400002
 31
0.0
 11
33.02436424279997
 21
3.371873147299993
 31
0.0
  0
LINE
  5
839
330
1F
100
AcDbEntity
  8
1
100
AcDbLine
 10
32.7420589605
 20
4.828961862200003
 30
0.0
 11
32.7442120677
 21
4.843851903600011
 31
0.0
  0
LWPOLYLINE
  5
83A
330
1F
100
AcDbEntity
  8
1
100
AcDbPolyline
 90
        3
 70
     0
 43
0.0
 10
32.77805868159998
 20
5.035605868300024
 10
32.78100838309998
 20
5.050075908500019
 10
32.78117721
 20
5.050891212099998
  0
LINE
  5
83B
330
1F
100
AcDbEntity
  8
1
100
AcDbLine
 10
32.7741290898
 20
5.01588032630002
 30
0.0
 11
32.77805868159998
 21
5.035605868300024
 31
0.0
  0
LINE
  5
83C
330
1F
100
AcDbEntity
  8
1
100
AcDbLine
 10
32.76995690849997
 20
4.994431348000006
 30
0.0
 11
32.7741290898
 21
5.01588032630002
 31
0.0
  0
LINE
  5
83D
330
1F
100
AcDbEntity
  8
1
100
AcDbLine
 10
32.76560723930001
 20
4.971446098500024
 30
0.0
 11
32.76995690849997
 21
4.994431348000006
 31
0.0
  0
LINE
  5
83E
330
1F
100
AcDbEntity
  8
1
100
AcDbLine
 10
32.76203695840001
 20
4.952027782800001
 30
0.0
 11
32.76560723930001
 21
4.971446098500024
 31
0.0
  0
LWPOLYLINE
  5
83F
330
1F
100
AcDbEntity
  8
1
100
AcDbPolyline
 90
        3
 70
     0
 43
0.0
 10
32.75750594029998
 20
4.926535777000026
 10
32.76113536259998
 20
4.947035827799993
 10
32.76203695840001
 20
4.952027782800001
  0
LINE
  5
840
330
1F
100
AcDbEntity
  8
1
100
AcDbLine
 10
32.75477282009998
 20
4.910618676599995
 30
0.0
 11
32.75750594029998
 21
4.926535777000026
 31
0.0
  0
LINE
  5
841
330
1F
100
AcDbEntity
  8
1
100
AcDbLine
 10
32.7520461325
 20
4.894260478300026
 30
0.0
 11
32.75477282009998
 21
4.910618676599995
 31
0.0
  0
LINE
  5
842
330
1F
100
AcDbEntity
  8
1
100
AcDbLine
 10
32.74934324119999
 20
4.877495358900006
 30
0.0
 11
32.7520461325
 21
4.894260478300026
 31
0.0
  0
LINE
  5
843
330
1F
100
AcDbEntity
  8
1
100
AcDbLine
 10
32.74675391119998
 20
4.860832427400026
 30
0.0
 11
32.74934324119999
 21
4.877495358900006
 31
0.0
  0
LINE
  5
844
330
1F
100
AcDbEntity
  8
1
100
AcDbLine
 10
32.7442120677
 20
4.843851903600011
 30
0.0
 11
32.74675391119998
 21
4.860832427400026
 31
0.0
  0
LINE
  5
845
330
1F
100
AcDbEntity
  8
1
100
AcDbLine
 10
27.94308960860002
 20
6.866451063300019
 30
0.0
 11
33.0917759223
 21
6.866451063300019
 31
0.0
  0
LINE
  5
846
330
1F
100
AcDbEntity
  8
1
100
AcDbLine
 10
28.01050128809999
 20
5.931818444100002
 30
0.0
 11
32.7842836705
 21
5.931818444100002
 31
0.0
  0
SPLINE
  5
847
330
1F
100
AcDbEntity
  8
1
100
AcDbSpline
210
0.0
220
0.0
230
1.0
 70
     8
 71
     3
 72
    11
 73
     7
 74
     5
 42
0.0000000001
 43
0.0000000001
 44
0.0000000001
 12
-0.9999230827607583
 22
-0.0124027642976
 32
0.0
 13
0.0451204458932717
 23
-0.9989815540651351
 33
0.0
 40
0.0
 40
0.0
 40
0.0
 40
0.0
 40
0.0026078042708885
 40
0.0342433809473553
 40
0.0820008064569551
 40
0.1493918254772413
 40
0.1493918254772413
 40
0.1493918254772413
 40
0.1493918254772413
 10
27.942858613
 20
6.866500313100004
 30
0.0
 10
27.9419894117714
 20
6.866489531772769
 30
0.0
 10
27.93055644795269
 20
6.865736627419815
 30
0.0
 10
27.90657557840168
 20
6.845992307846486
 30
0.0
 10
27.89481429509719
 20
6.797371412154205
 30
0.0
 10
27.89325710555752
 20
6.758967163170309
 30
0.0
 10
27.89427067649998
 20
6.736526368200003
 30
0.0
 11
27.942858613
 21
6.866500313100004
 31
0.0
 11
27.9402562846
 21
6.866331404800007
 31
0.0
 11
27.91396682099997
 21
6.848733853400005
 31
0.0
 11
27.8977066889
 21
6.803829735600004
 31
0.0
 11
27.89427067649998
 21
6.736526368200003
 31
0.0
  0
SPLINE
  5
848
330
1F
100
AcDbEntity
  8
1
100
AcDbSpline
210
0.0
220
0.0
230
1.0
 70
     8
 71
     3
 72
    10
 73
     6
 74
     4
 42
0.0000000001
 43
0.0000000001
 44
0.0000000001
 12
-0.0692156114860107
 22
0.9976017236987001
 32
0.0
 13
-0.0451222375999026
 23
0.9989814731385052
 33
0.0
 40
0.0
 40
0.0
 40
0.0
 40
0.0
 40
0.0038869632739352
 40
0.007786276380278
 40
0.0116979216327081
 40
0.0116979216327081
 40
0.0116979216327081
 40
0.0116979216327081
 10
27.8949400237
 20
6.724860555299983
 30
0.0
 10
27.89485034418672
 20
6.726153102387327
 30
0.0
 10
27.89468114994893
 20
6.728743041751826
 30
0.0
 10
27.8944583546268
 20
6.732636013374678
 30
0.0
 10
27.89432951056214
 20
6.735236510587795
 30
0.0
 10
27.89427067649998
 20
6.736539064300018
 30
0.0
 11
27.8949400237
 21
6.724860555299983
 31
0.0
 11
27.89468662649997
 21
6.728739250100034
 31
0.0
 11
27.89446355410001
 21
6.732632177200002
 31
0.0
 11
27.89427067649998
 21
6.736539064300018
 31
0.0
  0
SPLINE
  5
849
330
1F
100
AcDbEntity
  8
1
100
AcDbSpline
210
0.0
220
0.0
230
1.0
 70
     8
 71
     3
 72
     8
 73
     4
 74
     2
 42
0.0000000001
 43
0.0000000001
 44
0.0000000001
 12
-0.0901963277231244
 22
0.9959240043624127
 32
0.0
 13
-0.069217527502163
 23
0.997601590759802
 33
0.0
 40
0.0
 40
0.0
 40
0.0
 40
0.0
 40
0.105165382053143
 40
0.105165382053143
 40
0.105165382053143
 40
0.105165382053143
 10
27.90332313359999
 20
6.620029829599985
 30
0.0
 10
27.90016128984506
 20
6.654942072404875
 30
0.0
 10
27.89736645294151
 20
6.68988950449029
 30
0.0
 10
27.8949400237
 20
6.724860555299983
 30
0.0
 11
27.90332313359999
 21
6.620029829599985
 31
0.0
 11
27.8949400237
 21
6.724860555299983
 31
0.0
  0
SPLINE
  5
84A
330
1F
100
AcDbEntity
  8
1
100
AcDbSpline
210
0.0
220
0.0
230
1.0
 70
     8
 71
     3
 72
     8
 73
     4
 74
     2
 42
0.0000000001
 43
0.0000000001
 44
0.0000000001
 12
-0.094586279111442
 22
0.9955166677679748
 32
0.0
 13
-0.0901963287419376
 23
0.9959240042701434
 33
0.0
 40
0.0
 40
0.0
 40
0.0
 40
0.0
 40
0.0220451715139023
 40
0.0220451715139023
 40
0.0220451715139023
 40
0.0220451715139023
 10
27.905359922
 20
6.598078950800015
 30
0.0
 10
27.90466486508471
 20
6.605394396028646
 30
0.0
 10
27.90398593144567
 20
6.612711391103669
 30
0.0
 10
27.90332313359999
 20
6.620029829599985
 30
0.0
 11
27.905359922
 21
6.598078950800015
 31
0.0
 11
27.90332313359999
 21
6.620029829599985
 31
0.0
  0
SPLINE
  5
84B
330
1F
100
AcDbEntity
  8
1
100
AcDbSpline
210
0.0
220
0.0
230
1.0
 70
     8
 71
     3
 72
     8
 73
     4
 74
     2
 42
0.0000000001
 43
0.0000000001
 44
0.0000000001
 12
-0.1123855299732099
 22
0.9936646781750072
 32
0.0
 13
-0.0945862801861624
 23
0.9955166676658635
 33
0.0
 40
0.0
 40
0.0
 40
0.0
 40
0.0
 40
0.089504393691604
 40
0.089504393691604
 40
0.089504393691604
 40
0.089504393691604
 10
27.9146227704
 20
6.509055155499993
 30
0.0
 10
27.91126977082668
 20
6.538700940350932
 30
0.0
 10
27.9081818845532
 20
6.568377912216909
 30
0.0
 10
27.905359922
 20
6.598078950800015
 30
0.0
 11
27.9146227704
 21
6.509055155499993
 31
0.0
 11
27.905359922
 21
6.598078950800015
 31
0.0
  0
SPLINE
  5
84C
330
1F
100
AcDbEntity
  8
1
100
AcDbSpline
210
0.0
220
0.0
230
1.0
 70
     8
 71
     3
 72
     8
 73
     4
 74
     2
 42
0.0000000001
 43
0.0000000001
 44
0.0000000001
 12
-0.1150737953707529
 22
0.9933569457244308
 32
0.0
 13
-0.1123855329958247
 23
0.9936646778331432
 33
0.0
 40
0.0
 40
0.0
 40
0.0
 40
0.0
 40
0.013534259750138
 40
0.013534259750138
 40
0.013534259750138
 40
0.013534259750138
 10
27.9161620186
 20
6.495608709799995
 30
0.0
 10
27.91564287238768
 20
6.500090160109341
 30
0.0
 10
27.91512978873191
 20
6.504572316881882
 30
0.0
 10
27.9146227704
 20
6.509055155499993
 30
0.0
 11
27.9161620186
 21
6.495608709799995
 31
0.0
 11
27.9146227704
 21
6.509055155499993
 31
0.0
  0
SPLINE
  5
84D
330
1F
100
AcDbEntity
  8
1
100
AcDbSpline
210
0.0
220
0.0
230
1.0
 70
     8
 71
     3
 72
     8
 73
     4
 74
     2
 42
0.0000000001
 43
0.0000000001
 44
0.0000000001
 12
-0.1203102329074205
 22
0.9927363435765622
 32
0.0
 13
-0.1150737979341582
 23
0.9933569454274776
 33
0.0
 40
0.0
 40
0.0
 40
0.0
 40
0.0
 40
0.0263743912854756
 40
0.0263743912854756
 40
0.0263743912854756
 40
0.0263743912854756
 10
27.91926608379998
 20
6.469417617900006
 30
0.0
 10
27.9182083807472
 20
6.478145223489606
 30
0.0
 10
27.91717368572447
 20
6.486875648211712
 30
0.0
 10
27.9161620186
 20
6.495608709799995
 30
0.0
 11
27.91926608379998
 21
6.469417617900006
 31
0.0
 11
27.9161620186
 21
6.495608709799995
 31
0.0
  0
SPLINE
  5
84E
330
1F
100
AcDbEntity
  8
1
100
AcDbSpline
210
0.0
220
0.0
230
1.0
 70
     8
 71
     3
 72
     9
 73
     5
 74
     3
 42
0.0000000001
 43
0.0000000001
 44
0.0000000001
 12
-0.1770859510059461
 22
0.984195390131614
 32
0.0
 13
-0.1203102340063305
 23
0.9927363434433848
 33
0.0
 40
0.0
 40
0.0
 40
0.0
 40
0.0
 40
0.0598775810541478
 40
0.3256221835047986
 40
0.3256221835047986
 40
0.3256221835047986
 40
0.3256221835047986
 10
27.96810959250001
 20
6.147498769000009
 30
0.0
 10
27.96457509970504
 20
6.16714251541525
 30
0.0
 10
27.94584804122255
 20
6.274053953245495
 30
0.0
 10
27.92992334890223
 20
6.381479509591114
 30
0.0
 10
27.91926608379998
 20
6.469417617900006
 30
0.0
 11
27.96810959250001
 21
6.147498769000009
 31
0.0
 11
27.95778254669997
 21
6.206479077900013
 31
0.0
 11
27.91926608379998
 21
6.469417617900006
 31
0.0
  0
SPLINE
  5
84F
330
1F
100
AcDbEntity
  8
1
100
AcDbSpline
210
0.0
220
0.0
230
1.0
 70
     8
 71
     3
 72
     8
 73
     4
 74
     2
 42
0.0000000001
 43
0.0000000001
 44
0.0000000001
 12
-0.207690572078456
 22
0.9781945748519175
 32
0.0
 13
-0.1770859511610231
 23
0.9841953901037109
 33
0.0
 40
0.0
 40
0.0
 40
0.0
 40
0.0
 40
0.2198068661457444
 40
0.2198068661457444
 40
0.2198068661457444
 40
0.2198068661457444
 10
28.01050128809999
 20
5.931818444100002
 30
0.0
 10
27.99528401684112
 20
6.003489738759658
 30
0.0
 10
27.98108449515439
 20
6.075387800875414
 30
0.0
 10
27.96810959250001
 20
6.147498769000009
 30
0.0
 11
28.01050128809999
 21
5.931818444100002
 31
0.0
 11
27.96810959250001
 21
6.147498769000009
 31
0.0
  0
SPLINE
  5
850
330
1F
100
AcDbEntity
  8
1
100
AcDbSpline
210
0.0
220
0.0
230
1.0
 70
     8
 71
     3
 72
     8
 73
     4
 74
     2
 42
0.0000000001
 43
0.0000000001
 44
0.0000000001
 12
-0.0886986547398356
 22
-0.9960585066387132
 32
0.0
 13
-0.0824674652222969
 23
-0.9965937573453937
 33
0.0
 40
0.0
 40
0.0
 40
0.0
 40
0.0
 40
0.0287657990200858
 40
0.0287657990200858
 40
0.0287657990200858
 40
0.0287657990200858
 10
32.74316806349998
 20
5.601618032499999
 30
0.0
 10
32.74231756760811
 20
5.592067226228594
 30
0.0
 10
32.74149682561007
 20
5.582513722976146
 30
0.0
 10
32.74070607809997
 20
5.572957784399989
 30
0.0
 11
32.74316806349998
 21
5.601618032499999
 31
0.0
 11
32.74070607809997
 21
5.572957784399989
 31
0.0
  0
SPLINE
  5
851
330
1F
100
AcDbEntity
  8
1
100
AcDbSpline
210
0.0
220
0.0
230
1.0
 70
     8
 71
     3
 72
     8
 73
     4
 74
     2
 42
0.0000000001
 43
0.0000000001
 44
0.0000000001
 12
-0.1167425847425195
 22
-0.9931622067455222
 32
0.0
 13
-0.0886986562714545
 23
-0.9960585065023231
 33
0.0
 40
0.0
 40
0.0
 40
0.0
 40
0.0
 40
0.1323249362963225
 40
0.1323249362963225
 40
0.1323249362963225
 40
0.1323249362963225
 10
32.75677221399996
 20
5.733241798800008
 30
0.0
 10
32.75162289563692
 20
5.68943509022017
 30
0.0
 10
32.74708041151354
 20
5.645552491973442
 30
0.0
 10
32.74316806349998
 20
5.601618032499999
 30
0.0
 11
32.75677221399996
 21
5.733241798800008
 31
0.0
 11
32.74316806349998
 21
5.601618032499999
 31
0.0
  0
SPLINE
  5
852
330
1F
100
AcDbEntity
  8
1
100
AcDbSpline
210
0.0
220
0.0
230
1.0
 70
     8
 71
     3
 72
     8
 73
     4
 74
     2
 42
0.0000000001
 43
0.0000000001
 44
0.0000000001
 12
-0.1253435109383279
 22
-0.9921134029261239
 32
0.0
 13
-0.1167425838295783
 23
-0.9931622068528353
 33
0.0
 40
0.0
 40
0.0
 40
0.0
 40
0.0
 40
0.0415680627348023
 40
0.0415680627348023
 40
0.0415680627348023
 40
0.0415680627348023
 10
32.7618040968
 20
5.774504178699999
 30
0.0
 10
32.76006733449131
 20
5.760757434642375
 30
0.0
 10
32.75838980168278
 20
5.747003075106773
 30
0.0
 10
32.75677221399996
 20
5.733241798800008
 30
0.0
 11
32.7618040968
 21
5.774504178699999
 31
0.0
 11
32.75677221399996
 21
5.733241798800008
 31
0.0
  0
SPLINE
  5
853
330
1F
100
AcDbEntity
  8
1
100
AcDbSpline
210
0.0
220
0.0
230
1.0
 70
     8
 71
     3
 72
     8
 73
     4
 74
     2
 42
0.0000000001
 43
0.0000000001
 44
0.0000000001
 12
-0.1492810219815868
 22
-0.9887948100976931
 32
0.0
 13
-0.1253435105387694
 23
-0.992113402976604
 33
0.0
 40
0.0
 40
0.0
 40
0.0
 40
0.0
 40
0.1182722782899897
 40
0.1182722782899897
 40
0.1182722782899897
 40
0.1182722782899897
 10
32.77805247099999
 20
5.891655030800023
 30
0.0
 10
32.77216720214159
 20
5.852672692482832
 30
0.0
 10
32.76674565098677
 20
5.813617349530691
 30
0.0
 10
32.7618040968
 20
5.774504178699999
 30
0.0
 11
32.77805247099999
 21
5.891655030800023
 31
0.0
 11
32.7618040968
 21
5.774504178699999
 31
0.0
  0
SPLINE
  5
854
330
1F
100
AcDbEntity
  8
1
100
AcDbSpline
210
0.0
220
0.0
230
1.0
 70
     8
 71
     3
 72
     8
 73
     4
 74
     2
 42
0.0000000001
 43
0.0000000001
 44
0.0000000001
 12
-0.1573269742563712
 22
-0.9875465675963514
 32
0.0
 13
-0.1492810223455361
 23
-0.9887948100427468
 33
0.0
 40
0.0
 40
0.0
 40
0.0
 40
0.0
 40
0.0406439123991996
 40
0.0406439123991996
 40
0.0406439123991996
 40
0.0406439123991996
 10
32.7842836705
 20
5.931818444100002
 30
0.0
 10
32.78215220924677
 20
5.91843919203883
 30
0.0
 10
32.78007492593168
 20
5.90505119401341
 30
0.0
 10
32.77805247099999
 20
5.891655030800023
 30
0.0
 11
32.7842836705
 21
5.931818444100002
 31
0.0
 11
32.77805247099999
 21
5.891655030800023
 31
0.0
  0
SPLINE
  5
855
330
1F
100
AcDbEntity
  8
1
100
AcDbSpline
210
0.0
220
0.0
230
1.0
 70
     8
 71
     3
 72
     9
 73
     5
 74
     3
 42
0.0000000001
 43
0.0000000001
 44
0.0000000001
 12
-0.267119973499521
 22
-0.9636632813164645
 32
0.0
 13
-0.1621137448034671
 23
-0.9867720779115085
 33
0.0
 40
0.0
 40
0.0
 40
0.0
 40
0.0
 40
0.2139620384218367
 40
0.4845404911062978
 40
0.4845404911062978
 40
0.4845404911062978
 40
0.4845404911062978
 10
32.88880332099998
 20
6.404777182799989
 30
0.0
 10
32.86975214298893
 20
6.336048062792407
 30
0.0
 10
32.8301820888884
 20
6.179398657105421
 30
0.0
 10
32.79890516590926
 20
6.020818198097845
 30
0.0
 10
32.7842836705
 20
5.931818444100002
 30
0.0
 11
32.88880332099998
 21
6.404777182799989
 31
0.0
 11
32.83642275599999
 21
6.197325910699987
 31
0.0
 11
32.7842836705
 21
5.931818444100002
 31
0.0
  0
SPLINE
  5
856
330
1F
100
AcDbEntity
  8
1
100
AcDbSpline
210
0.0
220
0.0
230
1.0
 70
     8
 71
     3
 72
     9
 73
     5
 74
     3
 42
0.0000000001
 43
0.0000000001
 44
0.0000000001
 12
-0.3344287351986686
 22
-0.942421042354965
 32
0.0
 13
-0.2671199734778637
 23
-0.9636632813224677
 33
0.0
 40
0.0
 40
0.0
 40
0.0
 40
0.0
 40
0.2764942920041574
 40
0.3357077628789337
 40
0.3357077628789337
 40
0.3357077628789337
 40
0.3357077628789337
 10
32.98992550719998
 20
6.724860555299983
 30
0.0
 10
32.95910296174511
 20
6.638002542341397
 30
0.0
 10
32.92465210086472
 20
6.531441608517117
 30
0.0
 10
32.89407568792318
 20
6.423797798680549
 30
0.0
 10
32.88880332099998
 20
6.404777182799989
 30
0.0
 11
32.98992550719998
 21
6.724860555299983
 31
0.0
 11
32.90498260579997
 21
6.461737395900001
 31
0.0
 11
32.88880332099998
 21
6.404777182799989
 31
0.0
  0
SPLINE
  5
857
330
1F
100
AcDbEntity
  8
1
100
AcDbSpline
210
0.0
220
0.0
230
1.0
 70
     8
 71
     3
 72
    10
 73
     6
 74
     4
 42
0.0000000001
 43
0.0000000001
 44
0.0000000001
 12
-0.3413783004531065
 22
-0.9399259843092691
 32
0.0
 13
-0.3344276490460726
 23
-0.9424214277877583
 33
0.0
 40
0.0
 40
0.0
 40
0.0
 40
0.0
 40
0.0041490437596446
 40
0.0082853816883548
 40
0.0124086204991379
 40
0.0124086204991379
 40
0.0124086204991379
 40
0.0124086204991379
 10
32.9941190346
 20
6.736539064300018
 30
0.0
 10
32.99364690343095
 20
6.735239132953442
 30
0.0
 10
32.99270722110156
 20
6.732642111549536
 30
0.0
 10
32.9913092272145
 20
6.728749316874267
 30
0.0
 10
32.9903851488873
 20
6.726155831502373
 30
0.0
 10
32.98992550719998
 20
6.724860555299983
 30
0.0
 11
32.9941190346
 21
6.736539064300018
 31
0.0
 11
32.9927073412
 21
6.732637566400001
 31
0.0
 11
32.99130937439997
 21
6.72874462659999
 31
0.0
 11
32.98992550719998
 21
6.724860555299983
 31
0.0
  0
SPLINE
  5
858
330
1F
100
AcDbEntity
  8
1
100
AcDbSpline
210
0.0
220
0.0
230
1.0
 70
     8
 71
     3
 72
    10
 73
     6
 74
     4
 42
0.0000000001
 43
0.0000000001
 44
0.0000000001
 12
0.3413862149037328
 22
0.9399231097668055
 32
0.0
 13
0.9999230827579882
 23
-0.0124027645209106
 33
0.0
 40
0.0
 40
0.0
 40
0.0
 40
0.0
 40
0.0801227982046365
 40
0.1362825215547628
 40
0.168786127721975
 40
0.168786127721975
 40
0.168786127721975
 40
0.168786127721975
 10
32.9941190346
 20
6.736526368200003
 30
0.0
 10
33.00323664086886
 20
6.76162945808391
 30
0.0
 10
33.02180100682859
 20
6.803477943995032
 30
0.0
 10
33.0532408734346
 20
6.850159528275089
 30
0.0
 10
33.08117321587353
 20
6.866634691291128
 30
0.0
 10
33.09200691790002
 20
6.866500313100004
 30
0.0
 11
32.9941190346
 21
6.736526368200003
 31
0.0
 11
33.02742291700002
 21
6.809399643200009
 31
0.0
 11
33.0622278129
 21
6.853473827800002
 31
0.0
 11
33.09200691790002
 21
6.866500313100004
 31
0.0
  0
SPLINE
  5
859
330
1F
100
AcDbEntity
  8
1
100
AcDbSpline
210
0.0
220
0.0
230
1.0
 70
     8
 71
     3
 72
    19
 73
    15
 74
    13
 42
0.0000000001
 43
0.0000000001
 44
0.0000000001
 12
0.3361636546269358
 22
0.9418035874362882
 32
0.0
 13
-0.0941400753839964
 23
-0.9955589616927243
 33
0.0
 40
0.0
 40
0.0
 40
0.0
 40
0.0
 40
0.041146152861675
 40
0.0772638837760046
 40
0.1081239104984314
 40
0.1336538818448262
 40
0.1545772272354371
 40
0.1720516223673285
 40
0.1881506618913349
 40
0.2054885133126165
 40
0.2264566371114202
 40
0.2526286604905677
 40
0.2849509116548027
 40
0.310328405893557
 40
0.310328405893557
 40
0.310328405893557
 40
0.310328405893557
 10
32.96743276540002
 20
6.495748344800006
 30
0.0
 10
32.97204337910662
 20
6.508665542924782
 30
0.0
 10
32.98170250331921
 20
6.532589128195748
 30
0.0
 10
32.99859619475216
 20
6.564506587798437
 30
0.0
 10
33.0162831048686
 20
6.589883020928647
 30
0.0
 10
33.03426652879216
 20
6.608540935220707
 30
0.0
 10
33.0522238914651
 20
6.620441874022786
 30
0.0
 10
33.07024212355863
 20
6.625245161422103
 30
0.0
 10
33.0875288257418
 20
6.62170767980346
 30
0.0
 10
33.10198752683344
 20
6.609816398268426
 30
0.0
 10
33.1126074050837
 20
6.590743416811745
 30
0.0
 10
33.11919028907325
 20
6.564873240048076
 30
0.0
 10
33.12083098856528
 20
6.536837852759777
 30
0.0
 10
33.1197716399069
 20
6.517613934571558
 30
0.0
 10
33.1189752935
 20
6.509192337299992
 30
0.0
 11
32.96743276540002
 21
6.495748344800006
 31
0.0
 11
32.98301542139998
 21
6.533829662100004
 31
0.0
 11
33.00009838229999
 21
6.565652027400034
 31
0.0
 11
33.01800153969998
 21
6.59078802159999
 31
0.0
 11
33.03601569349999
 21
6.608878618600016
 31
0.0
 11
33.0537596746
 21
6.619966337799979
 31
0.0
 11
33.07077795110001
 21
6.623932790899999
 31
0.0
 11
33.08653626259999
 21
6.620638144900027
 31
0.0
 11
33.10022972829997
 21
6.610003762500014
 31
0.0
 11
33.1109867852
 21
6.592005208599999
 31
0.0
 11
33.11793976219997
 21
6.566773662499997
 31
0.0
 11
33.12028022129996
 21
6.534536259200024
 31
0.0
 11
33.1189752935
 21
6.509192337299992
 31
0.0
  0
SPLINE
  5
85A
330
1F
100
AcDbEntity
  8
1
100
AcDbSpline
210
0.0
220
0.0
230
1.0
 70
     8
 71
     3
 72
    11
 73
     7
 74
     5
 42
0.0000000001
 43
0.0000000001
 44
0.0000000001
 12
0.9999230827607583
 22
-0.0124027642976
 32
0.0
 13
-0.0451204458932717
 23
-0.9989815540651351
 33
0.0
 40
0.0
 40
0.0
 40
0.0
 40
0.0
 40
0.0026078042708318
 40
0.0342433808642079
 40
0.0820008063738078
 40
0.149391825399192
 40
0.149391825399192
 40
0.149391825399192
 40
0.149391825399192
 10
33.09200691790002
 20
6.866500313100004
 30
0.0
 10
33.09287611912859
 20
6.866489531772769
 30
0.0
 10
33.10430908292058
 20
6.86573662742365
 30
0.0
 10
33.12828995239385
 20
6.845992307789979
 30
0.0
 10
33.14005123567779
 20
6.797371412164872
 30
0.0
 10
33.14160842534251
 20
6.758967163172006
 30
0.0
 10
33.14059485439997
 20
6.736526368200003
 30
0.0
 11
33.09200691790002
 21
6.866500313100004
 31
0.0
 11
33.09460924629997
 21
6.866331404800007
 31
0.0
 11
33.1208987098
 21
6.848733853400005
 31
0.0
 11
33.13715884189997
 21
6.803829735600004
 31
0.0
 11
33.14059485439997
 21
6.736526368200003
 31
0.0
  0
SPLINE
  5
85B
330
1F
100
AcDbEntity
  8
1
100
AcDbSpline
210
0.0
220
0.0
230
1.0
 70
     8
 71
     3
 72
    10
 73
     6
 74
     4
 42
0.0000000001
 43
0.0000000001
 44
0.0000000001
 12
-0.0451222375999026
 22
-0.9989814731385052
 32
0.0
 13
-0.0692156114860107
 23
-0.9976017236987001
 33
0.0
 40
0.0
 40
0.0
 40
0.0
 40
0.0
 40
0.0039116366431547
 40
0.0078109488395861
 40
0.0116979216323829
 40
0.0116979216323829
 40
0.0116979216323829
 40
0.0116979216323829
 10
33.14059485439997
 20
6.736539064300018
 30
0.0
 10
33.14053602046731
 20
6.735236513454631
 30
0.0
 10
33.14040717646383
 20
6.732636019415891
 30
0.0
 10
33.1401843813959
 20
6.728743047778806
 30
0.0
 10
33.14001518693288
 20
6.726153105552671
 30
0.0
 10
33.13992550719999
 20
6.724860555299983
 30
0.0
 11
33.14059485439997
 21
6.736539064300018
 31
0.0
 11
33.14040197719998
 21
6.732632185800014
 31
0.0
 11
33.140178905
 21
6.72873925959999
 31
0.0
 11
33.13992550719999
 21
6.724860555299983
 31
0.0
  0
SPLINE
  5
85C
330
1F
100
AcDbEntity
  8
1
100
AcDbSpline
210
0.0
220
0.0
230
1.0
 70
     8
 71
     3
 72
     8
 73
     4
 74
     2
 42
0.0000000001
 43
0.0000000001
 44
0.0000000001
 12
-0.1770859553464096
 22
-0.9841953893506357
 32
0.0
 13
-0.2076905721589069
 23
-0.9781945748348361
 33
0.0
 40
0.0
 40
0.0
 40
0.0
 40
0.0
 40
0.2198068638906179
 40
0.2198068638906179
 40
0.2198068638906179
 40
0.2198068638906179
 10
33.06675593790001
 20
6.147498766799998
 30
0.0
 10
33.05378103507209
 20
6.075387799470409
 30
0.0
 10
33.0395815139086
 20
6.003489738023089
 30
0.0
 10
33.02436424279997
 20
5.931818444100002
 30
0.0
 11
33.06675593790001
 21
6.147498766799998
 31
0.0
 11
33.02436424279997
 21
5.931818444100002
 31
0.0
  0
SPLINE
  5
85D
330
1F
100
AcDbEntity
  8
1
100
AcDbSpline
210
0.0
220
0.0
230
1.0
 70
     8
 71
     3
 72
     9
 73
     5
 74
     3
 42
0.0000000001
 43
0.0000000001
 44
0.0000000001
 12
-0.1203113058962058
 22
-0.9927362135399059
 32
0.0
 13
-0.1770859553424591
 23
-0.9841953893513466
 33
0.0
 40
0.0
 40
0.0
 40
0.0
 40
0.0
 40
0.2657461675500974
 40
0.3256166349044403
 40
0.3256166349044403
 40
0.3256166349044403
 40
0.3256166349044403
 10
33.1155987777
 20
6.469412107700009
 30
0.0
 10
33.10494135488171
 20
6.381473492987867
 30
0.0
 10
33.08901680940772
 20
6.274049784981966
 30
0.0
 10
33.07029001086942
 20
6.167140179442816
 30
0.0
 10
33.06675593790001
 20
6.147498766799998
 30
0.0
 11
33.1155987777
 21
6.469412107700009
 31
0.0
 11
33.07708179049999
 21
6.206472062700015
 31
0.0
 11
33.06675593790001
 21
6.147498766799998
 31
0.0
  0
SPLINE
  5
85E
330
1F
100
AcDbEntity
  8
1
100
AcDbSpline
210
0.0
220
0.0
230
1.0
 70
     8
 71
     3
 72
     8
 73
     4
 74
     2
 42
0.0000000001
 43
0.0000000001
 44
0.0000000001
 12
-0.1150737817446597
 22
-0.993356947302923
 32
0.0
 13
-0.1203113065030281
 23
-0.992736213466364
 33
0.0
 40
0.0
 40
0.0
 40
0.0
 40
0.0
 40
0.0263799410075999
 40
0.0263799410075999
 40
0.0263799410075999
 40
0.0263799410075999
 10
33.11870350999999
 20
6.495608709099997
 30
0.0
 10
33.117691630142
 20
6.486873809876883
 30
0.0
 10
33.11665671275603
 20
6.478141548615792
 30
0.0
 10
33.1155987777
 20
6.469412107700009
 30
0.0
 11
33.11870350999999
 21
6.495608709099997
 31
0.0
 11
33.1155987777
 21
6.469412107700009
 31
0.0
  0
SPLINE
  5
85F
330
1F
100
AcDbEntity
  8
1
100
AcDbSpline
210
0.0
220
0.0
230
1.0
 70
     8
 71
     3
 72
     8
 73
     4
 74
     2
 42
0.0000000001
 43
0.0000000001
 44
0.0000000001
 12
-0.1123858797578865
 22
-0.9936646386135747
 32
0.0
 13
-0.1150737797662158
 23
-0.9933569475321128
 33
0.0
 40
0.0
 40
0.0
 40
0.0
 40
0.0
 40
0.0135324757377303
 40
0.0135324757377303
 40
0.0135324757377303
 40
0.0135324757377303
 10
33.12024255759999
 20
6.509053382100006
 30
0.0
 10
33.11973560453629
 20
6.50457113456218
 30
0.0
 10
33.1192225877109
 20
6.500089568697124
 30
0.0
 10
33.11870350999999
 20
6.495608709099997
 30
0.0
 11
33.12024255759999
 21
6.509053382100006
 31
0.0
 11
33.11870350999999
 21
6.495608709099997
 31
0.0
  0
SPLINE
  5
860
330
1F
100
AcDbEntity
  8
1
100
AcDbSpline
210
0.0
220
0.0
230
1.0
 70
     8
 71
     3
 72
     8
 73
     4
 74
     2
 42
0.0000000001
 43
0.0000000001
 44
0.0000000001
 12
-0.0945869482662711
 22
-0.9955166041898417
 32
0.0
 13
-0.1123858763462574
 23
-0.9936646389994381
 33
0.0
 40
0.0
 40
0.0
 40
0.0
 40
0.0
 40
0.0895029042327467
 40
0.0895029042327467
 40
0.0895029042327467
 40
0.0895029042327467
 10
33.12950529739998
 20
6.598075691199994
 30
0.0
 10
33.12668336187587
 20
6.568375148771023
 30
0.0
 10
33.12359551170924
 20
6.538698672441284
 30
0.0
 10
33.12024255759999
 20
6.509053382100006
 30
0.0
 11
33.12950529739998
 21
6.598075691199994
 31
0.0
 11
33.12024255759999
 21
6.509053382100006
 31
0.0
  0
SPLINE
  5
861
330
1F
100
AcDbEntity
  8
1
100
AcDbSpline
210
0.0
220
0.0
230
1.0
 70
     8
 71
     3
 72
     8
 73
     4
 74
     2
 42
0.0000000001
 43
0.0000000001
 44
0.0000000001
 12
-0.0901963476339309
 22
-0.9959240025591808
 32
0.0
 13
-0.0945869476591748
 23
-0.9955166042475237
 33
0.0
 40
0.0
 40
0.0
 40
0.0
 40
0.0
 40
0.022048444111265
 40
0.022048444111265
 40
0.022048444111265
 40
0.022048444111265
 10
33.13154239569999
 20
6.620029827900026
 30
0.0
 10
33.13087949932338
 20
6.612710302996862
 30
0.0
 10
33.1302004624097
 20
6.605392221936857
 30
0.0
 10
33.12950529739998
 20
6.598075691199994
 30
0.0
 11
33.13154239569999
 21
6.620029827900026
 31
0.0
 11
33.12950529739998
 21
6.598075691199994
 31
0.0
  0
SPLINE
  5
862
330
1F
100
AcDbEntity
  8
1
100
AcDbSpline
210
0.0
220
0.0
230
1.0
 70
     8
 71
     3
 72
     8
 73
     4
 74
     2
 42
0.0000000001
 43
0.0000000001
 44
0.0000000001
 12
-0.0692175273979262
 22
-0.9976015907670344
 32
0.0
 13
-0.0901963459904207
 23
-0.9959240027080261
 33
0.0
 40
0.0
 40
0.0
 40
0.0
 40
0.0
 40
0.1051653838752345
 40
0.1051653838752345
 40
0.1051653838752345
 40
0.1051653838752345
 10
33.13992550719999
 20
6.724860555299983
 30
0.0
 10
33.13749907792009
 20
6.689889503884129
 30
0.0
 10
33.13470424015007
 20
6.654942071251809
 30
0.0
 10
33.13154239569999
 20
6.620029827900026
 30
0.0
 11
33.13992550719999
 21
6.724860555299983
 31
0.0
 11
33.13154239569999
 21
6.620029827900026
 31
0.0
  0
LWPOLYLINE
  5
863
330
1F
100
AcDbEntity
  8
1
100
AcDbPolyline
 90
        4
 70
     0
 43
0.0
 10
32.74494816399999
 20
5.600533930300002
 10
32.74785435859999
 20
5.62008280720002
 10
32.76059957110001
 20
5.698182074100003
 10
32.77384095899998
 20
5.768304152500007
  0
LWPOLYLINE
  5
864
330
1F
100
AcDbEntity
  8
1
100
AcDbPolyline
 90
       12
 70
     0
 43
0.0
 10
32.81584123549999
 20
5.960448030000009
 10
32.8252919704
 20
6.000949415299999
 10
32.83520508710001
 20
6.042366417700009
 10
32.8449921829
 20
6.0821230807
 10
32.85499479509999
 20
6.121561103000004
 10
32.86537573749999
 20
6.16121333800001
 10
32.87612029469997
 20
6.200910006000015
 10
32.88735264559997
 20
6.241013126199987
 10
32.89878221840001
 20
6.280440902400016
 10
32.91048125770001
 20
6.319441523300014
 10
32.92129746919997
 20
6.354337325499983
 10
32.92981613149999
 20
6.381048153500017
  0
LINE
  5
865
330
1F
100
AcDbEntity
  8
1
100
AcDbLine
 10
32.79956075329997
 20
5.888668962400032
 30
0.0
 11
32.81584123549999
 21
5.960448030000009
 31
0.0
  0
LWPOLYLINE
  5
866
330
1F
100
AcDbEntity
  8
1
100
AcDbPolyline
 90
        3
 70
     0
 43
0.0
 10
32.77384095899998
 20
5.768304152500007
 10
32.78711570399997
 20
5.831974939399998
 10
32.7995606298
 20
5.888668409200022
  0
LWPOLYLINE
  5
867
330
1F
100
AcDbEntity
  8
1
100
AcDbPolyline
 90
        3
 70
     0
 43
0.0
 10
32.75749964829998
 20
5.67499766420002
 10
32.76929163809998
 20
5.73917889430001
 10
32.77564490829999
 20
5.772595806000026
  0
LINE
  5
868
330
1F
100
AcDbEntity
  8
1
100
AcDbLine
 10
32.74861082200001
 20
5.624718213400001
 30
0.0
 11
32.75749964829998
 21
5.67499766420002
 31
0.0
  0
LINE
  5
869
330
1F
100
AcDbEntity
  8
1
100
AcDbLine
 10
32.93353308849998
 20
6.392470579000018
 30
0.0
 11
32.92830540329998
 21
6.376544224300005
 31
0.0
  0
LINE
  5
86A
330
1F
100
AcDbEntity
  8
1
100
AcDbLine
 10
33.11897320279999
 20
6.509192535000011
 30
0.0
 11
33.11743276540002
 21
6.495748344800006
 31
0.0
  0
LINE
  5
86B
330
1F
100
AcDbEntity
  8
1
100
AcDbLine
 10
33.11897343239996
 20
6.509194967200016
 30
0.0
 11
33.12964931399998
 21
6.62018672900001
 31
0.0
  0
LINE
  5
86C
330
1F
100
AcDbEntity
  8
1
100
AcDbLine
 10
33.11743276540002
 20
6.495748344800006
 30
0.0
 11
33.06113220290001
 21
6.148516015800026
 31
0.0
  0
ENDSEC
  0
SECTION
  2
OBJECTS
  0
DICTIONARY
  5
37E
330
0
100
AcDbDictionary
  3
ACAD_GROUP
350
37F
  3
ACAD_LAYOUT
350
387
  3
ACAD_MLINESTYLE
350
380
  3
ACAD_PLOTSETTINGS
350
388
  3
ACAD_PLOTSTYLENAME
350
385
  3
ACDBHEADERROUNDTRIPXREC
350
905
  0
DICTIONARY
  5
928
330
1F
100
AcDbDictionary
280
     1
  3
ACAD_LAYOUTSELFREF
360
929
  0
DICTIONARY
  5
926
330
1B
100
AcDbDictionary
280
     1
  3
ACAD_LAYOUTSELFREF
360
927
  0
DICTIONARY
  5
37F
102
{ACAD_REACTORS
330
37E
102
}
330
37E
100
AcDbDictionary
  0
DICTIONARY
  5
387
102
{ACAD_REACTORS
330
37E
102
}
330
37E
100
AcDbDictionary
  0
DICTIONARY
  5
380
102
{ACAD_REACTORS
330
37E
102
}
330
37E
100
AcDbDictionary
  3
STANDARD
350
381
  0
DICTIONARY
  5
388
102
{ACAD_REACTORS
330
37E
102
}
330
37E
100
AcDbDictionary
  0
ACDBDICTIONARYWDFLT
  5
385
102
{ACAD_REACTORS
330
37E
102
}
330
37E
100
AcDbDictionary
281
     1
  3
Normal
350
386
100
AcDbDictionaryWithDefault
340
386
  0
DICTIONARY
  5
905
102
{ACAD_REACTORS
330
37E
102
}
330
37E
100
AcDbDictionary
  3
CEPSNTYPE
350
90F
  3
DIMSTYLEDATA
350
913
  3
FINGERPRINTGUID
350
910
  3
HYPERLINKBASE
350
908
  3
INSUNITS
350
90E
  3
LAYOUTDICT
350
90A
  3
LWETCUNION
350
90D
  3
PLOTSETDICT
350
90B
  3
PLOTSTYLNAMDICT
350
90C
  3
PSVPSCALE
350
912
  3
PUCSBASE
350
916
  3
PUCSORGBACK
350
91C
  3
PUCSORGBOTTOM
350
918
  3
PUCSORGFRONT
350
91B
  3
PUCSORGLEFT
350
919
  3
PUCSORGRIGHT
350
91A
  3
PUCSORGTOP
350
917
  3
PUCSORTHOREF
350
914
  3
PUCSORTHOVIEW
350
915
  3
STYLESHEET
350
909
  3
TSTACKALIGN
350
906
  3
TSTACKSIZE
350
907
  3
UCSBASE
350
91F
  3
UCSORGBACK
350
925
  3
UCSORGBOTTOM
350
921
  3
UCSORGFRONT
350
924
  3
UCSORGLEFT
350
922
  3
UCSORGRIGHT
350
923
  3
UCSORGTOP
350
920
  3
UCSORTHOREF
350
91D
  3
UCSORTHOVIEW
350
91E
  3
VERSIONGUID
350
911
  0
XRECORD
  5
929
102
{ACAD_REACTORS
330
928
102
}
330
928
100
AcDbXrecord
340
1F
  0
XRECORD
  5
927
102
{ACAD_REACTORS
330
926
102
}
330
926
100
AcDbXrecord
340
1B
  0
MLINESTYLE
  5
381
102
{ACAD_REACTORS
330
380
102
}
330
380
100
AcDbMlineStyle
  2
STANDARD
 70
     0
  3

 62
   256
 51
90.0
 52
90.0
 71
     2
 49
0.5
 62
   256
  6
BYLAYER
 49
-0.5
 62
   256
  6
BYLAYER
  0
ACDBPLACEHOLDER
  5
386
102
{ACAD_REACTORS
330
385
102
}
330
385
100
AcDbPlaceHolder
280
     0
  0
XRECORD
  5
90F
102
{ACAD_REACTORS
330
905
102
}
330
905
100
AcDbXrecord
 90
        0
  0
XRECORD
  5
913
102
{ACAD_REACTORS
330
905
102
}
330
905
100
AcDbXrecord
1000
DSTYLE
1002
{
1070
   341
340
20C
1070
   342
340
20C
1002
}
  0
XRECORD
  5
910
102
{ACAD_REACTORS
330
905
102
}
330
905
100
AcDbXrecord
  1
{36AFD604-8A39-40D9-80D5-3C881FFC58C4}
  0
XRECORD
  5
908
102
{ACAD_REACTORS
330
905
102
}
330
905
100
AcDbXrecord
  1

  0
XRECORD
  5
90E
102
{ACAD_REACTORS
330
905
102
}
330
905
100
AcDbXrecord
 90
        0
  0
XRECORD
  5
90A
102
{ACAD_REACTORS
330
905
102
}
330
905
100
AcDbXrecord
340
387
  0
XRECORD
  5
90D
102
{ACAD_REACTORS
330
905
102
}
330
905
100
AcDbXrecord
 90
    10781
  0
XRECORD
  5
90B
102
{ACAD_REACTORS
330
905
102
}
330
905
100
AcDbXrecord
340
388
  0
XRECORD
  5
90C
102
{ACAD_REACTORS
330
905
102
}
330
905
100
AcDbXrecord
340
385
  0
XRECORD
  5
912
102
{ACAD_REACTORS
330
905
102
}
330
905
100
AcDbXrecord
 40
0.0
  0
XRECORD
  5
916
102
{ACAD_REACTORS
330
905
102
}
330
905
100
AcDbXrecord
340
0
  0
XRECORD
  5
91C
102
{ACAD_REACTORS
330
905
102
}
330
905
100
AcDbXrecord
 10
0.0
 20
0.0
 30
0.0
  0
XRECORD
  5
918
102
{ACAD_REACTORS
330
905
102
}
330
905
100
AcDbXrecord
 10
0.0
 20
0.0
 30
0.0
  0
XRECORD
  5
91B
102
{ACAD_REACTORS
330
905
102
}
330
905
100
AcDbXrecord
 10
0.0
 20
0.0
 30
0.0
  0
XRECORD
  5
919
102
{ACAD_REACTORS
330
905
102
}
330
905
100
AcDbXrecord
 10
0.0
 20
0.0
 30
0.0
  0
XRECORD
  5
91A
102
{ACAD_REACTORS
330
905
102
}
330
905
100
AcDbXrecord
 10
0.0
 20
0.0
 30
0.0
  0
XRECORD
  5
917
102
{ACAD_REACTORS
330
905
102
}
330
905
100
AcDbXrecord
 10
0.0
 20
0.0
 30
0.0
  0
XRECORD
  5
914
102
{ACAD_REACTORS
330
905
102
}
330
905
100
AcDbXrecord
340
0
  0
XRECORD
  5
915
102
{ACAD_REACTORS
330
905
102
}
330
905
100
AcDbXrecord
 70
     0
  0
XRECORD
  5
909
102
{ACAD_REACTORS
330
905
102
}
330
905
100
AcDbXrecord
  1

  0
XRECORD
  5
906
102
{ACAD_REACTORS
330
905
102
}
330
905
100
AcDbXrecord
 90
        1
  0
XRECORD
  5
907
102
{ACAD_REACTORS
330
905
102
}
330
905
100
AcDbXrecord
 90
       70
  0
XRECORD
  5
91F
102
{ACAD_REACTORS
330
905
102
}
330
905
100
AcDbXrecord
340
0
  0
XRECORD
  5
925
102
{ACAD_REACTORS
330
905
102
}
330
905
100
AcDbXrecord
 10
0.0
 20
0.0
 30
0.0
  0
XRECORD
  5
921
102
{ACAD_REACTORS
330
905
102
}
330
905
100
AcDbXrecord
 10
0.0
 20
0.0
 30
0.0
  0
XRECORD
  5
924
102
{ACAD_REACTORS
330
905
102
}
330
905
100
AcDbXrecord
 10
0.0
 20
0.0
 30
0.0
  0
XRECORD
  5
922
102
{ACAD_REACTORS
330
905
102
}
330
905
100
AcDbXrecord
 10
0.0
 20
0.0
 30
0.0
  0
XRECORD
  5
923
102
{ACAD_REACTORS
330
905
102
}
330
905
100
AcDbXrecord
 10
0.0
 20
0.0
 30
0.0
  0
XRECORD
  5
920
102
{ACAD_REACTORS
330
905
102
}
330
905
100
AcDbXrecord
 10
0.0
 20
0.0
 30
0.0
  0
XRECORD
  5
91D
102
{ACAD_REACTORS
330
905
102
}
330
905
100
AcDbXrecord
340
0
  0
XRECORD
  5
91E
102
{ACAD_REACTORS
330
905
102
}
330
905
100
AcDbXrecord
 70
     0
  0
XRECORD
  5
911
102
{ACAD_REACTORS
330
905
102
}
330
905
100
AcDbXrecord
  1
{6DB55F3B-89FB-4C67-84D6-08728CB547A0}
  0
ENDSEC
  0
EOF
