  0
SECTION
  2
HEADER
  9
$ACADVER
  1
AC1015
  9
$ACADMAINTVER
 70
    20
  9
$DWGCODEPAGE
  3
ANSI_1252
  9
$INSBASE
 10
0.0
 20
0.0
 30
0.0
  9
$EXTMIN
 10
-53.46706053094871
 20
-58.25921288089446
 30
0.0
  9
$EXTMAX
 10
83.11066544416286
 20
38.13762324004289
 30
0.0
  9
$LIMMIN
 10
0.0
 20
0.0
  9
$LIMMAX
 10
420.0
 20
297.0
  9
$ORTHOMODE
 70
     0
  9
$REGENMODE
 70
     1
  9
$FILLMODE
 70
     1
  9
$QTEXTMODE
 70
     0
  9
$MIRRTEXT
 70
     0
  9
$LTSCALE
 40
23.1
  9
$ATTMODE
 70
     1
  9
$TEXTSIZE
 40
3.5
  9
$TRACEWID
 40
0.05
  9
$TEXTSTYLE
  7
STANDARD
  9
$CLAYER
  8
SKVIEW2
  9
$CELTYPE
  6
BYLAYER
  9
$CECOLOR
 62
   256
  9
$CELTSCALE
 40
1.0
  9
$DISPSILH
 70
     0
  9
$DIMSCALE
 40
1.0
  9
$DIMASZ
 40
4.57
  9
$DIMEXO
 40
0.0625
  9
$DIMDLI
 40
0.38
  9
$DIMRND
 40
0.0
  9
$DIMDLE
 40
0.0
  9
$DIMEXE
 40
0.18
  9
$DIMTP
 40
0.01
  9
$DIMTM
 40
0.01
  9
$DIMTXT
 40
3.5
  9
$DIMCEN
 40
0.09
  9
$DIMTSZ
 40
0.0
  9
$DIMTOL
 70
     0
  9
$DIMLIM
 70
     0
  9
$DIMTIH
 70
     0
  9
$DIMTOH
 70
     0
  9
$DIMSE1
 70
     0
  9
$DIMSE2
 70
     0
  9
$DIMTAD
 70
     1
  9
$DIMZIN
 70
     8
  9
$DIMBLK
  1

  9
$DIMASO
 70
     1
  9
$DIMSHO
 70
     1
  9
$DIMPOST
  1

  9
$DIMAPOST
  1

  9
$DIMALT
 70
     0
  9
$DIMALTD
 70
     2
  9
$DIMALTF
 40
25.4
  9
$DIMLFAC
 40
1.0
  9
$DIMTOFL
 70
     0
  9
$DIMTVP
 40
0.0
  9
$DIMTIX
 70
     0
  9
$DIMSOXD
 70
     0
  9
$DIMSAH
 70
     0
  9
$DIMBLK1
  1

  9
$DIMBLK2
  1

  9
$DIMSTYLE
  2
STANDARD
  9
$DIMCLRD
 70
     0
  9
$DIMCLRE
 70
     0
  9
$DIMCLRT
 70
     0
  9
$DIMTFAC
 40
1.0
  9
$DIMGAP
 40
0.09
  9
$DIMJUST
 70
     0
  9
$DIMSD1
 70
     0
  9
$DIMSD2
 70
     0
  9
$DIMTOLJ
 70
     1
  9
$DIMTZIN
 70
     8
  9
$DIMALTZ
 70
     0
  9
$DIMALTTZ
 70
     0
  9
$DIMUPT
 70
     0
  9
$DIMDEC
 70
     3
  9
$DIMTDEC
 70
     3
  9
$DIMALTU
 70
     2
  9
$DIMALTTD
 70
     2
  9
$DIMTXSTY
  7
STANDARD
  9
$DIMAUNIT
 70
     0
  9
$DIMADEC
 70
     0
  9
$DIMALTRND
 40
0.0
  9
$DIMAZIN
 70
     0
  9
$DIMDSEP
 70
    46
  9
$DIMATFIT
 70
     0
  9
$DIMFRAC
 70
     0
  9
$DIMLDRBLK
  1

  9
$DIMLUNIT
 70
     2
  9
$DIMLWD
 70
    -2
  9
$DIMLWE
 70
    -2
  9
$DIMTMOVE
 70
     0
  9
$LUNITS
 70
     2
  9
$LUPREC
 70
     4
  9
$SKETCHINC
 40
0.1
  9
$FILLETRAD
 40
0.0
  9
$AUNITS
 70
     0
  9
$AUPREC
 70
     0
  9
$MENU
  1
.
  9
$ELEVATION
 40
0.0
  9
$PELEVATION
 40
0.0
  9
$THICKNESS
 40
0.0
  9
$LIMCHECK
 70
     0
  9
$CHAMFERA
 40
0.0
  9
$CHAMFERB
 40
0.0
  9
$CHAMFERC
 40
0.0
  9
$CHAMFERD
 40
0.0
  9
$SKPOLY
 70
     0
  9
$TDCREATE
 40
2457553.610562801
  9
$TDUCREATE
 40
2457553.527229467
  9
$TDUPDATE
 40
2457585.409426632
  9
$TDUUPDATE
 40
2457585.326093298
  9
$TDINDWG
 40
0.2194161574
  9
$TDUSRTIMER
 40
0.2193723264
  9
$USRTIMER
 70
     1
  9
$ANGBASE
 50
0.0
  9
$ANGDIR
 70
     0
  9
$PDMODE
 70
     3
  9
$PDSIZE
 40
0.3125
  9
$PLINEWID
 40
0.0
  9
$SPLFRAME
 70
     0
  9
$SPLINETYPE
 70
     6
  9
$SPLINESEGS
 70
     8
  9
$HANDSEED
  5
23736
  9
$SURFTAB1
 70
     6
  9
$SURFTAB2
 70
     6
  9
$SURFTYPE
 70
     6
  9
$SURFU
 70
     6
  9
$SURFV
 70
     6
  9
$UCSBASE
  2

  9
$UCSNAME
  2

  9
$UCSORG
 10
0.0
 20
0.0
 30
0.0
  9
$UCSXDIR
 10
1.0
 20
0.0
 30
0.0
  9
$UCSYDIR
 10
0.0
 20
1.0
 30
0.0
  9
$UCSORTHOREF
  2

  9
$UCSORTHOVIEW
 70
     0
  9
$UCSORGTOP
 10
0.0
 20
0.0
 30
0.0
  9
$UCSORGBOTTOM
 10
0.0
 20
0.0
 30
0.0
  9
$UCSORGLEFT
 10
0.0
 20
0.0
 30
0.0
  9
$UCSORGRIGHT
 10
0.0
 20
0.0
 30
0.0
  9
$UCSORGFRONT
 10
0.0
 20
0.0
 30
0.0
  9
$UCSORGBACK
 10
0.0
 20
0.0
 30
0.0
  9
$PUCSBASE
  2

  9
$PUCSNAME
  2

  9
$PUCSORG
 10
0.0
 20
0.0
 30
0.0
  9
$PUCSXDIR
 10
1.0
 20
0.0
 30
0.0
  9
$PUCSYDIR
 10
0.0
 20
1.0
 30
0.0
  9
$PUCSORTHOREF
  2

  9
$PUCSORTHOVIEW
 70
     0
  9
$PUCSORGTOP
 10
0.0
 20
0.0
 30
0.0
  9
$PUCSORGBOTTOM
 10
0.0
 20
0.0
 30
0.0
  9
$PUCSORGLEFT
 10
0.0
 20
0.0
 30
0.0
  9
$PUCSORGRIGHT
 10
0.0
 20
0.0
 30
0.0
  9
$PUCSORGFRONT
 10
0.0
 20
0.0
 30
0.0
  9
$PUCSORGBACK
 10
0.0
 20
0.0
 30
0.0
  9
$USERI1
 70
     0
  9
$USERI2
 70
     0
  9
$USERI3
 70
     0
  9
$USERI4
 70
     0
  9
$USERI5
 70
     0
  9
$USERR1
 40
0.0
  9
$USERR2
 40
0.0
  9
$USERR3
 40
0.0
  9
$USERR4
 40
0.0
  9
$USERR5
 40
0.0
  9
$WORLDVIEW
 70
     1
  9
$SHADEDGE
 70
     3
  9
$SHADEDIF
 70
    70
  9
$TILEMODE
 70
     1
  9
$MAXACTVP
 70
    64
  9
$PINSBASE
 10
0.0
 20
0.0
 30
0.0
  9
$PLIMCHECK
 70
     0
  9
$PEXTMIN
 10
28.69141678810127
 20
19.6363175392151
 30
0.0
  9
$PEXTMAX
 10
258.2227510929107
 20
176.7268578529358
 30
0.0
  9
$PLIMMIN
 10
-5.027069091796875
 20
-6.805083274841307
  9
$PLIMMAX
 10
291.9412536621094
 20
203.1682443618775
  9
$UNITMODE
 70
     0
  9
$VISRETAIN
 70
     1
  9
$PLINEGEN
 70
     0
  9
$PSLTSCALE
 70
     1
  9
$TREEDEPTH
 70
  3020
  9
$CMLSTYLE
  2
STANDARD
  9
$CMLJUST
 70
     0
  9
$CMLSCALE
 40
1.0
  9
$PROXYGRAPHICS
 70
     1
  9
$MEASUREMENT
 70
     1
  9
$CELWEIGHT
370
    -1
  9
$ENDCAPS
280
     0
  9
$JOINSTYLE
280
     0
  9
$LWDISPLAY
290
     0
  9
$INSUNITS
 70
     0
  9
$HYPERLINKBASE
  1

  9
$STYLESHEET
  1
A1-A2.CTB
  9
$XEDIT
290
     1
  9
$CEPSNTYPE
380
     0
  9
$PSTYLEMODE
290
     1
  9
$FINGERPRINTGUID
  2
{0D5B88E1-A3FF-4B28-9CC3-2C1804273FE6}
  9
$VERSIONGUID
  2
{F0040F34-1396-4002-8167-E74477F19BD7}
  9
$EXTNAMES
290
     1
  9
$PSVPSCALE
 40
0.0
  9
$OLESTARTUP
290
     0
  0
ENDSEC
  0
SECTION
  2
CLASSES
  0
CLASS
  1
ACDBDICTIONARYWDFLT
  2
AcDbDictionaryWithDefault
  3
ObjectDBX Classes
 90
        0
280
     0
281
     0
  0
CLASS
  1
MATERIAL
  2
AcDbMaterial
  3
ObjectDBX Classes
 90
     1153
280
     0
281
     0
  0
CLASS
  1
VISUALSTYLE
  2
AcDbVisualStyle
  3
ObjectDBX Classes
 90
     4095
280
     0
281
     0
  0
CLASS
  1
TABLESTYLE
  2
AcDbTableStyle
  3
ObjectDBX Classes
 90
     4095
280
     0
281
     0
  0
CLASS
  1
SORTENTSTABLE
  2
AcDbSortentsTable
  3
ObjectDBX Classes
 90
        0
280
     0
281
     0
  0
CLASS
  1
DICTIONARYVAR
  2
AcDbDictionaryVar
  3
ObjectDBX Classes
 90
        0
280
     0
281
     0
  0
CLASS
  1
EXACXREFPANELOBJECT
  2
ExAcXREFPanelObject
  3
EXAC_ESW
 90
    33793
280
     1
281
     0
  0
CLASS
  1
NPOCOLLECTION
  2
AcDbImpNonPersistentObjectsCollection
  3
ObjectDBX Classes
 90
    33921
280
     1
281
     0
  0
CLASS
  1
ACDBPLACEHOLDER
  2
AcDbPlaceHolder
  3
ObjectDBX Classes
 90
        0
280
     0
281
     0
  0
CLASS
  1
LAYOUT
  2
AcDbLayout
  3
ObjectDBX Classes
 90
        0
280
     0
281
     0
  0
CLASS
  1
SCALE
  2
AcDbScale
  3
ObjectDBX Classes
 90
     1153
280
     0
281
     0
  0
CLASS
  1
MLEADERSTYLE
  2
AcDbMLeaderStyle
  3
ACDB_MLEADERSTYLE_CLASS
 90
     4095
280
     0
281
     0
  0
CLASS
  1
ACDBSECTIONVIEWSTYLE
  2
AcDbSectionViewStyle
  3
ObjectDBX Classes
 90
     1025
280
     0
281
     0
  0
CLASS
  1
ACDBDETAILVIEWSTYLE
  2
AcDbDetailViewStyle
  3
ObjectDBX Classes
 90
     1025
280
     0
281
     0
  0
CLASS
  1
CELLSTYLEMAP
  2
AcDbCellStyleMap
  3
ObjectDBX Classes
 90
     1152
280
     0
281
     0
  0
CLASS
  1
ACAD_EVALUATION_GRAPH
  2
AcDbEvalGraph
  3
ObjectDBX Classes
 90
    33921
280
     0
281
     0
  0
CLASS
  1
ACAECUSTOBJ
  2
AcAeEditorObj
  3
AcAeEditorObj
 90
    33792
280
     0
281
     0
  0
CLASS
  1
ACDB_DYNAMICBLOCKPURGEPREVENTER_VERSION
  2
AcDbDynamicBlockPurgePreventer
  3
ObjectDBX Classes
 90
    33921
280
     0
281
     0
  0
CLASS
  1
FIELD
  2
AcDbField
  3
ObjectDBX Classes
 90
     1152
280
     0
281
     0
  0
CLASS
  1
FIELDLIST
  2
AcDbFieldList
  3
ObjectDBX Classes
 90
     1152
280
     0
281
     0
  0
ENDSEC
  0
SECTION
  2
TABLES
  0
TABLE
  2
VPORT
  5
8
330
0
100
AcDbSymbolTable
 70
     1
  0
VPORT
  5
1F4
330
8
100
AcDbSymbolTableRecord
100
AcDbViewportTableRecord
  2
*ACTIVE
 70
     0
 10
0.0
 20
0.0
 11
1.0
 21
1.0
 12
29.69886895194765
 22
-7.360725270670016
 13
0.0
 23
0.0
 14
1.0
 24
1.0
 15
0.0
 25
0.0
 16
0.0
 26
0.0
 36
1.0
 17
0.0
 27
0.0
 37
0.0
 40
76.65309015797231
 41
2.355006501950585
 42
50.0
 43
0.0
 44
0.0
 50
0.0
 51
0.0
 71
     0
 72
  2000
 73
     1
 74
     1
 75
     0
 76
     0
 77
     0
 78
     0
281
     0
 65
     1
110
0.0
120
0.0
130
0.0
111
1.0
121
0.0
131
0.0
112
0.0
122
1.0
132
0.0
 79
     0
146
0.0
1001
ACAD_NAV_VCDISPLAY
1070
     3
  0
ENDTAB
  0
TABLE
  2
LTYPE
  5
5
330
0
100
AcDbSymbolTable
 70
     2
  0
LTYPE
  5
14
330
5
100
AcDbSymbolTableRecord
100
AcDbLinetypeTableRecord
  2
BYBLOCK
 70
     0
  3

 72
    65
 73
     0
 40
0.0
  0
LTYPE
  5
15
330
5
100
AcDbSymbolTableRecord
100
AcDbLinetypeTableRecord
  2
BYLAYER
 70
     0
  3

 72
    65
 73
     0
 40
0.0
  0
LTYPE
  5
16
330
5
100
AcDbSymbolTableRecord
100
AcDbLinetypeTableRecord
  2
CONTINUOUS
 70
     0
  3
Solid line
 72
    65
 73
     0
 40
0.0
  0
LTYPE
  5
9C48
330
5
100
AcDbSymbolTableRecord
100
AcDbLinetypeTableRecord
  2
CENTER
 70
     0
  3
____ _ ____ _ ____ _ ____ _ ____ _ ____ _ ____
 72
    65
 73
     4
 40
0.6
 49
0.375
 74
     0
 49
-0.075
 74
     0
 49
0.075
 74
     0
 49
-0.075
 74
     0
  0
ENDTAB
  0
TABLE
  2
LAYER
  5
2
102
{ACAD_XDICTIONARY
360
422A
102
}
330
0
100
AcDbSymbolTable
 70
    11
  0
LAYER
  5
10
102
{ACAD_XDICTIONARY
360
1B2F5
102
}
330
2
100
AcDbSymbolTableRecord
100
AcDbLayerTableRecord
  2
0
 70
     0
 62
     7
  6
CONTINUOUS
370
    -3
390
318A
  0
LAYER
  5
3F8C
102
{ACAD_XDICTIONARY
360
1B2F7
102
}
330
2
100
AcDbSymbolTableRecord
100
AcDbLayerTableRecord
  2
1
 70
     0
 62
     4
  6
BYBLOCK
370
    50
390
318A
  0
LAYER
  5
3FA7
330
2
100
AcDbSymbolTableRecord
100
AcDbLayerTableRecord
  2
Defpoints
 70
     0
 62
     7
  6
CONTINUOUS
290
     0
370
    -3
390
318A
  0
LAYER
  5
9C4A
102
{ACAD_XDICTIONARY
360
1B2F9
102
}
330
2
100
AcDbSymbolTableRecord
100
AcDbLayerTableRecord
  2
2
 70
     0
 62
     7
  6
BYBLOCK
370
    25
390
318A
  0
LAYER
  5
9C4B
102
{ACAD_XDICTIONARY
360
1B2FB
102
}
330
2
100
AcDbSymbolTableRecord
100
AcDbLayerTableRecord
  2
4
 70
     0
 62
     2
  6
CENTER
370
    25
390
318A
  0
LAYER
  5
9C4F
102
{ACAD_XDICTIONARY
360
1B301
102
}
330
2
100
AcDbSymbolTableRecord
100
AcDbLayerTableRecord
  2
SKVIEW2
 70
     0
 62
     7
  6
BYBLOCK
370
    25
390
318A
  0
LAYER
  5
9C50
102
{ACAD_XDICTIONARY
360
1B303
102
}
330
2
100
AcDbSymbolTableRecord
100
AcDbLayerTableRecord
  2
SKVIEW1
 70
     0
 62
     4
  6
BYBLOCK
370
    50
390
318A
  0
LAYER
  5
13335
102
{ACAD_XDICTIONARY
360
1B307
102
}
330
2
100
AcDbSymbolTableRecord
100
AcDbLayerTableRecord
  2
INFTOTAL
 70
     0
 62
     9
  6
BYBLOCK
370
    18
390
318A
1001
AcAecLayerStandard
1000

1000

  0
LAYER
  5
20AE0
102
{ACAD_XDICTIONARY
360
20AE1
102
}
330
2
100
AcDbSymbolTableRecord
100
AcDbLayerTableRecord
  2
SKVIEW63
 70
     0
 62
     5
  6
CONTINUOUS
370
    35
390
318A
  0
LAYER
  5
21F68
102
{ACAD_XDICTIONARY
360
21F69
102
}
330
2
100
AcDbSymbolTableRecord
100
AcDbLayerTableRecord
  2
CUT
 70
     0
 62
     1
  6
BYBLOCK
370
    25
390
318A
  0
LAYER
  5
23304
102
{ACAD_XDICTIONARY
360
23305
102
}
330
2
100
AcDbSymbolTableRecord
100
AcDbLayerTableRecord
  2
SKVIEW4
 70
     0
 62
     2
  6
CENTER
370
    25
390
318A
  0
ENDTAB
  0
TABLE
  2
STYLE
  5
3
330
0
100
AcDbSymbolTable
 70
     2
  0
STYLE
  5
11
330
3
100
AcDbSymbolTableRecord
100
AcDbTextStyleTableRecord
  2
STANDARD
 70
     0
 40
3.5
 41
0.8
 50
0.0
 71
     0
 42
3.5
  3
monos.ttf
  4

1001
ACAD
1000
Monospac821 BT
1071
       49
  0
STYLE
  5
1686F
330
3
100
AcDbSymbolTableRecord
100
AcDbTextStyleTableRecord
  2
BMG_Text
 70
     0
 40
3.5
 41
1.0
 50
0.0
 71
     0
 42
0.2
  3
monos.ttf
  4

1001
ACAD
1000
Monospac821 BT
1071
       49
  0
ENDTAB
  0
TABLE
  2
VIEW
  5
6
330
0
100
AcDbSymbolTable
 70
     0
  0
ENDTAB
  0
TABLE
  2
UCS
  5
7
330
0
100
AcDbSymbolTable
 70
     0
  0
ENDTAB
  0
TABLE
  2
APPID
  5
9
330
0
100
AcDbSymbolTable
 70
    14
  0
APPID
  5
23B
330
9
100
AcDbSymbolTableRecord
100
AcDbRegAppTableRecord
  2
ACAD
 70
     0
  0
APPID
  5
3395
330
9
100
AcDbSymbolTableRecord
100
AcDbRegAppTableRecord
  2
ACAD_EXEMPT_FROM_CAD_STANDARDS
 70
     0
  0
APPID
  5
4229
330
9
100
AcDbSymbolTableRecord
100
AcDbRegAppTableRecord
  2
AcAecLayerStandard
 70
     0
  0
APPID
  5
9A1B
330
9
100
AcDbSymbolTableRecord
100
AcDbRegAppTableRecord
  2
ACAD_PSEXT
 70
     0
  0
APPID
  5
1B313
330
9
100
AcDbSymbolTableRecord
100
AcDbRegAppTableRecord
  2
ACAD_NAV_VCDISPLAY
 70
     0
  0
APPID
  5
1B355
330
9
100
AcDbSymbolTableRecord
100
AcDbRegAppTableRecord
  2
ACAD_MLEADERVER
 70
     0
  0
APPID
  5
1EC7F
330
9
100
AcDbSymbolTableRecord
100
AcDbRegAppTableRecord
  2
ACAUTHENVIRON
 70
     0
  0
APPID
  5
1EC82
330
9
100
AcDbSymbolTableRecord
100
AcDbRegAppTableRecord
  2
AcDbDynamicBlockTrueName
 70
     0
  0
APPID
  5
1EC83
330
9
100
AcDbSymbolTableRecord
100
AcDbRegAppTableRecord
  2
AcDbDynamicBlockGUID
 70
     0
  0
APPID
  5
20A85
330
9
100
AcDbSymbolTableRecord
100
AcDbRegAppTableRecord
  2
AcCmTransparency
 70
     0
  0
APPID
  5
20AE2
330
9
100
AcDbSymbolTableRecord
100
AcDbRegAppTableRecord
  2
ACAD_DSTYLE_DIMRADIAL_EXTENSION
 70
     0
  0
APPID
  5
20CB0
330
9
100
AcDbSymbolTableRecord
100
AcDbRegAppTableRecord
  2
AcadAnnotative
 70
     0
  0
APPID
  5
20F55
330
9
100
AcDbSymbolTableRecord
100
AcDbRegAppTableRecord
  2
AcadAnnoMonitorAlertIconDisabled
 70
     0
  0
APPID
  5
2104B
330
9
100
AcDbSymbolTableRecord
100
AcDbRegAppTableRecord
  2
ACAD_DSTYLE_DIMFLIPARROW_WHICH_SYMBOL
 70
     0
  0
ENDTAB
  0
TABLE
  2
DIMSTYLE
  5
A
330
0
100
AcDbSymbolTable
 70
     1
100
AcDbDimStyleTable
 71
     1
340
243
  0
DIMSTYLE
105
243
102
{ACAD_REACTORS
330
2236B
330
2236C
330
2236D
330
230BB
102
}
330
A
100
AcDbSymbolTableRecord
100
AcDbDimStyleTableRecord
  2
STANDARD
 70
     0
 41
4.57
 47
0.01
 48
0.01
 73
     0
 74
     0
 77
     1
 78
     8
140
3.5
271
     3
272
     3
284
     8
289
     0
340
11
  0
ENDTAB
  0
TABLE
  2
BLOCK_RECORD
  5
1
330
0
100
AcDbSymbolTable
 70
     6
  0
BLOCK_RECORD
  5
1F
102
{ACAD_XDICTIONARY
360
339C
102
}
330
1
100
AcDbSymbolTableRecord
100
AcDbBlockTableRecord
  2
*MODEL_SPACE
340
31A6
  0
BLOCK_RECORD
  5
1B
330
1
100
AcDbSymbolTableRecord
100
AcDbBlockTableRecord
  2
*PAPER_SPACE
340
31A7
  0
BLOCK_RECORD
  5
1B3D7
102
{ACAD_XDICTIONARY
360
1DE81
102
}
330
1
100
AcDbSymbolTableRecord
100
AcDbBlockTableRecord
  2
cero_point
340
0
310
28000000200000002000000001002000000000000010000001000000010000000000000000000000302821FF302821FF302821FF302821FF302821FF302821FF302821FF302821FF302821FF302821FF302821FF302821FF302821FF302821FF302821FF302821FF302821FF302821FF302821FF302821FF302821FF302821
310
FF302821FF302821FF302821FF302821FF302821FF302821FF302821FF302821FF302821FF302821FF302821FF302821FF302821FF302821FF302821FF302821FF302821FF302821FF302821FF302821FF302821FF302821FF302821FF302821FF302821FFFFFF00FFFFFF00FFFFFF00FF302821FF302821FF302821FF3028
310
21FF302821FF302821FF302821FF302821FF302821FF302821FF302821FF302821FF302821FF302821FF302821FF302821FF302821FF302821FF302821FF302821FF302821FF302821FF302821FF302821FFFFFF00FFFFFF00FFFFFF00FFFFFF00FFFFFF00FFFFFF00FFFFFF00FF302821FFFFFF00FFFFFF00FFFFFF00FF30
310
2821FF302821FF302821FF302821FF302821FF302821FF302821FF302821FF302821FF302821FF302821FF302821FF302821FF302821FF302821FF302821FF302821FF302821FF302821FFFFFF00FFFFFF00FFFFFF00FFFFFF00FFFFFF00FFFFFF00FFFFFF00FFFFFF00FFFFFF00FF302821FF302821FF302821FF302821FF
310
FFFF00FFFFFF00FF302821FF302821FF302821FF302821FF302821FF302821FF302821FF302821FF302821FF302821FF302821FF302821FF302821FF302821FF302821FF302821FFFFFF00FFFFFF00FFFFFF00FFFFFF00FFFFFF00FFFFFF00FFFFFF00FFFFFF00FFFFFF00FFFFFF00FF302821FF302821FF302821FF302821
310
FF302821FF302821FFFFFF00FFFFFF00FF302821FF302821FF302821FF302821FF302821FF302821FF302821FF302821FF302821FF302821FF302821FF302821FF302821FFFFFF00FFFFFF00FFFFFF00FFFFFF00FFFFFF00FFFFFF00FFFFFF00FFFFFF00FFFFFF00FFFFFF00FFFFFF00FF302821FF302821FF302821FF3028
310
21FF302821FF302821FF302821FF302821FFFFFF00FF302821FF302821FF302821FF302821FF302821FF302821FF302821FF302821FF302821FF302821FF302821FFFFFF00FFFFFF00FFFFFF00FFFFFF00FFFFFF00FFFFFF00FFFFFF00FFFFFF00FFFFFF00FFFFFF00FFFFFF00FFFFFF00FF302821FF302821FF302821FF30
310
2821FF302821FF302821FF302821FF302821FF302821FFFFFF00FF302821FF302821FF302821FF302821FF302821FF302821FF302821FF302821FF302821FFFFFF00FFFFFF00FFFFFF00FFFFFF00FFFFFF00FFFFFF00FFFFFF00FFFFFF00FFFFFF00FFFFFF00FFFFFF00FFFFFF00FFFFFF00FF302821FF302821FF302821FF
310
302821FF302821FF302821FF302821FF302821FF302821FF302821FFFFFF00FF302821FF302821FF302821FF302821FF302821FF302821FF302821FFFFFF00FFFFFF00FFFFFF00FFFFFF00FFFFFF00FFFFFF00FFFFFF00FFFFFF00FFFFFF00FFFFFF00FFFFFF00FFFFFF00FFFFFF00FFFFFF00FF302821FF302821FF302821
310
FF302821FF302821FF302821FF302821FF302821FF302821FF302821FFFFFF00FF302821FF302821FF302821FF302821FF302821FF302821FF302821FFFFFF00FFFFFF00FFFFFF00FFFFFF00FFFFFF00FFFFFF00FFFFFF00FFFFFF00FFFFFF00FFFFFF00FFFFFF00FFFFFF00FFFFFF00FFFFFF00FF302821FF302821FF3028
310
21FF302821FF302821FF302821FF302821FF302821FF302821FF302821FF302821FFFFFF00FF302821FF302821FF302821FF302821FF302821FFFFFF00FFFFFF00FFFFFF00FFFFFF00FFFFFF00FFFFFF00FFFFFF00FFFFFF00FFFFFF00FFFFFF00FFFFFF00FFFFFF00FFFFFF00FFFFFF00FFFFFF00FF302821FF302821FF30
310
2821FF302821FF302821FF302821FF302821FF302821FF302821FF302821FF302821FF302821FFFFFF00FF302821FF302821FF302821FF302821FFFFFF00FFFFFF00FFFFFF00FFFFFF00FFFFFF00FFFFFF00FFFFFF00FFFFFF00FFFFFF00FFFFFF00FFFFFF00FFFFFF00FFFFFF00FFFFFF00FFFFFF00FF302821FF302821FF
310
302821FF302821FF302821FF302821FF302821FF302821FF302821FF302821FF302821FF302821FFFFFF00FF302821FF302821FF302821FF302821FFFFFF00FFFFFF00FFFFFF00FFFFFF00FFFFFF00FFFFFF00FFFFFF00FFFFFF00FFFFFF00FFFFFF00FFFFFF00FFFFFF00FFFFFF00FFFFFF00FFFFFF00FF302821FF302821
310
FF302821FF302821FF302821FF302821FF302821FF302821FF302821FF302821FF302821FF302821FFFFFF00FF302821FF302821FF302821FF302821FFFFFF00FFFFFF00FFFFFF00FFFFFF00FFFFFF00FFFFFF00FFFFFF00FFFFFF00FFFFFF00FFFFFF00FFFFFF00FFFFFF00FFFFFF00FFFFFF00FFFFFF00FF302821FF3028
310
21FF302821FF302821FF302821FF302821FF302821FF302821FF302821FF302821FF302821FF302821FFFFFF00FF302821FF302821FF302821FFFFFF00FFFFFF00FFFFFF00FFFFFF00FFFFFF00FFFFFF00FFFFFF00FFFFFF00FFFFFF00FFFFFF00FFFFFF00FFFFFF00FFFFFF00FFFFFF00FFFFFF00FFFFFF00FF302821FF30
310
2821FF302821FF302821FF302821FF302821FF302821FF302821FF302821FF302821FF302821FF302821FF302821FFFFFF00FF302821FF302821FFFFFF00FFFFFF00FFFFFF00FFFFFF00FFFFFF00FFFFFF00FFFFFF00FFFFFF00FFFFFF00FFFFFF00FFFFFF00FFFFFF00FFFFFF00FFFFFF00FFFFFF00FFFFFF00FFFFFF00FF
310
FFFF00FFFFFF00FFFFFF00FFFFFF00FFFFFF00FFFFFF00FFFFFF00FFFFFF00FFFFFF00FFFFFF00FFFFFF00FFFFFF00FFFFFF00FF302821FF302821FFFFFF00FF302821FF302821FF302821FF302821FF302821FF302821FF302821FF302821FF302821FF302821FF302821FF302821FF302821FF302821FFFFFF00FFFFFF00
310
FFFFFF00FFFFFF00FFFFFF00FFFFFF00FFFFFF00FFFFFF00FFFFFF00FFFFFF00FFFFFF00FFFFFF00FFFFFF00FFFFFF00FFFFFF00FF302821FF302821FFFFFF00FF302821FF302821FF302821FF302821FF302821FF302821FF302821FF302821FF302821FF302821FF302821FF302821FF302821FF302821FFFFFF00FFFFFF
310
00FFFFFF00FFFFFF00FFFFFF00FFFFFF00FFFFFF00FFFFFF00FFFFFF00FFFFFF00FFFFFF00FFFFFF00FFFFFF00FFFFFF00FF302821FF302821FF302821FF302821FFFFFF00FF302821FF302821FF302821FF302821FF302821FF302821FF302821FF302821FF302821FF302821FF302821FF302821FF302821FFFFFF00FFFF
310
FF00FFFFFF00FFFFFF00FFFFFF00FFFFFF00FFFFFF00FFFFFF00FFFFFF00FFFFFF00FFFFFF00FFFFFF00FFFFFF00FFFFFF00FF302821FF302821FF302821FF302821FFFFFF00FF302821FF302821FF302821FF302821FF302821FF302821FF302821FF302821FF302821FF302821FF302821FF302821FF302821FFFFFF00FF
310
FFFF00FFFFFF00FFFFFF00FFFFFF00FFFFFF00FFFFFF00FFFFFF00FFFFFF00FFFFFF00FFFFFF00FFFFFF00FFFFFF00FFFFFF00FF302821FF302821FF302821FF302821FFFFFF00FF302821FF302821FF302821FF302821FF302821FF302821FF302821FF302821FF302821FF302821FF302821FF302821FF302821FFFFFF00
310
FFFFFF00FFFFFF00FFFFFF00FFFFFF00FFFFFF00FFFFFF00FFFFFF00FFFFFF00FFFFFF00FFFFFF00FFFFFF00FFFFFF00FFFFFF00FF302821FF302821FF302821FF302821FF302821FFFFFF00FF302821FF302821FF302821FF302821FF302821FF302821FF302821FF302821FF302821FF302821FF302821FF302821FFFFFF
310
00FFFFFF00FFFFFF00FFFFFF00FFFFFF00FFFFFF00FFFFFF00FFFFFF00FFFFFF00FFFFFF00FFFFFF00FFFFFF00FFFFFF00FFFFFF00FF302821FF302821FF302821FF302821FF302821FFFFFF00FF302821FF302821FF302821FF302821FF302821FF302821FF302821FF302821FF302821FF302821FF302821FF302821FFFF
310
FF00FFFFFF00FFFFFF00FFFFFF00FFFFFF00FFFFFF00FFFFFF00FFFFFF00FFFFFF00FFFFFF00FFFFFF00FFFFFF00FFFFFF00FF302821FF302821FF302821FF302821FF302821FF302821FF302821FFFFFF00FF302821FF302821FF302821FF302821FF302821FF302821FF302821FF302821FF302821FF302821FF302821FF
310
FFFF00FFFFFF00FFFFFF00FFFFFF00FFFFFF00FFFFFF00FFFFFF00FFFFFF00FFFFFF00FFFFFF00FFFFFF00FFFFFF00FFFFFF00FF302821FF302821FF302821FF302821FF302821FF302821FF302821FFFFFF00FF302821FF302821FF302821FF302821FF302821FF302821FF302821FF302821FF302821FF302821FF302821
310
FFFFFF00FFFFFF00FFFFFF00FFFFFF00FFFFFF00FFFFFF00FFFFFF00FFFFFF00FFFFFF00FFFFFF00FFFFFF00FFFFFF00FF302821FF302821FF302821FF302821FF302821FF302821FF302821FF302821FF302821FFFFFF00FF302821FF302821FF302821FF302821FF302821FF302821FF302821FF302821FF302821FF3028
310
21FFFFFF00FFFFFF00FFFFFF00FFFFFF00FFFFFF00FFFFFF00FFFFFF00FFFFFF00FFFFFF00FFFFFF00FFFFFF00FF302821FF302821FF302821FF302821FF302821FF302821FF302821FF302821FF302821FF302821FF302821FFFFFF00FF302821FF302821FF302821FF302821FF302821FF302821FF302821FF302821FF30
310
2821FFFFFF00FFFFFF00FFFFFF00FFFFFF00FFFFFF00FFFFFF00FFFFFF00FFFFFF00FFFFFF00FFFFFF00FF302821FF302821FF302821FF302821FF302821FF302821FF302821FF302821FF302821FF302821FF302821FF302821FF302821FFFFFF00FF302821FF302821FF302821FF302821FF302821FF302821FF302821FF
310
302821FFFFFF00FFFFFF00FFFFFF00FFFFFF00FFFFFF00FFFFFF00FFFFFF00FFFFFF00FFFFFF00FF302821FF302821FF302821FF302821FF302821FF302821FF302821FF302821FF302821FF302821FF302821FF302821FF302821FF302821FF302821FFFFFF00FFFFFF00FF302821FF302821FF302821FF302821FF302821
310
FF302821FFFFFF00FFFFFF00FFFFFF00FFFFFF00FFFFFF00FFFFFF00FFFFFF00FFFFFF00FF302821FF302821FF302821FF302821FF302821FF302821FF302821FF302821FF302821FF302821FF302821FF302821FF302821FF302821FF302821FF302821FF302821FF302821FFFFFF00FFFFFF00FFFFFF00FFFFFF00FFFFFF
310
00FF302821FFFFFF00FFFFFF00FFFFFF00FFFFFF00FFFFFF00FFFFFF00FF302821FF302821FF302821FF302821FF302821FF302821FF302821FF302821FF302821FF302821FF302821FF302821FF302821FF302821FF302821FF302821FF302821FF302821FF302821FF302821FF302821FF302821FF302821FF302821FF30
310
2821FFFFFF00FFFFFF00FFFFFF00FF302821FF302821FF302821FF302821FF302821FF302821FF302821FF302821FF302821FF302821FF302821FF302821FF302821FF302821FF302821FF302821FF302821FF302821FF302821FF302821FF302821FF302821FF302821FF302821FF302821FF302821FF302821FF302821FF
310
302821FF302821FF302821FF302821FF302821FF302821FF302821FF302821FF302821FF302821FF302821FF302821FF302821FF302821FF302821FF302821FF302821FF302821FF
102
{BLKREFS
331
20A18
102
}
  0
BLOCK_RECORD
  5
20CA5
102
{ACAD_XDICTIONARY
360
20CA6
102
}
330
1
100
AcDbSymbolTableRecord
100
AcDbBlockTableRecord
  2
Name
340
0
310
28000000200000002000000001002000000000000010000001000000010000000000000000000000302821FF302821FF302821FF302821FF302821FF302821FF302821FF302821FF302821FF302821FF302821FF302821FF302821FF302821FF302821FF302821FF302821FF302821FF302821FF302821FF302821FF302821
310
FF302821FF302821FF302821FF302821FF302821FF302821FF302821FF302821FF302821FF302821FF302821FF302821FF302821FF302821FF302821FF302821FF302821FF302821FF302821FF302821FF302821FF302821FF302821FF302821FF302821FF302821FF302821FF302821FF302821FF302821FF302821FF3028
310
21FF302821FF302821FF302821FF302821FF302821FF302821FF302821FF302821FF302821FF302821FF302821FF302821FF302821FF302821FF302821FF302821FF302821FF302821FF302821FF302821FF302821FF302821FF302821FF302821FF302821FF302821FF302821FF302821FF302821FF302821FF302821FF30
310
2821FF302821FF302821FF302821FF302821FF302821FF302821FF302821FF302821FF302821FF302821FF302821FF302821FF302821FF302821FF302821FF302821FF302821FF302821FF302821FF302821FF302821FF302821FF302821FF302821FF302821FF302821FF302821FF302821FF302821FF302821FF302821FF
310
302821FF302821FF302821FF302821FF302821FF302821FF302821FF302821FF302821FF302821FF302821FF302821FF302821FF302821FF302821FF302821FF302821FF302821FF302821FF302821FF302821FF302821FF302821FF302821FF302821FF302821FF302821FF302821FF302821FF302821FF302821FF302821
310
FF302821FF302821FF302821FF302821FF302821FF302821FF302821FF302821FF302821FF302821FF302821FF302821FF302821FF302821FF302821FF302821FF302821FF302821FF302821FF302821FF302821FF302821FF302821FF302821FF302821FF302821FF302821FF302821FF302821FF302821FF302821FF3028
310
21FF302821FF302821FF302821FF302821FF302821FF302821FF302821FF302821FF302821FF302821FF302821FF302821FF302821FF302821FF302821FF302821FF302821FF302821FF302821FF302821FF302821FF302821FF302821FF302821FF302821FF302821FF302821FF302821FF302821FF302821FF302821FF30
310
2821FF302821FF302821FF302821FF302821FF302821FF302821FF302821FF302821FF302821FF302821FF302821FF302821FF302821FF302821FF302821FF302821FF302821FF302821FF302821FF302821FF302821FF302821FF302821FF302821FF302821FF302821FF302821FF302821FF302821FF302821FF302821FF
310
302821FF302821FF302821FF302821FF302821FF302821FF302821FF302821FF302821FF302821FF302821FF302821FF302821FF302821FF302821FF302821FF302821FF302821FF302821FF302821FF302821FF302821FF302821FF302821FF302821FF302821FF302821FF302821FF302821FF302821FF302821FF302821
310
FF302821FF302821FF302821FF302821FF302821FF302821FF302821FF302821FF302821FF302821FF302821FF302821FF302821FF302821FF302821FF302821FF302821FF302821FF302821FF302821FF302821FF302821FF302821FF302821FF302821FF302821FF302821FF302821FF302821FF302821FF302821FF3028
310
21FF302821FF302821FF302821FF302821FF302821FF302821FF302821FF302821FF302821FF302821FF302821FF302821FF302821FF302821FFFF0000FFFF0000FF302821FF302821FFFF0000FFFF0000FFFF0000FFFF0000FFFF0000FF302821FF302821FF302821FF302821FFFF0000FFFF0000FFFF0000FFFF0000FFFF
310
0000FFFF0000FFFF0000FFFF0000FF302821FFFF0000FFFF0000FFFF0000FFFF0000FFFF0000FFFF0000FF302821FF302821FF302821FF302821FFFF0000FFFF0000FF302821FF302821FFFF0000FFFF0000FFFF0000FFFF0000FFFF0000FF302821FF302821FF302821FF302821FFFF0000FFFF0000FFFF0000FFFF0000FF
310
FF0000FFFF0000FFFF0000FFFF0000FF302821FFFF0000FFFF0000FFFF0000FFFF0000FFFF0000FFFF0000FF302821FF302821FF302821FF302821FFFF0000FFFF0000FF302821FFFF0000FFFF0000FFFF0000FFFF0000FFFF0000FFFF0000FF302821FF302821FF302821FFFF0000FFFF0000FFFF0000FFFF0000FFFF0000
310
FFFF0000FFFF0000FFFF0000FFFF0000FF302821FFFF0000FFFF0000FFFF0000FFFF0000FFFF0000FFFF0000FF302821FF302821FF302821FF302821FFFF0000FFFF0000FF302821FFFF0000FFFF0000FFFF0000FFFF0000FFFF0000FFFF0000FFFF0000FFFF0000FFFF0000FFFF0000FFFF0000FFFF0000FFFF0000FFFF00
310
00FFFF0000FFFF0000FFFF0000FFFF0000FF302821FFFF0000FFFF0000FF302821FF302821FF302821FF302821FF302821FF302821FF302821FF302821FFFF0000FFFF0000FF302821FFFF0000FFFF0000FFFF0000FFFF0000FFFF0000FFFF0000FFFF0000FFFF0000FFFF0000FFFF0000FFFF0000FFFF0000FFFF0000FFFF
310
0000FFFF0000FFFF0000FFFF0000FFFF0000FF302821FFFF0000FFFF0000FF302821FF302821FF302821FF302821FF302821FF302821FF302821FF302821FFFF0000FFFF0000FFFF0000FFFF0000FFFF0000FFFF0000FFFF0000FFFF0000FFFF0000FFFF0000FFFF0000FFFF0000FFFF0000FF302821FFFF0000FFFF0000FF
310
FF0000FF302821FFFF0000FFFF0000FFFF0000FF302821FFFF0000FFFF0000FFFF0000FFFF0000FFFF0000FF302821FF302821FF302821FF302821FF302821FFFF0000FFFF0000FFFF0000FFFF0000FFFF0000FFFF0000FFFF0000FF302821FFFF0000FFFF0000FF302821FFFF0000FFFF0000FF302821FFFF0000FFFF0000
310
FFFF0000FF302821FFFF0000FFFF0000FFFF0000FF302821FFFF0000FFFF0000FFFF0000FFFF0000FFFF0000FF302821FF302821FF302821FF302821FF302821FFFF0000FFFF0000FFFF0000FFFF0000FF302821FFFF0000FFFF0000FF302821FFFF0000FFFF0000FFFF0000FFFF0000FFFF0000FF302821FFFF0000FFFF00
310
00FFFF0000FF302821FFFF0000FFFF0000FFFF0000FF302821FFFF0000FFFF0000FFFF0000FFFF0000FFFF0000FF302821FF302821FF302821FF302821FF302821FFFF0000FFFF0000FFFF0000FFFF0000FF302821FFFF0000FFFF0000FF302821FFFF0000FFFF0000FFFF0000FFFF0000FFFF0000FF302821FFFF0000FFFF
310
0000FFFF0000FF302821FF302821FFFF0000FFFF0000FF302821FFFF0000FFFF0000FF302821FF302821FF302821FF302821FF302821FF302821FF302821FF302821FFFF0000FFFF0000FFFF0000FF302821FF302821FFFF0000FFFF0000FF302821FF302821FFFF0000FFFF0000FFFF0000FF302821FF302821FFFF0000FF
310
FF0000FF302821FF302821FF302821FFFF0000FFFF0000FF302821FFFF0000FFFF0000FFFF0000FFFF0000FFFF0000FF302821FF302821FF302821FF302821FF302821FFFF0000FFFF0000FFFF0000FF302821FF302821FFFF0000FFFF0000FF302821FF302821FFFF0000FFFF0000FFFF0000FF302821FF302821FFFF0000
310
FFFF0000FF302821FF302821FF302821FFFF0000FFFF0000FF302821FFFF0000FFFF0000FFFF0000FFFF0000FFFF0000FF302821FF302821FF302821FF302821FF302821FF302821FF302821FF302821FF302821FF302821FF302821FF302821FF302821FF302821FF302821FF302821FF302821FF302821FF302821FF3028
310
21FF302821FF302821FF302821FF302821FF302821FF302821FF302821FF302821FF302821FF302821FF302821FF302821FF302821FF302821FF302821FF302821FF302821FF302821FF302821FF302821FF302821FF302821FF302821FF302821FF302821FF302821FF302821FF302821FF302821FF302821FF302821FF30
310
2821FF302821FF302821FF302821FF302821FF302821FF302821FF302821FF302821FF302821FF302821FF302821FF302821FF302821FF302821FF302821FF302821FF302821FF302821FF302821FF302821FF302821FF302821FF302821FF302821FF302821FF302821FF302821FF302821FF302821FF302821FF302821FF
310
302821FF302821FF302821FF302821FF302821FF302821FF302821FF302821FF302821FF302821FF302821FF302821FF302821FF302821FF302821FF302821FF302821FF302821FF302821FF302821FF302821FF302821FF302821FF302821FF302821FF302821FF302821FF302821FF302821FF302821FF302821FF302821
310
FF302821FF302821FF302821FF302821FF302821FF302821FF302821FF302821FF302821FF302821FF302821FF302821FF302821FF302821FF302821FF302821FF302821FF302821FF302821FF302821FF302821FF302821FF302821FF302821FF302821FF302821FF302821FF302821FF302821FF302821FF302821FF3028
310
21FF302821FF302821FF302821FF302821FF302821FF302821FF302821FF302821FF302821FF302821FF302821FF302821FF302821FF302821FF302821FF302821FF302821FF302821FF302821FF302821FF302821FF302821FF302821FF302821FF302821FF302821FF302821FF302821FF302821FF302821FF302821FF30
310
2821FF302821FF302821FF302821FF302821FF302821FF302821FF302821FF302821FF302821FF302821FF302821FF302821FF302821FF302821FF302821FF302821FF302821FF302821FF302821FF302821FF302821FF302821FF302821FF302821FF302821FF302821FF302821FF302821FF302821FF302821FF302821FF
310
302821FF302821FF302821FF302821FF302821FF302821FF302821FF302821FF302821FF302821FF302821FF302821FF302821FF302821FF302821FF302821FF302821FF302821FF302821FF302821FF302821FF302821FF302821FF302821FF302821FF302821FF302821FF302821FF302821FF302821FF302821FF302821
310
FF302821FF302821FF302821FF302821FF302821FF302821FF302821FF302821FF302821FF302821FF302821FF302821FF302821FF302821FF302821FF302821FF302821FF302821FF302821FF302821FF302821FF302821FF302821FF302821FF302821FF302821FF302821FF302821FF302821FF302821FF302821FF3028
310
21FF302821FF302821FF302821FF302821FF302821FF302821FF302821FF302821FF302821FF302821FF302821FF302821FF302821FF302821FF302821FF302821FF302821FF302821FF302821FF302821FF302821FF302821FF302821FF302821FF302821FF302821FF302821FF302821FF302821FF302821FF302821FF30
310
2821FF302821FF302821FF302821FF302821FF302821FF302821FF302821FF302821FF302821FF302821FF302821FF302821FF302821FF302821FF302821FF302821FF302821FF302821FF302821FF302821FF302821FF302821FF302821FF302821FF302821FF302821FF302821FF302821FF302821FF302821FF302821FF
310
302821FF302821FF302821FF302821FF302821FF302821FF302821FF302821FF302821FF302821FF302821FF302821FF302821FF302821FF302821FF302821FF302821FF302821FF
102
{BLKREFS
331
20DD9
102
}
1001
AcDbDynamicBlockGUID
1000
{15A9DAFA-FD13-4556-B9B1-5A71F15CF06E}
  0
BLOCK_RECORD
  5
223CC
330
1
100
AcDbSymbolTableRecord
100
AcDbBlockTableRecord
  2
*D2
340
0
  0
BLOCK_RECORD
  5
223D9
330
1
100
AcDbSymbolTableRecord
100
AcDbBlockTableRecord
  2
*D3
340
0
  0
BLOCK_RECORD
  5
223E5
330
1
100
AcDbSymbolTableRecord
100
AcDbBlockTableRecord
  2
*D4
340
0
  0
BLOCK_RECORD
  5
2318F
330
1
100
AcDbSymbolTableRecord
100
AcDbBlockTableRecord
  2
*D5
340
0
  0
ENDTAB
  0
ENDSEC
  0
SECTION
  2
BLOCKS
  0
BLOCK
  5
20
330
1F
100
AcDbEntity
  8
0
100
AcDbBlockBegin
  2
*MODEL_SPACE
 70
     0
 10
0.0
 20
0.0
 30
0.0
  3
*MODEL_SPACE
  1

  0
ENDBLK
  5
21
330
1F
100
AcDbEntity
  8
0
100
AcDbBlockEnd
  0
BLOCK
  5
1C
330
1B
100
AcDbEntity
 67
     1
  8
0
100
AcDbBlockBegin
  2
*PAPER_SPACE
 70
     0
 10
0.0
 20
0.0
 30
0.0
  3
*PAPER_SPACE
  1

  0
ENDBLK
  5
1D
330
1B
100
AcDbEntity
 67
     1
  8
0
100
AcDbBlockEnd
  0
BLOCK
  5
1B3D8
330
1B3D7
100
AcDbEntity
  8
0
100
AcDbBlockBegin
  2
cero_point
 70
     0
 10
0.0
 20
0.0
 30
0.0
  3
cero_point
  1

  0
HATCH
  5
1B3DA
330
1B3D7
100
AcDbEntity
  8
1
  6
ByBlock
370
    50
100
AcDbHatch
 10
0.0
 20
0.0
 30
0.0
210
0.0
220
0.0
230
1.0
  2
SOLID
 70
     1
 71
     0
 91
        2
 92
        7
 72
     1
 73
     1
 93
        3
 10
-0.0000000000001137
 20
0.0
 42
0.0
 10
-2.950972054112752
 20
0.0
 42
0.4142135623730968
 10
-0.0000000000001137
 20
-2.950972054112583
 42
0.0
 97
        0
 92
        7
 72
     1
 73
     1
 93
        3
 10
-0.0000000000001137
 20
2.950972054112638
 42
0.0
 10
-0.0000000000001137
 20
0.0
 42
0.0
 10
2.950972054112526
 20
0.0
 42
0.4142135623730966
 97
        0
 75
     0
 76
     1
 47
0.1190009775223266
 98
        2
 10
-0.7445530588121301
 20
-0.9212244733764125
 10
1.279464601852737
 20
1.696796923046345
  0
LWPOLYLINE
  5
1B3DB
330
1B3D7
100
AcDbEntity
  8
1
  6
ByBlock
370
    50
100
AcDbPolyline
 90
        3
 70
     1
 43
0.0
 10
-0.0000000000001137
 20
0.0
 10
2.950972054112526
 20
0.0
 42
0.4142135623730966
 10
-0.0000000000001137
 20
2.950972054112638
  0
LINE
  5
1B3DC
330
1B3D7
100
AcDbEntity
  8
1
  6
ByBlock
370
    50
100
AcDbLine
 10
-0.0000000000001137
 20
-2.950972054112583
 30
0.0
 11
-0.0000000000001137
 21
2.950972054112638
 31
0.0
  0
LWPOLYLINE
  5
1B3DD
330
1B3D7
100
AcDbEntity
  8
1
  6
ByBlock
370
    50
100
AcDbPolyline
 90
        3
 70
     1
 43
0.0
 10
-0.0000000000001137
 20
-2.950972054112583
 10
-0.0000000000001137
 20
0.0
 10
-2.950972054112752
 20
0.0
 42
0.4142135623730966
  0
LINE
  5
1B3DE
330
1B3D7
100
AcDbEntity
  8
1
  6
ByBlock
370
    50
100
AcDbLine
 10
2.950972054112638
 20
0.0
 30
0.0
 11
-2.950972054112638
 21
0.0
 31
0.0
  0
CIRCLE
  5
1B3DF
330
1B3D7
100
AcDbEntity
  8
1
  6
ByBlock
370
    50
100
AcDbCircle
 10
-0.0000000000001137
 20
0.0
 30
0.0
 40
2.950972054112601
  0
ENDBLK
  5
1B3D9
330
1B3D7
100
AcDbEntity
  8
0
100
AcDbBlockEnd
  0
BLOCK
  5
20CA7
330
20CA5
100
AcDbEntity
  8
0
100
AcDbBlockBegin
  2
Name
 70
     2
 10
0.0
 20
0.0
 30
0.0
  3
Name
  1

  0
ATTDEF
  5
20CA8
102
{ACAD_XDICTIONARY
360
20CA9
102
}
330
20CA5
100
AcDbEntity
  8
SKVIEW63
100
AcDbText
 10
0.0905073844082551
 20
0.0474757964751689
 30
0.0
 40
3.5
  1
PNCU0805GNTR
 41
0.8
  7
BMG_Text
100
AcDbAttributeDefinition
  3
identisch mit Dateiname
  2
NAME
 70
     4
  0
ENDBLK
  5
20CAD
330
20CA5
100
AcDbEntity
  8
0
100
AcDbBlockEnd
  0
BLOCK
  5
223CD
330
223CC
100
AcDbEntity
  8
0
100
AcDbBlockBegin
  2
*D2
 70
     1
 10
0.0
 20
0.0
 30
0.0
  3
*D2
  1

  0
LINE
  5
225A3
330
223CC
100
AcDbEntity
  8
2
 62
     0
370
    -2
100
AcDbLine
 10
2.259999999999834
 20
-0.5624999999999904
 30
0.0
 11
2.259999999999831
 21
-29.52095422459193
 31
0.0
  0
LINE
  5
225A4
330
223CC
100
AcDbEntity
  8
2
 62
     0
370
    -2
100
AcDbLine
 10
-2.260000000000173
 20
-0.5624999999999904
 30
0.0
 11
-2.260000000000173
 21
-29.52095422459193
 31
0.0
  0
LINE
  5
225A5
330
223CC
100
AcDbEntity
  8
2
 62
     0
370
    -2
100
AcDbLine
 10
-6.830000000000177
 20
-29.34095422459193
 30
0.0
 11
-11.40000000000018
 21
-29.34095422459193
 31
0.0
  0
LINE
  5
225A6
330
223CC
100
AcDbEntity
  8
2
 62
     0
370
    -2
100
AcDbLine
 10
6.829999999999832
 20
-29.34095422459193
 30
0.0
 11
22.12181307097664
 21
-29.34095422459193
 31
0.0
  0
LINE
  5
225A7
330
223CC
100
AcDbEntity
  8
2
 62
     0
370
    -2
100
AcDbLine
 10
-2.260000000000173
 20
-29.34095422459193
 30
0.0
 11
2.259999999999831
 21
-29.34095422459193
 31
0.0
  0
SOLID
  5
225A8
330
223CC
100
AcDbEntity
  8
2
 62
     0
100
AcDbTrace
 10
-6.830000000000177
 20
-28.57928755792526
 30
0.0
 11
-6.830000000000177
 21
-30.1026208912586
 31
0.0
 12
-2.260000000000173
 22
-29.34095422459193
 32
0.0
 13
-2.260000000000173
 23
-29.34095422459193
 33
0.0
  0
SOLID
  5
225A9
330
223CC
100
AcDbEntity
  8
2
 62
     0
100
AcDbTrace
 10
6.829999999999832
 20
-28.57928755792526
 30
0.0
 11
6.829999999999832
 21
-30.1026208912586
 31
0.0
 12
2.259999999999831
 22
-29.34095422459193
 32
0.0
 13
2.259999999999831
 23
-29.34095422459193
 33
0.0
  0
MTEXT
  5
225AA
330
223CC
100
AcDbEntity
  8
2
 62
     0
100
AcDbMText
 10
17.36449051300053
 20
-27.3878129737135
 30
0.0
 40
3.5
 41
0.0
 71
     5
 72
     1
  1
\A1;%%c4.5
 73
     1
 44
1.0
1001
ACAD
1000
MTEXTBEGIN
1070
    73
1070
     1
1070
    44
1040
1.0
1070
    74
1070
     0
1000
MTEXTEND
  0
POINT
  5
225AB
330
223CC
100
AcDbEntity
  8
Defpoints
 62
     0
100
AcDbPoint
 10
2.259999999999834
 20
-0.4999999999999904
 30
0.0
  0
POINT
  5
225AC
330
223CC
100
AcDbEntity
  8
Defpoints
 62
     0
100
AcDbPoint
 10
-2.260000000000173
 20
-0.4999999999999904
 30
0.0
  0
POINT
  5
225AD
330
223CC
100
AcDbEntity
  8
Defpoints
 62
     0
100
AcDbPoint
 10
-2.260000000000173
 20
-29.34095422459193
 30
0.0
  0
ENDBLK
  5
223CE
330
223CC
100
AcDbEntity
  8
0
100
AcDbBlockEnd
  0
BLOCK
  5
223DA
330
223D9
100
AcDbEntity
  8
0
100
AcDbBlockBegin
  2
*D3
 70
     1
 10
0.0
 20
0.0
 30
0.0
  3
*D3
  1

  0
LINE
  5
225AE
330
223D9
100
AcDbEntity
  8
2
 62
     0
370
    -2
100
AcDbLine
 10
5.749999999999842
 20
-0.4374999999999904
 30
0.0
 11
5.749999999999845
 21
21.65291403492224
 31
0.0
  0
LINE
  5
225AF
330
223D9
100
AcDbEntity
  8
2
 62
     0
370
    -2
100
AcDbLine
 10
-5.75000000000017
 20
-0.4374999999999904
 30
0.0
 11
-5.750000000000167
 21
21.65291403492224
 31
0.0
  0
LINE
  5
225B0
330
223D9
100
AcDbEntity
  8
2
 62
     0
370
    -2
100
AcDbLine
 10
-10.32000000000017
 20
21.47291403492224
 30
0.0
 11
-14.89000000000017
 21
21.47291403492224
 31
0.0
  0
LINE
  5
225B1
330
223D9
100
AcDbEntity
  8
2
 62
     0
370
    -2
100
AcDbLine
 10
10.31999999999984
 20
21.47291403492224
 30
0.0
 11
26.83078706957117
 21
21.47291403492224
 31
0.0
  0
LINE
  5
225B2
330
223D9
100
AcDbEntity
  8
2
 62
     0
370
    -2
100
AcDbLine
 10
-5.750000000000167
 20
21.47291403492224
 30
0.0
 11
5.749999999999845
 21
21.47291403492224
 31
0.0
  0
SOLID
  5
225B3
330
223D9
100
AcDbEntity
  8
2
 62
     0
100
AcDbTrace
 10
-10.32000000000017
 20
22.23458070158891
 30
0.0
 11
-10.32000000000017
 21
20.71124736825557
 31
0.0
 12
-5.750000000000167
 22
21.47291403492224
 32
0.0
 13
-5.750000000000167
 23
21.47291403492224
 33
0.0
  0
SOLID
  5
225B4
330
223D9
100
AcDbEntity
  8
2
 62
     0
100
AcDbTrace
 10
10.31999999999984
 20
22.23458070158891
 30
0.0
 11
10.31999999999984
 21
20.71124736825557
 31
0.0
 12
5.749999999999845
 22
21.47291403492224
 32
0.0
 13
5.749999999999845
 23
21.47291403492224
 33
0.0
  0
MTEXT
  5
225B5
330
223D9
100
AcDbEntity
  8
2
 62
     0
100
AcDbMText
 10
20.86039353478551
 20
23.42605528580067
 30
0.0
 40
3.5
 41
0.0
 71
     5
 72
     1
  1
\A1;%%c11.5
 73
     1
 44
1.0
1001
ACAD
1000
MTEXTBEGIN
1070
    73
1070
     1
1070
    44
1040
1.0
1070
    74
1070
     0
1000
MTEXTEND
  0
POINT
  5
225B6
330
223D9
100
AcDbEntity
  8
Defpoints
 62
     0
100
AcDbPoint
 10
5.749999999999842
 20
-0.4999999999999904
 30
0.0
  0
POINT
  5
225B7
330
223D9
100
AcDbEntity
  8
Defpoints
 62
     0
100
AcDbPoint
 10
-5.75000000000017
 20
-0.4999999999999904
 30
0.0
  0
POINT
  5
225B8
330
223D9
100
AcDbEntity
  8
Defpoints
 62
     0
100
AcDbPoint
 10
-5.750000000000167
 20
21.47291403492224
 30
0.0
  0
ENDBLK
  5
223DB
330
223D9
100
AcDbEntity
  8
0
100
AcDbBlockEnd
  0
BLOCK
  5
223E6
330
223E5
100
AcDbEntity
  8
0
100
AcDbBlockBegin
  2
*D4
 70
     1
 10
0.0
 20
0.0
 30
0.0
  3
*D4
  1

  0
LINE
  5
23585
330
223E5
100
AcDbEntity
  8
SKVIEW2
 62
     0
370
    -2
100
AcDbLine
 10
44.9322192869998
 20
6.813757403100009
 30
0.0
 11
44.9322192869998
 21
21.75856489238166
 31
0.0
  0
LINE
  5
23586
330
223E5
100
AcDbEntity
  8
SKVIEW2
 62
     0
370
    -2
100
AcDbLine
 10
50.45075537729982
 20
6.819739548799997
 30
0.0
 11
50.45075537729982
 21
21.75856489238166
 31
0.0
  0
LINE
  5
23587
330
223E5
100
AcDbEntity
  8
SKVIEW2
 62
     0
370
    -2
100
AcDbLine
 10
40.36221928699979
 20
21.57856489238167
 30
0.0
 11
35.7922192869998
 21
21.57856489238167
 31
0.0
  0
LINE
  5
23588
330
223E5
100
AcDbEntity
  8
SKVIEW2
 62
     0
370
    -2
100
AcDbLine
 10
55.02075537729981
 20
21.57856489238167
 30
0.0
 11
70.21615242578892
 21
21.57856489238167
 31
0.0
  0
LINE
  5
23589
330
223E5
100
AcDbEntity
  8
SKVIEW2
 62
     0
370
    -2
100
AcDbLine
 10
44.9322192869998
 20
21.57856489238167
 30
0.0
 11
50.45075537729982
 21
21.57856489238167
 31
0.0
  0
SOLID
  5
2358A
330
223E5
100
AcDbEntity
  8
SKVIEW2
 62
     0
100
AcDbTrace
 10
40.36221928699979
 20
22.34023155904833
 30
0.0
 11
40.36221928699979
 21
20.816898225715
 31
0.0
 12
44.9322192869998
 22
21.57856489238167
 32
0.0
 13
44.9322192869998
 23
21.57856489238167
 33
0.0
  0
SOLID
  5
2358B
330
223E5
100
AcDbEntity
  8
SKVIEW2
 62
     0
100
AcDbTrace
 10
55.02075537729981
 20
22.34023155904833
 30
0.0
 11
55.02075537729981
 21
20.816898225715
 31
0.0
 12
50.45075537729982
 22
21.57856489238167
 32
0.0
 13
50.45075537729982
 23
21.57856489238167
 33
0.0
  0
MTEXT
  5
2358C
330
223E5
100
AcDbEntity
  8
SKVIEW2
 62
     0
100
AcDbMText
 10
65.51786008566242
 20
23.48005470264168
 30
0.0
 40
3.5
 41
0.0
 71
     5
 72
     1
  1
\A1;5.52
 73
     1
 44
1.0
1001
ACAD
1000
MTEXTBEGIN
1070
    73
1070
     1
1070
    44
1040
1.0
1070
    74
1070
     0
1000
MTEXTEND
  0
POINT
  5
2358D
330
223E5
100
AcDbEntity
  8
Defpoints
 62
     0
100
AcDbPoint
 10
44.9322192869998
 20
6.751257403100009
 30
0.0
  0
POINT
  5
2358E
330
223E5
100
AcDbEntity
  8
Defpoints
 62
     0
100
AcDbPoint
 10
50.45075537729982
 20
6.757239548799997
 30
0.0
  0
POINT
  5
2358F
330
223E5
100
AcDbEntity
  8
Defpoints
 62
     0
100
AcDbPoint
 10
50.45075537729982
 20
21.57856489238167
 30
0.0
  0
ENDBLK
  5
223E7
330
223E5
100
AcDbEntity
  8
0
100
AcDbBlockEnd
  0
BLOCK
  5
23190
330
2318F
100
AcDbEntity
  8
0
100
AcDbBlockBegin
  2
*D5
 70
     1
 10
0.0
 20
0.0
 30
0.0
  3
*D5
  1

  0
LINE
  5
23639
330
2318F
100
AcDbEntity
  8
2
 62
     0
370
    -2
100
AcDbLine
 10
6.956729762054374
 20
-9.044639441680075
 30
0.0
 11
19.68281724086296
 21
-24.56316122199293
 31
0.0
  0
LINE
  5
2363A
330
2318F
100
AcDbEntity
  8
2
 62
     0
370
    -2
100
AcDbLine
 10
3.576942698199815
 20
-4.923239266599957
 30
0.0
 11
4.058863555342401
 21
-5.510906083318586
 31
0.0
  0
SOLID
  5
2363B
330
2318F
100
AcDbEntity
  8
2
 62
     0
100
AcDbTrace
 10
7.545685321781289
 20
-8.561661740561412
 30
0.0
 11
6.367774202327456
 21
-9.527617142798735
 31
0.0
 12
4.058863555342401
 22
-5.510906083318586
 32
0.0
 13
4.058863555342401
 23
-5.510906083318586
 33
0.0
  0
MTEXT
  5
2363C
330
2318F
100
AcDbEntity
  8
2
 62
     0
100
AcDbMText
 10
16.62800066681894
 20
-17.83934643056701
 30
0.0
 40
3.5
 41
0.0
 71
     5
 72
     1
  1
\A1;5xR0.8
 11
0.6341063909654211
 21
-0.773245811457656
 31
0.0
 73
     1
 44
1.0
1001
ACAD
1000
MTEXTBEGIN
1070
    73
1070
     1
1070
    44
1040
1.0
1070
    74
1070
     0
1000
MTEXTEND
  0
POINT
  5
2363D
330
2318F
100
AcDbEntity
  8
Defpoints
 62
     0
100
AcDbPoint
 10
4.058863555342401
 20
-5.510906083318586
 30
0.0
  0
POINT
  5
2363E
330
2318F
100
AcDbEntity
  8
Defpoints
 62
     0
100
AcDbPoint
 10
3.576942698199815
 20
-4.923239266599957
 30
0.0
  0
ENDBLK
  5
23191
330
2318F
100
AcDbEntity
  8
0
100
AcDbBlockEnd
  0
ENDSEC
  0
SECTION
  2
ENTITIES
  0
INSERT
  5
20A18
330
1F
100
AcDbEntity
  8
2
100
AcDbBlockReference
  2
cero_point
 10
-0.0000000000000784
 20
0.0
 30
0.0
 41
0.5
 42
0.5
 43
0.5
  0
LINE
  5
20DD5
330
1F
100
AcDbEntity
  8
INFTOTAL
370
    18
100
AcDbLine
 10
83.11066544416286
 20
-58.25921288089446
 30
0.0
 11
83.11066544416286
 21
-32.93703281133637
 31
0.0
  0
LINE
  5
20DD6
330
1F
100
AcDbEntity
  8
INFTOTAL
370
    18
100
AcDbLine
 10
-53.46706053094871
 20
38.13762324004289
 30
0.0
 11
-25.15134650394282
 21
38.13762324004289
 31
0.0
  0
LINE
  5
20DD7
330
1F
100
AcDbEntity
  8
INFTOTAL
370
    18
100
AcDbLine
 10
56.96306977485146
 20
-58.25921288089446
 30
0.0
 11
83.11066544416286
 21
-58.25921288089446
 31
0.0
  0
LINE
  5
20DD8
330
1F
100
AcDbEntity
  8
INFTOTAL
370
    18
100
AcDbLine
 10
-53.46706053094869
 20
12.21855759981423
 30
0.0
 11
-53.46706053094871
 21
38.13762324004279
 31
0.0
  0
INSERT
  5
20DD9
330
1F
100
AcDbEntity
  8
0
100
AcDbBlockReference
 66
     1
  2
Name
 10
10.96605250106242
 20
-43.39706265943009
 30
0.0
  0
ATTRIB
  5
20DDA
102
{ACAD_XDICTIONARY
360
20DDB
102
}
330
20DD9
100
AcDbEntity
  8
SKVIEW63
100
AcDbText
 10
11.05655988547068
 20
-43.34958686295492
 30
0.0
 40
3.5
  1
PNCU0805GNTR
 41
0.8
  7
BMG_Text
100
AcDbAttribute
  2
NAME
 70
     0
  0
SEQEND
  5
20DDF
330
20DD9
100
AcDbEntity
  8
0
  0
DIMENSION
  5
2236B
330
1F
100
AcDbEntity
  8
2
100
AcDbDimension
  2
*D2
 10
-2.260000000000173
 20
-29.34095422459193
 30
0.0
 11
17.36449051300053
 21
-29.34095422459193
 31
0.0
 70
   160
  1
%%c<>
 71
     5
 42
4.520000000000009
  3
STANDARD
100
AcDbAlignedDimension
 13
2.259999999999834
 23
-0.4999999999999904
 33
0.0
 14
-2.260000000000173
 24
-0.4999999999999904
 34
0.0
 50
180.0
100
AcDbRotatedDimension
1001
ACAD
1000
DSTYLE
1002
{
1070
   172
1070
     1
1070
   271
1070
     1
1002
}
  0
DIMENSION
  5
2236C
330
1F
100
AcDbEntity
  8
2
100
AcDbDimension
  2
*D3
 10
-5.750000000000167
 20
21.47291403492224
 30
0.0
 11
20.86039353478551
 21
21.47291403492224
 31
0.0
 70
   160
  1
%%c<>
 71
     5
 42
11.50000000000001
  3
STANDARD
100
AcDbAlignedDimension
 13
5.749999999999842
 23
-0.4999999999999904
 33
0.0
 14
-5.75000000000017
 24
-0.4999999999999904
 34
0.0
 50
180.0
100
AcDbRotatedDimension
1001
ACAD
1000
DSTYLE
1002
{
1070
   172
1070
     1
1002
}
  0
DIMENSION
  5
2236D
330
1F
100
AcDbEntity
  8
SKVIEW2
100
AcDbDimension
  2
*D4
 10
50.45075537729982
 20
21.57856489238167
 30
0.0
 11
65.51786008566242
 21
21.57856489238167
 31
0.0
 70
   160
 71
     5
 42
5.518536090300016
  3
STANDARD
100
AcDbAlignedDimension
 13
44.9322192869998
 23
6.751257403100009
 33
0.0
 14
50.45075537729982
 24
6.757239548799997
 34
0.0
100
AcDbRotatedDimension
1001
ACAD
1000
DSTYLE
1002
{
1070
   172
1070
     1
1070
   271
1070
     2
1002
}
  0
LINE
  5
22CD7
330
1F
100
AcDbEntity
  8
4
100
AcDbLine
 10
-0.0000000000001563
 20
0.0000000000000107
 30
0.0
 11
-0.0000000000001563
 21
-8.716664464999997
 31
0.0
  0
LINE
  5
22CD8
330
1F
100
AcDbEntity
  8
4
100
AcDbLine
 10
-0.0000000000001563
 20
0.0000000000000107
 30
0.0
 11
-0.0000000001001723
 21
6.436055220800009
 31
0.0
  0
LINE
  5
22CD9
330
1F
100
AcDbEntity
  8
4
100
AcDbLine
 10
-0.0000000000001563
 20
0.0000000000000107
 30
0.0
 11
-0.0000000000001563
 21
8.101132145200022
 31
0.0
  0
LINE
  5
22D24
330
1F
100
AcDbEntity
  8
4
100
AcDbLine
 10
-0.0000000000001563
 20
0.0000000000000107
 30
0.0
 11
-7.60749750000015
 21
0.0000000000000107
 31
0.0
  0
LINE
  5
22D25
330
1F
100
AcDbEntity
  8
4
100
AcDbLine
 10
-0.0000000000001563
 20
0.0000000000000107
 30
0.0
 11
8.489536398299847
 21
0.0000000000000107
 31
0.0
  0
DIMENSION
  5
230BB
330
1F
100
AcDbEntity
  8
2
100
AcDbDimension
  2
*D5
 10
3.576942698199815
 20
-4.923239266599957
 30
0.0
 11
15.15768163550597
 21
-19.04509327160851
 31
0.0
 70
   164
  1
5x<>
 71
     5
 42
0.7600000000139798
  3
STANDARD
100
AcDbRadialDimension
 15
4.058863555342401
 25
-5.510906083318586
 35
0.0
 40
0.0
1001
ACAD
1000
DSTYLE
1002
{
1070
   172
1070
     1
1070
   271
1070
     1
1002
}
  0
LINE
  5
230C1
330
1F
100
AcDbEntity
  8
1
100
AcDbLine
 10
1.999999532599773
 20
-5.750000001199982
 30
0.0
 11
3.608768194599818
 21
-5.682572617499986
 31
0.0
  0
LINE
  5
230C2
330
1F
100
AcDbEntity
  8
1
100
AcDbLine
 10
-1.999999540400196
 20
-5.749999998799996
 30
0.0
 11
1.999999532599773
 21
-5.750000001199982
 31
0.0
  0
LINE
  5
230C3
330
1F
100
AcDbEntity
  8
1
100
AcDbLine
 10
-3.608768201400193
 20
-5.682572613200012
 30
0.0
 11
-1.999999540400196
 21
-5.749999998799996
 31
0.0
  0
LINE
  5
230C4
330
1F
100
AcDbEntity
  8
1
100
AcDbLine
 10
-4.850541125200193
 20
-3.678960306899984
 30
0.0
 11
-4.289277016300204
 21
-5.188154017799991
 31
0.0
  0
LINE
  5
230C5
330
1F
100
AcDbEntity
  8
1
100
AcDbLine
 10
-6.519618416100215
 20
1.676131004500014
 30
0.0
 11
-6.086608814000197
 21
0.1252648774000242
 31
0.0
  0
LINE
  5
230C6
330
1F
100
AcDbEntity
  8
1
100
AcDbLine
 10
-4.997798812700168
 20
3.476277488200008
 30
0.0
 11
-6.259687177800214
 21
2.476117095599998
 31
0.0
  0
LINE
  5
230C7
330
1F
100
AcDbEntity
  8
1
100
AcDbLine
 10
-0.4205775734001663
 20
6.718478543599996
 30
0.0
 11
-1.761731583800198
 21
5.827417950600004
 31
0.0
  0
LWPOLYLINE
  5
230C8
330
1F
100
AcDbEntity
  8
1
100
AcDbPolyline
 90
       11
 70
     0
 43
0.0
 10
-3.386675219400203
 20
-4.472426378299974
 10
-3.442767144900173
 20
-4.463087795099981
 10
-3.498576059500166
 20
-4.446658823799981
 10
-3.553556975300223
 20
-4.422937044199971
 10
-3.606190919400191
 20
-4.392340517299988
 10
-3.655255432400208
 20
-4.355665315899972
 10
-3.699833424100162
 20
-4.313715810799993
 10
-3.738989101200203
 20
-4.267266193000001
 10
-3.771746322100212
 20
-4.21739529099999
 10
-3.797457079800196
 20
-4.165536852099975
 10
-3.816256689000212
 20
-4.112262453699987
  0
LINE
  5
230C9
330
1F
100
AcDbEntity
  8
1
100
AcDbLine
 10
-6.086608814000197
 20
0.1252648774000242
 30
0.0
 11
-4.850541125200193
 21
-3.678960306899984
 31
0.0
  0
LINE
  5
230CA
330
1F
100
AcDbEntity
  8
1
100
AcDbLine
 10
-1.761731583800198
 20
5.827417950600004
 30
0.0
 11
-4.997798812700168
 21
3.476277488200008
 31
0.0
  0
LWPOLYLINE
  5
230CB
330
1F
100
AcDbEntity
  8
1
100
AcDbPolyline
 90
       11
 70
     0
 43
0.0
 10
2.737466555899813
 20
-4.750332371999991
 10
2.779197083899831
 20
-4.749318549999987
 10
2.819991648899828
 20
-4.743479474399993
 10
2.860140462699817
 20
-4.732723415899971
 10
2.898772889799786
 20
-4.71732556209999
 10
2.935266117099799
 20
-4.697406219900003
 10
2.969166889599832
 20
-4.673338301599971
 10
2.999953297999823
 20
-4.645338594199971
 10
3.027208491399802
 20
-4.613995781399996
 10
3.050267796399805
 20
-4.580053427399992
 10
3.069352770699836
 20
-4.543263677399995
  0
LINE
  5
230CC
330
1F
100
AcDbEntity
  8
1
100
AcDbLine
 10
2.737415560999818
 20
-4.750344661399981
 30
0.0
 11
2.255725526299798
 21
-4.731814711999976
 31
0.0
  0
LINE
  5
230CD
330
1F
100
AcDbEntity
  8
1
100
AcDbLine
 10
2.731705831299805
 20
-4.90023477499999
 30
0.0
 11
2.256602850999811
 21
-4.881917432300003
 31
0.0
  0
LINE
  5
230CE
330
1F
100
AcDbEntity
  8
1
100
AcDbLine
 10
2.256602850999811
 20
-4.881917432300003
 30
0.0
 11
1.775040695499811
 21
-4.860850388099994
 31
0.0
  0
LINE
  5
230CF
330
1F
100
AcDbEntity
  8
1
100
AcDbLine
 10
2.255725526299798
 20
-4.731814711999976
 30
0.0
 11
1.77429910839983
 21
-4.710727800199991
 31
0.0
  0
LINE
  5
230D0
330
1F
100
AcDbEntity
  8
1
100
AcDbLine
 10
1.775040695499811
 20
-4.860850388099994
 30
0.0
 11
1.285266364799791
 21
-4.836881690299993
 31
0.0
  0
LINE
  5
230D1
330
1F
100
AcDbEntity
  8
1
100
AcDbLine
 10
1.77429910839983
 20
-4.710727800199991
 30
0.0
 11
1.292838483399819
 21
-4.687070918799991
 31
0.0
  0
LWPOLYLINE
  5
230D2
330
1F
100
AcDbEntity
  8
1
100
AcDbPolyline
 90
        7
 70
     0
 43
0.0
 10
-1.123534657100194
 20
-4.67953198369999
 10
-0.7223434072001709
 20
-4.710236487199995
 10
-0.3210540906002137
 20
-4.739148130599987
 10
0.0803218689997749
 20
-4.766266305899978
 10
0.4818187425997992
 20
-4.791592836400003
 10
0.8834708013997808
 20
-4.815129545299996
 10
1.285266621799802
 20
-4.83687582469999
  0
LWPOLYLINE
  5
230D3
330
1F
100
AcDbEntity
  8
1
100
AcDbPolyline
 90
        7
 70
     0
 43
0.0
 10
-1.124373020900164
 20
-4.679484670199985
 10
-1.501446391800168
 20
-4.648944596099983
 10
-1.878621794200213
 20
-4.616806898399988
 10
-2.256003509400201
 20
-4.583062420600004
 10
-2.633278693700205
 20
-4.547738632399997
 10
-3.010134503300193
 20
-4.510863003899988
 10
-3.386675219400203
 20
-4.472426378299974
  0
LWPOLYLINE
  5
230D4
330
1F
100
AcDbEntity
  8
1
100
AcDbPolyline
 90
        7
 70
     0
 43
0.0
 10
-3.372418396700183
 20
-4.32307363049999
 10
-2.995683945800223
 20
-4.361554799899995
 10
-2.618966241300185
 20
-4.398433865499998
 10
-2.242304078400181
 20
-4.433706918599983
 10
-1.865581071300184
 20
-4.467385685499992
 10
-1.488680833800215
 20
-4.499481892499987
 10
-1.111642161300196
 20
-4.529991630999988
  0
LWPOLYLINE
  5
230D5
330
1F
100
AcDbEntity
  8
1
100
AcDbPolyline
 90
       25
 70
     0
 43
0.0
 10
1.285266621799802
 20
-4.83687582469999
 10
1.18620302419977
 20
-4.825769501599967
 10
1.089417283899834
 20
-4.803382534800011
 10
0.9938488566998131
 20
-4.769265869399976
 10
0.9026793750998225
 20
-4.72476666959999
 10
0.8187736034997923
 20
-4.670992159999986
 10
0.7420216024998041
 20
-4.608213103599997
 10
0.6731003554998125
 20
-4.536849368599991
 10
0.6125138591998081
 20
-4.457560864499999
 10
0.5605274279997872
 20
-4.370183938699984
 10
0.5185340929998148
 20
-4.277609145599985
 10
0.4881149439998043
 20
-4.182638691099997
 10
0.4689711188998018
 20
-4.085373967599981
 10
0.4613420703997946
 20
-3.986613564199973
 10
0.465193944299827
 20
-3.887068097300005
 10
0.4808262267998347
 20
-3.786654409499977
 10
0.5074783501998043
 20
-3.688552411500001
 10
0.5445957343997776
 20
-3.595939600999986
 10
0.591859902899799
 20
-3.508740059700006
 10
0.648940045299824
 20
-3.427752933999998
 10
0.7153185826998226
 20
-3.353530527999981
 10
0.7911907302997891
 20
-3.286275408499978
 10
0.8740872948997804
 20
-3.227835934000001
 10
0.961303640099814
 20
-3.180367469899993
 10
1.053741311399803
 20
-3.143151561100001
  0
LWPOLYLINE
  5
230D6
330
1F
100
AcDbEntity
  8
1
100
AcDbPolyline
 90
       11
 70
     0
 43
0.0
 10
-3.671910859800205
 20
-4.07141886070001
 10
-3.658051221700173
 20
-4.11079364849998
 10
-3.639891720700163
 20
-4.147787203099984
 10
-3.617255436100193
 20
-4.18264718799999
 10
-3.590673129800151
 20
-4.214630612699995
 10
-3.560451682100207
 20
-4.243182319099973
 10
-3.527085816800179
 20
-4.267986473899997
 10
-3.490942986600188
 20
-4.288613703399978
 10
-3.452711884600191
 20
-4.304849470199986
 10
-3.413305085100191
 20
-4.316291404899986
 10
-3.372418396700183
 20
-4.32307363049999
  0
LINE
  5
230D7
330
1F
100
AcDbEntity
  8
1
100
AcDbLine
 10
-3.67193831470017
 20
-4.071374139399996
 30
0.0
 11
-3.80316567940018
 21
-3.607533670699996
 31
0.0
  0
LINE
  5
230D8
330
1F
100
AcDbEntity
  8
1
100
AcDbLine
 10
-3.816256689000212
 20
-4.112262453699987
 30
0.0
 11
-3.945650756000232
 21
-3.654752297400011
 31
0.0
  0
LINE
  5
230D9
330
1F
100
AcDbEntity
  8
1
100
AcDbLine
 10
-3.945650756000232
 20
-3.654752297400011
 30
0.0
 11
-4.074425696000202
 21
-3.19024939699999
 31
0.0
  0
LWPOLYLINE
  5
230DA
330
1F
100
AcDbEntity
  8
1
100
AcDbPolyline
 90
        4
 70
     0
 43
0.0
 10
-3.80316567940018
 20
-3.607533670699996
 10
-3.931879757200178
 20
-3.143153806099991
 10
-3.995324212200202
 20
-2.910653783000002
 10
-4.058160278000213
 20
-2.677947032499973
  0
LINE
  5
230DB
330
1F
100
AcDbEntity
  8
1
100
AcDbLine
 10
-4.074425696000202
 20
-3.19024939699999
 30
0.0
 11
-4.202978701100207
 21
-2.71703959359998
 31
0.0
  0
LWPOLYLINE
  5
230DC
330
1F
100
AcDbEntity
  8
1
100
AcDbPolyline
 90
        7
 70
     0
 43
0.0
 10
-4.797690691600208
 20
-0.3775099452999946
 10
-4.702917495500216
 20
-0.7685537126999869
 10
-4.60640888400017
 20
-1.1591367212
 10
-4.508167809600235
 20
-1.549247916999989
 10
-4.408185414800168
 20
-1.938920461299986
 10
-4.306452841800179
 20
-2.32818751539999
 10
-4.202973043100183
 20
-2.71703802539999
  0
LWPOLYLINE
  5
230DD
330
1F
100
AcDbEntity
  8
1
100
AcDbPolyline
 90
        7
 70
     0
 43
0.0
 10
-4.797904760500202
 20
-0.3766979997000028
 10
-4.885381497700207
 20
-0.0086425363000053
 10
-4.971370337100196
 20
0.3600036702999994
 10
-5.055894795500235
 20
0.729342629100028
 10
-5.138884322400186
 20
1.099068312500019
 10
-5.220268367500167
 20
1.468874692699994
 10
-5.300070447700178
 20
1.838863779000018
  0
LWPOLYLINE
  5
230DE
330
1F
100
AcDbEntity
  8
1
100
AcDbPolyline
 90
       25
 70
     0
 43
0.0
 10
-4.202973043100183
 20
-2.71703802539999
 10
-4.223022637500193
 20
-2.619390902899979
 10
-4.231639805400205
 20
-2.520424240799985
 10
-4.228725196800198
 20
-2.418990635999977
 10
-4.214576862100201
 20
-2.318532297499974
 10
-4.189362573700221
 20
-2.22211592929999
 10
-4.153373815800176
 20
-2.129720643399981
 10
-4.106800707300163
 20
-2.042120035299991
 10
-4.050115115900196
 20
-1.959997357999998
 10
-3.983079412000207
 20
-1.88355436879998
 10
-3.908012206000178
 20
-1.81500914959999
 10
-3.827089970400193
 20
-1.756731335199976
 10
-3.7405014886002
 20
-1.7084680231
 10
-3.648932269100197
 20
-1.670693723699987
 10
-3.553068609600231
 20
-1.643595832499971
 10
-3.45273887650022
 20
-1.627433480499989
 10
-3.351202373000191
 20
-1.622465971599968
 10
-3.251652453500227
 20
-1.629147769299994
 10
-3.1541153303002
 20
-1.647152524600004
 10
-3.059453262500182
 20
-1.676412567800003
 10
-2.968351463500183
 20
-1.716606323499991
 10
-2.880942260900198
 20
-1.767982048899984
 10
-2.79974657050023
 20
-1.828762576099979
 10
-2.727650045600209
 20
-1.897041687499995
 10
-2.66369080170021
 20
-1.973454788799999
  0
LWPOLYLINE
  5
230DF
330
1F
100
AcDbEntity
  8
1
100
AcDbPolyline
 90
       11
 70
     0
 43
0.0
 10
-5.300070447700178
 20
1.838863779000018
 10
-5.308512456200205
 20
1.895040073499995
 10
-5.3101288438002
 20
1.953162844600011
 10
-5.304552257300186
 20
2.012780426700014
 10
-5.291706472500193
 20
2.072309148400004
 10
-5.271971541200215
 20
2.130329867300002
 10
-5.245828798800214
 20
2.185722257699989
 10
-5.213724508700221
 20
2.23735586090002
 10
-5.176387641300195
 20
2.283959277600001
 10
-5.134988791100211
 20
2.324465477100016
 10
-5.0901144468002
 20
2.358827791600003
  0
LWPOLYLINE
  5
230E0
330
1F
100
AcDbEntity
  8
1
100
AcDbPolyline
 90
       11
 70
     0
 43
0.0
 10
-5.006832320300233
 20
2.234057111000009
 10
-5.039997090000198
 20
2.208708346100002
 10
-5.069568447500201
 20
2.180006004900016
 10
-5.095727265000205
 20
2.147705292399999
 10
-5.117930926300217
 20
2.112540593599998
 10
-5.135746271700199
 20
2.074975326300014
 10
-5.149025805300181
 20
2.035577597300014
 10
-5.157474718000216
 20
1.994829564400003
 10
-5.161101789100186
 20
1.953452492299998
 10
-5.159806341800202
 20
1.912438613100004
 10
-5.15362193510019
 20
1.871457182799995
  0
LINE
  5
230E1
330
1F
100
AcDbEntity
  8
1
100
AcDbLine
 10
-5.0901144468002
 20
2.358827791600003
 30
0.0
 11
-4.689323197800191
 21
2.627106317099997
 31
0.0
  0
LINE
  5
230E2
330
1F
100
AcDbEntity
  8
1
100
AcDbLine
 10
-4.606217430500222
 20
2.502238234000014
 30
0.0
 11
-5.006832320300233
 21
2.234057111000009
 31
0.0
  0
LINE
  5
230E3
330
1F
100
AcDbEntity
  8
1
100
AcDbLine
 10
-4.689323197800191
 20
2.627106317099997
 30
0.0
 11
-4.286769658200157
 21
2.893469835200003
 31
0.0
  0
LINE
  5
230E4
330
1F
100
AcDbEntity
  8
1
100
AcDbLine
 10
-4.286769658200157
 20
2.893469835200003
 30
0.0
 11
-3.882910605100207
 21
3.157616134000002
 31
0.0
  0
LWPOLYLINE
  5
230E5
330
1F
100
AcDbEntity
  8
1
100
AcDbPolyline
 90
        7
 70
     0
 43
0.0
 10
-1.841617184100168
 20
4.446205531300003
 10
-2.184238541200199
 20
4.235231373900017
 10
-2.525889326400188
 20
4.022745885800001
 10
-2.866562102200175
 20
3.808754181600002
 10
-3.206279181000226
 20
3.593240917400017
 10
-3.545062875200173
 20
3.376190749400006
 10
-3.882905747200183
 20
3.15760879230002
  0
LWPOLYLINE
  5
230E6
330
1F
100
AcDbEntity
  8
1
100
AcDbPolyline
 90
        7
 70
     0
 43
0.0
 10
-1.840895599800191
 20
4.446673181799988
 10
-1.517885613600168
 20
4.643603462899998
 10
-1.193854105800182
 20
4.839301392600003
 10
-0.8687283068002074
 20
5.033810806300021
 10
-0.542726525000191
 20
5.227000197599988
 10
-0.2160670688002
 20
5.418738059699998
 10
0.1113228311998142
 20
5.609068228200026
  0
LWPOLYLINE
  5
230E7
330
1F
100
AcDbEntity
  8
1
100
AcDbPolyline
 90
       25
 70
     0
 43
0.0
 10
-3.882905747200183
 20
3.15760879230002
 10
-3.796289376200192
 20
3.206886091799997
 10
-3.704882048900216
 20
3.245699047800011
 10
-3.607564202400211
 20
3.274307830999998
 10
-3.507694525400196
 20
3.291931928800021
 10
-3.408233956300178
 20
3.297783745100001
 10
-3.309256183000214
 20
3.292144700600013
 10
-3.211555904000176
 20
3.274954926999991
 10
-3.115931025400171
 20
3.246450695999993
 10
-3.022502651200211
 20
3.206342618500013
 10
-2.934095886000178
 20
3.156147808899997
 10
-2.853635821700193
 20
3.097200874900021
 10
-2.780943599800181
 20
3.029759947300003
 10
-2.716684348400164
 20
2.954328854399998
 10
-2.661251199100191
 20
2.871505111900017
 10
-2.614840347400201
 20
2.781045695400003
 10
-2.578707729300205
 20
2.685976054100005
 10
-2.554276047200218
 20
2.589199012400009
 10
-2.541241197500184
 20
2.490839419800021
 10
-2.539805128900225
 20
2.391739269100025
 10
-2.549872386100203
 20
2.292649954700018
 10
-2.571719353700231
 20
2.1936200523
 10
-2.604432460500206
 20
2.097600010100006
 10
-2.64708758300024
 20
2.007927298300028
 10
-2.699992762400184
 20
1.923489426799998
  0
LWPOLYLINE
  5
230E8
330
1F
100
AcDbEntity
  8
1
100
AcDbPolyline
 90
       11
 70
     0
 43
0.0
 10
0.1113228311998142
 20
5.609068228200026
 10
0.1621120679997858
 20
5.634443305099987
 10
0.2168433781998402
 20
5.65392572220001
 10
0.2751994746997894
 20
5.667028755700027
 10
0.33571312209979
 20
5.673195272699993
 10
0.3969339088997827
 20
5.672347705000002
 10
0.457647903999785
 20
5.664595260500004
 10
0.5166408303997656
 20
5.650012893900008
 10
0.5724935061998197
 20
5.628895046099994
 10
0.6238403014998113
 20
5.602013044900001
 10
0.6704466747998055
 20
5.56990438730001
  0
LWPOLYLINE
  5
230E9
330
1F
100
AcDbEntity
  8
1
100
AcDbPolyline
 90
        7
 70
     0
 43
0.0
 10
-4.651610643600164
 20
-0.3435394417999937
 10
-4.739213323600193
 20
0.0250611331000066
 10
-4.825221207600221
 20
0.3937850401999974
 10
-4.909615102300207
 20
0.7625487656000125
 10
-4.992452587700183
 20
1.131602850800002
 10
-5.073791244100203
 20
1.501197837100004
 10
-5.153611878000205
 20
1.871250210800024
  0
LWPOLYLINE
  5
230EA
330
1F
100
AcDbEntity
  8
1
100
AcDbPolyline
 90
        4
 70
     0
 43
0.0
 10
-3.800867749500169
 20
3.032025435600001
 10
-4.0028015955002
 20
2.900346632500013
 10
-4.204337824300168
 20
2.7681558313
 10
-4.606217430500222
 20
2.502238234000014
  0
LWPOLYLINE
  5
230EB
330
1F
100
AcDbEntity
  8
1
100
AcDbPolyline
 90
        7
 70
     0
 43
0.0
 10
-1.764152164700178
 20
4.317785087700013
 10
-1.440662945700168
 20
4.515004003900012
 10
-1.11656358770021
 20
4.710744305099987
 10
-0.7919147999001979
 20
4.904969399300012
 10
-0.4665344546001934
 20
5.097789062400021
 10
-0.1402404245002202
 20
5.289313069900011
 10
0.1869065814997981
 20
5.479504830099992
  0
LWPOLYLINE
  5
230EC
330
1F
100
AcDbEntity
  8
1
100
AcDbPolyline
 90
       11
 70
     0
 43
0.0
 10
-0.9061836905002419
 20
-3.344490634799984
 10
-1.127724804800195
 20
-3.276362284599986
 10
-1.343643929000208
 20
-3.193831029899984
 10
-1.554588257900188
 20
-3.096581154699993
 10
-1.758616207400208
 20
-2.985559807299996
 10
-1.954109854600218
 20
-2.86148424769998
 10
-2.140745411300184
 20
-2.724728425300002
 10
-2.317972024800198
 20
-2.575586422400009
 10
-2.484852966200193
 20
-2.415015099900005
 10
-2.640127846100185
 20
-2.244201207299979
 10
-2.784216794300206
 20
-2.062749161500011
  0
LWPOLYLINE
  5
230ED
330
1F
100
AcDbEntity
  8
1
100
AcDbPolyline
 90
       25
 70
     0
 43
0.0
 10
-2.784216794300206
 20
-2.062749161500011
 10
-2.836772791100187
 20
-1.999592292899978
 10
-2.896002135300236
 20
-1.943184335199975
 10
-2.962586361500186
 20
-1.893047883399976
 10
-3.03448086600018
 20
-1.850615152400013
 10
-3.1100091743002
 20
-1.817165393099987
 10
-3.188748433300176
 20
-1.792680092299991
 10
-3.27000267160018
 20
-1.777547000599998
 10
-3.352914770000196
 20
-1.771826576300004
 10
-3.437218191500207
 20
-1.775843654399995
 10
-3.52044521880019
 20
-1.789192854399986
 10
-3.600016097700161
 20
-1.811655313700004
 10
-3.676000402400218
 20
-1.842996313799988
 10
-3.747783599800171
 20
-1.883030854800001
 10
-3.814838258400171
 20
-1.931390918499985
 10
-3.877023508500186
 20
-1.988275228399988
 10
-3.932565131600183
 20
-2.051798559999967
 10
-3.979611269900189
 20
-2.120277506199998
 10
-4.018253971800206
 20
-2.1933053385
 10
-4.048011269400191
 20
-2.270175273899996
 10
-4.068753353400197
 20
-2.350104068999982
 10
-4.080203143800176
 20
-2.432779632599975
 10
-4.082320485100225
 20
-2.516081724099979
 10
-4.074956297000182
 20
-2.5975080386
 10
-4.058160272800236
 20
-2.677892677699976
  0
LWPOLYLINE
  5
230EE
330
1F
100
AcDbEntity
  8
1
100
AcDbPolyline
 90
       11
 70
     0
 43
0.0
 10
-2.66369080170021
 20
-1.973454788799999
 10
-2.52554780020021
 20
-2.147237294499991
 10
-2.37675944130022
 20
-2.310789230699997
 10
-2.21691849460022
 20
-2.46448749349999
 10
-2.047246651500174
 20
-2.607201394599985
 10
-1.868655592500188
 20
-2.738014962199986
 10
-1.681668119600189
 20
-2.856660942799992
 10
-1.486603844800171
 20
-2.962789362099996
 10
-1.284984018000201
 20
-3.055732410999997
 10
-1.078639899900209
 20
-3.134607564099967
 10
-0.8669610704001653
 20
-3.199708996399993
  0
LWPOLYLINE
  5
230EF
330
1F
100
AcDbEntity
  8
1
100
AcDbPolyline
 90
       11
 70
     0
 43
0.0
 10
-3.460825773700193
 20
-0.1716725590999779
 10
-3.4644918318002
 20
0.060078389500017
 10
-3.452722623300175
 20
0.2909332456999998
 10
-3.425417878600214
 20
0.5216050885000067
 10
-3.382878406700214
 20
0.7499546807000109
 10
-3.325286396700207
 20
0.9742216443000122
 10
-3.252897439300213
 20
1.193982480500022
 10
-3.165821000700177
 20
1.408622420600019
 10
-3.064677644500178
 20
1.616954896199993
 10
-2.950206554900191
 20
1.817414479500012
 10
-2.822161337100212
 20
2.010522979700009
  0
LWPOLYLINE
  5
230F0
330
1F
100
AcDbEntity
  8
1
100
AcDbPolyline
 90
       25
 70
     0
 43
0.0
 10
-2.822161337100212
 20
2.010522979700009
 10
-2.778336281800179
 20
2.08002324870001
 10
-2.742992000000171
 20
2.153784720000015
 10
-2.715885058300202
 20
2.232603097800001
 10
-2.697745756600153
 20
2.314091269699996
 10
-2.689272676000186
 20
2.396259503500015
 10
-2.69031754020021
 20
2.478711363000011
 10
-2.701034055200166
 20
2.560665118200017
 10
-2.721214855800198
 20
2.641286918100018
 10
-2.75108651400022
 20
2.720222891000001
 10
-2.789500923500199
 20
2.795251367900003
 10
-2.835452745500205
 20
2.863986489000021
 10
-2.888740249300198
 20
2.926566955500002
 10
-2.948997588300228
 20
2.982465479500016
 10
-3.015711771000197
 20
3.031294167900011
 10
-3.089028263600183
 20
3.072857636800002
 10
-3.166605847400191
 20
3.106051070399995
 10
-3.246271251500203
 20
3.129633448600013
 10
-3.327666098800178
 20
3.143818000700017
 10
-3.40996926230018
 20
3.148364756100002
 10
-3.492395720000203
 20
3.143392294200008
 10
-3.574563034500201
 20
3.128733537200002
 10
-3.654442324500208
 20
3.105005487099997
 10
-3.729607684500177
 20
3.072839616899993
 10
-3.800867749500169
 20
3.032025435600001
  0
LWPOLYLINE
  5
230F1
330
1F
100
AcDbEntity
  8
1
100
AcDbPolyline
 90
       11
 70
     0
 43
0.0
 10
-2.699992762400184
 20
1.923489426799998
 10
-2.822581212700171
 20
1.738405875400001
 10
-2.932150216700208
 20
1.546359407600004
 10
-3.028932382700176
 20
1.346846256999989
 10
-3.112229885700158
 20
1.141377723200019
 10
-3.181453309300181
 20
0.9311039170000119
 10
-3.236510035300212
 20
0.7166046383000087
 10
-3.277165983800201
 20
0.4982920073000054
 10
-3.303256123000195
 20
0.2778191743999905
 10
-3.314507012200223
 20
0.0572004792000307
 10
-3.311009798300216
 20
-0.1642355249999703
  0
LWPOLYLINE
  5
230F2
330
1F
100
AcDbEntity
  8
1
100
AcDbPolyline
 90
       11
 70
     0
 43
0.0
 10
-1.232724293500197
 20
3.238391162799993
 10
-1.013448912900213
 20
3.313492774200008
 10
-0.7902560092002063
 20
3.373637666399996
 10
-0.5624364194002141
 20
3.418950830700008
 10
-0.3321176324002266
 20
3.449057293200023
 10
-0.1010301651001981
 20
3.463586339800013
 10
0.1303442286998262
 20
3.462650183200008
 10
0.3613870422997962
 20
3.446162957899995
 10
0.590778016999778
 20
3.414348185400008
 10
0.8167999215998094
 20
3.367425127800013
 10
1.040025166699775
 20
3.305320697600006
  0
LWPOLYLINE
  5
230F7
330
1F
100
AcDbEntity
  8
1
100
AcDbPolyline
 90
       25
 70
     0
 43
0.0
 10
1.040025166699775
 20
3.305320697600006
 10
1.119666537099831
 20
3.285117357500023
 10
1.20073984859978
 20
3.274296496200018
 10
1.28407708599981
 20
3.272872480900029
 10
1.367182295299826
 20
3.280802209800024
 10
1.447947255199792
 20
3.2981352119
 10
1.52604075239982
 20
3.324607962600008
 10
1.600671819999788
 20
3.360125077200006
 10
1.671111497599794
 20
3.404231665299997
 10
1.736953218899784
 20
3.457033857700007
 10
1.796438835399793
 20
3.516753206700013
 10
1.847609926299766
 20
3.581696307100011
 10
1.890660742499803
 20
3.651714162600011
 10
1.925202856199813
 20
3.726295891400023
 10
1.951025882299816
 20
3.804833744300008
 10
1.967899047999835
 20
3.887405690700017
 10
1.975495087399804
 20
3.971443692600001
 10
1.973305298099788
 20
4.054497350200005
 10
1.96164321769983
 20
4.136291718000006
 10
1.940534362699807
 20
4.215971702900001
 10
1.910334094099837
 20
4.292827347600006
 10
1.871001692999826
 20
4.366443300700023
 10
1.823750916199813
 20
4.435080651200006
 10
1.769931970799816
 20
4.496627367599995
 10
1.709094787699839
 20
4.551787460300015
  0
LWPOLYLINE
  5
230F8
330
1F
100
AcDbEntity
  8
1
100
AcDbPolyline
 90
       11
 70
     0
 43
0.0
 10
0.9950035050997739
 20
3.162236631500018
 10
0.7811000473997895
 20
3.221631317799997
 10
0.5645969468997834
 20
3.266492233700017
 10
0.3449432475997725
 20
3.296884973100001
 10
0.1237918178997717
 20
3.312612754299987
 10
-0.097581510400218
 20
3.313470328600014
 10
-0.3185965826001933
 20
3.299548690499998
 10
-0.5387891551002184
 20
3.270752449299986
 10
-0.7565356632001539
 20
3.227435512099996
 10
-0.9698355052001799
 20
3.16996025269999
 10
-1.179355548400208
 20
3.098205879800001
  0
LWPOLYLINE
  5
230F9
330
1F
100
AcDbEntity
  8
1
100
AcDbPolyline
 90
       25
 70
     0
 43
0.0
 10
3.464932238899803
 20
0.0322775559000199
 10
3.470328257499843
 20
-0.0497090633999911
 10
3.485090037799821
 20
-0.1301581940999945
 10
3.509488341199825
 20
-0.2098566610999804
 10
3.542710883399834
 20
-0.2864439902999898
 10
3.584153292799796
 20
-0.3578998387999839
 10
3.633462592299805
 20
-0.4239906376999907
 10
3.690303643299798
 20
-0.483993608200013
 10
3.754018558599808
 20
-0.5373560367999808
 10
3.824582638499819
 20
-0.5836584599000112
 10
3.899761181099805
 20
-0.6217783492999907
 10
3.977338476999776
 20
-0.6503764268999995
 10
4.057232848899801
 20
-0.6696834788999873
 10
4.138838388699823
 20
-0.6794879594999835
 10
4.221512079699792
 20
-0.6797775852999913
 10
4.305256762899785
 20
-0.6703087845999855
 10
4.387528958099792
 20
-0.6515638764000081
 10
4.465840999199784
 20
-0.6238162708999832
 10
4.540028285599773
 20
-0.5874491231999919
 10
4.609285460399759
 20
-0.5427509389999905
 10
4.673047126499808
 20
-0.4902790758999809
 10
4.730905676299768
 20
-0.4301231627999762
 10
4.781582385399768
 20
-0.3639748911999909
 10
4.82348583589983
 20
-0.2937710251999768
 10
4.85714650049978
 20
-0.218865976799993
  0
LWPOLYLINE
  5
230FA
330
1F
100
AcDbEntity
  8
1
100
AcDbPolyline
 90
       11
 70
     0
 43
0.0
 10
3.314938746599821
 20
0.0308802921000044
 10
3.305325498199818
 20
0.2526718298000041
 10
3.281086594799787
 20
0.4724438312000069
 10
3.242114111899823
 20
0.6907405797000017
 10
3.188731823499793
 20
0.905929224900017
 10
3.121138904899808
 20
1.116732846500024
 10
3.039601228499818
 20
1.322627938400028
 10
2.944171821399791
 20
1.523143269799998
 10
2.835688394499768
 20
1.716845094500009
 10
2.715113258199791
 20
1.90194373670003
 10
2.5821256422998
 20
2.079035755100004
  0
LWPOLYLINE
  5
230FB
330
1F
100
AcDbEntity
  8
1
100
AcDbPolyline
 90
       11
 70
     0
 43
0.0
 10
2.698961984199812
 20
2.173105593099998
 10
2.838146533299791
 20
1.987771669500016
 10
2.964317460699831
 20
1.794089380199985
 10
3.077812910399771
 20
1.591422708800005
 10
3.177618449999798
 20
1.381679704800017
 10
3.262846365799771
 20
1.166392195300014
 10
3.333454645999792
 20
0.9460528307000224
 10
3.389170504599816
 20
0.7212233153000051
 10
3.429798549899786
 20
0.4932283142999945
 10
3.455016671299816
 20
0.2637687154000154
 10
3.464932238899803
 20
0.0322775559000199
  0
LWPOLYLINE
  5
230FC
330
1F
100
AcDbEntity
  8
1
100
AcDbPolyline
 90
       11
 70
     0
 43
0.0
 10
2.900773451099794
 20
-1.895336348499984
 10
2.76751957139983
 20
-2.084981649999992
 10
2.622305005899832
 20
-2.26482937919998
 10
2.464629496499767
 20
-2.43539749329999
 10
2.295993817299812
 20
-2.595132120999995
 10
2.117580088799809
 20
-2.742716171499996
 10
1.929844013899824
 20
-2.877957260799991
 10
1.733235504599818
 20
-3.000422373099997
 10
1.528954054499777
 20
-3.109516312699998
 10
1.318517811099764
 20
-3.204407103799996
 10
1.10142072539976
 20
-3.285372071499993
  0
LWPOLYLINE
  5
230FD
330
1F
100
AcDbEntity
  8
1
100
AcDbPolyline
 90
       25
 70
     0
 43
0.0
 10
1.10142072539976
 20
-3.285372071499993
 10
1.025114277999833
 20
-3.315839249000008
 10
0.9531642484997886
 20
-3.354738685099977
 10
0.8849059920998028
 20
-3.402571031599978
 10
0.8223334432997971
 20
-3.45783433339999
 10
0.7671813012998002
 20
-3.519329478899993
 10
0.7195626273998103
 20
-3.586648589900011
 10
0.6800612616998052
 20
-3.659249579999982
 10
0.6489995674998143
 20
-3.736335963000005
 10
0.6267688460997789
 20
-3.817754626699997
 10
0.6137461239997748
 20
-3.901033363099987
 10
0.6105204385998066
 20
-3.983651047599995
 10
0.6168470595998345
 20
-4.065601317499971
 10
0.6327399428997893
 20
-4.146242548699991
 10
0.6580120676998292
 20
-4.224959400299997
 10
0.6928959623998168
 20
-4.301679306200004
 10
0.7361469355997912
 20
-4.374132317899992
 10
0.7867362275997749
 20
-4.440037012599976
 10
0.844248571999813
 20
-4.499355247299991
 10
0.9081607146997754
 20
-4.55141023559999
 10
0.9777678597997834
 20
-4.595836485899996
 10
1.052858811799822
 20
-4.632274037599971
 10
1.131429516299774
 20
-4.660029510899978
 10
1.211146213799807
 20
-4.67818786859998
 10
1.292786824099791
 20
-4.687054122999985
  0
LWPOLYLINE
  5
230FE
330
1F
100
AcDbEntity
  8
1
100
AcDbPolyline
 90
       11
 70
     0
 43
0.0
 10
1.053741311399803
 20
-3.143151561100001
 10
1.261706940899797
 20
-3.06547146429999
 10
1.46323230129981
 20
-2.974505614199973
 10
1.658801686399796
 20
-2.869983175399981
 10
1.846962214999803
 20
-2.752716653999998
 10
2.026561012399795
 20
-2.623290066799984
 10
2.197182353499798
 20
-2.482118045899984
 10
2.358394457999806
 20
-2.329396640699982
 10
2.509092617999796
 20
-2.166365615299995
 10
2.647872119799798
 20
-1.994493222799991
 10
2.775201201199777
 20
-1.813290045399998
  0
LINE
  5
230FF
330
1F
100
AcDbEntity
  8
1
100
AcDbLine
 10
0.5775668233998346
 20
5.452122057999996
 30
0.0
 11
0.9563707014998071
 21
5.154000647700011
 31
0.0
  0
LINE
  5
23100
330
1F
100
AcDbEntity
  8
1
100
AcDbLine
 10
0.9563707014998071
 20
5.154000647700011
 30
0.0
 11
1.333458211699805
 21
4.853965683000023
 31
0.0
  0
LINE
  5
23101
330
1F
100
AcDbEntity
  8
1
100
AcDbLine
 10
1.333458211699805
 20
4.853965683000023
 30
0.0
 11
1.709062859999803
 21
4.551831420199999
 31
0.0
  0
LWPOLYLINE
  5
23102
330
1F
100
AcDbEntity
  8
1
100
AcDbPolyline
 90
        7
 70
     0
 43
0.0
 10
3.561304644199779
 20
3.012077382400017
 10
3.848834667799806
 20
2.76536483030001
 10
4.135146981499771
 20
2.51761509009999
 10
4.420188026499786
 20
2.268874590099994
 10
4.704118479199806
 20
2.019004045500008
 10
4.987099015999786
 20
1.767864171600004
 10
5.269076078199828
 20
1.515501396600011
  0
LWPOLYLINE
  5
23103
330
1F
100
AcDbEntity
  8
1
100
AcDbPolyline
 90
       25
 70
     0
 43
0.0
 10
1.803180554399786
 20
4.668617592599995
 10
1.876811208999768
 20
4.601478873100016
 10
1.941971739299802
 20
4.526548515500006
 10
1.999256066199803
 20
4.442841496400016
 10
2.046882426799824
 20
4.353312885600001
 10
2.083185062499821
 20
4.260538163300008
 10
2.108409881399794
 20
4.164671075200015
 10
2.122255111999789
 20
4.066447444900017
 10
2.124698033799758
 20
3.966696519600002
 10
2.115425590599798
 20
3.865439330500016
 10
2.095007018099764
 20
3.765836349100008
 10
2.063806055699799
 20
3.671083856500001
 10
2.022126136799796
 20
3.581095454700015
 10
1.970242844799784
 20
3.496664618000021
 10
1.908603468099794
 20
3.418348010400006
 10
1.836918984499803
 20
3.346258352000017
 10
1.757673910099823
 20
3.282520949700006
 10
1.67318626609979
 20
3.229381996799997
 10
1.583666515199823
 20
3.186591554299988
 10
1.489847585599775
 20
3.154600596000005
 10
1.392480102099807
 20
3.133552576200013
 10
1.291525586799832
 20
3.123727824700021
 10
1.190084276599817
 20
3.125166688400024
 10
1.0916295090998
 20
3.138019681100001
 10
0.9950035050997739
 20
3.162236631500018
  0
LINE
  5
23104
330
1F
100
AcDbEntity
  8
1
100
AcDbLine
 10
5.36375416829982
 20
1.135499662299999
 30
0.0
 11
5.197280747499816
 21
0.6831113271000043
 31
0.0
  0
LINE
  5
23105
330
1F
100
AcDbEntity
  8
1
100
AcDbLine
 10
5.197280747499816
 20
0.6831113271000043
 30
0.0
 11
5.028456990299797
 21
0.2317638948000074
 31
0.0
  0
LINE
  5
23106
330
1F
100
AcDbEntity
  8
1
100
AcDbLine
 10
5.028456990299797
 20
0.2317638948000074
 30
0.0
 11
4.857178405799813
 21
-0.2188220952000002
 31
0.0
  0
LWPOLYLINE
  5
23107
330
1F
100
AcDbEntity
  8
1
100
AcDbPolyline
 90
        7
 70
     0
 43
0.0
 10
3.069352770699836
 20
-4.543263677399995
 10
3.222367874499767
 20
-4.196859283200002
 10
3.373854116399812
 20
-3.849975728399971
 10
3.523795792599812
 20
-3.502648697200005
 10
3.672240014899798
 20
-3.154771137400008
 10
3.819233895099798
 20
-2.806235996699983
 10
3.964761729199792
 20
-2.457078959099975
  0
LWPOLYLINE
  5
23108
330
1F
100
AcDbEntity
  8
1
100
AcDbPolyline
 90
       25
 70
     0
 43
0.0
 10
4.997307348899781
 20
-0.2723140655000016
 10
4.956206041899818
 20
-0.3630812523000095
 10
4.905078930599771
 20
-0.4481987120999982
 10
4.843173833799781
 20
-0.5285343582999822
 10
4.772747295299794
 20
-0.6014844500999921
 10
4.695729928699804
 20
-0.6646735444999941
 10
4.612347343799811
 20
-0.7182846614999967
 10
4.523207013599757
 20
-0.7618018484999887
 10
4.429093962499806
 20
-0.7949465808999783
 10
4.329937064799834
 20
-0.8174127341999799
 10
4.228912244299817
 20
-0.8287671557999836
 10
4.129169158399818
 20
-0.8283701692999905
 10
4.030715480499805
 20
-0.8165352214999932
 10
3.934385236099798
 20
-0.7932783275999961
 10
3.840849026399794
 20
-0.7588521058999797
 10
3.750123669399798
 20
-0.7129443770999906
 10
3.665004540499821
 20
-0.6572655490000054
 10
3.588350474099812
 20
-0.5933287838999953
 10
3.519987911599812
 20
-0.5214136383999808
 10
3.460574881199832
 20
-0.442082690899998
 10
3.410475458099782
 20
-0.3560000389999978
 10
3.369941353299806
 20
-0.2630423403999949
 10
3.339967687599781
 20
-0.1661344933999835
 10
3.32176836339984
 20
-0.0685207556999963
 10
3.314938746599821
 20
0.0308802921000044
  0
LWPOLYLINE
  5
23109
330
1F
100
AcDbEntity
  8
1
100
AcDbPolyline
 90
       11
 70
     0
 43
0.0
 10
0.5775183379997914
 20
5.452142092999999
 10
0.5431617275998093
 20
5.475850479500006
 10
0.5067261119998108
 20
5.495105009800007
 10
0.4679227872998271
 20
5.510002056100017
 10
0.4276178652998084
 20
5.520252502099999
 10
0.3863859285998075
 20
5.525587596500011
 10
0.3448128600998217
 20
5.526042615700003
 10
0.3034637918998015
 20
5.52149521170001
 10
0.2629755594997647
 20
5.512149505900006
 10
0.2242765276998426
 20
5.498189254399999
 10
0.1870572413997848
 20
5.4795532051
  0
LINE
  5
2310A
330
1F
100
AcDbEntity
  8
1
100
AcDbLine
 10
0.6704466747998055
 20
5.56990438730001
 30
0.0
 11
1.043752210199798
 21
5.276060347900006
 31
0.0
  0
LINE
  5
2310B
330
1F
100
AcDbEntity
  8
1
100
AcDbLine
 10
1.043752210199798
 20
5.276060347900006
 30
0.0
 11
1.421488115299793
 21
4.975541509600001
 31
0.0
  0
LINE
  5
2310C
330
1F
100
AcDbEntity
  8
1
100
AcDbLine
 10
1.421488115299793
 20
4.975541509600001
 30
0.0
 11
1.803186035599779
 21
4.668624481400011
 31
0.0
  0
LWPOLYLINE
  5
2310D
330
1F
100
AcDbEntity
  8
1
100
AcDbPolyline
 90
        7
 70
     0
 43
0.0
 10
3.659502997999779
 20
3.125434244100016
 10
3.352977715199827
 20
3.386092722700007
 10
3.045315642599816
 20
3.645360616300006
 10
2.73652421109979
 20
3.903232221500001
 10
2.426581127499801
 20
4.159724648300008
 10
2.115464098199836
 20
4.414855006399998
 10
1.803180554399786
 20
4.668617592599995
  0
LWPOLYLINE
  5
2310E
330
1F
100
AcDbEntity
  8
1
100
AcDbPolyline
 90
        7
 70
     0
 43
0.0
 10
3.660169481199787
 20
3.124893338700001
 10
3.947276871499767
 20
2.878547399400001
 10
4.23352790249983
 20
2.630849110199998
 10
4.519001596799808
 20
2.381729799700003
 10
4.803460886899824
 20
2.131395482200002
 10
5.08666870519984
 20
1.880052172000016
 10
5.368704074299795
 20
1.627631197799995
  0
LWPOLYLINE
  5
2310F
330
1F
100
AcDbEntity
  8
1
100
AcDbPolyline
 90
       11
 70
     0
 43
0.0
 10
5.368704074299795
 20
1.627631197799995
 10
5.408594669799825
 20
1.587105788099996
 10
5.444088474999786
 20
1.541010693200018
 10
5.4746256361998
 20
1.4895025512
 10
5.499223133799786
 20
1.433812287300025
 10
5.517359966499793
 20
1.375302313600009
 10
5.528766972999804
 20
1.31516243210002
 10
5.533142144099841
 20
1.254569030200012
 10
5.530329890199836
 20
1.194968479200024
 10
5.520648632299823
 20
1.137901429399999
 10
5.504543740099803
 20
1.083750809700017
  0
LWPOLYLINE
  5
23110
330
1F
100
AcDbEntity
  8
1
100
AcDbPolyline
 90
       11
 70
     0
 43
0.0
 10
5.363763198899802
 20
1.135565412300004
 10
5.375374001299761
 20
1.17412620790001
 10
5.382216805599808
 20
1.214040512299998
 10
5.384347186599836
 20
1.255728644299987
 10
5.381598419899788
 20
1.297929647500023
 10
5.373695333799797
 20
1.339816279699999
 10
5.361018844699813
 20
1.380507717599993
 10
5.343646723299811
 20
1.419047582900001
 10
5.322213235099823
 20
1.454835298700015
 10
5.297461092399784
 20
1.486836574000004
 10
5.269142724499785
 20
1.515396172600001
  0
LINE
  5
23111
330
1F
100
AcDbEntity
  8
1
100
AcDbLine
 10
5.504543740099803
 20
1.083750809700017
 30
0.0
 11
5.340308016799792
 21
0.6375613942000307
 31
0.0
  0
LINE
  5
23112
330
1F
100
AcDbEntity
  8
1
100
AcDbLine
 10
5.340308016799792
 20
0.6375613942000307
 30
0.0
 11
5.171461177199788
 21
0.1860786430000125
 31
0.0
  0
LINE
  5
23113
330
1F
100
AcDbEntity
  8
1
100
AcDbLine
 10
5.171461177199788
 20
0.1860786430000125
 30
0.0
 11
4.997315597599778
 21
-0.2723171507999957
 31
0.0
  0
LWPOLYLINE
  5
23114
330
1F
100
AcDbEntity
  8
1
100
AcDbPolyline
 90
        7
 70
     0
 43
0.0
 10
4.103313220399812
 20
-2.514581879299996
 10
4.256486642699838
 20
-2.142525790499989
 10
4.407986540399761
 20
-1.769817914199979
 10
4.557809384599821
 20
-1.396467904599989
 10
4.705965762099777
 20
-1.022446798899995
 10
4.852466259899768
 20
-0.6477256344999951
 10
4.997307348899781
 20
-0.2723140655000016
  0
LWPOLYLINE
  5
23115
330
1F
100
AcDbEntity
  8
1
100
AcDbPolyline
 90
        7
 70
     0
 43
0.0
 10
4.103004745399758
 20
-2.51538288869999
 10
3.957436900099778
 20
-2.864563316799991
 10
3.810318264499768
 20
-3.21334719759999
 10
3.661615732499808
 20
-3.561812768900001
 10
3.511428622799783
 20
-3.909725316799995
 10
3.359856254599788
 20
-4.256850126999996
 10
3.206865521399791
 20
-4.603265437599977
  0
LWPOLYLINE
  5
23116
330
1F
100
AcDbEntity
  8
1
100
AcDbPolyline
 90
       11
 70
     0
 43
0.0
 10
3.206865521399791
 20
-4.603265437599977
 10
3.180670337599805
 20
-4.653691240299981
 10
3.147833069699812
 20
-4.701645572699976
 10
3.108331300099806
 20
-4.746548764099987
 10
3.063021706999803
 20
-4.787098311099999
 10
3.013024819999841
 20
-4.822387014000002
 10
2.959387034899819
 20
-4.851789449399991
 10
2.903134629299826
 20
-4.874653831699972
 10
2.845578959299828
 20
-4.890389066
 10
2.788267427499831
 20
-4.898817836199999
 10
2.731705831299805
 20
-4.90023477499999
  0
LINE
  5
23117
330
1F
100
AcDbEntity
  8
1
100
AcDbLine
 10
1.761731589999794
 20
5.827417949000003
 30
0.0
 11
0.4205775814998134
 21
6.718478543099999
 31
0.0
  0
LINE
  5
23118
330
1F
100
AcDbEntity
  8
1
100
AcDbLine
 10
4.997798816199818
 20
3.476277482799996
 30
0.0
 11
1.761731589999794
 21
5.827417949000003
 31
0.0
  0
LINE
  5
23119
330
1F
100
AcDbEntity
  8
1
100
AcDbLine
 10
6.259687180799815
 20
2.47611708810002
 30
0.0
 11
4.997798816199818
 21
3.476277482799996
 31
0.0
  0
LINE
  5
2311A
330
1F
100
AcDbEntity
  8
1
100
AcDbLine
 10
6.086608814399781
 20
0.1252648709000077
 30
0.0
 11
6.519618418099768
 21
1.67613099670002
 31
0.0
  0
LINE
  5
2311B
330
1F
100
AcDbEntity
  8
1
100
AcDbLine
 10
4.850541121099766
 20
-3.678960311899988
 30
0.0
 11
6.086608814399781
 21
0.1252648709000077
 31
0.0
  0
LINE
  5
2311C
330
1F
100
AcDbEntity
  8
1
100
AcDbLine
 10
4.289277010099808
 20
-5.188154022999999
 30
0.0
 11
4.850541121099766
 21
-3.678960311899988
 31
0.0
  0
LWPOLYLINE
  5
2311D
330
1F
100
AcDbEntity
  8
SKVIEW1
100
AcDbPolyline
 90
       17
 70
     0
 43
0.0
 10
50.32415316699982
 20
-5.682572613200012
 10
50.30679974109979
 20
-5.686770902799981
 10
50.28984097609978
 20
-5.690975008899997
 10
50.2732713257998
 20
-5.695185782499994
 10
50.25710742869978
 20
-5.699400671099982
 10
50.24135900859977
 20
-5.70361798079999
 10
50.22604126269984
 20
-5.707835986599992
 10
50.2111679256998
 20
-5.712052633999991
 10
50.19675310839978
 20
-5.716267217599995
 10
50.18281563099982
 20
-5.720477388299982
 10
50.16935510039981
 20
-5.724686023199994
 10
50.15637482849982
 20
-5.728894598200002
 10
50.14388251979979
 20
-5.733104968499976
 10
50.13187974359977
 20
-5.737318870099972
 10
50.12038821679984
 20
-5.741538136399999
 10
50.10943295969982
 20
-5.745765480799992
 10
50.09900563219975
 20
-5.749999998799996
  0
LWPOLYLINE
  5
2311E
330
1F
100
AcDbEntity
  8
SKVIEW1
100
AcDbPolyline
 90
       17
 70
     0
 43
0.0
 10
45.06902478979982
 20
-5.749999998799996
 10
45.05549860919979
 20
-5.746112066500008
 10
45.04254838429979
 20
-5.742218816799995
 10
45.03015292689982
 20
-5.738319884299973
 10
45.01837580169978
 20
-5.734416365299995
 10
45.00725561139979
 20
-5.730508390499992
 10
44.99684605409981
 20
-5.726598491399997
 10
44.98721311259977
 20
-5.722688695599987
 10
44.97835853589982
 20
-5.718780646199991
 10
44.97031245469975
 20
-5.714877358599995
 10
44.96305570649981
 20
-5.710976744299973
 10
44.95658003619981
 20
-5.707078729700002
 10
44.95088285199979
 20
-5.703180285899992
 10
44.94596307309978
 20
-5.699279043000007
 10
44.94180791159982
 20
-5.695372950699994
 10
44.93840257599977
 20
-5.691458814199978
 10
44.93575199659979
 20
-5.687537698399995
  0
LINE
  5
2311F
330
1F
100
AcDbEntity
  8
SKVIEW1
100
AcDbLine
 10
45.06902478979982
 20
-5.749999998799996
 30
0.0
 11
50.09900563219975
 21
-5.749999998799996
 31
0.0
  0
LINE
  5
23120
330
1F
100
AcDbEntity
  8
SKVIEW1
100
AcDbLine
 10
50.13584307099979
 20
-5.750000000599999
 30
0.0
 11
50.31428187889982
 21
-5.750000001199982
 31
0.0
  0
LWPOLYLINE
  5
23121
330
1F
100
AcDbEntity
  8
SKVIEW1
100
AcDbPolyline
 90
        5
 70
     0
 43
0.0
 10
44.93575199659979
 20
-5.687537698399995
 10
44.93509683649977
 20
-5.686359608699992
 10
44.93435489709979
 20
-5.685139398000007
 10
44.93352617849978
 20
-5.683877066099982
 10
44.93261068079978
 20
-5.682572613200012
  0
LINE
  5
23122
330
1F
100
AcDbEntity
  8
SKVIEW1
100
AcDbLine
 10
45.28430197789977
 20
-3.678960306899984
 30
0.0
 11
50.31428311139979
 21
-3.678960306899984
 31
0.0
  0
LWPOLYLINE
  5
23123
330
1F
100
AcDbEntity
  8
SKVIEW1
100
AcDbPolyline
 90
        4
 70
     0
 43
0.0
 10
44.93261068079978
 20
-5.682572613200012
 10
44.93220353409983
 20
-5.677234944700007
 10
44.9347957774998
 20
-5.666084847499991
 10
44.94061029339981
 20
-5.64845125039999
  0
LWPOLYLINE
  5
23124
330
1F
100
AcDbEntity
  8
SKVIEW1
100
AcDbPolyline
 90
       17
 70
     0
 43
0.0
 10
45.06902492229978
 20
3.476277482799996
 10
45.05549913569979
 20
3.418608872600013
 10
45.04254945889978
 20
3.360862414400012
 10
45.03015477279979
 20
3.303032966400007
 10
45.01837843429981
 20
3.245135954300006
 10
45.00725887839981
 20
3.187172742200015
 10
44.99684975149977
 20
3.129180373500001
 10
44.98721691029977
 20
3.071188310999996
 10
44.97836215819979
 20
3.013220660400018
 10
44.97031558459982
 20
2.955321421600028
 10
44.96305818839984
 20
2.897460375399997
 10
44.95658184249982
 20
2.839636753000018
 10
44.95088401389979
 20
2.781806201700003
 10
44.94596372429983
 20
2.723934054600002
 10
44.94180818329978
 20
2.665990485199994
 10
44.93840263469981
 20
2.607928938600005
 10
44.93575199719977
 20
2.54976493320002
  0
LWPOLYLINE
  5
23125
330
1F
100
AcDbEntity
  8
SKVIEW1
100
AcDbPolyline
 90
        3
 70
     0
 43
0.0
 10
45.18144571569981
 20
3.861803025000011
 10
45.11403871539978
 20
3.632100942500026
 10
45.06902492229978
 20
3.476277482799996
  0
LWPOLYLINE
  5
23126
330
1F
100
AcDbEntity
  8
SKVIEW1
100
AcDbPolyline
 90
        3
 70
     0
 43
0.0
 10
44.93575389299981
 20
1.56195832269999
 10
44.93509829419982
 20
1.589087384200023
 10
44.93262294519982
 20
1.676131004500014
  0
LWPOLYLINE
  5
23127
330
1F
100
AcDbEntity
  8
SKVIEW1
100
AcDbPolyline
 90
       12
 70
     0
 43
0.0
 10
44.93262294519982
 20
1.676131004500014
 10
44.93222177149977
 20
1.737704353000008
 10
44.93473504129975
 20
1.802410161800008
 10
44.94035384509976
 20
1.870211109900008
 10
44.94850491169979
 20
1.939521371600005
 10
44.95885268849978
 20
2.008769136400001
 10
44.97087511089978
 20
2.077446018699998
 10
44.98412415329979
 20
2.144750087200018
 10
44.99804214589985
 20
2.209953403899997
 10
45.01216842509979
 20
2.272554949100008
 10
45.02576394669978
 20
2.331244930200009
 10
45.05113657559981
 20
2.444616254600003
  0
LWPOLYLINE
  5
23128
330
1F
100
AcDbEntity
  8
SKVIEW1
100
AcDbPolyline
 90
        8
 70
     0
 43
0.0
 10
44.93262162239978
 20
-5.188154022999999
 10
44.93222029029977
 20
-5.246465749999988
 10
44.93473336809978
 20
-5.3044052897
 10
44.94035189459983
 20
-5.361581151500008
 10
44.94850275329982
 20
-5.416346756799999
 10
44.95885054079979
 20
-5.467310965299977
 10
44.97087315699975
 20
-5.514021103399971
 10
44.97805281929983
 20
-5.536692820199972
  0
LWPOLYLINE
  5
23129
330
1F
100
AcDbEntity
  8
SKVIEW1
100
AcDbPolyline
 90
        8
 70
     0
 43
0.0
 10
44.93262047379977
 20
2.47611708810002
 10
44.93221928679981
 20
2.4348017763
 10
44.93473259279979
 20
2.388045429900028
 10
44.94035147569981
 20
2.335516942000008
 10
44.9485026838998
 20
2.2781358241
 10
44.95885068559978
 20
2.217054329900019
 10
44.9708734054998
 20
2.152642469399987
 10
44.97828905409979
 20
2.115108253499993
  0
LINE
  5
2312A
330
1F
100
AcDbEntity
  8
SKVIEW1
100
AcDbLine
 10
44.93575199719977
 20
2.54976493320002
 30
0.0
 11
44.93435564739981
 21
2.514153395800017
 31
0.0
  0
LINE
  5
2312B
330
1F
100
AcDbEntity
  8
SKVIEW1
100
AcDbLine
 10
44.93435564739981
 20
2.514153395800017
 30
0.0
 11
44.93262047379977
 21
2.47611708810002
 31
0.0
  0
LWPOLYLINE
  5
2312C
330
1F
100
AcDbEntity
  8
SKVIEW1
100
AcDbPolyline
 90
       12
 70
     0
 43
0.0
 10
45.34457587479979
 20
4.651847863700009
 10
45.34154687709981
 20
4.622191335299997
 10
45.33207386129977
 20
4.545803991600005
 10
45.32092940819977
 20
4.469484858200001
 10
45.30824867669982
 20
4.393334081100003
 10
45.29417431969979
 20
4.317443654000026
 10
45.27865134439982
 20
4.241591024500007
 10
45.26161300779977
 20
4.1655049431
 10
45.24323721379977
 20
4.089423494499991
 10
45.22360114449976
 20
4.013563791700001
 10
45.20294022179981
 20
3.937717500099985
 10
45.18144571569981
 20
3.861803025000011
  0
LWPOLYLINE
  5
2312D
330
1F
100
AcDbEntity
  8
SKVIEW1
100
AcDbPolyline
 90
       27
 70
     0
 43
0.0
 10
45.28430121429983
 20
3.476277488200008
 10
45.30016063789974
 20
3.565585917300023
 10
45.31415038179979
 20
3.652333750900008
 10
45.32622147929983
 20
3.736263662200013
 10
45.3365208306998
 20
3.818147632000016
 10
45.34517846789976
 20
3.898482115800002
 10
45.35219603019982
 20
3.977836362000015
 10
45.35763449029981
 20
4.056959646400009
 10
45.36144588009979
 20
4.135808341999998
 10
45.36360387539976
 20
4.214646814600008
 10
45.36410451699977
 20
4.293300362299997
 10
45.36293577359978
 20
4.371702734600017
 10
45.36009553719977
 20
4.449792943000017
 10
45.35556999099982
 20
4.527502866799988
 10
45.34938222949977
 20
4.604787651700018
 10
45.34154834629977
 20
4.681491147400018
 10
45.33207552769984
 20
4.75787912170001
 10
45.32093127769981
 20
4.834198625999999
 10
45.30825073669979
 20
4.910349659000001
 10
45.2941765473998
 20
4.986240375499998
 10
45.27865370659982
 20
5.062093358500002
 10
45.26161547089983
 20
5.138179923200008
 10
45.24323970319978
 20
5.214262027699994
 10
45.22360353449978
 20
5.290122651500023
 10
45.20294241619978
 20
5.365970046400016
 10
45.18144762129977
 20
5.441885773200008
 10
45.11403945609977
 20
5.671591974299994
  0
LWPOLYLINE
  5
2312E
330
1F
100
AcDbEntity
  8
SKVIEW1
100
AcDbPolyline
 90
        4
 70
     0
 43
0.0
 10
45.05113657559981
 20
2.444616254600003
 10
45.05369884849979
 20
2.455416969700007
 10
45.05637173849978
 20
2.465917958700014
 10
45.05915524569981
 20
2.476117095599998
  0
LWPOLYLINE
  5
2312F
330
1F
100
AcDbEntity
  8
SKVIEW1
100
AcDbPolyline
 90
       17
 70
     0
 43
0.0
 10
45.05915524569981
 20
2.476117095599998
 10
45.0765033999998
 20
2.538372400500017
 10
45.09345637009977
 20
2.600710811500003
 10
45.1100192433998
 20
2.663143189600003
 10
45.12617675739979
 20
2.725636951700021
 10
45.14192031639983
 20
2.788170994400001
 10
45.15723500789976
 20
2.850721738200017
 10
45.17210788019982
 20
2.913262206199998
 10
45.18652445599982
 20
2.975781487300006
 10
45.20046627709979
 20
3.038247389000002
 10
45.21393233429979
 20
3.100696779200017
 10
45.22691813479982
 20
3.163147258300011
 10
45.23941567109978
 20
3.225624436100001
 10
45.25142277609979
 20
3.288151594299998
 10
45.26291743639979
 20
3.350753316800003
 10
45.2738740737998
 20
3.413465991199995
 10
45.28430121429983
 20
3.476277488200008
  0
LINE
  5
23130
330
1F
100
AcDbEntity
  8
SKVIEW1
100
AcDbLine
 10
44.93435572929981
 20
6.684589550500002
 30
0.0
 11
44.9326204740998
 21
6.718478543599996
 31
0.0
  0
LINE
  5
23131
330
1F
100
AcDbEntity
  8
SKVIEW1
100
AcDbLine
 10
44.93575199749979
 20
6.652864374800012
 30
0.0
 11
44.93435572929981
 21
6.684589550500002
 31
0.0
  0
LWPOLYLINE
  5
23132
330
1F
100
AcDbEntity
  8
SKVIEW1
100
AcDbPolyline
 90
        8
 70
     0
 43
0.0
 10
44.9326204740998
 20
6.718478543599996
 10
44.9322192869998
 20
6.751257403100009
 10
44.93473259299982
 20
6.780300862300018
 10
44.94035147589984
 20
6.805012801400021
 10
44.94850268399978
 20
6.824315011500012
 10
44.95885068569982
 20
6.837528537000007
 10
44.9708734054998
 20
6.844429545600017
 10
44.9781014612998
 20
6.845458392800008
  0
LINE
  5
23133
330
1F
100
AcDbEntity
  8
SKVIEW1
100
AcDbLine
 10
44.93575389349978
 20
-5.077049208199998
 30
0.0
 11
44.93435684209983
 21
-5.130774156099978
 31
0.0
  0
LINE
  5
23134
330
1F
100
AcDbEntity
  8
SKVIEW1
100
AcDbLine
 10
44.93435684209983
 20
-5.130774156099978
 30
0.0
 11
44.93262162239978
 21
-5.188154022999999
 31
0.0
  0
LINE
  5
23135
330
1F
100
AcDbEntity
  8
SKVIEW1
100
AcDbLine
 10
45.11403599639983
 20
-0.1268701913000036
 30
0.0
 11
45.06902182979978
 21
0.1252648774000242
 31
0.0
  0
LWPOLYLINE
  5
23136
330
1F
100
AcDbEntity
  8
SKVIEW1
100
AcDbPolyline
 90
       17
 70
     0
 43
0.0
 10
45.06902182979978
 20
0.1252648774000242
 10
45.05549604319981
 20
0.2146895314000226
 10
45.04254637079976
 20
0.304235518899997
 10
45.03015167279977
 20
0.39391097990001
 10
45.01837536899977
 20
0.4836914944000166
 10
45.0072559484998
 20
0.5735746039000098
 10
44.99684706369982
 20
0.6635025631000069
 10
44.98721460509979
 20
0.7534293230000168
 10
44.97836034729978
 20
0.8433173366000055
 10
44.9703143866998
 20
0.933097944299998
 10
44.96305764859978
 20
1.022818435100002
 10
44.95658194689982
 20
1.11248016860001
 10
44.95088471189979
 20
1.20215227340001
 10
44.94596491149981
 20
1.291888799100018
 10
44.94180974649977
 20
1.381736342600001
 10
44.93840443079979
 20
1.471767593800004
 10
44.93575389299981
 20
1.56195832269999
  0
LWPOLYLINE
  5
23137
330
1F
100
AcDbEntity
  8
SKVIEW1
100
AcDbPolyline
 90
       14
 70
     0
 43
0.0
 10
45.34462713359977
 20
-1.777698620999974
 10
45.34301499629977
 20
-1.803720282699985
 10
45.3357565766998
 20
-1.902930086399994
 10
45.32778393919978
 20
-1.998180547499988
 10
45.31922854129978
 20
-2.089388729099983
 10
45.31032238699977
 20
-2.175974407200004
 10
45.30134858349977
 20
-2.256999775199989
 10
45.29228527729983
 20
-2.333454643599981
 10
45.28323912789979
 20
-2.40565372009998
 10
45.27410770319979
 20
-2.474684507199999
 10
45.26485432539978
 20
-2.541500561500003
 10
45.25538839149978
 20
-2.606818428299977
 10
45.24560938889982
 20
-2.671578326299981
 10
45.2355103683998
 20
-2.736062790899996
  0
LWPOLYLINE
  5
23138
330
1F
100
AcDbEntity
  8
SKVIEW1
100
AcDbPolyline
 90
       26
 70
     0
 43
0.0
 10
45.30016029699978
 20
-3.534467337899986
 10
45.31414920339979
 20
-3.394116742799997
 10
45.3262197241998
 20
-3.258325211300006
 10
45.33651877809979
 20
-3.125842674499994
 10
45.34517644569977
 20
-2.995865124600005
 10
45.35219426879979
 20
-2.867471067599996
 10
45.35763319349981
 20
-2.739447102499969
 10
45.3614450879998
 20
-2.611864941999999
 10
45.36360345589982
 20
-2.48429715869999
 10
45.36410433719978
 20
-2.357027771699979
 10
45.3629356191998
 20
-2.230165483299983
 10
45.36009526429979
 20
-2.103808816300003
 10
45.35556948449978
 20
-1.978068415399991
 10
45.34938141859977
 20
-1.853016617099985
 10
45.34154720669977
 20
-1.728906022499973
 10
45.33207405779978
 20
-1.605306482499987
 10
45.32092951559981
 20
-1.481818200500004
 10
45.30824871619979
 20
-1.358602720199985
 10
45.2941743104998
 20
-1.235808390700004
 10
45.27865129739979
 20
-1.113074998600001
 10
45.26161295859977
 20
-0.9899634225999879
 10
45.24323709619979
 20
-0.8668587355000061
 10
45.22360077749985
 20
-0.7441118864000096
 10
45.20293948829976
 20
-0.6213861241999901
 10
45.18144450039978
 20
-0.4985495750999755
 10
45.11403599639983
 20
-0.1268701913000036
  0
LWPOLYLINE
  5
23139
330
1F
100
AcDbEntity
  8
SKVIEW1
100
AcDbPolyline
 90
       17
 70
     0
 43
0.0
 10
45.06903318689978
 20
-3.678960311899988
 10
45.05550753289976
 20
-3.76598102499999
 10
45.04255797149979
 20
-3.853119139499984
 10
45.03016339259978
 20
-3.940382398599997
 10
45.01838712599979
 20
-4.027747572799983
 10
45.00726758809974
 20
-4.115212634399981
 10
44.99685840919979
 20
-4.202721721399981
 10
44.98722542609978
 20
-4.290230416399982
 10
44.97837043549981
 20
-4.377702358899981
 10
44.97032351589981
 20
-4.465071194500001
 10
44.96306565869981
 20
-4.552382487699976
 10
44.95658872809982
 20
-4.639637388699997
 10
44.95089018449976
 20
-4.726902786799985
 10
44.94596904019984
 20
-4.814230963199991
 10
44.9418125037998
 20
-4.901666891699978
 10
44.93840581479981
 20
-4.989280773499971
 10
44.93575389349978
 20
-5.077049208199998
  0
LINE
  5
2313A
330
1F
100
AcDbEntity
  8
SKVIEW1
100
AcDbLine
 10
45.2355103683998
 20
-2.736062790899996
 30
0.0
 11
45.21423091299978
 21
-2.865993245699986
 31
0.0
  0
LINE
  5
2313B
330
1F
100
AcDbEntity
  8
SKVIEW1
100
AcDbLine
 10
45.21423091299978
 20
-2.865993245699986
 30
0.0
 11
45.19194788129978
 21
-2.995721817599973
 31
0.0
  0
LINE
  5
2313C
330
1F
100
AcDbEntity
  8
SKVIEW1
100
AcDbLine
 10
45.10815035359981
 20
-3.459284339199983
 30
0.0
 11
45.06903318689978
 21
-3.678960311899988
 31
0.0
  0
LINE
  5
2313D
330
1F
100
AcDbEntity
  8
SKVIEW1
100
AcDbLine
 10
45.19194788129978
 20
-2.995721817599973
 30
0.0
 11
45.15723055879978
 21
-3.189974229499983
 31
0.0
  0
LINE
  5
2313E
330
1F
100
AcDbEntity
  8
SKVIEW1
100
AcDbLine
 10
45.15723055879978
 20
-3.189974229499983
 30
0.0
 11
45.10815035359981
 21
-3.459284339199983
 31
0.0
  0
LWPOLYLINE
  5
2313F
330
1F
100
AcDbEntity
  8
SKVIEW1
100
AcDbPolyline
 90
        4
 70
     0
 43
0.0
 10
45.04868491979978
 20
-5.248162006999978
 10
45.05113657749979
 20
-5.233291818899988
 10
45.05369885269984
 20
-5.218328241199987
 10
45.05637174529979
 20
-5.203279569500001
  0
LWPOLYLINE
  5
23140
330
1F
100
AcDbEntity
  8
SKVIEW1
100
AcDbPolyline
 90
       13
 70
     0
 43
0.0
 10
45.12617840719982
 20
-4.811631759599992
 10
45.14192247469977
 20
-4.717267869999988
 10
45.15723758979983
 20
-4.622879183499993
 10
45.17211072969979
 20
-4.528506824399999
 10
45.18652740669979
 20
-4.43416744929998
 10
45.20046909949981
 20
-4.339910126999985
 10
45.2139348857998
 20
-4.245678745500002
 10
45.22692031989977
 20
-4.151446567099998
 10
45.23941745079982
 20
-4.057174537999986
 10
45.2514241711998
 20
-3.962827189899986
 10
45.2629185049998
 20
-3.868367027699991
 10
45.27387493909983
 20
-3.773738568699986
 10
45.30016029699978
 20
-3.534467337899986
  0
LINE
  5
23141
330
1F
100
AcDbEntity
  8
SKVIEW1
100
AcDbLine
 10
45.09345697079978
 20
-5.000145119099971
 30
0.0
 11
45.12617840719982
 21
-4.811631759599992
 31
0.0
  0
LINE
  5
23142
330
1F
100
AcDbEntity
  8
SKVIEW1
100
AcDbLine
 10
45.05637174529979
 20
-5.203279569500001
 30
0.0
 11
45.09345697079978
 21
-5.000145119099971
 31
0.0
  0
LINE
  5
23143
330
1F
100
AcDbEntity
  8
SKVIEW1
100
AcDbLine
 10
45.11403945609977
 20
5.671591974299994
 30
0.0
 11
45.06902492269978
 21
5.827417950600004
 31
0.0
  0
LWPOLYLINE
  5
23144
330
1F
100
AcDbEntity
  8
SKVIEW1
100
AcDbPolyline
 90
       17
 70
     0
 43
0.0
 10
45.06902492269978
 20
5.827417950600004
 10
45.05549906249981
 20
5.878796208400027
 10
45.04254928459977
 20
5.930243985700012
 10
45.03015445759979
 20
5.981765907400027
 10
45.01837797529981
 20
6.033348098900018
 10
45.00725830229982
 20
6.084989254900005
 10
44.99684909459978
 20
6.136656291300008
 10
44.9872162316998
 20
6.188322862300007
 10
44.97836150729979
 20
6.239967448100014
 10
44.97031501819981
 20
6.291550735100012
 10
44.96305773519982
 20
6.343099758600013
 10
44.95658150979978
 20
6.394615246099996
 10
44.95088379749978
 20
6.446136807200002
 10
44.94596360099978
 20
6.497695406000001
 10
44.94180813019984
 20
6.549317707099995
 10
44.9384026219998
 20
6.601045320000008
 10
44.93575199749979
 20
6.652864374800012
  0
LWPOLYLINE
  5
23145
330
1F
100
AcDbEntity
  8
SKVIEW1
100
AcDbPolyline
 90
        9
 70
     0
 43
0.0
 10
44.94061029339981
 20
-5.64845125039999
 10
44.95949635769984
 20
-5.593820627099988
 10
44.97159253149977
 20
-5.557388082299996
 10
44.98468776459982
 20
-5.515438049900001
 10
44.99840119149982
 20
-5.46847231349999
 10
45.01243630109981
 20
-5.416909578199994
 10
45.02596083839979
 20
-5.362094057099983
 10
45.03792732479982
 20
-5.305700409199988
 10
45.04868491979978
 20
-5.248162006999978
  0
LINE
  5
23146
330
1F
100
AcDbEntity
  8
SKVIEW4
100
AcDbLine
 10
52.24065211329982
 20
0.0000000000000107
 30
0.0
 11
44.18296871579982
 21
0.0000000000000107
 31
0.0
  0
LINE
  5
23147
330
1F
100
AcDbEntity
  8
SKVIEW1
100
AcDbLine
 10
45.06902182979978
 20
0.1252648774000242
 30
0.0
 11
50.0990062132998
 21
0.1252648774000242
 31
0.0
  0
LINE
  5
23148
330
1F
100
AcDbEntity
  8
SKVIEW1
100
AcDbLine
 10
50.34646798999979
 20
6.783848229200012
 30
0.0
 11
50.33461930739981
 21
6.752158933799997
 31
0.0
  0
LWPOLYLINE
  5
23149
330
1F
100
AcDbEntity
  8
SKVIEW1
100
AcDbPolyline
 90
       16
 70
     0
 43
0.0
 10
50.3068011787998
 20
6.662998512700009
 10
50.28984316619979
 20
6.607442397500005
 10
50.27327263699977
 20
6.551799195500004
 10
50.25710760669979
 20
6.496101914000017
 10
50.24135923409978
 20
6.440372369600007
 10
50.22604208399982
 20
6.384633131800011
 10
50.21116988829978
 20
6.328910972600008
 10
50.19675630429983
 20
6.273215101300007
 10
50.1828196603998
 20
6.217576157900007
 10
50.16935967589979
 20
6.161956621400017
 10
50.15637952559981
 20
6.106337215099992
 10
50.14388717089982
 20
6.050693845700021
 10
50.13188435249983
 20
5.995003937300007
 10
50.12039290829979
 20
5.939243661800002
 10
50.10943805839982
 20
5.883377747099995
 10
50.09901139609983
 20
5.827417950600004
  0
LINE
  5
2314A
330
1F
100
AcDbEntity
  8
SKVIEW1
100
AcDbLine
 10
50.33461930739981
 20
6.752158933799997
 30
0.0
 11
50.32960492689978
 21
6.735851097500027
 31
0.0
  0
LINE
  5
2314B
330
1F
100
AcDbEntity
  8
SKVIEW1
100
AcDbLine
 10
50.32960492689978
 20
6.735851097500027
 30
0.0
 11
50.3068011787998
 21
6.662998512700009
 31
0.0
  0
LWPOLYLINE
  5
2314C
330
1F
100
AcDbEntity
  8
SKVIEW1
100
AcDbPolyline
 90
        3
 70
     0
 43
0.0
 10
50.42673254839981
 20
-5.602621149099991
 10
50.41254424959983
 20
-5.560844308200005
 10
50.40521468399978
 20
-5.53783478499999
  0
LWPOLYLINE
  5
2314D
330
1F
100
AcDbEntity
  8
SKVIEW1
100
AcDbPolyline
 90
       29
 70
     0
 43
0.0
 10
50.09901139609983
 20
5.827417950600004
 10
50.08601219319981
 20
5.755123237100017
 10
50.07403652499984
 20
5.682690737000012
 10
50.06305240189979
 20
5.610091619599995
 10
50.05315579269979
 20
5.537412376900004
 10
50.04441217359977
 20
5.464711095300014
 10
50.03688103339984
 20
5.392044160199997
 10
50.03063306569981
 20
5.319562793100015
 10
50.0257001327998
 20
5.247040572900011
 10
50.02212489429981
 20
5.174468309200005
 10
50.01994565219979
 20
5.101345531900005
 10
50.01917915009979
 20
5.027179633799998
 10
50.01993272229982
 20
4.951937835800018
 10
50.0222957874998
 20
4.875277431600022
 10
50.02633883639983
 20
4.797635596000001
 10
50.03215057839982
 20
4.719312410400004
 10
50.0397657754998
 20
4.640376448400028
 10
50.04924874229985
 20
4.561111291000012
 10
50.06059952999983
 20
4.481171997100016
 10
50.07394028719978
 20
4.399894406300016
 10
50.08896903649983
 20
4.318519758000014
 10
50.10566576299982
 20
4.237303380400001
 10
50.12330672739977
 20
4.158538846500001
 10
50.14131895769982
 20
4.084629846500018
 10
50.15923013689981
 20
4.015501356200001
 10
50.17628902349982
 20
3.952440839699997
 10
50.19275941869977
 20
3.89376452290001
 10
50.2085707203998
 20
3.838589493700009
 10
50.28464428609978
 20
3.57972246640001
  0
LWPOLYLINE
  5
2314E
330
1F
100
AcDbEntity
  8
SKVIEW1
100
AcDbPolyline
 90
       17
 70
     0
 43
0.0
 10
50.31428946009977
 20
5.827417949000003
 10
50.32781680679985
 20
5.878807334900027
 10
50.34076862639979
 20
5.930270577100012
 10
50.35316648769982
 20
5.981814251500008
 10
50.36494568389982
 20
6.033418630500004
 10
50.37606651959983
 20
6.085077483000002
 10
50.38647552809979
 20
6.136756895000027
 10
50.39610648949976
 20
6.188428704200031
 10
50.40495796789976
 20
6.240069424800007
 10
50.41299968829981
 20
6.291634383700008
 10
50.42025194859975
 20
6.343158979900021
 10
50.4267239914998
 20
6.394649878300025
 10
50.43241870809977
 20
6.446148607700003
 10
50.43733818169979
 20
6.497688837900009
 10
50.44149407939979
 20
6.549300810700012
 10
50.44490030809978
 20
6.601031174299986
 10
50.44755223219978
 20
6.652864379299995
  0
LINE
  5
2314F
330
1F
100
AcDbEntity
  8
SKVIEW1
100
AcDbLine
 10
50.28462276829976
 20
5.723976455100011
 30
0.0
 11
50.31428946009977
 21
5.827417949000003
 31
0.0
  0
LINE
  5
23150
330
1F
100
AcDbEntity
  8
SKVIEW1
100
AcDbLine
 10
50.20854509349979
 20
5.465103476200008
 30
0.0
 11
50.28462276829976
 21
5.723976455100011
 31
0.0
  0
LWPOLYLINE
  5
23151
330
1F
100
AcDbEntity
  8
SKVIEW1
100
AcDbPolyline
 90
        3
 70
     0
 43
0.0
 10
50.45075133779977
 20
-5.675621164400002
 10
50.44678125589981
 20
-5.660458308000004
 10
50.42673254839981
 20
-5.602621149099991
  0
LINE
  5
23152
330
1F
100
AcDbEntity
  8
SKVIEW1
100
AcDbLine
 10
50.20855940109978
 20
-3.092870462400003
 30
0.0
 11
50.28462162699977
 21
-3.51162972869999
 31
0.0
  0
LINE
  5
23153
330
1F
100
AcDbEntity
  8
SKVIEW1
100
AcDbLine
 10
50.28462162699977
 20
-3.51162972869999
 30
0.0
 11
50.31428311139979
 21
-3.678960306899984
 31
0.0
  0
LWPOLYLINE
  5
23154
330
1F
100
AcDbEntity
  8
SKVIEW1
100
AcDbPolyline
 90
       13
 70
     0
 43
0.0
 10
50.03864814249983
 20
4.651961367100009
 10
50.03974219649979
 20
4.663303919000025
 10
50.0492237531998
 20
4.742568250599997
 10
50.06057322329979
 20
4.822506856300018
 10
50.07391276109981
 20
4.903783513800004
 10
50.08894045649977
 20
4.985157374500015
 10
50.10563629239978
 20
5.066373161099996
 10
50.12327674369982
 20
5.145137936700006
 10
50.14128911859978
 20
5.219048919100012
 10
50.15920090069979
 20
5.288180367400012
 10
50.17626079899983
 20
5.351244475600005
 10
50.19273244479979
 20
5.409924656300016
 10
50.20854509349979
 20
5.465103476200008
  0
LWPOLYLINE
  5
23155
330
1F
100
AcDbEntity
  8
SKVIEW1
100
AcDbPolyline
 90
       17
 70
     0
 43
0.0
 10
50.31428311139979
 20
-3.678960306899984
 10
50.32781326859978
 20
-3.766008202899984
 10
50.34076783319978
 20
-3.853181732399992
 10
50.35316842579978
 20
-3.940492064399978
 10
50.36495018429981
 20
-4.027905691999976
 10
50.37607331489978
 20
-4.11541227759999
 10
50.38648423299981
 20
-4.202953482499982
 10
50.39611657989982
 20
-4.290480661899993
 10
50.40496888439982
 20
-4.377954395999996
 10
50.41301076249983
 20
-4.465300022899999
 10
50.42026259349978
 20
-4.552574623699983
 10
50.42673375589983
 20
-4.639786897599993
 10
50.4324268682998
 20
-4.727007327799999
 10
50.4373434049998
 20
-4.814292334900006
 10
50.4414961771998
 20
-4.901692804700005
 10
50.44490015029982
 20
-4.989287141400001
 10
50.44755033579981
 20
-5.077049210299993
  0
LWPOLYLINE
  5
23156
330
1F
100
AcDbEntity
  8
SKVIEW1
100
AcDbPolyline
 90
        3
 70
     0
 43
0.0
 10
50.44755033579981
 20
-5.077049210299993
 10
50.44820781869983
 20
-5.103423411399988
 10
50.45070542219981
 20
-5.188154017799991
  0
LWPOLYLINE
  5
23157
330
1F
100
AcDbEntity
  8
SKVIEW1
100
AcDbPolyline
 90
        8
 70
     0
 43
0.0
 10
50.45070357149977
 20
2.476117095599998
 10
50.45113188989979
 20
2.4347715763
 10
50.44857638159983
 20
2.387731600499999
 10
50.44282299009979
 20
2.334547601200009
 10
50.43451388499978
 20
2.276279807000018
 10
50.42402625449978
 20
2.214211295100009
 10
50.41194098569981
 20
2.148879845300009
 10
50.39883438539978
 20
2.081194363900021
  0
LWPOLYLINE
  5
23158
330
1F
100
AcDbEntity
  8
SKVIEW1
100
AcDbPolyline
 90
       13
 70
     0
 43
0.0
 10
50.45070542219981
 20
-5.188154017799991
 10
50.45113566279981
 20
-5.246472087599971
 10
50.44858421349978
 20
-5.304690811399995
 10
50.44283833829981
 20
-5.362431468200004
 10
50.43453624529981
 20
-5.417809517699981
 10
50.4240510864998
 20
-5.469287353899987
 10
50.41196529439982
 20
-5.516296539799999
 10
50.39885386369981
 20
-5.558129380199988
 10
50.38511226079977
 20
-5.594340456399994
 10
50.37105779669982
 20
-5.624664129699983
 10
50.3574999322998
 20
-5.648559069000003
 10
50.34546830289976
 20
-5.665868243999981
 10
50.33461969679979
 20
-5.677064108099999
  0
LWPOLYLINE
  5
23159
330
1F
100
AcDbEntity
  8
SKVIEW1
100
AcDbPolyline
 90
        7
 70
     0
 43
0.0
 10
50.45068781749979
 20
1.67613099670002
 10
50.45075591159982
 20
1.750099736100008
 10
50.44678756069981
 20
1.828349013000016
 10
50.43840138749985
 20
1.910764403000012
 10
50.42674152379976
 20
1.994557786400019
 10
50.41255323339981
 20
2.076846401399996
 10
50.4051951310998
 20
2.114042709200028
  0
LWPOLYLINE
  5
2315A
330
1F
100
AcDbEntity
  8
SKVIEW1
100
AcDbPolyline
 90
        7
 70
     0
 43
0.0
 10
50.4506890328998
 20
6.718478543099999
 10
50.45075537729982
 20
6.757239548799997
 10
50.44678545359978
 20
6.790435068499999
 10
50.4383978132998
 20
6.817034266600026
 10
50.42673680189978
 20
6.835316956899997
 10
50.41254784219979
 20
6.844396020800028
 10
50.40509084489982
 20
6.845458371199991
  0
LWPOLYLINE
  5
2315B
330
1F
100
AcDbEntity
  8
SKVIEW1
100
AcDbPolyline
 90
        3
 70
     0
 43
0.0
 10
50.4475503359998
 20
1.561958322300009
 10
50.44977568209983
 20
1.646180722299995
 10
50.45068781749979
 20
1.67613099670002
  0
LINE
  5
2315C
330
1F
100
AcDbEntity
  8
SKVIEW1
100
AcDbLine
 10
50.44755223219978
 20
6.652864379299995
 30
0.0
 11
50.44895050559978
 21
6.684591303300017
 31
0.0
  0
LINE
  5
2315D
330
1F
100
AcDbEntity
  8
SKVIEW1
100
AcDbLine
 10
50.44895050559978
 20
6.684591303300017
 30
0.0
 11
50.4506890328998
 21
6.718478543099999
 31
0.0
  0
LWPOLYLINE
  5
2315E
330
1F
100
AcDbEntity
  8
SKVIEW1
100
AcDbPolyline
 90
       13
 70
     0
 43
0.0
 10
50.03865444289978
 20
-1.777176822100004
 10
50.04242459799981
 20
-1.719205788699998
 10
50.05050368389984
 20
-1.613905787499974
 10
50.05958146049978
 20
-1.511050861699984
 10
50.06948343499985
 20
-1.410862782200002
 10
50.08003165609977
 20
-1.313557685600004
 10
50.09117980159984
 20
-1.218899072399995
 10
50.1028166536998
 20
-1.1268610529
 10
50.11495894809981
 20
-1.037027934499992
 10
50.12761850439979
 20
-0.9489794089999923
 10
50.14069885269982
 20
-0.8627034336999948
 10
50.15411183319981
 20
-0.7782304002999929
 10
50.16784433499982
 20
-0.6950126981000047
  0
LWPOLYLINE
  5
2315F
330
1F
100
AcDbEntity
  8
SKVIEW1
100
AcDbPolyline
 90
       27
 70
     0
 43
0.0
 10
50.10943362169981
 20
0.2226623478000071
 10
50.0860015118998
 20
0.0082470156000163
 10
50.07402112699977
 20
-0.1089936513999881
 10
50.06303304849978
 20
-0.2265036024000047
 10
50.05313330659983
 20
-0.3441434006000072
 10
50.04438740199977
 20
-0.4618197174999814
 10
50.03685491309979
 20
-0.5794407059999749
 10
50.03060662259982
 20
-0.6967621722999873
 10
50.0256744191998
 20
-0.8141478290999835
 10
50.02210110949977
 20
-0.9316111591999922
 10
50.0199247224998
 20
-1.049958658299986
 10
50.01916194889982
 20
-1.169984061499992
 10
50.01991961069979
 20
-1.291739133499977
 10
50.02228685819979
 20
-1.415776485699995
 10
50.02633339829976
 20
-1.54138731389999
 10
50.03214724819981
 20
-1.66808329659999
 10
50.03976262699978
 20
-1.795755598299978
 10
50.04924279159981
 20
-1.923942872399994
 10
50.06058864649975
 20
-2.053214329799986
 10
50.07392204389983
 20
-2.184651053799985
 10
50.08894339809979
 20
-2.316256080199976
 10
50.10563483909983
 20
-2.447631447999996
 10
50.12327307119979
 20
-2.575061231199998
 10
50.14128684679981
 20
-2.694660094399995
 10
50.15920215089984
 20
-2.806538305299982
 10
50.17626732669977
 20
-2.908606155699986
 10
50.20855940109978
 20
-3.092870462400003
  0
LWPOLYLINE
  5
23160
330
1F
100
AcDbEntity
  8
SKVIEW1
100
AcDbPolyline
 90
       17
 70
     0
 43
0.0
 10
50.31427251749978
 20
0.1252648709000077
 10
50.32780224029979
 20
0.2147131628000061
 10
50.34075628269985
 20
0.3042889287000143
 10
50.35315618969981
 20
0.3940031835000006
 10
50.36493732589981
 20
0.4838228824000164
 10
50.37606008009977
 20
0.5737383604999984
 10
50.38647092399976
 20
0.6636904932000043
 10
50.39610363389979
 20
0.7536302973000028
 10
50.40495668509977
 20
0.8435176845000107
 10
50.41299973889978
 20
0.9332770856000074
 10
50.42025301329978
 20
1.022965960200007
 10
50.42672576059977
 20
1.112592759200007
 10
50.43242053809978
 20
1.202228939399994
 10
50.43733871609977
 20
1.291931659500004
 10
50.44149310719979
 20
1.381752264500001
 10
50.4448986390998
 20
1.471769951799994
 10
50.4475503359998
 20
1.561958322300009
  0
LWPOLYLINE
  5
23161
330
1F
100
AcDbEntity
  8
SKVIEW1
100
AcDbPolyline
 90
        4
 70
     0
 43
0.0
 10
50.33461969659983
 20
1.739518832899999
 10
50.3321667836998
 20
1.723463932100013
 10
50.32960472469979
 20
1.7075433943
 10
50.32693351959979
 20
1.691763669200024
  0
LWPOLYLINE
  5
23162
330
1F
100
AcDbEntity
  8
SKVIEW1
100
AcDbPolyline
 90
       10
 70
     0
 43
0.0
 10
50.22604405849978
 20
1.095076979400015
 10
50.21117097179979
 20
0.9980937814999995
 10
50.19675621639983
 20
0.9011568525000191
 10
50.1828185464998
 20
0.8043196817000184
 10
50.16935767049979
 20
0.7075166683000127
 10
50.15637695889979
 20
0.6107141068000141
 10
50.14388417879981
 20
0.513869800600002
 10
50.13188096839981
 20
0.4169442242000052
 10
50.12038908539979
 20
0.3198956585000126
 10
50.10943362169981
 20
0.2226623478000071
  0
LINE
  5
23163
330
1F
100
AcDbEntity
  8
SKVIEW1
100
AcDbLine
 10
50.25710925469981
 20
1.289087314399989
 30
0.0
 11
50.22604405849978
 21
1.095076979400015
 31
0.0
  0
LINE
  5
23164
330
1F
100
AcDbEntity
  8
SKVIEW1
100
AcDbLine
 10
50.28984165579977
 20
1.482875171400005
 30
0.0
 11
50.25710925469981
 21
1.289087314399989
 31
0.0
  0
LINE
  5
23165
330
1F
100
AcDbEntity
  8
SKVIEW1
100
AcDbLine
 10
50.16784433499982
 20
-0.6950126981000047
 30
0.0
 11
50.19614040969975
 21
-0.5307308467999868
 31
0.0
  0
LINE
  5
23166
330
1F
100
AcDbEntity
  8
SKVIEW1
100
AcDbLine
 10
50.28538192139979
 20
-0.037781516500008
 30
0.0
 11
50.31427251749978
 21
0.1252648709000077
 31
0.0
  0
LINE
  5
23167
330
1F
100
AcDbEntity
  8
SKVIEW1
100
AcDbLine
 10
50.32693351959979
 20
1.691763669200024
 30
0.0
 11
50.28984165579977
 21
1.482875171400005
 31
0.0
  0
LWPOLYLINE
  5
23168
330
1F
100
AcDbEntity
  8
SKVIEW1
100
AcDbPolyline
 90
        3
 70
     0
 43
0.0
 10
50.19614040969975
 20
-0.5307308467999868
 10
50.24052074469979
 20
-0.2843697789000039
 10
50.28538192139979
 20
-0.037781516500008
  0
LWPOLYLINE
  5
23169
330
1F
100
AcDbEntity
  8
SKVIEW1
100
AcDbPolyline
 90
        5
 70
     0
 43
0.0
 10
50.39883438539978
 20
2.081194363900021
 10
50.37104044909979
 20
1.941601562699995
 10
50.35748126879981
 20
1.87189041259999
 10
50.34545616489976
 20
1.804484848100013
 10
50.33461969659983
 20
1.739518832899999
  0
LINE
  5
2316A
330
1F
100
AcDbEntity
  8
SKVIEW1
100
AcDbLine
 10
50.44895339229982
 20
2.514177327700005
 30
0.0
 11
50.45070357149977
 21
2.476117095599998
 31
0.0
  0
LINE
  5
2316B
330
1F
100
AcDbEntity
  8
SKVIEW1
100
AcDbLine
 10
50.44755223199981
 20
2.549764935400002
 30
0.0
 11
50.44895339229982
 21
2.514177327700005
 31
0.0
  0
LINE
  5
2316C
330
1F
100
AcDbEntity
  8
SKVIEW1
100
AcDbLine
 10
50.45068523849979
 20
-5.682572617499986
 30
0.0
 11
50.45075133779977
 21
-5.675621164400002
 31
0.0
  0
LINE
  5
2316D
330
1F
100
AcDbEntity
  8
SKVIEW1
100
AcDbLine
 10
45.28430121429983
 20
3.476277488200008
 30
0.0
 11
50.31431046439982
 21
3.476277488200008
 31
0.0
  0
LWPOLYLINE
  5
2316E
330
1F
100
AcDbEntity
  8
SKVIEW1
100
AcDbPolyline
 90
       17
 70
     0
 43
0.0
 10
50.31431046439982
 20
3.476277488200008
 10
50.32783735559981
 20
3.418595672800002
 10
50.34078860659981
 20
3.360830743300008
 10
50.35318579829977
 20
3.302975259499997
 10
50.36496418749983
 20
3.24505154259999
 10
50.37608404429985
 20
3.187066708200017
 10
50.38649190919979
 20
3.129058932800016
 10
50.39612155519979
 20
3.071059960700022
 10
50.40497155519979
 20
3.013096204000002
 10
50.41301159979981
 20
2.955217947599986
 10
50.42026210889982
 20
2.897385316999996
 10
50.42673242899981
 20
2.839590779200003
 10
50.43242547029979
 20
2.781787594300009
 10
50.43734343959979
 20
2.723937866700008
 10
50.44149779349979
 20
2.666007530200015
 10
50.44490224829981
 20
2.607944049100022
 10
50.44755223199981
 20
2.549764935400002
  0
LINE
  5
2316F
330
1F
100
AcDbEntity
  8
SKVIEW1
100
AcDbLine
 10
50.28464428609978
 20
3.57972246640001
 30
0.0
 11
50.31431046439982
 21
3.476277488200008
 31
0.0
  0
LWPOLYLINE
  5
23170
330
1F
100
AcDbEntity
  8
SKVIEW1
100
AcDbPolyline
 90
        5
 70
     0
 43
0.0
 10
50.44755033609978
 20
-5.687536530599987
 10
50.44820641689979
 20
-5.686356698899986
 10
50.44894759419982
 20
-5.685136102699988
 10
50.44977386809978
 20
-5.683874742300007
 10
50.45068523849979
 20
-5.682572617499986
  0
LINE
  5
23171
330
1F
100
AcDbEntity
  8
SKVIEW1
100
AcDbLine
 10
45.06902492269978
 20
5.827417950600004
 30
0.0
 11
50.09901139609983
 21
5.827417950600004
 31
0.0
  0
LWPOLYLINE
  5
23172
330
1F
100
AcDbEntity
  8
SKVIEW1
100
AcDbPolyline
 90
        6
 70
     0
 43
0.0
 10
50.40509084489982
 20
6.845458371199991
 10
50.39664625379977
 20
6.844158810199996
 10
50.37965808349982
 20
6.834340731799994
 10
50.36289657339979
 20
6.815135855099992
 10
50.34807388859976
 20
6.787510269299994
 10
50.34646798999979
 20
6.783848229200012
  0
LWPOLYLINE
  5
23173
330
1F
100
AcDbEntity
  8
SKVIEW1
100
AcDbPolyline
 90
        5
 70
     0
 43
0.0
 10
50.33461969679979
 20
-5.677064108099999
 10
50.33216676579981
 20
-5.678971979499994
 10
50.32960470049978
 20
-5.680523770600007
 10
50.32693350089984
 20
-5.6817228172
 10
50.32415316699982
 20
-5.682572613200012
  0
LWPOLYLINE
  5
23174
330
1F
100
AcDbEntity
  8
SKVIEW1
100
AcDbPolyline
 90
       17
 70
     0
 43
0.0
 10
50.31428187889982
 20
-5.750000001199982
 10
50.32781154539977
 20
-5.74611104469999
 10
50.34076546209981
 20
-5.742216550999972
 10
50.35316516979982
 20
-5.738316042899999
 10
50.36494604579981
 20
-5.734410951799977
 10
50.37606849129975
 20
-5.730501693999986
 10
50.38647897589981
 20
-5.726590837799976
 10
50.39611128269982
 20
-5.722680509199977
 10
50.40496387319979
 20
-5.718772450499999
 10
50.41300640529978
 20
-5.714869942899997
 10
50.42025907339979
 20
-5.710970495599997
 10
50.42673110689982
 20
-5.707073746399986
 10
50.43242505929983
 20
-5.703176590399992
 10
50.43734228889981
 20
-5.699276544999992
 10
50.44149561089979
 20
-5.69537138129998
 10
50.44489995179983
 20
-5.691457661099991
 10
50.44755033609978
 20
-5.687536530599987
  0
LINE
  5
23175
330
1F
100
AcDbEntity
  8
SKVIEW1
100
AcDbLine
 10
44.97846506599978
 20
6.845458400399999
 30
0.0
 11
50.40457273659979
 21
6.845458400399999
 31
0.0
  0
CIRCLE
  5
23176
330
1F
100
AcDbEntity
  8
4
100
AcDbCircle
 10
-0.0000000000001563
 20
0.0000000000000107
 30
0.0
 40
5.75
  0
CIRCLE
  5
23177
330
1F
100
AcDbEntity
  8
1
100
AcDbCircle
 10
-0.0000000000001563
 20
0.0000000000000107
 30
0.0
 40
2.259999999999998
  0
ARC
  5
23178
330
1F
100
AcDbEntity
  8
1
100
AcDbCircle
 10
5.78761486749984
 20
1.8805100608
 30
0.0
 40
0.76
100
AcDbArc
 50
344.3999999649999
 51
51.59999996610125
  0
ARC
  5
23179
330
1F
100
AcDbEntity
  8
1
100
AcDbCircle
 10
-5.787614865200207
 20
1.880510067800013
 30
0.0
 40
0.76
100
AcDbArc
 50
128.3999999649994
 51
195.5999999660997
  0
ARC
  5
2317A
330
1F
100
AcDbEntity
  8
1
100
AcDbCircle
 10
-3.576942704100176
 20
-4.92323926229999
 30
0.0
 40
0.76
100
AcDbArc
 50
200.3999999649997
 51
267.5999999661006
  0
ARC
  5
2317B
330
1F
100
AcDbEntity
  8
1
100
AcDbCircle
 10
3.576942698199799
 20
-4.923239266599964
 30
0.0
 40
0.76
100
AcDbArc
 50
272.3999999650013
 51
339.5999999661015
  0
ARC
  5
2317C
330
1F
100
AcDbEntity
  8
1
100
AcDbCircle
 10
0.0000000036997818
 20
6.08545840040001
 30
0.0
 40
0.76
100
AcDbArc
 50
56.39999996500176
 51
123.5999999661005
  0
ARC
  5
2317D
330
1F
100
AcDbEntity
  8
1
100
AcDbCircle
 10
3.169561840099802
 20
2.55203794740002
 30
0.0
 40
0.7541227774000001
100
AcDbArc
 50
49.48761173139992
 51
218.8409325443008
  0
ARC
  5
2317E
330
1F
100
AcDbEntity
  8
1
100
AcDbCircle
 10
-1.064179125300185
 20
-3.927663775799988
 30
0.0
 40
0.7541227767000001
100
AcDbArc
 50
265.4861998661003
 51
74.84126558119925
  0
ARC
  5
2317F
330
1F
100
AcDbEntity
  8
1
100
AcDbCircle
 10
-4.064279662500196
 20
-0.2016203637000054
 30
0.0
 40
0.7541227767000001
100
AcDbArc
 50
193.4861993133998
 51
2.841262326200236
  0
ARC
  5
23180
330
1F
100
AcDbEntity
  8
1
100
AcDbCircle
 10
-1.447683846500225
 20
3.803055538000005
 30
0.0
 40
0.7541227771
100
AcDbArc
 50
121.4877264958002
 51
290.8412634533016
  0
ARC
  5
23181
330
1F
100
AcDbEntity
  8
1
100
AcDbCircle
 10
3.406580792899786
 20
-2.22580934579999
 30
0.0
 40
0.7541227759
100
AcDbArc
 50
337.4876115067009
 51
146.8409332896988
  0
ARC
  5
23182
330
1F
100
AcDbEntity
  8
1
100
AcDbCircle
 10
-1.447684667000188
 20
3.803055134800001
 30
0.0
 40
0.6041531696
100
AcDbArc
 50
121.4943546167
 51
290.8411908983012
  0
ARC
  5
23183
330
1F
100
AcDbEntity
  8
1
100
AcDbCircle
 10
3.169561203199818
 20
2.552038603200013
 30
0.0
 40
0.6041531698
100
AcDbArc
 50
49.49434771019852
 51
218.8414988850997
  0
ARC
  5
23184
330
1F
100
AcDbEntity
  8
1
100
AcDbCircle
 10
-4.064279532300176
 20
-0.2016212688000003
 30
0.0
 40
0.6041531693
100
AcDbArc
 50
193.4943549174991
 51
2.84119177719973
  0
ARC
  5
23185
330
1F
100
AcDbEntity
  8
1
100
AcDbCircle
 10
-1.064178223800169
 20
-3.927663932300008
 30
0.0
 40
0.6041531689000001
100
AcDbArc
 50
265.4943543880001
 51
74.84119360570088
  0
ARC
  5
23186
330
1F
100
AcDbEntity
  8
1
100
AcDbCircle
 10
3.406581220199837
 20
-2.225808537799979
 30
0.0
 40
0.6041531688
100
AcDbArc
 50
337.4943505723014
 51
146.8411936799999
  0
LWPOLYLINE
  5
2324A
330
1F
100
AcDbEntity
  8
CUT
100
AcDbPolyline
 90
       20
 70
     1
 43
0.0
 10
6.086608814358497
 20
0.1252648709274275
 10
6.519618418097932
 20
1.676130996705549
 42
0.3019178003727392
 10
6.2596871808298
 20
2.476117088109957
 10
4.997798816158521
 20
3.47627748282743
 10
1.761731589958529
 20
5.827417949027427
 10
0.4205775814954225
 20
6.718478543093396
 42
0.3019178003899093
 10
-0.4205775734048416
 20
6.718478543607353
 10
-1.761731583841495
 20
5.827417950627419
 10
-4.997798812741462
 20
3.476277488227435
 10
-6.259687177889077
 20
2.476117095683514
 42
0.3019178003838697
 10
-6.519618416120847
 20
1.676131004565043
 10
-6.086608814041482
 20
0.1252648774274494
 10
-4.850541125241476
 20
-3.678960306872549
 10
-4.289277016318748
 20
-5.188154017797646
 42
0.3019178003758307
 10
-3.608768201422903
 20
-5.682572613128954
 10
-1.999999540441493
 20
-5.749999998772572
 10
1.999999532558504
 20
-5.750000001172558
 10
3.608768194524996
 20
-5.682572617467275
 42
0.3019178003828881
 10
4.289277010023453
 20
-5.188154022937531
 10
4.850541121058483
 20
-3.678960311872562
  0
VIEWPORT
  5
9C00
102
{ACAD_XDICTIONARY
360
23712
102
}
330
1B
100
AcDbEntity
 67
     1
  8
0
100
AcDbViewport
 10
108.2280559557949
 20
71.69854161746989
 30
0.0
 40
251.8950231529317
 41
201.8884082081047
 68
     1
 69
     1
 12
108.2280559557949
 22
71.69854161746989
 13
0.0
 23
0.0
 14
10.0
 24
10.0
 15
10.0
 25
10.0
 16
0.0
 26
0.0
 36
1.0
 17
0.0
 27
0.0
 37
0.0
 42
50.0
 43
0.0
 44
0.0
 45
201.8884082081047
 50
0.0
 51
0.0
 72
   100
 90
   557088
  1

281
     0
 71
     1
 74
     0
110
0.0
120
0.0
130
0.0
111
1.0
121
0.0
131
0.0
112
0.0
122
1.0
132
0.0
 79
     0
146
0.0
  0
VIEWPORT
  5
9C02
102
{ACAD_XDICTIONARY
360
23714
102
}
330
1B
100
AcDbEntity
 67
     1
  8
1
100
AcDbViewport
 10
143.457083940506
 20
98.18158769607544
 30
0.0
 40
229.5313343048095
 41
157.0905403137207
 68
     2
 69
     2
 12
-44.37697124786255
 22
-35.12342998133886
 13
0.0
 23
0.0
 14
10.0
 24
10.0
 15
10.0
 25
10.0
 16
0.0
 26
0.0
 36
1.0
 17
0.0
 27
0.0
 37
0.0
 42
50.0
 43
0.0
 44
0.0
 45
300.3886240724386
 50
0.0
 51
0.0
 72
   100
 90
   557088
  1

281
     0
 71
     1
 74
     0
110
0.0
120
0.0
130
0.0
111
1.0
121
0.0
131
0.0
112
0.0
122
1.0
132
0.0
 79
     0
146
0.0
  0
ENDSEC
  0
SECTION
  2
OBJECTS
  0
DICTIONARY
  5
3182
330
0
100
AcDbDictionary
281
     1
  3
ACAD_CIP_PREVIOUS_PRODUCT_INFO
350
1B2F4
  3
ACAD_COLOR
350
31A0
  3
ACAD_DETAILVIEWSTYLE
350
1B2F0
  3
ACAD_FIELDLIST
350
20CBF
  3
ACAD_GROUP
350
3183
  3
ACAD_LAYOUT
350
31A5
  3
ACAD_MATERIAL
350
318B
  3
ACAD_MLEADERSTYLE
350
1B221
  3
ACAD_MLINESTYLE
350
3184
  3
ACAD_PLOTSETTINGS
350
31A4
  3
ACAD_PLOTSTYLENAME
350
3189
  3
ACAD_SCALELIST
350
1B1FC
  3
ACAD_SECTIONVIEWSTYLE
350
1B2EE
  3
ACAD_TABLESTYLE
350
31A1
  3
ACAD_VISUALSTYLE
350
318F
  3
ACDB_RECOMPOSE_DATA
350
236EB
  3
AcDbVariableDictionary
350
33A3
  3
DWGPROPS
350
236EC
  0
DICTIONARY
  5
422A
330
2
100
AcDbDictionary
280
     1
281
     1
  3
ACAD_LAYERFILTERS
360
1B063
  3
ACAD_LAYERSTATES
360
9A1C
  3
ACLYDICTIONARY
360
1B062
  0
DICTIONARY
  5
1B2F5
330
10
100
AcDbDictionary
280
     1
281
     1
  3
ADSK_XREC_LAYER_RECONCILED
360
20F91
  0
DICTIONARY
  5
1B2F7
330
3F8C
100
AcDbDictionary
280
     1
281
     1
  3
ADSK_XREC_LAYER_RECONCILED
360
20F92
  0
DICTIONARY
  5
1B2F9
330
9C4A
100
AcDbDictionary
280
     1
281
     1
  3
ADSK_XREC_LAYER_RECONCILED
360
20F93
  0
DICTIONARY
  5
1B2FB
330
9C4B
100
AcDbDictionary
280
     1
281
     1
  3
ADSK_XREC_LAYER_RECONCILED
360
20F94
  0
DICTIONARY
  5
1B301
330
9C4F
100
AcDbDictionary
280
     1
281
     1
  3
ADSK_XREC_LAYER_RECONCILED
360
20F97
  0
DICTIONARY
  5
1B303
330
9C50
100
AcDbDictionary
280
     1
281
     1
  3
ADSK_XREC_LAYER_RECONCILED
360
20F98
  0
DICTIONARY
  5
1B307
330
13335
100
AcDbDictionary
280
     1
281
     1
  3
ADSK_XREC_LAYER_RECONCILED
360
20F9A
  0
DICTIONARY
  5
20AE1
330
20AE0
100
AcDbDictionary
280
     1
281
     1
  3
ADSK_XREC_LAYER_RECONCILED
360
20FA5
  0
DICTIONARY
  5
21F69
330
21F68
100
AcDbDictionary
280
     1
281
     1
  0
DICTIONARY
  5
23305
330
23304
100
AcDbDictionary
280
     1
281
     1
  0
DICTIONARY
  5
339C
330
1F
100
AcDbDictionary
280
     1
281
     1
  3
ACAD_SORTENTS
360
339D
  0
DICTIONARY
  5
1DE81
330
1B3D7
100
AcDbDictionary
280
     1
281
     1
  3
AcDbBlockTableRecordData
360
2372E
  0
DICTIONARY
  5
20CA6
330
20CA5
100
AcDbDictionary
280
     1
281
     1
  3
AcDbBlockTableRecordData
360
23730
  0
DICTIONARY
  5
20CA9
330
20CA8
100
AcDbDictionary
280
     1
281
     1
  3
ACAD_FIELD
360
20CAA
  0
DICTIONARY
  5
20DDB
330
20DDA
100
AcDbDictionary
280
     1
281
     1
  3
ACAD_FIELD
360
20DDC
  0
DICTIONARY
  5
23712
330
9C00
100
AcDbDictionary
280
     1
281
     1
  3
ACAD_XREC_ROUNDTRIP
360
23713
  0
DICTIONARY
  5
23714
330
9C02
100
AcDbDictionary
280
     1
281
     1
  3
ACAD_XREC_ROUNDTRIP
360
23715
  0
XRECORD
  5
1B2F4
102
{ACAD_REACTORS
330
3182
102
}
330
3182
100
AcDbXrecord
280
     1
300
ACDLT
300
2015
300
ACDLT_F_S
  0
DICTIONARY
  5
31A0
102
{ACAD_REACTORS
330
3182
102
}
330
3182
100
AcDbDictionary
281
     1
  0
DICTIONARY
  5
1B2F0
102
{ACAD_REACTORS
330
3182
102
}
330
3182
100
AcDbDictionary
281
     1
  3
Imperial24
350
20CB3
  3
Metric50
350
1B2F1
  0
FIELDLIST
  5
20CBF
102
{ACAD_REACTORS
330
3182
102
}
330
3182
100
AcDbIdSet
 90
        4
330
20DDD
330
20DDE
330
20CAB
330
20CAC
100
AcDbFieldList
  0
DICTIONARY
  5
3183
102
{ACAD_REACTORS
330
3182
102
}
330
3182
100
AcDbDictionary
281
     1
  0
DICTIONARY
  5
31A5
102
{ACAD_REACTORS
330
3182
102
}
330
3182
100
AcDbDictionary
281
     1
  3
Layout1
350
31A7
  3
Model
350
31A6
  0
DICTIONARY
  5
318B
102
{ACAD_REACTORS
330
3182
102
}
330
3182
100
AcDbDictionary
281
     1
  3
ByBlock
350
318D
  3
ByLayer
350
318C
  3
Global
350
318E
  0
DICTIONARY
  5
1B221
102
{ACAD_REACTORS
330
3182
102
}
330
3182
100
AcDbDictionary
281
     1
  3
Standard
350
1B2ED
  0
DICTIONARY
  5
3184
102
{ACAD_REACTORS
330
3182
102
}
330
3182
100
AcDbDictionary
281
     1
  3
STANDARD
350
3185
  0
DICTIONARY
  5
31A4
102
{ACAD_REACTORS
330
3182
102
}
330
3182
100
AcDbDictionary
281
     1
  0
ACDBDICTIONARYWDFLT
  5
3189
102
{ACAD_REACTORS
330
3182
102
}
330
3182
100
AcDbDictionary
281
     1
  3
Normal
350
318A
100
AcDbDictionaryWithDefault
340
318A
  0
DICTIONARY
  5
1B1FC
102
{ACAD_REACTORS
330
3182
102
}
330
3182
100
AcDbDictionary
281
     1
  3
A0
350
1B1FD
  3
A1
350
1B1FE
  3
A2
350
1B1FF
  3
A3
350
1B200
  3
A4
350
1B201
  3
A5
350
1B202
  3
A6
350
1B203
  3
A7
350
1B204
  3
A8
350
1B205
  3
A9
350
1B206
  3
B0
350
1B207
  3
B1
350
1B208
  3
B2
350
1B209
  3
B3
350
1B20A
  3
B4
350
1B20B
  3
B5
350
1B20C
  3
B6
350
1B20D
  3
B7
350
1B20E
  3
B8
350
1B20F
  3
B9
350
1B210
  3
C0
350
1B211
  3
C1
350
1B212
  3
C2
350
1B213
  3
C3
350
1B214
  3
C4
350
1B215
  3
C5
350
1B216
  3
C6
350
1B217
  3
C7
350
1B218
  3
C8
350
1B219
  3
C9
350
1B21A
  3
D0
350
1B21B
  3
D1
350
1B21C
  3
D2
350
1B21D
  0
DICTIONARY
  5
1B2EE
102
{ACAD_REACTORS
330
3182
102
}
330
3182
100
AcDbDictionary
281
     1
  3
Imperial24
350
20CB1
  3
Metric50
350
1B2EF
  0
DICTIONARY
  5
31A1
102
{ACAD_REACTORS
330
3182
102
}
330
3182
100
AcDbDictionary
281
     1
  3
Standard
350
31A2
  0
DICTIONARY
  5
318F
102
{ACAD_REACTORS
330
3182
102
}
330
3182
100
AcDbDictionary
281
     1
  3
2dWireframe
350
3195
  3
3D Hidden
350
3197
  3
3dWireframe
350
3196
  3
Basic
350
3194
  3
Brighten
350
319B
  3
ColorChange
350
319F
  3
Conceptual
350
3198
  3
Dim
350
319A
  3
EdgeColorOff
350
1B2EC
  3
Facepattern
350
319E
  3
Flat
350
3190
  3
FlatWithEdges
350
3191
  3
Gouraud
350
3192
  3
GouraudWithEdges
350
3193
  3
Hidden
350
1B2E4
  3
JitterOff
350
1B2EA
  3
Linepattern
350
319D
  3
OverhangOff
350
1B2EB
  3
Realistic
350
3199
  3
Shaded
350
1B2E9
  3
Shaded with edges
350
1B2E8
  3
Shades of Gray
350
1B2E5
  3
Sketchy
350
1B2E6
  3
Thicken
350
319C
  3
Wireframe
350
1B2E3
  3
X-Ray
350
1B2E7
  0
XRECORD
  5
236EB
102
{ACAD_REACTORS
330
3182
102
}
330
3182
100
AcDbXrecord
280
     1
 90
        1
330
31A2
  0
DICTIONARY
  5
33A3
102
{ACAD_REACTORS
330
3182
102
}
330
3182
100
AcDbDictionary
281
     1
  3
CANNOSCALE
350
1B222
  3
CMLEADERSTYLE
350
1B30F
  3
CTABLESTYLE
350
33A4
  3
CVIEWDETAILSTYLE
350
1B310
  3
CVIEWSECTIONSTYLE
350
1B311
  3
DIMASSOC
350
9BE8
  3
INDEXCTL
350
9BE7
  3
LAYEREVAL
350
20993
  3
LAYERNOTIFY
350
20994
  3
LIGHTINGUNITS
350
20992
  3
MSLTSCALE
350
20991
  3
SORTENTS
350
9BE6
  3
XCLIPFRAME
350
236E9
  0
XRECORD
  5
236EC
102
{ACAD_REACTORS
330
3182
102
}
330
3182
100
AcDbXrecord
280
     1
  1
DWGPROPS COOKIE
  2

  3

  4

  6

  7

  8
bendera
  9

300
=
301
=
302
=
303
=
304
=
305
=
306
=
307
=
308
=
309
=
 40
0.2194103819444444
 41
2457553.610562801
 42
2457585.409426632
  1

 90
        0
  0
DICTIONARY
  5
1B063
102
{ACAD_REACTORS
330
422A
102
}
330
422A
100
AcDbDictionary
281
     1
  0
DICTIONARY
  5
9A1C
102
{ACAD_REACTORS
330
422A
102
}
330
422A
100
AcDbDictionary
281
     1
  0
DICTIONARY
  5
1B062
102
{ACAD_REACTORS
330
422A
102
}
330
422A
100
AcDbDictionary
281
     1
1001
ACAD
1000
<All
  0
XRECORD
  5
20F91
102
{ACAD_REACTORS
330
1B2F5
102
}
330
1B2F5
100
AcDbXrecord
280
     1
290
     1
  0
XRECORD
  5
20F92
102
{ACAD_REACTORS
330
1B2F7
102
}
330
1B2F7
100
AcDbXrecord
280
     1
290
     1
  0
XRECORD
  5
20F93
102
{ACAD_REACTORS
330
1B2F9
102
}
330
1B2F9
100
AcDbXrecord
280
     1
290
     1
  0
XRECORD
  5
20F94
102
{ACAD_REACTORS
330
1B2FB
102
}
330
1B2FB
100
AcDbXrecord
280
     1
290
     1
  0
XRECORD
  5
20F97
102
{ACAD_REACTORS
330
1B301
102
}
330
1B301
100
AcDbXrecord
280
     1
290
     1
  0
XRECORD
  5
20F98
102
{ACAD_REACTORS
330
1B303
102
}
330
1B303
100
AcDbXrecord
280
     1
290
     1
  0
XRECORD
  5
20F9A
102
{ACAD_REACTORS
330
1B307
102
}
330
1B307
100
AcDbXrecord
280
     1
290
     1
  0
XRECORD
  5
20FA5
102
{ACAD_REACTORS
330
20AE1
102
}
330
20AE1
100
AcDbXrecord
280
     1
290
     1
  0
SORTENTSTABLE
  5
339D
102
{ACAD_REACTORS
330
339C
102
}
330
339C
100
AcDbSortentsTable
330
1F
331
20A18
  5
20A18
331
20DD8
  5
20DD8
331
20DD9
  5
20DD9
331
20DD5
  5
20DD5
331
20DD6
  5
20DD6
331
20DD7
  5
20DD7
  0
DICTIONARY
  5
2372E
102
{ACAD_REACTORS
330
1DE81
102
}
330
1DE81
100
AcDbDictionary
280
     1
281
     1
  3
Edit
360
2372F
  0
DICTIONARY
  5
23730
102
{ACAD_REACTORS
330
20CA6
102
}
330
20CA6
100
AcDbDictionary
280
     1
281
     1
  3
Edit
360
23731
  0
DICTIONARY
  5
20CAA
102
{ACAD_REACTORS
330
20CA9
102
}
330
20CA9
100
AcDbDictionary
280
     1
281
     1
  3
TEXT
360
20CAB
  0
DICTIONARY
  5
20DDC
102
{ACAD_REACTORS
330
20DDB
102
}
330
20DDB
100
AcDbDictionary
280
     1
281
     1
  3
TEXT
360
20DDD
  0
XRECORD
  5
23713
102
{ACAD_REACTORS
330
23712
102
}
330
23712
100
AcDbXrecord
280
     1
102
SHADEPLOT
 70
     0
  0
XRECORD
  5
23715
102
{ACAD_REACTORS
330
23714
102
}
330
23714
100
AcDbXrecord
280
     1
102
SHADEPLOT
 70
     0
  0
ACDBDETAILVIEWSTYLE
  5
20CB3
102
{ACAD_XDICTIONARY
360
23734
102
}
102
{ACAD_REACTORS
330
1B2F0
102
}
330
1B2F0
100
AcDbModelDocViewStyle
 70
     0
  3
Imperial24
290
     0
100
AcDbDetailViewStyle
 70
     0
 71
     0
 90
        3
 71
     1
340
11
 40
0.24
340
0
 40
0.24
300

 40
0.36
280
     3
 71
     2
340
16
 90
       25
 71
     3
340
11
 40
0.24
 90
        1
 40
0.75
 90
        1
300
%<\AcVar ViewType \f "%tc1">% %<\AcVar ViewDetailId>%\PVARIA %<\AcVar ViewScale \f "%sn">%
 71
     4
340
16
 90
       25
340
16
 90
       25
280
     0
  0
ACDBDETAILVIEWSTYLE
  5
1B2F1
102
{ACAD_XDICTIONARY
360
2372C
102
}
102
{ACAD_REACTORS
330
1B2F0
102
}
330
1B2F0
100
AcDbModelDocViewStyle
 70
     0
  3
Metric50
290
     0
100
AcDbDetailViewStyle
 70
     0
 71
     0
 90
        3
 71
     1
340
11
 40
5.0
340
0
 40
5.0
300

 40
0.0
280
     1
 71
     2
340
16
 90
       25
 71
     3
340
11
 40
5.0
 90
        0
 40
15.0
 90
        1
300
%<\AcVar ViewDetailId>% (%<\AcVar ViewScale \f "%sn">%)
 71
     4
340
16
 90
       25
340
16
 90
       25
280
     0
  0
LAYOUT
  5
31A7
102
{ACAD_XDICTIONARY
360
23710
102
}
102
{ACAD_REACTORS
330
31A5
102
}
330
31A5
100
AcDbPlotSettings
  1

  2
\\ingdc01\ITB3
  4
A4
  6

 40
6.805083274841307
 41
5.027085781097412
 42
6.805068969726562
 43
5.027069091796875
 44
209.9733276367186
 45
296.9683227539062
 46
0.0
 47
0.0
 48
0.0
 49
0.0
140
0.0
141
0.0
142
1.0
143
1.0
 70
   688
 72
     1
 73
     1
 74
     5
  7

 75
    16
147
1.0
148
0.0
149
0.0
100
AcDbLayout
  1
Layout1
 70
     1
 71
     1
 10
-5.027069091796875
 20
-6.805083274841307
 11
291.9412536621094
 21
203.1682443618775
 12
0.0
 22
0.0
 32
0.0
 14
28.69141678810127
 24
19.6363175392151
 34
0.0
 15
258.2227510929107
 25
176.7268578529358
 35
0.0
146
0.0
 13
0.0
 23
0.0
 33
0.0
 16
1.0
 26
0.0
 36
0.0
 17
0.0
 27
1.0
 37
0.0
 76
     0
330
1B
331
9C00
1001
ACAD_PSEXT
1000
\\ingdc01\ITB3
1000
HP LaserJet 5000 Series PCL
1000
TB
1000

1070
     0
  0
LAYOUT
  5
31A6
102
{ACAD_XDICTIONARY
360
2370E
102
}
102
{ACAD_REACTORS
330
31A5
102
}
330
31A5
100
AcDbPlotSettings
  1

  2
\\ingdc01\ITB3
  4
A4
  6

 40
6.805083274841307
 41
5.027085781097412
 42
6.805068969726562
 43
5.027069091796875
 44
209.9733276367186
 45
296.9683227539062
 46
0.0
 47
0.0
 48
0.0
 49
0.0
140
0.0
141
0.0
142
1.0
143
1.500313223655698
 70
 11952
 72
     1
 73
     1
 74
     0
  7

 75
     0
147
0.6665274852163048
148
239.0155119930048
149
102.2558208723354
100
AcDbLayout
  1
Model
 70
     1
 71
     0
 10
0.0
 20
0.0
 11
12.0
 21
9.0
 12
0.0
 22
0.0
 32
0.0
 14
0.0
 24
0.0
 34
0.0
 15
0.0
 25
0.0
 35
0.0
146
0.0
 13
0.0
 23
0.0
 33
0.0
 16
1.0
 26
0.0
 36
0.0
 17
0.0
 27
1.0
 37
0.0
 76
     0
330
1F
331
1F4
1001
ACAD_PSEXT
1000
\\ingdc01\ITB3
1000
HP LaserJet 5000 Series PCL
1000
TB
1000

1070
     0
  0
MATERIAL
  5
318D
102
{ACAD_XDICTIONARY
360
1B22B
102
}
102
{ACAD_REACTORS
330
318B
102
}
330
318B
100
AcDbMaterial
  1
ByBlock
  0
MATERIAL
  5
318C
102
{ACAD_XDICTIONARY
360
1B22D
102
}
102
{ACAD_REACTORS
330
318B
102
}
330
318B
100
AcDbMaterial
  1
ByLayer
  0
MATERIAL
  5
318E
102
{ACAD_XDICTIONARY
360
1B22F
102
}
102
{ACAD_REACTORS
330
318B
102
}
330
318B
100
AcDbMaterial
  1
Global
  0
MLEADERSTYLE
  5
1B2ED
102
{ACAD_REACTORS
330
1B221
102
}
330
1B221
100
AcDbMLeaderStyle
170
     2
171
     1
172
     0
 90
        2
 40
0.0
 41
0.0
173
     1
 91
-1056964608
340
14
 92
       -2
290
     1
 42
2.0
291
     1
 43
0.36
  3
Standard
 44
4.0
300

342
11
174
     1
178
     6
175
     1
176
     0
 93
-1056964608
 45
4.0
292
     0
297
     0
 46
4.0
 94
-1056964608
 47
1.0
 49
1.0
140
1.0
293
     1
141
0.0
294
     1
177
     0
142
1.0
295
     0
296
     0
143
0.125
1001
ACAD_MLEADERVER
1070
     2
  0
MLINESTYLE
  5
3185
102
{ACAD_REACTORS
330
3184
102
}
330
3184
100
AcDbMlineStyle
  2
STANDARD
 70
     0
  3

 62
   256
 51
90.0
 52
90.0
 71
     2
 49
0.5
 62
   256
  6
BYLAYER
 49
-0.5
 62
   256
  6
BYLAYER
  0
ACDBPLACEHOLDER
  5
318A
102
{ACAD_REACTORS
330
3189
102
}
330
3189
  0
SCALE
  5
1B1FD
102
{ACAD_REACTORS
330
1B1FC
102
}
330
1B1FC
100
AcDbScale
 70
     0
300
1:1
140
1.0
141
1.0
290
     1
1001
ACAD
1000
AcRTDxfName
1000
SCALE
  0
SCALE
  5
1B1FE
102
{ACAD_REACTORS
330
1B1FC
102
}
330
1B1FC
100
AcDbScale
 70
     0
300
1:2
140
1.0
141
2.0
290
     0
1001
ACAD
1000
AcRTDxfName
1000
SCALE
  0
SCALE
  5
1B1FF
102
{ACAD_REACTORS
330
1B1FC
102
}
330
1B1FC
100
AcDbScale
 70
     0
300
1:4
140
1.0
141
4.0
290
     0
1001
ACAD
1000
AcRTDxfName
1000
SCALE
  0
SCALE
  5
1B200
102
{ACAD_REACTORS
330
1B1FC
102
}
330
1B1FC
100
AcDbScale
 70
     0
300
1:5
140
1.0
141
5.0
290
     0
1001
ACAD
1000
AcRTDxfName
1000
SCALE
  0
SCALE
  5
1B201
102
{ACAD_REACTORS
330
1B1FC
102
}
330
1B1FC
100
AcDbScale
 70
     0
300
1:8
140
1.0
141
8.0
290
     0
1001
ACAD
1000
AcRTDxfName
1000
SCALE
  0
SCALE
  5
1B202
102
{ACAD_REACTORS
330
1B1FC
102
}
330
1B1FC
100
AcDbScale
 70
     0
300
1:10
140
1.0
141
10.0
290
     0
1001
ACAD
1000
AcRTDxfName
1000
SCALE
  0
SCALE
  5
1B203
102
{ACAD_REACTORS
330
1B1FC
102
}
330
1B1FC
100
AcDbScale
 70
     0
300
1:16
140
1.0
141
16.0
290
     0
1001
ACAD
1000
AcRTDxfName
1000
SCALE
  0
SCALE
  5
1B204
102
{ACAD_REACTORS
330
1B1FC
102
}
330
1B1FC
100
AcDbScale
 70
     0
300
1:20
140
1.0
141
20.0
290
     0
1001
ACAD
1000
AcRTDxfName
1000
SCALE
  0
SCALE
  5
1B205
102
{ACAD_REACTORS
330
1B1FC
102
}
330
1B1FC
100
AcDbScale
 70
     0
300
1:30
140
1.0
141
30.0
290
     0
1001
ACAD
1000
AcRTDxfName
1000
SCALE
  0
SCALE
  5
1B206
102
{ACAD_REACTORS
330
1B1FC
102
}
330
1B1FC
100
AcDbScale
 70
     0
300
1:40
140
1.0
141
40.0
290
     0
1001
ACAD
1000
AcRTDxfName
1000
SCALE
  0
SCALE
  5
1B207
102
{ACAD_REACTORS
330
1B1FC
102
}
330
1B1FC
100
AcDbScale
 70
     0
300
1:50
140
1.0
141
50.0
290
     0
1001
ACAD
1000
AcRTDxfName
1000
SCALE
  0
SCALE
  5
1B208
102
{ACAD_REACTORS
330
1B1FC
102
}
330
1B1FC
100
AcDbScale
 70
     0
300
1:100
140
1.0
141
100.0
290
     0
1001
ACAD
1000
AcRTDxfName
1000
SCALE
  0
SCALE
  5
1B209
102
{ACAD_REACTORS
330
1B1FC
102
}
330
1B1FC
100
AcDbScale
 70
     0
300
2:1
140
2.0
141
1.0
290
     0
1001
ACAD
1000
AcRTDxfName
1000
SCALE
  0
SCALE
  5
1B20A
102
{ACAD_REACTORS
330
1B1FC
102
}
330
1B1FC
100
AcDbScale
 70
     0
300
4:1
140
4.0
141
1.0
290
     0
1001
ACAD
1000
AcRTDxfName
1000
SCALE
  0
SCALE
  5
1B20B
102
{ACAD_REACTORS
330
1B1FC
102
}
330
1B1FC
100
AcDbScale
 70
     0
300
8:1
140
8.0
141
1.0
290
     0
1001
ACAD
1000
AcRTDxfName
1000
SCALE
  0
SCALE
  5
1B20C
102
{ACAD_REACTORS
330
1B1FC
102
}
330
1B1FC
100
AcDbScale
 70
     0
300
10:1
140
10.0
141
1.0
290
     0
1001
ACAD
1000
AcRTDxfName
1000
SCALE
  0
SCALE
  5
1B20D
102
{ACAD_REACTORS
330
1B1FC
102
}
330
1B1FC
100
AcDbScale
 70
     0
300
100:1
140
100.0
141
1.0
290
     0
1001
ACAD
1000
AcRTDxfName
1000
SCALE
  0
SCALE
  5
1B20E
102
{ACAD_REACTORS
330
1B1FC
102
}
330
1B1FC
100
AcDbScale
 70
     0
300
1/128" = 1'-0"
140
0.0078125
141
12.0
290
     0
1001
ACAD
1000
AcRTDxfName
1000
SCALE
  0
SCALE
  5
1B20F
102
{ACAD_REACTORS
330
1B1FC
102
}
330
1B1FC
100
AcDbScale
 70
     0
300
1/64" = 1'-0"
140
0.015625
141
12.0
290
     0
1001
ACAD
1000
AcRTDxfName
1000
SCALE
  0
SCALE
  5
1B210
102
{ACAD_REACTORS
330
1B1FC
102
}
330
1B1FC
100
AcDbScale
 70
     0
300
1/32" = 1'-0"
140
0.03125
141
12.0
290
     0
1001
ACAD
1000
AcRTDxfName
1000
SCALE
  0
SCALE
  5
1B211
102
{ACAD_REACTORS
330
1B1FC
102
}
330
1B1FC
100
AcDbScale
 70
     0
300
1/16" = 1'-0"
140
0.0625
141
12.0
290
     0
1001
ACAD
1000
AcRTDxfName
1000
SCALE
  0
SCALE
  5
1B212
102
{ACAD_REACTORS
330
1B1FC
102
}
330
1B1FC
100
AcDbScale
 70
     0
300
3/32" = 1'-0"
140
0.09375
141
12.0
290
     0
1001
ACAD
1000
AcRTDxfName
1000
SCALE
  0
SCALE
  5
1B213
102
{ACAD_REACTORS
330
1B1FC
102
}
330
1B1FC
100
AcDbScale
 70
     0
300
1/8" = 1'-0"
140
0.125
141
12.0
290
     0
1001
ACAD
1000
AcRTDxfName
1000
SCALE
  0
SCALE
  5
1B214
102
{ACAD_REACTORS
330
1B1FC
102
}
330
1B1FC
100
AcDbScale
 70
     0
300
3/16" = 1'-0"
140
0.1875
141
12.0
290
     0
1001
ACAD
1000
AcRTDxfName
1000
SCALE
  0
SCALE
  5
1B215
102
{ACAD_REACTORS
330
1B1FC
102
}
330
1B1FC
100
AcDbScale
 70
     0
300
1/4" = 1'-0"
140
0.25
141
12.0
290
     0
1001
ACAD
1000
AcRTDxfName
1000
SCALE
  0
SCALE
  5
1B216
102
{ACAD_REACTORS
330
1B1FC
102
}
330
1B1FC
100
AcDbScale
 70
     0
300
3/8" = 1'-0"
140
0.375
141
12.0
290
     0
1001
ACAD
1000
AcRTDxfName
1000
SCALE
  0
SCALE
  5
1B217
102
{ACAD_REACTORS
330
1B1FC
102
}
330
1B1FC
100
AcDbScale
 70
     0
300
1/2" = 1'-0"
140
0.5
141
12.0
290
     0
1001
ACAD
1000
AcRTDxfName
1000
SCALE
  0
SCALE
  5
1B218
102
{ACAD_REACTORS
330
1B1FC
102
}
330
1B1FC
100
AcDbScale
 70
     0
300
3/4" = 1'-0"
140
0.75
141
12.0
290
     0
1001
ACAD
1000
AcRTDxfName
1000
SCALE
  0
SCALE
  5
1B219
102
{ACAD_REACTORS
330
1B1FC
102
}
330
1B1FC
100
AcDbScale
 70
     0
300
1" = 1'-0"
140
1.0
141
12.0
290
     0
1001
ACAD
1000
AcRTDxfName
1000
SCALE
  0
SCALE
  5
1B21A
102
{ACAD_REACTORS
330
1B1FC
102
}
330
1B1FC
100
AcDbScale
 70
     0
300
1-1/2" = 1'-0"
140
1.5
141
12.0
290
     0
1001
ACAD
1000
AcRTDxfName
1000
SCALE
  0
SCALE
  5
1B21B
102
{ACAD_REACTORS
330
1B1FC
102
}
330
1B1FC
100
AcDbScale
 70
     0
300
3" = 1'-0"
140
3.0
141
12.0
290
     0
1001
ACAD
1000
AcRTDxfName
1000
SCALE
  0
SCALE
  5
1B21C
102
{ACAD_REACTORS
330
1B1FC
102
}
330
1B1FC
100
AcDbScale
 70
     0
300
6" = 1'-0"
140
6.0
141
12.0
290
     0
1001
ACAD
1000
AcRTDxfName
1000
SCALE
  0
SCALE
  5
1B21D
102
{ACAD_REACTORS
330
1B1FC
102
}
330
1B1FC
100
AcDbScale
 70
     0
300
1'-0" = 1'-0"
140
12.0
141
12.0
290
     0
1001
ACAD
1000
AcRTDxfName
1000
SCALE
  0
ACDBSECTIONVIEWSTYLE
  5
20CB1
102
{ACAD_XDICTIONARY
360
23732
102
}
102
{ACAD_REACTORS
330
1B2EE
102
}
330
1B2EE
100
AcDbModelDocViewStyle
 70
     0
  3
Imperial24
290
     0
100
AcDbSectionViewStyle
 70
     0
 71
     0
 90
       78
 71
     1
340
11
 40
0.24
340
0
340
0
 40
0.24
300
I, O, Q, S, X, Z
 40
0.48
 90
        3
 40
0.18
 90
        1
 71
     2
340
16
 90
       25
340
16
 90
       50
 40
0.24
 40
0.0
 40
0.24
 71
     3
340
11
 40
0.24
 90
        1
 40
0.75
 90
        1
300
%<\AcVar ViewType \f "%tc1">% %<\AcVar ViewSectionStartId>%-%<\AcVar ViewSectionEndId>%\PVARIA %<\AcVar ViewScale \f "%sn">%
 71
     4
300
ANSI31
 40
1.0
 90
        0
290
     0
290
     0
 90
        6
 40
0.0
 40
1.570796326794896
 40
0.2617993877991494
 40
1.308996938995747
 40
-0.2617993877991494
 40
1.832595714594044
  0
ACDBSECTIONVIEWSTYLE
  5
1B2EF
102
{ACAD_XDICTIONARY
360
2372A
102
}
102
{ACAD_REACTORS
330
1B2EE
102
}
330
1B2EE
100
AcDbModelDocViewStyle
 70
     0
  3
Metric50
290
     0
100
AcDbSectionViewStyle
 70
     0
 71
     0
 90
      102
 71
     1
340
11
 40
5.0
340
0
340
0
 40
5.0
300
I, O, Q, S, X, Z
 40
10.0
 90
        0
 40
2.5
 90
        0
 71
     2
340
16
 90
       25
340
16
 90
       50
 40
5.0
 40
2.5
 40
5.0
 71
     3
340
11
 40
5.0
 90
        0
 40
15.0
 90
        1
300
%<\AcVar ViewSectionStartId>%-%<\AcVar ViewSectionEndId>% (%<\AcVar ViewScale \f "%sn">%)
 71
     4
300
ANSI31
 40
1.0
 90
        0
290
     0
290
     0
 90
        6
 40
0.0
 40
1.570796326794896
 40
0.2617993877991494
 40
1.308996938995747
 40
-0.2617993877991494
 40
1.832595714594044
  0
TABLESTYLE
  5
31A2
102
{ACAD_XDICTIONARY
360
1B314
102
}
102
{ACAD_REACTORS
330
31A1
102
}
330
31A1
100
AcDbTableStyle
  3
Standard
 70
     0
 71
     0
 40
1.5
 41
1.5
280
     0
281
     0
  7
STANDARD
140
4.5
170
     2
 62
     0
 63
     7
283
     0
274
    -2
284
     1
 64
     0
275
    -2
285
     1
 65
     0
276
    -2
286
     1
 66
     0
277
    -2
287
     1
 67
     0
278
    -2
288
     1
 68
     0
279
    -2
289
     1
 69
     0
  7
STANDARD
140
6.0
170
     5
 62
     0
 63
     7
283
     0
274
    -2
284
     1
 64
     0
275
    -2
285
     1
 65
     0
276
    -2
286
     1
 66
     0
277
    -2
287
     1
 67
     0
278
    -2
288
     1
 68
     0
279
    -2
289
     1
 69
     0
  7
STANDARD
140
4.5
170
     5
 62
     0
 63
     7
283
     0
274
    -2
284
     1
 64
     0
275
    -2
285
     1
 65
     0
276
    -2
286
     1
 66
     0
277
    -2
287
     1
 67
     0
278
    -2
288
     1
 68
     0
279
    -2
289
     1
 69
     0
  0
VISUALSTYLE
  5
3195
102
{ACAD_XDICTIONARY
360
236F7
102
}
102
{ACAD_REACTORS
330
318F
102
}
330
318F
100
AcDbVisualStyle
  2

 70
     4
 71
     0
 72
     2
 73
     0
 90
        0
 40
-0.6
 41
-30.0
 62
     5
 63
     7
 74
     1
 91
        4
 64
     7
 65
   257
 75
     1
175
     1
 42
1.0
 92
        0
 66
   257
 43
1.0
 76
     1
 77
     6
 78
     2
 67
     7
 79
     5
170
     0
171
     0
290
     0
174
     0
 93
        1
 44
0.0
173
     0
291
     0
 45
0.0
1001
ACAD
1000
AcDbSavedByObjectVersion
1070
     0
  0
VISUALSTYLE
  5
3197
102
{ACAD_XDICTIONARY
360
236FB
102
}
102
{ACAD_REACTORS
330
318F
102
}
330
318F
100
AcDbVisualStyle
  2

 70
     6
 71
     1
 72
     2
 73
     2
 90
        0
 40
-0.6
 41
-30.0
 62
     5
 63
     7
 74
     2
 91
        2
 64
     7
 65
   257
 75
     2
175
     1
 42
40.0
 92
        0
 66
   257
 43
1.0
 76
     1
 77
     6
 78
     2
 67
     7
 79
     3
170
     0
171
     0
290
     0
174
     0
 93
        1
 44
0.0
173
     0
291
     0
 45
0.0
1001
ACAD
1000
AcDbSavedByObjectVersion
1070
     0
  0
VISUALSTYLE
  5
3196
102
{ACAD_XDICTIONARY
360
236F9
102
}
102
{ACAD_REACTORS
330
318F
102
}
330
318F
100
AcDbVisualStyle
  2

 70
     5
 71
     0
 72
     2
 73
     0
 90
        0
 40
-0.6
 41
-30.0
 62
     5
 63
     7
 74
     1
 91
        4
 64
     7
 65
   257
 75
     1
175
     1
 42
1.0
 92
        0
 66
   257
 43
1.0
 76
     1
 77
     6
 78
     2
 67
     7
 79
     5
170
     0
171
     0
290
     0
174
     0
 93
        1
 44
0.0
173
     0
291
     0
 45
0.0
1001
ACAD
1000
AcDbSavedByObjectVersion
1070
     0
  0
VISUALSTYLE
  5
3194
102
{ACAD_XDICTIONARY
360
236F5
102
}
102
{ACAD_REACTORS
330
318F
102
}
330
318F
100
AcDbVisualStyle
  2

 70
     7
 71
     1
 72
     0
 73
     1
 90
        0
 40
-0.6
 41
-30.0
 62
     5
 63
     7
 74
     0
 91
        4
 64
     7
 65
   257
 75
     1
175
     1
 42
1.0
 92
        8
 66
     7
 43
1.0
 76
     1
 77
     6
 78
     2
 67
     7
 79
     5
170
     0
171
     0
290
     0
174
     0
 93
        1
 44
0.0
173
     0
291
     1
 45
0.0
1001
ACAD
1000
AcDbSavedByObjectVersion
1070
     0
  0
VISUALSTYLE
  5
319B
102
{ACAD_XDICTIONARY
360
23703
102
}
102
{ACAD_REACTORS
330
318F
102
}
330
318F
100
AcDbVisualStyle
  2

 70
    12
 71
     2
 72
     2
 73
     0
 90
        0
 40
-0.6
 41
-30.0
 62
     5
 63
     7
 74
     1
 91
        4
 64
     7
 65
   257
 75
     1
175
     1
 42
1.0
 92
        8
 66
     7
 43
1.0
 76
     1
 77
     6
 78
     2
 67
     7
 79
     5
170
     0
171
     0
290
     0
174
     0
 93
        1
 44
50.0
173
     0
291
     1
 45
0.0
1001
ACAD
1000
AcDbSavedByObjectVersion
1070
     0
  0
VISUALSTYLE
  5
319F
102
{ACAD_XDICTIONARY
360
2370B
102
}
102
{ACAD_REACTORS
330
318F
102
}
330
318F
100
AcDbVisualStyle
  2

 70
    16
 71
     2
 72
     2
 73
     3
 90
        0
 40
-0.6
 41
-30.0
 62
     5
 63
     8
 74
     1
 91
        4
 64
     7
 65
   257
 75
     1
175
     1
 42
1.0
 92
        8
 66
     8
 43
1.0
 76
     1
 77
     6
 78
     2
 67
     7
 79
     5
170
     0
171
     0
290
     0
174
     0
 93
        1
 44
0.0
173
     0
291
     1
 45
0.0
1001
ACAD
1000
AcDbSavedByObjectVersion
1070
     0
  0
VISUALSTYLE
  5
3198
102
{ACAD_XDICTIONARY
360
236FD
102
}
102
{ACAD_REACTORS
330
318F
102
}
330
318F
100
AcDbVisualStyle
  2

 70
     9
 71
     3
 72
     2
 73
     0
 90
        0
 40
-0.6
 41
-30.0
 62
     5
 63
     7
 74
     2
 91
        2
 64
     7
 65
   257
 75
     1
175
     1
 42
40.0
 92
        8
 66
     7
 43
1.0
 76
     1
 77
     6
 78
     2
 67
     7
 79
     3
170
     0
171
     0
290
     0
174
     0
 93
        1
 44
0.0
173
     0
291
     0
 45
0.0
1001
ACAD
1000
AcDbSavedByObjectVersion
1070
     0
  0
VISUALSTYLE
  5
319A
102
{ACAD_XDICTIONARY
360
23701
102
}
102
{ACAD_REACTORS
330
318F
102
}
330
318F
100
AcDbVisualStyle
  2

 70
    11
 71
     2
 72
     2
 73
     0
 90
        0
 40
-0.6
 41
-30.0
 62
     5
 63
     7
 74
     1
 91
        4
 64
     7
 65
   257
 75
     1
175
     1
 42
1.0
 92
        8
 66
     7
 43
1.0
 76
     1
 77
     6
 78
     2
 67
     7
 79
     5
170
     0
171
     0
290
     0
174
     0
 93
        1
 44
-50.0
173
     0
291
     1
 45
0.0
1001
ACAD
1000
AcDbSavedByObjectVersion
1070
     0
  0
VISUALSTYLE
  5
1B2EC
102
{ACAD_XDICTIONARY
360
23728
102
}
102
{ACAD_REACTORS
330
318F
102
}
330
318F
100
AcDbVisualStyle
  2

 70
    22
 71
     2
 72
     2
 73
     0
 90
        0
 40
-0.6
 41
-30.0
 62
     5
 63
     7
 74
     1
 91
        4
 64
     7
 65
   257
 75
     1
175
     1
 42
1.0
 92
        8
 66
     7
 43
1.0
 76
     1
 77
     6
 78
     2
 67
     7
 79
     5
170
     0
171
     0
290
     0
174
     0
 93
        1
 44
0.0
173
     0
291
     1
 45
0.0
1001
ACAD
1000
AcDbSavedByObjectVersion
1070
     0
  0
VISUALSTYLE
  5
319E
102
{ACAD_XDICTIONARY
360
23709
102
}
102
{ACAD_REACTORS
330
318F
102
}
330
318F
100
AcDbVisualStyle
  2

 70
    15
 71
     2
 72
     2
 73
     0
 90
        0
 40
-0.6
 41
-30.0
 62
     5
 63
     7
 74
     1
 91
        4
 64
     7
 65
   257
 75
     1
175
     1
 42
1.0
 92
        8
 66
     7
 43
1.0
 76
     1
 77
     6
 78
     2
 67
     7
 79
     5
170
     0
171
     0
290
     0
174
     0
 93
        1
 44
0.0
173
     0
291
     1
 45
0.0
1001
ACAD
1000
AcDbSavedByObjectVersion
1070
     0
  0
VISUALSTYLE
  5
3190
102
{ACAD_XDICTIONARY
360
236ED
102
}
102
{ACAD_REACTORS
330
318F
102
}
330
318F
100
AcDbVisualStyle
  2

 70
     0
 71
     2
 72
     1
 73
     1
 90
        2
 40
-0.6
 41
30.0
 62
     5
 63
     7
 74
     0
 91
        4
 64
     7
 65
   257
 75
     1
175
     1
 42
1.0
 92
        8
 66
     7
 43
1.0
 76
     1
 77
     6
 78
     2
 67
     7
 79
     5
170
     0
171
     0
290
     0
174
     0
 93
       13
 44
0.0
173
     0
291
     1
 45
0.0
1001
ACAD
1000
AcDbSavedByObjectVersion
1070
     0
  0
VISUALSTYLE
  5
3191
102
{ACAD_XDICTIONARY
360
236EF
102
}
102
{ACAD_REACTORS
330
318F
102
}
330
318F
100
AcDbVisualStyle
  2

 70
     1
 71
     2
 72
     1
 73
     1
 90
        2
 40
-0.6
 41
30.0
 62
     5
 63
     7
 74
     1
 91
        4
 64
     7
 65
   257
 75
     1
175
     1
 42
1.0
 92
        0
 66
   257
 43
1.0
 76
     1
 77
     6
 78
     2
 67
     7
 79
     5
170
     0
171
     0
290
     0
174
     0
 93
       13
 44
0.0
173
     0
291
     1
 45
0.0
1001
ACAD
1000
AcDbSavedByObjectVersion
1070
     0
  0
VISUALSTYLE
  5
3192
102
{ACAD_XDICTIONARY
360
236F1
102
}
102
{ACAD_REACTORS
330
318F
102
}
330
318F
100
AcDbVisualStyle
  2

 70
     2
 71
     2
 72
     2
 73
     1
 90
        2
 40
-0.6
 41
30.0
 62
     5
 63
     7
 74
     0
 91
        4
 64
     7
 65
   257
 75
     1
175
     1
 42
1.0
 92
        0
 66
     7
 43
1.0
 76
     1
 77
     6
 78
     2
 67
     7
 79
     5
170
     0
171
     0
290
     0
174
     0
 93
       13
 44
0.0
173
     0
291
     1
 45
0.0
1001
ACAD
1000
AcDbSavedByObjectVersion
1070
     0
  0
VISUALSTYLE
  5
3193
102
{ACAD_XDICTIONARY
360
236F3
102
}
102
{ACAD_REACTORS
330
318F
102
}
330
318F
100
AcDbVisualStyle
  2

 70
     3
 71
     2
 72
     2
 73
     1
 90
        2
 40
-0.6
 41
30.0
 62
     5
 63
     7
 74
     1
 91
        4
 64
     7
 65
   257
 75
     1
175
     1
 42
1.0
 92
        0
 66
   257
 43
1.0
 76
     1
 77
     6
 78
     2
 67
     7
 79
     5
170
     0
171
     0
290
     0
174
     0
 93
       13
 44
0.0
173
     0
291
     1
 45
0.0
1001
ACAD
1000
AcDbSavedByObjectVersion
1070
     0
  0
VISUALSTYLE
  5
1B2E4
102
{ACAD_XDICTIONARY
360
23718
102
}
102
{ACAD_REACTORS
330
318F
102
}
330
318F
100
AcDbVisualStyle
  2

 70
     6
 71
     1
 72
     2
 73
     2
 90
        0
 40
-0.6
 41
-30.0
 62
     5
 63
     7
 74
     2
 91
        2
 64
     7
 65
   257
 75
     2
175
     1
 42
40.0
 92
        0
 66
   257
 43
1.0
 76
     1
 77
     6
 78
     2
 67
     7
 79
     3
170
     0
171
     0
290
     0
174
     0
 93
        1
 44
0.0
173
     0
291
     0
 45
0.0
1001
ACAD
1000
AcDbSavedByObjectVersion
1070
     0
  0
VISUALSTYLE
  5
1B2EA
102
{ACAD_XDICTIONARY
360
23724
102
}
102
{ACAD_REACTORS
330
318F
102
}
330
318F
100
AcDbVisualStyle
  2

 70
    20
 71
     2
 72
     2
 73
     0
 90
        0
 40
-0.6
 41
-30.0
 62
     5
 63
     7
 74
     1
 91
        4
 64
     7
 65
   257
 75
     1
175
     1
 42
1.0
 92
       10
 66
     7
 43
1.0
 76
     1
 77
     6
 78
     2
 67
     7
 79
     5
170
     0
171
     0
290
     0
174
     0
 93
        1
 44
0.0
173
     0
291
     1
 45
0.0
1001
ACAD
1000
AcDbSavedByObjectVersion
1070
     0
  0
VISUALSTYLE
  5
319D
102
{ACAD_XDICTIONARY
360
23707
102
}
102
{ACAD_REACTORS
330
318F
102
}
330
318F
100
AcDbVisualStyle
  2

 70
    14
 71
     2
 72
     2
 73
     0
 90
        0
 40
-0.6
 41
-30.0
 62
     5
 63
     7
 74
     1
 91
        4
 64
     7
 65
   257
 75
     7
175
     7
 42
1.0
 92
        8
 66
     7
 43
1.0
 76
     1
 77
     6
 78
     2
 67
     7
 79
     5
170
     0
171
     0
290
     0
174
     0
 93
        1
 44
0.0
173
     0
291
     1
 45
0.0
1001
ACAD
1000
AcDbSavedByObjectVersion
1070
     0
  0
VISUALSTYLE
  5
1B2EB
102
{ACAD_XDICTIONARY
360
23726
102
}
102
{ACAD_REACTORS
330
318F
102
}
330
318F
100
AcDbVisualStyle
  2

 70
    21
 71
     2
 72
     2
 73
     0
 90
        0
 40
-0.6
 41
-30.0
 62
     5
 63
     7
 74
     1
 91
        4
 64
     7
 65
   257
 75
     1
175
     1
 42
1.0
 92
        9
 66
     7
 43
1.0
 76
     1
 77
     6
 78
     2
 67
     7
 79
     5
170
     0
171
     0
290
     0
174
     0
 93
        1
 44
0.0
173
     0
291
     1
 45
0.0
1001
ACAD
1000
AcDbSavedByObjectVersion
1070
     0
  0
VISUALSTYLE
  5
3199
102
{ACAD_XDICTIONARY
360
236FF
102
}
102
{ACAD_REACTORS
330
318F
102
}
330
318F
100
AcDbVisualStyle
  2

 70
     8
 71
     2
 72
     2
 73
     0
 90
        0
 40
-0.6
 41
-30.0
 62
     5
 63
     7
 74
     1
 91
        0
 64
     7
 65
   257
 75
     1
175
     1
 42
1.0
 92
        8
 66
     8
 43
1.0
 76
     1
 77
     6
 78
     2
 67
     7
 79
     5
170
     0
171
     0
290
     0
174
     0
 93
       13
 44
0.0
173
     0
291
     0
 45
0.0
1001
ACAD
1000
AcDbSavedByObjectVersion
1070
     0
  0
VISUALSTYLE
  5
1B2E9
102
{ACAD_XDICTIONARY
360
23722
102
}
102
{ACAD_REACTORS
330
318F
102
}
330
318F
100
AcDbVisualStyle
  2

 70
    27
 71
     2
 72
     2
 73
     1
 90
        2
 40
-0.6
 41
30.0
 62
     5
 63
     7
 74
     0
 91
        4
 64
     7
 65
   257
 75
     1
175
     1
 42
1.0
 92
        8
 66
   257
 43
1.0
 76
     1
 77
     6
 78
     2
 67
     8
 79
     3
170
     0
171
     0
290
     0
174
     0
 93
        5
 44
0.0
173
     0
291
     0
 45
0.0
1001
ACAD
1000
AcDbSavedByObjectVersion
1070
     0
  0
VISUALSTYLE
  5
1B2E8
102
{ACAD_XDICTIONARY
360
23720
102
}
102
{ACAD_REACTORS
330
318F
102
}
330
318F
100
AcDbVisualStyle
  2

 70
    26
 71
     2
 72
     2
 73
     1
 90
        2
 40
-0.6
 41
30.0
 62
     5
 63
     7
 74
     1
 91
       10
 64
     7
 65
   257
 75
     2
175
     1
 42
1.0
 92
        8
 66
   257
 43
1.0
 76
     1
 77
     6
 78
     2
 67
     7
 79
     3
170
     0
171
     0
290
     0
174
     0
 93
        5
 44
0.0
173
     0
291
     0
 45
0.0
1001
ACAD
1000
AcDbSavedByObjectVersion
1070
     0
  0
VISUALSTYLE
  5
1B2E5
102
{ACAD_XDICTIONARY
360
2371A
102
}
102
{ACAD_REACTORS
330
318F
102
}
330
318F
100
AcDbVisualStyle
  2

 70
    23
 71
     2
 72
     2
 73
     3
 90
        0
 40
-0.6
 41
-30.0
 62
     5
 63
     7
 74
     2
 91
        2
 64
     7
 65
     7
 75
     1
175
     1
 42
40.0
 92
        8
 66
     7
 43
1.0
 76
     1
 77
     6
 78
     2
 67
     7
 79
     3
170
     0
171
     0
290
     0
174
     0
 93
        1
 44
0.0
173
     0
291
     0
 45
0.0
1001
ACAD
1000
AcDbSavedByObjectVersion
1070
     0
  0
VISUALSTYLE
  5
1B2E6
102
{ACAD_XDICTIONARY
360
2371C
102
}
102
{ACAD_REACTORS
330
318F
102
}
330
318F
100
AcDbVisualStyle
  2

 70
    24
 71
     1
 72
     2
 73
     2
 90
        0
 40
-0.6
 41
-30.0
 62
     5
 63
     7
 74
     2
 91
        2
 64
     7
 65
     7
 75
     1
175
     1
 42
40.0
 92
       11
 66
     7
 43
1.0
 76
     1
 77
     6
 78
     2
 67
     7
 79
     6
170
     0
171
     0
290
     0
174
     0
 93
        1
 44
0.0
173
     0
291
     0
 45
0.0
1001
ACAD
1000
AcDbSavedByObjectVersion
1070
     0
  0
VISUALSTYLE
  5
319C
102
{ACAD_XDICTIONARY
360
23705
102
}
102
{ACAD_REACTORS
330
318F
102
}
330
318F
100
AcDbVisualStyle
  2

 70
    13
 71
     2
 72
     2
 73
     0
 90
        0
 40
-0.6
 41
-30.0
 62
     5
 63
     7
 74
     1
 91
        4
 64
     7
 65
   257
 75
     1
175
     1
 42
1.0
 92
       12
 66
     7
 43
1.0
 76
     1
 77
     6
 78
     2
 67
     7
 79
     5
170
     0
171
     0
290
     0
174
     0
 93
        1
 44
0.0
173
     0
291
     1
 45
0.0
1001
ACAD
1000
AcDbSavedByObjectVersion
1070
     0
  0
VISUALSTYLE
  5
1B2E3
102
{ACAD_XDICTIONARY
360
23716
102
}
102
{ACAD_REACTORS
330
318F
102
}
330
318F
100
AcDbVisualStyle
  2

 70
     5
 71
     0
 72
     2
 73
     0
 90
        0
 40
-0.6
 41
-30.0
 62
     5
 63
     7
 74
     1
 91
        4
 64
     7
 65
   257
 75
     1
175
     1
 42
1.0
 92
        0
 66
   257
 43
1.0
 76
     1
 77
     6
 78
     2
 67
     7
 79
     3
170
     0
171
     0
290
     0
174
     0
 93
        1
 44
0.0
173
     0
291
     0
 45
0.0
1001
ACAD
1000
AcDbSavedByObjectVersion
1070
     0
  0
VISUALSTYLE
  5
1B2E7
102
{ACAD_XDICTIONARY
360
2371E
102
}
102
{ACAD_REACTORS
330
318F
102
}
330
318F
100
AcDbVisualStyle
  2

 70
    25
 71
     2
 72
     2
 73
     1
 90
        1
 40
0.5
 41
-30.0
 62
     5
 63
     7
 74
     1
 91
        0
 64
     7
 65
   257
 75
     1
175
     1
 42
1.0
 92
        8
 66
     7
 43
1.0
 76
     1
 77
     6
 78
     2
 67
     7
 79
     3
170
     0
171
     0
290
     0
174
     0
 93
       13
 44
0.0
173
     0
291
     0
 45
0.0
1001
ACAD
1000
AcDbSavedByObjectVersion
1070
     0
  0
DICTIONARYVAR
  5
1B222
102
{ACAD_REACTORS
330
33A3
102
}
330
33A3
100
DictionaryVariables
280
     0
  1
1:1
  0
DICTIONARYVAR
  5
1B30F
102
{ACAD_REACTORS
330
33A3
102
}
330
33A3
100
DictionaryVariables
280
     0
  1
STANDARD
  0
DICTIONARYVAR
  5
33A4
102
{ACAD_REACTORS
330
33A3
102
}
330
33A3
100
DictionaryVariables
280
     0
  1
STANDARD
  0
DICTIONARYVAR
  5
1B310
102
{ACAD_REACTORS
330
33A3
102
}
330
33A3
100
DictionaryVariables
280
     0
  1
Metric50
  0
DICTIONARYVAR
  5
1B311
102
{ACAD_REACTORS
330
33A3
102
}
330
33A3
100
DictionaryVariables
280
     0
  1
Metric50
  0
DICTIONARYVAR
  5
9BE8
102
{ACAD_REACTORS
330
33A3
102
}
330
33A3
100
DictionaryVariables
280
     0
  1
1
  0
DICTIONARYVAR
  5
9BE7
102
{ACAD_REACTORS
330
33A3
102
}
330
33A3
100
DictionaryVariables
280
     0
  1
0
  0
DICTIONARYVAR
  5
20993
102
{ACAD_REACTORS
330
33A3
102
}
330
33A3
100
DictionaryVariables
280
     0
  1
1
  0
DICTIONARYVAR
  5
20994
102
{ACAD_REACTORS
330
33A3
102
}
330
33A3
100
DictionaryVariables
280
     0
  1
15
  0
DICTIONARYVAR
  5
20992
102
{ACAD_REACTORS
330
33A3
102
}
330
33A3
100
DictionaryVariables
280
     0
  1
0
  0
DICTIONARYVAR
  5
20991
102
{ACAD_REACTORS
330
33A3
102
}
330
33A3
100
DictionaryVariables
280
     0
  1
0
  0
DICTIONARYVAR
  5
9BE6
102
{ACAD_REACTORS
330
33A3
102
}
330
33A3
100
DictionaryVariables
280
     0
  1
127
  0
DICTIONARYVAR
  5
236E9
102
{ACAD_REACTORS
330
33A3
102
}
330
33A3
100
DictionaryVariables
280
     0
  1
2
  0
XRECORD
  5
2372F
102
{ACAD_REACTORS
330
2372E
102
}
330
2372E
100
AcDbXrecord
280
     1
1070
     0
1070
     1
1070
     1
  0
XRECORD
  5
23731
102
{ACAD_REACTORS
330
23730
102
}
330
23730
100
AcDbXrecord
280
     1
1070
     0
1070
     1
1070
     1
  0
FIELD
  5
20CAB
102
{ACAD_REACTORS
330
20CAA
102
}
330
20CAA
100
AcDbField
  1
_text
  2
%<\_FldIdx 0>%
 90
        1
360
20CAC
 97
        0
  4

 91
       63
 92
        0
 94
        9
 95
        2
 96
        0
300

 93
        2
  6
ACFD_FIELDTEXT_ATTDEF
 90
        1
 91
        1
  6
ACFD_FIELDTEXT_CHECKSUM
 90
        2
140
5440.0
  7
ACFD_FIELD_VALUE
 90
        0
 91
        0
301

 98
        0
  0
FIELD
  5
20DDD
102
{ACAD_REACTORS
330
20DDC
102
}
330
20DDC
100
AcDbField
  1
_text
  2
%<\_FldIdx 0>%
 90
        1
360
20DDE
 97
        0
  4

 91
       63
 92
        0
 94
        9
 95
        2
 96
        0
300

 93
        1
  6
ACFD_FIELDTEXT_CHECKSUM
 90
        2
140
5440.0
  7
ACFD_FIELD_VALUE
 90
        0
 91
        0
301

 98
        0
  0
DICTIONARY
  5
23734
330
20CB3
100
AcDbDictionary
280
     1
281
     1
  3
ACAD_XREC_ROUNDTRIP
360
23735
  0
DICTIONARY
  5
2372C
330
1B2F1
100
AcDbDictionary
280
     1
281
     1
  3
ACAD_XREC_ROUNDTRIP
360
2372D
  0
DICTIONARY
  5
23710
330
31A7
100
AcDbDictionary
280
     1
281
     1
  3
ACAD_XREC_ROUNDTRIP
360
23711
  0
DICTIONARY
  5
2370E
330
31A6
100
AcDbDictionary
280
     1
281
     1
  3
ACAD_XREC_ROUNDTRIP
360
2370F
  0
DICTIONARY
  5
1B22B
330
318D
100
AcDbDictionary
280
     1
281
     1
  3
ACAD_XREC_ROUNDTRIP
360
1B22C
  0
DICTIONARY
  5
1B22D
330
318C
100
AcDbDictionary
280
     1
281
     1
  3
ACAD_XREC_ROUNDTRIP
360
1B22E
  0
DICTIONARY
  5
1B22F
330
318E
100
AcDbDictionary
280
     1
281
     1
  3
ACAD_XREC_ROUNDTRIP
360
1B230
  0
DICTIONARY
  5
23732
330
20CB1
100
AcDbDictionary
280
     1
281
     1
  3
ACAD_XREC_ROUNDTRIP
360
23733
  0
DICTIONARY
  5
2372A
330
1B2EF
100
AcDbDictionary
280
     1
281
     1
  3
ACAD_XREC_ROUNDTRIP
360
2372B
  0
DICTIONARY
  5
1B314
330
31A2
100
AcDbDictionary
280
     1
281
     1
  3
ACAD_ROUNDTRIP_2008_TABLESTYLE_CELLSTYLEMAP
360
236EA
  3
ACAD_XREC_ROUNDTRIP
360
2370D
  0
DICTIONARY
  5
236F7
330
3195
100
AcDbDictionary
280
     1
281
     1
  3
ACAD_XREC_ROUNDTRIP
360
236F8
  0
DICTIONARY
  5
236FB
330
3197
100
AcDbDictionary
280
     1
281
     1
  3
ACAD_XREC_ROUNDTRIP
360
236FC
  0
DICTIONARY
  5
236F9
330
3196
100
AcDbDictionary
280
     1
281
     1
  3
ACAD_XREC_ROUNDTRIP
360
236FA
  0
DICTIONARY
  5
236F5
330
3194
100
AcDbDictionary
280
     1
281
     1
  3
ACAD_XREC_ROUNDTRIP
360
236F6
  0
DICTIONARY
  5
23703
330
319B
100
AcDbDictionary
280
     1
281
     1
  3
ACAD_XREC_ROUNDTRIP
360
23704
  0
DICTIONARY
  5
2370B
330
319F
100
AcDbDictionary
280
     1
281
     1
  3
ACAD_XREC_ROUNDTRIP
360
2370C
  0
DICTIONARY
  5
236FD
330
3198
100
AcDbDictionary
280
     1
281
     1
  3
ACAD_XREC_ROUNDTRIP
360
236FE
  0
DICTIONARY
  5
23701
330
319A
100
AcDbDictionary
280
     1
281
     1
  3
ACAD_XREC_ROUNDTRIP
360
23702
  0
DICTIONARY
  5
23728
330
1B2EC
100
AcDbDictionary
280
     1
281
     1
  3
ACAD_XREC_ROUNDTRIP
360
23729
  0
DICTIONARY
  5
23709
330
319E
100
AcDbDictionary
280
     1
281
     1
  3
ACAD_XREC_ROUNDTRIP
360
2370A
  0
DICTIONARY
  5
236ED
330
3190
100
AcDbDictionary
280
     1
281
     1
  3
ACAD_XREC_ROUNDTRIP
360
236EE
  0
DICTIONARY
  5
236EF
330
3191
100
AcDbDictionary
280
     1
281
     1
  3
ACAD_XREC_ROUNDTRIP
360
236F0
  0
DICTIONARY
  5
236F1
330
3192
100
AcDbDictionary
280
     1
281
     1
  3
ACAD_XREC_ROUNDTRIP
360
236F2
  0
DICTIONARY
  5
236F3
330
3193
100
AcDbDictionary
280
     1
281
     1
  3
ACAD_XREC_ROUNDTRIP
360
236F4
  0
DICTIONARY
  5
23718
330
1B2E4
100
AcDbDictionary
280
     1
281
     1
  3
ACAD_XREC_ROUNDTRIP
360
23719
  0
DICTIONARY
  5
23724
330
1B2EA
100
AcDbDictionary
280
     1
281
     1
  3
ACAD_XREC_ROUNDTRIP
360
23725
  0
DICTIONARY
  5
23707
330
319D
100
AcDbDictionary
280
     1
281
     1
  3
ACAD_XREC_ROUNDTRIP
360
23708
  0
DICTIONARY
  5
23726
330
1B2EB
100
AcDbDictionary
280
     1
281
     1
  3
ACAD_XREC_ROUNDTRIP
360
23727
  0
DICTIONARY
  5
236FF
330
3199
100
AcDbDictionary
280
     1
281
     1
  3
ACAD_XREC_ROUNDTRIP
360
23700
  0
DICTIONARY
  5
23722
330
1B2E9
100
AcDbDictionary
280
     1
281
     1
  3
ACAD_XREC_ROUNDTRIP
360
23723
  0
DICTIONARY
  5
23720
330
1B2E8
100
AcDbDictionary
280
     1
281
     1
  3
ACAD_XREC_ROUNDTRIP
360
23721
  0
DICTIONARY
  5
2371A
330
1B2E5
100
AcDbDictionary
280
     1
281
     1
  3
ACAD_XREC_ROUNDTRIP
360
2371B
  0
DICTIONARY
  5
2371C
330
1B2E6
100
AcDbDictionary
280
     1
281
     1
  3
ACAD_XREC_ROUNDTRIP
360
2371D
  0
DICTIONARY
  5
23705
330
319C
100
AcDbDictionary
280
     1
281
     1
  3
ACAD_XREC_ROUNDTRIP
360
23706
  0
DICTIONARY
  5
23716
330
1B2E3
100
AcDbDictionary
280
     1
281
     1
  3
ACAD_XREC_ROUNDTRIP
360
23717
  0
DICTIONARY
  5
2371E
330
1B2E7
100
AcDbDictionary
280
     1
281
     1
  3
ACAD_XREC_ROUNDTRIP
360
2371F
  0
FIELD
  5
20CAC
330
20CAB
100
AcDbField
  1
AcVar
  2
\AcVar Filename \f "%tc1%fn2"
 90
        0
 97
        0
  4
%tc1%fn2
 91
       63
 92
        0
 94
       27
 95
        2
 96
        0
300

 93
        1
  6
Variable
 90
        4
  1
Filename
  7
ACFD_FIELD_VALUE
 90
        4
  1
S:\BenderA\DXF_CIM\WSP\OFCT_OFMT_ONCU_PNCQ\pncu0805gntr.dxf
301

 98
       12
  0
FIELD
  5
20DDE
330
20DDD
100
AcDbField
  1
AcVar
  2
\AcVar Filename \f "%tc1%fn2"
 90
        0
 97
        0
  4
%tc1%fn2
 91
       63
 92
        0
 94
       59
 95
        2
 96
        0
300

 93
        1
  6
Variable
 90
        4
  1
Filename
  7
ACFD_FIELD_VALUE
 90
        4
  1
S:\BenderA\DXF_CIM\WSP\OFCT_OFMT_ONCU_PNCQ\pncu0805gntr.dxf
301
PNCU0805GNTR
 98
       12
  0
XRECORD
  5
23735
102
{ACAD_REACTORS
330
23734
102
}
330
23734
100
AcDbXrecord
280
     1
102
DISPLAYNAME
  1
Imperial24
102
FLAGS
 90
        0
  0
XRECORD
  5
2372D
102
{ACAD_REACTORS
330
2372C
102
}
330
2372C
100
AcDbXrecord
280
     1
102
DISPLAYNAME
  1
Metric50
102
FLAGS
 90
        0
  0
XRECORD
  5
23711
102
{ACAD_REACTORS
330
23710
102
}
330
23710
100
AcDbXrecord
280
     1
102
SHADEPLOT
 70
     0
102
SHADEPLOTRESLEVEL
 70
     2
102
SHADEPLOTCUSTOMDPI
 70
   300
  0
XRECORD
  5
2370F
102
{ACAD_REACTORS
330
2370E
102
}
330
2370E
100
AcDbXrecord
280
     1
102
SHADEPLOT
 70
     0
102
SHADEPLOTRESLEVEL
 70
     2
102
SHADEPLOTCUSTOMDPI
 70
   300
  0
XRECORD
  5
1B22C
102
{ACAD_REACTORS
330
1B22B
102
}
330
1B22B
100
AcDbXrecord
280
     1
102
MATERIAL
148
0.0
149
0.0
149
0.0
 93
        0
 94
      127
282
     0
 72
     1
 77
     1
171
     1
175
     1
179
     1
273
     0
  0
XRECORD
  5
1B22E
102
{ACAD_REACTORS
330
1B22D
102
}
330
1B22D
100
AcDbXrecord
280
     1
102
MATERIAL
148
0.0
149
0.0
149
0.0
 93
        0
 94
      127
282
     0
 72
     1
 77
     1
171
     1
175
     1
179
     1
273
     0
  0
XRECORD
  5
1B230
102
{ACAD_REACTORS
330
1B22F
102
}
330
1B22F
100
AcDbXrecord
280
     1
102
MATERIAL
148
0.0
149
0.0
149
0.0
 93
        0
 94
      127
282
     0
 72
     1
 77
     1
171
     1
175
     1
179
     1
273
     0
  0
XRECORD
  5
23733
102
{ACAD_REACTORS
330
23732
102
}
330
23732
100
AcDbXrecord
280
     1
102
DISPLAYNAME
  1
Imperial24
102
FLAGS
 90
        0
  0
XRECORD
  5
2372B
102
{ACAD_REACTORS
330
2372A
102
}
330
2372A
100
AcDbXrecord
280
     1
102
DISPLAYNAME
  1
Metric50
102
FLAGS
 90
        0
  0
CELLSTYLEMAP
  5
236EA
102
{ACAD_REACTORS
330
1B314
102
}
330
1B314
100
AcDbCellStyleMap
 90
        3
300
CELLSTYLE
  1
TABLEFORMAT_BEGIN
 90
        5
170
     1
 91
        0
 92
    32768
 62
   257
 93
        1
300
CONTENTFORMAT
  1
CONTENTFORMAT_BEGIN
 90
        0
 91
        0
 92
        4
 93
        0
300

 40
0.0
140
1.0
 94
        5
 62
     0
340
11
144
6.0
309
CONTENTFORMAT_END
171
     1
301
MARGIN
  1
CELLMARGIN_BEGIN
 40
1.5
 40
1.5
 40
1.5
 40
1.5
 40
0.18
 40
0.18
309
CELLMARGIN_END
 94
        6
 95
        1
302
GRIDFORMAT
  1
GRIDFORMAT_BEGIN
 90
        0
 91
        1
 62
     0
 92
       -2
340
0
 93
        0
 40
0.045
309
GRIDFORMAT_END
 95
        2
302
GRIDFORMAT
  1
GRIDFORMAT_BEGIN
 90
        0
 91
        1
 62
     0
 92
       -2
340
0
 93
        0
 40
0.045
309
GRIDFORMAT_END
 95
        4
302
GRIDFORMAT
  1
GRIDFORMAT_BEGIN
 90
        0
 91
        1
 62
     0
 92
       -2
340
0
 93
        0
 40
0.045
309
GRIDFORMAT_END
 95
        8
302
GRIDFORMAT
  1
GRIDFORMAT_BEGIN
 90
        0
 91
        1
 62
     0
 92
       -2
340
0
 93
        0
 40
0.045
309
GRIDFORMAT_END
 95
       16
302
GRIDFORMAT
  1
GRIDFORMAT_BEGIN
 90
        0
 91
        1
 62
     0
 92
       -2
340
0
 93
        0
 40
0.045
309
GRIDFORMAT_END
 95
       32
302
GRIDFORMAT
  1
GRIDFORMAT_BEGIN
 90
        0
 91
        1
 62
     0
 92
       -2
340
0
 93
        0
 40
0.045
309
GRIDFORMAT_END
309
TABLEFORMAT_END
  1
CELLSTYLE_BEGIN
 90
        1
 91
        1
300
_TITLE
309
CELLSTYLE_END
300
CELLSTYLE
  1
TABLEFORMAT_BEGIN
 90
        5
170
     1
 91
        0
 92
        0
 62
   257
 93
        1
300
CONTENTFORMAT
  1
CONTENTFORMAT_BEGIN
 90
        0
 91
        0
 92
        4
 93
        0
300

 40
0.0
140
1.0
 94
        5
 62
     0
340
11
144
4.5
309
CONTENTFORMAT_END
171
     1
301
MARGIN
  1
CELLMARGIN_BEGIN
 40
1.5
 40
1.5
 40
1.5
 40
1.5
 40
0.18
 40
0.18
309
CELLMARGIN_END
 94
        6
 95
        1
302
GRIDFORMAT
  1
GRIDFORMAT_BEGIN
 90
        0
 91
        1
 62
     0
 92
       -2
340
0
 93
        0
 40
0.045
309
GRIDFORMAT_END
 95
        2
302
GRIDFORMAT
  1
GRIDFORMAT_BEGIN
 90
        0
 91
        1
 62
     0
 92
       -2
340
0
 93
        0
 40
0.045
309
GRIDFORMAT_END
 95
        4
302
GRIDFORMAT
  1
GRIDFORMAT_BEGIN
 90
        0
 91
        1
 62
     0
 92
       -2
340
0
 93
        0
 40
0.045
309
GRIDFORMAT_END
 95
        8
302
GRIDFORMAT
  1
GRIDFORMAT_BEGIN
 90
        0
 91
        1
 62
     0
 92
       -2
340
0
 93
        0
 40
0.045
309
GRIDFORMAT_END
 95
       16
302
GRIDFORMAT
  1
GRIDFORMAT_BEGIN
 90
        0
 91
        1
 62
     0
 92
       -2
340
0
 93
        0
 40
0.045
309
GRIDFORMAT_END
 95
       32
302
GRIDFORMAT
  1
GRIDFORMAT_BEGIN
 90
        0
 91
        1
 62
     0
 92
       -2
340
0
 93
        0
 40
0.045
309
GRIDFORMAT_END
309
TABLEFORMAT_END
  1
CELLSTYLE_BEGIN
 90
        2
 91
        1
300
_HEADER
309
CELLSTYLE_END
300
CELLSTYLE
  1
TABLEFORMAT_BEGIN
 90
        5
170
     1
 91
        0
 92
        0
 62
   257
 93
        1
300
CONTENTFORMAT
  1
CONTENTFORMAT_BEGIN
 90
        0
 91
        0
 92
        4
 93
        0
300

 40
0.0
140
1.0
 94
        2
 62
     0
340
11
144
4.5
309
CONTENTFORMAT_END
171
     1
301
MARGIN
  1
CELLMARGIN_BEGIN
 40
1.5
 40
1.5
 40
1.5
 40
1.5
 40
0.18
 40
0.18
309
CELLMARGIN_END
 94
        6
 95
        1
302
GRIDFORMAT
  1
GRIDFORMAT_BEGIN
 90
        0
 91
        1
 62
     0
 92
       -2
340
0
 93
        0
 40
0.045
309
GRIDFORMAT_END
 95
        2
302
GRIDFORMAT
  1
GRIDFORMAT_BEGIN
 90
        0
 91
        1
 62
     0
 92
       -2
340
0
 93
        0
 40
0.045
309
GRIDFORMAT_END
 95
        4
302
GRIDFORMAT
  1
GRIDFORMAT_BEGIN
 90
        0
 91
        1
 62
     0
 92
       -2
340
0
 93
        0
 40
0.045
309
GRIDFORMAT_END
 95
        8
302
GRIDFORMAT
  1
GRIDFORMAT_BEGIN
 90
        0
 91
        1
 62
     0
 92
       -2
340
0
 93
        0
 40
0.045
309
GRIDFORMAT_END
 95
       16
302
GRIDFORMAT
  1
GRIDFORMAT_BEGIN
 90
        0
 91
        1
 62
     0
 92
       -2
340
0
 93
        0
 40
0.045
309
GRIDFORMAT_END
 95
       32
302
GRIDFORMAT
  1
GRIDFORMAT_BEGIN
 90
        0
 91
        1
 62
     0
 92
       -2
340
0
 93
        0
 40
0.045
309
GRIDFORMAT_END
309
TABLEFORMAT_END
  1
CELLSTYLE_BEGIN
 90
        3
 91
        2
300
_DATA
309
CELLSTYLE_END
  0
XRECORD
  5
2370D
102
{ACAD_REACTORS
330
1B314
102
}
330
1B314
100
AcDbXrecord
280
     1
102
ACAD_ROUNDTRIP_PRE2007_TABLESTYLE
 90
        4
 91
        0
  1

 92
        4
 93
        0
  2

 94
        4
 95
        0
  3

  0
XRECORD
  5
236F8
102
{ACAD_REACTORS
330
236F7
102
}
330
236F7
100
AcDbXrecord
280
     1
102
RTVSPost2010Prop28
280
     1
102
RTVSPost2010PropOp28
 70
     1
102
RTVSPost2010Prop29
280
     1
102
RTVSPost2010PropOp29
 70
     1
102
RTVSPost2010Prop30
280
     0
102
RTVSPost2010PropOp30
 70
     1
102
RTVSPost2010Prop31
280
     0
102
RTVSPost2010PropOp31
 70
     1
102
RTVSPost2010Prop32
280
     0
102
RTVSPost2010PropOp32
 70
     1
102
RTVSPost2010Prop33
280
     0
102
RTVSPost2010PropOp33
 70
     1
102
RTVSPost2010Prop34
280
     0
102
RTVSPost2010PropOp34
 70
     1
102
RTVSPost2010Prop35
280
     0
102
RTVSPost2010PropOp35
 70
     1
102
RTVSPost2010Prop36
280
     0
102
RTVSPost2010PropOp36
 70
     1
102
RTVSPost2010Prop37
 90
       50
102
RTVSPost2010PropOp37
 70
     1
102
RTVSPost2010Prop38
140
0.0
102
RTVSPost2010PropOp38
 70
     1
102
RTVSPost2010Prop39
140
1.0
102
RTVSPost2010PropOp39
 70
     1
102
RTVSPost2010Prop40
 90
        0
102
RTVSPost2010PropOp40
 70
     1
102
RTVSPost2010Prop41ColorIndex
 90
       18
102
RTVSPost2010Prop41ColorRGB
 90
        0
102
RTVSPost2010PropOp41
 70
     1
102
RTVSPost2010Prop42
 90
       50
102
RTVSPost2010PropOp42
 70
     1
102
RTVSPost2010Prop43
 90
        3
102
RTVSPost2010PropOp43
 70
     1
102
RTVSPost2010Prop44ColorIndex
 90
        5
102
RTVSPost2010Prop44ColorRGB
 90
      255
102
RTVSPost2010PropOp44
 70
     1
102
RTVSPost2010Prop45
280
     0
102
RTVSPost2010PropOp45
 70
     1
102
RTVSPost2010Prop46
 90
       50
102
RTVSPost2010PropOp46
 70
     1
102
RTVSPost2010Prop47
 90
       50
102
RTVSPost2010PropOp47
 70
     1
102
RTVSPost2010Prop48
 90
       50
102
RTVSPost2010PropOp48
 70
     1
102
RTVSPost2010Prop49
280
     0
102
RTVSPost2010PropOp49
 70
     1
102
RTVSPost2010Prop50
 90
       50
102
RTVSPost2010PropOp50
 70
     1
102
RTVSPost2010Prop51ColorIndex
 90
      256
102
RTVSPost2010Prop51ColorRGB
 90
-16777216
102
RTVSPost2010PropOp51
 70
     0
102
RTVSPost2010Prop52
140
1.0
102
RTVSPost2010PropOp52
 70
     0
102
RTVSPost2010Prop53
 90
        2
102
RTVSPost2010PropOp53
 70
     1
102
RTVSPost2010Prop54
  1
strokes_ogs.tif
102
RTVSPost2010PropOp54
 70
     1
102
RTVSPost2010Prop55
280
     0
102
RTVSPost2010PropOp55
 70
     1
102
RTVSPost2010Prop56
140
1.0
102
RTVSPost2010PropOp56
 70
     1
102
RTVSPost2010Prop57
140
1.0
102
RTVSPost2010PropOp57
 70
     1
102
RTVSPropertyOp0
 70
     1
102
RTVSPropertyOp1
 70
     1
102
RTVSPropertyOp2
 70
     1
102
RTVSPropertyOp3
 70
     1
102
RTVSPropertyOp4
 70
     1
102
RTVSPropertyOp5
 70
     1
102
RTVSPropertyOp6
 70
     1
102
RTVSPropertyOp7
 70
     1
102
RTVSPropertyOp8
 70
     1
102
RTVSPropertyOp9
 70
     1
102
RTVSPropertyOp10
 70
     1
102
RTVSPropertyOp11
 70
     1
102
RTVSPropertyOp12
 70
     1
102
RTVSPropertyOp13
 70
     1
102
RTVSPropertyOp14
 70
     1
102
RTVSPropertyOp15
 70
     1
102
RTVSPropertyOp16
 70
     1
102
RTVSPropertyOp17
 70
     1
102
RTVSPropertyOp18
 70
     1
102
RTVSPropertyOp19
 70
     1
102
RTVSPropertyOp20
 70
     1
102
RTVSPropertyOp21
 70
     1
102
RTVSPropertyOp22
 70
     1
102
RTVSPropertyOp23
 70
     1
102
RTVSPropertyOp24
 70
     1
102
RTVSPropertyOp25
 70
     1
102
RTVSPropertyOp26
 70
     1
102
RTVSPropertyOp27
 70
     1
102
RTVSPropertyOp28
 70
     1
102
RTVSPropertyOp29
 70
     1
102
RTVSPropertyOp30
 70
     1
102
RTVSPropertyOp31
 70
     1
102
RTVSPropertyOp32
 70
     1
102
RTVSPropertyOp33
 70
     1
102
RTVSPropertyOp34
 70
     1
102
RTVSPropertyOp35
 70
     1
102
RTVSPropertyOp36
 70
     1
102
RTVSPropertyOp37
 70
     1
102
RTVSPropertyOp38
 70
     1
102
RTVSPropertyOp39
 70
     1
102
RTVSPropertyOp40
 70
     1
102
RTVSPropertyOp41
 70
     1
102
RTVSPropertyOp42
 70
     1
102
RTVSPropertyOp43
 70
     1
102
RTVSPropertyOp44
 70
     1
102
RTVSPropertyOp45
 70
     1
102
RTVSPropertyOp46
 70
     1
102
RTVSPropertyOp47
 70
     1
102
RTVSPropertyOp48
 70
     1
102
RTVSPropertyOp49
 70
     1
102
RTVSPropertyOp50
 70
     1
102
RTVSPropertyOp51
 70
     0
102
RTVSPropertyOp52
 70
     0
102
RTVSPropertyOp53
 70
     1
102
RTVSPropertyOp54
 70
     1
102
RTVSPropertyOp55
 70
     1
102
RTVSPropertyOp56
 70
     1
102
RTVSPropertyOp57
 70
     1
102
RTVSPropertyOp58
 70
     1
102
RTVSPropertyOp59
 70
     1
102
RTVSPropertyOp60
 70
     1
102
RTVSPropertyOp61
 70
     1
102
RTVSPropertyOp62
 70
     1
  0
XRECORD
  5
236FC
102
{ACAD_REACTORS
330
236FB
102
}
330
236FB
100
AcDbXrecord
280
     1
102
RTVSPost2010Prop28
280
     0
102
RTVSPost2010PropOp28
 70
     1
102
RTVSPost2010Prop29
280
     1
102
RTVSPost2010PropOp29
 70
     1
102
RTVSPost2010Prop30
280
     1
102
RTVSPost2010PropOp30
 70
     1
102
RTVSPost2010Prop31
280
     0
102
RTVSPost2010PropOp31
 70
     1
102
RTVSPost2010Prop32
280
     0
102
RTVSPost2010PropOp32
 70
     1
102
RTVSPost2010Prop33
280
     0
102
RTVSPost2010PropOp33
 70
     1
102
RTVSPost2010Prop34
280
     0
102
RTVSPost2010PropOp34
 70
     1
102
RTVSPost2010Prop35
280
     0
102
RTVSPost2010PropOp35
 70
     1
102
RTVSPost2010Prop36
280
     0
102
RTVSPost2010PropOp36
 70
     1
102
RTVSPost2010Prop37
 90
       50
102
RTVSPost2010PropOp37
 70
     1
102
RTVSPost2010Prop38
140
0.0
102
RTVSPost2010PropOp38
 70
     1
102
RTVSPost2010Prop39
140
1.0
102
RTVSPost2010PropOp39
 70
     1
102
RTVSPost2010Prop40
 90
        0
102
RTVSPost2010PropOp40
 70
     1
102
RTVSPost2010Prop41ColorIndex
 90
       18
102
RTVSPost2010Prop41ColorRGB
 90
        0
102
RTVSPost2010PropOp41
 70
     1
102
RTVSPost2010Prop42
 90
       50
102
RTVSPost2010PropOp42
 70
     1
102
RTVSPost2010Prop43
 90
        3
102
RTVSPost2010PropOp43
 70
     1
102
RTVSPost2010Prop44ColorIndex
 90
        5
102
RTVSPost2010Prop44ColorRGB
 90
      255
102
RTVSPost2010PropOp44
 70
     1
102
RTVSPost2010Prop45
280
     0
102
RTVSPost2010PropOp45
 70
     1
102
RTVSPost2010Prop46
 90
       50
102
RTVSPost2010PropOp46
 70
     1
102
RTVSPost2010Prop47
 90
       50
102
RTVSPost2010PropOp47
 70
     1
102
RTVSPost2010Prop48
 90
       50
102
RTVSPost2010PropOp48
 70
     1
102
RTVSPost2010Prop49
280
     0
102
RTVSPost2010PropOp49
 70
     1
102
RTVSPost2010Prop50
 90
       50
102
RTVSPost2010PropOp50
 70
     1
102
RTVSPost2010Prop51ColorIndex
 90
      256
102
RTVSPost2010Prop51ColorRGB
 90
-16777216
102
RTVSPost2010PropOp51
 70
     0
102
RTVSPost2010Prop52
140
1.0
102
RTVSPost2010PropOp52
 70
     0
102
RTVSPost2010Prop53
 90
        2
102
RTVSPost2010PropOp53
 70
     1
102
RTVSPost2010Prop54
  1
strokes_ogs.tif
102
RTVSPost2010PropOp54
 70
     1
102
RTVSPost2010Prop55
280
     0
102
RTVSPost2010PropOp55
 70
     1
102
RTVSPost2010Prop56
140
1.0
102
RTVSPost2010PropOp56
 70
     1
102
RTVSPost2010Prop57
140
1.0
102
RTVSPost2010PropOp57
 70
     1
102
RTVSPropertyOp0
 70
     1
102
RTVSPropertyOp1
 70
     1
102
RTVSPropertyOp2
 70
     1
102
RTVSPropertyOp3
 70
     1
102
RTVSPropertyOp4
 70
     1
102
RTVSPropertyOp5
 70
     1
102
RTVSPropertyOp6
 70
     1
102
RTVSPropertyOp7
 70
     1
102
RTVSPropertyOp8
 70
     1
102
RTVSPropertyOp9
 70
     1
102
RTVSPropertyOp10
 70
     1
102
RTVSPropertyOp11
 70
     1
102
RTVSPropertyOp12
 70
     1
102
RTVSPropertyOp13
 70
     1
102
RTVSPropertyOp14
 70
     1
102
RTVSPropertyOp15
 70
     1
102
RTVSPropertyOp16
 70
     1
102
RTVSPropertyOp17
 70
     1
102
RTVSPropertyOp18
 70
     1
102
RTVSPropertyOp19
 70
     1
102
RTVSPropertyOp20
 70
     1
102
RTVSPropertyOp21
 70
     1
102
RTVSPropertyOp22
 70
     1
102
RTVSPropertyOp23
 70
     1
102
RTVSPropertyOp24
 70
     1
102
RTVSPropertyOp25
 70
     1
102
RTVSPropertyOp26
 70
     1
102
RTVSPropertyOp27
 70
     1
102
RTVSPropertyOp28
 70
     1
102
RTVSPropertyOp29
 70
     1
102
RTVSPropertyOp30
 70
     1
102
RTVSPropertyOp31
 70
     1
102
RTVSPropertyOp32
 70
     1
102
RTVSPropertyOp33
 70
     1
102
RTVSPropertyOp34
 70
     1
102
RTVSPropertyOp35
 70
     1
102
RTVSPropertyOp36
 70
     1
102
RTVSPropertyOp37
 70
     1
102
RTVSPropertyOp38
 70
     1
102
RTVSPropertyOp39
 70
     1
102
RTVSPropertyOp40
 70
     1
102
RTVSPropertyOp41
 70
     1
102
RTVSPropertyOp42
 70
     1
102
RTVSPropertyOp43
 70
     1
102
RTVSPropertyOp44
 70
     1
102
RTVSPropertyOp45
 70
     1
102
RTVSPropertyOp46
 70
     1
102
RTVSPropertyOp47
 70
     1
102
RTVSPropertyOp48
 70
     1
102
RTVSPropertyOp49
 70
     1
102
RTVSPropertyOp50
 70
     1
102
RTVSPropertyOp51
 70
     0
102
RTVSPropertyOp52
 70
     0
102
RTVSPropertyOp53
 70
     1
102
RTVSPropertyOp54
 70
     1
102
RTVSPropertyOp55
 70
     1
102
RTVSPropertyOp56
 70
     1
102
RTVSPropertyOp57
 70
     1
102
RTVSPropertyOp58
 70
     1
102
RTVSPropertyOp59
 70
     1
102
RTVSPropertyOp60
 70
     1
102
RTVSPropertyOp61
 70
     1
102
RTVSPropertyOp62
 70
     1
  0
XRECORD
  5
236FA
102
{ACAD_REACTORS
330
236F9
102
}
330
236F9
100
AcDbXrecord
280
     1
102
RTVSPost2010Prop28
280
     0
102
RTVSPost2010PropOp28
 70
     1
102
RTVSPost2010Prop29
280
     1
102
RTVSPost2010PropOp29
 70
     1
102
RTVSPost2010Prop30
280
     1
102
RTVSPost2010PropOp30
 70
     1
102
RTVSPost2010Prop31
280
     0
102
RTVSPost2010PropOp31
 70
     1
102
RTVSPost2010Prop32
280
     0
102
RTVSPost2010PropOp32
 70
     1
102
RTVSPost2010Prop33
280
     0
102
RTVSPost2010PropOp33
 70
     1
102
RTVSPost2010Prop34
280
     0
102
RTVSPost2010PropOp34
 70
     1
102
RTVSPost2010Prop35
280
     0
102
RTVSPost2010PropOp35
 70
     1
102
RTVSPost2010Prop36
280
     0
102
RTVSPost2010PropOp36
 70
     1
102
RTVSPost2010Prop37
 90
       50
102
RTVSPost2010PropOp37
 70
     1
102
RTVSPost2010Prop38
140
0.0
102
RTVSPost2010PropOp38
 70
     1
102
RTVSPost2010Prop39
140
1.0
102
RTVSPost2010PropOp39
 70
     1
102
RTVSPost2010Prop40
 90
        0
102
RTVSPost2010PropOp40
 70
     1
102
RTVSPost2010Prop41ColorIndex
 90
       18
102
RTVSPost2010Prop41ColorRGB
 90
        0
102
RTVSPost2010PropOp41
 70
     1
102
RTVSPost2010Prop42
 90
       50
102
RTVSPost2010PropOp42
 70
     1
102
RTVSPost2010Prop43
 90
        3
102
RTVSPost2010PropOp43
 70
     1
102
RTVSPost2010Prop44ColorIndex
 90
        5
102
RTVSPost2010Prop44ColorRGB
 90
      255
102
RTVSPost2010PropOp44
 70
     1
102
RTVSPost2010Prop45
280
     0
102
RTVSPost2010PropOp45
 70
     1
102
RTVSPost2010Prop46
 90
       50
102
RTVSPost2010PropOp46
 70
     1
102
RTVSPost2010Prop47
 90
       50
102
RTVSPost2010PropOp47
 70
     1
102
RTVSPost2010Prop48
 90
       50
102
RTVSPost2010PropOp48
 70
     1
102
RTVSPost2010Prop49
280
     0
102
RTVSPost2010PropOp49
 70
     1
102
RTVSPost2010Prop50
 90
       50
102
RTVSPost2010PropOp50
 70
     1
102
RTVSPost2010Prop51ColorIndex
 90
      256
102
RTVSPost2010Prop51ColorRGB
 90
-16777216
102
RTVSPost2010PropOp51
 70
     0
102
RTVSPost2010Prop52
140
1.0
102
RTVSPost2010PropOp52
 70
     0
102
RTVSPost2010Prop53
 90
        2
102
RTVSPost2010PropOp53
 70
     1
102
RTVSPost2010Prop54
  1
strokes_ogs.tif
102
RTVSPost2010PropOp54
 70
     1
102
RTVSPost2010Prop55
280
     0
102
RTVSPost2010PropOp55
 70
     1
102
RTVSPost2010Prop56
140
1.0
102
RTVSPost2010PropOp56
 70
     1
102
RTVSPost2010Prop57
140
1.0
102
RTVSPost2010PropOp57
 70
     1
102
RTVSPropertyOp0
 70
     1
102
RTVSPropertyOp1
 70
     1
102
RTVSPropertyOp2
 70
     1
102
RTVSPropertyOp3
 70
     1
102
RTVSPropertyOp4
 70
     1
102
RTVSPropertyOp5
 70
     1
102
RTVSPropertyOp6
 70
     1
102
RTVSPropertyOp7
 70
     1
102
RTVSPropertyOp8
 70
     1
102
RTVSPropertyOp9
 70
     1
102
RTVSPropertyOp10
 70
     1
102
RTVSPropertyOp11
 70
     1
102
RTVSPropertyOp12
 70
     1
102
RTVSPropertyOp13
 70
     1
102
RTVSPropertyOp14
 70
     1
102
RTVSPropertyOp15
 70
     1
102
RTVSPropertyOp16
 70
     1
102
RTVSPropertyOp17
 70
     1
102
RTVSPropertyOp18
 70
     1
102
RTVSPropertyOp19
 70
     1
102
RTVSPropertyOp20
 70
     1
102
RTVSPropertyOp21
 70
     1
102
RTVSPropertyOp22
 70
     1
102
RTVSPropertyOp23
 70
     1
102
RTVSPropertyOp24
 70
     1
102
RTVSPropertyOp25
 70
     1
102
RTVSPropertyOp26
 70
     1
102
RTVSPropertyOp27
 70
     1
102
RTVSPropertyOp28
 70
     1
102
RTVSPropertyOp29
 70
     1
102
RTVSPropertyOp30
 70
     1
102
RTVSPropertyOp31
 70
     1
102
RTVSPropertyOp32
 70
     1
102
RTVSPropertyOp33
 70
     1
102
RTVSPropertyOp34
 70
     1
102
RTVSPropertyOp35
 70
     1
102
RTVSPropertyOp36
 70
     1
102
RTVSPropertyOp37
 70
     1
102
RTVSPropertyOp38
 70
     1
102
RTVSPropertyOp39
 70
     1
102
RTVSPropertyOp40
 70
     1
102
RTVSPropertyOp41
 70
     1
102
RTVSPropertyOp42
 70
     1
102
RTVSPropertyOp43
 70
     1
102
RTVSPropertyOp44
 70
     1
102
RTVSPropertyOp45
 70
     1
102
RTVSPropertyOp46
 70
     1
102
RTVSPropertyOp47
 70
     1
102
RTVSPropertyOp48
 70
     1
102
RTVSPropertyOp49
 70
     1
102
RTVSPropertyOp50
 70
     1
102
RTVSPropertyOp51
 70
     0
102
RTVSPropertyOp52
 70
     0
102
RTVSPropertyOp53
 70
     1
102
RTVSPropertyOp54
 70
     1
102
RTVSPropertyOp55
 70
     1
102
RTVSPropertyOp56
 70
     1
102
RTVSPropertyOp57
 70
     1
102
RTVSPropertyOp58
 70
     1
102
RTVSPropertyOp59
 70
     1
102
RTVSPropertyOp60
 70
     1
102
RTVSPropertyOp61
 70
     1
102
RTVSPropertyOp62
 70
     1
  0
XRECORD
  5
236F6
102
{ACAD_REACTORS
330
236F5
102
}
330
236F5
100
AcDbXrecord
280
     1
102
RTVSPost2010Prop28
280
     0
102
RTVSPost2010PropOp28
 70
     1
102
RTVSPost2010Prop29
280
     1
102
RTVSPost2010PropOp29
 70
     1
102
RTVSPost2010Prop30
280
     1
102
RTVSPost2010PropOp30
 70
     1
102
RTVSPost2010Prop31
280
     0
102
RTVSPost2010PropOp31
 70
     1
102
RTVSPost2010Prop32
280
     0
102
RTVSPost2010PropOp32
 70
     1
102
RTVSPost2010Prop33
280
     0
102
RTVSPost2010PropOp33
 70
     1
102
RTVSPost2010Prop34
280
     0
102
RTVSPost2010PropOp34
 70
     1
102
RTVSPost2010Prop35
280
     0
102
RTVSPost2010PropOp35
 70
     1
102
RTVSPost2010Prop36
280
     0
102
RTVSPost2010PropOp36
 70
     1
102
RTVSPost2010Prop37
 90
       50
102
RTVSPost2010PropOp37
 70
     1
102
RTVSPost2010Prop38
140
0.0
102
RTVSPost2010PropOp38
 70
     1
102
RTVSPost2010Prop39
140
1.0
102
RTVSPost2010PropOp39
 70
     1
102
RTVSPost2010Prop40
 90
        0
102
RTVSPost2010PropOp40
 70
     1
102
RTVSPost2010Prop41ColorIndex
 90
       18
102
RTVSPost2010Prop41ColorRGB
 90
        0
102
RTVSPost2010PropOp41
 70
     1
102
RTVSPost2010Prop42
 90
       50
102
RTVSPost2010PropOp42
 70
     1
102
RTVSPost2010Prop43
 90
        3
102
RTVSPost2010PropOp43
 70
     1
102
RTVSPost2010Prop44ColorIndex
 90
        5
102
RTVSPost2010Prop44ColorRGB
 90
      255
102
RTVSPost2010PropOp44
 70
     1
102
RTVSPost2010Prop45
280
     0
102
RTVSPost2010PropOp45
 70
     1
102
RTVSPost2010Prop46
 90
       50
102
RTVSPost2010PropOp46
 70
     1
102
RTVSPost2010Prop47
 90
       50
102
RTVSPost2010PropOp47
 70
     1
102
RTVSPost2010Prop48
 90
       50
102
RTVSPost2010PropOp48
 70
     1
102
RTVSPost2010Prop49
280
     0
102
RTVSPost2010PropOp49
 70
     1
102
RTVSPost2010Prop50
 90
       50
102
RTVSPost2010PropOp50
 70
     1
102
RTVSPost2010Prop51ColorIndex
 90
      256
102
RTVSPost2010Prop51ColorRGB
 90
-16777216
102
RTVSPost2010PropOp51
 70
     0
102
RTVSPost2010Prop52
140
1.0
102
RTVSPost2010PropOp52
 70
     0
102
RTVSPost2010Prop53
 90
        2
102
RTVSPost2010PropOp53
 70
     1
102
RTVSPost2010Prop54
  1
strokes_ogs.tif
102
RTVSPost2010PropOp54
 70
     1
102
RTVSPost2010Prop55
280
     0
102
RTVSPost2010PropOp55
 70
     1
102
RTVSPost2010Prop56
140
1.0
102
RTVSPost2010PropOp56
 70
     1
102
RTVSPost2010Prop57
140
1.0
102
RTVSPost2010PropOp57
 70
     1
102
RTVSPropertyOp0
 70
     1
102
RTVSPropertyOp1
 70
     1
102
RTVSPropertyOp2
 70
     1
102
RTVSPropertyOp3
 70
     1
102
RTVSPropertyOp4
 70
     1
102
RTVSPropertyOp5
 70
     1
102
RTVSPropertyOp6
 70
     1
102
RTVSPropertyOp7
 70
     1
102
RTVSPropertyOp8
 70
     1
102
RTVSPropertyOp9
 70
     1
102
RTVSPropertyOp10
 70
     1
102
RTVSPropertyOp11
 70
     1
102
RTVSPropertyOp12
 70
     1
102
RTVSPropertyOp13
 70
     1
102
RTVSPropertyOp14
 70
     1
102
RTVSPropertyOp15
 70
     1
102
RTVSPropertyOp16
 70
     1
102
RTVSPropertyOp17
 70
     1
102
RTVSPropertyOp18
 70
     1
102
RTVSPropertyOp19
 70
     1
102
RTVSPropertyOp20
 70
     1
102
RTVSPropertyOp21
 70
     1
102
RTVSPropertyOp22
 70
     1
102
RTVSPropertyOp23
 70
     1
102
RTVSPropertyOp24
 70
     1
102
RTVSPropertyOp25
 70
     1
102
RTVSPropertyOp26
 70
     1
102
RTVSPropertyOp27
 70
     1
102
RTVSPropertyOp28
 70
     1
102
RTVSPropertyOp29
 70
     1
102
RTVSPropertyOp30
 70
     1
102
RTVSPropertyOp31
 70
     1
102
RTVSPropertyOp32
 70
     1
102
RTVSPropertyOp33
 70
     1
102
RTVSPropertyOp34
 70
     1
102
RTVSPropertyOp35
 70
     1
102
RTVSPropertyOp36
 70
     1
102
RTVSPropertyOp37
 70
     1
102
RTVSPropertyOp38
 70
     1
102
RTVSPropertyOp39
 70
     1
102
RTVSPropertyOp40
 70
     1
102
RTVSPropertyOp41
 70
     1
102
RTVSPropertyOp42
 70
     1
102
RTVSPropertyOp43
 70
     1
102
RTVSPropertyOp44
 70
     1
102
RTVSPropertyOp45
 70
     1
102
RTVSPropertyOp46
 70
     1
102
RTVSPropertyOp47
 70
     1
102
RTVSPropertyOp48
 70
     1
102
RTVSPropertyOp49
 70
     1
102
RTVSPropertyOp50
 70
     1
102
RTVSPropertyOp51
 70
     0
102
RTVSPropertyOp52
 70
     0
102
RTVSPropertyOp53
 70
     1
102
RTVSPropertyOp54
 70
     1
102
RTVSPropertyOp55
 70
     1
102
RTVSPropertyOp56
 70
     1
102
RTVSPropertyOp57
 70
     1
102
RTVSPropertyOp58
 70
     1
102
RTVSPropertyOp59
 70
     1
102
RTVSPropertyOp60
 70
     1
102
RTVSPropertyOp61
 70
     1
102
RTVSPropertyOp62
 70
     1
  0
XRECORD
  5
23704
102
{ACAD_REACTORS
330
23703
102
}
330
23703
100
AcDbXrecord
280
     1
102
RTVSPost2010Prop28
280
     0
102
RTVSPost2010PropOp28
 70
     1
102
RTVSPost2010Prop29
280
     1
102
RTVSPost2010PropOp29
 70
     1
102
RTVSPost2010Prop30
280
     1
102
RTVSPost2010PropOp30
 70
     1
102
RTVSPost2010Prop31
280
     0
102
RTVSPost2010PropOp31
 70
     1
102
RTVSPost2010Prop32
280
     0
102
RTVSPost2010PropOp32
 70
     1
102
RTVSPost2010Prop33
280
     0
102
RTVSPost2010PropOp33
 70
     1
102
RTVSPost2010Prop34
280
     0
102
RTVSPost2010PropOp34
 70
     1
102
RTVSPost2010Prop35
280
     0
102
RTVSPost2010PropOp35
 70
     1
102
RTVSPost2010Prop36
280
     0
102
RTVSPost2010PropOp36
 70
     1
102
RTVSPost2010Prop37
 90
       50
102
RTVSPost2010PropOp37
 70
     1
102
RTVSPost2010Prop38
140
0.0
102
RTVSPost2010PropOp38
 70
     1
102
RTVSPost2010Prop39
140
1.0
102
RTVSPost2010PropOp39
 70
     1
102
RTVSPost2010Prop40
 90
        0
102
RTVSPost2010PropOp40
 70
     1
102
RTVSPost2010Prop41ColorIndex
 90
       18
102
RTVSPost2010Prop41ColorRGB
 90
        0
102
RTVSPost2010PropOp41
 70
     1
102
RTVSPost2010Prop42
 90
       50
102
RTVSPost2010PropOp42
 70
     1
102
RTVSPost2010Prop43
 90
        3
102
RTVSPost2010PropOp43
 70
     1
102
RTVSPost2010Prop44ColorIndex
 90
        5
102
RTVSPost2010Prop44ColorRGB
 90
      255
102
RTVSPost2010PropOp44
 70
     1
102
RTVSPost2010Prop45
280
     0
102
RTVSPost2010PropOp45
 70
     1
102
RTVSPost2010Prop46
 90
       50
102
RTVSPost2010PropOp46
 70
     1
102
RTVSPost2010Prop47
 90
       50
102
RTVSPost2010PropOp47
 70
     1
102
RTVSPost2010Prop48
 90
       50
102
RTVSPost2010PropOp48
 70
     1
102
RTVSPost2010Prop49
280
     0
102
RTVSPost2010PropOp49
 70
     1
102
RTVSPost2010Prop50
 90
       50
102
RTVSPost2010PropOp50
 70
     1
102
RTVSPost2010Prop51ColorIndex
 90
      256
102
RTVSPost2010Prop51ColorRGB
 90
-16777216
102
RTVSPost2010PropOp51
 70
     0
102
RTVSPost2010Prop52
140
1.0
102
RTVSPost2010PropOp52
 70
     0
102
RTVSPost2010Prop53
 90
        2
102
RTVSPost2010PropOp53
 70
     1
102
RTVSPost2010Prop54
  1
strokes_ogs.tif
102
RTVSPost2010PropOp54
 70
     1
102
RTVSPost2010Prop55
280
     0
102
RTVSPost2010PropOp55
 70
     1
102
RTVSPost2010Prop56
140
1.0
102
RTVSPost2010PropOp56
 70
     1
102
RTVSPost2010Prop57
140
1.0
102
RTVSPost2010PropOp57
 70
     1
102
RTVSPropertyOp0
 70
     1
102
RTVSPropertyOp1
 70
     1
102
RTVSPropertyOp2
 70
     1
102
RTVSPropertyOp3
 70
     1
102
RTVSPropertyOp4
 70
     1
102
RTVSPropertyOp5
 70
     1
102
RTVSPropertyOp6
 70
     1
102
RTVSPropertyOp7
 70
     1
102
RTVSPropertyOp8
 70
     1
102
RTVSPropertyOp9
 70
     1
102
RTVSPropertyOp10
 70
     1
102
RTVSPropertyOp11
 70
     1
102
RTVSPropertyOp12
 70
     1
102
RTVSPropertyOp13
 70
     1
102
RTVSPropertyOp14
 70
     1
102
RTVSPropertyOp15
 70
     1
102
RTVSPropertyOp16
 70
     1
102
RTVSPropertyOp17
 70
     1
102
RTVSPropertyOp18
 70
     1
102
RTVSPropertyOp19
 70
     1
102
RTVSPropertyOp20
 70
     1
102
RTVSPropertyOp21
 70
     1
102
RTVSPropertyOp22
 70
     1
102
RTVSPropertyOp23
 70
     1
102
RTVSPropertyOp24
 70
     1
102
RTVSPropertyOp25
 70
     1
102
RTVSPropertyOp26
 70
     1
102
RTVSPropertyOp27
 70
     1
102
RTVSPropertyOp28
 70
     1
102
RTVSPropertyOp29
 70
     1
102
RTVSPropertyOp30
 70
     1
102
RTVSPropertyOp31
 70
     1
102
RTVSPropertyOp32
 70
     1
102
RTVSPropertyOp33
 70
     1
102
RTVSPropertyOp34
 70
     1
102
RTVSPropertyOp35
 70
     1
102
RTVSPropertyOp36
 70
     1
102
RTVSPropertyOp37
 70
     1
102
RTVSPropertyOp38
 70
     1
102
RTVSPropertyOp39
 70
     1
102
RTVSPropertyOp40
 70
     1
102
RTVSPropertyOp41
 70
     1
102
RTVSPropertyOp42
 70
     1
102
RTVSPropertyOp43
 70
     1
102
RTVSPropertyOp44
 70
     1
102
RTVSPropertyOp45
 70
     1
102
RTVSPropertyOp46
 70
     1
102
RTVSPropertyOp47
 70
     1
102
RTVSPropertyOp48
 70
     1
102
RTVSPropertyOp49
 70
     1
102
RTVSPropertyOp50
 70
     1
102
RTVSPropertyOp51
 70
     0
102
RTVSPropertyOp52
 70
     0
102
RTVSPropertyOp53
 70
     1
102
RTVSPropertyOp54
 70
     1
102
RTVSPropertyOp55
 70
     1
102
RTVSPropertyOp56
 70
     1
102
RTVSPropertyOp57
 70
     1
102
RTVSPropertyOp58
 70
     1
102
RTVSPropertyOp59
 70
     1
102
RTVSPropertyOp60
 70
     1
102
RTVSPropertyOp61
 70
     1
102
RTVSPropertyOp62
 70
     1
  0
XRECORD
  5
2370C
102
{ACAD_REACTORS
330
2370B
102
}
330
2370B
100
AcDbXrecord
280
     1
102
RTVSPost2010Prop28
280
     0
102
RTVSPost2010PropOp28
 70
     1
102
RTVSPost2010Prop29
280
     1
102
RTVSPost2010PropOp29
 70
     1
102
RTVSPost2010Prop30
280
     1
102
RTVSPost2010PropOp30
 70
     1
102
RTVSPost2010Prop31
280
     0
102
RTVSPost2010PropOp31
 70
     1
102
RTVSPost2010Prop32
280
     0
102
RTVSPost2010PropOp32
 70
     1
102
RTVSPost2010Prop33
280
     0
102
RTVSPost2010PropOp33
 70
     1
102
RTVSPost2010Prop34
280
     0
102
RTVSPost2010PropOp34
 70
     1
102
RTVSPost2010Prop35
280
     0
102
RTVSPost2010PropOp35
 70
     1
102
RTVSPost2010Prop36
280
     0
102
RTVSPost2010PropOp36
 70
     1
102
RTVSPost2010Prop37
 90
       50
102
RTVSPost2010PropOp37
 70
     1
102
RTVSPost2010Prop38
140
0.0
102
RTVSPost2010PropOp38
 70
     1
102
RTVSPost2010Prop39
140
1.0
102
RTVSPost2010PropOp39
 70
     1
102
RTVSPost2010Prop40
 90
        0
102
RTVSPost2010PropOp40
 70
     1
102
RTVSPost2010Prop41ColorIndex
 90
       18
102
RTVSPost2010Prop41ColorRGB
 90
        0
102
RTVSPost2010PropOp41
 70
     1
102
RTVSPost2010Prop42
 90
       50
102
RTVSPost2010PropOp42
 70
     1
102
RTVSPost2010Prop43
 90
        3
102
RTVSPost2010PropOp43
 70
     1
102
RTVSPost2010Prop44ColorIndex
 90
        5
102
RTVSPost2010Prop44ColorRGB
 90
      255
102
RTVSPost2010PropOp44
 70
     1
102
RTVSPost2010Prop45
280
     0
102
RTVSPost2010PropOp45
 70
     1
102
RTVSPost2010Prop46
 90
       50
102
RTVSPost2010PropOp46
 70
     1
102
RTVSPost2010Prop47
 90
       50
102
RTVSPost2010PropOp47
 70
     1
102
RTVSPost2010Prop48
 90
       50
102
RTVSPost2010PropOp48
 70
     1
102
RTVSPost2010Prop49
280
     0
102
RTVSPost2010PropOp49
 70
     1
102
RTVSPost2010Prop50
 90
       50
102
RTVSPost2010PropOp50
 70
     1
102
RTVSPost2010Prop51ColorIndex
 90
      256
102
RTVSPost2010Prop51ColorRGB
 90
-16777216
102
RTVSPost2010PropOp51
 70
     0
102
RTVSPost2010Prop52
140
1.0
102
RTVSPost2010PropOp52
 70
     0
102
RTVSPost2010Prop53
 90
        2
102
RTVSPost2010PropOp53
 70
     1
102
RTVSPost2010Prop54
  1
strokes_ogs.tif
102
RTVSPost2010PropOp54
 70
     1
102
RTVSPost2010Prop55
280
     0
102
RTVSPost2010PropOp55
 70
     1
102
RTVSPost2010Prop56
140
1.0
102
RTVSPost2010PropOp56
 70
     1
102
RTVSPost2010Prop57
140
1.0
102
RTVSPost2010PropOp57
 70
     1
102
RTVSPropertyOp0
 70
     1
102
RTVSPropertyOp1
 70
     1
102
RTVSPropertyOp2
 70
     1
102
RTVSPropertyOp3
 70
     1
102
RTVSPropertyOp4
 70
     1
102
RTVSPropertyOp5
 70
     1
102
RTVSPropertyOp6
 70
     1
102
RTVSPropertyOp7
 70
     1
102
RTVSPropertyOp8
 70
     1
102
RTVSPropertyOp9
 70
     1
102
RTVSPropertyOp10
 70
     1
102
RTVSPropertyOp11
 70
     1
102
RTVSPropertyOp12
 70
     1
102
RTVSPropertyOp13
 70
     1
102
RTVSPropertyOp14
 70
     1
102
RTVSPropertyOp15
 70
     1
102
RTVSPropertyOp16
 70
     1
102
RTVSPropertyOp17
 70
     1
102
RTVSPropertyOp18
 70
     1
102
RTVSPropertyOp19
 70
     1
102
RTVSPropertyOp20
 70
     1
102
RTVSPropertyOp21
 70
     1
102
RTVSPropertyOp22
 70
     1
102
RTVSPropertyOp23
 70
     1
102
RTVSPropertyOp24
 70
     1
102
RTVSPropertyOp25
 70
     1
102
RTVSPropertyOp26
 70
     1
102
RTVSPropertyOp27
 70
     1
102
RTVSPropertyOp28
 70
     1
102
RTVSPropertyOp29
 70
     1
102
RTVSPropertyOp30
 70
     1
102
RTVSPropertyOp31
 70
     1
102
RTVSPropertyOp32
 70
     1
102
RTVSPropertyOp33
 70
     1
102
RTVSPropertyOp34
 70
     1
102
RTVSPropertyOp35
 70
     1
102
RTVSPropertyOp36
 70
     1
102
RTVSPropertyOp37
 70
     1
102
RTVSPropertyOp38
 70
     1
102
RTVSPropertyOp39
 70
     1
102
RTVSPropertyOp40
 70
     1
102
RTVSPropertyOp41
 70
     1
102
RTVSPropertyOp42
 70
     1
102
RTVSPropertyOp43
 70
     1
102
RTVSPropertyOp44
 70
     1
102
RTVSPropertyOp45
 70
     1
102
RTVSPropertyOp46
 70
     1
102
RTVSPropertyOp47
 70
     1
102
RTVSPropertyOp48
 70
     1
102
RTVSPropertyOp49
 70
     1
102
RTVSPropertyOp50
 70
     1
102
RTVSPropertyOp51
 70
     0
102
RTVSPropertyOp52
 70
     0
102
RTVSPropertyOp53
 70
     1
102
RTVSPropertyOp54
 70
     1
102
RTVSPropertyOp55
 70
     1
102
RTVSPropertyOp56
 70
     1
102
RTVSPropertyOp57
 70
     1
102
RTVSPropertyOp58
 70
     1
102
RTVSPropertyOp59
 70
     1
102
RTVSPropertyOp60
 70
     1
102
RTVSPropertyOp61
 70
     1
102
RTVSPropertyOp62
 70
     1
  0
XRECORD
  5
236FE
102
{ACAD_REACTORS
330
236FD
102
}
330
236FD
100
AcDbXrecord
280
     1
102
RTVSPost2010Prop28
280
     0
102
RTVSPost2010PropOp28
 70
     1
102
RTVSPost2010Prop29
280
     1
102
RTVSPost2010PropOp29
 70
     1
102
RTVSPost2010Prop30
280
     1
102
RTVSPost2010PropOp30
 70
     1
102
RTVSPost2010Prop31
280
     0
102
RTVSPost2010PropOp31
 70
     1
102
RTVSPost2010Prop32
280
     0
102
RTVSPost2010PropOp32
 70
     1
102
RTVSPost2010Prop33
280
     0
102
RTVSPost2010PropOp33
 70
     1
102
RTVSPost2010Prop34
280
     0
102
RTVSPost2010PropOp34
 70
     1
102
RTVSPost2010Prop35
280
     0
102
RTVSPost2010PropOp35
 70
     1
102
RTVSPost2010Prop36
280
     0
102
RTVSPost2010PropOp36
 70
     1
102
RTVSPost2010Prop37
 90
       50
102
RTVSPost2010PropOp37
 70
     1
102
RTVSPost2010Prop38
140
0.0
102
RTVSPost2010PropOp38
 70
     1
102
RTVSPost2010Prop39
140
1.0
102
RTVSPost2010PropOp39
 70
     1
102
RTVSPost2010Prop40
 90
        0
102
RTVSPost2010PropOp40
 70
     1
102
RTVSPost2010Prop41ColorIndex
 90
       18
102
RTVSPost2010Prop41ColorRGB
 90
        0
102
RTVSPost2010PropOp41
 70
     1
102
RTVSPost2010Prop42
 90
       50
102
RTVSPost2010PropOp42
 70
     1
102
RTVSPost2010Prop43
 90
        3
102
RTVSPost2010PropOp43
 70
     1
102
RTVSPost2010Prop44ColorIndex
 90
        5
102
RTVSPost2010Prop44ColorRGB
 90
      255
102
RTVSPost2010PropOp44
 70
     1
102
RTVSPost2010Prop45
280
     0
102
RTVSPost2010PropOp45
 70
     1
102
RTVSPost2010Prop46
 90
       50
102
RTVSPost2010PropOp46
 70
     1
102
RTVSPost2010Prop47
 90
       50
102
RTVSPost2010PropOp47
 70
     1
102
RTVSPost2010Prop48
 90
       50
102
RTVSPost2010PropOp48
 70
     1
102
RTVSPost2010Prop49
280
     0
102
RTVSPost2010PropOp49
 70
     1
102
RTVSPost2010Prop50
 90
       50
102
RTVSPost2010PropOp50
 70
     1
102
RTVSPost2010Prop51ColorIndex
 90
      256
102
RTVSPost2010Prop51ColorRGB
 90
-16777216
102
RTVSPost2010PropOp51
 70
     0
102
RTVSPost2010Prop52
140
1.0
102
RTVSPost2010PropOp52
 70
     0
102
RTVSPost2010Prop53
 90
        2
102
RTVSPost2010PropOp53
 70
     1
102
RTVSPost2010Prop54
  1
strokes_ogs.tif
102
RTVSPost2010PropOp54
 70
     1
102
RTVSPost2010Prop55
280
     0
102
RTVSPost2010PropOp55
 70
     1
102
RTVSPost2010Prop56
140
1.0
102
RTVSPost2010PropOp56
 70
     1
102
RTVSPost2010Prop57
140
1.0
102
RTVSPost2010PropOp57
 70
     1
102
RTVSPropertyOp0
 70
     1
102
RTVSPropertyOp1
 70
     1
102
RTVSPropertyOp2
 70
     1
102
RTVSPropertyOp3
 70
     1
102
RTVSPropertyOp4
 70
     1
102
RTVSPropertyOp5
 70
     1
102
RTVSPropertyOp6
 70
     1
102
RTVSPropertyOp7
 70
     1
102
RTVSPropertyOp8
 70
     1
102
RTVSPropertyOp9
 70
     1
102
RTVSPropertyOp10
 70
     1
102
RTVSPropertyOp11
 70
     1
102
RTVSPropertyOp12
 70
     1
102
RTVSPropertyOp13
 70
     1
102
RTVSPropertyOp14
 70
     1
102
RTVSPropertyOp15
 70
     1
102
RTVSPropertyOp16
 70
     1
102
RTVSPropertyOp17
 70
     1
102
RTVSPropertyOp18
 70
     1
102
RTVSPropertyOp19
 70
     1
102
RTVSPropertyOp20
 70
     1
102
RTVSPropertyOp21
 70
     1
102
RTVSPropertyOp22
 70
     1
102
RTVSPropertyOp23
 70
     1
102
RTVSPropertyOp24
 70
     1
102
RTVSPropertyOp25
 70
     1
102
RTVSPropertyOp26
 70
     1
102
RTVSPropertyOp27
 70
     1
102
RTVSPropertyOp28
 70
     1
102
RTVSPropertyOp29
 70
     1
102
RTVSPropertyOp30
 70
     1
102
RTVSPropertyOp31
 70
     1
102
RTVSPropertyOp32
 70
     1
102
RTVSPropertyOp33
 70
     1
102
RTVSPropertyOp34
 70
     1
102
RTVSPropertyOp35
 70
     1
102
RTVSPropertyOp36
 70
     1
102
RTVSPropertyOp37
 70
     1
102
RTVSPropertyOp38
 70
     1
102
RTVSPropertyOp39
 70
     1
102
RTVSPropertyOp40
 70
     1
102
RTVSPropertyOp41
 70
     1
102
RTVSPropertyOp42
 70
     1
102
RTVSPropertyOp43
 70
     1
102
RTVSPropertyOp44
 70
     1
102
RTVSPropertyOp45
 70
     1
102
RTVSPropertyOp46
 70
     1
102
RTVSPropertyOp47
 70
     1
102
RTVSPropertyOp48
 70
     1
102
RTVSPropertyOp49
 70
     1
102
RTVSPropertyOp50
 70
     1
102
RTVSPropertyOp51
 70
     0
102
RTVSPropertyOp52
 70
     0
102
RTVSPropertyOp53
 70
     1
102
RTVSPropertyOp54
 70
     1
102
RTVSPropertyOp55
 70
     1
102
RTVSPropertyOp56
 70
     1
102
RTVSPropertyOp57
 70
     1
102
RTVSPropertyOp58
 70
     1
102
RTVSPropertyOp59
 70
     1
102
RTVSPropertyOp60
 70
     1
102
RTVSPropertyOp61
 70
     1
102
RTVSPropertyOp62
 70
     1
  0
XRECORD
  5
23702
102
{ACAD_REACTORS
330
23701
102
}
330
23701
100
AcDbXrecord
280
     1
102
RTVSPost2010Prop28
280
     0
102
RTVSPost2010PropOp28
 70
     1
102
RTVSPost2010Prop29
280
     1
102
RTVSPost2010PropOp29
 70
     1
102
RTVSPost2010Prop30
280
     1
102
RTVSPost2010PropOp30
 70
     1
102
RTVSPost2010Prop31
280
     0
102
RTVSPost2010PropOp31
 70
     1
102
RTVSPost2010Prop32
280
     0
102
RTVSPost2010PropOp32
 70
     1
102
RTVSPost2010Prop33
280
     0
102
RTVSPost2010PropOp33
 70
     1
102
RTVSPost2010Prop34
280
     0
102
RTVSPost2010PropOp34
 70
     1
102
RTVSPost2010Prop35
280
     0
102
RTVSPost2010PropOp35
 70
     1
102
RTVSPost2010Prop36
280
     0
102
RTVSPost2010PropOp36
 70
     1
102
RTVSPost2010Prop37
 90
       50
102
RTVSPost2010PropOp37
 70
     1
102
RTVSPost2010Prop38
140
0.0
102
RTVSPost2010PropOp38
 70
     1
102
RTVSPost2010Prop39
140
1.0
102
RTVSPost2010PropOp39
 70
     1
102
RTVSPost2010Prop40
 90
        0
102
RTVSPost2010PropOp40
 70
     1
102
RTVSPost2010Prop41ColorIndex
 90
       18
102
RTVSPost2010Prop41ColorRGB
 90
        0
102
RTVSPost2010PropOp41
 70
     1
102
RTVSPost2010Prop42
 90
       50
102
RTVSPost2010PropOp42
 70
     1
102
RTVSPost2010Prop43
 90
        3
102
RTVSPost2010PropOp43
 70
     1
102
RTVSPost2010Prop44ColorIndex
 90
        5
102
RTVSPost2010Prop44ColorRGB
 90
      255
102
RTVSPost2010PropOp44
 70
     1
102
RTVSPost2010Prop45
280
     0
102
RTVSPost2010PropOp45
 70
     1
102
RTVSPost2010Prop46
 90
       50
102
RTVSPost2010PropOp46
 70
     1
102
RTVSPost2010Prop47
 90
       50
102
RTVSPost2010PropOp47
 70
     1
102
RTVSPost2010Prop48
 90
       50
102
RTVSPost2010PropOp48
 70
     1
102
RTVSPost2010Prop49
280
     0
102
RTVSPost2010PropOp49
 70
     1
102
RTVSPost2010Prop50
 90
       50
102
RTVSPost2010PropOp50
 70
     1
102
RTVSPost2010Prop51ColorIndex
 90
      256
102
RTVSPost2010Prop51ColorRGB
 90
-16777216
102
RTVSPost2010PropOp51
 70
     0
102
RTVSPost2010Prop52
140
1.0
102
RTVSPost2010PropOp52
 70
     0
102
RTVSPost2010Prop53
 90
        2
102
RTVSPost2010PropOp53
 70
     1
102
RTVSPost2010Prop54
  1
strokes_ogs.tif
102
RTVSPost2010PropOp54
 70
     1
102
RTVSPost2010Prop55
280
     0
102
RTVSPost2010PropOp55
 70
     1
102
RTVSPost2010Prop56
140
1.0
102
RTVSPost2010PropOp56
 70
     1
102
RTVSPost2010Prop57
140
1.0
102
RTVSPost2010PropOp57
 70
     1
102
RTVSPropertyOp0
 70
     1
102
RTVSPropertyOp1
 70
     1
102
RTVSPropertyOp2
 70
     1
102
RTVSPropertyOp3
 70
     1
102
RTVSPropertyOp4
 70
     1
102
RTVSPropertyOp5
 70
     1
102
RTVSPropertyOp6
 70
     1
102
RTVSPropertyOp7
 70
     1
102
RTVSPropertyOp8
 70
     1
102
RTVSPropertyOp9
 70
     1
102
RTVSPropertyOp10
 70
     1
102
RTVSPropertyOp11
 70
     1
102
RTVSPropertyOp12
 70
     1
102
RTVSPropertyOp13
 70
     1
102
RTVSPropertyOp14
 70
     1
102
RTVSPropertyOp15
 70
     1
102
RTVSPropertyOp16
 70
     1
102
RTVSPropertyOp17
 70
     1
102
RTVSPropertyOp18
 70
     1
102
RTVSPropertyOp19
 70
     1
102
RTVSPropertyOp20
 70
     1
102
RTVSPropertyOp21
 70
     1
102
RTVSPropertyOp22
 70
     1
102
RTVSPropertyOp23
 70
     1
102
RTVSPropertyOp24
 70
     1
102
RTVSPropertyOp25
 70
     1
102
RTVSPropertyOp26
 70
     1
102
RTVSPropertyOp27
 70
     1
102
RTVSPropertyOp28
 70
     1
102
RTVSPropertyOp29
 70
     1
102
RTVSPropertyOp30
 70
     1
102
RTVSPropertyOp31
 70
     1
102
RTVSPropertyOp32
 70
     1
102
RTVSPropertyOp33
 70
     1
102
RTVSPropertyOp34
 70
     1
102
RTVSPropertyOp35
 70
     1
102
RTVSPropertyOp36
 70
     1
102
RTVSPropertyOp37
 70
     1
102
RTVSPropertyOp38
 70
     1
102
RTVSPropertyOp39
 70
     1
102
RTVSPropertyOp40
 70
     1
102
RTVSPropertyOp41
 70
     1
102
RTVSPropertyOp42
 70
     1
102
RTVSPropertyOp43
 70
     1
102
RTVSPropertyOp44
 70
     1
102
RTVSPropertyOp45
 70
     1
102
RTVSPropertyOp46
 70
     1
102
RTVSPropertyOp47
 70
     1
102
RTVSPropertyOp48
 70
     1
102
RTVSPropertyOp49
 70
     1
102
RTVSPropertyOp50
 70
     1
102
RTVSPropertyOp51
 70
     0
102
RTVSPropertyOp52
 70
     0
102
RTVSPropertyOp53
 70
     1
102
RTVSPropertyOp54
 70
     1
102
RTVSPropertyOp55
 70
     1
102
RTVSPropertyOp56
 70
     1
102
RTVSPropertyOp57
 70
     1
102
RTVSPropertyOp58
 70
     1
102
RTVSPropertyOp59
 70
     1
102
RTVSPropertyOp60
 70
     1
102
RTVSPropertyOp61
 70
     1
102
RTVSPropertyOp62
 70
     1
  0
XRECORD
  5
23729
102
{ACAD_REACTORS
330
23728
102
}
330
23728
100
AcDbXrecord
280
     1
102
RTVSPost2010Prop28
280
     0
102
RTVSPost2010PropOp28
 70
     1
102
RTVSPost2010Prop29
280
     1
102
RTVSPost2010PropOp29
 70
     1
102
RTVSPost2010Prop30
280
     1
102
RTVSPost2010PropOp30
 70
     1
102
RTVSPost2010Prop31
280
     0
102
RTVSPost2010PropOp31
 70
     1
102
RTVSPost2010Prop32
280
     0
102
RTVSPost2010PropOp32
 70
     1
102
RTVSPost2010Prop33
280
     0
102
RTVSPost2010PropOp33
 70
     1
102
RTVSPost2010Prop34
280
     0
102
RTVSPost2010PropOp34
 70
     1
102
RTVSPost2010Prop35
280
     0
102
RTVSPost2010PropOp35
 70
     1
102
RTVSPost2010Prop36
280
     0
102
RTVSPost2010PropOp36
 70
     1
102
RTVSPost2010Prop37
 90
       50
102
RTVSPost2010PropOp37
 70
     0
102
RTVSPost2010Prop38
140
0.0
102
RTVSPost2010PropOp38
 70
     0
102
RTVSPost2010Prop39
140
1.0
102
RTVSPost2010PropOp39
 70
     0
102
RTVSPost2010Prop40
 90
        0
102
RTVSPost2010PropOp40
 70
     0
102
RTVSPost2010Prop41ColorIndex
 90
       18
102
RTVSPost2010Prop41ColorRGB
 90
        0
102
RTVSPost2010PropOp41
 70
     0
102
RTVSPost2010Prop42
 90
       50
102
RTVSPost2010PropOp42
 70
     0
102
RTVSPost2010Prop43
 90
        3
102
RTVSPost2010PropOp43
 70
     0
102
RTVSPost2010Prop44ColorIndex
 90
        5
102
RTVSPost2010Prop44ColorRGB
 90
      255
102
RTVSPost2010PropOp44
 70
     0
102
RTVSPost2010Prop45
280
     0
102
RTVSPost2010PropOp45
 70
     1
102
RTVSPost2010Prop46
 90
       50
102
RTVSPost2010PropOp46
 70
     0
102
RTVSPost2010Prop47
 90
       50
102
RTVSPost2010PropOp47
 70
     0
102
RTVSPost2010Prop48
 90
       50
102
RTVSPost2010PropOp48
 70
     0
102
RTVSPost2010Prop49
280
     0
102
RTVSPost2010PropOp49
 70
     1
102
RTVSPost2010Prop50
 90
       50
102
RTVSPost2010PropOp50
 70
     0
102
RTVSPost2010Prop51ColorIndex
 90
      256
102
RTVSPost2010Prop51ColorRGB
 90
-16777216
102
RTVSPost2010PropOp51
 70
     0
102
RTVSPost2010Prop52
140
1.0
102
RTVSPost2010PropOp52
 70
     0
102
RTVSPost2010Prop53
 90
        2
102
RTVSPost2010PropOp53
 70
     0
102
RTVSPost2010Prop54
  1
strokes_ogs.tif
102
RTVSPost2010PropOp54
 70
     0
102
RTVSPost2010Prop55
280
     0
102
RTVSPost2010PropOp55
 70
     1
102
RTVSPost2010Prop56
140
1.0
102
RTVSPost2010PropOp56
 70
     0
102
RTVSPost2010Prop57
140
1.0
102
RTVSPost2010PropOp57
 70
     0
102
RTVSPropertyOp0
 70
     0
102
RTVSPropertyOp1
 70
     0
102
RTVSPropertyOp2
 70
     0
102
RTVSPropertyOp3
 70
     0
102
RTVSPropertyOp4
 70
     0
102
RTVSPropertyOp5
 70
     0
102
RTVSPropertyOp6
 70
     0
102
RTVSPropertyOp7
 70
     0
102
RTVSPropertyOp8
 70
     0
102
RTVSPropertyOp9
 70
     0
102
RTVSPropertyOp10
 70
     0
102
RTVSPropertyOp11
 70
     0
102
RTVSPropertyOp12
 70
     0
102
RTVSPropertyOp13
 70
     0
102
RTVSPropertyOp14
 70
     2
102
RTVSPropertyOp15
 70
     0
102
RTVSPropertyOp16
 70
     0
102
RTVSPropertyOp17
 70
     0
102
RTVSPropertyOp18
 70
     0
102
RTVSPropertyOp19
 70
     0
102
RTVSPropertyOp20
 70
     0
102
RTVSPropertyOp21
 70
     0
102
RTVSPropertyOp22
 70
     0
102
RTVSPropertyOp23
 70
     0
102
RTVSPropertyOp24
 70
     0
102
RTVSPropertyOp25
 70
     0
102
RTVSPropertyOp26
 70
     0
102
RTVSPropertyOp27
 70
     0
102
RTVSPropertyOp28
 70
     1
102
RTVSPropertyOp29
 70
     1
102
RTVSPropertyOp30
 70
     1
102
RTVSPropertyOp31
 70
     1
102
RTVSPropertyOp32
 70
     1
102
RTVSPropertyOp33
 70
     1
102
RTVSPropertyOp34
 70
     1
102
RTVSPropertyOp35
 70
     1
102
RTVSPropertyOp36
 70
     1
102
RTVSPropertyOp37
 70
     0
102
RTVSPropertyOp38
 70
     0
102
RTVSPropertyOp39
 70
     0
102
RTVSPropertyOp40
 70
     0
102
RTVSPropertyOp41
 70
     0
102
RTVSPropertyOp42
 70
     0
102
RTVSPropertyOp43
 70
     0
102
RTVSPropertyOp44
 70
     0
102
RTVSPropertyOp45
 70
     1
102
RTVSPropertyOp46
 70
     0
102
RTVSPropertyOp47
 70
     0
102
RTVSPropertyOp48
 70
     0
102
RTVSPropertyOp49
 70
     1
102
RTVSPropertyOp50
 70
     0
102
RTVSPropertyOp51
 70
     0
102
RTVSPropertyOp52
 70
     0
102
RTVSPropertyOp53
 70
     0
102
RTVSPropertyOp54
 70
     0
102
RTVSPropertyOp55
 70
     1
102
RTVSPropertyOp56
 70
     0
102
RTVSPropertyOp57
 70
     0
102
RTVSPropertyOp58
 70
     1
102
RTVSPropertyOp59
 70
     1
102
RTVSPropertyOp60
 70
     1
102
RTVSPropertyOp61
 70
     1
102
RTVSPropertyOp62
 70
     1
  0
XRECORD
  5
2370A
102
{ACAD_REACTORS
330
23709
102
}
330
23709
100
AcDbXrecord
280
     1
102
RTVSPost2010Prop28
280
     0
102
RTVSPost2010PropOp28
 70
     1
102
RTVSPost2010Prop29
280
     1
102
RTVSPost2010PropOp29
 70
     1
102
RTVSPost2010Prop30
280
     1
102
RTVSPost2010PropOp30
 70
     1
102
RTVSPost2010Prop31
280
     0
102
RTVSPost2010PropOp31
 70
     1
102
RTVSPost2010Prop32
280
     0
102
RTVSPost2010PropOp32
 70
     1
102
RTVSPost2010Prop33
280
     0
102
RTVSPost2010PropOp33
 70
     1
102
RTVSPost2010Prop34
280
     0
102
RTVSPost2010PropOp34
 70
     1
102
RTVSPost2010Prop35
280
     0
102
RTVSPost2010PropOp35
 70
     1
102
RTVSPost2010Prop36
280
     0
102
RTVSPost2010PropOp36
 70
     1
102
RTVSPost2010Prop37
 90
       50
102
RTVSPost2010PropOp37
 70
     1
102
RTVSPost2010Prop38
140
0.0
102
RTVSPost2010PropOp38
 70
     1
102
RTVSPost2010Prop39
140
1.0
102
RTVSPost2010PropOp39
 70
     1
102
RTVSPost2010Prop40
 90
        0
102
RTVSPost2010PropOp40
 70
     1
102
RTVSPost2010Prop41ColorIndex
 90
       18
102
RTVSPost2010Prop41ColorRGB
 90
        0
102
RTVSPost2010PropOp41
 70
     1
102
RTVSPost2010Prop42
 90
       50
102
RTVSPost2010PropOp42
 70
     1
102
RTVSPost2010Prop43
 90
        3
102
RTVSPost2010PropOp43
 70
     1
102
RTVSPost2010Prop44ColorIndex
 90
        5
102
RTVSPost2010Prop44ColorRGB
 90
      255
102
RTVSPost2010PropOp44
 70
     1
102
RTVSPost2010Prop45
280
     0
102
RTVSPost2010PropOp45
 70
     1
102
RTVSPost2010Prop46
 90
       50
102
RTVSPost2010PropOp46
 70
     1
102
RTVSPost2010Prop47
 90
       50
102
RTVSPost2010PropOp47
 70
     1
102
RTVSPost2010Prop48
 90
       50
102
RTVSPost2010PropOp48
 70
     1
102
RTVSPost2010Prop49
280
     0
102
RTVSPost2010PropOp49
 70
     1
102
RTVSPost2010Prop50
 90
       50
102
RTVSPost2010PropOp50
 70
     1
102
RTVSPost2010Prop51ColorIndex
 90
      256
102
RTVSPost2010Prop51ColorRGB
 90
-16777216
102
RTVSPost2010PropOp51
 70
     0
102
RTVSPost2010Prop52
140
1.0
102
RTVSPost2010PropOp52
 70
     0
102
RTVSPost2010Prop53
 90
        2
102
RTVSPost2010PropOp53
 70
     1
102
RTVSPost2010Prop54
  1
strokes_ogs.tif
102
RTVSPost2010PropOp54
 70
     1
102
RTVSPost2010Prop55
280
     0
102
RTVSPost2010PropOp55
 70
     1
102
RTVSPost2010Prop56
140
1.0
102
RTVSPost2010PropOp56
 70
     1
102
RTVSPost2010Prop57
140
1.0
102
RTVSPost2010PropOp57
 70
     1
102
RTVSPropertyOp0
 70
     1
102
RTVSPropertyOp1
 70
     1
102
RTVSPropertyOp2
 70
     1
102
RTVSPropertyOp3
 70
     1
102
RTVSPropertyOp4
 70
     1
102
RTVSPropertyOp5
 70
     1
102
RTVSPropertyOp6
 70
     1
102
RTVSPropertyOp7
 70
     1
102
RTVSPropertyOp8
 70
     1
102
RTVSPropertyOp9
 70
     1
102
RTVSPropertyOp10
 70
     1
102
RTVSPropertyOp11
 70
     1
102
RTVSPropertyOp12
 70
     1
102
RTVSPropertyOp13
 70
     1
102
RTVSPropertyOp14
 70
     1
102
RTVSPropertyOp15
 70
     1
102
RTVSPropertyOp16
 70
     1
102
RTVSPropertyOp17
 70
     1
102
RTVSPropertyOp18
 70
     1
102
RTVSPropertyOp19
 70
     1
102
RTVSPropertyOp20
 70
     1
102
RTVSPropertyOp21
 70
     1
102
RTVSPropertyOp22
 70
     1
102
RTVSPropertyOp23
 70
     1
102
RTVSPropertyOp24
 70
     1
102
RTVSPropertyOp25
 70
     1
102
RTVSPropertyOp26
 70
     1
102
RTVSPropertyOp27
 70
     1
102
RTVSPropertyOp28
 70
     1
102
RTVSPropertyOp29
 70
     1
102
RTVSPropertyOp30
 70
     1
102
RTVSPropertyOp31
 70
     1
102
RTVSPropertyOp32
 70
     1
102
RTVSPropertyOp33
 70
     1
102
RTVSPropertyOp34
 70
     1
102
RTVSPropertyOp35
 70
     1
102
RTVSPropertyOp36
 70
     1
102
RTVSPropertyOp37
 70
     1
102
RTVSPropertyOp38
 70
     1
102
RTVSPropertyOp39
 70
     1
102
RTVSPropertyOp40
 70
     1
102
RTVSPropertyOp41
 70
     1
102
RTVSPropertyOp42
 70
     1
102
RTVSPropertyOp43
 70
     1
102
RTVSPropertyOp44
 70
     1
102
RTVSPropertyOp45
 70
     1
102
RTVSPropertyOp46
 70
     1
102
RTVSPropertyOp47
 70
     1
102
RTVSPropertyOp48
 70
     1
102
RTVSPropertyOp49
 70
     1
102
RTVSPropertyOp50
 70
     1
102
RTVSPropertyOp51
 70
     0
102
RTVSPropertyOp52
 70
     0
102
RTVSPropertyOp53
 70
     1
102
RTVSPropertyOp54
 70
     1
102
RTVSPropertyOp55
 70
     1
102
RTVSPropertyOp56
 70
     1
102
RTVSPropertyOp57
 70
     1
102
RTVSPropertyOp58
 70
     1
102
RTVSPropertyOp59
 70
     1
102
RTVSPropertyOp60
 70
     1
102
RTVSPropertyOp61
 70
     1
102
RTVSPropertyOp62
 70
     1
  0
XRECORD
  5
236EE
102
{ACAD_REACTORS
330
236ED
102
}
330
236ED
100
AcDbXrecord
280
     1
102
RTVSPost2010Prop28
280
     0
102
RTVSPost2010PropOp28
 70
     1
102
RTVSPost2010Prop29
280
     1
102
RTVSPost2010PropOp29
 70
     1
102
RTVSPost2010Prop30
280
     1
102
RTVSPost2010PropOp30
 70
     1
102
RTVSPost2010Prop31
280
     0
102
RTVSPost2010PropOp31
 70
     1
102
RTVSPost2010Prop32
280
     0
102
RTVSPost2010PropOp32
 70
     1
102
RTVSPost2010Prop33
280
     0
102
RTVSPost2010PropOp33
 70
     1
102
RTVSPost2010Prop34
280
     0
102
RTVSPost2010PropOp34
 70
     1
102
RTVSPost2010Prop35
280
     0
102
RTVSPost2010PropOp35
 70
     1
102
RTVSPost2010Prop36
280
     0
102
RTVSPost2010PropOp36
 70
     1
102
RTVSPost2010Prop37
 90
       50
102
RTVSPost2010PropOp37
 70
     1
102
RTVSPost2010Prop38
140
0.0
102
RTVSPost2010PropOp38
 70
     1
102
RTVSPost2010Prop39
140
1.0
102
RTVSPost2010PropOp39
 70
     1
102
RTVSPost2010Prop40
 90
        0
102
RTVSPost2010PropOp40
 70
     1
102
RTVSPost2010Prop41ColorIndex
 90
       18
102
RTVSPost2010Prop41ColorRGB
 90
        0
102
RTVSPost2010PropOp41
 70
     1
102
RTVSPost2010Prop42
 90
       50
102
RTVSPost2010PropOp42
 70
     1
102
RTVSPost2010Prop43
 90
        3
102
RTVSPost2010PropOp43
 70
     1
102
RTVSPost2010Prop44ColorIndex
 90
        5
102
RTVSPost2010Prop44ColorRGB
 90
      255
102
RTVSPost2010PropOp44
 70
     1
102
RTVSPost2010Prop45
280
     0
102
RTVSPost2010PropOp45
 70
     1
102
RTVSPost2010Prop46
 90
       50
102
RTVSPost2010PropOp46
 70
     1
102
RTVSPost2010Prop47
 90
       50
102
RTVSPost2010PropOp47
 70
     1
102
RTVSPost2010Prop48
 90
       50
102
RTVSPost2010PropOp48
 70
     1
102
RTVSPost2010Prop49
280
     0
102
RTVSPost2010PropOp49
 70
     1
102
RTVSPost2010Prop50
 90
       50
102
RTVSPost2010PropOp50
 70
     1
102
RTVSPost2010Prop51ColorIndex
 90
      256
102
RTVSPost2010Prop51ColorRGB
 90
-16777216
102
RTVSPost2010PropOp51
 70
     0
102
RTVSPost2010Prop52
140
1.0
102
RTVSPost2010PropOp52
 70
     0
102
RTVSPost2010Prop53
 90
        2
102
RTVSPost2010PropOp53
 70
     1
102
RTVSPost2010Prop54
  1
strokes_ogs.tif
102
RTVSPost2010PropOp54
 70
     1
102
RTVSPost2010Prop55
280
     0
102
RTVSPost2010PropOp55
 70
     1
102
RTVSPost2010Prop56
140
1.0
102
RTVSPost2010PropOp56
 70
     1
102
RTVSPost2010Prop57
140
1.0
102
RTVSPost2010PropOp57
 70
     1
102
RTVSPropertyOp0
 70
     1
102
RTVSPropertyOp1
 70
     1
102
RTVSPropertyOp2
 70
     1
102
RTVSPropertyOp3
 70
     1
102
RTVSPropertyOp4
 70
     1
102
RTVSPropertyOp5
 70
     1
102
RTVSPropertyOp6
 70
     1
102
RTVSPropertyOp7
 70
     1
102
RTVSPropertyOp8
 70
     1
102
RTVSPropertyOp9
 70
     1
102
RTVSPropertyOp10
 70
     1
102
RTVSPropertyOp11
 70
     1
102
RTVSPropertyOp12
 70
     1
102
RTVSPropertyOp13
 70
     1
102
RTVSPropertyOp14
 70
     1
102
RTVSPropertyOp15
 70
     1
102
RTVSPropertyOp16
 70
     1
102
RTVSPropertyOp17
 70
     1
102
RTVSPropertyOp18
 70
     1
102
RTVSPropertyOp19
 70
     1
102
RTVSPropertyOp20
 70
     1
102
RTVSPropertyOp21
 70
     1
102
RTVSPropertyOp22
 70
     1
102
RTVSPropertyOp23
 70
     1
102
RTVSPropertyOp24
 70
     1
102
RTVSPropertyOp25
 70
     1
102
RTVSPropertyOp26
 70
     1
102
RTVSPropertyOp27
 70
     1
102
RTVSPropertyOp28
 70
     1
102
RTVSPropertyOp29
 70
     1
102
RTVSPropertyOp30
 70
     1
102
RTVSPropertyOp31
 70
     1
102
RTVSPropertyOp32
 70
     1
102
RTVSPropertyOp33
 70
     1
102
RTVSPropertyOp34
 70
     1
102
RTVSPropertyOp35
 70
     1
102
RTVSPropertyOp36
 70
     1
102
RTVSPropertyOp37
 70
     1
102
RTVSPropertyOp38
 70
     1
102
RTVSPropertyOp39
 70
     1
102
RTVSPropertyOp40
 70
     1
102
RTVSPropertyOp41
 70
     1
102
RTVSPropertyOp42
 70
     1
102
RTVSPropertyOp43
 70
     1
102
RTVSPropertyOp44
 70
     1
102
RTVSPropertyOp45
 70
     1
102
RTVSPropertyOp46
 70
     1
102
RTVSPropertyOp47
 70
     1
102
RTVSPropertyOp48
 70
     1
102
RTVSPropertyOp49
 70
     1
102
RTVSPropertyOp50
 70
     1
102
RTVSPropertyOp51
 70
     0
102
RTVSPropertyOp52
 70
     0
102
RTVSPropertyOp53
 70
     1
102
RTVSPropertyOp54
 70
     1
102
RTVSPropertyOp55
 70
     1
102
RTVSPropertyOp56
 70
     1
102
RTVSPropertyOp57
 70
     1
102
RTVSPropertyOp58
 70
     1
102
RTVSPropertyOp59
 70
     1
102
RTVSPropertyOp60
 70
     1
102
RTVSPropertyOp61
 70
     1
102
RTVSPropertyOp62
 70
     1
  0
XRECORD
  5
236F0
102
{ACAD_REACTORS
330
236EF
102
}
330
236EF
100
AcDbXrecord
280
     1
102
RTVSPost2010Prop28
280
     0
102
RTVSPost2010PropOp28
 70
     1
102
RTVSPost2010Prop29
280
     1
102
RTVSPost2010PropOp29
 70
     1
102
RTVSPost2010Prop30
280
     1
102
RTVSPost2010PropOp30
 70
     1
102
RTVSPost2010Prop31
280
     0
102
RTVSPost2010PropOp31
 70
     1
102
RTVSPost2010Prop32
280
     0
102
RTVSPost2010PropOp32
 70
     1
102
RTVSPost2010Prop33
280
     0
102
RTVSPost2010PropOp33
 70
     1
102
RTVSPost2010Prop34
280
     0
102
RTVSPost2010PropOp34
 70
     1
102
RTVSPost2010Prop35
280
     0
102
RTVSPost2010PropOp35
 70
     1
102
RTVSPost2010Prop36
280
     0
102
RTVSPost2010PropOp36
 70
     1
102
RTVSPost2010Prop37
 90
       50
102
RTVSPost2010PropOp37
 70
     1
102
RTVSPost2010Prop38
140
0.0
102
RTVSPost2010PropOp38
 70
     1
102
RTVSPost2010Prop39
140
1.0
102
RTVSPost2010PropOp39
 70
     1
102
RTVSPost2010Prop40
 90
        0
102
RTVSPost2010PropOp40
 70
     1
102
RTVSPost2010Prop41ColorIndex
 90
       18
102
RTVSPost2010Prop41ColorRGB
 90
        0
102
RTVSPost2010PropOp41
 70
     1
102
RTVSPost2010Prop42
 90
       50
102
RTVSPost2010PropOp42
 70
     1
102
RTVSPost2010Prop43
 90
        3
102
RTVSPost2010PropOp43
 70
     1
102
RTVSPost2010Prop44ColorIndex
 90
        5
102
RTVSPost2010Prop44ColorRGB
 90
      255
102
RTVSPost2010PropOp44
 70
     1
102
RTVSPost2010Prop45
280
     0
102
RTVSPost2010PropOp45
 70
     1
102
RTVSPost2010Prop46
 90
       50
102
RTVSPost2010PropOp46
 70
     1
102
RTVSPost2010Prop47
 90
       50
102
RTVSPost2010PropOp47
 70
     1
102
RTVSPost2010Prop48
 90
       50
102
RTVSPost2010PropOp48
 70
     1
102
RTVSPost2010Prop49
280
     0
102
RTVSPost2010PropOp49
 70
     1
102
RTVSPost2010Prop50
 90
       50
102
RTVSPost2010PropOp50
 70
     1
102
RTVSPost2010Prop51ColorIndex
 90
      256
102
RTVSPost2010Prop51ColorRGB
 90
-16777216
102
RTVSPost2010PropOp51
 70
     0
102
RTVSPost2010Prop52
140
1.0
102
RTVSPost2010PropOp52
 70
     0
102
RTVSPost2010Prop53
 90
        2
102
RTVSPost2010PropOp53
 70
     1
102
RTVSPost2010Prop54
  1
strokes_ogs.tif
102
RTVSPost2010PropOp54
 70
     1
102
RTVSPost2010Prop55
280
     0
102
RTVSPost2010PropOp55
 70
     1
102
RTVSPost2010Prop56
140
1.0
102
RTVSPost2010PropOp56
 70
     1
102
RTVSPost2010Prop57
140
1.0
102
RTVSPost2010PropOp57
 70
     1
102
RTVSPropertyOp0
 70
     1
102
RTVSPropertyOp1
 70
     1
102
RTVSPropertyOp2
 70
     1
102
RTVSPropertyOp3
 70
     1
102
RTVSPropertyOp4
 70
     1
102
RTVSPropertyOp5
 70
     1
102
RTVSPropertyOp6
 70
     1
102
RTVSPropertyOp7
 70
     1
102
RTVSPropertyOp8
 70
     1
102
RTVSPropertyOp9
 70
     1
102
RTVSPropertyOp10
 70
     1
102
RTVSPropertyOp11
 70
     1
102
RTVSPropertyOp12
 70
     1
102
RTVSPropertyOp13
 70
     1
102
RTVSPropertyOp14
 70
     1
102
RTVSPropertyOp15
 70
     1
102
RTVSPropertyOp16
 70
     1
102
RTVSPropertyOp17
 70
     1
102
RTVSPropertyOp18
 70
     1
102
RTVSPropertyOp19
 70
     1
102
RTVSPropertyOp20
 70
     1
102
RTVSPropertyOp21
 70
     1
102
RTVSPropertyOp22
 70
     1
102
RTVSPropertyOp23
 70
     1
102
RTVSPropertyOp24
 70
     1
102
RTVSPropertyOp25
 70
     1
102
RTVSPropertyOp26
 70
     1
102
RTVSPropertyOp27
 70
     1
102
RTVSPropertyOp28
 70
     1
102
RTVSPropertyOp29
 70
     1
102
RTVSPropertyOp30
 70
     1
102
RTVSPropertyOp31
 70
     1
102
RTVSPropertyOp32
 70
     1
102
RTVSPropertyOp33
 70
     1
102
RTVSPropertyOp34
 70
     1
102
RTVSPropertyOp35
 70
     1
102
RTVSPropertyOp36
 70
     1
102
RTVSPropertyOp37
 70
     1
102
RTVSPropertyOp38
 70
     1
102
RTVSPropertyOp39
 70
     1
102
RTVSPropertyOp40
 70
     1
102
RTVSPropertyOp41
 70
     1
102
RTVSPropertyOp42
 70
     1
102
RTVSPropertyOp43
 70
     1
102
RTVSPropertyOp44
 70
     1
102
RTVSPropertyOp45
 70
     1
102
RTVSPropertyOp46
 70
     1
102
RTVSPropertyOp47
 70
     1
102
RTVSPropertyOp48
 70
     1
102
RTVSPropertyOp49
 70
     1
102
RTVSPropertyOp50
 70
     1
102
RTVSPropertyOp51
 70
     0
102
RTVSPropertyOp52
 70
     0
102
RTVSPropertyOp53
 70
     1
102
RTVSPropertyOp54
 70
     1
102
RTVSPropertyOp55
 70
     1
102
RTVSPropertyOp56
 70
     1
102
RTVSPropertyOp57
 70
     1
102
RTVSPropertyOp58
 70
     1
102
RTVSPropertyOp59
 70
     1
102
RTVSPropertyOp60
 70
     1
102
RTVSPropertyOp61
 70
     1
102
RTVSPropertyOp62
 70
     1
  0
XRECORD
  5
236F2
102
{ACAD_REACTORS
330
236F1
102
}
330
236F1
100
AcDbXrecord
280
     1
102
RTVSPost2010Prop28
280
     0
102
RTVSPost2010PropOp28
 70
     1
102
RTVSPost2010Prop29
280
     1
102
RTVSPost2010PropOp29
 70
     1
102
RTVSPost2010Prop30
280
     1
102
RTVSPost2010PropOp30
 70
     1
102
RTVSPost2010Prop31
280
     0
102
RTVSPost2010PropOp31
 70
     1
102
RTVSPost2010Prop32
280
     0
102
RTVSPost2010PropOp32
 70
     1
102
RTVSPost2010Prop33
280
     0
102
RTVSPost2010PropOp33
 70
     1
102
RTVSPost2010Prop34
280
     0
102
RTVSPost2010PropOp34
 70
     1
102
RTVSPost2010Prop35
280
     0
102
RTVSPost2010PropOp35
 70
     1
102
RTVSPost2010Prop36
280
     0
102
RTVSPost2010PropOp36
 70
     1
102
RTVSPost2010Prop37
 90
       50
102
RTVSPost2010PropOp37
 70
     1
102
RTVSPost2010Prop38
140
0.0
102
RTVSPost2010PropOp38
 70
     1
102
RTVSPost2010Prop39
140
1.0
102
RTVSPost2010PropOp39
 70
     1
102
RTVSPost2010Prop40
 90
        0
102
RTVSPost2010PropOp40
 70
     1
102
RTVSPost2010Prop41ColorIndex
 90
       18
102
RTVSPost2010Prop41ColorRGB
 90
        0
102
RTVSPost2010PropOp41
 70
     1
102
RTVSPost2010Prop42
 90
       50
102
RTVSPost2010PropOp42
 70
     1
102
RTVSPost2010Prop43
 90
        3
102
RTVSPost2010PropOp43
 70
     1
102
RTVSPost2010Prop44ColorIndex
 90
        5
102
RTVSPost2010Prop44ColorRGB
 90
      255
102
RTVSPost2010PropOp44
 70
     1
102
RTVSPost2010Prop45
280
     0
102
RTVSPost2010PropOp45
 70
     1
102
RTVSPost2010Prop46
 90
       50
102
RTVSPost2010PropOp46
 70
     1
102
RTVSPost2010Prop47
 90
       50
102
RTVSPost2010PropOp47
 70
     1
102
RTVSPost2010Prop48
 90
       50
102
RTVSPost2010PropOp48
 70
     1
102
RTVSPost2010Prop49
280
     0
102
RTVSPost2010PropOp49
 70
     1
102
RTVSPost2010Prop50
 90
       50
102
RTVSPost2010PropOp50
 70
     1
102
RTVSPost2010Prop51ColorIndex
 90
      256
102
RTVSPost2010Prop51ColorRGB
 90
-16777216
102
RTVSPost2010PropOp51
 70
     0
102
RTVSPost2010Prop52
140
1.0
102
RTVSPost2010PropOp52
 70
     0
102
RTVSPost2010Prop53
 90
        2
102
RTVSPost2010PropOp53
 70
     1
102
RTVSPost2010Prop54
  1
strokes_ogs.tif
102
RTVSPost2010PropOp54
 70
     1
102
RTVSPost2010Prop55
280
     0
102
RTVSPost2010PropOp55
 70
     1
102
RTVSPost2010Prop56
140
1.0
102
RTVSPost2010PropOp56
 70
     1
102
RTVSPost2010Prop57
140
1.0
102
RTVSPost2010PropOp57
 70
     1
102
RTVSPropertyOp0
 70
     1
102
RTVSPropertyOp1
 70
     1
102
RTVSPropertyOp2
 70
     1
102
RTVSPropertyOp3
 70
     1
102
RTVSPropertyOp4
 70
     1
102
RTVSPropertyOp5
 70
     1
102
RTVSPropertyOp6
 70
     1
102
RTVSPropertyOp7
 70
     1
102
RTVSPropertyOp8
 70
     1
102
RTVSPropertyOp9
 70
     1
102
RTVSPropertyOp10
 70
     1
102
RTVSPropertyOp11
 70
     1
102
RTVSPropertyOp12
 70
     1
102
RTVSPropertyOp13
 70
     1
102
RTVSPropertyOp14
 70
     1
102
RTVSPropertyOp15
 70
     1
102
RTVSPropertyOp16
 70
     1
102
RTVSPropertyOp17
 70
     1
102
RTVSPropertyOp18
 70
     1
102
RTVSPropertyOp19
 70
     1
102
RTVSPropertyOp20
 70
     1
102
RTVSPropertyOp21
 70
     1
102
RTVSPropertyOp22
 70
     1
102
RTVSPropertyOp23
 70
     1
102
RTVSPropertyOp24
 70
     1
102
RTVSPropertyOp25
 70
     1
102
RTVSPropertyOp26
 70
     1
102
RTVSPropertyOp27
 70
     1
102
RTVSPropertyOp28
 70
     1
102
RTVSPropertyOp29
 70
     1
102
RTVSPropertyOp30
 70
     1
102
RTVSPropertyOp31
 70
     1
102
RTVSPropertyOp32
 70
     1
102
RTVSPropertyOp33
 70
     1
102
RTVSPropertyOp34
 70
     1
102
RTVSPropertyOp35
 70
     1
102
RTVSPropertyOp36
 70
     1
102
RTVSPropertyOp37
 70
     1
102
RTVSPropertyOp38
 70
     1
102
RTVSPropertyOp39
 70
     1
102
RTVSPropertyOp40
 70
     1
102
RTVSPropertyOp41
 70
     1
102
RTVSPropertyOp42
 70
     1
102
RTVSPropertyOp43
 70
     1
102
RTVSPropertyOp44
 70
     1
102
RTVSPropertyOp45
 70
     1
102
RTVSPropertyOp46
 70
     1
102
RTVSPropertyOp47
 70
     1
102
RTVSPropertyOp48
 70
     1
102
RTVSPropertyOp49
 70
     1
102
RTVSPropertyOp50
 70
     1
102
RTVSPropertyOp51
 70
     0
102
RTVSPropertyOp52
 70
     0
102
RTVSPropertyOp53
 70
     1
102
RTVSPropertyOp54
 70
     1
102
RTVSPropertyOp55
 70
     1
102
RTVSPropertyOp56
 70
     1
102
RTVSPropertyOp57
 70
     1
102
RTVSPropertyOp58
 70
     1
102
RTVSPropertyOp59
 70
     1
102
RTVSPropertyOp60
 70
     1
102
RTVSPropertyOp61
 70
     1
102
RTVSPropertyOp62
 70
     1
  0
XRECORD
  5
236F4
102
{ACAD_REACTORS
330
236F3
102
}
330
236F3
100
AcDbXrecord
280
     1
102
RTVSPost2010Prop28
280
     0
102
RTVSPost2010PropOp28
 70
     1
102
RTVSPost2010Prop29
280
     1
102
RTVSPost2010PropOp29
 70
     1
102
RTVSPost2010Prop30
280
     1
102
RTVSPost2010PropOp30
 70
     1
102
RTVSPost2010Prop31
280
     0
102
RTVSPost2010PropOp31
 70
     1
102
RTVSPost2010Prop32
280
     0
102
RTVSPost2010PropOp32
 70
     1
102
RTVSPost2010Prop33
280
     0
102
RTVSPost2010PropOp33
 70
     1
102
RTVSPost2010Prop34
280
     0
102
RTVSPost2010PropOp34
 70
     1
102
RTVSPost2010Prop35
280
     0
102
RTVSPost2010PropOp35
 70
     1
102
RTVSPost2010Prop36
280
     0
102
RTVSPost2010PropOp36
 70
     1
102
RTVSPost2010Prop37
 90
       50
102
RTVSPost2010PropOp37
 70
     1
102
RTVSPost2010Prop38
140
0.0
102
RTVSPost2010PropOp38
 70
     1
102
RTVSPost2010Prop39
140
1.0
102
RTVSPost2010PropOp39
 70
     1
102
RTVSPost2010Prop40
 90
        0
102
RTVSPost2010PropOp40
 70
     1
102
RTVSPost2010Prop41ColorIndex
 90
       18
102
RTVSPost2010Prop41ColorRGB
 90
        0
102
RTVSPost2010PropOp41
 70
     1
102
RTVSPost2010Prop42
 90
       50
102
RTVSPost2010PropOp42
 70
     1
102
RTVSPost2010Prop43
 90
        3
102
RTVSPost2010PropOp43
 70
     1
102
RTVSPost2010Prop44ColorIndex
 90
        5
102
RTVSPost2010Prop44ColorRGB
 90
      255
102
RTVSPost2010PropOp44
 70
     1
102
RTVSPost2010Prop45
280
     0
102
RTVSPost2010PropOp45
 70
     1
102
RTVSPost2010Prop46
 90
       50
102
RTVSPost2010PropOp46
 70
     1
102
RTVSPost2010Prop47
 90
       50
102
RTVSPost2010PropOp47
 70
     1
102
RTVSPost2010Prop48
 90
       50
102
RTVSPost2010PropOp48
 70
     1
102
RTVSPost2010Prop49
280
     0
102
RTVSPost2010PropOp49
 70
     1
102
RTVSPost2010Prop50
 90
       50
102
RTVSPost2010PropOp50
 70
     1
102
RTVSPost2010Prop51ColorIndex
 90
      256
102
RTVSPost2010Prop51ColorRGB
 90
-16777216
102
RTVSPost2010PropOp51
 70
     0
102
RTVSPost2010Prop52
140
1.0
102
RTVSPost2010PropOp52
 70
     0
102
RTVSPost2010Prop53
 90
        2
102
RTVSPost2010PropOp53
 70
     1
102
RTVSPost2010Prop54
  1
strokes_ogs.tif
102
RTVSPost2010PropOp54
 70
     1
102
RTVSPost2010Prop55
280
     0
102
RTVSPost2010PropOp55
 70
     1
102
RTVSPost2010Prop56
140
1.0
102
RTVSPost2010PropOp56
 70
     1
102
RTVSPost2010Prop57
140
1.0
102
RTVSPost2010PropOp57
 70
     1
102
RTVSPropertyOp0
 70
     1
102
RTVSPropertyOp1
 70
     1
102
RTVSPropertyOp2
 70
     1
102
RTVSPropertyOp3
 70
     1
102
RTVSPropertyOp4
 70
     1
102
RTVSPropertyOp5
 70
     1
102
RTVSPropertyOp6
 70
     1
102
RTVSPropertyOp7
 70
     1
102
RTVSPropertyOp8
 70
     1
102
RTVSPropertyOp9
 70
     1
102
RTVSPropertyOp10
 70
     1
102
RTVSPropertyOp11
 70
     1
102
RTVSPropertyOp12
 70
     1
102
RTVSPropertyOp13
 70
     1
102
RTVSPropertyOp14
 70
     1
102
RTVSPropertyOp15
 70
     1
102
RTVSPropertyOp16
 70
     1
102
RTVSPropertyOp17
 70
     1
102
RTVSPropertyOp18
 70
     1
102
RTVSPropertyOp19
 70
     1
102
RTVSPropertyOp20
 70
     1
102
RTVSPropertyOp21
 70
     1
102
RTVSPropertyOp22
 70
     1
102
RTVSPropertyOp23
 70
     1
102
RTVSPropertyOp24
 70
     1
102
RTVSPropertyOp25
 70
     1
102
RTVSPropertyOp26
 70
     1
102
RTVSPropertyOp27
 70
     1
102
RTVSPropertyOp28
 70
     1
102
RTVSPropertyOp29
 70
     1
102
RTVSPropertyOp30
 70
     1
102
RTVSPropertyOp31
 70
     1
102
RTVSPropertyOp32
 70
     1
102
RTVSPropertyOp33
 70
     1
102
RTVSPropertyOp34
 70
     1
102
RTVSPropertyOp35
 70
     1
102
RTVSPropertyOp36
 70
     1
102
RTVSPropertyOp37
 70
     1
102
RTVSPropertyOp38
 70
     1
102
RTVSPropertyOp39
 70
     1
102
RTVSPropertyOp40
 70
     1
102
RTVSPropertyOp41
 70
     1
102
RTVSPropertyOp42
 70
     1
102
RTVSPropertyOp43
 70
     1
102
RTVSPropertyOp44
 70
     1
102
RTVSPropertyOp45
 70
     1
102
RTVSPropertyOp46
 70
     1
102
RTVSPropertyOp47
 70
     1
102
RTVSPropertyOp48
 70
     1
102
RTVSPropertyOp49
 70
     1
102
RTVSPropertyOp50
 70
     1
102
RTVSPropertyOp51
 70
     0
102
RTVSPropertyOp52
 70
     0
102
RTVSPropertyOp53
 70
     1
102
RTVSPropertyOp54
 70
     1
102
RTVSPropertyOp55
 70
     1
102
RTVSPropertyOp56
 70
     1
102
RTVSPropertyOp57
 70
     1
102
RTVSPropertyOp58
 70
     1
102
RTVSPropertyOp59
 70
     1
102
RTVSPropertyOp60
 70
     1
102
RTVSPropertyOp61
 70
     1
102
RTVSPropertyOp62
 70
     1
  0
XRECORD
  5
23719
102
{ACAD_REACTORS
330
23718
102
}
330
23718
100
AcDbXrecord
280
     1
102
RTVSPost2010Prop28
280
     0
102
RTVSPost2010PropOp28
 70
     1
102
RTVSPost2010Prop29
280
     1
102
RTVSPost2010PropOp29
 70
     1
102
RTVSPost2010Prop30
280
     1
102
RTVSPost2010PropOp30
 70
     1
102
RTVSPost2010Prop31
280
     0
102
RTVSPost2010PropOp31
 70
     1
102
RTVSPost2010Prop32
280
     0
102
RTVSPost2010PropOp32
 70
     1
102
RTVSPost2010Prop33
280
     0
102
RTVSPost2010PropOp33
 70
     1
102
RTVSPost2010Prop34
280
     0
102
RTVSPost2010PropOp34
 70
     1
102
RTVSPost2010Prop35
280
     0
102
RTVSPost2010PropOp35
 70
     1
102
RTVSPost2010Prop36
280
     0
102
RTVSPost2010PropOp36
 70
     1
102
RTVSPost2010Prop37
 90
       50
102
RTVSPost2010PropOp37
 70
     1
102
RTVSPost2010Prop38
140
0.0
102
RTVSPost2010PropOp38
 70
     1
102
RTVSPost2010Prop39
140
1.0
102
RTVSPost2010PropOp39
 70
     1
102
RTVSPost2010Prop40
 90
        0
102
RTVSPost2010PropOp40
 70
     1
102
RTVSPost2010Prop41ColorIndex
 90
       18
102
RTVSPost2010Prop41ColorRGB
 90
        0
102
RTVSPost2010PropOp41
 70
     1
102
RTVSPost2010Prop42
 90
       50
102
RTVSPost2010PropOp42
 70
     1
102
RTVSPost2010Prop43
 90
        3
102
RTVSPost2010PropOp43
 70
     1
102
RTVSPost2010Prop44ColorIndex
 90
        5
102
RTVSPost2010Prop44ColorRGB
 90
      255
102
RTVSPost2010PropOp44
 70
     1
102
RTVSPost2010Prop45
280
     0
102
RTVSPost2010PropOp45
 70
     1
102
RTVSPost2010Prop46
 90
       50
102
RTVSPost2010PropOp46
 70
     1
102
RTVSPost2010Prop47
 90
       50
102
RTVSPost2010PropOp47
 70
     1
102
RTVSPost2010Prop48
 90
       50
102
RTVSPost2010PropOp48
 70
     1
102
RTVSPost2010Prop49
280
     0
102
RTVSPost2010PropOp49
 70
     1
102
RTVSPost2010Prop50
 90
       50
102
RTVSPost2010PropOp50
 70
     1
102
RTVSPost2010Prop51ColorIndex
 90
      256
102
RTVSPost2010Prop51ColorRGB
 90
-16777216
102
RTVSPost2010PropOp51
 70
     0
102
RTVSPost2010Prop52
140
1.0
102
RTVSPost2010PropOp52
 70
     0
102
RTVSPost2010Prop53
 90
        2
102
RTVSPost2010PropOp53
 70
     1
102
RTVSPost2010Prop54
  1
strokes_ogs.tif
102
RTVSPost2010PropOp54
 70
     1
102
RTVSPost2010Prop55
280
     0
102
RTVSPost2010PropOp55
 70
     1
102
RTVSPost2010Prop56
140
1.0
102
RTVSPost2010PropOp56
 70
     1
102
RTVSPost2010Prop57
140
1.0
102
RTVSPost2010PropOp57
 70
     1
102
RTVSPropertyOp0
 70
     1
102
RTVSPropertyOp1
 70
     1
102
RTVSPropertyOp2
 70
     1
102
RTVSPropertyOp3
 70
     1
102
RTVSPropertyOp4
 70
     1
102
RTVSPropertyOp5
 70
     1
102
RTVSPropertyOp6
 70
     1
102
RTVSPropertyOp7
 70
     1
102
RTVSPropertyOp8
 70
     1
102
RTVSPropertyOp9
 70
     1
102
RTVSPropertyOp10
 70
     1
102
RTVSPropertyOp11
 70
     1
102
RTVSPropertyOp12
 70
     1
102
RTVSPropertyOp13
 70
     1
102
RTVSPropertyOp14
 70
     1
102
RTVSPropertyOp15
 70
     1
102
RTVSPropertyOp16
 70
     1
102
RTVSPropertyOp17
 70
     1
102
RTVSPropertyOp18
 70
     1
102
RTVSPropertyOp19
 70
     1
102
RTVSPropertyOp20
 70
     1
102
RTVSPropertyOp21
 70
     1
102
RTVSPropertyOp22
 70
     1
102
RTVSPropertyOp23
 70
     1
102
RTVSPropertyOp24
 70
     1
102
RTVSPropertyOp25
 70
     1
102
RTVSPropertyOp26
 70
     1
102
RTVSPropertyOp27
 70
     1
102
RTVSPropertyOp28
 70
     1
102
RTVSPropertyOp29
 70
     1
102
RTVSPropertyOp30
 70
     1
102
RTVSPropertyOp31
 70
     1
102
RTVSPropertyOp32
 70
     1
102
RTVSPropertyOp33
 70
     1
102
RTVSPropertyOp34
 70
     1
102
RTVSPropertyOp35
 70
     1
102
RTVSPropertyOp36
 70
     1
102
RTVSPropertyOp37
 70
     1
102
RTVSPropertyOp38
 70
     1
102
RTVSPropertyOp39
 70
     1
102
RTVSPropertyOp40
 70
     1
102
RTVSPropertyOp41
 70
     1
102
RTVSPropertyOp42
 70
     1
102
RTVSPropertyOp43
 70
     1
102
RTVSPropertyOp44
 70
     1
102
RTVSPropertyOp45
 70
     1
102
RTVSPropertyOp46
 70
     1
102
RTVSPropertyOp47
 70
     1
102
RTVSPropertyOp48
 70
     1
102
RTVSPropertyOp49
 70
     1
102
RTVSPropertyOp50
 70
     1
102
RTVSPropertyOp51
 70
     0
102
RTVSPropertyOp52
 70
     0
102
RTVSPropertyOp53
 70
     1
102
RTVSPropertyOp54
 70
     1
102
RTVSPropertyOp55
 70
     1
102
RTVSPropertyOp56
 70
     1
102
RTVSPropertyOp57
 70
     1
102
RTVSPropertyOp58
 70
     1
102
RTVSPropertyOp59
 70
     1
102
RTVSPropertyOp60
 70
     1
102
RTVSPropertyOp61
 70
     1
102
RTVSPropertyOp62
 70
     1
  0
XRECORD
  5
23725
102
{ACAD_REACTORS
330
23724
102
}
330
23724
100
AcDbXrecord
280
     1
102
RTVSPost2010Prop28
280
     0
102
RTVSPost2010PropOp28
 70
     1
102
RTVSPost2010Prop29
280
     1
102
RTVSPost2010PropOp29
 70
     1
102
RTVSPost2010Prop30
280
     1
102
RTVSPost2010PropOp30
 70
     1
102
RTVSPost2010Prop31
280
     0
102
RTVSPost2010PropOp31
 70
     1
102
RTVSPost2010Prop32
280
     0
102
RTVSPost2010PropOp32
 70
     1
102
RTVSPost2010Prop33
280
     0
102
RTVSPost2010PropOp33
 70
     1
102
RTVSPost2010Prop34
280
     0
102
RTVSPost2010PropOp34
 70
     1
102
RTVSPost2010Prop35
280
     0
102
RTVSPost2010PropOp35
 70
     1
102
RTVSPost2010Prop36
280
     0
102
RTVSPost2010PropOp36
 70
     1
102
RTVSPost2010Prop37
 90
       50
102
RTVSPost2010PropOp37
 70
     0
102
RTVSPost2010Prop38
140
0.0
102
RTVSPost2010PropOp38
 70
     0
102
RTVSPost2010Prop39
140
1.0
102
RTVSPost2010PropOp39
 70
     0
102
RTVSPost2010Prop40
 90
        0
102
RTVSPost2010PropOp40
 70
     0
102
RTVSPost2010Prop41ColorIndex
 90
       18
102
RTVSPost2010Prop41ColorRGB
 90
        0
102
RTVSPost2010PropOp41
 70
     0
102
RTVSPost2010Prop42
 90
       50
102
RTVSPost2010PropOp42
 70
     0
102
RTVSPost2010Prop43
 90
        3
102
RTVSPost2010PropOp43
 70
     0
102
RTVSPost2010Prop44ColorIndex
 90
        5
102
RTVSPost2010Prop44ColorRGB
 90
      255
102
RTVSPost2010PropOp44
 70
     0
102
RTVSPost2010Prop45
280
     0
102
RTVSPost2010PropOp45
 70
     1
102
RTVSPost2010Prop46
 90
       50
102
RTVSPost2010PropOp46
 70
     0
102
RTVSPost2010Prop47
 90
       50
102
RTVSPost2010PropOp47
 70
     0
102
RTVSPost2010Prop48
 90
       50
102
RTVSPost2010PropOp48
 70
     0
102
RTVSPost2010Prop49
280
     0
102
RTVSPost2010PropOp49
 70
     1
102
RTVSPost2010Prop50
 90
       50
102
RTVSPost2010PropOp50
 70
     0
102
RTVSPost2010Prop51ColorIndex
 90
      256
102
RTVSPost2010Prop51ColorRGB
 90
-16777216
102
RTVSPost2010PropOp51
 70
     0
102
RTVSPost2010Prop52
140
1.0
102
RTVSPost2010PropOp52
 70
     0
102
RTVSPost2010Prop53
 90
        2
102
RTVSPost2010PropOp53
 70
     0
102
RTVSPost2010Prop54
  1
strokes_ogs.tif
102
RTVSPost2010PropOp54
 70
     0
102
RTVSPost2010Prop55
280
     0
102
RTVSPost2010PropOp55
 70
     1
102
RTVSPost2010Prop56
140
1.0
102
RTVSPost2010PropOp56
 70
     0
102
RTVSPost2010Prop57
140
1.0
102
RTVSPost2010PropOp57
 70
     0
102
RTVSPropertyOp0
 70
     0
102
RTVSPropertyOp1
 70
     0
102
RTVSPropertyOp2
 70
     0
102
RTVSPropertyOp3
 70
     0
102
RTVSPropertyOp4
 70
     0
102
RTVSPropertyOp5
 70
     0
102
RTVSPropertyOp6
 70
     0
102
RTVSPropertyOp7
 70
     0
102
RTVSPropertyOp8
 70
     0
102
RTVSPropertyOp9
 70
     0
102
RTVSPropertyOp10
 70
     0
102
RTVSPropertyOp11
 70
     0
102
RTVSPropertyOp12
 70
     0
102
RTVSPropertyOp13
 70
     0
102
RTVSPropertyOp14
 70
     2
102
RTVSPropertyOp15
 70
     0
102
RTVSPropertyOp16
 70
     0
102
RTVSPropertyOp17
 70
     0
102
RTVSPropertyOp18
 70
     0
102
RTVSPropertyOp19
 70
     0
102
RTVSPropertyOp20
 70
     0
102
RTVSPropertyOp21
 70
     0
102
RTVSPropertyOp22
 70
     0
102
RTVSPropertyOp23
 70
     0
102
RTVSPropertyOp24
 70
     0
102
RTVSPropertyOp25
 70
     0
102
RTVSPropertyOp26
 70
     0
102
RTVSPropertyOp27
 70
     0
102
RTVSPropertyOp28
 70
     1
102
RTVSPropertyOp29
 70
     1
102
RTVSPropertyOp30
 70
     1
102
RTVSPropertyOp31
 70
     1
102
RTVSPropertyOp32
 70
     1
102
RTVSPropertyOp33
 70
     1
102
RTVSPropertyOp34
 70
     1
102
RTVSPropertyOp35
 70
     1
102
RTVSPropertyOp36
 70
     1
102
RTVSPropertyOp37
 70
     0
102
RTVSPropertyOp38
 70
     0
102
RTVSPropertyOp39
 70
     0
102
RTVSPropertyOp40
 70
     0
102
RTVSPropertyOp41
 70
     0
102
RTVSPropertyOp42
 70
     0
102
RTVSPropertyOp43
 70
     0
102
RTVSPropertyOp44
 70
     0
102
RTVSPropertyOp45
 70
     1
102
RTVSPropertyOp46
 70
     0
102
RTVSPropertyOp47
 70
     0
102
RTVSPropertyOp48
 70
     0
102
RTVSPropertyOp49
 70
     1
102
RTVSPropertyOp50
 70
     0
102
RTVSPropertyOp51
 70
     0
102
RTVSPropertyOp52
 70
     0
102
RTVSPropertyOp53
 70
     0
102
RTVSPropertyOp54
 70
     0
102
RTVSPropertyOp55
 70
     1
102
RTVSPropertyOp56
 70
     0
102
RTVSPropertyOp57
 70
     0
102
RTVSPropertyOp58
 70
     1
102
RTVSPropertyOp59
 70
     1
102
RTVSPropertyOp60
 70
     1
102
RTVSPropertyOp61
 70
     1
102
RTVSPropertyOp62
 70
     1
  0
XRECORD
  5
23708
102
{ACAD_REACTORS
330
23707
102
}
330
23707
100
AcDbXrecord
280
     1
102
RTVSPost2010Prop28
280
     0
102
RTVSPost2010PropOp28
 70
     1
102
RTVSPost2010Prop29
280
     1
102
RTVSPost2010PropOp29
 70
     1
102
RTVSPost2010Prop30
280
     1
102
RTVSPost2010PropOp30
 70
     1
102
RTVSPost2010Prop31
280
     0
102
RTVSPost2010PropOp31
 70
     1
102
RTVSPost2010Prop32
280
     0
102
RTVSPost2010PropOp32
 70
     1
102
RTVSPost2010Prop33
280
     0
102
RTVSPost2010PropOp33
 70
     1
102
RTVSPost2010Prop34
280
     0
102
RTVSPost2010PropOp34
 70
     1
102
RTVSPost2010Prop35
280
     0
102
RTVSPost2010PropOp35
 70
     1
102
RTVSPost2010Prop36
280
     0
102
RTVSPost2010PropOp36
 70
     1
102
RTVSPost2010Prop37
 90
       50
102
RTVSPost2010PropOp37
 70
     1
102
RTVSPost2010Prop38
140
0.0
102
RTVSPost2010PropOp38
 70
     1
102
RTVSPost2010Prop39
140
1.0
102
RTVSPost2010PropOp39
 70
     1
102
RTVSPost2010Prop40
 90
        0
102
RTVSPost2010PropOp40
 70
     1
102
RTVSPost2010Prop41ColorIndex
 90
       18
102
RTVSPost2010Prop41ColorRGB
 90
        0
102
RTVSPost2010PropOp41
 70
     1
102
RTVSPost2010Prop42
 90
       50
102
RTVSPost2010PropOp42
 70
     1
102
RTVSPost2010Prop43
 90
        3
102
RTVSPost2010PropOp43
 70
     1
102
RTVSPost2010Prop44ColorIndex
 90
        5
102
RTVSPost2010Prop44ColorRGB
 90
      255
102
RTVSPost2010PropOp44
 70
     1
102
RTVSPost2010Prop45
280
     0
102
RTVSPost2010PropOp45
 70
     1
102
RTVSPost2010Prop46
 90
       50
102
RTVSPost2010PropOp46
 70
     1
102
RTVSPost2010Prop47
 90
       50
102
RTVSPost2010PropOp47
 70
     1
102
RTVSPost2010Prop48
 90
       50
102
RTVSPost2010PropOp48
 70
     1
102
RTVSPost2010Prop49
280
     0
102
RTVSPost2010PropOp49
 70
     1
102
RTVSPost2010Prop50
 90
       50
102
RTVSPost2010PropOp50
 70
     1
102
RTVSPost2010Prop51ColorIndex
 90
      256
102
RTVSPost2010Prop51ColorRGB
 90
-16777216
102
RTVSPost2010PropOp51
 70
     0
102
RTVSPost2010Prop52
140
1.0
102
RTVSPost2010PropOp52
 70
     0
102
RTVSPost2010Prop53
 90
        2
102
RTVSPost2010PropOp53
 70
     1
102
RTVSPost2010Prop54
  1
strokes_ogs.tif
102
RTVSPost2010PropOp54
 70
     1
102
RTVSPost2010Prop55
280
     0
102
RTVSPost2010PropOp55
 70
     1
102
RTVSPost2010Prop56
140
1.0
102
RTVSPost2010PropOp56
 70
     1
102
RTVSPost2010Prop57
140
1.0
102
RTVSPost2010PropOp57
 70
     1
102
RTVSPropertyOp0
 70
     1
102
RTVSPropertyOp1
 70
     1
102
RTVSPropertyOp2
 70
     1
102
RTVSPropertyOp3
 70
     1
102
RTVSPropertyOp4
 70
     1
102
RTVSPropertyOp5
 70
     1
102
RTVSPropertyOp6
 70
     1
102
RTVSPropertyOp7
 70
     1
102
RTVSPropertyOp8
 70
     1
102
RTVSPropertyOp9
 70
     1
102
RTVSPropertyOp10
 70
     1
102
RTVSPropertyOp11
 70
     1
102
RTVSPropertyOp12
 70
     1
102
RTVSPropertyOp13
 70
     1
102
RTVSPropertyOp14
 70
     1
102
RTVSPropertyOp15
 70
     1
102
RTVSPropertyOp16
 70
     1
102
RTVSPropertyOp17
 70
     1
102
RTVSPropertyOp18
 70
     1
102
RTVSPropertyOp19
 70
     1
102
RTVSPropertyOp20
 70
     1
102
RTVSPropertyOp21
 70
     1
102
RTVSPropertyOp22
 70
     1
102
RTVSPropertyOp23
 70
     1
102
RTVSPropertyOp24
 70
     1
102
RTVSPropertyOp25
 70
     1
102
RTVSPropertyOp26
 70
     1
102
RTVSPropertyOp27
 70
     1
102
RTVSPropertyOp28
 70
     1
102
RTVSPropertyOp29
 70
     1
102
RTVSPropertyOp30
 70
     1
102
RTVSPropertyOp31
 70
     1
102
RTVSPropertyOp32
 70
     1
102
RTVSPropertyOp33
 70
     1
102
RTVSPropertyOp34
 70
     1
102
RTVSPropertyOp35
 70
     1
102
RTVSPropertyOp36
 70
     1
102
RTVSPropertyOp37
 70
     1
102
RTVSPropertyOp38
 70
     1
102
RTVSPropertyOp39
 70
     1
102
RTVSPropertyOp40
 70
     1
102
RTVSPropertyOp41
 70
     1
102
RTVSPropertyOp42
 70
     1
102
RTVSPropertyOp43
 70
     1
102
RTVSPropertyOp44
 70
     1
102
RTVSPropertyOp45
 70
     1
102
RTVSPropertyOp46
 70
     1
102
RTVSPropertyOp47
 70
     1
102
RTVSPropertyOp48
 70
     1
102
RTVSPropertyOp49
 70
     1
102
RTVSPropertyOp50
 70
     1
102
RTVSPropertyOp51
 70
     0
102
RTVSPropertyOp52
 70
     0
102
RTVSPropertyOp53
 70
     1
102
RTVSPropertyOp54
 70
     1
102
RTVSPropertyOp55
 70
     1
102
RTVSPropertyOp56
 70
     1
102
RTVSPropertyOp57
 70
     1
102
RTVSPropertyOp58
 70
     1
102
RTVSPropertyOp59
 70
     1
102
RTVSPropertyOp60
 70
     1
102
RTVSPropertyOp61
 70
     1
102
RTVSPropertyOp62
 70
     1
  0
XRECORD
  5
23727
102
{ACAD_REACTORS
330
23726
102
}
330
23726
100
AcDbXrecord
280
     1
102
RTVSPost2010Prop28
280
     0
102
RTVSPost2010PropOp28
 70
     1
102
RTVSPost2010Prop29
280
     1
102
RTVSPost2010PropOp29
 70
     1
102
RTVSPost2010Prop30
280
     1
102
RTVSPost2010PropOp30
 70
     1
102
RTVSPost2010Prop31
280
     0
102
RTVSPost2010PropOp31
 70
     1
102
RTVSPost2010Prop32
280
     0
102
RTVSPost2010PropOp32
 70
     1
102
RTVSPost2010Prop33
280
     0
102
RTVSPost2010PropOp33
 70
     1
102
RTVSPost2010Prop34
280
     0
102
RTVSPost2010PropOp34
 70
     1
102
RTVSPost2010Prop35
280
     0
102
RTVSPost2010PropOp35
 70
     1
102
RTVSPost2010Prop36
280
     0
102
RTVSPost2010PropOp36
 70
     1
102
RTVSPost2010Prop37
 90
       50
102
RTVSPost2010PropOp37
 70
     0
102
RTVSPost2010Prop38
140
0.0
102
RTVSPost2010PropOp38
 70
     0
102
RTVSPost2010Prop39
140
1.0
102
RTVSPost2010PropOp39
 70
     0
102
RTVSPost2010Prop40
 90
        0
102
RTVSPost2010PropOp40
 70
     0
102
RTVSPost2010Prop41ColorIndex
 90
       18
102
RTVSPost2010Prop41ColorRGB
 90
        0
102
RTVSPost2010PropOp41
 70
     0
102
RTVSPost2010Prop42
 90
       50
102
RTVSPost2010PropOp42
 70
     0
102
RTVSPost2010Prop43
 90
        3
102
RTVSPost2010PropOp43
 70
     0
102
RTVSPost2010Prop44ColorIndex
 90
        5
102
RTVSPost2010Prop44ColorRGB
 90
      255
102
RTVSPost2010PropOp44
 70
     0
102
RTVSPost2010Prop45
280
     0
102
RTVSPost2010PropOp45
 70
     1
102
RTVSPost2010Prop46
 90
       50
102
RTVSPost2010PropOp46
 70
     0
102
RTVSPost2010Prop47
 90
       50
102
RTVSPost2010PropOp47
 70
     0
102
RTVSPost2010Prop48
 90
       50
102
RTVSPost2010PropOp48
 70
     0
102
RTVSPost2010Prop49
280
     0
102
RTVSPost2010PropOp49
 70
     1
102
RTVSPost2010Prop50
 90
       50
102
RTVSPost2010PropOp50
 70
     0
102
RTVSPost2010Prop51ColorIndex
 90
      256
102
RTVSPost2010Prop51ColorRGB
 90
-16777216
102
RTVSPost2010PropOp51
 70
     0
102
RTVSPost2010Prop52
140
1.0
102
RTVSPost2010PropOp52
 70
     0
102
RTVSPost2010Prop53
 90
        2
102
RTVSPost2010PropOp53
 70
     0
102
RTVSPost2010Prop54
  1
strokes_ogs.tif
102
RTVSPost2010PropOp54
 70
     0
102
RTVSPost2010Prop55
280
     0
102
RTVSPost2010PropOp55
 70
     1
102
RTVSPost2010Prop56
140
1.0
102
RTVSPost2010PropOp56
 70
     0
102
RTVSPost2010Prop57
140
1.0
102
RTVSPost2010PropOp57
 70
     0
102
RTVSPropertyOp0
 70
     0
102
RTVSPropertyOp1
 70
     0
102
RTVSPropertyOp2
 70
     0
102
RTVSPropertyOp3
 70
     0
102
RTVSPropertyOp4
 70
     0
102
RTVSPropertyOp5
 70
     0
102
RTVSPropertyOp6
 70
     0
102
RTVSPropertyOp7
 70
     0
102
RTVSPropertyOp8
 70
     0
102
RTVSPropertyOp9
 70
     0
102
RTVSPropertyOp10
 70
     0
102
RTVSPropertyOp11
 70
     0
102
RTVSPropertyOp12
 70
     0
102
RTVSPropertyOp13
 70
     0
102
RTVSPropertyOp14
 70
     2
102
RTVSPropertyOp15
 70
     0
102
RTVSPropertyOp16
 70
     0
102
RTVSPropertyOp17
 70
     0
102
RTVSPropertyOp18
 70
     0
102
RTVSPropertyOp19
 70
     0
102
RTVSPropertyOp20
 70
     0
102
RTVSPropertyOp21
 70
     0
102
RTVSPropertyOp22
 70
     0
102
RTVSPropertyOp23
 70
     0
102
RTVSPropertyOp24
 70
     0
102
RTVSPropertyOp25
 70
     0
102
RTVSPropertyOp26
 70
     0
102
RTVSPropertyOp27
 70
     0
102
RTVSPropertyOp28
 70
     1
102
RTVSPropertyOp29
 70
     1
102
RTVSPropertyOp30
 70
     1
102
RTVSPropertyOp31
 70
     1
102
RTVSPropertyOp32
 70
     1
102
RTVSPropertyOp33
 70
     1
102
RTVSPropertyOp34
 70
     1
102
RTVSPropertyOp35
 70
     1
102
RTVSPropertyOp36
 70
     1
102
RTVSPropertyOp37
 70
     0
102
RTVSPropertyOp38
 70
     0
102
RTVSPropertyOp39
 70
     0
102
RTVSPropertyOp40
 70
     0
102
RTVSPropertyOp41
 70
     0
102
RTVSPropertyOp42
 70
     0
102
RTVSPropertyOp43
 70
     0
102
RTVSPropertyOp44
 70
     0
102
RTVSPropertyOp45
 70
     1
102
RTVSPropertyOp46
 70
     0
102
RTVSPropertyOp47
 70
     0
102
RTVSPropertyOp48
 70
     0
102
RTVSPropertyOp49
 70
     1
102
RTVSPropertyOp50
 70
     0
102
RTVSPropertyOp51
 70
     0
102
RTVSPropertyOp52
 70
     0
102
RTVSPropertyOp53
 70
     0
102
RTVSPropertyOp54
 70
     0
102
RTVSPropertyOp55
 70
     1
102
RTVSPropertyOp56
 70
     0
102
RTVSPropertyOp57
 70
     0
102
RTVSPropertyOp58
 70
     1
102
RTVSPropertyOp59
 70
     1
102
RTVSPropertyOp60
 70
     1
102
RTVSPropertyOp61
 70
     1
102
RTVSPropertyOp62
 70
     1
  0
XRECORD
  5
23700
102
{ACAD_REACTORS
330
236FF
102
}
330
236FF
100
AcDbXrecord
280
     1
102
RTVSPost2010Prop28
280
     0
102
RTVSPost2010PropOp28
 70
     1
102
RTVSPost2010Prop29
280
     1
102
RTVSPost2010PropOp29
 70
     1
102
RTVSPost2010Prop30
280
     1
102
RTVSPost2010PropOp30
 70
     1
102
RTVSPost2010Prop31
280
     0
102
RTVSPost2010PropOp31
 70
     1
102
RTVSPost2010Prop32
280
     0
102
RTVSPost2010PropOp32
 70
     1
102
RTVSPost2010Prop33
280
     0
102
RTVSPost2010PropOp33
 70
     1
102
RTVSPost2010Prop34
280
     0
102
RTVSPost2010PropOp34
 70
     1
102
RTVSPost2010Prop35
280
     0
102
RTVSPost2010PropOp35
 70
     1
102
RTVSPost2010Prop36
280
     0
102
RTVSPost2010PropOp36
 70
     1
102
RTVSPost2010Prop37
 90
       50
102
RTVSPost2010PropOp37
 70
     1
102
RTVSPost2010Prop38
140
0.0
102
RTVSPost2010PropOp38
 70
     1
102
RTVSPost2010Prop39
140
1.0
102
RTVSPost2010PropOp39
 70
     1
102
RTVSPost2010Prop40
 90
        0
102
RTVSPost2010PropOp40
 70
     1
102
RTVSPost2010Prop41ColorIndex
 90
       18
102
RTVSPost2010Prop41ColorRGB
 90
        0
102
RTVSPost2010PropOp41
 70
     1
102
RTVSPost2010Prop42
 90
       50
102
RTVSPost2010PropOp42
 70
     1
102
RTVSPost2010Prop43
 90
        3
102
RTVSPost2010PropOp43
 70
     1
102
RTVSPost2010Prop44ColorIndex
 90
        5
102
RTVSPost2010Prop44ColorRGB
 90
      255
102
RTVSPost2010PropOp44
 70
     1
102
RTVSPost2010Prop45
280
     0
102
RTVSPost2010PropOp45
 70
     1
102
RTVSPost2010Prop46
 90
       50
102
RTVSPost2010PropOp46
 70
     1
102
RTVSPost2010Prop47
 90
       50
102
RTVSPost2010PropOp47
 70
     1
102
RTVSPost2010Prop48
 90
       50
102
RTVSPost2010PropOp48
 70
     1
102
RTVSPost2010Prop49
280
     0
102
RTVSPost2010PropOp49
 70
     1
102
RTVSPost2010Prop50
 90
       50
102
RTVSPost2010PropOp50
 70
     1
102
RTVSPost2010Prop51ColorIndex
 90
      256
102
RTVSPost2010Prop51ColorRGB
 90
-16777216
102
RTVSPost2010PropOp51
 70
     0
102
RTVSPost2010Prop52
140
1.0
102
RTVSPost2010PropOp52
 70
     0
102
RTVSPost2010Prop53
 90
        2
102
RTVSPost2010PropOp53
 70
     1
102
RTVSPost2010Prop54
  1
strokes_ogs.tif
102
RTVSPost2010PropOp54
 70
     1
102
RTVSPost2010Prop55
280
     0
102
RTVSPost2010PropOp55
 70
     1
102
RTVSPost2010Prop56
140
1.0
102
RTVSPost2010PropOp56
 70
     1
102
RTVSPost2010Prop57
140
1.0
102
RTVSPost2010PropOp57
 70
     1
102
RTVSPropertyOp0
 70
     1
102
RTVSPropertyOp1
 70
     1
102
RTVSPropertyOp2
 70
     1
102
RTVSPropertyOp3
 70
     1
102
RTVSPropertyOp4
 70
     1
102
RTVSPropertyOp5
 70
     1
102
RTVSPropertyOp6
 70
     1
102
RTVSPropertyOp7
 70
     1
102
RTVSPropertyOp8
 70
     1
102
RTVSPropertyOp9
 70
     1
102
RTVSPropertyOp10
 70
     1
102
RTVSPropertyOp11
 70
     1
102
RTVSPropertyOp12
 70
     1
102
RTVSPropertyOp13
 70
     1
102
RTVSPropertyOp14
 70
     1
102
RTVSPropertyOp15
 70
     1
102
RTVSPropertyOp16
 70
     1
102
RTVSPropertyOp17
 70
     1
102
RTVSPropertyOp18
 70
     1
102
RTVSPropertyOp19
 70
     1
102
RTVSPropertyOp20
 70
     1
102
RTVSPropertyOp21
 70
     1
102
RTVSPropertyOp22
 70
     1
102
RTVSPropertyOp23
 70
     1
102
RTVSPropertyOp24
 70
     1
102
RTVSPropertyOp25
 70
     1
102
RTVSPropertyOp26
 70
     1
102
RTVSPropertyOp27
 70
     1
102
RTVSPropertyOp28
 70
     1
102
RTVSPropertyOp29
 70
     1
102
RTVSPropertyOp30
 70
     1
102
RTVSPropertyOp31
 70
     1
102
RTVSPropertyOp32
 70
     1
102
RTVSPropertyOp33
 70
     1
102
RTVSPropertyOp34
 70
     1
102
RTVSPropertyOp35
 70
     1
102
RTVSPropertyOp36
 70
     1
102
RTVSPropertyOp37
 70
     1
102
RTVSPropertyOp38
 70
     1
102
RTVSPropertyOp39
 70
     1
102
RTVSPropertyOp40
 70
     1
102
RTVSPropertyOp41
 70
     1
102
RTVSPropertyOp42
 70
     1
102
RTVSPropertyOp43
 70
     1
102
RTVSPropertyOp44
 70
     1
102
RTVSPropertyOp45
 70
     1
102
RTVSPropertyOp46
 70
     1
102
RTVSPropertyOp47
 70
     1
102
RTVSPropertyOp48
 70
     1
102
RTVSPropertyOp49
 70
     1
102
RTVSPropertyOp50
 70
     1
102
RTVSPropertyOp51
 70
     0
102
RTVSPropertyOp52
 70
     0
102
RTVSPropertyOp53
 70
     1
102
RTVSPropertyOp54
 70
     1
102
RTVSPropertyOp55
 70
     1
102
RTVSPropertyOp56
 70
     1
102
RTVSPropertyOp57
 70
     1
102
RTVSPropertyOp58
 70
     1
102
RTVSPropertyOp59
 70
     1
102
RTVSPropertyOp60
 70
     1
102
RTVSPropertyOp61
 70
     1
102
RTVSPropertyOp62
 70
     1
  0
XRECORD
  5
23723
102
{ACAD_REACTORS
330
23722
102
}
330
23722
100
AcDbXrecord
280
     1
102
RTVSPost2010Prop28
280
     0
102
RTVSPost2010PropOp28
 70
     1
102
RTVSPost2010Prop29
280
     1
102
RTVSPost2010PropOp29
 70
     1
102
RTVSPost2010Prop30
280
     1
102
RTVSPost2010PropOp30
 70
     1
102
RTVSPost2010Prop31
280
     0
102
RTVSPost2010PropOp31
 70
     1
102
RTVSPost2010Prop32
280
     0
102
RTVSPost2010PropOp32
 70
     1
102
RTVSPost2010Prop33
280
     0
102
RTVSPost2010PropOp33
 70
     1
102
RTVSPost2010Prop34
280
     0
102
RTVSPost2010PropOp34
 70
     1
102
RTVSPost2010Prop35
280
     0
102
RTVSPost2010PropOp35
 70
     1
102
RTVSPost2010Prop36
280
     0
102
RTVSPost2010PropOp36
 70
     1
102
RTVSPost2010Prop37
 90
       50
102
RTVSPost2010PropOp37
 70
     1
102
RTVSPost2010Prop38
140
0.0
102
RTVSPost2010PropOp38
 70
     1
102
RTVSPost2010Prop39
140
1.0
102
RTVSPost2010PropOp39
 70
     1
102
RTVSPost2010Prop40
 90
        0
102
RTVSPost2010PropOp40
 70
     1
102
RTVSPost2010Prop41ColorIndex
 90
       18
102
RTVSPost2010Prop41ColorRGB
 90
        0
102
RTVSPost2010PropOp41
 70
     1
102
RTVSPost2010Prop42
 90
       50
102
RTVSPost2010PropOp42
 70
     1
102
RTVSPost2010Prop43
 90
        3
102
RTVSPost2010PropOp43
 70
     1
102
RTVSPost2010Prop44ColorIndex
 90
        5
102
RTVSPost2010Prop44ColorRGB
 90
      255
102
RTVSPost2010PropOp44
 70
     1
102
RTVSPost2010Prop45
280
     0
102
RTVSPost2010PropOp45
 70
     1
102
RTVSPost2010Prop46
 90
       50
102
RTVSPost2010PropOp46
 70
     1
102
RTVSPost2010Prop47
 90
       50
102
RTVSPost2010PropOp47
 70
     1
102
RTVSPost2010Prop48
 90
       50
102
RTVSPost2010PropOp48
 70
     1
102
RTVSPost2010Prop49
280
     0
102
RTVSPost2010PropOp49
 70
     1
102
RTVSPost2010Prop50
 90
       50
102
RTVSPost2010PropOp50
 70
     1
102
RTVSPost2010Prop51ColorIndex
 90
      256
102
RTVSPost2010Prop51ColorRGB
 90
-16777216
102
RTVSPost2010PropOp51
 70
     0
102
RTVSPost2010Prop52
140
1.0
102
RTVSPost2010PropOp52
 70
     0
102
RTVSPost2010Prop53
 90
        2
102
RTVSPost2010PropOp53
 70
     1
102
RTVSPost2010Prop54
  1
strokes_ogs.tif
102
RTVSPost2010PropOp54
 70
     1
102
RTVSPost2010Prop55
280
     0
102
RTVSPost2010PropOp55
 70
     1
102
RTVSPost2010Prop56
140
1.0
102
RTVSPost2010PropOp56
 70
     1
102
RTVSPost2010Prop57
140
1.0
102
RTVSPost2010PropOp57
 70
     1
102
RTVSPropertyOp0
 70
     1
102
RTVSPropertyOp1
 70
     1
102
RTVSPropertyOp2
 70
     1
102
RTVSPropertyOp3
 70
     1
102
RTVSPropertyOp4
 70
     1
102
RTVSPropertyOp5
 70
     1
102
RTVSPropertyOp6
 70
     1
102
RTVSPropertyOp7
 70
     1
102
RTVSPropertyOp8
 70
     1
102
RTVSPropertyOp9
 70
     1
102
RTVSPropertyOp10
 70
     1
102
RTVSPropertyOp11
 70
     1
102
RTVSPropertyOp12
 70
     1
102
RTVSPropertyOp13
 70
     1
102
RTVSPropertyOp14
 70
     1
102
RTVSPropertyOp15
 70
     1
102
RTVSPropertyOp16
 70
     1
102
RTVSPropertyOp17
 70
     1
102
RTVSPropertyOp18
 70
     1
102
RTVSPropertyOp19
 70
     1
102
RTVSPropertyOp20
 70
     1
102
RTVSPropertyOp21
 70
     1
102
RTVSPropertyOp22
 70
     1
102
RTVSPropertyOp23
 70
     1
102
RTVSPropertyOp24
 70
     1
102
RTVSPropertyOp25
 70
     1
102
RTVSPropertyOp26
 70
     1
102
RTVSPropertyOp27
 70
     1
102
RTVSPropertyOp28
 70
     1
102
RTVSPropertyOp29
 70
     1
102
RTVSPropertyOp30
 70
     1
102
RTVSPropertyOp31
 70
     1
102
RTVSPropertyOp32
 70
     1
102
RTVSPropertyOp33
 70
     1
102
RTVSPropertyOp34
 70
     1
102
RTVSPropertyOp35
 70
     1
102
RTVSPropertyOp36
 70
     1
102
RTVSPropertyOp37
 70
     1
102
RTVSPropertyOp38
 70
     1
102
RTVSPropertyOp39
 70
     1
102
RTVSPropertyOp40
 70
     1
102
RTVSPropertyOp41
 70
     1
102
RTVSPropertyOp42
 70
     1
102
RTVSPropertyOp43
 70
     1
102
RTVSPropertyOp44
 70
     1
102
RTVSPropertyOp45
 70
     1
102
RTVSPropertyOp46
 70
     1
102
RTVSPropertyOp47
 70
     1
102
RTVSPropertyOp48
 70
     1
102
RTVSPropertyOp49
 70
     1
102
RTVSPropertyOp50
 70
     1
102
RTVSPropertyOp51
 70
     0
102
RTVSPropertyOp52
 70
     0
102
RTVSPropertyOp53
 70
     1
102
RTVSPropertyOp54
 70
     1
102
RTVSPropertyOp55
 70
     1
102
RTVSPropertyOp56
 70
     1
102
RTVSPropertyOp57
 70
     1
102
RTVSPropertyOp58
 70
     1
102
RTVSPropertyOp59
 70
     1
102
RTVSPropertyOp60
 70
     1
102
RTVSPropertyOp61
 70
     1
102
RTVSPropertyOp62
 70
     1
  0
XRECORD
  5
23721
102
{ACAD_REACTORS
330
23720
102
}
330
23720
100
AcDbXrecord
280
     1
102
RTVSPost2010Prop28
280
     0
102
RTVSPost2010PropOp28
 70
     1
102
RTVSPost2010Prop29
280
     1
102
RTVSPost2010PropOp29
 70
     1
102
RTVSPost2010Prop30
280
     1
102
RTVSPost2010PropOp30
 70
     1
102
RTVSPost2010Prop31
280
     0
102
RTVSPost2010PropOp31
 70
     1
102
RTVSPost2010Prop32
280
     0
102
RTVSPost2010PropOp32
 70
     1
102
RTVSPost2010Prop33
280
     0
102
RTVSPost2010PropOp33
 70
     1
102
RTVSPost2010Prop34
280
     0
102
RTVSPost2010PropOp34
 70
     1
102
RTVSPost2010Prop35
280
     0
102
RTVSPost2010PropOp35
 70
     1
102
RTVSPost2010Prop36
280
     0
102
RTVSPost2010PropOp36
 70
     1
102
RTVSPost2010Prop37
 90
       50
102
RTVSPost2010PropOp37
 70
     1
102
RTVSPost2010Prop38
140
0.0
102
RTVSPost2010PropOp38
 70
     1
102
RTVSPost2010Prop39
140
1.0
102
RTVSPost2010PropOp39
 70
     1
102
RTVSPost2010Prop40
 90
        0
102
RTVSPost2010PropOp40
 70
     1
102
RTVSPost2010Prop41ColorIndex
 90
       18
102
RTVSPost2010Prop41ColorRGB
 90
        0
102
RTVSPost2010PropOp41
 70
     1
102
RTVSPost2010Prop42
 90
       50
102
RTVSPost2010PropOp42
 70
     1
102
RTVSPost2010Prop43
 90
        3
102
RTVSPost2010PropOp43
 70
     1
102
RTVSPost2010Prop44ColorIndex
 90
        5
102
RTVSPost2010Prop44ColorRGB
 90
      255
102
RTVSPost2010PropOp44
 70
     1
102
RTVSPost2010Prop45
280
     0
102
RTVSPost2010PropOp45
 70
     1
102
RTVSPost2010Prop46
 90
       50
102
RTVSPost2010PropOp46
 70
     1
102
RTVSPost2010Prop47
 90
       50
102
RTVSPost2010PropOp47
 70
     1
102
RTVSPost2010Prop48
 90
       50
102
RTVSPost2010PropOp48
 70
     1
102
RTVSPost2010Prop49
280
     0
102
RTVSPost2010PropOp49
 70
     1
102
RTVSPost2010Prop50
 90
       50
102
RTVSPost2010PropOp50
 70
     1
102
RTVSPost2010Prop51ColorIndex
 90
      256
102
RTVSPost2010Prop51ColorRGB
 90
-16777216
102
RTVSPost2010PropOp51
 70
     0
102
RTVSPost2010Prop52
140
1.0
102
RTVSPost2010PropOp52
 70
     0
102
RTVSPost2010Prop53
 90
        2
102
RTVSPost2010PropOp53
 70
     1
102
RTVSPost2010Prop54
  1
strokes_ogs.tif
102
RTVSPost2010PropOp54
 70
     1
102
RTVSPost2010Prop55
280
     0
102
RTVSPost2010PropOp55
 70
     1
102
RTVSPost2010Prop56
140
1.0
102
RTVSPost2010PropOp56
 70
     1
102
RTVSPost2010Prop57
140
1.0
102
RTVSPost2010PropOp57
 70
     1
102
RTVSPropertyOp0
 70
     1
102
RTVSPropertyOp1
 70
     1
102
RTVSPropertyOp2
 70
     1
102
RTVSPropertyOp3
 70
     1
102
RTVSPropertyOp4
 70
     1
102
RTVSPropertyOp5
 70
     1
102
RTVSPropertyOp6
 70
     1
102
RTVSPropertyOp7
 70
     1
102
RTVSPropertyOp8
 70
     1
102
RTVSPropertyOp9
 70
     1
102
RTVSPropertyOp10
 70
     1
102
RTVSPropertyOp11
 70
     1
102
RTVSPropertyOp12
 70
     1
102
RTVSPropertyOp13
 70
     1
102
RTVSPropertyOp14
 70
     1
102
RTVSPropertyOp15
 70
     1
102
RTVSPropertyOp16
 70
     1
102
RTVSPropertyOp17
 70
     1
102
RTVSPropertyOp18
 70
     1
102
RTVSPropertyOp19
 70
     1
102
RTVSPropertyOp20
 70
     1
102
RTVSPropertyOp21
 70
     1
102
RTVSPropertyOp22
 70
     1
102
RTVSPropertyOp23
 70
     1
102
RTVSPropertyOp24
 70
     1
102
RTVSPropertyOp25
 70
     1
102
RTVSPropertyOp26
 70
     1
102
RTVSPropertyOp27
 70
     1
102
RTVSPropertyOp28
 70
     1
102
RTVSPropertyOp29
 70
     1
102
RTVSPropertyOp30
 70
     1
102
RTVSPropertyOp31
 70
     1
102
RTVSPropertyOp32
 70
     1
102
RTVSPropertyOp33
 70
     1
102
RTVSPropertyOp34
 70
     1
102
RTVSPropertyOp35
 70
     1
102
RTVSPropertyOp36
 70
     1
102
RTVSPropertyOp37
 70
     1
102
RTVSPropertyOp38
 70
     1
102
RTVSPropertyOp39
 70
     1
102
RTVSPropertyOp40
 70
     1
102
RTVSPropertyOp41
 70
     1
102
RTVSPropertyOp42
 70
     1
102
RTVSPropertyOp43
 70
     1
102
RTVSPropertyOp44
 70
     1
102
RTVSPropertyOp45
 70
     1
102
RTVSPropertyOp46
 70
     1
102
RTVSPropertyOp47
 70
     1
102
RTVSPropertyOp48
 70
     1
102
RTVSPropertyOp49
 70
     1
102
RTVSPropertyOp50
 70
     1
102
RTVSPropertyOp51
 70
     0
102
RTVSPropertyOp52
 70
     0
102
RTVSPropertyOp53
 70
     1
102
RTVSPropertyOp54
 70
     1
102
RTVSPropertyOp55
 70
     1
102
RTVSPropertyOp56
 70
     1
102
RTVSPropertyOp57
 70
     1
102
RTVSPropertyOp58
 70
     1
102
RTVSPropertyOp59
 70
     1
102
RTVSPropertyOp60
 70
     1
102
RTVSPropertyOp61
 70
     1
102
RTVSPropertyOp62
 70
     1
  0
XRECORD
  5
2371B
102
{ACAD_REACTORS
330
2371A
102
}
330
2371A
100
AcDbXrecord
280
     1
102
RTVSPost2010Prop28
280
     0
102
RTVSPost2010PropOp28
 70
     1
102
RTVSPost2010Prop29
280
     1
102
RTVSPost2010PropOp29
 70
     1
102
RTVSPost2010Prop30
280
     1
102
RTVSPost2010PropOp30
 70
     1
102
RTVSPost2010Prop31
280
     0
102
RTVSPost2010PropOp31
 70
     1
102
RTVSPost2010Prop32
280
     0
102
RTVSPost2010PropOp32
 70
     1
102
RTVSPost2010Prop33
280
     0
102
RTVSPost2010PropOp33
 70
     1
102
RTVSPost2010Prop34
280
     0
102
RTVSPost2010PropOp34
 70
     1
102
RTVSPost2010Prop35
280
     0
102
RTVSPost2010PropOp35
 70
     1
102
RTVSPost2010Prop36
280
     0
102
RTVSPost2010PropOp36
 70
     1
102
RTVSPost2010Prop37
 90
       50
102
RTVSPost2010PropOp37
 70
     1
102
RTVSPost2010Prop38
140
0.0
102
RTVSPost2010PropOp38
 70
     1
102
RTVSPost2010Prop39
140
1.0
102
RTVSPost2010PropOp39
 70
     1
102
RTVSPost2010Prop40
 90
        0
102
RTVSPost2010PropOp40
 70
     1
102
RTVSPost2010Prop41ColorIndex
 90
       18
102
RTVSPost2010Prop41ColorRGB
 90
        0
102
RTVSPost2010PropOp41
 70
     1
102
RTVSPost2010Prop42
 90
       50
102
RTVSPost2010PropOp42
 70
     1
102
RTVSPost2010Prop43
 90
        3
102
RTVSPost2010PropOp43
 70
     1
102
RTVSPost2010Prop44ColorIndex
 90
        5
102
RTVSPost2010Prop44ColorRGB
 90
      255
102
RTVSPost2010PropOp44
 70
     1
102
RTVSPost2010Prop45
280
     0
102
RTVSPost2010PropOp45
 70
     1
102
RTVSPost2010Prop46
 90
       50
102
RTVSPost2010PropOp46
 70
     1
102
RTVSPost2010Prop47
 90
       50
102
RTVSPost2010PropOp47
 70
     1
102
RTVSPost2010Prop48
 90
       50
102
RTVSPost2010PropOp48
 70
     1
102
RTVSPost2010Prop49
280
     0
102
RTVSPost2010PropOp49
 70
     1
102
RTVSPost2010Prop50
 90
       50
102
RTVSPost2010PropOp50
 70
     1
102
RTVSPost2010Prop51ColorIndex
 90
      256
102
RTVSPost2010Prop51ColorRGB
 90
-16777216
102
RTVSPost2010PropOp51
 70
     0
102
RTVSPost2010Prop52
140
1.0
102
RTVSPost2010PropOp52
 70
     0
102
RTVSPost2010Prop53
 90
        2
102
RTVSPost2010PropOp53
 70
     1
102
RTVSPost2010Prop54
  1
strokes_ogs.tif
102
RTVSPost2010PropOp54
 70
     1
102
RTVSPost2010Prop55
280
     0
102
RTVSPost2010PropOp55
 70
     1
102
RTVSPost2010Prop56
140
1.0
102
RTVSPost2010PropOp56
 70
     1
102
RTVSPost2010Prop57
140
1.0
102
RTVSPost2010PropOp57
 70
     1
102
RTVSPropertyOp0
 70
     1
102
RTVSPropertyOp1
 70
     1
102
RTVSPropertyOp2
 70
     1
102
RTVSPropertyOp3
 70
     1
102
RTVSPropertyOp4
 70
     1
102
RTVSPropertyOp5
 70
     1
102
RTVSPropertyOp6
 70
     1
102
RTVSPropertyOp7
 70
     1
102
RTVSPropertyOp8
 70
     1
102
RTVSPropertyOp9
 70
     1
102
RTVSPropertyOp10
 70
     1
102
RTVSPropertyOp11
 70
     1
102
RTVSPropertyOp12
 70
     1
102
RTVSPropertyOp13
 70
     1
102
RTVSPropertyOp14
 70
     1
102
RTVSPropertyOp15
 70
     1
102
RTVSPropertyOp16
 70
     1
102
RTVSPropertyOp17
 70
     1
102
RTVSPropertyOp18
 70
     1
102
RTVSPropertyOp19
 70
     1
102
RTVSPropertyOp20
 70
     1
102
RTVSPropertyOp21
 70
     1
102
RTVSPropertyOp22
 70
     1
102
RTVSPropertyOp23
 70
     1
102
RTVSPropertyOp24
 70
     1
102
RTVSPropertyOp25
 70
     1
102
RTVSPropertyOp26
 70
     1
102
RTVSPropertyOp27
 70
     1
102
RTVSPropertyOp28
 70
     1
102
RTVSPropertyOp29
 70
     1
102
RTVSPropertyOp30
 70
     1
102
RTVSPropertyOp31
 70
     1
102
RTVSPropertyOp32
 70
     1
102
RTVSPropertyOp33
 70
     1
102
RTVSPropertyOp34
 70
     1
102
RTVSPropertyOp35
 70
     1
102
RTVSPropertyOp36
 70
     1
102
RTVSPropertyOp37
 70
     1
102
RTVSPropertyOp38
 70
     1
102
RTVSPropertyOp39
 70
     1
102
RTVSPropertyOp40
 70
     1
102
RTVSPropertyOp41
 70
     1
102
RTVSPropertyOp42
 70
     1
102
RTVSPropertyOp43
 70
     1
102
RTVSPropertyOp44
 70
     1
102
RTVSPropertyOp45
 70
     1
102
RTVSPropertyOp46
 70
     1
102
RTVSPropertyOp47
 70
     1
102
RTVSPropertyOp48
 70
     1
102
RTVSPropertyOp49
 70
     1
102
RTVSPropertyOp50
 70
     1
102
RTVSPropertyOp51
 70
     0
102
RTVSPropertyOp52
 70
     0
102
RTVSPropertyOp53
 70
     1
102
RTVSPropertyOp54
 70
     1
102
RTVSPropertyOp55
 70
     1
102
RTVSPropertyOp56
 70
     1
102
RTVSPropertyOp57
 70
     1
102
RTVSPropertyOp58
 70
     1
102
RTVSPropertyOp59
 70
     1
102
RTVSPropertyOp60
 70
     1
102
RTVSPropertyOp61
 70
     1
102
RTVSPropertyOp62
 70
     1
  0
XRECORD
  5
2371D
102
{ACAD_REACTORS
330
2371C
102
}
330
2371C
100
AcDbXrecord
280
     1
102
RTVSPost2010Prop28
280
     0
102
RTVSPost2010PropOp28
 70
     1
102
RTVSPost2010Prop29
280
     1
102
RTVSPost2010PropOp29
 70
     1
102
RTVSPost2010Prop30
280
     1
102
RTVSPost2010PropOp30
 70
     1
102
RTVSPost2010Prop31
280
     0
102
RTVSPost2010PropOp31
 70
     1
102
RTVSPost2010Prop32
280
     0
102
RTVSPost2010PropOp32
 70
     1
102
RTVSPost2010Prop33
280
     0
102
RTVSPost2010PropOp33
 70
     1
102
RTVSPost2010Prop34
280
     0
102
RTVSPost2010PropOp34
 70
     1
102
RTVSPost2010Prop35
280
     0
102
RTVSPost2010PropOp35
 70
     1
102
RTVSPost2010Prop36
280
     0
102
RTVSPost2010PropOp36
 70
     1
102
RTVSPost2010Prop37
 90
       50
102
RTVSPost2010PropOp37
 70
     1
102
RTVSPost2010Prop38
140
0.0
102
RTVSPost2010PropOp38
 70
     1
102
RTVSPost2010Prop39
140
1.0
102
RTVSPost2010PropOp39
 70
     1
102
RTVSPost2010Prop40
 90
        0
102
RTVSPost2010PropOp40
 70
     1
102
RTVSPost2010Prop41ColorIndex
 90
       18
102
RTVSPost2010Prop41ColorRGB
 90
        0
102
RTVSPost2010PropOp41
 70
     1
102
RTVSPost2010Prop42
 90
       50
102
RTVSPost2010PropOp42
 70
     1
102
RTVSPost2010Prop43
 90
        3
102
RTVSPost2010PropOp43
 70
     1
102
RTVSPost2010Prop44ColorIndex
 90
        5
102
RTVSPost2010Prop44ColorRGB
 90
      255
102
RTVSPost2010PropOp44
 70
     1
102
RTVSPost2010Prop45
280
     0
102
RTVSPost2010PropOp45
 70
     1
102
RTVSPost2010Prop46
 90
       50
102
RTVSPost2010PropOp46
 70
     1
102
RTVSPost2010Prop47
 90
       50
102
RTVSPost2010PropOp47
 70
     1
102
RTVSPost2010Prop48
 90
       50
102
RTVSPost2010PropOp48
 70
     1
102
RTVSPost2010Prop49
280
     0
102
RTVSPost2010PropOp49
 70
     1
102
RTVSPost2010Prop50
 90
       50
102
RTVSPost2010PropOp50
 70
     1
102
RTVSPost2010Prop51ColorIndex
 90
      256
102
RTVSPost2010Prop51ColorRGB
 90
-16777216
102
RTVSPost2010PropOp51
 70
     0
102
RTVSPost2010Prop52
140
1.0
102
RTVSPost2010PropOp52
 70
     0
102
RTVSPost2010Prop53
 90
        2
102
RTVSPost2010PropOp53
 70
     1
102
RTVSPost2010Prop54
  1
strokes_ogs.tif
102
RTVSPost2010PropOp54
 70
     1
102
RTVSPost2010Prop55
280
     0
102
RTVSPost2010PropOp55
 70
     1
102
RTVSPost2010Prop56
140
1.0
102
RTVSPost2010PropOp56
 70
     1
102
RTVSPost2010Prop57
140
1.0
102
RTVSPost2010PropOp57
 70
     1
102
RTVSPropertyOp0
 70
     1
102
RTVSPropertyOp1
 70
     1
102
RTVSPropertyOp2
 70
     1
102
RTVSPropertyOp3
 70
     1
102
RTVSPropertyOp4
 70
     1
102
RTVSPropertyOp5
 70
     1
102
RTVSPropertyOp6
 70
     1
102
RTVSPropertyOp7
 70
     1
102
RTVSPropertyOp8
 70
     1
102
RTVSPropertyOp9
 70
     1
102
RTVSPropertyOp10
 70
     1
102
RTVSPropertyOp11
 70
     1
102
RTVSPropertyOp12
 70
     1
102
RTVSPropertyOp13
 70
     1
102
RTVSPropertyOp14
 70
     1
102
RTVSPropertyOp15
 70
     1
102
RTVSPropertyOp16
 70
     1
102
RTVSPropertyOp17
 70
     1
102
RTVSPropertyOp18
 70
     1
102
RTVSPropertyOp19
 70
     1
102
RTVSPropertyOp20
 70
     1
102
RTVSPropertyOp21
 70
     1
102
RTVSPropertyOp22
 70
     1
102
RTVSPropertyOp23
 70
     1
102
RTVSPropertyOp24
 70
     1
102
RTVSPropertyOp25
 70
     1
102
RTVSPropertyOp26
 70
     1
102
RTVSPropertyOp27
 70
     1
102
RTVSPropertyOp28
 70
     1
102
RTVSPropertyOp29
 70
     1
102
RTVSPropertyOp30
 70
     1
102
RTVSPropertyOp31
 70
     1
102
RTVSPropertyOp32
 70
     1
102
RTVSPropertyOp33
 70
     1
102
RTVSPropertyOp34
 70
     1
102
RTVSPropertyOp35
 70
     1
102
RTVSPropertyOp36
 70
     1
102
RTVSPropertyOp37
 70
     1
102
RTVSPropertyOp38
 70
     1
102
RTVSPropertyOp39
 70
     1
102
RTVSPropertyOp40
 70
     1
102
RTVSPropertyOp41
 70
     1
102
RTVSPropertyOp42
 70
     1
102
RTVSPropertyOp43
 70
     1
102
RTVSPropertyOp44
 70
     1
102
RTVSPropertyOp45
 70
     1
102
RTVSPropertyOp46
 70
     1
102
RTVSPropertyOp47
 70
     1
102
RTVSPropertyOp48
 70
     1
102
RTVSPropertyOp49
 70
     1
102
RTVSPropertyOp50
 70
     1
102
RTVSPropertyOp51
 70
     0
102
RTVSPropertyOp52
 70
     0
102
RTVSPropertyOp53
 70
     1
102
RTVSPropertyOp54
 70
     1
102
RTVSPropertyOp55
 70
     1
102
RTVSPropertyOp56
 70
     1
102
RTVSPropertyOp57
 70
     1
102
RTVSPropertyOp58
 70
     1
102
RTVSPropertyOp59
 70
     1
102
RTVSPropertyOp60
 70
     1
102
RTVSPropertyOp61
 70
     1
102
RTVSPropertyOp62
 70
     1
  0
XRECORD
  5
23706
102
{ACAD_REACTORS
330
23705
102
}
330
23705
100
AcDbXrecord
280
     1
102
RTVSPost2010Prop28
280
     0
102
RTVSPost2010PropOp28
 70
     1
102
RTVSPost2010Prop29
280
     1
102
RTVSPost2010PropOp29
 70
     1
102
RTVSPost2010Prop30
280
     1
102
RTVSPost2010PropOp30
 70
     1
102
RTVSPost2010Prop31
280
     0
102
RTVSPost2010PropOp31
 70
     1
102
RTVSPost2010Prop32
280
     0
102
RTVSPost2010PropOp32
 70
     1
102
RTVSPost2010Prop33
280
     0
102
RTVSPost2010PropOp33
 70
     1
102
RTVSPost2010Prop34
280
     0
102
RTVSPost2010PropOp34
 70
     1
102
RTVSPost2010Prop35
280
     0
102
RTVSPost2010PropOp35
 70
     1
102
RTVSPost2010Prop36
280
     0
102
RTVSPost2010PropOp36
 70
     1
102
RTVSPost2010Prop37
 90
       50
102
RTVSPost2010PropOp37
 70
     1
102
RTVSPost2010Prop38
140
0.0
102
RTVSPost2010PropOp38
 70
     1
102
RTVSPost2010Prop39
140
1.0
102
RTVSPost2010PropOp39
 70
     1
102
RTVSPost2010Prop40
 90
        0
102
RTVSPost2010PropOp40
 70
     1
102
RTVSPost2010Prop41ColorIndex
 90
       18
102
RTVSPost2010Prop41ColorRGB
 90
        0
102
RTVSPost2010PropOp41
 70
     1
102
RTVSPost2010Prop42
 90
       50
102
RTVSPost2010PropOp42
 70
     1
102
RTVSPost2010Prop43
 90
        3
102
RTVSPost2010PropOp43
 70
     1
102
RTVSPost2010Prop44ColorIndex
 90
        5
102
RTVSPost2010Prop44ColorRGB
 90
      255
102
RTVSPost2010PropOp44
 70
     1
102
RTVSPost2010Prop45
280
     0
102
RTVSPost2010PropOp45
 70
     1
102
RTVSPost2010Prop46
 90
       50
102
RTVSPost2010PropOp46
 70
     1
102
RTVSPost2010Prop47
 90
       50
102
RTVSPost2010PropOp47
 70
     1
102
RTVSPost2010Prop48
 90
       50
102
RTVSPost2010PropOp48
 70
     1
102
RTVSPost2010Prop49
280
     0
102
RTVSPost2010PropOp49
 70
     1
102
RTVSPost2010Prop50
 90
       50
102
RTVSPost2010PropOp50
 70
     1
102
RTVSPost2010Prop51ColorIndex
 90
      256
102
RTVSPost2010Prop51ColorRGB
 90
-16777216
102
RTVSPost2010PropOp51
 70
     0
102
RTVSPost2010Prop52
140
1.0
102
RTVSPost2010PropOp52
 70
     0
102
RTVSPost2010Prop53
 90
        2
102
RTVSPost2010PropOp53
 70
     1
102
RTVSPost2010Prop54
  1
strokes_ogs.tif
102
RTVSPost2010PropOp54
 70
     1
102
RTVSPost2010Prop55
280
     0
102
RTVSPost2010PropOp55
 70
     1
102
RTVSPost2010Prop56
140
1.0
102
RTVSPost2010PropOp56
 70
     1
102
RTVSPost2010Prop57
140
1.0
102
RTVSPost2010PropOp57
 70
     1
102
RTVSPropertyOp0
 70
     1
102
RTVSPropertyOp1
 70
     1
102
RTVSPropertyOp2
 70
     1
102
RTVSPropertyOp3
 70
     1
102
RTVSPropertyOp4
 70
     1
102
RTVSPropertyOp5
 70
     1
102
RTVSPropertyOp6
 70
     1
102
RTVSPropertyOp7
 70
     1
102
RTVSPropertyOp8
 70
     1
102
RTVSPropertyOp9
 70
     1
102
RTVSPropertyOp10
 70
     1
102
RTVSPropertyOp11
 70
     1
102
RTVSPropertyOp12
 70
     1
102
RTVSPropertyOp13
 70
     1
102
RTVSPropertyOp14
 70
     1
102
RTVSPropertyOp15
 70
     1
102
RTVSPropertyOp16
 70
     1
102
RTVSPropertyOp17
 70
     1
102
RTVSPropertyOp18
 70
     1
102
RTVSPropertyOp19
 70
     1
102
RTVSPropertyOp20
 70
     1
102
RTVSPropertyOp21
 70
     1
102
RTVSPropertyOp22
 70
     1
102
RTVSPropertyOp23
 70
     1
102
RTVSPropertyOp24
 70
     1
102
RTVSPropertyOp25
 70
     1
102
RTVSPropertyOp26
 70
     1
102
RTVSPropertyOp27
 70
     1
102
RTVSPropertyOp28
 70
     1
102
RTVSPropertyOp29
 70
     1
102
RTVSPropertyOp30
 70
     1
102
RTVSPropertyOp31
 70
     1
102
RTVSPropertyOp32
 70
     1
102
RTVSPropertyOp33
 70
     1
102
RTVSPropertyOp34
 70
     1
102
RTVSPropertyOp35
 70
     1
102
RTVSPropertyOp36
 70
     1
102
RTVSPropertyOp37
 70
     1
102
RTVSPropertyOp38
 70
     1
102
RTVSPropertyOp39
 70
     1
102
RTVSPropertyOp40
 70
     1
102
RTVSPropertyOp41
 70
     1
102
RTVSPropertyOp42
 70
     1
102
RTVSPropertyOp43
 70
     1
102
RTVSPropertyOp44
 70
     1
102
RTVSPropertyOp45
 70
     1
102
RTVSPropertyOp46
 70
     1
102
RTVSPropertyOp47
 70
     1
102
RTVSPropertyOp48
 70
     1
102
RTVSPropertyOp49
 70
     1
102
RTVSPropertyOp50
 70
     1
102
RTVSPropertyOp51
 70
     0
102
RTVSPropertyOp52
 70
     0
102
RTVSPropertyOp53
 70
     1
102
RTVSPropertyOp54
 70
     1
102
RTVSPropertyOp55
 70
     1
102
RTVSPropertyOp56
 70
     1
102
RTVSPropertyOp57
 70
     1
102
RTVSPropertyOp58
 70
     1
102
RTVSPropertyOp59
 70
     1
102
RTVSPropertyOp60
 70
     1
102
RTVSPropertyOp61
 70
     1
102
RTVSPropertyOp62
 70
     1
  0
XRECORD
  5
23717
102
{ACAD_REACTORS
330
23716
102
}
330
23716
100
AcDbXrecord
280
     1
102
RTVSPost2010Prop28
280
     0
102
RTVSPost2010PropOp28
 70
     1
102
RTVSPost2010Prop29
280
     1
102
RTVSPost2010PropOp29
 70
     1
102
RTVSPost2010Prop30
280
     1
102
RTVSPost2010PropOp30
 70
     1
102
RTVSPost2010Prop31
280
     0
102
RTVSPost2010PropOp31
 70
     1
102
RTVSPost2010Prop32
280
     0
102
RTVSPost2010PropOp32
 70
     1
102
RTVSPost2010Prop33
280
     0
102
RTVSPost2010PropOp33
 70
     1
102
RTVSPost2010Prop34
280
     0
102
RTVSPost2010PropOp34
 70
     1
102
RTVSPost2010Prop35
280
     0
102
RTVSPost2010PropOp35
 70
     1
102
RTVSPost2010Prop36
280
     0
102
RTVSPost2010PropOp36
 70
     1
102
RTVSPost2010Prop37
 90
       50
102
RTVSPost2010PropOp37
 70
     1
102
RTVSPost2010Prop38
140
0.0
102
RTVSPost2010PropOp38
 70
     1
102
RTVSPost2010Prop39
140
1.0
102
RTVSPost2010PropOp39
 70
     1
102
RTVSPost2010Prop40
 90
        0
102
RTVSPost2010PropOp40
 70
     1
102
RTVSPost2010Prop41ColorIndex
 90
       18
102
RTVSPost2010Prop41ColorRGB
 90
        0
102
RTVSPost2010PropOp41
 70
     1
102
RTVSPost2010Prop42
 90
       50
102
RTVSPost2010PropOp42
 70
     1
102
RTVSPost2010Prop43
 90
        3
102
RTVSPost2010PropOp43
 70
     1
102
RTVSPost2010Prop44ColorIndex
 90
        5
102
RTVSPost2010Prop44ColorRGB
 90
      255
102
RTVSPost2010PropOp44
 70
     1
102
RTVSPost2010Prop45
280
     0
102
RTVSPost2010PropOp45
 70
     1
102
RTVSPost2010Prop46
 90
       50
102
RTVSPost2010PropOp46
 70
     1
102
RTVSPost2010Prop47
 90
       50
102
RTVSPost2010PropOp47
 70
     1
102
RTVSPost2010Prop48
 90
       50
102
RTVSPost2010PropOp48
 70
     1
102
RTVSPost2010Prop49
280
     0
102
RTVSPost2010PropOp49
 70
     1
102
RTVSPost2010Prop50
 90
       50
102
RTVSPost2010PropOp50
 70
     1
102
RTVSPost2010Prop51ColorIndex
 90
      256
102
RTVSPost2010Prop51ColorRGB
 90
-16777216
102
RTVSPost2010PropOp51
 70
     0
102
RTVSPost2010Prop52
140
1.0
102
RTVSPost2010PropOp52
 70
     0
102
RTVSPost2010Prop53
 90
        2
102
RTVSPost2010PropOp53
 70
     1
102
RTVSPost2010Prop54
  1
strokes_ogs.tif
102
RTVSPost2010PropOp54
 70
     1
102
RTVSPost2010Prop55
280
     0
102
RTVSPost2010PropOp55
 70
     1
102
RTVSPost2010Prop56
140
1.0
102
RTVSPost2010PropOp56
 70
     1
102
RTVSPost2010Prop57
140
1.0
102
RTVSPost2010PropOp57
 70
     1
102
RTVSPropertyOp0
 70
     1
102
RTVSPropertyOp1
 70
     1
102
RTVSPropertyOp2
 70
     1
102
RTVSPropertyOp3
 70
     1
102
RTVSPropertyOp4
 70
     1
102
RTVSPropertyOp5
 70
     1
102
RTVSPropertyOp6
 70
     1
102
RTVSPropertyOp7
 70
     1
102
RTVSPropertyOp8
 70
     1
102
RTVSPropertyOp9
 70
     1
102
RTVSPropertyOp10
 70
     1
102
RTVSPropertyOp11
 70
     1
102
RTVSPropertyOp12
 70
     1
102
RTVSPropertyOp13
 70
     1
102
RTVSPropertyOp14
 70
     1
102
RTVSPropertyOp15
 70
     1
102
RTVSPropertyOp16
 70
     1
102
RTVSPropertyOp17
 70
     1
102
RTVSPropertyOp18
 70
     1
102
RTVSPropertyOp19
 70
     1
102
RTVSPropertyOp20
 70
     1
102
RTVSPropertyOp21
 70
     1
102
RTVSPropertyOp22
 70
     1
102
RTVSPropertyOp23
 70
     1
102
RTVSPropertyOp24
 70
     1
102
RTVSPropertyOp25
 70
     1
102
RTVSPropertyOp26
 70
     1
102
RTVSPropertyOp27
 70
     1
102
RTVSPropertyOp28
 70
     1
102
RTVSPropertyOp29
 70
     1
102
RTVSPropertyOp30
 70
     1
102
RTVSPropertyOp31
 70
     1
102
RTVSPropertyOp32
 70
     1
102
RTVSPropertyOp33
 70
     1
102
RTVSPropertyOp34
 70
     1
102
RTVSPropertyOp35
 70
     1
102
RTVSPropertyOp36
 70
     1
102
RTVSPropertyOp37
 70
     1
102
RTVSPropertyOp38
 70
     1
102
RTVSPropertyOp39
 70
     1
102
RTVSPropertyOp40
 70
     1
102
RTVSPropertyOp41
 70
     1
102
RTVSPropertyOp42
 70
     1
102
RTVSPropertyOp43
 70
     1
102
RTVSPropertyOp44
 70
     1
102
RTVSPropertyOp45
 70
     1
102
RTVSPropertyOp46
 70
     1
102
RTVSPropertyOp47
 70
     1
102
RTVSPropertyOp48
 70
     1
102
RTVSPropertyOp49
 70
     1
102
RTVSPropertyOp50
 70
     1
102
RTVSPropertyOp51
 70
     0
102
RTVSPropertyOp52
 70
     0
102
RTVSPropertyOp53
 70
     1
102
RTVSPropertyOp54
 70
     1
102
RTVSPropertyOp55
 70
     1
102
RTVSPropertyOp56
 70
     1
102
RTVSPropertyOp57
 70
     1
102
RTVSPropertyOp58
 70
     1
102
RTVSPropertyOp59
 70
     1
102
RTVSPropertyOp60
 70
     1
102
RTVSPropertyOp61
 70
     1
102
RTVSPropertyOp62
 70
     1
  0
XRECORD
  5
2371F
102
{ACAD_REACTORS
330
2371E
102
}
330
2371E
100
AcDbXrecord
280
     1
102
RTVSPost2010Prop28
280
     0
102
RTVSPost2010PropOp28
 70
     1
102
RTVSPost2010Prop29
280
     1
102
RTVSPost2010PropOp29
 70
     1
102
RTVSPost2010Prop30
280
     1
102
RTVSPost2010PropOp30
 70
     1
102
RTVSPost2010Prop31
280
     0
102
RTVSPost2010PropOp31
 70
     1
102
RTVSPost2010Prop32
280
     0
102
RTVSPost2010PropOp32
 70
     1
102
RTVSPost2010Prop33
280
     0
102
RTVSPost2010PropOp33
 70
     1
102
RTVSPost2010Prop34
280
     0
102
RTVSPost2010PropOp34
 70
     1
102
RTVSPost2010Prop35
280
     0
102
RTVSPost2010PropOp35
 70
     1
102
RTVSPost2010Prop36
280
     0
102
RTVSPost2010PropOp36
 70
     1
102
RTVSPost2010Prop37
 90
       50
102
RTVSPost2010PropOp37
 70
     1
102
RTVSPost2010Prop38
140
0.0
102
RTVSPost2010PropOp38
 70
     1
102
RTVSPost2010Prop39
140
1.0
102
RTVSPost2010PropOp39
 70
     1
102
RTVSPost2010Prop40
 90
        0
102
RTVSPost2010PropOp40
 70
     1
102
RTVSPost2010Prop41ColorIndex
 90
       18
102
RTVSPost2010Prop41ColorRGB
 90
        0
102
RTVSPost2010PropOp41
 70
     1
102
RTVSPost2010Prop42
 90
       50
102
RTVSPost2010PropOp42
 70
     1
102
RTVSPost2010Prop43
 90
        3
102
RTVSPost2010PropOp43
 70
     1
102
RTVSPost2010Prop44ColorIndex
 90
        5
102
RTVSPost2010Prop44ColorRGB
 90
      255
102
RTVSPost2010PropOp44
 70
     1
102
RTVSPost2010Prop45
280
     0
102
RTVSPost2010PropOp45
 70
     1
102
RTVSPost2010Prop46
 90
       50
102
RTVSPost2010PropOp46
 70
     1
102
RTVSPost2010Prop47
 90
       50
102
RTVSPost2010PropOp47
 70
     1
102
RTVSPost2010Prop48
 90
       50
102
RTVSPost2010PropOp48
 70
     1
102
RTVSPost2010Prop49
280
     0
102
RTVSPost2010PropOp49
 70
     1
102
RTVSPost2010Prop50
 90
       50
102
RTVSPost2010PropOp50
 70
     1
102
RTVSPost2010Prop51ColorIndex
 90
      256
102
RTVSPost2010Prop51ColorRGB
 90
-16777216
102
RTVSPost2010PropOp51
 70
     0
102
RTVSPost2010Prop52
140
1.0
102
RTVSPost2010PropOp52
 70
     0
102
RTVSPost2010Prop53
 90
        2
102
RTVSPost2010PropOp53
 70
     1
102
RTVSPost2010Prop54
  1
strokes_ogs.tif
102
RTVSPost2010PropOp54
 70
     1
102
RTVSPost2010Prop55
280
     0
102
RTVSPost2010PropOp55
 70
     1
102
RTVSPost2010Prop56
140
1.0
102
RTVSPost2010PropOp56
 70
     1
102
RTVSPost2010Prop57
140
1.0
102
RTVSPost2010PropOp57
 70
     1
102
RTVSPropertyOp0
 70
     1
102
RTVSPropertyOp1
 70
     1
102
RTVSPropertyOp2
 70
     1
102
RTVSPropertyOp3
 70
     1
102
RTVSPropertyOp4
 70
     1
102
RTVSPropertyOp5
 70
     1
102
RTVSPropertyOp6
 70
     1
102
RTVSPropertyOp7
 70
     1
102
RTVSPropertyOp8
 70
     1
102
RTVSPropertyOp9
 70
     1
102
RTVSPropertyOp10
 70
     1
102
RTVSPropertyOp11
 70
     1
102
RTVSPropertyOp12
 70
     1
102
RTVSPropertyOp13
 70
     1
102
RTVSPropertyOp14
 70
     1
102
RTVSPropertyOp15
 70
     1
102
RTVSPropertyOp16
 70
     1
102
RTVSPropertyOp17
 70
     1
102
RTVSPropertyOp18
 70
     1
102
RTVSPropertyOp19
 70
     1
102
RTVSPropertyOp20
 70
     1
102
RTVSPropertyOp21
 70
     1
102
RTVSPropertyOp22
 70
     1
102
RTVSPropertyOp23
 70
     1
102
RTVSPropertyOp24
 70
     1
102
RTVSPropertyOp25
 70
     1
102
RTVSPropertyOp26
 70
     1
102
RTVSPropertyOp27
 70
     1
102
RTVSPropertyOp28
 70
     1
102
RTVSPropertyOp29
 70
     1
102
RTVSPropertyOp30
 70
     1
102
RTVSPropertyOp31
 70
     1
102
RTVSPropertyOp32
 70
     1
102
RTVSPropertyOp33
 70
     1
102
RTVSPropertyOp34
 70
     1
102
RTVSPropertyOp35
 70
     1
102
RTVSPropertyOp36
 70
     1
102
RTVSPropertyOp37
 70
     1
102
RTVSPropertyOp38
 70
     1
102
RTVSPropertyOp39
 70
     1
102
RTVSPropertyOp40
 70
     1
102
RTVSPropertyOp41
 70
     1
102
RTVSPropertyOp42
 70
     1
102
RTVSPropertyOp43
 70
     1
102
RTVSPropertyOp44
 70
     1
102
RTVSPropertyOp45
 70
     1
102
RTVSPropertyOp46
 70
     1
102
RTVSPropertyOp47
 70
     1
102
RTVSPropertyOp48
 70
     1
102
RTVSPropertyOp49
 70
     1
102
RTVSPropertyOp50
 70
     1
102
RTVSPropertyOp51
 70
     0
102
RTVSPropertyOp52
 70
     0
102
RTVSPropertyOp53
 70
     1
102
RTVSPropertyOp54
 70
     1
102
RTVSPropertyOp55
 70
     1
102
RTVSPropertyOp56
 70
     1
102
RTVSPropertyOp57
 70
     1
102
RTVSPropertyOp58
 70
     1
102
RTVSPropertyOp59
 70
     1
102
RTVSPropertyOp60
 70
     1
102
RTVSPropertyOp61
 70
     1
102
RTVSPropertyOp62
 70
     1
  0
ENDSEC
  0
EOF
